  0
SECTION
  2
HEADER
  9
$ACADVER
  1
AC1015
  9
$ACADMAINTVER
 70
    20
  9
$DWGCODEPAGE
  3
ANSI_950
  9
$INSBASE
 10
0.0
 20
0.0
 30
0.0
  9
$EXTMIN
 10
636.5888285060369
 20
52.58852823838278
 30
0.0
  9
$EXTMAX
 10
870.6012348676269
 20
206.8136541750342
 30
120.2166306851784
  9
$LIMMIN
 10
0.0
 20
0.0
  9
$LIMMAX
 10
420.0
 20
297.0
  9
$ORTHOMODE
 70
     0
  9
$REGENMODE
 70
     1
  9
$FILLMODE
 70
     1
  9
$QTEXTMODE
 70
     0
  9
$MIRRTEXT
 70
     1
  9
$LTSCALE
 40
1.0
  9
$ATTMODE
 70
     1
  9
$TEXTSIZE
 40
3.0
  9
$TRACEWID
 40
1.0
  9
$TEXTSTYLE
  7
STANDARD
  9
$CLAYER
  8
AM_REFDIM
  9
$CELTYPE
  6
ByLayer
  9
$CECOLOR
 62
   256
  9
$CELTSCALE
 40
1.0
  9
$DISPSILH
 70
     0
  9
$DIMSCALE
 40
1.0
  9
$DIMASZ
 40
3.5
  9
$DIMEXO
 40
1.0
  9
$DIMDLI
 40
12.0
  9
$DIMRND
 40
0.0
  9
$DIMDLE
 40
0.0
  9
$DIMEXE
 40
1.0
  9
$DIMTP
 40
0.1
  9
$DIMTM
 40
0.1
  9
$DIMTXT
 40
3.5
  9
$DIMCEN
 40
0.0
  9
$DIMTSZ
 40
0.0
  9
$DIMTOL
 70
     0
  9
$DIMLIM
 70
     0
  9
$DIMTIH
 70
     0
  9
$DIMTOH
 70
     0
  9
$DIMSE1
 70
     0
  9
$DIMSE2
 70
     0
  9
$DIMTAD
 70
     1
  9
$DIMZIN
 70
     8
  9
$DIMBLK
  1

  9
$DIMASO
 70
     1
  9
$DIMSHO
 70
     1
  9
$DIMPOST
  1

  9
$DIMAPOST
  1
"
  9
$DIMALT
 70
     0
  9
$DIMALTD
 70
     2
  9
$DIMALTF
 40
0.0393701
  9
$DIMLFAC
 40
1.0
  9
$DIMTOFL
 70
     1
  9
$DIMTVP
 40
0.0
  9
$DIMTIX
 70
     0
  9
$DIMSOXD
 70
     0
  9
$DIMSAH
 70
     0
  9
$DIMBLK1
  1

  9
$DIMBLK2
  1

  9
$DIMSTYLE
  2
AM_ISO
  9
$DIMCLRD
 70
   256
  9
$DIMCLRE
 70
   256
  9
$DIMCLRT
 70
   256
  9
$DIMTFAC
 40
0.6
  9
$DIMGAP
 40
1.0
  9
$DIMJUST
 70
     0
  9
$DIMSD1
 70
     0
  9
$DIMSD2
 70
     0
  9
$DIMTOLJ
 70
     0
  9
$DIMTZIN
 70
     8
  9
$DIMALTZ
 70
     0
  9
$DIMALTTZ
 70
     0
  9
$DIMUPT
 70
     0
  9
$DIMDEC
 70
     0
  9
$DIMTDEC
 70
     8
  9
$DIMALTU
 70
     2
  9
$DIMALTTD
 70
     2
  9
$DIMTXSTY
  7
STANDARD
  9
$DIMAUNIT
 70
     0
  9
$DIMADEC
 70
     0
  9
$DIMALTRND
 40
0.0
  9
$DIMAZIN
 70
     2
  9
$DIMDSEP
 70
    46
  9
$DIMATFIT
 70
     3
  9
$DIMFRAC
 70
     0
  9
$DIMLDRBLK
  1

  9
$DIMLUNIT
 70
     2
  9
$DIMLWD
 70
    -1
  9
$DIMLWE
 70
    -1
  9
$DIMTMOVE
 70
     0
  9
$LUNITS
 70
     2
  9
$LUPREC
 70
     2
  9
$SKETCHINC
 40
1.0
  9
$FILLETRAD
 40
2.5
  9
$AUNITS
 70
     0
  9
$AUPREC
 70
     0
  9
$MENU
  1
.
  9
$ELEVATION
 40
0.0
  9
$PELEVATION
 40
0.0
  9
$THICKNESS
 40
0.0
  9
$LIMCHECK
 70
     0
  9
$CHAMFERA
 40
0.2
  9
$CHAMFERB
 40
0.2
  9
$CHAMFERC
 40
20.0
  9
$CHAMFERD
 40
0.0
  9
$SKPOLY
 70
     0
  9
$TDCREATE
 40
2454422.344345151
  9
$TDUCREATE
 40
2454422.011011817
  9
$TDUPDATE
 40
2456140.359271736
  9
$TDUUPDATE
 40
2456140.025938403
  9
$TDINDWG
 40
1.1123902546
  9
$TDUSRTIMER
 40
1.1123902546
  9
$USRTIMER
 70
     1
  9
$ANGBASE
 50
0.0
  9
$ANGDIR
 70
     0
  9
$PDMODE
 70
     0
  9
$PDSIZE
 40
0.0
  9
$PLINEWID
 40
0.0
  9
$SPLFRAME
 70
     0
  9
$SPLINETYPE
 70
     6
  9
$SPLINESEGS
 70
     8
  9
$HANDSEED
  5
BC14
  9
$SURFTAB1
 70
     6
  9
$SURFTAB2
 70
     6
  9
$SURFTYPE
 70
     6
  9
$SURFU
 70
     6
  9
$SURFV
 70
     6
  9
$UCSBASE
  2

  9
$UCSNAME
  2

  9
$UCSORG
 10
0.0
 20
0.0
 30
0.0
  9
$UCSXDIR
 10
1.0
 20
0.0
 30
0.0
  9
$UCSYDIR
 10
0.0
 20
1.0
 30
0.0
  9
$UCSORTHOREF
  2

  9
$UCSORTHOVIEW
 70
     0
  9
$UCSORGTOP
 10
0.0
 20
0.0
 30
0.0
  9
$UCSORGBOTTOM
 10
0.0
 20
0.0
 30
0.0
  9
$UCSORGLEFT
 10
0.0
 20
0.0
 30
0.0
  9
$UCSORGRIGHT
 10
0.0
 20
0.0
 30
0.0
  9
$UCSORGFRONT
 10
0.0
 20
0.0
 30
0.0
  9
$UCSORGBACK
 10
0.0
 20
0.0
 30
0.0
  9
$PUCSBASE
  2

  9
$PUCSNAME
  2

  9
$PUCSORG
 10
0.0
 20
0.0
 30
0.0
  9
$PUCSXDIR
 10
1.0
 20
0.0
 30
0.0
  9
$PUCSYDIR
 10
0.0
 20
1.0
 30
0.0
  9
$PUCSORTHOREF
  2

  9
$PUCSORTHOVIEW
 70
     0
  9
$PUCSORGTOP
 10
0.0
 20
0.0
 30
0.0
  9
$PUCSORGBOTTOM
 10
0.0
 20
0.0
 30
0.0
  9
$PUCSORGLEFT
 10
0.0
 20
0.0
 30
0.0
  9
$PUCSORGRIGHT
 10
0.0
 20
0.0
 30
0.0
  9
$PUCSORGFRONT
 10
0.0
 20
0.0
 30
0.0
  9
$PUCSORGBACK
 10
0.0
 20
0.0
 30
0.0
  9
$USERI1
 70
     0
  9
$USERI2
 70
     0
  9
$USERI3
 70
     0
  9
$USERI4
 70
     0
  9
$USERI5
 70
     0
  9
$USERR1
 40
0.0
  9
$USERR2
 40
0.0
  9
$USERR3
 40
0.0
  9
$USERR4
 40
0.0
  9
$USERR5
 40
0.0
  9
$WORLDVIEW
 70
     1
  9
$SHADEDGE
 70
     3
  9
$SHADEDIF
 70
    70
  9
$TILEMODE
 70
     1
  9
$MAXACTVP
 70
    64
  9
$PINSBASE
 10
0.0
 20
0.0
 30
0.0
  9
$PLIMCHECK
 70
     0
  9
$PEXTMIN
 10
1.000000000000000E+20
 20
1.000000000000000E+20
 30
1.000000000000000E+20
  9
$PEXTMAX
 10
-1.000000000000000E+20
 20
-1.000000000000000E+20
 30
-1.000000000000000E+20
  9
$PLIMMIN
 10
0.0
 20
0.0
  9
$PLIMMAX
 10
420.0
 20
297.0
  9
$UNITMODE
 70
     0
  9
$VISRETAIN
 70
     1
  9
$PLINEGEN
 70
     0
  9
$PSLTSCALE
 70
     1
  9
$TREEDEPTH
 70
  3020
  9
$CMLSTYLE
  2
Standard
  9
$CMLJUST
 70
     0
  9
$CMLSCALE
 40
20.0
  9
$PROXYGRAPHICS
 70
     1
  9
$MEASUREMENT
 70
     1
  9
$CELWEIGHT
370
    -1
  9
$ENDCAPS
280
     0
  9
$JOINSTYLE
280
     0
  9
$LWDISPLAY
290
     0
  9
$INSUNITS
 70
     4
  9
$HYPERLINKBASE
  1

  9
$STYLESHEET
  1
acad.ctb
  9
$XEDIT
290
     1
  9
$CEPSNTYPE
380
     0
  9
$PSTYLEMODE
290
     1
  9
$FINGERPRINTGUID
  2
{B705A112-77C7-4534-AADA-B7988B84DA3D}
  9
$VERSIONGUID
  2
{865785C2-30FC-442B-A9B4-626B44EB722C}
  9
$EXTNAMES
290
     1
  9
$PSVPSCALE
 40
0.0
  9
$OLESTARTUP
290
     0
  0
ENDSEC
  0
SECTION
  2
CLASSES
  0
CLASS
  1
ACDBDICTIONARYWDFLT
  2
AcDbDictionaryWithDefault
  3
ObjectDBX Classes
 90
        0
280
     0
281
     0
  0
CLASS
  1
ACDBPLACEHOLDER
  2
AcDbPlaceHolder
  3
ObjectDBX Classes
 90
        0
280
     0
281
     0
  0
CLASS
  1
LAYOUT
  2
AcDbLayout
  3
ObjectDBX Classes
 90
        0
280
     0
281
     0
  0
CLASS
  1
ACME_DOCUMENT
  2
AcMeDbDoc
  3
AcMeServices
 90
        0
280
     0
281
     0
  0
CLASS
  1
AMGSETTINGSOBJ
  2
AmgSettingsObj
  3
"AcadM|Product Description: AutoCAD Mechanical 2000|Company: Autodesk"
 90
        0
280
     0
281
     0
  0
CLASS
  1
ACMESCOPE
  2
AcMeScope
  3
AcMeServices
 90
        0
280
     0
281
     0
  0
CLASS
  1
ACMECOMMANDHISTORY
  2
AcMeCommandHistory
  3
AcMeServices
 90
        0
280
     0
281
     0
  0
CLASS
  1
ACIMSYSVARMAN
  2
AcImSysVarManager
  3
AcMeServices
 90
        0
280
     0
281
     0
  0
CLASS
  1
ACIMREALSYSVAR
  2
AcImRealSysVar
  3
AcMeServices
 90
        0
280
     0
281
     0
  0
CLASS
  1
ACIMINTSYSVAR
  2
AcImIntSysVar
  3
AcMeServices
 90
        0
280
     0
281
     0
  0
CLASS
  1
ACMEDRAWINGMAN
  2
AcMeDrawingMan
  3
AcMeServices
 90
        0
280
     0
281
     0
  0
CLASS
  1
ACMEVIEW
  2
AcMeView
  3
AcMeServices
 90
        0
280
     0
281
     0
  0
CLASS
  1
ACDBENTITYCACHE
  2
AcMeEntityCache
  3
AcMeServices
 90
        0
280
     0
281
     0
  0
CLASS
  1
GSMANAGER
  2
AcMeGSManager
  3
AcMeServices
 90
        0
280
     0
281
     0
  0
CLASS
  1
AMDTINTERNALREACTOR
  2
AmdtInternalReactor
  3
AcMeServices
 90
        0
280
     0
281
     0
  0
CLASS
  1
ACMESTATEMGR
  2
AcMeStateMgr
  3
AcMeServices
 90
        0
280
     0
281
     0
  0
CLASS
  1
ACGREFMASTER
  2
AcGrefMaster
  3
AcAttribServices
 90
        0
280
     0
281
     0
  0
CLASS
  1
ACME_DATABASE
  2
AcMeDbDatabase
  3
AcMeServices
 90
        0
280
     0
281
     0
  0
CLASS
  1
ACRFINSADJUSTERMGR
  2
AcRfInsAdjusterMgr
  3
AcMeServices
 90
        0
280
     0
281
     0
  0
CLASS
  1
ACGREFACADMASTER
  2
AcGrefacadMaster
  3
AcGrefServices
 90
        0
280
     0
281
     0
  0
CLASS
  1
AMIMASTER
  2
AmiMaster
  3
AmiServices
 90
        0
280
     0
281
     0
  0
CLASS
  1
ACMDATADICTIONARY
  2
AcmDataDictionary
  3
"AcmSymBB|Product Description: AutoCAD Mechanical 2004 DX|Company: Autodesk"
 90
        0
280
     0
281
     0
  0
CLASS
  1
ACMDATAENTRYBLOCK
  2
AcmDataEntryBlock
  3
"AcmSymBB|Product Description: AutoCAD Mechanical 2004 DX|Company: Autodesk"
 90
        0
280
     0
281
     0
  0
CLASS
  1
ACIMSTRSYSVAR
  2
AcImStrSysVar
  3
AcMeServices
 90
        0
280
     0
281
     0
  0
CLASS
  1
ACMSTANDARDISO
  2
AcmStandardISO
  3
"Amdt_StdImp|Product Description: AutoCAD Mechanical 2004 DX|Company: Autodesk"
 90
        0
280
     0
281
     0
  0
CLASS
  1
AMGOBJPROPCFG
  2
AmgObjPropCfg
  3
"AmgLay|Product Description: AutoCAD Mechanical 2000|Company: Autodesk"
 90
        1
280
     0
281
     0
  0
CLASS
  1
AMDTEDGESTANDARDISO
  2
AmdtEdgeStdISO
  3
"Amdt_StdImp|Product Description: AutoCAD Mechanical 2004 DX|Company: Autodesk"
 90
    32768
280
     0
281
     0
  0
CLASS
  1
ACMSURFSTANDARDISO
  2
AcmSurfTextStdISO
  3
"Amdt_StdImp|Product Description: AutoCAD Mechanical 2004 DX|Company: Autodesk"
 90
        0
280
     0
281
     0
  0
CLASS
  1
ACMFCFSTANDARDISO
  2
AcmFCFStdISO
  3
"Amdt_StdImp|Product Description: AutoCAD Mechanical 2004 DX|Company: Autodesk"
 90
        0
280
     0
281
     0
  0
CLASS
  1
ACMWELDSTANDARDISO
  2
AcmWeldingStdISO
  3
"Amdt_StdImp|Product Description: AutoCAD Mechanical 2004 DX|Company: Autodesk"
 90
        0
280
     0
281
     0
  0
CLASS
  1
ACMIDSTANDARDISO
  2
AcmIdStdISO
  3
"Amdt_StdImp|Product Description: AutoCAD Mechanical 2004 DX|Company: Autodesk"
 90
        0
280
     0
281
     0
  0
CLASS
  1
ACMDATUMSTANDARDISO
  2
AcmDatumStdISO
  3
"Amdt_StdImp|Product Description: AutoCAD Mechanical 2004 DX|Company: Autodesk"
 90
        0
280
     0
281
     0
  0
CLASS
  1
ACMBOMSTANDARDISO
  2
AcmBOMStdISO
  3
"Amdt_StdImp|Product Description: AutoCAD Mechanical 2004 DX|Company: Autodesk"
 90
        0
280
     0
281
     0
  0
CLASS
  1
ACMDETAILSTANDARDISO
  2
AmdtDetailSymStdISO
  3
"Amdt_StdImp|Product Description: AutoCAD Mechanical 2004 DX|Company: Autodesk"
 90
        0
280
     0
281
     0
  0
CLASS
  1
ACMSECTIONSTANDARDISO
  2
AmdtSectionSymStdISO
  3
"Amdt_StdImp|Product Description: AutoCAD Mechanical 2004 DX|Company: Autodesk"
 90
        0
280
     0
281
     0
  0
CLASS
  1
ACMCENTERLINESTANDARDISO
  2
AmdtCenterLineStdISO
  3
"Amdt_StdImp|Product Description: AutoCAD Mechanical 2004 DX|Company: Autodesk"
 90
        0
280
     0
281
     0
  0
CLASS
  1
ACMNOTESTANDARDISO
  2
AmdtNoteStdISO
  3
"Amdt_StdImp|Product Description: AutoCAD Mechanical 2004 DX|Company: Autodesk"
 90
        0
280
     0
281
     0
  0
CLASS
  1
ACAMGLAYSTD
  2
AcAmgLayStd
  3
"AcAmgLayStd|Product Description: AutoCAD Mechanical 2000|Company: Autodesk"
 90
        0
280
     0
281
     0
  0
CLASS
  1
ACAMGDIMSTD
  2
AcAmgDimStd
  3
"AcAmgDimStd|Product Description: AutoCAD Mechanical 2000|Company: Autodesk"
 90
        0
280
     0
281
     0
  0
CLASS
  1
ACAMGHOLECHARTSTDISO
  2
AcAmgHoleChartStdISO
  3
ACMSYMBB_MODULE_NAME
 90
        0
280
     0
281
     0
  0
CLASS
  1
ACAMGTITLESTD
  2
AcAmgTitleStd
  3
"TITLEAPP"
 90
        0
280
     0
281
     0
  0
CLASS
  1
LAYER_INDEX
  2
AcDbLayerIndex
  3
ObjectDBX Classes
 90
        0
280
     0
281
     0
  0
CLASS
  1
IDBUFFER
  2
AcDbIdBuffer
  3
ObjectDBX Classes
 90
        0
280
     0
281
     0
  0
CLASS
  1
DICTIONARYVAR
  2
AcDbDictionaryVar
  3
ObjectDBX Classes
 90
        0
280
     0
281
     0
  0
CLASS
  1
AM_DRAWING_MGR
  2
AcDmDwgMgr
  3
AcMechDwgViewMgmt
 90
        0
280
     0
281
     0
  0
CLASS
  1
AM_DWG_DOCUMENT
  2
AcDmDwgDocument
  3
AcMechDwgViewMgmt
 90
        0
280
     0
281
     0
  0
CLASS
  1
AM_DWG_SHEET
  2
AcDmSheet
  3
AcMechDwgViewMgmt
 90
        0
280
     0
281
     0
  0
CLASS
  1
AM_VIEWDIMPARMAP
  2
AcDmViewDimParMap
  3
AcMechDwgViewMgmt
 90
        0
280
     0
281
     0
  0
CLASS
  1
AM_DWGMGR_NAME
  2
AcDmDwgMgrName
  3
AcMechDwgViewMgmt
 90
        0
280
     0
281
     0
  0
CLASS
  1
AMDTMENUSTATEMGR
  2
AmdtMenuStateMgr
  3
McadcomServices
 90
        0
280
     0
281
     0
  0
CLASS
  1
AMDTMCOMMENUSTATE
  2
AmdtMcomMenuState
  3
McadcomServices
 90
        0
280
     0
281
     0
  0
CLASS
  1
MAPIAMMOUDLE
  2
MApiAmModule
  3
MApiAmServices
 90
        0
280
     0
281
     0
  0
CLASS
  1
AMDTADMENUSTATE
  2
AmdtAdMenuState
  3
DesignerServices
 90
        0
280
     0
281
     0
  0
CLASS
  1
ADAPPL
  2
AcAdAppl
  3
DesignerServices
 90
        0
280
     0
281
     0
  0
CLASS
  1
DEPMGR
  2
AcAdDepMgr
  3
DesignerServices
 90
        0
280
     0
281
     0
  0
CLASS
  1
PARAMMGR
  2
AcAdParamMgr
  3
DesignerServices
 90
        0
280
     0
281
     0
  0
CLASS
  1
PARAMSCOPE
  2
AcAdParamScope
  3
DesignerServices
 90
        0
280
     0
281
     0
  0
CLASS
  1
NAMEDAPPL
  2
AcAdNamedAppl
  3
DesignerServices
 90
        0
280
     0
281
     0
  0
CLASS
  1
AMDTDMMENUSTATE
  2
AmdtDmMenuState
  3
AcMechDwgViewMgmt
 90
        0
280
     0
281
     0
  0
CLASS
  1
AMDTAMMENUSTATE
  2
AmdtAmMenuState
  3
DesignerAssemblies
 90
        0
280
     0
281
     0
  0
CLASS
  1
ACAMPROJECT
  2
AcAmProject
  3
DesignerAssemblies
 90
        0
280
     0
281
     0
  0
CLASS
  1
ACAMGRCOMPDEF
  2
AcAmGrCompDef
  3
DesignerAssemblies
 90
        0
280
     0
281
     0
  0
CLASS
  1
ACCMCONTEXT
  2
AcCmContext
  3
DesignerAssemblies
 90
        0
280
     0
281
     0
  0
CLASS
  1
ACAMCOMPDEF
  2
AcAmCompDef
  3
DesignerAssemblies
 90
        0
280
     0
281
     0
  0
CLASS
  1
ACAMCOMPDEFMGR
  2
AcAmCompDefMgr
  3
DesignerAssemblies
 90
        0
280
     0
281
     0
  0
CLASS
  1
AMCONTEXTMGR
  2
AcAmContextMgr
  3
DesignerAssemblies
 90
        0
280
     0
281
     0
  0
CLASS
  1
ACAMCONTEXTMODELER
  2
AcAmContextModeler
  3
DesignerAssemblies
 90
        0
280
     0
281
     0
  0
CLASS
  1
ACMTHREADLINESTANDARDISO
  2
AmdtThreadLineStdISO
  3
"Amdt_StdImp|Product Description: AutoCAD Mechanical 2004 DX|Company: Autodesk"
 90
        0
280
     0
281
     0
  0
CLASS
  1
CATALOGSTATE
  2
AcAmCatalogState
  3
DesignerAssemblies
 90
        0
280
     0
281
     0
  0
CLASS
  1
ACAMGRCOMPDEFSET
  2
AcAmGrCompDefSet
  3
DesignerAssemblies
 90
        0
280
     0
281
     0
  0
CLASS
  1
AMDTBROWSERDBTAB
  2
AmdtBrowserDbTab
  3
McadcomServices
 90
        0
280
     0
281
     0
  0
CLASS
  1
CBROWSERAPPOBJECT
  2
CBrowserAppObject
  3
McadcomServices
 90
        0
280
     0
281
     0
  0
CLASS
  1
DM_PLACEHOLDER
  2
AcDmSelsetPlaceholder
  3
AcMechDwgViewMgmt
 90
        0
280
     0
281
     0
  0
CLASS
  1
TABLESTYLE
  2
AcDbTableStyle
  3
ObjectDBX Classes
 90
     2047
280
     0
281
     0
  0
CLASS
  1
VAACXREFPANELOBJECT
  2
VaAcXREFPanelObject
  3
VAAC_ADDIN
 90
    32768
280
     0
281
     0
  0
CLASS
  1
VAACIMAGEINVENTORY
  2
VaAcImageInventory
  3
VAAC_ADDIN
 90
    32768
280
     0
281
     0
  0
CLASS
  1
AMDTNOTETEMPLATEDB
  2
AmdtNoteTemplateDB
  3
AMDT_STDIMP_MODULE_NAME
 90
        0
280
     0
281
     0
  0
CLASS
  1
ACMBOM
  2
AcmBom
  3
"AcmSymBB|Product Description: AutoCAD Mechanical 2004 DX|Company: Autodesk"
 90
    32768
280
     0
281
     0
  0
CLASS
  1
AMDTFORMULAUPDATEDISPATCHER
  2
AmdtFormulaUpdateDispatcher
  3
AcMeServices
 90
    32768
280
     0
281
     0
  0
CLASS
  1
ACMPARTLIST
  2
AcmPartList
  3
"AcmSymBB|Product Description: AutoCAD Mechanical 2004 DX|Company: Autodesk"
 90
    33791
280
     0
281
     1
  0
CLASS
  1
ACAMGFILTERDAT
  2
AcAmgFilterDat
  3
"AcadM|Product Description: AutoCAD Mechanical 2000|Company: Autodesk"
 90
    32768
280
     0
281
     0
  0
CLASS
  1
DIMASSOC
  2
AcDbDimAssoc
  3
"AcDbDimAssoc|Product Desc:     AcDim ARX App For Dimension|Company:          Autodesk, Inc.|WEB Address:      www.autodesk.com"
 90
        0
280
     0
281
     0
  0
CLASS
  1
SORTENTSTABLE
  2
AcDbSortentsTable
  3
ObjectDBX Classes
 90
        0
280
     0
281
     0
  0
CLASS
  1
STDPART2D
  2
AmgStdPart
  3
"AmgStdPart|Product Description: AutoCAD Mechanical 2000|Company: Autodesk"
 90
    33791
280
     0
281
     1
  0
CLASS
  1
ACAMSTDPCOMPDEF
  2
AcAmStdpCompDef
  3
DesignerAssemblies
 90
    32768
280
     0
281
     0
  0
CLASS
  1
ACRFATTGENMGR
  2
AcRfAttGeneralMgr
  3
AcAttribServices
 90
    32768
280
     0
281
     0
  0
CLASS
  1
ACRFOBJATTMGR
  2
AcRfObjAttGroupMgr
  3
AcAttribServices
 90
    32768
280
     0
281
     0
  0
CLASS
  1
ACRFMCADAPIATTHOLDER
  2
AcRfMCADAPIAttHolder
  3
AcAttribServices
 90
    32768
280
     0
281
     0
  0
CLASS
  1
AMDTSYSATTR
  2
AmdtSystemAttribute
  3
AcAttribServices
 90
    32768
280
     0
281
     0
  0
CLASS
  1
ACAMCOMP
  2
AcAmComp
  3
DesignerAssemblies
 90
    32768
280
     0
281
     0
  0
CLASS
  1
AC_AM_STDP_VIEW_DEF
  2
AcAmStdpViewDef
  3
DesignerAssemblies
 90
    32768
280
     0
281
     0
  0
CLASS
  1
AC_AM_MVD_DEP_MGR
  2
AcAmMVDdepMgr
  3
DesignerAssemblies
 90
    32768
280
     0
281
     0
  0
CLASS
  1
AC_AM_MASTER_VIEW_DEF
  2
AcAmMasterViewDef
  3
DesignerAssemblies
 90
    32768
280
     0
281
     0
  0
CLASS
  1
AC_AM_DIRTY_NODES
  2
AcAmDirtyNodes
  3
DesignerAssemblies
 90
    32768
280
     0
281
     0
  0
CLASS
  1
AC_AM_MAPPER_CACHE
  2
AcAmMapperCache
  3
DesignerAssemblies
 90
    32768
280
     0
281
     0
  0
CLASS
  1
ACAMMVDBACKUPOBJECT
  2
AcAmMVDBackupObject
  3
DesignerAssemblies
 90
    32768
280
     0
281
     0
  0
CLASS
  1
AC_AM_COMP_VIEW_INST
  2
AcAmCompView
  3
DesignerAssemblies
 90
    32768
280
     0
281
     0
  0
CLASS
  1
AC_AM_2D_XREF_MGR
  2
AcAmXrefMgr2d
  3
DesignerAssemblies
 90
    32768
280
     0
281
     0
  0
CLASS
  1
AMDTNOTE
  2
AmdtNote
  3
"AcmSymBB|Product Description: AutoCAD Mechanical 2004 DX|Company: Autodesk"
 90
    33791
280
     0
281
     1
  0
CLASS
  1
AMDTEDGESTANDARDISO13715
  2
AmdtEdgeStdISO13715
  3
"Amdt_StdImp|Product Description: AutoCAD Mechanical 2004 DX|Company: Autodesk"
 90
        0
280
     0
281
     0
  0
CLASS
  1
ASAPP
  2
AcAsAppObject
  3
AutoSurfServices
 90
        0
280
     0
281
     0
  0
CLASS
  1
IM_STATIC_MAN
  2
AcImStaticVarManager
  3
AcMeServices
 90
        0
280
     0
281
     0
  0
CLASS
  1
ACIMDBLSTATICVAR
  2
AcImDblStaticVar
  3
AcMeServices
 90
        0
280
     0
281
     0
  0
CLASS
  1
ACIMSTRSTATICVAR
  2
AcImStrStaticVar
  3
AcMeServices
 90
        0
280
     0
281
     0
  0
CLASS
  1
ACIMINTSTATICVAR
  2
AcImIntStaticVar
  3
AcMeServices
 90
        0
280
     0
281
     0
  0
CLASS
  1
ACASGREFMASTER
  2
AcAsGrefMaster
  3
AutoSurfResolverServices
 90
        0
280
     0
281
     0
  0
CLASS
  1
ACADGREFMODULE
  2
AcAdGrefModule
  3
AdGrefServices
 90
        0
280
     0
281
     0
  0
CLASS
  1
AMDTMAPISURFMOUDULE
  2
AmdtMApiSurfModule
  3
MApiSurfServices
 90
        0
280
     0
281
     0
  0
CLASS
  1
MAPIADMODULE
  2
MApiAdModule
  3
MApiAdServices
 90
        0
280
     0
281
     0
  0
ENDSEC
  0
SECTION
  2
TABLES
  0
TABLE
  2
VPORT
  5
8
330
0
100
AcDbSymbolTable
 70
     4
  0
VPORT
  5
BC0B
330
8
100
AcDbSymbolTableRecord
100
AcDbViewportTableRecord
  2
*Active
 70
     0
 10
0.0
 20
0.0
 11
1.0
 21
1.0
 12
243.3667768937515
 22
-170.7115891680516
 13
0.0
 23
0.0
 14
2.5
 24
2.5
 15
10.0
 25
10.0
 16
0.0
 26
0.0
 36
1.0
 17
493.6788805944727
 27
316.1094665189255
 37
0.0
 40
298.0515989138385
 41
1.263157894736842
 42
50.0
 43
0.0
 44
0.0
 50
0.0
 51
0.0
 71
     0
 72
  2000
 73
     1
 74
     3
 75
     0
 76
     0
 77
     0
 78
     0
281
     0
 65
     0
110
0.0
120
0.0
130
0.0
111
1.0
121
0.0
131
0.0
112
0.0
122
1.0
132
0.0
 79
     0
146
0.0
  0
ENDTAB
  0
TABLE
  2
LTYPE
  5
5
330
0
100
AcDbSymbolTable
 70
    16
  0
LTYPE
  5
14
330
5
100
AcDbSymbolTableRecord
100
AcDbLinetypeTableRecord
  2
ByBlock
 70
     0
  3

 72
    65
 73
     0
 40
0.0
  0
LTYPE
  5
15
330
5
100
AcDbSymbolTableRecord
100
AcDbLinetypeTableRecord
  2
ByLayer
 70
     0
  3

 72
    65
 73
     0
 40
0.0
  0
LTYPE
  5
16
330
5
100
AcDbSymbolTableRecord
100
AcDbLinetypeTableRecord
  2
Continuous
 70
     0
  3
Solid line
 72
    65
 73
     0
 40
0.0
  0
LTYPE
  5
64
330
5
100
AcDbSymbolTableRecord
100
AcDbLinetypeTableRecord
  2
AM_ISO02W050
 70
     0
  3
__ __ __ __ __ __ __ __ __ __ __ __ __ __ __
 72
    65
 73
     2
 40
7.5
 49
6.0
 74
     0
 49
-1.5
 74
     0
  0
LTYPE
  5
65
330
5
100
AcDbSymbolTableRecord
100
AcDbLinetypeTableRecord
  2
AM_ISO08W050
 70
     0
  3
____ . ____ . ____ . ____ . ____ . ____ . ____
 72
    65
 73
     4
 40
18.0
 49
12.0
 74
     0
 49
-1.5
 74
     0
 49
3.0
 74
     0
 49
-1.5
 74
     0
  0
LTYPE
  5
66
330
5
100
AcDbSymbolTableRecord
100
AcDbLinetypeTableRecord
  2
AM_ISO09W050
 70
     0
  3
_____ . . _____ . . _____ . . ____ .. ____
 72
    65
 73
     6
 40
22.5
 49
12.0
 74
     0
 49
-1.5
 74
     0
 49
3.0
 74
     0
 49
-1.5
 74
     0
 49
3.0
 74
     0
 49
-1.5
 74
     0
  0
LTYPE
  5
67
330
5
100
AcDbSymbolTableRecord
100
AcDbLinetypeTableRecord
  2
Amconstr
 70
     0
  3
_______________________
 72
    65
 73
     2
 40
9999.0
 49
9999.0
 74
     0
 49
0.0
 74
     0
  0
LTYPE
  5
68
330
5
100
AcDbSymbolTableRecord
100
AcDbLinetypeTableRecord
  2
AM_ISO08W050x2
 70
     0
  3
__ . __ . __ . __ . __ . __
 72
    65
 73
     4
 40
9.0
 49
6.0
 74
     0
 49
-0.75
 74
     0
 49
1.5
 74
     0
 49
-0.75
 74
     0
  0
LTYPE
  5
69
330
5
100
AcDbSymbolTableRecord
100
AcDbLinetypeTableRecord
  2
AM_ISO02W050x2
 70
     0
  3
 _ _ _ _ _ _ _ _ _ _ _ _
 72
    65
 73
     2
 40
3.75
 49
3.0
 74
     0
 49
-0.75
 74
     0
  0
LTYPE
  5
6C
330
5
100
AcDbSymbolTableRecord
100
AcDbLinetypeTableRecord
  2
Amzigzag
 70
     0
  3
/\/-/\/-/\/-/\/-/\/-/\/
 72
    65
 73
     2
 40
11.0001
 49
0.0001
 74
     4
 75
   135
340
6B
 46
0.04
 50
0.0
 44
0.0
 45
0.0
 49
-11.0
 74
     0
  0
LTYPE
  5
7A
330
5
100
AcDbSymbolTableRecord
100
AcDbLinetypeTableRecord
  2
ACISOWELD
 70
     0
  3
_ _ _ _ _
 72
    65
 73
     2
 40
2.0
 49
2.0
 74
     0
 49
-1.0
 74
     0
  0
LTYPE
  5
7B
330
5
100
AcDbSymbolTableRecord
100
AcDbLinetypeTableRecord
  2
ACISOTGB
 70
     0
  3
__ . . __ . .
 72
    65
 73
     6
 40
9.0
 49
4.0
 74
     0
 49
-1.0
 74
     0
 49
1.0
 74
     0
 49
-1.0
 74
     0
 49
1.0
 74
     0
 49
-1.0
 74
     0
  0
LTYPE
  5
7C
330
5
100
AcDbSymbolTableRecord
100
AcDbLinetypeTableRecord
  2
ACISOTGL
 70
     0
  3
_ _ _ _ _
 72
    65
 73
     2
 40
3.0
 49
2.0
 74
     0
 49
-1.0
 74
     0
  0
LTYPE
  5
7E
330
5
100
AcDbSymbolTableRecord
100
AcDbLinetypeTableRecord
  2
CENTER
 70
     0
  3
__ . __
 72
    65
 73
     4
 40
7.0
 49
4.0
 74
     0
 49
-1.0
 74
     0
 49
1.0
 74
     0
 49
-1.0
 74
     0
  0
LTYPE
  5
D8
330
5
100
AcDbSymbolTableRecord
100
AcDbLinetypeTableRecord
  2
HIDDEN
 70
     0
  3
Hidden __ __ __ __ __ __ __ __ __ __ __ __ __ _
 72
    65
 73
     2
 40
9.524999999999998
 49
6.349999999999999
 74
     0
 49
-3.174999999999999
 74
     0
  0
LTYPE
  5
D9
330
5
100
AcDbSymbolTableRecord
100
AcDbLinetypeTableRecord
  2
PHANTOM2
 70
     0
  3
Phantom (.5x) ___ _ _ ___ _ _ ___ _ _ ___ _ _
 72
    65
 73
     6
 40
31.75
 49
15.875
 74
     0
 49
-3.174999999999999
 74
     0
 49
3.174999999999999
 74
     0
 49
-3.174999999999999
 74
     0
 49
3.174999999999999
 74
     0
 49
-3.174999999999999
 74
     0
  0
LTYPE
  5
7C98
330
5
100
AcDbSymbolTableRecord
100
AcDbLinetypeTableRecord
  2
ASULTYPE
 70
     0
  3
實線
 72
    65
 73
     2
 40
3.0
 49
2.5
 74
     0
 49
0.5
 74
     0
  0
LTYPE
  5
7C99
330
5
100
AcDbSymbolTableRecord
100
AcDbLinetypeTableRecord
  2
ASVLTYPE
 70
     0
  3
__ __ __ __ __ __ __ __ __ __ __ __ __ __ __ __ __ __ __ __ __
 72
    65
 73
     2
 40
0.75
 49
0.5
 74
     0
 49
-0.25
 74
     0
  0
ENDTAB
  0
TABLE
  2
LAYER
  5
2
102
{ACAD_XDICTIONARY
360
3F9
102
}
330
0
100
AcDbSymbolTable
 70
    13
  0
LAYER
  5
10
330
2
100
AcDbSymbolTableRecord
100
AcDbLayerTableRecord
  2
0
 70
     0
 62
     7
  6
Continuous
370
    -3
390
F
  0
LAYER
  5
C92
330
2
100
AcDbSymbolTableRecord
100
AcDbLayerTableRecord
  2
Defpoints
 70
     0
 62
     7
  6
Continuous
290
     0
370
    -3
390
F
  0
LAYER
  5
C93
330
2
100
AcDbSymbolTableRecord
100
AcDbLayerTableRecord
  2
AM_5
 70
     0
 62
     3
  6
Continuous
370
    25
390
F
  0
LAYER
  5
C94
330
2
100
AcDbSymbolTableRecord
100
AcDbLayerTableRecord
  2
AM_4
 70
     0
 62
     3
  6
Continuous
370
    25
390
F
  0
LAYER
  5
C95
330
2
100
AcDbSymbolTableRecord
100
AcDbLayerTableRecord
  2
AM_VIS
 70
     0
 62
     7
  6
Continuous
370
    50
390
F
  0
LAYER
  5
C96
330
2
100
AcDbSymbolTableRecord
100
AcDbLayerTableRecord
  2
AM_HID
 70
     0
 62
     3
  6
AM_ISO02W050x2
370
    25
390
F
  0
LAYER
  5
C97
330
2
100
AcDbSymbolTableRecord
100
AcDbLayerTableRecord
  2
AM_7
 70
     0
 62
     1
  6
CENTER
370
    25
390
F
  0
LAYER
  5
C99
330
2
100
AcDbSymbolTableRecord
100
AcDbLayerTableRecord
  2
LOGO
 70
     0
 62
     7
  6
Continuous
370
    -3
390
F
  0
LAYER
  5
2AA5
330
2
100
AcDbSymbolTableRecord
100
AcDbLayerTableRecord
  2
AM_REFDIM
 70
     0
 62
     5
  6
Continuous
370
    25
390
F
  0
LAYER
  5
79D1
330
2
100
AcDbSymbolTableRecord
100
AcDbLayerTableRecord
  2
CEN
 70
     0
 62
     1
  6
CENTER
370
    -3
390
F
  0
LAYER
  5
79D3
330
2
100
AcDbSymbolTableRecord
100
AcDbLayerTableRecord
  2
HATCH
 70
     0
 62
     4
  6
Continuous
370
    -3
390
F
  0
LAYER
  5
7BB8
330
2
100
AcDbSymbolTableRecord
100
AcDbLayerTableRecord
  2
SL
 70
     0
 62
     2
  6
Continuous
370
    -3
390
F
1001
AcAecLayerStandard
1000

1000

  0
LAYER
  5
7DF7
330
2
100
AcDbSymbolTableRecord
100
AcDbLayerTableRecord
  2
AM_10
 70
     0
 62
     7
  6
AM_ISO08W050
370
    50
390
F
  0
ENDTAB
  0
TABLE
  2
STYLE
  5
3
330
0
100
AcDbSymbolTable
 70
     6
  0
STYLE
  5
11
330
3
100
AcDbSymbolTableRecord
100
AcDbTextStyleTableRecord
  2
STANDARD
 70
     0
 40
0.0
 41
1.0
 50
0.0
 71
     0
 42
3.0
  3
ISOCP.SHX
  4
CHINESET.SHX
  0
STYLE
  5
6B
330
3
100
AcDbSymbolTableRecord
100
AcDbTextStyleTableRecord
  2

 70
     1
 40
0.0
 41
1.0
 50
0.0
 71
     0
 42
2.5
  3
ltypeshp.shx
  4

  0
STYLE
  5
6D
330
3
100
AcDbSymbolTableRecord
100
AcDbTextStyleTableRecord
  2
ACISOTS
 70
     0
 40
1.0
 41
1.0
 50
0.0
 71
     0
 42
1.0
  3
isocp.shx
  4
chineset.shx
  0
STYLE
  5
79
330
3
100
AcDbSymbolTableRecord
100
AcDbTextStyleTableRecord
  2
ACISOGDT
 70
     0
 40
0.0
 41
1.0
 50
0.0
 71
     0
 42
2.5
  3
amgdt.shx
  4
chineset.shx
  0
STYLE
  5
C9B
330
3
100
AcDbSymbolTableRecord
100
AcDbTextStyleTableRecord
  2
CHINESET
 70
     0
 40
0.0
 41
1.0
 50
0.0
 71
     0
 42
2.5
  3
simplex.shx
  4
CHINESET.shx
  0
STYLE
  5
7DF8
330
3
100
AcDbSymbolTableRecord
100
AcDbTextStyleTableRecord
  2
DAYUS
 70
     0
 40
0.0
 41
1.0
 50
0.0
 71
     0
 42
2.0
  3
simplex.shx
  4
dayus.shx
  0
ENDTAB
  0
TABLE
  2
VIEW
  5
6
330
0
100
AcDbSymbolTable
 70
     0
  0
ENDTAB
  0
TABLE
  2
UCS
  5
7
330
0
100
AcDbSymbolTable
 70
     0
  0
ENDTAB
  0
TABLE
  2
APPID
  5
9
330
0
100
AcDbSymbolTable
 70
    39
  0
APPID
  5
12
330
9
100
AcDbSymbolTableRecord
100
AcDbRegAppTableRecord
  2
ACAD
 70
     0
  0
APPID
  5
46
330
9
100
AcDbSymbolTableRecord
100
AcDbRegAppTableRecord
  2
MCAD_NO_VIS
 70
     0
  0
APPID
  5
47
330
9
100
AcDbSymbolTableRecord
100
AcDbRegAppTableRecord
  2
ACAD_TEMP_GRAPHIC
 70
     0
  0
APPID
  5
58
330
9
100
AcDbSymbolTableRecord
100
AcDbRegAppTableRecord
  2
ACATTRIBSERVICES
 70
     0
  0
APPID
  5
EE
330
9
100
AcDbSymbolTableRecord
100
AcDbRegAppTableRecord
  2
AD_DRAW
 70
     0
  0
APPID
  5
10C
330
9
100
AcDbSymbolTableRecord
100
AcDbRegAppTableRecord
  2
DESIGNERASSEMBLIES
 70
     0
  0
APPID
  5
111
330
9
100
AcDbSymbolTableRecord
100
AcDbRegAppTableRecord
  2
ACADM_DIM_EDIT
 70
     0
  0
APPID
  5
112
330
9
100
AcDbSymbolTableRecord
100
AcDbRegAppTableRecord
  2
AMDT_DM_ADJ
 70
     0
  0
APPID
  5
22C
330
9
100
AcDbSymbolTableRecord
100
AcDbRegAppTableRecord
  2
ACAD_DSTYLE_DIMTEXT_FILL
 70
     0
  0
APPID
  5
452
330
9
100
AcDbSymbolTableRecord
100
AcDbRegAppTableRecord
  2
GENIUS_GENOENT_13
 70
     0
  0
APPID
  5
453
330
9
100
AcDbSymbolTableRecord
100
AcDbRegAppTableRecord
  2
GENIUS_GENOBJ-N-CRS_13
 70
     0
  0
APPID
  5
454
330
9
100
AcDbSymbolTableRecord
100
AcDbRegAppTableRecord
  2
GENIUS_GENOLIS_13
 70
     0
  0
APPID
  5
455
330
9
100
AcDbSymbolTableRecord
100
AcDbRegAppTableRecord
  2
GENIUS_GENODEF_13
 70
     0
  0
APPID
  5
456
330
9
100
AcDbSymbolTableRecord
100
AcDbRegAppTableRecord
  2
GENIUS_GENOREF_13
 70
     0
  0
APPID
  5
6F3
330
9
100
AcDbSymbolTableRecord
100
AcDbRegAppTableRecord
  2
ACAD_PSEXT
 70
     0
  0
APPID
  5
808
330
9
100
AcDbSymbolTableRecord
100
AcDbRegAppTableRecord
  2
GENIUS_GENDTOL_13
 70
     0
  0
APPID
  5
C9C
330
9
100
AcDbSymbolTableRecord
100
AcDbRegAppTableRecord
  2
GENIUS_GENOBJ-N-CEN_13
 70
     0
  0
APPID
  5
C9D
330
9
100
AcDbSymbolTableRecord
100
AcDbRegAppTableRecord
  2
GENIUS_GENCEN_19
 70
     0
  0
APPID
  5
C9E
330
9
100
AcDbSymbolTableRecord
100
AcDbRegAppTableRecord
  2
GENIUS_GENREC_14
 70
     0
  0
APPID
  5
C9F
330
9
100
AcDbSymbolTableRecord
100
AcDbRegAppTableRecord
  2
GENIUS_GENOBJ-N-REC_13
 70
     0
  0
APPID
  5
18AD
330
9
100
AcDbSymbolTableRecord
100
AcDbRegAppTableRecord
  2
GEVID1195260822
 70
     0
  0
APPID
  5
18AE
330
9
100
AcDbSymbolTableRecord
100
AcDbRegAppTableRecord
  2
GEVDC
 70
     0
  0
APPID
  5
18AF
330
9
100
AcDbSymbolTableRecord
100
AcDbRegAppTableRecord
  2
GEVRADREF
 70
     0
  0
APPID
  5
18B8
330
9
100
AcDbSymbolTableRecord
100
AcDbRegAppTableRecord
  2
AMG_2DHIDE
 70
     0
  0
APPID
  5
18B9
330
9
100
AcDbSymbolTableRecord
100
AcDbRegAppTableRecord
  2
AMG_2DSTRUCT_BTR
 70
     0
  0
APPID
  5
18CA
330
9
100
AcDbSymbolTableRecord
100
AcDbRegAppTableRecord
  2
ACADM_2DVIEW_IGN_NOTIFY
 70
     0
  0
APPID
  5
3621
330
9
100
AcDbSymbolTableRecord
100
AcDbRegAppTableRecord
  2
GENIUS_GENDIMSH_14
 70
     0
  0
APPID
  5
3FD8
330
9
100
AcDbSymbolTableRecord
100
AcDbRegAppTableRecord
  2
AD_SKETCHDIM
 70
     0
  0
APPID
  5
42D5
330
9
100
AcDbSymbolTableRecord
100
AcDbRegAppTableRecord
  2
ACAD_DSTYLE_DIMEXT_LENGTH
 70
     0
  0
APPID
  5
42D6
330
9
100
AcDbSymbolTableRecord
100
AcDbRegAppTableRecord
  2
ACAD_DSTYLE_DIMEXT_ENABLED
 70
     0
  0
APPID
  5
42D7
330
9
100
AcDbSymbolTableRecord
100
AcDbRegAppTableRecord
  2
ACAD_DSTYLE_DIM_EXT1_LINETYPE
 70
     0
  0
APPID
  5
42D8
330
9
100
AcDbSymbolTableRecord
100
AcDbRegAppTableRecord
  2
ACAD_DSTYLE_DIMJOGGED_JOGANGLE_SYMBOL
 70
     0
  0
APPID
  5
42D9
330
9
100
AcDbSymbolTableRecord
100
AcDbRegAppTableRecord
  2
ACAD_DSTYLE_DIMARC_LENGTH_SYMBOL
 70
     0
  0
APPID
  5
5E72
330
9
100
AcDbSymbolTableRecord
100
AcDbRegAppTableRecord
  2
AcAecLayerStandard
 70
     0
  0
APPID
  5
7C19
330
9
100
AcDbSymbolTableRecord
100
AcDbRegAppTableRecord
  2
GENIUS_GENDIM_13
 70
     0
  0
APPID
  5
7C1A
330
9
100
AcDbSymbolTableRecord
100
AcDbRegAppTableRecord
  2
GENIUS_GE3DTOL_13
 70
     0
  0
APPID
  5
7C9A
330
9
100
AcDbSymbolTableRecord
100
AcDbRegAppTableRecord
  2
ASURF_PCURVE_APPNAME
 70
     0
  0
APPID
  5
7C9F
330
9
100
AcDbSymbolTableRecord
100
AcDbRegAppTableRecord
  2
AMG_3D2D_5.0
 70
     0
  0
APPID
  5
A993
330
9
100
AcDbSymbolTableRecord
100
AcDbRegAppTableRecord
  2
DCO15
 70
     0
  0
ENDTAB
  0
TABLE
  2
DIMSTYLE
  5
A
330
0
100
AcDbSymbolTable
 70
    16
100
AcDbDimStyleTable
 71
     3
340
81
340
8B
340
86
  0
DIMSTYLE
105
81
330
A
100
AcDbSymbolTableRecord
100
AcDbDimStyleTableRecord
  2
AM_ISO
 70
     0
  4
"
 41
3.5
 42
1.0
 43
8.0
 44
1.0
 47
0.1
 48
0.1
 73
     0
 74
     0
 77
     1
 78
     8
 79
     2
140
3.5
141
0.0
143
0.0393701
146
0.6
147
1.0
172
     1
176
   256
177
   256
178
   256
271
     2
272
     2
283
     0
284
     8
340
11
371
    -1
372
    -1
  0
DIMSTYLE
105
82
330
A
100
AcDbSymbolTableRecord
100
AcDbDimStyleTableRecord
  2
AM_ISO$3
 70
     0
  4
"
 41
3.5
 42
1.0
 43
8.0
 44
1.0
 47
0.1
 48
0.1
 73
     0
 77
     1
 78
     8
 79
     2
140
3.5
141
0.0
143
0.0393701
146
0.6
147
1.0
176
   256
177
   256
178
   256
271
     2
272
     2
283
     0
284
     8
288
     1
289
     0
340
11
371
    -1
372
    -1
  0
DIMSTYLE
105
83
330
A
100
AcDbSymbolTableRecord
100
AcDbDimStyleTableRecord
  2
AM_ISO$4
 70
     0
  4
"
 41
3.5
 42
1.0
 43
8.0
 44
1.0
 47
0.1
 48
0.1
 73
     0
 77
     1
 78
     8
 79
     2
140
3.5
141
0.0
143
0.0393701
146
0.6
147
1.0
176
   256
177
   256
178
   256
271
     2
272
     2
283
     0
284
     8
288
     1
289
     0
340
11
371
    -1
372
    -1
  0
DIMSTYLE
105
84
330
A
100
AcDbSymbolTableRecord
100
AcDbDimStyleTableRecord
  2
AM_ISO$6
 70
     0
  4
"
 41
3.5
 42
1.0
 43
8.0
 44
1.0
 47
0.1
 48
0.1
 73
     0
 74
     0
 78
     8
 79
     2
140
3.5
141
0.0
143
0.0393701
146
0.6
147
1.0
172
     1
176
   256
177
   256
178
   256
271
     2
272
     2
283
     0
284
     8
340
11
371
    -1
372
    -1
  0
DIMSTYLE
105
85
330
A
100
AcDbSymbolTableRecord
100
AcDbDimStyleTableRecord
  2
AM_ISO$7
 70
     0
  4
"
 41
3.5
 42
1.0
 43
8.0
 44
1.0
 47
0.1
 48
0.1
 73
     0
 74
     0
 77
     1
 78
     8
 79
     2
140
3.5
141
0.0
143
0.0393701
146
0.6
147
1.0
172
     1
176
   256
177
   256
178
   256
271
     2
272
     2
283
     0
284
     8
340
11
371
    -1
372
    -1
  0
DIMSTYLE
105
86
330
A
100
AcDbSymbolTableRecord
100
AcDbDimStyleTableRecord
  2
AM_ISO$SF
 70
     0
  4
"
 41
2.5
 42
1.0
 43
10.0
 44
1.0
 47
0.1
 48
0.1
 73
     0
 74
     0
 75
     1
 76
     1
 77
     1
 78
     8
 79
     2
140
3.5
141
0.0
143
0.0393701
146
0.71
147
1.5
172
     1
176
   256
177
   256
178
     2
271
     2
272
     3
274
     4
283
     0
284
     8
340
11
371
    -1
372
    -1
  0
DIMSTYLE
105
8B
330
A
100
AcDbSymbolTableRecord
100
AcDbDimStyleTableRecord
  2
AM_ISO$SH
 70
     0
  4
"
 41
2.5
 42
1.0
 43
10.0
 44
1.0
 47
0.1
 48
0.1
 73
     0
 74
     0
 75
     1
 76
     1
 77
     1
 78
     8
 79
     2
140
3.5
141
0.0
143
0.0393701
144
2.0
146
0.71
147
1.5
172
     1
173
     1
176
   256
177
   256
178
     2
271
     2
272
     3
274
     4
283
     0
284
     8
340
11
343
87
371
    -1
372
    -1
  0
DIMSTYLE
105
40B
102
{ACAD_REACTORS
330
A57E
330
A516
330
A540
330
A622
330
A724
330
A67B
330
A6A1
330
A7A5
330
A77B
330
A7CB
330
B250
102
}
330
A
100
AcDbSymbolTableRecord
100
AcDbDimStyleTableRecord
  2
AM_ISO$0
 70
     0
  4
"
 41
3.5
 42
1.0
 43
8.0
 44
1.0
 47
0.1
 48
0.1
 73
     0
 74
     0
 77
     1
 78
     8
 79
     2
140
3.5
141
0.0
143
0.0393701
146
0.6
147
1.0
172
     1
176
   256
177
   256
178
   256
271
     2
272
     2
283
     0
284
     8
340
11
371
    -1
372
    -1
  0
DIMSTYLE
105
2AAB
330
A
100
AcDbSymbolTableRecord
100
AcDbDimStyleTableRecord
  2
AM_ISO$SH$3
 70
     0
  4
"
 40
1.3
 41
2.5
 42
1.0
 43
10.0
 44
1.0
 47
0.1
 48
0.1
 73
     0
 74
     0
 75
     1
 76
     1
 77
     1
 78
     8
 79
     2
140
3.5
141
0.0
143
0.0393701
144
2.0
146
0.71
147
1.5
172
     1
173
     1
176
   256
177
   256
178
     2
271
     2
272
     3
274
     4
283
     0
284
     8
340
11
343
87
371
    -1
372
    -1
  0
DIMSTYLE
105
3FD7
330
A
100
AcDbSymbolTableRecord
100
AcDbDimStyleTableRecord
  2
AM_ISO$2
 70
     0
  4
"
 41
2.5
 42
1.0
 43
10.0
 44
1.0
 47
0.1
 48
0.1
 73
     0
 74
     0
 77
     1
 78
     8
 79
     2
140
3.5
141
0.0
143
0.0393701
146
0.71
147
1.5
172
     1
176
   256
177
   256
178
     2
271
     2
272
     3
274
     4
283
     0
284
     8
340
11
371
    -1
372
    -1
  0
DIMSTYLE
105
6430
330
A
100
AcDbSymbolTableRecord
100
AcDbDimStyleTableRecord
  2
AM_ISO$SH$0
 70
     0
  4
"
 40
1.5
 41
2.5
 42
1.0
 43
10.0
 44
1.0
 47
0.1
 48
0.1
 73
     0
 74
     0
 75
     1
 76
     1
 77
     1
 78
     8
 79
     2
140
3.5
141
0.0
143
0.0393701
144
2.0
146
0.71
147
1.5
172
     1
173
     1
176
   256
177
   256
178
     2
271
     2
272
     3
274
     4
283
     0
284
     8
340
11
343
87
371
    -1
372
    -1
  0
DIMSTYLE
105
7DF9
330
A
100
AcDbSymbolTableRecord
100
AcDbDimStyleTableRecord
  2
STANDARD
 70
     0
 41
2.5
 42
0.625
 43
3.75
 44
1.25
 73
     0
 74
     0
 77
     1
 78
     8
140
2.5
141
2.5
143
0.0394
147
0.625
171
     4
172
     1
273
     8
274
     4
277
     6
340
11
  0
DIMSTYLE
105
7DFA
330
A
100
AcDbSymbolTableRecord
100
AcDbDimStyleTableRecord
  2
AM_ANSI
 70
     0
  4
mm
 41
0.1
 42
0.05
 43
0.5
 44
0.1
 47
0.1
 48
0.1
 78
     7
 79
     2
140
0.12
141
0.0
146
0.71
147
0.06
176
   256
177
   256
178
     2
274
     4
284
     7
340
11
371
    -1
372
    -1
  0
DIMSTYLE
105
7DFB
330
A
100
AcDbSymbolTableRecord
100
AcDbDimStyleTableRecord
  2
DAYUS
 70
     0
  4
"
 40
0.6666666666666666
 41
3.0
 42
2.0
 43
10.0
 44
1.0
 47
0.1
 48
0.1
 73
     0
 74
     0
 77
     1
 78
     8
 79
     2
140
3.5
141
0.0
143
0.0393701
146
0.71
147
1.5
172
     1
176
   256
177
   256
178
     3
271
     2
272
     8
283
     0
284
     8
340
7DF8
371
    -1
372
    -1
  0
DIMSTYLE
105
857F
330
A
100
AcDbSymbolTableRecord
100
AcDbDimStyleTableRecord
  2
ISO-25$0
 70
     0
 40
5.0
 41
2.5
 42
0.625
 43
3.75
 44
1.25
 73
     0
 74
     0
 77
     1
 78
     8
140
2.5
141
2.5
143
0.03937007874016
147
0.625
171
     3
172
     1
271
     2
272
     2
274
     3
278
    44
283
     0
284
     8
340
11
  0
DIMSTYLE
105
968B
330
A
100
AcDbSymbolTableRecord
100
AcDbDimStyleTableRecord
  2
ISO-25
 70
     0
 41
2.5
 42
0.625
 43
3.75
 44
1.25
 73
     0
 74
     0
 77
     1
 78
     8
140
2.5
141
2.5
143
0.03937007874016
147
0.625
171
     3
172
     1
271
     2
272
     2
274
     3
278
    44
283
     0
284
     8
340
11
  0
ENDTAB
  0
TABLE
  2
BLOCK_RECORD
  5
1
330
0
100
AcDbSymbolTable
 70
    45
  0
BLOCK_RECORD
  5
1F
102
{ACAD_XDICTIONARY
360
8F
102
}
330
1
100
AcDbSymbolTableRecord
100
AcDbBlockTableRecord
  2
*Model_Space
340
22
  0
BLOCK_RECORD
  5
1B
330
1
100
AcDbSymbolTableRecord
100
AcDbBlockTableRecord
  2
*Paper_Space
340
1E
  0
BLOCK_RECORD
  5
23
330
1
100
AcDbSymbolTableRecord
100
AcDbBlockTableRecord
  2
*Paper_Space0
340
26
  0
BLOCK_RECORD
  5
87
330
1
100
AcDbSymbolTableRecord
100
AcDbBlockTableRecord
  2
GENAXEH
340
0
  0
BLOCK_RECORD
  5
7CF2
102
{ACAD_XDICTIONARY
360
7CF3
102
}
330
1
100
AcDbSymbolTableRecord
100
AcDbBlockTableRecord
  2
S2
340
0
1001
ACAD
1000
DesignCenter Data
1002
{
1070
     1
1070
     4
1002
}
  0
BLOCK_RECORD
  5
8569
330
1
100
AcDbSymbolTableRecord
100
AcDbBlockTableRecord
  2
SW_CENTERMARKSYMBOL_0
340
0
  0
BLOCK_RECORD
  5
8574
330
1
100
AcDbSymbolTableRecord
100
AcDbBlockTableRecord
  2
SW_CENTERMARKSYMBOL_1
340
0
  0
BLOCK_RECORD
  5
A517
330
1
100
AcDbSymbolTableRecord
100
AcDbBlockTableRecord
  2
*D6
340
0
  0
BLOCK_RECORD
  5
A541
330
1
100
AcDbSymbolTableRecord
100
AcDbBlockTableRecord
  2
*D7
340
0
  0
BLOCK_RECORD
  5
A57F
330
1
100
AcDbSymbolTableRecord
100
AcDbBlockTableRecord
  2
*D8
340
0
  0
BLOCK_RECORD
  5
A623
330
1
100
AcDbSymbolTableRecord
100
AcDbBlockTableRecord
  2
*D9
340
0
  0
BLOCK_RECORD
  5
A67C
330
1
100
AcDbSymbolTableRecord
100
AcDbBlockTableRecord
  2
*D10
340
0
  0
BLOCK_RECORD
  5
A6A2
330
1
100
AcDbSymbolTableRecord
100
AcDbBlockTableRecord
  2
*D11
340
0
  0
BLOCK_RECORD
  5
A725
330
1
100
AcDbSymbolTableRecord
100
AcDbBlockTableRecord
  2
*D12
340
0
  0
BLOCK_RECORD
  5
A77C
330
1
100
AcDbSymbolTableRecord
100
AcDbBlockTableRecord
  2
*D13
340
0
  0
BLOCK_RECORD
  5
A7A6
330
1
100
AcDbSymbolTableRecord
100
AcDbBlockTableRecord
  2
*D14
340
0
  0
BLOCK_RECORD
  5
A7CC
330
1
100
AcDbSymbolTableRecord
100
AcDbBlockTableRecord
  2
*D15
340
0
  0
BLOCK_RECORD
  5
B251
330
1
100
AcDbSymbolTableRecord
100
AcDbBlockTableRecord
  2
*D16
340
0
  0
BLOCK_RECORD
  5
B2BC
330
1
100
AcDbSymbolTableRecord
100
AcDbBlockTableRecord
  2
SW_CENTERMARKSYMBOL_2
340
0
  0
BLOCK_RECORD
  5
B2C7
330
1
100
AcDbSymbolTableRecord
100
AcDbBlockTableRecord
  2
SW_CENTERMARKSYMBOL_3
340
0
  0
BLOCK_RECORD
  5
B2D2
330
1
100
AcDbSymbolTableRecord
100
AcDbBlockTableRecord
  2
SW_CENTERMARKSYMBOL_4
340
0
  0
BLOCK_RECORD
  5
B2DD
330
1
100
AcDbSymbolTableRecord
100
AcDbBlockTableRecord
  2
SW_CENTERMARKSYMBOL_5
340
0
  0
BLOCK_RECORD
  5
B2E8
330
1
100
AcDbSymbolTableRecord
100
AcDbBlockTableRecord
  2
SW_CENTERMARKSYMBOL_6
340
0
  0
BLOCK_RECORD
  5
B2F3
330
1
100
AcDbSymbolTableRecord
100
AcDbBlockTableRecord
  2
SW_CENTERMARKSYMBOL_7
340
0
  0
BLOCK_RECORD
  5
B2FE
330
1
100
AcDbSymbolTableRecord
100
AcDbBlockTableRecord
  2
SW_CENTERMARKSYMBOL_8
340
0
  0
BLOCK_RECORD
  5
B309
330
1
100
AcDbSymbolTableRecord
100
AcDbBlockTableRecord
  2
SW_CENTERMARKSYMBOL_9
340
0
  0
BLOCK_RECORD
  5
B314
330
1
100
AcDbSymbolTableRecord
100
AcDbBlockTableRecord
  2
SW_CENTERMARKSYMBOL_10
340
0
  0
BLOCK_RECORD
  5
B31F
330
1
100
AcDbSymbolTableRecord
100
AcDbBlockTableRecord
  2
SW_CENTERMARKSYMBOL_11
340
0
  0
BLOCK_RECORD
  5
B32A
330
1
100
AcDbSymbolTableRecord
100
AcDbBlockTableRecord
  2
SW_CENTERMARKSYMBOL_12
340
0
  0
BLOCK_RECORD
  5
B335
330
1
100
AcDbSymbolTableRecord
100
AcDbBlockTableRecord
  2
SW_CENTERMARKSYMBOL_13
340
0
  0
BLOCK_RECORD
  5
B340
330
1
100
AcDbSymbolTableRecord
100
AcDbBlockTableRecord
  2
SW_CENTERMARKSYMBOL_14
340
0
  0
BLOCK_RECORD
  5
B34B
330
1
100
AcDbSymbolTableRecord
100
AcDbBlockTableRecord
  2
SW_CENTERMARKSYMBOL_15
340
0
  0
BLOCK_RECORD
  5
B356
330
1
100
AcDbSymbolTableRecord
100
AcDbBlockTableRecord
  2
SW_CENTERMARKSYMBOL_16
340
0
  0
BLOCK_RECORD
  5
B361
330
1
100
AcDbSymbolTableRecord
100
AcDbBlockTableRecord
  2
SW_CENTERMARKSYMBOL_17
340
0
  0
BLOCK_RECORD
  5
B36C
330
1
100
AcDbSymbolTableRecord
100
AcDbBlockTableRecord
  2
SW_CENTERMARKSYMBOL_18
340
0
  0
BLOCK_RECORD
  5
B377
330
1
100
AcDbSymbolTableRecord
100
AcDbBlockTableRecord
  2
SW_CENTERMARKSYMBOL_19
340
0
  0
BLOCK_RECORD
  5
B382
330
1
100
AcDbSymbolTableRecord
100
AcDbBlockTableRecord
  2
SW_CENTERMARKSYMBOL_20
340
0
  0
BLOCK_RECORD
  5
B38D
330
1
100
AcDbSymbolTableRecord
100
AcDbBlockTableRecord
  2
SW_CENTERMARKSYMBOL_21
340
0
  0
BLOCK_RECORD
  5
B398
330
1
100
AcDbSymbolTableRecord
100
AcDbBlockTableRecord
  2
SW_CENTERMARKSYMBOL_22
340
0
  0
BLOCK_RECORD
  5
B3A3
330
1
100
AcDbSymbolTableRecord
100
AcDbBlockTableRecord
  2
SW_CENTERMARKSYMBOL_23
340
0
  0
BLOCK_RECORD
  5
B3AE
330
1
100
AcDbSymbolTableRecord
100
AcDbBlockTableRecord
  2
SW_CENTERMARKSYMBOL_24
340
0
  0
BLOCK_RECORD
  5
B3B9
330
1
100
AcDbSymbolTableRecord
100
AcDbBlockTableRecord
  2
SW_CENTERMARKSYMBOL_25
340
0
  0
BLOCK_RECORD
  5
B3C4
330
1
100
AcDbSymbolTableRecord
100
AcDbBlockTableRecord
  2
SW_CENTERMARKSYMBOL_26
340
0
  0
BLOCK_RECORD
  5
B3CF
330
1
100
AcDbSymbolTableRecord
100
AcDbBlockTableRecord
  2
SW_CENTERMARKSYMBOL_27
340
0
  0
BLOCK_RECORD
  5
B3DA
330
1
100
AcDbSymbolTableRecord
100
AcDbBlockTableRecord
  2
SW_CENTERMARKSYMBOL_28
340
0
  0
BLOCK_RECORD
  5
B3E5
330
1
100
AcDbSymbolTableRecord
100
AcDbBlockTableRecord
  2
SW_CENTERMARKSYMBOL_29
340
0
  0
ENDTAB
  0
ENDSEC
  0
SECTION
  2
BLOCKS
  0
BLOCK
  5
20
330
1F
100
AcDbEntity
  8
0
100
AcDbBlockBegin
  2
*Model_Space
 70
     0
 10
0.0
 20
0.0
 30
0.0
  3
*Model_Space
  1

  0
ENDBLK
  5
21
330
1F
100
AcDbEntity
  8
0
100
AcDbBlockEnd
  0
BLOCK
  5
1C
330
1B
100
AcDbEntity
 67
     1
  8
0
100
AcDbBlockBegin
  2
*Paper_Space
 70
     0
 10
0.0
 20
0.0
 30
0.0
  3
*Paper_Space
  1

  0
ENDBLK
  5
1D
330
1B
100
AcDbEntity
 67
     1
  8
0
100
AcDbBlockEnd
  0
BLOCK
  5
24
330
23
100
AcDbEntity
  8
0
100
AcDbBlockBegin
  2
*Paper_Space0
 70
     0
 10
0.0
 20
0.0
 30
0.0
  3
*Paper_Space0
  1

  0
ENDBLK
  5
25
330
23
100
AcDbEntity
  8
0
100
AcDbBlockEnd
  0
BLOCK
  5
89
330
87
100
AcDbEntity
  8
0
100
AcDbBlockBegin
  2
GENAXEH
 70
     0
 10
0.0
 20
0.0
 30
0.0
  3
GENAXEH
  1

  0
LINE
  5
88
330
87
100
AcDbEntity
  8
0
100
AcDbLine
 10
-1.0
 20
0.0
 30
0.0
 11
1.0
 21
0.0
 31
0.0
  0
ENDBLK
  5
8A
330
87
100
AcDbEntity
  8
0
100
AcDbBlockEnd
  0
BLOCK
  5
7CF4
330
7CF2
100
AcDbEntity
  8
0
100
AcDbBlockBegin
  2
S2
 70
     0
 10
0.0
 20
0.0
 30
0.0
  3
S2
  1

  0
LINE
  5
7CF5
330
7CF2
100
AcDbEntity
  8
AM_5
100
AcDbLine
 10
0.0000000000000284
 20
4.000000000000028
 30
0.0
 11
4.0
 21
4.0
 31
0.0
  0
LINE
  5
7CF6
330
7CF2
100
AcDbEntity
  8
AM_5
100
AcDbLine
 10
0.0000000000000284
 20
0.0
 30
0.0
 11
4.0
 21
0.0
 31
0.0
  0
TEXT
  5
7CF7
330
7CF2
100
AcDbEntity
  8
AM_5
100
AcDbText
 10
1.099999999999999
 20
0.5
 30
0.0
 40
3.0
  1
2
 41
0.9
  7
DAYUS
 72
     4
 11
2.0
 21
2.0
 31
0.0
100
AcDbText
  0
LINE
  5
7CF8
330
7CF2
100
AcDbEntity
  8
AM_5
100
AcDbLine
 10
0.0
 20
4.0
 30
0.0
 11
0.0
 21
0.0
 31
0.0
  0
LINE
  5
7CF9
330
7CF2
100
AcDbEntity
  8
AM_5
100
AcDbLine
 10
4.0
 20
4.0
 30
0.0
 11
4.0
 21
0.0
 31
0.0
  0
ENDBLK
  5
7CFA
330
7CF2
100
AcDbEntity
  8
0
100
AcDbBlockEnd
  0
BLOCK
  5
856A
330
8569
100
AcDbEntity
  8
0
100
AcDbBlockBegin
  2
SW_CENTERMARKSYMBOL_0
 70
     0
 10
0.0
 20
0.0
 30
0.0
  3
SW_CENTERMARKSYMBOL_0
  1

  0
LINE
  5
856B
330
8569
100
AcDbEntity
  8
0
  6
Continuous
 62
     0
370
     0
100
AcDbLine
 10
0.0
 20
0.0
 30
0.0
 11
0.0
 21
2.500000000000002
 31
0.0
  0
LINE
  5
856C
330
8569
100
AcDbEntity
  8
0
  6
Continuous
 62
     0
370
     0
100
AcDbLine
 10
0.0
 20
0.0
 30
0.0
 11
-2.500000000000002
 21
0.0
 31
0.0
  0
LINE
  5
856D
330
8569
100
AcDbEntity
  8
0
  6
Continuous
 62
     0
370
     0
100
AcDbLine
 10
0.0
 20
0.0
 30
0.0
 11
0.0
 21
-2.500000000000002
 31
0.0
  0
LINE
  5
856E
330
8569
100
AcDbEntity
  8
0
  6
Continuous
 62
     0
370
     0
100
AcDbLine
 10
0.0
 20
0.0
 30
0.0
 11
2.500000000000002
 21
0.0
 31
0.0
  0
LINE
  5
856F
330
8569
100
AcDbEntity
  8
0
  6
Continuous
 62
     0
370
     0
100
AcDbLine
 10
0.0
 20
2.500000000000002
 30
0.0
 11
0.0
 21
4.500000000000003
 31
0.0
  0
LINE
  5
8570
330
8569
100
AcDbEntity
  8
0
  6
Continuous
 62
     0
370
     0
100
AcDbLine
 10
-2.500000000000002
 20
0.0
 30
0.0
 11
-4.500000000000003
 21
0.0
 31
0.0
  0
LINE
  5
8571
330
8569
100
AcDbEntity
  8
0
  6
Continuous
 62
     0
370
     0
100
AcDbLine
 10
0.0
 20
-2.500000000000002
 30
0.0
 11
0.0
 21
-4.500000000000003
 31
0.0
  0
LINE
  5
8572
330
8569
100
AcDbEntity
  8
0
  6
Continuous
 62
     0
370
     0
100
AcDbLine
 10
2.500000000000002
 20
0.0
 30
0.0
 11
4.500000000000003
 21
0.0
 31
0.0
  0
ENDBLK
  5
8573
330
8569
100
AcDbEntity
  8
0
100
AcDbBlockEnd
  0
BLOCK
  5
8575
330
8574
100
AcDbEntity
  8
0
100
AcDbBlockBegin
  2
SW_CENTERMARKSYMBOL_1
 70
     0
 10
0.0
 20
0.0
 30
0.0
  3
SW_CENTERMARKSYMBOL_1
  1

  0
LINE
  5
8576
330
8574
100
AcDbEntity
  8
0
  6
Continuous
 62
     0
370
     0
100
AcDbLine
 10
0.0
 20
0.0
 30
0.0
 11
0.0
 21
2.500000000000002
 31
0.0
  0
LINE
  5
8577
330
8574
100
AcDbEntity
  8
0
  6
Continuous
 62
     0
370
     0
100
AcDbLine
 10
0.0
 20
0.0
 30
0.0
 11
-2.500000000000002
 21
0.0
 31
0.0
  0
LINE
  5
8578
330
8574
100
AcDbEntity
  8
0
  6
Continuous
 62
     0
370
     0
100
AcDbLine
 10
0.0
 20
0.0
 30
0.0
 11
0.0
 21
-2.500000000000002
 31
0.0
  0
LINE
  5
8579
330
8574
100
AcDbEntity
  8
0
  6
Continuous
 62
     0
370
     0
100
AcDbLine
 10
0.0
 20
0.0
 30
0.0
 11
2.500000000000002
 21
0.0
 31
0.0
  0
LINE
  5
857A
330
8574
100
AcDbEntity
  8
0
  6
Continuous
 62
     0
370
     0
100
AcDbLine
 10
0.0
 20
5.000000000000004
 30
0.0
 11
0.0
 21
5.500000000000005
 31
0.0
  0
LINE
  5
857B
330
8574
100
AcDbEntity
  8
0
  6
Continuous
 62
     0
370
     0
100
AcDbLine
 10
-5.000000000000004
 20
0.0
 30
0.0
 11
-5.500000000000005
 21
0.0
 31
0.0
  0
LINE
  5
857C
330
8574
100
AcDbEntity
  8
0
  6
Continuous
 62
     0
370
     0
100
AcDbLine
 10
0.0
 20
-5.000000000000004
 30
0.0
 11
0.0
 21
-5.500000000000005
 31
0.0
  0
LINE
  5
857D
330
8574
100
AcDbEntity
  8
0
  6
Continuous
 62
     0
370
     0
100
AcDbLine
 10
5.000000000000004
 20
0.0
 30
0.0
 11
5.500000000000005
 21
0.0
 31
0.0
  0
ENDBLK
  5
857E
330
8574
100
AcDbEntity
  8
0
100
AcDbBlockEnd
  0
BLOCK
  5
A523
330
A517
100
AcDbEntity
  8
0
100
AcDbBlockBegin
  2
*D6
 70
     1
 10
0.0
 20
0.0
 30
0.0
  3
*D6
  1

  0
LINE
  5
BB83
330
A517
100
AcDbEntity
  8
AM_REFDIM
100
AcDbLine
 10
695.1307171772807
 20
102.397751833484
 30
0.0
 11
695.1307171772807
 21
91.67000175510322
 31
0.0
  0
LINE
  5
BB84
330
A517
100
AcDbEntity
  8
AM_REFDIM
100
AcDbLine
 10
707.3307171772787
 20
102.3977518334846
 30
0.0
 11
707.3307171772787
 21
91.67000175510322
 31
0.0
  0
LINE
  5
BB85
330
A517
100
AcDbEntity
  8
AM_REFDIM
100
AcDbLine
 10
698.6511390674179
 20
92.67583658085669
 30
0.0
 11
703.8102952871415
 21
92.67583658085669
 31
0.0
  0
SOLID
  5
BB86
330
A517
100
AcDbEntity
  8
AM_REFDIM
100
AcDbTrace
 10
698.6511390674179
 20
93.26257356254622
 30
0.0
 11
698.6511390674179
 21
92.08909959916717
 31
0.0
 12
695.1307171772807
 22
92.67583658085669
 32
0.0
 13
695.1307171772807
 23
92.67583658085669
 33
0.0
  0
SOLID
  5
BB87
330
A517
100
AcDbEntity
  8
AM_REFDIM
100
AcDbTrace
 10
703.8102952871415
 20
93.26257356254622
 30
0.0
 11
703.8102952871415
 21
92.08909959916717
 31
0.0
 12
707.3307171772787
 22
92.67583658085669
 32
0.0
 13
707.3307171772787
 23
92.67583658085669
 33
0.0
  0
MTEXT
  5
BB88
330
A517
100
AcDbEntity
  8
AM_REFDIM
100
AcDbMText
 10
701.2307171772775
 20
95.44222884989631
 30
0.0
 40
3.520421890137194
 41
0.0
 71
     5
 72
     1
  1
12.2
 73
     1
 44
1.0
1001
ACAD
1000
MTEXTBEGIN
1070
    73
1070
     1
1070
    44
1040
1.0
1070
    74
1070
     0
1000
MTEXTEND
  0
POINT
  5
BB89
330
A517
100
AcDbEntity
  8
Defpoints
 62
     0
100
AcDbPoint
 10
695.1307171772807
 20
103.4035866592374
 30
0.0
  0
POINT
  5
BB8A
330
A517
100
AcDbEntity
  8
Defpoints
 62
     0
100
AcDbPoint
 10
707.3307171772787
 20
103.4035866592381
 30
0.0
  0
POINT
  5
BB8B
330
A517
100
AcDbEntity
  8
Defpoints
 62
     0
100
AcDbPoint
 10
707.3307171772787
 20
92.67583658085669
 30
0.0
  0
ENDBLK
  5
A524
330
A517
100
AcDbEntity
  8
0
100
AcDbBlockEnd
  0
BLOCK
  5
A54B
330
A541
100
AcDbEntity
  8
0
100
AcDbBlockBegin
  2
*D7
 70
     1
 10
0.0
 20
0.0
 30
0.0
  3
*D7
  1

  0
LINE
  5
BB8C
330
A541
100
AcDbEntity
  8
AM_REFDIM
100
AcDbLine
 10
689.7307171549257
 20
99.67312931519735
 30
0.0
 11
689.7307171549257
 21
85.44954046588879
 31
0.0
  0
LINE
  5
BB8D
330
A541
100
AcDbEntity
  8
AM_REFDIM
100
AcDbLine
 10
712.7307171996292
 20
99.67312931519735
 30
0.0
 11
712.7307171996292
 21
85.44954046588879
 31
0.0
  0
LINE
  5
BB8E
330
A541
100
AcDbEntity
  8
AM_REFDIM
100
AcDbLine
 10
693.2511390450629
 20
86.45537529164228
 30
0.0
 11
709.210295309492
 21
86.45537529164228
 31
0.0
  0
SOLID
  5
BB8F
330
A541
100
AcDbEntity
  8
AM_REFDIM
100
AcDbTrace
 10
693.2511390450629
 20
87.0421122733318
 30
0.0
 11
693.2511390450629
 21
85.86863830995275
 31
0.0
 12
689.7307171549257
 22
86.45537529164228
 32
0.0
 13
689.7307171549257
 23
86.45537529164228
 33
0.0
  0
SOLID
  5
BB90
330
A541
100
AcDbEntity
  8
AM_REFDIM
100
AcDbTrace
 10
709.210295309492
 20
87.0421122733318
 30
0.0
 11
709.210295309492
 21
85.86863830995275
 31
0.0
 12
712.7307171996292
 22
86.45537529164228
 32
0.0
 13
712.7307171996292
 23
86.45537529164228
 33
0.0
  0
MTEXT
  5
BB91
330
A541
100
AcDbEntity
  8
AM_REFDIM
100
AcDbMText
 10
701.2307171772779
 20
89.22176756068187
 30
0.0
 40
3.520421890137194
 41
0.0
 71
     5
 72
     1
  1
23
 73
     1
 44
1.0
1001
ACAD
1000
MTEXTBEGIN
1070
    73
1070
     1
1070
    44
1040
1.0
1070
    74
1070
     0
1000
MTEXTEND
  0
POINT
  5
BB92
330
A541
100
AcDbEntity
  8
Defpoints
 62
     0
100
AcDbPoint
 10
689.7307171549257
 20
100.6789641409508
 30
0.0
  0
POINT
  5
BB93
330
A541
100
AcDbEntity
  8
Defpoints
 62
     0
100
AcDbPoint
 10
712.7307171996292
 20
100.6789641409508
 30
0.0
  0
POINT
  5
BB94
330
A541
100
AcDbEntity
  8
Defpoints
 62
     0
100
AcDbPoint
 10
712.7307171996292
 20
86.45537529164228
 30
0.0
  0
ENDBLK
  5
A54C
330
A541
100
AcDbEntity
  8
0
100
AcDbBlockEnd
  0
BLOCK
  5
A589
330
A57F
100
AcDbEntity
  8
0
100
AcDbBlockBegin
  2
*D8
 70
     1
 10
0.0
 20
0.0
 30
0.0
  3
*D8
  1

  0
LINE
  5
BB95
330
A57F
100
AcDbEntity
  8
AM_REFDIM
100
AcDbLine
 10
747.2002704544349
 20
142.9357254832377
 30
0.0
 11
762.6042738484468
 21
142.9357254832377
 31
0.0
  0
LINE
  5
BB96
330
A57F
100
AcDbEntity
  8
AM_REFDIM
100
AcDbLine
 10
713.7365520253827
 20
100.6789641409508
 30
0.0
 11
762.6042738484468
 21
100.6789641409508
 31
0.0
  0
LINE
  5
BB97
330
A57F
100
AcDbEntity
  8
AM_REFDIM
100
AcDbLine
 10
761.5984390226933
 20
139.4153035931005
 30
0.0
 11
761.5984390226933
 21
104.199386031088
 31
0.0
  0
SOLID
  5
BB98
330
A57F
100
AcDbEntity
  8
AM_REFDIM
100
AcDbTrace
 10
761.0117020410037
 20
139.4153035931005
 30
0.0
 11
762.1851760043829
 21
139.4153035931005
 31
0.0
 12
761.5984390226933
 22
142.9357254832377
 32
0.0
 13
761.5984390226933
 23
142.9357254832377
 33
0.0
  0
SOLID
  5
BB99
330
A57F
100
AcDbEntity
  8
AM_REFDIM
100
AcDbTrace
 10
761.0117020410037
 20
104.199386031088
 30
0.0
 11
762.1851760043829
 21
104.199386031088
 31
0.0
 12
761.5984390226933
 22
100.6789641409508
 32
0.0
 13
761.5984390226933
 23
100.6789641409508
 33
0.0
  0
MTEXT
  5
BB9A
330
A57F
100
AcDbEntity
  8
AM_REFDIM
100
AcDbMText
 10
758.8320467536536
 20
121.8073448120943
 30
0.0
 40
3.520421890137194
 41
0.0
 71
     5
 72
     1
  1
42
 11
0.0000000000000001
 21
1.0
 31
0.0
 73
     1
 44
1.0
1001
ACAD
1000
MTEXTBEGIN
1070
    73
1070
     1
1070
    44
1040
1.0
1070
    74
1070
     0
1000
MTEXTEND
  0
POINT
  5
BB9B
330
A57F
100
AcDbEntity
  8
Defpoints
 62
     0
100
AcDbPoint
 10
746.1944356286815
 20
142.9357254832377
 30
0.0
  0
POINT
  5
BB9C
330
A57F
100
AcDbEntity
  8
Defpoints
 62
     0
100
AcDbPoint
 10
712.7307171996292
 20
100.6789641409508
 30
0.0
  0
POINT
  5
BB9D
330
A57F
100
AcDbEntity
  8
Defpoints
 62
     0
100
AcDbPoint
 10
761.5984390226933
 20
100.6789641409508
 30
0.0
  0
ENDBLK
  5
A58A
330
A57F
100
AcDbEntity
  8
0
100
AcDbBlockEnd
  0
BLOCK
  5
A62D
330
A623
100
AcDbEntity
  8
0
100
AcDbBlockBegin
  2
*D9
 70
     1
 10
0.0
 20
0.0
 30
0.0
  3
*D9
  1

  0
LINE
  5
BB9E
330
A623
100
AcDbEntity
  8
AM_REFDIM
100
AcDbLine
 10
786.7905194366474
 20
183.4415621269329
 30
0.0
 11
786.7905194366474
 21
191.7412698223419
 31
0.0
  0
LINE
  5
BB9F
330
A623
100
AcDbEntity
  8
AM_REFDIM
100
AcDbLine
 10
843.2905194427007
 20
183.9415594149215
 30
0.0
 11
843.2905194427007
 21
191.7412698223419
 31
0.0
  0
LINE
  5
BBA0
330
A623
100
AcDbEntity
  8
AM_REFDIM
100
AcDbLine
 10
790.3109413267846
 20
190.7354349965884
 30
0.0
 11
839.7700975525635
 21
190.7354349965884
 31
0.0
  0
SOLID
  5
BBA1
330
A623
100
AcDbEntity
  8
AM_REFDIM
100
AcDbTrace
 10
790.3109413267846
 20
191.3221719782779
 30
0.0
 11
790.3109413267846
 21
190.1486980148988
 31
0.0
 12
786.7905194366474
 22
190.7354349965884
 32
0.0
 13
786.7905194366474
 23
190.7354349965884
 33
0.0
  0
SOLID
  5
BBA2
330
A623
100
AcDbEntity
  8
AM_REFDIM
100
AcDbTrace
 10
839.7700975525635
 20
191.3221719782779
 30
0.0
 11
839.7700975525635
 21
190.1486980148988
 31
0.0
 12
843.2905194427007
 22
190.7354349965884
 32
0.0
 13
843.2905194427007
 23
190.7354349965884
 33
0.0
  0
MTEXT
  5
BBA3
330
A623
100
AcDbEntity
  8
AM_REFDIM
100
AcDbMText
 10
815.0405194396741
 20
193.5014807674104
 30
0.0
 40
3.520421890137194
 41
0.0
 71
     5
 72
     1
  1
56.5
 73
     1
 44
1.0
1001
ACAD
1000
MTEXTBEGIN
1070
    73
1070
     1
1070
    44
1040
1.0
1070
    74
1070
     0
1000
MTEXTEND
  0
POINT
  5
BBA4
330
A623
100
AcDbEntity
  8
Defpoints
 62
     0
100
AcDbPoint
 10
786.7905194366474
 20
182.4357273011794
 30
0.0
  0
POINT
  5
BBA5
330
A623
100
AcDbEntity
  8
Defpoints
 62
     0
100
AcDbPoint
 10
843.2905194427007
 20
182.935724589168
 30
0.0
  0
POINT
  5
BBA6
330
A623
100
AcDbEntity
  8
Defpoints
 62
     0
100
AcDbPoint
 10
843.2905194427007
 20
190.7354349965884
 30
0.0
  0
ENDBLK
  5
A62E
330
A623
100
AcDbEntity
  8
0
100
AcDbBlockEnd
  0
BLOCK
  5
A686
330
A67C
100
AcDbEntity
  8
0
100
AcDbBlockBegin
  2
*D10
 70
     1
 10
0.0
 20
0.0
 30
0.0
  3
*D10
  1

  0
LINE
  5
BBA7
330
A67C
100
AcDbEntity
  8
AM_REFDIM
100
AcDbLine
 10
844.2963542684543
 20
182.935724589168
 30
0.0
 11
851.4740154106659
 21
182.935724589168
 31
0.0
  0
LINE
  5
BBA8
330
A67C
100
AcDbEntity
  8
AM_REFDIM
100
AcDbLine
 10
844.2963542684543
 20
102.9357263773075
 30
0.0
 11
851.4740154106659
 21
102.9357263773075
 31
0.0
  0
LINE
  5
BBA9
330
A67C
100
AcDbEntity
  8
AM_REFDIM
100
AcDbLine
 10
850.4681805849125
 20
179.4153026990309
 30
0.0
 11
850.4681805849125
 21
106.4561482674447
 31
0.0
  0
SOLID
  5
BBAA
330
A67C
100
AcDbEntity
  8
AM_REFDIM
100
AcDbTrace
 10
849.881443603223
 20
179.4153026990309
 30
0.0
 11
851.0549175666021
 21
179.4153026990309
 31
0.0
 12
850.4681805849125
 22
182.935724589168
 32
0.0
 13
850.4681805849125
 23
182.935724589168
 33
0.0
  0
SOLID
  5
BBAB
330
A67C
100
AcDbEntity
  8
AM_REFDIM
100
AcDbTrace
 10
849.881443603223
 20
106.4561482674447
 30
0.0
 11
851.0549175666021
 21
106.4561482674447
 31
0.0
 12
850.4681805849125
 22
102.9357263773075
 32
0.0
 13
850.4681805849125
 23
102.9357263773075
 33
0.0
  0
MTEXT
  5
BBAC
330
A67C
100
AcDbEntity
  8
AM_REFDIM
100
AcDbMText
 10
847.7021348140905
 20
142.9357254832378
 30
0.0
 40
3.520421890137194
 41
0.0
 71
     5
 72
     1
  1
%%c80
 11
0.0000000000000001
 21
1.0
 31
0.0
 73
     1
 44
1.0
1001
ACAD
1000
MTEXTBEGIN
1070
    73
1070
     1
1070
    44
1040
1.0
1070
    74
1070
     0
1000
MTEXTEND
  0
POINT
  5
BBAD
330
A67C
100
AcDbEntity
  8
Defpoints
 62
     0
100
AcDbPoint
 10
843.2905194427007
 20
182.935724589168
 30
0.0
  0
POINT
  5
BBAE
330
A67C
100
AcDbEntity
  8
Defpoints
 62
     0
100
AcDbPoint
 10
843.2905194427007
 20
102.9357263773075
 30
0.0
  0
POINT
  5
BBAF
330
A67C
100
AcDbEntity
  8
Defpoints
 62
     0
100
AcDbPoint
 10
850.4681805849125
 20
102.9357263773075
 30
0.0
  0
ENDBLK
  5
A687
330
A67C
100
AcDbEntity
  8
0
100
AcDbBlockEnd
  0
BLOCK
  5
A6AC
330
A6A2
100
AcDbEntity
  8
0
100
AcDbBlockBegin
  2
*D11
 70
     1
 10
0.0
 20
0.0
 30
0.0
  3
*D11
  1

  0
LINE
  5
BBB0
330
A6A2
100
AcDbEntity
  8
AM_REFDIM
100
AcDbLine
 10
843.2905194427007
 20
101.929891551554
 30
0.0
 11
843.2905194427007
 21
92.3782055590169
 31
0.0
  0
LINE
  5
BBB1
330
A6A2
100
AcDbEntity
  8
AM_REFDIM
100
AcDbLine
 10
803.7905203605193
 20
99.83446418744311
 30
0.0
 11
803.7905203605193
 21
92.3782055590169
 31
0.0
  0
LINE
  5
BBB2
330
A6A2
100
AcDbEntity
  8
AM_REFDIM
100
AcDbLine
 10
839.7700975525635
 20
93.38404038477037
 30
0.0
 11
807.3109422506565
 21
93.38404038477037
 31
0.0
  0
SOLID
  5
BBB3
330
A6A2
100
AcDbEntity
  8
AM_REFDIM
100
AcDbTrace
 10
839.7700975525635
 20
93.97077736645989
 30
0.0
 11
839.7700975525635
 21
92.79730340308084
 31
0.0
 12
843.2905194427007
 22
93.38404038477037
 32
0.0
 13
843.2905194427007
 23
93.38404038477037
 33
0.0
  0
SOLID
  5
BBB4
330
A6A2
100
AcDbEntity
  8
AM_REFDIM
100
AcDbTrace
 10
807.3109422506565
 20
93.97077736645989
 30
0.0
 11
807.3109422506565
 21
92.79730340308084
 31
0.0
 12
803.7905203605193
 22
93.38404038477037
 32
0.0
 13
803.7905203605193
 23
93.38404038477037
 33
0.0
  0
MTEXT
  5
BBB5
330
A6A2
100
AcDbEntity
  8
AM_REFDIM
100
AcDbMText
 10
823.5405199016101
 20
96.15008615559245
 30
0.0
 40
3.520421890137194
 41
0.0
 71
     5
 72
     1
  1
39.5
 73
     1
 44
1.0
1001
ACAD
1000
MTEXTBEGIN
1070
    73
1070
     1
1070
    44
1040
1.0
1070
    74
1070
     0
1000
MTEXTEND
  0
POINT
  5
BBB6
330
A6A2
100
AcDbEntity
  8
Defpoints
 62
     0
100
AcDbPoint
 10
843.2905194427007
 20
102.9357263773075
 30
0.0
  0
POINT
  5
BBB7
330
A6A2
100
AcDbEntity
  8
Defpoints
 62
     0
100
AcDbPoint
 10
803.7905203605193
 20
100.8402990131965
 30
0.0
  0
POINT
  5
BBB8
330
A6A2
100
AcDbEntity
  8
Defpoints
 62
     0
100
AcDbPoint
 10
803.7905203605193
 20
93.38404038477037
 30
0.0
  0
ENDBLK
  5
A6AD
330
A6A2
100
AcDbEntity
  8
0
100
AcDbBlockEnd
  0
BLOCK
  5
A731
330
A725
100
AcDbEntity
  8
0
100
AcDbBlockBegin
  2
*D12
 70
     1
 10
0.0
 20
0.0
 30
0.0
  3
*D12
  1

  0
LINE
  5
BBB9
330
A725
100
AcDbEntity
  8
AM_REFDIM
100
AcDbLine
 10
784.7905191088218
 20
183.2869886565788
 30
0.0
 11
784.7905191088218
 21
191.7412698223419
 31
0.0
  0
LINE
  5
BBBA
330
A725
100
AcDbEntity
  8
AM_REFDIM
100
AcDbLine
 10
786.7905194366474
 20
183.4415621269329
 30
0.0
 11
786.7905194366474
 21
191.7412698223419
 31
0.0
  0
LINE
  5
BBBB
330
A725
100
AcDbEntity
  8
AM_REFDIM
100
AcDbLine
 10
781.2700972186847
 20
190.7354349965884
 30
0.0
 11
777.7496753285475
 21
190.7354349965884
 31
0.0
  0
LINE
  5
BBBC
330
A725
100
AcDbEntity
  8
AM_REFDIM
100
AcDbLine
 10
790.3109413267846
 20
190.7354349965884
 30
0.0
 11
793.8313632169218
 21
190.7354349965884
 31
0.0
  0
LINE
  5
BBBD
330
A725
100
AcDbEntity
  8
AM_REFDIM
100
AcDbLine
 10
784.7905191088218
 20
190.7354349965884
 30
0.0
 11
786.7905194366474
 21
190.7354349965884
 31
0.0
  0
SOLID
  5
BBBE
330
A725
100
AcDbEntity
  8
AM_REFDIM
100
AcDbTrace
 10
781.2700972186847
 20
191.3221719782779
 30
0.0
 11
781.2700972186847
 21
190.1486980148988
 31
0.0
 12
784.7905191088218
 22
190.7354349965884
 32
0.0
 13
784.7905191088218
 23
190.7354349965884
 33
0.0
  0
SOLID
  5
BBBF
330
A725
100
AcDbEntity
  8
AM_REFDIM
100
AcDbTrace
 10
790.3109413267846
 20
191.3221719782779
 30
0.0
 11
790.3109413267846
 21
190.1486980148988
 31
0.0
 12
786.7905194366474
 22
190.7354349965884
 32
0.0
 13
786.7905194366474
 23
190.7354349965884
 33
0.0
  0
MTEXT
  5
BBC0
330
A725
100
AcDbEntity
  8
AM_REFDIM
100
AcDbMText
 10
785.7905192727346
 20
193.501827265628
 30
0.0
 40
3.520421890137194
 41
0.0
 71
     5
 72
     1
  1
2
 73
     1
 44
1.0
1001
ACAD
1000
MTEXTBEGIN
1070
    73
1070
     1
1070
    44
1040
1.0
1070
    74
1070
     0
1000
MTEXTEND
  0
POINT
  5
BBC1
330
A725
100
AcDbEntity
  8
Defpoints
 62
     0
100
AcDbPoint
 10
784.7905191088218
 20
182.2811538308253
 30
0.0
  0
POINT
  5
BBC2
330
A725
100
AcDbEntity
  8
Defpoints
 62
     0
100
AcDbPoint
 10
786.7905194366474
 20
182.4357273011794
 30
0.0
  0
POINT
  5
BBC3
330
A725
100
AcDbEntity
  8
Defpoints
 62
     0
100
AcDbPoint
 10
786.7905194366474
 20
190.7354349965884
 30
0.0
  0
ENDBLK
  5
A732
330
A725
100
AcDbEntity
  8
0
100
AcDbBlockEnd
  0
BLOCK
  5
A788
330
A77C
100
AcDbEntity
  8
0
100
AcDbBlockBegin
  2
*D13
 70
     1
 10
0.0
 20
0.0
 30
0.0
  3
*D13
  1

  0
LINE
  5
BBC4
330
A77C
100
AcDbEntity
  8
AM_REFDIM
100
AcDbLine
 10
702.236552003031
 20
117.7789660016905
 30
0.0
 11
745.7588620536491
 21
117.7789660016904
 31
0.0
  0
LINE
  5
BBC5
330
A77C
100
AcDbEntity
  8
AM_REFDIM
100
AcDbLine
 10
708.236552055185
 20
113.6789662718169
 30
0.0
 11
745.7588620536491
 21
113.6789662718168
 31
0.0
  0
LINE
  5
BBC6
330
A77C
100
AcDbEntity
  8
AM_REFDIM
100
AcDbLine
 10
744.7530272278957
 20
121.2993878918276
 30
0.0
 11
744.7530272278957
 21
124.8198097819648
 31
0.0
  0
LINE
  5
BBC7
330
A77C
100
AcDbEntity
  8
AM_REFDIM
100
AcDbLine
 10
744.7530272278957
 20
110.1585443816796
 30
0.0
 11
744.7530272278957
 21
106.6381224915424
 31
0.0
  0
LINE
  5
BBC8
330
A77C
100
AcDbEntity
  8
AM_REFDIM
100
AcDbLine
 10
744.7530272278957
 20
117.7789660016904
 30
0.0
 11
744.7530272278957
 21
113.6789662718168
 31
0.0
  0
SOLID
  5
BBC9
330
A77C
100
AcDbEntity
  8
AM_REFDIM
100
AcDbTrace
 10
744.1662902462061
 20
121.2993878918276
 30
0.0
 11
745.3397642095852
 21
121.2993878918276
 31
0.0
 12
744.7530272278957
 22
117.7789660016904
 32
0.0
 13
744.7530272278957
 23
117.7789660016904
 33
0.0
  0
SOLID
  5
BBCA
330
A77C
100
AcDbEntity
  8
AM_REFDIM
100
AcDbTrace
 10
744.1662902462061
 20
110.1585443816796
 30
0.0
 11
745.3397642095852
 21
110.1585443816796
 31
0.0
 12
744.7530272278957
 22
113.6789662718168
 32
0.0
 13
744.7530272278957
 23
113.6789662718168
 33
0.0
  0
MTEXT
  5
BBCB
330
A77C
100
AcDbEntity
  8
AM_REFDIM
100
AcDbMText
 10
741.9869814570736
 20
115.7289661367538
 30
0.0
 40
3.520421890137194
 41
0.0
 71
     5
 72
     1
  1
4
 11
0.0000000000000001
 21
1.0
 31
0.0
 73
     1
 44
1.0
1001
ACAD
1000
MTEXTBEGIN
1070
    73
1070
     1
1070
    44
1040
1.0
1070
    74
1070
     0
1000
MTEXTEND
  0
POINT
  5
BBCC
330
A77C
100
AcDbEntity
  8
Defpoints
 62
     0
100
AcDbPoint
 10
701.2307171772775
 20
117.7789660016905
 30
0.0
  0
POINT
  5
BBCD
330
A77C
100
AcDbEntity
  8
Defpoints
 62
     0
100
AcDbPoint
 10
707.2307172294316
 20
113.6789662718169
 30
0.0
  0
POINT
  5
BBCE
330
A77C
100
AcDbEntity
  8
Defpoints
 62
     0
100
AcDbPoint
 10
744.7530272278957
 20
113.6789662718168
 30
0.0
  0
ENDBLK
  5
A789
330
A77C
100
AcDbEntity
  8
0
100
AcDbBlockEnd
  0
BLOCK
  5
A7B0
330
A7A6
100
AcDbEntity
  8
0
100
AcDbBlockBegin
  2
*D14
 70
     1
 10
0.0
 20
0.0
 30
0.0
  3
*D14
  1

  0
LINE
  5
BBCF
330
A7A6
100
AcDbEntity
  8
AM_REFDIM
100
AcDbLine
 10
702.236552003031
 20
117.7789660016905
 30
0.0
 11
754.7467047297284
 21
117.7789660016904
 31
0.0
  0
LINE
  5
BBD0
330
A7A6
100
AcDbEntity
  8
AM_REFDIM
100
AcDbLine
 10
702.236552003031
 20
104.7789660016904
 30
0.0
 11
754.7467047297284
 21
104.7789660016904
 31
0.0
  0
LINE
  5
BBD1
330
A7A6
100
AcDbEntity
  8
AM_REFDIM
100
AcDbLine
 10
753.7408699039749
 20
114.2585441115532
 30
0.0
 11
753.7408699039749
 21
108.2993878918276
 31
0.0
  0
SOLID
  5
BBD2
330
A7A6
100
AcDbEntity
  8
AM_REFDIM
100
AcDbTrace
 10
753.1541329222854
 20
114.2585441115532
 30
0.0
 11
754.3276068856645
 21
114.2585441115532
 31
0.0
 12
753.7408699039749
 22
117.7789660016904
 32
0.0
 13
753.7408699039749
 23
117.7789660016904
 33
0.0
  0
SOLID
  5
BBD3
330
A7A6
100
AcDbEntity
  8
AM_REFDIM
100
AcDbTrace
 10
753.1541329222854
 20
108.2993878918276
 30
0.0
 11
754.3276068856645
 21
108.2993878918276
 31
0.0
 12
753.7408699039749
 22
104.7789660016904
 32
0.0
 13
753.7408699039749
 23
104.7789660016904
 33
0.0
  0
MTEXT
  5
BBD4
330
A7A6
100
AcDbEntity
  8
AM_REFDIM
100
AcDbMText
 10
750.9748241331529
 20
111.2789660016904
 30
0.0
 40
3.520421890137194
 41
0.0
 71
     5
 72
     1
  1
13
 11
0.0000000000000001
 21
1.0
 31
0.0
 73
     1
 44
1.0
1001
ACAD
1000
MTEXTBEGIN
1070
    73
1070
     1
1070
    44
1040
1.0
1070
    74
1070
     0
1000
MTEXTEND
  0
POINT
  5
BBD5
330
A7A6
100
AcDbEntity
  8
Defpoints
 62
     0
100
AcDbPoint
 10
701.2307171772775
 20
117.7789660016905
 30
0.0
  0
POINT
  5
BBD6
330
A7A6
100
AcDbEntity
  8
Defpoints
 62
     0
100
AcDbPoint
 10
701.2307171772775
 20
104.7789660016904
 30
0.0
  0
POINT
  5
BBD7
330
A7A6
100
AcDbEntity
  8
Defpoints
 62
     0
100
AcDbPoint
 10
753.7408699039749
 20
104.7789660016904
 30
0.0
  0
ENDBLK
  5
A7B1
330
A7A6
100
AcDbEntity
  8
0
100
AcDbBlockEnd
  0
BLOCK
  5
A7D8
330
A7CC
100
AcDbEntity
  8
0
100
AcDbBlockBegin
  2
*D15
 70
     1
 10
0.0
 20
0.0
 30
0.0
  3
*D15
  1

  0
LINE
  5
BBD8
330
A7CC
100
AcDbEntity
  8
AM_REFDIM
100
AcDbLine
 10
702.236552003031
 20
104.7789660016904
 30
0.0
 11
745.7588620536491
 21
104.7789660016904
 31
0.0
  0
LINE
  5
BBD9
330
A7CC
100
AcDbEntity
  8
AM_REFDIM
100
AcDbLine
 10
713.7365520253827
 20
100.6789641409508
 30
0.0
 11
745.7588620536491
 21
100.6789641409508
 31
0.0
  0
LINE
  5
BBDA
330
A7CC
100
AcDbEntity
  8
AM_REFDIM
100
AcDbLine
 10
744.7530272278957
 20
108.2993878918276
 30
0.0
 11
744.7530272278957
 21
111.8198097819648
 31
0.0
  0
LINE
  5
BBDB
330
A7CC
100
AcDbEntity
  8
AM_REFDIM
100
AcDbLine
 10
744.7530272278957
 20
97.15854225081361
 30
0.0
 11
744.7530272278957
 21
93.63812036067642
 31
0.0
  0
LINE
  5
BBDC
330
A7CC
100
AcDbEntity
  8
AM_REFDIM
100
AcDbLine
 10
744.7530272278957
 20
104.7789660016904
 30
0.0
 11
744.7530272278957
 21
100.6789641409508
 31
0.0
  0
SOLID
  5
BBDD
330
A7CC
100
AcDbEntity
  8
AM_REFDIM
100
AcDbTrace
 10
744.1662902462061
 20
108.2993878918276
 30
0.0
 11
745.3397642095852
 21
108.2993878918276
 31
0.0
 12
744.7530272278957
 22
104.7789660016904
 32
0.0
 13
744.7530272278957
 23
104.7789660016904
 33
0.0
  0
SOLID
  5
BBDE
330
A7CC
100
AcDbEntity
  8
AM_REFDIM
100
AcDbTrace
 10
744.1662902462061
 20
97.15854225081361
 30
0.0
 11
745.3397642095852
 21
97.15854225081361
 31
0.0
 12
744.7530272278957
 22
100.6789641409508
 32
0.0
 13
744.7530272278957
 23
100.6789641409508
 33
0.0
  0
MTEXT
  5
BBDF
330
A7CC
100
AcDbEntity
  8
AM_REFDIM
100
AcDbMText
 10
741.9869814570736
 20
102.7289650713207
 30
0.0
 40
3.520421890137194
 41
0.0
 71
     5
 72
     1
  1
4
 11
0.0000000000000001
 21
1.0
 31
0.0
 73
     1
 44
1.0
1001
ACAD
1000
MTEXTBEGIN
1070
    73
1070
     1
1070
    44
1040
1.0
1070
    74
1070
     0
1000
MTEXTEND
  0
POINT
  5
BBE0
330
A7CC
100
AcDbEntity
  8
Defpoints
 62
     0
100
AcDbPoint
 10
701.2307171772775
 20
104.7789660016904
 30
0.0
  0
POINT
  5
BBE1
330
A7CC
100
AcDbEntity
  8
Defpoints
 62
     0
100
AcDbPoint
 10
712.7307171996292
 20
100.6789641409508
 30
0.0
  0
POINT
  5
BBE2
330
A7CC
100
AcDbEntity
  8
Defpoints
 62
     0
100
AcDbPoint
 10
744.7530272278957
 20
100.6789641409508
 30
0.0
  0
ENDBLK
  5
A7D9
330
A7CC
100
AcDbEntity
  8
0
100
AcDbBlockEnd
  0
BLOCK
  5
B25B
330
B251
100
AcDbEntity
  8
0
100
AcDbBlockBegin
  2
*D16
 70
     1
 10
0.0
 20
0.0
 30
0.0
  3
*D16
  1

  0
LINE
  5
BBE3
330
B251
100
AcDbEntity
  8
AM_REFDIM
100
AcDbLine
 10
694.2248822993699
 20
121.6789657204739
 30
0.0
 11
658.6007876216037
 21
121.6789657204739
 31
0.0
  0
LINE
  5
BBE4
330
B251
100
AcDbEntity
  8
AM_REFDIM
100
AcDbLine
 10
688.7248823291722
 20
100.6789641409508
 30
0.0
 11
658.6007876216037
 21
100.6789641409508
 31
0.0
  0
LINE
  5
BBE5
330
B251
100
AcDbEntity
  8
AM_REFDIM
100
AcDbLine
 10
659.6066224473572
 20
118.1585438303367
 30
0.0
 11
659.6066224473572
 21
104.199386031088
 31
0.0
  0
SOLID
  5
BBE6
330
B251
100
AcDbEntity
  8
AM_REFDIM
100
AcDbTrace
 10
659.0198854656676
 20
118.1585438303367
 30
0.0
 11
660.1933594290468
 21
118.1585438303367
 31
0.0
 12
659.6066224473572
 22
121.6789657204739
 32
0.0
 13
659.6066224473572
 23
121.6789657204739
 33
0.0
  0
SOLID
  5
BBE7
330
B251
100
AcDbEntity
  8
AM_REFDIM
100
AcDbTrace
 10
659.0198854656676
 20
104.199386031088
 30
0.0
 11
660.1933594290468
 21
104.199386031088
 31
0.0
 12
659.6066224473572
 22
100.6789641409508
 32
0.0
 13
659.6066224473572
 23
100.6789641409508
 33
0.0
  0
MTEXT
  5
BBE8
330
B251
100
AcDbEntity
  8
AM_REFDIM
100
AcDbMText
 10
656.8402301783176
 20
112.7614860867091
 30
0.0
 40
3.520421890137194
 41
0.0
 71
     5
 72
     1
  1
21
 11
0.0000000000000001
 21
1.0
 31
0.0
 73
     1
 44
1.0
1001
ACAD
1000
MTEXTBEGIN
1070
    73
1070
     1
1070
    44
1040
1.0
1070
    74
1070
     0
1000
MTEXTEND
  0
POINT
  5
BBE9
330
B251
100
AcDbEntity
  8
Defpoints
 62
     0
100
AcDbPoint
 10
695.2307171251234
 20
121.6789657204739
 30
0.0
  0
POINT
  5
BBEA
330
B251
100
AcDbEntity
  8
Defpoints
 62
     0
100
AcDbPoint
 10
689.7307171549257
 20
100.6789641409508
 30
0.0
  0
POINT
  5
BBEB
330
B251
100
AcDbEntity
  8
Defpoints
 62
     0
100
AcDbPoint
 10
659.6066224473572
 20
100.6789641409508
 30
0.0
  0
ENDBLK
  5
B25C
330
B251
100
AcDbEntity
  8
0
100
AcDbBlockEnd
  0
BLOCK
  5
B2BD
330
B2BC
100
AcDbEntity
  8
0
100
AcDbBlockBegin
  2
SW_CENTERMARKSYMBOL_2
 70
     0
 10
0.0
 20
0.0
 30
0.0
  3
SW_CENTERMARKSYMBOL_2
  1

  0
LINE
  5
B2BE
330
B2BC
100
AcDbEntity
  8
0
  6
Continuous
 62
     0
370
     0
100
AcDbLine
 10
0.0
 20
0.0
 30
0.0
 11
0.0
 21
2.500000000000002
 31
0.0
  0
LINE
  5
B2BF
330
B2BC
100
AcDbEntity
  8
0
  6
Continuous
 62
     0
370
     0
100
AcDbLine
 10
0.0
 20
0.0
 30
0.0
 11
-2.500000000000002
 21
0.0
 31
0.0
  0
LINE
  5
B2C0
330
B2BC
100
AcDbEntity
  8
0
  6
Continuous
 62
     0
370
     0
100
AcDbLine
 10
0.0
 20
0.0
 30
0.0
 11
0.0
 21
-2.500000000000002
 31
0.0
  0
LINE
  5
B2C1
330
B2BC
100
AcDbEntity
  8
0
  6
Continuous
 62
     0
370
     0
100
AcDbLine
 10
0.0
 20
0.0
 30
0.0
 11
2.500000000000002
 21
0.0
 31
0.0
  0
LINE
  5
B2C2
330
B2BC
100
AcDbEntity
  8
0
  6
Continuous
 62
     0
370
     0
100
AcDbLine
 10
0.0
 20
2.500000000000002
 30
0.0
 11
0.0
 21
4.599999999999992
 31
0.0
  0
LINE
  5
B2C3
330
B2BC
100
AcDbEntity
  8
0
  6
Continuous
 62
     0
370
     0
100
AcDbLine
 10
-2.500000000000002
 20
0.0
 30
0.0
 11
-4.599999999999992
 21
0.0
 31
0.0
  0
LINE
  5
B2C4
330
B2BC
100
AcDbEntity
  8
0
  6
Continuous
 62
     0
370
     0
100
AcDbLine
 10
0.0
 20
-2.500000000000002
 30
0.0
 11
0.0
 21
-4.60000000000002
 31
0.0
  0
LINE
  5
B2C5
330
B2BC
100
AcDbEntity
  8
0
  6
Continuous
 62
     0
370
     0
100
AcDbLine
 10
2.500000000000002
 20
0.0
 30
0.0
 11
4.60000000000002
 21
0.0
 31
0.0
  0
ENDBLK
  5
B2C6
330
B2BC
100
AcDbEntity
  8
0
100
AcDbBlockEnd
  0
BLOCK
  5
B2C8
330
B2C7
100
AcDbEntity
  8
0
100
AcDbBlockBegin
  2
SW_CENTERMARKSYMBOL_3
 70
     0
 10
0.0
 20
0.0
 30
0.0
  3
SW_CENTERMARKSYMBOL_3
  1

  0
LINE
  5
B2C9
330
B2C7
100
AcDbEntity
  8
0
  6
Continuous
 62
     0
370
     0
100
AcDbLine
 10
0.0
 20
0.0
 30
0.0
 11
0.0
 21
2.500000000000002
 31
0.0
  0
LINE
  5
B2CA
330
B2C7
100
AcDbEntity
  8
0
  6
Continuous
 62
     0
370
     0
100
AcDbLine
 10
0.0
 20
0.0
 30
0.0
 11
-2.500000000000002
 21
0.0
 31
0.0
  0
LINE
  5
B2CB
330
B2C7
100
AcDbEntity
  8
0
  6
Continuous
 62
     0
370
     0
100
AcDbLine
 10
0.0
 20
0.0
 30
0.0
 11
0.0
 21
-2.500000000000002
 31
0.0
  0
LINE
  5
B2CC
330
B2C7
100
AcDbEntity
  8
0
  6
Continuous
 62
     0
370
     0
100
AcDbLine
 10
0.0
 20
0.0
 30
0.0
 11
2.500000000000002
 21
0.0
 31
0.0
  0
LINE
  5
B2CD
330
B2C7
100
AcDbEntity
  8
0
  6
Continuous
 62
     0
370
     0
100
AcDbLine
 10
0.0
 20
2.500000000000002
 30
0.0
 11
0.0
 21
4.599999999999992
 31
0.0
  0
LINE
  5
B2CE
330
B2C7
100
AcDbEntity
  8
0
  6
Continuous
 62
     0
370
     0
100
AcDbLine
 10
-2.500000000000002
 20
0.0
 30
0.0
 11
-4.599999999999992
 21
0.0
 31
0.0
  0
LINE
  5
B2CF
330
B2C7
100
AcDbEntity
  8
0
  6
Continuous
 62
     0
370
     0
100
AcDbLine
 10
0.0
 20
-2.500000000000002
 30
0.0
 11
0.0
 21
-4.60000000000002
 31
0.0
  0
LINE
  5
B2D0
330
B2C7
100
AcDbEntity
  8
0
  6
Continuous
 62
     0
370
     0
100
AcDbLine
 10
2.500000000000002
 20
0.0
 30
0.0
 11
4.60000000000002
 21
0.0
 31
0.0
  0
ENDBLK
  5
B2D1
330
B2C7
100
AcDbEntity
  8
0
100
AcDbBlockEnd
  0
BLOCK
  5
B2D3
330
B2D2
100
AcDbEntity
  8
0
100
AcDbBlockBegin
  2
SW_CENTERMARKSYMBOL_4
 70
     0
 10
0.0
 20
0.0
 30
0.0
  3
SW_CENTERMARKSYMBOL_4
  1

  0
LINE
  5
B2D4
330
B2D2
100
AcDbEntity
  8
0
  6
Continuous
 62
     0
370
     0
100
AcDbLine
 10
0.0
 20
0.0
 30
0.0
 11
0.0
 21
2.500000000000002
 31
0.0
  0
LINE
  5
B2D5
330
B2D2
100
AcDbEntity
  8
0
  6
Continuous
 62
     0
370
     0
100
AcDbLine
 10
0.0
 20
0.0
 30
0.0
 11
-2.500000000000002
 21
0.0
 31
0.0
  0
LINE
  5
B2D6
330
B2D2
100
AcDbEntity
  8
0
  6
Continuous
 62
     0
370
     0
100
AcDbLine
 10
0.0
 20
0.0
 30
0.0
 11
0.0
 21
-2.500000000000002
 31
0.0
  0
LINE
  5
B2D7
330
B2D2
100
AcDbEntity
  8
0
  6
Continuous
 62
     0
370
     0
100
AcDbLine
 10
0.0
 20
0.0
 30
0.0
 11
2.500000000000002
 21
0.0
 31
0.0
  0
LINE
  5
B2D8
330
B2D2
100
AcDbEntity
  8
0
  6
Continuous
 62
     0
370
     0
100
AcDbLine
 10
0.0
 20
5.000000000000004
 30
0.0
 11
0.0
 21
33.00000001079223
 31
0.0
  0
LINE
  5
B2D9
330
B2D2
100
AcDbEntity
  8
0
  6
Continuous
 62
     0
370
     0
100
AcDbLine
 10
-5.000000000000004
 20
0.0
 30
0.0
 11
-33.00000001079223
 21
0.0
 31
0.0
  0
LINE
  5
B2DA
330
B2D2
100
AcDbEntity
  8
0
  6
Continuous
 62
     0
370
     0
100
AcDbLine
 10
0.0
 20
-5.000000000000004
 30
0.0
 11
0.0
 21
-33.00000001079223
 31
0.0
  0
LINE
  5
B2DB
330
B2D2
100
AcDbEntity
  8
0
  6
Continuous
 62
     0
370
     0
100
AcDbLine
 10
5.000000000000004
 20
0.0
 30
0.0
 11
33.00000001079223
 21
0.0
 31
0.0
  0
ENDBLK
  5
B2DC
330
B2D2
100
AcDbEntity
  8
0
100
AcDbBlockEnd
  0
BLOCK
  5
B2DE
330
B2DD
100
AcDbEntity
  8
0
100
AcDbBlockBegin
  2
SW_CENTERMARKSYMBOL_5
 70
     0
 10
0.0
 20
0.0
 30
0.0
  3
SW_CENTERMARKSYMBOL_5
  1

  0
LINE
  5
B2DF
330
B2DD
100
AcDbEntity
  8
0
  6
Continuous
 62
     0
370
     0
100
AcDbLine
 10
0.0
 20
0.0
 30
0.0
 11
0.0
 21
2.500000000000002
 31
0.0
  0
LINE
  5
B2E0
330
B2DD
100
AcDbEntity
  8
0
  6
Continuous
 62
     0
370
     0
100
AcDbLine
 10
0.0
 20
0.0
 30
0.0
 11
-2.500000000000002
 21
0.0
 31
0.0
  0
LINE
  5
B2E1
330
B2DD
100
AcDbEntity
  8
0
  6
Continuous
 62
     0
370
     0
100
AcDbLine
 10
0.0
 20
0.0
 30
0.0
 11
0.0
 21
-2.500000000000002
 31
0.0
  0
LINE
  5
B2E2
330
B2DD
100
AcDbEntity
  8
0
  6
Continuous
 62
     0
370
     0
100
AcDbLine
 10
0.0
 20
0.0
 30
0.0
 11
2.500000000000002
 21
0.0
 31
0.0
  0
LINE
  5
B2E3
330
B2DD
100
AcDbEntity
  8
0
  6
Continuous
 62
     0
370
     0
100
AcDbLine
 10
0.0
 20
2.500000000000002
 30
0.0
 11
0.0
 21
4.60000000000002
 31
0.0
  0
LINE
  5
B2E4
330
B2DD
100
AcDbEntity
  8
0
  6
Continuous
 62
     0
370
     0
100
AcDbLine
 10
-2.500000000000002
 20
0.0
 30
0.0
 11
-4.599999999999992
 21
0.0
 31
0.0
  0
LINE
  5
B2E5
330
B2DD
100
AcDbEntity
  8
0
  6
Continuous
 62
     0
370
     0
100
AcDbLine
 10
0.0
 20
-2.500000000000002
 30
0.0
 11
0.0
 21
-4.599999999999992
 31
0.0
  0
LINE
  5
B2E6
330
B2DD
100
AcDbEntity
  8
0
  6
Continuous
 62
     0
370
     0
100
AcDbLine
 10
2.500000000000002
 20
0.0
 30
0.0
 11
4.60000000000002
 21
0.0
 31
0.0
  0
ENDBLK
  5
B2E7
330
B2DD
100
AcDbEntity
  8
0
100
AcDbBlockEnd
  0
BLOCK
  5
B2E9
330
B2E8
100
AcDbEntity
  8
0
100
AcDbBlockBegin
  2
SW_CENTERMARKSYMBOL_6
 70
     0
 10
0.0
 20
0.0
 30
0.0
  3
SW_CENTERMARKSYMBOL_6
  1

  0
LINE
  5
B2EA
330
B2E8
100
AcDbEntity
  8
0
  6
Continuous
 62
     0
370
     0
100
AcDbLine
 10
0.0
 20
0.0
 30
0.0
 11
0.0
 21
2.500000000000002
 31
0.0
  0
LINE
  5
B2EB
330
B2E8
100
AcDbEntity
  8
0
  6
Continuous
 62
     0
370
     0
100
AcDbLine
 10
0.0
 20
0.0
 30
0.0
 11
-2.500000000000002
 21
0.0
 31
0.0
  0
LINE
  5
B2EC
330
B2E8
100
AcDbEntity
  8
0
  6
Continuous
 62
     0
370
     0
100
AcDbLine
 10
0.0
 20
0.0
 30
0.0
 11
0.0
 21
-2.500000000000002
 31
0.0
  0
LINE
  5
B2ED
330
B2E8
100
AcDbEntity
  8
0
  6
Continuous
 62
     0
370
     0
100
AcDbLine
 10
0.0
 20
0.0
 30
0.0
 11
2.500000000000002
 21
0.0
 31
0.0
  0
LINE
  5
B2EE
330
B2E8
100
AcDbEntity
  8
0
  6
Continuous
 62
     0
370
     0
100
AcDbLine
 10
0.0
 20
2.500000000000002
 30
0.0
 11
0.0
 21
4.500000000000031
 31
0.0
  0
LINE
  5
B2EF
330
B2E8
100
AcDbEntity
  8
0
  6
Continuous
 62
     0
370
     0
100
AcDbLine
 10
-2.500000000000002
 20
0.0
 30
0.0
 11
-4.500000000000031
 21
0.0
 31
0.0
  0
LINE
  5
B2F0
330
B2E8
100
AcDbEntity
  8
0
  6
Continuous
 62
     0
370
     0
100
AcDbLine
 10
0.0
 20
-2.500000000000002
 30
0.0
 11
0.0
 21
-4.500000000000003
 31
0.0
  0
LINE
  5
B2F1
330
B2E8
100
AcDbEntity
  8
0
  6
Continuous
 62
     0
370
     0
100
AcDbLine
 10
2.500000000000002
 20
0.0
 30
0.0
 11
4.500000000000003
 21
0.0
 31
0.0
  0
ENDBLK
  5
B2F2
330
B2E8
100
AcDbEntity
  8
0
100
AcDbBlockEnd
  0
BLOCK
  5
B2F4
330
B2F3
100
AcDbEntity
  8
0
100
AcDbBlockBegin
  2
SW_CENTERMARKSYMBOL_7
 70
     0
 10
0.0
 20
0.0
 30
0.0
  3
SW_CENTERMARKSYMBOL_7
  1

  0
LINE
  5
B2F5
330
B2F3
100
AcDbEntity
  8
0
  6
Continuous
 62
     0
370
     0
100
AcDbLine
 10
0.0
 20
0.0
 30
0.0
 11
0.0
 21
2.499999999999974
 31
0.0
  0
LINE
  5
B2F6
330
B2F3
100
AcDbEntity
  8
0
  6
Continuous
 62
     0
370
     0
100
AcDbLine
 10
0.0
 20
0.0
 30
0.0
 11
-2.500000000000002
 21
0.0
 31
0.0
  0
LINE
  5
B2F7
330
B2F3
100
AcDbEntity
  8
0
  6
Continuous
 62
     0
370
     0
100
AcDbLine
 10
0.0
 20
0.0
 30
0.0
 11
0.0
 21
-2.500000000000002
 31
0.0
  0
LINE
  5
B2F8
330
B2F3
100
AcDbEntity
  8
0
  6
Continuous
 62
     0
370
     0
100
AcDbLine
 10
0.0
 20
0.0
 30
0.0
 11
2.500000000000002
 21
0.0
 31
0.0
  0
LINE
  5
B2F9
330
B2F3
100
AcDbEntity
  8
0
  6
Continuous
 62
     0
370
     0
100
AcDbLine
 10
0.0
 20
2.499999999999974
 30
0.0
 11
0.0
 21
4.599999999999992
 31
0.0
  0
LINE
  5
B2FA
330
B2F3
100
AcDbEntity
  8
0
  6
Continuous
 62
     0
370
     0
100
AcDbLine
 10
-2.500000000000002
 20
0.0
 30
0.0
 11
-4.599999999999992
 21
0.0
 31
0.0
  0
LINE
  5
B2FB
330
B2F3
100
AcDbEntity
  8
0
  6
Continuous
 62
     0
370
     0
100
AcDbLine
 10
0.0
 20
-2.500000000000002
 30
0.0
 11
0.0
 21
-4.60000000000002
 31
0.0
  0
LINE
  5
B2FC
330
B2F3
100
AcDbEntity
  8
0
  6
Continuous
 62
     0
370
     0
100
AcDbLine
 10
2.500000000000002
 20
0.0
 30
0.0
 11
4.599999999999992
 21
0.0
 31
0.0
  0
ENDBLK
  5
B2FD
330
B2F3
100
AcDbEntity
  8
0
100
AcDbBlockEnd
  0
BLOCK
  5
B2FF
330
B2FE
100
AcDbEntity
  8
0
100
AcDbBlockBegin
  2
SW_CENTERMARKSYMBOL_8
 70
     0
 10
0.0
 20
0.0
 30
0.0
  3
SW_CENTERMARKSYMBOL_8
  1

  0
LINE
  5
B300
330
B2FE
100
AcDbEntity
  8
0
  6
Continuous
 62
     0
370
     0
100
AcDbLine
 10
0.0
 20
0.0
 30
0.0
 11
0.0
 21
2.500000000000002
 31
0.0
  0
LINE
  5
B301
330
B2FE
100
AcDbEntity
  8
0
  6
Continuous
 62
     0
370
     0
100
AcDbLine
 10
0.0
 20
0.0
 30
0.0
 11
-2.500000000000002
 21
0.0
 31
0.0
  0
LINE
  5
B302
330
B2FE
100
AcDbEntity
  8
0
  6
Continuous
 62
     0
370
     0
100
AcDbLine
 10
0.0
 20
0.0
 30
0.0
 11
0.0
 21
-2.500000000000002
 31
0.0
  0
LINE
  5
B303
330
B2FE
100
AcDbEntity
  8
0
  6
Continuous
 62
     0
370
     0
100
AcDbLine
 10
0.0
 20
0.0
 30
0.0
 11
2.499999999999946
 21
0.0
 31
0.0
  0
LINE
  5
B304
330
B2FE
100
AcDbEntity
  8
0
  6
Continuous
 62
     0
370
     0
100
AcDbLine
 10
0.0
 20
2.500000000000002
 30
0.0
 11
0.0
 21
4.500000000000031
 31
0.0
  0
LINE
  5
B305
330
B2FE
100
AcDbEntity
  8
0
  6
Continuous
 62
     0
370
     0
100
AcDbLine
 10
-2.500000000000002
 20
0.0
 30
0.0
 11
-4.500000000000031
 21
0.0
 31
0.0
  0
LINE
  5
B306
330
B2FE
100
AcDbEntity
  8
0
  6
Continuous
 62
     0
370
     0
100
AcDbLine
 10
0.0
 20
-2.500000000000002
 30
0.0
 11
0.0
 21
-4.500000000000003
 31
0.0
  0
LINE
  5
B307
330
B2FE
100
AcDbEntity
  8
0
  6
Continuous
 62
     0
370
     0
100
AcDbLine
 10
2.499999999999946
 20
0.0
 30
0.0
 11
4.500000000000003
 21
0.0
 31
0.0
  0
ENDBLK
  5
B308
330
B2FE
100
AcDbEntity
  8
0
100
AcDbBlockEnd
  0
BLOCK
  5
B30A
330
B309
100
AcDbEntity
  8
0
100
AcDbBlockBegin
  2
SW_CENTERMARKSYMBOL_9
 70
     0
 10
0.0
 20
0.0
 30
0.0
  3
SW_CENTERMARKSYMBOL_9
  1

  0
LINE
  5
B30B
330
B309
100
AcDbEntity
  8
0
  6
Continuous
 62
     0
370
     0
100
AcDbLine
 10
0.0
 20
0.0
 30
0.0
 11
0.0
 21
2.500000000000002
 31
0.0
  0
LINE
  5
B30C
330
B309
100
AcDbEntity
  8
0
  6
Continuous
 62
     0
370
     0
100
AcDbLine
 10
0.0
 20
0.0
 30
0.0
 11
-2.500000000000002
 21
0.0
 31
0.0
  0
LINE
  5
B30D
330
B309
100
AcDbEntity
  8
0
  6
Continuous
 62
     0
370
     0
100
AcDbLine
 10
0.0
 20
0.0
 30
0.0
 11
0.0
 21
-2.500000000000002
 31
0.0
  0
LINE
  5
B30E
330
B309
100
AcDbEntity
  8
0
  6
Continuous
 62
     0
370
     0
100
AcDbLine
 10
0.0
 20
0.0
 30
0.0
 11
2.500000000000002
 21
0.0
 31
0.0
  0
LINE
  5
B30F
330
B309
100
AcDbEntity
  8
0
  6
Continuous
 62
     0
370
     0
100
AcDbLine
 10
0.0
 20
2.500000000000002
 30
0.0
 11
0.0
 21
4.500000000000003
 31
0.0
  0
LINE
  5
B310
330
B309
100
AcDbEntity
  8
0
  6
Continuous
 62
     0
370
     0
100
AcDbLine
 10
-2.500000000000002
 20
0.0
 30
0.0
 11
-4.500000000000031
 21
0.0
 31
0.0
  0
LINE
  5
B311
330
B309
100
AcDbEntity
  8
0
  6
Continuous
 62
     0
370
     0
100
AcDbLine
 10
0.0
 20
-2.500000000000002
 30
0.0
 11
0.0
 21
-4.500000000000003
 31
0.0
  0
LINE
  5
B312
330
B309
100
AcDbEntity
  8
0
  6
Continuous
 62
     0
370
     0
100
AcDbLine
 10
2.500000000000002
 20
0.0
 30
0.0
 11
4.500000000000003
 21
0.0
 31
0.0
  0
ENDBLK
  5
B313
330
B309
100
AcDbEntity
  8
0
100
AcDbBlockEnd
  0
BLOCK
  5
B315
330
B314
100
AcDbEntity
  8
0
100
AcDbBlockBegin
  2
SW_CENTERMARKSYMBOL_10
 70
     0
 10
0.0
 20
0.0
 30
0.0
  3
SW_CENTERMARKSYMBOL_10
  1

  0
LINE
  5
B316
330
B314
100
AcDbEntity
  8
0
  6
Continuous
 62
     0
370
     0
100
AcDbLine
 10
0.0
 20
0.0
 30
0.0
 11
0.0
 21
2.499999999999974
 31
0.0
  0
LINE
  5
B317
330
B314
100
AcDbEntity
  8
0
  6
Continuous
 62
     0
370
     0
100
AcDbLine
 10
0.0
 20
0.0
 30
0.0
 11
-2.500000000000002
 21
0.0
 31
0.0
  0
LINE
  5
B318
330
B314
100
AcDbEntity
  8
0
  6
Continuous
 62
     0
370
     0
100
AcDbLine
 10
0.0
 20
0.0
 30
0.0
 11
0.0
 21
-2.500000000000002
 31
0.0
  0
LINE
  5
B319
330
B314
100
AcDbEntity
  8
0
  6
Continuous
 62
     0
370
     0
100
AcDbLine
 10
0.0
 20
0.0
 30
0.0
 11
2.500000000000002
 21
0.0
 31
0.0
  0
LINE
  5
B31A
330
B314
100
AcDbEntity
  8
0
  6
Continuous
 62
     0
370
     0
100
AcDbLine
 10
0.0
 20
4.999999999999976
 30
0.0
 11
0.0
 21
5.699999999999983
 31
0.0
  0
LINE
  5
B31B
330
B314
100
AcDbEntity
  8
0
  6
Continuous
 62
     0
370
     0
100
AcDbLine
 10
-5.000000000000004
 20
0.0
 30
0.0
 11
-5.70000000000001
 21
0.0
 31
0.0
  0
LINE
  5
B31C
330
B314
100
AcDbEntity
  8
0
  6
Continuous
 62
     0
370
     0
100
AcDbLine
 10
0.0
 20
-5.000000000000004
 30
0.0
 11
0.0
 21
-5.70000000000001
 31
0.0
  0
LINE
  5
B31D
330
B314
100
AcDbEntity
  8
0
  6
Continuous
 62
     0
370
     0
100
AcDbLine
 10
5.000000000000004
 20
0.0
 30
0.0
 11
5.699999999999983
 21
0.0
 31
0.0
  0
ENDBLK
  5
B31E
330
B314
100
AcDbEntity
  8
0
100
AcDbBlockEnd
  0
BLOCK
  5
B320
330
B31F
100
AcDbEntity
  8
0
100
AcDbBlockBegin
  2
SW_CENTERMARKSYMBOL_11
 70
     0
 10
0.0
 20
0.0
 30
0.0
  3
SW_CENTERMARKSYMBOL_11
  1

  0
LINE
  5
B321
330
B31F
100
AcDbEntity
  8
0
  6
Continuous
 62
     0
370
     0
100
AcDbLine
 10
0.0
 20
0.0
 30
0.0
 11
0.0
 21
2.500000000000002
 31
0.0
  0
LINE
  5
B322
330
B31F
100
AcDbEntity
  8
0
  6
Continuous
 62
     0
370
     0
100
AcDbLine
 10
0.0
 20
0.0
 30
0.0
 11
-2.500000000000002
 21
0.0
 31
0.0
  0
LINE
  5
B323
330
B31F
100
AcDbEntity
  8
0
  6
Continuous
 62
     0
370
     0
100
AcDbLine
 10
0.0
 20
0.0
 30
0.0
 11
0.0
 21
-2.500000000000002
 31
0.0
  0
LINE
  5
B324
330
B31F
100
AcDbEntity
  8
0
  6
Continuous
 62
     0
370
     0
100
AcDbLine
 10
0.0
 20
0.0
 30
0.0
 11
2.500000000000002
 21
0.0
 31
0.0
  0
LINE
  5
B325
330
B31F
100
AcDbEntity
  8
0
  6
Continuous
 62
     0
370
     0
100
AcDbLine
 10
0.0
 20
5.000000000000004
 30
0.0
 11
0.0
 21
5.699999999999983
 31
0.0
  0
LINE
  5
B326
330
B31F
100
AcDbEntity
  8
0
  6
Continuous
 62
     0
370
     0
100
AcDbLine
 10
-5.000000000000004
 20
0.0
 30
0.0
 11
-5.70000000000001
 21
0.0
 31
0.0
  0
LINE
  5
B327
330
B31F
100
AcDbEntity
  8
0
  6
Continuous
 62
     0
370
     0
100
AcDbLine
 10
0.0
 20
-5.000000000000004
 30
0.0
 11
0.0
 21
-5.70000000000001
 31
0.0
  0
LINE
  5
B328
330
B31F
100
AcDbEntity
  8
0
  6
Continuous
 62
     0
370
     0
100
AcDbLine
 10
5.000000000000004
 20
0.0
 30
0.0
 11
5.699999999999983
 21
0.0
 31
0.0
  0
ENDBLK
  5
B329
330
B31F
100
AcDbEntity
  8
0
100
AcDbBlockEnd
  0
BLOCK
  5
B32B
330
B32A
100
AcDbEntity
  8
0
100
AcDbBlockBegin
  2
SW_CENTERMARKSYMBOL_12
 70
     0
 10
0.0
 20
0.0
 30
0.0
  3
SW_CENTERMARKSYMBOL_12
  1

  0
LINE
  5
B32C
330
B32A
100
AcDbEntity
  8
0
  6
Continuous
 62
     0
370
     0
100
AcDbLine
 10
0.0
 20
0.0
 30
0.0
 11
0.0
 21
2.500000000000002
 31
0.0
  0
LINE
  5
B32D
330
B32A
100
AcDbEntity
  8
0
  6
Continuous
 62
     0
370
     0
100
AcDbLine
 10
0.0
 20
0.0
 30
0.0
 11
-2.500000000000002
 21
0.0
 31
0.0
  0
LINE
  5
B32E
330
B32A
100
AcDbEntity
  8
0
  6
Continuous
 62
     0
370
     0
100
AcDbLine
 10
0.0
 20
0.0
 30
0.0
 11
0.0
 21
-2.500000000000002
 31
0.0
  0
LINE
  5
B32F
330
B32A
100
AcDbEntity
  8
0
  6
Continuous
 62
     0
370
     0
100
AcDbLine
 10
0.0
 20
0.0
 30
0.0
 11
2.500000000000002
 21
0.0
 31
0.0
  0
LINE
  5
B330
330
B32A
100
AcDbEntity
  8
0
  6
Continuous
 62
     0
370
     0
100
AcDbLine
 10
0.0
 20
2.500000000000002
 30
0.0
 11
0.0
 21
5.000000000000004
 31
0.0
  0
LINE
  5
B331
330
B32A
100
AcDbEntity
  8
0
  6
Continuous
 62
     0
370
     0
100
AcDbLine
 10
-2.500000000000002
 20
0.0
 30
0.0
 11
-5.000000000000004
 21
0.0
 31
0.0
  0
LINE
  5
B332
330
B32A
100
AcDbEntity
  8
0
  6
Continuous
 62
     0
370
     0
100
AcDbLine
 10
0.0
 20
-2.500000000000002
 30
0.0
 11
0.0
 21
-5.000000000000004
 31
0.0
  0
LINE
  5
B333
330
B32A
100
AcDbEntity
  8
0
  6
Continuous
 62
     0
370
     0
100
AcDbLine
 10
2.500000000000002
 20
0.0
 30
0.0
 11
5.000000000000004
 21
0.0
 31
0.0
  0
ENDBLK
  5
B334
330
B32A
100
AcDbEntity
  8
0
100
AcDbBlockEnd
  0
BLOCK
  5
B336
330
B335
100
AcDbEntity
  8
0
100
AcDbBlockBegin
  2
SW_CENTERMARKSYMBOL_13
 70
     0
 10
0.0
 20
0.0
 30
0.0
  3
SW_CENTERMARKSYMBOL_13
  1

  0
LINE
  5
B337
330
B335
100
AcDbEntity
  8
0
  6
Continuous
 62
     0
370
     0
100
AcDbLine
 10
0.0
 20
0.0
 30
0.0
 11
0.0
 21
2.500000000000002
 31
0.0
  0
LINE
  5
B338
330
B335
100
AcDbEntity
  8
0
  6
Continuous
 62
     0
370
     0
100
AcDbLine
 10
0.0
 20
0.0
 30
0.0
 11
-2.500000000000002
 21
0.0
 31
0.0
  0
LINE
  5
B339
330
B335
100
AcDbEntity
  8
0
  6
Continuous
 62
     0
370
     0
100
AcDbLine
 10
0.0
 20
0.0
 30
0.0
 11
0.0
 21
-2.500000000000002
 31
0.0
  0
LINE
  5
B33A
330
B335
100
AcDbEntity
  8
0
  6
Continuous
 62
     0
370
     0
100
AcDbLine
 10
0.0
 20
0.0
 30
0.0
 11
2.500000000000002
 21
0.0
 31
0.0
  0
LINE
  5
B33B
330
B335
100
AcDbEntity
  8
0
  6
Continuous
 62
     0
370
     0
100
AcDbLine
 10
0.0
 20
2.500000000000002
 30
0.0
 11
0.0
 21
5.000000000000004
 31
0.0
  0
LINE
  5
B33C
330
B335
100
AcDbEntity
  8
0
  6
Continuous
 62
     0
370
     0
100
AcDbLine
 10
-2.500000000000002
 20
0.0
 30
0.0
 11
-5.000000000000004
 21
0.0
 31
0.0
  0
LINE
  5
B33D
330
B335
100
AcDbEntity
  8
0
  6
Continuous
 62
     0
370
     0
100
AcDbLine
 10
0.0
 20
-2.500000000000002
 30
0.0
 11
0.0
 21
-5.000000000000004
 31
0.0
  0
LINE
  5
B33E
330
B335
100
AcDbEntity
  8
0
  6
Continuous
 62
     0
370
     0
100
AcDbLine
 10
2.500000000000002
 20
0.0
 30
0.0
 11
5.000000000000004
 21
0.0
 31
0.0
  0
ENDBLK
  5
B33F
330
B335
100
AcDbEntity
  8
0
100
AcDbBlockEnd
  0
BLOCK
  5
B341
330
B340
100
AcDbEntity
  8
0
100
AcDbBlockBegin
  2
SW_CENTERMARKSYMBOL_14
 70
     0
 10
0.0
 20
0.0
 30
0.0
  3
SW_CENTERMARKSYMBOL_14
  1

  0
LINE
  5
B342
330
B340
100
AcDbEntity
  8
0
  6
Continuous
 62
     0
370
     0
100
AcDbLine
 10
0.0
 20
0.0
 30
0.0
 11
0.0
 21
2.500000000000002
 31
0.0
  0
LINE
  5
B343
330
B340
100
AcDbEntity
  8
0
  6
Continuous
 62
     0
370
     0
100
AcDbLine
 10
0.0
 20
0.0
 30
0.0
 11
-2.500000000000002
 21
0.0
 31
0.0
  0
LINE
  5
B344
330
B340
100
AcDbEntity
  8
0
  6
Continuous
 62
     0
370
     0
100
AcDbLine
 10
0.0
 20
0.0
 30
0.0
 11
0.0
 21
-2.500000000000002
 31
0.0
  0
LINE
  5
B345
330
B340
100
AcDbEntity
  8
0
  6
Continuous
 62
     0
370
     0
100
AcDbLine
 10
0.0
 20
0.0
 30
0.0
 11
2.500000000000002
 21
0.0
 31
0.0
  0
LINE
  5
B346
330
B340
100
AcDbEntity
  8
0
  6
Continuous
 62
     0
370
     0
100
AcDbLine
 10
0.0
 20
5.000000000000004
 30
0.0
 11
0.0
 21
5.699999999999983
 31
0.0
  0
LINE
  5
B347
330
B340
100
AcDbEntity
  8
0
  6
Continuous
 62
     0
370
     0
100
AcDbLine
 10
-4.999999999999976
 20
0.0
 30
0.0
 11
-5.699999999999983
 21
0.0
 31
0.0
  0
LINE
  5
B348
330
B340
100
AcDbEntity
  8
0
  6
Continuous
 62
     0
370
     0
100
AcDbLine
 10
0.0
 20
-5.000000000000004
 30
0.0
 11
0.0
 21
-5.70000000000001
 31
0.0
  0
LINE
  5
B349
330
B340
100
AcDbEntity
  8
0
  6
Continuous
 62
     0
370
     0
100
AcDbLine
 10
5.000000000000004
 20
0.0
 30
0.0
 11
5.70000000000001
 21
0.0
 31
0.0
  0
ENDBLK
  5
B34A
330
B340
100
AcDbEntity
  8
0
100
AcDbBlockEnd
  0
BLOCK
  5
B34C
330
B34B
100
AcDbEntity
  8
0
100
AcDbBlockBegin
  2
SW_CENTERMARKSYMBOL_15
 70
     0
 10
0.0
 20
0.0
 30
0.0
  3
SW_CENTERMARKSYMBOL_15
  1

  0
LINE
  5
B34D
330
B34B
100
AcDbEntity
  8
0
  6
Continuous
 62
     0
370
     0
100
AcDbLine
 10
0.0
 20
0.0
 30
0.0
 11
0.0
 21
2.5
 31
0.0
  0
LINE
  5
B34E
330
B34B
100
AcDbEntity
  8
0
  6
Continuous
 62
     0
370
     0
100
AcDbLine
 10
0.0
 20
0.0
 30
0.0
 11
-2.500000000000002
 21
0.0
 31
0.0
  0
LINE
  5
B34F
330
B34B
100
AcDbEntity
  8
0
  6
Continuous
 62
     0
370
     0
100
AcDbLine
 10
0.0
 20
0.0
 30
0.0
 11
0.0
 21
-2.5
 31
0.0
  0
LINE
  5
B350
330
B34B
100
AcDbEntity
  8
0
  6
Continuous
 62
     0
370
     0
100
AcDbLine
 10
0.0
 20
0.0
 30
0.0
 11
2.500000000000002
 21
0.0
 31
0.0
  0
LINE
  5
B351
330
B34B
100
AcDbEntity
  8
0
  6
Continuous
 62
     0
370
     0
100
AcDbLine
 10
0.0
 20
2.5
 30
0.0
 11
0.0
 21
4.600000000000004
 31
0.0
  0
LINE
  5
B352
330
B34B
100
AcDbEntity
  8
0
  6
Continuous
 62
     0
370
     0
100
AcDbLine
 10
-2.500000000000002
 20
0.0
 30
0.0
 11
-4.60000000000002
 21
0.0
 31
0.0
  0
LINE
  5
B353
330
B34B
100
AcDbEntity
  8
0
  6
Continuous
 62
     0
370
     0
100
AcDbLine
 10
0.0
 20
-2.5
 30
0.0
 11
0.0
 21
-4.600000000000004
 31
0.0
  0
LINE
  5
B354
330
B34B
100
AcDbEntity
  8
0
  6
Continuous
 62
     0
370
     0
100
AcDbLine
 10
2.500000000000002
 20
0.0
 30
0.0
 11
4.599999999999992
 21
0.0
 31
0.0
  0
ENDBLK
  5
B355
330
B34B
100
AcDbEntity
  8
0
100
AcDbBlockEnd
  0
BLOCK
  5
B357
330
B356
100
AcDbEntity
  8
0
100
AcDbBlockBegin
  2
SW_CENTERMARKSYMBOL_16
 70
     0
 10
0.0
 20
0.0
 30
0.0
  3
SW_CENTERMARKSYMBOL_16
  1

  0
LINE
  5
B358
330
B356
100
AcDbEntity
  8
0
  6
Continuous
 62
     0
370
     0
100
AcDbLine
 10
0.0
 20
0.0
 30
0.0
 11
0.0
 21
2.499999999999998
 31
0.0
  0
LINE
  5
B359
330
B356
100
AcDbEntity
  8
0
  6
Continuous
 62
     0
370
     0
100
AcDbLine
 10
0.0
 20
0.0
 30
0.0
 11
-2.500000000000002
 21
0.0
 31
0.0
  0
LINE
  5
B35A
330
B356
100
AcDbEntity
  8
0
  6
Continuous
 62
     0
370
     0
100
AcDbLine
 10
0.0
 20
0.0
 30
0.0
 11
0.0
 21
-2.5
 31
0.0
  0
LINE
  5
B35B
330
B356
100
AcDbEntity
  8
0
  6
Continuous
 62
     0
370
     0
100
AcDbLine
 10
0.0
 20
0.0
 30
0.0
 11
2.499999999999974
 21
0.0
 31
0.0
  0
LINE
  5
B35C
330
B356
100
AcDbEntity
  8
0
  6
Continuous
 62
     0
370
     0
100
AcDbLine
 10
0.0
 20
2.499999999999998
 30
0.0
 11
0.0
 21
4.600000000000003
 31
0.0
  0
LINE
  5
B35D
330
B356
100
AcDbEntity
  8
0
  6
Continuous
 62
     0
370
     0
100
AcDbLine
 10
-2.500000000000002
 20
0.0
 30
0.0
 11
-4.60000000000002
 21
0.0
 31
0.0
  0
LINE
  5
B35E
330
B356
100
AcDbEntity
  8
0
  6
Continuous
 62
     0
370
     0
100
AcDbLine
 10
0.0
 20
-2.5
 30
0.0
 11
0.0
 21
-4.600000000000004
 31
0.0
  0
LINE
  5
B35F
330
B356
100
AcDbEntity
  8
0
  6
Continuous
 62
     0
370
     0
100
AcDbLine
 10
2.499999999999974
 20
0.0
 30
0.0
 11
4.60000000000002
 21
0.0
 31
0.0
  0
ENDBLK
  5
B360
330
B356
100
AcDbEntity
  8
0
100
AcDbBlockEnd
  0
BLOCK
  5
B362
330
B361
100
AcDbEntity
  8
0
100
AcDbBlockBegin
  2
SW_CENTERMARKSYMBOL_17
 70
     0
 10
0.0
 20
0.0
 30
0.0
  3
SW_CENTERMARKSYMBOL_17
  1

  0
LINE
  5
B363
330
B361
100
AcDbEntity
  8
0
  6
Continuous
 62
     0
370
     0
100
AcDbLine
 10
0.0
 20
0.0
 30
0.0
 11
0.0
 21
2.500000000000002
 31
0.0
  0
LINE
  5
B364
330
B361
100
AcDbEntity
  8
0
  6
Continuous
 62
     0
370
     0
100
AcDbLine
 10
0.0
 20
0.0
 30
0.0
 11
-2.500000000000002
 21
0.0
 31
0.0
  0
LINE
  5
B365
330
B361
100
AcDbEntity
  8
0
  6
Continuous
 62
     0
370
     0
100
AcDbLine
 10
0.0
 20
0.0
 30
0.0
 11
0.0
 21
-2.500000000000002
 31
0.0
  0
LINE
  5
B366
330
B361
100
AcDbEntity
  8
0
  6
Continuous
 62
     0
370
     0
100
AcDbLine
 10
0.0
 20
0.0
 30
0.0
 11
2.500000000000002
 21
0.0
 31
0.0
  0
LINE
  5
B367
330
B361
100
AcDbEntity
  8
0
  6
Continuous
 62
     0
370
     0
100
AcDbLine
 10
0.0
 20
2.500000000000002
 30
0.0
 11
0.0
 21
4.600000000000006
 31
0.0
  0
LINE
  5
B368
330
B361
100
AcDbEntity
  8
0
  6
Continuous
 62
     0
370
     0
100
AcDbLine
 10
-2.500000000000002
 20
0.0
 30
0.0
 11
-4.599999999999992
 21
0.0
 31
0.0
  0
LINE
  5
B369
330
B361
100
AcDbEntity
  8
0
  6
Continuous
 62
     0
370
     0
100
AcDbLine
 10
0.0
 20
-2.500000000000002
 30
0.0
 11
0.0
 21
-4.600000000000006
 31
0.0
  0
LINE
  5
B36A
330
B361
100
AcDbEntity
  8
0
  6
Continuous
 62
     0
370
     0
100
AcDbLine
 10
2.500000000000002
 20
0.0
 30
0.0
 11
4.60000000000002
 21
0.0
 31
0.0
  0
ENDBLK
  5
B36B
330
B361
100
AcDbEntity
  8
0
100
AcDbBlockEnd
  0
BLOCK
  5
B36D
330
B36C
100
AcDbEntity
  8
0
100
AcDbBlockBegin
  2
SW_CENTERMARKSYMBOL_18
 70
     0
 10
0.0
 20
0.0
 30
0.0
  3
SW_CENTERMARKSYMBOL_18
  1

  0
LINE
  5
B36E
330
B36C
100
AcDbEntity
  8
0
  6
Continuous
 62
     0
370
     0
100
AcDbLine
 10
0.0
 20
0.0
 30
0.0
 11
0.0
 21
2.500000000000002
 31
0.0
  0
LINE
  5
B36F
330
B36C
100
AcDbEntity
  8
0
  6
Continuous
 62
     0
370
     0
100
AcDbLine
 10
0.0
 20
0.0
 30
0.0
 11
-2.500000000000002
 21
0.0
 31
0.0
  0
LINE
  5
B370
330
B36C
100
AcDbEntity
  8
0
  6
Continuous
 62
     0
370
     0
100
AcDbLine
 10
0.0
 20
0.0
 30
0.0
 11
0.0
 21
-2.499999999999995
 31
0.0
  0
LINE
  5
B371
330
B36C
100
AcDbEntity
  8
0
  6
Continuous
 62
     0
370
     0
100
AcDbLine
 10
0.0
 20
0.0
 30
0.0
 11
2.500000000000002
 21
0.0
 31
0.0
  0
LINE
  5
B372
330
B36C
100
AcDbEntity
  8
0
  6
Continuous
 62
     0
370
     0
100
AcDbLine
 10
0.0
 20
2.500000000000002
 30
0.0
 11
0.0
 21
4.600000000000006
 31
0.0
  0
LINE
  5
B373
330
B36C
100
AcDbEntity
  8
0
  6
Continuous
 62
     0
370
     0
100
AcDbLine
 10
-2.500000000000002
 20
0.0
 30
0.0
 11
-4.599999999999992
 21
0.0
 31
0.0
  0
LINE
  5
B374
330
B36C
100
AcDbEntity
  8
0
  6
Continuous
 62
     0
370
     0
100
AcDbLine
 10
0.0
 20
-2.499999999999995
 30
0.0
 11
0.0
 21
-4.599999999999999
 31
0.0
  0
LINE
  5
B375
330
B36C
100
AcDbEntity
  8
0
  6
Continuous
 62
     0
370
     0
100
AcDbLine
 10
2.500000000000002
 20
0.0
 30
0.0
 11
4.60000000000002
 21
0.0
 31
0.0
  0
ENDBLK
  5
B376
330
B36C
100
AcDbEntity
  8
0
100
AcDbBlockEnd
  0
BLOCK
  5
B378
330
B377
100
AcDbEntity
  8
0
100
AcDbBlockBegin
  2
SW_CENTERMARKSYMBOL_19
 70
     0
 10
0.0
 20
0.0
 30
0.0
  3
SW_CENTERMARKSYMBOL_19
  1

  0
LINE
  5
B379
330
B377
100
AcDbEntity
  8
0
  6
Continuous
 62
     0
370
     0
100
AcDbLine
 10
0.0
 20
0.0
 30
0.0
 11
0.0
 21
2.5
 31
0.0
  0
LINE
  5
B37A
330
B377
100
AcDbEntity
  8
0
  6
Continuous
 62
     0
370
     0
100
AcDbLine
 10
0.0
 20
0.0
 30
0.0
 11
-2.500000000000002
 21
0.0
 31
0.0
  0
LINE
  5
B37B
330
B377
100
AcDbEntity
  8
0
  6
Continuous
 62
     0
370
     0
100
AcDbLine
 10
0.0
 20
0.0
 30
0.0
 11
0.0
 21
-2.499999999999998
 31
0.0
  0
LINE
  5
B37C
330
B377
100
AcDbEntity
  8
0
  6
Continuous
 62
     0
370
     0
100
AcDbLine
 10
0.0
 20
0.0
 30
0.0
 11
2.500000000000002
 21
0.0
 31
0.0
  0
LINE
  5
B37D
330
B377
100
AcDbEntity
  8
0
  6
Continuous
 62
     0
370
     0
100
AcDbLine
 10
0.0
 20
5.0
 30
0.0
 11
0.0
 21
33.00000001079222
 31
0.0
  0
LINE
  5
B37E
330
B377
100
AcDbEntity
  8
0
  6
Continuous
 62
     0
370
     0
100
AcDbLine
 10
-5.000000000000004
 20
0.0
 30
0.0
 11
-33.00000001079223
 21
0.0
 31
0.0
  0
LINE
  5
B37F
330
B377
100
AcDbEntity
  8
0
  6
Continuous
 62
     0
370
     0
100
AcDbLine
 10
0.0
 20
-4.999999999999997
 30
0.0
 11
0.0
 21
-33.00000001079222
 31
0.0
  0
LINE
  5
B380
330
B377
100
AcDbEntity
  8
0
  6
Continuous
 62
     0
370
     0
100
AcDbLine
 10
5.000000000000004
 20
0.0
 30
0.0
 11
33.00000001079223
 21
0.0
 31
0.0
  0
ENDBLK
  5
B381
330
B377
100
AcDbEntity
  8
0
100
AcDbBlockEnd
  0
BLOCK
  5
B383
330
B382
100
AcDbEntity
  8
0
100
AcDbBlockBegin
  2
SW_CENTERMARKSYMBOL_20
 70
     0
 10
0.0
 20
0.0
 30
0.0
  3
SW_CENTERMARKSYMBOL_20
  1

  0
LINE
  5
B384
330
B382
100
AcDbEntity
  8
0
  6
Continuous
 62
     0
370
     0
100
AcDbLine
 10
0.0
 20
0.0
 30
0.0
 11
0.0
 21
2.499999999999998
 31
0.0
  0
LINE
  5
B385
330
B382
100
AcDbEntity
  8
0
  6
Continuous
 62
     0
370
     0
100
AcDbLine
 10
0.0
 20
0.0
 30
0.0
 11
-2.500000000000002
 21
0.0
 31
0.0
  0
LINE
  5
B386
330
B382
100
AcDbEntity
  8
0
  6
Continuous
 62
     0
370
     0
100
AcDbLine
 10
0.0
 20
0.0
 30
0.0
 11
0.0
 21
-2.499999999999998
 31
0.0
  0
LINE
  5
B387
330
B382
100
AcDbEntity
  8
0
  6
Continuous
 62
     0
370
     0
100
AcDbLine
 10
0.0
 20
0.0
 30
0.0
 11
2.500000000000002
 21
0.0
 31
0.0
  0
LINE
  5
B388
330
B382
100
AcDbEntity
  8
0
  6
Continuous
 62
     0
370
     0
100
AcDbLine
 10
0.0
 20
2.499999999999998
 30
0.0
 11
0.0
 21
4.600000000000003
 31
0.0
  0
LINE
  5
B389
330
B382
100
AcDbEntity
  8
0
  6
Continuous
 62
     0
370
     0
100
AcDbLine
 10
-2.500000000000002
 20
0.0
 30
0.0
 11
-4.599999999999992
 21
0.0
 31
0.0
  0
LINE
  5
B38A
330
B382
100
AcDbEntity
  8
0
  6
Continuous
 62
     0
370
     0
100
AcDbLine
 10
0.0
 20
-2.499999999999998
 30
0.0
 11
0.0
 21
-4.600000000000004
 31
0.0
  0
LINE
  5
B38B
330
B382
100
AcDbEntity
  8
0
  6
Continuous
 62
     0
370
     0
100
AcDbLine
 10
2.500000000000002
 20
0.0
 30
0.0
 11
4.60000000000002
 21
0.0
 31
0.0
  0
ENDBLK
  5
B38C
330
B382
100
AcDbEntity
  8
0
100
AcDbBlockEnd
  0
BLOCK
  5
B38E
330
B38D
100
AcDbEntity
  8
0
100
AcDbBlockBegin
  2
SW_CENTERMARKSYMBOL_21
 70
     0
 10
0.0
 20
0.0
 30
0.0
  3
SW_CENTERMARKSYMBOL_21
  1

  0
LINE
  5
B38F
330
B38D
100
AcDbEntity
  8
0
  6
Continuous
 62
     0
370
     0
100
AcDbLine
 10
0.0
 20
0.0
 30
0.0
 11
0.0
 21
2.499999999999998
 31
0.0
  0
LINE
  5
B390
330
B38D
100
AcDbEntity
  8
0
  6
Continuous
 62
     0
370
     0
100
AcDbLine
 10
0.0
 20
0.0
 30
0.0
 11
-2.500000000000002
 21
0.0
 31
0.0
  0
LINE
  5
B391
330
B38D
100
AcDbEntity
  8
0
  6
Continuous
 62
     0
370
     0
100
AcDbLine
 10
0.0
 20
0.0
 30
0.0
 11
0.0
 21
-2.5
 31
0.0
  0
LINE
  5
B392
330
B38D
100
AcDbEntity
  8
0
  6
Continuous
 62
     0
370
     0
100
AcDbLine
 10
0.0
 20
0.0
 30
0.0
 11
2.500000000000002
 21
0.0
 31
0.0
  0
LINE
  5
B393
330
B38D
100
AcDbEntity
  8
0
  6
Continuous
 62
     0
370
     0
100
AcDbLine
 10
0.0
 20
2.499999999999998
 30
0.0
 11
0.0
 21
4.50000000000001
 31
0.0
  0
LINE
  5
B394
330
B38D
100
AcDbEntity
  8
0
  6
Continuous
 62
     0
370
     0
100
AcDbLine
 10
-2.500000000000002
 20
0.0
 30
0.0
 11
-4.500000000000031
 21
0.0
 31
0.0
  0
LINE
  5
B395
330
B38D
100
AcDbEntity
  8
0
  6
Continuous
 62
     0
370
     0
100
AcDbLine
 10
0.0
 20
-2.5
 30
0.0
 11
0.0
 21
-4.500000000000008
 31
0.0
  0
LINE
  5
B396
330
B38D
100
AcDbEntity
  8
0
  6
Continuous
 62
     0
370
     0
100
AcDbLine
 10
2.500000000000002
 20
0.0
 30
0.0
 11
4.500000000000003
 21
0.0
 31
0.0
  0
ENDBLK
  5
B397
330
B38D
100
AcDbEntity
  8
0
100
AcDbBlockEnd
  0
BLOCK
  5
B399
330
B398
100
AcDbEntity
  8
0
100
AcDbBlockBegin
  2
SW_CENTERMARKSYMBOL_22
 70
     0
 10
0.0
 20
0.0
 30
0.0
  3
SW_CENTERMARKSYMBOL_22
  1

  0
LINE
  5
B39A
330
B398
100
AcDbEntity
  8
0
  6
Continuous
 62
     0
370
     0
100
AcDbLine
 10
0.0
 20
0.0
 30
0.0
 11
0.0
 21
2.499999999999998
 31
0.0
  0
LINE
  5
B39B
330
B398
100
AcDbEntity
  8
0
  6
Continuous
 62
     0
370
     0
100
AcDbLine
 10
0.0
 20
0.0
 30
0.0
 11
-2.500000000000002
 21
0.0
 31
0.0
  0
LINE
  5
B39C
330
B398
100
AcDbEntity
  8
0
  6
Continuous
 62
     0
370
     0
100
AcDbLine
 10
0.0
 20
0.0
 30
0.0
 11
0.0
 21
-2.499999999999998
 31
0.0
  0
LINE
  5
B39D
330
B398
100
AcDbEntity
  8
0
  6
Continuous
 62
     0
370
     0
100
AcDbLine
 10
0.0
 20
0.0
 30
0.0
 11
2.500000000000002
 21
0.0
 31
0.0
  0
LINE
  5
B39E
330
B398
100
AcDbEntity
  8
0
  6
Continuous
 62
     0
370
     0
100
AcDbLine
 10
0.0
 20
2.499999999999998
 30
0.0
 11
0.0
 21
4.600000000000003
 31
0.0
  0
LINE
  5
B39F
330
B398
100
AcDbEntity
  8
0
  6
Continuous
 62
     0
370
     0
100
AcDbLine
 10
-2.500000000000002
 20
0.0
 30
0.0
 11
-4.599999999999992
 21
0.0
 31
0.0
  0
LINE
  5
B3A0
330
B398
100
AcDbEntity
  8
0
  6
Continuous
 62
     0
370
     0
100
AcDbLine
 10
0.0
 20
-2.499999999999998
 30
0.0
 11
0.0
 21
-4.600000000000004
 31
0.0
  0
LINE
  5
B3A1
330
B398
100
AcDbEntity
  8
0
  6
Continuous
 62
     0
370
     0
100
AcDbLine
 10
2.500000000000002
 20
0.0
 30
0.0
 11
4.599999999999992
 21
0.0
 31
0.0
  0
ENDBLK
  5
B3A2
330
B398
100
AcDbEntity
  8
0
100
AcDbBlockEnd
  0
BLOCK
  5
B3A4
330
B3A3
100
AcDbEntity
  8
0
100
AcDbBlockBegin
  2
SW_CENTERMARKSYMBOL_23
 70
     0
 10
0.0
 20
0.0
 30
0.0
  3
SW_CENTERMARKSYMBOL_23
  1

  0
LINE
  5
B3A5
330
B3A3
100
AcDbEntity
  8
0
  6
Continuous
 62
     0
370
     0
100
AcDbLine
 10
0.0
 20
0.0
 30
0.0
 11
0.0
 21
2.499999999999998
 31
0.0
  0
LINE
  5
B3A6
330
B3A3
100
AcDbEntity
  8
0
  6
Continuous
 62
     0
370
     0
100
AcDbLine
 10
0.0
 20
0.0
 30
0.0
 11
-2.500000000000002
 21
0.0
 31
0.0
  0
LINE
  5
B3A7
330
B3A3
100
AcDbEntity
  8
0
  6
Continuous
 62
     0
370
     0
100
AcDbLine
 10
0.0
 20
0.0
 30
0.0
 11
0.0
 21
-2.5
 31
0.0
  0
LINE
  5
B3A8
330
B3A3
100
AcDbEntity
  8
0
  6
Continuous
 62
     0
370
     0
100
AcDbLine
 10
0.0
 20
0.0
 30
0.0
 11
2.499999999999946
 21
0.0
 31
0.0
  0
LINE
  5
B3A9
330
B3A3
100
AcDbEntity
  8
0
  6
Continuous
 62
     0
370
     0
100
AcDbLine
 10
0.0
 20
2.499999999999998
 30
0.0
 11
0.0
 21
4.50000000000001
 31
0.0
  0
LINE
  5
B3AA
330
B3A3
100
AcDbEntity
  8
0
  6
Continuous
 62
     0
370
     0
100
AcDbLine
 10
-2.500000000000002
 20
0.0
 30
0.0
 11
-4.500000000000031
 21
0.0
 31
0.0
  0
LINE
  5
B3AB
330
B3A3
100
AcDbEntity
  8
0
  6
Continuous
 62
     0
370
     0
100
AcDbLine
 10
0.0
 20
-2.5
 30
0.0
 11
0.0
 21
-4.500000000000012
 31
0.0
  0
LINE
  5
B3AC
330
B3A3
100
AcDbEntity
  8
0
  6
Continuous
 62
     0
370
     0
100
AcDbLine
 10
2.499999999999946
 20
0.0
 30
0.0
 11
4.500000000000003
 21
0.0
 31
0.0
  0
ENDBLK
  5
B3AD
330
B3A3
100
AcDbEntity
  8
0
100
AcDbBlockEnd
  0
BLOCK
  5
B3AF
330
B3AE
100
AcDbEntity
  8
0
100
AcDbBlockBegin
  2
SW_CENTERMARKSYMBOL_24
 70
     0
 10
0.0
 20
0.0
 30
0.0
  3
SW_CENTERMARKSYMBOL_24
  1

  0
LINE
  5
B3B0
330
B3AE
100
AcDbEntity
  8
0
  6
Continuous
 62
     0
370
     0
100
AcDbLine
 10
0.0
 20
0.0
 30
0.0
 11
0.0
 21
2.499999999999995
 31
0.0
  0
LINE
  5
B3B1
330
B3AE
100
AcDbEntity
  8
0
  6
Continuous
 62
     0
370
     0
100
AcDbLine
 10
0.0
 20
0.0
 30
0.0
 11
-2.500000000000002
 21
0.0
 31
0.0
  0
LINE
  5
B3B2
330
B3AE
100
AcDbEntity
  8
0
  6
Continuous
 62
     0
370
     0
100
AcDbLine
 10
0.0
 20
0.0
 30
0.0
 11
0.0
 21
-2.500000000000002
 31
0.0
  0
LINE
  5
B3B3
330
B3AE
100
AcDbEntity
  8
0
  6
Continuous
 62
     0
370
     0
100
AcDbLine
 10
0.0
 20
0.0
 30
0.0
 11
2.500000000000002
 21
0.0
 31
0.0
  0
LINE
  5
B3B4
330
B3AE
100
AcDbEntity
  8
0
  6
Continuous
 62
     0
370
     0
100
AcDbLine
 10
0.0
 20
2.499999999999995
 30
0.0
 11
0.0
 21
4.50000000000001
 31
0.0
  0
LINE
  5
B3B5
330
B3AE
100
AcDbEntity
  8
0
  6
Continuous
 62
     0
370
     0
100
AcDbLine
 10
-2.500000000000002
 20
0.0
 30
0.0
 11
-4.500000000000031
 21
0.0
 31
0.0
  0
LINE
  5
B3B6
330
B3AE
100
AcDbEntity
  8
0
  6
Continuous
 62
     0
370
     0
100
AcDbLine
 10
0.0
 20
-2.500000000000002
 30
0.0
 11
0.0
 21
-4.50000000000001
 31
0.0
  0
LINE
  5
B3B7
330
B3AE
100
AcDbEntity
  8
0
  6
Continuous
 62
     0
370
     0
100
AcDbLine
 10
2.500000000000002
 20
0.0
 30
0.0
 11
4.500000000000003
 21
0.0
 31
0.0
  0
ENDBLK
  5
B3B8
330
B3AE
100
AcDbEntity
  8
0
100
AcDbBlockEnd
  0
BLOCK
  5
B3BA
330
B3B9
100
AcDbEntity
  8
0
100
AcDbBlockBegin
  2
SW_CENTERMARKSYMBOL_25
 70
     0
 10
0.0
 20
0.0
 30
0.0
  3
SW_CENTERMARKSYMBOL_25
  1

  0
LINE
  5
B3BB
330
B3B9
100
AcDbEntity
  8
0
  6
Continuous
 62
     0
370
     0
100
AcDbLine
 10
0.0
 20
0.0
 30
0.0
 11
0.0
 21
2.500000000000002
 31
0.0
  0
LINE
  5
B3BC
330
B3B9
100
AcDbEntity
  8
0
  6
Continuous
 62
     0
370
     0
100
AcDbLine
 10
0.0
 20
0.0
 30
0.0
 11
-2.500000000000002
 21
0.0
 31
0.0
  0
LINE
  5
B3BD
330
B3B9
100
AcDbEntity
  8
0
  6
Continuous
 62
     0
370
     0
100
AcDbLine
 10
0.0
 20
0.0
 30
0.0
 11
0.0
 21
-2.500000000000002
 31
0.0
  0
LINE
  5
B3BE
330
B3B9
100
AcDbEntity
  8
0
  6
Continuous
 62
     0
370
     0
100
AcDbLine
 10
0.0
 20
0.0
 30
0.0
 11
2.500000000000002
 21
0.0
 31
0.0
  0
LINE
  5
B3BF
330
B3B9
100
AcDbEntity
  8
0
  6
Continuous
 62
     0
370
     0
100
AcDbLine
 10
0.0
 20
5.0
 30
0.0
 11
0.0
 21
5.699999999999996
 31
0.0
  0
LINE
  5
B3C0
330
B3B9
100
AcDbEntity
  8
0
  6
Continuous
 62
     0
370
     0
100
AcDbLine
 10
-5.000000000000004
 20
0.0
 30
0.0
 11
-5.70000000000001
 21
0.0
 31
0.0
  0
LINE
  5
B3C1
330
B3B9
100
AcDbEntity
  8
0
  6
Continuous
 62
     0
370
     0
100
AcDbLine
 10
0.0
 20
-5.000000000000004
 30
0.0
 11
0.0
 21
-5.699999999999996
 31
0.0
  0
LINE
  5
B3C2
330
B3B9
100
AcDbEntity
  8
0
  6
Continuous
 62
     0
370
     0
100
AcDbLine
 10
5.000000000000004
 20
0.0
 30
0.0
 11
5.699999999999983
 21
0.0
 31
0.0
  0
ENDBLK
  5
B3C3
330
B3B9
100
AcDbEntity
  8
0
100
AcDbBlockEnd
  0
BLOCK
  5
B3C5
330
B3C4
100
AcDbEntity
  8
0
100
AcDbBlockBegin
  2
SW_CENTERMARKSYMBOL_26
 70
     0
 10
0.0
 20
0.0
 30
0.0
  3
SW_CENTERMARKSYMBOL_26
  1

  0
LINE
  5
B3C6
330
B3C4
100
AcDbEntity
  8
0
  6
Continuous
 62
     0
370
     0
100
AcDbLine
 10
0.0
 20
0.0
 30
0.0
 11
0.0
 21
2.499999999999998
 31
0.0
  0
LINE
  5
B3C7
330
B3C4
100
AcDbEntity
  8
0
  6
Continuous
 62
     0
370
     0
100
AcDbLine
 10
0.0
 20
0.0
 30
0.0
 11
-2.500000000000002
 21
0.0
 31
0.0
  0
LINE
  5
B3C8
330
B3C4
100
AcDbEntity
  8
0
  6
Continuous
 62
     0
370
     0
100
AcDbLine
 10
0.0
 20
0.0
 30
0.0
 11
0.0
 21
-2.499999999999998
 31
0.0
  0
LINE
  5
B3C9
330
B3C4
100
AcDbEntity
  8
0
  6
Continuous
 62
     0
370
     0
100
AcDbLine
 10
0.0
 20
0.0
 30
0.0
 11
2.500000000000002
 21
0.0
 31
0.0
  0
LINE
  5
B3CA
330
B3C4
100
AcDbEntity
  8
0
  6
Continuous
 62
     0
370
     0
100
AcDbLine
 10
0.0
 20
5.0
 30
0.0
 11
0.0
 21
5.7
 31
0.0
  0
LINE
  5
B3CB
330
B3C4
100
AcDbEntity
  8
0
  6
Continuous
 62
     0
370
     0
100
AcDbLine
 10
-5.000000000000004
 20
0.0
 30
0.0
 11
-5.70000000000001
 21
0.0
 31
0.0
  0
LINE
  5
B3CC
330
B3C4
100
AcDbEntity
  8
0
  6
Continuous
 62
     0
370
     0
100
AcDbLine
 10
0.0
 20
-5.0
 30
0.0
 11
0.0
 21
-5.7
 31
0.0
  0
LINE
  5
B3CD
330
B3C4
100
AcDbEntity
  8
0
  6
Continuous
 62
     0
370
     0
100
AcDbLine
 10
5.000000000000004
 20
0.0
 30
0.0
 11
5.699999999999983
 21
0.0
 31
0.0
  0
ENDBLK
  5
B3CE
330
B3C4
100
AcDbEntity
  8
0
100
AcDbBlockEnd
  0
BLOCK
  5
B3D0
330
B3CF
100
AcDbEntity
  8
0
100
AcDbBlockBegin
  2
SW_CENTERMARKSYMBOL_27
 70
     0
 10
0.0
 20
0.0
 30
0.0
  3
SW_CENTERMARKSYMBOL_27
  1

  0
LINE
  5
B3D1
330
B3CF
100
AcDbEntity
  8
0
  6
Continuous
 62
     0
370
     0
100
AcDbLine
 10
0.0
 20
0.0
 30
0.0
 11
0.0
 21
2.5
 31
0.0
  0
LINE
  5
B3D2
330
B3CF
100
AcDbEntity
  8
0
  6
Continuous
 62
     0
370
     0
100
AcDbLine
 10
0.0
 20
0.0
 30
0.0
 11
-2.500000000000002
 21
0.0
 31
0.0
  0
LINE
  5
B3D3
330
B3CF
100
AcDbEntity
  8
0
  6
Continuous
 62
     0
370
     0
100
AcDbLine
 10
0.0
 20
0.0
 30
0.0
 11
0.0
 21
-2.5
 31
0.0
  0
LINE
  5
B3D4
330
B3CF
100
AcDbEntity
  8
0
  6
Continuous
 62
     0
370
     0
100
AcDbLine
 10
0.0
 20
0.0
 30
0.0
 11
2.500000000000002
 21
0.0
 31
0.0
  0
LINE
  5
B3D5
330
B3CF
100
AcDbEntity
  8
0
  6
Continuous
 62
     0
370
     0
100
AcDbLine
 10
0.0
 20
2.5
 30
0.0
 11
0.0
 21
5.000000000000002
 31
0.0
  0
LINE
  5
B3D6
330
B3CF
100
AcDbEntity
  8
0
  6
Continuous
 62
     0
370
     0
100
AcDbLine
 10
-2.500000000000002
 20
0.0
 30
0.0
 11
-5.000000000000004
 21
0.0
 31
0.0
  0
LINE
  5
B3D7
330
B3CF
100
AcDbEntity
  8
0
  6
Continuous
 62
     0
370
     0
100
AcDbLine
 10
0.0
 20
-2.5
 30
0.0
 11
0.0
 21
-5.000000000000002
 31
0.0
  0
LINE
  5
B3D8
330
B3CF
100
AcDbEntity
  8
0
  6
Continuous
 62
     0
370
     0
100
AcDbLine
 10
2.500000000000002
 20
0.0
 30
0.0
 11
5.000000000000004
 21
0.0
 31
0.0
  0
ENDBLK
  5
B3D9
330
B3CF
100
AcDbEntity
  8
0
100
AcDbBlockEnd
  0
BLOCK
  5
B3DB
330
B3DA
100
AcDbEntity
  8
0
100
AcDbBlockBegin
  2
SW_CENTERMARKSYMBOL_28
 70
     0
 10
0.0
 20
0.0
 30
0.0
  3
SW_CENTERMARKSYMBOL_28
  1

  0
LINE
  5
B3DC
330
B3DA
100
AcDbEntity
  8
0
  6
Continuous
 62
     0
370
     0
100
AcDbLine
 10
0.0
 20
0.0
 30
0.0
 11
0.0
 21
2.5
 31
0.0
  0
LINE
  5
B3DD
330
B3DA
100
AcDbEntity
  8
0
  6
Continuous
 62
     0
370
     0
100
AcDbLine
 10
0.0
 20
0.0
 30
0.0
 11
-2.500000000000002
 21
0.0
 31
0.0
  0
LINE
  5
B3DE
330
B3DA
100
AcDbEntity
  8
0
  6
Continuous
 62
     0
370
     0
100
AcDbLine
 10
0.0
 20
0.0
 30
0.0
 11
0.0
 21
-2.5
 31
0.0
  0
LINE
  5
B3DF
330
B3DA
100
AcDbEntity
  8
0
  6
Continuous
 62
     0
370
     0
100
AcDbLine
 10
0.0
 20
0.0
 30
0.0
 11
2.500000000000002
 21
0.0
 31
0.0
  0
LINE
  5
B3E0
330
B3DA
100
AcDbEntity
  8
0
  6
Continuous
 62
     0
370
     0
100
AcDbLine
 10
0.0
 20
2.5
 30
0.0
 11
0.0
 21
5.000000000000002
 31
0.0
  0
LINE
  5
B3E1
330
B3DA
100
AcDbEntity
  8
0
  6
Continuous
 62
     0
370
     0
100
AcDbLine
 10
-2.500000000000002
 20
0.0
 30
0.0
 11
-5.000000000000004
 21
0.0
 31
0.0
  0
LINE
  5
B3E2
330
B3DA
100
AcDbEntity
  8
0
  6
Continuous
 62
     0
370
     0
100
AcDbLine
 10
0.0
 20
-2.5
 30
0.0
 11
0.0
 21
-5.000000000000002
 31
0.0
  0
LINE
  5
B3E3
330
B3DA
100
AcDbEntity
  8
0
  6
Continuous
 62
     0
370
     0
100
AcDbLine
 10
2.500000000000002
 20
0.0
 30
0.0
 11
5.000000000000004
 21
0.0
 31
0.0
  0
ENDBLK
  5
B3E4
330
B3DA
100
AcDbEntity
  8
0
100
AcDbBlockEnd
  0
BLOCK
  5
B3E6
330
B3E5
100
AcDbEntity
  8
0
100
AcDbBlockBegin
  2
SW_CENTERMARKSYMBOL_29
 70
     0
 10
0.0
 20
0.0
 30
0.0
  3
SW_CENTERMARKSYMBOL_29
  1

  0
LINE
  5
B3E7
330
B3E5
100
AcDbEntity
  8
0
  6
Continuous
 62
     0
370
     0
100
AcDbLine
 10
0.0
 20
0.0
 30
0.0
 11
0.0
 21
2.500000000000002
 31
0.0
  0
LINE
  5
B3E8
330
B3E5
100
AcDbEntity
  8
0
  6
Continuous
 62
     0
370
     0
100
AcDbLine
 10
0.0
 20
0.0
 30
0.0
 11
-2.500000000000002
 21
0.0
 31
0.0
  0
LINE
  5
B3E9
330
B3E5
100
AcDbEntity
  8
0
  6
Continuous
 62
     0
370
     0
100
AcDbLine
 10
0.0
 20
0.0
 30
0.0
 11
0.0
 21
-2.500000000000002
 31
0.0
  0
LINE
  5
B3EA
330
B3E5
100
AcDbEntity
  8
0
  6
Continuous
 62
     0
370
     0
100
AcDbLine
 10
0.0
 20
0.0
 30
0.0
 11
2.500000000000002
 21
0.0
 31
0.0
  0
LINE
  5
B3EB
330
B3E5
100
AcDbEntity
  8
0
  6
Continuous
 62
     0
370
     0
100
AcDbLine
 10
0.0
 20
4.999999999999997
 30
0.0
 11
0.0
 21
5.700000000000003
 31
0.0
  0
LINE
  5
B3EC
330
B3E5
100
AcDbEntity
  8
0
  6
Continuous
 62
     0
370
     0
100
AcDbLine
 10
-4.999999999999976
 20
0.0
 30
0.0
 11
-5.699999999999983
 21
0.0
 31
0.0
  0
LINE
  5
B3ED
330
B3E5
100
AcDbEntity
  8
0
  6
Continuous
 62
     0
370
     0
100
AcDbLine
 10
0.0
 20
-5.0
 30
0.0
 11
0.0
 21
-5.700000000000003
 31
0.0
  0
LINE
  5
B3EE
330
B3E5
100
AcDbEntity
  8
0
  6
Continuous
 62
     0
370
     0
100
AcDbLine
 10
5.000000000000004
 20
0.0
 30
0.0
 11
5.70000000000001
 21
0.0
 31
0.0
  0
ENDBLK
  5
B3EF
330
B3E5
100
AcDbEntity
  8
0
100
AcDbBlockEnd
  0
ENDSEC
  0
SECTION
  2
ENTITIES
  0
TEXT
  5
1599
330
1F
100
AcDbEntity
  8
LOGO
 62
     7
100
AcDbText
 10
677.5508471005442
 20
62.78247432467615
 30
0.0
 40
2.418849708597284
  1
Order example:
 41
0.8
  7
CHINESET
100
AcDbText
  0
TEXT
  5
159A
330
1F
100
AcDbEntity
  8
LOGO
 62
     7
100
AcDbText
 10
677.9848087413399
 20
66.18771388515845
 30
0.0
 40
3.628274562895926
  1
訂購代號：
  7
CHINESET
100
AcDbText
  0
LINE
  5
159B
330
1F
100
AcDbEntity
  8
LOGO
 62
     4
100
AcDbLine
 10
676.4998486978921
 20
52.58852823838298
 30
0.0
 11
676.4998486978921
 21
70.72990105286274
 31
0.0
  0
TEXT
  5
159C
330
1F
100
AcDbEntity
  8
LOGO
  6
Continuous
100
AcDbText
 10
643.1052911680466
 20
56.15237355006887
 30
0.0
 40
2.721205922171945
  1
金器工業股份有限公司
  7
CHINESET
100
AcDbText
  0
TEXT
  5
159D
330
1F
100
AcDbEntity
  8
LOGO
  6
Continuous
100
AcDbText
 10
638.1069742530593
 20
53.430634484887
 30
0.0
 40
1.814137281447963
  1
MINDMAN INDUSTRIAL CO., LTD.
 41
0.85
  7
CHINESET
100
AcDbText
  0
LINE
  5
159E
330
1F
100
AcDbEntity
  8
LOGO
 62
     4
100
AcDbLine
 10
676.4998486978921
 20
67.10162648996679
 30
0.0
 11
649.8925019033219
 21
67.10162648996679
 31
0.0
  0
LINE
  5
159F
330
1F
100
AcDbEntity
  8
LOGO
 62
     4
100
AcDbLine
 10
676.4998486978921
 20
63.47335192707084
 30
0.0
 11
649.8925019033219
 21
63.47335192707084
 31
0.0
  0
LINE
  5
15A0
330
1F
100
AcDbEntity
  8
LOGO
 62
     4
100
AcDbLine
 10
676.4998486978921
 20
59.84507736417508
 30
0.0
 11
636.5888285060369
 21
59.84507736417508
 31
0.0
  0
LINE
  5
15A1
330
1F
100
AcDbEntity
  8
LOGO
 62
     4
100
AcDbLine
 10
649.8925019033219
 20
59.84507736417508
 30
0.0
 11
649.8925019033219
 21
70.72990105286274
 31
0.0
  0
TEXT
  5
15A2
330
1F
100
AcDbEntity
  8
LOGO
100
AcDbText
 10
668.0773675897709
 20
60.75214600489877
 30
0.0
 40
1.814137281447963
  1
mm
  7
CHINESET
 72
     1
 11
670.3234423191827
 21
61.65921464562275
 31
0.0
100
AcDbText
 73
     2
  0
TEXT
  5
15A3
330
1F
100
AcDbEntity
  8
LOGO
100
AcDbText
 10
667.1271052042506
 20
68.00869513069068
 30
0.0
 40
1.814137281447963
  1
1 : 1
  7
CHINESET
 72
     1
 11
670.3234423191827
 21
68.91576377141466
 31
0.0
100
AcDbText
 73
     2
  0
LINE
  5
15A4
330
1F
100
AcDbEntity
  8
LOGO
 62
     4
100
AcDbLine
 10
664.4056001549057
 20
59.84507736417508
 30
0.0
 11
664.4056001549057
 21
70.72990105286274
 31
0.0
  0
TEXT
  5
15A5
330
1F
100
AcDbEntity
  8
LOGO
100
AcDbText
 10
651.3883552778016
 20
68.00958791478588
 30
118.8955688095171
 40
1.814137281447963
  1
比例 Scale:
 41
0.9
  7
CHINESET
 72
     4
 11
657.1490510291138
 21
68.91576377141466
 31
118.8955688095171
100
AcDbText
  0
TEXT
  5
15A6
330
1F
100
AcDbEntity
  8
LOGO
100
AcDbText
 10
651.2838804075753
 20
64.40593931318254
 30
118.8955688095171
 40
1.814137281447963
  1
投影  View:
 41
0.9
  7
CHINESET
 72
     4
 11
657.1490510291138
 21
65.28748920851871
 31
118.8955688095171
100
AcDbText
  0
TEXT
  5
15A7
330
1F
100
AcDbEntity
  8
LOGO
100
AcDbText
 10
651.4612447221455
 20
60.75214600489877
 30
118.8955688095171
 40
1.814137281447963
  1
單位  Unit:
 41
0.9
  7
CHINESET
 72
     4
 11
657.1490510291138
 21
61.65921464562275
 31
118.8955688095171
100
AcDbText
  0
LWPOLYLINE
  5
15A8
330
1F
100
AcDbEntity
  8
LOGO
 62
     4
100
AcDbPolyline
 90
        4
 70
     1
 43
0.0
 10
636.5888285060369
 20
70.72990105286272
 10
870.6012348676269
 20
70.72990105286274
 10
870.6012348676269
 20
206.8136541750342
 10
636.5888285060369
 20
206.8136541750342
1001
GENIUS_GENREC_14
1002
{
1000
PYDIR
1011
636.5888285060369
1021
206.8136541750342
1031
0.0
1002
}
1002
{
1000
PXDIR
1011
870.6012348676269
1021
70.72990105286274
1031
0.0
1002
}
1002
{
1000
PORI
1011
636.5888285060369
1021
70.72990105286272
1031
0.0
1002
}
1002
{
1000
PINS
1011
636.5888285060369
1021
70.72990105286272
1031
0.0
1002
}
1002
{
1000
PINS2
1011
870.6012348676269
1021
206.8136541750342
1031
0.0
1002
}
1002
{
1000
C
1070
     1
1002
}
1001
GENIUS_GENODEF_13
1002
{
1000
HIER
1070
     0
1002
}
1002
{
1000
MANEDIT
1070
     0
1002
}
1002
{
1000
NOSEL
1070
     0
1002
}
1002
{
1000
BEHIND
1070
     0
1002
}
1002
{
1000
OTHER
1070
     0
1002
}
1002
{
1000
REACTOR
1002
}
1001
GENIUS_GENOBJ-N-REC_13
1002
{
1000
OWNER
1000
GEN
1002
}
  0
SOLID
  5
15A9
330
1F
100
AcDbEntity
  8
LOGO
 62
     5
100
AcDbTrace
 10
638.471025050228
 20
62.860822372474
 30
0.0
 11
639.2554104077638
 21
62.8608223724738
 31
0.0
 12
642.5281906926545
 22
70.29895938358983
 32
0.0
 13
643.3125760501908
 23
70.29895938358944
 33
0.0
  0
SOLID
  5
15AA
330
1F
100
AcDbEntity
  8
LOGO
 62
     5
100
AcDbTrace
 10
639.5799836591589
 20
62.860822372474
 30
0.0
 11
640.3643690166947
 21
62.860822372474
 31
0.0
 12
643.3125760501908
 22
69.70390842270028
 32
0.0
 13
642.5281906926545
 23
66.82782877840215
 33
0.0
  0
SOLID
  5
15AB
330
1F
100
AcDbEntity
  8
LOGO
 62
     2
100
AcDbTrace
 10
639.2554104077638
 20
62.8608223724738
 30
0.0
 11
639.5799836591589
 21
62.860822372474
 31
0.0
 12
643.3125760501908
 22
70.29895938358944
 32
0.0
 13
643.6371493015853
 23
70.29895938358944
 33
0.0
  0
SOLID
  5
15AC
330
1F
100
AcDbEntity
  8
LOGO
 62
     5
100
AcDbTrace
 10
637.2134629672463
 20
60.15604527752303
 30
0.0
 11
637.4839406767416
 21
60.15604527752303
 31
0.0
 12
638.2456269589823
 22
61.5084338249984
 32
0.0
 13
638.5161046684769
 23
61.5084338249984
 33
0.0
  0
SOLID
  5
15AD
330
1F
100
AcDbEntity
  8
LOGO
 62
     5
100
AcDbTrace
 10
638.2456269589823
 20
61.5084338249984
 30
0.0
 11
638.5161046684769
 21
61.5084338249984
 31
0.0
 12
638.2456269589823
 22
60.15604527752303
 32
0.0
 13
638.5161046684769
 23
60.15604527752303
 33
0.0
  0
SOLID
  5
15AE
330
1F
100
AcDbEntity
  8
LOGO
 62
     5
100
AcDbTrace
 10
638.2456269589823
 20
60.15604527752303
 30
0.0
 11
638.5161046684769
 21
60.15604527752303
 31
0.0
 12
639.2777909507188
 22
61.5084338249984
 32
0.0
 13
639.5482686602137
 23
61.5084338249984
 33
0.0
  0
SOLID
  5
15AF
330
1F
100
AcDbEntity
  8
LOGO
 62
     5
100
AcDbTrace
 10
639.2777909507188
 20
61.5084338249984
 30
0.0
 11
639.5482686602137
 21
61.5084338249984
 31
0.0
 12
639.2777909507188
 22
60.15604527752303
 32
0.0
 13
639.5482686602137
 23
60.15604527752303
 33
0.0
  0
POLYLINE
  5
15B0
330
1F
100
AcDbEntity
  8
LOGO
 62
     5
100
AcDb2dPolyline
 66
     1
 10
0.0
 20
0.0
 30
0.0
 40
0.2709111673628958
 41
0.2709111673628958
  0
VERTEX
  5
15B1
330
15B0
100
AcDbEntity
  8
LOGO
 62
     5
100
AcDbVertex
100
AcDb2dVertex
 10
648.3441116336019
 20
60.96747840600823
 30
0.0
 42
1.0
  0
VERTEX
  5
15B2
330
15B0
100
AcDbEntity
  8
LOGO
 62
     5
100
AcDbVertex
100
AcDb2dVertex
 10
647.531378131513
 20
60.96747840600823
 30
0.0
 42
1.0
  0
SEQEND
  5
15B3
330
15B0
100
AcDbEntity
  8
LOGO
 62
     5
  0
POLYLINE
  5
15B4
330
1F
100
AcDbEntity
  8
LOGO
 62
     5
100
AcDb2dPolyline
 66
     1
 10
0.0
 20
0.0
 30
0.0
 70
     1
  0
VERTEX
  5
15B5
330
15B4
100
AcDbEntity
  8
LOGO
 62
     5
100
AcDbVertex
100
AcDb2dVertex
 10
645.9993393296894
 20
60.83223955126051
 30
0.0
 42
1.000000057330635
  0
VERTEX
  5
15B6
330
15B4
100
AcDbEntity
  8
LOGO
 62
     5
100
AcDbVertex
100
AcDb2dVertex
 10
646.8107724581747
 20
60.83223955126051
 30
0.0
 42
1.000000057330635
  0
SEQEND
  5
15B7
330
15B4
100
AcDbEntity
  8
LOGO
 62
     5
  0
CIRCLE
  5
15B8
330
1F
100
AcDbEntity
  8
LOGO
 62
     5
100
AcDbCircle
 10
646.4050558939326
 20
60.83223955126051
 30
0.0
 40
0.4057165642426729
  0
POLYLINE
  5
15B9
330
1F
100
AcDbEntity
  8
LOGO
 62
     5
100
AcDb2dPolyline
 66
     1
 10
0.0
 20
0.0
 30
0.0
 70
     1
 40
0.2709111673628958
 41
0.2709111673628958
  0
VERTEX
  5
15BA
330
15B9
100
AcDbEntity
  8
LOGO
 62
     5
100
AcDbVertex
100
AcDb2dVertex
 10
645.8632335592064
 20
60.83223955126051
 30
0.0
 42
1.0
  0
VERTEX
  5
15BB
330
15B9
100
AcDbEntity
  8
LOGO
 62
     5
100
AcDbVertex
100
AcDb2dVertex
 10
646.9468782286581
 20
60.83223955126051
 30
0.0
 42
1.0
  0
SEQEND
  5
15BC
330
15B9
100
AcDbEntity
  8
LOGO
 62
     5
  0
LINE
  5
15BD
330
1F
100
AcDbEntity
  8
LOGO
100
AcDbLine
 10
648.4787003015473
 20
60.15604527752303
 30
0.0
 11
648.4787003015473
 21
60.96747840600823
 31
0.0
  0
SOLID
  5
15BE
330
1F
100
AcDbEntity
  8
LOGO
 62
     5
100
AcDbTrace
 10
646.8107454104049
 20
61.5084338249984
 30
0.0
 11
647.0812231198995
 21
61.5084338249984
 31
0.0
 12
646.8107454104049
 22
60.15604527752303
 32
0.0
 13
647.0812231198995
 23
60.15604527752303
 33
0.0
  0
SOLID
  5
15BF
330
1F
100
AcDbEntity
  8
LOGO
 62
     5
100
AcDbTrace
 10
647.3967894635669
 20
60.15604527752303
 30
0.0
 11
647.6672671730621
 21
60.15604527752303
 31
0.0
 12
647.3967894635669
 22
61.5084338249984
 32
0.0
 13
647.6672671730621
 23
61.5084338249984
 33
0.0
  0
SOLID
  5
15C0
330
1F
100
AcDbEntity
  8
LOGO
 62
     5
100
AcDbTrace
 10
648.2082225920527
 20
60.96747840600823
 30
0.0
 11
648.4787003015473
 21
60.96747840600823
 31
0.0
 12
648.2082225920527
 22
60.15604527752303
 32
0.0
 13
648.4787003015473
 23
60.15604527752303
 33
0.0
  0
SOLID
  5
15C1
330
1F
100
AcDbEntity
  8
LOGO
 62
     5
100
AcDbTrace
 10
647.3697416926174
 20
69.70390842270028
 30
0.0
 11
646.585356335082
 21
66.82782877840215
 31
0.0
 12
647.3697416926174
 22
62.8608223724738
 32
0.0
 13
646.585356335082
 23
62.8608223724738
 33
0.0
  0
SOLID
  5
15C2
330
1F
100
AcDbEntity
  8
LOGO
 62
     5
100
AcDbTrace
 10
647.6943149440119
 20
62.8608223724738
 30
0.0
 11
648.4787003015473
 21
62.8608223724738
 31
0.0
 12
647.6943149440119
 22
70.29895938358944
 32
0.0
 13
648.4787003015473
 23
70.29895938358983
 33
0.0
  0
SOLID
  5
15C3
330
1F
100
AcDbEntity
  8
LOGO
 62
     2
100
AcDbTrace
 10
647.3697416926174
 20
70.29895938358983
 30
0.0
 11
647.6943149440119
 21
70.29895938358944
 31
0.0
 12
647.3697416926174
 22
62.8608223724738
 32
0.0
 13
647.6943149440119
 23
62.8608223724738
 33
0.0
  0
POLYLINE
  5
15C4
330
1F
100
AcDbEntity
  8
LOGO
 62
     5
100
AcDb2dPolyline
 66
     1
 10
0.0
 20
0.0
 30
0.0
 40
0.2709111673628958
 41
0.2709111673628958
  0
VERTEX
  5
15C5
330
15C4
100
AcDbEntity
  8
LOGO
 62
     5
100
AcDbVertex
100
AcDb2dVertex
 10
644.4672464323247
 20
60.96747840600823
 30
0.0
 42
1.0
  0
VERTEX
  5
15C6
330
15C4
100
AcDbEntity
  8
LOGO
 62
     5
100
AcDbVertex
100
AcDb2dVertex
 10
643.6545129302359
 20
60.96747840600823
 30
0.0
 42
1.0
  0
SEQEND
  5
15C7
330
15C4
100
AcDbEntity
  8
LOGO
 62
     5
  0
POLYLINE
  5
15C8
330
1F
100
AcDbEntity
  8
LOGO
 62
     5
100
AcDb2dPolyline
 66
     1
 10
0.0
 20
0.0
 30
0.0
 40
0.2709111673628958
 41
0.2709111673628958
  0
VERTEX
  5
15C9
330
15C8
100
AcDbEntity
  8
LOGO
 62
     5
100
AcDbVertex
100
AcDb2dVertex
 10
645.2786795608093
 20
60.96747840600823
 30
0.0
 42
1.0
  0
VERTEX
  5
15CA
330
15C8
100
AcDbEntity
  8
LOGO
 62
     5
100
AcDbVertex
100
AcDb2dVertex
 10
644.4659460587209
 20
60.96747840600823
 30
0.0
 42
1.0
  0
SEQEND
  5
15CB
330
15C8
100
AcDbEntity
  8
LOGO
 62
     5
  0
POLYLINE
  5
15CC
330
1F
100
AcDbEntity
  8
LOGO
 62
     5
100
AcDb2dPolyline
 66
     1
 10
0.0
 20
0.0
 30
0.0
 40
0.2709111673628958
 41
0.2709111673628958
  0
VERTEX
  5
15CD
330
15CC
100
AcDbEntity
  8
LOGO
 62
     5
100
AcDbVertex
100
AcDb2dVertex
 10
641.401814359532
 20
60.96747840600823
 30
0.0
 42
1.0
  0
VERTEX
  5
15CE
330
15CC
100
AcDbEntity
  8
LOGO
 62
     5
100
AcDbVertex
100
AcDb2dVertex
 10
640.5890808574436
 20
60.96747840600823
 30
0.0
 42
1.0
  0
SEQEND
  5
15CF
330
15CC
100
AcDbEntity
  8
LOGO
 62
     5
  0
SOLID
  5
15D0
330
1F
100
AcDbEntity
  8
LOGO
 62
     5
100
AcDbTrace
 10
640.4544921894979
 20
61.5084338249984
 30
0.0
 11
640.7249698989926
 21
61.5084338249984
 31
0.0
 12
640.4544921894979
 22
60.15604527752303
 32
0.0
 13
640.7249698989926
 23
60.15604527752303
 33
0.0
  0
SOLID
  5
15D1
330
1F
100
AcDbEntity
  8
LOGO
 62
     5
100
AcDbTrace
 10
641.2659253179832
 20
60.96747840600823
 30
0.0
 11
641.5364030274787
 21
60.96747840600823
 31
0.0
 12
641.2659253179832
 22
60.15604527752303
 32
0.0
 13
641.5364030274787
 23
60.15604527752303
 33
0.0
  0
POLYLINE
  5
15D2
330
1F
100
AcDbEntity
  8
LOGO
 62
     5
100
AcDb2dPolyline
 66
     1
 10
0.0
 20
0.0
 30
0.0
 70
     1
 40
0.2709111673628958
 41
0.2709111673628958
  0
VERTEX
  5
15D3
330
15D2
100
AcDbEntity
  8
LOGO
 62
     5
100
AcDbVertex
100
AcDb2dVertex
 10
641.9863683579288
 20
60.83223955126051
 30
0.0
 42
1.0
  0
VERTEX
  5
15D4
330
15D2
100
AcDbEntity
  8
LOGO
 62
     5
100
AcDbVertex
100
AcDb2dVertex
 10
643.0700130273806
 20
60.83223955126051
 30
0.0
 42
1.0
  0
SEQEND
  5
15D5
330
15D2
100
AcDbEntity
  8
LOGO
 62
     5
  0
SOLID
  5
15D6
330
1F
100
AcDbEntity
  8
LOGO
 62
     5
100
AcDbTrace
 10
642.9338802091267
 20
61.91415038924132
 30
0.0
 11
643.2043579186219
 21
61.91415038924132
 31
0.0
 12
642.9338802091267
 22
60.15604527752303
 32
0.0
 13
643.2043579186219
 23
60.15604527752303
 33
0.0
  0
SOLID
  5
15D7
330
1F
100
AcDbEntity
  8
LOGO
 62
     5
100
AcDbTrace
 10
643.5199242622904
 20
61.5084338249984
 30
0.0
 11
643.7904019717851
 21
61.5084338249984
 31
0.0
 12
643.5199242622904
 22
60.15604527752303
 32
0.0
 13
643.7904019717851
 23
60.15604527752303
 33
0.0
  0
SOLID
  5
15D8
330
1F
100
AcDbEntity
  8
LOGO
 62
     5
100
AcDbTrace
 10
644.3313573907752
 20
60.96747840600823
 30
0.0
 11
644.6018351002704
 21
60.96747840600823
 31
0.0
 12
644.3313573907752
 22
60.15604527752303
 32
0.0
 13
644.6018351002704
 23
60.15604527752303
 33
0.0
  0
SOLID
  5
15D9
330
1F
100
AcDbEntity
  8
LOGO
 62
     5
100
AcDbTrace
 10
645.1427905192605
 20
60.96747840600823
 30
0.0
 11
645.4132682287554
 21
60.96747840600823
 31
0.0
 12
645.1427905192605
 22
60.15604527752262
 32
0.0
 13
645.4132682287554
 23
60.15604527752262
 33
0.0
  0
SOLID
  5
15DA
330
1F
100
AcDbEntity
  8
LOGO
 62
     5
100
AcDbTrace
 10
639.8684481363346
 20
61.69776822164507
 30
0.0
 11
640.1389258458305
 21
61.69776822164507
 31
0.0
 12
639.8684481363346
 22
61.91415038924132
 32
0.0
 13
640.1389258458305
 23
61.91415038924132
 33
0.0
  0
SOLID
  5
15DB
330
1F
100
AcDbEntity
  8
LOGO
 62
     5
100
AcDbTrace
 10
639.8684481363346
 20
61.5084338249984
 30
0.0
 11
640.1389258458305
 21
61.5084338249984
 31
0.0
 12
639.8684481363346
 22
60.15604527752262
 32
0.0
 13
640.1389258458305
 23
60.15604527752303
 33
0.0
  0
SOLID
  5
15DC
330
1F
100
AcDbEntity
  8
LOGO
 62
     5
100
AcDbTrace
 10
642.5281906926545
 20
62.860822372474
 30
0.0
 11
643.3125760501908
 21
62.860822372474
 31
0.0
 12
642.5281906926545
 22
66.82782877840215
 32
0.0
 13
643.3125760501908
 23
69.70390842270028
 33
0.0
  0
SOLID
  5
15DD
330
1F
100
AcDbEntity
  8
LOGO
 62
     5
100
AcDbTrace
 10
643.6371493015853
 20
70.29895938358944
 30
0.0
 11
644.4215346591208
 21
70.29895938358983
 31
0.0
 12
643.6371493015853
 22
63.45587333336315
 32
0.0
 13
644.4215346591208
 23
66.33195297766127
 33
0.0
  0
SOLID
  5
15DE
330
1F
100
AcDbEntity
  8
LOGO
 62
     2
100
AcDbTrace
 10
643.3125760501908
 20
70.29895938358944
 30
0.0
 11
643.6371493015853
 21
70.29895938358944
 31
0.0
 12
643.3125760501908
 22
62.860822372474
 32
0.0
 13
643.6371493015853
 23
62.860822372474
 33
0.0
  0
SOLID
  5
15DF
330
1F
100
AcDbEntity
  8
LOGO
 62
     5
100
AcDbTrace
 10
643.6371493015853
 20
63.45587333336315
 30
0.0
 11
644.4215346591208
 21
66.33195297766127
 31
0.0
 12
647.3697416926174
 22
70.29895938358983
 32
0.0
 13
646.585356335082
 23
70.29895938358983
 33
0.0
  0
SOLID
  5
15E0
330
1F
100
AcDbEntity
  8
LOGO
 62
     5
100
AcDbTrace
 10
643.6371493015853
 20
62.860822372474
 30
0.0
 11
644.4215346591208
 21
62.860822372474
 31
0.0
 12
647.3697416926174
 22
69.70390842270028
 32
0.0
 13
646.585356335082
 23
66.82782877840215
 33
0.0
  0
SOLID
  5
15E1
330
1F
100
AcDbEntity
  8
LOGO
 62
     2
100
AcDbTrace
 10
643.3125760501908
 20
62.860822372474
 30
0.0
 11
643.6371493015853
 21
62.860822372474
 31
0.0
 12
647.3697416926174
 22
70.29895938358983
 32
0.0
 13
647.6943149440119
 23
70.29895938358944
 33
0.0
  0
LWPOLYLINE
  5
15E2
330
1F
100
AcDbEntity
  8
LOGO
 62
     4
100
AcDbPolyline
 90
        4
 70
     1
 43
0.0
 10
636.5888285060369
 20
70.72990105286272
 10
870.6012348676269
 20
70.72990105286274
 10
870.6012348676269
 20
52.58852823838278
 10
636.5888285060369
 20
52.58852823838278
1001
GENIUS_GENREC_14
1002
{
1000
PYDIR
1011
636.5888285060369
1021
52.58852823838278
1031
0.0
1002
}
1002
{
1000
PXDIR
1011
870.6012348676269
1021
70.72990105286274
1031
0.0
1002
}
1002
{
1000
PORI
1011
636.5888285060369
1021
70.72990105286272
1031
0.0
1002
}
1002
{
1000
PINS
1011
636.5888285060369
1021
70.72990105286272
1031
0.0
1002
}
1002
{
1000
PINS2
1011
870.6012348676269
1021
52.58852823838278
1031
0.0
1002
}
1002
{
1000
C
1070
     1
1002
}
1001
GENIUS_GENOBJ-N-REC_13
1002
{
1000
OWNER
1000
GEN
1002
}
1001
GENIUS_GENODEF_13
1002
{
1000
HIER
1070
     0
1002
}
1002
{
1000
MANEDIT
1070
     0
1002
}
1002
{
1000
NOSEL
1070
     0
1002
}
1002
{
1000
BEHIND
1070
     0
1002
}
1002
{
1000
OTHER
1070
     0
1002
}
1002
{
1000
REACTOR
1002
}
  0
LINE
  5
15E3
330
1F
100
AcDbEntity
  8
LOGO
 62
     4
100
AcDbLine
 10
715.4511554885109
 20
60.75214600489913
 30
0.0
 11
715.4511554885109
 21
54.10030930625625
 31
0.0
  0
LINE
  5
15E4
330
1F
100
AcDbEntity
  8
LOGO
 62
     4
100
AcDbLine
 10
707.3929572546352
 20
60.75214600489913
 30
0.0
 11
707.3929572546352
 21
54.10030930625625
 31
0.0
  0
LINE
  5
15E5
330
1F
100
AcDbEntity
  8
LOGO
 62
     4
100
AcDbLine
 10
715.4511554885109
 20
54.10030930625625
 30
0.0
 11
707.3929572546352
 21
54.10030930625625
 31
0.0
  0
LINE
  5
15E6
330
1F
100
AcDbEntity
  8
LOGO
 62
     4
100
AcDbLine
 10
721.3828202580931
 20
68.91576377141466
 30
0.0
 11
701.4525018492096
 21
68.91576377141466
 31
0.0
  0
LINE
  5
15E7
330
1F
100
AcDbEntity
  8
LOGO
 62
     4
100
AcDbLine
 10
721.3828202580931
 20
63.47335192707084
 30
0.0
 11
701.4525018492096
 21
63.47335192707084
 31
0.0
  0
LINE
  5
15E8
330
1F
100
AcDbEntity
  8
LOGO
 62
     4
100
AcDbLine
 10
701.4525018492096
 20
68.91576377141466
 30
0.0
 11
701.4525018492096
 21
63.47335192707084
 31
0.0
  0
LINE
  5
15E9
330
1F
100
AcDbEntity
  8
LOGO
 62
     4
100
AcDbLine
 10
721.3828202580931
 20
68.91576377141466
 30
0.0
 11
721.3828202580931
 21
63.47335192707084
 31
0.0
  0
LINE
  5
15EA
330
1F
100
AcDbEntity
  8
LOGO
 62
     4
100
AcDbLine
 10
711.4532696930701
 20
63.47335192707084
 30
0.0
 11
711.4532696930701
 21
60.75214600489913
 31
0.0
  0
TEXT
  5
15EB
330
1F
100
AcDbEntity
  8
LOGO
  6
Continuous
100
AcDbText
 10
704.1443497343086
 20
64.60944744277231
 30
0.0
 40
3.175199999999999
  1
MCHGH
  7
CHINESET
100
AcDbText
  0
LINE
  5
15EC
330
1F
100
AcDbEntity
  8
LOGO
 62
     4
100
AcDbLine
 10
715.4511554885109
 20
60.75214600489913
 30
0.0
 11
707.3929572546352
 21
60.75214600489913
 31
0.0
  0
TEXT
  5
15ED
330
1F
100
AcDbEntity
  8
LOGO
  6
Continuous
100
AcDbText
 10
709.4760853747201
 20
55.03920195072228
 30
118.8955688095171
 40
1.360799999999999
  1
Model
 41
0.8
  7
CHINESET
100
AcDbText
  0
TEXT
  5
15EE
330
1F
100
AcDbEntity
  8
LOGO
100
AcDbText
 10
709.1138846516074
 20
57.56183187739079
 30
118.8955688095171
 40
2.267999999999999
  1
型號
  7
CHINESET
100
AcDbText
  0
TEXT
  5
15F0
330
1F
100
AcDbEntity
  8
LOGO
100
AcDbText
 10
677.3404017862631
 20
53.55364211182844
 30
0.0
 40
1.814399999999999
  1
01206190
 41
0.7
  7
CHINESET
 72
     1
 11
681.7554417862631
 21
53.55364211182844
 31
0.0
100
AcDbText
  0
LINE
  5
15F1
330
1F
100
AcDbEntity
  8
LOGO
 62
     4
100
AcDbLine
 10
687.3862486978914
 20
56.21680280127935
 30
0.0
 11
687.3862486978922
 21
52.58852823838319
 31
0.0
  0
LINE
  5
15F2
330
1F
100
AcDbEntity
  8
LOGO
 62
     4
100
AcDbLine
 10
687.3862486978914
 20
56.21680280127935
 30
0.0
 11
676.4998486978921
 21
56.21680280127935
 31
0.0
  0
CIRCLE
  5
15F3
330
1F
100
AcDbEntity
  8
LOGO
  6
Continuous
100
AcDbCircle
 10
667.7647022402107
 20
65.29136966143941
 30
0.0
 40
1.053330805586876
  0
CIRCLE
  5
15F4
330
1F
100
AcDbEntity
  8
LOGO
  6
Continuous
100
AcDbCircle
 10
667.7647022402107
 20
65.29136966143941
 30
0.0
 40
0.6171586059734297
  0
LINE
  5
15F5
330
1F
100
AcDbEntity
  8
LOGO
100
AcDbLine
 10
674.3839552458568
 20
64.23803885585233
 30
0.0
 11
674.3839552458568
 21
66.34470046702649
 31
0.0
  0
LINE
  5
15F6
330
1F
100
AcDbEntity
  8
LOGO
100
AcDbLine
 10
671.0818236344152
 20
64.67421105546609
 30
0.0
 11
671.0818236344152
 21
65.90852826741294
 31
0.0
  0
LINE
  5
15F7
330
1F
100
AcDbEntity
  8
LOGO
  6
Continuous
100
AcDbLine
 10
671.0818236344152
 20
65.90852826741294
 30
0.0
 11
674.3839552458568
 21
66.34470046702649
 31
0.0
  0
LINE
  5
15F8
330
1F
100
AcDbEntity
  8
LOGO
  6
Continuous
100
AcDbLine
 10
671.0818236344152
 20
64.67421105546609
 30
0.0
 11
674.3839552458568
 21
64.23803885585233
 31
0.0
  0
LINE
  5
15F9
330
1F
100
AcDbEntity
  8
LOGO
  6
AM_ISO08W050x2
 48
0.3
100
AcDbLine
 10
666.3126699523225
 20
65.29136966143941
 30
0.0
 11
669.216734528099
 21
65.29136966143941
 31
0.0
1001
GENIUS_GENOREF_13
1005
16B6
  0
LINE
  5
15FA
330
1F
100
AcDbEntity
  8
LOGO
  6
AM_ISO08W050x2
 48
0.3
100
AcDbLine
 10
667.7647022402107
 20
63.83933737355108
 30
0.0
 11
667.7647022402107
 21
66.74340194932773
 31
0.0
1001
GENIUS_GENOREF_13
1005
16B5
  0
LINE
  5
15FB
330
1F
100
AcDbEntity
  8
LOGO
  6
CENTER
 48
0.5
100
AcDbLine
 10
670.8177448878185
 20
65.29136966143941
 30
0.0
 11
674.7164692095777
 21
65.29136966143941
 31
0.0
1001
GENIUS_GENOREF_13
1005
16B4
  0
POINT
  5
16B4
330
1F
100
AcDbEntity
  8
0
 60
     1
100
AcDbPoint
 10
-1930.92695728958
 20
-494.9154325062304
 30
0.0
1001
GENIUS_GENOBJ-N-CRS_13
1002
{
1000
OWNER
1000
GEN
1002
}
1001
GENIUS_GENOLIS_13
1002
{
1000
ENT
1005
0
1005
0
1005
0
1005
15FB
1002
}
1001
GENIUS_GENOENT_13
1002
{
1000
MYREF
1005
16B4
1002
}
1002
{
1000
GRP
1005
0
1002
}
1001
GENIUS_GENODEF_13
1002
{
1000
HIER
1070
    10
1002
}
1002
{
1000
MANEDIT
1070
     1
1002
}
1002
{
1000
NOSEL
1070
     0
1002
}
1002
{
1000
BEHIND
1070
     0
1002
}
1002
{
1000
OTHER
1070
     0
1002
}
1002
{
1000
REACTOR
1002
}
  0
POINT
  5
16B5
330
1F
100
AcDbEntity
  8
0
 60
     1
100
AcDbPoint
 10
-1942.251542512434
 20
-486.0398460275941
 30
0.0
1001
GENIUS_GENOBJ-N-CRS_13
1002
{
1000
OWNER
1000
GEN
1002
}
1001
GENIUS_GENOLIS_13
1002
{
1000
ENT
1005
0
1005
0
1005
0
1005
15FA
1002
}
1001
GENIUS_GENOENT_13
1002
{
1000
MYREF
1005
16B5
1002
}
1002
{
1000
GRP
1005
0
1002
}
1001
GENIUS_GENODEF_13
1002
{
1000
HIER
1070
    10
1002
}
1002
{
1000
MANEDIT
1070
     1
1002
}
1002
{
1000
NOSEL
1070
     0
1002
}
1002
{
1000
BEHIND
1070
     0
1002
}
1002
{
1000
OTHER
1070
     0
1002
}
1002
{
1000
REACTOR
1002
}
  0
POINT
  5
16B6
330
1F
100
AcDbEntity
  8
0
 60
     1
100
AcDbPoint
 10
-1935.892868814597
 20
-494.9154325062304
 30
0.0
1001
GENIUS_GENOBJ-N-CRS_13
1002
{
1000
OWNER
1000
GEN
1002
}
1001
GENIUS_GENOLIS_13
1002
{
1000
ENT
1005
0
1005
0
1005
0
1005
15F9
1002
}
1001
GENIUS_GENOENT_13
1002
{
1000
MYREF
1005
16B6
1002
}
1002
{
1000
GRP
1005
0
1002
}
1001
GENIUS_GENODEF_13
1002
{
1000
HIER
1070
    10
1002
}
1002
{
1000
MANEDIT
1070
     1
1002
}
1002
{
1000
NOSEL
1070
     0
1002
}
1002
{
1000
BEHIND
1070
     0
1002
}
1002
{
1000
OTHER
1070
     0
1002
}
1002
{
1000
REACTOR
1002
}
  0
MTEXT
  5
7BA1
330
1F
100
AcDbEntity
  8
AM_VIS
100
AcDbMText
 10
315.4333775501655
 20
376.163241097652
 30
0.0
 40
3.5
 41
0.0
 71
     9
 72
     1
  1

 73
     1
 44
1.0
1001
ACAD
1000
MTEXTBEGIN
1070
    73
1070
     1
1070
    44
1040
1.0
1070
    74
1070
     0
1000
MTEXTEND
  0
LINE
  5
99DA
102
{ACAD_REACTORS
330
A58C
102
}
330
1F
100
AcDbEntity
  8
AM_7
100
AcDbLine
 10
656.2669987258734
 20
142.9357254832378
 30
0.0
 11
746.1944356286815
 21
142.9357254832377
 31
0.0
  0
LINE
  5
99DB
330
1F
100
AcDbEntity
  8
AM_7
100
AcDbLine
 10
701.2307171772775
 20
187.8994439346418
 30
0.0
 11
701.2307171772775
 21
97.97200703183387
 31
0.0
  0
LINE
  5
9C94
330
1F
100
AcDbEntity
  8
LOGO
  6
Continuous
 62
     7
100
AcDbLine
 10
722.8738312205401
 20
66.14483014632994
 30
0.0
 11
725.3037036005033
 21
66.14483014632994
 31
0.0
  0
LINE
  5
9C95
330
1F
100
AcDbEntity
  8
LOGO
 62
     4
100
AcDbLine
 10
737.6466800300999
 20
60.66143914082673
 30
0.0
 11
737.6466800300999
 21
53.93569314553246
 31
0.0
  0
LINE
  5
9C96
330
1F
100
AcDbEntity
  8
LOGO
 62
     4
100
AcDbLine
 10
723.6723576991389
 20
60.66143914082673
 30
0.0
 11
723.6723576991389
 21
53.93569314553246
 31
0.0
  0
LINE
  5
9C97
330
1F
100
AcDbEntity
  8
LOGO
 62
     4
100
AcDbLine
 10
737.6466800300999
 20
53.93569314553246
 30
0.0
 11
723.6723576991389
 21
53.93569314553246
 31
0.0
  0
LINE
  5
9C98
330
1F
100
AcDbEntity
  8
LOGO
 62
     4
100
AcDbLine
 10
734.1864683705595
 20
68.91576377141466
 30
0.0
 11
726.8567135520127
 21
68.91576377141466
 31
0.0
  0
LINE
  5
9C99
330
1F
100
AcDbEntity
  8
LOGO
 62
     4
100
AcDbLine
 10
734.1864683705595
 20
63.41288068435591
 30
0.0
 11
726.8567135520127
 21
63.41288068435591
 31
0.0
  0
LINE
  5
9C9A
330
1F
100
AcDbEntity
  8
LOGO
 62
     4
100
AcDbLine
 10
726.8567135520127
 20
68.91576377141466
 30
0.0
 11
726.8567135520127
 21
63.41288068435591
 31
0.0
  0
LINE
  5
9C9B
330
1F
100
AcDbEntity
  8
LOGO
 62
     4
100
AcDbLine
 10
734.1864683705595
 20
68.91576377141466
 30
0.0
 11
734.1864683705595
 21
63.41288068435591
 31
0.0
  0
LINE
  5
9C9C
330
1F
100
AcDbEntity
  8
LOGO
 62
     4
100
AcDbLine
 10
730.2223281165738
 20
63.41288068435591
 30
0.0
 11
730.2223281165738
 21
60.66143914082673
 31
0.0
  0
LINE
  5
9C9E
330
1F
100
AcDbEntity
  8
LOGO
 62
     4
100
AcDbLine
 10
737.6466800300999
 20
60.66143914082673
 30
0.0
 11
723.6723576991389
 21
60.66143914082673
 31
0.0
  0
TEXT
  5
9C9F
330
1F
100
AcDbEntity
  8
LOGO
  6
Continuous
100
AcDbText
 10
724.880402226304
 20
54.88501793049257
 30
120.2166306851784
 40
1.37592
  1
Body diameter
 41
0.8
  7
CHINESET
100
AcDbText
  0
TEXT
  5
9CA0
330
1F
100
AcDbEntity
  8
LOGO
100
AcDbText
 10
725.9934257408375
 20
57.43567707856829
 30
120.2166306851784
 40
2.2932
  1
本體寬度
  7
CHINESET
100
AcDbText
  0
TEXT
  5
9CA2
330
1F
100
AcDbEntity
  8
LOGO
  6
Continuous
 62
     7
100
AcDbText
 10
728.2292050661806
 20
64.56159948356539
 30
0.0
 40
3.210479999999999
  1
80
  7
CHINESET
100
AcDbText
  0
DIMENSION
  5
A516
330
1F
100
AcDbEntity
  8
AM_REFDIM
100
AcDbDimension
  2
*D6
 10
707.3307171772787
 20
92.67583658085669
 30
0.0
 11
701.2307171772775
 21
92.67583658085669
 31
0.0
 70
   160
 71
     5
 42
12.199999999998
  3
AM_ISO$0
100
AcDbAlignedDimension
 13
695.1307171772807
 23
103.4035866592374
 33
0.0
 14
707.3307171772787
 24
103.4035866592381
 34
0.0
100
AcDbRotatedDimension
1001
ACAD
1000
DSTYLE
1002
{
1070
    40
1040
1.005834825753484
1002
}
  0
DIMENSION
  5
A540
330
1F
100
AcDbEntity
  8
AM_REFDIM
100
AcDbDimension
  2
*D7
 10
712.7307171996292
 20
86.45537529164228
 30
0.0
 11
701.2307171772779
 21
86.45537529164228
 31
0.0
 70
   160
 71
     5
 42
23.00000004470348
  3
AM_ISO$0
100
AcDbAlignedDimension
 13
689.7307171549257
 23
100.6789641409508
 33
0.0
 14
712.7307171996292
 24
100.6789641409508
 34
0.0
100
AcDbRotatedDimension
1001
ACAD
1000
DSTYLE
1002
{
1070
    40
1040
1.005834825753484
1002
}
  0
DIMENSION
  5
A57E
102
{ACAD_XDICTIONARY
360
A58B
102
}
102
{ACAD_REACTORS
330
A58C
102
}
330
1F
100
AcDbEntity
  8
AM_REFDIM
100
AcDbDimension
  2
*D8
 10
761.5984390226933
 20
100.6789641409508
 30
0.0
 11
761.5984390226933
 21
121.8073448120943
 31
0.0
 70
   160
 71
     5
 42
42.25676134228693
  3
AM_ISO$0
100
AcDbAlignedDimension
 13
746.1944356286815
 23
142.9357254832377
 33
0.0
 14
712.7307171996292
 24
100.6789641409508
 34
0.0
 50
89.9999999999998
100
AcDbRotatedDimension
1001
ACAD
1000
DSTYLE
1002
{
1070
    40
1040
1.005834825753484
1070
   271
1070
     0
1002
}
  0
DIMENSION
  5
A622
330
1F
100
AcDbEntity
  8
AM_REFDIM
100
AcDbDimension
  2
*D9
 10
843.2905194427007
 20
190.7354349965884
 30
0.0
 11
815.0405194396741
 21
190.7354349965884
 31
0.0
 70
   160
 71
     5
 42
56.50000000605337
  3
AM_ISO$0
100
AcDbAlignedDimension
 13
786.7905194366474
 23
182.4357273011794
 33
0.0
 14
843.2905194427007
 24
182.935724589168
 34
0.0
100
AcDbRotatedDimension
1001
ACAD
1000
DSTYLE
1002
{
1070
    40
1040
1.005834825753484
1002
}
  0
DIMENSION
  5
A67B
330
1F
100
AcDbEntity
  8
AM_REFDIM
100
AcDbDimension
  2
*D10
 10
850.4681805849125
 20
102.9357263773075
 30
0.0
 11
850.4681805849125
 21
142.9357254832378
 31
0.0
 70
   160
  1
%%c<>
 71
     5
 42
79.99999821186055
  3
AM_ISO$0
100
AcDbAlignedDimension
 13
843.2905194427007
 23
182.935724589168
 33
0.0
 14
843.2905194427007
 24
102.9357263773075
 34
0.0
 50
90.0
100
AcDbRotatedDimension
1001
ACAD
1000
DSTYLE
1002
{
1070
    40
1040
1.005834825753484
1002
}
  0
DIMENSION
  5
A6A1
330
1F
100
AcDbEntity
  8
AM_REFDIM
100
AcDbDimension
  2
*D11
 10
803.7905203605193
 20
93.38404038477037
 30
0.0
 11
823.5405199016101
 21
93.38404038477037
 31
0.0
 70
   160
 71
     5
 42
39.49999908218138
  3
AM_ISO$0
100
AcDbAlignedDimension
 13
843.2905194427007
 23
102.9357263773075
 33
0.0
 14
803.7905203605193
 24
100.8402990131965
 34
0.0
100
AcDbRotatedDimension
1001
ACAD
1000
DSTYLE
1002
{
1070
    40
1040
1.005834825753484
1070
   271
1070
     1
1002
}
  0
DIMENSION
  5
A724
330
1F
100
AcDbEntity
  8
AM_REFDIM
100
AcDbDimension
  2
*D12
 10
786.7905194366474
 20
190.7354349965884
 30
0.0
 11
785.7905192727346
 21
190.7354349965884
 31
0.0
 70
   160
 71
     5
 42
2.000000327825546
  3
AM_ISO$0
100
AcDbAlignedDimension
 13
784.7905191088218
 23
182.2811538308253
 33
0.0
 14
786.7905194366474
 24
182.4357273011794
 34
0.0
100
AcDbRotatedDimension
1001
ACAD
1000
DSTYLE
1002
{
1070
    40
1040
1.005834825753484
1070
   271
1070
     0
1002
}
  0
DIMENSION
  5
A77B
330
1F
100
AcDbEntity
  8
AM_REFDIM
100
AcDbDimension
  2
*D13
 10
744.7530272278957
 20
113.6789662718168
 30
0.0
 11
744.7530272278957
 21
115.7289661367538
 31
0.0
 70
   160
 71
     5
 42
4.099999729873601
  3
AM_ISO$0
100
AcDbAlignedDimension
 13
701.2307171772775
 23
117.7789660016905
 33
0.0
 14
707.2307172294316
 24
113.6789662718169
 34
0.0
 50
90.0
100
AcDbRotatedDimension
1001
ACAD
1000
DSTYLE
1002
{
1070
    40
1040
1.005834825753484
1070
   271
1070
     0
1002
}
  0
DIMENSION
  5
A7A5
330
1F
100
AcDbEntity
  8
AM_REFDIM
100
AcDbDimension
  2
*D14
 10
753.7408699039749
 20
104.7789660016904
 30
0.0
 11
753.7408699039749
 21
111.2789660016904
 31
0.0
 70
   160
 71
     5
 42
13.0
  3
AM_ISO$0
100
AcDbAlignedDimension
 13
701.2307171772775
 23
117.7789660016905
 33
0.0
 14
701.2307171772775
 24
104.7789660016904
 34
0.0
 50
90.0
100
AcDbRotatedDimension
1001
ACAD
1000
DSTYLE
1002
{
1070
    40
1040
1.005834825753484
1002
}
  0
DIMENSION
  5
A7CB
330
1F
100
AcDbEntity
  8
AM_REFDIM
100
AcDbDimension
  2
*D15
 10
744.7530272278957
 20
100.6789641409508
 30
0.0
 11
744.7530272278957
 21
102.7289650713207
 31
0.0
 70
   160
 71
     5
 42
4.100001860739652
  3
AM_ISO$0
100
AcDbAlignedDimension
 13
701.2307171772775
 23
104.7789660016904
 33
0.0
 14
712.7307171996292
 24
100.6789641409508
 34
0.0
 50
90.0
100
AcDbRotatedDimension
1001
ACAD
1000
DSTYLE
1002
{
1070
    40
1040
1.005834825753484
1070
   271
1070
     0
1002
}
  0
LEADER
  5
A889
330
1F
100
AcDbEntity
  8
AM_REFDIM
100
AcDbLeader
  3
AM_ISO$7
 76
     3
 10
736.5754402144286
 20
162.3187768118265
 30
0.0
 10
740.4596880263709
 20
169.6163413090196
 30
0.0
 10
770.6759736470287
 20
169.6163413090196
 30
0.0
1001
ACAD
1000
DSTYLE
1002
{
1070
   147
1040
1.0
1070
    77
1070
     1
1070
    43
1040
12.0
1070
   271
1070
     1
1070
   272
1070
     8
1002
}
  0
MTEXT
  5
A88C
330
1F
100
AcDbEntity
  8
AM_REFDIM
100
AcDbMText
 10
741.2764313468904
 20
173.3405081421909
 30
0.0
 40
3.0
 41
33.65203381816716
 71
     1
 72
     5
  1
3X2-M4X0.7 DP9
 73
     1
 44
1.0
1001
ACAD
1000
MTEXTBEGIN
1070
    73
1070
     1
1070
    44
1040
1.0
1070
    74
1070
     0
1000
MTEXTEND
  0
LEADER
  5
A890
330
1F
100
AcDbEntity
  8
AM_REFDIM
100
AcDbLeader
  3
AM_ISO$7
 76
     3
 10
703.5860539291164
 20
180.1032879215277
 30
0.0
 10
709.3519817776039
 20
188.0052600238635
 30
0.0
 10
746.801928578299
 20
188.0052600238635
 30
0.0
1001
ACAD
1000
DSTYLE
1002
{
1070
   147
1040
1.0
1070
    77
1070
     1
1070
    43
1040
12.0
1070
   271
1070
     1
1070
   272
1070
     8
1002
}
  0
MTEXT
  5
A895
330
1F
100
AcDbEntity
  8
AM_REFDIM
100
AcDbMText
 10
711.2803204853904
 20
192.2698494116689
 30
0.0
 40
3.0
 41
38.59614173293908
 71
     1
 72
     5
  1
3-%%C6.6 thru\P%%C11 C/B DP7 P.C.D 70
 73
     1
 44
1.0
1001
ACAD
1000
MTEXTBEGIN
1070
    73
1070
     1
1070
    44
1040
1.0
1070
    74
1070
     0
1000
MTEXTEND
  0
DIMENSION
  5
B250
330
1F
100
AcDbEntity
  8
AM_REFDIM
100
AcDbDimension
  2
*D16
 10
659.6066224473572
 20
100.6789641409508
 30
0.0
 11
659.6066224473572
 21
112.7614860867091
 31
0.0
 70
   160
 71
     5
 42
21.00000157952309
  3
AM_ISO$0
100
AcDbAlignedDimension
 13
695.2307171251234
 23
121.6789657204739
 33
0.0
 14
689.7307171549257
 24
100.6789641409508
 34
0.0
 50
90.0
100
AcDbRotatedDimension
1001
ACAD
1000
DSTYLE
1002
{
1070
    40
1040
1.005834825753484
1070
   271
1070
     0
1002
}
  0
SPLINE
  5
B603
330
1F
100
AcDbEntity
  8
0
  6
Continuous
 62
     7
370
    15
100
AcDbSpline
210
0.0
220
0.0
230
1.0
 70
    24
 71
     1
 72
     4
 73
     2
 74
     0
 42
0.0000000001
 43
0.0000000001
 40
0.0
 40
0.0
 40
1.0
 40
1.0
 10
786.9062381291885
 20
117.7118798672548
 30
0.0
 10
843.2905194427007
 20
117.7118798672548
 30
0.0
  0
SPLINE
  5
B604
330
1F
100
AcDbEntity
  8
0
  6
Continuous
 62
     7
370
    15
100
AcDbSpline
210
0.0
220
0.0
230
1.0
 70
    24
 71
     1
 72
     4
 73
     2
 74
     0
 42
0.0000000001
 43
0.0000000001
 40
0.0
 40
0.0
 40
1.0
 40
1.0
 10
843.2905194427007
 20
168.1595710992209
 30
0.0
 10
786.9163820946712
 20
168.1595710992209
 30
0.0
  0
SPLINE
  5
B605
330
1F
100
AcDbEntity
  8
0
  6
Continuous
 62
     7
370
    15
100
AcDbSpline
210
0.0
220
0.0
230
1.0
 70
    24
 71
     1
 72
     4
 73
     2
 74
     0
 42
0.0000000001
 43
0.0000000001
 40
0.0
 40
0.0
 40
1.0
 40
1.0
 10
785.2905201221008
 20
121.9357257663599
 30
0.0
 10
786.7905194366474
 20
121.9357257663599
 30
0.0
  0
SPLINE
  5
B606
330
1F
100
AcDbEntity
  8
0
  6
Continuous
 62
     7
370
    15
100
AcDbSpline
210
0.0
220
0.0
230
1.0
 70
    24
 71
     1
 72
     4
 73
     2
 74
     0
 42
0.0000000001
 43
0.0000000001
 40
0.0
 40
0.0
 40
1.0
 40
1.0
 10
786.7905194366474
 20
163.9357252001158
 30
0.0
 10
785.2905201221008
 20
163.9357252001158
 30
0.0
  0
SPLINE
  5
B607
330
1F
100
AcDbEntity
  8
0
  6
Continuous
 62
     7
370
    15
100
AcDbSpline
210
0.0
220
0.0
230
1.0
 70
    24
 71
     1
 72
     4
 73
     2
 74
     0
 42
0.0000000001
 43
0.0000000001
 40
0.0
 40
0.0
 40
1.0
 40
1.0
 10
787.2473629618187
 20
104.3727012305847
 30
0.0
 10
843.2905194427007
 20
104.3727012305847
 30
0.0
  0
SPLINE
  5
B608
330
1F
100
AcDbEntity
  8
0
  6
Continuous
 62
     7
370
    15
100
AcDbSpline
210
0.0
220
0.0
230
1.0
 70
    24
 71
     1
 72
     4
 73
     2
 74
     0
 42
0.0000000001
 43
0.0000000001
 40
0.0
 40
0.0
 40
1.0
 40
1.0
 10
843.2905194427007
 20
181.4987497358908
 30
0.0
 10
787.2539418244858
 20
181.4987497358908
 30
0.0
  0
SPLINE
  5
B609
330
1F
100
AcDbEntity
  8
0
  6
Continuous
 62
     7
370
    15
100
AcDbSpline
210
0.0
220
0.0
230
1.0
 70
    24
 71
     1
 72
     4
 73
     2
 74
     0
 42
0.0000000001
 43
0.0000000001
 40
0.0
 40
0.0
 40
1.0
 40
1.0
 10
787.2905204499264
 20
182.935724589168
 30
0.0
 10
786.7905194366474
 20
182.4357273011794
 30
0.0
  0
SPLINE
  5
B60A
330
1F
100
AcDbEntity
  8
0
  6
Continuous
 62
     7
370
    15
100
AcDbSpline
210
0.0
220
0.0
230
1.0
 70
    24
 71
     1
 72
     4
 73
     2
 74
     0
 42
0.0000000001
 43
0.0000000001
 40
0.0
 40
0.0
 40
1.0
 40
1.0
 10
786.7905194366474
 20
103.4357236652962
 30
0.0
 10
787.2905204499264
 20
102.9357263773075
 30
0.0
  0
SPLINE
  5
B60B
330
1F
100
AcDbEntity
  8
0
  6
Continuous
 62
     7
370
    15
100
AcDbSpline
210
0.0
220
0.0
230
1.0
 70
    24
 71
     1
 72
     4
 73
     2
 74
     0
 42
0.0000000001
 43
0.0000000001
 40
0.0
 40
0.0
 40
1.0
 40
1.0
 10
843.2905194427007
 20
182.935724589168
 30
0.0
 10
787.2905204499264
 20
182.935724589168
 30
0.0
  0
SPLINE
  5
B60C
330
1F
100
AcDbEntity
  8
0
  6
Continuous
 62
     7
370
    15
100
AcDbSpline
210
0.0
220
0.0
230
1.0
 70
    24
 71
     1
 72
     4
 73
     2
 74
     0
 42
0.0000000001
 43
0.0000000001
 40
0.0
 40
0.0
 40
1.0
 40
1.0
 10
787.2905204499264
 20
102.9357263773075
 30
0.0
 10
843.2905194427007
 20
102.9357263773075
 30
0.0
  0
LINE
  5
B60D
330
1F
100
AcDbEntity
  8
0
  6
Continuous
 62
     7
370
    15
100
AcDbLine
 10
793.7905187213917
 20
136.3700400992623
 30
0.0
 11
793.7905187213917
 21
131.9357255428425
 31
0.0
  0
LINE
  5
B60E
330
1F
100
AcDbEntity
  8
0
  6
Continuous
 62
     7
370
    15
100
AcDbLine
 10
794.1440711224575
 20
136.7235934316507
 30
0.0
 11
793.7905187213917
 21
136.3700400992623
 31
0.0
  0
LINE
  5
B60F
330
1F
100
AcDbEntity
  8
0
  6
Continuous
 62
     7
370
    15
100
AcDbLine
 10
793.578385790636
 20
137.2892787634722
 30
0.0
 11
794.1440711224575
 21
136.7235934316507
 31
0.0
  0
LINE
  5
B610
330
1F
100
AcDbEntity
  8
0
  6
Continuous
 62
     7
370
    15
100
AcDbLine
 10
793.2248333895702
 20
136.9357254310838
 30
0.0
 11
793.578385790636
 21
137.2892787634722
 31
0.0
  0
LINE
  5
B611
330
1F
100
AcDbEntity
  8
0
  6
Continuous
 62
     7
370
    15
100
AcDbLine
 10
785.2905201221008
 20
136.9357254310838
 30
0.0
 11
793.2248333895702
 21
136.9357254310838
 31
0.0
  0
LINE
  5
B612
330
1F
100
AcDbEntity
  8
0
  6
Continuous
 62
     7
370
    15
100
AcDbLine
 10
784.7905191088218
 20
137.4357255130401
 30
0.0
 11
785.2905201221008
 21
136.9357254310838
 31
0.0
  0
LINE
  5
B613
330
1F
100
AcDbEntity
  8
0
  6
Continuous
 62
     7
370
    15
100
AcDbLine
 10
784.7905191088218
 20
148.4357254534355
 30
0.0
 11
784.7905191088218
 21
137.4357255130401
 31
0.0
  0
LINE
  5
B614
330
1F
100
AcDbEntity
  8
0
  6
Continuous
 62
     7
370
    15
100
AcDbLine
 10
793.2248333895702
 20
148.9357255353919
 30
0.0
 11
785.2905201221008
 21
148.9357255353919
 31
0.0
  0
LINE
  5
B615
330
1F
100
AcDbEntity
  8
0
  6
Continuous
 62
     7
370
    15
100
AcDbLine
 10
793.578385790636
 20
148.5821722030035
 30
0.0
 11
793.2248333895702
 21
148.9357255353919
 31
0.0
  0
LINE
  5
B616
330
1F
100
AcDbEntity
  8
0
  6
Continuous
 62
     7
370
    15
100
AcDbLine
 10
794.1440711224575
 20
149.1478575348249
 30
0.0
 11
793.578385790636
 21
148.5821722030035
 31
0.0
  0
LINE
  5
B617
330
1F
100
AcDbEntity
  8
0
  6
Continuous
 62
     7
370
    15
100
AcDbLine
 10
793.7905187213917
 20
153.9357254236332
 30
0.0
 11
793.7905187213917
 21
149.5014108672133
 31
0.0
  0
LINE
  5
B618
330
1F
100
AcDbEntity
  8
0
  6
Continuous
 62
     7
370
    15
100
AcDbLine
 10
803.2905193472403
 20
154.4357255055896
 30
0.0
 11
794.2905197346706
 21
154.4357255055896
 31
0.0
  0
LINE
  5
B619
330
1F
100
AcDbEntity
  8
0
  6
Continuous
 62
     7
370
    15
100
AcDbLine
 10
803.7905203605193
 20
153.9357254236332
 30
0.0
 11
803.2905193472403
 21
154.4357255055896
 31
0.0
  0
LINE
  5
B61A
330
1F
100
AcDbEntity
  8
0
  6
Continuous
 62
     7
370
    15
100
AcDbLine
 10
803.7905203605193
 20
131.9357255428425
 30
0.0
 11
803.7905203605193
 21
153.9357254236332
 31
0.0
  0
LINE
  5
B61B
330
1F
100
AcDbEntity
  8
0
  6
Continuous
 62
     7
370
    15
100
AcDbLine
 10
803.2905193472403
 20
131.4357254608861
 30
0.0
 11
803.7905203605193
 21
131.9357255428425
 31
0.0
  0
LINE
  5
B61C
330
1F
100
AcDbEntity
  8
0
  6
Continuous
 62
     7
370
    15
100
AcDbLine
 10
794.2905197346706
 20
131.4357254608861
 30
0.0
 11
803.2905193472403
 21
131.4357254608861
 31
0.0
  0
LINE
  5
B61D
330
1F
100
AcDbEntity
  8
0
  6
Continuous
 62
     7
370
    15
100
AcDbLine
 10
793.7905187213917
 20
131.9357255428425
 30
0.0
 11
794.2905197346706
 21
131.4357254608861
 31
0.0
  0
LINE
  5
B61E
330
1F
100
AcDbEntity
  8
0
  6
Continuous
 62
     7
370
    15
100
AcDbLine
 10
794.2905197346706
 20
154.4357255055896
 30
0.0
 11
793.7905187213917
 21
153.9357254236332
 31
0.0
  0
LINE
  5
B61F
330
1F
100
AcDbEntity
  8
0
  6
Continuous
 62
     7
370
    15
100
AcDbLine
 10
793.7905187213917
 20
149.5014108672133
 30
0.0
 11
794.1440711224575
 21
149.1478575348249
 31
0.0
  0
LINE
  5
B620
330
1F
100
AcDbEntity
  8
0
  6
Continuous
 62
     7
370
    15
100
AcDbLine
 10
785.2905201221008
 20
148.9357255353919
 30
0.0
 11
784.7905191088218
 21
148.4357254534355
 31
0.0
  0
LINE
  5
B621
330
1F
100
AcDbEntity
  8
0
  6
Continuous
 62
     7
370
    15
100
AcDbLine
 10
787.2905204499264
 20
136.835725600957
 30
0.0
 11
787.2905204499264
 21
118.0907567917696
 31
0.0
  0
LINE
  5
B622
330
1F
100
AcDbEntity
  8
0
  6
Continuous
 62
     7
370
    15
100
AcDbLine
 10
793.7905187213917
 20
136.835725600957
 30
0.0
 11
787.2905204499264
 21
136.835725600957
 31
0.0
  0
LINE
  5
B623
330
1F
100
AcDbEntity
  8
0
  6
Continuous
 62
     7
370
    15
100
AcDbLine
 10
793.7905187213917
 20
136.835725600957
 30
0.0
 11
793.7905187213917
 21
136.3700400992623
 31
0.0
  0
LINE
  5
B624
330
1F
100
AcDbEntity
  8
0
  6
Continuous
 62
     7
370
    15
100
AcDbLine
 10
793.7905187213917
 20
131.9357255428425
 30
0.0
 11
793.7905187213917
 21
131.4357254608861
 31
0.0
  0
LINE
  5
B625
330
1F
100
AcDbEntity
  8
0
  6
Continuous
 62
     7
370
    15
100
AcDbLine
 10
793.7905187213917
 20
131.4357254608861
 30
0.0
 11
794.2905197346706
 21
131.4357254608861
 31
0.0
  0
LINE
  5
B626
330
1F
100
AcDbEntity
  8
0
  6
Continuous
 62
     7
370
    15
100
AcDbLine
 10
803.2905193472403
 20
131.4357254608861
 30
0.0
 11
803.7905203605193
 21
131.4357254608861
 31
0.0
  0
LINE
  5
B627
330
1F
100
AcDbEntity
  8
0
  6
Continuous
 62
     7
370
    15
100
AcDbLine
 10
803.7905203605193
 20
131.9357255428425
 30
0.0
 11
803.7905203605193
 21
131.4357254608861
 31
0.0
  0
LINE
  5
B628
330
1F
100
AcDbEntity
  8
0
  6
Continuous
 62
     7
370
    15
100
AcDbLine
 10
803.7905203605193
 20
154.4357255055896
 30
0.0
 11
803.7905203605193
 21
153.9357254236332
 31
0.0
  0
LINE
  5
B629
330
1F
100
AcDbEntity
  8
0
  6
Continuous
 62
     7
370
    15
100
AcDbLine
 10
803.2905193472403
 20
154.4357255055896
 30
0.0
 11
803.7905203605193
 21
154.4357255055896
 31
0.0
  0
LINE
  5
B62A
330
1F
100
AcDbEntity
  8
0
  6
Continuous
 62
     7
370
    15
100
AcDbLine
 10
793.7905187213917
 20
154.4357255055896
 30
0.0
 11
794.2905197346706
 21
154.4357255055896
 31
0.0
  0
LINE
  5
B62B
330
1F
100
AcDbEntity
  8
0
  6
Continuous
 62
     7
370
    15
100
AcDbLine
 10
793.7905187213917
 20
154.4357255055896
 30
0.0
 11
793.7905187213917
 21
153.9357254236332
 31
0.0
  0
LINE
  5
B62C
330
1F
100
AcDbEntity
  8
0
  6
Continuous
 62
     7
370
    15
100
AcDbLine
 10
793.7905187213917
 20
149.5014108672133
 30
0.0
 11
793.7905187213917
 21
149.0357253655187
 31
0.0
  0
LINE
  5
B62D
330
1F
100
AcDbEntity
  8
0
  6
Continuous
 62
     7
370
    15
100
AcDbLine
 10
787.2905204499264
 20
149.0357253655187
 30
0.0
 11
793.7905187213917
 21
149.0357253655187
 31
0.0
  0
LINE
  5
B62E
330
1F
100
AcDbEntity
  8
0
  6
Continuous
 62
     7
370
    15
100
AcDbLine
 10
787.2905204499264
 20
167.7806941747061
 30
0.0
 11
787.2905204499264
 21
149.0357253655187
 31
0.0
  0
LINE
  5
B62F
330
1F
100
AcDbEntity
  8
0
  6
Continuous
 62
     7
370
    15
100
AcDbLine
 10
843.2905194427007
 20
167.7806941747061
 30
0.0
 11
787.2905204499264
 21
167.7806941747061
 31
0.0
  0
LINE
  5
B630
330
1F
100
AcDbEntity
  8
0
  6
Continuous
 62
     7
370
    15
100
AcDbLine
 10
843.2905194427007
 20
118.0907567917696
 30
0.0
 11
843.2905194427007
 21
167.7806941747061
 31
0.0
  0
LINE
  5
B631
330
1F
100
AcDbEntity
  8
0
  6
Continuous
 62
     7
370
    15
100
AcDbLine
 10
787.2905204499264
 20
118.0907567917696
 30
0.0
 11
843.2905194427007
 21
118.0907567917696
 31
0.0
  0
SPLINE
  5
B632
330
1F
100
AcDbEntity
  8
0
  6
Continuous
 62
     7
370
    15
100
AcDbSpline
210
0.0
220
0.0
230
1.0
 70
     8
 71
     3
 72
    14
 73
    10
 74
     0
 42
0.0000000001
 43
0.0000000001
 40
0.0
 40
0.0
 40
0.0
 40
0.0
 40
0.25
 40
0.25
 40
0.5
 40
0.5
 40
0.75
 40
0.75
 40
1.0
 40
1.0
 40
1.0
 40
1.0
 10
786.7905194664497
 20
117.7242809095957
 30
0.0
 10
786.855827486255
 20
117.7123654882001
 30
0.0
 10
786.9176223963961
 20
117.7087026635264
 30
0.0
 10
787.0331041739445
 20
117.7206676031221
 30
0.0
 10
787.0876003403761
 20
117.7366712279565
 30
0.0
 10
787.1811026192442
 20
117.7933045301126
 30
0.0
 10
787.220583204858
 20
117.8343788869065
 30
0.0
 10
787.2752826117898
 20
117.9432990262699
 30
0.0
 10
787.2905194664497
 20
118.0116303653889
 30
0.0
 10
787.2905194664497
 20
118.0907563650402
 30
0.0
  0
LINE
  5
B633
330
1F
100
AcDbEntity
  8
0
  6
Continuous
 62
     7
370
    15
100
AcDbLine
 10
786.7905194366474
 20
117.7242813586584
 30
0.0
 11
786.7905194366474
 21
136.835725600957
 31
0.0
  0
SPLINE
  5
B634
330
1F
100
AcDbEntity
  8
0
  6
Continuous
 62
     7
370
    15
100
AcDbSpline
210
0.0
220
0.0
230
1.0
 70
    24
 71
     3
 72
     8
 73
     4
 74
     0
 42
0.0000000001
 43
0.0000000001
 40
0.0
 40
0.0
 40
0.0
 40
0.0
 40
0.000711357622045
 40
0.000711357622045
 40
0.000711357622045
 40
0.000711357622045
 10
786.7905194664497
 20
136.8357254832378
 30
0.0
 10
786.9571732592681
 20
136.8357254832378
 30
0.0
 10
787.1238400897157
 20
136.8357254832378
 30
0.0
 10
787.2905194664495
 20
136.8357254832378
 30
0.0
  0
SPLINE
  5
B635
330
1F
100
AcDbEntity
  8
0
  6
Continuous
 62
     7
370
    15
100
AcDbSpline
210
0.0
220
0.0
230
1.0
 70
     8
 71
     3
 72
    10
 73
     6
 74
     0
 42
0.0000000001
 43
0.0000000001
 40
0.0
 40
0.0
 40
0.0
 40
0.0
 40
0.5
 40
0.5
 40
1.0
 40
1.0
 40
1.0
 40
1.0
 10
787.2905194664497
 20
167.7806946014354
 30
0.0
 10
787.2905194664497
 20
167.9386592477317
 30
0.0
 10
787.2284592297876
 20
168.049048193099
 30
0.0
 10
787.0419596737631
 20
168.1628348585809
 30
0.0
 10
786.9211639351976
 20
168.1710060865593
 30
0.0
 10
786.7905194664513
 20
168.147170056884
 30
0.0
  0
SPLINE
  5
B636
330
1F
100
AcDbEntity
  8
0
  6
Continuous
 62
     7
370
    15
100
AcDbSpline
210
0.0
220
0.0
230
1.0
 70
    24
 71
     3
 72
     8
 73
     4
 74
     0
 42
0.0000000001
 43
0.0000000001
 40
0.0
 40
0.0
 40
0.0
 40
0.0
 40
0.000711357622045
 40
0.000711357622045
 40
0.000711357622045
 40
0.000711357622045
 10
786.7905194664497
 20
149.0357254832379
 30
0.0
 10
786.9571732592681
 20
149.0357254832379
 30
0.0
 10
787.1238400897157
 20
149.0357254832379
 30
0.0
 10
787.2905194664497
 20
149.0357254832379
 30
0.0
  0
LINE
  5
B637
330
1F
100
AcDbEntity
  8
0
  6
Continuous
 62
     7
370
    15
100
AcDbLine
 10
786.7905194366474
 20
149.0357253655187
 30
0.0
 11
786.7905194366474
 21
168.1471696078173
 31
0.0
  0
LINE
  5
B638
330
1F
100
AcDbEntity
  8
0
  6
Continuous
 62
     7
370
    15
100
AcDbLine
 10
843.2905194427007
 20
117.7118798672548
 30
0.0
 11
843.2905194427007
 21
118.0907567917696
 31
0.0
  0
LINE
  5
B639
330
1F
100
AcDbEntity
  8
0
  6
Continuous
 62
     7
370
    15
100
AcDbLine
 10
843.2905194427007
 20
167.7806941747061
 30
0.0
 11
843.2905194427007
 21
168.1595710992209
 31
0.0
  0
LINE
  5
B63A
330
1F
100
AcDbEntity
  8
0
  6
Continuous
 62
     7
370
    15
100
AcDbLine
 10
785.2905201221008
 20
136.9357254310838
 30
0.0
 11
787.790517737915
 21
136.9357254310838
 31
0.0
  0
LINE
  5
B63B
330
1F
100
AcDbEntity
  8
0
  6
Continuous
 62
     7
370
    15
100
AcDbLine
 10
787.790517737915
 20
148.9357255353919
 30
0.0
 11
785.2905201221008
 21
148.9357255353919
 31
0.0
  0
SPLINE
  5
B63C
330
1F
100
AcDbEntity
  8
0
  6
Continuous
 62
     7
370
    15
100
AcDbSpline
210
0.0
220
0.0
230
1.0
 70
     8
 71
     3
 72
    10
 73
     6
 74
     0
 42
0.0000000001
 43
0.0000000001
 40
0.0
 40
0.0
 40
0.0
 40
0.0
 40
0.5
 40
0.5
 40
1.0
 40
1.0
 40
1.0
 40
1.0
 10
787.2905194664497
 20
114.3559772421283
 30
0.0
 10
787.2905194664497
 20
114.4969053609513
 30
0.0
 10
787.2286481225935
 20
114.6759771683853
 30
0.0
 10
787.042096984617
 20
115.0195862515392
 30
0.0
 10
786.9211419454605
 20
115.1832283453693
 30
0.0
 10
786.7905194664495
 20
115.3298364018026
 30
0.0
  0
LINE
  5
B63D
330
1F
100
AcDbEntity
  8
0
  6
Continuous
 62
     7
370
    15
100
AcDbLine
 10
787.2905204499264
 20
114.3559763162723
 30
0.0
 11
787.2905204499264
 21
111.3729575603596
 31
0.0
  0
SPLINE
  5
B63E
330
1F
100
AcDbEntity
  8
0
  6
Continuous
 62
     7
370
    15
100
AcDbSpline
210
0.0
220
0.0
230
1.0
 70
     8
 71
     3
 72
     8
 73
     4
 74
     0
 42
0.0000000001
 43
0.0000000001
 40
0.0
 40
0.0
 40
0.0
 40
0.0
 40
0.0007105473540007
 40
0.0007105473540007
 40
0.0007105473540007
 40
0.0007105473540007
 10
786.7905194664497
 20
111.8101721186053
 30
0.0
 10
786.9571757425781
 20
111.6644244162448
 30
0.0
 10
787.1238425409964
 20
111.5186857372041
 30
0.0
 10
787.2905194664495
 20
111.3729557457326
 30
0.0
  0
LINE
  5
B63F
330
1F
100
AcDbEntity
  8
0
  6
Continuous
 62
     7
370
    15
100
AcDbLine
 10
786.7905194366474
 20
111.8101725309482
 30
0.0
 11
786.7905194366474
 21
115.3298361181608
 31
0.0
  0
SPLINE
  5
B640
330
1F
100
AcDbEntity
  8
0
  6
Continuous
 62
     7
370
    15
100
AcDbSpline
210
0.0
220
0.0
230
1.0
 70
     8
 71
     3
 72
    10
 73
     6
 74
     0
 42
0.0000000001
 43
0.0000000001
 40
0.0
 40
0.0
 40
0.0
 40
0.0
 40
0.5
 40
0.5
 40
1.0
 40
1.0
 40
1.0
 40
1.0
 10
786.7905194664497
 20
170.5416145646731
 30
0.0
 10
786.9211090129208
 20
170.6881856582828
 30
0.0
 10
787.0420867993511
 20
170.8519374841141
 30
0.0
 10
787.228236765246
 20
171.1946247954513
 30
0.0
 10
787.2905194664495
 20
171.3745354407824
 30
0.0
 10
787.2905194664495
 20
171.5154737243474
 30
0.0
  0
SPLINE
  5
B641
330
1F
100
AcDbEntity
  8
0
  6
Continuous
 62
     7
370
    15
100
AcDbSpline
210
0.0
220
0.0
230
1.0
 70
     8
 71
     3
 72
     8
 73
     4
 74
     0
 42
0.0000000001
 43
0.0000000001
 40
0.0
 40
0.0
 40
0.0
 40
0.0
 40
0.0007105505644362
 40
0.0007105505644362
 40
0.0007105505644362
 40
0.0007105505644362
 10
786.7905194664495
 20
174.0597108265248
 30
0.0
 10
786.9571757327658
 20
174.2054598415868
 30
0.0
 10
787.1238425313106
 20
174.3511998248889
 30
0.0
 10
787.2905194664495
 20
174.4969311124968
 30
0.0
  0
LINE
  5
B642
330
1F
100
AcDbEntity
  8
0
  6
Continuous
 62
     7
370
    15
100
AcDbLine
 10
787.2905204499264
 20
174.4969325094809
 30
0.0
 11
787.2905204499264
 21
171.5154746502033
 31
0.0
  0
LINE
  5
B643
330
1F
100
AcDbEntity
  8
0
  6
Continuous
 62
     7
370
    15
100
AcDbLine
 10
786.7905194366474
 20
170.5416148483149
 30
0.0
 11
786.7905194366474
 21
174.0597100883116
 31
0.0
  0
LINE
  5
B644
330
1F
100
AcDbEntity
  8
0
  6
Continuous
 62
     7
370
    15
100
AcDbLine
 10
843.2905194427007
 20
115.8136153548351
 30
0.0
 11
786.7905194366474
 21
115.8136153548351
 31
0.0
  0
LINE
  5
B645
330
1F
100
AcDbEntity
  8
0
  6
Continuous
 62
     7
370
    15
100
AcDbLine
 10
843.2905194427007
 20
114.3559763162723
 30
0.0
 11
787.2905204499264
 21
114.3559763162723
 31
0.0
  0
LINE
  5
B646
330
1F
100
AcDbEntity
  8
0
  6
Continuous
 62
     7
370
    15
100
AcDbLine
 10
786.7905194366474
 20
115.8136153548351
 30
0.0
 11
786.7905194366474
 21
115.3298361181608
 31
0.0
  0
LINE
  5
B647
330
1F
100
AcDbEntity
  8
0
  6
Continuous
 62
     7
370
    15
100
AcDbLine
 10
843.2905194427007
 20
114.3559763162723
 30
0.0
 11
843.2905194427007
 21
115.8136153548351
 31
0.0
  0
LINE
  5
B648
330
1F
100
AcDbEntity
  8
0
  6
Continuous
 62
     7
370
    15
100
AcDbLine
 10
786.7905194366474
 20
170.0578356116406
 30
0.0
 11
843.2905194427007
 21
170.0578356116406
 31
0.0
  0
LINE
  5
B649
330
1F
100
AcDbEntity
  8
0
  6
Continuous
 62
     7
370
    15
100
AcDbLine
 10
787.2905204499264
 20
171.5154746502033
 30
0.0
 11
843.2905194427007
 21
171.5154746502033
 31
0.0
  0
LINE
  5
B64A
330
1F
100
AcDbEntity
  8
0
  6
Continuous
 62
     7
370
    15
100
AcDbLine
 10
786.7905194366474
 20
170.5416148483149
 30
0.0
 11
786.7905194366474
 21
170.0578356116406
 31
0.0
  0
LINE
  5
B64B
330
1F
100
AcDbEntity
  8
0
  6
Continuous
 62
     7
370
    15
100
AcDbLine
 10
843.2905194427007
 20
170.0578356116406
 30
0.0
 11
843.2905194427007
 21
171.5154746502033
 31
0.0
  0
LINE
  5
B64C
330
1F
100
AcDbEntity
  8
0
  6
Continuous
 62
     7
370
    15
100
AcDbLine
 10
793.7905187213917
 20
105.8732593386761
 30
0.0
 11
787.2905204499264
 21
105.8732593386761
 31
0.0
  0
LINE
  5
B64D
330
1F
100
AcDbEntity
  8
0
  6
Continuous
 62
     7
370
    15
100
AcDbLine
 10
793.7905187213917
 20
111.3729575603596
 30
0.0
 11
793.7905187213917
 21
105.8732593386761
 31
0.0
  0
LINE
  5
B64E
330
1F
100
AcDbEntity
  8
0
  6
Continuous
 62
     7
370
    15
100
AcDbLine
 10
787.2905204499264
 20
111.3729575603596
 30
0.0
 11
793.7905187213917
 21
111.3729575603596
 31
0.0
  0
LINE
  5
B64F
330
1F
100
AcDbEntity
  8
0
  6
Continuous
 62
     7
370
    15
100
AcDbLine
 10
787.2905204499264
 20
104.4095443516365
 30
0.0
 11
843.2905194427007
 21
104.4095443516365
 31
0.0
  0
LINE
  5
B650
330
1F
100
AcDbEntity
  8
0
  6
Continuous
 62
     7
370
    15
100
AcDbLine
 10
787.2905204499264
 20
105.8732593386761
 30
0.0
 11
787.2905204499264
 21
104.4095443516365
 31
0.0
  0
LINE
  5
B651
330
1F
100
AcDbEntity
  8
0
  6
Continuous
 62
     7
370
    15
100
AcDbLine
 10
843.2905194427007
 20
104.4095443516365
 30
0.0
 11
843.2905194427007
 21
114.3559763162723
 31
0.0
  0
LINE
  5
B652
330
1F
100
AcDbEntity
  8
0
  6
Continuous
 62
     7
370
    15
100
AcDbLine
 10
793.7905187213917
 20
174.4969325094809
 30
0.0
 11
787.2905204499264
 21
174.4969325094809
 31
0.0
  0
LINE
  5
B653
330
1F
100
AcDbEntity
  8
0
  6
Continuous
 62
     7
370
    15
100
AcDbLine
 10
793.7905187213917
 20
179.9972342281928
 30
0.0
 11
793.7905187213917
 21
174.4969325094809
 31
0.0
  0
LINE
  5
B654
330
1F
100
AcDbEntity
  8
0
  6
Continuous
 62
     7
370
    15
100
AcDbLine
 10
787.2905204499264
 20
179.9972342281928
 30
0.0
 11
793.7905187213917
 21
179.9972342281928
 31
0.0
  0
LINE
  5
B655
330
1F
100
AcDbEntity
  8
0
  6
Continuous
 62
     7
370
    15
100
AcDbLine
 10
787.2905204499264
 20
181.4619066148391
 30
0.0
 11
787.2905204499264
 21
179.9972342281928
 31
0.0
  0
LINE
  5
B656
330
1F
100
AcDbEntity
  8
0
  6
Continuous
 62
     7
370
    15
100
AcDbLine
 10
843.2905194427007
 20
181.4619066148391
 30
0.0
 11
787.2905204499264
 21
181.4619066148391
 31
0.0
  0
LINE
  5
B657
330
1F
100
AcDbEntity
  8
0
  6
Continuous
 62
     7
370
    15
100
AcDbLine
 10
843.2905194427007
 20
171.5154746502033
 30
0.0
 11
843.2905194427007
 21
181.4619066148391
 31
0.0
  0
LINE
  5
B658
330
1F
100
AcDbEntity
  8
0
  6
Continuous
 62
     7
370
    15
100
AcDbLine
 10
843.2905194427007
 20
116.7833587109438
 30
0.0
 11
786.7905194366474
 21
116.7833587109438
 31
0.0
  0
LINE
  5
B659
330
1F
100
AcDbEntity
  8
0
  6
Continuous
 62
     7
370
    15
100
AcDbLine
 10
786.7905194366474
 20
115.8136153548351
 30
0.0
 11
786.7905194366474
 21
116.7833587109438
 31
0.0
  0
LINE
  5
B65A
330
1F
100
AcDbEntity
  8
0
  6
Continuous
 62
     7
370
    15
100
AcDbLine
 10
843.2905194427007
 20
116.7833587109438
 30
0.0
 11
843.2905194427007
 21
115.8136153548351
 31
0.0
  0
LINE
  5
B65B
330
1F
100
AcDbEntity
  8
0
  6
Continuous
 62
     7
370
    15
100
AcDbLine
 10
786.7905194366474
 20
169.0880922555319
 30
0.0
 11
843.2905194427007
 21
169.0880922555319
 31
0.0
  0
LINE
  5
B65C
330
1F
100
AcDbEntity
  8
0
  6
Continuous
 62
     7
370
    15
100
AcDbLine
 10
786.7905194366474
 20
169.0880922555319
 30
0.0
 11
786.7905194366474
 21
170.0578356116406
 31
0.0
  0
LINE
  5
B65D
330
1F
100
AcDbEntity
  8
0
  6
Continuous
 62
     7
370
    15
100
AcDbLine
 10
843.2905194427007
 20
170.0578356116406
 30
0.0
 11
843.2905194427007
 21
169.0880922555319
 31
0.0
  0
LINE
  5
B65E
330
1F
100
AcDbEntity
  8
0
  6
Continuous
 62
     7
370
    15
100
AcDbLine
 10
786.7905194366474
 20
116.2631573110214
 30
0.0
 11
786.7905194366474
 21
119.0735069989553
 31
0.0
  0
LINE
  5
B65F
330
1F
100
AcDbEntity
  8
0
  6
Continuous
 62
     7
370
    15
100
AcDbLine
 10
843.2905194427007
 20
116.2631573110214
 30
0.0
 11
843.2905194427007
 21
119.0735069989553
 31
0.0
  0
LINE
  5
B660
330
1F
100
AcDbEntity
  8
0
  6
Continuous
 62
     7
370
    15
100
AcDbLine
 10
786.7905194366474
 20
166.7979439675203
 30
0.0
 11
786.7905194366474
 21
169.6082936554543
 31
0.0
  0
LINE
  5
B661
330
1F
100
AcDbEntity
  8
0
  6
Continuous
 62
     7
370
    15
100
AcDbLine
 10
843.2905194427007
 20
166.7979439675203
 30
0.0
 11
843.2905194427007
 21
169.6082936554543
 31
0.0
  0
LINE
  5
B662
330
1F
100
AcDbEntity
  8
0
  6
Continuous
 62
     7
370
    15
100
AcDbLine
 10
786.7905194366474
 20
163.6024216144672
 30
0.0
 11
786.7905194366474
 21
166.7979439675203
 31
0.0
  0
LINE
  5
B663
330
1F
100
AcDbEntity
  8
0
  6
Continuous
 62
     7
370
    15
100
AcDbLine
 10
843.2905194427007
 20
163.6024216144672
 30
0.0
 11
843.2905194427007
 21
166.7979439675203
 31
0.0
  0
LINE
  5
B664
330
1F
100
AcDbEntity
  8
0
  6
Continuous
 62
     7
370
    15
100
AcDbLine
 10
786.7905194366474
 20
119.0735069989553
 30
0.0
 11
786.7905194366474
 21
122.2690293520084
 31
0.0
  0
LINE
  5
B665
330
1F
100
AcDbEntity
  8
0
  6
Continuous
 62
     7
370
    15
100
AcDbLine
 10
843.2905194427007
 20
119.0735069989553
 30
0.0
 11
843.2905194427007
 21
122.2690293520084
 31
0.0
  0
LINE
  5
B666
330
1F
100
AcDbEntity
  8
0
  6
Continuous
 62
     7
370
    15
100
AcDbLine
 10
786.7905194366474
 20
175.9959856002917
 30
0.0
 11
793.7905187213917
 21
175.9959856002917
 31
0.0
  0
LINE
  5
B667
330
1F
100
AcDbEntity
  8
0
  6
Continuous
 62
     7
370
    15
100
AcDbLine
 10
786.7905194366474
 20
167.7459837823502
 30
0.0
 11
786.7905194366474
 21
175.9959856002917
 31
0.0
  0
LINE
  5
B668
330
1F
100
AcDbEntity
  8
0
  6
Continuous
 62
     7
370
    15
100
AcDbLine
 10
793.7905187213917
 20
109.874206218063
 30
0.0
 11
786.7905194366474
 21
109.874206218063
 31
0.0
  0
LINE
  5
B669
330
1F
100
AcDbEntity
  8
0
  6
Continuous
 62
     7
370
    15
100
AcDbLine
 10
786.7905194366474
 20
109.874206218063
 30
0.0
 11
786.7905194366474
 21
118.1242061733595
 31
0.0
  0
LINE
  5
B66A
330
1F
100
AcDbEntity
  8
0
  6
Continuous
 62
     7
370
    15
100
AcDbLine
 10
785.2905201221008
 20
136.9357254310838
 30
0.0
 11
785.2905201221008
 21
121.9357257663599
 31
0.0
  0
LINE
  5
B66B
330
1F
100
AcDbEntity
  8
0
  6
Continuous
 62
     7
370
    15
100
AcDbLine
 10
785.2905201221008
 20
163.9357252001158
 30
0.0
 11
785.2905201221008
 21
148.9357255353919
 31
0.0
  0
SPLINE
  5
B66C
330
1F
100
AcDbEntity
  8
0
  6
Continuous
 62
     7
370
    15
100
AcDbSpline
210
0.0
220
0.0
230
1.0
 70
     8
 71
     3
 72
    10
 73
     6
 74
     0
 42
0.0000000001
 43
0.0000000001
 40
0.0
 40
0.0
 40
0.0
 40
0.0
 40
0.5
 40
0.5
 40
1.0
 40
1.0
 40
1.0
 40
1.0
 10
787.2905194664495
 20
181.4619048679226
 30
0.0
 10
787.2905194664495
 20
181.5161140544282
 30
0.0
 10
787.2284592297876
 20
181.5062112342402
 30
0.0
 10
787.0419596737631
 20
181.4023552799856
 30
0.0
 10
786.9211639351976
 20
181.3128766458398
 30
0.0
 10
786.7905194664515
 20
181.2054570222059
 30
0.0
  0
SPLINE
  5
B66D
330
1F
100
AcDbEntity
  8
0
  6
Continuous
 62
     7
370
    15
100
AcDbSpline
210
0.0
220
0.0
230
1.0
 70
     8
 71
     3
 72
     8
 73
     4
 74
     0
 42
0.0000000001
 43
0.0000000001
 40
0.0
 40
0.0
 40
0.0
 40
0.0
 40
0.0007105473540006
 40
0.0007105473540006
 40
0.0007105473540006
 40
0.0007105473540006
 10
786.7905194664497
 20
179.56001791844
 30
0.0
 10
786.9571757425781
 20
179.7057656208007
 30
0.0
 10
787.1238425409964
 20
179.8515042998415
 30
0.0
 10
787.2905194664495
 20
179.9972342913129
 30
0.0
  0
LINE
  5
B66E
330
1F
100
AcDbEntity
  8
0
  6
Continuous
 62
     7
370
    15
100
AcDbLine
 10
786.7905194366474
 20
179.5600192576041
 30
0.0
 11
786.7905194366474
 21
181.2054576306929
 31
0.0
  0
LINE
  5
B66F
330
1F
100
AcDbEntity
  8
0
  6
Continuous
 62
     7
370
    15
100
AcDbLine
 10
786.7905194366474
 20
175.9959856002917
 30
0.0
 11
786.7905194366474
 21
179.5600192576041
 31
0.0
  0
SPLINE
  5
B670
330
1F
100
AcDbEntity
  8
0
  6
Continuous
 62
     7
370
    15
100
AcDbSpline
210
0.0
220
0.0
230
1.0
 70
     8
 71
     3
 72
     8
 73
     4
 74
     0
 42
0.0000000001
 43
0.0000000001
 40
0.0
 40
0.0
 40
0.0
 40
0.0
 40
0.0007105505644362
 40
0.0007105505644362
 40
0.0007105505644362
 40
0.0007105505644362
 10
786.7905194664495
 20
106.3104792105206
 30
0.0
 10
786.9571757327658
 20
106.1647301954586
 30
0.0
 10
787.1238425313106
 20
106.0189902121565
 30
0.0
 10
787.2905194664495
 20
105.8732589245486
 30
0.0
  0
LINE
  5
B671
330
1F
100
AcDbEntity
  8
0
  6
Continuous
 62
     7
370
    15
100
AcDbLine
 10
786.7905194366474
 20
106.310478034555
 30
0.0
 11
786.7905194366474
 21
109.874206218063
 31
0.0
  0
SPLINE
  5
B672
330
1F
100
AcDbEntity
  8
0
  6
Continuous
 62
     7
370
    15
100
AcDbSpline
210
0.0
220
0.0
230
1.0
 70
     8
 71
     3
 72
    14
 73
    10
 74
     0
 42
0.0000000001
 43
0.0000000001
 40
0.0
 40
0.0
 40
0.0
 40
0.0
 40
0.25
 40
0.25
 40
0.5
 40
0.5
 40
0.75
 40
0.75
 40
1.0
 40
1.0
 40
1.0
 40
1.0
 10
786.7905194664497
 20
104.6659939442724
 30
0.0
 10
786.855827486255
 20
104.6122958200801
 30
0.0
 10
786.9176223963961
 20
104.5639751004085
 30
0.0
 10
787.0331041739445
 20
104.4799487330178
 30
0.0
 10
787.0876003403761
 20
104.4437507074225
 30
0.0
 10
787.1811026192442
 20
104.3915415599272
 30
0.0
 10
787.220583204858
 20
104.3753216877555
 30
0.0
 10
787.2752826117896
 20
104.3706683758908
 30
0.0
 10
787.2905194664497
 20
104.3823921994172
 30
0.0
 10
787.2905194664497
 20
104.4095460985529
 30
0.0
  0
LINE
  5
B673
330
1F
100
AcDbEntity
  8
0
  6
Continuous
 62
     7
370
    15
100
AcDbLine
 10
786.7905194366474
 20
104.6659933357826
 30
0.0
 11
786.7905194366474
 21
106.310478034555
 31
0.0
  0
LINE
  5
B674
330
1F
100
AcDbEntity
  8
0
  6
Continuous
 62
     7
370
    15
100
AcDbLine
 10
843.2905194427007
 20
104.3727012305847
 30
0.0
 11
843.2905194427007
 21
104.4095443516365
 31
0.0
  0
LINE
  5
B675
330
1F
100
AcDbEntity
  8
0
  6
Continuous
 62
     7
370
    15
100
AcDbLine
 10
843.2905194427007
 20
181.4619066148391
 30
0.0
 11
843.2905194427007
 21
181.4987497358908
 31
0.0
  0
LINE
  5
B676
330
1F
100
AcDbEntity
  8
0
  6
Continuous
 62
     7
370
    15
100
AcDbLine
 10
786.7905194366474
 20
175.0353151887049
 30
0.0
 11
786.7905194366474
 21
175.9293364315619
 31
0.0
  0
LINE
  5
B677
330
1F
100
AcDbEntity
  8
0
  6
Continuous
 62
     7
370
    15
100
AcDbLine
 10
843.2905194427007
 20
175.0353151887049
 30
0.0
 11
843.2905194427007
 21
175.9293364315619
 31
0.0
  0
LINE
  5
B678
330
1F
100
AcDbEntity
  8
0
  6
Continuous
 62
     7
370
    15
100
AcDbLine
 10
786.7905194366474
 20
109.9421145349136
 30
0.0
 11
786.7905194366474
 21
110.8361357777706
 31
0.0
  0
LINE
  5
B679
330
1F
100
AcDbEntity
  8
0
  6
Continuous
 62
     7
370
    15
100
AcDbLine
 10
843.2905194427007
 20
109.9421145349136
 30
0.0
 11
843.2905194427007
 21
110.8361357777706
 31
0.0
  0
SPLINE
  5
B67A
330
1F
100
AcDbEntity
  8
0
  6
Continuous
 62
     7
370
    15
100
AcDbSpline
210
0.0
220
0.0
230
1.0
 70
     8
 71
     3
 72
    10
 73
     6
 74
     0
 42
0.0000000001
 43
0.0000000001
 40
0.0
 40
0.0
 40
0.0
 40
0.0
 40
0.5
 40
0.5
 40
1.0
 40
1.0
 40
1.0
 40
1.0
 10
787.2905194664495
 20
182.5067943910068
 30
0.0
 10
787.2905194664495
 20
182.477355957056
 30
0.0
 10
787.2284592297876
 20
182.3863783037129
 30
0.0
 10
787.0419596737629
 20
182.1546217216405
 30
0.0
 10
786.9211639351976
 20
182.0171322086105
 30
0.0
 10
786.7905194664513
 20
181.8753574092047
 30
0.0
  0
LINE
  5
B67B
330
1F
100
AcDbEntity
  8
0
  6
Continuous
 62
     7
370
    15
100
AcDbLine
 10
787.2905204499264
 20
182.5067946642031
 30
0.0
 11
843.2905194427007
 21
182.5067946642031
 31
0.0
  0
LINE
  5
B67C
330
1F
100
AcDbEntity
  8
0
  6
Continuous
 62
     7
370
    15
100
AcDbLine
 10
786.7905194366474
 20
181.8753579586138
 30
0.0
 11
786.7905194366474
 21
181.309605571567
 31
0.0
  0
LINE
  5
B67D
330
1F
100
AcDbEntity
  8
0
  6
Continuous
 62
     7
370
    15
100
AcDbLine
 10
843.2905194427007
 20
181.309605571567
 30
0.0
 11
843.2905194427007
 21
182.5067946642031
 31
0.0
  0
SPLINE
  5
B67E
330
1F
100
AcDbEntity
  8
0
  6
Continuous
 62
     7
370
    15
100
AcDbSpline
210
0.0
220
0.0
230
1.0
 70
     8
 71
     3
 72
    10
 73
     6
 74
     0
 42
0.0000000001
 43
0.0000000001
 40
0.0
 40
0.0
 40
0.0
 40
0.0
 40
0.5
 40
0.5
 40
1.0
 40
1.0
 40
1.0
 40
1.0
 10
787.2905194664497
 20
103.3646565754688
 30
0.0
 10
787.2905194664497
 20
103.3940950094197
 30
0.0
 10
787.2284592297876
 20
103.4850726627628
 30
0.0
 10
787.0419596737631
 20
103.7168292448352
 30
0.0
 10
786.9211639351979
 20
103.8543187578651
 30
0.0
 10
786.7905194664515
 20
103.996093557271
 30
0.0
  0
LINE
  5
B67F
330
1F
100
AcDbEntity
  8
0
  6
Continuous
 62
     7
370
    15
100
AcDbLine
 10
843.2905194427007
 20
103.3646563022724
 30
0.0
 11
787.2905204499264
 21
103.3646563022724
 31
0.0
  0
LINE
  5
B680
330
1F
100
AcDbEntity
  8
0
  6
Continuous
 62
     7
370
    15
100
AcDbLine
 10
786.7905194366474
 20
104.5618453949085
 30
0.0
 11
786.7905194366474
 21
103.9960930078617
 31
0.0
  0
LINE
  5
B681
330
1F
100
AcDbEntity
  8
0
  6
Continuous
 62
     7
370
    15
100
AcDbLine
 10
843.2905194427007
 20
103.3646563022724
 30
0.0
 11
843.2905194427007
 21
104.5618453949085
 31
0.0
  0
LINE
  5
B682
330
1F
100
AcDbEntity
  8
0
  6
Continuous
 62
     7
370
    15
100
AcDbLine
 10
787.2905204499264
 20
182.935724589168
 30
0.0
 11
787.2905204499264
 21
182.5067946642031
 31
0.0
  0
LINE
  5
B683
330
1F
100
AcDbEntity
  8
0
  6
Continuous
 62
     7
370
    15
100
AcDbLine
 10
786.7905194366474
 20
182.4357273011794
 30
0.0
 11
786.7905194366474
 21
181.8753579586138
 31
0.0
  0
LINE
  5
B684
330
1F
100
AcDbEntity
  8
0
  6
Continuous
 62
     7
370
    15
100
AcDbLine
 10
787.2905204499264
 20
103.3646563022724
 30
0.0
 11
787.2905204499264
 21
102.9357263773075
 31
0.0
  0
LINE
  5
B685
330
1F
100
AcDbEntity
  8
0
  6
Continuous
 62
     7
370
    15
100
AcDbLine
 10
786.7905194366474
 20
103.9960930078617
 30
0.0
 11
786.7905194366474
 21
103.4357236652962
 31
0.0
  0
LINE
  5
B686
330
1F
100
AcDbEntity
  8
0
  6
Continuous
 62
     7
370
    15
100
AcDbLine
 10
786.7905194366474
 20
179.892017129003
 30
0.0
 11
786.7905194366474
 21
181.309605571567
 31
0.0
  0
LINE
  5
B687
330
1F
100
AcDbEntity
  8
0
  6
Continuous
 62
     7
370
    15
100
AcDbLine
 10
843.2905194427007
 20
181.309605571567
 30
0.0
 11
843.2905194427007
 21
179.892017129003
 31
0.0
  0
LINE
  5
B688
330
1F
100
AcDbEntity
  8
0
  6
Continuous
 62
     7
370
    15
100
AcDbLine
 10
786.7905194366474
 20
104.5618453949085
 30
0.0
 11
786.7905194366474
 21
105.9794338374725
 31
0.0
  0
LINE
  5
B689
330
1F
100
AcDbEntity
  8
0
  6
Continuous
 62
     7
370
    15
100
AcDbLine
 10
843.2905194427007
 20
105.9794338374725
 30
0.0
 11
843.2905194427007
 21
104.5618453949085
 31
0.0
  0
LINE
  5
B68A
330
1F
100
AcDbEntity
  8
0
  6
Continuous
 62
     7
370
    15
100
AcDbLine
 10
843.2905194427007
 20
182.5067946642031
 30
0.0
 11
843.2905194427007
 21
182.935724589168
 31
0.0
  0
LINE
  5
B68B
330
1F
100
AcDbEntity
  8
0
  6
Continuous
 62
     7
370
    15
100
AcDbLine
 10
843.2905194427007
 20
102.9357263773075
 30
0.0
 11
843.2905194427007
 21
103.3646563022724
 31
0.0
  0
LINE
  5
B68C
330
1F
100
AcDbEntity
  8
0
  6
Continuous
 62
     7
370
    15
100
AcDbLine
 10
786.7905194366474
 20
175.9293364315619
 30
0.0
 11
786.7905194366474
 21
180.0375567703833
 31
0.0
  0
LINE
  5
B68D
330
1F
100
AcDbEntity
  8
0
  6
Continuous
 62
     7
370
    15
100
AcDbLine
 10
843.2905194427007
 20
175.9293364315619
 30
0.0
 11
843.2905194427007
 21
180.0375567703833
 31
0.0
  0
LINE
  5
B68E
330
1F
100
AcDbEntity
  8
0
  6
Continuous
 62
     7
370
    15
100
AcDbLine
 10
786.7905194366474
 20
105.8338941960922
 30
0.0
 11
786.7905194366474
 21
109.9421145349136
 31
0.0
  0
LINE
  5
B68F
330
1F
100
AcDbEntity
  8
0
  6
Continuous
 62
     7
370
    15
100
AcDbLine
 10
843.2905194427007
 20
105.8338941960922
 30
0.0
 11
843.2905194427007
 21
109.9421145349136
 31
0.0
  0
LINE
  5
B690
330
1F
100
AcDbEntity
  8
0
  6
Continuous
 62
     7
370
    15
100
AcDbLine
 10
793.7905187213917
 20
185.031151953279
 30
0.0
 11
793.7905187213917
 21
182.935724589168
 31
0.0
  0
LINE
  5
B691
330
1F
100
AcDbEntity
  8
0
  6
Continuous
 62
     7
370
    15
100
AcDbLine
 10
793.7905187213917
 20
185.031151953279
 30
0.0
 11
794.2905197346706
 21
185.2811524599185
 31
0.0
  0
LINE
  5
B692
330
1F
100
AcDbEntity
  8
0
  6
Continuous
 62
     7
370
    15
100
AcDbLine
 10
794.2905197346706
 20
182.935724589168
 30
0.0
 11
794.2905197346706
 21
185.2811524599185
 31
0.0
  0
LINE
  5
B693
330
1F
100
AcDbEntity
  8
0
  6
Continuous
 62
     7
370
    15
100
AcDbLine
 10
803.2905193472403
 20
185.2811524599185
 30
0.0
 11
803.2905193472403
 21
182.935724589168
 31
0.0
  0
LINE
  5
B694
330
1F
100
AcDbEntity
  8
0
  6
Continuous
 62
     7
370
    15
100
AcDbLine
 10
803.2905193472403
 20
185.2811524599185
 30
0.0
 11
803.7905203605193
 21
185.031151953279
 31
0.0
  0
LINE
  5
B695
330
1F
100
AcDbEntity
  8
0
  6
Continuous
 62
     7
370
    15
100
AcDbLine
 10
803.7905203605193
 20
182.935724589168
 30
0.0
 11
803.7905203605193
 21
185.031151953279
 31
0.0
  0
LINE
  5
B696
330
1F
100
AcDbEntity
  8
0
  6
Continuous
 62
     7
370
    15
100
AcDbLine
 10
803.7905203605193
 20
100.8402990131965
 30
0.0
 11
803.7905203605193
 21
102.9357263773075
 31
0.0
  0
LINE
  5
B697
330
1F
100
AcDbEntity
  8
0
  6
Continuous
 62
     7
370
    15
100
AcDbLine
 10
803.7905203605193
 20
100.8402990131965
 30
0.0
 11
803.2905193472403
 21
100.5902985065571
 31
0.0
  0
LINE
  5
B698
330
1F
100
AcDbEntity
  8
0
  6
Continuous
 62
     7
370
    15
100
AcDbLine
 10
803.2905193472403
 20
102.9357263773075
 30
0.0
 11
803.2905193472403
 21
100.5902985065571
 31
0.0
  0
LINE
  5
B699
330
1F
100
AcDbEntity
  8
0
  6
Continuous
 62
     7
370
    15
100
AcDbLine
 10
794.2905197346706
 20
100.5902985065571
 30
0.0
 11
794.2905197346706
 21
102.9357263773075
 31
0.0
  0
LINE
  5
B69A
330
1F
100
AcDbEntity
  8
0
  6
Continuous
 62
     7
370
    15
100
AcDbLine
 10
794.2905197346706
 20
100.5902985065571
 30
0.0
 11
793.7905187213917
 21
100.8402990131965
 31
0.0
  0
LINE
  5
B69B
330
1F
100
AcDbEntity
  8
0
  6
Continuous
 62
     7
370
    15
100
AcDbLine
 10
793.7905187213917
 20
102.9357263773075
 30
0.0
 11
793.7905187213917
 21
100.8402990131965
 31
0.0
  0
LINE
  5
B69C
330
1F
100
AcDbEntity
  8
0
  6
Continuous
 62
     7
370
    15
100
AcDbLine
 10
786.7905194366474
 20
164.3446186512104
 30
0.0
 11
785.2905201221008
 21
164.3446186512104
 31
0.0
  0
LINE
  5
B69D
330
1F
100
AcDbEntity
  8
0
  6
Continuous
 62
     7
370
    15
100
AcDbLine
 10
785.2905201221008
 20
164.3446186512104
 30
0.0
 11
785.2905201221008
 21
171.2728222786776
 31
0.0
  0
LINE
  5
B69E
330
1F
100
AcDbEntity
  8
0
  6
Continuous
 62
     7
370
    15
100
AcDbLine
 10
785.2905201221008
 20
171.2728222786776
 30
0.0
 11
786.7905194366474
 21
171.2728222786776
 31
0.0
  0
LINE
  5
B69F
330
1F
100
AcDbEntity
  8
0
  6
Continuous
 62
     7
370
    15
100
AcDbLine
 10
786.7905194366474
 20
175.6029488473525
 30
0.0
 11
785.2905201221008
 21
175.6029488473525
 31
0.0
  0
LINE
  5
B6A0
330
1F
100
AcDbEntity
  8
0
  6
Continuous
 62
     7
370
    15
100
AcDbLine
 10
785.2905201221008
 20
175.6029488473525
 30
0.0
 11
785.2905201221008
 21
182.5311543374648
 31
0.0
  0
LINE
  5
B6A1
330
1F
100
AcDbEntity
  8
0
  6
Continuous
 62
     7
370
    15
100
AcDbLine
 10
785.2905201221008
 20
182.5311543374648
 30
0.0
 11
786.8859464729328
 21
182.5311543374648
 31
0.0
  0
LINE
  5
B6A2
330
1F
100
AcDbEntity
  8
0
  6
Continuous
 62
     7
370
    15
100
AcDbLine
 10
786.8859464729328
 20
103.3402966290108
 30
0.0
 11
785.2905201221008
 21
103.3402966290108
 31
0.0
  0
LINE
  5
B6A3
330
1F
100
AcDbEntity
  8
0
  6
Continuous
 62
     7
370
    15
100
AcDbLine
 10
785.2905201221008
 20
103.3402966290108
 30
0.0
 11
785.2905201221008
 21
110.2685021191231
 31
0.0
  0
LINE
  5
B6A4
330
1F
100
AcDbEntity
  8
0
  6
Continuous
 62
     7
370
    15
100
AcDbLine
 10
785.2905201221008
 20
110.2685021191231
 30
0.0
 11
786.7905194366474
 21
110.2685021191231
 31
0.0
  0
LINE
  5
B6A5
330
1F
100
AcDbEntity
  8
0
  6
Continuous
 62
     7
370
    15
100
AcDbLine
 10
786.7905194366474
 20
114.5986286877981
 30
0.0
 11
785.2905201221008
 21
114.5986286877981
 31
0.0
  0
LINE
  5
B6A6
330
1F
100
AcDbEntity
  8
0
  6
Continuous
 62
     7
370
    15
100
AcDbLine
 10
785.2905201221008
 20
114.5986286877981
 30
0.0
 11
785.2905201221008
 21
121.5268323152653
 31
0.0
  0
LINE
  5
B6A7
330
1F
100
AcDbEntity
  8
0
  6
Continuous
 62
     7
370
    15
100
AcDbLine
 10
785.2905201221008
 20
121.5268323152653
 30
0.0
 11
786.7905194366474
 21
121.5268323152653
 31
0.0
  0
LINE
  5
B6A8
330
1F
100
AcDbEntity
  8
0
  6
Continuous
 62
     7
370
    15
100
AcDbLine
 10
785.2905201221008
 20
158.3446195303789
 30
0.0
 11
784.7905191088218
 21
158.5946200370184
 31
0.0
  0
LINE
  5
B6A9
330
1F
100
AcDbEntity
  8
0
  6
Continuous
 62
     7
370
    15
100
AcDbLine
 10
784.7905191088218
 20
158.5946200370184
 30
0.0
 11
784.7905191088218
 21
164.0946200072161
 31
0.0
  0
LINE
  5
B6AA
330
1F
100
AcDbEntity
  8
0
  6
Continuous
 62
     7
370
    15
100
AcDbLine
 10
785.2905201221008
 20
164.3446186512104
 30
0.0
 11
784.7905191088218
 21
164.0946200072161
 31
0.0
  0
LINE
  5
B6AB
330
1F
100
AcDbEntity
  8
0
  6
Continuous
 62
     7
370
    15
100
AcDbLine
 10
784.7905191088218
 20
164.0946200072161
 30
0.0
 11
784.7905191088218
 21
171.0228217720381
 31
0.0
  0
LINE
  5
B6AC
330
1F
100
AcDbEntity
  8
0
  6
Continuous
 62
     7
370
    15
100
AcDbLine
 10
784.7905191088218
 20
171.0228217720381
 30
0.0
 11
785.2905201221008
 21
171.2728222786776
 31
0.0
  0
LINE
  5
B6AD
330
1F
100
AcDbEntity
  8
0
  6
Continuous
 62
     7
370
    15
100
AcDbLine
 10
785.2905201221008
 20
121.5268323152653
 30
0.0
 11
784.7905191088218
 21
121.7768309592596
 31
0.0
  0
LINE
  5
B6AE
330
1F
100
AcDbEntity
  8
0
  6
Continuous
 62
     7
370
    15
100
AcDbLine
 10
785.2905201221008
 20
114.5986286877981
 30
0.0
 11
784.7905191088218
 21
114.8486291944376
 31
0.0
  0
LINE
  5
B6AF
330
1F
100
AcDbEntity
  8
0
  6
Continuous
 62
     7
370
    15
100
AcDbLine
 10
784.7905191088218
 20
114.8486291944376
 30
0.0
 11
784.7905191088218
 21
121.7768309592596
 31
0.0
  0
LINE
  5
B6B0
330
1F
100
AcDbEntity
  8
0
  6
Continuous
 62
     7
370
    15
100
AcDbLine
 10
784.7905191088218
 20
121.7768309592596
 30
0.0
 11
784.7905191088218
 21
127.2768309294573
 31
0.0
  0
LINE
  5
B6B1
330
1F
100
AcDbEntity
  8
0
  6
Continuous
 62
     7
370
    15
100
AcDbLine
 10
785.2905201221008
 20
127.5268314360967
 30
0.0
 11
784.7905191088218
 21
127.2768309294573
 31
0.0
  0
LINE
  5
B6B2
330
1F
100
AcDbEntity
  8
0
  6
Continuous
 62
     7
370
    15
100
AcDbLine
 10
794.2905197346706
 20
185.2811524599185
 30
0.0
 11
803.2905193472403
 21
185.2811524599185
 31
0.0
  0
LINE
  5
B6B3
330
1F
100
AcDbEntity
  8
0
  6
Continuous
 62
     7
370
    15
100
AcDbLine
 10
803.2905193472403
 20
100.5902985065571
 30
0.0
 11
794.2905197346706
 21
100.5902985065571
 31
0.0
  0
LINE
  5
B6B4
330
1F
100
AcDbEntity
  8
0
  6
Continuous
 62
     7
370
    15
100
AcDbLine
 10
784.7905191088218
 20
175.352948340713
 30
0.0
 11
784.7905191088218
 21
171.0228217720381
 31
0.0
  0
LINE
  5
B6B5
330
1F
100
AcDbEntity
  8
0
  6
Continuous
 62
     7
370
    15
100
AcDbLine
 10
785.2905201221008
 20
175.6029488473525
 30
0.0
 11
784.7905191088218
 21
175.352948340713
 31
0.0
  0
LINE
  5
B6B6
330
1F
100
AcDbEntity
  8
0
  6
Continuous
 62
     7
370
    15
100
AcDbLine
 10
784.7905191088218
 20
182.2811538308253
 30
0.0
 11
784.7905191088218
 21
175.352948340713
 31
0.0
  0
LINE
  5
B6B7
330
1F
100
AcDbEntity
  8
0
  6
Continuous
 62
     7
370
    15
100
AcDbLine
 10
784.7905191088218
 20
182.2811538308253
 30
0.0
 11
785.2905201221008
 21
182.5311543374648
 31
0.0
  0
LINE
  5
B6B8
330
1F
100
AcDbEntity
  8
0
  6
Continuous
 62
     7
370
    15
100
AcDbLine
 10
784.7905191088218
 20
110.5185026257625
 30
0.0
 11
784.7905191088218
 21
103.5902971356502
 31
0.0
  0
LINE
  5
B6B9
330
1F
100
AcDbEntity
  8
0
  6
Continuous
 62
     7
370
    15
100
AcDbLine
 10
784.7905191088218
 20
110.5185026257625
 30
0.0
 11
785.2905201221008
 21
110.2685021191231
 31
0.0
  0
LINE
  5
B6BA
330
1F
100
AcDbEntity
  8
0
  6
Continuous
 62
     7
370
    15
100
AcDbLine
 10
785.2905201221008
 20
103.3402966290108
 30
0.0
 11
784.7905191088218
 21
103.5902971356502
 31
0.0
  0
LINE
  5
B6BB
330
1F
100
AcDbEntity
  8
0
  6
Continuous
 62
     7
370
    15
100
AcDbLine
 10
784.7905191088218
 20
114.8486291944376
 30
0.0
 11
784.7905191088218
 21
110.5185026257625
 31
0.0
  0
LINE
  5
B6BC
330
1F
100
AcDbEntity
  8
0
  6
Continuous
 62
     7
370
    15
100
AcDbLine
 10
786.7905194366474
 20
181.309605571567
 30
0.0
 11
786.9238326752681
 21
181.309605571567
 31
0.0
  0
LINE
  5
B6BD
330
1F
100
AcDbEntity
  8
0
  6
Continuous
 62
     7
370
    15
100
AcDbLine
 10
786.9311901236076
 20
104.5618453949085
 30
0.0
 11
786.7905194366474
 21
104.5618453949085
 31
0.0
  0
CIRCLE
  5
B71A
330
1F
100
AcDbEntity
  8
0
  6
Continuous
 62
     7
370
    15
100
AcDbCircle
 10
668.185994140165
 20
162.0141052240122
 30
0.0
 40
2.100000000000022
  0
LINE
  5
B71B
330
1F
100
AcDbEntity
  8
0
  6
Continuous
 62
     7
370
    15
100
AcDbLine
 10
667.3852887998876
 20
168.8272455661885
 30
0.0
 11
674.3134924273547
 21
164.8272449105374
 31
0.0
  0
LINE
  5
B71C
330
1F
100
AcDbEntity
  8
0
  6
Continuous
 62
     7
370
    15
100
AcDbLine
 10
674.3134924273547
 20
164.8272449105374
 30
0.0
 11
668.8134943198022
 21
155.3009651556007
 31
0.0
  0
LINE
  5
B71D
330
1F
100
AcDbEntity
  8
0
  6
Continuous
 62
     7
370
    15
100
AcDbLine
 10
668.8134943198022
 20
155.3009651556007
 30
0.0
 11
661.8852888296899
 21
159.3009648799292
 31
0.0
  0
LINE
  5
B71E
330
1F
100
AcDbEntity
  8
0
  6
Continuous
 62
     7
370
    15
100
AcDbLine
 10
661.8852888296899
 20
159.3009648799292
 30
0.0
 11
667.3852887998876
 21
168.8272455661885
 31
0.0
  0
LINE
  5
B71F
330
1F
100
AcDbEntity
  8
0
  6
Continuous
 62
     7
370
    15
100
AcDbLine
 10
674.5634929339942
 20
165.2602577536694
 30
0.0
 11
667.6352893065271
 21
169.2602584093205
 31
0.0
  0
LINE
  5
B720
330
1F
100
AcDbEntity
  8
0
  6
Continuous
 62
     7
370
    15
100
AcDbLine
 10
674.5634929339942
 20
165.2602577536694
 30
0.0
 11
674.3134924273547
 21
164.8272449105374
 31
0.0
  0
LINE
  5
B721
330
1F
100
AcDbEntity
  8
0
  6
Continuous
 62
     7
370
    15
100
AcDbLine
 10
667.3852887998876
 20
168.8272455661885
 30
0.0
 11
667.6352893065271
 21
169.2602584093205
 31
0.0
  0
CIRCLE
  5
B722
330
1F
100
AcDbEntity
  8
0
  6
Continuous
 62
     7
370
    15
100
AcDbCircle
 10
679.4443243893628
 20
155.5141052240123
 30
0.0
 40
2.099999999999994
  0
LINE
  5
B723
330
1F
100
AcDbEntity
  8
0
  6
Continuous
 62
     7
370
    15
100
AcDbLine
 10
680.0718226532993
 20
148.8009654871515
 30
0.0
 11
685.5718226234969
 21
158.3272447764269
 31
0.0
  0
LINE
  5
B724
330
1F
100
AcDbEntity
  8
0
  6
Continuous
 62
     7
370
    15
100
AcDbLine
 10
673.1436208884773
 20
152.8009656771413
 30
0.0
 11
680.0718226532993
 21
148.8009654871515
 31
0.0
  0
LINE
  5
B725
330
1F
100
AcDbEntity
  8
0
  6
Continuous
 62
     7
370
    15
100
AcDbLine
 10
673.1436208884773
 20
152.8009656771413
 30
0.0
 11
678.6436208586749
 21
162.327245432078
 31
0.0
  0
LINE
  5
B726
330
1F
100
AcDbEntity
  8
0
  6
Continuous
 62
     7
370
    15
100
AcDbLine
 10
685.5718226234969
 20
158.3272447764269
 30
0.0
 11
678.6436208586749
 21
162.327245432078
 31
0.0
  0
LINE
  5
B727
330
1F
100
AcDbEntity
  8
0
  6
Continuous
 62
     7
370
    15
100
AcDbLine
 10
661.6352883230504
 20
158.8679520367972
 30
0.0
 11
668.5634938131627
 21
154.8679532437912
 31
0.0
  0
LINE
  5
B728
330
1F
100
AcDbEntity
  8
0
  6
Continuous
 62
     7
370
    15
100
AcDbLine
 10
668.8134943198022
 20
155.3009651556007
 30
0.0
 11
668.5634938131627
 21
154.8679532437912
 31
0.0
  0
LINE
  5
B729
330
1F
100
AcDbEntity
  8
0
  6
Continuous
 62
     7
370
    15
100
AcDbLine
 10
661.6352883230504
 20
158.8679520367972
 30
0.0
 11
661.8852888296899
 21
159.3009648799292
 31
0.0
  0
LINE
  5
B72A
330
1F
100
AcDbEntity
  8
0
  6
Continuous
 62
     7
370
    15
100
AcDbLine
 10
685.8218231301364
 20
158.7602576195589
 30
0.0
 11
685.5718226234969
 21
158.3272447764269
 31
0.0
  0
LINE
  5
B72B
330
1F
100
AcDbEntity
  8
0
  6
Continuous
 62
     7
370
    15
100
AcDbLine
 10
685.8218231301364
 20
158.7602576195589
 30
0.0
 11
678.8936195026693
 21
162.76025827521
 31
0.0
  0
LINE
  5
B72C
330
1F
100
AcDbEntity
  8
0
  6
Continuous
 62
     7
370
    15
100
AcDbLine
 10
678.6436208586749
 20
162.327245432078
 30
0.0
 11
678.8936195026693
 21
162.76025827521
 31
0.0
  0
CIRCLE
  5
B72D
330
1F
100
AcDbEntity
  8
0
  6
Continuous
 62
     7
370
    15
100
AcDbCircle
 10
734.2754402143897
 20
162.0141052240102
 30
0.0
 40
2.100000000000022
  0
LINE
  5
B72E
330
1F
100
AcDbEntity
  8
0
  6
Continuous
 62
     7
370
    15
100
AcDbLine
 10
740.5761455248649
 20
159.3009648799292
 30
0.0
 11
733.6479400347526
 21
155.3009651556007
 31
0.0
  0
LINE
  5
B72F
330
1F
100
AcDbEntity
  8
0
  6
Continuous
 62
     7
370
    15
100
AcDbLine
 10
733.6479400347526
 20
155.3009651556007
 30
0.0
 11
728.1479419272002
 21
164.8272449105374
 31
0.0
  0
LINE
  5
B730
330
1F
100
AcDbEntity
  8
0
  6
Continuous
 62
     7
370
    15
100
AcDbLine
 10
728.1479419272002
 20
164.8272449105374
 30
0.0
 11
735.0761455546672
 21
168.8272455661885
 31
0.0
  0
LINE
  5
B731
330
1F
100
AcDbEntity
  8
0
  6
Continuous
 62
     7
370
    15
100
AcDbLine
 10
735.0761455546672
 20
168.8272455661885
 30
0.0
 11
740.5761455248649
 21
159.3009648799292
 31
0.0
  0
LINE
  5
B732
330
1F
100
AcDbEntity
  8
0
  6
Continuous
 62
     7
370
    15
100
AcDbLine
 10
728.1479419272002
 20
164.8272449105374
 30
0.0
 11
727.8979414205608
 21
165.2602577536694
 31
0.0
  0
LINE
  5
B733
330
1F
100
AcDbEntity
  8
0
  6
Continuous
 62
     7
370
    15
100
AcDbLine
 10
734.8261450480277
 20
169.2602584093205
 30
0.0
 11
727.8979414205608
 21
165.2602577536694
 31
0.0
  0
LINE
  5
B734
330
1F
100
AcDbEntity
  8
0
  6
Continuous
 62
     7
370
    15
100
AcDbLine
 10
734.8261450480277
 20
169.2602584093205
 30
0.0
 11
735.0761455546672
 21
168.8272455661885
 31
0.0
  0
LINE
  5
B735
330
1F
100
AcDbEntity
  8
0
  6
Continuous
 62
     7
370
    15
100
AcDbLine
 10
672.8936203818378
 20
152.3679528340093
 30
0.0
 11
679.8218240093049
 21
148.3679526440195
 31
0.0
  0
LINE
  5
B736
330
1F
100
AcDbEntity
  8
0
  6
Continuous
 62
     7
370
    15
100
AcDbLine
 10
679.8218240093049
 20
148.3679526440195
 30
0.0
 11
680.0718226532993
 21
148.8009654871515
 31
0.0
  0
LINE
  5
B737
330
1F
100
AcDbEntity
  8
0
  6
Continuous
 62
     7
370
    15
100
AcDbLine
 10
672.8936203818378
 20
152.3679528340093
 30
0.0
 11
673.1436208884773
 21
152.8009656771413
 31
0.0
  0
CIRCLE
  5
B738
330
1F
100
AcDbEntity
  8
0
  6
Continuous
 62
     7
370
    15
100
AcDbCircle
 10
723.0171099651919
 20
155.5141052240104
 30
0.0
 40
2.099999999999994
  0
LINE
  5
B739
330
1F
100
AcDbEntity
  8
0
  6
Continuous
 62
     7
370
    15
100
AcDbLine
 10
716.889611731058
 20
158.3272447764269
 30
0.0
 11
722.3896117012557
 21
148.8009654871515
 31
0.0
  0
LINE
  5
B73A
330
1F
100
AcDbEntity
  8
0
  6
Continuous
 62
     7
370
    15
100
AcDbLine
 10
723.8178134958801
 20
162.327245432078
 30
0.0
 11
716.889611731058
 21
158.3272447764269
 31
0.0
  0
LINE
  5
B73B
330
1F
100
AcDbEntity
  8
0
  6
Continuous
 62
     7
370
    15
100
AcDbLine
 10
723.8178134958801
 20
162.327245432078
 30
0.0
 11
729.3178134660777
 21
152.8009656771413
 31
0.0
  0
LINE
  5
B73C
330
1F
100
AcDbEntity
  8
0
  6
Continuous
 62
     7
370
    15
100
AcDbLine
 10
722.3896117012557
 20
148.8009654871515
 30
0.0
 11
729.3178134660777
 21
152.8009656771413
 31
0.0
  0
LINE
  5
B73D
330
1F
100
AcDbEntity
  8
0
  6
Continuous
 62
     7
370
    15
100
AcDbLine
 10
716.6396112244186
 20
158.7602576195589
 30
0.0
 11
716.889611731058
 21
158.3272447764269
 31
0.0
  0
LINE
  5
B73E
330
1F
100
AcDbEntity
  8
0
  6
Continuous
 62
     7
370
    15
100
AcDbLine
 10
723.5678148518857
 20
162.76025827521
 30
0.0
 11
716.6396112244186
 21
158.7602576195589
 31
0.0
  0
LINE
  5
B73F
330
1F
100
AcDbEntity
  8
0
  6
Continuous
 62
     7
370
    15
100
AcDbLine
 10
723.5678148518857
 20
162.76025827521
 30
0.0
 11
723.8178134958801
 21
162.327245432078
 31
0.0
  0
LINE
  5
B740
330
1F
100
AcDbEntity
  8
0
  6
Continuous
 62
     7
370
    15
100
AcDbLine
 10
733.8979405413921
 20
154.8679532437912
 30
0.0
 11
740.8261460315044
 21
158.8679520367972
 31
0.0
  0
LINE
  5
B741
330
1F
100
AcDbEntity
  8
0
  6
Continuous
 62
     7
370
    15
100
AcDbLine
 10
733.8979405413921
 20
154.8679532437912
 30
0.0
 11
733.6479400347526
 21
155.3009651556007
 31
0.0
  0
LINE
  5
B742
330
1F
100
AcDbEntity
  8
0
  6
Continuous
 62
     7
370
    15
100
AcDbLine
 10
740.5761455248649
 20
159.3009648799292
 30
0.0
 11
740.8261460315044
 21
158.8679520367972
 31
0.0
  0
LINE
  5
B743
330
1F
100
AcDbEntity
  8
0
  6
Continuous
 62
     7
370
    15
100
AcDbLine
 10
722.6396103452501
 20
148.3679526440195
 30
0.0
 11
729.5678139727172
 21
152.3679528340093
 31
0.0
  0
LINE
  5
B744
330
1F
100
AcDbEntity
  8
0
  6
Continuous
 62
     7
370
    15
100
AcDbLine
 10
722.6396103452501
 20
148.3679526440195
 30
0.0
 11
722.3896117012557
 21
148.8009654871515
 31
0.0
  0
LINE
  5
B745
330
1F
100
AcDbEntity
  8
0
  6
Continuous
 62
     7
370
    15
100
AcDbLine
 10
729.3178134660777
 20
152.8009656771413
 30
0.0
 11
729.5678139727172
 21
152.3679528340093
 31
0.0
  0
LINE
  5
B746
330
1F
100
AcDbEntity
  8
0
  6
Continuous
 62
     7
370
    15
100
AcDbLine
 10
707.2307172294316
 20
121.6789657204739
 30
0.0
 11
706.7307171474752
 21
121.6789657204739
 31
0.0
  0
LINE
  5
B747
330
1F
100
AcDbEntity
  8
0
  6
Continuous
 62
     7
370
    15
100
AcDbLine
 10
707.2307172294316
 20
113.6789662718169
 30
0.0
 11
707.2307172294316
 21
121.6789657204739
 31
0.0
  0
LINE
  5
B748
330
1F
100
AcDbEntity
  8
0
  6
Continuous
 62
     7
370
    15
100
AcDbLine
 10
707.2307172294316
 20
113.6789662718169
 30
0.0
 11
706.7307171474752
 21
113.6789662718169
 31
0.0
  0
LINE
  5
B749
330
1F
100
AcDbEntity
  8
0
  6
Continuous
 62
     7
370
    15
100
AcDbLine
 10
706.7307171474752
 20
113.6789662718169
 30
0.0
 11
706.7307171474752
 21
121.6789657204739
 31
0.0
  0
LINE
  5
B74A
330
1F
100
AcDbEntity
  8
0
  6
Continuous
 62
     7
370
    15
100
AcDbLine
 10
695.7307172070798
 20
121.6789657204739
 30
0.0
 11
695.2307171251234
 21
121.6789657204739
 31
0.0
  0
LINE
  5
B74B
330
1F
100
AcDbEntity
  8
0
  6
Continuous
 62
     7
370
    15
100
AcDbLine
 10
695.7307172070798
 20
121.6789657204739
 30
0.0
 11
695.7307172070798
 21
113.6789662718169
 31
0.0
  0
LINE
  5
B74C
330
1F
100
AcDbEntity
  8
0
  6
Continuous
 62
     7
370
    15
100
AcDbLine
 10
695.7307172070798
 20
113.6789662718169
 30
0.0
 11
695.2307171251234
 21
113.6789662718169
 31
0.0
  0
LINE
  5
B74D
330
1F
100
AcDbEntity
  8
0
  6
Continuous
 62
     7
370
    15
100
AcDbLine
 10
695.2307171251234
 20
121.6789657204739
 30
0.0
 11
695.2307171251234
 21
113.6789662718169
 31
0.0
  0
CIRCLE
  5
B74E
330
1F
100
AcDbEntity
  8
0
  6
Continuous
 62
     7
370
    15
100
AcDbCircle
 10
701.2307171772775
 20
117.7789660016905
 30
0.0
 40
2.100000000000008
  0
LINE
  5
B74F
330
1F
100
AcDbEntity
  8
0
  6
Continuous
 62
     7
370
    15
100
AcDbLine
 10
706.7307171474752
 20
121.6789657204739
 30
0.0
 11
695.7307172070798
 21
121.6789657204739
 31
0.0
  0
LINE
  5
B750
330
1F
100
AcDbEntity
  8
0
  6
Continuous
 62
     7
370
    15
100
AcDbLine
 10
706.7307171474752
 20
113.6789662718169
 30
0.0
 11
695.7307172070798
 21
113.6789662718169
 31
0.0
  0
CIRCLE
  5
B751
330
1F
100
AcDbEntity
  8
0
  6
Continuous
 62
     7
370
    15
100
AcDbCircle
 10
701.2307171772775
 20
104.7789660016904
 30
0.0
 40
2.100000000000008
  0
LINE
  5
B752
330
1F
100
AcDbEntity
  8
0
  6
Continuous
 62
     7
370
    15
100
AcDbLine
 10
706.7307171474752
 20
100.6789641409508
 30
0.0
 11
695.7307172070798
 21
100.6789641409508
 31
0.0
  0
LINE
  5
B753
330
1F
100
AcDbEntity
  8
0
  6
Continuous
 62
     7
370
    15
100
AcDbLine
 10
695.7307172070798
 20
108.678965452253
 30
0.0
 11
695.7307172070798
 21
100.6789641409508
 31
0.0
  0
LINE
  5
B754
330
1F
100
AcDbEntity
  8
0
  6
Continuous
 62
     7
370
    15
100
AcDbLine
 10
706.7307171474752
 20
100.6789641409508
 30
0.0
 11
706.7307171474752
 21
108.678965452253
 31
0.0
  0
LINE
  5
B755
330
1F
100
AcDbEntity
  8
0
  6
Continuous
 62
     7
370
    15
100
AcDbLine
 10
695.7307172070798
 20
108.678965452253
 30
0.0
 11
706.7307171474752
 21
108.678965452253
 31
0.0
  0
LINE
  5
B756
330
1F
100
AcDbEntity
  8
0
  6
Continuous
 62
     7
370
    15
100
AcDbLine
 10
707.2307172294316
 20
100.6789641409508
 30
0.0
 11
707.2307172294316
 21
108.678965452253
 31
0.0
  0
LINE
  5
B757
330
1F
100
AcDbEntity
  8
0
  6
Continuous
 62
     7
370
    15
100
AcDbLine
 10
707.2307172294316
 20
100.6789641409508
 30
0.0
 11
706.7307171474752
 21
100.6789641409508
 31
0.0
  0
LINE
  5
B758
330
1F
100
AcDbEntity
  8
0
  6
Continuous
 62
     7
370
    15
100
AcDbLine
 10
706.7307171474752
 20
108.678965452253
 30
0.0
 11
707.2307172294316
 21
108.678965452253
 31
0.0
  0
LINE
  5
B759
330
1F
100
AcDbEntity
  8
0
  6
Continuous
 62
     7
370
    15
100
AcDbLine
 10
695.2307171251234
 20
108.678965452253
 30
0.0
 11
695.2307171251234
 21
100.6789641409508
 31
0.0
  0
LINE
  5
B75A
330
1F
100
AcDbEntity
  8
0
  6
Continuous
 62
     7
370
    15
100
AcDbLine
 10
695.7307172070798
 20
100.6789641409508
 30
0.0
 11
695.2307171251234
 21
100.6789641409508
 31
0.0
  0
LINE
  5
B75B
330
1F
100
AcDbEntity
  8
0
  6
Continuous
 62
     7
370
    15
100
AcDbLine
 10
695.2307171251234
 20
108.678965452253
 30
0.0
 11
695.7307172070798
 21
108.678965452253
 31
0.0
  0
LINE
  5
B75C
330
1F
100
AcDbEntity
  8
0
  6
Continuous
 62
     7
370
    15
100
AcDbLine
 10
686.4015518750605
 20
157.8050177499048
 30
0.0
 11
680.9389491628465
 21
148.343513808339
 31
0.0
  0
LINE
  5
B75D
330
1F
100
AcDbEntity
  8
0
  6
Continuous
 62
     7
370
    15
100
AcDbLine
 10
721.5224851917085
 20
148.343513808339
 30
0.0
 11
716.0598824794945
 21
157.8050177499048
 31
0.0
  0
ARC
  5
B75E
330
1F
100
AcDbEntity
  8
0
  6
Continuous
 62
     7
370
    15
100
AcDbCircle
 10
701.2307171772775
 20
142.9357254832378
 30
0.0
 40
21.00000000000001
100
AcDbArc
 50
285.0774138820435
 51
14.92258611795755
  0
LINE
  5
B75F
330
1F
100
AcDbEntity
  8
0
  6
Continuous
 62
     7
370
    15
100
AcDbLine
 10
706.6933189581689
 20
122.6586444258086
 30
0.0
 11
695.7681153963861
 21
122.6586444258086
 31
0.0
  0
ARC
  5
B760
330
1F
100
AcDbEntity
  8
0
  6
Continuous
 62
     7
370
    15
100
AcDbCircle
 10
701.2307171772775
 20
142.9357254832378
 30
0.0
 40
21.00000000000001
100
AcDbArc
 50
165.0774138820428
 51
254.9225861179564
  0
CIRCLE
  5
B761
330
1F
100
AcDbEntity
  8
0
  6
Continuous
 62
     7
370
    15
100
AcDbCircle
 10
701.2307171772775
 20
142.9357254832378
 30
0.0
 40
7.499999999999999
  0
ARC
  5
B762
330
1F
100
AcDbEntity
  8
0
  6
Continuous
 62
     7
370
    15
100
AcDbCircle
 10
701.2307171772775
 20
142.9357254832378
 30
0.0
 40
21.00000000000001
100
AcDbArc
 50
45.07741388204393
 51
134.9225861179569
  0
SPLINE
  5
B763
330
1F
100
AcDbEntity
  8
0
  6
Continuous
 62
     7
370
    15
100
AcDbSpline
210
0.0
220
0.0
230
1.0
 70
     8
 71
     3
 72
    14
 73
    10
 74
     0
 42
0.0000000001
 43
0.0000000001
 40
0.0
 40
0.0
 40
0.0
 40
0.0
 40
0.25
 40
0.25
 40
0.5
 40
0.5
 40
0.75
 40
0.75
 40
1.0
 40
1.0
 40
1.0
 40
1.0
 10
662.9609856383121
 20
133.1542303043032
 30
0.0
 10
662.9072875141197
 20
133.1005929026856
 30
0.0
 10
662.8589667944481
 20
133.0403167072849
 30
0.0
 10
662.7749404270574
 20
132.9043083632874
 30
0.0
 10
662.7387424014621
 20
132.8272590624973
 30
0.0
 10
662.6865332539669
 20
132.6590490072839
 30
0.0
 10
662.6703133817951
 20
132.566844398856
 30
0.0
 10
662.6656600699305
 20
132.3751336553445
 30
0.0
 10
662.6773838934568
 20
132.2750178963705
 30
0.0
 10
662.7045377925925
 20
132.177774841081
 30
0.0
  0
ARC
  5
B764
330
1F
100
AcDbEntity
  8
0
  6
Continuous
 62
     7
370
    15
100
AcDbCircle
 10
701.2307171772775
 20
142.9357254832378
 30
0.0
 40
39.50000000000003
100
AcDbArc
 50
194.3374769512532
 51
201.9942529760708
  0
SPLINE
  5
B765
330
1F
100
AcDbEntity
  8
0
  6
Continuous
 62
     7
370
    15
100
AcDbSpline
210
0.0
220
0.0
230
1.0
 70
    24
 71
     3
 72
     8
 73
     4
 74
     0
 42
0.0000000001
 43
0.0000000001
 40
0.0
 40
0.0
 40
0.0
 40
0.0
 40
0.0007105505644362
 40
0.0007105505644362
 40
0.0007105505644362
 40
0.0007105505644362
 10
664.6054709045602
 20
128.1424386455263
 30
0.0
 10
664.4597218894983
 20
128.0582904124461
 30
0.0
 10
664.3139819061961
 20
127.9741473938549
 30
0.0
 10
664.1682506185881
 20
127.8900093957251
 30
0.0
  0
ARC
  5
B766
330
1F
100
AcDbEntity
  8
0
  6
Continuous
 62
     7
370
    15
100
AcDbCircle
 10
701.2307171772775
 20
142.9357254832378
 30
0.0
 40
40.0
100
AcDbArc
 50
195.6017218883783
 51
202.0949687943959
  0
ARC
  5
B767
330
1F
100
AcDbEntity
  8
0
  6
Continuous
 62
     7
370
    15
100
AcDbCircle
 10
701.2307171772775
 20
142.9357254832378
 30
0.0
 40
39.50000000000001
100
AcDbArc
 50
230.3374769512523
 51
261.1162383498282
  0
SPLINE
  5
B768
330
1F
100
AcDbEntity
  8
0
  6
Continuous
 62
     7
370
    15
100
AcDbSpline
210
0.0
220
0.0
230
1.0
 70
    24
 71
     3
 72
     8
 73
     4
 74
     0
 42
0.0000000001
 43
0.0000000001
 40
0.0
 40
0.0
 40
0.0
 40
0.0
 40
0.000711357622045
 40
0.000711357622045
 40
0.000711357622045
 40
0.000711357622045
 10
695.1307171772773
 20
103.9095804007423
 30
0.0
 10
695.1307171772773
 20
103.7409030998607
 30
0.0
 10
695.1307171772773
 20
103.5722386792826
 30
0.0
 10
695.1307171772773
 20
103.4035866592379
 30
0.0
  0
ARC
  5
B769
330
1F
100
AcDbEntity
  8
0
  6
Continuous
 62
     7
370
    15
100
AcDbCircle
 10
701.2307171772775
 20
142.9357254832378
 30
0.0
 40
40.0
100
AcDbArc
 50
231.6017218883766
 51
261.228166880311
  0
SPLINE
  5
B76A
330
1F
100
AcDbEntity
  8
0
  6
Continuous
 62
     7
370
    15
100
AcDbSpline
210
0.0
220
0.0
230
1.0
 70
     8
 71
     3
 72
    14
 73
    10
 74
     0
 42
0.0000000001
 43
0.0000000001
 40
0.0
 40
0.0
 40
0.0
 40
0.0
 40
0.25
 40
0.25
 40
0.5
 40
0.5
 40
0.75
 40
0.75
 40
1.0
 40
1.0
 40
1.0
 40
1.0
 10
676.0192726036353
 20
112.5279458452872
 30
0.0
 10
676.0073571822397
 20
112.4529893103685
 30
0.0
 10
676.003694357566
 20
112.3758226375297
 30
0.0
 10
676.0156592971617
 20
112.2164001163031
 30
0.0
 10
676.0316629219961
 20
112.1327892569519
 30
0.0
 10
676.0882962241522
 20
111.9660166967272
 30
0.0
 10
676.129370580946
 20
111.8818877998927
 30
0.0
 10
676.2382907203096
 20
111.7240554022993
 30
0.0
 10
676.3066220594286
 20
111.6499511424539
 30
0.0
 10
676.3857480590798
 20
111.587240519594
 30
0.0
  0
SPLINE
  5
B76B
330
1F
100
AcDbEntity
  8
0
  6
Continuous
 62
     7
370
    15
100
AcDbSpline
210
0.0
220
0.0
230
1.0
 70
     8
 71
     3
 72
    10
 73
     6
 74
     0
 42
0.0000000001
 43
0.0000000001
 40
0.0
 40
0.0
 40
0.0
 40
0.0
 40
0.5
 40
0.5
 40
1.0
 40
1.0
 40
1.0
 40
1.0
 10
740.8017860850463
 20
137.0935935524611
 30
0.0
 10
740.7723476510954
 20
136.8941954025719
 30
0.0
 10
740.6813699977524
 20
136.7142032552773
 30
0.0
 10
740.44961341568
 20
136.449009006339
 30
0.0
 10
740.31212390265
 20
136.3601940776344
 30
0.0
 10
740.1703491032442
 20
136.3058638353319
 30
0.0
  0
ARC
  5
B76C
330
1F
100
AcDbEntity
  8
0
  6
Continuous
 62
     7
370
    15
100
AcDbCircle
 10
701.2307171772775
 20
142.9357254832378
 30
0.0
 40
39.50000000000002
100
AcDbArc
 50
350.3374769512533
 51
21.11623834982673
  0
SPLINE
  5
B76D
330
1F
100
AcDbEntity
  8
0
  6
Continuous
 62
     7
370
    15
100
AcDbSpline
210
0.0
220
0.0
230
1.0
 70
    24
 71
     3
 72
     8
 73
     4
 74
     0
 42
0.0000000001
 43
0.0000000001
 40
0.0
 40
0.0
 40
0.0
 40
0.0
 40
0.0007113576220449
 40
0.0007113576220449
 40
0.0007113576220449
 40
0.0007113576220449
 10
738.5165536647947
 20
157.4190399321525
 30
0.0
 10
738.3704967310364
 20
157.3347139221301
 30
0.0
 10
738.2244290581012
 20
157.2503817118412
 30
0.0
 10
738.0783502304961
 20
157.1660430614002
 30
0.0
  0
ARC
  5
B76E
330
1F
100
AcDbEntity
  8
0
  6
Continuous
 62
     7
370
    15
100
AcDbCircle
 10
701.2307171772775
 20
142.9357254832378
 30
0.0
 40
40.00000000000004
100
AcDbArc
 50
351.6017218883781
 51
21.2281668803058
  0
SPLINE
  5
B76F
330
1F
100
AcDbEntity
  8
0
  6
Continuous
 62
     7
370
    15
100
AcDbSpline
210
0.0
220
0.0
230
1.0
 70
     8
 71
     3
 72
    10
 73
     6
 74
     0
 42
0.0000000001
 43
0.0000000001
 40
0.0
 40
0.0
 40
0.0
 40
0.0
 40
0.5
 40
0.5
 40
1.0
 40
1.0
 40
1.0
 40
1.0
 10
661.6596482695085
 20
137.0935935524611
 30
0.0
 10
661.6890867034593
 20
136.8941954025719
 30
0.0
 10
661.7800643568024
 20
136.7142032552773
 30
0.0
 10
662.0118209388748
 20
136.449009006339
 30
0.0
 10
662.1493104519047
 20
136.3601940776344
 30
0.0
 10
662.2910852513106
 20
136.3058638353321
 30
0.0
  0
ARC
  5
B770
330
1F
100
AcDbEntity
  8
0
  6
Continuous
 62
     7
370
    15
100
AcDbCircle
 10
701.2307171772775
 20
142.9357254832378
 30
0.0
 40
40.00000000000001
100
AcDbArc
 50
158.7718331196938
 51
188.3982781116235
  0
SPLINE
  5
B771
330
1F
100
AcDbEntity
  8
0
  6
Continuous
 62
     7
370
    15
100
AcDbSpline
210
0.0
220
0.0
230
1.0
 70
    24
 71
     3
 72
     8
 73
     4
 74
     0
 42
0.0000000001
 43
0.0000000001
 40
0.0
 40
0.0
 40
0.0
 40
0.0
 40
0.0007113576220449
 40
0.0007113576220449
 40
0.0007113576220449
 40
0.0007113576220449
 10
664.3830841240591
 20
157.1660430614009
 30
0.0
 10
664.2370052964538
 20
157.2503817118416
 30
0.0
 10
664.0909376235186
 20
157.3347139221306
 30
0.0
 10
663.9448806897605
 20
157.4190399321529
 30
0.0
  0
ARC
  5
B772
330
1F
100
AcDbEntity
  8
0
  6
Continuous
 62
     7
370
    15
100
AcDbCircle
 10
701.2307171772775
 20
142.9357254832378
 30
0.0
 40
39.50000000000005
100
AcDbArc
 50
158.8837616501721
 51
189.6625230487482
  0
ARC
  5
B773
330
1F
100
AcDbEntity
  8
0
  6
Continuous
 62
     7
370
    15
100
AcDbCircle
 10
701.2307171772775
 20
142.9357254832378
 30
0.0
 40
40.0
100
AcDbArc
 50
278.7718331196956
 51
308.3982781116237
  0
SPLINE
  5
B774
330
1F
100
AcDbEntity
  8
0
  6
Continuous
 62
     7
370
    15
100
AcDbSpline
210
0.0
220
0.0
230
1.0
 70
    24
 71
     3
 72
     8
 73
     4
 74
     0
 42
0.0000000001
 43
0.0000000001
 40
0.0
 40
0.0
 40
0.0
 40
0.0
 40
0.000711357622045
 40
0.000711357622045
 40
0.000711357622045
 40
0.000711357622045
 10
707.3307171772774
 20
103.9095804007423
 30
0.0
 10
707.3307171772774
 20
103.7409030998607
 30
0.0
 10
707.3307171772774
 20
103.5722386792826
 30
0.0
 10
707.3307171772774
 20
103.4035866592379
 30
0.0
  0
ARC
  5
B775
330
1F
100
AcDbEntity
  8
0
  6
Continuous
 62
     7
370
    15
100
AcDbCircle
 10
701.2307171772775
 20
142.9357254832378
 30
0.0
 40
39.49999999999999
100
AcDbArc
 50
278.8837616501718
 51
309.6625230487485
  0
SPLINE
  5
B776
330
1F
100
AcDbEntity
  8
0
  6
Continuous
 62
     7
370
    15
100
AcDbSpline
210
0.0
220
0.0
230
1.0
 70
     8
 71
     3
 72
    10
 73
     6
 74
     0
 42
0.0000000001
 43
0.0000000001
 40
0.0
 40
0.0
 40
0.0
 40
0.0
 40
0.5
 40
0.5
 40
1.0
 40
1.0
 40
1.0
 40
1.0
 10
726.075686295475
 20
111.587240519594
 30
0.0
 10
726.2336509417711
 20
111.7124340261877
 30
0.0
 10
726.3440398871384
 20
111.8812190588068
 30
0.0
 10
726.4578265526203
 20
112.2145232708448
 30
0.0
 10
726.4659977805989
 20
112.378000146235
 30
0.0
 10
726.4421617509235
 20
112.5279458452882
 30
0.0
  0
SPLINE
  5
B777
330
1F
100
AcDbEntity
  8
0
  6
Continuous
 62
     7
370
    15
100
AcDbSpline
210
0.0
220
0.0
230
1.0
 70
     8
 71
     3
 72
    10
 73
     6
 74
     0
 42
0.0000000001
 43
0.0000000001
 40
0.0
 40
0.0
 40
0.0
 40
0.0
 40
0.5
 40
0.5
 40
1.0
 40
1.0
 40
1.0
 40
1.0
 10
739.7568965619621
 20
132.177774841081
 30
0.0
 10
739.8111057484677
 20
132.371907804977
 30
0.0
 10
739.8012029282797
 20
132.5733427588651
 30
0.0
 10
739.6973469740251
 20
132.9098736545785
 30
0.0
 10
739.6078683398793
 20
133.0469321522554
 30
0.0
 10
739.5004487162455
 20
133.1542303043064
 30
0.0
  0
ARC
  5
B778
330
1F
100
AcDbEntity
  8
0
  6
Continuous
 62
     7
370
    15
100
AcDbCircle
 10
701.2307171772775
 20
142.9357254832378
 30
0.0
 40
39.99999999999997
100
AcDbArc
 50
337.9013842694218
 51
344.3982781116232
  0
SPLINE
  5
B779
330
1F
100
AcDbEntity
  8
0
  6
Continuous
 62
     7
370
    15
100
AcDbSpline
210
0.0
220
0.0
230
1.0
 70
    24
 71
     3
 72
     8
 73
     4
 74
     0
 42
0.0000000001
 43
0.0000000001
 40
0.0
 40
0.0
 40
0.0
 40
0.0
 40
0.0007105473540006
 40
0.0007105473540006
 40
0.0007105473540006
 40
0.0007105473540006
 10
737.8550096124795
 20
128.1400773520882
 30
0.0
 10
738.0007573148402
 20
128.0559298768968
 30
0.0
 10
738.146495993881
 20
127.9717876113212
 30
0.0
 10
738.2922259853524
 20
127.8876503615162
 30
0.0
  0
ARC
  5
B77A
330
1F
100
AcDbEntity
  8
0
  6
Continuous
 62
     7
370
    15
100
AcDbCircle
 10
701.2307171772775
 20
142.9357254832378
 30
0.0
 40
39.50000000000006
100
AcDbArc
 50
338.0020530171027
 51
345.6625230487496
  0
SPLINE
  5
B77B
330
1F
100
AcDbEntity
  8
0
  6
Continuous
 62
     7
370
    15
100
AcDbSpline
210
0.0
220
0.0
230
1.0
 70
     8
 71
     3
 72
    10
 73
     6
 74
     0
 42
0.0000000001
 43
0.0000000001
 40
0.0
 40
0.0
 40
0.0
 40
0.0
 40
0.5
 40
0.5
 40
1.0
 40
1.0
 40
1.0
 40
1.0
 10
728.8366062587126
 20
114.6839133639508
 30
0.0
 10
728.9831773523224
 20
114.6445508717971
 30
0.0
 10
729.1469291781536
 20
114.6356471281466
 30
0.0
 10
729.4896164894907
 20
114.7137819877815
 30
0.0
 10
729.6695271348219
 20
114.8061206572005
 30
0.0
 10
729.8104654183869
 20
114.950050746423
 30
0.0
  0
ARC
  5
B77C
330
1F
100
AcDbEntity
  8
0
  6
Continuous
 62
     7
370
    15
100
AcDbCircle
 10
701.2307171772775
 20
142.9357254832378
 30
0.0
 40
39.5
100
AcDbArc
 50
314.3374769512513
 51
321.9942529760699
  0
SPLINE
  5
B77D
330
1F
100
AcDbEntity
  8
0
  6
Continuous
 62
     7
370
    15
100
AcDbSpline
210
0.0
220
0.0
230
1.0
 70
    24
 71
     3
 72
     8
 73
     4
 74
     0
 42
0.0000000001
 43
0.0000000001
 40
0.0
 40
0.0
 40
0.0
 40
0.0
 40
0.0007105505644362
 40
0.0007105505644362
 40
0.0007105505644362
 40
0.0007105505644362
 10
732.3547025205644
 20
118.6139752100595
 30
0.0
 10
732.5004515356263
 20
118.5298269769793
 30
0.0
 10
732.6461915189284
 20
118.4456839583882
 30
0.0
 10
732.7919228065363
 20
118.3615459602582
 30
0.0
  0
ARC
  5
B77E
330
1F
100
AcDbEntity
  8
0
  6
Continuous
 62
     7
370
    15
100
AcDbCircle
 10
701.2307171772775
 20
142.9357254832378
 30
0.0
 40
40.00000000000001
100
AcDbArc
 50
315.6017218883778
 51
322.0949687943975
  0
SPLINE
  5
B77F
330
1F
100
AcDbEntity
  8
0
  6
Continuous
 62
     7
370
    15
100
AcDbSpline
210
0.0
220
0.0
230
1.0
 70
     8
 71
     3
 72
    10
 73
     6
 74
     0
 42
0.0000000001
 43
0.0000000001
 40
0.0
 40
0.0
 40
0.0
 40
0.0
 40
0.5
 40
0.5
 40
1.0
 40
1.0
 40
1.0
 40
1.0
 10
672.6509689361679
 20
114.950050746423
 30
0.0
 10
672.7918970549909
 20
114.8061310377173
 30
0.0
 10
672.9709688624248
 20
114.7140476037567
 30
0.0
 10
673.3145779455789
 20
114.6355586608218
 30
0.0
 10
673.4782200394089
 20
114.6445409452227
 30
0.0
 10
673.6248280958423
 20
114.6839133639508
 30
0.0
  0
ARC
  5
B780
330
1F
100
AcDbEntity
  8
0
  6
Continuous
 62
     7
370
    15
100
AcDbCircle
 10
701.2307171772775
 20
142.9357254832378
 30
0.0
 40
40.00000000000001
100
AcDbArc
 50
217.9013842694209
 51
224.3982781116232
  0
SPLINE
  5
B781
330
1F
100
AcDbEntity
  8
0
  6
Continuous
 62
     7
370
    15
100
AcDbSpline
210
0.0
220
0.0
230
1.0
 70
    24
 71
     3
 72
     8
 73
     4
 74
     0
 42
0.0000000001
 43
0.0000000001
 40
0.0
 40
0.0
 40
0.0
 40
0.0
 40
0.0007105473540007
 40
0.0007105473540007
 40
0.0007105473540007
 40
0.0007105473540007
 10
670.1051638126449
 20
118.6159819042974
 30
0.0
 10
669.9594161102844
 20
118.5318344291057
 30
0.0
 10
669.8136774312437
 20
118.4476921635304
 30
0.0
 10
669.6679474397722
 20
118.3635549137253
 30
0.0
  0
ARC
  5
B782
330
1F
100
AcDbEntity
  8
0
  6
Continuous
 62
     7
370
    15
100
AcDbCircle
 10
701.2307171772775
 20
142.9357254832378
 30
0.0
 40
39.50000000000004
100
AcDbArc
 50
218.0020530171033
 51
225.6625230487492
  0
ARC
  5
B783
330
1F
100
AcDbEntity
  8
0
  6
Continuous
 62
     7
370
    15
100
AcDbCircle
 10
701.2307171772775
 20
142.9357254832378
 30
0.0
 40
40.0
100
AcDbArc
 50
38.77183311969432
 51
82.09496879439432
  0
SPLINE
  5
B784
330
1F
100
AcDbEntity
  8
0
  6
Continuous
 62
     7
370
    15
100
AcDbSpline
210
0.0
220
0.0
230
1.0
 70
    24
 71
     3
 72
     8
 73
     4
 74
     0
 42
0.0000000001
 43
0.0000000001
 40
0.0
 40
0.0
 40
0.0
 40
0.0
 40
0.0007113576220449
 40
0.0007113576220449
 40
0.0007113576220449
 40
0.0007113576220449
 10
731.9783502304962
 20
167.7315529875706
 30
0.0
 10
732.1244290581013
 20
167.8158916380113
 30
0.0
 10
732.2704967310365
 20
167.9002238483002
 30
0.0
 10
732.4165536647946
 20
167.9845498583225
 30
0.0
  0
ARC
  5
B785
330
1F
100
AcDbEntity
  8
0
  6
Continuous
 62
     7
370
    15
100
AcDbCircle
 10
701.2307171772775
 20
142.9357254832378
 30
0.0
 40
39.50000000000004
100
AcDbArc
 50
38.8837616501713
 51
81.99425297607161
  0
SPLINE
  5
B786
330
1F
100
AcDbEntity
  8
0
  6
Continuous
 62
     7
370
    15
100
AcDbSpline
210
0.0
220
0.0
230
1.0
 70
    24
 71
     3
 72
     8
 73
     4
 74
     0
 42
0.0000000001
 43
0.0000000001
 40
0.0
 40
0.0
 40
0.0
 40
0.0
 40
0.0007105505644362
 40
0.0007105505644362
 40
0.0007105505644362
 40
0.0007105505644362
 10
706.7319781067075
 20
182.5556210937305
 30
0.0
 10
706.7319781067075
 20
182.3873450974707
 30
0.0
 10
706.7319781067075
 20
182.2190590602884
 30
0.0
 10
706.7319781067075
 20
182.0507625941283
 30
0.0
  0
ARC
  5
B787
330
1F
100
AcDbEntity
  8
0
  6
Continuous
 62
     7
370
    15
100
AcDbCircle
 10
701.2307171772775
 20
142.9357254832378
 30
0.0
 40
39.50000000000003
100
AcDbArc
 50
98.00205301710011
 51
141.1162383498283
  0
LINE
  5
B788
330
1F
100
AcDbEntity
  8
0
  6
Continuous
 62
     7
370
    15
100
AcDbLine
 10
695.7319782178458
 20
182.0511171548954
 30
0.0
 11
695.7319782178458
 21
177.9357256322495
 31
0.0
  0
ARC
  5
B789
330
1F
100
AcDbEntity
  8
0
  6
Continuous
 62
     7
370
    15
100
AcDbCircle
 10
701.2319781067075
 20
177.9357254605243
 30
0.0
 40
5.5
100
AcDbArc
 50
180.0
 51
0.0
  0
LINE
  5
B78A
330
1F
100
AcDbEntity
  8
0
  6
Continuous
 62
     7
370
    15
100
AcDbLine
 10
706.7319781582412
 20
177.9357256322495
 30
0.0
 11
706.7319781582412
 21
182.0507632523171
 31
0.0
  0
LINE
  5
B78B
330
1F
100
AcDbEntity
  8
0
  6
Continuous
 62
     7
370
    15
100
AcDbLine
 10
715.5830881621298
 20
158.2657439588896
 30
0.0
 11
731.9783506046588
 21
167.7315538703791
 31
0.0
  0
LINE
  5
B78C
330
1F
100
AcDbEntity
  8
0
  6
Continuous
 62
     7
370
    15
100
AcDbLine
 10
686.8783461924252
 20
158.2657439588896
 30
0.0
 11
670.483083749896
 21
167.7315538703791
 31
0.0
  0
ARC
  5
B78D
330
1F
100
AcDbEntity
  8
0
  6
Continuous
 62
     7
370
    15
100
AcDbCircle
 10
701.2307171772775
 20
142.9357254832378
 30
0.0
 40
40.00000000000001
100
AcDbArc
 50
97.90138426941823
 51
141.2281668803057
  0
SPLINE
  5
B78E
330
1F
100
AcDbEntity
  8
0
  6
Continuous
 62
     7
370
    15
100
AcDbSpline
210
0.0
220
0.0
230
1.0
 70
    24
 71
     3
 72
     8
 73
     4
 74
     0
 42
0.0000000001
 43
0.0000000001
 40
0.0
 40
0.0
 40
0.0
 40
0.0
 40
0.0007105473540006
 40
0.0007105473540006
 40
0.0007105473540006
 40
0.0007105473540006
 10
695.7319781067075
 20
182.5559711744723
 30
0.0
 10
695.7319781067075
 20
182.3876966748624
 30
0.0
 10
695.7319781067075
 20
182.2194121437113
 30
0.0
 10
695.7319781067075
 20
182.051117193328
 30
0.0
  0
SPLINE
  5
B78F
330
1F
100
AcDbEntity
  8
0
  6
Continuous
 62
     7
370
    15
100
AcDbSpline
210
0.0
220
0.0
230
1.0
 70
    24
 71
     3
 72
     8
 73
     4
 74
     0
 42
0.0000000001
 43
0.0000000001
 40
0.0
 40
0.0
 40
0.0
 40
0.0
 40
0.0007113576220449
 40
0.0007113576220449
 40
0.0007113576220449
 40
0.0007113576220449
 10
670.0448806897606
 20
167.984549858323
 30
0.0
 10
670.1909376235188
 20
167.9002238483007
 30
0.0
 10
670.3370052964539
 20
167.8158916380117
 30
0.0
 10
670.4830841240593
 20
167.731552987571
 30
0.0
  0
LINE
  5
B790
330
1F
100
AcDbEntity
  8
0
  6
Continuous
 62
     7
370
    15
100
AcDbLine
 10
677.368498692995
 20
119.647170039951
 30
0.0
 11
680.5640210460481
 21
116.7699085503212
 31
0.0
  0
LINE
  5
B791
330
1F
100
AcDbEntity
  8
0
  6
Continuous
 62
     7
370
    15
100
AcDbLine
 10
674.5581490050611
 20
116.5259616404167
 30
0.0
 11
677.368498692995
 21
119.647170039951
 31
0.0
  0
LINE
  5
B792
330
1F
100
AcDbEntity
  8
0
  6
Continuous
 62
     7
370
    15
100
AcDbLine
 10
675.0783504049834
 20
116.0575715779654
 30
0.0
 11
674.5581490050611
 21
116.5259616404167
 31
0.0
  0
LINE
  5
B793
330
1F
100
AcDbEntity
  8
0
  6
Continuous
 62
     7
370
    15
100
AcDbLine
 10
674.1086070488748
 20
114.9805622130028
 30
0.0
 11
675.0783504049834
 21
116.0575715779654
 31
0.0
  0
LINE
  5
B794
330
1F
100
AcDbEntity
  8
0
  6
Continuous
 62
     7
370
    15
100
AcDbLine
 10
673.6691978823003
 20
120.6736775069825
 30
0.0
 11
670.1051642249879
 21
118.6159817456595
 31
0.0
  0
ARC
  5
B795
330
1F
100
AcDbEntity
  8
0
  6
Continuous
 62
     7
370
    15
100
AcDbCircle
 10
670.9191975997774
 20
125.4368174915138
 30
0.0
 40
5.500000000000006
100
AcDbArc
 50
299.9999999999999
 51
119.9999999999999
  0
LINE
  5
B796
330
1F
100
AcDbEntity
  8
0
  6
Continuous
 62
     7
370
    15
100
AcDbLine
 10
664.6054697285947
 20
128.1424384518853
 30
0.0
 11
668.1691979121026
 21
130.1999572619191
 31
0.0
  0
LINE
  5
B797
330
1F
100
AcDbEntity
  8
0
  6
Continuous
 62
     7
370
    15
100
AcDbLine
 10
664.8773712168988
 20
133.7261894672505
 30
0.0
 11
663.4597790490445
 21
133.4248712241045
 31
0.0
  0
LINE
  5
B798
330
1F
100
AcDbEntity
  8
0
  6
Continuous
 62
     7
370
    15
100
AcDbLine
 10
665.0229071329889
 20
133.041485767006
 30
0.0
 11
664.8773712168988
 21
133.7261894672505
 31
0.0
  0
LINE
  5
B799
330
1F
100
AcDbEntity
  8
0
  6
Continuous
 62
     7
370
    15
100
AcDbLine
 10
669.1311274718103
 20
133.9147152333847
 30
0.0
 11
665.0229071329889
 21
133.041485767006
 31
0.0
  0
LINE
  5
B79A
330
1F
100
AcDbEntity
  8
0
  6
Continuous
 62
     7
370
    15
100
AcDbLine
 10
668.2371062289533
 20
138.1207495882503
 30
0.0
 11
669.1311274718103
 21
133.9147152333847
 31
0.0
  0
LINE
  5
B79B
330
1F
100
AcDbEntity
  8
0
  6
Continuous
 62
     7
370
    15
100
AcDbLine
 10
664.1288858901319
 20
137.2475205875329
 30
0.0
 11
668.2371062289533
 21
138.1207495882503
 31
0.0
  0
LINE
  5
B79C
330
1F
100
AcDbEntity
  8
0
  6
Continuous
 62
     7
370
    15
100
AcDbLine
 10
664.2744255315122
 20
136.5628168872885
 30
0.0
 11
664.1288858901319
 21
137.2475205875329
 31
0.0
  0
LINE
  5
B79D
330
1F
100
AcDbEntity
  8
0
  6
Continuous
 62
     7
370
    15
100
AcDbLine
 10
662.8568370889482
 20
136.2614991098038
 30
0.0
 11
664.2744255315122
 21
136.5628168872885
 31
0.0
  0
LINE
  5
B79E
330
1F
100
AcDbEntity
  8
0
  6
Continuous
 62
     7
370
    15
100
AcDbLine
 10
680.7783463101443
 20
147.7002339392296
 30
0.0
 11
664.3830847989377
 21
157.1660429193965
 31
0.0
  0
LINE
  5
B79F
330
1F
100
AcDbEntity
  8
0
  6
Continuous
 62
     7
370
    15
100
AcDbLine
 10
695.1307172949967
 20
103.9095805912606
 30
0.0
 11
695.1307172949967
 21
122.8411985515944
 31
0.0
  0
LINE
  5
B7A0
330
1F
100
AcDbEntity
  8
0
  6
Continuous
 62
     7
370
    15
100
AcDbLine
 10
677.2334699581918
 20
114.1170920758835
 30
0.0
 11
676.2637266020831
 21
113.0400827109209
 31
0.0
  0
LINE
  5
B7A1
330
1F
100
AcDbEntity
  8
0
  6
Continuous
 62
     7
370
    15
100
AcDbLine
 10
677.7536713581142
 20
113.648700150787
 30
0.0
 11
677.2334699581918
 21
114.1170920758835
 31
0.0
  0
LINE
  5
B7A2
330
1F
100
AcDbEntity
  8
0
  6
Continuous
 62
     7
370
    15
100
AcDbLine
 10
680.5640210460481
 20
116.7699085503212
 30
0.0
 11
677.7536713581142
 21
113.648700150787
 31
0.0
  0
ARC
  5
B7A3
330
1F
100
AcDbEntity
  8
0
  6
Continuous
 62
     7
370
    15
100
AcDbCircle
 10
673.3654626421956
 20
115.6496926148435
 30
0.0
 40
1.000000000000007
100
AcDbArc
 50
285.0324137499067
 51
318.0000000000014
  0
ARC
  5
B7A4
330
1F
100
AcDbEntity
  8
0
  6
Continuous
 62
     7
370
    15
100
AcDbCircle
 10
662.6489249922027
 20
137.2396468507305
 30
0.0
 40
0.9999999999999985
100
AcDbArc
 50
249.0324137499043
 51
281.9999999999964
  0
ARC
  5
B7A5
330
1F
100
AcDbEntity
  8
0
  6
Continuous
 62
     7
370
    15
100
AcDbCircle
 10
677.0068722870348
 20
112.3709526436852
 30
0.0
 40
1.000000000000011
100
AcDbArc
 50
138.0000000000014
 51
170.9675862500959
  0
ARC
  5
B7A6
330
1F
100
AcDbEntity
  8
0
  6
Continuous
 62
     7
370
    15
100
AcDbCircle
 10
663.6676922772097
 20
132.4467236071349
 30
0.0
 40
1.000000000000007
100
AcDbArc
 50
102.0000000000028
 51
134.9675862500946
  0
LINE
  5
B7A7
330
1F
100
AcDbEntity
  8
0
  6
Continuous
 62
     7
370
    15
100
AcDbLine
 10
733.3303068827444
 20
133.9147152333847
 30
0.0
 11
734.2243281256014
 21
138.1207495882503
 31
0.0
  0
LINE
  5
B7A8
330
1F
100
AcDbEntity
  8
0
  6
Continuous
 62
     7
370
    15
100
AcDbLine
 10
737.4385272215659
 20
133.041485767006
 30
0.0
 11
733.3303068827444
 21
133.9147152333847
 31
0.0
  0
LINE
  5
B7A9
330
1F
100
AcDbEntity
  8
0
  6
Continuous
 62
     7
370
    15
100
AcDbLine
 10
737.5840631376559
 20
133.7261894672505
 30
0.0
 11
737.4385272215659
 21
133.041485767006
 31
0.0
  0
LINE
  5
B7AA
330
1F
100
AcDbEntity
  8
0
  6
Continuous
 62
     7
370
    15
100
AcDbLine
 10
739.0016553055102
 20
133.4248712241045
 30
0.0
 11
737.5840631376559
 21
133.7261894672505
 31
0.0
  0
LINE
  5
B7AB
330
1F
100
AcDbEntity
  8
0
  6
Continuous
 62
     7
370
    15
100
AcDbLine
 10
734.2909772943312
 20
130.1977733104817
 30
0.0
 11
737.8550109516436
 21
128.1400775491587
 31
0.0
  0
ARC
  5
B7AC
330
1F
100
AcDbEntity
  8
0
  6
Continuous
 62
     7
370
    15
100
AcDbCircle
 10
731.5409758253473
 20
125.4346334976757
 30
0.0
 40
5.500000000000015
100
AcDbArc
 50
59.99999999999986
 51
240.0
  0
LINE
  5
B7AD
330
1F
100
AcDbEntity
  8
0
  6
Continuous
 62
     7
370
    15
100
AcDbLine
 10
732.3547017823512
 20
118.6139756768338
 30
0.0
 11
728.7909754614886
 21
120.6714944868676
 31
0.0
  0
LINE
  5
B7AE
330
1F
100
AcDbEntity
  8
0
  6
Continuous
 62
     7
370
    15
100
AcDbLine
 10
727.3830839495715
 20
116.0575715779654
 30
0.0
 11
728.3528273056802
 21
114.9805622130028
 31
0.0
  0
LINE
  5
B7AF
330
1F
100
AcDbEntity
  8
0
  6
Continuous
 62
     7
370
    15
100
AcDbLine
 10
727.9032853494939
 20
116.5259616404167
 30
0.0
 11
727.3830839495715
 21
116.0575715779654
 31
0.0
  0
LINE
  5
B7B0
330
1F
100
AcDbEntity
  8
0
  6
Continuous
 62
     7
370
    15
100
AcDbLine
 10
725.09293566156
 20
119.647170039951
 30
0.0
 11
727.9032853494939
 21
116.5259616404167
 31
0.0
  0
LINE
  5
B7B1
330
1F
100
AcDbEntity
  8
0
  6
Continuous
 62
     7
370
    15
100
AcDbLine
 10
721.8974133085069
 20
116.7699085503212
 30
0.0
 11
725.09293566156
 21
119.647170039951
 31
0.0
  0
LINE
  5
B7B2
330
1F
100
AcDbEntity
  8
0
  6
Continuous
 62
     7
370
    15
100
AcDbLine
 10
724.7077629964408
 20
113.648700150787
 30
0.0
 11
721.8974133085069
 21
116.7699085503212
 31
0.0
  0
LINE
  5
B7B3
330
1F
100
AcDbEntity
  8
0
  6
Continuous
 62
     7
370
    15
100
AcDbLine
 10
725.2279643963632
 20
114.1170920758835
 30
0.0
 11
724.7077629964408
 21
113.648700150787
 31
0.0
  0
LINE
  5
B7B4
330
1F
100
AcDbEntity
  8
0
  6
Continuous
 62
     7
370
    15
100
AcDbLine
 10
726.1977077524718
 20
113.0400827109209
 30
0.0
 11
725.2279643963632
 21
114.1170920758835
 31
0.0
  0
LINE
  5
B7B5
330
1F
100
AcDbEntity
  8
0
  6
Continuous
 62
     7
370
    15
100
AcDbLine
 10
707.3307170595583
 20
122.8411985515944
 30
0.0
 11
707.3307170595583
 21
103.9095805912606
 31
0.0
  0
LINE
  5
B7B6
330
1F
100
AcDbEntity
  8
0
  6
Continuous
 62
     7
370
    15
100
AcDbLine
 10
721.6830880444106
 20
147.7002339392296
 30
0.0
 11
738.0783495556171
 21
157.1660429193965
 31
0.0
  0
LINE
  5
B7B7
330
1F
100
AcDbEntity
  8
0
  6
Continuous
 62
     7
370
    15
100
AcDbLine
 10
738.1870088230425
 20
136.5628168872885
 30
0.0
 11
739.6045972656065
 21
136.2614991098038
 31
0.0
  0
LINE
  5
B7B8
330
1F
100
AcDbEntity
  8
0
  6
Continuous
 62
     7
370
    15
100
AcDbLine
 10
738.3325484644228
 20
137.2475205875329
 30
0.0
 11
738.1870088230425
 21
136.5628168872885
 31
0.0
  0
LINE
  5
B7B9
330
1F
100
AcDbEntity
  8
0
  6
Continuous
 62
     7
370
    15
100
AcDbLine
 10
734.2243281256014
 20
138.1207495882503
 30
0.0
 11
738.3325484644228
 21
137.2475205875329
 31
0.0
  0
ARC
  5
B7BA
330
1F
100
AcDbEntity
  8
0
  6
Continuous
 62
     7
370
    15
100
AcDbCircle
 10
729.0959717123593
 20
115.6496926148435
 30
0.0
 40
1.000000000000007
100
AcDbArc
 50
221.9999999999994
 51
254.9675862500996
  0
ARC
  5
B7BB
330
1F
100
AcDbEntity
  8
0
  6
Continuous
 62
     7
370
    15
100
AcDbCircle
 10
738.7937420773452
 20
132.4467236071349
 30
0.0
 40
0.9999999999999985
100
AcDbArc
 50
45.0324137498996
 51
77.99999999999717
  0
ARC
  5
B7BC
330
1F
100
AcDbEntity
  8
0
  6
Continuous
 62
     7
370
    15
100
AcDbCircle
 10
725.4545620675201
 20
112.3709526436852
 30
0.0
 40
0.9999999999999628
100
AcDbArc
 50
9.032413749907274
 51
42.00000000000409
  0
ARC
  5
B7BD
330
1F
100
AcDbEntity
  8
0
  6
Continuous
 62
     7
370
    15
100
AcDbCircle
 10
739.8125093623522
 20
137.2396468507305
 30
0.0
 40
1.000000000000002
100
AcDbArc
 50
258.0000000000037
 51
290.9675862501019
  0
CIRCLE
  5
B7BE
330
1F
100
AcDbEntity
  8
0
  6
Continuous
 62
     7
370
    15
100
AcDbCircle
 10
673.7285567243853
 20
158.8141052240122
 30
0.0
 40
2.0
  0
LINE
  5
B7BF
330
1F
100
AcDbEntity
  8
0
  6
Continuous
 62
     7
370
    15
100
AcDbLine
 10
668.5634938131627
 20
154.8679532437912
 30
0.0
 11
672.8936203818378
 21
152.3679528340093
 31
0.0
  0
LINE
  5
B7C0
330
1F
100
AcDbEntity
  8
0
  6
Continuous
 62
     7
370
    15
100
AcDbLine
 10
678.8936195026693
 20
162.76025827521
 30
0.0
 11
674.5634929339942
 21
165.2602577536694
 31
0.0
  0
CIRCLE
  5
B7C1
330
1F
100
AcDbEntity
  8
0
  6
Continuous
 62
     7
370
    15
100
AcDbCircle
 10
728.7328776301693
 20
158.8141052240104
 30
0.0
 40
2.000000000000012
  0
LINE
  5
B7C2
330
1F
100
AcDbEntity
  8
0
  6
Continuous
 62
     7
370
    15
100
AcDbLine
 10
729.5678139727172
 20
152.3679528340093
 30
0.0
 11
733.8979405413921
 21
154.8679532437912
 31
0.0
  0
LINE
  5
B7C3
330
1F
100
AcDbEntity
  8
0
  6
Continuous
 62
     7
370
    15
100
AcDbLine
 10
727.8979414205608
 20
165.2602577536694
 30
0.0
 11
723.5678148518857
 21
162.76025827521
 31
0.0
  0
CIRCLE
  5
B7C4
330
1F
100
AcDbEntity
  8
0
  6
Continuous
 62
     7
370
    15
100
AcDbCircle
 10
701.2307171772775
 20
111.1789660016905
 30
0.0
 40
2.0
  0
LINE
  5
B7C5
330
1F
100
AcDbEntity
  8
0
  6
Continuous
 62
     7
370
    15
100
AcDbLine
 10
695.2307171251234
 20
113.6789662718169
 30
0.0
 11
695.2307171251234
 21
108.678965452253
 31
0.0
  0
LINE
  5
B7C6
330
1F
100
AcDbEntity
  8
0
  6
Continuous
 62
     7
370
    15
100
AcDbLine
 10
707.2307172294316
 20
108.678965452253
 30
0.0
 11
707.2307172294316
 21
113.6789662718169
 31
0.0
  0
LINE
  5
B7C7
330
1F
100
AcDbEntity
  8
0
  6
Continuous
 62
     7
370
    15
100
AcDbLine
 10
679.8218240093049
 20
148.3679526440195
 30
0.0
 11
680.8022924761829
 21
147.8018789506844
 31
0.0
  0
LINE
  5
B7C8
330
1F
100
AcDbEntity
  8
0
  6
Continuous
 62
     7
370
    15
100
AcDbLine
 10
686.8022925283369
 20
158.1941839262239
 30
0.0
 11
685.8218231301364
 21
158.7602576195589
 31
0.0
  0
LINE
  5
B7C9
330
1F
100
AcDbEntity
  8
0
  6
Continuous
 62
     7
370
    15
100
AcDbLine
 10
721.6591418783721
 20
147.8018789506844
 30
0.0
 11
722.6396103452501
 21
148.3679526440195
 31
0.0
  0
LINE
  5
B7CA
330
1F
100
AcDbEntity
  8
0
  6
Continuous
 62
     7
370
    15
100
AcDbLine
 10
716.6396112244186
 20
158.7602576195589
 30
0.0
 11
715.6591418262181
 21
158.1941839262239
 31
0.0
  0
LINE
  5
B7CB
330
1F
100
AcDbEntity
  8
0
  6
Continuous
 62
     7
370
    15
100
AcDbLine
 10
695.2307171251234
 20
122.811113107144
 30
0.0
 11
695.2307171251234
 21
121.6789657204739
 31
0.0
  0
LINE
  5
B7CC
330
1F
100
AcDbEntity
  8
0
  6
Continuous
 62
     7
370
    15
100
AcDbLine
 10
707.2307172294316
 20
122.811113107144
 30
0.0
 11
707.2307172294316
 21
121.6789657204739
 31
0.0
  0
LINE
  5
B7CD
330
1F
100
AcDbEntity
  8
0
  6
Continuous
 62
     7
370
    15
100
AcDbLine
 10
670.1160718749818
 20
168.0729264348141
 30
0.0
 11
667.7413557719049
 21
169.443969237744
 31
0.0
  0
LINE
  5
B7CE
330
1F
100
AcDbEntity
  8
0
  6
Continuous
 62
     7
370
    15
100
AcDbLine
 10
667.4585131059942
 20
168.9540712117544
 30
0.0
 11
667.7413557719049
 21
169.443969237744
 31
0.0
  0
LINE
  5
B7CF
330
1F
100
AcDbEntity
  8
0
  6
Continuous
 62
     7
370
    15
100
AcDbLine
 10
661.5292255829629
 20
158.6842412083737
 30
0.0
 11
663.9039416860399
 21
157.3131984054438
 31
0.0
  0
LINE
  5
B7D0
330
1F
100
AcDbEntity
  8
0
  6
Continuous
 62
     7
370
    15
100
AcDbLine
 10
661.5292255829629
 20
158.6842412083737
 30
0.0
 11
661.8120682488736
 21
159.1741392343632
 31
0.0
  0
LINE
  5
B7D1
330
1F
100
AcDbEntity
  8
0
  6
Continuous
 62
     7
370
    15
100
AcDbLine
 10
734.7200785826499
 20
169.443969237744
 30
0.0
 11
732.345362479573
 21
168.0729264348141
 31
0.0
  0
LINE
  5
B7D2
330
1F
100
AcDbEntity
  8
0
  6
Continuous
 62
     7
370
    15
100
AcDbLine
 10
734.7200785826499
 20
169.443969237744
 30
0.0
 11
735.0029212485607
 21
168.9540712117544
 31
0.0
  0
LINE
  5
B7D3
330
1F
100
AcDbEntity
  8
0
  6
Continuous
 62
     7
370
    15
100
AcDbLine
 10
738.557492668515
 20
157.3131984054438
 30
0.0
 11
740.9322087715919
 21
158.6842412083737
 31
0.0
  0
LINE
  5
B7D4
330
1F
100
AcDbEntity
  8
0
  6
Continuous
 62
     7
370
    15
100
AcDbLine
 10
740.6493661056812
 20
159.1741392343632
 30
0.0
 11
740.9322087715919
 21
158.6842412083737
 31
0.0
  0
LINE
  5
B7D5
330
1F
100
AcDbEntity
  8
0
  6
Continuous
 62
     7
370
    15
100
AcDbLine
 10
695.0185851256904
 20
103.4210534721009
 30
0.0
 11
695.0185851256904
 21
100.6789641409508
 31
0.0
  0
LINE
  5
B7D6
330
1F
100
AcDbEntity
  8
0
  6
Continuous
 62
     7
370
    15
100
AcDbLine
 10
695.5842704575118
 20
100.6789641409508
 30
0.0
 11
695.0185851256904
 21
100.6789641409508
 31
0.0
  0
LINE
  5
B7D7
330
1F
100
AcDbEntity
  8
0
  6
Continuous
 62
     7
370
    15
100
AcDbLine
 10
707.4428492288646
 20
100.6789641409508
 30
0.0
 11
707.4428492288646
 21
103.4210534721009
 31
0.0
  0
LINE
  5
B7D8
330
1F
100
AcDbEntity
  8
0
  6
Continuous
 62
     7
370
    15
100
AcDbLine
 10
707.4428492288646
 20
100.6789641409508
 30
0.0
 11
706.8771638970432
 21
100.6789641409508
 31
0.0
  0
LINE
  5
B7D9
330
1F
100
AcDbEntity
  8
0
  6
Continuous
 62
     7
370
    15
100
AcDbLine
 10
670.1352906476316
 20
173.5903849779955
 30
0.0
 11
673.4253124396857
 21
171.6908892571322
 31
0.0
  0
LINE
  5
B7DA
330
1F
100
AcDbEntity
  8
0
  6
Continuous
 62
     7
370
    15
100
AcDbLine
 10
673.8022224109229
 20
172.0506312280289
 30
0.0
 11
670.3852892916259
 21
174.0233978211275
 31
0.0
  0
LINE
  5
B7DB
330
1F
100
AcDbEntity
  8
0
  6
Continuous
 62
     7
370
    15
100
AcDbLine
 10
670.1352906476316
 20
173.5903849779955
 30
0.0
 11
670.3852892916259
 21
174.0233978211275
 31
0.0
  0
LINE
  5
B7DC
330
1F
100
AcDbEntity
  8
0
  6
Continuous
 62
     7
370
    15
100
AcDbLine
 10
670.342390711194
 20
168.3505089908234
 30
0.0
 11
667.9181319724378
 21
169.75015643531
 31
0.0
  0
LINE
  5
B7DD
330
1F
100
AcDbEntity
  8
0
  6
Continuous
 62
     7
370
    15
100
AcDbLine
 10
667.9181319724378
 20
169.75015643531
 30
0.0
 11
670.1352906476316
 21
173.5903849779955
 31
0.0
  0
LINE
  5
B7DE
330
1F
100
AcDbEntity
  8
0
  6
Continuous
 62
     7
370
    15
100
AcDbLine
 10
667.7413557719049
 20
169.443969237744
 30
0.0
 11
667.9181319724378
 21
169.75015643531
 31
0.0
  0
LINE
  5
B7DF
330
1F
100
AcDbEntity
  8
0
  6
Continuous
 62
     7
370
    15
100
AcDbLine
 10
661.3524456571397
 20
158.3780549421302
 30
0.0
 11
663.7767043958959
 21
156.9784093602887
 31
0.0
  0
LINE
  5
B7E0
330
1F
100
AcDbEntity
  8
0
  6
Continuous
 62
     7
370
    15
100
AcDbLine
 10
661.3524456571397
 20
158.3780549421302
 30
0.0
 11
661.5292255829629
 21
158.6842412083737
 31
0.0
  0
LINE
  5
B7E1
330
1F
100
AcDbEntity
  8
0
  6
Continuous
 62
     7
370
    15
100
AcDbLine
 10
662.4253106366452
 20
152.6383306785814
 30
0.0
 11
659.1352907072362
 21
154.5378254681221
 31
0.0
  0
LINE
  5
B7E2
330
1F
100
AcDbEntity
  8
0
  6
Continuous
 62
     7
370
    15
100
AcDbLine
 10
659.1352907072362
 20
154.5378254681221
 30
0.0
 11
661.3524456571397
 21
158.3780549421302
 31
0.0
  0
LINE
  5
B7E3
330
1F
100
AcDbEntity
  8
0
  6
Continuous
 62
     7
370
    15
100
AcDbLine
 10
732.0761450629289
 20
174.0233978211275
 30
0.0
 11
728.6592119436321
 21
172.0506312280289
 31
0.0
  0
LINE
  5
B7E4
330
1F
100
AcDbEntity
  8
0
  6
Continuous
 62
     7
370
    15
100
AcDbLine
 10
729.0361219148692
 20
171.6908892571322
 30
0.0
 11
732.3261437069232
 21
173.5903849779955
 31
0.0
  0
LINE
  5
B7E5
330
1F
100
AcDbEntity
  8
0
  6
Continuous
 62
     7
370
    15
100
AcDbLine
 10
732.0761450629289
 20
174.0233978211275
 30
0.0
 11
732.3261437069232
 21
173.5903849779955
 31
0.0
  0
LINE
  5
B7E6
330
1F
100
AcDbEntity
  8
0
  6
Continuous
 62
     7
370
    15
100
AcDbLine
 10
658.8852902005967
 20
154.1048126249901
 30
0.0
 11
662.3022233198938
 21
152.1320460318915
 31
0.0
  0
LINE
  5
B7E7
330
1F
100
AcDbEntity
  8
0
  6
Continuous
 62
     7
370
    15
100
AcDbLine
 10
658.8852902005967
 20
154.1048126249901
 30
0.0
 11
659.1352907072362
 21
154.5378254681221
 31
0.0
  0
LINE
  5
B7E8
330
1F
100
AcDbEntity
  8
0
  6
Continuous
 62
     7
370
    15
100
AcDbLine
 10
734.543302382117
 20
169.75015643531
 30
0.0
 11
732.1190436433608
 21
168.3505089908234
 31
0.0
  0
LINE
  5
B7E9
330
1F
100
AcDbEntity
  8
0
  6
Continuous
 62
     7
370
    15
100
AcDbLine
 10
732.3261437069232
 20
173.5903849779955
 30
0.0
 11
734.543302382117
 21
169.75015643531
 31
0.0
  0
CIRCLE
  5
B7EA
330
1F
100
AcDbEntity
  8
0
  6
Continuous
 62
     7
370
    15
100
AcDbCircle
 10
701.2319781067075
 20
177.9357254605246
 30
0.0
 40
3.200000000000002
  0
ARC
  5
B7EB
330
1F
100
AcDbEntity
  8
0
  6
Continuous
 62
     7
370
    15
100
AcDbCircle
 10
701.2307171772775
 20
142.9357254832378
 30
0.0
 40
40.0
100
AcDbArc
 50
82.09496879439432
 51
97.90138426941823
  0
LINE
  5
B7EC
330
1F
100
AcDbEntity
  8
0
  6
Continuous
 62
     7
370
    15
100
AcDbLine
 10
734.543302382117
 20
169.75015643531
 30
0.0
 11
734.7200785826499
 21
169.443969237744
 31
0.0
  0
LINE
  5
B7ED
330
1F
100
AcDbEntity
  8
0
  6
Continuous
 62
     7
370
    15
100
AcDbLine
 10
738.6847299586589
 20
156.9784093602887
 30
0.0
 11
741.1089886974151
 21
158.3780549421302
 31
0.0
  0
LINE
  5
B7EE
330
1F
100
AcDbEntity
  8
0
  6
Continuous
 62
     7
370
    15
100
AcDbLine
 10
740.9322087715919
 20
158.6842412083737
 30
0.0
 11
741.1089886974151
 21
158.3780549421302
 31
0.0
  0
LINE
  5
B7EF
330
1F
100
AcDbEntity
  8
0
  6
Continuous
 62
     7
370
    15
100
AcDbLine
 10
743.3261436473186
 20
154.5378254681221
 30
0.0
 11
740.0361237179096
 21
152.6383306785814
 31
0.0
  0
LINE
  5
B7F0
330
1F
100
AcDbEntity
  8
0
  6
Continuous
 62
     7
370
    15
100
AcDbLine
 10
741.1089886974151
 20
158.3780549421302
 30
0.0
 11
743.3261436473186
 21
154.5378254681221
 31
0.0
  0
LINE
  5
B7F1
330
1F
100
AcDbEntity
  8
0
  6
Continuous
 62
     7
370
    15
100
AcDbLine
 10
740.159211034661
 20
152.1320460318915
 30
0.0
 11
743.5761441539581
 21
154.1048126249901
 31
0.0
  0
LINE
  5
B7F2
330
1F
100
AcDbEntity
  8
0
  6
Continuous
 62
     7
370
    15
100
AcDbLine
 10
743.3261436473186
 20
154.5378254681221
 30
0.0
 11
743.5761441539581
 21
154.1048126249901
 31
0.0
  0
CIRCLE
  5
B7F3
330
1F
100
AcDbEntity
  8
0
  6
Continuous
 62
     7
370
    15
100
AcDbCircle
 10
670.9191975997774
 20
125.4368174915138
 30
0.0
 40
3.199999999999995
  0
ARC
  5
B7F4
330
1F
100
AcDbEntity
  8
0
  6
Continuous
 62
     7
370
    15
100
AcDbCircle
 10
701.2307171772775
 20
142.9357254832378
 30
0.0
 40
40.00000000000004
100
AcDbArc
 50
202.0949687943959
 51
217.9013842694209
  0
CIRCLE
  5
B7F5
330
1F
100
AcDbEntity
  8
0
  6
Continuous
 62
     7
370
    15
100
AcDbCircle
 10
731.5409758253473
 20
125.4346334976759
 30
0.0
 40
3.199999999999999
  0
ARC
  5
B7F6
330
1F
100
AcDbEntity
  8
0
  6
Continuous
 62
     7
370
    15
100
AcDbCircle
 10
701.2307171772775
 20
142.9357254832378
 30
0.0
 40
40.00000000000001
100
AcDbArc
 50
322.0949687943975
 51
337.9013842694218
  0
LINE
  5
B7F7
330
1F
100
AcDbEntity
  8
0
  6
Continuous
 62
     7
370
    15
100
AcDbLine
 10
690.2307172368821
 20
100.6789641409508
 30
0.0
 11
690.2307172368821
 21
104.4779555826775
 31
0.0
  0
LINE
  5
B7F8
330
1F
100
AcDbEntity
  8
0
  6
Continuous
 62
     7
370
    15
100
AcDbLine
 10
689.7307171549257
 20
104.6245010524384
 30
0.0
 11
689.7307171549257
 21
100.6789641409508
 31
0.0
  0
LINE
  5
B7F9
330
1F
100
AcDbEntity
  8
0
  6
Continuous
 62
     7
370
    15
100
AcDbLine
 10
690.2307172368821
 20
100.6789641409508
 30
0.0
 11
689.7307171549257
 21
100.6789641409508
 31
0.0
  0
LINE
  5
B7FA
330
1F
100
AcDbEntity
  8
0
  6
Continuous
 62
     7
370
    15
100
AcDbLine
 10
712.7307171996292
 20
100.6789641409508
 30
0.0
 11
712.7307171996292
 21
104.6245010524384
 31
0.0
  0
LINE
  5
B7FB
330
1F
100
AcDbEntity
  8
0
  6
Continuous
 62
     7
370
    15
100
AcDbLine
 10
712.2307171176728
 20
104.4779555826775
 30
0.0
 11
712.2307171176728
 21
100.6789641409508
 31
0.0
  0
LINE
  5
B7FC
330
1F
100
AcDbEntity
  8
0
  6
Continuous
 62
     7
370
    15
100
AcDbLine
 10
712.7307171996292
 20
100.6789641409508
 30
0.0
 11
712.2307171176728
 21
100.6789641409508
 31
0.0
  0
LINE
  5
B7FD
330
1F
100
AcDbEntity
  8
0
  6
Continuous
 62
     7
370
    15
100
AcDbLine
 10
694.665031793302
 20
103.478259029924
 30
0.0
 11
694.665031793302
 21
100.6789641409508
 31
0.0
  0
LINE
  5
B7FE
330
1F
100
AcDbEntity
  8
0
  6
Continuous
 62
     7
370
    15
100
AcDbLine
 10
695.0185851256904
 20
100.6789641409508
 30
0.0
 11
694.665031793302
 21
100.6789641409508
 31
0.0
  0
LINE
  5
B7FF
330
1F
100
AcDbEntity
  8
0
  6
Continuous
 62
     7
370
    15
100
AcDbLine
 10
707.796402561253
 20
100.6789641409508
 30
0.0
 11
707.796402561253
 21
103.478259029924
 31
0.0
  0
LINE
  5
B800
330
1F
100
AcDbEntity
  8
0
  6
Continuous
 62
     7
370
    15
100
AcDbLine
 10
707.796402561253
 20
100.6789641409508
 30
0.0
 11
707.4428492288646
 21
100.6789641409508
 31
0.0
  0
LINE
  5
B801
330
1F
100
AcDbEntity
  8
0
  6
Continuous
 62
     7
370
    15
100
AcDbLine
 10
712.2307171176728
 20
100.6789641409508
 30
0.0
 11
707.796402561253
 21
100.6789641409508
 31
0.0
  0
LINE
  5
B802
330
1F
100
AcDbEntity
  8
0
  6
Continuous
 62
     7
370
    15
100
AcDbLine
 10
694.665031793302
 20
100.6789641409508
 30
0.0
 11
690.2307172368821
 21
100.6789641409508
 31
0.0
  0
ENDSEC
  0
SECTION
  2
OBJECTS
  0
DICTIONARY
  5
C
330
0
100
AcDbDictionary
281
     1
  3
ACAD_COLOR
350
BE
  3
ACAD_GROUP
350
D
  3
ACAD_LAYOUT
350
1A
  3
ACAD_MATERIAL
350
BD
  3
ACAD_MLINESTYLE
350
17
  3
ACAD_PLOTSETTINGS
350
19
  3
ACAD_PLOTSTYLENAME
350
E
  3
ACAD_TABLESTYLE
350
11A
  3
AcadDim
350
7BA5
  3
ACDBHEADERROUNDTRIPXREC
350
BC0D
  3
AcDbVariableDictionary
350
94
  3
AcmDictionary
350
5B
  3
AMG
350
41
  3
AMGSNAPSETTINGS
350
1B8
  3
ASE_INDEX_DICTIONARY
350
AFCA
  3
DWGPROPS
350
BC0C
  3
MAPISURF_MODULE
350
7C9D
  0
DICTIONARY
  5
3F9
330
2
100
AcDbDictionary
280
     1
281
     1
  3
ACAD_LAYERFILTERS
360
99D5
  3
ACAD_LAYERSTATES
360
CA0
  3
ACLYDICTIONARY
360
99D4
  3
AMLAYER_GROUPCOLORS
360
18A7
  0
DICTIONARY
  5
8F
330
1F
100
AcDbDictionary
280
     1
281
     1
  3
ACAD_INDEX
360
B065
  3
ACAD_SORTENTS
360
18D9
  0
DICTIONARY
  5
7CF3
330
7CF2
100
AcDbDictionary
280
     1
281
     1
  0
DICTIONARY
  5
A58B
330
A57E
100
AcDbDictionary
280
     1
281
     1
  3
ACAD_DIMASSOC
360
A58C
  0
DICTIONARY
  5
BE
102
{ACAD_REACTORS
330
C
102
}
330
C
100
AcDbDictionary
281
     1
  0
DICTIONARY
  5
D
102
{ACAD_REACTORS
330
C
102
}
330
C
100
AcDbDictionary
281
     1
  0
DICTIONARY
  5
1A
102
{ACAD_REACTORS
330
C
102
}
330
C
100
AcDbDictionary
281
     1
  3
Model
350
22
  3
配置1
350
1E
  3
配置2
350
26
  0
DICTIONARY
  5
BD
102
{ACAD_REACTORS
330
C
102
}
330
C
100
AcDbDictionary
281
     1
  0
DICTIONARY
  5
17
102
{ACAD_REACTORS
330
C
102
}
330
C
100
AcDbDictionary
281
     1
  3
Standard
350
18
  0
DICTIONARY
  5
19
102
{ACAD_REACTORS
330
C
102
}
330
C
100
AcDbDictionary
281
     1
  0
ACDBDICTIONARYWDFLT
  5
E
102
{ACAD_REACTORS
330
C
102
}
330
C
100
AcDbDictionary
281
     1
  3
Normal
350
F
100
AcDbDictionaryWithDefault
340
F
  0
DICTIONARY
  5
11A
102
{ACAD_REACTORS
330
C
102
}
330
C
100
AcDbDictionary
281
     1
  3
Standard
350
11B
  0
XRECORD
  5
7BA5
102
{ACAD_REACTORS
330
C
102
}
330
C
100
AcDbXrecord
280
     1
 90
   990106
  3

 60
     4
 61
     0
 62
     4
 63
     4
 64
     1
 65
     0
 66
     0
 67
     3
 68
     0
 69
     0
 70
     0
 71
     0
 72
     0
 40
0.0
170
     0
340
7BA1
  0
DICTIONARY
  5
BC0D
102
{ACAD_REACTORS
330
C
102
}
330
C
100
AcDbDictionary
281
     1
  0
DICTIONARY
  5
94
102
{ACAD_REACTORS
330
C
102
}
330
C
100
AcDbDictionary
281
     1
  3
CTABLESTYLE
350
138
  3
DIMASSOC
350
96
  3
INDEXCTL
350
95
  3
PROJECTNAME
350
1BA0
  0
DICTIONARY
  5
5B
102
{ACAD_REACTORS
330
C
102
}
330
C
100
AcDbDictionary
281
     1
  3
AcmBOM
350
1B5
  3
AcmStdDictionary
350
61
  3
AMDTSECTSYM_ARROWCOLOR
350
123
  0
DICTIONARY
  5
41
102
{ACAD_REACTORS
330
C
102
}
330
C
100
AcDbDictionary
281
     1
  3
AcMgSettings
350
7C17
  0
DICTIONARY
  5
1B8
102
{ACAD_REACTORS
330
C
102
}
330
C
100
AcDbDictionary
281
     1
  0
DICTIONARY
  5
AFCA
102
{ACAD_REACTORS
330
C
102
}
330
C
100
AcDbDictionary
281
     1
  3
ASEBlockHierarchyIndexRecord
350
AFCB
1001
DCO15
1040
1757072963.14
  0
XRECORD
  5
BC0C
102
{ACAD_REACTORS
330
C
102
}
330
C
100
AcDbXrecord
280
     1
  1
DWGPROPS COOKIE
  2

  3

  4

  6

  7

  8

  9

300
AmdtFileType=84
301
=
302
=
303
=
304
=
305
=
306
=
307
=
308
=
309
=
 40
1.112390081018518
 41
2454422.344345151
 42
2456140.359271736
  1

 90
        1
  0
DICTIONARY
  5
99D5
102
{ACAD_REACTORS
330
3F9
102
}
330
3F9
100
AcDbDictionary
281
     1
  0
DICTIONARY
  5
CA0
102
{ACAD_REACTORS
330
3F9
102
}
330
3F9
100
AcDbDictionary
281
     1
  0
DICTIONARY
  5
99D4
102
{ACAD_REACTORS
330
3F9
102
}
330
3F9
100
AcDbDictionary
281
     1
1001
ACAD
1000
<All
  0
DICTIONARY
  5
18A7
102
{ACAD_REACTORS
330
3F9
102
}
330
3F9
100
AcDbDictionary
280
     1
281
     1
  0
DICTIONARY
  5
B065
102
{ACAD_REACTORS
330
8F
102
}
330
8F
100
AcDbDictionary
281
     1
  3
*A1
350
B066
  0
SORTENTSTABLE
  5
18D9
102
{ACAD_REACTORS
330
8F
102
}
330
8F
100
AcDbSortentsTable
330
1F
331
15F9
  5
15F9
331
15DB
  5
15DB
331
15BD
  5
15BD
331
159F
  5
159F
331
7BA1
  5
7BA1
331
15E5
  5
15E5
331
15AA
  5
15AA
331
15C8
  5
15C8
331
15D2
  5
15D2
331
15B4
  5
15B4
331
15F0
  5
15F0
331
15FA
  5
15FA
331
15DC
  5
15DC
331
15BE
  5
15BE
331
15A0
  5
15A0
331
15E6
  5
15E6
331
15AB
  5
15AB
331
15F1
  5
15F1
331
15FB
  5
15FB
331
15DD
  5
15DD
331
15BF
  5
15BF
331
15A1
  5
15A1
331
15E7
  5
15E7
331
15AC
  5
15AC
331
15E8
  5
15E8
331
15F2
  5
15F2
331
15DE
  5
15DE
331
15C0
  5
15C0
331
15A2
  5
15A2
331
15E9
  5
15E9
331
15AD
  5
15AD
331
15F3
  5
15F3
331
1599
  5
1599
331
15DF
  5
15DF
331
15A3
  5
15A3
331
15C1
  5
15C1
331
15EA
  5
15EA
331
15CC
  5
15CC
331
15AE
  5
15AE
331
15F4
  5
15F4
331
15D6
  5
15D6
331
15B8
  5
15B8
331
159A
  5
159A
331
15C2
  5
15C2
331
15A4
  5
15A4
331
15E0
  5
15E0
331
15EB
  5
15EB
331
15AF
  5
15AF
331
15F5
  5
15F5
331
15D7
  5
15D7
331
159B
  5
159B
331
15B9
  5
15B9
331
15C3
  5
15C3
331
15A5
  5
15A5
331
15E1
  5
15E1
331
15EC
  5
15EC
331
15B0
  5
15B0
331
15F6
  5
15F6
331
159C
  5
159C
331
15D8
  5
15D8
331
15E2
  5
15E2
331
15C4
  5
15C4
331
15A6
  5
15A6
331
15ED
  5
15ED
331
15F7
  5
15F7
331
159D
  5
159D
331
15D9
  5
15D9
331
15E3
  5
15E3
331
15A7
  5
15A7
331
15A8
  5
15A8
331
15EE
  5
15EE
331
15D0
  5
15D0
331
15DA
  5
15DA
331
159E
  5
159E
331
15F8
  5
15F8
331
15E4
  5
15E4
331
15A9
  5
15A9
331
15D1
  5
15D1
  0
DIMASSOC
  5
A58C
102
{ACAD_REACTORS
330
A58B
102
}
330
A58B
100
AcDbDimAssoc
330
A57E
 90
        1
 70
     0
 71
     0
  1
AcDbOsnapPointRef
 72
     1
331
99DA
 73
     0
 91
        0
 40
0.0
 10
0.0
 20
0.0
 30
2.000000000000000E+50
 75
     0
  0
LAYOUT
  5
22
102
{ACAD_XDICTIONARY
360
BC10
102
}
102
{ACAD_REACTORS
330
1A
102
}
330
1A
100
AcDbPlotSettings
  1

  2
\\RD\EPSON Stylus C63 Series單色
  4
A4
  6

 40
3.757083177566528
 41
3.757076978683471
 42
3.757080078125
 43
3.757080078125
 44
209.9733276367187
 45
296.9683227539062
 46
0.0
 47
0.0
 48
0.0
 49
0.0
140
0.0
141
0.0
142
1.0
143
0.3405120737814363
 70
 11952
 72
     1
 73
     0
 74
     0
  7
acad.ctb
 75
     0
147
2.936753428137963
148
-2047.07469463503
149
-1261.649717473083
100
AcDbLayout
  1
Model
 70
     1
 71
     0
 10
0.0
 20
0.0
 11
12.0
 21
9.0
 12
0.0
 22
0.0
 32
0.0
 14
0.0
 24
0.0
 34
0.0
 15
0.0
 25
0.0
 35
0.0
146
0.0
 13
0.0
 23
0.0
 33
0.0
 16
1.0
 26
0.0
 36
0.0
 17
0.0
 27
1.0
 37
0.0
 76
     0
330
1F
1001
ACAD_PSEXT
1000
\\RD\EPSON Stylus C63 Series單色
1000
EPSON Stylus C63 Series
1000
\\RD
1000

1070
     0
  0
LAYOUT
  5
1E
102
{ACAD_XDICTIONARY
360
BC0E
102
}
102
{ACAD_REACTORS
330
1A
102
}
330
1A
100
AcDbPlotSettings
  1

  2

  4

  6

 40
0.0
 41
0.0
 42
0.0
 43
0.0
 44
0.0
 45
0.0
 46
0.0
 47
0.0
 48
0.0
 49
0.0
140
0.0
141
0.0
142
1.0
143
1.0
 70
   688
 72
     0
 73
     0
 74
     5
  7
acad.ctb
 75
    16
147
1.0
148
0.0
149
0.0
100
AcDbLayout
  1
配置1
 70
     1
 71
     1
 10
0.0
 20
0.0
 11
420.0
 21
297.0
 12
0.0
 22
0.0
 32
0.0
 14
1.000000000000000E+20
 24
1.000000000000000E+20
 34
1.000000000000000E+20
 15
-1.000000000000000E+20
 25
-1.000000000000000E+20
 35
-1.000000000000000E+20
146
0.0
 13
0.0
 23
0.0
 33
0.0
 16
1.0
 26
0.0
 36
0.0
 17
0.0
 27
1.0
 37
0.0
 76
     0
330
1B
  0
LAYOUT
  5
26
102
{ACAD_XDICTIONARY
360
BC12
102
}
102
{ACAD_REACTORS
330
1A
102
}
330
1A
100
AcDbPlotSettings
  1

  2

  4

  6

 40
0.0
 41
0.0
 42
0.0
 43
0.0
 44
0.0
 45
0.0
 46
0.0
 47
0.0
 48
0.0
 49
0.0
140
0.0
141
0.0
142
1.0
143
1.0
 70
   688
 72
     0
 73
     0
 74
     5
  7
acad.ctb
 75
    16
147
1.0
148
0.0
149
0.0
100
AcDbLayout
  1
配置2
 70
     1
 71
     2
 10
0.0
 20
0.0
 11
12.0
 21
9.0
 12
0.0
 22
0.0
 32
0.0
 14
0.0
 24
0.0
 34
0.0
 15
0.0
 25
0.0
 35
0.0
146
0.0
 13
0.0
 23
0.0
 33
0.0
 16
1.0
 26
0.0
 36
0.0
 17
0.0
 27
1.0
 37
0.0
 76
     0
330
23
  0
MLINESTYLE
  5
18
102
{ACAD_REACTORS
330
17
102
}
330
17
100
AcDbMlineStyle
  2
STANDARD
 70
     0
  3

 62
   256
 51
90.0
 52
90.0
 71
     2
 49
0.5
 62
   256
  6
BYLAYER
 49
-0.5
 62
   256
  6
BYLAYER
  0
ACDBPLACEHOLDER
  5
F
102
{ACAD_REACTORS
330
E
102
}
330
E
  0
TABLESTYLE
  5
11B
102
{ACAD_REACTORS
330
11A
102
}
330
11A
100
AcDbTableStyle
  3
Standard
 70
     0
 71
     0
 40
1.5
 41
1.5
280
     0
281
     0
  7
STANDARD
140
4.5
170
     2
 62
     0
 63
     7
283
     0
274
    -2
284
     1
 64
     0
275
    -2
285
     1
 65
     0
276
    -2
286
     1
 66
     0
277
    -2
287
     1
 67
     0
278
    -2
288
     1
 68
     0
279
    -2
289
     1
 69
     0
  7
STANDARD
140
6.0
170
     5
 62
     0
 63
     7
283
     0
274
    -2
284
     1
 64
     0
275
    -2
285
     1
 65
     0
276
    -2
286
     1
 66
     0
277
    -2
287
     1
 67
     0
278
    -2
288
     1
 68
     0
279
    -2
289
     1
 69
     0
  7
STANDARD
140
4.5
170
     5
 62
     0
 63
     7
283
     0
274
    -2
284
     1
 64
     0
275
    -2
285
     1
 65
     0
276
    -2
286
     1
 66
     0
277
    -2
287
     1
 67
     0
278
    -2
288
     1
 68
     0
279
    -2
289
     1
 69
     0
  0
DICTIONARYVAR
  5
138
102
{ACAD_REACTORS
330
94
102
}
330
94
100
DictionaryVariables
280
     0
  1
STANDARD
  0
DICTIONARYVAR
  5
96
102
{ACAD_REACTORS
330
94
102
}
330
94
100
DictionaryVariables
280
     0
  1
2
  0
DICTIONARYVAR
  5
95
102
{ACAD_REACTORS
330
94
102
}
330
94
100
DictionaryVariables
280
     0
  1
1
  0
DICTIONARYVAR
  5
1BA0
102
{ACAD_REACTORS
330
94
102
}
330
94
100
DictionaryVariables
280
     0
  1

  0
DICTIONARY
  5
1B5
102
{ACAD_REACTORS
330
5B
102
}
330
5B
100
AcDbDictionary
281
     1
  0
DICTIONARY
  5
61
102
{ACAD_REACTORS
330
5B
102
}
330
5B
100
AcDbDictionary
281
     1
  0
XRECORD
  5
123
102
{ACAD_REACTORS
330
5B
102
}
330
5B
100
AcDbXrecord
280
     1
 90
-1023410169
  0
DICTIONARY
  5
7C17
102
{ACAD_REACTORS
330
41
102
}
330
41
100
AcDbDictionary
281
     1
  3
DWGSETTINGS
350
7C18
  3
Shaft
350
8D15
  3
TRANSSETTINGS
350
7C1B
  0
XRECORD
  5
AFCB
102
{ACAD_REACTORS
330
AFCA
102
}
330
AFCA
100
AcDbXrecord
280
     1
330
0
330
0
330
0
330
0
330
0
330
0
330
0
330
0
330
0
330
0
330
0
330
0
330
0
330
0
330
0
330
0
330
0
330
0
330
0
330
0
330
0
330
0
330
0
330
0
330
0
330
0
330
0
330
0
330
0
330
0
  0
LAYER_INDEX
  5
B066
102
{ACAD_REACTORS
330
B065
102
}
330
B065
100
AcDbIndex
 40
2456140.359271736
100
AcDbLayerIndex
  8
0
360
B067
 90
      423
  8
Defpoints
360
B068
 90
        0
  8
AM_5
360
B069
 90
        0
  8
AM_4
360
B06A
 90
        0
  8
AM_VIS
360
B06B
 90
        1
  8
AM_HID
360
B06C
 90
        0
  8
AM_7
360
B06D
 90
        2
  8
LOGO
360
B06E
 90
       90
  8
AM_REFDIM
360
B06F
 90
       15
  8
CEN
360
B070
 90
        0
  8
HATCH
360
B071
 90
        0
  8
SL
360
B072
 90
        0
  8
AM_10
360
B073
 90
        0
  0
DICTIONARY
  5
BC10
330
22
100
AcDbDictionary
280
     1
281
     1
  3
ACAD_XREC_ROUNDTRIP
360
BC11
  0
DICTIONARY
  5
BC0E
330
1E
100
AcDbDictionary
280
     1
281
     1
  3
ACAD_XREC_ROUNDTRIP
360
BC0F
  0
DICTIONARY
  5
BC12
330
26
100
AcDbDictionary
280
     1
281
     1
  3
ACAD_XREC_ROUNDTRIP
360
BC13
  0
IDBUFFER
  5
B067
330
0
100
AcDbIdBuffer
330
16B4
330
16B5
330
16B6
330
B603
330
B604
330
B605
330
B606
330
B607
330
B608
330
B609
330
B60A
330
B60B
330
B60C
330
B60D
330
B60E
330
B60F
330
B610
330
B611
330
B612
330
B613
330
B614
330
B615
330
B616
330
B617
330
B618
330
B619
330
B61A
330
B61B
330
B61C
330
B61D
330
B61E
330
B61F
330
B620
330
B621
330
B622
330
B623
330
B624
330
B625
330
B626
330
B627
330
B628
330
B629
330
B62A
330
B62B
330
B62C
330
B62D
330
B62E
330
B62F
330
B630
330
B631
330
B632
330
B633
330
B634
330
B635
330
B636
330
B637
330
B638
330
B639
330
B63A
330
B63B
330
B63C
330
B63D
330
B63E
330
B63F
330
B640
330
B641
330
B642
330
B643
330
B644
330
B645
330
B646
330
B647
330
B648
330
B649
330
B64A
330
B64B
330
B64C
330
B64D
330
B64E
330
B64F
330
B650
330
B651
330
B652
330
B653
330
B654
330
B655
330
B656
330
B657
330
B658
330
B659
330
B65A
330
B65B
330
B65C
330
B65D
330
B65E
330
B65F
330
B660
330
B661
330
B662
330
B663
330
B664
330
B665
330
B666
330
B667
330
B668
330
B669
330
B66A
330
B66B
330
B66C
330
B66D
330
B66E
330
B66F
330
B670
330
B671
330
B672
330
B673
330
B674
330
B675
330
B676
330
B677
330
B678
330
B679
330
B67A
330
B67B
330
B67C
330
B67D
330
B67E
330
B67F
330
B680
330
B681
330
B682
330
B683
330
B684
330
B685
330
B686
330
B687
330
B688
330
B689
330
B68A
330
B68B
330
B68C
330
B68D
330
B68E
330
B68F
330
B690
330
B691
330
B692
330
B693
330
B694
330
B695
330
B696
330
B697
330
B698
330
B699
330
B69A
330
B69B
330
B69C
330
B69D
330
B69E
330
B69F
330
B6A0
330
B6A1
330
B6A2
330
B6A3
330
B6A4
330
B6A5
330
B6A6
330
B6A7
330
B6A8
330
B6A9
330
B6AA
330
B6AB
330
B6AC
330
B6AD
330
B6AE
330
B6AF
330
B6B0
330
B6B1
330
B6B2
330
B6B3
330
B6B4
330
B6B5
330
B6B6
330
B6B7
330
B6B8
330
B6B9
330
B6BA
330
B6BB
330
B6BC
330
B6BD
330
B71A
330
B71B
330
B71C
330
B71D
330
B71E
330
B71F
330
B720
330
B721
330
B722
330
B723
330
B724
330
B725
330
B726
330
B727
330
B728
330
B729
330
B72A
330
B72B
330
B72C
330
B72D
330
B72E
330
B72F
330
B730
330
B731
330
B732
330
B733
330
B734
330
B735
330
B736
330
B737
330
B738
330
B739
330
B73A
330
B73B
330
B73C
330
B73D
330
B73E
330
B73F
330
B740
330
B741
330
B742
330
B743
330
B744
330
B745
330
B746
330
B747
330
B748
330
B749
330
B74A
330
B74B
330
B74C
330
B74D
330
B74E
330
B74F
330
B750
330
B751
330
B752
330
B753
330
B754
330
B755
330
B756
330
B757
330
B758
330
B759
330
B75A
330
B75B
330
B75C
330
B75D
330
B75E
330
B75F
330
B760
330
B761
330
B762
330
B763
330
B764
330
B765
330
B766
330
B767
330
B768
330
B769
330
B76A
330
B76B
330
B76C
330
B76D
330
B76E
330
B76F
330
B770
330
B771
330
B772
330
B773
330
B774
330
B775
330
B776
330
B777
330
B778
330
B779
330
B77A
330
B77B
330
B77C
330
B77D
330
B77E
330
B77F
330
B780
330
B781
330
B782
330
B783
330
B784
330
B785
330
B786
330
B787
330
B788
330
B789
330
B78A
330
B78B
330
B78C
330
B78D
330
B78E
330
B78F
330
B790
330
B791
330
B792
330
B793
330
B794
330
B795
330
B796
330
B797
330
B798
330
B799
330
B79A
330
B79B
330
B79C
330
B79D
330
B79E
330
B79F
330
B7A0
330
B7A1
330
B7A2
330
B7A3
330
B7A4
330
B7A5
330
B7A6
330
B7A7
330
B7A8
330
B7A9
330
B7AA
330
B7AB
330
B7AC
330
B7AD
330
B7AE
330
B7AF
330
B7B0
330
B7B1
330
B7B2
330
B7B3
330
B7B4
330
B7B5
330
B7B6
330
B7B7
330
B7B8
330
B7B9
330
B7BA
330
B7BB
330
B7BC
330
B7BD
330
B7BE
330
B7BF
330
B7C0
330
B7C1
330
B7C2
330
B7C3
330
B7C4
330
B7C5
330
B7C6
330
B7C7
330
B7C8
330
B7C9
330
B7CA
330
B7CB
330
B7CC
330
B7CD
330
B7CE
330
B7CF
330
B7D0
330
B7D1
330
B7D2
330
B7D3
330
B7D4
330
B7D5
330
B7D6
330
B7D7
330
B7D8
330
B7D9
330
B7DA
330
B7DB
330
B7DC
330
B7DD
330
B7DE
330
B7DF
330
B7E0
330
B7E1
330
B7E2
330
B7E3
330
B7E4
330
B7E5
330
B7E6
330
B7E7
330
B7E8
330
B7E9
330
B7EA
330
B7EB
330
B7EC
330
B7ED
330
B7EE
330
B7EF
330
B7F0
330
B7F1
330
B7F2
330
B7F3
330
B7F4
330
B7F5
330
B7F6
330
B7F7
330
B7F8
330
B7F9
330
B7FA
330
B7FB
330
B7FC
330
B7FD
330
B7FE
330
B7FF
330
B800
330
B801
330
B802
  0
IDBUFFER
  5
B068
330
0
100
AcDbIdBuffer
  0
IDBUFFER
  5
B069
330
0
100
AcDbIdBuffer
  0
IDBUFFER
  5
B06A
330
0
100
AcDbIdBuffer
  0
IDBUFFER
  5
B06B
330
0
100
AcDbIdBuffer
330
7BA1
  0
IDBUFFER
  5
B06C
330
0
100
AcDbIdBuffer
  0
IDBUFFER
  5
B06D
330
0
100
AcDbIdBuffer
330
99DA
330
99DB
  0
IDBUFFER
  5
B06E
330
0
100
AcDbIdBuffer
330
1599
330
159A
330
159B
330
159C
330
159D
330
159E
330
159F
330
15A0
330
15A1
330
15A2
330
15A3
330
15A4
330
15A5
330
15A6
330
15A7
330
15A8
330
15A9
330
15AA
330
15AB
330
15AC
330
15AD
330
15AE
330
15AF
330
15B0
330
15B4
330
15B8
330
15B9
330
15BD
330
15BE
330
15BF
330
15C0
330
15C1
330
15C2
330
15C3
330
15C4
330
15C8
330
15CC
330
15D0
330
15D1
330
15D2
330
15D6
330
15D7
330
15D8
330
15D9
330
15DA
330
15DB
330
15DC
330
15DD
330
15DE
330
15DF
330
15E0
330
15E1
330
15E2
330
15E3
330
15E4
330
15E5
330
15E6
330
15E7
330
15E8
330
15E9
330
15EA
330
15EB
330
15EC
330
15ED
330
15EE
330
15F0
330
15F1
330
15F2
330
15F3
330
15F4
330
15F5
330
15F6
330
15F7
330
15F8
330
15F9
330
15FA
330
15FB
330
9C94
330
9C95
330
9C96
330
9C97
330
9C98
330
9C99
330
9C9A
330
9C9B
330
9C9C
330
9C9E
330
9C9F
330
9CA0
330
9CA2
  0
IDBUFFER
  5
B06F
330
0
100
AcDbIdBuffer
330
A516
330
A540
330
A57E
330
A622
330
A67B
330
A6A1
330
A724
330
A77B
330
A7A5
330
A7CB
330
A889
330
A88C
330
A890
330
A895
330
B250
  0
IDBUFFER
  5
B070
330
0
100
AcDbIdBuffer
  0
IDBUFFER
  5
B071
330
0
100
AcDbIdBuffer
  0
IDBUFFER
  5
B072
330
0
100
AcDbIdBuffer
  0
IDBUFFER
  5
B073
330
0
100
AcDbIdBuffer
  0
XRECORD
  5
BC11
102
{ACAD_REACTORS
330
BC10
102
}
330
BC10
100
AcDbXrecord
280
     1
102
SHADEPLOT
 70
     0
102
SHADEPLOTRESLEVEL
 70
     2
102
SHADEPLOTCUSTOMDPI
 70
   300
  0
XRECORD
  5
BC0F
102
{ACAD_REACTORS
330
BC0E
102
}
330
BC0E
100
AcDbXrecord
280
     1
102
SHADEPLOT
 70
     0
102
SHADEPLOTRESLEVEL
 70
     2
102
SHADEPLOTCUSTOMDPI
 70
   300
  0
XRECORD
  5
BC13
102
{ACAD_REACTORS
330
BC12
102
}
330
BC12
100
AcDbXrecord
280
     1
102
SHADEPLOT
 70
     0
102
SHADEPLOTRESLEVEL
 70
     2
102
SHADEPLOTCUSTOMDPI
 70
   300
  0
ENDSEC
  0
EOF
