  0
SECTION
  2
HEADER
  9
$ACADVER
  1
AC1012
  9
$DWGCODEPAGE
  3
big5
  9
$INSBASE
 10
0.0
 20
0.0
 30
0.0
  9
$EXTMIN
 10
0.2401892904194938
 20
-0.0064082542231745
 30
-0.0062455339413532
  9
$EXTMAX
 10
247.1132818834312
 20
208.8208012685309
 30
204.6755174633139
  9
$LIMMIN
 10
0.0
 20
0.0
  9
$LIMMAX
 10
297.0
 20
210.0
  9
$ORTHOMODE
 70
     0
  9
$REGENMODE
 70
     1
  9
$FILLMODE
 70
     1
  9
$QTEXTMODE
 70
     0
  9
$MIRRTEXT
 70
     1
  9
$DRAGMODE
 70
     2
  9
$LTSCALE
 40
15.0
  9
$OSMODE
 70
    55
  9
$ATTMODE
 70
     1
  9
$TEXTSIZE
 40
3.0
  9
$TRACEWID
 40
0.05
  9
$TEXTSTYLE
  7
CHINA
  9
$CLAYER
  8
5
  9
$CELTYPE
  6
BYLAYER
  9
$CECOLOR
 62
   256
  9
$CELTSCALE
 40
1.0
  9
$DELOBJ
 70
     1
  9
$DISPSILH
 70
     0
  9
$DIMSCALE
 40
1.0
  9
$DIMASZ
 40
3.0
  9
$DIMEXO
 40
1.5
  9
$DIMDLI
 40
7.0
  9
$DIMRND
 40
0.0
  9
$DIMDLE
 40
0.0
  9
$DIMEXE
 40
1.5
  9
$DIMTP
 40
0.0
  9
$DIMTM
 40
0.0
  9
$DIMTXT
 40
3.0
  9
$DIMCEN
 40
0.0
  9
$DIMTSZ
 40
0.0
  9
$DIMTOL
 70
     0
  9
$DIMLIM
 70
     0
  9
$DIMTIH
 70
     0
  9
$DIMTOH
 70
     0
  9
$DIMSE1
 70
     0
  9
$DIMSE2
 70
     0
  9
$DIMTAD
 70
     1
  9
$DIMZIN
 70
     8
  9
$DIMBLK
  1

  9
$DIMASO
 70
     1
  9
$DIMSHO
 70
     1
  9
$DIMPOST
  1

  9
$DIMAPOST
  1

  9
$DIMALT
 70
     0
  9
$DIMALTD
 70
     2
  9
$DIMALTF
 40
25.4
  9
$DIMLFAC
 40
1.0
  9
$DIMTOFL
 70
     0
  9
$DIMTVP
 40
0.0
  9
$DIMTIX
 70
     0
  9
$DIMSOXD
 70
     0
  9
$DIMSAH
 70
     0
  9
$DIMBLK1
  1

  9
$DIMBLK2
  1

  9
$DIMSTYLE
  2
STANDARD
  9
$DIMCLRD
 70
   256
  9
$DIMCLRE
 70
   256
  9
$DIMCLRT
 70
   256
  9
$DIMTFAC
 40
1.0
  9
$DIMGAP
 40
1.0
  9
$DIMJUST
 70
     0
  9
$DIMSD1
 70
     0
  9
$DIMSD2
 70
     0
  9
$DIMTOLJ
 70
     1
  9
$DIMTZIN
 70
     0
  9
$DIMALTZ
 70
     0
  9
$DIMALTTZ
 70
     0
  9
$DIMFIT
 70
     3
  9
$DIMUPT
 70
     0
  9
$DIMUNIT
 70
     2
  9
$DIMDEC
 70
     2
  9
$DIMTDEC
 70
     2
  9
$DIMALTU
 70
     2
  9
$DIMALTTD
 70
     2
  9
$DIMTXSTY
  7
CHINESET
  9
$DIMAUNIT
 70
     0
  9
$LUNITS
 70
     2
  9
$LUPREC
 70
     2
  9
$SKETCHINC
 40
0.1
  9
$FILLETRAD
 40
0.0
  9
$AUNITS
 70
     0
  9
$AUPREC
 70
     0
  9
$MENU
  1
acad
  9
$ELEVATION
 40
0.0
  9
$PELEVATION
 40
0.0
  9
$THICKNESS
 40
0.0
  9
$LIMCHECK
 70
     0
  9
$BLIPMODE
 70
     0
  9
$CHAMFERA
 40
1.0
  9
$CHAMFERB
 40
1.0
  9
$CHAMFERC
 40
0.0
  9
$CHAMFERD
 40
0.0
  9
$SKPOLY
 70
     0
  9
$TDCREATE
 40
2451065.544991782
  9
$TDUPDATE
 40
2452752.440822662
  9
$TDINDWG
 40
0.1856800579
  9
$TDUSRTIMER
 40
0.1856800579
  9
$USRTIMER
 70
     1
  9
$ANGBASE
 50
0.0
  9
$ANGDIR
 70
     0
  9
$PDMODE
 70
     0
  9
$PDSIZE
 40
0.0
  9
$PLINEWID
 40
0.0
  9
$COORDS
 70
     0
  9
$SPLFRAME
 70
     0
  9
$SPLINETYPE
 70
     6
  9
$SPLINESEGS
 70
     8
  9
$ATTDIA
 70
     1
  9
$ATTREQ
 70
     1
  9
$HANDLING
 70
 22529
  9
$HANDSEED
  5
7C9
  9
$SURFTAB1
 70
     6
  9
$SURFTAB2
 70
     6
  9
$SURFTYPE
 70
     6
  9
$SURFU
 70
     6
  9
$SURFV
 70
     6
  9
$UCSNAME
  2

  9
$UCSORG
 10
0.0
 20
0.0
 30
0.0
  9
$UCSXDIR
 10
1.0
 20
0.0
 30
0.0
  9
$UCSYDIR
 10
0.0
 20
1.0
 30
0.0
  9
$PUCSNAME
  2

  9
$PUCSORG
 10
0.0
 20
0.0
 30
0.0
  9
$PUCSXDIR
 10
1.0
 20
0.0
 30
0.0
  9
$PUCSYDIR
 10
0.0
 20
1.0
 30
0.0
  9
$USERI1
 70
     0
  9
$USERI2
 70
     0
  9
$USERI3
 70
     0
  9
$USERI4
 70
     0
  9
$USERI5
 70
     0
  9
$USERR1
 40
0.0
  9
$USERR2
 40
0.0
  9
$USERR3
 40
0.0
  9
$USERR4
 40
0.0
  9
$USERR5
 40
0.0
  9
$WORLDVIEW
 70
     1
  9
$SHADEDGE
 70
     3
  9
$SHADEDIF
 70
    70
  9
$TILEMODE
 70
     1
  9
$MAXACTVP
 70
    16
  9
$PINSBASE
 10
0.0
 20
0.0
 30
0.0
  9
$PLIMCHECK
 70
     0
  9
$PEXTMIN
 10
1.000000000000000E+20
 20
1.000000000000000E+20
 30
1.000000000000000E+20
  9
$PEXTMAX
 10
-1.000000000000000E+20
 20
-1.000000000000000E+20
 30
-1.000000000000000E+20
  9
$PLIMMIN
 10
0.0
 20
0.0
  9
$PLIMMAX
 10
12.0
 20
9.0
  9
$UNITMODE
 70
     0
  9
$VISRETAIN
 70
     0
  9
$PLINEGEN
 70
     0
  9
$PSLTSCALE
 70
     1
  9
$TREEDEPTH
 70
  3020
  9
$PICKSTYLE
 70
     0
  9
$CMLSTYLE
  2
STANDARD
  9
$CMLJUST
 70
     0
  9
$CMLSCALE
 40
1.0
  9
$SAVEIMAGES
 70
     1
  0
ENDSEC
  0
SECTION
  2
CLASSES
  0
CLASS
  1
DICTIONARYVAR
  2
AcDbDictionaryVar
  3
AutoCAD 2000
 90
    32768
280
     0
281
     0
  0
CLASS
  1
LWPOLYLINE
  2
AcDbPolyline
  3
AutoCAD 2000
 90
    32768
280
     0
281
     1
  0
CLASS
  1
ACDBDICTIONARYWDFLT
  2
AcDbDictionaryWithDefault
  3
AutoCAD 2000
 90
    32768
280
     0
281
     0
  0
CLASS
  1
ACDBPLACEHOLDER
  2
AcDbPlaceHolder
  3
AutoCAD 2000
 90
    32768
280
     0
281
     0
  0
CLASS
  1
LAYOUT
  2
AcDbLayout
  3
AutoCAD 2000
 90
    32768
280
     0
281
     0
  0
CLASS
  1
LONG_TRANSACTION
  2
AcDbLongTransaction
  3
AutoCAD 2000
 90
    32768
280
     0
281
     0
  0
CLASS
  1
LWPOLYLINE
  2
AcDbPolyline
  3
AutoCAD 2000
 90
    32768
280
     0
281
     1
  0
CLASS
  1
HATCH
  2
AcDbHatch
  3
AutoCAD 2000
 90
    32768
280
     0
281
     1
  0
CLASS
  1
XRECORD
  2
AcDbXrecord
  3
AutoCAD 2000
 90
    32768
280
     0
281
     0
  0
CLASS
  1
ACME_DOCUMENT
  2
AcMeDbDoc
  3
AcMeServices
 90
    32768
280
     0
281
     0
  0
CLASS
  1
AMGSETTINGSOBJ
  2
AmgSettingsObj
  3
"AcadM|Product Description: AutoCAD Mechanical 2000|Company: Autodesk"
 90
    32768
280
     0
281
     0
  0
CLASS
  1
ACMESCOPE
  2
AcMeScope
  3
AcMeServices
 90
    32768
280
     0
281
     0
  0
CLASS
  1
ACMECOMMANDHISTORY
  2
AcMeCommandHistory
  3
AcMeServices
 90
    32768
280
     0
281
     0
  0
CLASS
  1
ACIMSYSVARMAN
  2
AcImSysVarManager
  3
AcMeServices
 90
    32768
280
     0
281
     0
  0
CLASS
  1
ACIMREALSYSVAR
  2
AcImRealSysVar
  3
AcMeServices
 90
    32768
280
     0
281
     0
  0
CLASS
  1
ACIMINTSYSVAR
  2
AcImIntSysVar
  3
AcMeServices
 90
    32768
280
     0
281
     0
  0
CLASS
  1
ACMEDRAWINGMAN
  2
AcMeDrawingMan
  3
AcMeServices
 90
    32768
280
     0
281
     0
  0
CLASS
  1
ACMEVIEW
  2
AcMeView
  3
AcMeServices
 90
    32768
280
     0
281
     0
  0
CLASS
  1
ACDBENTITYCACHE
  2
AcMeEntityCache
  3
AcMeServices
 90
    32768
280
     0
281
     0
  0
CLASS
  1
GSMANAGER
  2
AcMeGSManager
  3
AcMeServices
 90
    32768
280
     0
281
     0
  0
CLASS
  1
AMDTINTERNALREACTOR
  2
AmdtInternalReactor
  3
AcMeServices
 90
    32768
280
     0
281
     0
  0
CLASS
  1
ACMESTATEMGR
  2
AcMeStateMgr
  3
AcMeServices
 90
    32768
280
     0
281
     0
  0
CLASS
  1
ACGREFMASTER
  2
AcGrefMaster
  3
AcAttribServices
 90
    32768
280
     0
281
     0
  0
CLASS
  1
ACME_DATABASE
  2
AcMeDbDatabase
  3
AcMeServices
 90
    32768
280
     0
281
     0
  0
CLASS
  1
ACRFINSADJUSTERMGR
  2
AcRfInsAdjusterMgr
  3
AcMeServices
 90
    32768
280
     0
281
     0
  0
CLASS
  1
ACGREFACADMASTER
  2
AcGrefacadMaster
  3
AcGrefServices
 90
    32768
280
     0
281
     0
  0
CLASS
  1
AMIMASTER
  2
AmiMaster
  3
AmiServices
 90
    32768
280
     0
281
     0
  0
CLASS
  1
ACMDATADICTIONARY
  2
AcmDataDictionary
  3
"AcmSymBB|Product Description: AutoCAD Mechanical 2000|Company: Autodesk"
 90
    32768
280
     0
281
     0
  0
CLASS
  1
ACMDATAENTRYBLOCK
  2
AcmDataEntryBlock
  3
"AcmSymBB|Product Description: AutoCAD Mechanical 2000|Company: Autodesk"
 90
    32768
280
     0
281
     0
  0
CLASS
  1
ACIMSTRSYSVAR
  2
AcImStrSysVar
  3
AcMeServices
 90
    32768
280
     0
281
     0
  0
CLASS
  1
ACMSTANDARDANSI
  2
AcmStandardANSI
  3
"Amdt_StdImp|Product Description: AutoCAD Mechanical 2000|Company: Autodesk"
 90
    32768
280
     0
281
     0
  0
CLASS
  1
AMGOBJPROPCFG
  2
AmgObjPropCfg
  3
"AmgLay|Product Description: AutoCAD Mechanical 2000|Company: Autodesk"
 90
    32769
280
     0
281
     0
  0
CLASS
  1
ACMSURFSTANDARDANSI
  2
AcmSurfTextStdANSI
  3
"Amdt_StdImp|Product Description: AutoCAD Mechanical 2000|Company: Autodesk"
 90
    32768
280
     0
281
     0
  0
CLASS
  1
ACMFCFSTANDARDANSI
  2
AcmFCFStdANSI
  3
"Amdt_StdImp|Product Description: AutoCAD Mechanical 2000|Company: Autodesk"
 90
    32768
280
     0
281
     0
  0
CLASS
  1
ACMWELDSTANDARDANSI
  2
AcmWeldingStdANSI
  3
"Amdt_StdImp|Product Description: AutoCAD Mechanical 2000|Company: Autodesk"
 90
    32768
280
     0
281
     0
  0
CLASS
  1
ACMIDSTANDARDANSI
  2
AcmIdStdANSI
  3
"Amdt_StdImp|Product Description: AutoCAD Mechanical 2000|Company: Autodesk"
 90
    32768
280
     0
281
     0
  0
CLASS
  1
ACMDATUMSTANDARDANSI
  2
AcmDatumStdANSI
  3
"Amdt_StdImp|Product Description: AutoCAD Mechanical 2000|Company: Autodesk"
 90
    32768
280
     0
281
     0
  0
CLASS
  1
ACMBOMSTANDARDANSI
  2
AcmBOMStdANSI
  3
"Amdt_StdImp|Product Description: AutoCAD Mechanical 2000|Company: Autodesk"
 90
    32768
280
     0
281
     0
  0
CLASS
  1
ACMDETAILSTANDARDANSI
  2
AmdtDetailSymStdANSI
  3
"Amdt_StdImp|Product Description: AutoCAD Mechanical 2000|Company: Autodesk"
 90
    32768
280
     0
281
     0
  0
CLASS
  1
ACMSECTIONSTANDARDANSI
  2
AmdtSectionSymStdANSI
  3
"Amdt_StdImp|Product Description: AutoCAD Mechanical 2000|Company: Autodesk"
 90
    32768
280
     0
281
     0
  0
CLASS
  1
ACMCENTERLINESTANDARDANSI
  2
AmdtCenterLineStdANSI
  3
"Amdt_StdImp|Product Description: AutoCAD Mechanical 2000|Company: Autodesk"
 90
    32768
280
     0
281
     0
  0
CLASS
  1
ACMNOTESTANDARDANSI
  2
AmdtNoteStdANSI
  3
"Amdt_StdImp|Product Description: AutoCAD Mechanical 2000|Company: Autodesk"
 90
    32768
280
     0
281
     0
  0
CLASS
  1
ACAMGLAYSTD
  2
AcAmgLayStd
  3
"AcAmgLayStd|Product Description: AutoCAD Mechanical 2000|Company: Autodesk"
 90
    32768
280
     0
281
     0
  0
CLASS
  1
ACAMGDIMSTD
  2
AcAmgDimStd
  3
"AcAmgDimStd|Product Description: AutoCAD Mechanical 2000|Company: Autodesk"
 90
    32768
280
     0
281
     0
  0
CLASS
  1
ACAMGHOLECHARTSTDANSI
  2
AcAmgHoleChartStdANSI
  3
ACMSYMBB_MODULE_NAME
 90
    32768
280
     0
281
     0
  0
CLASS
  1
ACAMGTITLESTD
  2
AcAmgTitleStd
  3
"TITLEAPP"
 90
    32768
280
     0
281
     0
  0
CLASS
  1
ACAMGFILTERDAT
  2
AcAmgFilterDat
  3
"AcadM|Product Description: AutoCAD Mechanical 2000|Company: Autodesk"
 90
    32768
280
     0
281
     0
  0
CLASS
  1
LAYER_INDEX
  2
AcDbLayerIndex
  3
AutoCAD 2000
 90
    32768
280
     0
281
     0
  0
CLASS
  1
IDBUFFER
  2
AcDbIdBuffer
  3
AutoCAD 2000
 90
    32768
280
     0
281
     0
  0
CLASS
  1
LONG_TRANSACTION
  2
AcDbLongTransaction
  3
AutoCAD 2000
 90
    32768
280
     0
281
     0
  0
CLASS
  1
LWPOLYLINE
  2
AcDbPolyline
  3
AutoCAD 2000
 90
    32768
280
     0
281
     1
  0
CLASS
  1
HATCH
  2
AcDbHatch
  3
AutoCAD 2000
 90
    32768
280
     0
281
     1
  0
CLASS
  1
XRECORD
  2
AcDbXrecord
  3
AutoCAD 2000
 90
    32768
280
     0
281
     0
  0
ENDSEC
  0
SECTION
  2
TABLES
  0
TABLE
  2
VPORT
  5
8
330
0
100
AcDbSymbolTable
 70
     4
  0
VPORT
  5
7C6
330
8
100
AcDbSymbolTableRecord
100
AcDbViewportTableRecord
  2
*ACTIVE
 70
     0
 10
0.0
 20
0.0
 11
1.0
 21
1.0
 12
123.6731770497141
 22
104.4067668191323
 13
0.0
 23
0.0
 14
0.00001
 24
0.00001
 15
0.0
 25
0.0
 16
0.0
 26
0.0
 36
1.0
 17
0.0
 27
0.0
 37
0.0
 40
211.065691623085
 41
1.765124555160142
 42
50.0
 43
0.0
 44
0.0
 50
0.0
 51
0.0
 71
     0
 72
 20000
 73
     1
 74
     0
 75
     0
 76
     1
 77
     0
 78
     0
  0
ENDTAB
  0
TABLE
  2
LTYPE
  5
5
330
0
100
AcDbSymbolTable
 70
    16
  0
LTYPE
  5
11
330
5
100
AcDbSymbolTableRecord
100
AcDbLinetypeTableRecord
  2
BYBLOCK
 70
     0
  3

 72
    65
 73
     0
 40
0.0
  0
LTYPE
  5
12
330
5
100
AcDbSymbolTableRecord
100
AcDbLinetypeTableRecord
  2
BYLAYER
 70
     0
  3

 72
    65
 73
     0
 40
0.0
  0
LTYPE
  5
13
330
5
100
AcDbSymbolTableRecord
100
AcDbLinetypeTableRecord
  2
CONTINUOUS
 70
     0
  3
Solid line
 72
    65
 73
     0
 40
0.0
  0
LTYPE
  5
21
330
5
100
AcDbSymbolTableRecord
100
AcDbLinetypeTableRecord
  2
CENTER2
 70
     0
  3
___ _ ___ _ ___ _ ___ _ ___ _ ___ _ ___ _ ___ _
 72
    65
 73
     4
 40
1.125
 49
0.75
 74
     0
 49
-0.125
 74
     0
 49
0.125
 74
     0
 49
-0.125
 74
     0
  0
LTYPE
  5
72A
330
5
100
AcDbSymbolTableRecord
100
AcDbLinetypeTableRecord
  2
AM_ISO02W050
 70
     0
  3
__ __ __ __ __ __ __ __ __ __ __ __ __ __ __
 72
    65
 73
     2
 40
7.5
 49
6.0
 74
     0
 49
-1.5
 74
     0
  0
LTYPE
  5
72B
330
5
100
AcDbSymbolTableRecord
100
AcDbLinetypeTableRecord
  2
AM_ISO08W050
 70
     0
  3
____ . ____ . ____ . ____ . ____ . ____ . ____
 72
    65
 73
     4
 40
18.0
 49
12.0
 74
     0
 49
-1.5
 74
     0
 49
3.0
 74
     0
 49
-1.5
 74
     0
  0
LTYPE
  5
72C
330
5
100
AcDbSymbolTableRecord
100
AcDbLinetypeTableRecord
  2
AM_ISO09W050
 70
     0
  3
_____ . . _____ . . _____ . . ____ .. ____
 72
    65
 73
     6
 40
22.5
 49
12.0
 74
     0
 49
-1.5
 74
     0
 49
3.0
 74
     0
 49
-1.5
 74
     0
 49
3.0
 74
     0
 49
-1.5
 74
     0
  0
LTYPE
  5
72D
330
5
100
AcDbSymbolTableRecord
100
AcDbLinetypeTableRecord
  2
AMCONSTR
 70
     0
  3
_______________________
 72
    65
 73
     2
 40
9999.0
 49
9999.0
 74
     0
 49
0.0
 74
     0
  0
LTYPE
  5
72E
330
5
100
AcDbSymbolTableRecord
100
AcDbLinetypeTableRecord
  2
AM_ISO08W050X2
 70
     0
  3
__ . __ . __ . __ . __ . __
 72
    65
 73
     4
 40
9.0
 49
6.0
 74
     0
 49
-0.75
 74
     0
 49
1.5
 74
     0
 49
-0.75
 74
     0
  0
LTYPE
  5
72F
330
5
100
AcDbSymbolTableRecord
100
AcDbLinetypeTableRecord
  2
AM_ISO02W050X2
 70
     0
  3
 _ _ _ _ _ _ _ _ _ _ _ _
 72
    65
 73
     2
 40
3.75
 49
3.0
 74
     0
 49
-0.75
 74
     0
  0
LTYPE
  5
732
330
5
100
AcDbSymbolTableRecord
100
AcDbLinetypeTableRecord
  2
AMZIGZAG
 70
     0
  3
/\/-/\/-/\/-/\/-/\/-/\/
 72
    65
 73
     2
 40
11.00009999999999
 49
0.0001
 74
     4
 75
   135
340
731
 46
0.04
 50
0.0
 44
0.0
 45
0.0
 49
-11.0
 74
     0
  0
LTYPE
  5
733
330
5
100
AcDbSymbolTableRecord
100
AcDbLinetypeTableRecord
  2
HIDDEN
 70
     0
  3
Hidden __ __ __ __ __ __ __ __ __ __ __ __ __ _
 72
    65
 73
     2
 40
0.375
 49
0.25
 74
     0
 49
-0.125
 74
     0
  0
LTYPE
  5
734
330
5
100
AcDbSymbolTableRecord
100
AcDbLinetypeTableRecord
  2
CENTER
 70
     0
  3
Center ____ _ ____ _ ____ _ ____ _ ____ _ ____
 72
    65
 73
     4
 40
2.0
 49
1.25
 74
     0
 49
-0.25
 74
     0
 49
0.25
 74
     0
 49
-0.25
 74
     0
  0
LTYPE
  5
735
330
5
100
AcDbSymbolTableRecord
100
AcDbLinetypeTableRecord
  2
PHANTOM2
 70
     0
  3
Phantom (.5x) ___ _ _ ___ _ _ ___ _ _ ___ _ _
 72
    65
 73
     6
 40
1.25
 49
0.625
 74
     0
 49
-0.125
 74
     0
 49
0.125
 74
     0
 49
-0.125
 74
     0
 49
0.125
 74
     0
 49
-0.125
 74
     0
  0
LTYPE
  5
736
330
5
100
AcDbSymbolTableRecord
100
AcDbLinetypeTableRecord
  2
HIDDEN2
 70
     0
  3
Hidden (.5x) _ _ _ _ _ _ _ _ _ _ _ _ _ _ _ _ _
 72
    65
 73
     2
 40
0.1875
 49
0.125
 74
     0
 49
-0.0625
 74
     0
  0
LTYPE
  5
737
330
5
100
AcDbSymbolTableRecord
100
AcDbLinetypeTableRecord
  2
AMZIGZAG2
 70
     0
  3
/\/-/\/-/\/-/\/-/\/-/\/
 72
    65
 73
     2
 40
0.4401
 49
0.0001
 74
     4
 75
   135
340
731
 46
0.0016
 50
0.0
 44
0.0
 45
0.0
 49
-0.4400000000000001
 74
     0
  0
LTYPE
  5
744
330
5
100
AcDbSymbolTableRecord
100
AcDbLinetypeTableRecord
  2
ACANSTGB
 70
     0
  3
__ . . __ . .
 72
    65
 73
     6
 40
0.35433070866
 49
0.15748031496
 74
     0
 49
-0.03937007874
 74
     0
 49
0.03937007874
 74
     0
 49
-0.03937007874
 74
     0
 49
0.03937007874
 74
     0
 49
-0.03937007874
 74
     0
  0
LTYPE
  5
745
330
5
100
AcDbSymbolTableRecord
100
AcDbLinetypeTableRecord
  2
ACANSTGL
 70
     0
  3
_ _ _ _ _
 72
    65
 73
     2
 40
0.11811023622
 49
0.07874015748
 74
     0
 49
-0.03937007874
 74
     0
  0
ENDTAB
  0
TABLE
  2
LAYER
  5
2
330
0
100
AcDbSymbolTable
 70
     6
  0
LAYER
  5
E
330
2
100
AcDbSymbolTableRecord
100
AcDbLayerTableRecord
  2
0
 70
     0
 62
     2
  6
CONTINUOUS
  0
LAYER
  5
25
330
2
100
AcDbSymbolTableRecord
100
AcDbLayerTableRecord
  2
1
 70
     0
 62
     7
  6
CONTINUOUS
  0
LAYER
  5
26
330
2
100
AcDbSymbolTableRecord
100
AcDbLayerTableRecord
  2
3
 70
     0
 62
     1
  6
CENTER2
  0
LAYER
  5
28
330
2
100
AcDbSymbolTableRecord
100
AcDbLayerTableRecord
  2
5
 70
     0
 62
     5
  6
CONTINUOUS
  0
LAYER
  5
109
330
2
100
AcDbSymbolTableRecord
100
AcDbLayerTableRecord
  2
DEFPOINTS
 70
     0
 62
     7
  6
CONTINUOUS
  0
LAYER
  5
551
330
2
100
AcDbSymbolTableRecord
100
AcDbLayerTableRecord
  2
LOGO
 70
     0
 62
     7
  6
CONTINUOUS
  0
ENDTAB
  0
TABLE
  2
STYLE
  5
3
330
0
100
AcDbSymbolTable
 70
     7
  0
STYLE
  5
F
330
3
100
AcDbSymbolTableRecord
100
AcDbTextStyleTableRecord
  2
STANDARD
 70
     0
 40
0.0
 41
1.0
 50
0.0
 71
     0
 42
0.2
  3
txt
  4

  0
STYLE
  5
1C
330
3
100
AcDbSymbolTableRecord
100
AcDbTextStyleTableRecord
  2
CHINA
 70
     0
 40
0.0
 41
1.0
 50
0.0
 71
     0
 42
3.0
  3
/rubon/c2
  4
CHINA.SHX
  0
STYLE
  5
552
330
3
100
AcDbSymbolTableRecord
100
AcDbTextStyleTableRecord
  2
CHINESET
 70
     0
 40
0.0
 41
1.0
 50
0.0
 71
     0
 42
5.0
  3
simplex.shx
  4
chineset.shx
  0
STYLE
  5
553
330
3
100
AcDbSymbolTableRecord
100
AcDbTextStyleTableRecord
  2
LOGO
 70
     0
 40
0.0
 41
1.0
 50
0.0
 71
     0
 42
5.0
  3

  4

1001
ACAD
1000
文鼎中粗隸
1071
    34865
  0
STYLE
  5
731
330
3
100
AcDbSymbolTableRecord
100
AcDbTextStyleTableRecord
  2

 70
     1
 40
0.0
 41
1.0
 50
0.0
 71
     0
 42
3.0
  3
ltypeshp.shx
  4

  0
STYLE
  5
738
330
3
100
AcDbSymbolTableRecord
100
AcDbTextStyleTableRecord
  2
ACANSTS
 70
     0
 40
1.0
 41
1.0
 50
0.0
 71
     0
 42
3.0
  3
romans.shx
  4
chineset.shx
  0
STYLE
  5
743
330
3
100
AcDbSymbolTableRecord
100
AcDbTextStyleTableRecord
  2
ACANSGDT
 70
     0
 40
0.0
 41
1.0
 50
0.0
 71
     0
 42
3.0
  3
amgdtans.shx
  4

  0
ENDTAB
  0
TABLE
  2
VIEW
  5
6
330
0
100
AcDbSymbolTable
 70
     0
  0
ENDTAB
  0
TABLE
  2
UCS
  5
7
330
0
100
AcDbSymbolTable
 70
     0
  0
ENDTAB
  0
TABLE
  2
APPID
  5
9
330
0
100
AcDbSymbolTable
 70
     4
  0
APPID
  5
10
330
9
100
AcDbSymbolTableRecord
100
AcDbRegAppTableRecord
  2
ACAD
 70
     0
  0
APPID
  5
70C
330
9
100
AcDbSymbolTableRecord
100
AcDbRegAppTableRecord
  2
MCAD_NO_VIS
 70
     0
  0
APPID
  5
70D
330
9
100
AcDbSymbolTableRecord
100
AcDbRegAppTableRecord
  2
ACAD_TEMP_GRAPHIC
 70
     0
  0
APPID
  5
71E
330
9
100
AcDbSymbolTableRecord
100
AcDbRegAppTableRecord
  2
ACATTRIBSERVICES
 70
     0
  0
ENDTAB
  0
TABLE
  2
DIMSTYLE
  5
A
330
0
100
AcDbSymbolTable
 70
     7
  0
DIMSTYLE
105
FA
102
{ACAD_REACTORS
330
524
330
531
330
53E
102
}
330
A
100
AcDbSymbolTableRecord
100
AcDbDimStyleTableRecord
  2
STANDARD
 70
     0
  3

  4

  5

  6

  7

 40
1.0
 41
3.0
 42
1.5
 43
7.0
 44
1.5
 45
0.0
 46
0.0
 47
0.0
 48
0.0
140
3.0
141
0.0
142
0.0
143
25.4
144
1.0
145
0.0
146
1.0
147
1.0
 71
     0
 72
     0
 73
     0
 74
     0
 75
     0
 76
     0
 77
     1
 78
     8
170
     0
171
     2
172
     0
173
     0
174
     0
175
     0
176
   256
177
   256
178
   256
270
     2
271
     2
272
     2
273
     2
274
     2
340
552
275
     0
280
     0
281
     0
282
     0
283
     1
284
     0
285
     0
286
     0
287
     3
288
     0
  0
DIMSTYLE
105
749
330
A
100
AcDbSymbolTableRecord
100
AcDbDimStyleTableRecord
  2
AM_ANSI
 70
     0
  3

  4
mm
  5

  6

  7

 40
1.0
 41
0.1
 42
0.05
 43
0.5
 44
0.1
 45
0.0
 46
0.0
 47
0.1
 48
0.1
140
0.12
141
0.0
142
0.0
143
25.4
144
1.0
145
0.0
146
0.71
147
0.06
 71
     0
 72
     0
 73
     1
 74
     1
 75
     0
 76
     0
 77
     0
 78
     7
170
     0
171
     2
172
     0
173
     0
174
     0
175
     0
176
   256
177
   256
178
     2
270
     2
271
     4
272
     4
273
     2
274
     4
340
F
275
     0
280
     0
281
     0
282
     0
283
     1
284
     7
285
     0
286
     0
287
     3
288
     0
  0
DIMSTYLE
105
74A
330
A
100
AcDbSymbolTableRecord
100
AcDbDimStyleTableRecord
  2
AM_ANSI$3
 70
     0
  3

  4
mm
  5

  6

  7

 40
1.0
 41
0.1
 42
0.05
 43
0.5
 44
0.1
 45
0.0
 46
0.0
 47
0.1
 48
0.1
140
0.12
141
0.0
142
0.0
143
25.4
144
1.0
145
0.0
146
0.71
147
0.06
 71
     0
 72
     0
 73
     1
 74
     1
 75
     0
 76
     0
 77
     0
 78
     7
170
     0
171
     2
172
     0
173
     0
174
     0
175
     0
176
   256
177
   256
178
     2
270
     2
271
     4
272
     4
273
     2
274
     4
340
F
275
     0
280
     0
281
     0
282
     0
283
     1
284
     7
285
     0
286
     0
287
     0
288
     1
  0
DIMSTYLE
105
74B
330
A
100
AcDbSymbolTableRecord
100
AcDbDimStyleTableRecord
  2
AM_ANSI$4
 70
     0
  3

  4
mm
  5

  6

  7

 40
1.0
 41
0.1
 42
0.05
 43
0.5
 44
0.1
 45
0.0
 46
0.0
 47
0.1
 48
0.1
140
0.12
141
0.0
142
0.0
143
25.4
144
1.0
145
0.0
146
0.71
147
0.06
 71
     0
 72
     0
 73
     1
 74
     1
 75
     0
 76
     0
 77
     0
 78
     7
170
     0
171
     2
172
     0
173
     0
174
     0
175
     0
176
   256
177
   256
178
     2
270
     2
271
     4
272
     4
273
     2
274
     4
340
F
275
     0
280
     0
281
     0
282
     0
283
     1
284
     7
285
     0
286
     0
287
     0
288
     1
  0
DIMSTYLE
105
74C
330
A
100
AcDbSymbolTableRecord
100
AcDbDimStyleTableRecord
  2
AM_ANSI$7
 70
     0
  3

  4
mm
  5

  6

  7

 40
1.0
 41
0.1
 42
0.05
 43
0.5
 44
0.1
 45
0.0
 46
0.0
 47
0.1
 48
0.1
140
0.24
141
0.0
142
0.0
143
25.4
144
1.0
145
0.0
146
0.71
147
0.06
 71
     0
 72
     0
 73
     1
 74
     1
 75
     0
 76
     0
 77
     0
 78
     7
170
     0
171
     2
172
     0
173
     0
174
     0
175
     0
176
   256
177
   256
178
     2
270
     2
271
     4
272
     4
273
     2
274
     4
340
F
275
     0
280
     0
281
     0
282
     0
283
     1
284
     7
285
     0
286
     0
287
     3
288
     0
  0
DIMSTYLE
105
74D
330
A
100
AcDbSymbolTableRecord
100
AcDbDimStyleTableRecord
  2
AM_ANSI$SF
 70
     0
  3

  4
mm
  5

  6

  7

 40
1.0
 41
0.1
 42
0.05
 43
0.5
 44
0.1
 45
0.0
 46
0.0
 47
0.1
 48
0.1
140
0.12
141
0.0
142
0.0
143
25.4
144
1.0
145
0.0
146
0.71
147
0.06
 71
     0
 72
     0
 73
     1
 74
     1
 75
     1
 76
     1
 77
     0
 78
     7
170
     0
171
     2
172
     0
173
     0
174
     0
175
     0
176
   256
177
   256
178
     2
270
     2
271
     4
272
     4
273
     2
274
     4
340
F
275
     0
280
     0
281
     0
282
     0
283
     1
284
     7
285
     0
286
     0
287
     3
288
     0
  0
DIMSTYLE
105
752
330
A
100
AcDbSymbolTableRecord
100
AcDbDimStyleTableRecord
  2
AM_ANSI$SH
 70
     0
  3

  4
mm
  5

  6
GENAXEH
  7

 40
1.0
 41
0.1
 42
0.05
 43
0.5
 44
0.1
 45
0.0
 46
0.0
 47
0.1
 48
0.1
140
0.12
141
0.0
142
0.0
143
25.4
144
1.0
145
0.0
146
0.71
147
0.06
 71
     0
 72
     0
 73
     1
 74
     1
 75
     1
 76
     1
 77
     0
 78
     7
170
     0
171
     2
172
     0
173
     1
174
     0
175
     0
176
   256
177
   256
178
     2
270
     2
271
     4
272
     4
273
     2
274
     4
340
F
275
     0
280
     0
281
     0
282
     0
283
     1
284
     7
285
     0
286
     0
287
     3
288
     0
  0
ENDTAB
  0
TABLE
  2
BLOCK_RECORD
  5
1
330
0
100
AcDbSymbolTable
 70
     4
  0
BLOCK_RECORD
  5
17
102
{ACAD_XDICTIONARY
360
6DE
102
}
330
1
100
AcDbSymbolTableRecord
100
AcDbBlockTableRecord
  2
*MODEL_SPACE
  0
BLOCK_RECORD
  5
14
102
{ACAD_XDICTIONARY
360
6DC
102
}
330
1
100
AcDbSymbolTableRecord
100
AcDbBlockTableRecord
  2
*PAPER_SPACE
  0
BLOCK_RECORD
  5
518
330
1
100
AcDbSymbolTableRecord
100
AcDbBlockTableRecord
  2
*D0
  0
BLOCK_RECORD
  5
525
330
1
100
AcDbSymbolTableRecord
100
AcDbBlockTableRecord
  2
*D1
  0
BLOCK_RECORD
  5
532
330
1
100
AcDbSymbolTableRecord
100
AcDbBlockTableRecord
  2
*D2
  0
BLOCK_RECORD
  5
74E
330
1
100
AcDbSymbolTableRecord
100
AcDbBlockTableRecord
  2
GENAXEH
  0
ENDTAB
  0
ENDSEC
  0
SECTION
  2
BLOCKS
  0
BLOCK
  5
2E
330
17
100
AcDbEntity
  8
0
100
AcDbBlockBegin
  2
*MODEL_SPACE
 70
     0
 10
0.0
 20
0.0
 30
0.0
  3
*MODEL_SPACE
  1

  0
ENDBLK
  5
2F
330
17
100
AcDbEntity
  8
0
100
AcDbBlockEnd
  0
BLOCK
  5
2C
330
14
100
AcDbEntity
 67
     1
  8
0
100
AcDbBlockBegin
  2
*PAPER_SPACE
 70
     0
 10
0.0
 20
0.0
 30
0.0
  3
*PAPER_SPACE
  1

  0
ENDBLK
  5
2D
330
14
100
AcDbEntity
 67
     1
  8
0
100
AcDbBlockEnd
  0
BLOCK
  5
519
330
518
100
AcDbEntity
  8
0
100
AcDbBlockBegin
  2
*D0
 70
     1
 10
0.0
 20
0.0
 30
0.0
  3
*D0
  1

  0
LINE
  5
672
330
518
100
AcDbEntity
  8
5
100
AcDbLine
 10
53.78710010924866
 20
89.89698378691935
 30
0.0
 11
70.49051747493035
 21
89.89698378691935
 31
0.0
  0
LINE
  5
673
330
518
100
AcDbEntity
  8
5
100
AcDbLine
 10
53.78710010924866
 20
57.89698378691929
 30
0.0
 11
70.49051747493035
 21
57.89698378691929
 31
0.0
  0
LINE
  5
674
330
518
100
AcDbEntity
  8
5
100
AcDbLine
 10
68.99051747493036
 20
86.89698378691934
 30
0.0
 11
68.99051747493036
 21
60.89698378691929
 31
0.0
  0
SOLID
  5
675
330
518
100
AcDbEntity
  8
5
100
AcDbTrace
 10
68.49051747493035
 20
86.89698378691934
 30
0.0
 11
69.49051747493036
 21
86.89698378691934
 31
0.0
 12
68.99051747493036
 22
89.89698378691935
 32
0.0
 13
68.99051747493036
 23
89.89698378691935
 33
0.0
  0
SOLID
  5
676
330
518
100
AcDbEntity
  8
5
100
AcDbTrace
 10
68.49051747493035
 20
60.89698378691929
 30
0.0
 11
69.49051747493036
 21
60.89698378691929
 31
0.0
 12
68.99051747493036
 22
57.89698378691929
 32
0.0
 13
68.99051747493036
 23
57.89698378691929
 33
0.0
  0
MTEXT
  5
677
330
518
100
AcDbEntity
  8
5
100
AcDbMText
 10
66.49051747493034
 20
73.89698378691933
 30
0.0
 40
3.0
 41
0.0
 71
     5
 72
     1
  1
\A1;32
  7
CHINESET
 11
0.0000000000000001
 21
1.0
 31
0.0
1001
ACAD
1000
MTEXTBEGIN
1070
    73
1070
     1
1070
    44
1040
1.0
1070
    74
1070
     0
1000
MTEXTEND
  0
POINT
  5
678
330
518
100
AcDbEntity
  8
DEFPOINTS
 62
     0
100
AcDbPoint
 10
52.28710010924865
 20
89.89698378691935
 30
0.0
  0
POINT
  5
679
330
518
100
AcDbEntity
  8
DEFPOINTS
 62
     0
100
AcDbPoint
 10
52.28710010924865
 20
57.89698378691929
 30
0.0
  0
POINT
  5
67A
330
518
100
AcDbEntity
  8
DEFPOINTS
 62
     0
100
AcDbPoint
 10
68.99051747493036
 20
57.89698378691929
 30
0.0
  0
ENDBLK
  5
523
330
518
100
AcDbEntity
  8
0
100
AcDbBlockEnd
  0
BLOCK
  5
526
330
525
100
AcDbEntity
  8
0
100
AcDbBlockBegin
  2
*D1
 70
     1
 10
0.0
 20
0.0
 30
0.0
  3
*D1
  1

  0
LINE
  5
67B
330
525
100
AcDbEntity
  8
5
100
AcDbLine
 10
90.32352010924872
 20
186.6172337869193
 30
0.0
 11
78.92013889418741
 21
186.6172337869193
 31
0.0
  0
LINE
  5
67C
330
525
100
AcDbEntity
  8
5
100
AcDbLine
 10
90.32352010924872
 20
145.1172337869193
 30
0.0
 11
78.9201388941874
 21
145.1172337869193
 31
0.0
  0
LINE
  5
67D
330
525
100
AcDbEntity
  8
5
100
AcDbLine
 10
80.42013889418742
 20
183.6172337869193
 30
0.0
 11
80.4201388941874
 21
148.1172337869193
 31
0.0
  0
SOLID
  5
67E
330
525
100
AcDbEntity
  8
5
100
AcDbTrace
 10
79.92013889418742
 20
183.6172337869193
 30
0.0
 11
80.92013889418742
 21
183.6172337869193
 31
0.0
 12
80.42013889418742
 22
186.6172337869193
 32
0.0
 13
80.42013889418742
 23
186.6172337869193
 33
0.0
  0
SOLID
  5
67F
330
525
100
AcDbEntity
  8
5
100
AcDbTrace
 10
79.9201388941874
 20
148.1172337869193
 30
0.0
 11
80.92013889418741
 21
148.1172337869193
 31
0.0
 12
80.4201388941874
 22
145.1172337869193
 32
0.0
 13
80.4201388941874
 23
145.1172337869193
 33
0.0
  0
MTEXT
  5
680
330
525
100
AcDbEntity
  8
5
100
AcDbMText
 10
77.92013889418739
 20
165.8672337869193
 30
0.0
 40
3.0
 41
0.0
 71
     5
 72
     1
  1
\A1;41.5
  7
CHINESET
 11
0.0000000000000001
 21
1.0
 31
0.0
1001
ACAD
1000
MTEXTBEGIN
1070
    73
1070
     1
1070
    44
1040
1.0
1070
    74
1070
     0
1000
MTEXTEND
  0
POINT
  5
681
330
525
100
AcDbEntity
  8
DEFPOINTS
 62
     0
100
AcDbPoint
 10
91.82352010924873
 20
186.6172337869193
 30
0.0
  0
POINT
  5
682
330
525
100
AcDbEntity
  8
DEFPOINTS
 62
     0
100
AcDbPoint
 10
91.82352010924873
 20
145.1172337869193
 30
0.0
  0
POINT
  5
683
330
525
100
AcDbEntity
  8
DEFPOINTS
 62
     0
100
AcDbPoint
 10
80.4201388941874
 20
145.1172337869193
 30
0.0
  0
ENDBLK
  5
530
330
525
100
AcDbEntity
  8
0
100
AcDbBlockEnd
  0
BLOCK
  5
533
330
532
100
AcDbEntity
  8
0
100
AcDbBlockBegin
  2
*D2
 70
     1
 10
0.0
 20
0.0
 30
0.0
  3
*D2
  1

  0
LINE
  5
684
330
532
100
AcDbEntity
  8
5
100
AcDbLine
 10
169.0679856382353
 20
181.8672337869193
 30
0.0
 11
169.8495806340486
 21
181.8672337869193
 31
0.0
  0
LINE
  5
685
330
532
100
AcDbEntity
  8
5
100
AcDbLine
 10
169.0679856382353
 20
149.8672337869193
 30
0.0
 11
169.8495806340486
 21
149.8672337869193
 31
0.0
  0
LINE
  5
686
330
532
100
AcDbEntity
  8
5
100
AcDbLine
 10
168.3495806340486
 20
178.8672337869193
 30
0.0
 11
168.3495806340486
 21
152.8672337869193
 31
0.0
  0
SOLID
  5
687
330
532
100
AcDbEntity
  8
5
100
AcDbTrace
 10
167.8495806340485
 20
178.8672337869193
 30
0.0
 11
168.8495806340486
 21
178.8672337869193
 31
0.0
 12
168.3495806340486
 22
181.8672337869193
 32
0.0
 13
168.3495806340486
 23
181.8672337869193
 33
0.0
  0
SOLID
  5
688
330
532
100
AcDbEntity
  8
5
100
AcDbTrace
 10
167.8495806340485
 20
152.8672337869193
 30
0.0
 11
168.8495806340486
 21
152.8672337869193
 31
0.0
 12
168.3495806340486
 22
149.8672337869193
 32
0.0
 13
168.3495806340486
 23
149.8672337869193
 33
0.0
  0
MTEXT
  5
689
330
532
100
AcDbEntity
  8
5
100
AcDbMText
 10
165.8495806340485
 20
165.8672337869193
 30
0.0
 40
3.0
 41
0.0
 71
     5
 72
     1
  1
\A1;32
  7
CHINESET
 11
0.0000000000000001
 21
1.0
 31
0.0
1001
ACAD
1000
MTEXTBEGIN
1070
    73
1070
     1
1070
    44
1040
1.0
1070
    74
1070
     0
1000
MTEXTEND
  0
POINT
  5
68A
330
532
100
AcDbEntity
  8
DEFPOINTS
 62
     0
100
AcDbPoint
 10
167.5679856382353
 20
181.8672337869193
 30
0.0
  0
POINT
  5
68B
330
532
100
AcDbEntity
  8
DEFPOINTS
 62
     0
100
AcDbPoint
 10
167.5679856382353
 20
149.8672337869193
 30
0.0
  0
POINT
  5
68C
330
532
100
AcDbEntity
  8
DEFPOINTS
 62
     0
100
AcDbPoint
 10
168.3495806340486
 20
149.8672337869193
 30
0.0
  0
ENDBLK
  5
53D
330
532
100
AcDbEntity
  8
0
100
AcDbBlockEnd
  0
BLOCK
  5
750
330
74E
100
AcDbEntity
  8
0
100
AcDbBlockBegin
  2
GENAXEH
 70
     0
 10
0.0
 20
0.0
 30
0.0
  3
GENAXEH
  1

  0
LINE
  5
74F
330
74E
100
AcDbEntity
  8
0
100
AcDbLine
 10
-1.0
 20
0.0
 30
0.0
 11
1.0
 21
0.0
 31
0.0
  0
ENDBLK
  5
751
330
74E
100
AcDbEntity
  8
0
100
AcDbBlockEnd
  0
ENDSEC
  0
SECTION
  2
ENTITIES
  0
LINE
  5
46F
330
17
100
AcDbEntity
  8
3
100
AcDbLine
 10
100.8235201092487
 20
168.9577537869192
 30
0.0
 11
100.8235201092487
 21
162.2241637869192
 31
0.0
  0
LINE
  5
470
330
17
100
AcDbEntity
  8
3
100
AcDbLine
 10
121.3235201092487
 20
168.9577537869192
 30
0.0
 11
121.3235201092487
 21
162.2241637869192
 31
0.0
  0
CIRCLE
  5
471
330
17
100
AcDbEntity
  8
1
100
AcDbCircle
 10
121.3235201092487
 20
165.8672337869193
 30
0.0
 40
2.1
  0
CIRCLE
  5
472
330
17
100
AcDbEntity
  8
1
100
AcDbCircle
 10
100.8235201092487
 20
165.8672337869193
 30
0.0
 40
2.1
  0
LINE
  5
473
330
17
100
AcDbEntity
  8
3
100
AcDbLine
 10
88.9653401092487
 20
165.8672337869193
 30
0.0
 11
220.3306101092485
 21
165.8672337869193
 31
0.0
  0
LINE
  5
474
330
17
100
AcDbEntity
  8
1
100
AcDbLine
 10
91.82352010924871
 20
160.8672337869193
 30
0.0
 11
137.8235201092486
 21
160.8672337869193
 31
0.0
  0
LINE
  5
475
330
17
100
AcDbEntity
  8
1
100
AcDbLine
 10
188.8235201092486
 20
159.8672337869193
 30
0.0
 11
217.8235201092486
 21
159.8672337869193
 31
0.0
  0
LINE
  5
476
330
17
100
AcDbEntity
  8
1
100
AcDbLine
 10
91.82352010924873
 20
145.1172337869193
 30
0.0
 11
91.82352010924871
 21
165.8672337869193
 31
0.0
  0
LINE
  5
477
330
17
100
AcDbEntity
  8
1
100
AcDbLine
 10
89.82352010924868
 20
152.8672337869192
 30
0.0
 11
89.8235201092487
 21
165.8672337869193
 31
0.0
  0
LINE
  5
478
330
17
100
AcDbEntity
  8
1
100
AcDbLine
 10
89.8235201092487
 20
152.8672337869193
 30
0.0
 11
91.82352010924871
 21
152.8672337869192
 31
0.0
  0
LINE
  5
479
330
17
100
AcDbEntity
  8
1
100
AcDbLine
 10
91.82352010924871
 20
73.89698378691929
 30
0.0
 11
91.82352010924871
 21
96.89698378691929
 31
0.0
  0
LINE
  5
47A
330
17
100
AcDbEntity
  8
1
100
AcDbLine
 10
89.82352010924865
 20
73.89698378691929
 30
0.0
 11
89.82352010924868
 21
86.89698378691929
 31
0.0
  0
LINE
  5
47B
330
17
100
AcDbEntity
  8
1
100
AcDbLine
 10
89.82352010924868
 20
86.89698378691929
 30
0.0
 11
91.82352010924871
 21
86.89698378691929
 31
0.0
  0
LINE
  5
47C
330
17
100
AcDbEntity
  8
3
100
AcDbLine
 10
147.3629701092487
 20
87.89698378691928
 30
0.0
 11
139.8565601092487
 21
87.89698378691928
 31
0.0
  0
LINE
  5
47D
330
17
100
AcDbEntity
  8
3
100
AcDbLine
 10
143.8235201092487
 20
84.22117378691927
 30
0.0
 11
143.8235201092487
 21
91.4232537869193
 31
0.0
  0
LINE
  5
47E
330
17
100
AcDbEntity
  8
1
100
AcDbLine
 10
91.82352010924871
 20
73.89698378691935
 30
0.0
 11
91.82352010924871
 21
53.89698378691929
 31
0.0
  0
LINE
  5
47F
330
17
100
AcDbEntity
  8
1
100
AcDbLine
 10
89.82352010924865
 20
73.89698378691935
 30
0.0
 11
89.82352010924868
 21
60.89698378691934
 31
0.0
  0
CIRCLE
  5
481
330
17
100
AcDbEntity
  8
0
100
AcDbCircle
 10
100.8235201092487
 20
165.8672337869193
 30
0.0
 40
2.5
  0
CIRCLE
  5
482
330
17
100
AcDbEntity
  8
0
100
AcDbCircle
 10
121.3235201092487
 20
165.8672337869193
 30
0.0
 40
2.5
  0
CIRCLE
  5
483
330
17
100
AcDbEntity
  8
1
100
AcDbCircle
 10
100.8235201092487
 20
165.8672337869193
 30
0.0
 40
1.0
  0
CIRCLE
  5
484
330
17
100
AcDbEntity
  8
1
100
AcDbCircle
 10
121.3235201092487
 20
165.8672337869193
 30
0.0
 40
1.0
  0
LINE
  5
485
330
17
100
AcDbEntity
  8
1
100
AcDbLine
 10
149.8235201092487
 20
103.8969837869193
 30
0.0
 11
217.8235201092487
 21
103.8969837869192
 31
0.0
  0
LINE
  5
486
330
17
100
AcDbEntity
  8
1
100
AcDbLine
 10
137.8235201092486
 20
45.89698378691934
 30
0.0
 11
137.8235201092486
 21
101.8969837869192
 31
0.0
  0
LINE
  5
487
330
17
100
AcDbEntity
  8
1
100
AcDbLine
 10
188.8235201092486
 20
43.89698378691929
 30
0.0
 11
188.8235201092486
 21
103.8969837869192
 31
0.0
  0
LINE
  5
488
330
17
100
AcDbEntity
  8
1
100
AcDbLine
 10
91.82352010924871
 20
96.89698378691929
 30
0.0
 11
137.8235201092486
 21
96.89698378691936
 31
0.0
  0
LINE
  5
489
330
17
100
AcDbEntity
  8
1
100
AcDbLine
 10
91.82352010924871
 20
87.46164375316988
 30
0.0
 11
137.8235201092486
 21
87.46164375316988
 31
0.0
  0
LINE
  5
48A
330
17
100
AcDbEntity
  8
1
100
AcDbLine
 10
91.82352010924871
 20
53.89698378691935
 30
0.0
 11
137.8235201092486
 21
53.89698378691935
 31
0.0
  0
LINE
  5
48B
330
17
100
AcDbEntity
  8
1
100
AcDbLine
 10
91.82352010924871
 20
60.33232382066876
 30
0.0
 11
137.8235201092486
 21
60.33232382066876
 31
0.0
  0
LINE
  5
48C
330
17
100
AcDbEntity
  8
1
100
AcDbLine
 10
137.8235201092486
 20
101.8969837869192
 30
0.0
 11
149.8235201092487
 21
101.8969837869192
 31
0.0
  0
LINE
  5
48D
330
17
100
AcDbEntity
  8
1
100
AcDbLine
 10
137.8235201092486
 20
45.89698378691934
 30
0.0
 11
149.8235201092487
 21
45.89698378691934
 31
0.0
  0
LINE
  5
48E
330
17
100
AcDbEntity
  8
1
100
AcDbLine
 10
188.8235201092486
 20
43.89698378691929
 30
0.0
 11
217.8235201092487
 21
43.89698378691929
 31
0.0
  0
LINE
  5
48F
330
17
100
AcDbEntity
  8
1
100
AcDbLine
 10
217.8235201092487
 20
93.8969837869193
 30
0.0
 11
217.8235201092487
 21
103.8969837869192
 31
0.0
  0
LINE
  5
490
330
17
100
AcDbEntity
  8
1
100
AcDbLine
 10
149.8235201092487
 20
43.89698378691929
 30
0.0
 11
188.8235201092486
 21
43.89698378691929
 31
0.0
  0
LINE
  5
491
330
17
100
AcDbEntity
  8
1
100
AcDbLine
 10
188.8235201092486
 20
93.8969837869193
 30
0.0
 11
217.8235201092487
 21
93.8969837869193
 31
0.0
  0
ARC
  5
492
330
17
100
AcDbEntity
  8
0
100
AcDbCircle
 10
194.8235201092487
 20
98.8969837869193
 30
0.0
 40
2.5
100
AcDbArc
 50
193.8290960525728
 51
98.80882674128788
  0
CIRCLE
  5
493
330
17
100
AcDbEntity
  8
1
100
AcDbCircle
 10
194.8235201092487
 20
98.8969837869193
 30
0.0
 40
2.0
  0
LINE
  5
494
330
17
100
AcDbEntity
  8
3
100
AcDbLine
 10
197.9147501092486
 20
98.8969837869193
 30
0.0
 11
192.1739401092486
 21
98.8969837869193
 31
0.0
  0
LINE
  5
495
330
17
100
AcDbEntity
  8
3
100
AcDbLine
 10
194.8235201092487
 20
95.86617378691926
 30
0.0
 11
194.8235201092487
 21
101.9662737869192
 31
0.0
  0
ARC
  5
496
330
17
100
AcDbEntity
  8
0
100
AcDbCircle
 10
212.8235201092487
 20
98.8969837869193
 30
0.0
 40
2.5
100
AcDbArc
 50
193.8290960525728
 51
98.80882674128788
  0
LINE
  5
497
330
17
100
AcDbEntity
  8
3
100
AcDbLine
 10
212.8235201092487
 20
95.86617378691926
 30
0.0
 11
212.8235201092487
 21
101.9662737869192
 31
0.0
  0
CIRCLE
  5
498
330
17
100
AcDbEntity
  8
1
100
AcDbCircle
 10
212.8235201092487
 20
98.8969837869193
 30
0.0
 40
2.0
  0
LINE
  5
499
330
17
100
AcDbEntity
  8
3
100
AcDbLine
 10
215.9147501092486
 20
98.8969837869193
 30
0.0
 11
210.1739401092487
 21
98.8969837869193
 31
0.0
  0
LINE
  5
49A
330
17
100
AcDbEntity
  8
1
100
AcDbLine
 10
188.8235201092486
 20
53.89698378691929
 30
0.0
 11
217.8235201092487
 21
53.89698378691935
 31
0.0
  0
LINE
  5
49B
330
17
100
AcDbEntity
  8
3
100
AcDbLine
 10
215.9147501092486
 20
48.89698378691935
 30
0.0
 11
210.1739401092487
 21
48.89698378691935
 31
0.0
  0
CIRCLE
  5
49C
330
17
100
AcDbEntity
  8
1
100
AcDbCircle
 10
212.8235201092487
 20
48.89698378691935
 30
0.0
 40
2.0
  0
ARC
  5
49D
330
17
100
AcDbEntity
  8
0
100
AcDbCircle
 10
212.8235201092487
 20
48.89698378691935
 30
0.0
 40
2.5
100
AcDbArc
 50
261.1911732587121
 51
166.1709039474271
  0
ARC
  5
49E
330
17
100
AcDbEntity
  8
0
100
AcDbCircle
 10
194.8235201092487
 20
48.89698378691935
 30
0.0
 40
2.5
100
AcDbArc
 50
261.1911732587121
 51
166.1709039474271
  0
LINE
  5
49F
330
17
100
AcDbEntity
  8
3
100
AcDbLine
 10
194.8235201092487
 20
51.92779378691932
 30
0.0
 11
194.8235201092487
 21
45.82769378691932
 31
0.0
  0
CIRCLE
  5
4A0
330
17
100
AcDbEntity
  8
1
100
AcDbCircle
 10
194.8235201092487
 20
48.89698378691935
 30
0.0
 40
2.0
  0
LINE
  5
4A1
330
17
100
AcDbEntity
  8
3
100
AcDbLine
 10
197.9147501092486
 20
48.89698378691935
 30
0.0
 11
192.1739401092486
 21
48.89698378691935
 31
0.0
  0
LINE
  5
4A2
330
17
100
AcDbEntity
  8
3
100
AcDbLine
 10
212.8235201092487
 20
51.92779378691932
 30
0.0
 11
212.8235201092487
 21
45.82769378691932
 31
0.0
  0
LINE
  5
4A3
330
17
100
AcDbEntity
  8
1
100
AcDbLine
 10
217.8235201092487
 20
53.89698378691935
 30
0.0
 11
217.8235201092487
 21
43.89698378691934
 31
0.0
  0
LINE
  5
4A4
330
17
100
AcDbEntity
  8
1
100
AcDbLine
 10
137.8235201092486
 20
144.8672337869193
 30
0.0
 11
137.8235201092486
 21
165.8672337869193
 31
0.0
  0
LINE
  5
4A5
330
17
100
AcDbEntity
  8
1
100
AcDbLine
 10
91.82352010924873
 20
145.1172337869193
 30
0.0
 11
137.8235201092486
 21
145.1172337869193
 31
0.0
  0
LINE
  5
4A6
330
17
100
AcDbEntity
  8
1
100
AcDbLine
 10
137.8235201092486
 20
144.8672337869193
 30
0.0
 11
149.8235201092487
 21
144.8672337869192
 31
0.0
  0
LINE
  5
4A7
330
17
100
AcDbEntity
  8
1
100
AcDbLine
 10
149.8235201092487
 20
144.8672337869192
 30
0.0
 11
149.8235201092487
 21
149.8672337869193
 31
0.0
  0
LINE
  5
4A8
330
17
100
AcDbEntity
  8
1
100
AcDbLine
 10
149.8235201092487
 20
149.8672337869193
 30
0.0
 11
188.8235201092486
 21
149.8672337869193
 31
0.0
  0
LINE
  5
4A9
330
17
100
AcDbEntity
  8
1
100
AcDbLine
 10
188.8235201092486
 20
149.8672337869193
 30
0.0
 11
188.8235201092487
 21
181.8672337869193
 31
0.0
  0
LINE
  5
4AA
330
17
100
AcDbEntity
  8
1
100
AcDbLine
 10
217.8235201092486
 20
159.8672337869193
 30
0.0
 11
217.8235201092486
 21
165.8672337869193
 31
0.0
  0
CIRCLE
  5
4AB
330
17
100
AcDbEntity
  8
1
100
AcDbCircle
 10
212.8235201092486
 20
165.8672337869193
 30
0.0
 40
2.0
  0
ARC
  5
4AC
330
17
100
AcDbEntity
  8
0
100
AcDbCircle
 10
212.8235201092486
 20
165.8672337869193
 30
0.0
 40
2.5
100
AcDbArc
 50
193.8290960525728
 51
98.80882674128788
  0
ARC
  5
4AD
330
17
100
AcDbEntity
  8
0
100
AcDbCircle
 10
194.8235201092487
 20
165.8672337869193
 30
0.0
 40
2.5
100
AcDbArc
 50
193.8290960525728
 51
98.80882674128788
  0
LINE
  5
4AE
330
17
100
AcDbEntity
  8
3
100
AcDbLine
 10
194.8235201092487
 20
162.8364237869192
 30
0.0
 11
194.8235201092487
 21
168.9365237869192
 31
0.0
  0
CIRCLE
  5
4AF
330
17
100
AcDbEntity
  8
1
100
AcDbCircle
 10
194.8235201092487
 20
165.8672337869193
 30
0.0
 40
2.0
  0
LINE
  5
4B0
330
17
100
AcDbEntity
  8
3
100
AcDbLine
 10
212.8235201092486
 20
162.8364237869192
 30
0.0
 11
212.8235201092486
 21
168.9365237869192
 31
0.0
  0
LINE
  5
4B1
330
17
100
AcDbEntity
  8
1
100
AcDbLine
 10
91.82352010924873
 20
186.6172337869193
 30
0.0
 11
137.8235201092486
 21
186.6172337869193
 31
0.0
  0
LINE
  5
4B2
330
17
100
AcDbEntity
  8
1
100
AcDbLine
 10
91.82352010924871
 20
170.8672337869192
 30
0.0
 11
137.8235201092486
 21
170.8672337869193
 31
0.0
  0
LINE
  5
4B3
330
17
100
AcDbEntity
  8
1
100
AcDbLine
 10
89.82352010924868
 20
178.8672337869193
 30
0.0
 11
89.8235201092487
 21
165.8672337869193
 31
0.0
  0
LINE
  5
4B4
330
17
100
AcDbEntity
  8
1
100
AcDbLine
 10
91.82352010924873
 20
186.6172337869193
 30
0.0
 11
91.82352010924871
 21
165.8672337869193
 31
0.0
  0
LINE
  5
4B5
330
17
100
AcDbEntity
  8
1
100
AcDbLine
 10
89.8235201092487
 20
178.8672337869193
 30
0.0
 11
91.82352010924871
 21
178.8672337869193
 31
0.0
  0
LINE
  5
4B6
330
17
100
AcDbEntity
  8
1
100
AcDbLine
 10
188.8235201092486
 20
171.8672337869193
 30
0.0
 11
217.8235201092486
 21
171.8672337869193
 31
0.0
  0
LINE
  5
4B7
330
17
100
AcDbEntity
  8
1
100
AcDbLine
 10
137.8235201092486
 20
186.8672337869193
 30
0.0
 11
149.8235201092487
 21
186.8672337869193
 31
0.0
  0
LINE
  5
4B8
330
17
100
AcDbEntity
  8
1
100
AcDbLine
 10
137.8235201092486
 20
186.8672337869193
 30
0.0
 11
137.8235201092486
 21
165.8672337869193
 31
0.0
  0
LINE
  5
4B9
330
17
100
AcDbEntity
  8
1
100
AcDbLine
 10
149.8235201092487
 20
186.8672337869193
 30
0.0
 11
149.8235201092487
 21
181.8672337869193
 31
0.0
  0
LINE
  5
4BA
330
17
100
AcDbEntity
  8
1
100
AcDbLine
 10
149.8235201092487
 20
181.8672337869193
 30
0.0
 11
188.8235201092486
 21
181.8672337869193
 31
0.0
  0
LINE
  5
4BB
330
17
100
AcDbEntity
  8
1
100
AcDbLine
 10
217.8235201092486
 20
171.8672337869193
 30
0.0
 11
217.8235201092486
 21
165.8672337869193
 31
0.0
  0
LINE
  5
4BC
330
17
100
AcDbEntity
  8
3
100
AcDbLine
 10
143.8235201092487
 20
63.90329378691934
 30
0.0
 11
143.8235201092487
 21
56.04020378691934
 31
0.0
  0
ARC
  5
4BD
330
17
100
AcDbEntity
  8
1
100
AcDbCircle
 10
36.22543010924866
 20
73.89698378691929
 30
0.0
 40
25.0
100
AcDbArc
 50
113.0739180656309
 51
146.0987380031337
  0
LINE
  5
4BE
330
17
100
AcDbEntity
  8
1
100
AcDbLine
 10
21.22543010924866
 20
53.89698378691929
 30
0.0
 11
28.22543010924866
 21
53.89698378691929
 31
0.0
  0
LINE
  5
4BF
330
17
100
AcDbEntity
  8
3
100
AcDbLine
 10
20.16376010924866
 20
89.89698378691935
 30
0.0
 11
26.98880010924867
 21
89.89698378691935
 31
0.0
  0
LINE
  5
4C0
330
17
100
AcDbEntity
  8
3
100
AcDbLine
 10
20.16376010924866
 20
57.89698378691929
 30
0.0
 11
25.93405010924868
 21
57.89698378691929
 31
0.0
  0
CIRCLE
  5
4C1
330
17
100
AcDbEntity
  8
1
100
AcDbCircle
 10
36.22543010924866
 20
73.89698378691929
 30
0.0
 40
13.0
  0
LINE
  5
4C2
330
17
100
AcDbEntity
  8
1
100
AcDbLine
 10
36.22543010924863
 20
96.89698378691929
 30
0.0
 11
26.42747113811589
 21
96.89698378691929
 31
0.0
  0
LINE
  5
4C3
330
17
100
AcDbEntity
  8
1
100
AcDbLine
 10
15.22543010924866
 20
55.37672460946715
 30
0.0
 11
15.22543010924866
 21
73.89698378691935
 31
0.0
  0
ARC
  5
4C4
330
17
100
AcDbEntity
  8
1
100
AcDbCircle
 10
36.22543010924866
 20
73.89698378691929
 30
0.0
 40
25.0
100
AcDbArc
 50
213.9012619968662
 51
233.1301023541559
  0
ARC
  5
4C5
330
17
100
AcDbEntity
  8
0
100
AcDbCircle
 10
23.22543010924866
 20
57.89698378691929
 30
0.0
 40
2.5
100
AcDbArc
 50
192.5709632853215
 51
107.1132896715972
  0
LINE
  5
4C6
330
17
100
AcDbEntity
  8
3
100
AcDbLine
 10
23.22543010924866
 20
55.04641378691928
 30
0.0
 11
23.22543010924866
 21
61.95140378691928
 31
0.0
  0
CIRCLE
  5
4C7
330
17
100
AcDbEntity
  8
1
100
AcDbCircle
 10
23.22543010924866
 20
57.89698378691929
 30
0.0
 40
2.1
  0
LINE
  5
4C8
330
17
100
AcDbEntity
  8
1
100
AcDbLine
 10
15.22543010924866
 20
92.41724296437144
 30
0.0
 11
15.22543010924866
 21
73.89698378691929
 31
0.0
  0
CIRCLE
  5
4C9
330
17
100
AcDbEntity
  8
1
100
AcDbCircle
 10
23.22543010924866
 20
89.89698378691935
 30
0.0
 40
2.1
  0
ARC
  5
4CA
330
17
100
AcDbEntity
  8
0
100
AcDbCircle
 10
23.22543010924866
 20
89.89698378691935
 30
0.0
 40
2.5
100
AcDbArc
 50
252.8867103284027
 51
167.4290367146784
  0
LINE
  5
4CB
330
17
100
AcDbEntity
  8
1
100
AcDbLine
 10
57.22543010924863
 20
55.37672460946715
 30
0.0
 11
57.22543010924863
 21
73.89698378691935
 31
0.0
  0
LINE
  5
4CC
330
17
100
AcDbEntity
  8
3
100
AcDbLine
 10
36.22543010924866
 20
88.46078378691926
 30
0.0
 11
36.22543010924866
 21
59.2624137869193
 31
0.0
  0
LINE
  5
4CD
330
17
100
AcDbEntity
  8
1
100
AcDbLine
 10
51.22543010924866
 20
53.89698378691929
 30
0.0
 11
44.22543010924866
 21
53.89698378691929
 31
0.0
  0
LINE
  5
4CE
330
17
100
AcDbEntity
  8
3
100
AcDbLine
 10
52.28710010924865
 20
57.89698378691929
 30
0.0
 11
46.40566010924868
 21
57.89698378691929
 31
0.0
  0
CIRCLE
  5
4CF
330
17
100
AcDbEntity
  8
1
100
AcDbCircle
 10
49.22543010924866
 20
57.89698378691929
 30
0.0
 40
2.1
  0
ARC
  5
4D0
330
17
100
AcDbEntity
  8
0
100
AcDbCircle
 10
49.22543010924866
 20
57.89698378691929
 30
0.0
 40
2.5
100
AcDbArc
 50
72.88671032840273
 51
347.4290367146784
  0
LINE
  5
4D1
330
17
100
AcDbEntity
  8
1
100
AcDbLine
 10
37.22543010924866
 20
57.99698378691937
 30
0.0
 11
45.92543010924865
 21
57.99698378691937
 31
0.0
  0
LINE
  5
4D2
330
17
100
AcDbEntity
  8
1
100
AcDbLine
 10
37.22543010924866
 20
53.89698378691935
 30
0.0
 11
37.22543010924866
 21
57.99698378691937
 31
0.0
  0
LINE
  5
4D3
330
17
100
AcDbEntity
  8
1
100
AcDbLine
 10
35.22543010924866
 20
53.89698378691935
 30
0.0
 11
35.22543010924866
 21
57.99698378691937
 31
0.0
  0
LINE
  5
4D4
330
17
100
AcDbEntity
  8
1
100
AcDbLine
 10
28.22543010924866
 20
53.89698378691935
 30
0.0
 11
28.22543010924866
 21
56.69698378691936
 31
0.0
  0
LINE
  5
4D5
330
17
100
AcDbEntity
  8
1
100
AcDbLine
 10
35.22543010924866
 20
53.89698378691935
 30
0.0
 11
37.22543010924866
 21
53.89698378691935
 31
0.0
  0
LINE
  5
4D6
330
17
100
AcDbEntity
  8
1
100
AcDbLine
 10
35.22543010924866
 20
57.99698378691937
 30
0.0
 11
26.52543010924867
 21
57.99698378691937
 31
0.0
  0
LINE
  5
4D7
330
17
100
AcDbEntity
  8
1
100
AcDbLine
 10
26.52543010924867
 20
56.69698378691936
 30
0.0
 11
26.52543010924867
 21
57.99698378691937
 31
0.0
  0
LINE
  5
4D8
330
17
100
AcDbEntity
  8
1
100
AcDbLine
 10
28.22543010924866
 20
56.69698378691936
 30
0.0
 11
26.52543010924867
 21
56.69698378691936
 31
0.0
  0
LINE
  5
4D9
330
17
100
AcDbEntity
  8
1
100
AcDbLine
 10
44.22543010924866
 20
53.89698378691935
 30
0.0
 11
44.22543010924866
 21
56.69698378691936
 31
0.0
  0
LINE
  5
4DA
330
17
100
AcDbEntity
  8
1
100
AcDbLine
 10
45.92543010924865
 20
56.69698378691936
 30
0.0
 11
45.92543010924865
 21
57.99698378691937
 31
0.0
  0
LINE
  5
4DB
330
17
100
AcDbEntity
  8
1
100
AcDbLine
 10
44.22543010924866
 20
56.69698378691936
 30
0.0
 11
45.92543010924865
 21
56.69698378691936
 31
0.0
  0
ARC
  5
4DC
330
17
100
AcDbEntity
  8
1
100
AcDbCircle
 10
36.22543010924866
 20
73.89698378691929
 30
0.0
 40
25.0
100
AcDbArc
 50
306.8698976458439
 51
326.0987380031337
  0
LINE
  5
4DD
330
17
100
AcDbEntity
  8
3
100
AcDbLine
 10
49.22543010924866
 20
55.04641378691928
 30
0.0
 11
49.22543010924866
 21
61.95140378691928
 31
0.0
  0
ARC
  5
4DE
330
17
100
AcDbEntity
  8
1
100
AcDbCircle
 10
36.22543010924866
 20
73.89698378691929
 30
0.0
 40
25.0
100
AcDbArc
 50
33.90126199686626
 51
66.92608193436909
  0
LINE
  5
4DF
330
17
100
AcDbEntity
  8
1
100
AcDbLine
 10
57.22543010924863
 20
92.41724296437149
 30
0.0
 11
57.22543010924863
 21
73.89698378691929
 31
0.0
  0
ARC
  5
4E0
330
17
100
AcDbEntity
  8
0
100
AcDbCircle
 10
49.22543010924866
 20
89.89698378691935
 30
0.0
 40
2.5
100
AcDbArc
 50
12.57096328532155
 51
287.1132896715972
  0
CIRCLE
  5
4E1
330
17
100
AcDbEntity
  8
1
100
AcDbCircle
 10
49.22543010924866
 20
89.89698378691935
 30
0.0
 40
2.1
  0
LINE
  5
4E2
330
17
100
AcDbEntity
  8
3
100
AcDbLine
 10
52.28710010924865
 20
89.89698378691935
 30
0.0
 11
45.46206010924865
 21
89.89698378691935
 31
0.0
  0
LINE
  5
4E3
330
17
100
AcDbEntity
  8
3
100
AcDbLine
 10
49.22543010924866
 20
92.74755378691935
 30
0.0
 11
49.22543010924866
 21
85.84256378691931
 31
0.0
  0
LINE
  5
4E4
330
17
100
AcDbEntity
  8
1
100
AcDbLine
 10
36.22543010924866
 20
96.89698378691929
 30
0.0
 11
46.02338908038141
 21
96.89698378691929
 31
0.0
  0
LINE
  5
4E5
330
17
100
AcDbEntity
  8
1
100
AcDbLine
 10
26.42747113811597
 20
96.89698378691936
 30
0.0
 11
46.02338908038134
 21
96.89698378691936
 31
0.0
  0
LINE
  5
4E6
330
17
100
AcDbEntity
  8
1
100
AcDbLine
 10
89.82352010924868
 20
60.89698378691934
 30
0.0
 11
91.82352010924871
 21
60.89698378691934
 31
0.0
  0
LINE
  5
4E7
330
17
100
AcDbEntity
  8
1
100
AcDbLine
 10
151.8235201092487
 20
181.8672337869193
 30
0.0
 11
151.8235201092487
 21
149.8672337869193
 31
0.0
  0
LINE
  5
4E8
330
17
100
AcDbEntity
  8
1
100
AcDbLine
 10
147.8235201092487
 20
73.89698378691929
 30
0.0
 11
147.8235201092487
 21
96.87523437307142
 31
0.0
  0
ARC
  5
4E9
330
17
100
AcDbEntity
  8
0
100
AcDbCircle
 10
143.8235201092487
 20
87.89698378691928
 30
0.0
 40
3.0
100
AcDbArc
 50
194.7724594646604
 51
107.6387357285937
  0
CIRCLE
  5
4EA
330
17
100
AcDbEntity
  8
1
100
AcDbCircle
 10
143.8235201092487
 20
87.89698378691928
 30
0.0
 40
2.5
  0
ARC
  5
4EB
330
17
100
AcDbEntity
  8
0
100
AcDbCircle
 10
143.8235201092487
 20
59.89698378691935
 30
0.0
 40
3.0
100
AcDbArc
 50
194.7724594646604
 51
107.6387357285937
  0
CIRCLE
  5
4EC
330
17
100
AcDbEntity
  8
1
100
AcDbCircle
 10
143.8235201092487
 20
59.89698378691935
 30
0.0
 40
2.5
  0
LINE
  5
4ED
330
17
100
AcDbEntity
  8
3
100
AcDbLine
 10
147.7595701092486
 20
59.89698378691935
 30
0.0
 11
140.3182601092486
 21
59.89698378691935
 31
0.0
  0
ARC
  5
4EE
330
17
100
AcDbEntity
  8
1
100
AcDbCircle
 10
36.22543010924866
 20
73.89698378691929
 30
0.0
 40
28.0
100
AcDbArc
 50
221.4096221092709
 51
318.590377890729
  0
ARC
  5
4EF
330
17
100
AcDbEntity
  8
1
100
AcDbCircle
 10
36.22543010924866
 20
73.89698378691929
 30
0.0
 40
28.0
100
AcDbArc
 50
41.40962210927096
 51
138.5903778907291
  0
LINE
  5
4F0
330
17
100
AcDbEntity
  8
1
100
AcDbLine
 10
147.8235201092487
 20
96.87523437307142
 30
0.0
 11
149.8235201092486
 21
96.87523437307142
 31
0.0
  0
LINE
  5
4F1
330
17
100
AcDbEntity
  8
1
100
AcDbLine
 10
149.8235201092487
 20
96.87523437307142
 30
0.0
 11
149.8235201092487
 21
103.8969837869192
 31
0.0
  0
LINE
  5
4F2
330
17
100
AcDbEntity
  8
1
100
AcDbLine
 10
147.8235201092487
 20
73.89698378691935
 30
0.0
 11
147.8235201092487
 21
50.91873320076718
 31
0.0
  0
LINE
  5
4F3
330
17
100
AcDbEntity
  8
1
100
AcDbLine
 10
52.22543010924866
 20
103.8969837869193
 30
0.0
 11
20.22543010924866
 21
103.8969837869193
 31
0.0
  0
LINE
  5
4F4
330
17
100
AcDbEntity
  8
1
100
AcDbLine
 10
52.22543010924866
 20
103.8969837869193
 30
0.0
 11
52.22543010924866
 21
96.87523437307142
 31
0.0
  0
LINE
  5
4F5
330
17
100
AcDbEntity
  8
1
100
AcDbLine
 10
20.22543010924866
 20
103.8969837869193
 30
0.0
 11
20.22543010924866
 21
96.87523437307142
 31
0.0
  0
LINE
  5
4F6
330
17
100
AcDbEntity
  8
1
100
AcDbLine
 10
52.22543010924866
 20
43.89698378691924
 30
0.0
 11
52.22543010924866
 21
50.91873320076718
 31
0.0
  0
LINE
  5
4F7
330
17
100
AcDbEntity
  8
1
100
AcDbLine
 10
52.22543010924866
 20
43.89698378691924
 30
0.0
 11
20.22543010924866
 21
43.89698378691924
 31
0.0
  0
LINE
  5
4F8
330
17
100
AcDbEntity
  8
1
100
AcDbLine
 10
20.22543010924866
 20
43.89698378691924
 30
0.0
 11
20.22543010924866
 21
50.91873320076718
 31
0.0
  0
LINE
  5
4F9
330
17
100
AcDbEntity
  8
3
100
AcDbLine
 10
23.22543010924866
 20
92.74755378691935
 30
0.0
 11
23.22543010924866
 21
85.84256378691931
 31
0.0
  0
LINE
  5
4FA
330
17
100
AcDbEntity
  8
1
100
AcDbLine
 10
149.8235201092487
 20
50.91873320076718
 30
0.0
 11
149.8235201092487
 21
43.89698378691929
 31
0.0
  0
LINE
  5
4FB
330
17
100
AcDbEntity
  8
1
100
AcDbLine
 10
147.8235201092487
 20
50.91873320076718
 30
0.0
 11
149.8235201092486
 21
50.91873320076718
 31
0.0
  0
LINE
  5
4FC
330
17
100
AcDbEntity
  8
1
100
AcDbLine
 10
137.8235201092486
 20
93.50595375316988
 30
0.0
 11
147.8235201092487
 21
93.50595375316988
 31
0.0
  0
LINE
  5
4FD
330
17
100
AcDbEntity
  8
1
100
AcDbLine
 10
137.8235201092486
 20
54.28801382066871
 30
0.0
 11
147.8235201092487
 21
54.28801382066871
 31
0.0
  0
LINE
  5
4FE
330
17
100
AcDbEntity
  8
3
100
AcDbLine
 10
87.65818010924869
 20
73.89698378691929
 30
0.0
 11
190.7306401092487
 21
73.89698378691929
 31
0.0
  0
SOLID
  5
4FF
330
17
100
AcDbEntity
  8
5
100
AcDbTrace
 10
197.1847093334388
 20
170.6526393788708
 30
0.0
 11
196.352381075282
 21
170.8941777439081
 31
0.0
 12
196.0439301092486
 22
168.2764237869192
 32
0.0
 13
196.0439301092486
 23
168.2764237869192
 33
0.0
  0
LINE
  5
500
330
17
100
AcDbEntity
  8
5
100
AcDbLine
 10
196.7685452043604
 20
170.7734085613894
 30
0.0
 11
200.4631601092486
 21
182.5978037869192
 31
0.0
  0
LINE
  5
501
330
17
100
AcDbEntity
  8
5
100
AcDbLine
 10
200.4631601092486
 20
182.5978037869192
 30
0.0
 11
203.0631601092486
 21
182.5978037869192
 31
0.0
  0
LINE
  5
502
330
17
100
AcDbEntity
  8
5
100
AcDbLine
 10
203.0631601092486
 20
182.5978037869192
 30
0.0
 11
225.5169580095111
 21
182.5978037869192
 31
0.0
  0
TEXT
  5
503
330
17
100
AcDbEntity
  8
5
100
AcDbText
 10
202.0999801092486
 20
184.2779437869193
 30
0.0
 40
3.9
  1
8-M6X1.0
  7
CHINA
 11
202.0999801092486
 21
186.2279437869192
 31
0.0
100
AcDbText
 73
     2
  0
SOLID
  5
504
330
17
100
AcDbEntity
  8
5
100
AcDbTrace
 10
119.2892285012625
 20
170.2732637745547
 30
0.0
 11
118.4547266539702
 21
170.0393454598016
 31
0.0
 12
119.5737325218756
 22
167.6527990753013
 32
0.0
 13
119.5737325218756
 23
167.6527990753013
 33
0.0
  0
LINE
  5
505
330
17
100
AcDbEntity
  8
5
100
AcDbLine
 10
118.8719775776164
 20
170.1563046171781
 30
0.0
 11
111.6434157619758
 21
196.5674337235342
 31
0.0
  0
LINE
  5
506
330
17
100
AcDbEntity
  8
5
100
AcDbLine
 10
111.6434157619758
 20
196.5674337235341
 30
0.0
 11
166.2785757619757
 21
196.5674337235341
 31
0.0
  0
TEXT
  5
507
330
17
100
AcDbEntity
  8
5
100
AcDbText
 10
113.2711357619756
 20
198.5174337235341
 30
0.0
 40
3.9
  1
M5X0.8 SHUT PORT
 50
359.9999999999983
  7
CHINA
 11
113.2711357619757
 21
200.4674337235341
 31
0.0
100
AcDbText
 73
     2
  0
SOLID
  5
508
330
17
100
AcDbEntity
  8
5
100
AcDbTrace
 10
98.67067781850819
 20
170.4549629541279
 30
0.0
 11
97.88846875488772
 21
170.0817872690933
 31
0.0
 12
99.39910034180195
 22
167.9217479207492
 32
0.0
 13
99.39910034180195
 23
167.9217479207492
 33
0.0
  0
LINE
  5
509
330
17
100
AcDbEntity
  8
5
100
AcDbLine
 10
98.27957328669796
 20
170.2683751116106
 30
0.0
 11
86.16595010924868
 21
195.9920537869193
 31
0.0
  0
LINE
  5
50A
330
17
100
AcDbEntity
  8
5
100
AcDbLine
 10
86.16595010924868
 20
195.9920537869193
 30
0.0
 11
29.67949344258201
 21
195.9920537869193
 31
0.0
  0
TEXT
  5
50B
330
17
100
AcDbEntity
  8
5
100
AcDbText
 10
30.62180344258199
 20
197.9420537869193
 30
0.0
 40
3.9
  1
M5X0.8 OPEN PORT
  7
CHINA
 72
     2
 11
83.74847010924867
 21
199.8920537869192
 31
0.0
100
AcDbText
 73
     2
  0
LINE
  5
50C
330
17
100
AcDbEntity
  8
5
100
AcDbLine
 10
67.78213010924867
 20
115.4589237869192
 30
0.0
 11
42.92274010924863
 21
115.4589237869192
 31
0.0
  0
TEXT
  5
50D
330
17
100
AcDbEntity
  8
5
100
AcDbText
 10
43.23139887565282
 20
117.4089237869192
 30
0.0
 40
3.9
  1
4-M5X0.8
  7
CHINA
 72
     2
 11
66.43486344258197
 21
119.3589237869192
 31
0.0
100
AcDbText
 73
     2
  0
SOLID
  5
50E
330
17
100
AcDbEntity
  8
5
100
AcDbTrace
 10
146.5508932733342
 20
92.87833601662601
 30
0.0
 11
145.7220194061815
 21
93.13147476012909
 31
0.0
 12
145.3770401092486
 22
90.51828378691926
 32
0.0
 13
145.3770401092486
 23
90.51828378691926
 33
0.0
  0
LINE
  5
50F
330
17
100
AcDbEntity
  8
5
100
AcDbLine
 10
146.1364563397579
 20
93.00490538837754
 30
0.0
 11
152.7183501092486
 21
114.7431037869192
 31
0.0
  0
LINE
  5
510
330
17
100
AcDbEntity
  8
5
100
AcDbLine
 10
152.7183501092486
 20
114.7431037869192
 30
0.0
 11
155.3183501092486
 21
114.7431037869192
 31
0.0
  0
LINE
  5
511
330
17
100
AcDbEntity
  8
5
100
AcDbLine
 10
155.3183501092486
 20
114.7431037869192
 30
0.0
 11
202.3152601092486
 21
114.7431037869192
 31
0.0
  0
TEXT
  5
512
330
17
100
AcDbEntity
  8
5
100
AcDbText
 10
155.4353501092486
 20
116.6931037869192
 30
0.0
 40
3.9
  1
2X2-M6X1.0 DP14
  7
CHINA
 11
155.4353501092486
 21
118.6431037869192
 31
0.0
100
AcDbText
 73
     2
  0
LINE
  5
513
330
17
100
AcDbEntity
  8
1
100
AcDbLine
 10
56.97543010924866
 20
87.84106855430366
 30
0.0
 11
56.97543010924866
 21
59.95289901953498
 31
0.0
  0
LINE
  5
514
330
17
100
AcDbEntity
  8
1
100
AcDbLine
 10
15.47543010924866
 20
87.84106855430366
 30
0.0
 11
15.47543010924866
 21
59.95289901953498
 31
0.0
  0
LINE
  5
515
330
17
100
AcDbEntity
  8
3
100
AcDbLine
 10
21.59788010924866
 20
73.89698378691929
 30
0.0
 11
51.25865010924866
 21
73.89698378691929
 31
0.0
  0
SOLID
  5
516
330
17
100
AcDbEntity
  8
5
100
AcDbTrace
 10
26.3722972008441
 20
94.31348564235554
 30
0.0
 11
25.6985308103461
 21
94.85860027447102
 31
0.0
 12
24.40007010924864
 22
92.56474378691928
 32
0.0
 13
24.40007010924864
 23
92.56474378691928
 33
0.0
  0
LINE
  5
517
330
17
100
AcDbEntity
  8
5
100
AcDbLine
 10
26.03541400559509
 20
94.58604295841325
 30
0.0
 11
42.92274010924863
 21
115.4589237869192
 31
0.0
  0
DIMENSION
  5
524
330
17
100
AcDbEntity
  8
5
100
AcDbDimension
  2
*D0
 10
68.99051747493036
 20
57.89698378691929
 30
0.0
 11
66.49051747493034
 21
73.89698378691933
 31
0.0
 70
    32
  3
STANDARD
100
AcDbAlignedDimension
 13
52.28710010924865
 23
89.89698378691935
 33
0.0
 14
52.28710010924865
 24
57.89698378691929
 34
0.0
 50
90.0
100
AcDbRotatedDimension
  0
DIMENSION
  5
531
330
17
100
AcDbEntity
  8
5
100
AcDbDimension
  2
*D1
 10
80.4201388941874
 20
145.1172337869193
 30
0.0
 11
77.92013889418739
 21
165.8672337869193
 31
0.0
 70
    32
  3
STANDARD
100
AcDbAlignedDimension
 13
91.82352010924873
 23
186.6172337869193
 33
0.0
 14
91.82352010924873
 24
145.1172337869193
 34
0.0
 50
90.0
100
AcDbRotatedDimension
  0
DIMENSION
  5
53E
330
17
100
AcDbEntity
  8
5
100
AcDbDimension
  2
*D2
 10
168.3495806340486
 20
149.8672337869193
 30
0.0
 11
165.8495806340485
 21
165.8672337869193
 31
0.0
 70
    32
  3
STANDARD
100
AcDbAlignedDimension
 13
167.5679856382353
 23
181.8672337869193
 33
0.0
 14
167.5679856382353
 24
149.8672337869193
 34
0.0
 50
90.0
100
AcDbRotatedDimension
  0
LINE
  5
5CB
330
17
100
AcDbEntity
  8
LOGO
 62
     6
100
AcDbLine
 10
171.3789646278652
 20
14.05301902651871
 30
0.0
 11
144.2562172393624
 21
14.05301902651871
 31
0.0
  0
LINE
  5
5CC
330
17
100
AcDbEntity
  8
LOGO
 62
     6
100
AcDbLine
 10
171.3789646278652
 20
18.73735871927571
 30
0.0
 11
144.2562172393624
 21
18.73735871927571
 31
0.0
  0
LINE
  5
5CD
330
17
100
AcDbEntity
  8
LOGO
 62
     6
100
AcDbLine
 10
171.3789646278652
 20
28.10603810478976
 30
0.0
 11
144.2562172393624
 21
28.10603810478969
 31
0.0
  0
LINE
  5
5CE
330
17
100
AcDbEntity
  8
LOGO
 62
     6
100
AcDbLine
 10
171.3789646278652
 20
2.602410888668295
 30
0.0
 11
144.2562172393624
 21
2.602410888668295
 31
0.0
  0
LINE
  5
5CF
330
17
100
AcDbEntity
  8
LOGO
 62
     1
100
AcDbLine
 10
247.1020577224244
 20
-0.0000000517522594
 30
0.0
 11
0.2442963770039341
 21
-0.0000000517522594
 31
0.0
  0
LINE
  5
5D0
330
17
100
AcDbEntity
  8
LOGO
 62
     1
100
AcDbLine
 10
247.1020577224244
 20
31.22893123329436
 30
0.0
 11
0.2442963770039341
 21
31.22893123329436
 31
0.0
  0
POLYLINE
  5
5D1
330
17
100
AcDbEntity
  8
1
 62
     4
100
AcDb2dPolyline
 66
     1
 10
0.0
 20
0.0
 30
0.0
 70
     1
  0
VERTEX
  5
6E6
330
5D1
100
AcDbEntity
  8
1
 62
     4
100
AcDbVertex
100
AcDb2dVertex
 10
0.2442963770039341
 20
208.8135336900169
 30
0.0
  0
VERTEX
  5
6E7
330
5D1
100
AcDbEntity
  8
1
 62
     4
100
AcDbVertex
100
AcDb2dVertex
 10
247.1020577224244
 20
208.8135336900169
 30
0.0
  0
VERTEX
  5
6E8
330
5D1
100
AcDbEntity
  8
1
 62
     4
100
AcDbVertex
100
AcDb2dVertex
 10
247.1020577224244
 20
31.22893123329436
 30
0.0
  0
VERTEX
  5
6E9
330
5D1
100
AcDbEntity
  8
1
 62
     4
100
AcDbVertex
100
AcDb2dVertex
 10
0.2442963770039341
 20
31.22893123329436
 30
0.0
  0
SEQEND
  5
6EA
330
5D1
100
AcDbEntity
  8
1
 62
     4
  0
TEXT
  5
5D2
330
17
100
AcDbEntity
  8
LOGO
 62
     6
100
AcDbText
 10
52.81351229715134
 20
14.05301902651872
 30
0.0
 40
3.122893128504662
  1
m/m
  7
CHINESET
 72
     1
 11
58.31575257118338
 21
15.61446559077105
 31
0.0
100
AcDbText
 73
     2
  0
TEXT
  5
5D3
330
17
100
AcDbEntity
  8
LOGO
 62
     6
100
AcDbText
 10
52.81351229715134
 20
26.54459154053736
 30
0.0
 40
3.122893128504662
  1
1 : 1
  7
CHINESET
 72
     1
 11
58.31575257118338
 21
28.10603810478969
 31
0.0
100
AcDbText
 73
     2
  0
LINE
  5
5D4
330
17
100
AcDbEntity
  8
LOGO
 62
     1
100
AcDbLine
 10
68.94794520410638
 20
18.73735871927571
 30
0.0
 11
23.1455126527048
 21
18.73735871927571
 31
0.0
  0
LINE
  5
5D5
330
17
100
AcDbEntity
  8
LOGO
 62
     1
100
AcDbLine
 10
68.94794520410638
 20
24.98314497628504
 30
0.0
 11
23.1455126527048
 21
24.98314497628504
 31
0.0
  0
LINE
  5
5D6
330
17
100
AcDbEntity
  8
LOGO
 62
     1
100
AcDbLine
 10
68.94794520410638
 20
12.49157246226638
 30
0.0
 11
0.2442963770038615
 21
12.49157246226638
 31
0.0
  0
TEXT
  5
5D7
330
17
100
AcDbEntity
  8
LOGO
  6
CONTINUOUS
 62
     5
100
AcDbText
 10
1.266472025222638
 20
6.134876370628617
 30
0.0
 40
4.684339692756993
  1
金器工業股份有限公司
 41
0.8
  7
LOGO
100
AcDbText
  0
TEXT
  5
5D8
330
17
100
AcDbEntity
  8
LOGO
  6
CONTINUOUS
 62
     5
100
AcDbText
 10
2.607784380796583
 20
1.449618914558271
 30
0.0
 40
3.122893128504662
  1
MINDMAN INDUSTRIAL CO.,LTD
 41
0.85
  7
CHINESET
100
AcDbText
  0
POLYLINE
  5
5D9
330
17
100
AcDbEntity
  8
LOGO
 62
     5
100
AcDb2dPolyline
 66
     1
 10
0.0
 20
0.0
 30
0.0
 70
     1
 40
0.4663520405233628
 41
0.4663520405233628
  0
VERTEX
  5
6EB
330
5D9
100
AcDbEntity
  8
LOGO
 62
     5
100
AcDbVertex
100
AcDb2dVertex
 10
9.53573219428153
 20
14.19089370013258
 30
0.0
 42
1.0
  0
VERTEX
  5
6EC
330
5D9
100
AcDbEntity
  8
LOGO
 62
     5
100
AcDbVertex
100
AcDb2dVertex
 10
11.40114035637513
 20
14.19089370013258
 30
0.0
 42
1.0
  0
SEQEND
  5
6ED
330
5D9
100
AcDbEntity
  8
LOGO
 62
     5
  0
SOLID
  5
5DA
330
17
100
AcDbEntity
  8
LOGO
 62
     5
100
AcDbTrace
 10
3.484348116450443
 20
17.68293777957169
 30
0.0
 11
4.834605160499986
 21
17.68293777957122
 31
0.0
 12
10.4684362753287
 22
30.48709940418141
 32
0.0
 13
11.81869331937824
 23
30.48709940418047
 33
0.0
  0
SOLID
  5
5DB
330
17
100
AcDbEntity
  8
LOGO
 62
     5
100
AcDbTrace
 10
5.393332213211051
 20
17.68293777957169
 30
0.0
 11
6.743589257260594
 21
17.68293777957169
 31
0.0
 12
11.81869331937824
 22
29.46276647421216
 32
0.0
 13
10.4684362753287
 23
24.51182397936291
 33
0.0
  0
SOLID
  5
5DC
330
17
100
AcDbEntity
  8
LOGO
 62
     2
100
AcDbTrace
 10
4.834605160499986
 20
17.68293777957122
 30
0.0
 11
5.393332213211051
 21
17.68293777957169
 31
0.0
 12
11.81869331937824
 22
30.48709940418047
 32
0.0
 13
12.3774203720888
 23
30.48709940418047
 33
0.0
  0
SOLID
  5
5DD
330
17
100
AcDbEntity
  8
LOGO
 62
     5
100
AcDbTrace
 10
5.889900881306782
 20
15.35490839327899
 30
0.0
 11
6.355506758566263
 21
15.35490839327899
 31
0.0
 12
5.889900881306782
 22
13.0268790069858
 32
0.0
 13
6.355506758566263
 23
13.02687900698669
 33
0.0
  0
SOLID
  5
5DE
330
17
100
AcDbEntity
  8
LOGO
 62
     5
100
AcDbTrace
 10
4.873131486219931
 20
15.35490839327899
 30
0.0
 11
5.338737363477886
 21
15.35490839327899
 31
0.0
 12
4.873131486219931
 22
13.02687900698669
 32
0.0
 13
5.338737363477886
 23
13.02687900698669
 33
0.0
  0
SOLID
  5
5DF
330
17
100
AcDbEntity
  8
LOGO
 62
     5
100
AcDbTrace
 10
6.898729135563294
 20
15.35490839327899
 30
0.0
 11
7.364335012821357
 21
15.35490839327899
 31
0.0
 12
6.898729135563294
 22
13.02687900698669
 32
0.0
 13
7.364335012821357
 23
13.02687900698669
 33
0.0
  0
SOLID
  5
5E0
330
17
100
AcDbEntity
  8
LOGO
 62
     5
100
AcDbTrace
 10
8.295546767338429
 20
14.42369663876184
 30
0.0
 11
8.761152644597329
 21
14.42369663876184
 31
0.0
 12
8.295546767338429
 22
13.02687900698669
 32
0.0
 13
8.761152644597329
 23
13.02687900698669
 33
0.0
  0
SOLID
  5
5E1
330
17
100
AcDbEntity
  8
LOGO
 62
     5
100
AcDbTrace
 10
1.319554951251224
 20
13.02687900698669
 30
0.0
 11
1.785160828510341
 21
13.02687900698669
 31
0.0
 12
3.096343218735214
 22
15.35490839327899
 32
0.0
 13
3.561949095993387
 23
15.35490839327899
 33
0.0
  0
SOLID
  5
5E2
330
17
100
AcDbEntity
  8
LOGO
 62
     5
100
AcDbTrace
 10
3.096343218735214
 20
15.35490839327899
 30
0.0
 11
3.561949095993387
 21
15.35490839327899
 31
0.0
 12
3.096343218735214
 22
13.02687900698669
 32
0.0
 13
3.561949095993387
 23
13.02687900698669
 33
0.0
  0
SOLID
  5
5E3
330
17
100
AcDbEntity
  8
LOGO
 62
     5
100
AcDbTrace
 10
3.096343218735214
 20
13.02687900698669
 30
0.0
 11
3.561949095993387
 21
13.02687900698669
 31
0.0
 12
4.873131486219931
 22
15.35490839327899
 32
0.0
 13
5.338737363477886
 23
15.35490839327899
 33
0.0
  0
LINE
  5
5E4
330
17
100
AcDbEntity
  8
LOGO
 62
     1
100
AcDbLine
 10
0.2442963770039341
 20
-0.0000000517522594
 30
0.0
 11
0.2442963770039341
 21
31.22893123329436
 31
0.0
  0
SOLID
  5
5E5
330
17
100
AcDbEntity
  8
LOGO
 62
     5
100
AcDbTrace
 10
5.889900881306782
 20
15.6808325073597
 30
0.0
 11
6.355506758566263
 21
15.6808325073597
 31
0.0
 12
5.889900881306782
 22
16.05331720916697
 32
0.0
 13
6.355506758566263
 23
16.05331720916697
 33
0.0
  0
POLYLINE
  5
5E6
330
17
100
AcDbEntity
  8
LOGO
 62
     5
100
AcDb2dPolyline
 66
     1
 10
0.0
 20
0.0
 30
0.0
 40
0.4663520405233628
 41
0.4663520405233628
  0
VERTEX
  5
6EE
330
5E6
100
AcDbEntity
  8
LOGO
 62
     5
100
AcDbVertex
100
AcDb2dVertex
 10
8.529468950865084
 20
14.42369663876184
 30
0.0
 42
1.0
  0
VERTEX
  5
6EF
330
5E6
100
AcDbEntity
  8
LOGO
 62
     5
100
AcDbVertex
100
AcDb2dVertex
 10
7.130412829294942
 20
14.42369663876184
 30
0.0
 42
1.0
  0
SEQEND
  5
6F0
330
5E6
100
AcDbEntity
  8
LOGO
 62
     5
  0
LINE
  5
5E7
330
17
100
AcDbEntity
  8
LOGO
 62
     1
100
AcDbLine
 10
48.12865768074209
 20
12.49157246226638
 30
0.0
 11
48.12865768074209
 21
31.22893123329436
 31
0.0
  0
LINE
  5
5E8
330
17
100
AcDbEntity
  8
LOGO
 62
     5
100
AcDbLine
 10
20.71176557501612
 20
13.02687900698669
 30
0.0
 11
20.71176557501612
 21
14.42369663876184
 31
0.0
  0
SOLID
  5
5E9
330
17
100
AcDbEntity
  8
LOGO
 62
     5
100
AcDbTrace
 10
20.24615969775795
 20
14.42369663876184
 30
0.0
 11
20.71176557501612
 21
14.42369663876178
 31
0.0
 12
20.24615969775795
 22
13.02687900698669
 32
0.0
 13
20.71176557501612
 23
13.02687900698669
 33
0.0
  0
SOLID
  5
5EA
330
17
100
AcDbEntity
  8
LOGO
 62
     5
100
AcDbTrace
 10
12.17562678488541
 20
15.35490839327899
 30
0.0
 11
12.64123266214358
 21
15.35490839327899
 31
0.0
 12
12.17562678488541
 22
13.02687900698669
 32
0.0
 13
12.64123266214358
 23
13.02687900698669
 33
0.0
  0
SOLID
  5
5EB
330
17
100
AcDbEntity
  8
LOGO
 62
     5
100
AcDbTrace
 10
13.57244441666066
 20
14.42369663876184
 30
0.0
 11
14.03805029391875
 21
14.42369663876184
 31
0.0
 12
13.57244441666066
 22
13.02687900698669
 32
0.0
 13
14.03805029391875
 23
13.02687900698669
 33
0.0
  0
SOLID
  5
5EC
330
17
100
AcDbEntity
  8
LOGO
 62
     5
100
AcDbTrace
 10
14.96926204843594
 20
14.42369663876184
 30
0.0
 11
15.43486792569389
 21
14.42369663876184
 31
0.0
 12
14.96926204843594
 22
13.0268790069858
 32
0.0
 13
15.43486792569389
 23
13.0268790069858
 33
0.0
  0
POLYLINE
  5
5ED
330
17
100
AcDbEntity
  8
LOGO
 62
     5
100
AcDb2dPolyline
 66
     1
 10
0.0
 20
0.0
 30
0.0
 70
     1
 40
0.4663520405233628
 41
0.4663520405233628
  0
VERTEX
  5
6F1
330
5ED
100
AcDbEntity
  8
LOGO
 62
     5
100
AcDbVertex
100
AcDb2dVertex
 10
16.20944747537903
 20
14.19089370013258
 30
0.0
 42
1.0
  0
VERTEX
  5
6F2
330
5ED
100
AcDbEntity
  8
LOGO
 62
     5
100
AcDbVertex
100
AcDb2dVertex
 10
18.07485563747239
 20
14.19089370013258
 30
0.0
 42
1.0
  0
SEQEND
  5
6F3
330
5ED
100
AcDbEntity
  8
LOGO
 62
     5
  0
SOLID
  5
5EE
330
17
100
AcDbEntity
  8
LOGO
 62
     5
100
AcDbTrace
 10
17.84051381172685
 20
15.35490839327899
 30
0.0
 11
18.30611968898491
 21
15.35490839327899
 31
0.0
 12
17.84051381172685
 22
13.02687900698669
 32
0.0
 13
18.30611968898491
 23
13.02687900698669
 33
0.0
  0
SOLID
  5
5EF
330
17
100
AcDbEntity
  8
LOGO
 62
     5
100
AcDbTrace
 10
18.84934206598194
 20
13.02687900698669
 30
0.0
 11
19.31494794324084
 21
13.02687900698669
 31
0.0
 12
18.84934206598194
 22
15.35490839327899
 32
0.0
 13
19.31494794324084
 23
15.35490839327899
 33
0.0
  0
LINE
  5
5F0
330
17
100
AcDbEntity
  8
LOGO
 62
     1
100
AcDbLine
 10
23.1455126527048
 20
12.49157246226638
 30
0.0
 11
23.1455126527048
 21
31.22893123329436
 31
0.0
  0
SOLID
  5
5F1
330
17
100
AcDbEntity
  8
LOGO
 62
     5
100
AcDbTrace
 10
11.16679853062897
 20
16.05331720916697
 30
0.0
 11
11.63240440788707
 21
16.05331720916697
 31
0.0
 12
11.16679853062897
 22
13.02687900698669
 32
0.0
 13
11.63240440788707
 23
13.02687900698669
 33
0.0
  0
SOLID
  5
5F2
330
17
100
AcDbEntity
  8
LOGO
 62
     5
100
AcDbTrace
 10
12.3774203720888
 20
18.70727070953998
 30
0.0
 11
13.72767741613834
 21
23.6582132043893
 31
0.0
 12
18.80278147825588
 22
30.48709940418141
 32
0.0
 13
17.45252443420622
 23
30.48709940418141
 33
0.0
  0
SOLID
  5
5F3
330
17
100
AcDbEntity
  8
LOGO
 62
     5
100
AcDbTrace
 10
12.3774203720888
 20
30.48709940418047
 30
0.0
 11
13.72767741613834
 21
30.48709940418141
 31
0.0
 12
12.3774203720888
 22
18.70727070953998
 32
0.0
 13
13.72767741613834
 23
23.6582132043893
 33
0.0
  0
SOLID
  5
5F4
330
17
100
AcDbEntity
  8
LOGO
 62
     5
100
AcDbTrace
 10
19.36150853096658
 20
17.68293777957122
 30
0.0
 11
20.71176557501612
 21
17.68293777957122
 31
0.0
 12
19.36150853096658
 22
30.48709940418047
 32
0.0
 13
20.71176557501612
 23
30.48709940418141
 33
0.0
  0
SOLID
  5
5F5
330
17
100
AcDbEntity
  8
LOGO
 62
     2
100
AcDbTrace
 10
18.80278147825588
 20
30.48709940418141
 30
0.0
 11
19.36150853096658
 21
30.48709940418047
 31
0.0
 12
18.80278147825588
 22
17.68293777957122
 32
0.0
 13
19.36150853096658
 23
17.68293777957122
 33
0.0
  0
SOLID
  5
5F6
330
17
100
AcDbEntity
  8
LOGO
 62
     2
100
AcDbTrace
 10
11.81869331937824
 20
17.68293777957169
 30
0.0
 11
12.3774203720888
 21
17.68293777957169
 31
0.0
 12
18.80278147825588
 22
30.48709940418141
 32
0.0
 13
19.36150853096658
 23
30.48709940418047
 33
0.0
  0
SOLID
  5
5F7
330
17
100
AcDbEntity
  8
LOGO
 62
     2
100
AcDbTrace
 10
11.81869331937824
 20
30.48709940418047
 30
0.0
 11
12.3774203720888
 21
30.48709940418047
 31
0.0
 12
11.81869331937824
 22
17.68293777957169
 32
0.0
 13
12.3774203720888
 23
17.68293777957169
 33
0.0
  0
SOLID
  5
5F8
330
17
100
AcDbEntity
  8
LOGO
 62
     5
100
AcDbTrace
 10
12.3774203720888
 20
17.68293777957169
 30
0.0
 11
13.72767741613834
 21
17.68293777957169
 31
0.0
 12
18.80278147825588
 22
29.46276647421216
 32
0.0
 13
17.45252443420622
 23
24.51182397936291
 33
0.0
  0
SOLID
  5
5F9
330
17
100
AcDbEntity
  8
LOGO
 62
     5
100
AcDbTrace
 10
18.80278147825588
 20
29.46276647421216
 30
0.0
 11
17.45252443420622
 21
24.51182397936291
 31
0.0
 12
18.80278147825588
 22
17.68293777957122
 32
0.0
 13
17.45252443420622
 23
17.68293777957122
 33
0.0
  0
SOLID
  5
5FA
330
17
100
AcDbEntity
  8
LOGO
 62
     5
100
AcDbTrace
 10
10.4684362753287
 20
17.68293777957169
 30
0.0
 11
11.81869331937824
 21
17.68293777957169
 31
0.0
 12
10.4684362753287
 22
24.51182397936291
 32
0.0
 13
11.81869331937824
 23
29.46276647421216
 33
0.0
  0
POLYLINE
  5
5FB
330
17
100
AcDbEntity
  8
LOGO
 62
     5
100
AcDb2dPolyline
 66
     1
 10
0.0
 20
0.0
 30
0.0
 40
0.4663520405233628
 41
0.4663520405233628
  0
VERTEX
  5
6F4
330
5FB
100
AcDbEntity
  8
LOGO
 62
     5
100
AcDbVertex
100
AcDb2dVertex
 10
15.20318423196235
 20
14.42369663876184
 30
0.0
 42
1.0
  0
VERTEX
  5
6F5
330
5FB
100
AcDbEntity
  8
LOGO
 62
     5
100
AcDbVertex
100
AcDb2dVertex
 10
13.80412811039221
 20
14.42369663876184
 30
0.0
 42
1.0
  0
SEQEND
  5
6F6
330
5FB
100
AcDbEntity
  8
LOGO
 62
     5
  0
POLYLINE
  5
5FC
330
17
100
AcDbEntity
  8
LOGO
 62
     5
100
AcDb2dPolyline
 66
     1
 10
0.0
 20
0.0
 30
0.0
 40
0.4663520405233628
 41
0.4663520405233628
  0
VERTEX
  5
6F7
330
5FC
100
AcDbEntity
  8
LOGO
 62
     5
100
AcDbVertex
100
AcDb2dVertex
 10
13.80636660018708
 20
14.42369663876184
 30
0.0
 42
1.0
  0
VERTEX
  5
6F8
330
5FC
100
AcDbEntity
  8
LOGO
 62
     5
100
AcDbVertex
100
AcDb2dVertex
 10
12.40731047861694
 20
14.42369663876184
 30
0.0
 42
1.0
  0
SEQEND
  5
6F9
330
5FC
100
AcDbEntity
  8
LOGO
 62
     5
  0
POLYLINE
  5
5FD
330
17
100
AcDbEntity
  8
LOGO
 62
     5
100
AcDb2dPolyline
 66
     1
 10
0.0
 20
0.0
 30
0.0
 70
     1
  0
VERTEX
  5
6FA
330
5FD
100
AcDbEntity
  8
LOGO
 62
     5
100
AcDbVertex
100
AcDb2dVertex
 10
16.44374274053808
 20
14.19089370013281
 30
0.0
 42
1.000000057330635
  0
VERTEX
  5
6FB
330
5FD
100
AcDbEntity
  8
LOGO
 62
     5
100
AcDbVertex
100
AcDb2dVertex
 10
17.84056037231395
 20
14.19089370013281
 30
0.0
 42
1.000000057330635
  0
SEQEND
  5
6FC
330
5FD
100
AcDbEntity
  8
LOGO
 62
     5
  0
CIRCLE
  5
5FE
330
17
100
AcDbEntity
  8
LOGO
 62
     5
100
AcDbCircle
 10
17.14215155642595
 20
14.19089370013281
 30
0.0
 40
0.6984088158877883
  0
POLYLINE
  5
5FF
330
17
100
AcDbEntity
  8
LOGO
 62
     5
100
AcDb2dPolyline
 66
     1
 10
0.0
 20
0.0
 30
0.0
 40
0.4663520405233628
 41
0.4663520405233628
  0
VERTEX
  5
6FD
330
5FF
100
AcDbEntity
  8
LOGO
 62
     5
100
AcDbVertex
100
AcDb2dVertex
 10
20.48008188128459
 20
14.42369663876184
 30
0.0
 42
1.0
  0
VERTEX
  5
6FE
330
5FF
100
AcDbEntity
  8
LOGO
 62
     5
100
AcDbVertex
100
AcDb2dVertex
 10
19.08102575971444
 20
14.42369663876184
 30
0.0
 42
1.0
  0
SEQEND
  5
6FF
330
5FF
100
AcDbEntity
  8
LOGO
 62
     5
  0
CIRCLE
  5
600
330
17
100
AcDbEntity
  8
LOGO
  6
CONTINUOUS
 62
     6
100
AcDbCircle
 10
53.91108491346636
 20
21.86693173903499
 30
0.0
 40
1.062389483696425
  0
CIRCLE
  5
601
330
17
100
AcDbEntity
  8
LOGO
  6
CONTINUOUS
 62
     6
100
AcDbCircle
 10
53.91108491346636
 20
21.86693173903499
 30
0.0
 40
1.813225255028138
  0
TEXT
  5
602
330
17
100
AcDbEntity
  8
LOGO
 62
     7
100
AcDbText
 10
70.75715541287971
 20
17.54806784298989
 30
0.0
 40
4.163857504672882
  1
Order example:
 41
0.8
  7
CHINESET
100
AcDbText
  0
LINE
  5
603
330
17
100
AcDbEntity
  8
LOGO
 62
     1
100
AcDbLine
 10
68.94794520410638
 20
-0.0000000517522594
 30
0.0
 11
68.94794520410638
 21
31.22893123329436
 31
0.0
  0
TEXT
  5
604
330
17
100
AcDbEntity
  8
LOGO
 62
     7
100
AcDbText
 10
71.50418588291856
 20
23.40991707187213
 30
0.0
 40
6.245786257009324
  1
訂購代號:
  7
CHINESET
100
AcDbText
  0
LINE
  5
605
330
17
100
AcDbEntity
  8
LOGO
 62
     6
100
AcDbLine
 10
65.30560281382474
 20
20.05370648400687
 30
0.0
 11
65.30560281382474
 21
23.68015699406311
 31
0.0
  0
LINE
  5
606
330
17
100
AcDbEntity
  8
LOGO
 62
     6
100
AcDbLine
 10
59.62124572340736
 20
20.80454225533858
 30
0.0
 11
59.62124572340726
 21
22.92932122273147
 31
0.0
  0
LINE
  5
607
330
17
100
AcDbEntity
  8
LOGO
  6
CONTINUOUS
 62
     6
100
AcDbLine
 10
59.62124572340726
 20
20.80454225533858
 30
0.0
 11
65.30560281382474
 21
20.05370648400687
 31
0.0
  0
LINE
  5
608
330
17
100
AcDbEntity
  8
LOGO
  6
CONTINUOUS
 62
     6
100
AcDbLine
 10
59.62124572340726
 20
22.9293212227314
 30
0.0
 11
65.30560281382474
 21
23.68015699406311
 31
0.0
  0
LINE
  5
609
330
17
100
AcDbEntity
  8
LOGO
 62
     6
100
AcDbLine
 10
134.8031704520577
 20
14.05301902651871
 30
0.0
 11
134.8031704520577
 21
2.602410888668295
 31
0.0
  0
LINE
  5
60A
330
17
100
AcDbEntity
  8
LOGO
 62
     6
100
AcDbLine
 10
144.2562172393624
 20
14.05301902651871
 30
0.0
 11
144.2562172393624
 21
2.602410888668295
 31
0.0
  0
LINE
  5
60B
330
17
100
AcDbEntity
  8
LOGO
 62
     6
100
AcDbLine
 10
113.9838829286933
 20
14.05301902651871
 30
0.0
 11
113.9838829286933
 21
2.602410888668295
 31
0.0
  0
LINE
  5
60C
330
17
100
AcDbEntity
  8
LOGO
 62
     6
100
AcDbLine
 10
134.8031704520577
 20
2.602410888668295
 30
0.0
 11
113.9838829286933
 21
2.602410888668295
 31
0.0
  0
LINE
  5
60D
330
17
100
AcDbEntity
  8
LOGO
 62
     6
100
AcDbLine
 10
136.8850992043941
 20
28.10603810478969
 30
0.0
 11
111.9019541763568
 21
28.10603810478969
 31
0.0
  0
LINE
  5
60E
330
17
100
AcDbEntity
  8
LOGO
 62
     6
100
AcDbLine
 10
136.8850992043941
 20
18.73735871927571
 30
0.0
 11
111.9019541763568
 21
18.73735871927571
 31
0.0
  0
LINE
  5
60F
330
17
100
AcDbEntity
  8
LOGO
 62
     6
100
AcDbLine
 10
134.8031704520577
 20
14.05301902651871
 30
0.0
 11
113.9838829286933
 21
14.05301902651871
 31
0.0
  0
TEXT
  5
610
330
17
100
AcDbEntity
  8
LOGO
  6
CONTINUOUS
 62
     7
100
AcDbText
 10
114.3556559201819
 20
20.81928747161215
 30
0.0
 40
5.204821880841103
  1
MCHH
  7
CHINESET
 72
     1
 11
124.3935266903754
 21
23.4216984120327
 31
0.0
100
AcDbText
 73
     2
  0
LINE
  5
611
330
17
100
AcDbEntity
  8
LOGO
 62
     6
100
AcDbLine
 10
111.9019541763568
 20
28.10603810478969
 30
0.0
 11
111.9019541763568
 21
18.73735871927571
 31
0.0
  0
LINE
  5
612
330
17
100
AcDbEntity
  8
LOGO
 62
     6
100
AcDbLine
 10
124.3935266903754
 20
18.73735871927571
 30
0.0
 11
124.3935266903754
 21
14.05301902651871
 31
0.0
  0
LINE
  5
613
330
17
100
AcDbEntity
  8
LOGO
 62
     6
100
AcDbLine
 10
136.8850992043941
 20
28.10603810478969
 30
0.0
 11
136.8850992043941
 21
18.73735871927571
 31
0.0
  0
LINE
  5
614
330
17
100
AcDbEntity
  8
LOGO
 62
     6
100
AcDbLine
 10
144.2562172393624
 20
28.10603810478969
 30
0.0
 11
144.2562172393624
 21
18.73735871927571
 31
0.0
  0
LINE
  5
615
330
17
100
AcDbEntity
  8
LOGO
  6
CONTINUOUS
 62
     7
100
AcDbLine
 10
138.499181865373
 20
23.38851306904789
 30
0.0
 11
142.6360488340953
 21
23.38851306904789
 31
0.0
  0
TEXT
  5
616
330
17
100
AcDbEntity
  8
LOGO
 62
     6
100
AcDbText
 10
26.8121237812616
 20
20.34273377528808
 30
204.6692709763071
 40
3.122893128504662
  1
投影 View:
 41
0.9
  7
CHINESET
 72
     4
 11
35.63708516672343
 21
21.86025184778036
 31
204.6692709763071
100
AcDbText
  0
TEXT
  5
617
330
17
100
AcDbEntity
  8
LOGO
 62
     6
100
AcDbText
 10
27.11744235052165
 20
14.05301902651872
 30
204.6692709763071
 40
3.122893128504662
  1
單位 Unit:
 41
0.9
  7
CHINESET
 72
     4
 11
35.63708516672343
 21
15.61446559077105
 31
204.6692709763071
100
AcDbText
  0
TEXT
  5
618
330
17
100
AcDbEntity
  8
LOGO
 62
     6
100
AcDbText
 10
25.72050533500304
 20
26.54612839739194
 30
204.6692709763071
 40
3.122893128504662
  1
比例 Scale:
 41
0.9
  7
CHINESET
 72
     4
 11
35.63708516672343
 21
28.10603810478969
 31
204.6692709763071
100
AcDbText
  0
TEXT
  5
619
330
17
100
AcDbEntity
  8
LOGO
  6
CONTINUOUS
 62
     6
100
AcDbText
 10
119.4365534705267
 20
3.903616358878566
 30
204.6692709763071
 40
2.602410940420551
  1
Model
  7
CHINESET
 72
     4
 11
124.3935266903754
 21
5.204821829088842
 31
204.6692709763071
100
AcDbText
  0
TEXT
  5
61A
330
17
100
AcDbEntity
  8
LOGO
 62
     6
100
AcDbText
 10
120.2296691857025
 20
8.434270366177653
 30
204.6692709763071
 40
4.163857504672882
  1
型式
  7
CHINESET
 72
     4
 11
124.3935266903754
 21
10.40964370992994
 31
204.6692709763071
100
AcDbText
  0
LINE
  5
61B
330
17
100
AcDbEntity
  8
LOGO
 62
     6
100
AcDbLine
 10
243.4322904502636
 20
14.05301902651859
 30
0.0
 11
205.9416662843328
 21
14.05301902651859
 31
0.0
  0
LINE
  5
61C
330
17
100
AcDbEntity
  8
LOGO
 62
     6
100
AcDbLine
 10
243.4322904502636
 20
2.602410888668174
 30
0.0
 11
205.9416662843328
 21
2.602410888668174
 31
0.0
  0
LINE
  5
61D
330
17
100
AcDbEntity
  8
LOGO
 62
     6
100
AcDbLine
 10
198.3768884758791
 20
28.10603810478969
 30
0.0
 11
181.0360686083081
 21
28.10603810478969
 31
0.0
  0
LINE
  5
61E
330
17
100
AcDbEntity
  8
LOGO
 62
     6
100
AcDbLine
 10
204.2390784860097
 20
2.602410888668295
 30
0.0
 11
175.1738785981775
 21
2.602410888668295
 31
0.0
  0
LINE
  5
61F
330
17
100
AcDbEntity
  8
LOGO
 62
     6
100
AcDbLine
 10
198.3768884758791
 20
18.73735871927571
 30
0.0
 11
181.0360686083081
 21
18.73735871927571
 31
0.0
  0
LINE
  5
620
330
17
100
AcDbEntity
  8
LOGO
 62
     6
100
AcDbLine
 10
204.2390784860097
 20
14.05301902651871
 30
0.0
 11
175.1738785981775
 21
14.05301902651871
 31
0.0
  0
LINE
  5
621
330
17
100
AcDbEntity
  8
LOGO
 62
     6
100
AcDbLine
 10
171.3789646278652
 20
14.05301902651871
 30
0.0
 11
171.3789646278652
 21
2.602410888668295
 31
0.0
  0
LINE
  5
622
330
17
100
AcDbEntity
  8
LOGO
 62
     6
100
AcDbLine
 10
175.1738785981775
 20
14.05301902651871
 30
0.0
 11
175.1738785981775
 21
2.602410888668295
 31
0.0
  0
TEXT
  5
623
330
17
100
AcDbEntity
  8
LOGO
  6
CONTINUOUS
 62
     7
100
AcDbText
 10
153.6041636967426
 20
20.76026446351312
 30
0.0
 40
5.204821880841103
  1
25
  7
CHINESET
 72
     1
 11
157.8175909336139
 21
23.36267540393368
 31
0.0
100
AcDbText
 73
     2
  0
LINE
  5
624
330
17
100
AcDbEntity
  8
LOGO
 62
     6
100
AcDbLine
 10
157.8175909336139
 20
18.73735871927571
 30
0.0
 11
157.8175909336139
 21
14.05301902651871
 31
0.0
  0
LINE
  5
625
330
17
100
AcDbEntity
  8
LOGO
 62
     6
100
AcDbLine
 10
171.3789646278652
 20
28.10603810478976
 30
0.0
 11
171.3789646278652
 21
18.73735871927571
 31
0.0
  0
LINE
  5
626
330
17
100
AcDbEntity
  8
LOGO
 62
     6
100
AcDbLine
 10
181.0360686083081
 20
28.10603810478969
 30
0.0
 11
181.0360686083081
 21
18.73735871927571
 31
0.0
  0
LINE
  5
627
330
17
100
AcDbEntity
  8
LOGO
  6
CONTINUOUS
 62
     7
100
AcDbLine
 10
174.2583255273554
 20
23.42169841203276
 30
0.0
 11
178.3951924960776
 21
23.42169841203276
 31
0.0
  0
TEXT
  5
628
330
17
100
AcDbEntity
  8
LOGO
  6
CONTINUOUS
 62
     7
100
AcDbText
 10
185.8549104843377
 20
20.76026446351312
 30
0.0
 40
5.204821880841103
  1
PS
  7
CHINESET
 72
     1
 11
190.1922620517053
 21
23.36267540393368
 31
0.0
100
AcDbText
 73
     2
  0
LINE
  5
629
330
17
100
AcDbEntity
  8
LOGO
 62
     6
100
AcDbLine
 10
189.9269453451608
 20
18.73735871927571
 30
0.0
 11
189.9269453451608
 21
14.05301902651871
 31
0.0
  0
LINE
  5
62A
330
17
100
AcDbEntity
  8
LOGO
 62
     6
100
AcDbLine
 10
204.2390784860097
 20
14.05301902651871
 30
0.0
 11
204.2390784860097
 21
2.559234503341826
 31
0.0
  0
LINE
  5
62B
330
17
100
AcDbEntity
  8
LOGO
 62
     6
100
AcDbLine
 10
205.9416662843328
 20
14.05301902651859
 30
0.0
 11
205.9416662843328
 21
2.602410888668174
 31
0.0
  0
LINE
  5
62C
330
17
100
AcDbEntity
  8
LOGO
 62
     6
100
AcDbLine
 10
233.4435579578666
 20
18.73735871927558
 30
0.0
 11
216.1027380902956
 21
18.73735871927558
 31
0.0
  0
LINE
  5
62D
330
17
100
AcDbEntity
  8
LOGO
 62
     6
100
AcDbLine
 10
233.4435579578666
 20
28.10603810478958
 30
0.0
 11
216.1027380902956
 21
28.10603810478958
 31
0.0
  0
LINE
  5
62E
330
17
100
AcDbEntity
  8
LOGO
  6
CONTINUOUS
 62
     7
100
AcDbLine
 10
205.1713797987262
 20
23.42169841203264
 30
0.0
 11
209.3082467674485
 21
23.42169841203264
 31
0.0
  0
LINE
  5
62F
330
17
100
AcDbEntity
  8
LOGO
 62
     6
100
AcDbLine
 10
198.3768884758791
 20
28.10603810478969
 30
0.0
 11
198.3768884758791
 21
18.73735871927571
 31
0.0
  0
LINE
  5
630
330
17
100
AcDbEntity
  8
LOGO
 62
     6
100
AcDbLine
 10
216.1027380902956
 20
28.10603810478958
 30
0.0
 11
216.1027380902956
 21
18.73735871927558
 31
0.0
  0
TEXT
  5
631
330
17
100
AcDbEntity
  8
LOGO
  6
CONTINUOUS
 62
     7
100
AcDbText
 10
224.6393098812117
 20
20.76026446351302
 30
0.0
 40
5.204821880841103
  1
1
  7
CHINESET
 72
     1
 11
225.2589315336928
 21
23.36267540393357
 31
0.0
100
AcDbText
 73
     2
  0
LINE
  5
632
330
17
100
AcDbEntity
  8
LOGO
 62
     6
100
AcDbLine
 10
224.9936148271483
 20
18.73735871927558
 30
0.0
 11
224.9936148271483
 21
14.05301902651859
 31
0.0
  0
LINE
  5
633
330
17
100
AcDbEntity
  8
LOGO
 62
     6
100
AcDbLine
 10
233.4435579578666
 20
28.10603810478958
 30
0.0
 11
233.4435579578666
 21
18.73735871927558
 31
0.0
  0
LINE
  5
634
330
17
100
AcDbEntity
  8
LOGO
 62
     1
100
AcDbLine
 10
247.1020577224244
 20
-0.0000000517522594
 30
0.0
 11
247.1020577224244
 21
31.22893123329436
 31
0.0
  0
LINE
  5
635
330
17
100
AcDbEntity
  8
LOGO
 62
     6
100
AcDbLine
 10
243.4322904502636
 20
14.05301902651859
 30
0.0
 11
243.4322904502636
 21
2.559234503341713
 31
0.0
  0
TEXT
  5
636
330
17
100
AcDbEntity
  8
LOGO
  6
CONTINUOUS
 62
     6
100
AcDbText
 10
206.432347110641
 20
3.903616358878449
 30
204.6692709763071
 40
2.602410940420551
  1
Number of auto swicth
 41
0.8
  7
CHINESET
 72
     4
 11
224.7731480240811
 21
5.204821829088725
 31
204.6692709763071
100
AcDbText
  0
TEXT
  5
637
330
17
100
AcDbEntity
  8
LOGO
 62
     6
100
AcDbText
 10
182.2896073618951
 20
8.373137615739951
 30
204.6692709763071
 40
4.163857504672882
  1
感應開關
 41
0.9
  7
CHINESET
 72
     4
 11
189.7064785420936
 21
10.40964370992994
 31
204.6692709763071
100
AcDbText
  0
TEXT
  5
638
330
17
100
AcDbEntity
  8
LOGO
  6
CONTINUOUS
 62
     6
100
AcDbText
 10
176.2730811163037
 20
4.337351515615325
 30
204.6692709763071
 40
2.602410940420551
  1
Auto swicth type
 41
0.8
  7
CHINESET
 72
     4
 11
189.7064785420936
 21
5.204821829088842
 31
204.6692709763071
100
AcDbText
  0
TEXT
  5
639
330
17
100
AcDbEntity
  8
LOGO
 62
     6
100
AcDbText
 10
153.6537334289411
 20
8.327714957593503
 30
204.6692709763071
 40
4.163857504672882
  1
缸徑
  7
CHINESET
 72
     4
 11
157.8175909336139
 21
10.40964370992994
 31
204.6692709763071
100
AcDbText
  0
TEXT
  5
63A
330
17
100
AcDbEntity
  8
LOGO
  6
CONTINUOUS
 62
     6
100
AcDbText
 10
153.7900501924869
 20
3.903616358878566
 30
204.6692709763071
 40
2.602410940420551
  1
Bore
  7
CHINESET
 72
     4
 11
157.8175909336139
 21
5.204821829088842
 31
204.6692709763071
100
AcDbText
  0
TEXT
  5
63B
330
17
100
AcDbEntity
  8
LOGO
 62
     6
100
AcDbText
 10
213.4916965973581
 20
8.432221223704766
 30
204.6692709763071
 40
4.163857504672882
  1
感應開關數量
 41
0.9
  7
CHINESET
 72
     4
 11
224.7731480240811
 21
10.40964370992983
 31
204.6692709763071
100
AcDbText
  0
ENDSEC
  0
SECTION
  2
OBJECTS
  0
DICTIONARY
  5
C
330
0
100
AcDbDictionary
  3
ACAD_GROUP
350
D
  3
ACAD_LAYOUT
350
549
  3
ACAD_MLINESTYLE
350
1A
  3
ACAD_PLOTSETTINGS
350
54A
  3
ACMDICTIONARY
350
721
  3
AMG
350
707
  3
AMGSNAPSETTINGS
350
756
  3
DWGPROPS
350
778
1001
ACAD
1000
TREAT_AS_HARD
1070
     0
  0
DICTIONARY
  5
6DE
330
17
100
AcDbDictionary
  3
ACAD_INDEX
350
75D
  3
ACAD_LAYOUTSELFREF
350
7C8
1001
ACAD
1000
TREAT_AS_HARD
1070
     1
  0
DICTIONARY
  5
6DC
330
14
100
AcDbDictionary
  3
ACAD_LAYOUTSELFREF
350
7C7
1001
ACAD
1000
TREAT_AS_HARD
1070
     1
  0
DICTIONARY
  5
D
102
{ACAD_REACTORS
330
C
102
}
330
C
100
AcDbDictionary
1001
ACAD
1000
TREAT_AS_HARD
1070
     0
  0
DICTIONARY
  5
549
102
{ACAD_REACTORS
330
C
102
}
330
C
100
AcDbDictionary
1001
ACAD
1000
TREAT_AS_HARD
1070
     0
  0
DICTIONARY
  5
1A
102
{ACAD_REACTORS
330
C
102
}
330
C
100
AcDbDictionary
  3
STANDARD
350
1B
1001
ACAD
1000
TREAT_AS_HARD
1070
     0
  0
DICTIONARY
  5
54A
102
{ACAD_REACTORS
330
C
102
}
330
C
100
AcDbDictionary
1001
ACAD
1000
TREAT_AS_HARD
1070
     0
  0
DICTIONARY
  5
721
102
{ACAD_REACTORS
330
C
102
}
330
C
100
AcDbDictionary
  3
ACMSTDDICTIONARY
350
727
1001
ACAD
1000
TREAT_AS_HARD
1070
     0
  0
DICTIONARY
  5
707
102
{ACAD_REACTORS
330
C
102
}
330
C
100
AcDbDictionary
  3
ACMGSETTINGS
350
708
1001
ACAD
1000
TREAT_AS_HARD
1070
     0
  0
DICTIONARY
  5
756
102
{ACAD_REACTORS
330
C
102
}
330
C
100
AcDbDictionary
1001
ACAD
1000
TREAT_AS_HARD
1070
     0
  0
XRECORD
  5
778
102
{ACAD_REACTORS
330
C
102
}
330
C
100
AcDbXrecord
  1
DWGPROPS COOKIE
  2

  3

  4

  6

  7

  8

  9

300
AmdtFileType=84
301
=
302
=
303
=
304
=
305
=
306
=
307
=
308
=
309
=
 40
0.1795557407407407
 41
2451065.544991782
 42
2452752.418740555
  1

 90
        1
  0
DICTIONARY
  5
75D
102
{ACAD_REACTORS
330
6DE
102
}
330
6DE
100
AcDbDictionary
  3
*A1
350
75E
1001
ACAD
1000
TREAT_AS_HARD
1070
     0
  0
XRECORD
  5
7C8
102
{ACAD_REACTORS
330
6DE
102
}
330
6DE
100
AcDbXrecord
340
17
  0
XRECORD
  5
7C7
102
{ACAD_REACTORS
330
6DC
102
}
330
6DC
100
AcDbXrecord
340
14
  0
MLINESTYLE
  5
1B
102
{ACAD_REACTORS
330
1A
102
}
330
1A
100
AcDbMlineStyle
  2
STANDARD
 70
     0
  3

 62
   256
 51
90.0
 52
90.0
 71
     2
 49
0.5
 62
   256
  6
BYLAYER
 49
-0.5
 62
   256
  6
BYLAYER
  0
DICTIONARY
  5
727
102
{ACAD_REACTORS
330
721
102
}
330
721
100
AcDbDictionary
1001
ACAD
1000
TREAT_AS_HARD
1070
     0
  0
DICTIONARY
  5
708
102
{ACAD_REACTORS
330
707
102
}
330
707
100
AcDbDictionary
1001
ACAD
1000
TREAT_AS_HARD
1070
     0
  0
LAYER_INDEX
  5
75E
102
{ACAD_REACTORS
330
75D
102
}
330
75D
100
AcDbIndex
 40
2452752.440292152
100
AcDbLayerIndex
  8
0
360
75F
 90
       14
  8
1
360
760
 90
      105
  8
3
360
761
 90
       28
  8
5
360
762
 90
       25
  8
DEFPOINTS
360
763
 90
        0
  8
LOGO
360
764
 90
      112
  0
IDBUFFER
  5
75F
330
0
100
AcDbIdBuffer
330
481
330
482
330
492
330
496
330
49D
330
49E
330
4AC
330
4AD
330
4C5
330
4CA
330
4D0
330
4E0
330
4E9
330
4EB
  0
IDBUFFER
  5
760
330
0
100
AcDbIdBuffer
330
4B7
330
4B8
330
4B9
330
4BA
330
4BB
330
4BD
330
4BE
330
4C1
330
4C2
330
4C3
330
4C4
330
4C7
330
4C8
330
4C9
330
4CB
330
4CD
330
4CF
330
4D1
330
4D2
330
4D3
330
4D4
330
4D5
330
4D6
330
4D7
330
4D8
330
4D9
330
4DA
330
4DB
330
4DC
330
4DE
330
4DF
330
4E1
330
4E4
330
4E5
330
4E6
330
4E7
330
4E8
330
4EA
330
4EC
330
4EE
330
4EF
330
4F0
330
4F1
330
4F2
330
4F3
330
4F4
330
4F5
330
4F6
330
4F7
330
4F8
330
4FA
330
4FB
330
4FC
330
4FD
330
513
330
514
330
5D1
330
471
330
472
330
474
330
475
330
476
330
477
330
478
330
479
330
47A
330
47B
330
47E
330
47F
330
483
330
484
330
485
330
486
330
487
330
488
330
489
330
48A
330
48B
330
48C
330
48D
330
48E
330
48F
330
490
330
491
330
493
330
498
330
49A
330
49C
330
4A0
330
4A3
330
4A4
330
4A5
330
4A6
330
4A7
330
4A8
330
4A9
330
4AA
330
4AB
330
4AF
330
4B1
330
4B2
330
4B3
330
4B4
330
4B5
330
4B6
  0
IDBUFFER
  5
761
330
0
100
AcDbIdBuffer
330
4BF
330
4C0
330
4C6
330
4CC
330
4CE
330
4DD
330
4E2
330
4E3
330
4ED
330
4F9
330
4FE
330
515
330
46F
330
470
330
473
330
47C
330
47D
330
494
330
495
330
497
330
499
330
49B
330
49F
330
4A1
330
4A2
330
4AE
330
4B0
330
4BC
  0
IDBUFFER
  5
762
330
0
100
AcDbIdBuffer
330
50F
330
510
330
511
330
512
330
516
330
517
330
524
330
531
330
53E
330
4FF
330
500
330
501
330
502
330
503
330
504
330
505
330
506
330
507
330
508
330
509
330
50A
330
50B
330
50C
330
50D
330
50E
  0
IDBUFFER
  5
763
330
0
100
AcDbIdBuffer
  0
IDBUFFER
  5
764
330
0
100
AcDbIdBuffer
330
5FC
330
5FD
330
5FE
330
5FF
330
600
330
601
330
602
330
603
330
604
330
605
330
606
330
607
330
608
330
609
330
60A
330
60B
330
60C
330
60D
330
60E
330
60F
330
610
330
611
330
612
330
613
330
614
330
615
330
616
330
617
330
618
330
619
330
61A
330
61B
330
61C
330
61D
330
61E
330
61F
330
620
330
621
330
622
330
623
330
624
330
625
330
626
330
627
330
628
330
629
330
62A
330
62B
330
62C
330
62D
330
62E
330
62F
330
630
330
631
330
632
330
633
330
634
330
635
330
636
330
637
330
638
330
639
330
63A
330
63B
330
5CB
330
5CC
330
5CD
330
5CE
330
5CF
330
5D0
330
5D2
330
5D3
330
5D4
330
5D5
330
5D6
330
5D7
330
5D8
330
5D9
330
5DA
330
5DB
330
5DC
330
5DD
330
5DE
330
5DF
330
5E0
330
5E1
330
5E2
330
5E3
330
5E4
330
5E5
330
5E6
330
5E7
330
5E8
330
5E9
330
5EA
330
5EB
330
5EC
330
5ED
330
5EE
330
5EF
330
5F0
330
5F1
330
5F2
330
5F3
330
5F4
330
5F5
330
5F6
330
5F7
330
5F8
330
5F9
330
5FA
330
5FB
  0
ENDSEC
  0
EOF
