  0
SECTION
  2
HEADER
  9
$ACADVER
  1
AC1015
  9
$ACADMAINTVER
 70
    20
  9
$DWGCODEPAGE
  3
ANSI_950
  9
$INSBASE
 10
0.0
 20
0.0
 30
0.0
  9
$EXTMIN
 10
503.0462643542223
 20
255.2798465818203
 30
-0.0115182181284013
  9
$EXTMAX
 10
899.1121952228859
 20
543.3225253093626
 30
188.7346450702748
  9
$LIMMIN
 10
0.0
 20
0.0
  9
$LIMMAX
 10
420.0
 20
297.0
  9
$ORTHOMODE
 70
     0
  9
$REGENMODE
 70
     1
  9
$FILLMODE
 70
     1
  9
$QTEXTMODE
 70
     0
  9
$MIRRTEXT
 70
     1
  9
$LTSCALE
 40
1.0
  9
$ATTMODE
 70
     1
  9
$TEXTSIZE
 40
3.0
  9
$TRACEWID
 40
1.0
  9
$TEXTSTYLE
  7
CHINESET
  9
$CLAYER
  8
0
  9
$CELTYPE
  6
ByLayer
  9
$CECOLOR
 62
   256
  9
$CELTSCALE
 40
1.0
  9
$DISPSILH
 70
     0
  9
$DIMSCALE
 40
1.0
  9
$DIMASZ
 40
3.0
  9
$DIMEXO
 40
1.0
  9
$DIMDLI
 40
8.0
  9
$DIMRND
 40
0.0
  9
$DIMDLE
 40
0.0
  9
$DIMEXE
 40
1.5
  9
$DIMTP
 40
0.1
  9
$DIMTM
 40
0.1
  9
$DIMTXT
 40
3.5
  9
$DIMCEN
 40
0.0
  9
$DIMTSZ
 40
0.0
  9
$DIMTOL
 70
     0
  9
$DIMLIM
 70
     0
  9
$DIMTIH
 70
     0
  9
$DIMTOH
 70
     0
  9
$DIMSE1
 70
     0
  9
$DIMSE2
 70
     0
  9
$DIMTAD
 70
     1
  9
$DIMZIN
 70
     8
  9
$DIMBLK
  1

  9
$DIMASO
 70
     1
  9
$DIMSHO
 70
     1
  9
$DIMPOST
  1

  9
$DIMAPOST
  1
"
  9
$DIMALT
 70
     0
  9
$DIMALTD
 70
     2
  9
$DIMALTF
 40
0.0393701
  9
$DIMLFAC
 40
1.0
  9
$DIMTOFL
 70
     1
  9
$DIMTVP
 40
0.0
  9
$DIMTIX
 70
     0
  9
$DIMSOXD
 70
     0
  9
$DIMSAH
 70
     0
  9
$DIMBLK1
  1

  9
$DIMBLK2
  1

  9
$DIMSTYLE
  2
AM_ISO
  9
$DIMCLRD
 70
   256
  9
$DIMCLRE
 70
   256
  9
$DIMCLRT
 70
   256
  9
$DIMTFAC
 40
0.6
  9
$DIMGAP
 40
0.8
  9
$DIMJUST
 70
     0
  9
$DIMSD1
 70
     0
  9
$DIMSD2
 70
     0
  9
$DIMTOLJ
 70
     0
  9
$DIMTZIN
 70
     8
  9
$DIMALTZ
 70
     0
  9
$DIMALTTZ
 70
     0
  9
$DIMUPT
 70
     0
  9
$DIMDEC
 70
     2
  9
$DIMTDEC
 70
     8
  9
$DIMALTU
 70
     2
  9
$DIMALTTD
 70
     2
  9
$DIMTXSTY
  7
CHINESET
  9
$DIMAUNIT
 70
     0
  9
$DIMADEC
 70
     0
  9
$DIMALTRND
 40
0.0
  9
$DIMAZIN
 70
     2
  9
$DIMDSEP
 70
    46
  9
$DIMATFIT
 70
     3
  9
$DIMFRAC
 70
     0
  9
$DIMLDRBLK
  1

  9
$DIMLUNIT
 70
     2
  9
$DIMLWD
 70
    -1
  9
$DIMLWE
 70
    -1
  9
$DIMTMOVE
 70
     0
  9
$LUNITS
 70
     2
  9
$LUPREC
 70
     2
  9
$SKETCHINC
 40
1.0
  9
$FILLETRAD
 40
2.5
  9
$AUNITS
 70
     0
  9
$AUPREC
 70
     0
  9
$MENU
  1
.
  9
$ELEVATION
 40
0.0
  9
$PELEVATION
 40
0.0
  9
$THICKNESS
 40
0.0
  9
$LIMCHECK
 70
     0
  9
$CHAMFERA
 40
2.5
  9
$CHAMFERB
 40
2.5
  9
$CHAMFERC
 40
20.0
  9
$CHAMFERD
 40
0.0
  9
$SKPOLY
 70
     0
  9
$TDCREATE
 40
2454246.452261644
  9
$TDUCREATE
 40
2454246.118928310
  9
$TDUPDATE
 40
2454258.576306956
  9
$TDUUPDATE
 40
2454258.242973623
  9
$TDINDWG
 40
0.3157955324
  9
$TDUSRTIMER
 40
0.3157955324
  9
$USRTIMER
 70
     1
  9
$ANGBASE
 50
0.0
  9
$ANGDIR
 70
     0
  9
$PDMODE
 70
     0
  9
$PDSIZE
 40
0.0
  9
$PLINEWID
 40
0.0
  9
$SPLFRAME
 70
     0
  9
$SPLINETYPE
 70
     6
  9
$SPLINESEGS
 70
     8
  9
$HANDSEED
  5
2E4A
  9
$SURFTAB1
 70
     6
  9
$SURFTAB2
 70
     6
  9
$SURFTYPE
 70
     6
  9
$SURFU
 70
     6
  9
$SURFV
 70
     6
  9
$UCSBASE
  2

  9
$UCSNAME
  2

  9
$UCSORG
 10
0.0
 20
0.0
 30
0.0
  9
$UCSXDIR
 10
1.0
 20
0.0
 30
0.0
  9
$UCSYDIR
 10
0.0
 20
1.0
 30
0.0
  9
$UCSORTHOREF
  2

  9
$UCSORTHOVIEW
 70
     0
  9
$UCSORGTOP
 10
0.0
 20
0.0
 30
0.0
  9
$UCSORGBOTTOM
 10
0.0
 20
0.0
 30
0.0
  9
$UCSORGLEFT
 10
0.0
 20
0.0
 30
0.0
  9
$UCSORGRIGHT
 10
0.0
 20
0.0
 30
0.0
  9
$UCSORGFRONT
 10
0.0
 20
0.0
 30
0.0
  9
$UCSORGBACK
 10
0.0
 20
0.0
 30
0.0
  9
$PUCSBASE
  2

  9
$PUCSNAME
  2

  9
$PUCSORG
 10
0.0
 20
0.0
 30
0.0
  9
$PUCSXDIR
 10
1.0
 20
0.0
 30
0.0
  9
$PUCSYDIR
 10
0.0
 20
1.0
 30
0.0
  9
$PUCSORTHOREF
  2

  9
$PUCSORTHOVIEW
 70
     0
  9
$PUCSORGTOP
 10
0.0
 20
0.0
 30
0.0
  9
$PUCSORGBOTTOM
 10
0.0
 20
0.0
 30
0.0
  9
$PUCSORGLEFT
 10
0.0
 20
0.0
 30
0.0
  9
$PUCSORGRIGHT
 10
0.0
 20
0.0
 30
0.0
  9
$PUCSORGFRONT
 10
0.0
 20
0.0
 30
0.0
  9
$PUCSORGBACK
 10
0.0
 20
0.0
 30
0.0
  9
$USERI1
 70
     0
  9
$USERI2
 70
     0
  9
$USERI3
 70
     0
  9
$USERI4
 70
     0
  9
$USERI5
 70
     0
  9
$USERR1
 40
0.0
  9
$USERR2
 40
0.0
  9
$USERR3
 40
0.0
  9
$USERR4
 40
0.0
  9
$USERR5
 40
0.0
  9
$WORLDVIEW
 70
     1
  9
$SHADEDGE
 70
     3
  9
$SHADEDIF
 70
    70
  9
$TILEMODE
 70
     1
  9
$MAXACTVP
 70
    64
  9
$PINSBASE
 10
0.0
 20
0.0
 30
0.0
  9
$PLIMCHECK
 70
     0
  9
$PEXTMIN
 10
1.000000000000000E+20
 20
1.000000000000000E+20
 30
1.000000000000000E+20
  9
$PEXTMAX
 10
-1.000000000000000E+20
 20
-1.000000000000000E+20
 30
-1.000000000000000E+20
  9
$PLIMMIN
 10
0.0
 20
0.0
  9
$PLIMMAX
 10
420.0
 20
297.0
  9
$UNITMODE
 70
     0
  9
$VISRETAIN
 70
     1
  9
$PLINEGEN
 70
     0
  9
$PSLTSCALE
 70
     1
  9
$TREEDEPTH
 70
  3020
  9
$CMLSTYLE
  2
Standard
  9
$CMLJUST
 70
     0
  9
$CMLSCALE
 40
20.0
  9
$PROXYGRAPHICS
 70
     1
  9
$MEASUREMENT
 70
     1
  9
$CELWEIGHT
370
    -1
  9
$ENDCAPS
280
     0
  9
$JOINSTYLE
280
     0
  9
$LWDISPLAY
290
     0
  9
$INSUNITS
 70
     4
  9
$HYPERLINKBASE
  1

  9
$STYLESHEET
  1
彩色出圖.ctb
  9
$XEDIT
290
     1
  9
$CEPSNTYPE
380
     0
  9
$PSTYLEMODE
290
     1
  9
$FINGERPRINTGUID
  2
{1C723D8F-9278-40BE-8586-0F3B75339B6B}
  9
$VERSIONGUID
  2
{D63EC5CF-C43F-4E1A-BA17-0C8320968650}
  9
$EXTNAMES
290
     1
  9
$PSVPSCALE
 40
0.0
  9
$OLESTARTUP
290
     0
  0
ENDSEC
  0
SECTION
  2
CLASSES
  0
CLASS
  1
ACDBDICTIONARYWDFLT
  2
AcDbDictionaryWithDefault
  3
ObjectDBX Classes
 90
        0
280
     0
281
     0
  0
CLASS
  1
ACDBPLACEHOLDER
  2
AcDbPlaceHolder
  3
ObjectDBX Classes
 90
        0
280
     0
281
     0
  0
CLASS
  1
LAYOUT
  2
AcDbLayout
  3
ObjectDBX Classes
 90
        0
280
     0
281
     0
  0
CLASS
  1
ACME_DOCUMENT
  2
AcMeDbDoc
  3
AcMeServices
 90
        0
280
     0
281
     0
  0
CLASS
  1
AMGSETTINGSOBJ
  2
AmgSettingsObj
  3
"AcadM|Product Description: AutoCAD Mechanical 2000|Company: Autodesk"
 90
        0
280
     0
281
     0
  0
CLASS
  1
ACMESCOPE
  2
AcMeScope
  3
AcMeServices
 90
        0
280
     0
281
     0
  0
CLASS
  1
ACMECOMMANDHISTORY
  2
AcMeCommandHistory
  3
AcMeServices
 90
        0
280
     0
281
     0
  0
CLASS
  1
ACIMSYSVARMAN
  2
AcImSysVarManager
  3
AcMeServices
 90
        0
280
     0
281
     0
  0
CLASS
  1
ACIMREALSYSVAR
  2
AcImRealSysVar
  3
AcMeServices
 90
        0
280
     0
281
     0
  0
CLASS
  1
ACIMINTSYSVAR
  2
AcImIntSysVar
  3
AcMeServices
 90
        0
280
     0
281
     0
  0
CLASS
  1
ACMEDRAWINGMAN
  2
AcMeDrawingMan
  3
AcMeServices
 90
        0
280
     0
281
     0
  0
CLASS
  1
ACMEVIEW
  2
AcMeView
  3
AcMeServices
 90
        0
280
     0
281
     0
  0
CLASS
  1
ACDBENTITYCACHE
  2
AcMeEntityCache
  3
AcMeServices
 90
        0
280
     0
281
     0
  0
CLASS
  1
GSMANAGER
  2
AcMeGSManager
  3
AcMeServices
 90
        0
280
     0
281
     0
  0
CLASS
  1
AMDTINTERNALREACTOR
  2
AmdtInternalReactor
  3
AcMeServices
 90
        0
280
     0
281
     0
  0
CLASS
  1
ACMESTATEMGR
  2
AcMeStateMgr
  3
AcMeServices
 90
        0
280
     0
281
     0
  0
CLASS
  1
ACGREFMASTER
  2
AcGrefMaster
  3
AcAttribServices
 90
        0
280
     0
281
     0
  0
CLASS
  1
ACME_DATABASE
  2
AcMeDbDatabase
  3
AcMeServices
 90
        0
280
     0
281
     0
  0
CLASS
  1
ACRFINSADJUSTERMGR
  2
AcRfInsAdjusterMgr
  3
AcMeServices
 90
        0
280
     0
281
     0
  0
CLASS
  1
ACGREFACADMASTER
  2
AcGrefacadMaster
  3
AcGrefServices
 90
        0
280
     0
281
     0
  0
CLASS
  1
AMIMASTER
  2
AmiMaster
  3
AmiServices
 90
        0
280
     0
281
     0
  0
CLASS
  1
ACMDATADICTIONARY
  2
AcmDataDictionary
  3
"AcmSymBB|Product Description: AutoCAD Mechanical 2004 DX|Company: Autodesk"
 90
        0
280
     0
281
     0
  0
CLASS
  1
ACMDATAENTRYBLOCK
  2
AcmDataEntryBlock
  3
"AcmSymBB|Product Description: AutoCAD Mechanical 2004 DX|Company: Autodesk"
 90
        0
280
     0
281
     0
  0
CLASS
  1
ACIMSTRSYSVAR
  2
AcImStrSysVar
  3
AcMeServices
 90
        0
280
     0
281
     0
  0
CLASS
  1
ACMSTANDARDISO
  2
AcmStandardISO
  3
"Amdt_StdImp|Product Description: AutoCAD Mechanical 2004 DX|Company: Autodesk"
 90
        0
280
     0
281
     0
  0
CLASS
  1
AMGOBJPROPCFG
  2
AmgObjPropCfg
  3
"AmgLay|Product Description: AutoCAD Mechanical 2000|Company: Autodesk"
 90
        1
280
     0
281
     0
  0
CLASS
  1
AMDTEDGESTANDARDISO
  2
AmdtEdgeStdISO
  3
"Amdt_StdImp|Product Description: AutoCAD Mechanical 2004 DX|Company: Autodesk"
 90
        0
280
     0
281
     0
  0
CLASS
  1
ACMSURFSTANDARDISO
  2
AcmSurfTextStdISO
  3
"Amdt_StdImp|Product Description: AutoCAD Mechanical 2004 DX|Company: Autodesk"
 90
        0
280
     0
281
     0
  0
CLASS
  1
ACMFCFSTANDARDISO
  2
AcmFCFStdISO
  3
"Amdt_StdImp|Product Description: AutoCAD Mechanical 2004 DX|Company: Autodesk"
 90
        0
280
     0
281
     0
  0
CLASS
  1
ACMWELDSTANDARDISO
  2
AcmWeldingStdISO
  3
"Amdt_StdImp|Product Description: AutoCAD Mechanical 2004 DX|Company: Autodesk"
 90
        0
280
     0
281
     0
  0
CLASS
  1
ACMIDSTANDARDISO
  2
AcmIdStdISO
  3
"Amdt_StdImp|Product Description: AutoCAD Mechanical 2004 DX|Company: Autodesk"
 90
        0
280
     0
281
     0
  0
CLASS
  1
ACMDATUMSTANDARDISO
  2
AcmDatumStdISO
  3
"Amdt_StdImp|Product Description: AutoCAD Mechanical 2004 DX|Company: Autodesk"
 90
        0
280
     0
281
     0
  0
CLASS
  1
ACMBOMSTANDARDISO
  2
AcmBOMStdISO
  3
"Amdt_StdImp|Product Description: AutoCAD Mechanical 2004 DX|Company: Autodesk"
 90
        0
280
     0
281
     0
  0
CLASS
  1
ACMDETAILSTANDARDISO
  2
AmdtDetailSymStdISO
  3
"Amdt_StdImp|Product Description: AutoCAD Mechanical 2004 DX|Company: Autodesk"
 90
        0
280
     0
281
     0
  0
CLASS
  1
ACMSECTIONSTANDARDISO
  2
AmdtSectionSymStdISO
  3
"Amdt_StdImp|Product Description: AutoCAD Mechanical 2004 DX|Company: Autodesk"
 90
        0
280
     0
281
     0
  0
CLASS
  1
ACMCENTERLINESTANDARDISO
  2
AmdtCenterLineStdISO
  3
"Amdt_StdImp|Product Description: AutoCAD Mechanical 2004 DX|Company: Autodesk"
 90
        0
280
     0
281
     0
  0
CLASS
  1
ACMNOTESTANDARDISO
  2
AmdtNoteStdISO
  3
"Amdt_StdImp|Product Description: AutoCAD Mechanical 2004 DX|Company: Autodesk"
 90
        0
280
     0
281
     0
  0
CLASS
  1
ACAMGLAYSTD
  2
AcAmgLayStd
  3
"AcAmgLayStd|Product Description: AutoCAD Mechanical 2000|Company: Autodesk"
 90
        0
280
     0
281
     0
  0
CLASS
  1
ACAMGDIMSTD
  2
AcAmgDimStd
  3
"AcAmgDimStd|Product Description: AutoCAD Mechanical 2000|Company: Autodesk"
 90
        0
280
     0
281
     0
  0
CLASS
  1
ACAMGHOLECHARTSTDISO
  2
AcAmgHoleChartStdISO
  3
ACMSYMBB_MODULE_NAME
 90
        0
280
     0
281
     0
  0
CLASS
  1
ACAMGTITLESTD
  2
AcAmgTitleStd
  3
"TITLEAPP"
 90
        0
280
     0
281
     0
  0
CLASS
  1
LAYER_INDEX
  2
AcDbLayerIndex
  3
ObjectDBX Classes
 90
    32768
280
     0
281
     0
  0
CLASS
  1
IDBUFFER
  2
AcDbIdBuffer
  3
ObjectDBX Classes
 90
    32768
280
     0
281
     0
  0
CLASS
  1
DICTIONARYVAR
  2
AcDbDictionaryVar
  3
ObjectDBX Classes
 90
        0
280
     0
281
     0
  0
CLASS
  1
AM_DRAWING_MGR
  2
AcDmDwgMgr
  3
AcMechDwgViewMgmt
 90
        0
280
     0
281
     0
  0
CLASS
  1
AM_DWG_DOCUMENT
  2
AcDmDwgDocument
  3
AcMechDwgViewMgmt
 90
        0
280
     0
281
     0
  0
CLASS
  1
AM_DWG_SHEET
  2
AcDmSheet
  3
AcMechDwgViewMgmt
 90
        0
280
     0
281
     0
  0
CLASS
  1
AM_VIEWDIMPARMAP
  2
AcDmViewDimParMap
  3
AcMechDwgViewMgmt
 90
        0
280
     0
281
     0
  0
CLASS
  1
AM_DWGMGR_NAME
  2
AcDmDwgMgrName
  3
AcMechDwgViewMgmt
 90
        0
280
     0
281
     0
  0
CLASS
  1
AMDTMENUSTATEMGR
  2
AmdtMenuStateMgr
  3
McadcomServices
 90
        0
280
     0
281
     0
  0
CLASS
  1
AMDTMCOMMENUSTATE
  2
AmdtMcomMenuState
  3
McadcomServices
 90
        0
280
     0
281
     0
  0
CLASS
  1
MAPIAMMOUDLE
  2
MApiAmModule
  3
MApiAmServices
 90
        0
280
     0
281
     0
  0
CLASS
  1
AMDTADMENUSTATE
  2
AmdtAdMenuState
  3
DesignerServices
 90
        0
280
     0
281
     0
  0
CLASS
  1
ADAPPL
  2
AcAdAppl
  3
DesignerServices
 90
        0
280
     0
281
     0
  0
CLASS
  1
DEPMGR
  2
AcAdDepMgr
  3
DesignerServices
 90
        0
280
     0
281
     0
  0
CLASS
  1
PARAMMGR
  2
AcAdParamMgr
  3
DesignerServices
 90
        0
280
     0
281
     0
  0
CLASS
  1
PARAMSCOPE
  2
AcAdParamScope
  3
DesignerServices
 90
        0
280
     0
281
     0
  0
CLASS
  1
NAMEDAPPL
  2
AcAdNamedAppl
  3
DesignerServices
 90
        0
280
     0
281
     0
  0
CLASS
  1
AMDTDMMENUSTATE
  2
AmdtDmMenuState
  3
AcMechDwgViewMgmt
 90
        0
280
     0
281
     0
  0
CLASS
  1
AMDTAMMENUSTATE
  2
AmdtAmMenuState
  3
DesignerAssemblies
 90
        0
280
     0
281
     0
  0
CLASS
  1
ACAMPROJECT
  2
AcAmProject
  3
DesignerAssemblies
 90
        0
280
     0
281
     0
  0
CLASS
  1
ACAMGRCOMPDEF
  2
AcAmGrCompDef
  3
DesignerAssemblies
 90
        0
280
     0
281
     0
  0
CLASS
  1
ACCMCONTEXT
  2
AcCmContext
  3
DesignerAssemblies
 90
        0
280
     0
281
     0
  0
CLASS
  1
ACAMCOMPDEF
  2
AcAmCompDef
  3
DesignerAssemblies
 90
        0
280
     0
281
     0
  0
CLASS
  1
ACAMCOMPDEFMGR
  2
AcAmCompDefMgr
  3
DesignerAssemblies
 90
        0
280
     0
281
     0
  0
CLASS
  1
AMCONTEXTMGR
  2
AcAmContextMgr
  3
DesignerAssemblies
 90
        0
280
     0
281
     0
  0
CLASS
  1
ACAMCONTEXTMODELER
  2
AcAmContextModeler
  3
DesignerAssemblies
 90
        0
280
     0
281
     0
  0
CLASS
  1
ACMTHREADLINESTANDARDISO
  2
AmdtThreadLineStdISO
  3
"Amdt_StdImp|Product Description: AutoCAD Mechanical 2004 DX|Company: Autodesk"
 90
        0
280
     0
281
     0
  0
CLASS
  1
CATALOGSTATE
  2
AcAmCatalogState
  3
DesignerAssemblies
 90
        0
280
     0
281
     0
  0
CLASS
  1
ACAMGRCOMPDEFSET
  2
AcAmGrCompDefSet
  3
DesignerAssemblies
 90
        0
280
     0
281
     0
  0
CLASS
  1
AMDTBROWSERDBTAB
  2
AmdtBrowserDbTab
  3
McadcomServices
 90
        0
280
     0
281
     0
  0
CLASS
  1
CBROWSERAPPOBJECT
  2
CBrowserAppObject
  3
McadcomServices
 90
        0
280
     0
281
     0
  0
CLASS
  1
DM_PLACEHOLDER
  2
AcDmSelsetPlaceholder
  3
AcMechDwgViewMgmt
 90
        0
280
     0
281
     0
  0
CLASS
  1
TABLESTYLE
  2
AcDbTableStyle
  3
ObjectDBX Classes
 90
     2047
280
     0
281
     0
  0
CLASS
  1
VAACXREFPANELOBJECT
  2
VaAcXREFPanelObject
  3
VAAC_ADDIN
 90
    32768
280
     0
281
     0
  0
CLASS
  1
VAACIMAGEINVENTORY
  2
VaAcImageInventory
  3
VAAC_ADDIN
 90
    32768
280
     0
281
     0
  0
CLASS
  1
AMDTNOTETEMPLATEDB
  2
AmdtNoteTemplateDB
  3
AMDT_STDIMP_MODULE_NAME
 90
        0
280
     0
281
     0
  0
CLASS
  1
ACMBOM
  2
AcmBom
  3
"AcmSymBB|Product Description: AutoCAD Mechanical 2004 DX|Company: Autodesk"
 90
    32768
280
     0
281
     0
  0
CLASS
  1
AMDTFORMULAUPDATEDISPATCHER
  2
AmdtFormulaUpdateDispatcher
  3
AcMeServices
 90
    32768
280
     0
281
     0
  0
CLASS
  1
ACMPARTLIST
  2
AcmPartList
  3
"AcmSymBB|Product Description: AutoCAD Mechanical 2004 DX|Company: Autodesk"
 90
    33791
280
     0
281
     1
  0
CLASS
  1
ACAMGFILTERDAT
  2
AcAmgFilterDat
  3
"AcadM|Product Description: AutoCAD Mechanical 2000|Company: Autodesk"
 90
        0
280
     0
281
     0
  0
CLASS
  1
DIMASSOC
  2
AcDbDimAssoc
  3
"AcDbDimAssoc|Product Desc:     AcDim ARX App For Dimension|Company:          Autodesk, Inc.|WEB Address:      www.autodesk.com"
 90
        0
280
     0
281
     0
  0
CLASS
  1
SORTENTSTABLE
  2
AcDbSortentsTable
  3
ObjectDBX Classes
 90
        0
280
     0
281
     0
  0
CLASS
  1
STDPART2D
  2
AmgStdPart
  3
"AmgStdPart|Product Description: AutoCAD Mechanical 2000|Company: Autodesk"
 90
    33791
280
     0
281
     1
  0
CLASS
  1
ACAMSTDPCOMPDEF
  2
AcAmStdpCompDef
  3
DesignerAssemblies
 90
    32768
280
     0
281
     0
  0
CLASS
  1
ACRFATTGENMGR
  2
AcRfAttGeneralMgr
  3
AcAttribServices
 90
        0
280
     0
281
     0
  0
CLASS
  1
ACRFOBJATTMGR
  2
AcRfObjAttGroupMgr
  3
AcAttribServices
 90
    32768
280
     0
281
     0
  0
CLASS
  1
ACRFMCADAPIATTHOLDER
  2
AcRfMCADAPIAttHolder
  3
AcAttribServices
 90
    32768
280
     0
281
     0
  0
CLASS
  1
AMDTSYSATTR
  2
AmdtSystemAttribute
  3
AcAttribServices
 90
    32768
280
     0
281
     0
  0
CLASS
  1
ACAMCOMP
  2
AcAmComp
  3
DesignerAssemblies
 90
    32768
280
     0
281
     0
  0
CLASS
  1
AC_AM_STDP_VIEW_DEF
  2
AcAmStdpViewDef
  3
DesignerAssemblies
 90
    32768
280
     0
281
     0
  0
CLASS
  1
AC_AM_MVD_DEP_MGR
  2
AcAmMVDdepMgr
  3
DesignerAssemblies
 90
        0
280
     0
281
     0
  0
CLASS
  1
AC_AM_MASTER_VIEW_DEF
  2
AcAmMasterViewDef
  3
DesignerAssemblies
 90
        0
280
     0
281
     0
  0
CLASS
  1
AC_AM_DIRTY_NODES
  2
AcAmDirtyNodes
  3
DesignerAssemblies
 90
        0
280
     0
281
     0
  0
CLASS
  1
AC_AM_MAPPER_CACHE
  2
AcAmMapperCache
  3
DesignerAssemblies
 90
        0
280
     0
281
     0
  0
CLASS
  1
ACAMMVDBACKUPOBJECT
  2
AcAmMVDBackupObject
  3
DesignerAssemblies
 90
        0
280
     0
281
     0
  0
CLASS
  1
AC_AM_COMP_VIEW_INST
  2
AcAmCompView
  3
DesignerAssemblies
 90
    32768
280
     0
281
     0
  0
CLASS
  1
AC_AM_2D_XREF_MGR
  2
AcAmXrefMgr2d
  3
DesignerAssemblies
 90
        0
280
     0
281
     0
  0
CLASS
  1
AMDTNOTE
  2
AmdtNote
  3
"AcmSymBB|Product Description: AutoCAD Mechanical 2004 DX|Company: Autodesk"
 90
     1023
280
     0
281
     1
  0
ENDSEC
  0
SECTION
  2
TABLES
  0
TABLE
  2
VPORT
  5
8
330
0
100
AcDbSymbolTable
 70
    13
  0
VPORT
  5
2E41
330
8
100
AcDbSymbolTableRecord
100
AcDbViewportTableRecord
  2
*Active
 70
     0
 10
0.0
 20
0.0
 11
1.0
 21
1.0
 12
701.0792297885541
 22
399.3011859455915
 13
0.0
 23
0.0
 14
2.5
 24
2.5
 15
10.0
 25
10.0
 16
0.0
 26
0.0
 36
1.0
 17
0.0
 27
0.0
 37
0.0
 40
290.3876666140624
 41
1.661684782608695
 42
50.0
 43
0.0
 44
0.0
 50
0.0
 51
0.0
 71
     0
 72
   100
 73
     1
 74
     3
 75
     0
 76
     0
 77
     0
 78
     0
281
     0
 65
     1
110
0.0
120
0.0
130
0.0
111
1.0
121
0.0
131
0.0
112
0.0
122
1.0
132
0.0
 79
     0
146
0.0
  0
ENDTAB
  0
TABLE
  2
LTYPE
  5
5
330
0
100
AcDbSymbolTable
 70
    14
  0
LTYPE
  5
14
330
5
100
AcDbSymbolTableRecord
100
AcDbLinetypeTableRecord
  2
ByBlock
 70
     0
  3

 72
    65
 73
     0
 40
0.0
  0
LTYPE
  5
15
330
5
100
AcDbSymbolTableRecord
100
AcDbLinetypeTableRecord
  2
ByLayer
 70
     0
  3

 72
    65
 73
     0
 40
0.0
  0
LTYPE
  5
16
330
5
100
AcDbSymbolTableRecord
100
AcDbLinetypeTableRecord
  2
Continuous
 70
     0
  3
Solid line
 72
    65
 73
     0
 40
0.0
  0
LTYPE
  5
64
330
5
100
AcDbSymbolTableRecord
100
AcDbLinetypeTableRecord
  2
AM_ISO02W050
 70
     0
  3
__ __ __ __ __ __ __ __ __ __ __ __ __ __ __
 72
    65
 73
     2
 40
7.5
 49
6.0
 74
     0
 49
-1.5
 74
     0
  0
LTYPE
  5
65
330
5
100
AcDbSymbolTableRecord
100
AcDbLinetypeTableRecord
  2
AM_ISO08W050
 70
     0
  3
____ . ____ . ____ . ____ . ____ . ____ . ____
 72
    65
 73
     4
 40
18.0
 49
12.0
 74
     0
 49
-1.5
 74
     0
 49
3.0
 74
     0
 49
-1.5
 74
     0
  0
LTYPE
  5
66
330
5
100
AcDbSymbolTableRecord
100
AcDbLinetypeTableRecord
  2
AM_ISO09W050
 70
     0
  3
_____ . . _____ . . _____ . . ____ .. ____
 72
    65
 73
     6
 40
22.5
 49
12.0
 74
     0
 49
-1.5
 74
     0
 49
3.0
 74
     0
 49
-1.5
 74
     0
 49
3.0
 74
     0
 49
-1.5
 74
     0
  0
LTYPE
  5
67
330
5
100
AcDbSymbolTableRecord
100
AcDbLinetypeTableRecord
  2
Amconstr
 70
     0
  3
_______________________
 72
    65
 73
     2
 40
9999.0
 49
9999.0
 74
     0
 49
0.0
 74
     0
  0
LTYPE
  5
68
330
5
100
AcDbSymbolTableRecord
100
AcDbLinetypeTableRecord
  2
AM_ISO08W050x2
 70
     0
  3
__ . __ . __ . __ . __ . __
 72
    65
 73
     4
 40
9.0
 49
6.0
 74
     0
 49
-0.75
 74
     0
 49
1.5
 74
     0
 49
-0.75
 74
     0
  0
LTYPE
  5
69
330
5
100
AcDbSymbolTableRecord
100
AcDbLinetypeTableRecord
  2
AM_ISO02W050x2
 70
     0
  3
 _ _ _ _ _ _ _ _ _ _ _ _
 72
    65
 73
     2
 40
3.75
 49
3.0
 74
     0
 49
-0.75
 74
     0
  0
LTYPE
  5
6C
330
5
100
AcDbSymbolTableRecord
100
AcDbLinetypeTableRecord
  2
Amzigzag
 70
     0
  3
/\/-/\/-/\/-/\/-/\/-/\/
 72
    65
 73
     2
 40
11.0001
 49
0.0001
 74
     4
 75
   135
340
6B
 46
0.04
 50
0.0
 44
0.0
 45
0.0
 49
-11.0
 74
     0
  0
LTYPE
  5
7A
330
5
100
AcDbSymbolTableRecord
100
AcDbLinetypeTableRecord
  2
ACISOWELD
 70
     0
  3
_ _ _ _ _
 72
    65
 73
     2
 40
2.0
 49
2.0
 74
     0
 49
-1.0
 74
     0
  0
LTYPE
  5
7B
330
5
100
AcDbSymbolTableRecord
100
AcDbLinetypeTableRecord
  2
ACISOTGB
 70
     0
  3
__ . . __ . .
 72
    65
 73
     6
 40
9.0
 49
4.0
 74
     0
 49
-1.0
 74
     0
 49
1.0
 74
     0
 49
-1.0
 74
     0
 49
1.0
 74
     0
 49
-1.0
 74
     0
  0
LTYPE
  5
7C
330
5
100
AcDbSymbolTableRecord
100
AcDbLinetypeTableRecord
  2
ACISOTGL
 70
     0
  3
_ _ _ _ _
 72
    65
 73
     2
 40
3.0
 49
2.0
 74
     0
 49
-1.0
 74
     0
  0
LTYPE
  5
7E
330
5
100
AcDbSymbolTableRecord
100
AcDbLinetypeTableRecord
  2
CENTER
 70
     0
  3
__ . __
 72
    65
 73
     4
 40
7.0
 49
4.0
 74
     0
 49
-1.0
 74
     0
 49
1.0
 74
     0
 49
-1.0
 74
     0
  0
LTYPE
  5
D8
330
5
100
AcDbSymbolTableRecord
100
AcDbLinetypeTableRecord
  2
HIDDEN
 70
     0
  3
Hidden __ __ __ __ __ __ __ __ __ __ __ __ __ _
 72
    65
 73
     2
 40
9.524999999999998
 49
6.349999999999999
 74
     0
 49
-3.174999999999999
 74
     0
  0
LTYPE
  5
D9
330
5
100
AcDbSymbolTableRecord
100
AcDbLinetypeTableRecord
  2
PHANTOM2
 70
     0
  3
Phantom (.5x) ___ _ _ ___ _ _ ___ _ _ ___ _ _
 72
    65
 73
     6
 40
31.75
 49
15.875
 74
     0
 49
-3.174999999999999
 74
     0
 49
3.174999999999999
 74
     0
 49
-3.174999999999999
 74
     0
 49
3.174999999999999
 74
     0
 49
-3.174999999999999
 74
     0
  0
ENDTAB
  0
TABLE
  2
LAYER
  5
2
102
{ACAD_XDICTIONARY
360
3F9
102
}
330
0
100
AcDbSymbolTable
 70
     7
  0
LAYER
  5
10
330
2
100
AcDbSymbolTableRecord
100
AcDbLayerTableRecord
  2
0
 70
     0
 62
     7
  6
Continuous
370
    -3
390
F
  0
LAYER
  5
8CB
330
2
100
AcDbSymbolTableRecord
100
AcDbLayerTableRecord
  2
AM_5
 70
     0
 62
     5
  6
Continuous
370
    50
390
F
  0
LAYER
  5
939
330
2
100
AcDbSymbolTableRecord
100
AcDbLayerTableRecord
  2
Defpoints
 70
     0
 62
     7
  6
Continuous
290
     0
370
    -3
390
F
  0
LAYER
  5
C42
330
2
100
AcDbSymbolTableRecord
100
AcDbLayerTableRecord
  2
AM_4
 70
     0
 62
     3
  6
Continuous
370
    25
390
F
  0
LAYER
  5
C43
330
2
100
AcDbSymbolTableRecord
100
AcDbLayerTableRecord
  2
AM_VIS
 70
     0
 62
     7
  6
Continuous
370
    50
390
F
  0
LAYER
  5
F2A
330
2
100
AcDbSymbolTableRecord
100
AcDbLayerTableRecord
  2
AM_7
 70
     0
 62
     1
  6
CENTER
370
    25
390
F
  0
LAYER
  5
273A
330
2
100
AcDbSymbolTableRecord
100
AcDbLayerTableRecord
  2
LOGO
 70
     0
 62
     7
  6
Continuous
370
    -3
390
F
  0
ENDTAB
  0
TABLE
  2
STYLE
  5
3
330
0
100
AcDbSymbolTable
 70
     6
  0
STYLE
  5
11
330
3
100
AcDbSymbolTableRecord
100
AcDbTextStyleTableRecord
  2
STANDARD
 70
     0
 40
0.0
 41
1.0
 50
0.0
 71
     0
 42
3.0
  3
ISOCP.SHX
  4
CHINESET.SHX
  0
STYLE
  5
6B
330
3
100
AcDbSymbolTableRecord
100
AcDbTextStyleTableRecord
  2

 70
     1
 40
0.0
 41
1.0
 50
0.0
 71
     0
 42
2.5
  3
ltypeshp.shx
  4

  0
STYLE
  5
6D
330
3
100
AcDbSymbolTableRecord
100
AcDbTextStyleTableRecord
  2
ACISOTS
 70
     0
 40
1.0
 41
1.0
 50
0.0
 71
     0
 42
1.0
  3
isocp.shx
  4
chineset.shx
  0
STYLE
  5
79
330
3
100
AcDbSymbolTableRecord
100
AcDbTextStyleTableRecord
  2
ACISOGDT
 70
     0
 40
0.0
 41
1.0
 50
0.0
 71
     0
 42
2.5
  3
amgdt.shx
  4
chineset.shx
  0
STYLE
  5
60C
330
3
100
AcDbSymbolTableRecord
100
AcDbTextStyleTableRecord
  2
CHINESET
 70
     0
 40
0.0
 41
0.75
 50
0.0
 71
     0
 42
3.0
  3
simplex.shx
  4
CHINESET.SHX
  0
ENDTAB
  0
TABLE
  2
VIEW
  5
6
330
0
100
AcDbSymbolTable
 70
     0
  0
ENDTAB
  0
TABLE
  2
UCS
  5
7
330
0
100
AcDbSymbolTable
 70
     0
  0
ENDTAB
  0
TABLE
  2
APPID
  5
9
330
0
100
AcDbSymbolTable
 70
    28
  0
APPID
  5
12
330
9
100
AcDbSymbolTableRecord
100
AcDbRegAppTableRecord
  2
ACAD
 70
     0
  0
APPID
  5
46
330
9
100
AcDbSymbolTableRecord
100
AcDbRegAppTableRecord
  2
MCAD_NO_VIS
 70
     0
  0
APPID
  5
47
330
9
100
AcDbSymbolTableRecord
100
AcDbRegAppTableRecord
  2
ACAD_TEMP_GRAPHIC
 70
     0
  0
APPID
  5
58
330
9
100
AcDbSymbolTableRecord
100
AcDbRegAppTableRecord
  2
ACATTRIBSERVICES
 70
     0
  0
APPID
  5
EE
330
9
100
AcDbSymbolTableRecord
100
AcDbRegAppTableRecord
  2
AD_DRAW
 70
     0
  0
APPID
  5
10C
330
9
100
AcDbSymbolTableRecord
100
AcDbRegAppTableRecord
  2
DESIGNERASSEMBLIES
 70
     0
  0
APPID
  5
111
330
9
100
AcDbSymbolTableRecord
100
AcDbRegAppTableRecord
  2
ACADM_DIM_EDIT
 70
     0
  0
APPID
  5
112
330
9
100
AcDbSymbolTableRecord
100
AcDbRegAppTableRecord
  2
AMDT_DM_ADJ
 70
     0
  0
APPID
  5
22C
330
9
100
AcDbSymbolTableRecord
100
AcDbRegAppTableRecord
  2
ACAD_DSTYLE_DIMTEXT_FILL
 70
     0
  0
APPID
  5
452
330
9
100
AcDbSymbolTableRecord
100
AcDbRegAppTableRecord
  2
GENIUS_GENOENT_13
 70
     0
  0
APPID
  5
453
330
9
100
AcDbSymbolTableRecord
100
AcDbRegAppTableRecord
  2
GENIUS_GENOBJ-N-CRS_13
 70
     0
  0
APPID
  5
454
330
9
100
AcDbSymbolTableRecord
100
AcDbRegAppTableRecord
  2
GENIUS_GENOLIS_13
 70
     0
  0
APPID
  5
455
330
9
100
AcDbSymbolTableRecord
100
AcDbRegAppTableRecord
  2
GENIUS_GENODEF_13
 70
     0
  0
APPID
  5
456
330
9
100
AcDbSymbolTableRecord
100
AcDbRegAppTableRecord
  2
GENIUS_GENOREF_13
 70
     0
  0
APPID
  5
6F3
330
9
100
AcDbSymbolTableRecord
100
AcDbRegAppTableRecord
  2
ACAD_PSEXT
 70
     0
  0
APPID
  5
808
330
9
100
AcDbSymbolTableRecord
100
AcDbRegAppTableRecord
  2
GENIUS_GENDTOL_13
 70
     0
  0
APPID
  5
1004
330
9
100
AcDbSymbolTableRecord
100
AcDbRegAppTableRecord
  2
GEVID1180061612
 70
     0
  0
APPID
  5
1005
330
9
100
AcDbSymbolTableRecord
100
AcDbRegAppTableRecord
  2
GEVDC
 70
     0
  0
APPID
  5
1006
330
9
100
AcDbSymbolTableRecord
100
AcDbRegAppTableRecord
  2
GEVRADREF
 70
     0
  0
APPID
  5
100F
330
9
100
AcDbSymbolTableRecord
100
AcDbRegAppTableRecord
  2
AMG_2DHIDE
 70
     0
  0
APPID
  5
1010
330
9
100
AcDbSymbolTableRecord
100
AcDbRegAppTableRecord
  2
AMG_2DSTRUCT_BTR
 70
     0
  0
APPID
  5
1021
330
9
100
AcDbSymbolTableRecord
100
AcDbRegAppTableRecord
  2
ACADM_2DVIEW_IGN_NOTIFY
 70
     0
  0
APPID
  5
115B
330
9
100
AcDbSymbolTableRecord
100
AcDbRegAppTableRecord
  2
GENIUS_GENOBJ-N-CEN_13
 70
     0
  0
APPID
  5
115C
330
9
100
AcDbSymbolTableRecord
100
AcDbRegAppTableRecord
  2
GENIUS_GENCEN_19
 70
     0
  0
APPID
  5
15F7
330
9
100
AcDbSymbolTableRecord
100
AcDbRegAppTableRecord
  2
GEVID1180061613
 70
     0
  0
APPID
  5
273B
330
9
100
AcDbSymbolTableRecord
100
AcDbRegAppTableRecord
  2
GENIUS_GENREC_14
 70
     0
  0
APPID
  5
273C
330
9
100
AcDbSymbolTableRecord
100
AcDbRegAppTableRecord
  2
GENIUS_GENOBJ-N-REC_13
 70
     0
  0
APPID
  5
2C16
330
9
100
AcDbSymbolTableRecord
100
AcDbRegAppTableRecord
  2
GENIUS_GENDIMSH_14
 70
     0
  0
ENDTAB
  0
TABLE
  2
DIMSTYLE
  5
A
330
0
100
AcDbSymbolTable
 70
     9
100
AcDbDimStyleTable
 71
     3
340
81
340
8B
340
86
  0
DIMSTYLE
105
81
330
A
100
AcDbSymbolTableRecord
100
AcDbDimStyleTableRecord
  2
AM_ISO
 70
     0
  4
"
 41
3.0
 42
1.0
 43
8.0
 44
1.5
 47
0.1
 48
0.1
 73
     0
 74
     0
 77
     1
 78
     8
 79
     2
140
3.5
141
0.0
143
0.0393701
146
0.6
147
0.8
172
     1
176
   256
177
   256
178
   256
271
     2
272
     2
283
     0
284
     8
340
60C
371
    -1
372
    -1
  0
DIMSTYLE
105
82
330
A
100
AcDbSymbolTableRecord
100
AcDbDimStyleTableRecord
  2
AM_ISO$3
 70
     0
  4
"
 41
3.0
 42
1.0
 43
8.0
 44
1.5
 47
0.1
 48
0.1
 73
     0
 77
     1
 78
     8
 79
     2
140
3.5
141
0.0
143
0.0393701
146
0.6
147
0.8
176
   256
177
   256
178
   256
271
     2
272
     2
283
     0
284
     8
288
     1
289
     0
340
60C
371
    -1
372
    -1
  0
DIMSTYLE
105
83
330
A
100
AcDbSymbolTableRecord
100
AcDbDimStyleTableRecord
  2
AM_ISO$4
 70
     0
  4
"
 41
3.0
 42
1.0
 43
8.0
 44
1.5
 47
0.1
 48
0.1
 73
     0
 77
     1
 78
     8
 79
     2
140
3.5
141
0.0
143
0.0393701
146
0.6
147
0.8
176
   256
177
   256
178
   256
271
     2
272
     2
283
     0
284
     8
288
     1
289
     0
340
60C
371
    -1
372
    -1
  0
DIMSTYLE
105
84
330
A
100
AcDbSymbolTableRecord
100
AcDbDimStyleTableRecord
  2
AM_ISO$6
 70
     0
  4
"
 41
3.0
 42
1.0
 43
8.0
 44
1.5
 47
0.1
 48
0.1
 73
     0
 74
     0
 78
     8
 79
     2
140
3.5
141
0.0
143
0.0393701
146
0.6
147
0.8
172
     1
176
   256
177
   256
178
   256
271
     2
272
     2
283
     0
284
     8
340
60C
371
    -1
372
    -1
  0
DIMSTYLE
105
85
330
A
100
AcDbSymbolTableRecord
100
AcDbDimStyleTableRecord
  2
AM_ISO$7
 70
     0
  4
"
 41
3.0
 42
1.0
 43
8.0
 44
1.5
 47
0.1
 48
0.1
 73
     0
 74
     0
 77
     1
 78
     8
 79
     2
140
5.0
141
0.0
143
0.0393701
146
0.6
147
0.8
172
     1
176
   256
177
   256
178
   256
271
     2
272
     2
283
     0
284
     8
340
60C
371
    -1
372
    -1
  0
DIMSTYLE
105
86
330
A
100
AcDbSymbolTableRecord
100
AcDbDimStyleTableRecord
  2
AM_ISO$SF
 70
     0
  4
"
 41
2.5
 42
1.0
 43
10.0
 44
1.0
 47
0.1
 48
0.1
 73
     0
 74
     0
 75
     1
 76
     1
 77
     1
 78
     8
 79
     2
140
3.5
141
0.0
143
0.0393701
146
0.71
147
1.5
172
     1
176
   256
177
   256
178
     2
271
     2
272
     3
274
     4
283
     0
284
     8
340
11
371
    -1
372
    -1
  0
DIMSTYLE
105
8B
330
A
100
AcDbSymbolTableRecord
100
AcDbDimStyleTableRecord
  2
AM_ISO$SH
 70
     0
  4
"
 41
2.5
 42
1.0
 43
10.0
 44
1.0
 47
0.1
 48
0.1
 73
     0
 74
     0
 75
     1
 76
     1
 77
     1
 78
     8
 79
     2
140
3.5
141
0.0
143
0.0393701
144
2.0
146
0.71
147
1.5
172
     1
173
     1
176
   256
177
   256
178
     2
271
     2
272
     3
274
     4
283
     0
284
     8
340
11
343
87
371
    -1
372
    -1
  0
DIMSTYLE
105
40B
102
{ACAD_REACTORS
330
22D2
330
22C3
330
22C6
330
22C9
330
22CC
330
22CF
330
23CD
330
2D1E
330
2D44
330
2D6A
102
}
330
A
100
AcDbSymbolTableRecord
100
AcDbDimStyleTableRecord
  2
AM_ISO$0
 70
     0
  4
"
 41
3.0
 42
1.0
 43
8.0
 44
1.5
 47
0.1
 48
0.1
 73
     0
 74
     0
 77
     1
 78
     8
 79
     2
140
3.5
141
0.0
143
0.0393701
146
0.6
147
0.8
172
     1
176
   256
177
   256
178
   256
271
     2
272
     2
283
     0
284
     8
340
60C
371
    -1
372
    -1
  0
ENDTAB
  0
TABLE
  2
BLOCK_RECORD
  5
1
330
0
100
AcDbSymbolTable
 70
    18
  0
BLOCK_RECORD
  5
1F
102
{ACAD_XDICTIONARY
360
8F
102
}
330
1
100
AcDbSymbolTableRecord
100
AcDbBlockTableRecord
  2
*Model_Space
340
22
  0
BLOCK_RECORD
  5
1B
330
1
100
AcDbSymbolTableRecord
100
AcDbBlockTableRecord
  2
*Paper_Space
340
1E
  0
BLOCK_RECORD
  5
23
330
1
100
AcDbSymbolTableRecord
100
AcDbBlockTableRecord
  2
*Paper_Space0
340
26
  0
BLOCK_RECORD
  5
87
330
1
100
AcDbSymbolTableRecord
100
AcDbBlockTableRecord
  2
GENAXEH
340
0
  0
BLOCK_RECORD
  5
1025
330
1
100
AcDbSymbolTableRecord
100
AcDbBlockTableRecord
  2
*U4
340
0
  0
BLOCK_RECORD
  5
22FC
330
1
100
AcDbSymbolTableRecord
100
AcDbBlockTableRecord
  2
*D5
340
0
  0
BLOCK_RECORD
  5
2314
330
1
100
AcDbSymbolTableRecord
100
AcDbBlockTableRecord
  2
*D6
340
0
  0
BLOCK_RECORD
  5
2320
330
1
100
AcDbSymbolTableRecord
100
AcDbBlockTableRecord
  2
*D7
340
0
  0
BLOCK_RECORD
  5
232C
330
1
100
AcDbSymbolTableRecord
100
AcDbBlockTableRecord
  2
*D8
340
0
  0
BLOCK_RECORD
  5
2338
330
1
100
AcDbSymbolTableRecord
100
AcDbBlockTableRecord
  2
*D9
340
0
  0
BLOCK_RECORD
  5
2344
330
1
100
AcDbSymbolTableRecord
100
AcDbBlockTableRecord
  2
*D10
340
0
  0
BLOCK_RECORD
  5
2416
330
1
100
AcDbSymbolTableRecord
100
AcDbBlockTableRecord
  2
*D11
340
0
  0
BLOCK_RECORD
  5
2D1F
330
1
100
AcDbSymbolTableRecord
100
AcDbBlockTableRecord
  2
*D12
340
0
  0
BLOCK_RECORD
  5
2D45
330
1
100
AcDbSymbolTableRecord
100
AcDbBlockTableRecord
  2
*D13
340
0
  0
BLOCK_RECORD
  5
2D6B
330
1
100
AcDbSymbolTableRecord
100
AcDbBlockTableRecord
  2
*D14
340
0
  0
BLOCK_RECORD
  5
2E2F
330
1
100
AcDbSymbolTableRecord
100
AcDbBlockTableRecord
  2
*S16
340
0
  0
BLOCK_RECORD
  5
2E37
330
1
100
AcDbSymbolTableRecord
100
AcDbBlockTableRecord
  2
*S17
340
0
  0
ENDTAB
  0
ENDSEC
  0
SECTION
  2
BLOCKS
  0
BLOCK
  5
20
330
1F
100
AcDbEntity
  8
0
100
AcDbBlockBegin
  2
*Model_Space
 70
     0
 10
0.0
 20
0.0
 30
0.0
  3
*Model_Space
  1

  0
ENDBLK
  5
21
330
1F
100
AcDbEntity
  8
0
100
AcDbBlockEnd
  0
BLOCK
  5
1C
330
1B
100
AcDbEntity
 67
     1
  8
0
100
AcDbBlockBegin
  2
*Paper_Space
 70
     0
 10
0.0
 20
0.0
 30
0.0
  3
*Paper_Space
  1

  0
ENDBLK
  5
1D
330
1B
100
AcDbEntity
 67
     1
  8
0
100
AcDbBlockEnd
  0
BLOCK
  5
24
330
23
100
AcDbEntity
  8
0
100
AcDbBlockBegin
  2
*Paper_Space0
 70
     0
 10
0.0
 20
0.0
 30
0.0
  3
*Paper_Space0
  1

  0
ENDBLK
  5
25
330
23
100
AcDbEntity
  8
0
100
AcDbBlockEnd
  0
BLOCK
  5
89
330
87
100
AcDbEntity
  8
0
100
AcDbBlockBegin
  2
GENAXEH
 70
     0
 10
0.0
 20
0.0
 30
0.0
  3
GENAXEH
  1

  0
LINE
  5
88
330
87
100
AcDbEntity
  8
0
100
AcDbLine
 10
-1.0
 20
0.0
 30
0.0
 11
1.0
 21
0.0
 31
0.0
  0
ENDBLK
  5
8A
330
87
100
AcDbEntity
  8
0
100
AcDbBlockEnd
  0
BLOCK
  5
1026
330
1025
100
AcDbEntity
  8
0
100
AcDbBlockBegin
  2
*U4
 70
     1
 10
0.0
 20
0.0
 30
0.0
  3
*U4
  1

  0
ENDBLK
  5
1027
330
1025
100
AcDbEntity
  8
0
100
AcDbBlockEnd
  0
BLOCK
  5
2306
330
22FC
100
AcDbEntity
  8
0
100
AcDbBlockBegin
  2
*D5
 70
     1
 10
0.0
 20
0.0
 30
0.0
  3
*D5
  1

  0
LINE
  5
2DF9
330
22FC
100
AcDbEntity
  8
AM_5
100
AcDbLine
 10
675.6216858763431
 20
474.8783307156893
 30
0.0
 11
675.6216858763431
 21
493.3783307156893
 31
0.0
  0
LINE
  5
2DFA
330
22FC
100
AcDbEntity
  8
AM_5
100
AcDbLine
 10
726.6216858763431
 20
474.8783307156893
 30
0.0
 11
726.6216858763431
 21
493.3783307156893
 31
0.0
  0
LINE
  5
2DFB
330
22FC
100
AcDbEntity
  8
AM_5
100
AcDbLine
 10
678.6216858763431
 20
491.8783307156893
 30
0.0
 11
723.6216858763431
 21
491.8783307156893
 31
0.0
  0
SOLID
  5
2DFC
330
22FC
100
AcDbEntity
  8
AM_5
100
AcDbTrace
 10
678.6216858763431
 20
492.3783307156893
 30
0.0
 11
678.6216858763431
 21
491.3783307156893
 31
0.0
 12
675.6216858763431
 22
491.8783307156893
 32
0.0
 13
675.6216858763431
 23
491.8783307156893
 33
0.0
  0
SOLID
  5
2DFD
330
22FC
100
AcDbEntity
  8
AM_5
100
AcDbTrace
 10
723.6216858763431
 20
492.3783307156893
 30
0.0
 11
723.6216858763431
 21
491.3783307156893
 31
0.0
 12
726.6216858763431
 22
491.8783307156893
 32
0.0
 13
726.6216858763431
 23
491.8783307156893
 33
0.0
  0
MTEXT
  5
2DFE
330
22FC
100
AcDbEntity
  8
AM_5
100
AcDbMText
 10
701.1216858763431
 20
494.4283307156893
 30
0.0
 40
3.5
 41
0.0
 71
     5
 72
     1
  1
51
  7
CHINESET
 73
     1
 44
1.0
1001
ACAD
1000
MTEXTBEGIN
1070
    73
1070
     1
1070
    44
1040
1.0
1070
    74
1070
     0
1000
MTEXTEND
  0
POINT
  5
2DFF
330
22FC
100
AcDbEntity
  8
Defpoints
 62
     0
100
AcDbPoint
 10
675.6216858763431
 20
473.8783307156893
 30
0.0
  0
POINT
  5
2E00
330
22FC
100
AcDbEntity
  8
Defpoints
 62
     0
100
AcDbPoint
 10
726.6216858763431
 20
473.8783307156893
 30
0.0
  0
POINT
  5
2E01
330
22FC
100
AcDbEntity
  8
Defpoints
 62
     0
100
AcDbPoint
 10
726.6216858763431
 20
491.8783307156893
 30
0.0
  0
ENDBLK
  5
2307
330
22FC
100
AcDbEntity
  8
0
100
AcDbBlockEnd
  0
BLOCK
  5
231E
330
2314
100
AcDbEntity
  8
0
100
AcDbBlockBegin
  2
*D6
 70
     1
 10
0.0
 20
0.0
 30
0.0
  3
*D6
  1

  0
LINE
  5
2C80
330
2314
100
AcDbEntity
  8
AM_5
100
AcDbLine
 10
704.2416858763431
 20
423.3783307156893
 30
0.0
 11
738.1216858763431
 21
423.3783307156893
 31
0.0
  0
LINE
  5
2C81
330
2314
100
AcDbEntity
  8
AM_5
100
AcDbLine
 10
723.7416858763431
 20
444.3783307156893
 30
0.0
 11
738.1216858763431
 21
444.3783307156893
 31
0.0
  0
LINE
  5
2C82
330
2314
100
AcDbEntity
  8
AM_5
100
AcDbLine
 10
736.6216858763431
 20
426.3783307156893
 30
0.0
 11
736.6216858763431
 21
441.3783307156893
 31
0.0
  0
SOLID
  5
2C83
330
2314
100
AcDbEntity
  8
AM_5
100
AcDbTrace
 10
736.1216858763431
 20
426.3783307156893
 30
0.0
 11
737.1216858763431
 21
426.3783307156893
 31
0.0
 12
736.6216858763431
 22
423.3783307156893
 32
0.0
 13
736.6216858763431
 23
423.3783307156893
 33
0.0
  0
SOLID
  5
2C84
330
2314
100
AcDbEntity
  8
AM_5
100
AcDbTrace
 10
736.1216858763431
 20
441.3783307156893
 30
0.0
 11
737.1216858763431
 21
441.3783307156893
 31
0.0
 12
736.6216858763431
 22
444.3783307156893
 32
0.0
 13
736.6216858763431
 23
444.3783307156893
 33
0.0
  0
MTEXT
  5
2C85
330
2314
100
AcDbEntity
  8
AM_5
100
AcDbMText
 10
734.071685876343
 20
433.8783307156894
 30
0.0
 40
3.5
 41
0.0
 71
     5
 72
     1
  1
21
  7
CHINESET
 11
0.0000000000000001
 21
1.0
 31
0.0
 73
     1
 44
1.0
1001
ACAD
1000
MTEXTBEGIN
1070
    73
1070
     1
1070
    44
1040
1.0
1070
    74
1070
     0
1000
MTEXTEND
  0
POINT
  5
2C86
330
2314
100
AcDbEntity
  8
Defpoints
 62
     0
100
AcDbPoint
 10
703.2416858763431
 20
423.3783307156893
 30
0.0
  0
POINT
  5
2C87
330
2314
100
AcDbEntity
  8
Defpoints
 62
     0
100
AcDbPoint
 10
722.7416858763431
 20
444.3783307156893
 30
0.0
  0
POINT
  5
2C88
330
2314
100
AcDbEntity
  8
Defpoints
 62
     0
100
AcDbPoint
 10
736.6216858763431
 20
444.3783307156893
 30
0.0
  0
ENDBLK
  5
231F
330
2314
100
AcDbEntity
  8
0
100
AcDbBlockEnd
  0
BLOCK
  5
232A
330
2320
100
AcDbEntity
  8
0
100
AcDbBlockBegin
  2
*D7
 70
     1
 10
0.0
 20
0.0
 30
0.0
  3
*D7
  1

  0
LINE
  5
2C89
330
2320
100
AcDbEntity
  8
AM_5
100
AcDbLine
 10
710.6216858763431
 20
407.8783307156893
 30
0.0
 11
746.1216858763431
 21
407.8783307156893
 31
0.0
  0
LINE
  5
2C8A
330
2320
100
AcDbEntity
  8
AM_5
100
AcDbLine
 10
710.6216858763431
 20
459.8783307156893
 30
0.0
 11
746.1216858763431
 21
459.8783307156893
 31
0.0
  0
LINE
  5
2C8B
330
2320
100
AcDbEntity
  8
AM_5
100
AcDbLine
 10
744.6216858763431
 20
410.8783307156893
 30
0.0
 11
744.6216858763431
 21
456.8783307156893
 31
0.0
  0
SOLID
  5
2C8C
330
2320
100
AcDbEntity
  8
AM_5
100
AcDbTrace
 10
744.1216858763431
 20
410.8783307156893
 30
0.0
 11
745.1216858763431
 21
410.8783307156893
 31
0.0
 12
744.6216858763431
 22
407.8783307156893
 32
0.0
 13
744.6216858763431
 23
407.8783307156893
 33
0.0
  0
SOLID
  5
2C8D
330
2320
100
AcDbEntity
  8
AM_5
100
AcDbTrace
 10
744.1216858763431
 20
456.8783307156893
 30
0.0
 11
745.1216858763431
 21
456.8783307156893
 31
0.0
 12
744.6216858763431
 22
459.8783307156893
 32
0.0
 13
744.6216858763431
 23
459.8783307156893
 33
0.0
  0
MTEXT
  5
2C8E
330
2320
100
AcDbEntity
  8
AM_5
100
AcDbMText
 10
742.071685876343
 20
433.8783307156894
 30
0.0
 40
3.5
 41
0.0
 71
     5
 72
     1
  1
52
  7
CHINESET
 11
0.0000000000000001
 21
1.0
 31
0.0
 73
     1
 44
1.0
1001
ACAD
1000
MTEXTBEGIN
1070
    73
1070
     1
1070
    44
1040
1.0
1070
    74
1070
     0
1000
MTEXTEND
  0
POINT
  5
2C8F
330
2320
100
AcDbEntity
  8
Defpoints
 62
     0
100
AcDbPoint
 10
709.6216858763431
 20
407.8783307156893
 30
0.0
  0
POINT
  5
2C90
330
2320
100
AcDbEntity
  8
Defpoints
 62
     0
100
AcDbPoint
 10
709.6216858763431
 20
459.8783307156893
 30
0.0
  0
POINT
  5
2C91
330
2320
100
AcDbEntity
  8
Defpoints
 62
     0
100
AcDbPoint
 10
744.6216858763431
 20
459.8783307156893
 30
0.0
  0
ENDBLK
  5
232B
330
2320
100
AcDbEntity
  8
0
100
AcDbBlockEnd
  0
BLOCK
  5
2336
330
232C
100
AcDbEntity
  8
0
100
AcDbBlockBegin
  2
*D8
 70
     1
 10
0.0
 20
0.0
 30
0.0
  3
*D8
  1

  0
LINE
  5
2C92
330
232C
100
AcDbEntity
  8
AM_5
100
AcDbLine
 10
726.6216858763431
 20
392.8783307156893
 30
0.0
 11
726.6216858763431
 21
382.3783307156893
 31
0.0
  0
LINE
  5
2C93
330
232C
100
AcDbEntity
  8
AM_5
100
AcDbLine
 10
718.621685876343
 20
439.2583307156893
 30
0.0
 11
718.621685876343
 21
382.3783307156893
 31
0.0
  0
LINE
  5
2C94
330
232C
100
AcDbEntity
  8
AM_5
100
AcDbLine
 10
723.6216858763431
 20
383.8783307156893
 30
0.0
 11
721.6216858763431
 21
383.8783307156893
 31
0.0
  0
SOLID
  5
2C95
330
232C
100
AcDbEntity
  8
AM_5
100
AcDbTrace
 10
723.6216858763431
 20
384.3783307156893
 30
0.0
 11
723.6216858763431
 21
383.3783307156894
 31
0.0
 12
726.6216858763431
 22
383.8783307156893
 32
0.0
 13
726.6216858763431
 23
383.8783307156893
 33
0.0
  0
SOLID
  5
2C96
330
232C
100
AcDbEntity
  8
AM_5
100
AcDbTrace
 10
721.6216858763431
 20
384.3783307156893
 30
0.0
 11
721.6216858763431
 21
383.3783307156894
 31
0.0
 12
718.621685876343
 22
383.8783307156893
 32
0.0
 13
718.621685876343
 23
383.8783307156893
 33
0.0
  0
MTEXT
  5
2C97
330
232C
100
AcDbEntity
  8
AM_5
100
AcDbMText
 10
722.6216858763431
 20
386.4283307156894
 30
0.0
 40
3.5
 41
0.0
 71
     5
 72
     1
  1
8
  7
CHINESET
 73
     1
 44
1.0
1001
ACAD
1000
MTEXTBEGIN
1070
    73
1070
     1
1070
    44
1040
1.0
1070
    74
1070
     0
1000
MTEXTEND
  0
POINT
  5
2C98
330
232C
100
AcDbEntity
  8
Defpoints
 62
     0
100
AcDbPoint
 10
726.6216858763431
 20
393.8783307156894
 30
0.0
  0
POINT
  5
2C99
330
232C
100
AcDbEntity
  8
Defpoints
 62
     0
100
AcDbPoint
 10
718.621685876343
 20
440.2583307156893
 30
0.0
  0
POINT
  5
2C9A
330
232C
100
AcDbEntity
  8
Defpoints
 62
     0
100
AcDbPoint
 10
718.621685876343
 20
383.8783307156893
 30
0.0
  0
ENDBLK
  5
2337
330
232C
100
AcDbEntity
  8
0
100
AcDbBlockEnd
  0
BLOCK
  5
2342
330
2338
100
AcDbEntity
  8
0
100
AcDbBlockBegin
  2
*D9
 70
     1
 10
0.0
 20
0.0
 30
0.0
  3
*D9
  1

  0
LINE
  5
2C9B
330
2338
100
AcDbEntity
  8
AM_5
100
AcDbLine
 10
718.621685876343
 20
439.2583307156893
 30
0.0
 11
718.621685876343
 21
382.3783307156893
 31
0.0
  0
LINE
  5
2C9C
330
2338
100
AcDbEntity
  8
AM_5
100
AcDbLine
 10
699.1216858763431
 20
418.2583307156893
 30
0.0
 11
699.1216858763431
 21
382.3783307156893
 31
0.0
  0
LINE
  5
2C9D
330
2338
100
AcDbEntity
  8
AM_5
100
AcDbLine
 10
715.6216858763431
 20
383.8783307156893
 30
0.0
 11
702.121685876343
 21
383.8783307156893
 31
0.0
  0
SOLID
  5
2C9E
330
2338
100
AcDbEntity
  8
AM_5
100
AcDbTrace
 10
715.6216858763431
 20
384.3783307156893
 30
0.0
 11
715.6216858763431
 21
383.3783307156894
 31
0.0
 12
718.621685876343
 22
383.8783307156893
 32
0.0
 13
718.621685876343
 23
383.8783307156893
 33
0.0
  0
SOLID
  5
2C9F
330
2338
100
AcDbEntity
  8
AM_5
100
AcDbTrace
 10
702.121685876343
 20
384.3783307156893
 30
0.0
 11
702.121685876343
 21
383.3783307156894
 31
0.0
 12
699.1216858763431
 22
383.8783307156893
 32
0.0
 13
699.1216858763431
 23
383.8783307156893
 33
0.0
  0
MTEXT
  5
2CA0
330
2338
100
AcDbEntity
  8
AM_5
100
AcDbMText
 10
708.8716858763431
 20
386.4283307156894
 30
0.0
 40
3.5
 41
0.0
 71
     5
 72
     1
  1
19.5
  7
CHINESET
 73
     1
 44
1.0
1001
ACAD
1000
MTEXTBEGIN
1070
    73
1070
     1
1070
    44
1040
1.0
1070
    74
1070
     0
1000
MTEXTEND
  0
POINT
  5
2CA1
330
2338
100
AcDbEntity
  8
Defpoints
 62
     0
100
AcDbPoint
 10
718.621685876343
 20
440.2583307156893
 30
0.0
  0
POINT
  5
2CA2
330
2338
100
AcDbEntity
  8
Defpoints
 62
     0
100
AcDbPoint
 10
699.1216858763431
 20
419.2583307156893
 30
0.0
  0
POINT
  5
2CA3
330
2338
100
AcDbEntity
  8
Defpoints
 62
     0
100
AcDbPoint
 10
699.1216858763431
 20
383.8783307156893
 30
0.0
  0
ENDBLK
  5
2343
330
2338
100
AcDbEntity
  8
0
100
AcDbBlockEnd
  0
BLOCK
  5
234E
330
2344
100
AcDbEntity
  8
0
100
AcDbBlockBegin
  2
*D10
 70
     1
 10
0.0
 20
0.0
 30
0.0
  3
*D10
  1

  0
LINE
  5
2E02
330
2344
100
AcDbEntity
  8
AM_5
100
AcDbLine
 10
726.6216858763431
 20
474.8783307156893
 30
0.0
 11
726.6216858763431
 21
485.3783307156893
 31
0.0
  0
LINE
  5
2E03
330
2344
100
AcDbEntity
  8
AM_5
100
AcDbLine
 10
703.6216858763431
 20
466.8783307156893
 30
0.0
 11
703.6216858763431
 21
485.3783307156893
 31
0.0
  0
LINE
  5
2E04
330
2344
100
AcDbEntity
  8
AM_5
100
AcDbLine
 10
723.6216858763431
 20
483.8783307156893
 30
0.0
 11
706.6216858763431
 21
483.8783307156893
 31
0.0
  0
SOLID
  5
2E05
330
2344
100
AcDbEntity
  8
AM_5
100
AcDbTrace
 10
723.6216858763431
 20
484.3783307156893
 30
0.0
 11
723.6216858763431
 21
483.3783307156893
 31
0.0
 12
726.6216858763431
 22
483.8783307156893
 32
0.0
 13
726.6216858763431
 23
483.8783307156893
 33
0.0
  0
SOLID
  5
2E06
330
2344
100
AcDbEntity
  8
AM_5
100
AcDbTrace
 10
706.6216858763431
 20
484.3783307156893
 30
0.0
 11
706.6216858763431
 21
483.3783307156893
 31
0.0
 12
703.6216858763431
 22
483.8783307156893
 32
0.0
 13
703.6216858763431
 23
483.8783307156893
 33
0.0
  0
MTEXT
  5
2E07
330
2344
100
AcDbEntity
  8
AM_5
100
AcDbMText
 10
715.1216858763431
 20
486.4283307156894
 30
0.0
 40
3.5
 41
0.0
 71
     5
 72
     1
  1
23
  7
CHINESET
 73
     1
 44
1.0
1001
ACAD
1000
MTEXTBEGIN
1070
    73
1070
     1
1070
    44
1040
1.0
1070
    74
1070
     0
1000
MTEXTEND
  0
POINT
  5
2E08
330
2344
100
AcDbEntity
  8
Defpoints
 62
     0
100
AcDbPoint
 10
726.6216858763431
 20
473.8783307156893
 30
0.0
  0
POINT
  5
2E09
330
2344
100
AcDbEntity
  8
Defpoints
 62
     0
100
AcDbPoint
 10
703.6216858763431
 20
465.8783307156893
 30
0.0
  0
POINT
  5
2E0A
330
2344
100
AcDbEntity
  8
Defpoints
 62
     0
100
AcDbPoint
 10
703.6216858763431
 20
483.8783307156893
 30
0.0
  0
ENDBLK
  5
234F
330
2344
100
AcDbEntity
  8
0
100
AcDbBlockEnd
  0
BLOCK
  5
2420
330
2416
100
AcDbEntity
  8
0
100
AcDbBlockBegin
  2
*D11
 70
     1
 10
0.0
 20
0.0
 30
0.0
  3
*D11
  1

  0
LINE
  5
2DAD
330
2416
100
AcDbEntity
  8
AM_5
100
AcDbLine
 10
581.6505392127807
 20
401.5783307156893
 30
0.0
 11
581.6505392127807
 21
375.3783307156894
 31
0.0
  0
LINE
  5
2DAE
330
2416
100
AcDbEntity
  8
AM_5
100
AcDbLine
 10
613.6505392127808
 20
401.5783307156893
 30
0.0
 11
613.6505392127808
 21
375.3783307156894
 31
0.0
  0
LINE
  5
2DAF
330
2416
100
AcDbEntity
  8
AM_5
100
AcDbLine
 10
584.6505392127808
 20
376.8783307156894
 30
0.0
 11
610.6505392127807
 21
376.8783307156894
 31
0.0
  0
SOLID
  5
2DB0
330
2416
100
AcDbEntity
  8
AM_5
100
AcDbTrace
 10
584.6505392127808
 20
377.3783307156894
 30
0.0
 11
584.6505392127808
 21
376.3783307156893
 31
0.0
 12
581.6505392127807
 22
376.8783307156894
 32
0.0
 13
581.6505392127807
 23
376.8783307156894
 33
0.0
  0
SOLID
  5
2DB1
330
2416
100
AcDbEntity
  8
AM_5
100
AcDbTrace
 10
610.6505392127807
 20
377.3783307156894
 30
0.0
 11
610.6505392127807
 21
376.3783307156893
 31
0.0
 12
613.6505392127808
 22
376.8783307156894
 32
0.0
 13
613.6505392127808
 23
376.8783307156894
 33
0.0
  0
MTEXT
  5
2DB2
330
2416
100
AcDbEntity
  8
AM_5
100
AcDbMText
 10
597.6505392127807
 20
379.4283307156894
 30
0.0
 40
3.5
 41
0.0
 71
     5
 72
     1
  1
32
  7
CHINESET
 73
     1
 44
1.0
1001
ACAD
1000
MTEXTBEGIN
1070
    73
1070
     1
1070
    44
1040
1.0
1070
    74
1070
     0
1000
MTEXTEND
  0
POINT
  5
2DB3
330
2416
100
AcDbEntity
  8
Defpoints
 62
     0
100
AcDbPoint
 10
581.6505392127807
 20
402.5783307156894
 30
0.0
  0
POINT
  5
2DB4
330
2416
100
AcDbEntity
  8
Defpoints
 62
     0
100
AcDbPoint
 10
613.6505392127808
 20
402.5783307156894
 30
0.0
  0
POINT
  5
2DB5
330
2416
100
AcDbEntity
  8
Defpoints
 62
     0
100
AcDbPoint
 10
613.6505392127808
 20
376.8783307156894
 30
0.0
  0
ENDBLK
  5
2421
330
2416
100
AcDbEntity
  8
0
100
AcDbBlockEnd
  0
BLOCK
  5
2D29
330
2D1F
100
AcDbEntity
  8
0
100
AcDbBlockBegin
  2
*D12
 70
     1
 10
0.0
 20
0.0
 30
0.0
  3
*D12
  1

  0
LINE
  5
2DA4
330
2D1F
100
AcDbEntity
  8
AM_5
100
AcDbLine
 10
576.7505392127808
 20
395.8783307156894
 30
0.0
 11
576.7505392127808
 21
367.3783307156894
 31
0.0
  0
LINE
  5
2DA5
330
2D1F
100
AcDbEntity
  8
AM_5
100
AcDbLine
 10
618.7505392127808
 20
395.8783307156894
 30
0.0
 11
618.7505392127808
 21
367.3783307156894
 31
0.0
  0
LINE
  5
2DA6
330
2D1F
100
AcDbEntity
  8
AM_5
100
AcDbLine
 10
579.7505392127808
 20
368.8783307156894
 30
0.0
 11
615.7505392127808
 21
368.8783307156894
 31
0.0
  0
SOLID
  5
2DA7
330
2D1F
100
AcDbEntity
  8
AM_5
100
AcDbTrace
 10
579.7505392127808
 20
369.3783307156894
 30
0.0
 11
579.7505392127808
 21
368.3783307156894
 31
0.0
 12
576.7505392127808
 22
368.8783307156894
 32
0.0
 13
576.7505392127808
 23
368.8783307156894
 33
0.0
  0
SOLID
  5
2DA8
330
2D1F
100
AcDbEntity
  8
AM_5
100
AcDbTrace
 10
615.7505392127808
 20
369.3783307156894
 30
0.0
 11
615.7505392127808
 21
368.3783307156894
 31
0.0
 12
618.7505392127808
 22
368.8783307156894
 32
0.0
 13
618.7505392127808
 23
368.8783307156894
 33
0.0
  0
MTEXT
  5
2DA9
330
2D1F
100
AcDbEntity
  8
AM_5
100
AcDbMText
 10
597.7505392127808
 20
371.4283307156894
 30
0.0
 40
3.5
 41
0.0
 71
     5
 72
     1
  1
42
  7
CHINESET
 73
     1
 44
1.0
1001
ACAD
1000
MTEXTBEGIN
1070
    73
1070
     1
1070
    44
1040
1.0
1070
    74
1070
     0
1000
MTEXTEND
  0
POINT
  5
2DAA
330
2D1F
100
AcDbEntity
  8
Defpoints
 62
     0
100
AcDbPoint
 10
576.7505392127808
 20
396.8783307156893
 30
0.0
  0
POINT
  5
2DAB
330
2D1F
100
AcDbEntity
  8
Defpoints
 62
     0
100
AcDbPoint
 10
618.7505392127808
 20
396.8783307156893
 30
0.0
  0
POINT
  5
2DAC
330
2D1F
100
AcDbEntity
  8
Defpoints
 62
     0
100
AcDbPoint
 10
618.7505392127808
 20
368.8783307156894
 30
0.0
  0
ENDBLK
  5
2D2A
330
2D1F
100
AcDbEntity
  8
0
100
AcDbBlockEnd
  0
BLOCK
  5
2D4F
330
2D45
100
AcDbEntity
  8
0
100
AcDbBlockBegin
  2
*D13
 70
     1
 10
0.0
 20
0.0
 30
0.0
  3
*D13
  1

  0
LINE
  5
2DC5
330
2D45
100
AcDbEntity
  8
AM_5
100
AcDbLine
 10
575.4505392127809
 20
407.8783307156893
 30
0.0
 11
565.2505392127808
 21
407.8783307156893
 31
0.0
  0
LINE
  5
2DC6
330
2D45
100
AcDbEntity
  8
AM_5
100
AcDbLine
 10
575.4505392127809
 20
459.8783307156893
 30
0.0
 11
565.2505392127808
 21
459.8783307156893
 31
0.0
  0
LINE
  5
2DC7
330
2D45
100
AcDbEntity
  8
AM_5
100
AcDbLine
 10
566.7505392127808
 20
410.8783307156893
 30
0.0
 11
566.7505392127808
 21
456.8783307156893
 31
0.0
  0
SOLID
  5
2DC8
330
2D45
100
AcDbEntity
  8
AM_5
100
AcDbTrace
 10
566.2505392127808
 20
410.8783307156893
 30
0.0
 11
567.2505392127808
 21
410.8783307156893
 31
0.0
 12
566.7505392127808
 22
407.8783307156893
 32
0.0
 13
566.7505392127808
 23
407.8783307156893
 33
0.0
  0
SOLID
  5
2DC9
330
2D45
100
AcDbEntity
  8
AM_5
100
AcDbTrace
 10
566.2505392127808
 20
456.8783307156893
 30
0.0
 11
567.2505392127808
 21
456.8783307156893
 31
0.0
 12
566.7505392127808
 22
459.8783307156893
 32
0.0
 13
566.7505392127808
 23
459.8783307156893
 33
0.0
  0
MTEXT
  5
2DCA
330
2D45
100
AcDbEntity
  8
AM_5
100
AcDbMText
 10
564.2005392127807
 20
433.8783307156893
 30
0.0
 40
3.5
 41
0.0
 71
     5
 72
     1
  1
52
  7
CHINESET
 11
0.0000000000000001
 21
1.0
 31
0.0
 73
     1
 44
1.0
1001
ACAD
1000
MTEXTBEGIN
1070
    73
1070
     1
1070
    44
1040
1.0
1070
    74
1070
     0
1000
MTEXTEND
  0
POINT
  5
2DCB
330
2D45
100
AcDbEntity
  8
Defpoints
 62
     0
100
AcDbPoint
 10
576.4505392127809
 20
407.8783307156893
 30
0.0
  0
POINT
  5
2DCC
330
2D45
100
AcDbEntity
  8
Defpoints
 62
     0
100
AcDbPoint
 10
576.4505392127809
 20
459.8783307156893
 30
0.0
  0
POINT
  5
2DCD
330
2D45
100
AcDbEntity
  8
Defpoints
 62
     0
100
AcDbPoint
 10
566.7505392127808
 20
459.8783307156893
 30
0.0
  0
ENDBLK
  5
2D50
330
2D45
100
AcDbEntity
  8
0
100
AcDbBlockEnd
  0
BLOCK
  5
2D75
330
2D6B
100
AcDbEntity
  8
0
100
AcDbBlockBegin
  2
*D14
 70
     1
 10
0.0
 20
0.0
 30
0.0
  3
*D14
  1

  0
LINE
  5
2DBC
330
2D6B
100
AcDbEntity
  8
AM_5
100
AcDbLine
 10
582.7505392127808
 20
393.8783307156894
 30
0.0
 11
557.2505392127808
 21
393.8783307156894
 31
0.0
  0
LINE
  5
2DBD
330
2D6B
100
AcDbEntity
  8
AM_5
100
AcDbLine
 10
582.7505392127808
 20
473.8783307156893
 30
0.0
 11
557.2505392127808
 21
473.8783307156893
 31
0.0
  0
LINE
  5
2DBE
330
2D6B
100
AcDbEntity
  8
AM_5
100
AcDbLine
 10
558.7505392127808
 20
396.8783307156893
 30
0.0
 11
558.7505392127808
 21
470.8783307156893
 31
0.0
  0
SOLID
  5
2DBF
330
2D6B
100
AcDbEntity
  8
AM_5
100
AcDbTrace
 10
558.2505392127808
 20
396.8783307156893
 30
0.0
 11
559.2505392127808
 21
396.8783307156893
 31
0.0
 12
558.7505392127808
 22
393.8783307156894
 32
0.0
 13
558.7505392127808
 23
393.8783307156894
 33
0.0
  0
SOLID
  5
2DC0
330
2D6B
100
AcDbEntity
  8
AM_5
100
AcDbTrace
 10
558.2505392127808
 20
470.8783307156893
 30
0.0
 11
559.2505392127808
 21
470.8783307156893
 31
0.0
 12
558.7505392127808
 22
473.8783307156893
 32
0.0
 13
558.7505392127808
 23
473.8783307156893
 33
0.0
  0
MTEXT
  5
2DC1
330
2D6B
100
AcDbEntity
  8
AM_5
100
AcDbMText
 10
556.2005392127807
 20
433.8783307156893
 30
0.0
 40
3.5
 41
0.0
 71
     5
 72
     1
  1
80
  7
CHINESET
 11
0.0000000000000001
 21
1.0
 31
0.0
 73
     1
 44
1.0
1001
ACAD
1000
MTEXTBEGIN
1070
    73
1070
     1
1070
    44
1040
1.0
1070
    74
1070
     0
1000
MTEXTEND
  0
POINT
  5
2DC2
330
2D6B
100
AcDbEntity
  8
Defpoints
 62
     0
100
AcDbPoint
 10
583.7505392127808
 20
393.8783307156894
 30
0.0
  0
POINT
  5
2DC3
330
2D6B
100
AcDbEntity
  8
Defpoints
 62
     0
100
AcDbPoint
 10
583.7505392127808
 20
473.8783307156893
 30
0.0
  0
POINT
  5
2DC4
330
2D6B
100
AcDbEntity
  8
Defpoints
 62
     0
100
AcDbPoint
 10
558.7505392127808
 20
473.8783307156893
 30
0.0
  0
ENDBLK
  5
2D76
330
2D6B
100
AcDbEntity
  8
0
100
AcDbBlockEnd
  0
BLOCK
  5
2E34
330
2E2F
100
AcDbEntity
  8
0
100
AcDbBlockBegin
  2
*S16
 70
     1
 10
0.0
 20
0.0
 30
0.0
  3
*S16
  1

  0
LINE
  5
2E30
330
2E2F
100
AcDbEntity
  8
AM_5
 62
     5
100
AcDbLine
 10
738.8605705227507
 20
451.794628997021
 30
0.0
 11
729.7406587934069
 21
451.794628997021
 31
0.0
  0
LINE
  5
2E31
330
2E2F
100
AcDbEntity
  8
AM_5
 62
     5
100
AcDbLine
 10
729.7406587934069
 20
451.794628997021
 30
0.0
 11
723.591374586503
 21
447.7391953930785
 31
0.0
  0
TRACE
  5
2E32
330
2E2F
100
AcDbEntity
  8
AM_5
 62
     5
370
    35
100
AcDbTrace
 10
723.3376902848105
 20
448.1238587909506
 30
0.0
 11
723.8450588881953
 21
447.3545319952065
 31
0.0
 12
720.6695659870656
 22
445.8122718065671
 32
0.0
 13
720.6695659870656
 23
445.8122718065671
 33
0.0
  0
MTEXT
  5
2E33
330
2E2F
100
AcDbEntity
  8
AM_5
 62
     5
100
AcDbMText
 10
738.8605705227507
 20
455.1601470671831
 30
0.0
 40
3.5
 41
0.0
 71
     7
 72
     5
  1

  7
ACISOTS
 73
     1
 44
1.0
1001
ACAD
1000
MTEXTBEGIN
1070
    73
1070
     1
1070
    44
1040
1.0
1070
    74
1070
     0
1000
MTEXTEND
  0
ENDBLK
  5
2E35
330
2E2F
100
AcDbEntity
  8
0
100
AcDbBlockEnd
  0
BLOCK
  5
2E3C
330
2E37
100
AcDbEntity
  8
0
100
AcDbBlockBegin
  2
*S17
 70
     1
 10
0.0
 20
0.0
 30
0.0
  3
*S17
  1

  0
LINE
  5
2E38
330
2E37
100
AcDbEntity
  8
AM_5
 62
     5
100
AcDbLine
 10
755.6792301965472
 20
393.4424881392178
 30
0.0
 11
733.8322878679068
 21
393.4424881392178
 31
0.0
  0
LINE
  5
2E39
330
2E37
100
AcDbEntity
  8
AM_5
 62
     5
100
AcDbLine
 10
733.8322878679068
 20
393.4424881392178
 30
0.0
 11
710.1537721011737
 21
403.8308907242916
 31
0.0
  0
TRACE
  5
2E3A
330
2E37
100
AcDbEntity
  8
AM_5
 62
     5
370
    35
100
AcDbTrace
 10
710.3388973468682
 20
404.2528507911157
 30
0.0
 11
709.9686468554795
 21
403.4089306574675
 31
0.0
 12
706.9486671738884
 22
405.2370565769175
 32
0.0
 13
706.9486671738884
 23
405.2370565769175
 33
0.0
  0
MTEXT
  5
2E3B
330
2E37
100
AcDbEntity
  8
AM_5
 62
     5
100
AcDbMText
 10
755.6792301965472
 20
396.8080062093799
 30
0.0
 40
3.5
 41
0.0
 71
     7
 72
     5
  1

  7
ACISOTS
 73
     1
 44
1.0
1001
ACAD
1000
MTEXTBEGIN
1070
    73
1070
     1
1070
    44
1040
1.0
1070
    74
1070
     0
1000
MTEXTEND
  0
ENDBLK
  5
2E3D
330
2E37
100
AcDbEntity
  8
0
100
AcDbBlockEnd
  0
ENDSEC
  0
SECTION
  2
ENTITIES
  0
LINE
  5
F04
330
1F
100
AcDbEntity
  8
AM_VIS
100
AcDbLine
 10
682.6216858763431
 20
326.233341037252
 30
0.0
 11
675.6216858763431
 21
326.233341037252
 31
0.0
  0
LINE
  5
F05
330
1F
100
AcDbEntity
  8
AM_VIS
100
AcDbLine
 10
692.6216858763431
 20
343.733341037252
 30
0.0
 11
692.6216858763431
 21
320.733341037252
 31
0.0
  0
LINE
  5
F06
330
1F
100
AcDbEntity
  8
AM_VIS
100
AcDbLine
 10
675.6216858763431
 20
338.233341037252
 30
0.0
 11
682.6216858763431
 21
338.233341037252
 31
0.0
  0
LINE
  5
F07
330
1F
100
AcDbEntity
  8
AM_VIS
100
AcDbLine
 10
692.6216858763431
 20
320.733341037252
 30
0.0
 11
682.6216858763431
 21
320.733341037252
 31
0.0
  0
LINE
  5
F08
330
1F
100
AcDbEntity
  8
AM_VIS
100
AcDbLine
 10
682.6216858763431
 20
343.733341037252
 30
0.0
 11
692.6216858763431
 21
343.733341037252
 31
0.0
  0
LINE
  5
F09
330
1F
100
AcDbEntity
  8
AM_VIS
100
AcDbLine
 10
682.6216858763431
 20
338.233341037252
 30
0.0
 11
682.6216858763431
 21
343.733341037252
 31
0.0
  0
LINE
  5
F0A
330
1F
100
AcDbEntity
  8
AM_VIS
100
AcDbLine
 10
682.6216858763431
 20
320.733341037252
 30
0.0
 11
682.6216858763431
 21
326.233341037252
 31
0.0
  0
LINE
  5
F0B
330
1F
100
AcDbEntity
  8
AM_VIS
100
AcDbLine
 10
675.6216858763431
 20
346.233341037252
 30
0.0
 11
675.6216858763431
 21
338.233341037252
 31
0.0
  0
LINE
  5
F0C
330
1F
100
AcDbEntity
  8
AM_VIS
100
AcDbLine
 10
675.6216858763431
 20
326.233341037252
 30
0.0
 11
675.6216858763431
 21
318.233341037252
 31
0.0
  0
LINE
  5
F0D
330
1F
100
AcDbEntity
  8
AM_VIS
100
AcDbLine
 10
726.6216858763431
 20
318.233341037252
 30
0.0
 11
675.6216858763431
 21
318.233341037252
 31
0.0
  0
LINE
  5
F0E
330
1F
100
AcDbEntity
  8
AM_VIS
100
AcDbLine
 10
675.6216858763431
 20
311.233341037252
 30
0.0
 11
726.6216858763431
 21
311.233341037252
 31
0.0
  0
LINE
  5
F0F
330
1F
100
AcDbEntity
  8
AM_VIS
100
AcDbLine
 10
675.6216858763431
 20
318.233341037252
 30
0.0
 11
675.6216858763431
 21
311.233341037252
 31
0.0
  0
LINE
  5
F10
330
1F
100
AcDbEntity
  8
AM_VIS
100
AcDbLine
 10
726.6216858763431
 20
353.233341037252
 30
0.0
 11
675.6216858763431
 21
353.233341037252
 31
0.0
  0
LINE
  5
F11
330
1F
100
AcDbEntity
  8
AM_VIS
100
AcDbLine
 10
675.6216858763431
 20
346.233341037252
 30
0.0
 11
726.6216858763431
 21
346.233341037252
 31
0.0
  0
LINE
  5
F12
330
1F
100
AcDbEntity
  8
AM_VIS
100
AcDbLine
 10
675.6216858763431
 20
353.233341037252
 30
0.0
 11
675.6216858763431
 21
346.233341037252
 31
0.0
  0
LINE
  5
F13
330
1F
100
AcDbEntity
  8
AM_VIS
100
AcDbLine
 10
726.6216858763431
 20
311.233341037252
 30
0.0
 11
726.6216858763431
 21
318.233341037252
 31
0.0
  0
LINE
  5
F14
330
1F
100
AcDbEntity
  8
AM_VIS
100
AcDbLine
 10
726.6216858763431
 20
318.233341037252
 30
0.0
 11
726.6216858763431
 21
346.233341037252
 31
0.0
  0
LINE
  5
F15
330
1F
100
AcDbEntity
  8
AM_VIS
100
AcDbLine
 10
726.6216858763431
 20
346.233341037252
 30
0.0
 11
726.6216858763431
 21
353.233341037252
 31
0.0
  0
LINE
  5
F16
330
1F
100
AcDbEntity
  8
AM_VIS
100
AcDbLine
 10
676.1216858763431
 20
326.233341037252
 30
0.0
 11
676.1216858763431
 21
338.233341037252
 31
0.0
  0
LINE
  5
F17
330
1F
100
AcDbEntity
  8
AM_VIS
100
AcDbLine
 10
678.6216858763431
 20
338.233341037252
 30
0.0
 11
678.6216858763431
 21
326.233341037252
 31
0.0
  0
LINE
  5
F18
330
1F
100
AcDbEntity
  8
AM_VIS
100
AcDbLine
 10
675.6216858763431
 20
326.233341037252
 30
0.0
 11
675.6216858763431
 21
338.233341037252
 31
0.0
  0
LINE
  5
F19
330
1F
100
AcDbEntity
  8
AM_VIS
100
AcDbLine
 10
675.6216858763431
 20
319.233341037252
 30
0.0
 11
674.1216858763431
 21
319.233341037252
 31
0.0
  0
LINE
  5
F1A
330
1F
100
AcDbEntity
  8
AM_VIS
100
AcDbLine
 10
674.1216858763431
 20
345.233341037252
 30
0.0
 11
674.1216858763431
 21
319.233341037252
 31
0.0
  0
LINE
  5
F1B
330
1F
100
AcDbEntity
  8
AM_VIS
100
AcDbLine
 10
675.6216858763431
 20
345.233341037252
 30
0.0
 11
674.1216858763431
 21
345.233341037252
 31
0.0
  0
LINE
  5
203B
330
1F
100
AcDbEntity
  8
AM_VIS
100
AcDbLine
 10
580.7505392127808
 20
448.3783307156893
 30
0.0
 11
580.7505392127808
 21
449.1283307156893
 31
0.0
  0
LINE
  5
203C
330
1F
100
AcDbEntity
  8
AM_VIS
100
AcDbLine
 10
585.2505392127808
 20
448.3783307156893
 30
0.0
 11
580.7505392127808
 21
448.3783307156893
 31
0.0
  0
LINE
  5
203D
330
1F
100
AcDbEntity
  8
AM_VIS
100
AcDbLine
 10
585.2505392127808
 20
452.8783307156893
 30
0.0
 11
585.2505392127808
 21
448.3783307156893
 31
0.0
  0
LINE
  5
203E
330
1F
100
AcDbEntity
  8
AM_VIS
100
AcDbLine
 10
580.7505392127808
 20
452.8783307156893
 30
0.0
 11
585.2505392127808
 21
452.8783307156893
 31
0.0
  0
LINE
  5
203F
330
1F
100
AcDbEntity
  8
AM_VIS
100
AcDbLine
 10
580.7505392127808
 20
452.1283307156893
 30
0.0
 11
580.7505392127808
 21
452.8783307156893
 31
0.0
  0
LINE
  5
2040
330
1F
100
AcDbEntity
  8
AM_VIS
100
AcDbLine
 10
579.2505392127808
 20
452.1283307156893
 30
0.0
 11
580.7505392127808
 21
452.1283307156893
 31
0.0
  0
LINE
  5
2041
330
1F
100
AcDbEntity
  8
AM_VIS
100
AcDbLine
 10
579.2505392127808
 20
452.1283307156893
 30
0.0
 11
576.7505392127808
 21
452.7982036967672
 31
0.0
  0
LINE
  5
2042
330
1F
100
AcDbEntity
  8
AM_VIS
100
AcDbLine
 10
576.7505392127808
 20
396.8783307156893
 30
0.0
 11
576.7505392127808
 21
414.9584577346115
 31
0.0
  0
LINE
  5
2043
102
{ACAD_REACTORS
330
2D2C
102
}
330
1F
100
AcDbEntity
  8
AM_VIS
100
AcDbLine
 10
583.7505392127808
 20
393.8783307156894
 30
0.0
 11
576.7505392127808
 21
396.8783307156893
 31
0.0
  0
LINE
  5
2044
330
1F
100
AcDbEntity
  8
AM_VIS
100
AcDbLine
 10
576.7505392127808
 20
452.7982036967672
 30
0.0
 11
576.7505392127808
 21
470.8783307156893
 31
0.0
  0
LINE
  5
2045
330
1F
100
AcDbEntity
  8
AM_VIS
100
AcDbLine
 10
576.7505392127808
 20
470.8783307156893
 30
0.0
 11
583.7505392127808
 21
473.8783307156893
 31
0.0
  0
LINE
  5
2046
330
1F
100
AcDbEntity
  8
AM_VIS
100
AcDbLine
 10
618.7505392127808
 20
414.9584577346115
 30
0.0
 11
618.7505392127808
 21
396.8783307156893
 31
0.0
  0
LINE
  5
2047
102
{ACAD_REACTORS
330
2D2C
102
}
330
1F
100
AcDbEntity
  8
AM_VIS
100
AcDbLine
 10
618.7505392127808
 20
396.8783307156893
 30
0.0
 11
611.7505392127808
 21
393.8783307156894
 31
0.0
  0
LINE
  5
204A
102
{ACAD_REACTORS
330
2D78
102
}
330
1F
100
AcDbEntity
  8
AM_VIS
100
AcDbLine
 10
583.7505392127808
 20
473.8783307156893
 30
0.0
 11
611.7505392127808
 21
473.8783307156893
 31
0.0
  0
LINE
  5
204B
330
1F
100
AcDbEntity
  8
AM_VIS
100
AcDbLine
 10
611.7505392127808
 20
473.8783307156893
 30
0.0
 11
618.7505392127808
 21
470.8783307156893
 31
0.0
  0
CIRCLE
  5
204C
330
1F
100
AcDbEntity
  8
AM_VIS
100
AcDbCircle
 10
613.7505392127809
 20
407.8783307156893
 30
0.0
 40
3.799999999999999
  0
CIRCLE
  5
204D
330
1F
100
AcDbEntity
  8
AM_VIS
100
AcDbCircle
 10
613.7505392127809
 20
459.8783307156893
 30
0.0
 40
3.799999999999999
  0
CIRCLE
  5
204E
330
1F
100
AcDbEntity
  8
AM_VIS
100
AcDbCircle
 10
581.7505392127809
 20
407.8783307156893
 30
0.0
 40
2.1
  0
CIRCLE
  5
204F
330
1F
100
AcDbEntity
  8
AM_VIS
100
AcDbCircle
 10
613.7505392127809
 20
407.8783307156893
 30
0.0
 40
2.1
  0
CIRCLE
  5
2050
330
1F
100
AcDbEntity
  8
AM_VIS
100
AcDbCircle
 10
581.7505392127809
 20
459.8783307156893
 30
0.0
 40
2.1
  0
CIRCLE
  5
2051
330
1F
100
AcDbEntity
  8
AM_VIS
100
AcDbCircle
 10
613.7505392127809
 20
459.8783307156893
 30
0.0
 40
2.1
  0
CIRCLE
  5
2052
330
1F
100
AcDbEntity
  8
AM_VIS
100
AcDbCircle
 10
581.7505392127809
 20
459.8783307156893
 30
0.0
 40
3.799999999999999
  0
CIRCLE
  5
2053
330
1F
100
AcDbEntity
  8
AM_VIS
100
AcDbCircle
 10
581.7505392127809
 20
407.8783307156893
 30
0.0
 40
3.799999999999999
  0
LINE
  5
2055
330
1F
100
AcDbEntity
  8
AM_VIS
100
AcDbLine
 10
603.7505392127808
 20
403.8783307156893
 30
0.0
 11
591.7505392127808
 21
403.8783307156893
 31
0.0
  0
LINE
  5
2056
330
1F
100
AcDbEntity
  8
AM_VIS
100
AcDbLine
 10
591.7505392127808
 20
409.8783307156893
 30
0.0
 11
603.7505392127808
 21
409.8783307156893
 31
0.0
  0
CIRCLE
  5
2057
330
1F
100
AcDbEntity
  8
AM_VIS
100
AcDbCircle
 10
597.750539212781
 20
398.8783307156893
 30
0.0
 40
2.166999999999999
  0
CIRCLE
  5
2058
330
1F
100
AcDbEntity
  8
AM_VIS
100
AcDbCircle
 10
597.750539212781
 20
414.8783307156893
 30
0.0
 40
2.166999999999999
  0
CIRCLE
  5
2059
330
1F
100
AcDbEntity
  8
AM_VIS
100
AcDbCircle
 10
597.750539212781
 20
406.8783307156893
 30
0.0
 40
2.5
  0
LINE
  5
205A
330
1F
100
AcDbEntity
  8
AM_VIS
100
AcDbLine
 10
584.7505392127808
 20
420.8783307156893
 30
0.0
 11
584.7505392127808
 21
446.8783307156893
 31
0.0
  0
LINE
  5
205B
330
1F
100
AcDbEntity
  8
AM_VIS
100
AcDbLine
 10
610.7505392127808
 20
420.8783307156893
 30
0.0
 11
584.7505392127808
 21
420.8783307156893
 31
0.0
  0
LINE
  5
205C
330
1F
100
AcDbEntity
  8
AM_VIS
100
AcDbLine
 10
610.7505392127808
 20
446.8783307156893
 30
0.0
 11
610.7505392127808
 21
420.8783307156893
 31
0.0
  0
LINE
  5
205D
330
1F
100
AcDbEntity
  8
AM_VIS
100
AcDbLine
 10
584.7505392127808
 20
446.8783307156893
 30
0.0
 11
610.7505392127808
 21
446.8783307156893
 31
0.0
  0
LINE
  5
2063
330
1F
100
AcDbEntity
  8
AM_VIS
100
AcDbLine
 10
591.7505392127808
 20
463.8783307156893
 30
0.0
 11
603.7505392127808
 21
463.8783307156893
 31
0.0
  0
LINE
  5
2064
330
1F
100
AcDbEntity
  8
AM_VIS
100
AcDbLine
 10
603.7505392127808
 20
457.8783307156893
 30
0.0
 11
591.7505392127808
 21
457.8783307156893
 31
0.0
  0
CIRCLE
  5
2065
330
1F
100
AcDbEntity
  8
AM_VIS
100
AcDbCircle
 10
597.750539212781
 20
468.8783307156893
 30
0.0
 40
2.166999999999999
  0
CIRCLE
  5
2066
330
1F
100
AcDbEntity
  8
AM_VIS
100
AcDbCircle
 10
597.750539212781
 20
452.8783307156893
 30
0.0
 40
2.166999999999999
  0
CIRCLE
  5
2067
330
1F
100
AcDbEntity
  8
AM_VIS
100
AcDbCircle
 10
597.750539212781
 20
460.8783307156893
 30
0.0
 40
2.5
  0
LINE
  5
2068
330
1F
100
AcDbEntity
  8
AM_VIS
100
AcDbLine
 10
589.251316934514
 20
424.2233309775297
 30
0.0
 11
590.2509281492537
 21
424.8010552391771
 31
0.0
  0
LINE
  5
2069
330
1F
100
AcDbEntity
  8
AM_VIS
100
AcDbLine
 10
590.2509281492537
 20
424.8010552391771
 30
0.0
 11
590.2509281492537
 21
425.9556061922015
 31
0.0
  0
LINE
  5
206A
330
1F
100
AcDbEntity
  8
AM_VIS
100
AcDbLine
 10
590.2509281492537
 20
425.9556061922015
 30
0.0
 11
589.2497614910475
 21
426.5333304538491
 31
0.0
  0
LINE
  5
206B
330
1F
100
AcDbEntity
  8
AM_VIS
100
AcDbLine
 10
589.2497614910475
 20
426.5333304538491
 30
0.0
 11
588.2501502763078
 21
425.9556061922015
 31
0.0
  0
LINE
  5
206C
330
1F
100
AcDbEntity
  8
AM_VIS
100
AcDbLine
 10
588.2501502763078
 20
425.9556061922015
 30
0.0
 11
588.2501502763078
 21
424.8010552391771
 31
0.0
  0
LINE
  5
206D
330
1F
100
AcDbEntity
  8
AM_VIS
100
AcDbLine
 10
588.2501502763078
 20
424.8010552391771
 30
0.0
 11
589.251316934514
 21
424.2233309775297
 31
0.0
  0
CIRCLE
  5
206E
330
1F
100
AcDbEntity
  8
AM_VIS
100
AcDbCircle
 10
589.2505392127809
 20
425.3783307156893
 30
0.0
 40
2.77000000000001
  0
LINE
  5
206F
330
1F
100
AcDbEntity
  8
AM_VIS
100
AcDbLine
 10
606.251316934514
 20
424.2233309775297
 30
0.0
 11
607.2509281492537
 21
424.8010552391771
 31
0.0
  0
LINE
  5
2070
330
1F
100
AcDbEntity
  8
AM_VIS
100
AcDbLine
 10
607.2509281492537
 20
424.8010552391771
 30
0.0
 11
607.2509281492537
 21
425.9556061922015
 31
0.0
  0
LINE
  5
2071
330
1F
100
AcDbEntity
  8
AM_VIS
100
AcDbLine
 10
607.2509281492537
 20
425.9556061922015
 30
0.0
 11
606.2497614910475
 21
426.5333304538491
 31
0.0
  0
LINE
  5
2072
330
1F
100
AcDbEntity
  8
AM_VIS
100
AcDbLine
 10
606.2497614910475
 20
426.5333304538491
 30
0.0
 11
605.2501502763078
 21
425.9556061922015
 31
0.0
  0
LINE
  5
2073
330
1F
100
AcDbEntity
  8
AM_VIS
100
AcDbLine
 10
605.2501502763078
 20
425.9556061922015
 30
0.0
 11
605.2501502763078
 21
424.8010552391771
 31
0.0
  0
LINE
  5
2074
330
1F
100
AcDbEntity
  8
AM_VIS
100
AcDbLine
 10
605.2501502763078
 20
424.8010552391771
 30
0.0
 11
606.251316934514
 21
424.2233309775297
 31
0.0
  0
CIRCLE
  5
2075
330
1F
100
AcDbEntity
  8
AM_VIS
100
AcDbCircle
 10
606.250539212781
 20
425.3783307156893
 30
0.0
 40
2.77000000000001
  0
LINE
  5
2076
330
1F
100
AcDbEntity
  8
AM_VIS
100
AcDbLine
 10
606.251316934514
 20
441.2233309775295
 30
0.0
 11
607.2509281492537
 21
441.8010552391771
 31
0.0
  0
LINE
  5
2077
330
1F
100
AcDbEntity
  8
AM_VIS
100
AcDbLine
 10
607.2509281492537
 20
441.8010552391771
 30
0.0
 11
607.2509281492537
 21
442.9556061922015
 31
0.0
  0
LINE
  5
2078
330
1F
100
AcDbEntity
  8
AM_VIS
100
AcDbLine
 10
607.2509281492537
 20
442.9556061922015
 30
0.0
 11
606.2497614910475
 21
443.5333304538489
 31
0.0
  0
LINE
  5
2079
330
1F
100
AcDbEntity
  8
AM_VIS
100
AcDbLine
 10
606.2497614910475
 20
443.5333304538489
 30
0.0
 11
605.2501502763078
 21
442.9556061922015
 31
0.0
  0
LINE
  5
207A
330
1F
100
AcDbEntity
  8
AM_VIS
100
AcDbLine
 10
605.2501502763078
 20
442.9556061922015
 30
0.0
 11
605.2501502763078
 21
441.8010552391771
 31
0.0
  0
LINE
  5
207B
330
1F
100
AcDbEntity
  8
AM_VIS
100
AcDbLine
 10
605.2501502763078
 20
441.8010552391771
 30
0.0
 11
606.251316934514
 21
441.2233309775295
 31
0.0
  0
CIRCLE
  5
207C
330
1F
100
AcDbEntity
  8
AM_VIS
100
AcDbCircle
 10
606.250539212781
 20
442.3783307156892
 30
0.0
 40
2.77000000000001
  0
LINE
  5
207D
330
1F
100
AcDbEntity
  8
AM_VIS
100
AcDbLine
 10
589.251316934514
 20
441.2233309775297
 30
0.0
 11
590.2509281492537
 21
441.8010552391771
 31
0.0
  0
LINE
  5
207E
330
1F
100
AcDbEntity
  8
AM_VIS
100
AcDbLine
 10
590.2509281492537
 20
441.8010552391771
 30
0.0
 11
590.2509281492537
 21
442.9556061922015
 31
0.0
  0
LINE
  5
207F
330
1F
100
AcDbEntity
  8
AM_VIS
100
AcDbLine
 10
590.2509281492537
 20
442.9556061922015
 30
0.0
 11
589.2497614910475
 21
443.5333304538491
 31
0.0
  0
LINE
  5
2080
330
1F
100
AcDbEntity
  8
AM_VIS
100
AcDbLine
 10
589.2497614910475
 20
443.5333304538491
 30
0.0
 11
588.2501502763078
 21
442.9556061922015
 31
0.0
  0
LINE
  5
2081
330
1F
100
AcDbEntity
  8
AM_VIS
100
AcDbLine
 10
588.2501502763078
 20
442.9556061922015
 30
0.0
 11
588.2501502763078
 21
441.8010552391771
 31
0.0
  0
LINE
  5
2082
330
1F
100
AcDbEntity
  8
AM_VIS
100
AcDbLine
 10
588.2501502763078
 20
441.8010552391771
 30
0.0
 11
589.251316934514
 21
441.2233309775297
 31
0.0
  0
CIRCLE
  5
2083
330
1F
100
AcDbEntity
  8
AM_VIS
100
AcDbCircle
 10
589.2505392127809
 20
442.3783307156894
 30
0.0
 40
2.77000000000001
  0
LINE
  5
2084
330
1F
100
AcDbEntity
  8
AM_VIS
100
AcDbLine
 10
828.7867253971871
 20
473.8783307156892
 30
0.0
 11
835.7867253971871
 21
470.8783307156892
 31
0.0
  0
LINE
  5
2085
330
1F
100
AcDbEntity
  8
AM_VIS
100
AcDbLine
 10
835.7867253971871
 20
470.8783307156892
 30
0.0
 11
835.7867253971871
 21
452.798203696767
 31
0.0
  0
LINE
  5
2086
330
1F
100
AcDbEntity
  8
AM_VIS
100
AcDbLine
 10
835.7867253971871
 20
452.7982036967671
 30
0.0
 11
833.2867253971871
 21
452.1283307156892
 31
0.0
  0
LINE
  5
2087
330
1F
100
AcDbEntity
  8
AM_VIS
100
AcDbLine
 10
831.786725397187
 20
452.1283307156892
 30
0.0
 11
833.2867253971871
 21
452.1283307156892
 31
0.0
  0
LINE
  5
2088
330
1F
100
AcDbEntity
  8
AM_VIS
100
AcDbLine
 10
831.786725397187
 20
452.8783307156892
 30
0.0
 11
831.786725397187
 21
452.1283307156892
 31
0.0
  0
LINE
  5
2089
330
1F
100
AcDbEntity
  8
AM_VIS
100
AcDbLine
 10
827.286725397187
 20
452.8783307156892
 30
0.0
 11
831.786725397187
 21
452.8783307156892
 31
0.0
  0
LINE
  5
208A
330
1F
100
AcDbEntity
  8
AM_VIS
100
AcDbLine
 10
827.286725397187
 20
448.3783307156892
 30
0.0
 11
827.286725397187
 21
452.8783307156892
 31
0.0
  0
LINE
  5
208B
330
1F
100
AcDbEntity
  8
AM_VIS
100
AcDbLine
 10
831.786725397187
 20
448.3783307156892
 30
0.0
 11
827.286725397187
 21
448.3783307156892
 31
0.0
  0
LINE
  5
208C
330
1F
100
AcDbEntity
  8
AM_VIS
100
AcDbLine
 10
831.786725397187
 20
449.1283307156892
 30
0.0
 11
831.786725397187
 21
448.3783307156892
 31
0.0
  0
LINE
  5
208D
330
1F
100
AcDbEntity
  8
AM_VIS
100
AcDbLine
 10
833.2867253971871
 20
449.1283307156892
 30
0.0
 11
831.786725397187
 21
449.1283307156892
 31
0.0
  0
LINE
  5
208E
330
1F
100
AcDbEntity
  8
AM_VIS
100
AcDbLine
 10
833.2867253971871
 20
449.1283307156892
 30
0.0
 11
835.7867253971871
 21
448.4584577346114
 31
0.0
  0
LINE
  5
208F
330
1F
100
AcDbEntity
  8
AM_VIS
100
AcDbLine
 10
835.7867253971871
 20
448.4584577346114
 30
0.0
 11
835.7867253971871
 21
419.298203696767
 31
0.0
  0
LINE
  5
2090
330
1F
100
AcDbEntity
  8
AM_VIS
100
AcDbLine
 10
835.7867253971871
 20
419.2982036967671
 30
0.0
 11
833.2867253971871
 21
418.6283307156892
 31
0.0
  0
LINE
  5
2091
330
1F
100
AcDbEntity
  8
AM_VIS
100
AcDbLine
 10
831.786725397187
 20
418.6283307156892
 30
0.0
 11
833.2867253971871
 21
418.6283307156892
 31
0.0
  0
LINE
  5
2092
330
1F
100
AcDbEntity
  8
AM_VIS
100
AcDbLine
 10
831.786725397187
 20
419.3783307156892
 30
0.0
 11
831.786725397187
 21
418.6283307156892
 31
0.0
  0
LINE
  5
2093
330
1F
100
AcDbEntity
  8
AM_VIS
100
AcDbLine
 10
827.286725397187
 20
419.3783307156892
 30
0.0
 11
831.786725397187
 21
419.3783307156892
 31
0.0
  0
LINE
  5
2094
330
1F
100
AcDbEntity
  8
AM_VIS
100
AcDbLine
 10
827.286725397187
 20
414.8783307156892
 30
0.0
 11
827.286725397187
 21
419.3783307156892
 31
0.0
  0
LINE
  5
2095
330
1F
100
AcDbEntity
  8
AM_VIS
100
AcDbLine
 10
831.786725397187
 20
414.8783307156892
 30
0.0
 11
827.286725397187
 21
414.8783307156892
 31
0.0
  0
LINE
  5
2096
330
1F
100
AcDbEntity
  8
AM_VIS
100
AcDbLine
 10
831.786725397187
 20
415.6283307156892
 30
0.0
 11
831.786725397187
 21
414.8783307156892
 31
0.0
  0
LINE
  5
2097
330
1F
100
AcDbEntity
  8
AM_VIS
100
AcDbLine
 10
833.2867253971871
 20
415.6283307156892
 30
0.0
 11
831.786725397187
 21
415.6283307156892
 31
0.0
  0
LINE
  5
2098
330
1F
100
AcDbEntity
  8
AM_VIS
100
AcDbLine
 10
833.2867253971871
 20
415.6283307156892
 30
0.0
 11
835.7867253971871
 21
414.9584577346114
 31
0.0
  0
LINE
  5
2099
330
1F
100
AcDbEntity
  8
AM_VIS
100
AcDbLine
 10
835.7867253971871
 20
414.9584577346114
 30
0.0
 11
835.7867253971871
 21
396.8783307156893
 31
0.0
  0
LINE
  5
209A
330
1F
100
AcDbEntity
  8
AM_VIS
100
AcDbLine
 10
835.7867253971871
 20
396.8783307156893
 30
0.0
 11
828.7867253971871
 21
393.8783307156893
 31
0.0
  0
LINE
  5
209B
330
1F
100
AcDbEntity
  8
AM_VIS
100
AcDbLine
 10
828.7867253971871
 20
393.8783307156893
 30
0.0
 11
800.786725397187
 21
393.8783307156894
 31
0.0
  0
LINE
  5
209C
330
1F
100
AcDbEntity
  8
AM_VIS
100
AcDbLine
 10
800.786725397187
 20
393.8783307156894
 30
0.0
 11
793.786725397187
 21
396.8783307156893
 31
0.0
  0
LINE
  5
209D
330
1F
100
AcDbEntity
  8
AM_VIS
100
AcDbLine
 10
793.786725397187
 20
396.8783307156893
 30
0.0
 11
793.786725397187
 21
414.9584577346115
 31
0.0
  0
LINE
  5
209E
330
1F
100
AcDbEntity
  8
AM_VIS
100
AcDbLine
 10
793.786725397187
 20
414.9584577346115
 30
0.0
 11
796.2867253971871
 21
415.6283307156893
 31
0.0
  0
LINE
  5
209F
330
1F
100
AcDbEntity
  8
AM_VIS
100
AcDbLine
 10
797.786725397187
 20
415.6283307156893
 30
0.0
 11
796.2867253971871
 21
415.6283307156893
 31
0.0
  0
LINE
  5
20A0
330
1F
100
AcDbEntity
  8
AM_VIS
100
AcDbLine
 10
797.786725397187
 20
414.8783307156893
 30
0.0
 11
797.786725397187
 21
415.6283307156893
 31
0.0
  0
LINE
  5
20A1
330
1F
100
AcDbEntity
  8
AM_VIS
100
AcDbLine
 10
802.286725397187
 20
414.8783307156893
 30
0.0
 11
797.786725397187
 21
414.8783307156893
 31
0.0
  0
LINE
  5
20A2
330
1F
100
AcDbEntity
  8
AM_VIS
100
AcDbLine
 10
802.286725397187
 20
419.3783307156893
 30
0.0
 11
802.286725397187
 21
414.8783307156893
 31
0.0
  0
LINE
  5
20A3
330
1F
100
AcDbEntity
  8
AM_VIS
100
AcDbLine
 10
797.786725397187
 20
419.3783307156893
 30
0.0
 11
802.286725397187
 21
419.3783307156893
 31
0.0
  0
LINE
  5
20A4
330
1F
100
AcDbEntity
  8
AM_VIS
100
AcDbLine
 10
797.786725397187
 20
418.6283307156893
 30
0.0
 11
797.786725397187
 21
419.3783307156893
 31
0.0
  0
LINE
  5
20A5
330
1F
100
AcDbEntity
  8
AM_VIS
100
AcDbLine
 10
796.2867253971871
 20
418.6283307156893
 30
0.0
 11
797.786725397187
 21
418.6283307156893
 31
0.0
  0
LINE
  5
20A6
330
1F
100
AcDbEntity
  8
AM_VIS
100
AcDbLine
 10
796.2867253971871
 20
418.6283307156893
 30
0.0
 11
793.786725397187
 21
419.2982036967671
 31
0.0
  0
LINE
  5
20A7
330
1F
100
AcDbEntity
  8
AM_VIS
100
AcDbLine
 10
793.786725397187
 20
419.2982036967671
 30
0.0
 11
793.786725397187
 21
448.4584577346115
 31
0.0
  0
LINE
  5
20A8
330
1F
100
AcDbEntity
  8
AM_VIS
100
AcDbLine
 10
793.786725397187
 20
448.4584577346115
 30
0.0
 11
796.2867253971871
 21
449.1283307156893
 31
0.0
  0
LINE
  5
20A9
330
1F
100
AcDbEntity
  8
AM_VIS
100
AcDbLine
 10
797.786725397187
 20
449.1283307156893
 30
0.0
 11
796.2867253971871
 21
449.1283307156893
 31
0.0
  0
LINE
  5
20AA
330
1F
100
AcDbEntity
  8
AM_VIS
100
AcDbLine
 10
797.786725397187
 20
448.3783307156893
 30
0.0
 11
797.786725397187
 21
449.1283307156893
 31
0.0
  0
LINE
  5
20AB
330
1F
100
AcDbEntity
  8
AM_VIS
100
AcDbLine
 10
802.286725397187
 20
448.3783307156893
 30
0.0
 11
797.786725397187
 21
448.3783307156893
 31
0.0
  0
LINE
  5
20AC
330
1F
100
AcDbEntity
  8
AM_VIS
100
AcDbLine
 10
802.286725397187
 20
452.8783307156893
 30
0.0
 11
802.286725397187
 21
448.3783307156893
 31
0.0
  0
LINE
  5
20AD
330
1F
100
AcDbEntity
  8
AM_VIS
100
AcDbLine
 10
797.786725397187
 20
452.8783307156893
 30
0.0
 11
802.286725397187
 21
452.8783307156893
 31
0.0
  0
LINE
  5
20AE
330
1F
100
AcDbEntity
  8
AM_VIS
100
AcDbLine
 10
797.786725397187
 20
452.1283307156893
 30
0.0
 11
797.786725397187
 21
452.8783307156893
 31
0.0
  0
LINE
  5
20AF
330
1F
100
AcDbEntity
  8
AM_VIS
100
AcDbLine
 10
796.2867253971871
 20
452.1283307156893
 30
0.0
 11
797.786725397187
 21
452.1283307156893
 31
0.0
  0
LINE
  5
20B0
330
1F
100
AcDbEntity
  8
AM_VIS
100
AcDbLine
 10
796.2867253971871
 20
452.1283307156893
 30
0.0
 11
793.786725397187
 21
452.7982036967671
 31
0.0
  0
LINE
  5
20B1
330
1F
100
AcDbEntity
  8
AM_VIS
100
AcDbLine
 10
793.786725397187
 20
452.7982036967671
 30
0.0
 11
793.786725397187
 21
470.8783307156893
 31
0.0
  0
LINE
  5
20B2
330
1F
100
AcDbEntity
  8
AM_VIS
100
AcDbLine
 10
800.786725397187
 20
473.8783307156893
 30
0.0
 11
828.7867253971871
 21
473.8783307156892
 31
0.0
  0
LINE
  5
20B3
330
1F
100
AcDbEntity
  8
AM_VIS
100
AcDbLine
 10
793.786725397187
 20
470.8783307156893
 30
0.0
 11
800.786725397187
 21
473.8783307156893
 31
0.0
  0
CIRCLE
  5
20B4
330
1F
100
AcDbEntity
  8
AM_VIS
100
AcDbCircle
 10
830.7867253971872
 20
459.8783307156893
 30
0.0
 40
2.1
  0
CIRCLE
  5
20B5
330
1F
100
AcDbEntity
  8
AM_VIS
100
AcDbCircle
 10
830.7867253971872
 20
407.8783307156893
 30
0.0
 40
2.1
  0
CIRCLE
  5
20B6
330
1F
100
AcDbEntity
  8
AM_VIS
100
AcDbCircle
 10
798.7867253971871
 20
459.8783307156893
 30
0.0
 40
2.1
  0
CIRCLE
  5
20B7
330
1F
100
AcDbEntity
  8
AM_VIS
100
AcDbCircle
 10
798.7867253971871
 20
407.8783307156893
 30
0.0
 40
2.1
  0
CIRCLE
  5
20B8
330
1F
100
AcDbEntity
  8
AM_VIS
100
AcDbCircle
 10
814.7867253971872
 20
407.8783307156893
 30
0.0
 40
2.0
  0
CIRCLE
  5
20B9
330
1F
100
AcDbEntity
  8
AM_VIS
100
AcDbCircle
 10
814.7867253971872
 20
459.8783307156893
 30
0.0
 40
2.0
  0
CIRCLE
  5
20BA
330
1F
100
AcDbEntity
  8
AM_VIS
100
AcDbCircle
 10
814.7867253971872
 20
433.8783307156893
 30
0.0
 40
17.0
  0
LINE
  5
20C1
330
1F
100
AcDbEntity
  8
AM_VIS
100
AcDbLine
 10
675.6216858763431
 20
415.6283307156893
 30
0.0
 11
675.6216858763431
 21
418.6283307156893
 31
0.0
  0
LINE
  5
20C3
330
1F
100
AcDbEntity
  8
AM_VIS
100
AcDbLine
 10
726.6216858763431
 20
415.6283307156893
 30
0.0
 11
675.6216858763431
 21
415.6283307156893
 31
0.0
  0
LINE
  5
20C4
330
1F
100
AcDbEntity
  8
AM_VIS
100
AcDbLine
 10
675.6216858763431
 20
415.6283307156893
 30
0.0
 11
675.6216858763431
 21
414.9584577346115
 31
0.0
  0
LINE
  5
20C5
330
1F
100
AcDbEntity
  8
AM_VIS
100
AcDbLine
 10
675.6216858763431
 20
418.6283307156893
 30
0.0
 11
726.6216858763431
 21
418.6283307156893
 31
0.0
  0
LINE
  5
20C6
330
1F
100
AcDbEntity
  8
AM_VIS
100
AcDbLine
 10
675.6216858763431
 20
419.2982036967671
 30
0.0
 11
675.6216858763431
 21
418.6283307156893
 31
0.0
  0
LINE
  5
20C7
330
1F
100
AcDbEntity
  8
AM_VIS
100
AcDbLine
 10
726.6216858763431
 20
419.2982036967671
 30
0.0
 11
675.6216858763431
 21
419.2982036967671
 31
0.0
  0
LINE
  5
20C8
330
1F
100
AcDbEntity
  8
AM_VIS
100
AcDbLine
 10
675.6216858763431
 20
448.4584577346115
 30
0.0
 11
675.6216858763431
 21
419.2982036967672
 31
0.0
  0
LINE
  5
20CC
330
1F
100
AcDbEntity
  8
AM_VIS
100
AcDbLine
 10
675.6216858763431
 20
470.8783307156893
 30
0.0
 11
675.6216858763431
 21
448.4584577346115
 31
0.0
  0
LINE
  5
20D0
330
1F
100
AcDbEntity
  8
AM_VIS
100
AcDbLine
 10
675.6216858763431
 20
414.9584577346115
 30
0.0
 11
675.6216858763431
 21
396.8783307156893
 31
0.0
  0
LINE
  5
20D1
330
1F
100
AcDbEntity
  8
AM_VIS
100
AcDbLine
 10
675.6216858763431
 20
414.9584577346115
 30
0.0
 11
726.6216858763431
 21
414.9584577346115
 31
0.0
  0
LINE
  5
20D2
330
1F
100
AcDbEntity
  8
AM_VIS
100
AcDbLine
 10
726.6216858763431
 20
396.8783307156893
 30
0.0
 11
675.6216858763431
 21
396.8783307156893
 31
0.0
  0
LINE
  5
20D3
330
1F
100
AcDbEntity
  8
AM_VIS
100
AcDbLine
 10
675.6216858763431
 20
393.8783307156894
 30
0.0
 11
726.6216858763431
 21
393.8783307156894
 31
0.0
  0
LINE
  5
20D4
330
1F
100
AcDbEntity
  8
AM_VIS
100
AcDbLine
 10
675.6216858763431
 20
396.8783307156893
 30
0.0
 11
675.6216858763431
 21
393.8783307156894
 31
0.0
  0
LINE
  5
20D5
330
1F
100
AcDbEntity
  8
AM_VIS
100
AcDbLine
 10
726.6216858763431
 20
393.8783307156894
 30
0.0
 11
726.6216858763431
 21
396.8783307156893
 31
0.0
  0
LINE
  5
20D6
330
1F
100
AcDbEntity
  8
AM_VIS
100
AcDbLine
 10
726.6216858763431
 20
396.8783307156893
 30
0.0
 11
726.6216858763431
 21
414.9584577346115
 31
0.0
  0
LINE
  5
20D7
330
1F
100
AcDbEntity
  8
AM_VIS
100
AcDbLine
 10
726.6216858763431
 20
414.9584577346115
 30
0.0
 11
726.6216858763431
 21
415.6283307156893
 31
0.0
  0
LINE
  5
20D8
330
1F
100
AcDbEntity
  8
AM_VIS
100
AcDbLine
 10
726.6216858763431
 20
418.6283307156893
 30
0.0
 11
726.6216858763431
 21
415.6283307156893
 31
0.0
  0
LINE
  5
20D9
330
1F
100
AcDbEntity
  8
AM_VIS
100
AcDbLine
 10
726.6216858763431
 20
418.6283307156893
 30
0.0
 11
726.6216858763431
 21
419.2982036967671
 31
0.0
  0
LINE
  5
20DA
330
1F
100
AcDbEntity
  8
AM_VIS
100
AcDbLine
 10
726.6216858763431
 20
419.2982036967671
 30
0.0
 11
726.6216858763431
 21
448.4584577346115
 31
0.0
  0
LINE
  5
20DB
330
1F
100
AcDbEntity
  8
AM_VIS
100
AcDbLine
 10
726.6216858763431
 20
448.4584577346115
 30
0.0
 11
726.6216858763431
 21
449.1283307156893
 31
0.0
  0
LINE
  5
20DC
330
1F
100
AcDbEntity
  8
AM_VIS
100
AcDbLine
 10
726.6216858763431
 20
452.1283307156893
 30
0.0
 11
726.6216858763431
 21
449.1283307156893
 31
0.0
  0
LINE
  5
20DD
330
1F
100
AcDbEntity
  8
AM_VIS
100
AcDbLine
 10
726.6216858763431
 20
452.1283307156893
 30
0.0
 11
726.6216858763431
 21
452.7982036967671
 31
0.0
  0
LINE
  5
20DE
330
1F
100
AcDbEntity
  8
AM_VIS
100
AcDbLine
 10
726.6216858763431
 20
452.7982036967671
 30
0.0
 11
726.6216858763431
 21
470.8783307156893
 31
0.0
  0
LINE
  5
20DF
330
1F
100
AcDbEntity
  8
AM_VIS
100
AcDbLine
 10
726.6216858763431
 20
473.8783307156893
 30
0.0
 11
675.6216858763431
 21
473.8783307156893
 31
0.0
  0
LINE
  5
20E0
330
1F
100
AcDbEntity
  8
AM_VIS
100
AcDbLine
 10
726.6216858763431
 20
470.8783307156893
 30
0.0
 11
726.6216858763431
 21
473.8783307156893
 31
0.0
  0
LINE
  5
20E2
330
1F
100
AcDbEntity
  8
AM_VIS
100
AcDbLine
 10
675.6216858763431
 20
473.8783307156893
 30
0.0
 11
675.6216858763431
 21
470.8783307156893
 31
0.0
  0
CIRCLE
  5
20E3
330
1F
100
AcDbEntity
  8
AM_VIS
100
AcDbCircle
 10
703.6216858763432
 20
407.8783307156893
 30
0.0
 40
2.549999999999999
  0
CIRCLE
  5
20E4
330
1F
100
AcDbEntity
  8
AM_VIS
100
AcDbCircle
 10
703.6216858763432
 20
459.8783307156893
 30
0.0
 40
4.5
  0
CIRCLE
  5
20E5
330
1F
100
AcDbEntity
  8
AM_VIS
100
AcDbCircle
 10
703.6216858763432
 20
459.8783307156893
 30
0.0
 40
2.549999999999999
  0
CIRCLE
  5
20E6
330
1F
100
AcDbEntity
  8
AM_VIS
100
AcDbCircle
 10
718.6216858763432
 20
444.3783307156893
 30
0.0
 40
2.166999999999999
  0
CIRCLE
  5
20E7
330
1F
100
AcDbEntity
  8
AM_VIS
100
AcDbCircle
 10
699.1216858763432
 20
423.3783307156893
 30
0.0
 40
2.166999999999999
  0
CIRCLE
  5
20E8
330
1F
100
AcDbEntity
  8
AM_VIS
100
AcDbCircle
 10
703.6216858763432
 20
407.8783307156893
 30
0.0
 40
4.5
  0
LINE
  5
20E9
330
1F
100
AcDbEntity
  8
AM_VIS
100
AcDbLine
 10
675.6216858763431
 20
420.8783307156893
 30
0.0
 11
674.1216858763431
 21
420.8783307156893
 31
0.0
  0
LINE
  5
20EA
330
1F
100
AcDbEntity
  8
AM_VIS
100
AcDbLine
 10
674.1216858763431
 20
446.8783307156893
 30
0.0
 11
674.1216858763431
 21
420.8783307156893
 31
0.0
  0
LINE
  5
20EB
330
1F
100
AcDbEntity
  8
AM_VIS
100
AcDbLine
 10
675.6216858763431
 20
446.8783307156893
 30
0.0
 11
674.1216858763431
 21
446.8783307156893
 31
0.0
  0
LINE
  5
20EE
330
1F
100
AcDbEntity
  8
AM_VIS
100
AcDbLine
 10
603.7505392127808
 20
473.8783307156893
 30
0.0
 11
603.7505392127808
 21
446.8783307156893
 31
0.0
  0
LINE
  5
20EF
330
1F
100
AcDbEntity
  8
AM_VIS
100
AcDbLine
 10
603.7505392127808
 20
420.8783307156893
 30
0.0
 11
603.7505392127808
 21
393.8783307156894
 31
0.0
  0
LINE
  5
20F0
330
1F
100
AcDbEntity
  8
AM_VIS
100
AcDbLine
 10
614.7505392127808
 20
418.6283307156893
 30
0.0
 11
616.2505392127808
 21
418.6283307156893
 31
0.0
  0
LINE
  5
20F1
330
1F
100
AcDbEntity
  8
AM_VIS
100
AcDbLine
 10
610.2505392127808
 20
414.8783307156893
 30
0.0
 11
610.2505392127808
 21
419.3783307156893
 31
0.0
  0
LINE
  5
20F2
330
1F
100
AcDbEntity
  8
AM_VIS
100
AcDbLine
 10
610.2505392127808
 20
419.3783307156893
 30
0.0
 11
614.7505392127808
 21
419.3783307156893
 31
0.0
  0
LINE
  5
20F3
330
1F
100
AcDbEntity
  8
AM_VIS
100
AcDbLine
 10
614.7505392127808
 20
419.3783307156893
 30
0.0
 11
614.7505392127808
 21
418.6283307156893
 31
0.0
  0
LINE
  5
20F4
330
1F
100
AcDbEntity
  8
AM_VIS
100
AcDbLine
 10
614.7505392127808
 20
415.6283307156893
 30
0.0
 11
614.7505392127808
 21
414.8783307156893
 31
0.0
  0
LINE
  5
20F5
330
1F
100
AcDbEntity
  8
AM_VIS
100
AcDbLine
 10
614.7505392127808
 20
414.8783307156893
 30
0.0
 11
610.2505392127808
 21
414.8783307156893
 31
0.0
  0
LINE
  5
20F6
330
1F
100
AcDbEntity
  8
AM_VIS
100
AcDbLine
 10
614.7505392127808
 20
452.1283307156893
 30
0.0
 11
616.2505392127808
 21
452.1283307156893
 31
0.0
  0
LINE
  5
20F7
330
1F
100
AcDbEntity
  8
AM_VIS
100
AcDbLine
 10
610.2505392127808
 20
452.8783307156893
 30
0.0
 11
614.7505392127808
 21
452.8783307156893
 31
0.0
  0
LINE
  5
20F8
330
1F
100
AcDbEntity
  8
AM_VIS
100
AcDbLine
 10
614.7505392127808
 20
452.8783307156893
 30
0.0
 11
614.7505392127808
 21
452.1283307156893
 31
0.0
  0
LINE
  5
20F9
330
1F
100
AcDbEntity
  8
AM_VIS
100
AcDbLine
 10
616.2505392127808
 20
449.1283307156893
 30
0.0
 11
614.7505392127808
 21
449.1283307156893
 31
0.0
  0
LINE
  5
20FA
330
1F
100
AcDbEntity
  8
AM_VIS
100
AcDbLine
 10
614.7505392127808
 20
449.1283307156893
 30
0.0
 11
614.7505392127808
 21
448.3783307156893
 31
0.0
  0
LINE
  5
20FB
330
1F
100
AcDbEntity
  8
AM_VIS
100
AcDbLine
 10
614.7505392127808
 20
448.3783307156893
 30
0.0
 11
610.2505392127808
 21
448.3783307156893
 31
0.0
  0
LINE
  5
20FC
330
1F
100
AcDbEntity
  8
AM_VIS
100
AcDbLine
 10
610.2505392127808
 20
448.3783307156893
 30
0.0
 11
610.2505392127808
 21
452.8783307156893
 31
0.0
  0
LINE
  5
20FD
330
1F
100
AcDbEntity
  8
AM_VIS
100
AcDbLine
 10
616.2505392127808
 20
415.6283307156893
 30
0.0
 11
614.7505392127808
 21
415.6283307156893
 31
0.0
  0
LINE
  5
20FE
330
1F
100
AcDbEntity
  8
AM_VIS
100
AcDbLine
 10
616.2505392127808
 20
415.6283307156893
 30
0.0
 11
618.7505392127808
 21
414.9584577346115
 31
0.0
  0
LINE
  5
20FF
330
1F
100
AcDbEntity
  8
AM_VIS
100
AcDbLine
 10
618.7505392127808
 20
419.2982036967671
 30
0.0
 11
616.2505392127808
 21
418.6283307156893
 31
0.0
  0
LINE
  5
2100
330
1F
100
AcDbEntity
  8
AM_VIS
100
AcDbLine
 10
618.7505392127808
 20
448.4584577346115
 30
0.0
 11
618.7505392127808
 21
419.2982036967672
 31
0.0
  0
LINE
  5
2101
330
1F
100
AcDbEntity
  8
AM_VIS
100
AcDbLine
 10
616.2505392127808
 20
449.1283307156893
 30
0.0
 11
618.7505392127808
 21
448.4584577346115
 31
0.0
  0
LINE
  5
2102
330
1F
100
AcDbEntity
  8
AM_VIS
100
AcDbLine
 10
618.7505392127808
 20
470.8783307156893
 30
0.0
 11
618.7505392127808
 21
452.7982036967671
 31
0.0
  0
LINE
  5
2103
330
1F
100
AcDbEntity
  8
AM_VIS
100
AcDbLine
 10
618.7505392127808
 20
452.7982036967671
 30
0.0
 11
616.2505392127808
 21
452.1283307156893
 31
0.0
  0
LINE
  5
2104
330
1F
100
AcDbEntity
  8
AM_VIS
100
AcDbLine
 10
591.7505392127808
 20
393.8783307156894
 30
0.0
 11
591.7505392127808
 21
420.8783307156893
 31
0.0
  0
LINE
  5
2105
330
1F
100
AcDbEntity
  8
AM_VIS
100
AcDbLine
 10
591.7505392127808
 20
446.8783307156893
 30
0.0
 11
591.7505392127808
 21
473.8783307156893
 31
0.0
  0
LINE
  5
2106
102
{ACAD_REACTORS
330
2D78
102
}
330
1F
100
AcDbEntity
  8
AM_VIS
100
AcDbLine
 10
611.7505392127808
 20
393.8783307156894
 30
0.0
 11
583.7505392127808
 21
393.8783307156894
 31
0.0
  0
LINE
  5
2107
330
1F
100
AcDbEntity
  8
AM_VIS
100
AcDbLine
 10
576.7505392127808
 20
414.9584577346115
 30
0.0
 11
579.2505392127808
 21
415.6283307156893
 31
0.0
  0
LINE
  5
2108
330
1F
100
AcDbEntity
  8
AM_VIS
100
AcDbLine
 10
580.7505392127808
 20
415.6283307156893
 30
0.0
 11
579.2505392127808
 21
415.6283307156893
 31
0.0
  0
LINE
  5
2109
330
1F
100
AcDbEntity
  8
AM_VIS
100
AcDbLine
 10
580.7505392127808
 20
414.8783307156893
 30
0.0
 11
580.7505392127808
 21
415.6283307156893
 31
0.0
  0
LINE
  5
210A
330
1F
100
AcDbEntity
  8
AM_VIS
100
AcDbLine
 10
585.2505392127808
 20
414.8783307156893
 30
0.0
 11
580.7505392127808
 21
414.8783307156893
 31
0.0
  0
LINE
  5
210B
330
1F
100
AcDbEntity
  8
AM_VIS
100
AcDbLine
 10
585.2505392127808
 20
419.3783307156893
 30
0.0
 11
585.2505392127808
 21
414.8783307156893
 31
0.0
  0
LINE
  5
210C
330
1F
100
AcDbEntity
  8
AM_VIS
100
AcDbLine
 10
580.7505392127808
 20
419.3783307156893
 30
0.0
 11
585.2505392127808
 21
419.3783307156893
 31
0.0
  0
LINE
  5
210D
330
1F
100
AcDbEntity
  8
AM_VIS
100
AcDbLine
 10
580.7505392127808
 20
418.6283307156893
 30
0.0
 11
580.7505392127808
 21
419.3783307156893
 31
0.0
  0
LINE
  5
210E
330
1F
100
AcDbEntity
  8
AM_VIS
100
AcDbLine
 10
579.2505392127808
 20
418.6283307156893
 30
0.0
 11
580.7505392127808
 21
418.6283307156893
 31
0.0
  0
LINE
  5
210F
330
1F
100
AcDbEntity
  8
AM_VIS
100
AcDbLine
 10
579.2505392127808
 20
418.6283307156893
 30
0.0
 11
576.7505392127808
 21
419.2982036967672
 31
0.0
  0
LINE
  5
2110
330
1F
100
AcDbEntity
  8
AM_VIS
100
AcDbLine
 10
576.7505392127808
 20
419.2982036967672
 30
0.0
 11
576.7505392127808
 21
448.4584577346115
 31
0.0
  0
LINE
  5
2111
330
1F
100
AcDbEntity
  8
AM_VIS
100
AcDbLine
 10
576.7505392127808
 20
448.4584577346115
 30
0.0
 11
579.2505392127808
 21
449.1283307156893
 31
0.0
  0
LINE
  5
2112
330
1F
100
AcDbEntity
  8
AM_VIS
100
AcDbLine
 10
580.7505392127808
 20
449.1283307156893
 30
0.0
 11
579.2505392127808
 21
449.1283307156893
 31
0.0
  0
LINE
  5
2120
330
1F
100
AcDbEntity
  8
AM_7
  6
AM_ISO08W050x2
100
AcDbLine
 10
597.750539212781
 20
468.8783307156893
 30
0.0
 11
601.8705392127808
 21
468.8783307156893
 31
0.0
1001
GENIUS_GENOREF_13
1005
2124
  0
LINE
  5
2121
330
1F
100
AcDbEntity
  8
AM_7
  6
AM_ISO08W050x2
100
AcDbLine
 10
597.750539212781
 20
468.8783307156893
 30
0.0
 11
597.750539212781
 21
472.9983307156893
 31
0.0
1001
GENIUS_GENOREF_13
1005
2124
  0
LINE
  5
2122
330
1F
100
AcDbEntity
  8
AM_7
  6
AM_ISO08W050x2
100
AcDbLine
 10
597.750539212781
 20
468.8783307156893
 30
0.0
 11
593.6305392127808
 21
468.8783307156893
 31
0.0
1001
GENIUS_GENOREF_13
1005
2124
  0
LINE
  5
2123
330
1F
100
AcDbEntity
  8
AM_7
  6
AM_ISO08W050x2
100
AcDbLine
 10
597.750539212781
 20
468.8783307156893
 30
0.0
 11
597.750539212781
 21
464.7583307156893
 31
0.0
1001
GENIUS_GENOREF_13
1005
2124
  0
POINT
  5
2124
330
1F
100
AcDbEntity
  8
0
 60
     1
100
AcDbPoint
 10
0.0
 20
0.0
 30
0.0
1001
GENIUS_GENOBJ-N-CRS_13
1002
{
1000
OWNER
1000
GEN
1002
}
1001
GENIUS_GENOLIS_13
1002
{
1000
ENT
1005
2123
1005
2122
1005
2121
1005
2120
1002
}
1001
GENIUS_GENOENT_13
1002
{
1000
MYREF
1005
2124
1002
}
1002
{
1000
GRP
1005
0
1002
}
1001
GENIUS_GENODEF_13
1002
{
1000
HIER
1070
    10
1002
}
1002
{
1000
MANEDIT
1070
     0
1002
}
1002
{
1000
NOSEL
1070
     0
1002
}
1002
{
1000
BEHIND
1070
     0
1002
}
1002
{
1000
OTHER
1070
     0
1002
}
1002
{
1000
REACTOR
1002
}
  0
LINE
  5
2133
330
1F
100
AcDbEntity
  8
AM_7
  6
AM_ISO08W050x2
100
AcDbLine
 10
597.750539212781
 20
452.8783307156893
 30
0.0
 11
601.8705392127808
 21
452.8783307156893
 31
0.0
1001
GENIUS_GENOREF_13
1005
2137
  0
LINE
  5
2134
330
1F
100
AcDbEntity
  8
AM_7
  6
AM_ISO08W050x2
100
AcDbLine
 10
597.750539212781
 20
452.8783307156893
 30
0.0
 11
597.750539212781
 21
456.9983307156893
 31
0.0
1001
GENIUS_GENOREF_13
1005
2137
  0
LINE
  5
2135
330
1F
100
AcDbEntity
  8
AM_7
  6
AM_ISO08W050x2
100
AcDbLine
 10
597.750539212781
 20
452.8783307156893
 30
0.0
 11
593.6305392127808
 21
452.8783307156893
 31
0.0
1001
GENIUS_GENOREF_13
1005
2137
  0
LINE
  5
2136
330
1F
100
AcDbEntity
  8
AM_7
  6
AM_ISO08W050x2
100
AcDbLine
 10
597.750539212781
 20
452.8783307156893
 30
0.0
 11
597.750539212781
 21
448.7583307156893
 31
0.0
1001
GENIUS_GENOREF_13
1005
2137
  0
POINT
  5
2137
330
1F
100
AcDbEntity
  8
0
 60
     1
100
AcDbPoint
 10
0.0
 20
0.0
 30
0.0
1001
GENIUS_GENOBJ-N-CRS_13
1002
{
1000
OWNER
1000
GEN
1002
}
1001
GENIUS_GENOLIS_13
1002
{
1000
ENT
1005
2136
1005
2135
1005
2134
1005
2133
1002
}
1001
GENIUS_GENOENT_13
1002
{
1000
MYREF
1005
2137
1002
}
1002
{
1000
GRP
1005
0
1002
}
1001
GENIUS_GENODEF_13
1002
{
1000
HIER
1070
    10
1002
}
1002
{
1000
MANEDIT
1070
     0
1002
}
1002
{
1000
NOSEL
1070
     0
1002
}
1002
{
1000
BEHIND
1070
     0
1002
}
1002
{
1000
OTHER
1070
     0
1002
}
1002
{
1000
REACTOR
1002
}
  0
LINE
  5
2145
330
1F
100
AcDbEntity
  8
AM_7
  6
AM_ISO08W050x2
100
AcDbLine
 10
597.750539212781
 20
414.8783307156893
 30
0.0
 11
601.8705392127808
 21
414.8783307156893
 31
0.0
1001
GENIUS_GENOREF_13
1005
2149
  0
LINE
  5
2146
330
1F
100
AcDbEntity
  8
AM_7
  6
AM_ISO08W050x2
100
AcDbLine
 10
597.750539212781
 20
414.8783307156893
 30
0.0
 11
597.750539212781
 21
418.9983307156893
 31
0.0
1001
GENIUS_GENOREF_13
1005
2149
  0
LINE
  5
2147
330
1F
100
AcDbEntity
  8
AM_7
  6
AM_ISO08W050x2
100
AcDbLine
 10
597.750539212781
 20
414.8783307156893
 30
0.0
 11
593.6305392127808
 21
414.8783307156893
 31
0.0
1001
GENIUS_GENOREF_13
1005
2149
  0
LINE
  5
2148
330
1F
100
AcDbEntity
  8
AM_7
  6
AM_ISO08W050x2
100
AcDbLine
 10
597.750539212781
 20
414.8783307156893
 30
0.0
 11
597.750539212781
 21
410.7583307156893
 31
0.0
1001
GENIUS_GENOREF_13
1005
2149
  0
POINT
  5
2149
330
1F
100
AcDbEntity
  8
0
 60
     1
100
AcDbPoint
 10
0.0
 20
0.0
 30
0.0
1001
GENIUS_GENODEF_13
1002
{
1000
HIER
1070
    10
1002
}
1002
{
1000
MANEDIT
1070
     0
1002
}
1002
{
1000
NOSEL
1070
     0
1002
}
1002
{
1000
BEHIND
1070
     0
1002
}
1002
{
1000
OTHER
1070
     0
1002
}
1002
{
1000
REACTOR
1002
}
1001
GENIUS_GENOLIS_13
1002
{
1000
ENT
1005
2148
1005
2147
1005
2146
1005
2145
1002
}
1001
GENIUS_GENOENT_13
1002
{
1000
MYREF
1005
2149
1002
}
1002
{
1000
GRP
1005
0
1002
}
1001
GENIUS_GENOBJ-N-CRS_13
1002
{
1000
OWNER
1000
GEN
1002
}
  0
LINE
  5
2157
330
1F
100
AcDbEntity
  8
AM_7
  6
AM_ISO08W050x2
100
AcDbLine
 10
597.750539212781
 20
398.8783307156893
 30
0.0
 11
601.8705392127808
 21
398.8783307156893
 31
0.0
1001
GENIUS_GENOREF_13
1005
215B
  0
LINE
  5
2158
330
1F
100
AcDbEntity
  8
AM_7
  6
AM_ISO08W050x2
100
AcDbLine
 10
597.750539212781
 20
398.8783307156893
 30
0.0
 11
597.750539212781
 21
402.9983307156893
 31
0.0
1001
GENIUS_GENOREF_13
1005
215B
  0
LINE
  5
2159
330
1F
100
AcDbEntity
  8
AM_7
  6
AM_ISO08W050x2
100
AcDbLine
 10
597.750539212781
 20
398.8783307156893
 30
0.0
 11
593.6305392127808
 21
398.8783307156893
 31
0.0
1001
GENIUS_GENOREF_13
1005
215B
  0
LINE
  5
215A
330
1F
100
AcDbEntity
  8
AM_7
  6
AM_ISO08W050x2
100
AcDbLine
 10
597.750539212781
 20
398.8783307156893
 30
0.0
 11
597.750539212781
 21
394.7583307156893
 31
0.0
1001
GENIUS_GENOREF_13
1005
215B
  0
POINT
  5
215B
330
1F
100
AcDbEntity
  8
0
 60
     1
100
AcDbPoint
 10
0.0
 20
0.0
 30
0.0
1001
GENIUS_GENOENT_13
1002
{
1000
MYREF
1005
215B
1002
}
1002
{
1000
GRP
1005
0
1002
}
1001
GENIUS_GENODEF_13
1002
{
1000
HIER
1070
    10
1002
}
1002
{
1000
MANEDIT
1070
     0
1002
}
1002
{
1000
NOSEL
1070
     0
1002
}
1002
{
1000
BEHIND
1070
     0
1002
}
1002
{
1000
OTHER
1070
     0
1002
}
1002
{
1000
REACTOR
1002
}
1001
GENIUS_GENOLIS_13
1002
{
1000
ENT
1005
215A
1005
2159
1005
2158
1005
2157
1002
}
1001
GENIUS_GENOBJ-N-CRS_13
1002
{
1000
OWNER
1000
GEN
1002
}
  0
LINE
  5
2169
330
1F
100
AcDbEntity
  8
AM_7
  6
AM_ISO08W050x2
100
AcDbLine
 10
718.6216858763432
 20
444.3783307156893
 30
0.0
 11
722.7416858763431
 21
444.3783307156893
 31
0.0
1001
GENIUS_GENOREF_13
1005
216D
  0
LINE
  5
216A
330
1F
100
AcDbEntity
  8
AM_7
  6
AM_ISO08W050x2
100
AcDbLine
 10
718.6216858763432
 20
444.3783307156893
 30
0.0
 11
718.6216858763432
 21
448.4983307156893
 31
0.0
1001
GENIUS_GENOREF_13
1005
216D
  0
LINE
  5
216B
330
1F
100
AcDbEntity
  8
AM_7
  6
AM_ISO08W050x2
100
AcDbLine
 10
718.6216858763432
 20
444.3783307156893
 30
0.0
 11
714.5016858763431
 21
444.3783307156893
 31
0.0
1001
GENIUS_GENOREF_13
1005
216D
  0
LINE
  5
216C
330
1F
100
AcDbEntity
  8
AM_7
  6
AM_ISO08W050x2
100
AcDbLine
 10
718.6216858763432
 20
444.3783307156893
 30
0.0
 11
718.6216858763432
 21
440.2583307156893
 31
0.0
1001
GENIUS_GENOREF_13
1005
216D
  0
POINT
  5
216D
330
1F
100
AcDbEntity
  8
0
 60
     1
100
AcDbPoint
 10
0.0
 20
0.0
 30
0.0
1001
GENIUS_GENOLIS_13
1002
{
1000
ENT
1005
216C
1005
216B
1005
216A
1005
2169
1002
}
1001
GENIUS_GENODEF_13
1002
{
1000
HIER
1070
    10
1002
}
1002
{
1000
MANEDIT
1070
     0
1002
}
1002
{
1000
NOSEL
1070
     0
1002
}
1002
{
1000
BEHIND
1070
     0
1002
}
1002
{
1000
OTHER
1070
     0
1002
}
1002
{
1000
REACTOR
1002
}
1001
GENIUS_GENOENT_13
1002
{
1000
MYREF
1005
216D
1002
}
1002
{
1000
GRP
1005
0
1002
}
1001
GENIUS_GENOBJ-N-CRS_13
1002
{
1000
OWNER
1000
GEN
1002
}
  0
LINE
  5
217B
330
1F
100
AcDbEntity
  8
AM_7
  6
AM_ISO08W050x2
100
AcDbLine
 10
699.1216858763432
 20
423.3783307156893
 30
0.0
 11
703.2416858763431
 21
423.3783307156893
 31
0.0
1001
GENIUS_GENOREF_13
1005
217F
  0
LINE
  5
217C
330
1F
100
AcDbEntity
  8
AM_7
  6
AM_ISO08W050x2
100
AcDbLine
 10
699.1216858763432
 20
423.3783307156893
 30
0.0
 11
699.1216858763432
 21
427.4983307156893
 31
0.0
1001
GENIUS_GENOREF_13
1005
217F
  0
LINE
  5
217D
330
1F
100
AcDbEntity
  8
AM_7
  6
AM_ISO08W050x2
100
AcDbLine
 10
699.1216858763432
 20
423.3783307156893
 30
0.0
 11
695.0016858763431
 21
423.3783307156893
 31
0.0
1001
GENIUS_GENOREF_13
1005
217F
  0
LINE
  5
217E
330
1F
100
AcDbEntity
  8
AM_7
  6
AM_ISO08W050x2
100
AcDbLine
 10
699.1216858763432
 20
423.3783307156893
 30
0.0
 11
699.1216858763432
 21
419.2583307156893
 31
0.0
1001
GENIUS_GENOREF_13
1005
217F
  0
POINT
  5
217F
330
1F
100
AcDbEntity
  8
0
 60
     1
100
AcDbPoint
 10
0.0
 20
0.0
 30
0.0
1001
GENIUS_GENODEF_13
1002
{
1000
HIER
1070
    10
1002
}
1002
{
1000
MANEDIT
1070
     0
1002
}
1002
{
1000
NOSEL
1070
     0
1002
}
1002
{
1000
BEHIND
1070
     0
1002
}
1002
{
1000
OTHER
1070
     0
1002
}
1002
{
1000
REACTOR
1002
}
1001
GENIUS_GENOLIS_13
1002
{
1000
ENT
1005
217E
1005
217D
1005
217C
1005
217B
1002
}
1001
GENIUS_GENOENT_13
1002
{
1000
MYREF
1005
217F
1002
}
1002
{
1000
GRP
1005
0
1002
}
1001
GENIUS_GENOBJ-N-CRS_13
1002
{
1000
OWNER
1000
GEN
1002
}
  0
ARC
  5
2180
330
1F
100
AcDbEntity
  8
AM_4
100
AcDbCircle
 10
597.750539212781
 20
468.8783307156894
 30
0.0
 40
2.5
100
AcDbArc
 50
260.0
 51
170.0
  0
ARC
  5
2181
330
1F
100
AcDbEntity
  8
AM_4
100
AcDbCircle
 10
597.750539212781
 20
452.8783307156894
 30
0.0
 40
2.5
100
AcDbArc
 50
260.0
 51
170.0
  0
ARC
  5
2182
330
1F
100
AcDbEntity
  8
AM_4
100
AcDbCircle
 10
597.750539212781
 20
414.8783307156894
 30
0.0
 40
2.5
100
AcDbArc
 50
260.0
 51
170.0
  0
ARC
  5
2183
330
1F
100
AcDbEntity
  8
AM_4
100
AcDbCircle
 10
597.750539212781
 20
398.8783307156894
 30
0.0
 40
2.5
100
AcDbArc
 50
260.0
 51
170.0
  0
LINE
  5
2184
330
1F
100
AcDbEntity
  8
AM_7
100
AcDbLine
 10
814.786725397187
 20
433.8783307156892
 30
0.0
 11
814.786725397187
 21
391.3318091218641
 31
0.0
  0
CIRCLE
  5
2185
330
1F
100
AcDbEntity
  8
0
100
AcDbCircle
 10
814.786725397187
 20
433.8783307156892
 30
0.0
 40
11.0
  0
LINE
  5
2222
330
1F
100
AcDbEntity
  8
AM_7
100
AcDbLine
 10
814.786725397187
 20
433.8783307156892
 30
0.0
 11
837.286725397187
 21
433.8783307156892
 31
0.0
1001
GENIUS_GENOREF_13
1005
2226
  0
LINE
  5
2223
330
1F
100
AcDbEntity
  8
AM_7
100
AcDbLine
 10
814.786725397187
 20
433.8783307156892
 30
0.0
 11
814.786725397187
 21
475.5578523684131
 31
0.0
1001
GENIUS_GENOREF_13
1005
2226
  0
LINE
  5
2224
330
1F
100
AcDbEntity
  8
AM_7
100
AcDbLine
 10
814.786725397187
 20
433.8783307156892
 30
0.0
 11
792.2867253971871
 21
433.8783307156892
 31
0.0
1001
GENIUS_GENOREF_13
1005
2226
  0
LINE
  5
2225
330
1F
100
AcDbEntity
  8
AM_7
100
AcDbLine
 10
814.786725397187
 20
433.8783307156892
 30
0.0
 11
814.786725397187
 21
411.3783307156892
 31
0.0
1001
GENIUS_GENOREF_13
1005
2226
  0
POINT
  5
2226
330
1F
100
AcDbEntity
  8
0
 60
     1
100
AcDbPoint
 10
0.0
 20
0.0
 30
0.0
1001
GENIUS_GENODEF_13
1002
{
1000
HIER
1070
    10
1002
}
1002
{
1000
MANEDIT
1070
     0
1002
}
1002
{
1000
NOSEL
1070
     0
1002
}
1002
{
1000
BEHIND
1070
     0
1002
}
1002
{
1000
OTHER
1070
     0
1002
}
1002
{
1000
REACTOR
1002
}
1001
GENIUS_GENOLIS_13
1002
{
1000
ENT
1005
2225
1005
2224
1005
2223
1005
2222
1002
}
1001
GENIUS_GENOENT_13
1002
{
1000
MYREF
1005
2226
1002
}
1002
{
1000
GRP
1005
0
1002
}
1001
GENIUS_GENOBJ-N-CRS_13
1002
{
1000
OWNER
1000
GEN
1002
}
  0
ARC
  5
2227
330
1F
100
AcDbEntity
  8
AM_4
100
AcDbCircle
 10
798.7867253971871
 20
459.8783307156893
 30
0.0
 40
2.5
100
AcDbArc
 50
260.0
 51
170.0
  0
ARC
  5
2228
330
1F
100
AcDbEntity
  8
AM_4
100
AcDbCircle
 10
830.7867253971872
 20
459.8783307156894
 30
0.0
 40
2.5
100
AcDbArc
 50
260.0
 51
170.0
  0
ARC
  5
2229
330
1F
100
AcDbEntity
  8
AM_4
100
AcDbCircle
 10
798.7867253971871
 20
407.8783307156893
 30
0.0
 40
2.5
100
AcDbArc
 50
260.0
 51
170.0
  0
ARC
  5
222A
330
1F
100
AcDbEntity
  8
AM_4
100
AcDbCircle
 10
830.7867253971872
 20
407.8783307156893
 30
0.0
 40
2.5
100
AcDbArc
 50
260.0
 51
170.0
  0
LINE
  5
2238
330
1F
100
AcDbEntity
  8
AM_7
  6
AM_ISO08W050x2
100
AcDbLine
 10
798.7867253971871
 20
407.8783307156893
 30
0.0
 11
802.7867253971871
 21
407.8783307156893
 31
0.0
1001
GENIUS_GENOREF_13
1005
223C
  0
LINE
  5
2239
330
1F
100
AcDbEntity
  8
AM_7
  6
AM_ISO08W050x2
100
AcDbLine
 10
798.7867253971871
 20
407.8783307156893
 30
0.0
 11
798.7867253971871
 21
411.8783307156894
 31
0.0
1001
GENIUS_GENOREF_13
1005
223C
  0
LINE
  5
223A
330
1F
100
AcDbEntity
  8
AM_7
  6
AM_ISO08W050x2
100
AcDbLine
 10
798.7867253971871
 20
407.8783307156893
 30
0.0
 11
794.786725397187
 21
407.8783307156893
 31
0.0
1001
GENIUS_GENOREF_13
1005
223C
  0
LINE
  5
223B
330
1F
100
AcDbEntity
  8
AM_7
  6
AM_ISO08W050x2
100
AcDbLine
 10
798.7867253971871
 20
407.8783307156893
 30
0.0
 11
798.7867253971871
 21
403.8783307156892
 31
0.0
1001
GENIUS_GENOREF_13
1005
223C
  0
POINT
  5
223C
330
1F
100
AcDbEntity
  8
0
 60
     1
100
AcDbPoint
 10
0.0
 20
0.0
 30
0.0
1001
GENIUS_GENODEF_13
1002
{
1000
HIER
1070
    10
1002
}
1002
{
1000
MANEDIT
1070
     0
1002
}
1002
{
1000
NOSEL
1070
     0
1002
}
1002
{
1000
BEHIND
1070
     0
1002
}
1002
{
1000
OTHER
1070
     0
1002
}
1002
{
1000
REACTOR
1002
}
1001
GENIUS_GENOBJ-N-CRS_13
1002
{
1000
OWNER
1000
GEN
1002
}
1001
GENIUS_GENOENT_13
1002
{
1000
MYREF
1005
223C
1002
}
1002
{
1000
GRP
1005
0
1002
}
1001
GENIUS_GENOLIS_13
1002
{
1000
ENT
1005
223B
1005
223A
1005
2239
1005
2238
1002
}
  0
LINE
  5
224A
330
1F
100
AcDbEntity
  8
AM_7
  6
AM_ISO08W050x2
100
AcDbLine
 10
814.7867253971872
 20
407.8783307156893
 30
0.0
 11
818.2867253971872
 21
407.8783307156893
 31
0.0
1001
GENIUS_GENOREF_13
1005
224E
  0
LINE
  5
224B
330
1F
100
AcDbEntity
  8
AM_7
  6
AM_ISO08W050x2
100
AcDbLine
 10
814.7867253971872
 20
407.8783307156893
 30
0.0
 11
814.7867253971872
 21
411.3783307156893
 31
0.0
1001
GENIUS_GENOREF_13
1005
224E
  0
LINE
  5
224C
330
1F
100
AcDbEntity
  8
AM_7
  6
AM_ISO08W050x2
100
AcDbLine
 10
814.7867253971872
 20
407.8783307156893
 30
0.0
 11
811.2867253971872
 21
407.8783307156893
 31
0.0
1001
GENIUS_GENOREF_13
1005
224E
  0
LINE
  5
224D
330
1F
100
AcDbEntity
  8
AM_7
  6
AM_ISO08W050x2
100
AcDbLine
 10
814.7867253971872
 20
407.8783307156893
 30
0.0
 11
814.7867253971872
 21
404.3783307156893
 31
0.0
1001
GENIUS_GENOREF_13
1005
224E
  0
POINT
  5
224E
330
1F
100
AcDbEntity
  8
0
 60
     1
100
AcDbPoint
 10
0.0
 20
0.0
 30
0.0
1001
GENIUS_GENODEF_13
1002
{
1000
HIER
1070
    10
1002
}
1002
{
1000
MANEDIT
1070
     0
1002
}
1002
{
1000
NOSEL
1070
     0
1002
}
1002
{
1000
BEHIND
1070
     0
1002
}
1002
{
1000
OTHER
1070
     0
1002
}
1002
{
1000
REACTOR
1002
}
1001
GENIUS_GENOLIS_13
1002
{
1000
ENT
1005
224D
1005
224C
1005
224B
1005
224A
1002
}
1001
GENIUS_GENOENT_13
1002
{
1000
MYREF
1005
224E
1002
}
1002
{
1000
GRP
1005
0
1002
}
1001
GENIUS_GENOBJ-N-CRS_13
1002
{
1000
OWNER
1000
GEN
1002
}
  0
LINE
  5
225C
330
1F
100
AcDbEntity
  8
AM_7
  6
AM_ISO08W050x2
100
AcDbLine
 10
830.7867253971872
 20
407.8783307156893
 30
0.0
 11
834.3867253971874
 21
407.8783307156893
 31
0.0
1001
GENIUS_GENOREF_13
1005
2260
  0
LINE
  5
225D
330
1F
100
AcDbEntity
  8
AM_7
  6
AM_ISO08W050x2
100
AcDbLine
 10
830.7867253971872
 20
407.8783307156893
 30
0.0
 11
830.7867253971872
 21
411.4783307156893
 31
0.0
1001
GENIUS_GENOREF_13
1005
2260
  0
LINE
  5
225E
330
1F
100
AcDbEntity
  8
AM_7
  6
AM_ISO08W050x2
100
AcDbLine
 10
830.7867253971872
 20
407.8783307156893
 30
0.0
 11
827.1867253971871
 21
407.8783307156893
 31
0.0
1001
GENIUS_GENOREF_13
1005
2260
  0
LINE
  5
225F
330
1F
100
AcDbEntity
  8
AM_7
  6
AM_ISO08W050x2
100
AcDbLine
 10
830.7867253971872
 20
407.8783307156893
 30
0.0
 11
830.7867253971872
 21
404.2783307156893
 31
0.0
1001
GENIUS_GENOREF_13
1005
2260
  0
POINT
  5
2260
330
1F
100
AcDbEntity
  8
0
 60
     1
100
AcDbPoint
 10
0.0
 20
0.0
 30
0.0
1001
GENIUS_GENOENT_13
1002
{
1000
MYREF
1005
2260
1002
}
1002
{
1000
GRP
1005
0
1002
}
1001
GENIUS_GENOBJ-N-CRS_13
1002
{
1000
OWNER
1000
GEN
1002
}
1001
GENIUS_GENOLIS_13
1002
{
1000
ENT
1005
225F
1005
225E
1005
225D
1005
225C
1002
}
1001
GENIUS_GENODEF_13
1002
{
1000
HIER
1070
    10
1002
}
1002
{
1000
MANEDIT
1070
     0
1002
}
1002
{
1000
NOSEL
1070
     0
1002
}
1002
{
1000
BEHIND
1070
     0
1002
}
1002
{
1000
OTHER
1070
     0
1002
}
1002
{
1000
REACTOR
1002
}
  0
LINE
  5
226E
330
1F
100
AcDbEntity
  8
AM_7
  6
AM_ISO08W050x2
100
AcDbLine
 10
830.7867253971872
 20
459.8783307156893
 30
0.0
 11
834.386725397187
 21
459.8783307156893
 31
0.0
1001
GENIUS_GENOREF_13
1005
2272
  0
LINE
  5
226F
330
1F
100
AcDbEntity
  8
AM_7
  6
AM_ISO08W050x2
100
AcDbLine
 10
830.7867253971872
 20
459.8783307156893
 30
0.0
 11
830.7867253971872
 21
463.4783307156893
 31
0.0
1001
GENIUS_GENOREF_13
1005
2272
  0
LINE
  5
2270
330
1F
100
AcDbEntity
  8
AM_7
  6
AM_ISO08W050x2
100
AcDbLine
 10
830.7867253971872
 20
459.8783307156893
 30
0.0
 11
827.1867253971871
 21
459.8783307156893
 31
0.0
1001
GENIUS_GENOREF_13
1005
2272
  0
LINE
  5
2271
330
1F
100
AcDbEntity
  8
AM_7
  6
AM_ISO08W050x2
100
AcDbLine
 10
830.7867253971872
 20
459.8783307156893
 30
0.0
 11
830.7867253971872
 21
456.2783307156893
 31
0.0
1001
GENIUS_GENOREF_13
1005
2272
  0
POINT
  5
2272
330
1F
100
AcDbEntity
  8
0
 60
     1
100
AcDbPoint
 10
0.0
 20
0.0
 30
0.0
1001
GENIUS_GENOLIS_13
1002
{
1000
ENT
1005
2271
1005
2270
1005
226F
1005
226E
1002
}
1001
GENIUS_GENOBJ-N-CRS_13
1002
{
1000
OWNER
1000
GEN
1002
}
1001
GENIUS_GENODEF_13
1002
{
1000
HIER
1070
    10
1002
}
1002
{
1000
MANEDIT
1070
     0
1002
}
1002
{
1000
NOSEL
1070
     0
1002
}
1002
{
1000
BEHIND
1070
     0
1002
}
1002
{
1000
OTHER
1070
     0
1002
}
1002
{
1000
REACTOR
1002
}
1001
GENIUS_GENOENT_13
1002
{
1000
MYREF
1005
2272
1002
}
1002
{
1000
GRP
1005
0
1002
}
  0
LINE
  5
2280
330
1F
100
AcDbEntity
  8
AM_7
  6
AM_ISO08W050x2
100
AcDbLine
 10
814.7867253971872
 20
459.8783307156893
 30
0.0
 11
818.2867253971872
 21
459.8783307156893
 31
0.0
1001
GENIUS_GENOREF_13
1005
2284
  0
LINE
  5
2281
330
1F
100
AcDbEntity
  8
AM_7
  6
AM_ISO08W050x2
100
AcDbLine
 10
814.7867253971872
 20
459.8783307156893
 30
0.0
 11
814.7867253971872
 21
463.3783307156893
 31
0.0
1001
GENIUS_GENOREF_13
1005
2284
  0
LINE
  5
2282
330
1F
100
AcDbEntity
  8
AM_7
  6
AM_ISO08W050x2
100
AcDbLine
 10
814.7867253971872
 20
459.8783307156893
 30
0.0
 11
811.2867253971872
 21
459.8783307156893
 31
0.0
1001
GENIUS_GENOREF_13
1005
2284
  0
LINE
  5
2283
330
1F
100
AcDbEntity
  8
AM_7
  6
AM_ISO08W050x2
100
AcDbLine
 10
814.7867253971872
 20
459.8783307156893
 30
0.0
 11
814.7867253971872
 21
456.3783307156893
 31
0.0
1001
GENIUS_GENOREF_13
1005
2284
  0
POINT
  5
2284
330
1F
100
AcDbEntity
  8
0
 60
     1
100
AcDbPoint
 10
0.0
 20
0.0
 30
0.0
1001
GENIUS_GENOLIS_13
1002
{
1000
ENT
1005
2283
1005
2282
1005
2281
1005
2280
1002
}
1001
GENIUS_GENOENT_13
1002
{
1000
MYREF
1005
2284
1002
}
1002
{
1000
GRP
1005
0
1002
}
1001
GENIUS_GENOBJ-N-CRS_13
1002
{
1000
OWNER
1000
GEN
1002
}
1001
GENIUS_GENODEF_13
1002
{
1000
HIER
1070
    10
1002
}
1002
{
1000
MANEDIT
1070
     0
1002
}
1002
{
1000
NOSEL
1070
     0
1002
}
1002
{
1000
BEHIND
1070
     0
1002
}
1002
{
1000
OTHER
1070
     0
1002
}
1002
{
1000
REACTOR
1002
}
  0
LINE
  5
2292
330
1F
100
AcDbEntity
  8
AM_7
  6
AM_ISO08W050x2
100
AcDbLine
 10
798.7867253971871
 20
459.8783307156893
 30
0.0
 11
802.7867253971871
 21
459.8783307156893
 31
0.0
1001
GENIUS_GENOREF_13
1005
2296
  0
LINE
  5
2293
330
1F
100
AcDbEntity
  8
AM_7
  6
AM_ISO08W050x2
100
AcDbLine
 10
798.7867253971871
 20
459.8783307156893
 30
0.0
 11
798.7867253971871
 21
463.8783307156893
 31
0.0
1001
GENIUS_GENOREF_13
1005
2296
  0
LINE
  5
2294
330
1F
100
AcDbEntity
  8
AM_7
  6
AM_ISO08W050x2
100
AcDbLine
 10
798.7867253971871
 20
459.8783307156893
 30
0.0
 11
794.7867253971872
 21
459.8783307156893
 31
0.0
1001
GENIUS_GENOREF_13
1005
2296
  0
LINE
  5
2295
330
1F
100
AcDbEntity
  8
AM_7
  6
AM_ISO08W050x2
100
AcDbLine
 10
798.7867253971871
 20
459.8783307156893
 30
0.0
 11
798.7867253971871
 21
455.8783307156893
 31
0.0
1001
GENIUS_GENOREF_13
1005
2296
  0
POINT
  5
2296
330
1F
100
AcDbEntity
  8
0
 60
     1
100
AcDbPoint
 10
0.0
 20
0.0
 30
0.0
1001
GENIUS_GENOENT_13
1002
{
1000
MYREF
1005
2296
1002
}
1002
{
1000
GRP
1005
0
1002
}
1001
GENIUS_GENODEF_13
1002
{
1000
HIER
1070
    10
1002
}
1002
{
1000
MANEDIT
1070
     0
1002
}
1002
{
1000
NOSEL
1070
     0
1002
}
1002
{
1000
BEHIND
1070
     0
1002
}
1002
{
1000
OTHER
1070
     0
1002
}
1002
{
1000
REACTOR
1002
}
1001
GENIUS_GENOLIS_13
1002
{
1000
ENT
1005
2295
1005
2294
1005
2293
1005
2292
1002
}
1001
GENIUS_GENOBJ-N-CRS_13
1002
{
1000
OWNER
1000
GEN
1002
}
  0
LINE
  5
22BA
102
{ACAD_REACTORS
330
22D1
102
}
330
1F
100
AcDbEntity
  8
AM_7
  6
AM_ISO08W050x2
100
AcDbLine
 10
703.6216858763431
 20
459.8783307156893
 30
0.0
 11
703.6216858763431
 21
465.8783307156893
 31
0.0
1001
GENIUS_GENOREF_13
1005
22ED
  0
LINE
  5
22BB
330
1F
100
AcDbEntity
  8
AM_7
  6
AM_ISO08W050x2
100
AcDbLine
 10
703.6216858763431
 20
459.8783307156893
 30
0.0
 11
697.6216858763431
 21
459.8783307156893
 31
0.0
1001
GENIUS_GENOREF_13
1005
22ED
  0
LINE
  5
22BC
330
1F
100
AcDbEntity
  8
AM_7
  6
AM_ISO08W050x2
100
AcDbLine
 10
703.6216858763431
 20
459.8783307156893
 30
0.0
 11
703.6216858763431
 21
453.8783307156893
 31
0.0
1001
GENIUS_GENOREF_13
1005
22ED
  0
LINE
  5
22BD
102
{ACAD_REACTORS
330
22C8
102
}
330
1F
100
AcDbEntity
  8
AM_7
  6
AM_ISO08W050x2
100
AcDbLine
 10
703.6216858763431
 20
459.8783307156893
 30
0.0
 11
709.6216858763431
 21
459.8783307156893
 31
0.0
1001
GENIUS_GENOREF_13
1005
22ED
  0
ARC
  5
22C1
330
1F
100
AcDbEntity
  8
AM_4
100
AcDbCircle
 10
718.6216858763432
 20
444.3783307156894
 30
0.0
 40
2.5
100
AcDbArc
 50
260.0
 51
170.0
  0
ARC
  5
22C2
330
1F
100
AcDbEntity
  8
AM_4
100
AcDbCircle
 10
699.1216858763432
 20
423.3783307156893
 30
0.0
 40
2.5
100
AcDbArc
 50
260.0
 51
170.0
  0
DIMENSION
  5
22C3
330
1F
100
AcDbEntity
  8
AM_5
100
AcDbDimension
  2
*D6
 10
736.6216858763431
 20
444.3783307156893
 30
0.0
 11
734.071685876343
 21
433.8783307156894
 31
0.0
 70
    32
  1
<>
 71
     5
 42
21.0
  3
AM_ISO$0
100
AcDbAlignedDimension
 13
703.2416858763431
 23
423.3783307156893
 33
0.0
 14
722.7416858763431
 24
444.3783307156893
 34
0.0
 50
90.0
100
AcDbRotatedDimension
1001
ACAD
1000
DSTYLE
1002
{
1070
    40
1040
1.0
1070
   144
1040
1.0
1070
   272
1070
     8
1002
}
  0
DIMENSION
  5
22C6
102
{ACAD_XDICTIONARY
360
22C7
102
}
102
{ACAD_REACTORS
330
22C8
102
}
330
1F
100
AcDbEntity
  8
AM_5
100
AcDbDimension
  2
*D7
 10
744.6216858763431
 20
459.8783307156893
 30
0.0
 11
742.071685876343
 21
433.8783307156894
 31
0.0
 70
    32
  1
<>
 71
     5
 42
52.0
  3
AM_ISO$0
100
AcDbAlignedDimension
 13
709.6216858763431
 23
407.8783307156893
 33
0.0
 14
709.6216858763431
 24
459.8783307156893
 34
0.0
 50
90.0
100
AcDbRotatedDimension
1001
ACAD
1000
DSTYLE
1002
{
1070
    40
1040
1.0
1070
   144
1040
1.0
1070
   272
1070
     8
1002
}
  0
DIMENSION
  5
22C9
330
1F
100
AcDbEntity
  8
AM_5
100
AcDbDimension
  2
*D8
 10
718.621685876343
 20
383.8783307156893
 30
0.0
 11
722.6216858763431
 21
386.4283307156894
 31
0.0
 70
    32
  1
<>
 71
     5
 42
8.0
  3
AM_ISO$0
100
AcDbAlignedDimension
 13
726.6216858763431
 23
393.8783307156894
 33
0.0
 14
718.621685876343
 24
440.2583307156893
 34
0.0
100
AcDbRotatedDimension
1001
ACAD
1000
DSTYLE
1002
{
1070
    40
1040
1.0
1070
   144
1040
1.0
1070
   272
1070
     8
1002
}
  0
DIMENSION
  5
22CC
330
1F
100
AcDbEntity
  8
AM_5
100
AcDbDimension
  2
*D9
 10
699.1216858763431
 20
383.8783307156893
 30
0.0
 11
708.8716858763431
 21
386.4283307156894
 31
0.0
 70
    32
  1
<>
 71
     5
 42
19.5
  3
AM_ISO$0
100
AcDbAlignedDimension
 13
718.621685876343
 23
440.2583307156893
 33
0.0
 14
699.1216858763431
 24
419.2583307156893
 34
0.0
100
AcDbRotatedDimension
1001
ACAD
1000
DSTYLE
1002
{
1070
    40
1040
1.0
1070
   144
1040
1.0
1070
   272
1070
     8
1002
}
  0
DIMENSION
  5
22CF
102
{ACAD_XDICTIONARY
360
22D0
102
}
102
{ACAD_REACTORS
330
22D1
102
}
330
1F
100
AcDbEntity
  8
AM_5
100
AcDbDimension
  2
*D10
 10
703.6216858763431
 20
483.8783307156893
 30
0.0
 11
715.1216858763431
 21
486.4283307156894
 31
0.0
 70
    32
  1
<>
 71
     5
 42
23.0
  3
AM_ISO$0
100
AcDbAlignedDimension
 13
726.6216858763431
 23
473.8783307156893
 33
0.0
 14
703.6216858763431
 24
465.8783307156893
 34
0.0
100
AcDbRotatedDimension
1001
ACAD
1000
DSTYLE
1002
{
1070
    40
1040
1.0
1070
   144
1040
1.0
1070
   272
1070
     8
1002
}
  0
DIMENSION
  5
22D2
330
1F
100
AcDbEntity
  8
AM_5
100
AcDbDimension
  2
*D5
 10
726.6216858763431
 20
491.8783307156893
 30
0.0
 11
701.1216858763431
 21
494.4283307156893
 31
0.0
 70
    32
  1
<>
 71
     5
 42
51.0
  3
AM_ISO$0
100
AcDbAlignedDimension
 13
675.6216858763431
 23
473.8783307156893
 33
0.0
 14
726.6216858763431
 24
473.8783307156893
 34
0.0
100
AcDbRotatedDimension
1001
ACAD
1000
DSTYLE
1002
{
1070
    40
1040
1.0
1070
   144
1040
1.0
1070
   272
1070
     8
1002
}
  0
TEXT
  5
22DD
330
1F
100
AcDbEntity
  8
AM_5
100
AcDbText
 10
734.6480403077493
 20
394.5479771318397
 30
0.0
 40
3.0
  1
2-%%c4.5 thru
 41
0.75
  7
CHINESET
100
AcDbText
  0
INSERT
  5
22DE
330
1F
100
AcDbEntity
  8
AM_5
100
AcDbBlockReference
  2
*S16
 10
0.0
 20
0.0
 30
0.0
  0
TEXT
  5
22DF
330
1F
100
AcDbEntity
  8
AM_5
100
AcDbText
 10
730.3537151179637
 20
452.9001179896428
 30
0.0
 40
3.0
  1
2-M5
 41
0.75
  7
CHINESET
100
AcDbText
  0
INSERT
  5
22E9
330
1F
100
AcDbEntity
  8
AM_5
100
AcDbBlockReference
  2
*S17
 10
0.0
 20
0.0
 30
0.0
  0
POINT
  5
22ED
330
1F
100
AcDbEntity
  8
0
 60
     1
100
AcDbPoint
 10
17.01022285181403
 20
257.8686422523079
 30
0.0
1001
GENIUS_GENODEF_13
1002
{
1000
HIER
1070
    10
1002
}
1002
{
1000
MANEDIT
1070
     0
1002
}
1002
{
1000
NOSEL
1070
     0
1002
}
1002
{
1000
BEHIND
1070
     0
1002
}
1002
{
1000
OTHER
1070
     0
1002
}
1002
{
1000
REACTOR
1002
}
1001
GENIUS_GENOLIS_13
1002
{
1000
ENT
1005
22BD
1005
22BC
1005
22BB
1005
22BA
1002
}
1001
GENIUS_GENOBJ-N-CRS_13
1002
{
1000
OWNER
1000
GEN
1002
}
1001
GENIUS_GENOENT_13
1002
{
1000
MYREF
1005
22ED
1002
}
1002
{
1000
GRP
1005
0
1002
}
  0
LINE
  5
23C8
330
1F
100
AcDbEntity
  8
AM_7
  6
AM_ISO08W050x2
100
AcDbLine
 10
703.6216858763432
 20
407.8783307156893
 30
0.0
 11
709.6216858763432
 21
407.8783307156893
 31
0.0
1001
GENIUS_GENOREF_13
1005
23CC
  0
LINE
  5
23C9
330
1F
100
AcDbEntity
  8
AM_7
  6
AM_ISO08W050x2
100
AcDbLine
 10
703.6216858763432
 20
407.8783307156893
 30
0.0
 11
703.6216858763432
 21
413.8783307156893
 31
0.0
1001
GENIUS_GENOREF_13
1005
23CC
  0
LINE
  5
23CA
330
1F
100
AcDbEntity
  8
AM_7
  6
AM_ISO08W050x2
100
AcDbLine
 10
703.6216858763432
 20
407.8783307156893
 30
0.0
 11
697.6216858763432
 21
407.8783307156893
 31
0.0
1001
GENIUS_GENOREF_13
1005
23CC
  0
LINE
  5
23CB
330
1F
100
AcDbEntity
  8
AM_7
  6
AM_ISO08W050x2
100
AcDbLine
 10
703.6216858763432
 20
407.8783307156893
 30
0.0
 11
703.6216858763432
 21
401.8783307156893
 31
0.0
1001
GENIUS_GENOREF_13
1005
23CC
  0
POINT
  5
23CC
330
1F
100
AcDbEntity
  8
0
 60
     1
100
AcDbPoint
 10
0.0
 20
0.0
 30
0.0
1001
GENIUS_GENOENT_13
1002
{
1000
MYREF
1005
23CC
1002
}
1002
{
1000
GRP
1005
0
1002
}
1001
GENIUS_GENOBJ-N-CRS_13
1002
{
1000
OWNER
1000
GEN
1002
}
1001
GENIUS_GENODEF_13
1002
{
1000
HIER
1070
    10
1002
}
1002
{
1000
MANEDIT
1070
     0
1002
}
1002
{
1000
NOSEL
1070
     0
1002
}
1002
{
1000
BEHIND
1070
     0
1002
}
1002
{
1000
OTHER
1070
     0
1002
}
1002
{
1000
REACTOR
1002
}
1001
GENIUS_GENOLIS_13
1002
{
1000
ENT
1005
23CB
1005
23CA
1005
23C9
1005
23C8
1002
}
  0
DIMENSION
  5
23CD
330
1F
100
AcDbEntity
  8
AM_5
100
AcDbDimension
  2
*D11
 10
613.6505392127808
 20
376.8783307156894
 30
0.0
 11
597.6505392127807
 21
379.4283307156894
 31
0.0
 70
    32
  1
<>
 71
     5
 42
32.0
  3
AM_ISO$0
100
AcDbAlignedDimension
 13
581.6505392127807
 23
402.5783307156894
 33
0.0
 14
613.6505392127808
 24
402.5783307156894
 34
0.0
100
AcDbRotatedDimension
1001
ACAD
1000
DSTYLE
1002
{
1070
    40
1040
1.0
1070
   144
1040
1.0
1070
   272
1070
     8
1002
}
  0
LINE
  5
23D3
330
1F
100
AcDbEntity
  8
0
  6
ACISOTGB
 62
     2
100
AcDbLine
 10
609.2505392127808
 20
473.8783307156893
 30
0.0
 11
609.2505392127808
 21
480.8783307156893
 31
0.0
  0
LINE
  5
23D4
330
1F
100
AcDbEntity
  8
0
  6
ACISOTGB
 62
     2
100
AcDbLine
 10
609.2505392127808
 20
480.8783307156893
 30
0.0
 11
586.0505392127809
 21
480.8783307156893
 31
0.0
  0
LINE
  5
23D5
330
1F
100
AcDbEntity
  8
0
  6
ACISOTGB
 62
     2
100
AcDbLine
 10
586.0505392127809
 20
473.8783307156893
 30
0.0
 11
586.0505392127809
 21
480.8783307156893
 31
0.0
  0
LINE
  5
23D6
330
1F
100
AcDbEntity
  8
0
  6
ACISOTGB
 62
     2
100
AcDbLine
 10
609.2505392127808
 20
393.8783307156894
 30
0.0
 11
609.2505392127808
 21
386.8783307156894
 31
0.0
  0
LINE
  5
23D7
330
1F
100
AcDbEntity
  8
0
  6
ACISOTGB
 62
     2
100
AcDbLine
 10
609.2505392127808
 20
386.8783307156894
 30
0.0
 11
586.0505392127809
 21
386.8783307156894
 31
0.0
  0
LINE
  5
23D8
330
1F
100
AcDbEntity
  8
0
  6
ACISOTGB
 62
     2
100
AcDbLine
 10
586.0505392127809
 20
393.8783307156894
 30
0.0
 11
586.0505392127809
 21
386.8783307156894
 31
0.0
  0
LINE
  5
24BB
330
1F
100
AcDbEntity
  8
AM_7
  6
AM_ISO08W050x2
100
AcDbLine
 10
613.7505392127809
 20
459.8783307156893
 30
0.0
 11
619.0505392127809
 21
459.8783307156893
 31
0.0
1001
GENIUS_GENOREF_13
1005
24BF
  0
LINE
  5
24BC
330
1F
100
AcDbEntity
  8
AM_7
  6
AM_ISO08W050x2
100
AcDbLine
 10
613.7505392127809
 20
459.8783307156893
 30
0.0
 11
613.7505392127809
 21
465.1783307156894
 31
0.0
1001
GENIUS_GENOREF_13
1005
24BF
  0
LINE
  5
24BD
330
1F
100
AcDbEntity
  8
AM_7
  6
AM_ISO08W050x2
100
AcDbLine
 10
613.7505392127809
 20
459.8783307156893
 30
0.0
 11
608.4505392127809
 21
459.8783307156893
 31
0.0
1001
GENIUS_GENOREF_13
1005
24BF
  0
LINE
  5
24BE
330
1F
100
AcDbEntity
  8
AM_7
  6
AM_ISO08W050x2
100
AcDbLine
 10
613.7505392127809
 20
459.8783307156893
 30
0.0
 11
613.7505392127809
 21
454.5783307156892
 31
0.0
1001
GENIUS_GENOREF_13
1005
24BF
  0
POINT
  5
24BF
330
1F
100
AcDbEntity
  8
0
 60
     1
100
AcDbPoint
 10
0.0
 20
0.0
 30
0.0
1001
GENIUS_GENOBJ-N-CRS_13
1002
{
1000
OWNER
1000
GEN
1002
}
1001
GENIUS_GENODEF_13
1002
{
1000
HIER
1070
    10
1002
}
1002
{
1000
MANEDIT
1070
     0
1002
}
1002
{
1000
NOSEL
1070
     0
1002
}
1002
{
1000
BEHIND
1070
     0
1002
}
1002
{
1000
OTHER
1070
     0
1002
}
1002
{
1000
REACTOR
1002
}
1001
GENIUS_GENOENT_13
1002
{
1000
MYREF
1005
24BF
1002
}
1002
{
1000
GRP
1005
0
1002
}
1001
GENIUS_GENOLIS_13
1002
{
1000
ENT
1005
24BE
1005
24BD
1005
24BC
1005
24BB
1002
}
  0
LINE
  5
24CD
330
1F
100
AcDbEntity
  8
AM_7
  6
AM_ISO08W050x2
100
AcDbLine
 10
581.7505392127809
 20
459.8783307156893
 30
0.0
 11
587.0505392127808
 21
459.8783307156893
 31
0.0
1001
GENIUS_GENOREF_13
1005
24D1
  0
LINE
  5
24CE
330
1F
100
AcDbEntity
  8
AM_7
  6
AM_ISO08W050x2
100
AcDbLine
 10
581.7505392127809
 20
459.8783307156893
 30
0.0
 11
581.7505392127809
 21
465.1783307156894
 31
0.0
1001
GENIUS_GENOREF_13
1005
24D1
  0
LINE
  5
24CF
102
{ACAD_REACTORS
330
2D52
102
}
330
1F
100
AcDbEntity
  8
AM_7
  6
AM_ISO08W050x2
100
AcDbLine
 10
581.7505392127809
 20
459.8783307156893
 30
0.0
 11
576.4505392127809
 21
459.8783307156893
 31
0.0
1001
GENIUS_GENOREF_13
1005
24D1
  0
LINE
  5
24D0
330
1F
100
AcDbEntity
  8
AM_7
  6
AM_ISO08W050x2
100
AcDbLine
 10
581.7505392127809
 20
459.8783307156893
 30
0.0
 11
581.7505392127809
 21
454.5783307156892
 31
0.0
1001
GENIUS_GENOREF_13
1005
24D1
  0
POINT
  5
24D1
330
1F
100
AcDbEntity
  8
0
 60
     1
100
AcDbPoint
 10
0.0
 20
0.0
 30
0.0
1001
GENIUS_GENOLIS_13
1002
{
1000
ENT
1005
24D0
1005
24CF
1005
24CE
1005
24CD
1002
}
1001
GENIUS_GENOENT_13
1002
{
1000
MYREF
1005
24D1
1002
}
1002
{
1000
GRP
1005
0
1002
}
1001
GENIUS_GENOBJ-N-CRS_13
1002
{
1000
OWNER
1000
GEN
1002
}
1001
GENIUS_GENODEF_13
1002
{
1000
HIER
1070
    10
1002
}
1002
{
1000
MANEDIT
1070
     0
1002
}
1002
{
1000
NOSEL
1070
     0
1002
}
1002
{
1000
BEHIND
1070
     0
1002
}
1002
{
1000
OTHER
1070
     0
1002
}
1002
{
1000
REACTOR
1002
}
  0
LINE
  5
24DF
330
1F
100
AcDbEntity
  8
AM_7
  6
AM_ISO08W050x2
100
AcDbLine
 10
581.7505392127809
 20
407.8783307156893
 30
0.0
 11
587.0505392127808
 21
407.8783307156893
 31
0.0
1001
GENIUS_GENOREF_13
1005
24E3
  0
LINE
  5
24E0
330
1F
100
AcDbEntity
  8
AM_7
  6
AM_ISO08W050x2
100
AcDbLine
 10
581.7505392127809
 20
407.8783307156893
 30
0.0
 11
581.7505392127809
 21
413.1783307156894
 31
0.0
1001
GENIUS_GENOREF_13
1005
24E3
  0
LINE
  5
24E1
102
{ACAD_REACTORS
330
2D52
102
}
330
1F
100
AcDbEntity
  8
AM_7
  6
AM_ISO08W050x2
100
AcDbLine
 10
581.7505392127809
 20
407.8783307156893
 30
0.0
 11
576.4505392127809
 21
407.8783307156893
 31
0.0
1001
GENIUS_GENOREF_13
1005
24E3
  0
LINE
  5
24E2
330
1F
100
AcDbEntity
  8
AM_7
  6
AM_ISO08W050x2
100
AcDbLine
 10
581.7505392127809
 20
407.8783307156893
 30
0.0
 11
581.7505392127809
 21
402.5783307156892
 31
0.0
1001
GENIUS_GENOREF_13
1005
24E3
  0
POINT
  5
24E3
330
1F
100
AcDbEntity
  8
0
 60
     1
100
AcDbPoint
 10
0.0
 20
0.0
 30
0.0
1001
GENIUS_GENODEF_13
1002
{
1000
HIER
1070
    10
1002
}
1002
{
1000
MANEDIT
1070
     0
1002
}
1002
{
1000
NOSEL
1070
     0
1002
}
1002
{
1000
BEHIND
1070
     0
1002
}
1002
{
1000
OTHER
1070
     0
1002
}
1002
{
1000
REACTOR
1002
}
1001
GENIUS_GENOBJ-N-CRS_13
1002
{
1000
OWNER
1000
GEN
1002
}
1001
GENIUS_GENOENT_13
1002
{
1000
MYREF
1005
24E3
1002
}
1002
{
1000
GRP
1005
0
1002
}
1001
GENIUS_GENOLIS_13
1002
{
1000
ENT
1005
24E2
1005
24E1
1005
24E0
1005
24DF
1002
}
  0
LINE
  5
24F1
330
1F
100
AcDbEntity
  8
AM_7
  6
AM_ISO08W050x2
100
AcDbLine
 10
613.7505392127809
 20
407.8783307156893
 30
0.0
 11
619.0505392127809
 21
407.8783307156893
 31
0.0
1001
GENIUS_GENOREF_13
1005
24F5
  0
LINE
  5
24F2
330
1F
100
AcDbEntity
  8
AM_7
  6
AM_ISO08W050x2
100
AcDbLine
 10
613.7505392127809
 20
407.8783307156893
 30
0.0
 11
613.7505392127809
 21
413.1783307156894
 31
0.0
1001
GENIUS_GENOREF_13
1005
24F5
  0
LINE
  5
24F3
330
1F
100
AcDbEntity
  8
AM_7
  6
AM_ISO08W050x2
100
AcDbLine
 10
613.7505392127809
 20
407.8783307156893
 30
0.0
 11
608.4505392127809
 21
407.8783307156893
 31
0.0
1001
GENIUS_GENOREF_13
1005
24F5
  0
LINE
  5
24F4
330
1F
100
AcDbEntity
  8
AM_7
  6
AM_ISO08W050x2
100
AcDbLine
 10
613.7505392127809
 20
407.8783307156893
 30
0.0
 11
613.7505392127809
 21
402.5783307156892
 31
0.0
1001
GENIUS_GENOREF_13
1005
24F5
  0
POINT
  5
24F5
330
1F
100
AcDbEntity
  8
0
 60
     1
100
AcDbPoint
 10
0.0
 20
0.0
 30
0.0
1001
GENIUS_GENOBJ-N-CRS_13
1002
{
1000
OWNER
1000
GEN
1002
}
1001
GENIUS_GENODEF_13
1002
{
1000
HIER
1070
    10
1002
}
1002
{
1000
MANEDIT
1070
     0
1002
}
1002
{
1000
NOSEL
1070
     0
1002
}
1002
{
1000
BEHIND
1070
     0
1002
}
1002
{
1000
OTHER
1070
     0
1002
}
1002
{
1000
REACTOR
1002
}
1001
GENIUS_GENOENT_13
1002
{
1000
MYREF
1005
24F5
1002
}
1002
{
1000
GRP
1005
0
1002
}
1001
GENIUS_GENOLIS_13
1002
{
1000
ENT
1005
24F4
1005
24F3
1005
24F2
1005
24F1
1002
}
  0
LINE
  5
2503
330
1F
100
AcDbEntity
  8
AM_7
  6
AM_ISO08W050x2
100
AcDbLine
 10
597.750539212781
 20
406.8783307156893
 30
0.0
 11
601.7505392127809
 21
406.8783307156893
 31
0.0
1001
GENIUS_GENOREF_13
1005
2507
  0
LINE
  5
2504
330
1F
100
AcDbEntity
  8
AM_7
  6
AM_ISO08W050x2
100
AcDbLine
 10
597.750539212781
 20
406.8783307156893
 30
0.0
 11
597.750539212781
 21
410.8783307156893
 31
0.0
1001
GENIUS_GENOREF_13
1005
2507
  0
LINE
  5
2505
330
1F
100
AcDbEntity
  8
AM_7
  6
AM_ISO08W050x2
100
AcDbLine
 10
597.750539212781
 20
406.8783307156893
 30
0.0
 11
593.750539212781
 21
406.8783307156893
 31
0.0
1001
GENIUS_GENOREF_13
1005
2507
  0
LINE
  5
2506
330
1F
100
AcDbEntity
  8
AM_7
  6
AM_ISO08W050x2
100
AcDbLine
 10
597.750539212781
 20
406.8783307156893
 30
0.0
 11
597.750539212781
 21
402.8783307156893
 31
0.0
1001
GENIUS_GENOREF_13
1005
2507
  0
POINT
  5
2507
330
1F
100
AcDbEntity
  8
0
 60
     1
100
AcDbPoint
 10
0.0
 20
0.0
 30
0.0
1001
GENIUS_GENOBJ-N-CRS_13
1002
{
1000
OWNER
1000
GEN
1002
}
1001
GENIUS_GENODEF_13
1002
{
1000
HIER
1070
    10
1002
}
1002
{
1000
MANEDIT
1070
     0
1002
}
1002
{
1000
NOSEL
1070
     0
1002
}
1002
{
1000
BEHIND
1070
     0
1002
}
1002
{
1000
OTHER
1070
     0
1002
}
1002
{
1000
REACTOR
1002
}
1001
GENIUS_GENOLIS_13
1002
{
1000
ENT
1005
2506
1005
2505
1005
2504
1005
2503
1002
}
1001
GENIUS_GENOENT_13
1002
{
1000
MYREF
1005
2507
1002
}
1002
{
1000
GRP
1005
0
1002
}
  0
LINE
  5
2515
330
1F
100
AcDbEntity
  8
AM_7
  6
AM_ISO08W050x2
100
AcDbLine
 10
597.750539212781
 20
460.8783307156893
 30
0.0
 11
601.7505392127809
 21
460.8783307156893
 31
0.0
1001
GENIUS_GENOREF_13
1005
2519
  0
LINE
  5
2516
330
1F
100
AcDbEntity
  8
AM_7
  6
AM_ISO08W050x2
100
AcDbLine
 10
597.750539212781
 20
460.8783307156893
 30
0.0
 11
597.750539212781
 21
464.8783307156893
 31
0.0
1001
GENIUS_GENOREF_13
1005
2519
  0
LINE
  5
2517
330
1F
100
AcDbEntity
  8
AM_7
  6
AM_ISO08W050x2
100
AcDbLine
 10
597.750539212781
 20
460.8783307156893
 30
0.0
 11
593.750539212781
 21
460.8783307156893
 31
0.0
1001
GENIUS_GENOREF_13
1005
2519
  0
LINE
  5
2518
330
1F
100
AcDbEntity
  8
AM_7
  6
AM_ISO08W050x2
100
AcDbLine
 10
597.750539212781
 20
460.8783307156893
 30
0.0
 11
597.750539212781
 21
456.8783307156893
 31
0.0
1001
GENIUS_GENOREF_13
1005
2519
  0
POINT
  5
2519
330
1F
100
AcDbEntity
  8
0
 60
     1
100
AcDbPoint
 10
0.0
 20
0.0
 30
0.0
1001
GENIUS_GENOLIS_13
1002
{
1000
ENT
1005
2518
1005
2517
1005
2516
1005
2515
1002
}
1001
GENIUS_GENOENT_13
1002
{
1000
MYREF
1005
2519
1002
}
1002
{
1000
GRP
1005
0
1002
}
1001
GENIUS_GENOBJ-N-CRS_13
1002
{
1000
OWNER
1000
GEN
1002
}
1001
GENIUS_GENODEF_13
1002
{
1000
HIER
1070
    10
1002
}
1002
{
1000
MANEDIT
1070
     0
1002
}
1002
{
1000
NOSEL
1070
     0
1002
}
1002
{
1000
BEHIND
1070
     0
1002
}
1002
{
1000
OTHER
1070
     0
1002
}
1002
{
1000
REACTOR
1002
}
  0
LINE
  5
251B
330
1F
100
AcDbEntity
  8
0
100
AcDbLine
 10
603.7505392127808
 20
447.8783307156893
 30
0.0
 11
591.7505392127808
 21
447.8783307156893
 31
0.0
  0
LINE
  5
2528
330
1F
100
AcDbEntity
  8
AM_7
100
AcDbLine
 10
620.2505392127808
 20
433.8783307156894
 30
0.0
 11
574.2863731776569
 21
433.8783307156894
 31
0.0
1001
GENIUS_GENOBJ-N-CEN_13
1002
{
1000
OWNER
1000
GEN
1002
}
1001
GENIUS_GENODEF_13
1002
{
1000
HIER
1070
     0
1002
}
1002
{
1000
MANEDIT
1070
     0
1002
}
1002
{
1000
NOSEL
1070
     0
1002
}
1002
{
1000
BEHIND
1070
     0
1002
}
1002
{
1000
OTHER
1070
     0
1002
}
1002
{
1000
REACTOR
1002
}
1001
GENIUS_GENCEN_19
1002
{
1040
1.5
1002
}
  0
LINE
  5
2540
330
1F
100
AcDbEntity
  8
AM_7
  6
AM_ISO08W050x2
100
AcDbLine
 10
589.2505392127809
 20
442.3783307156894
 30
0.0
 11
593.5205392127809
 21
442.3783307156894
 31
0.0
1001
GENIUS_GENOREF_13
1005
2544
  0
LINE
  5
2541
330
1F
100
AcDbEntity
  8
AM_7
  6
AM_ISO08W050x2
100
AcDbLine
 10
589.2505392127809
 20
442.3783307156894
 30
0.0
 11
589.2505392127809
 21
446.6483307156894
 31
0.0
1001
GENIUS_GENOREF_13
1005
2544
  0
LINE
  5
2542
330
1F
100
AcDbEntity
  8
AM_7
  6
AM_ISO08W050x2
100
AcDbLine
 10
589.2505392127809
 20
442.3783307156894
 30
0.0
 11
584.9805392127808
 21
442.3783307156894
 31
0.0
1001
GENIUS_GENOREF_13
1005
2544
  0
LINE
  5
2543
330
1F
100
AcDbEntity
  8
AM_7
  6
AM_ISO08W050x2
100
AcDbLine
 10
589.2505392127809
 20
442.3783307156894
 30
0.0
 11
589.2505392127809
 21
438.1083307156894
 31
0.0
1001
GENIUS_GENOREF_13
1005
2544
  0
POINT
  5
2544
330
1F
100
AcDbEntity
  8
0
 60
     1
100
AcDbPoint
 10
0.0
 20
0.0
 30
0.0
1001
GENIUS_GENODEF_13
1002
{
1000
HIER
1070
    10
1002
}
1002
{
1000
MANEDIT
1070
     0
1002
}
1002
{
1000
NOSEL
1070
     0
1002
}
1002
{
1000
BEHIND
1070
     0
1002
}
1002
{
1000
OTHER
1070
     0
1002
}
1002
{
1000
REACTOR
1002
}
1001
GENIUS_GENOLIS_13
1002
{
1000
ENT
1005
2543
1005
2542
1005
2541
1005
2540
1002
}
1001
GENIUS_GENOENT_13
1002
{
1000
MYREF
1005
2544
1002
}
1002
{
1000
GRP
1005
0
1002
}
1001
GENIUS_GENOBJ-N-CRS_13
1002
{
1000
OWNER
1000
GEN
1002
}
  0
LINE
  5
2552
330
1F
100
AcDbEntity
  8
AM_7
  6
AM_ISO08W050x2
100
AcDbLine
 10
606.250539212781
 20
442.3783307156892
 30
0.0
 11
610.5205392127809
 21
442.3783307156892
 31
0.0
1001
GENIUS_GENOREF_13
1005
2556
  0
LINE
  5
2553
330
1F
100
AcDbEntity
  8
AM_7
  6
AM_ISO08W050x2
100
AcDbLine
 10
606.250539212781
 20
442.3783307156892
 30
0.0
 11
606.250539212781
 21
446.6483307156892
 31
0.0
1001
GENIUS_GENOREF_13
1005
2556
  0
LINE
  5
2554
330
1F
100
AcDbEntity
  8
AM_7
  6
AM_ISO08W050x2
100
AcDbLine
 10
606.250539212781
 20
442.3783307156892
 30
0.0
 11
601.9805392127808
 21
442.3783307156892
 31
0.0
1001
GENIUS_GENOREF_13
1005
2556
  0
LINE
  5
2555
330
1F
100
AcDbEntity
  8
AM_7
  6
AM_ISO08W050x2
100
AcDbLine
 10
606.250539212781
 20
442.3783307156892
 30
0.0
 11
606.250539212781
 21
438.1083307156892
 31
0.0
1001
GENIUS_GENOREF_13
1005
2556
  0
POINT
  5
2556
330
1F
100
AcDbEntity
  8
0
 60
     1
100
AcDbPoint
 10
0.0
 20
0.0
 30
0.0
1001
GENIUS_GENODEF_13
1002
{
1000
HIER
1070
    10
1002
}
1002
{
1000
MANEDIT
1070
     0
1002
}
1002
{
1000
NOSEL
1070
     0
1002
}
1002
{
1000
BEHIND
1070
     0
1002
}
1002
{
1000
OTHER
1070
     0
1002
}
1002
{
1000
REACTOR
1002
}
1001
GENIUS_GENOLIS_13
1002
{
1000
ENT
1005
2555
1005
2554
1005
2553
1005
2552
1002
}
1001
GENIUS_GENOENT_13
1002
{
1000
MYREF
1005
2556
1002
}
1002
{
1000
GRP
1005
0
1002
}
1001
GENIUS_GENOBJ-N-CRS_13
1002
{
1000
OWNER
1000
GEN
1002
}
  0
LINE
  5
2564
330
1F
100
AcDbEntity
  8
AM_7
  6
AM_ISO08W050x2
100
AcDbLine
 10
606.250539212781
 20
425.3783307156893
 30
0.0
 11
610.5205392127809
 21
425.3783307156893
 31
0.0
1001
GENIUS_GENOREF_13
1005
2568
  0
LINE
  5
2565
330
1F
100
AcDbEntity
  8
AM_7
  6
AM_ISO08W050x2
100
AcDbLine
 10
606.250539212781
 20
425.3783307156893
 30
0.0
 11
606.250539212781
 21
429.6483307156893
 31
0.0
1001
GENIUS_GENOREF_13
1005
2568
  0
LINE
  5
2566
330
1F
100
AcDbEntity
  8
AM_7
  6
AM_ISO08W050x2
100
AcDbLine
 10
606.250539212781
 20
425.3783307156893
 30
0.0
 11
601.9805392127808
 21
425.3783307156893
 31
0.0
1001
GENIUS_GENOREF_13
1005
2568
  0
LINE
  5
2567
330
1F
100
AcDbEntity
  8
AM_7
  6
AM_ISO08W050x2
100
AcDbLine
 10
606.250539212781
 20
425.3783307156893
 30
0.0
 11
606.250539212781
 21
421.1083307156894
 31
0.0
1001
GENIUS_GENOREF_13
1005
2568
  0
POINT
  5
2568
330
1F
100
AcDbEntity
  8
0
 60
     1
100
AcDbPoint
 10
0.0
 20
0.0
 30
0.0
1001
GENIUS_GENOLIS_13
1002
{
1000
ENT
1005
2567
1005
2566
1005
2565
1005
2564
1002
}
1001
GENIUS_GENODEF_13
1002
{
1000
HIER
1070
    10
1002
}
1002
{
1000
MANEDIT
1070
     0
1002
}
1002
{
1000
NOSEL
1070
     0
1002
}
1002
{
1000
BEHIND
1070
     0
1002
}
1002
{
1000
OTHER
1070
     0
1002
}
1002
{
1000
REACTOR
1002
}
1001
GENIUS_GENOENT_13
1002
{
1000
MYREF
1005
2568
1002
}
1002
{
1000
GRP
1005
0
1002
}
1001
GENIUS_GENOBJ-N-CRS_13
1002
{
1000
OWNER
1000
GEN
1002
}
  0
LINE
  5
2576
330
1F
100
AcDbEntity
  8
AM_7
  6
AM_ISO08W050x2
100
AcDbLine
 10
589.2505392127809
 20
425.3783307156893
 30
0.0
 11
593.5205392127809
 21
425.3783307156893
 31
0.0
1001
GENIUS_GENOREF_13
1005
257A
  0
LINE
  5
2577
330
1F
100
AcDbEntity
  8
AM_7
  6
AM_ISO08W050x2
100
AcDbLine
 10
589.2505392127809
 20
425.3783307156893
 30
0.0
 11
589.2505392127809
 21
429.6483307156893
 31
0.0
1001
GENIUS_GENOREF_13
1005
257A
  0
LINE
  5
2578
330
1F
100
AcDbEntity
  8
AM_7
  6
AM_ISO08W050x2
100
AcDbLine
 10
589.2505392127809
 20
425.3783307156893
 30
0.0
 11
584.9805392127808
 21
425.3783307156893
 31
0.0
1001
GENIUS_GENOREF_13
1005
257A
  0
LINE
  5
2579
330
1F
100
AcDbEntity
  8
AM_7
  6
AM_ISO08W050x2
100
AcDbLine
 10
589.2505392127809
 20
425.3783307156893
 30
0.0
 11
589.2505392127809
 21
421.1083307156894
 31
0.0
1001
GENIUS_GENOREF_13
1005
257A
  0
POINT
  5
257A
330
1F
100
AcDbEntity
  8
0
 60
     1
100
AcDbPoint
 10
0.0
 20
0.0
 30
0.0
1001
GENIUS_GENODEF_13
1002
{
1000
HIER
1070
    10
1002
}
1002
{
1000
MANEDIT
1070
     0
1002
}
1002
{
1000
NOSEL
1070
     0
1002
}
1002
{
1000
BEHIND
1070
     0
1002
}
1002
{
1000
OTHER
1070
     0
1002
}
1002
{
1000
REACTOR
1002
}
1001
GENIUS_GENOBJ-N-CRS_13
1002
{
1000
OWNER
1000
GEN
1002
}
1001
GENIUS_GENOENT_13
1002
{
1000
MYREF
1005
257A
1002
}
1002
{
1000
GRP
1005
0
1002
}
1001
GENIUS_GENOLIS_13
1002
{
1000
ENT
1005
2579
1005
2578
1005
2577
1005
2576
1002
}
  0
LINE
  5
2597
330
1F
100
AcDbEntity
  8
AM_7
100
AcDbLine
 10
672.6216858763431
 20
433.8783307156893
 30
0.0
 11
730.622864519506
 21
433.8783307156893
 31
0.0
1001
GENIUS_GENODEF_13
1002
{
1000
HIER
1070
     0
1002
}
1002
{
1000
MANEDIT
1070
     0
1002
}
1002
{
1000
NOSEL
1070
     0
1002
}
1002
{
1000
BEHIND
1070
     0
1002
}
1002
{
1000
OTHER
1070
     0
1002
}
1002
{
1000
REACTOR
1002
}
1001
GENIUS_GENOBJ-N-CEN_13
1002
{
1000
OWNER
1000
GEN
1002
}
1001
GENIUS_GENCEN_19
1002
{
1040
1.5
1002
}
  0
LINE
  5
2689
330
1F
100
AcDbEntity
  8
AM_7
100
AcDbLine
 10
728.3143293941043
 20
332.233341037252
 30
0.0
 11
669.2125299635009
 21
332.233341037252
 31
0.0
1001
GENIUS_GENODEF_13
1002
{
1000
HIER
1070
     0
1002
}
1002
{
1000
MANEDIT
1070
     0
1002
}
1002
{
1000
NOSEL
1070
     0
1002
}
1002
{
1000
BEHIND
1070
     0
1002
}
1002
{
1000
OTHER
1070
     0
1002
}
1002
{
1000
REACTOR
1002
}
1001
GENIUS_GENOBJ-N-CEN_13
1002
{
1000
OWNER
1000
GEN
1002
}
1001
GENIUS_GENCEN_19
1002
{
1040
1.5
1002
}
  0
TEXT
  5
27C1
330
1F
100
AcDbEntity
  8
LOGO
 62
     7
100
AcDbText
 10
568.0763932291928
 20
271.4712122950061
 30
0.0
 40
3.839443981900452
  1
Order example:
 41
0.8
  7
CHINESET
100
AcDbText
  0
TEXT
  5
27C2
330
1F
100
AcDbEntity
  8
LOGO
 62
     7
100
AcDbText
 10
568.7652212304558
 20
276.8763544545018
 30
0.0
 40
5.759165972850677
  1
訂購代號：
  7
CHINESET
100
AcDbText
  0
LINE
  5
27C3
330
1F
100
AcDbEntity
  8
LOGO
 62
     4
100
AcDbLine
 10
566.4081417964118
 20
255.2903454913661
 30
0.0
 11
566.4081417964118
 21
284.0861753556197
 31
0.0
  0
TEXT
  5
27C4
330
1F
100
AcDbEntity
  8
LOGO
  6
Continuous
100
AcDbText
 10
513.4009076220539
 20
260.9472428115025
 30
0.0
 40
4.319374479638009
  1
金器工業股份有限公司
  7
CHINESET
100
AcDbText
  0
TEXT
  5
27C5
330
1F
100
AcDbEntity
  8
LOGO
  6
Continuous
100
AcDbText
 10
505.4670712490579
 20
256.6270220731186
 30
0.0
 40
2.879582986425338
  1
MINDMAN INDUSTRIAL CO., LTD.
 41
0.85
  7
CHINESET
100
AcDbText
  0
LINE
  5
27C6
330
1F
100
AcDbEntity
  8
LOGO
 62
     4
100
AcDbLine
 10
566.4081417964118
 20
278.327009382769
 30
0.0
 11
524.1742579955065
 21
278.327009382769
 31
0.0
  0
LINE
  5
27C7
330
1F
100
AcDbEntity
  8
LOGO
 62
     4
100
AcDbLine
 10
566.4081417964118
 20
272.5678434099183
 30
0.0
 11
524.1742579955065
 21
272.5678434099183
 31
0.0
  0
LINE
  5
27C8
330
1F
100
AcDbEntity
  8
LOGO
 62
     4
100
AcDbLine
 10
566.4081417964118
 20
266.8086774370679
 30
0.0
 11
503.0573160950543
 21
266.8086774370679
 31
0.0
  0
LINE
  5
27C9
330
1F
100
AcDbEntity
  8
LOGO
 62
     4
100
AcDbLine
 10
524.1742579955065
 20
266.8086774370679
 30
0.0
 11
524.1742579955065
 21
284.0861753556197
 31
0.0
  0
TEXT
  5
27CA
330
1F
100
AcDbEntity
  8
LOGO
100
AcDbText
 10
553.0391241644734
 20
268.2484689302801
 30
0.0
 40
2.879582986425338
  1
mm
  7
CHINESET
 72
     1
 11
556.6043221476665
 21
269.6882604234928
 31
0.0
100
AcDbText
 73
     2
  0
TEXT
  5
27CB
330
1F
100
AcDbEntity
  8
LOGO
100
AcDbText
 10
551.5307711715839
 20
279.7668008759815
 30
0.0
 40
2.879582986425338
  1
1 : 1
  7
CHINESET
 72
     1
 11
556.6043221476665
 21
281.2065923691942
 31
0.0
100
AcDbText
 73
     2
  0
LINE
  5
27CC
330
1F
100
AcDbEntity
  8
LOGO
 62
     4
100
AcDbLine
 10
547.2109218869094
 20
266.8086774370679
 30
0.0
 11
547.2109218869094
 21
284.0861753556197
 31
0.0
  0
TEXT
  5
27CD
330
1F
100
AcDbEntity
  8
LOGO
100
AcDbText
 10
526.5486284311886
 20
279.7682179935929
 30
188.7231250944717
 40
2.879582986425338
  1
比例 Scale:
 41
0.9
  7
CHINESET
 72
     4
 11
535.692589941208
 21
281.2065923691942
 31
188.7231250944717
100
AcDbText
  0
TEXT
  5
27CE
330
1F
100
AcDbEntity
  8
LOGO
100
AcDbText
 10
526.3827953038453
 20
274.0481408481908
 30
188.7231250944717
 40
2.879582986425338
  1
投影  View:
 41
0.9
  7
CHINESET
 72
     4
 11
535.692589941208
 21
275.4474263963435
 31
188.7231250944717
100
AcDbText
  0
TEXT
  5
27CF
330
1F
100
AcDbEntity
  8
LOGO
100
AcDbText
 10
526.6643259618931
 20
268.2484689302801
 30
188.7231250944717
 40
2.879582986425338
  1
單位  Unit:
 41
0.9
  7
CHINESET
 72
     4
 11
535.692589941208
 21
269.6882604234928
 31
188.7231250944717
100
AcDbText
  0
LWPOLYLINE
  5
27D0
330
1F
100
AcDbEntity
  8
LOGO
 62
     4
100
AcDbPolyline
 90
        4
 70
     1
 43
0.0
 10
503.0573160950543
 20
284.0861753556197
 10
899.0573160950541
 20
284.0861753556197
 10
899.0573160950541
 20
543.2903454913655
 10
503.0573160950543
 20
543.2903454913655
1001
GENIUS_GENREC_14
1002
{
1000
PYDIR
1011
503.0573160950543
1021
543.2903454913655
1031
0.0
1002
}
1002
{
1000
PXDIR
1011
899.0573160950541
1021
284.0861753556197
1031
0.0
1002
}
1002
{
1000
PORI
1011
503.0573160950543
1021
284.0861753556197
1031
0.0
1002
}
1002
{
1000
PINS
1011
503.0573160950543
1021
284.0861753556197
1031
0.0
1002
}
1002
{
1000
PINS2
1011
899.0573160950541
1021
543.2903454913655
1031
0.0
1002
}
1002
{
1000
C
1070
     1
1002
}
1001
GENIUS_GENODEF_13
1002
{
1000
HIER
1070
     0
1002
}
1002
{
1000
MANEDIT
1070
     0
1002
}
1002
{
1000
NOSEL
1070
     0
1002
}
1002
{
1000
BEHIND
1070
     0
1002
}
1002
{
1000
OTHER
1070
     0
1002
}
1002
{
1000
REACTOR
1002
}
1001
GENIUS_GENOBJ-N-REC_13
1002
{
1000
OWNER
1000
GEN
1002
}
  0
SOLID
  5
27D1
330
1F
100
AcDbEntity
  8
LOGO
 62
     5
100
AcDbTrace
 10
506.0449296572622
 20
271.5955742756376
 30
0.0
 11
507.2899857803349
 21
271.5955742756373
 31
0.0
 12
512.4848751214313
 22
283.4021409599484
 32
0.0
 13
513.7299312445048
 23
283.4021409599478
 33
0.0
  0
SOLID
  5
27D2
330
1F
100
AcDbEntity
  8
LOGO
 62
     5
100
AcDbTrace
 10
507.8051814174698
 20
271.5955742756376
 30
0.0
 11
509.0502375405426
 21
271.5955742756376
 31
0.0
 12
513.7299312445048
 22
282.4576156252031
 32
0.0
 13
512.4848751214313
 23
277.8924098406029
 33
0.0
  0
SOLID
  5
27D3
330
1F
100
AcDbEntity
  8
LOGO
 62
     2
100
AcDbTrace
 10
507.2899857803349
 20
271.5955742756373
 30
0.0
 11
507.8051814174698
 21
271.5955742756376
 31
0.0
 12
513.7299312445048
 22
283.4021409599478
 32
0.0
 13
514.245126881639
 23
283.4021409599478
 33
0.0
  0
SOLID
  5
27D4
330
1F
100
AcDbEntity
  8
LOGO
 62
     5
100
AcDbTrace
 10
504.048799366815
 20
267.3022772995249
 30
0.0
 11
504.4781290644267
 21
267.3022772995249
 31
0.0
 12
505.6871549092532
 22
269.4489257875811
 32
0.0
 13
506.1164846068636
 23
269.4489257875811
 33
0.0
  0
SOLID
  5
27D5
330
1F
100
AcDbEntity
  8
LOGO
 62
     5
100
AcDbTrace
 10
505.6871549092532
 20
269.4489257875811
 30
0.0
 11
506.1164846068636
 21
269.4489257875811
 31
0.0
 12
505.6871549092532
 22
267.3022772995249
 32
0.0
 13
506.1164846068636
 23
267.3022772995249
 33
0.0
  0
SOLID
  5
27D6
330
1F
100
AcDbEntity
  8
LOGO
 62
     5
100
AcDbTrace
 10
505.6871549092532
 20
267.3022772995249
 30
0.0
 11
506.1164846068636
 21
267.3022772995249
 31
0.0
 12
507.3255104516921
 22
269.4489257875811
 32
0.0
 13
507.7548401493032
 23
269.4489257875811
 33
0.0
  0
SOLID
  5
27D7
330
1F
100
AcDbEntity
  8
LOGO
 62
     5
100
AcDbTrace
 10
507.3255104516921
 20
269.4489257875811
 30
0.0
 11
507.7548401493032
 21
269.4489257875811
 31
0.0
 12
507.3255104516921
 22
267.3022772995249
 32
0.0
 13
507.7548401493032
 23
267.3022772995249
 33
0.0
  0
POLYLINE
  5
27D8
330
1F
100
AcDbEntity
  8
LOGO
 62
     5
100
AcDb2dPolyline
 66
     1
 10
0.0
 20
0.0
 30
0.0
 40
0.4300177259728505
 41
0.4300177259728505
  0
VERTEX
  5
27D9
330
27D8
100
AcDbEntity
  8
LOGO
 62
     5
100
AcDbVertex
100
AcDb2dVertex
 10
521.7164956626176
 20
268.5902663923585
 30
0.0
 42
1.0
  0
VERTEX
  5
27DA
330
27D8
100
AcDbEntity
  8
LOGO
 62
     5
100
AcDbVertex
100
AcDb2dVertex
 10
520.4264424846989
 20
268.5902663923585
 30
0.0
 42
1.0
  0
SEQEND
  5
27DB
330
27D8
100
AcDbEntity
  8
LOGO
 62
     5
  0
POLYLINE
  5
27DC
330
1F
100
AcDbEntity
  8
LOGO
 62
     5
100
AcDb2dPolyline
 66
     1
 10
0.0
 20
0.0
 30
0.0
 70
     1
  0
VERTEX
  5
27DD
330
27DC
100
AcDbEntity
  8
LOGO
 62
     5
100
AcDbVertex
100
AcDb2dVertex
 10
517.9946348627563
 20
268.3756015435527
 30
0.0
 42
1.000000057330635
  0
VERTEX
  5
27DE
330
27DC
100
AcDbEntity
  8
LOGO
 62
     5
100
AcDbVertex
100
AcDb2dVertex
 10
519.2826239555903
 20
268.3756015435527
 30
0.0
 42
1.000000057330635
  0
SEQEND
  5
27DF
330
27DC
100
AcDbEntity
  8
LOGO
 62
     5
  0
CIRCLE
  5
27E0
330
1F
100
AcDbEntity
  8
LOGO
 62
     5
100
AcDbCircle
 10
518.6386294091743
 20
268.3756015435527
 30
0.0
 40
0.6439945464169412
  0
POLYLINE
  5
27E1
330
1F
100
AcDbEntity
  8
LOGO
 62
     5
100
AcDb2dPolyline
 66
     1
 10
0.0
 20
0.0
 30
0.0
 70
     1
 40
0.4300177259728505
 41
0.4300177259728505
  0
VERTEX
  5
27E2
330
27E1
100
AcDbEntity
  8
LOGO
 62
     5
100
AcDbVertex
100
AcDb2dVertex
 10
517.778593957228
 20
268.3756015435527
 30
0.0
 42
1.0
  0
VERTEX
  5
27E3
330
27E1
100
AcDbEntity
  8
LOGO
 62
     5
100
AcDbVertex
100
AcDb2dVertex
 10
519.4986648611193
 20
268.3756015435527
 30
0.0
 42
1.0
  0
SEQEND
  5
27E4
330
27E1
100
AcDbEntity
  8
LOGO
 62
     5
  0
LINE
  5
27E5
330
1F
100
AcDbEntity
  8
LOGO
100
AcDbLine
 10
521.9301284688802
 20
267.3022772995249
 30
0.0
 11
521.9301284688802
 21
268.5902663923585
 31
0.0
  0
SOLID
  5
27E6
330
1F
100
AcDbEntity
  8
LOGO
 62
     5
100
AcDbTrace
 10
519.2825810226224
 20
269.4489257875811
 30
0.0
 11
519.7119107202329
 21
269.4489257875811
 31
0.0
 12
519.2825810226224
 22
267.3022772995249
 32
0.0
 13
519.7119107202329
 23
267.3022772995249
 33
0.0
  0
SOLID
  5
27E7
330
1F
100
AcDbEntity
  8
LOGO
 62
     5
100
AcDbTrace
 10
520.2128096784352
 20
267.3022772995249
 30
0.0
 11
520.6421393760469
 21
267.3022772995249
 31
0.0
 12
520.2128096784352
 22
269.4489257875811
 32
0.0
 13
520.6421393760469
 23
269.4489257875811
 33
0.0
  0
SOLID
  5
27E8
330
1F
100
AcDbEntity
  8
LOGO
 62
     5
100
AcDbTrace
 10
521.5007987712698
 20
268.5902663923585
 30
0.0
 11
521.9301284688802
 21
268.5902663923585
 31
0.0
 12
521.5007987712698
 22
267.3022772995249
 32
0.0
 13
521.9301284688802
 23
267.3022772995249
 33
0.0
  0
SOLID
  5
27E9
330
1F
100
AcDbEntity
  8
LOGO
 62
     5
100
AcDbTrace
 10
520.1698767086738
 20
282.4576156252031
 30
0.0
 11
518.9248205856018
 21
277.8924098406029
 31
0.0
 12
520.1698767086738
 22
271.5955742756373
 32
0.0
 13
518.9248205856018
 23
271.5955742756373
 33
0.0
  0
SOLID
  5
27EA
330
1F
100
AcDbEntity
  8
LOGO
 62
     5
100
AcDbTrace
 10
520.6850723458082
 20
271.5955742756373
 30
0.0
 11
521.9301284688802
 21
271.5955742756373
 31
0.0
 12
520.6850723458082
 22
283.4021409599478
 32
0.0
 13
521.9301284688802
 23
283.4021409599484
 33
0.0
  0
SOLID
  5
27EB
330
1F
100
AcDbEntity
  8
LOGO
 62
     2
100
AcDbTrace
 10
520.1698767086738
 20
283.4021409599484
 30
0.0
 11
520.6850723458082
 21
283.4021409599478
 31
0.0
 12
520.1698767086738
 22
271.5955742756373
 32
0.0
 13
520.6850723458082
 23
271.5955742756373
 33
0.0
  0
POLYLINE
  5
27EC
330
1F
100
AcDbEntity
  8
LOGO
 62
     5
100
AcDb2dPolyline
 66
     1
 10
0.0
 20
0.0
 30
0.0
 40
0.4300177259728505
 41
0.4300177259728505
  0
VERTEX
  5
27ED
330
27EC
100
AcDbEntity
  8
LOGO
 62
     5
100
AcDbVertex
100
AcDb2dVertex
 10
515.5627413748761
 20
268.5902663923585
 30
0.0
 42
1.0
  0
VERTEX
  5
27EE
330
27EC
100
AcDbEntity
  8
LOGO
 62
     5
100
AcDbVertex
100
AcDb2dVertex
 10
514.2726881969573
 20
268.5902663923585
 30
0.0
 42
1.0
  0
SEQEND
  5
27EF
330
27EC
100
AcDbEntity
  8
LOGO
 62
     5
  0
POLYLINE
  5
27F0
330
1F
100
AcDbEntity
  8
LOGO
 62
     5
100
AcDb2dPolyline
 66
     1
 10
0.0
 20
0.0
 30
0.0
 40
0.4300177259728505
 41
0.4300177259728505
  0
VERTEX
  5
27F1
330
27F0
100
AcDbEntity
  8
LOGO
 62
     5
100
AcDbVertex
100
AcDb2dVertex
 10
516.8507304677087
 20
268.5902663923585
 30
0.0
 42
1.0
  0
VERTEX
  5
27F2
330
27F0
100
AcDbEntity
  8
LOGO
 62
     5
100
AcDbVertex
100
AcDb2dVertex
 10
515.5606772897906
 20
268.5902663923585
 30
0.0
 42
1.0
  0
SEQEND
  5
27F3
330
27F0
100
AcDbEntity
  8
LOGO
 62
     5
  0
POLYLINE
  5
27F4
330
1F
100
AcDbEntity
  8
LOGO
 62
     5
100
AcDb2dPolyline
 66
     1
 10
0.0
 20
0.0
 30
0.0
 40
0.4300177259728505
 41
0.4300177259728505
  0
VERTEX
  5
27F5
330
27F4
100
AcDbEntity
  8
LOGO
 62
     5
100
AcDbVertex
100
AcDb2dVertex
 10
510.6969761799671
 20
268.5902663923585
 30
0.0
 42
1.0
  0
VERTEX
  5
27F6
330
27F4
100
AcDbEntity
  8
LOGO
 62
     5
100
AcDbVertex
100
AcDb2dVertex
 10
509.4069230020489
 20
268.5902663923585
 30
0.0
 42
1.0
  0
SEQEND
  5
27F7
330
27F4
100
AcDbEntity
  8
LOGO
 62
     5
  0
SOLID
  5
27F8
330
1F
100
AcDbEntity
  8
LOGO
 62
     5
100
AcDbTrace
 10
509.1932901957859
 20
269.4489257875811
 30
0.0
 11
509.6226198933963
 21
269.4489257875811
 31
0.0
 12
509.1932901957859
 22
267.3022772995249
 32
0.0
 13
509.6226198933963
 23
267.3022772995249
 33
0.0
  0
SOLID
  5
27F9
330
1F
100
AcDbEntity
  8
LOGO
 62
     5
100
AcDbTrace
 10
510.4812792886199
 20
268.5902663923585
 30
0.0
 11
510.9106089862316
 21
268.5902663923585
 31
0.0
 12
510.4812792886199
 22
267.3022772995249
 32
0.0
 13
510.9106089862316
 23
267.3022772995249
 33
0.0
  0
POLYLINE
  5
27FA
330
1F
100
AcDbEntity
  8
LOGO
 62
     5
100
AcDb2dPolyline
 66
     1
 10
0.0
 20
0.0
 30
0.0
 70
     1
 40
0.4300177259728505
 41
0.4300177259728505
  0
VERTEX
  5
27FB
330
27FA
100
AcDbEntity
  8
LOGO
 62
     5
100
AcDbVertex
100
AcDb2dVertex
 10
511.6248396694857
 20
268.3756015435527
 30
0.0
 42
1.0
  0
VERTEX
  5
27FC
330
27FA
100
AcDbEntity
  8
LOGO
 62
     5
100
AcDbVertex
100
AcDb2dVertex
 10
513.3449105733777
 20
268.3756015435527
 30
0.0
 42
1.0
  0
SEQEND
  5
27FD
330
27FA
100
AcDbEntity
  8
LOGO
 62
     5
  0
SOLID
  5
27FE
330
1F
100
AcDbEntity
  8
LOGO
 62
     5
100
AcDbTrace
 10
513.1288267348796
 20
270.0929203339985
 30
0.0
 11
513.5581564324906
 21
270.0929203339985
 31
0.0
 12
513.1288267348796
 22
267.3022772995249
 32
0.0
 13
513.5581564324906
 23
267.3022772995249
 33
0.0
  0
SOLID
  5
27FF
330
1F
100
AcDbEntity
  8
LOGO
 62
     5
100
AcDbTrace
 10
514.0590553906949
 20
269.4489257875811
 30
0.0
 11
514.4883850883053
 21
269.4489257875811
 31
0.0
 12
514.0590553906949
 22
267.3022772995249
 32
0.0
 13
514.4883850883053
 23
267.3022772995249
 33
0.0
  0
SOLID
  5
2800
330
1F
100
AcDbEntity
  8
LOGO
 62
     5
100
AcDbTrace
 10
515.3470444835274
 20
268.5902663923585
 30
0.0
 11
515.7763741811392
 21
268.5902663923585
 31
0.0
 12
515.3470444835274
 22
267.3022772995249
 32
0.0
 13
515.7763741811392
 23
267.3022772995249
 33
0.0
  0
SOLID
  5
2801
330
1F
100
AcDbEntity
  8
LOGO
 62
     5
100
AcDbTrace
 10
516.6350335763614
 20
268.5902663923585
 30
0.0
 11
517.0643632739726
 21
268.5902663923585
 31
0.0
 12
516.6350335763614
 22
267.3022772995243
 32
0.0
 13
517.0643632739726
 23
267.3022772995243
 33
0.0
  0
SOLID
  5
2802
330
1F
100
AcDbEntity
  8
LOGO
 62
     5
100
AcDbTrace
 10
508.2630615399713
 20
269.7494565759092
 30
0.0
 11
508.6923912375836
 21
269.7494565759092
 31
0.0
 12
508.2630615399713
 22
270.0929203339985
 32
0.0
 13
508.6923912375836
 23
270.0929203339985
 33
0.0
  0
SOLID
  5
2803
330
1F
100
AcDbEntity
  8
LOGO
 62
     5
100
AcDbTrace
 10
508.2630615399713
 20
269.4489257875811
 30
0.0
 11
508.6923912375836
 21
269.4489257875811
 31
0.0
 12
508.2630615399713
 22
267.3022772995243
 32
0.0
 13
508.6923912375836
 23
267.3022772995249
 33
0.0
  0
SOLID
  5
2804
330
1F
100
AcDbEntity
  8
LOGO
 62
     5
100
AcDbTrace
 10
512.4848751214313
 20
271.5955742756376
 30
0.0
 11
513.7299312445048
 21
271.5955742756376
 31
0.0
 12
512.4848751214313
 22
277.8924098406029
 32
0.0
 13
513.7299312445048
 23
282.4576156252031
 33
0.0
  0
SOLID
  5
2805
330
1F
100
AcDbEntity
  8
LOGO
 62
     5
100
AcDbTrace
 10
514.245126881639
 20
283.4021409599478
 30
0.0
 11
515.490183004711
 21
283.4021409599484
 31
0.0
 12
514.245126881639
 22
272.5400996103823
 32
0.0
 13
515.490183004711
 23
277.1053053949824
 33
0.0
  0
SOLID
  5
2806
330
1F
100
AcDbEntity
  8
LOGO
 62
     2
100
AcDbTrace
 10
513.7299312445048
 20
283.4021409599478
 30
0.0
 11
514.245126881639
 21
283.4021409599478
 31
0.0
 12
513.7299312445048
 22
271.5955742756376
 32
0.0
 13
514.245126881639
 23
271.5955742756376
 33
0.0
  0
SOLID
  5
2807
330
1F
100
AcDbEntity
  8
LOGO
 62
     5
100
AcDbTrace
 10
514.245126881639
 20
272.5400996103823
 30
0.0
 11
515.490183004711
 21
277.1053053949824
 31
0.0
 12
520.1698767086738
 22
283.4021409599484
 32
0.0
 13
518.9248205856018
 23
283.4021409599484
 33
0.0
  0
SOLID
  5
2808
330
1F
100
AcDbEntity
  8
LOGO
 62
     5
100
AcDbTrace
 10
514.245126881639
 20
271.5955742756376
 30
0.0
 11
515.490183004711
 21
271.5955742756376
 31
0.0
 12
520.1698767086738
 22
282.4576156252031
 32
0.0
 13
518.9248205856018
 23
277.8924098406029
 33
0.0
  0
SOLID
  5
2809
330
1F
100
AcDbEntity
  8
LOGO
 62
     2
100
AcDbTrace
 10
513.7299312445048
 20
271.5955742756376
 30
0.0
 11
514.245126881639
 21
271.5955742756376
 31
0.0
 12
520.1698767086738
 22
283.4021409599484
 32
0.0
 13
520.6850723458082
 23
283.4021409599478
 33
0.0
  0
LWPOLYLINE
  5
280A
330
1F
100
AcDbEntity
  8
LOGO
 62
     4
100
AcDbPolyline
 90
        4
 70
     1
 43
0.0
 10
503.0573160950543
 20
284.0861753556197
 10
899.0573160950541
 20
284.0861753556197
 10
899.0573160950541
 20
255.2903454913658
 10
503.0573160950543
 20
255.2903454913658
1001
GENIUS_GENREC_14
1002
{
1000
PYDIR
1011
503.0573160950543
1021
255.2903454913658
1031
0.0
1002
}
1002
{
1000
PXDIR
1011
899.0573160950541
1021
284.0861753556197
1031
0.0
1002
}
1002
{
1000
PORI
1011
503.0573160950543
1021
284.0861753556197
1031
0.0
1002
}
1002
{
1000
PINS
1011
503.0573160950543
1021
284.0861753556197
1031
0.0
1002
}
1002
{
1000
PINS2
1011
899.0573160950541
1021
255.2903454913658
1031
0.0
1002
}
1002
{
1000
C
1070
     1
1002
}
1001
GENIUS_GENOBJ-N-REC_13
1002
{
1000
OWNER
1000
GEN
1002
}
1001
GENIUS_GENODEF_13
1002
{
1000
HIER
1070
     0
1002
}
1002
{
1000
MANEDIT
1070
     0
1002
}
1002
{
1000
NOSEL
1070
     0
1002
}
1002
{
1000
BEHIND
1070
     0
1002
}
1002
{
1000
OTHER
1070
     0
1002
}
1002
{
1000
REACTOR
1002
}
  0
LINE
  5
280B
330
1F
100
AcDbEntity
  8
LOGO
 62
     4
100
AcDbLine
 10
625.2127476603862
 20
268.2484689302806
 30
0.0
 11
625.2127476603862
 21
257.6899979800539
 31
0.0
  0
LINE
  5
280C
330
1F
100
AcDbEntity
  8
LOGO
 62
     4
100
AcDbLine
 10
606.0155277508839
 20
268.2484689302806
 30
0.0
 11
606.0155277508839
 21
257.6899979800539
 31
0.0
  0
LINE
  5
280D
330
1F
100
AcDbEntity
  8
LOGO
 62
     4
100
AcDbLine
 10
625.2127476603862
 20
257.6899979800539
 30
0.0
 11
606.0155277508839
 21
257.6899979800539
 31
0.0
  0
LINE
  5
280E
330
1F
100
AcDbEntity
  8
LOGO
 62
     4
100
AcDbLine
 10
628.6559730697072
 20
281.2065923691942
 30
0.0
 11
606.0155277508839
 21
281.2065923691942
 31
0.0
  0
LINE
  5
280F
330
1F
100
AcDbEntity
  8
LOGO
 62
     4
100
AcDbLine
 10
628.6559730697072
 20
272.5678434099183
 30
0.0
 11
606.0155277508839
 21
272.5678434099183
 31
0.0
  0
LINE
  5
2810
330
1F
100
AcDbEntity
  8
LOGO
 62
     4
100
AcDbLine
 10
606.0155277508839
 20
281.2065923691942
 30
0.0
 11
606.0155277508839
 21
272.5678434099183
 31
0.0
  0
LINE
  5
2811
330
1F
100
AcDbEntity
  8
LOGO
 62
     4
100
AcDbLine
 10
628.6559730697072
 20
281.2065923691942
 30
0.0
 11
628.6559730697072
 21
272.5678434099183
 31
0.0
  0
LINE
  5
2812
330
1F
100
AcDbEntity
  8
LOGO
 62
     4
100
AcDbLine
 10
616.6157504102955
 20
272.5678434099183
 30
0.0
 11
616.6157504102955
 21
268.2484689302806
 31
0.0
  0
TEXT
  5
2813
330
1F
100
AcDbEntity
  8
LOGO
  6
Continuous
100
AcDbText
 10
607.5504981460071
 20
274.3711696253175
 30
0.0
 40
5.04
  1
MCHQ
  7
CHINESET
100
AcDbText
  0
LINE
  5
2814
330
1F
100
AcDbEntity
  8
LOGO
 62
     4
100
AcDbLine
 10
625.2127476603862
 20
268.2484689302806
 30
0.0
 11
606.0155277508839
 21
268.2484689302806
 31
0.0
  0
TEXT
  5
2815
330
1F
100
AcDbEntity
  8
LOGO
  6
Continuous
100
AcDbText
 10
612.17585484237
 20
259.1803037649206
 30
188.7231250944717
 40
2.159999999999999
  1
Model
 41
0.8
  7
CHINESET
100
AcDbText
  0
TEXT
  5
2816
330
1F
100
AcDbEntity
  8
LOGO
100
AcDbText
 10
611.6009330596511
 20
263.184478251696
 30
188.7231250944717
 40
3.599999999999999
  1
型號
  7
CHINESET
100
AcDbText
  0
LINE
  5
2817
330
1F
100
AcDbEntity
  8
LOGO
  6
Continuous
100
AcDbLine
 10
629.5743434823555
 20
276.8566180754977
 30
0.0
 11
633.3888998088284
 21
276.8566180754977
 31
0.0
  0
LINE
  5
2818
330
1F
100
AcDbEntity
  8
LOGO
 62
     4
100
AcDbLine
 10
647.0488641516651
 20
268.2484689302806
 30
0.0
 11
647.0488641516651
 21
257.6899979800539
 31
0.0
  0
LINE
  5
2819
330
1F
100
AcDbEntity
  8
LOGO
 62
     4
100
AcDbLine
 10
627.8516442421627
 20
268.2484689302806
 30
0.0
 11
627.8516442421627
 21
257.6899979800539
 31
0.0
  0
LINE
  5
281A
330
1F
100
AcDbEntity
  8
LOGO
 62
     4
100
AcDbLine
 10
647.0488641516651
 20
257.6899979800539
 30
0.0
 11
627.8516442421627
 21
257.6899979800539
 31
0.0
  0
LINE
  5
281B
330
1F
100
AcDbEntity
  8
LOGO
 62
     4
100
AcDbLine
 10
649.6806074138096
 20
281.2065923691942
 30
0.0
 11
634.9191752138866
 21
281.2065923691942
 31
0.0
  0
LINE
  5
281C
330
1F
100
AcDbEntity
  8
LOGO
 62
     4
100
AcDbLine
 10
649.6806074138096
 20
272.5678434099183
 30
0.0
 11
634.9191752138866
 21
272.5678434099183
 31
0.0
  0
LINE
  5
281D
330
1F
100
AcDbEntity
  8
LOGO
 62
     4
100
AcDbLine
 10
634.9191752138866
 20
281.2065923691942
 30
0.0
 11
634.9191752138866
 21
272.5678434099183
 31
0.0
  0
LINE
  5
281E
330
1F
100
AcDbEntity
  8
LOGO
 62
     4
100
AcDbLine
 10
649.6806074138096
 20
281.2065923691942
 30
0.0
 11
649.6806074138096
 21
272.5678434099183
 31
0.0
  0
LINE
  5
281F
330
1F
100
AcDbEntity
  8
LOGO
 62
     4
100
AcDbLine
 10
641.5564859423473
 20
272.5678434099183
 30
0.0
 11
641.5564859423473
 21
268.2484689302806
 31
0.0
  0
TEXT
  5
2820
330
1F
100
AcDbEntity
  8
LOGO
  6
Continuous
100
AcDbText
 10
637.8054970267019
 20
274.3711696253175
 30
0.0
 40
5.04
  1
80
  7
CHINESET
100
AcDbText
  0
LINE
  5
2821
330
1F
100
AcDbEntity
  8
LOGO
 62
     4
100
AcDbLine
 10
647.0488641516651
 20
268.2484689302806
 30
0.0
 11
627.8516442421627
 21
268.2484689302806
 31
0.0
  0
TEXT
  5
2822
330
1F
100
AcDbEntity
  8
LOGO
  6
Continuous
100
AcDbText
 10
630.4869351708163
 20
259.1803037649206
 30
188.7231250944717
 40
2.159999999999999
  1
Body width
 41
0.8
  7
CHINESET
100
AcDbText
  0
TEXT
  5
2823
330
1F
100
AcDbEntity
  8
LOGO
100
AcDbText
 10
630.2449589391338
 20
263.184478251696
 30
188.7231250944717
 40
3.599999999999999
  1
本體寬度
  7
CHINESET
100
AcDbText
  0
LINE
  5
2824
330
1F
100
AcDbEntity
  8
LOGO
 62
     4
100
AcDbLine
 10
665.1338255740609
 20
281.2065923691942
 30
0.0
 11
651.4764159841747
 21
281.2065923691942
 31
0.0
  0
LINE
  5
2825
330
1F
100
AcDbEntity
  8
LOGO
 62
     4
100
AcDbLine
 10
665.1338255740609
 20
272.5678434099183
 30
0.0
 11
651.4764159841747
 21
272.5678434099183
 31
0.0
  0
LINE
  5
2826
330
1F
100
AcDbEntity
  8
LOGO
 62
     4
100
AcDbLine
 10
651.4764159841747
 20
281.2065923691942
 30
0.0
 11
651.4764159841747
 21
272.5678434099183
 31
0.0
  0
LINE
  5
2827
330
1F
100
AcDbEntity
  8
LOGO
 62
     4
100
AcDbLine
 10
665.1338255740609
 20
281.2065923691942
 30
0.0
 11
665.1338255740609
 21
272.5678434099183
 31
0.0
  0
TEXT
  5
2828
330
1F
100
AcDbEntity
  8
LOGO
  6
Continuous
100
AcDbText
 10
653.4840836911537
 20
274.3711696253175
 30
0.0
 40
5.04
  1
(M)
  7
CHINESET
100
AcDbText
  0
LINE
  5
2829
330
1F
100
AcDbEntity
  8
LOGO
 62
     4
100
AcDbLine
 10
667.1889345639371
 20
268.2484689302806
 30
0.0
 11
667.1889345639371
 21
257.6899979800539
 31
0.0
  0
LINE
  5
282A
330
1F
100
AcDbEntity
  8
LOGO
 62
     4
100
AcDbLine
 10
651.5497385054105
 20
268.2484689302806
 30
0.0
 11
651.5497385054105
 21
257.6899979800539
 31
0.0
  0
LINE
  5
282B
330
1F
100
AcDbEntity
  8
LOGO
 62
     4
100
AcDbLine
 10
667.1889345639371
 20
257.6899979800539
 30
0.0
 11
651.5497385054105
 21
257.6899979800539
 31
0.0
  0
LINE
  5
282C
330
1F
100
AcDbEntity
  8
LOGO
 62
     4
100
AcDbLine
 10
667.1889345639371
 20
268.2484689302806
 30
0.0
 11
651.5497385054105
 21
268.2484689302806
 31
0.0
  0
TEXT
  5
282D
330
1F
100
AcDbEntity
  8
LOGO
  6
Continuous
100
AcDbText
 10
654.9492972414699
 20
259.1803037649206
 30
188.7231250944717
 40
2.159999999999999
  1
Magnet
 41
0.8
  7
CHINESET
100
AcDbText
  0
TEXT
  5
282E
330
1F
100
AcDbEntity
  8
LOGO
100
AcDbText
 10
653.7974023427048
 20
263.184478251696
 30
188.7231250944717
 40
3.599999999999999
  1
附磁石
  7
CHINESET
100
AcDbText
  0
LINE
  5
282F
330
1F
100
AcDbEntity
  8
LOGO
 62
     4
100
AcDbLine
 10
658.3051207791186
 20
272.5678434099183
 30
0.0
 11
658.3051207791186
 21
268.2484689302806
 31
0.0
  0
TEXT
  5
2830
330
1F
100
AcDbEntity
  8
LOGO
100
AcDbText
 10
567.550353047794
 20
256.822272274613
 30
0.0
 40
2.879999999999999
  1
10706052
 41
0.7
  7
CHINESET
 72
     1
 11
574.750353047794
 21
256.822272274613
 31
0.0
100
AcDbText
  0
LINE
  5
2831
330
1F
100
AcDbEntity
  8
LOGO
 62
     4
100
AcDbLine
 10
583.6881417964105
 20
261.0495114642175
 30
0.0
 11
583.6881417964118
 21
255.2903454913665
 31
0.0
  0
LINE
  5
2832
330
1F
100
AcDbEntity
  8
LOGO
 62
     4
100
AcDbLine
 10
583.6881417964105
 20
261.0495114642175
 30
0.0
 11
566.4081417964118
 21
261.0495114642175
 31
0.0
  0
CIRCLE
  5
2833
330
1F
100
AcDbEntity
  8
LOGO
  6
Continuous
100
AcDbCircle
 10
552.5428299588222
 20
275.4535858454239
 30
0.0
 40
1.671953659661709
  0
CIRCLE
  5
2834
330
1F
100
AcDbEntity
  8
LOGO
  6
Continuous
100
AcDbCircle
 10
552.5428299588222
 20
275.4535858454239
 30
0.0
 40
0.9796168348784597
  0
LINE
  5
2835
330
1F
100
AcDbEntity
  8
LOGO
100
AcDbLine
 10
563.0495807614347
 20
273.781632185762
 30
0.0
 11
563.0495807614347
 21
277.125539505086
 31
0.0
  0
LINE
  5
2836
330
1F
100
AcDbEntity
  8
LOGO
100
AcDbLine
 10
557.8081020131151
 20
274.4739690105457
 30
0.0
 11
557.8081020131151
 21
276.4332026803026
 31
0.0
  0
LINE
  5
2837
330
1F
100
AcDbEntity
  8
LOGO
  6
Continuous
100
AcDbLine
 10
557.8081020131151
 20
276.4332026803026
 30
0.0
 11
563.0495807614347
 21
277.125539505086
 31
0.0
  0
LINE
  5
2838
330
1F
100
AcDbEntity
  8
LOGO
  6
Continuous
100
AcDbLine
 10
557.8081020131151
 20
274.4739690105457
 30
0.0
 11
563.0495807614347
 21
273.781632185762
 31
0.0
  0
LINE
  5
2839
330
1F
100
AcDbEntity
  8
LOGO
  6
AM_ISO08W050x2
 48
0.3
100
AcDbLine
 10
550.238016803444
 20
275.4535858454239
 30
0.0
 11
554.8476431142005
 21
275.4535858454239
 31
0.0
1001
GENIUS_GENOREF_13
1005
283E
  0
LINE
  5
283A
330
1F
100
AcDbEntity
  8
LOGO
  6
AM_ISO08W050x2
 48
0.3
100
AcDbLine
 10
552.5428299588222
 20
273.1487726900457
 30
0.0
 11
552.5428299588222
 21
277.7583990008022
 31
0.0
1001
GENIUS_GENOREF_13
1005
283D
  0
LINE
  5
283B
330
1F
100
AcDbEntity
  8
LOGO
  6
CENTER
 48
0.5
100
AcDbLine
 10
557.3889293994695
 20
275.4535858454239
 30
0.0
 11
563.577380703849
 21
275.4535858454239
 31
0.0
1001
GENIUS_GENOREF_13
1005
283C
  0
POINT
  5
283C
330
1F
100
AcDbEntity
  8
0
 60
     1
100
AcDbPoint
 10
-1513.450414383321
 20
-641.6564620114617
 30
0.0
1001
GENIUS_GENOBJ-N-CRS_13
1002
{
1000
OWNER
1000
GEN
1002
}
1001
GENIUS_GENOLIS_13
1002
{
1000
ENT
1005
0
1005
0
1005
0
1005
283B
1002
}
1001
GENIUS_GENOENT_13
1002
{
1000
MYREF
1005
283C
1002
}
1002
{
1000
GRP
1005
0
1002
}
1001
GENIUS_GENODEF_13
1002
{
1000
HIER
1070
    10
1002
}
1002
{
1000
MANEDIT
1070
     1
1002
}
1002
{
1000
NOSEL
1070
     0
1002
}
1002
{
1000
BEHIND
1070
     0
1002
}
1002
{
1000
OTHER
1070
     0
1002
}
1002
{
1000
REACTOR
1002
}
  0
POINT
  5
283D
330
1F
100
AcDbEntity
  8
0
 60
     1
100
AcDbPoint
 10
-1524.774999606176
 20
-632.7808755328255
 30
0.0
1001
GENIUS_GENOBJ-N-CRS_13
1002
{
1000
OWNER
1000
GEN
1002
}
1001
GENIUS_GENOLIS_13
1002
{
1000
ENT
1005
0
1005
0
1005
0
1005
283A
1002
}
1001
GENIUS_GENOENT_13
1002
{
1000
MYREF
1005
283D
1002
}
1002
{
1000
GRP
1005
0
1002
}
1001
GENIUS_GENODEF_13
1002
{
1000
HIER
1070
    10
1002
}
1002
{
1000
MANEDIT
1070
     1
1002
}
1002
{
1000
NOSEL
1070
     0
1002
}
1002
{
1000
BEHIND
1070
     0
1002
}
1002
{
1000
OTHER
1070
     0
1002
}
1002
{
1000
REACTOR
1002
}
  0
POINT
  5
283E
330
1F
100
AcDbEntity
  8
0
 60
     1
100
AcDbPoint
 10
-1518.416325908339
 20
-641.6564620114617
 30
0.0
1001
GENIUS_GENOBJ-N-CRS_13
1002
{
1000
OWNER
1000
GEN
1002
}
1001
GENIUS_GENOLIS_13
1002
{
1000
ENT
1005
0
1005
0
1005
0
1005
2839
1002
}
1001
GENIUS_GENOENT_13
1002
{
1000
MYREF
1005
283E
1002
}
1002
{
1000
GRP
1005
0
1002
}
1001
GENIUS_GENODEF_13
1002
{
1000
HIER
1070
    10
1002
}
1002
{
1000
MANEDIT
1070
     1
1002
}
1002
{
1000
NOSEL
1070
     0
1002
}
1002
{
1000
BEHIND
1070
     0
1002
}
1002
{
1000
OTHER
1070
     0
1002
}
1002
{
1000
REACTOR
1002
}
  0
LINE
  5
2842
330
1F
100
AcDbEntity
  8
AM_VIS
100
AcDbLine
 10
726.6216858763431
 20
452.1283307156893
 30
0.0
 11
675.6216858763431
 21
452.1283307156893
 31
0.0
  0
LINE
  5
2843
330
1F
100
AcDbEntity
  8
AM_VIS
100
AcDbLine
 10
675.6216858763431
 20
449.1283307156893
 30
0.0
 11
726.6216858763431
 21
449.1283307156893
 31
0.0
  0
LINE
  5
2844
330
1F
100
AcDbEntity
  8
AM_VIS
100
AcDbLine
 10
726.6216858763431
 20
448.4584577346115
 30
0.0
 11
675.6216858763431
 21
448.4584577346115
 31
0.0
  0
LINE
  5
2845
330
1F
100
AcDbEntity
  8
AM_VIS
100
AcDbLine
 10
675.6216858763431
 20
452.7982036967671
 30
0.0
 11
726.6216858763431
 21
452.7982036967671
 31
0.0
  0
LINE
  5
2846
330
1F
100
AcDbEntity
  8
AM_VIS
100
AcDbLine
 10
726.6216858763431
 20
470.8783307156893
 30
0.0
 11
675.6216858763431
 21
470.8783307156893
 31
0.0
  0
LINE
  5
29F4
330
1F
100
AcDbEntity
  8
0
  6
ACISOTGB
 62
     2
 48
0.5
100
AcDbLine
 10
677.6216858763431
 20
473.8783307156893
 30
0.0
 11
677.6216858763431
 21
480.8783307156893
 31
0.0
  0
LINE
  5
29F5
330
1F
100
AcDbEntity
  8
0
  6
ACISOTGB
 62
     2
100
AcDbLine
 10
677.6216858763431
 20
480.8783307156893
 30
0.0
 11
692.6216858763431
 21
480.8783307156893
 31
0.0
  0
LINE
  5
29F6
330
1F
100
AcDbEntity
  8
0
  6
ACISOTGB
 62
     2
 48
0.5
100
AcDbLine
 10
692.6216858763431
 20
480.8783307156893
 30
0.0
 11
692.6216858763431
 21
473.8783307156893
 31
0.0
  0
LINE
  5
29F7
330
1F
100
AcDbEntity
  8
0
  6
ACISOTGB
 62
     2
 48
0.5
100
AcDbLine
 10
677.6216858763431
 20
393.8783307156894
 30
0.0
 11
677.6216858763431
 21
386.8783307156893
 31
0.0
  0
LINE
  5
29F8
330
1F
100
AcDbEntity
  8
0
  6
ACISOTGB
 62
     2
100
AcDbLine
 10
677.6216858763431
 20
386.8783307156893
 30
0.0
 11
692.6216858763431
 21
386.8783307156893
 31
0.0
  0
LINE
  5
29F9
330
1F
100
AcDbEntity
  8
0
  6
ACISOTGB
 62
     2
 48
0.5
100
AcDbLine
 10
692.6216858763431
 20
386.8783307156893
 30
0.0
 11
692.6216858763431
 21
393.8783307156894
 31
0.0
  0
LINE
  5
2A31
330
1F
100
AcDbEntity
  8
0
  6
ACISOTGB
 62
     2
 48
0.5
100
AcDbLine
 10
803.1867253971871
 20
473.8783307156893
 30
0.0
 11
803.1867253971871
 21
480.8783307156893
 31
0.0
  0
LINE
  5
2A32
330
1F
100
AcDbEntity
  8
0
  6
ACISOTGB
 62
     2
 48
0.5
100
AcDbLine
 10
826.386725397187
 20
473.8783307156893
 30
0.0
 11
826.386725397187
 21
480.8783307156893
 31
0.0
  0
LINE
  5
2A33
330
1F
100
AcDbEntity
  8
0
  6
ACISOTGB
 62
     2
100
AcDbLine
 10
803.1867253971871
 20
480.8783307156893
 30
0.0
 11
826.386725397187
 21
480.8783307156893
 31
0.0
  0
LINE
  5
2A34
330
1F
100
AcDbEntity
  8
0
  6
ACISOTGB
 62
     2
 48
0.5
100
AcDbLine
 10
803.1867253971871
 20
393.8783307156891
 30
0.0
 11
803.1867253971871
 21
386.8783307156891
 31
0.0
  0
LINE
  5
2A35
330
1F
100
AcDbEntity
  8
0
  6
ACISOTGB
 62
     2
 48
0.5
100
AcDbLine
 10
826.386725397187
 20
393.8783307156891
 30
0.0
 11
826.386725397187
 21
386.8783307156891
 31
0.0
  0
LINE
  5
2A36
330
1F
100
AcDbEntity
  8
0
  6
ACISOTGB
 62
     2
100
AcDbLine
 10
803.1867253971871
 20
386.8783307156891
 30
0.0
 11
826.386725397187
 21
386.8783307156891
 31
0.0
  0
TEXT
  5
2C4D
330
1F
100
AcDbEntity
  8
AM_5
100
AcDbText
 10
734.6480403077493
 20
389.2717084791714
 30
0.0
 40
3.0
  1
%%C8x8depth
 41
0.75
  7
CHINESET
100
AcDbText
  0
DIMENSION
  5
2D1E
102
{ACAD_XDICTIONARY
360
2D2B
102
}
102
{ACAD_REACTORS
330
2D2C
102
}
330
1F
100
AcDbEntity
  8
AM_5
100
AcDbDimension
  2
*D12
 10
618.7505392127808
 20
368.8783307156894
 30
0.0
 11
597.7505392127808
 21
371.4283307156894
 31
0.0
 70
    32
 71
     5
 42
42.0
  3
AM_ISO$0
100
AcDbAlignedDimension
 13
576.7505392127808
 23
396.8783307156893
 33
0.0
 14
618.7505392127808
 24
396.8783307156893
 34
0.0
 50
0.0000000000001132
100
AcDbRotatedDimension
1001
ACAD
1000
DSTYLE
1002
{
1070
    40
1040
1.0
1070
   144
1040
1.0
1070
   272
1070
     8
1002
}
  0
DIMENSION
  5
2D44
102
{ACAD_XDICTIONARY
360
2D51
102
}
102
{ACAD_REACTORS
330
2D52
102
}
330
1F
100
AcDbEntity
  8
AM_5
100
AcDbDimension
  2
*D13
 10
566.7505392127808
 20
459.8783307156893
 30
0.0
 11
564.2005392127807
 21
433.8783307156893
 31
0.0
 70
    32
 71
     5
 42
52.0
  3
AM_ISO$0
100
AcDbAlignedDimension
 13
576.4505392127809
 23
407.8783307156893
 33
0.0
 14
576.4505392127809
 24
459.8783307156893
 34
0.0
 50
90.00000000000003
100
AcDbRotatedDimension
1001
ACAD
1000
DSTYLE
1002
{
1070
    40
1040
1.0
1070
   144
1040
1.0
1070
   272
1070
     8
1002
}
  0
DIMENSION
  5
2D6A
102
{ACAD_XDICTIONARY
360
2D77
102
}
102
{ACAD_REACTORS
330
2D78
102
}
330
1F
100
AcDbEntity
  8
AM_5
100
AcDbDimension
  2
*D14
 10
558.7505392127808
 20
473.8783307156893
 30
0.0
 11
556.2005392127807
 21
433.8783307156893
 31
0.0
 70
    32
 71
     5
 42
80.0
  3
AM_ISO$0
100
AcDbAlignedDimension
 13
583.7505392127808
 23
393.8783307156894
 33
0.0
 14
583.7505392127808
 24
473.8783307156893
 34
0.0
 50
90.00000000000003
100
AcDbRotatedDimension
1001
ACAD
1000
DSTYLE
1002
{
1070
    40
1040
1.0
1070
   144
1040
1.0
1070
   272
1070
     8
1002
}
  0
ENDSEC
  0
SECTION
  2
OBJECTS
  0
DICTIONARY
  5
C
330
0
100
AcDbDictionary
281
     1
  3
ACAD_COLOR
350
BE
  3
ACAD_GROUP
350
D
  3
ACAD_LAYOUT
350
1A
  3
ACAD_MATERIAL
350
BD
  3
ACAD_MLINESTYLE
350
17
  3
ACAD_PLOTSETTINGS
350
19
  3
ACAD_PLOTSTYLENAME
350
E
  3
ACAD_TABLESTYLE
350
11A
  3
ACDBHEADERROUNDTRIPXREC
350
2E43
  3
AcDbVariableDictionary
350
94
  3
AcmDictionary
350
5B
  3
AMG
350
41
  3
AMGSNAPSETTINGS
350
1B8
  3
DWGPROPS
350
2E42
  0
DICTIONARY
  5
3F9
330
2
100
AcDbDictionary
280
     1
281
     1
  3
ACAD_LAYERFILTERS
360
5B7
  3
ACAD_LAYERSTATES
360
C44
  3
ACLYDICTIONARY
360
5B6
  3
AMLAYER_GROUPCOLORS
360
FFE
  0
DICTIONARY
  5
8F
330
1F
100
AcDbDictionary
280
     1
281
     1
  3
ACAD_SORTENTS
360
1030
  0
DICTIONARY
  5
22C7
330
22C6
100
AcDbDictionary
280
     1
281
     1
  3
ACAD_DIMASSOC
360
22C8
  0
DICTIONARY
  5
22D0
330
22CF
100
AcDbDictionary
280
     1
281
     1
  3
ACAD_DIMASSOC
360
22D1
  0
DICTIONARY
  5
2D2B
330
2D1E
100
AcDbDictionary
280
     1
281
     1
  3
ACAD_DIMASSOC
360
2D2C
  0
DICTIONARY
  5
2D51
330
2D44
100
AcDbDictionary
280
     1
281
     1
  3
ACAD_DIMASSOC
360
2D52
  0
DICTIONARY
  5
2D77
330
2D6A
100
AcDbDictionary
280
     1
281
     1
  3
ACAD_DIMASSOC
360
2D78
  0
DICTIONARY
  5
BE
102
{ACAD_REACTORS
330
C
102
}
330
C
100
AcDbDictionary
281
     1
  0
DICTIONARY
  5
D
102
{ACAD_REACTORS
330
C
102
}
330
C
100
AcDbDictionary
281
     1
  0
DICTIONARY
  5
1A
102
{ACAD_REACTORS
330
C
102
}
330
C
100
AcDbDictionary
281
     1
  3
Model
350
22
  3
配置1
350
1E
  3
配置2
350
26
  0
DICTIONARY
  5
BD
102
{ACAD_REACTORS
330
C
102
}
330
C
100
AcDbDictionary
281
     1
  0
DICTIONARY
  5
17
102
{ACAD_REACTORS
330
C
102
}
330
C
100
AcDbDictionary
281
     1
  3
Standard
350
18
  0
DICTIONARY
  5
19
102
{ACAD_REACTORS
330
C
102
}
330
C
100
AcDbDictionary
281
     1
  0
ACDBDICTIONARYWDFLT
  5
E
102
{ACAD_REACTORS
330
C
102
}
330
C
100
AcDbDictionary
281
     1
  3
Normal
350
F
100
AcDbDictionaryWithDefault
340
F
  0
DICTIONARY
  5
11A
102
{ACAD_REACTORS
330
C
102
}
330
C
100
AcDbDictionary
281
     1
  3
Standard
350
11B
  0
DICTIONARY
  5
2E43
102
{ACAD_REACTORS
330
C
102
}
330
C
100
AcDbDictionary
281
     1
  0
DICTIONARY
  5
94
102
{ACAD_REACTORS
330
C
102
}
330
C
100
AcDbDictionary
281
     1
  3
CTABLESTYLE
350
138
  3
DIMASSOC
350
96
  3
INDEXCTL
350
95
  3
PROJECTNAME
350
2E40
  0
DICTIONARY
  5
5B
102
{ACAD_REACTORS
330
C
102
}
330
C
100
AcDbDictionary
281
     1
  3
AcmBOM
350
1B5
  3
AcmStdDictionary
350
61
  3
AMDTSECTSYM_ARROWCOLOR
350
123
  0
DICTIONARY
  5
41
102
{ACAD_REACTORS
330
C
102
}
330
C
100
AcDbDictionary
281
     1
  0
DICTIONARY
  5
1B8
102
{ACAD_REACTORS
330
C
102
}
330
C
100
AcDbDictionary
281
     1
  0
XRECORD
  5
2E42
102
{ACAD_REACTORS
330
C
102
}
330
C
100
AcDbXrecord
280
     1
  1
DWGPROPS COOKIE
  2

  3

  4

  6

  7

  8

  9

300
AmdtFileType=84
301
=
302
=
303
=
304
=
305
=
306
=
307
=
308
=
309
=
 40
0.3157953587962963
 41
2454246.452261644
 42
2454258.576306956
  1

 90
        1
  0
DICTIONARY
  5
5B7
102
{ACAD_REACTORS
330
3F9
102
}
330
3F9
100
AcDbDictionary
281
     1
  0
DICTIONARY
  5
C44
102
{ACAD_REACTORS
330
3F9
102
}
330
3F9
100
AcDbDictionary
281
     1
  0
DICTIONARY
  5
5B6
102
{ACAD_REACTORS
330
3F9
102
}
330
3F9
100
AcDbDictionary
281
     1
1001
ACAD
1000
<All
  0
DICTIONARY
  5
FFE
102
{ACAD_REACTORS
330
3F9
102
}
330
3F9
100
AcDbDictionary
280
     1
281
     1
  0
SORTENTSTABLE
  5
1030
102
{ACAD_REACTORS
330
8F
102
}
330
8F
100
AcDbSortentsTable
330
1F
331
F13
  5
F13
331
F04
  5
F04
331
F0D
  5
F0D
331
F0A
  5
F0A
331
F07
  5
F07
331
F19
  5
F19
331
F16
  5
F16
331
F10
  5
F10
331
F14
  5
F14
331
F05
  5
F05
331
F0E
  5
F0E
331
F0B
  5
F0B
331
F08
  5
F08
331
F1A
  5
F1A
331
F17
  5
F17
331
F11
  5
F11
331
F15
  5
F15
331
F06
  5
F06
331
F0C
  5
F0C
331
F0F
  5
F0F
331
F09
  5
F09
331
F1B
  5
F1B
331
F18
  5
F18
331
F12
  5
F12
  0
DIMASSOC
  5
22C8
102
{ACAD_REACTORS
330
22C7
102
}
330
22C7
100
AcDbDimAssoc
330
22C6
 90
        2
 70
     0
 71
     0
  1
AcDbOsnapPointRef
 72
     1
331
22BD
 73
     0
 91
        0
 40
0.0
 10
0.0
 20
0.0
 30
2.000000000000000E+50
 75
     0
  0
DIMASSOC
  5
22D1
102
{ACAD_REACTORS
330
22D0
102
}
330
22D0
100
AcDbDimAssoc
330
22CF
 90
        2
 70
     0
 71
     0
  1
AcDbOsnapPointRef
 72
     1
331
22BA
 73
     0
 91
        0
 40
0.0
 10
0.0
 20
0.0
 30
2.000000000000000E+50
 75
     0
  0
DIMASSOC
  5
2D2C
102
{ACAD_REACTORS
330
2D2B
102
}
330
2D2B
100
AcDbDimAssoc
330
2D1E
 90
        3
 70
     0
 71
     0
  1
AcDbOsnapPointRef
 72
     1
331
2043
 73
     0
 91
        0
 40
0.0
 10
0.0
 20
0.0
 30
2.000000000000000E+50
 75
     0
  1
AcDbOsnapPointRef
 72
    13
331
2047
 73
     0
 91
        0
 40
0.0
 10
0.0
 20
0.0
 30
2.000000000000000E+50
 75
     0
  0
DIMASSOC
  5
2D52
102
{ACAD_REACTORS
330
2D51
102
}
330
2D51
100
AcDbDimAssoc
330
2D44
 90
        3
 70
     0
 71
     0
  1
AcDbOsnapPointRef
 72
     1
331
24E1
 73
     0
 91
        0
 40
0.0
 10
0.0
 20
0.0
 30
2.000000000000000E+50
 75
     0
  1
AcDbOsnapPointRef
 72
     1
331
24CF
 73
     0
 91
        0
 40
0.0
 10
0.0
 20
0.0
 30
2.000000000000000E+50
 75
     0
  0
DIMASSOC
  5
2D78
102
{ACAD_REACTORS
330
2D77
102
}
330
2D77
100
AcDbDimAssoc
330
2D6A
 90
        3
 70
     0
 71
     0
  1
AcDbOsnapPointRef
 72
     1
331
2106
 73
     0
 91
        0
 40
0.0
 10
0.0
 20
0.0
 30
2.000000000000000E+50
 75
     0
  1
AcDbOsnapPointRef
 72
    13
331
204A
 73
     0
 91
        0
 40
0.0
 10
0.0
 20
0.0
 30
2.000000000000000E+50
 75
     0
  0
LAYOUT
  5
22
102
{ACAD_XDICTIONARY
360
2E46
102
}
102
{ACAD_REACTORS
330
1A
102
}
330
1A
100
AcDbPlotSettings
  1

  2
\\RD\EPSON Stylus C63 Series單色
  4
A4
  6

 40
3.757083177566528
 41
3.757076978683471
 42
3.757080078125
 43
3.757080078125
 44
209.9733276367187
 45
296.9683227539062
 46
0.0
 47
0.0
 48
0.0
 49
0.0
140
0.0
141
0.0
142
1.0
143
0.3405120737814363
 70
 11952
 72
     1
 73
     0
 74
     0
  7
單色出圖.ctb
 75
     0
147
2.936753428137963
148
-2047.07469463503
149
-1261.649717473083
100
AcDbLayout
  1
Model
 70
     1
 71
     0
 10
0.0
 20
0.0
 11
12.0
 21
9.0
 12
0.0
 22
0.0
 32
0.0
 14
0.0
 24
0.0
 34
0.0
 15
0.0
 25
0.0
 35
0.0
146
0.0
 13
0.0
 23
0.0
 33
0.0
 16
1.0
 26
0.0
 36
0.0
 17
0.0
 27
1.0
 37
0.0
 76
     0
330
1F
1001
ACAD_PSEXT
1000
\\RD\EPSON Stylus C63 Series單色
1000
EPSON Stylus C63 Series
1000
\\RD
1000

1070
     0
  0
LAYOUT
  5
1E
102
{ACAD_XDICTIONARY
360
2E44
102
}
102
{ACAD_REACTORS
330
1A
102
}
330
1A
100
AcDbPlotSettings
  1

  2

  4

  6

 40
0.0
 41
0.0
 42
0.0
 43
0.0
 44
0.0
 45
0.0
 46
0.0
 47
0.0
 48
0.0
 49
0.0
140
0.0
141
0.0
142
1.0
143
1.0
 70
   688
 72
     0
 73
     0
 74
     5
  7
單色出圖.ctb
 75
    16
147
1.0
148
0.0
149
0.0
100
AcDbLayout
  1
配置1
 70
     1
 71
     1
 10
0.0
 20
0.0
 11
420.0
 21
297.0
 12
0.0
 22
0.0
 32
0.0
 14
1.000000000000000E+20
 24
1.000000000000000E+20
 34
1.000000000000000E+20
 15
-1.000000000000000E+20
 25
-1.000000000000000E+20
 35
-1.000000000000000E+20
146
0.0
 13
0.0
 23
0.0
 33
0.0
 16
1.0
 26
0.0
 36
0.0
 17
0.0
 27
1.0
 37
0.0
 76
     0
330
1B
  0
LAYOUT
  5
26
102
{ACAD_XDICTIONARY
360
2E48
102
}
102
{ACAD_REACTORS
330
1A
102
}
330
1A
100
AcDbPlotSettings
  1

  2

  4

  6

 40
0.0
 41
0.0
 42
0.0
 43
0.0
 44
0.0
 45
0.0
 46
0.0
 47
0.0
 48
0.0
 49
0.0
140
0.0
141
0.0
142
1.0
143
1.0
 70
   688
 72
     0
 73
     0
 74
     5
  7
單色出圖.ctb
 75
    16
147
1.0
148
0.0
149
0.0
100
AcDbLayout
  1
配置2
 70
     1
 71
     2
 10
0.0
 20
0.0
 11
12.0
 21
9.0
 12
0.0
 22
0.0
 32
0.0
 14
0.0
 24
0.0
 34
0.0
 15
0.0
 25
0.0
 35
0.0
146
0.0
 13
0.0
 23
0.0
 33
0.0
 16
1.0
 26
0.0
 36
0.0
 17
0.0
 27
1.0
 37
0.0
 76
     0
330
23
  0
MLINESTYLE
  5
18
102
{ACAD_REACTORS
330
17
102
}
330
17
100
AcDbMlineStyle
  2
STANDARD
 70
     0
  3

 62
   256
 51
90.0
 52
90.0
 71
     2
 49
0.5
 62
   256
  6
BYLAYER
 49
-0.5
 62
   256
  6
BYLAYER
  0
ACDBPLACEHOLDER
  5
F
102
{ACAD_REACTORS
330
E
102
}
330
E
  0
TABLESTYLE
  5
11B
102
{ACAD_REACTORS
330
11A
102
}
330
11A
100
AcDbTableStyle
  3
Standard
 70
     0
 71
     0
 40
1.5
 41
1.5
280
     0
281
     0
  7
STANDARD
140
4.5
170
     2
 62
     0
 63
     7
283
     0
274
    -2
284
     1
 64
     0
275
    -2
285
     1
 65
     0
276
    -2
286
     1
 66
     0
277
    -2
287
     1
 67
     0
278
    -2
288
     1
 68
     0
279
    -2
289
     1
 69
     0
  7
STANDARD
140
6.0
170
     5
 62
     0
 63
     7
283
     0
274
    -2
284
     1
 64
     0
275
    -2
285
     1
 65
     0
276
    -2
286
     1
 66
     0
277
    -2
287
     1
 67
     0
278
    -2
288
     1
 68
     0
279
    -2
289
     1
 69
     0
  7
STANDARD
140
4.5
170
     5
 62
     0
 63
     7
283
     0
274
    -2
284
     1
 64
     0
275
    -2
285
     1
 65
     0
276
    -2
286
     1
 66
     0
277
    -2
287
     1
 67
     0
278
    -2
288
     1
 68
     0
279
    -2
289
     1
 69
     0
  0
DICTIONARYVAR
  5
138
102
{ACAD_REACTORS
330
94
102
}
330
94
100
DictionaryVariables
280
     0
  1
STANDARD
  0
DICTIONARYVAR
  5
96
102
{ACAD_REACTORS
330
94
102
}
330
94
100
DictionaryVariables
280
     0
  1
2
  0
DICTIONARYVAR
  5
95
102
{ACAD_REACTORS
330
94
102
}
330
94
100
DictionaryVariables
280
     0
  1
0
  0
DICTIONARYVAR
  5
2E40
102
{ACAD_REACTORS
330
94
102
}
330
94
100
DictionaryVariables
280
     0
  1

  0
DICTIONARY
  5
1B5
102
{ACAD_REACTORS
330
5B
102
}
330
5B
100
AcDbDictionary
281
     1
  0
DICTIONARY
  5
61
102
{ACAD_REACTORS
330
5B
102
}
330
5B
100
AcDbDictionary
281
     1
  0
XRECORD
  5
123
102
{ACAD_REACTORS
330
5B
102
}
330
5B
100
AcDbXrecord
280
     1
 90
-1023410169
  0
DICTIONARY
  5
2E46
330
22
100
AcDbDictionary
280
     1
281
     1
  3
ACAD_XREC_ROUNDTRIP
360
2E47
  0
DICTIONARY
  5
2E44
330
1E
100
AcDbDictionary
280
     1
281
     1
  3
ACAD_XREC_ROUNDTRIP
360
2E45
  0
DICTIONARY
  5
2E48
330
26
100
AcDbDictionary
280
     1
281
     1
  3
ACAD_XREC_ROUNDTRIP
360
2E49
  0
XRECORD
  5
2E47
102
{ACAD_REACTORS
330
2E46
102
}
330
2E46
100
AcDbXrecord
280
     1
102
SHADEPLOT
 70
     0
102
SHADEPLOTRESLEVEL
 70
     2
102
SHADEPLOTCUSTOMDPI
 70
   300
  0
XRECORD
  5
2E45
102
{ACAD_REACTORS
330
2E44
102
}
330
2E44
100
AcDbXrecord
280
     1
102
SHADEPLOT
 70
     0
102
SHADEPLOTRESLEVEL
 70
     2
102
SHADEPLOTCUSTOMDPI
 70
   300
  0
XRECORD
  5
2E49
102
{ACAD_REACTORS
330
2E48
102
}
330
2E48
100
AcDbXrecord
280
     1
102
SHADEPLOT
 70
     0
102
SHADEPLOTRESLEVEL
 70
     2
102
SHADEPLOTCUSTOMDPI
 70
   300
  0
ENDSEC
  0
EOF
