  0
SECTION
  2
HEADER
  9
$ACADVER
  1
AC1015
  9
$ACADMAINTVER
 70
    20
  9
$DWGCODEPAGE
  3
ANSI_950
  9
$INSBASE
 10
0.0
 20
0.0
 30
0.0
  9
$EXTMIN
 10
165.4916393541401
 20
94.18565448767697
 30
-0.0069238742813695
  9
$EXTMAX
 10
413.0273447197714
 20
274.1911475155399
 30
117.957353434798
  9
$LIMMIN
 10
0.0
 20
0.0
  9
$LIMMAX
 10
420.0
 20
297.0
  9
$ORTHOMODE
 70
     1
  9
$REGENMODE
 70
     1
  9
$FILLMODE
 70
     1
  9
$QTEXTMODE
 70
     0
  9
$MIRRTEXT
 70
     1
  9
$LTSCALE
 40
1.0
  9
$ATTMODE
 70
     1
  9
$TEXTSIZE
 40
3.0
  9
$TRACEWID
 40
1.0
  9
$TEXTSTYLE
  7
STANDARD
  9
$CLAYER
  8
0
  9
$CELTYPE
  6
ByLayer
  9
$CECOLOR
 62
   256
  9
$CELTSCALE
 40
1.0
  9
$DISPSILH
 70
     0
  9
$DIMSCALE
 40
1.0
  9
$DIMASZ
 40
3.0
  9
$DIMEXO
 40
1.5
  9
$DIMDLI
 40
8.0
  9
$DIMRND
 40
0.0
  9
$DIMDLE
 40
0.0
  9
$DIMEXE
 40
1.5
  9
$DIMTP
 40
0.1
  9
$DIMTM
 40
0.1
  9
$DIMTXT
 40
3.5
  9
$DIMCEN
 40
0.0
  9
$DIMTSZ
 40
0.0
  9
$DIMTOL
 70
     0
  9
$DIMLIM
 70
     0
  9
$DIMTIH
 70
     0
  9
$DIMTOH
 70
     0
  9
$DIMSE1
 70
     0
  9
$DIMSE2
 70
     0
  9
$DIMTAD
 70
     1
  9
$DIMZIN
 70
     8
  9
$DIMBLK
  1

  9
$DIMASO
 70
     1
  9
$DIMSHO
 70
     1
  9
$DIMPOST
  1

  9
$DIMAPOST
  1
"
  9
$DIMALT
 70
     0
  9
$DIMALTD
 70
     2
  9
$DIMALTF
 40
0.0393701
  9
$DIMLFAC
 40
1.0
  9
$DIMTOFL
 70
     1
  9
$DIMTVP
 40
0.0
  9
$DIMTIX
 70
     0
  9
$DIMSOXD
 70
     0
  9
$DIMSAH
 70
     0
  9
$DIMBLK1
  1

  9
$DIMBLK2
  1

  9
$DIMSTYLE
  2
AM_ISO
  9
$DIMCLRD
 70
   256
  9
$DIMCLRE
 70
   256
  9
$DIMCLRT
 70
   256
  9
$DIMTFAC
 40
0.6
  9
$DIMGAP
 40
1.0
  9
$DIMJUST
 70
     0
  9
$DIMSD1
 70
     0
  9
$DIMSD2
 70
     0
  9
$DIMTOLJ
 70
     0
  9
$DIMTZIN
 70
     8
  9
$DIMALTZ
 70
     0
  9
$DIMALTTZ
 70
     0
  9
$DIMUPT
 70
     0
  9
$DIMDEC
 70
     2
  9
$DIMTDEC
 70
     8
  9
$DIMALTU
 70
     2
  9
$DIMALTTD
 70
     2
  9
$DIMTXSTY
  7
STANDARD
  9
$DIMAUNIT
 70
     0
  9
$DIMADEC
 70
     0
  9
$DIMALTRND
 40
0.0
  9
$DIMAZIN
 70
     2
  9
$DIMDSEP
 70
    46
  9
$DIMATFIT
 70
     3
  9
$DIMFRAC
 70
     0
  9
$DIMLDRBLK
  1

  9
$DIMLUNIT
 70
     2
  9
$DIMLWD
 70
    -1
  9
$DIMLWE
 70
    -1
  9
$DIMTMOVE
 70
     0
  9
$LUNITS
 70
     2
  9
$LUPREC
 70
     2
  9
$SKETCHINC
 40
1.0
  9
$FILLETRAD
 40
2.5
  9
$AUNITS
 70
     0
  9
$AUPREC
 70
     0
  9
$MENU
  1
.
  9
$ELEVATION
 40
0.0
  9
$PELEVATION
 40
0.0
  9
$THICKNESS
 40
0.0
  9
$LIMCHECK
 70
     0
  9
$CHAMFERA
 40
2.5
  9
$CHAMFERB
 40
2.5
  9
$CHAMFERC
 40
20.0
  9
$CHAMFERD
 40
0.0
  9
$SKPOLY
 70
     0
  9
$TDCREATE
 40
2454404.499322188
  9
$TDUCREATE
 40
2454404.165988854
  9
$TDUPDATE
 40
2454407.705698600
  9
$TDUUPDATE
 40
2454407.372365266
  9
$TDINDWG
 40
0.2108586458
  9
$TDUSRTIMER
 40
0.2108586458
  9
$USRTIMER
 70
     1
  9
$ANGBASE
 50
0.0
  9
$ANGDIR
 70
     0
  9
$PDMODE
 70
     0
  9
$PDSIZE
 40
0.0
  9
$PLINEWID
 40
0.0
  9
$SPLFRAME
 70
     0
  9
$SPLINETYPE
 70
     6
  9
$SPLINESEGS
 70
     8
  9
$HANDSEED
  5
13BD
  9
$SURFTAB1
 70
     6
  9
$SURFTAB2
 70
     6
  9
$SURFTYPE
 70
     6
  9
$SURFU
 70
     6
  9
$SURFV
 70
     6
  9
$UCSBASE
  2

  9
$UCSNAME
  2

  9
$UCSORG
 10
0.0
 20
0.0
 30
0.0
  9
$UCSXDIR
 10
1.0
 20
0.0
 30
0.0
  9
$UCSYDIR
 10
0.0
 20
1.0
 30
0.0
  9
$UCSORTHOREF
  2

  9
$UCSORTHOVIEW
 70
     0
  9
$UCSORGTOP
 10
0.0
 20
0.0
 30
0.0
  9
$UCSORGBOTTOM
 10
0.0
 20
0.0
 30
0.0
  9
$UCSORGLEFT
 10
0.0
 20
0.0
 30
0.0
  9
$UCSORGRIGHT
 10
0.0
 20
0.0
 30
0.0
  9
$UCSORGFRONT
 10
0.0
 20
0.0
 30
0.0
  9
$UCSORGBACK
 10
0.0
 20
0.0
 30
0.0
  9
$PUCSBASE
  2

  9
$PUCSNAME
  2

  9
$PUCSORG
 10
0.0
 20
0.0
 30
0.0
  9
$PUCSXDIR
 10
1.0
 20
0.0
 30
0.0
  9
$PUCSYDIR
 10
0.0
 20
1.0
 30
0.0
  9
$PUCSORTHOREF
  2

  9
$PUCSORTHOVIEW
 70
     0
  9
$PUCSORGTOP
 10
0.0
 20
0.0
 30
0.0
  9
$PUCSORGBOTTOM
 10
0.0
 20
0.0
 30
0.0
  9
$PUCSORGLEFT
 10
0.0
 20
0.0
 30
0.0
  9
$PUCSORGRIGHT
 10
0.0
 20
0.0
 30
0.0
  9
$PUCSORGFRONT
 10
0.0
 20
0.0
 30
0.0
  9
$PUCSORGBACK
 10
0.0
 20
0.0
 30
0.0
  9
$USERI1
 70
     0
  9
$USERI2
 70
     0
  9
$USERI3
 70
     0
  9
$USERI4
 70
     0
  9
$USERI5
 70
     0
  9
$USERR1
 40
0.0
  9
$USERR2
 40
0.0
  9
$USERR3
 40
0.0
  9
$USERR4
 40
0.0
  9
$USERR5
 40
0.0
  9
$WORLDVIEW
 70
     1
  9
$SHADEDGE
 70
     3
  9
$SHADEDIF
 70
    70
  9
$TILEMODE
 70
     1
  9
$MAXACTVP
 70
    64
  9
$PINSBASE
 10
0.0
 20
0.0
 30
0.0
  9
$PLIMCHECK
 70
     0
  9
$PEXTMIN
 10
1.000000000000000E+20
 20
1.000000000000000E+20
 30
1.000000000000000E+20
  9
$PEXTMAX
 10
-1.000000000000000E+20
 20
-1.000000000000000E+20
 30
-1.000000000000000E+20
  9
$PLIMMIN
 10
0.0
 20
0.0
  9
$PLIMMAX
 10
420.0
 20
297.0
  9
$UNITMODE
 70
     0
  9
$VISRETAIN
 70
     1
  9
$PLINEGEN
 70
     0
  9
$PSLTSCALE
 70
     1
  9
$TREEDEPTH
 70
  3020
  9
$CMLSTYLE
  2
Standard
  9
$CMLJUST
 70
     0
  9
$CMLSCALE
 40
20.0
  9
$PROXYGRAPHICS
 70
     1
  9
$MEASUREMENT
 70
     1
  9
$CELWEIGHT
370
    -1
  9
$ENDCAPS
280
     0
  9
$JOINSTYLE
280
     0
  9
$LWDISPLAY
290
     0
  9
$INSUNITS
 70
     4
  9
$HYPERLINKBASE
  1

  9
$STYLESHEET
  1
彩色出圖.ctb
  9
$XEDIT
290
     1
  9
$CEPSNTYPE
380
     0
  9
$PSTYLEMODE
290
     1
  9
$FINGERPRINTGUID
  2
{074D7011-B32B-4E84-AF1B-A87C3313AB9B}
  9
$VERSIONGUID
  2
{1066CF75-38DA-4541-9A23-A180A8C92E48}
  9
$EXTNAMES
290
     1
  9
$PSVPSCALE
 40
0.0
  9
$OLESTARTUP
290
     0
  0
ENDSEC
  0
SECTION
  2
CLASSES
  0
CLASS
  1
ACDBDICTIONARYWDFLT
  2
AcDbDictionaryWithDefault
  3
ObjectDBX Classes
 90
        0
280
     0
281
     0
  0
CLASS
  1
ACDBPLACEHOLDER
  2
AcDbPlaceHolder
  3
ObjectDBX Classes
 90
        0
280
     0
281
     0
  0
CLASS
  1
LAYOUT
  2
AcDbLayout
  3
ObjectDBX Classes
 90
        0
280
     0
281
     0
  0
CLASS
  1
ACME_DOCUMENT
  2
AcMeDbDoc
  3
AcMeServices
 90
        0
280
     0
281
     0
  0
CLASS
  1
AMGSETTINGSOBJ
  2
AmgSettingsObj
  3
"AcadM|Product Description: AutoCAD Mechanical 2000|Company: Autodesk"
 90
        0
280
     0
281
     0
  0
CLASS
  1
ACMESCOPE
  2
AcMeScope
  3
AcMeServices
 90
        0
280
     0
281
     0
  0
CLASS
  1
ACMECOMMANDHISTORY
  2
AcMeCommandHistory
  3
AcMeServices
 90
        0
280
     0
281
     0
  0
CLASS
  1
ACIMSYSVARMAN
  2
AcImSysVarManager
  3
AcMeServices
 90
        0
280
     0
281
     0
  0
CLASS
  1
ACIMREALSYSVAR
  2
AcImRealSysVar
  3
AcMeServices
 90
        0
280
     0
281
     0
  0
CLASS
  1
ACIMINTSYSVAR
  2
AcImIntSysVar
  3
AcMeServices
 90
        0
280
     0
281
     0
  0
CLASS
  1
ACMEDRAWINGMAN
  2
AcMeDrawingMan
  3
AcMeServices
 90
        0
280
     0
281
     0
  0
CLASS
  1
ACMEVIEW
  2
AcMeView
  3
AcMeServices
 90
        0
280
     0
281
     0
  0
CLASS
  1
ACDBENTITYCACHE
  2
AcMeEntityCache
  3
AcMeServices
 90
        0
280
     0
281
     0
  0
CLASS
  1
GSMANAGER
  2
AcMeGSManager
  3
AcMeServices
 90
        0
280
     0
281
     0
  0
CLASS
  1
AMDTINTERNALREACTOR
  2
AmdtInternalReactor
  3
AcMeServices
 90
        0
280
     0
281
     0
  0
CLASS
  1
ACMESTATEMGR
  2
AcMeStateMgr
  3
AcMeServices
 90
        0
280
     0
281
     0
  0
CLASS
  1
ACGREFMASTER
  2
AcGrefMaster
  3
AcAttribServices
 90
        0
280
     0
281
     0
  0
CLASS
  1
ACME_DATABASE
  2
AcMeDbDatabase
  3
AcMeServices
 90
        0
280
     0
281
     0
  0
CLASS
  1
ACRFINSADJUSTERMGR
  2
AcRfInsAdjusterMgr
  3
AcMeServices
 90
        0
280
     0
281
     0
  0
CLASS
  1
ACGREFACADMASTER
  2
AcGrefacadMaster
  3
AcGrefServices
 90
        0
280
     0
281
     0
  0
CLASS
  1
AMIMASTER
  2
AmiMaster
  3
AmiServices
 90
        0
280
     0
281
     0
  0
CLASS
  1
ACMDATADICTIONARY
  2
AcmDataDictionary
  3
"AcmSymBB|Product Description: AutoCAD Mechanical 2004 DX|Company: Autodesk"
 90
        0
280
     0
281
     0
  0
CLASS
  1
ACMDATAENTRYBLOCK
  2
AcmDataEntryBlock
  3
"AcmSymBB|Product Description: AutoCAD Mechanical 2004 DX|Company: Autodesk"
 90
        0
280
     0
281
     0
  0
CLASS
  1
ACIMSTRSYSVAR
  2
AcImStrSysVar
  3
AcMeServices
 90
        0
280
     0
281
     0
  0
CLASS
  1
ACMSTANDARDISO
  2
AcmStandardISO
  3
"Amdt_StdImp|Product Description: AutoCAD Mechanical 2004 DX|Company: Autodesk"
 90
        0
280
     0
281
     0
  0
CLASS
  1
AMGOBJPROPCFG
  2
AmgObjPropCfg
  3
"AmgLay|Product Description: AutoCAD Mechanical 2000|Company: Autodesk"
 90
        1
280
     0
281
     0
  0
CLASS
  1
AMDTEDGESTANDARDISO
  2
AmdtEdgeStdISO
  3
"Amdt_StdImp|Product Description: AutoCAD Mechanical 2004 DX|Company: Autodesk"
 90
        0
280
     0
281
     0
  0
CLASS
  1
ACMSURFSTANDARDISO
  2
AcmSurfTextStdISO
  3
"Amdt_StdImp|Product Description: AutoCAD Mechanical 2004 DX|Company: Autodesk"
 90
        0
280
     0
281
     0
  0
CLASS
  1
ACMFCFSTANDARDISO
  2
AcmFCFStdISO
  3
"Amdt_StdImp|Product Description: AutoCAD Mechanical 2004 DX|Company: Autodesk"
 90
        0
280
     0
281
     0
  0
CLASS
  1
ACMWELDSTANDARDISO
  2
AcmWeldingStdISO
  3
"Amdt_StdImp|Product Description: AutoCAD Mechanical 2004 DX|Company: Autodesk"
 90
        0
280
     0
281
     0
  0
CLASS
  1
ACMIDSTANDARDISO
  2
AcmIdStdISO
  3
"Amdt_StdImp|Product Description: AutoCAD Mechanical 2004 DX|Company: Autodesk"
 90
        0
280
     0
281
     0
  0
CLASS
  1
ACMDATUMSTANDARDISO
  2
AcmDatumStdISO
  3
"Amdt_StdImp|Product Description: AutoCAD Mechanical 2004 DX|Company: Autodesk"
 90
        0
280
     0
281
     0
  0
CLASS
  1
ACMBOMSTANDARDISO
  2
AcmBOMStdISO
  3
"Amdt_StdImp|Product Description: AutoCAD Mechanical 2004 DX|Company: Autodesk"
 90
        0
280
     0
281
     0
  0
CLASS
  1
ACMDETAILSTANDARDISO
  2
AmdtDetailSymStdISO
  3
"Amdt_StdImp|Product Description: AutoCAD Mechanical 2004 DX|Company: Autodesk"
 90
        0
280
     0
281
     0
  0
CLASS
  1
ACMSECTIONSTANDARDISO
  2
AmdtSectionSymStdISO
  3
"Amdt_StdImp|Product Description: AutoCAD Mechanical 2004 DX|Company: Autodesk"
 90
        0
280
     0
281
     0
  0
CLASS
  1
ACMCENTERLINESTANDARDISO
  2
AmdtCenterLineStdISO
  3
"Amdt_StdImp|Product Description: AutoCAD Mechanical 2004 DX|Company: Autodesk"
 90
        0
280
     0
281
     0
  0
CLASS
  1
ACMNOTESTANDARDISO
  2
AmdtNoteStdISO
  3
"Amdt_StdImp|Product Description: AutoCAD Mechanical 2004 DX|Company: Autodesk"
 90
        0
280
     0
281
     0
  0
CLASS
  1
ACAMGLAYSTD
  2
AcAmgLayStd
  3
"AcAmgLayStd|Product Description: AutoCAD Mechanical 2000|Company: Autodesk"
 90
        0
280
     0
281
     0
  0
CLASS
  1
ACAMGDIMSTD
  2
AcAmgDimStd
  3
"AcAmgDimStd|Product Description: AutoCAD Mechanical 2000|Company: Autodesk"
 90
        0
280
     0
281
     0
  0
CLASS
  1
ACAMGHOLECHARTSTDISO
  2
AcAmgHoleChartStdISO
  3
ACMSYMBB_MODULE_NAME
 90
        0
280
     0
281
     0
  0
CLASS
  1
ACAMGTITLESTD
  2
AcAmgTitleStd
  3
"TITLEAPP"
 90
        0
280
     0
281
     0
  0
CLASS
  1
LAYER_INDEX
  2
AcDbLayerIndex
  3
ObjectDBX Classes
 90
    32768
280
     0
281
     0
  0
CLASS
  1
IDBUFFER
  2
AcDbIdBuffer
  3
ObjectDBX Classes
 90
    32768
280
     0
281
     0
  0
CLASS
  1
DICTIONARYVAR
  2
AcDbDictionaryVar
  3
ObjectDBX Classes
 90
        0
280
     0
281
     0
  0
CLASS
  1
AM_DRAWING_MGR
  2
AcDmDwgMgr
  3
AcMechDwgViewMgmt
 90
        0
280
     0
281
     0
  0
CLASS
  1
AM_DWG_DOCUMENT
  2
AcDmDwgDocument
  3
AcMechDwgViewMgmt
 90
        0
280
     0
281
     0
  0
CLASS
  1
AM_DWG_SHEET
  2
AcDmSheet
  3
AcMechDwgViewMgmt
 90
        0
280
     0
281
     0
  0
CLASS
  1
AM_VIEWDIMPARMAP
  2
AcDmViewDimParMap
  3
AcMechDwgViewMgmt
 90
        0
280
     0
281
     0
  0
CLASS
  1
AM_DWGMGR_NAME
  2
AcDmDwgMgrName
  3
AcMechDwgViewMgmt
 90
        0
280
     0
281
     0
  0
CLASS
  1
AMDTMENUSTATEMGR
  2
AmdtMenuStateMgr
  3
McadcomServices
 90
        0
280
     0
281
     0
  0
CLASS
  1
AMDTMCOMMENUSTATE
  2
AmdtMcomMenuState
  3
McadcomServices
 90
        0
280
     0
281
     0
  0
CLASS
  1
MAPIAMMOUDLE
  2
MApiAmModule
  3
MApiAmServices
 90
        0
280
     0
281
     0
  0
CLASS
  1
AMDTADMENUSTATE
  2
AmdtAdMenuState
  3
DesignerServices
 90
        0
280
     0
281
     0
  0
CLASS
  1
ADAPPL
  2
AcAdAppl
  3
DesignerServices
 90
        0
280
     0
281
     0
  0
CLASS
  1
DEPMGR
  2
AcAdDepMgr
  3
DesignerServices
 90
        0
280
     0
281
     0
  0
CLASS
  1
PARAMMGR
  2
AcAdParamMgr
  3
DesignerServices
 90
        0
280
     0
281
     0
  0
CLASS
  1
PARAMSCOPE
  2
AcAdParamScope
  3
DesignerServices
 90
        0
280
     0
281
     0
  0
CLASS
  1
NAMEDAPPL
  2
AcAdNamedAppl
  3
DesignerServices
 90
        0
280
     0
281
     0
  0
CLASS
  1
AMDTDMMENUSTATE
  2
AmdtDmMenuState
  3
AcMechDwgViewMgmt
 90
        0
280
     0
281
     0
  0
CLASS
  1
AMDTAMMENUSTATE
  2
AmdtAmMenuState
  3
DesignerAssemblies
 90
        0
280
     0
281
     0
  0
CLASS
  1
ACAMPROJECT
  2
AcAmProject
  3
DesignerAssemblies
 90
        0
280
     0
281
     0
  0
CLASS
  1
ACAMGRCOMPDEF
  2
AcAmGrCompDef
  3
DesignerAssemblies
 90
        0
280
     0
281
     0
  0
CLASS
  1
ACCMCONTEXT
  2
AcCmContext
  3
DesignerAssemblies
 90
        0
280
     0
281
     0
  0
CLASS
  1
ACAMCOMPDEF
  2
AcAmCompDef
  3
DesignerAssemblies
 90
        0
280
     0
281
     0
  0
CLASS
  1
ACAMCOMPDEFMGR
  2
AcAmCompDefMgr
  3
DesignerAssemblies
 90
        0
280
     0
281
     0
  0
CLASS
  1
AMCONTEXTMGR
  2
AcAmContextMgr
  3
DesignerAssemblies
 90
        0
280
     0
281
     0
  0
CLASS
  1
ACAMCONTEXTMODELER
  2
AcAmContextModeler
  3
DesignerAssemblies
 90
        0
280
     0
281
     0
  0
CLASS
  1
ACMTHREADLINESTANDARDISO
  2
AmdtThreadLineStdISO
  3
"Amdt_StdImp|Product Description: AutoCAD Mechanical 2004 DX|Company: Autodesk"
 90
        0
280
     0
281
     0
  0
CLASS
  1
CATALOGSTATE
  2
AcAmCatalogState
  3
DesignerAssemblies
 90
        0
280
     0
281
     0
  0
CLASS
  1
ACAMGRCOMPDEFSET
  2
AcAmGrCompDefSet
  3
DesignerAssemblies
 90
        0
280
     0
281
     0
  0
CLASS
  1
AMDTBROWSERDBTAB
  2
AmdtBrowserDbTab
  3
McadcomServices
 90
        0
280
     0
281
     0
  0
CLASS
  1
CBROWSERAPPOBJECT
  2
CBrowserAppObject
  3
McadcomServices
 90
        0
280
     0
281
     0
  0
CLASS
  1
DM_PLACEHOLDER
  2
AcDmSelsetPlaceholder
  3
AcMechDwgViewMgmt
 90
        0
280
     0
281
     0
  0
CLASS
  1
TABLESTYLE
  2
AcDbTableStyle
  3
ObjectDBX Classes
 90
     2047
280
     0
281
     0
  0
CLASS
  1
VAACXREFPANELOBJECT
  2
VaAcXREFPanelObject
  3
VAAC_ADDIN
 90
    32768
280
     0
281
     0
  0
CLASS
  1
VAACIMAGEINVENTORY
  2
VaAcImageInventory
  3
VAAC_ADDIN
 90
    32768
280
     0
281
     0
  0
CLASS
  1
AMDTNOTETEMPLATEDB
  2
AmdtNoteTemplateDB
  3
AMDT_STDIMP_MODULE_NAME
 90
        0
280
     0
281
     0
  0
CLASS
  1
ACMBOM
  2
AcmBom
  3
"AcmSymBB|Product Description: AutoCAD Mechanical 2004 DX|Company: Autodesk"
 90
    32768
280
     0
281
     0
  0
CLASS
  1
AMDTFORMULAUPDATEDISPATCHER
  2
AmdtFormulaUpdateDispatcher
  3
AcMeServices
 90
    32768
280
     0
281
     0
  0
CLASS
  1
ACMPARTLIST
  2
AcmPartList
  3
"AcmSymBB|Product Description: AutoCAD Mechanical 2004 DX|Company: Autodesk"
 90
    33791
280
     0
281
     1
  0
CLASS
  1
ACAMGFILTERDAT
  2
AcAmgFilterDat
  3
"AcadM|Product Description: AutoCAD Mechanical 2000|Company: Autodesk"
 90
        0
280
     0
281
     0
  0
CLASS
  1
DIMASSOC
  2
AcDbDimAssoc
  3
"AcDbDimAssoc|Product Desc:     AcDim ARX App For Dimension|Company:          Autodesk, Inc.|WEB Address:      www.autodesk.com"
 90
    32768
280
     0
281
     0
  0
CLASS
  1
ACMSTANDARDANSI
  2
AcmStandardANSI
  3
"Amdt_StdImp|Product Description: AutoCAD Mechanical 2004 DX|Company: Autodesk"
 90
        0
280
     0
281
     0
  0
CLASS
  1
ACMSURFSTANDARDANSI
  2
AcmSurfTextStdANSI
  3
"Amdt_StdImp|Product Description: AutoCAD Mechanical 2004 DX|Company: Autodesk"
 90
        0
280
     0
281
     0
  0
CLASS
  1
ACMFCFSTANDARDANSI
  2
AcmFCFStdANSI
  3
"Amdt_StdImp|Product Description: AutoCAD Mechanical 2004 DX|Company: Autodesk"
 90
        0
280
     0
281
     0
  0
CLASS
  1
ACMWELDSTANDARDANSI
  2
AcmWeldingStdANSI
  3
"Amdt_StdImp|Product Description: AutoCAD Mechanical 2004 DX|Company: Autodesk"
 90
        0
280
     0
281
     0
  0
CLASS
  1
ACMIDSTANDARDANSI
  2
AcmIdStdANSI
  3
"Amdt_StdImp|Product Description: AutoCAD Mechanical 2004 DX|Company: Autodesk"
 90
        0
280
     0
281
     0
  0
CLASS
  1
ACMDATUMSTANDARDANSI
  2
AcmDatumStdANSI
  3
"Amdt_StdImp|Product Description: AutoCAD Mechanical 2004 DX|Company: Autodesk"
 90
        0
280
     0
281
     0
  0
CLASS
  1
ACMBOMSTANDARDANSI
  2
AcmBOMStdANSI
  3
"Amdt_StdImp|Product Description: AutoCAD Mechanical 2004 DX|Company: Autodesk"
 90
        0
280
     0
281
     0
  0
CLASS
  1
ACMDETAILSTANDARDANSI
  2
AmdtDetailSymStdANSI
  3
"Amdt_StdImp|Product Description: AutoCAD Mechanical 2004 DX|Company: Autodesk"
 90
        0
280
     0
281
     0
  0
CLASS
  1
ACMSECTIONSTANDARDANSI
  2
AmdtSectionSymStdANSI
  3
"Amdt_StdImp|Product Description: AutoCAD Mechanical 2004 DX|Company: Autodesk"
 90
        0
280
     0
281
     0
  0
CLASS
  1
ACMCENTERLINESTANDARDANSI
  2
AmdtCenterLineStdANSI
  3
"Amdt_StdImp|Product Description: AutoCAD Mechanical 2004 DX|Company: Autodesk"
 90
        0
280
     0
281
     0
  0
CLASS
  1
ACMTHREADLINESTANDARDANSI
  2
AmdtThreadLineStdANSI
  3
"Amdt_StdImp|Product Description: AutoCAD Mechanical 2004 DX|Company: Autodesk"
 90
        0
280
     0
281
     0
  0
CLASS
  1
ACMNOTESTANDARDANSI
  2
AmdtNoteStdANSI
  3
"Amdt_StdImp|Product Description: AutoCAD Mechanical 2004 DX|Company: Autodesk"
 90
        0
280
     0
281
     0
  0
CLASS
  1
ACAMGHOLECHARTSTDANSI
  2
AcAmgHoleChartStdANSI
  3
ACMSYMBB_MODULE_NAME
 90
        0
280
     0
281
     0
  0
CLASS
  1
SORTENTSTABLE
  2
AcDbSortentsTable
  3
ObjectDBX Classes
 90
        0
280
     0
281
     0
  0
CLASS
  1
STDPART2D
  2
AmgStdPart
  3
"AmgStdPart|Product Description: AutoCAD Mechanical 2000|Company: Autodesk"
 90
    33791
280
     0
281
     1
  0
CLASS
  1
ACAMSTDPCOMPDEF
  2
AcAmStdpCompDef
  3
DesignerAssemblies
 90
    32768
280
     0
281
     0
  0
CLASS
  1
ACRFATTGENMGR
  2
AcRfAttGeneralMgr
  3
AcAttribServices
 90
        0
280
     0
281
     0
  0
CLASS
  1
ACRFOBJATTMGR
  2
AcRfObjAttGroupMgr
  3
AcAttribServices
 90
    32768
280
     0
281
     0
  0
CLASS
  1
ACRFMCADAPIATTHOLDER
  2
AcRfMCADAPIAttHolder
  3
AcAttribServices
 90
    32768
280
     0
281
     0
  0
CLASS
  1
AMDTSYSATTR
  2
AmdtSystemAttribute
  3
AcAttribServices
 90
    32768
280
     0
281
     0
  0
CLASS
  1
ACAMCOMP
  2
AcAmComp
  3
DesignerAssemblies
 90
    32768
280
     0
281
     0
  0
CLASS
  1
AC_AM_STDP_VIEW_DEF
  2
AcAmStdpViewDef
  3
DesignerAssemblies
 90
    32768
280
     0
281
     0
  0
CLASS
  1
AC_AM_MVD_DEP_MGR
  2
AcAmMVDdepMgr
  3
DesignerAssemblies
 90
        0
280
     0
281
     0
  0
CLASS
  1
AC_AM_MASTER_VIEW_DEF
  2
AcAmMasterViewDef
  3
DesignerAssemblies
 90
        0
280
     0
281
     0
  0
CLASS
  1
AC_AM_DIRTY_NODES
  2
AcAmDirtyNodes
  3
DesignerAssemblies
 90
        0
280
     0
281
     0
  0
CLASS
  1
AC_AM_MAPPER_CACHE
  2
AcAmMapperCache
  3
DesignerAssemblies
 90
        0
280
     0
281
     0
  0
CLASS
  1
ACAMMVDBACKUPOBJECT
  2
AcAmMVDBackupObject
  3
DesignerAssemblies
 90
        0
280
     0
281
     0
  0
CLASS
  1
AC_AM_COMP_VIEW_INST
  2
AcAmCompView
  3
DesignerAssemblies
 90
    32768
280
     0
281
     0
  0
CLASS
  1
AC_AM_2D_XREF_MGR
  2
AcAmXrefMgr2d
  3
DesignerAssemblies
 90
        0
280
     0
281
     0
  0
ENDSEC
  0
SECTION
  2
TABLES
  0
TABLE
  2
VPORT
  5
8
330
0
100
AcDbSymbolTable
 70
     4
  0
VPORT
  5
13B4
330
8
100
AcDbSymbolTableRecord
100
AcDbViewportTableRecord
  2
*Active
 70
     0
 10
0.0
 20
0.0
 11
1.0
 21
1.0
 12
289.2594920369558
 22
184.1884010016084
 13
0.0
 23
0.0
 14
2.5
 24
2.5
 15
10.0
 25
10.0
 16
0.0
 26
0.0
 36
1.0
 17
0.0
 27
0.0
 37
0.0
 40
183.1279322061561
 41
1.359890109890109
 42
50.0
 43
0.0
 44
0.0
 50
0.0
 51
0.0
 71
     0
 72
   100
 73
     1
 74
     3
 75
     0
 76
     0
 77
     0
 78
     0
281
     0
 65
     1
110
0.0
120
0.0
130
0.0
111
1.0
121
0.0
131
0.0
112
0.0
122
1.0
132
0.0
 79
     0
146
0.0
  0
ENDTAB
  0
TABLE
  2
LTYPE
  5
5
330
0
100
AcDbSymbolTable
 70
    17
  0
LTYPE
  5
14
330
5
100
AcDbSymbolTableRecord
100
AcDbLinetypeTableRecord
  2
ByBlock
 70
     0
  3

 72
    65
 73
     0
 40
0.0
  0
LTYPE
  5
15
330
5
100
AcDbSymbolTableRecord
100
AcDbLinetypeTableRecord
  2
ByLayer
 70
     0
  3

 72
    65
 73
     0
 40
0.0
  0
LTYPE
  5
16
330
5
100
AcDbSymbolTableRecord
100
AcDbLinetypeTableRecord
  2
Continuous
 70
     0
  3
Solid line
 72
    65
 73
     0
 40
0.0
  0
LTYPE
  5
64
330
5
100
AcDbSymbolTableRecord
100
AcDbLinetypeTableRecord
  2
AM_ISO02W050
 70
     0
  3
__ __ __ __ __ __ __ __ __ __ __ __ __ __ __
 72
    65
 73
     2
 40
7.5
 49
6.0
 74
     0
 49
-1.5
 74
     0
  0
LTYPE
  5
65
330
5
100
AcDbSymbolTableRecord
100
AcDbLinetypeTableRecord
  2
AM_ISO08W050
 70
     0
  3
____ . ____ . ____ . ____ . ____ . ____ . ____
 72
    65
 73
     4
 40
18.0
 49
12.0
 74
     0
 49
-1.5
 74
     0
 49
3.0
 74
     0
 49
-1.5
 74
     0
  0
LTYPE
  5
66
330
5
100
AcDbSymbolTableRecord
100
AcDbLinetypeTableRecord
  2
AM_ISO09W050
 70
     0
  3
_____ . . _____ . . _____ . . ____ .. ____
 72
    65
 73
     6
 40
22.5
 49
12.0
 74
     0
 49
-1.5
 74
     0
 49
3.0
 74
     0
 49
-1.5
 74
     0
 49
3.0
 74
     0
 49
-1.5
 74
     0
  0
LTYPE
  5
67
330
5
100
AcDbSymbolTableRecord
100
AcDbLinetypeTableRecord
  2
Amconstr
 70
     0
  3
_______________________
 72
    65
 73
     2
 40
9999.0
 49
9999.0
 74
     0
 49
0.0
 74
     0
  0
LTYPE
  5
68
330
5
100
AcDbSymbolTableRecord
100
AcDbLinetypeTableRecord
  2
AM_ISO08W050x2
 70
     0
  3
__ . __ . __ . __ . __ . __
 72
    65
 73
     4
 40
9.0
 49
6.0
 74
     0
 49
-0.75
 74
     0
 49
1.5
 74
     0
 49
-0.75
 74
     0
  0
LTYPE
  5
69
330
5
100
AcDbSymbolTableRecord
100
AcDbLinetypeTableRecord
  2
AM_ISO02W050x2
 70
     0
  3
 _ _ _ _ _ _ _ _ _ _ _ _
 72
    65
 73
     2
 40
3.75
 49
3.0
 74
     0
 49
-0.75
 74
     0
  0
LTYPE
  5
6C
330
5
100
AcDbSymbolTableRecord
100
AcDbLinetypeTableRecord
  2
Amzigzag
 70
     0
  3
/\/-/\/-/\/-/\/-/\/-/\/
 72
    65
 73
     2
 40
11.0001
 49
0.0001
 74
     4
 75
   135
340
6B
 46
0.04
 50
0.0
 44
0.0
 45
0.0
 49
-11.0
 74
     0
  0
LTYPE
  5
7A
330
5
100
AcDbSymbolTableRecord
100
AcDbLinetypeTableRecord
  2
ACISOWELD
 70
     0
  3
_ _ _ _ _
 72
    65
 73
     2
 40
2.0
 49
2.0
 74
     0
 49
-1.0
 74
     0
  0
LTYPE
  5
7B
330
5
100
AcDbSymbolTableRecord
100
AcDbLinetypeTableRecord
  2
ACISOTGB
 70
     0
  3
__ . . __ . .
 72
    65
 73
     6
 40
9.0
 49
4.0
 74
     0
 49
-1.0
 74
     0
 49
1.0
 74
     0
 49
-1.0
 74
     0
 49
1.0
 74
     0
 49
-1.0
 74
     0
  0
LTYPE
  5
7C
330
5
100
AcDbSymbolTableRecord
100
AcDbLinetypeTableRecord
  2
ACISOTGL
 70
     0
  3
_ _ _ _ _
 72
    65
 73
     2
 40
3.0
 49
2.0
 74
     0
 49
-1.0
 74
     0
  0
LTYPE
  5
7E
330
5
100
AcDbSymbolTableRecord
100
AcDbLinetypeTableRecord
  2
CENTER
 70
     0
  3
__ . __
 72
    65
 73
     4
 40
7.0
 49
4.0
 74
     0
 49
-1.0
 74
     0
 49
1.0
 74
     0
 49
-1.0
 74
     0
  0
LTYPE
  5
D8
330
5
100
AcDbSymbolTableRecord
100
AcDbLinetypeTableRecord
  2
HIDDEN
 70
     0
  3
Hidden __ __ __ __ __ __ __ __ __ __ __ __ __ _
 72
    65
 73
     2
 40
9.524999999999998
 49
6.349999999999999
 74
     0
 49
-3.174999999999999
 74
     0
  0
LTYPE
  5
D9
330
5
100
AcDbSymbolTableRecord
100
AcDbLinetypeTableRecord
  2
PHANTOM2
 70
     0
  3
Phantom (.5x) ___ _ _ ___ _ _ ___ _ _ ___ _ _
 72
    65
 73
     6
 40
31.75
 49
15.875
 74
     0
 49
-3.174999999999999
 74
     0
 49
3.174999999999999
 74
     0
 49
-3.174999999999999
 74
     0
 49
3.174999999999999
 74
     0
 49
-3.174999999999999
 74
     0
  0
LTYPE
  5
B96
330
5
100
AcDbSymbolTableRecord
100
AcDbLinetypeTableRecord
  2
CENTER2
 70
     0
  3
Center (.5x) ___ _ ___ _ ___ _ ___ _ ___ _ ___
 72
    65
 73
     4
 40
1.125
 49
0.75
 74
     0
 49
-0.125
 74
     0
 49
0.125
 74
     0
 49
-0.125
 74
     0
  0
LTYPE
  5
B99
330
5
100
AcDbSymbolTableRecord
100
AcDbLinetypeTableRecord
  2
ACANSTGB
 70
     0
  3
__ . . __ . .
 72
    65
 73
     6
 40
0.35433070866
 49
0.15748031496
 74
     0
 49
-0.03937007874
 74
     0
 49
0.03937007874
 74
     0
 49
-0.03937007874
 74
     0
 49
0.03937007874
 74
     0
 49
-0.03937007874
 74
     0
  0
LTYPE
  5
B9A
330
5
100
AcDbSymbolTableRecord
100
AcDbLinetypeTableRecord
  2
ACANSTGL
 70
     0
  3
_ _ _ _ _
 72
    65
 73
     2
 40
0.11811023622
 49
0.07874015748
 74
     0
 49
-0.03937007874
 74
     0
  0
ENDTAB
  0
TABLE
  2
LAYER
  5
2
102
{ACAD_XDICTIONARY
360
3F9
102
}
330
0
100
AcDbSymbolTable
 70
    10
  0
LAYER
  5
10
330
2
100
AcDbSymbolTableRecord
100
AcDbLayerTableRecord
  2
0
 70
     0
 62
     7
  6
Continuous
370
    -3
390
F
  0
LAYER
  5
B9B
330
2
100
AcDbSymbolTableRecord
100
AcDbLayerTableRecord
  2
DIM
 70
     0
 62
     4
  6
Continuous
370
    18
390
F
  0
LAYER
  5
B9C
330
2
100
AcDbSymbolTableRecord
100
AcDbLayerTableRecord
  2
DEFPOINTS
 70
     0
 62
     7
  6
Continuous
290
     0
370
    -3
390
F
  0
LAYER
  5
B9D
330
2
100
AcDbSymbolTableRecord
100
AcDbLayerTableRecord
  2
Center
 70
     0
 62
     1
  6
CENTER2
370
    13
390
F
  0
LAYER
  5
E18
330
2
100
AcDbSymbolTableRecord
100
AcDbLayerTableRecord
  2
AM_5
 70
     0
 62
     5
  6
Continuous
370
    50
390
F
  0
LAYER
  5
10FD
330
2
100
AcDbSymbolTableRecord
100
AcDbLayerTableRecord
  2
LOGO
 70
     0
 62
     7
  6
Continuous
370
    -3
390
F
  0
LAYER
  5
1240
330
2
100
AcDbSymbolTableRecord
100
AcDbLayerTableRecord
  2
AM_7
 70
     0
 62
     1
  6
CENTER
370
    25
390
F
  0
LAYER
  5
12EF
330
2
100
AcDbSymbolTableRecord
100
AcDbLayerTableRecord
  2
AM_0
 70
     0
 62
     7
  6
Continuous
370
    50
390
F
  0
LAYER
  5
12F0
330
2
100
AcDbSymbolTableRecord
100
AcDbLayerTableRecord
  2
AM_4
 70
     0
 62
     3
  6
Continuous
370
    25
390
F
  0
LAYER
  5
1334
330
2
100
AcDbSymbolTableRecord
100
AcDbLayerTableRecord
  2
AM_9
 70
     0
 62
  -253
  6
Continuous
370
     0
390
F
  0
ENDTAB
  0
TABLE
  2
STYLE
  5
3
330
0
100
AcDbSymbolTable
 70
     9
  0
STYLE
  5
11
330
3
100
AcDbSymbolTableRecord
100
AcDbTextStyleTableRecord
  2
STANDARD
 70
     0
 40
0.0
 41
1.0
 50
0.0
 71
     0
 42
3.0
  3
ISOCP.SHX
  4
CHINESET.SHX
  0
STYLE
  5
6B
330
3
100
AcDbSymbolTableRecord
100
AcDbTextStyleTableRecord
  2

 70
     1
 40
0.0
 41
1.0
 50
0.0
 71
     0
 42
2.5
  3
ltypeshp.shx
  4

  0
STYLE
  5
6D
330
3
100
AcDbSymbolTableRecord
100
AcDbTextStyleTableRecord
  2
ACISOTS
 70
     0
 40
1.0
 41
1.0
 50
0.0
 71
     0
 42
1.0
  3
isocp.shx
  4
chineset.shx
  0
STYLE
  5
79
330
3
100
AcDbSymbolTableRecord
100
AcDbTextStyleTableRecord
  2
ACISOGDT
 70
     0
 40
0.0
 41
1.0
 50
0.0
 71
     0
 42
2.5
  3
amgdt.shx
  4
chineset.shx
  0
STYLE
  5
B9E
330
3
100
AcDbSymbolTableRecord
100
AcDbTextStyleTableRecord
  2
CHINA
 70
     0
 40
0.0
 41
1.0
 50
0.0
 71
     0
 42
3.5
  3
romans.shx
  4
chineset.shx
  0
STYLE
  5
B9F
330
3
100
AcDbSymbolTableRecord
100
AcDbTextStyleTableRecord
  2
ACANSTS
 70
     0
 40
1.0
 41
1.0
 50
0.0
 71
     0
 42
3.5
  3
romans.shx
  4
chineset.shx
  0
STYLE
  5
BA0
330
3
100
AcDbSymbolTableRecord
100
AcDbTextStyleTableRecord
  2
ACANSGDT
 70
     0
 40
0.0
 41
1.0
 50
0.0
 71
     0
 42
3.5
  3
amgdtans.shx
  4

  0
STYLE
  5
10FE
330
3
100
AcDbSymbolTableRecord
100
AcDbTextStyleTableRecord
  2
chineset
 70
     0
 40
0.0
 41
1.0
 50
0.0
 71
     0
 42
5.0
  3
simplex.shx
  4
chineset.shx
  0
ENDTAB
  0
TABLE
  2
VIEW
  5
6
330
0
100
AcDbSymbolTable
 70
     0
  0
ENDTAB
  0
TABLE
  2
UCS
  5
7
330
0
100
AcDbSymbolTable
 70
     0
  0
ENDTAB
  0
TABLE
  2
APPID
  5
9
330
0
100
AcDbSymbolTable
 70
    26
  0
APPID
  5
12
330
9
100
AcDbSymbolTableRecord
100
AcDbRegAppTableRecord
  2
ACAD
 70
     0
  0
APPID
  5
46
330
9
100
AcDbSymbolTableRecord
100
AcDbRegAppTableRecord
  2
MCAD_NO_VIS
 70
     0
  0
APPID
  5
47
330
9
100
AcDbSymbolTableRecord
100
AcDbRegAppTableRecord
  2
ACAD_TEMP_GRAPHIC
 70
     0
  0
APPID
  5
58
330
9
100
AcDbSymbolTableRecord
100
AcDbRegAppTableRecord
  2
ACATTRIBSERVICES
 70
     0
  0
APPID
  5
EE
330
9
100
AcDbSymbolTableRecord
100
AcDbRegAppTableRecord
  2
AD_DRAW
 70
     0
  0
APPID
  5
10C
330
9
100
AcDbSymbolTableRecord
100
AcDbRegAppTableRecord
  2
DESIGNERASSEMBLIES
 70
     0
  0
APPID
  5
111
330
9
100
AcDbSymbolTableRecord
100
AcDbRegAppTableRecord
  2
ACADM_DIM_EDIT
 70
     0
  0
APPID
  5
112
330
9
100
AcDbSymbolTableRecord
100
AcDbRegAppTableRecord
  2
AMDT_DM_ADJ
 70
     0
  0
APPID
  5
22C
330
9
100
AcDbSymbolTableRecord
100
AcDbRegAppTableRecord
  2
ACAD_DSTYLE_DIMTEXT_FILL
 70
     0
  0
APPID
  5
452
330
9
100
AcDbSymbolTableRecord
100
AcDbRegAppTableRecord
  2
GENIUS_GENOENT_13
 70
     0
  0
APPID
  5
453
330
9
100
AcDbSymbolTableRecord
100
AcDbRegAppTableRecord
  2
GENIUS_GENOBJ-N-CRS_13
 70
     0
  0
APPID
  5
454
330
9
100
AcDbSymbolTableRecord
100
AcDbRegAppTableRecord
  2
GENIUS_GENOLIS_13
 70
     0
  0
APPID
  5
455
330
9
100
AcDbSymbolTableRecord
100
AcDbRegAppTableRecord
  2
GENIUS_GENODEF_13
 70
     0
  0
APPID
  5
456
330
9
100
AcDbSymbolTableRecord
100
AcDbRegAppTableRecord
  2
GENIUS_GENOREF_13
 70
     0
  0
APPID
  5
6F3
330
9
100
AcDbSymbolTableRecord
100
AcDbRegAppTableRecord
  2
ACAD_PSEXT
 70
     0
  0
APPID
  5
808
330
9
100
AcDbSymbolTableRecord
100
AcDbRegAppTableRecord
  2
GENIUS_GENDTOL_13
 70
     0
  0
APPID
  5
10FF
330
9
100
AcDbSymbolTableRecord
100
AcDbRegAppTableRecord
  2
GENIUS_GENREC_14
 70
     0
  0
APPID
  5
1100
330
9
100
AcDbSymbolTableRecord
100
AcDbRegAppTableRecord
  2
GENIUS_GENOBJ-N-REC_13
 70
     0
  0
APPID
  5
1242
330
9
100
AcDbSymbolTableRecord
100
AcDbRegAppTableRecord
  2
GENIUS_GENOBJ-N-CEN_13
 70
     0
  0
APPID
  5
1243
330
9
100
AcDbSymbolTableRecord
100
AcDbRegAppTableRecord
  2
GENIUS_GENCEN_19
 70
     0
  0
APPID
  5
1315
330
9
100
AcDbSymbolTableRecord
100
AcDbRegAppTableRecord
  2
GEVID1193807180
 70
     0
  0
APPID
  5
1316
330
9
100
AcDbSymbolTableRecord
100
AcDbRegAppTableRecord
  2
GEVDC
 70
     0
  0
APPID
  5
1317
330
9
100
AcDbSymbolTableRecord
100
AcDbRegAppTableRecord
  2
GEVRADREF
 70
     0
  0
APPID
  5
1320
330
9
100
AcDbSymbolTableRecord
100
AcDbRegAppTableRecord
  2
AMG_2DHIDE
 70
     0
  0
APPID
  5
1321
330
9
100
AcDbSymbolTableRecord
100
AcDbRegAppTableRecord
  2
AMG_2DSTRUCT_BTR
 70
     0
  0
APPID
  5
1332
330
9
100
AcDbSymbolTableRecord
100
AcDbRegAppTableRecord
  2
ACADM_2DVIEW_IGN_NOTIFY
 70
     0
  0
ENDTAB
  0
TABLE
  2
DIMSTYLE
  5
A
330
0
100
AcDbSymbolTable
 70
    15
100
AcDbDimStyleTable
 71
     3
340
81
340
8B
340
86
  0
DIMSTYLE
105
81
330
A
100
AcDbSymbolTableRecord
100
AcDbDimStyleTableRecord
  2
AM_ISO
 70
     0
  4
"
 41
3.0
 42
1.5
 43
8.0
 44
1.5
 47
0.1
 48
0.1
 73
     0
 74
     0
 77
     1
 78
     8
 79
     2
140
3.5
141
0.0
143
0.0393701
146
0.6
147
1.0
172
     1
176
   256
177
   256
178
   256
271
     2
272
     2
283
     0
284
     8
340
11
371
    -1
372
    -1
  0
DIMSTYLE
105
82
330
A
100
AcDbSymbolTableRecord
100
AcDbDimStyleTableRecord
  2
AM_ISO$3
 70
     0
  4
"
 41
3.0
 42
1.5
 43
8.0
 44
1.5
 47
0.1
 48
0.1
 73
     0
 77
     1
 78
     8
 79
     2
140
3.5
141
0.0
143
0.0393701
146
0.6
147
1.0
176
   256
177
   256
178
   256
271
     2
272
     2
283
     0
284
     8
288
     1
289
     0
340
11
371
    -1
372
    -1
  0
DIMSTYLE
105
83
330
A
100
AcDbSymbolTableRecord
100
AcDbDimStyleTableRecord
  2
AM_ISO$4
 70
     0
  4
"
 41
3.0
 42
1.5
 43
8.0
 44
1.5
 47
0.1
 48
0.1
 73
     0
 77
     1
 78
     8
 79
     2
140
3.5
141
0.0
143
0.0393701
146
0.6
147
1.0
176
   256
177
   256
178
   256
271
     2
272
     2
283
     0
284
     8
288
     1
289
     0
340
11
371
    -1
372
    -1
  0
DIMSTYLE
105
84
330
A
100
AcDbSymbolTableRecord
100
AcDbDimStyleTableRecord
  2
AM_ISO$6
 70
     0
  4
"
 41
3.0
 42
1.5
 43
8.0
 44
1.5
 47
0.1
 48
0.1
 73
     0
 74
     0
 78
     8
 79
     2
140
3.5
141
0.0
143
0.0393701
146
0.6
147
1.0
172
     1
176
   256
177
   256
178
   256
271
     2
272
     2
283
     0
284
     8
340
11
371
    -1
372
    -1
  0
DIMSTYLE
105
85
102
{ACAD_REACTORS
330
CB3
330
CB8
330
C9A
330
C9E
330
CAD
102
}
330
A
100
AcDbSymbolTableRecord
100
AcDbDimStyleTableRecord
  2
AM_ISO$7
 70
     0
  4
"
 41
3.0
 42
1.5
 43
8.0
 44
1.5
 47
0.1
 48
0.1
 73
     0
 74
     0
 77
     1
 78
     8
 79
     2
140
5.0
141
0.0
143
0.0393701
146
0.6
147
1.0
172
     1
176
   256
177
   256
178
   256
271
     2
272
     2
283
     0
284
     8
340
11
371
    -1
372
    -1
  0
DIMSTYLE
105
86
330
A
100
AcDbSymbolTableRecord
100
AcDbDimStyleTableRecord
  2
AM_ISO$SF
 70
     0
  4
"
 41
2.5
 42
1.0
 43
10.0
 44
1.0
 47
0.1
 48
0.1
 73
     0
 74
     0
 75
     1
 76
     1
 77
     1
 78
     8
 79
     2
140
3.5
141
0.0
143
0.0393701
146
0.71
147
1.5
172
     1
176
   256
177
   256
178
     2
271
     2
272
     3
274
     4
283
     0
284
     8
340
11
371
    -1
372
    -1
  0
DIMSTYLE
105
8B
330
A
100
AcDbSymbolTableRecord
100
AcDbDimStyleTableRecord
  2
AM_ISO$SH
 70
     0
  4
"
 41
2.5
 42
1.0
 43
10.0
 44
1.0
 47
0.1
 48
0.1
 73
     0
 74
     0
 75
     1
 76
     1
 77
     1
 78
     8
 79
     2
140
3.5
141
0.0
143
0.0393701
144
2.0
146
0.71
147
1.5
172
     1
173
     1
176
   256
177
   256
178
     2
271
     2
272
     3
274
     4
283
     0
284
     8
340
11
343
87
371
    -1
372
    -1
  0
DIMSTYLE
105
40B
102
{ACAD_REACTORS
330
C8B
330
C90
330
C8F
330
CA3
330
CA2
330
CA1
330
C8D
330
C8C
330
C8E
330
CA6
330
CA5
330
CB6
330
C92
330
C91
330
C95
330
C94
330
C93
102
}
330
A
100
AcDbSymbolTableRecord
100
AcDbDimStyleTableRecord
  2
AM_ISO$0
 70
     0
  4
"
 41
3.0
 42
1.5
 43
8.0
 44
1.5
 47
0.1
 48
0.1
 73
     0
 74
     0
 77
     1
 78
     8
 79
     2
140
3.5
141
0.0
143
0.0393701
146
0.6
147
1.0
172
     1
176
   256
177
   256
178
   256
271
     2
272
     2
283
     0
284
     8
340
11
371
    -1
372
    -1
  0
DIMSTYLE
105
BA3
330
A
100
AcDbSymbolTableRecord
100
AcDbDimStyleTableRecord
  2
AM_ANSI
 70
     0
  4
mm
 41
0.1
 42
0.05
 43
0.5
 44
0.1
 47
0.1
 48
0.1
 78
     7
 79
     2
140
0.12
141
0.0
146
0.71
147
0.06
176
   256
177
   256
178
     2
274
     4
284
     7
340
11
371
    -1
372
    -1
  0
DIMSTYLE
105
BA4
330
A
100
AcDbSymbolTableRecord
100
AcDbDimStyleTableRecord
  2
AM_ANSI$3
 70
     0
  4
mm
 41
0.1
 42
0.05
 43
0.5
 44
0.1
 47
0.1
 48
0.1
 78
     7
 79
     2
140
0.12
141
0.0
146
0.71
147
0.06
176
   256
177
   256
178
     2
274
     4
284
     7
288
     1
289
     0
340
11
371
    -1
372
    -1
  0
DIMSTYLE
105
BA5
330
A
100
AcDbSymbolTableRecord
100
AcDbDimStyleTableRecord
  2
AM_ANSI$4
 70
     0
  4
mm
 41
0.1
 42
0.05
 43
0.5
 44
0.1
 47
0.1
 48
0.1
 78
     7
 79
     2
140
0.12
141
0.0
146
0.71
147
0.06
176
   256
177
   256
178
     2
274
     4
284
     7
288
     1
289
     0
340
11
371
    -1
372
    -1
  0
DIMSTYLE
105
BA6
330
A
100
AcDbSymbolTableRecord
100
AcDbDimStyleTableRecord
  2
AM_ANSI$7
 70
     0
  4
mm
 41
0.1
 42
0.05
 43
0.5
 44
0.1
 47
0.1
 48
0.1
 78
     7
 79
     2
140
0.24
141
0.0
146
0.71
147
0.06
176
   256
177
   256
178
     2
274
     4
284
     7
340
11
371
    -1
372
    -1
  0
DIMSTYLE
105
BA7
330
A
100
AcDbSymbolTableRecord
100
AcDbDimStyleTableRecord
  2
AM_ANSI$SF
 70
     0
  4
mm
 41
0.1
 42
0.05
 43
0.5
 44
0.1
 47
0.1
 48
0.1
 75
     1
 76
     1
 78
     7
 79
     2
140
0.12
141
0.0
146
0.71
147
0.06
176
   256
177
   256
178
     2
274
     4
284
     7
340
11
371
    -1
372
    -1
  0
DIMSTYLE
105
BA8
330
A
100
AcDbSymbolTableRecord
100
AcDbDimStyleTableRecord
  2
AM_ANSI$SH
 70
     0
  4
mm
 41
0.1
 42
0.05
 43
0.5
 44
0.1
 47
0.1
 48
0.1
 75
     1
 76
     1
 78
     7
 79
     2
140
0.12
141
0.0
146
0.71
147
0.06
173
     1
176
   256
177
   256
178
     2
274
     4
284
     7
340
11
343
87
371
    -1
372
    -1
  0
ENDTAB
  0
TABLE
  2
BLOCK_RECORD
  5
1
330
0
100
AcDbSymbolTable
 70
    24
  0
BLOCK_RECORD
  5
1F
102
{ACAD_XDICTIONARY
360
8F
102
}
330
1
100
AcDbSymbolTableRecord
100
AcDbBlockTableRecord
  2
*Model_Space
340
22
  0
BLOCK_RECORD
  5
1B
330
1
100
AcDbSymbolTableRecord
100
AcDbBlockTableRecord
  2
*Paper_Space
340
1E
  0
BLOCK_RECORD
  5
23
330
1
100
AcDbSymbolTableRecord
100
AcDbBlockTableRecord
  2
*Paper_Space0
340
26
  0
BLOCK_RECORD
  5
87
330
1
100
AcDbSymbolTableRecord
100
AcDbBlockTableRecord
  2
GENAXEH
340
0
  0
BLOCK_RECORD
  5
CBA
330
1
100
AcDbSymbolTableRecord
100
AcDbBlockTableRecord
  2
*D3
340
0
  0
BLOCK_RECORD
  5
CC6
330
1
100
AcDbSymbolTableRecord
100
AcDbBlockTableRecord
  2
*D4
340
0
  0
BLOCK_RECORD
  5
CD2
330
1
100
AcDbSymbolTableRecord
100
AcDbBlockTableRecord
  2
*D5
340
0
  0
BLOCK_RECORD
  5
CDE
330
1
100
AcDbSymbolTableRecord
100
AcDbBlockTableRecord
  2
*D6
340
0
  0
BLOCK_RECORD
  5
CEA
330
1
100
AcDbSymbolTableRecord
100
AcDbBlockTableRecord
  2
*D7
340
0
  0
BLOCK_RECORD
  5
CF6
330
1
100
AcDbSymbolTableRecord
100
AcDbBlockTableRecord
  2
*D8
340
0
  0
BLOCK_RECORD
  5
D01
330
1
100
AcDbSymbolTableRecord
100
AcDbBlockTableRecord
  2
*D9
340
0
  0
BLOCK_RECORD
  5
D0D
330
1
100
AcDbSymbolTableRecord
100
AcDbBlockTableRecord
  2
*D10
340
0
  0
BLOCK_RECORD
  5
D19
330
1
100
AcDbSymbolTableRecord
100
AcDbBlockTableRecord
  2
*D11
340
0
  0
BLOCK_RECORD
  5
D25
330
1
100
AcDbSymbolTableRecord
100
AcDbBlockTableRecord
  2
*D12
340
0
  0
BLOCK_RECORD
  5
D30
330
1
100
AcDbSymbolTableRecord
100
AcDbBlockTableRecord
  2
*D13
340
0
  0
BLOCK_RECORD
  5
D3C
330
1
100
AcDbSymbolTableRecord
100
AcDbBlockTableRecord
  2
*D14
340
0
  0
BLOCK_RECORD
  5
D48
330
1
100
AcDbSymbolTableRecord
100
AcDbBlockTableRecord
  2
*D15
340
0
  0
BLOCK_RECORD
  5
D53
330
1
100
AcDbSymbolTableRecord
100
AcDbBlockTableRecord
  2
*D16
340
0
  0
BLOCK_RECORD
  5
D5E
330
1
100
AcDbSymbolTableRecord
100
AcDbBlockTableRecord
  2
*D17
340
0
  0
BLOCK_RECORD
  5
D6A
330
1
100
AcDbSymbolTableRecord
100
AcDbBlockTableRecord
  2
*D18
340
0
  0
BLOCK_RECORD
  5
D76
330
1
100
AcDbSymbolTableRecord
100
AcDbBlockTableRecord
  2
*D19
340
0
  0
BLOCK_RECORD
  5
1286
330
1
100
AcDbSymbolTableRecord
100
AcDbBlockTableRecord
  2
GENDOT
340
0
102
{BLKREFS
331
12D5
331
1375
102
}
  0
BLOCK_RECORD
  5
1336
330
1
100
AcDbSymbolTableRecord
100
AcDbBlockTableRecord
  2
*U22
340
0
  0
ENDTAB
  0
ENDSEC
  0
SECTION
  2
BLOCKS
  0
BLOCK
  5
20
330
1F
100
AcDbEntity
  8
0
100
AcDbBlockBegin
  2
*Model_Space
 70
     0
 10
0.0
 20
0.0
 30
0.0
  3
*Model_Space
  1

  0
ENDBLK
  5
21
330
1F
100
AcDbEntity
  8
0
100
AcDbBlockEnd
  0
BLOCK
  5
1C
330
1B
100
AcDbEntity
 67
     1
  8
0
100
AcDbBlockBegin
  2
*Paper_Space
 70
     0
 10
0.0
 20
0.0
 30
0.0
  3
*Paper_Space
  1

  0
ENDBLK
  5
1D
330
1B
100
AcDbEntity
 67
     1
  8
0
100
AcDbBlockEnd
  0
BLOCK
  5
24
330
23
100
AcDbEntity
  8
0
100
AcDbBlockBegin
  2
*Paper_Space0
 70
     0
 10
0.0
 20
0.0
 30
0.0
  3
*Paper_Space0
  1

  0
ENDBLK
  5
25
330
23
100
AcDbEntity
  8
0
100
AcDbBlockEnd
  0
BLOCK
  5
89
330
87
100
AcDbEntity
  8
0
100
AcDbBlockBegin
  2
GENAXEH
 70
     0
 10
0.0
 20
0.0
 30
0.0
  3
GENAXEH
  1

  0
LINE
  5
88
330
87
100
AcDbEntity
  8
0
100
AcDbLine
 10
-1.0
 20
0.0
 30
0.0
 11
1.0
 21
0.0
 31
0.0
  0
ENDBLK
  5
8A
330
87
100
AcDbEntity
  8
0
100
AcDbBlockEnd
  0
BLOCK
  5
CC4
330
CBA
100
AcDbEntity
  8
0
100
AcDbBlockBegin
  2
*D3
 70
     1
 10
0.0
 20
0.0
 30
0.0
  3
*D3
  1

  0
LINE
  5
1097
330
CBA
100
AcDbEntity
  8
AM_5
100
AcDbLine
 10
242.5670895902913
 20
237.9837328305529
 30
0.0
 11
242.5670895902913
 21
260.5755606715807
 31
0.0
  0
LINE
  5
1098
330
CBA
100
AcDbEntity
  8
AM_5
100
AcDbLine
 10
212.5670895902913
 20
238.6201153169687
 30
0.0
 11
212.5670895902913
 21
260.5755606715807
 31
0.0
  0
LINE
  5
1099
330
CBA
100
AcDbEntity
  8
AM_5
100
AcDbLine
 10
239.5670895902913
 20
259.0755606715807
 30
0.0
 11
215.5670895902913
 21
259.0755606715807
 31
0.0
  0
SOLID
  5
109A
330
CBA
100
AcDbEntity
  8
AM_5
100
AcDbTrace
 10
239.5670895902913
 20
259.5755606715806
 30
0.0
 11
239.5670895902913
 21
258.5755606715807
 31
0.0
 12
242.5670895902913
 22
259.0755606715807
 32
0.0
 13
242.5670895902913
 23
259.0755606715807
 33
0.0
  0
SOLID
  5
109B
330
CBA
100
AcDbEntity
  8
AM_5
100
AcDbTrace
 10
215.5670895902913
 20
259.5755606715806
 30
0.0
 11
215.5670895902913
 21
258.5755606715807
 31
0.0
 12
212.5670895902913
 22
259.0755606715807
 32
0.0
 13
212.5670895902913
 23
259.0755606715807
 33
0.0
  0
MTEXT
  5
109C
330
CBA
100
AcDbEntity
  8
AM_5
100
AcDbMText
 10
227.5670895902913
 20
261.8255606715806
 30
0.0
 40
3.5
 41
0.0
 71
     5
 72
     1
  1
30
 73
     1
 44
1.0
1001
ACAD
1000
MTEXTBEGIN
1070
    73
1070
     1
1070
    44
1040
1.0
1070
    74
1070
     0
1000
MTEXTEND
  0
POINT
  5
109D
330
CBA
100
AcDbEntity
  8
DEFPOINTS
 62
     0
100
AcDbPoint
 10
242.5670895902913
 20
236.4837328305529
 30
0.0
  0
POINT
  5
109E
330
CBA
100
AcDbEntity
  8
DEFPOINTS
 62
     0
100
AcDbPoint
 10
212.5670895902913
 20
237.1201153169687
 30
0.0
  0
POINT
  5
109F
330
CBA
100
AcDbEntity
  8
DEFPOINTS
 62
     0
100
AcDbPoint
 10
212.5670895902913
 20
259.0755606715807
 30
0.0
  0
ENDBLK
  5
CC5
330
CBA
100
AcDbEntity
  8
0
100
AcDbBlockEnd
  0
BLOCK
  5
CD0
330
CC6
100
AcDbEntity
  8
0
100
AcDbBlockBegin
  2
*D4
 70
     1
 10
0.0
 20
0.0
 30
0.0
  3
*D4
  1

  0
LINE
  5
12E3
330
CC6
100
AcDbEntity
  8
AM_5
100
AcDbLine
 10
212.5670895902913
 20
177.0573887495624
 30
0.0
 11
212.5670895902913
 21
191.349911144572
 31
0.0
  0
LINE
  5
12E4
330
CC6
100
AcDbEntity
  8
AM_5
100
AcDbLine
 10
242.5670895902913
 20
176.4210062631467
 30
0.0
 11
242.5670895902913
 21
191.349911144572
 31
0.0
  0
LINE
  5
12E5
330
CC6
100
AcDbEntity
  8
AM_5
100
AcDbLine
 10
215.5670895902913
 20
189.849911144572
 30
0.0
 11
239.5670895902913
 21
189.849911144572
 31
0.0
  0
SOLID
  5
12E6
330
CC6
100
AcDbEntity
  8
AM_5
100
AcDbTrace
 10
215.5670895902913
 20
190.349911144572
 30
0.0
 11
215.5670895902913
 21
189.349911144572
 31
0.0
 12
212.5670895902913
 22
189.849911144572
 32
0.0
 13
212.5670895902913
 23
189.849911144572
 33
0.0
  0
SOLID
  5
12E7
330
CC6
100
AcDbEntity
  8
AM_5
100
AcDbTrace
 10
239.5670895902913
 20
190.349911144572
 30
0.0
 11
239.5670895902913
 21
189.349911144572
 31
0.0
 12
242.5670895902913
 22
189.849911144572
 32
0.0
 13
242.5670895902913
 23
189.849911144572
 33
0.0
  0
MTEXT
  5
12E8
330
CC6
100
AcDbEntity
  8
AM_5
100
AcDbMText
 10
227.5670895902913
 20
192.599911144572
 30
0.0
 40
3.5
 41
0.0
 71
     5
 72
     1
  1
30
 73
     1
 44
1.0
1001
ACAD
1000
MTEXTBEGIN
1070
    73
1070
     1
1070
    44
1040
1.0
1070
    74
1070
     0
1000
MTEXTEND
  0
POINT
  5
12E9
330
CC6
100
AcDbEntity
  8
DEFPOINTS
 62
     0
100
AcDbPoint
 10
212.5670895902913
 20
175.5573887495624
 30
0.0
  0
POINT
  5
12EA
330
CC6
100
AcDbEntity
  8
DEFPOINTS
 62
     0
100
AcDbPoint
 10
242.5670895902913
 20
174.9210062631467
 30
0.0
  0
POINT
  5
12EB
330
CC6
100
AcDbEntity
  8
DEFPOINTS
 62
     0
100
AcDbPoint
 10
242.5670895902913
 20
189.849911144572
 30
0.0
  0
ENDBLK
  5
CD1
330
CC6
100
AcDbEntity
  8
0
100
AcDbBlockEnd
  0
BLOCK
  5
CDC
330
CD2
100
AcDbEntity
  8
0
100
AcDbBlockBegin
  2
*D5
 70
     1
 10
0.0
 20
0.0
 30
0.0
  3
*D5
  1

  0
LINE
  5
12DA
330
CD2
100
AcDbEntity
  8
AM_5
100
AcDbLine
 10
200.5670895902913
 20
183.7156692747437
 30
0.0
 11
200.5670895902913
 21
199.349911144572
 31
0.0
  0
LINE
  5
12DB
330
CD2
100
AcDbEntity
  8
AM_5
100
AcDbLine
 10
254.5670895902913
 20
183.7156692747438
 30
0.0
 11
254.5670895902913
 21
199.349911144572
 31
0.0
  0
LINE
  5
12DC
330
CD2
100
AcDbEntity
  8
AM_5
100
AcDbLine
 10
203.5670895902913
 20
197.849911144572
 30
0.0
 11
251.5670895902913
 21
197.849911144572
 31
0.0
  0
SOLID
  5
12DD
330
CD2
100
AcDbEntity
  8
AM_5
100
AcDbTrace
 10
203.5670895902913
 20
198.349911144572
 30
0.0
 11
203.5670895902913
 21
197.349911144572
 31
0.0
 12
200.5670895902913
 22
197.849911144572
 32
0.0
 13
200.5670895902913
 23
197.849911144572
 33
0.0
  0
SOLID
  5
12DE
330
CD2
100
AcDbEntity
  8
AM_5
100
AcDbTrace
 10
251.5670895902913
 20
198.349911144572
 30
0.0
 11
251.5670895902913
 21
197.349911144572
 31
0.0
 12
254.5670895902913
 22
197.849911144572
 32
0.0
 13
254.5670895902913
 23
197.849911144572
 33
0.0
  0
MTEXT
  5
12DF
330
CD2
100
AcDbEntity
  8
AM_5
100
AcDbMText
 10
227.5670895902913
 20
200.599911144572
 30
0.0
 40
3.5
 41
0.0
 71
     5
 72
     1
  1
54
 73
     1
 44
1.0
1001
ACAD
1000
MTEXTBEGIN
1070
    73
1070
     1
1070
    44
1040
1.0
1070
    74
1070
     0
1000
MTEXTEND
  0
POINT
  5
12E0
330
CD2
100
AcDbEntity
  8
DEFPOINTS
 62
     0
100
AcDbPoint
 10
200.5670895902913
 20
182.2156692747437
 30
0.0
  0
POINT
  5
12E1
330
CD2
100
AcDbEntity
  8
DEFPOINTS
 62
     0
100
AcDbPoint
 10
254.5670895902913
 20
182.2156692747438
 30
0.0
  0
POINT
  5
12E2
330
CD2
100
AcDbEntity
  8
DEFPOINTS
 62
     0
100
AcDbPoint
 10
254.5670895902913
 20
197.849911144572
 30
0.0
  0
ENDBLK
  5
CDD
330
CD2
100
AcDbEntity
  8
0
100
AcDbBlockEnd
  0
BLOCK
  5
CE8
330
CDE
100
AcDbEntity
  8
0
100
AcDbBlockBegin
  2
*D6
 70
     1
 10
0.0
 20
0.0
 30
0.0
  3
*D6
  1

  0
LINE
  5
10F2
330
CDE
100
AcDbEntity
  8
AM_5
100
AcDbLine
 10
199.0670895902913
 20
182.2156692747438
 30
0.0
 11
189.2842929741378
 21
182.2156692747438
 31
0.0
  0
LINE
  5
10F3
330
CDE
100
AcDbEntity
  8
AM_5
100
AcDbLine
 10
205.7870960011942
 20
170.2156692747438
 30
0.0
 11
189.2842929741378
 21
170.2156692747438
 31
0.0
  0
LINE
  5
10F4
330
CDE
100
AcDbEntity
  8
AM_5
100
AcDbLine
 10
190.7842929741377
 20
179.2156692747438
 30
0.0
 11
190.7842929741377
 21
173.2156692747438
 31
0.0
  0
SOLID
  5
10F5
330
CDE
100
AcDbEntity
  8
AM_5
100
AcDbTrace
 10
190.2842929741377
 20
179.2156692747438
 30
0.0
 11
191.2842929741378
 21
179.2156692747438
 31
0.0
 12
190.7842929741377
 22
182.2156692747438
 32
0.0
 13
190.7842929741377
 23
182.2156692747438
 33
0.0
  0
SOLID
  5
10F6
330
CDE
100
AcDbEntity
  8
AM_5
100
AcDbTrace
 10
190.2842929741377
 20
173.2156692747438
 30
0.0
 11
191.2842929741378
 21
173.2156692747438
 31
0.0
 12
190.7842929741377
 22
170.2156692747438
 32
0.0
 13
190.7842929741377
 23
170.2156692747438
 33
0.0
  0
MTEXT
  5
10F7
330
CDE
100
AcDbEntity
  8
AM_5
100
AcDbMText
 10
188.0339484859487
 20
176.2156692747438
 30
0.0
 40
3.5
 41
0.0
 71
     5
 72
     1
  1
12
 11
0.0000000000000001
 21
1.0
 31
0.0
 73
     1
 44
1.0
1001
ACAD
1000
MTEXTBEGIN
1070
    73
1070
     1
1070
    44
1040
1.0
1070
    74
1070
     0
1000
MTEXTEND
  0
POINT
  5
10F8
330
CDE
100
AcDbEntity
  8
DEFPOINTS
 62
     0
100
AcDbPoint
 10
200.5670895902913
 20
182.2156692747438
 30
0.0
  0
POINT
  5
10F9
330
CDE
100
AcDbEntity
  8
DEFPOINTS
 62
     0
100
AcDbPoint
 10
207.2870960011942
 20
170.2156692747438
 30
0.0
  0
POINT
  5
10FA
330
CDE
100
AcDbEntity
  8
DEFPOINTS
 62
     0
100
AcDbPoint
 10
190.7842929741377
 20
170.2156692747438
 30
0.0
  0
ENDBLK
  5
CE9
330
CDE
100
AcDbEntity
  8
0
100
AcDbBlockEnd
  0
BLOCK
  5
CF4
330
CEA
100
AcDbEntity
  8
0
100
AcDbBlockBegin
  2
*D7
 70
     1
 10
0.0
 20
0.0
 30
0.0
  3
*D7
  1

  0
LINE
  5
EF6
330
CEA
100
AcDbEntity
  8
AM_5
100
AcDbLine
 10
256.0670895902914
 20
182.2156692747438
 30
0.0
 11
268.0670895902913
 21
182.2156692747438
 31
0.0
  0
LINE
  5
EF7
330
CEA
100
AcDbEntity
  8
AM_5
100
AcDbLine
 10
256.0670895902914
 20
153.2156692747438
 30
0.0
 11
268.0670895902913
 21
153.2156692747438
 31
0.0
  0
LINE
  5
EF8
330
CEA
100
AcDbEntity
  8
AM_5
100
AcDbLine
 10
266.5670895902913
 20
179.2156692747438
 30
0.0
 11
266.5670895902913
 21
156.2156692747438
 31
0.0
  0
SOLID
  5
EF9
330
CEA
100
AcDbEntity
  8
AM_5
100
AcDbTrace
 10
266.0670895902913
 20
179.2156692747438
 30
0.0
 11
267.0670895902913
 21
179.2156692747438
 31
0.0
 12
266.5670895902913
 22
182.2156692747438
 32
0.0
 13
266.5670895902913
 23
182.2156692747438
 33
0.0
  0
SOLID
  5
EFA
330
CEA
100
AcDbEntity
  8
AM_5
100
AcDbTrace
 10
266.0670895902913
 20
156.2156692747438
 30
0.0
 11
267.0670895902913
 21
156.2156692747438
 31
0.0
 12
266.5670895902913
 22
153.2156692747438
 32
0.0
 13
266.5670895902913
 23
153.2156692747438
 33
0.0
  0
MTEXT
  5
EFB
330
CEA
100
AcDbEntity
  8
AM_5
100
AcDbMText
 10
263.8167451021022
 20
167.7156692747438
 30
0.0
 40
3.5
 41
0.0
 71
     5
 72
     1
  1
29
 11
0.0000000000000001
 21
1.0
 31
0.0
 73
     1
 44
1.0
1001
ACAD
1000
MTEXTBEGIN
1070
    73
1070
     1
1070
    44
1040
1.0
1070
    74
1070
     0
1000
MTEXTEND
  0
POINT
  5
EFC
330
CEA
100
AcDbEntity
  8
DEFPOINTS
 62
     0
100
AcDbPoint
 10
254.5670895902913
 20
182.2156692747438
 30
0.0
  0
POINT
  5
EFD
330
CEA
100
AcDbEntity
  8
DEFPOINTS
 62
     0
100
AcDbPoint
 10
254.5670895902913
 20
153.2156692747438
 30
0.0
  0
POINT
  5
EFE
330
CEA
100
AcDbEntity
  8
DEFPOINTS
 62
     0
100
AcDbPoint
 10
266.5670895902913
 20
153.2156692747438
 30
0.0
  0
ENDBLK
  5
CF5
330
CEA
100
AcDbEntity
  8
0
100
AcDbBlockEnd
  0
BLOCK
  5
CFF
330
CF6
100
AcDbEntity
  8
0
100
AcDbBlockBegin
  2
*D8
 70
     1
 10
0.0
 20
0.0
 30
0.0
  3
*D8
  1

  0
LINE
  5
EED
330
CF6
100
AcDbEntity
  8
AM_5
100
AcDbLine
 10
264.1201622173184
 20
153.2156692747438
 30
0.0
 11
268.0670895902913
 21
153.2156692747438
 31
0.0
  0
LINE
  5
EEE
330
CF6
100
AcDbEntity
  8
AM_5
100
AcDbLine
 10
250.0670895902913
 20
143.2156692747437
 30
0.0
 11
268.0670895902913
 21
143.2156692747437
 31
0.0
  0
LINE
  5
EEF
330
CF6
100
AcDbEntity
  8
AM_5
100
AcDbLine
 10
266.5670895902913
 20
150.2156692747438
 30
0.0
 11
266.5670895902913
 21
146.2156692747437
 31
0.0
  0
SOLID
  5
EF0
330
CF6
100
AcDbEntity
  8
AM_5
100
AcDbTrace
 10
266.0670895902913
 20
150.2156692747438
 30
0.0
 11
267.0670895902913
 21
150.2156692747438
 31
0.0
 12
266.5670895902913
 22
153.2156692747438
 32
0.0
 13
266.5670895902913
 23
153.2156692747438
 33
0.0
  0
SOLID
  5
EF1
330
CF6
100
AcDbEntity
  8
AM_5
100
AcDbTrace
 10
266.0670895902913
 20
146.2156692747437
 30
0.0
 11
267.0670895902913
 21
146.2156692747437
 31
0.0
 12
266.5670895902913
 22
143.2156692747437
 32
0.0
 13
266.5670895902913
 23
143.2156692747437
 33
0.0
  0
MTEXT
  5
EF2
330
CF6
100
AcDbEntity
  8
AM_5
100
AcDbMText
 10
263.8170895902912
 20
148.2156692747438
 30
0.0
 40
3.5
 41
0.0
 71
     5
 72
     1
  1
10
 11
0.0000000000000001
 21
1.0
 31
0.0
 73
     1
 44
1.0
1001
ACAD
1000
MTEXTBEGIN
1070
    73
1070
     1
1070
    44
1040
1.0
1070
    74
1070
     0
1000
MTEXTEND
  0
POINT
  5
EF3
330
CF6
100
AcDbEntity
  8
DEFPOINTS
 62
     0
100
AcDbPoint
 10
262.6201622173184
 20
153.2156692747438
 30
0.0
  0
POINT
  5
EF4
330
CF6
100
AcDbEntity
  8
DEFPOINTS
 62
     0
100
AcDbPoint
 10
248.5670895902913
 20
143.2156692747437
 30
0.0
  0
POINT
  5
EF5
330
CF6
100
AcDbEntity
  8
DEFPOINTS
 62
     0
100
AcDbPoint
 10
266.5670895902913
 20
143.2156692747437
 30
0.0
  0
ENDBLK
  5
D00
330
CF6
100
AcDbEntity
  8
0
100
AcDbBlockEnd
  0
BLOCK
  5
D0B
330
D01
100
AcDbEntity
  8
0
100
AcDbBlockBegin
  2
*D9
 70
     1
 10
0.0
 20
0.0
 30
0.0
  3
*D9
  1

  0
LINE
  5
10A0
330
D01
100
AcDbEntity
  8
AM_5
100
AcDbLine
 10
318.0214039239059
 20
182.2156692747438
 30
0.0
 11
308.3882784992341
 21
182.2156692747438
 31
0.0
  0
LINE
  5
10A1
330
D01
100
AcDbEntity
  8
AM_5
100
AcDbLine
 10
315.8930071109706
 20
175.7156692747438
 30
0.0
 11
308.3882784992341
 21
175.7156692747438
 31
0.0
  0
LINE
  5
10A2
330
D01
100
AcDbEntity
  8
AM_5
100
AcDbLine
 10
309.8882784992341
 20
185.2156692747438
 30
0.0
 11
309.8882784992341
 21
188.2156692747438
 31
0.0
  0
LINE
  5
10A3
330
D01
100
AcDbEntity
  8
AM_5
100
AcDbLine
 10
309.8882784992341
 20
172.7156692747438
 30
0.0
 11
309.8882784992341
 21
169.7156692747438
 31
0.0
  0
LINE
  5
10A4
330
D01
100
AcDbEntity
  8
AM_5
100
AcDbLine
 10
309.8882784992341
 20
182.2156692747438
 30
0.0
 11
309.8882784992341
 21
175.7156692747438
 31
0.0
  0
SOLID
  5
10A5
330
D01
100
AcDbEntity
  8
AM_5
100
AcDbTrace
 10
309.3882784992341
 20
185.2156692747438
 30
0.0
 11
310.3882784992341
 21
185.2156692747438
 31
0.0
 12
309.8882784992341
 22
182.2156692747438
 32
0.0
 13
309.8882784992341
 23
182.2156692747438
 33
0.0
  0
SOLID
  5
10A6
330
D01
100
AcDbEntity
  8
AM_5
100
AcDbTrace
 10
309.3882784992341
 20
172.7156692747438
 30
0.0
 11
310.3882784992341
 21
172.7156692747438
 31
0.0
 12
309.8882784992341
 22
175.7156692747438
 32
0.0
 13
309.8882784992341
 23
175.7156692747438
 33
0.0
  0
MTEXT
  5
10A7
330
D01
100
AcDbEntity
  8
AM_5
100
AcDbMText
 10
307.1382784992341
 20
178.9656692747438
 30
0.0
 40
3.5
 41
0.0
 71
     5
 72
     1
  1
6.5
 11
0.0000000000000001
 21
1.0
 31
0.0
 73
     1
 44
1.0
1001
ACAD
1000
MTEXTBEGIN
1070
    73
1070
     1
1070
    44
1040
1.0
1070
    74
1070
     0
1000
MTEXTEND
  0
POINT
  5
10A8
330
D01
100
AcDbEntity
  8
DEFPOINTS
 62
     0
100
AcDbPoint
 10
319.5214039239059
 20
182.2156692747438
 30
0.0
  0
POINT
  5
10A9
330
D01
100
AcDbEntity
  8
DEFPOINTS
 62
     0
100
AcDbPoint
 10
317.3930071109706
 20
175.7156692747438
 30
0.0
  0
POINT
  5
10AA
330
D01
100
AcDbEntity
  8
DEFPOINTS
 62
     0
100
AcDbPoint
 10
309.8882784992341
 20
175.7156692747438
 30
0.0
  0
ENDBLK
  5
D0C
330
D01
100
AcDbEntity
  8
0
100
AcDbBlockEnd
  0
BLOCK
  5
D17
330
D0D
100
AcDbEntity
  8
0
100
AcDbBlockBegin
  2
*D10
 70
     1
 10
0.0
 20
0.0
 30
0.0
  3
*D10
  1

  0
LINE
  5
10AB
330
D0D
100
AcDbEntity
  8
AM_5
100
AcDbLine
 10
354.021403923906
 20
182.2156692747437
 30
0.0
 11
368.0214039239059
 21
182.2156692747437
 31
0.0
  0
LINE
  5
10AC
330
D0D
100
AcDbEntity
  8
AM_5
100
AcDbLine
 10
346.9346186232453
 20
147.2156692747438
 30
0.0
 11
368.0214039239059
 21
147.2156692747438
 31
0.0
  0
LINE
  5
10AD
330
D0D
100
AcDbEntity
  8
AM_5
100
AcDbLine
 10
366.521403923906
 20
179.2156692747437
 30
0.0
 11
366.521403923906
 21
150.2156692747438
 31
0.0
  0
SOLID
  5
10AE
330
D0D
100
AcDbEntity
  8
AM_5
100
AcDbTrace
 10
366.0214039239059
 20
179.2156692747437
 30
0.0
 11
367.021403923906
 21
179.2156692747437
 31
0.0
 12
366.521403923906
 22
182.2156692747437
 32
0.0
 13
366.521403923906
 23
182.2156692747437
 33
0.0
  0
SOLID
  5
10AF
330
D0D
100
AcDbEntity
  8
AM_5
100
AcDbTrace
 10
366.0214039239059
 20
150.2156692747438
 30
0.0
 11
367.021403923906
 21
150.2156692747438
 31
0.0
 12
366.521403923906
 22
147.2156692747438
 32
0.0
 13
366.521403923906
 23
147.2156692747438
 33
0.0
  0
MTEXT
  5
10B0
330
D0D
100
AcDbEntity
  8
AM_5
100
AcDbMText
 10
363.7714039239059
 20
164.7156692747438
 30
0.0
 40
3.5
 41
0.0
 71
     5
 72
     1
  1
35
 11
0.0000000000000001
 21
1.0
 31
0.0
 73
     1
 44
1.0
1001
ACAD
1000
MTEXTBEGIN
1070
    73
1070
     1
1070
    44
1040
1.0
1070
    74
1070
     0
1000
MTEXTEND
  0
POINT
  5
10B1
330
D0D
100
AcDbEntity
  8
DEFPOINTS
 62
     0
100
AcDbPoint
 10
352.521403923906
 20
182.2156692747437
 30
0.0
  0
POINT
  5
10B2
330
D0D
100
AcDbEntity
  8
DEFPOINTS
 62
     0
100
AcDbPoint
 10
345.4346186232453
 20
147.2156692747438
 30
0.0
  0
POINT
  5
10B3
330
D0D
100
AcDbEntity
  8
DEFPOINTS
 62
     0
100
AcDbPoint
 10
366.521403923906
 20
147.2156692747438
 30
0.0
  0
ENDBLK
  5
D18
330
D0D
100
AcDbEntity
  8
0
100
AcDbBlockEnd
  0
BLOCK
  5
D23
330
D19
100
AcDbEntity
  8
0
100
AcDbBlockBegin
  2
*D11
 70
     1
 10
0.0
 20
0.0
 30
0.0
  3
*D11
  1

  0
LINE
  5
12CF
330
D19
100
AcDbEntity
  8
AM_5
100
AcDbLine
 10
316.521403923906
 20
181.7156692747438
 30
0.0
 11
316.521403923906
 21
191.349911144572
 31
0.0
  0
LINE
  5
12D0
330
D19
100
AcDbEntity
  8
AM_5
100
AcDbLine
 10
322.5214039239059
 20
183.7156692747438
 30
0.0
 11
322.5214039239059
 21
191.349911144572
 31
0.0
  0
LINE
  5
12D1
330
D19
100
AcDbEntity
  8
AM_5
100
AcDbLine
 10
313.5214039239059
 20
189.849911144572
 30
0.0
 11
310.521403923906
 21
189.849911144572
 31
0.0
  0
LINE
  5
12D2
330
D19
100
AcDbEntity
  8
AM_5
100
AcDbLine
 10
325.521403923906
 20
189.849911144572
 30
0.0
 11
328.5214039239059
 21
189.849911144572
 31
0.0
  0
LINE
  5
12D3
330
D19
100
AcDbEntity
  8
AM_5
100
AcDbLine
 10
316.521403923906
 20
189.849911144572
 30
0.0
 11
322.5214039239059
 21
189.849911144572
 31
0.0
  0
SOLID
  5
12D4
330
D19
100
AcDbEntity
  8
AM_5
100
AcDbTrace
 10
313.5214039239059
 20
190.349911144572
 30
0.0
 11
313.5214039239059
 21
189.349911144572
 31
0.0
 12
316.521403923906
 22
189.849911144572
 32
0.0
 13
316.521403923906
 23
189.849911144572
 33
0.0
  0
INSERT
  5
12D5
330
D19
100
AcDbEntity
  8
AM_5
100
AcDbBlockReference
  2
GENDOT
 10
322.5214039239059
 20
189.849911144572
 30
0.0
 41
3.0
 42
3.0
 43
3.0
 50
180.0
  0
MTEXT
  5
12D6
330
D19
100
AcDbEntity
  8
AM_5
100
AcDbMText
 10
319.5214039239059
 20
192.599911144572
 30
0.0
 40
3.5
 41
0.0
 71
     5
 72
     1
  1
6
 73
     1
 44
1.0
1001
ACAD
1000
MTEXTBEGIN
1070
    73
1070
     1
1070
    44
1040
1.0
1070
    74
1070
     0
1000
MTEXTEND
  0
POINT
  5
12D7
330
D19
100
AcDbEntity
  8
DEFPOINTS
 62
     0
100
AcDbPoint
 10
316.521403923906
 20
180.2156692747438
 30
0.0
  0
POINT
  5
12D8
330
D19
100
AcDbEntity
  8
DEFPOINTS
 62
     0
100
AcDbPoint
 10
322.5214039239059
 20
182.2156692747438
 30
0.0
  0
POINT
  5
12D9
330
D19
100
AcDbEntity
  8
DEFPOINTS
 62
     0
100
AcDbPoint
 10
322.5214039239059
 20
189.849911144572
 30
0.0
  0
ENDBLK
  5
D24
330
D19
100
AcDbEntity
  8
0
100
AcDbBlockEnd
  0
BLOCK
  5
D2E
330
D25
100
AcDbEntity
  8
0
100
AcDbBlockBegin
  2
*D12
 70
     1
 10
0.0
 20
0.0
 30
0.0
  3
*D12
  1

  0
LINE
  5
1372
330
D25
100
AcDbEntity
  8
AM_5
100
AcDbLine
 10
322.5214039239059
 20
181.9210062631467
 30
0.0
 11
322.5214039239059
 21
191.349911144572
 31
0.0
  0
LINE
  5
1373
330
D25
100
AcDbEntity
  8
AM_5
100
AcDbLine
 10
332.5214039239059
 20
179.4210062631467
 30
0.0
 11
332.5214039239059
 21
191.349911144572
 31
0.0
  0
LINE
  5
1374
330
D25
100
AcDbEntity
  8
AM_5
100
AcDbLine
 10
325.521403923906
 20
189.849911144572
 30
0.0
 11
329.521403923906
 21
189.849911144572
 31
0.0
  0
INSERT
  5
1375
330
D25
100
AcDbEntity
  8
AM_5
100
AcDbBlockReference
  2
GENDOT
 10
322.5214039239059
 20
189.849911144572
 30
0.0
 41
3.0
 42
3.0
 43
3.0
 50
180.0
  0
SOLID
  5
1376
330
D25
100
AcDbEntity
  8
AM_5
100
AcDbTrace
 10
329.521403923906
 20
190.349911144572
 30
0.0
 11
329.521403923906
 21
189.349911144572
 31
0.0
 12
332.5214039239059
 22
189.849911144572
 32
0.0
 13
332.5214039239059
 23
189.849911144572
 33
0.0
  0
MTEXT
  5
1377
330
D25
100
AcDbEntity
  8
AM_5
100
AcDbMText
 10
327.521403923906
 20
192.599911144572
 30
0.0
 40
3.5
 41
0.0
 71
     5
 72
     1
  1
10
 73
     1
 44
1.0
1001
ACAD
1000
MTEXTBEGIN
1070
    73
1070
     1
1070
    44
1040
1.0
1070
    74
1070
     0
1000
MTEXTEND
  0
POINT
  5
1378
330
D25
100
AcDbEntity
  8
DEFPOINTS
 62
     0
100
AcDbPoint
 10
322.5214039239059
 20
180.4210062631467
 30
0.0
  0
POINT
  5
1379
330
D25
100
AcDbEntity
  8
DEFPOINTS
 62
     0
100
AcDbPoint
 10
332.5214039239059
 20
177.9210062631467
 30
0.0
  0
POINT
  5
137A
330
D25
100
AcDbEntity
  8
DEFPOINTS
 62
     0
100
AcDbPoint
 10
332.5214039239059
 20
189.849911144572
 30
0.0
  0
ENDBLK
  5
D2F
330
D25
100
AcDbEntity
  8
0
100
AcDbBlockEnd
  0
BLOCK
  5
D3A
330
D30
100
AcDbEntity
  8
0
100
AcDbBlockBegin
  2
*D13
 70
     1
 10
0.0
 20
0.0
 30
0.0
  3
*D13
  1

  0
LINE
  5
12BD
330
D30
100
AcDbEntity
  8
AM_5
100
AcDbLine
 10
316.521403923906
 20
181.7156692747438
 30
0.0
 11
316.521403923906
 21
199.349911144572
 31
0.0
  0
LINE
  5
12BE
330
D30
100
AcDbEntity
  8
AM_5
100
AcDbLine
 10
354.521403923906
 20
181.7156692747438
 30
0.0
 11
354.521403923906
 21
199.349911144572
 31
0.0
  0
LINE
  5
12BF
330
D30
100
AcDbEntity
  8
AM_5
100
AcDbLine
 10
319.5214039239059
 20
197.849911144572
 30
0.0
 11
351.5214039239059
 21
197.849911144572
 31
0.0
  0
SOLID
  5
12C0
330
D30
100
AcDbEntity
  8
AM_5
100
AcDbTrace
 10
319.5214039239059
 20
198.349911144572
 30
0.0
 11
319.5214039239059
 21
197.349911144572
 31
0.0
 12
316.521403923906
 22
197.849911144572
 32
0.0
 13
316.521403923906
 23
197.849911144572
 33
0.0
  0
SOLID
  5
12C1
330
D30
100
AcDbEntity
  8
AM_5
100
AcDbTrace
 10
351.5214039239059
 20
198.349911144572
 30
0.0
 11
351.5214039239059
 21
197.349911144572
 31
0.0
 12
354.521403923906
 22
197.849911144572
 32
0.0
 13
354.521403923906
 23
197.849911144572
 33
0.0
  0
MTEXT
  5
12C2
330
D30
100
AcDbEntity
  8
AM_5
100
AcDbMText
 10
335.521403923906
 20
200.599911144572
 30
0.0
 40
3.5
 41
0.0
 71
     5
 72
     1
  1
38
 73
     1
 44
1.0
1001
ACAD
1000
MTEXTBEGIN
1070
    73
1070
     1
1070
    44
1040
1.0
1070
    74
1070
     0
1000
MTEXTEND
  0
POINT
  5
12C3
330
D30
100
AcDbEntity
  8
DEFPOINTS
 62
     0
100
AcDbPoint
 10
316.521403923906
 20
180.2156692747438
 30
0.0
  0
POINT
  5
12C4
330
D30
100
AcDbEntity
  8
DEFPOINTS
 62
     0
100
AcDbPoint
 10
354.521403923906
 20
180.2156692747438
 30
0.0
  0
POINT
  5
12C5
330
D30
100
AcDbEntity
  8
DEFPOINTS
 62
     0
100
AcDbPoint
 10
354.521403923906
 20
197.849911144572
 30
0.0
  0
ENDBLK
  5
D3B
330
D30
100
AcDbEntity
  8
0
100
AcDbBlockEnd
  0
BLOCK
  5
D46
330
D3C
100
AcDbEntity
  8
0
100
AcDbBlockBegin
  2
*D14
 70
     1
 10
0.0
 20
0.0
 30
0.0
  3
*D14
  1

  0
LINE
  5
1001
330
D3C
100
AcDbEntity
  8
AM_5
100
AcDbLine
 10
212.5670895902913
 20
141.7156692747438
 30
0.0
 11
212.5670895902913
 21
129.7156692747438
 31
0.0
  0
LINE
  5
1002
330
D3C
100
AcDbEntity
  8
AM_5
100
AcDbLine
 10
206.5670895902913
 20
141.7156692747437
 30
0.0
 11
206.5670895902913
 21
129.7156692747438
 31
0.0
  0
LINE
  5
1003
330
D3C
100
AcDbEntity
  8
AM_5
100
AcDbLine
 10
215.5670895902913
 20
131.2156692747438
 30
0.0
 11
218.5670895902913
 21
131.2156692747438
 31
0.0
  0
LINE
  5
1004
330
D3C
100
AcDbEntity
  8
AM_5
100
AcDbLine
 10
203.5670895902913
 20
131.2156692747438
 30
0.0
 11
200.5670895902913
 21
131.2156692747438
 31
0.0
  0
LINE
  5
1005
330
D3C
100
AcDbEntity
  8
AM_5
100
AcDbLine
 10
212.5670895902913
 20
131.2156692747438
 30
0.0
 11
206.5670895902913
 21
131.2156692747438
 31
0.0
  0
SOLID
  5
1006
330
D3C
100
AcDbEntity
  8
AM_5
100
AcDbTrace
 10
215.5670895902913
 20
131.7156692747438
 30
0.0
 11
215.5670895902913
 21
130.7156692747438
 31
0.0
 12
212.5670895902913
 22
131.2156692747438
 32
0.0
 13
212.5670895902913
 23
131.2156692747438
 33
0.0
  0
SOLID
  5
1007
330
D3C
100
AcDbEntity
  8
AM_5
100
AcDbTrace
 10
203.5670895902913
 20
131.7156692747438
 30
0.0
 11
203.5670895902913
 21
130.7156692747438
 31
0.0
 12
206.5670895902913
 22
131.2156692747438
 32
0.0
 13
206.5670895902913
 23
131.2156692747438
 33
0.0
  0
MTEXT
  5
1008
330
D3C
100
AcDbEntity
  8
AM_5
100
AcDbMText
 10
209.5670895902913
 20
133.9656692747438
 30
0.0
 40
3.5
 41
0.0
 71
     5
 72
     1
  1
6
 73
     1
 44
1.0
1001
ACAD
1000
MTEXTBEGIN
1070
    73
1070
     1
1070
    44
1040
1.0
1070
    74
1070
     0
1000
MTEXTEND
  0
POINT
  5
1009
330
D3C
100
AcDbEntity
  8
DEFPOINTS
 62
     0
100
AcDbPoint
 10
212.5670895902913
 20
143.2156692747438
 30
0.0
  0
POINT
  5
100A
330
D3C
100
AcDbEntity
  8
DEFPOINTS
 62
     0
100
AcDbPoint
 10
206.5670895902913
 20
143.2156692747437
 30
0.0
  0
POINT
  5
100B
330
D3C
100
AcDbEntity
  8
DEFPOINTS
 62
     0
100
AcDbPoint
 10
206.5670895902913
 20
131.2156692747438
 30
0.0
  0
ENDBLK
  5
D47
330
D3C
100
AcDbEntity
  8
0
100
AcDbBlockEnd
  0
BLOCK
  5
D51
330
D48
100
AcDbEntity
  8
0
100
AcDbBlockBegin
  2
*D15
 70
     1
 10
0.0
 20
0.0
 30
0.0
  3
*D15
  1

  0
LINE
  5
FF8
330
D48
100
AcDbEntity
  8
AM_5
100
AcDbLine
 10
212.5670895902913
 20
134.54675509402
 30
0.0
 11
212.5670895902913
 21
129.7156692747438
 31
0.0
  0
LINE
  5
FF9
330
D48
100
AcDbEntity
  8
AM_5
100
AcDbLine
 10
242.5670895902913
 20
141.7156692747437
 30
0.0
 11
242.5670895902913
 21
129.7156692747438
 31
0.0
  0
LINE
  5
FFA
330
D48
100
AcDbEntity
  8
AM_5
100
AcDbLine
 10
215.5670895902913
 20
131.2156692747438
 30
0.0
 11
239.5670895902913
 21
131.2156692747438
 31
0.0
  0
SOLID
  5
FFB
330
D48
100
AcDbEntity
  8
AM_5
100
AcDbTrace
 10
215.5670895902913
 20
131.7156692747438
 30
0.0
 11
215.5670895902913
 21
130.7156692747438
 31
0.0
 12
212.5670895902913
 22
131.2156692747438
 32
0.0
 13
212.5670895902913
 23
131.2156692747438
 33
0.0
  0
SOLID
  5
FFC
330
D48
100
AcDbEntity
  8
AM_5
100
AcDbTrace
 10
239.5670895902913
 20
131.7156692747438
 30
0.0
 11
239.5670895902913
 21
130.7156692747438
 31
0.0
 12
242.5670895902913
 22
131.2156692747438
 32
0.0
 13
242.5670895902913
 23
131.2156692747438
 33
0.0
  0
MTEXT
  5
FFD
330
D48
100
AcDbEntity
  8
AM_5
100
AcDbMText
 10
227.5670895902913
 20
133.9656692747438
 30
0.0
 40
3.5
 41
0.0
 71
     5
 72
     1
  1
MAX30
 73
     1
 44
1.0
1001
ACAD
1000
MTEXTBEGIN
1070
    73
1070
     1
1070
    44
1040
1.0
1070
    74
1070
     0
1000
MTEXTEND
  0
POINT
  5
FFE
330
D48
100
AcDbEntity
  8
DEFPOINTS
 62
     0
100
AcDbPoint
 10
212.5670895902913
 20
136.04675509402
 30
0.0
  0
POINT
  5
FFF
330
D48
100
AcDbEntity
  8
DEFPOINTS
 62
     0
100
AcDbPoint
 10
242.5670895902913
 20
143.2156692747437
 30
0.0
  0
POINT
  5
1000
330
D48
100
AcDbEntity
  8
DEFPOINTS
 62
     0
100
AcDbPoint
 10
242.5670895902913
 20
131.2156692747438
 30
0.0
  0
ENDBLK
  5
D52
330
D48
100
AcDbEntity
  8
0
100
AcDbBlockEnd
  0
BLOCK
  5
D5C
330
D53
100
AcDbEntity
  8
0
100
AcDbBlockBegin
  2
*D16
 70
     1
 10
0.0
 20
0.0
 30
0.0
  3
*D16
  1

  0
LINE
  5
FED
330
D53
100
AcDbEntity
  8
AM_5
100
AcDbLine
 10
242.5670895902913
 20
134.54675509402
 30
0.0
 11
242.5670895902913
 21
129.7156692747438
 31
0.0
  0
LINE
  5
FEE
330
D53
100
AcDbEntity
  8
AM_5
100
AcDbLine
 10
248.5670895902913
 20
141.7156692747437
 30
0.0
 11
248.5670895902913
 21
129.7156692747438
 31
0.0
  0
LINE
  5
FEF
330
D53
100
AcDbEntity
  8
AM_5
100
AcDbLine
 10
239.5670895902913
 20
131.2156692747438
 30
0.0
 11
236.5670895902913
 21
131.2156692747438
 31
0.0
  0
LINE
  5
FF0
330
D53
100
AcDbEntity
  8
AM_5
100
AcDbLine
 10
251.5670895902913
 20
131.2156692747438
 30
0.0
 11
254.5670895902913
 21
131.2156692747438
 31
0.0
  0
LINE
  5
FF1
330
D53
100
AcDbEntity
  8
AM_5
100
AcDbLine
 10
242.5670895902913
 20
131.2156692747438
 30
0.0
 11
248.5670895902913
 21
131.2156692747438
 31
0.0
  0
SOLID
  5
FF2
330
D53
100
AcDbEntity
  8
AM_5
100
AcDbTrace
 10
239.5670895902913
 20
131.7156692747438
 30
0.0
 11
239.5670895902913
 21
130.7156692747438
 31
0.0
 12
242.5670895902913
 22
131.2156692747438
 32
0.0
 13
242.5670895902913
 23
131.2156692747438
 33
0.0
  0
SOLID
  5
FF3
330
D53
100
AcDbEntity
  8
AM_5
100
AcDbTrace
 10
251.5670895902913
 20
131.7156692747438
 30
0.0
 11
251.5670895902913
 21
130.7156692747438
 31
0.0
 12
248.5670895902913
 22
131.2156692747438
 32
0.0
 13
248.5670895902913
 23
131.2156692747438
 33
0.0
  0
MTEXT
  5
FF4
330
D53
100
AcDbEntity
  8
AM_5
100
AcDbMText
 10
245.5670895902913
 20
133.9656692747438
 30
0.0
 40
3.5
 41
0.0
 71
     5
 72
     1
  1
6
 73
     1
 44
1.0
1001
ACAD
1000
MTEXTBEGIN
1070
    73
1070
     1
1070
    44
1040
1.0
1070
    74
1070
     0
1000
MTEXTEND
  0
POINT
  5
FF5
330
D53
100
AcDbEntity
  8
DEFPOINTS
 62
     0
100
AcDbPoint
 10
242.5670895902913
 20
136.04675509402
 30
0.0
  0
POINT
  5
FF6
330
D53
100
AcDbEntity
  8
DEFPOINTS
 62
     0
100
AcDbPoint
 10
248.5670895902913
 20
143.2156692747437
 30
0.0
  0
POINT
  5
FF7
330
D53
100
AcDbEntity
  8
DEFPOINTS
 62
     0
100
AcDbPoint
 10
248.5670895902913
 20
131.2156692747438
 30
0.0
  0
ENDBLK
  5
D5D
330
D53
100
AcDbEntity
  8
0
100
AcDbBlockEnd
  0
BLOCK
  5
D68
330
D5E
100
AcDbEntity
  8
0
100
AcDbBlockBegin
  2
*D17
 70
     1
 10
0.0
 20
0.0
 30
0.0
  3
*D17
  1

  0
LINE
  5
10D1
330
D5E
100
AcDbEntity
  8
AM_5
100
AcDbLine
 10
329.021403923906
 20
142.2108057740585
 30
0.0
 11
329.021403923906
 21
129.7156692747437
 31
0.0
  0
LINE
  5
10D2
330
D5E
100
AcDbEntity
  8
AM_5
100
AcDbLine
 10
343.0214039239059
 20
142.4019959751253
 30
0.0
 11
343.0214039239059
 21
129.7156692747437
 31
0.0
  0
LINE
  5
10D3
330
D5E
100
AcDbEntity
  8
AM_5
100
AcDbLine
 10
332.0214039239059
 20
131.2156692747437
 30
0.0
 11
340.021403923906
 21
131.2156692747437
 31
0.0
  0
SOLID
  5
10D4
330
D5E
100
AcDbEntity
  8
AM_5
100
AcDbTrace
 10
332.0214039239059
 20
131.7156692747437
 30
0.0
 11
332.0214039239059
 21
130.7156692747437
 31
0.0
 12
329.021403923906
 22
131.2156692747437
 32
0.0
 13
329.021403923906
 23
131.2156692747437
 33
0.0
  0
SOLID
  5
10D5
330
D5E
100
AcDbEntity
  8
AM_5
100
AcDbTrace
 10
340.021403923906
 20
131.7156692747437
 30
0.0
 11
340.021403923906
 21
130.7156692747437
 31
0.0
 12
343.0214039239059
 22
131.2156692747437
 32
0.0
 13
343.0214039239059
 23
131.2156692747437
 33
0.0
  0
MTEXT
  5
10D6
330
D5E
100
AcDbEntity
  8
AM_5
100
AcDbMText
 10
336.021403923906
 20
133.9656692747437
 30
0.0
 40
3.5
 41
0.0
 71
     5
 72
     1
  1
14
 73
     1
 44
1.0
1001
ACAD
1000
MTEXTBEGIN
1070
    73
1070
     1
1070
    44
1040
1.0
1070
    74
1070
     0
1000
MTEXTEND
  0
POINT
  5
10D7
330
D5E
100
AcDbEntity
  8
DEFPOINTS
 62
     0
100
AcDbPoint
 10
329.021403923906
 20
143.7108057740585
 30
0.0
  0
POINT
  5
10D8
330
D5E
100
AcDbEntity
  8
DEFPOINTS
 62
     0
100
AcDbPoint
 10
343.0214039239059
 20
143.9019959751254
 30
0.0
  0
POINT
  5
10D9
330
D5E
100
AcDbEntity
  8
DEFPOINTS
 62
     0
100
AcDbPoint
 10
343.0214039239059
 20
131.2156692747437
 30
0.0
  0
ENDBLK
  5
D69
330
D5E
100
AcDbEntity
  8
0
100
AcDbBlockEnd
  0
BLOCK
  5
D74
330
D6A
100
AcDbEntity
  8
0
100
AcDbBlockBegin
  2
*D18
 70
     1
 10
0.0
 20
0.0
 30
0.0
  3
*D18
  1

  0
LINE
  5
10DA
330
D6A
100
AcDbEntity
  8
AM_5
100
AcDbLine
 10
325.021403923906
 20
141.7156692747437
 30
0.0
 11
325.021403923906
 21
121.7156692747437
 31
0.0
  0
LINE
  5
10DB
330
D6A
100
AcDbEntity
  8
AM_5
100
AcDbLine
 10
347.0214039239059
 20
141.7156692747437
 30
0.0
 11
347.0214039239059
 21
121.7156692747437
 31
0.0
  0
LINE
  5
10DC
330
D6A
100
AcDbEntity
  8
AM_5
100
AcDbLine
 10
328.0214039239059
 20
123.2156692747437
 30
0.0
 11
344.021403923906
 21
123.2156692747437
 31
0.0
  0
SOLID
  5
10DD
330
D6A
100
AcDbEntity
  8
AM_5
100
AcDbTrace
 10
328.0214039239059
 20
123.7156692747437
 30
0.0
 11
328.0214039239059
 21
122.7156692747437
 31
0.0
 12
325.021403923906
 22
123.2156692747437
 32
0.0
 13
325.021403923906
 23
123.2156692747437
 33
0.0
  0
SOLID
  5
10DE
330
D6A
100
AcDbEntity
  8
AM_5
100
AcDbTrace
 10
344.021403923906
 20
123.7156692747437
 30
0.0
 11
344.021403923906
 21
122.7156692747437
 31
0.0
 12
347.0214039239059
 22
123.2156692747437
 32
0.0
 13
347.0214039239059
 23
123.2156692747437
 33
0.0
  0
MTEXT
  5
10DF
330
D6A
100
AcDbEntity
  8
AM_5
100
AcDbMText
 10
331.2318512389359
 20
125.9660137629327
 30
0.0
 40
3.5
 41
0.0
 71
     5
 72
     1
  1
22
 73
     1
 44
1.0
1001
ACAD
1000
MTEXTBEGIN
1070
    73
1070
     1
1070
    44
1040
1.0
1070
    74
1070
     0
1000
MTEXTEND
  0
POINT
  5
10E0
330
D6A
100
AcDbEntity
  8
DEFPOINTS
 62
     0
100
AcDbPoint
 10
325.021403923906
 20
143.2156692747437
 30
0.0
  0
POINT
  5
10E1
330
D6A
100
AcDbEntity
  8
DEFPOINTS
 62
     0
100
AcDbPoint
 10
347.0214039239059
 20
143.2156692747437
 30
0.0
  0
POINT
  5
10E2
330
D6A
100
AcDbEntity
  8
DEFPOINTS
 62
     0
100
AcDbPoint
 10
347.0214039239059
 20
123.2156692747437
 30
0.0
  0
ENDBLK
  5
D75
330
D6A
100
AcDbEntity
  8
0
100
AcDbBlockEnd
  0
BLOCK
  5
D80
330
D76
100
AcDbEntity
  8
0
100
AcDbBlockBegin
  2
*D19
 70
     1
 10
0.0
 20
0.0
 30
0.0
  3
*D19
  1

  0
LINE
  5
10E3
330
D76
100
AcDbEntity
  8
AM_5
100
AcDbLine
 10
317.021403923906
 20
182.2156692747438
 30
0.0
 11
300.388278499234
 21
182.2156692747438
 31
0.0
  0
LINE
  5
10E4
330
D76
100
AcDbEntity
  8
AM_5
100
AcDbLine
 10
324.8930071109707
 20
173.2156692747438
 30
0.0
 11
300.388278499234
 21
173.2156692747438
 31
0.0
  0
LINE
  5
10E5
330
D76
100
AcDbEntity
  8
AM_5
100
AcDbLine
 10
301.888278499234
 20
179.2156692747438
 30
0.0
 11
301.888278499234
 21
176.2156692747438
 31
0.0
  0
SOLID
  5
10E6
330
D76
100
AcDbEntity
  8
AM_5
100
AcDbTrace
 10
301.3882784992341
 20
179.2156692747438
 30
0.0
 11
302.388278499234
 21
179.2156692747438
 31
0.0
 12
301.888278499234
 22
182.2156692747438
 32
0.0
 13
301.888278499234
 23
182.2156692747438
 33
0.0
  0
SOLID
  5
10E7
330
D76
100
AcDbEntity
  8
AM_5
100
AcDbTrace
 10
301.3882784992341
 20
176.2156692747438
 30
0.0
 11
302.388278499234
 21
176.2156692747438
 31
0.0
 12
301.888278499234
 22
173.2156692747438
 32
0.0
 13
301.888278499234
 23
173.2156692747438
 33
0.0
  0
MTEXT
  5
10E8
330
D76
100
AcDbEntity
  8
AM_5
100
AcDbMText
 10
299.138278499234
 20
177.7156692747438
 30
0.0
 40
3.5
 41
0.0
 71
     5
 72
     1
  1
9
 11
0.0000000000000001
 21
1.0
 31
0.0
 73
     1
 44
1.0
1001
ACAD
1000
MTEXTBEGIN
1070
    73
1070
     1
1070
    44
1040
1.0
1070
    74
1070
     0
1000
MTEXTEND
  0
POINT
  5
10E9
330
D76
100
AcDbEntity
  8
DEFPOINTS
 62
     0
100
AcDbPoint
 10
318.521403923906
 20
182.2156692747438
 30
0.0
  0
POINT
  5
10EA
330
D76
100
AcDbEntity
  8
DEFPOINTS
 62
     0
100
AcDbPoint
 10
326.3930071109706
 20
173.2156692747438
 30
0.0
  0
POINT
  5
10EB
330
D76
100
AcDbEntity
  8
DEFPOINTS
 62
     0
100
AcDbPoint
 10
301.888278499234
 20
173.2156692747438
 30
0.0
  0
ENDBLK
  5
D81
330
D76
100
AcDbEntity
  8
0
100
AcDbBlockEnd
  0
BLOCK
  5
1289
330
1286
100
AcDbEntity
  8
0
100
AcDbBlockBegin
  2
GENDOT
 70
     0
 10
0.0
 20
0.0
 30
0.0
  3
GENDOT
  1

  0
LINE
  5
1287
330
1286
100
AcDbEntity
  8
0
100
AcDbLine
 10
0.0
 20
0.0
 30
0.0
 11
-1.0
 21
0.0
 31
0.0
  0
LWPOLYLINE
  5
1288
330
1286
100
AcDbEntity
  8
0
100
AcDbPolyline
 90
        2
 70
     1
 43
0.25
 10
-0.125
 20
0.0
 42
1.0
 10
0.125
 20
0.0
 42
1.0
  0
ENDBLK
  5
128A
330
1286
100
AcDbEntity
  8
0
100
AcDbBlockEnd
  0
BLOCK
  5
1337
330
1336
100
AcDbEntity
  8
0
100
AcDbBlockBegin
  2
*U22
 70
     1
 10
0.0
 20
0.0
 30
0.0
  3
*U22
  1

  0
ENDBLK
  5
1338
330
1336
100
AcDbEntity
  8
0
100
AcDbBlockEnd
  0
ENDSEC
  0
SECTION
  2
ENTITIES
  0
LINE
  5
C3F
330
1F
100
AcDbEntity
  8
0
100
AcDbLine
 10
200.5670895902913
 20
153.2156692747438
 30
0.0
 11
254.5670895902913
 21
153.2156692747438
 31
0.0
  0
LINE
  5
C40
330
1F
100
AcDbEntity
  8
0
100
AcDbLine
 10
254.5670895902913
 20
153.2156692747438
 30
0.0
 11
254.5670895902913
 21
182.2156692747438
 31
0.0
  0
LINE
  5
C41
330
1F
100
AcDbEntity
  8
0
100
AcDbLine
 10
254.5670895902913
 20
182.2156692747438
 30
0.0
 11
200.5670895902913
 21
182.2156692747438
 31
0.0
  0
LINE
  5
C42
330
1F
100
AcDbEntity
  8
0
100
AcDbLine
 10
200.5670895902913
 20
250.27839584215
 30
0.0
 11
200.5670895902913
 21
213.27839584215
 31
0.0
  0
LINE
  5
C43
330
1F
100
AcDbEntity
  8
AM_7
100
AcDbLine
 10
227.5670895902913
 20
184.4139907239142
 30
0.0
 11
227.5670895902913
 21
149.4416259597885
 31
0.0
  0
LINE
  5
C44
330
1F
100
AcDbEntity
  8
Center
100
AcDbLine
 10
242.5670895902913
 20
174.9210062631467
 30
0.0
 11
242.5670895902913
 21
165.7995232910925
 31
0.0
  0
LINE
  5
C45
330
1F
100
AcDbEntity
  8
Center
100
AcDbLine
 10
212.5670895902913
 20
175.5573887495624
 30
0.0
 11
212.5670895902913
 21
163.6782480696685
 31
0.0
  0
LINE
  5
C46
330
1F
100
AcDbEntity
  8
Center
100
AcDbLine
 10
247.8431170753335
 20
170.2156692747438
 30
0.0
 11
237.438692777356
 21
170.2156692747438
 31
0.0
  0
LINE
  5
C47
330
1F
100
AcDbEntity
  8
0
100
AcDbLine
 10
206.5670895902913
 20
143.2156692747437
 30
0.0
 11
212.5670895902913
 21
143.2156692747438
 31
0.0
  0
LINE
  5
C48
330
1F
100
AcDbEntity
  8
0
100
AcDbLine
 10
248.5670895902913
 20
153.2156692747438
 30
0.0
 11
248.5670895902913
 21
143.2156692747437
 31
0.0
  0
LINE
  5
C49
330
1F
100
AcDbEntity
  8
0
100
AcDbLine
 10
206.5670895902913
 20
153.2156692747438
 30
0.0
 11
206.5670895902913
 21
143.2156692747437
 31
0.0
  0
LINE
  5
C4A
330
1F
100
AcDbEntity
  8
0
100
AcDbLine
 10
242.5670895902913
 20
143.2156692747437
 30
0.0
 11
248.5670895902913
 21
143.2156692747437
 31
0.0
  0
LINE
  5
C4D
330
1F
100
AcDbEntity
  8
0
100
AcDbLine
 10
212.5670895902913
 20
153.2156692747438
 30
0.0
 11
212.5670895902913
 21
143.2156692747438
 31
0.0
  0
LINE
  5
C4E
330
1F
100
AcDbEntity
  8
0
100
AcDbLine
 10
242.5670895902913
 20
153.2156692747438
 30
0.0
 11
242.5670895902913
 21
143.2156692747437
 31
0.0
  0
LINE
  5
C51
330
1F
100
AcDbEntity
  8
Center
100
AcDbLine
 10
201.5066663600952
 20
157.2156692747438
 30
0.0
 11
205.9828190071069
 21
157.2156692747438
 31
0.0
  0
CIRCLE
  5
C52
330
1F
100
AcDbEntity
  8
0
100
AcDbCircle
 10
203.5670895902913
 20
157.2156692747438
 30
0.0
 40
0.75
  0
CIRCLE
  5
C53
330
1F
100
AcDbEntity
  8
0
100
AcDbCircle
 10
251.5670895902913
 20
157.2156692747438
 30
0.0
 40
0.75
  0
LINE
  5
C54
330
1F
100
AcDbEntity
  8
Center
100
AcDbLine
 10
249.2183834743042
 20
157.2156692747438
 30
0.0
 11
253.694536121316
 21
157.2156692747438
 31
0.0
  0
LINE
  5
C55
330
1F
100
AcDbEntity
  8
Center
100
AcDbLine
 10
251.5670895902913
 20
159.1304875416262
 30
0.0
 11
251.5670895902913
 21
154.9636067294903
 31
0.0
  0
LINE
  5
C56
330
1F
100
AcDbEntity
  8
Center
100
AcDbLine
 10
203.5670895902913
 20
159.3337500349031
 30
0.0
 11
203.5670895902913
 21
154.8619753828374
 31
0.0
  0
LINE
  5
C57
330
1F
100
AcDbEntity
  8
Center
100
AcDbLine
 10
217.0545146285092
 20
170.2156692747438
 30
0.0
 11
207.2870960011942
 21
170.2156692747438
 31
0.0
  0
LINE
  5
C58
330
1F
100
AcDbEntity
  8
0
100
AcDbLine
 10
200.5670895902913
 20
213.27839584215
 30
0.0
 11
254.5670895902913
 21
213.27839584215
 31
0.0
  0
LINE
  5
C59
330
1F
100
AcDbEntity
  8
0
100
AcDbLine
 10
200.5670895902913
 20
250.27839584215
 30
0.0
 11
254.5670895902913
 21
250.2783958421499
 31
0.0
  0
LINE
  5
C5A
330
1F
100
AcDbEntity
  8
0
100
AcDbLine
 10
200.5670895902913
 20
182.2156692747437
 30
0.0
 11
200.5670895902913
 21
153.2156692747438
 31
0.0
  0
LINE
  5
C5B
330
1F
100
AcDbEntity
  8
0
100
AcDbLine
 10
254.5670895902913
 20
213.27839584215
 30
0.0
 11
254.5670895902913
 21
250.2783958421499
 31
0.0
  0
LINE
  5
C5C
330
1F
100
AcDbEntity
  8
AM_7
100
AcDbLine
 10
227.5670895902913
 20
210.8358164319574
 30
0.0
 11
227.5670895902913
 21
253.0794648310997
 31
0.0
  0
LINE
  5
C5D
330
1F
100
AcDbEntity
  8
AM_7
100
AcDbLine
 10
242.5670895902913
 20
236.4837328305529
 30
0.0
 11
242.5670895902913
 21
227.3622498584987
 31
0.0
  0
LINE
  5
C60
330
1F
100
AcDbEntity
  8
AM_7
100
AcDbLine
 10
212.5670895902913
 20
237.1201153169687
 30
0.0
 11
212.5670895902913
 21
227.8556120840901
 31
0.0
  0
LINE
  5
C63
330
1F
100
AcDbEntity
  8
AM_7
100
AcDbLine
 10
217.0188989033367
 20
231.77839584215
 30
0.0
 11
207.2870960011942
 21
231.77839584215
 31
0.0
  0
LINE
  5
C64
330
1F
100
AcDbEntity
  8
AM_7
100
AcDbLine
 10
336.021403923906
 20
140.3986123058498
 30
0.0
 11
336.021403923906
 21
155.1608585521409
 31
0.0
  0
LINE
  5
C65
330
1F
100
AcDbEntity
  8
0
100
AcDbLine
 10
318.521403923906
 20
153.2156692747438
 30
0.0
 11
352.521403923906
 21
153.2156692747438
 31
0.0
  0
LINE
  5
C66
330
1F
100
AcDbEntity
  8
0
100
AcDbLine
 10
354.521403923906
 20
155.2156692747438
 30
0.0
 11
354.521403923906
 21
161.7156692747438
 31
0.0
  0
LINE
  5
C67
330
1F
100
AcDbEntity
  8
0
100
AcDbLine
 10
352.521403923906
 20
182.2156692747438
 30
0.0
 11
318.521403923906
 21
182.2156692747438
 31
0.0
  0
LINE
  5
C68
330
1F
100
AcDbEntity
  8
0
100
AcDbLine
 10
316.521403923906
 20
180.2156692747438
 30
0.0
 11
316.521403923906
 21
155.2156692747438
 31
0.0
  0
LINE
  5
C69
330
1F
100
AcDbEntity
  8
AM_7
100
AcDbLine
 10
344.5214039239059
 20
162.0591895313001
 30
0.0
 11
344.5214039239059
 21
178.4445231896083
 31
0.0
  0
LINE
  5
C6A
330
1F
100
AcDbEntity
  8
AM_7
100
AcDbLine
 10
352.6192798094643
 20
170.2156692747438
 30
0.0
 11
336.9550449819659
 21
170.2156692747438
 31
0.0
  0
CIRCLE
  5
C6B
330
1F
100
AcDbEntity
  8
0
100
AcDbCircle
 10
344.5214039239059
 20
170.2156692747438
 30
0.0
 40
6.5
  0
LINE
  5
C6E
330
1F
100
AcDbEntity
  8
Center
100
AcDbLine
 10
327.7974314089482
 20
175.7156692747438
 30
0.0
 11
317.3930071109706
 21
175.7156692747438
 31
0.0
  0
LINE
  5
C6F
330
1F
100
AcDbEntity
  8
Center
100
AcDbLine
 10
322.5214039239059
 20
180.4210062631467
 30
0.0
 11
322.5214039239059
 21
171.2995232910925
 31
0.0
  0
LINE
  5
C71
330
1F
100
AcDbEntity
  8
Center
100
AcDbLine
 10
332.5214039239059
 20
177.9210062631467
 30
0.0
 11
332.5214039239059
 21
168.7995232910925
 31
0.0
  0
LINE
  5
C72
330
1F
100
AcDbEntity
  8
Center
100
AcDbLine
 10
337.7974314089482
 20
173.2156692747438
 30
0.0
 11
327.3930071109707
 21
173.2156692747438
 31
0.0
  0
LINE
  5
C75
330
1F
100
AcDbEntity
  8
Center
100
AcDbLine
 10
343.0214039239059
 20
154.5052685158166
 30
0.0
 11
343.0214039239059
 21
161.7676032726102
 31
0.0
  0
LINE
  5
C76
330
1F
100
AcDbEntity
  8
Center
100
AcDbLine
 10
339.111949853948
 20
158.2156692747438
 30
0.0
 11
346.3405549005428
 21
158.2156692747438
 31
0.0
  0
LINE
  5
C77
330
1F
100
AcDbEntity
  8
0
100
AcDbLine
 10
347.0214039239059
 20
143.2156692747437
 30
0.0
 11
347.0214039239059
 21
153.2156692747438
 31
0.0
  0
LINE
  5
C78
330
1F
100
AcDbEntity
  8
0
100
AcDbLine
 10
325.021403923906
 20
143.2156692747437
 30
0.0
 11
325.021403923906
 21
153.2156692747438
 31
0.0
  0
LINE
  5
C79
330
1F
100
AcDbEntity
  8
0
100
AcDbLine
 10
325.021403923906
 20
143.2156692747437
 30
0.0
 11
347.0214039239059
 21
143.2156692747437
 31
0.0
  0
LINE
  5
C7A
330
1F
100
AcDbEntity
  8
AM_7
100
AcDbLine
 10
356.8331463404786
 20
177.2156692747438
 30
0.0
 11
349.1229457360115
 21
177.2156692747438
 31
0.0
  0
ARC
  5
C7B
330
1F
100
AcDbEntity
  8
0
100
AcDbCircle
 10
351.7985282683736
 20
177.2156692747438
 30
0.0
 40
2.0
100
AcDbArc
 50
48.59037789073025
 51
311.4096221092698
  0
LINE
  5
C7C
330
1F
100
AcDbEntity
  8
0
100
AcDbLine
 10
353.121403923906
 20
178.7156692747438
 30
0.0
 11
354.521403923906
 21
178.7156692747438
 31
0.0
  0
LINE
  5
C7D
330
1F
100
AcDbEntity
  8
0
100
AcDbLine
 10
353.121403923906
 20
175.7156692747438
 30
0.0
 11
354.521403923906
 21
175.7156692747438
 31
0.0
  0
LINE
  5
C7E
330
1F
100
AcDbEntity
  8
0
100
AcDbLine
 10
354.521403923906
 20
178.7156692747438
 30
0.0
 11
354.521403923906
 21
180.2156692747438
 31
0.0
  0
ARC
  5
C7F
330
1F
100
AcDbEntity
  8
0
100
AcDbCircle
 10
351.7985282683736
 20
163.2156692747438
 30
0.0
 40
2.0
100
AcDbArc
 50
48.59037789073025
 51
311.4096221092698
  0
LINE
  5
C80
330
1F
100
AcDbEntity
  8
0
100
AcDbLine
 10
353.121403923906
 20
164.7156692747438
 30
0.0
 11
354.521403923906
 21
164.7156692747438
 31
0.0
  0
LINE
  5
C81
330
1F
100
AcDbEntity
  8
0
100
AcDbLine
 10
353.121403923906
 20
161.7156692747438
 30
0.0
 11
354.521403923906
 21
161.7156692747438
 31
0.0
  0
LINE
  5
C82
330
1F
100
AcDbEntity
  8
0
100
AcDbLine
 10
354.521403923906
 20
164.7156692747437
 30
0.0
 11
354.521403923906
 21
175.7156692747438
 31
0.0
  0
LINE
  5
C85
330
1F
100
AcDbEntity
  8
Center
100
AcDbLine
 10
325.9197908385496
 20
147.2156692747438
 30
0.0
 11
331.4346186232453
 21
147.2156692747438
 31
0.0
  0
LINE
  5
C88
330
1F
100
AcDbEntity
  8
Center
100
AcDbLine
 10
339.9197908385496
 20
147.2156692747438
 30
0.0
 11
345.4346186232453
 21
147.2156692747438
 31
0.0
  0
LINE
  5
C89
330
1F
100
AcDbEntity
  8
Center
100
AcDbLine
 10
329.021403923906
 20
143.7108057740585
 30
0.0
 11
329.021403923906
 21
150.7848443483514
 31
0.0
  0
LINE
  5
C8A
330
1F
100
AcDbEntity
  8
Center
100
AcDbLine
 10
343.0214039239059
 20
143.9019959751254
 30
0.0
 11
343.0214039239059
 21
150.5936541472845
 31
0.0
  0
DIMENSION
  5
C8B
330
1F
100
AcDbEntity
  8
AM_5
100
AcDbDimension
  2
*D3
 10
212.5670895902913
 20
259.0755606715807
 30
0.0
 11
227.5670895902913
 21
261.8255606715806
 31
0.0
 70
    32
 71
     5
 42
30.0
  3
AM_ISO$0
100
AcDbAlignedDimension
 13
242.5670895902913
 23
236.4837328305529
 33
0.0
 14
212.5670895902913
 24
237.1201153169687
 34
0.0
100
AcDbRotatedDimension
1001
ACAD
1000
DSTYLE
1002
{
1070
   272
1070
     8
1002
}
  0
DIMENSION
  5
C8C
330
1F
100
AcDbEntity
  8
AM_5
100
AcDbDimension
  2
*D4
 10
242.5670895902913
 20
189.849911144572
 30
0.0
 11
227.5670895902913
 21
192.599911144572
 31
0.0
 70
    32
 71
     5
 42
30.0
  3
AM_ISO$0
100
AcDbAlignedDimension
 13
212.5670895902913
 23
175.5573887495624
 33
0.0
 14
242.5670895902913
 24
174.9210062631467
 34
0.0
100
AcDbRotatedDimension
1001
ACAD
1000
DSTYLE
1002
{
1070
   272
1070
     8
1002
}
  0
DIMENSION
  5
C8D
330
1F
100
AcDbEntity
  8
AM_5
100
AcDbDimension
  2
*D5
 10
254.5670895902913
 20
197.849911144572
 30
0.0
 11
227.5670895902913
 21
200.599911144572
 31
0.0
 70
    32
 71
     5
 42
54.0
  3
AM_ISO$0
100
AcDbAlignedDimension
 13
200.5670895902913
 23
182.2156692747437
 33
0.0
 14
254.5670895902913
 24
182.2156692747438
 34
0.0
100
AcDbRotatedDimension
1001
ACAD
1000
DSTYLE
1002
{
1070
   272
1070
     8
1002
}
  0
DIMENSION
  5
C8E
330
1F
100
AcDbEntity
  8
AM_5
100
AcDbDimension
  2
*D6
 10
190.7842929741377
 20
170.2156692747438
 30
0.0
 11
188.0339484859487
 21
176.2156692747438
 31
0.0
 70
    32
 71
     5
 42
12.0
  3
AM_ISO$0
100
AcDbAlignedDimension
 13
200.5670895902913
 23
182.2156692747438
 33
0.0
 14
207.2870960011942
 24
170.2156692747438
 34
0.0
 50
90.0
100
AcDbRotatedDimension
1001
ACAD
1000
DSTYLE
1002
{
1070
   272
1070
     8
1002
}
  0
DIMENSION
  5
C8F
330
1F
100
AcDbEntity
  8
AM_5
100
AcDbDimension
  2
*D7
 10
266.5670895902913
 20
153.2156692747438
 30
0.0
 11
263.8167451021022
 21
167.7156692747438
 31
0.0
 70
    32
 71
     5
 42
29.0
  3
AM_ISO$0
100
AcDbAlignedDimension
 13
254.5670895902913
 23
182.2156692747438
 33
0.0
 14
254.5670895902913
 24
153.2156692747438
 34
0.0
 50
90.0
100
AcDbRotatedDimension
1001
ACAD
1000
DSTYLE
1002
{
1070
   272
1070
     8
1002
}
  0
DIMENSION
  5
C90
330
1F
100
AcDbEntity
  8
AM_5
100
AcDbDimension
  2
*D8
 10
266.5670895902913
 20
143.2156692747437
 30
0.0
 11
263.8170895902912
 21
148.2156692747438
 31
0.0
 70
    32
 71
     5
 42
10.00000000000003
  3
AM_ISO$0
100
AcDbAlignedDimension
 13
262.6201622173184
 23
153.2156692747438
 33
0.0
 14
248.5670895902913
 24
143.2156692747437
 34
0.0
 50
90.0
100
AcDbRotatedDimension
1001
ACAD
1000
DSTYLE
1002
{
1070
   272
1070
     8
1002
}
  0
DIMENSION
  5
C91
330
1F
100
AcDbEntity
  8
AM_5
100
AcDbDimension
  2
*D9
 10
309.8882784992341
 20
175.7156692747438
 30
0.0
 11
309.8882784992341
 21
178.9656692747438
 31
0.0
 70
   160
 71
     5
 42
6.5
  3
AM_ISO$0
100
AcDbAlignedDimension
 13
319.5214039239059
 23
182.2156692747438
 33
0.0
 14
317.3930071109706
 24
175.7156692747438
 34
0.0
 50
90.0
100
AcDbRotatedDimension
1001
ACAD
1000
DSTYLE
1002
{
1070
   272
1070
     8
1002
}
  0
DIMENSION
  5
C92
330
1F
100
AcDbEntity
  8
AM_5
100
AcDbDimension
  2
*D10
 10
366.521403923906
 20
147.2156692747438
 30
0.0
 11
366.5214039239059
 21
164.7156692747438
 31
0.0
 70
   160
 71
     5
 42
34.99999999999997
  3
AM_ISO$0
100
AcDbAlignedDimension
 13
352.521403923906
 23
182.2156692747437
 33
0.0
 14
345.4346186232453
 24
147.2156692747438
 34
0.0
 50
90.0
100
AcDbRotatedDimension
1001
ACAD
1000
DSTYLE
1002
{
1070
   272
1070
     8
1002
}
  0
DIMENSION
  5
C93
330
1F
100
AcDbEntity
  8
AM_5
100
AcDbDimension
  2
*D11
 10
322.5214039239059
 20
189.849911144572
 30
0.0
 11
319.5214039239059
 21
192.599911144572
 31
0.0
 70
    32
 71
     5
 42
6.0
  3
AM_ISO$0
100
AcDbAlignedDimension
 13
316.521403923906
 23
180.2156692747438
 33
0.0
 14
322.5214039239059
 24
182.2156692747438
 34
0.0
100
AcDbRotatedDimension
1001
ACAD
1000
DSTYLE
1002
{
1070
   173
1070
     1
1070
   272
1070
     8
1070
   344
1005
1286
1002
}
  0
DIMENSION
  5
C94
330
1F
100
AcDbEntity
  8
AM_5
100
AcDbDimension
  2
*D12
 10
332.5214039239059
 20
189.849911144572
 30
0.0
 11
327.521403923906
 21
192.599911144572
 31
0.0
 70
    32
 71
     5
 42
10.0
  3
AM_ISO$0
100
AcDbAlignedDimension
 13
322.5214039239059
 23
180.4210062631467
 33
0.0
 14
332.5214039239059
 24
177.9210062631467
 34
0.0
100
AcDbRotatedDimension
1001
ACAD
1000
DSTYLE
1002
{
1070
   173
1070
     1
1070
   272
1070
     8
1070
   343
1005
1286
1002
}
  0
DIMENSION
  5
C95
330
1F
100
AcDbEntity
  8
AM_5
100
AcDbDimension
  2
*D13
 10
354.521403923906
 20
197.849911144572
 30
0.0
 11
335.521403923906
 21
200.599911144572
 31
0.0
 70
    32
 71
     5
 42
38.0
  3
AM_ISO$0
100
AcDbAlignedDimension
 13
316.521403923906
 23
180.2156692747438
 33
0.0
 14
354.521403923906
 24
180.2156692747438
 34
0.0
100
AcDbRotatedDimension
1001
ACAD
1000
DSTYLE
1002
{
1070
   272
1070
     8
1002
}
  0
ARC
  5
C96
330
1F
100
AcDbEntity
  8
0
100
AcDbCircle
 10
318.521403923906
 20
180.2156692747438
 30
0.0
 40
2.0
100
AcDbArc
 50
90.0
 51
180.0
  0
ARC
  5
C97
330
1F
100
AcDbEntity
  8
0
100
AcDbCircle
 10
318.521403923906
 20
155.2156692747438
 30
0.0
 40
2.0
100
AcDbArc
 50
180.0
 51
270.0
  0
ARC
  5
C98
330
1F
100
AcDbEntity
  8
0
100
AcDbCircle
 10
352.521403923906
 20
155.2156692747438
 30
0.0
 40
2.0
100
AcDbArc
 50
270.0
 51
0.0
  0
ARC
  5
C99
330
1F
100
AcDbEntity
  8
0
100
AcDbCircle
 10
352.521403923906
 20
180.2156692747438
 30
0.0
 40
2.0
100
AcDbArc
 50
0.0
 51
90.0
  0
LEADER
  5
C9A
330
1F
100
AcDbEntity
  8
AM_5
100
AcDbLeader
  3
AM_ISO$7
 73
     0
 74
     0
 75
     1
 40
4.0
 41
41.99999999999997
 76
     3
 10
244.0801169538423
 20
233.3798576069966
 30
0.0
 10
261.3856070911279
 20
244.3027510592275
 30
0.0
 10
264.3856070911279
 20
244.3027510592275
 30
0.0
340
C9B
213
2.488497996497017
223
-0.5806807508512293
233
0.0
1001
ACAD
1000
DSTYLE
1002
{
1070
   140
1040
3.5
1070
   272
1070
     8
1002
}
  0
MTEXT
  5
C9B
102
{ACAD_REACTORS
330
C9A
102
}
330
1F
100
AcDbEntity
  8
AM_5
100
AcDbMText
 10
262.8971090946309
 20
249.8834318100787
 30
0.0
 40
3.0
 41
0.0
 71
     1
 72
     1
  1
2-M5x0.8x10depth
  7
CHINA
 73
     1
 44
1.0
1001
ACAD
1000
MTEXTBEGIN
1070
    73
1070
     1
1070
    44
1040
1.0
1070
    74
1070
     0
1000
MTEXTEND
  0
LEADER
  5
C9E
330
1F
100
AcDbEntity
  8
AM_5
100
AcDbLeader
  3
AM_ISO$7
 73
     0
 75
     1
 40
9.0
 41
21.57142857142858
 76
     3
 10
331.0704385707936
 20
172.104103941105
 30
0.0
 10
312.7078784181757
 20
156.1533134546262
 30
0.0
 10
309.7078784181757
 20
156.1533134546262
 30
0.0
340
C9F
210
0.0
220
0.0
230
-1.0
213
0.4870622407513566
223
2.951225244394777
233
0.0
1001
ACAD
1000
DSTYLE
1002
{
1070
   140
1040
3.5
1070
   272
1070
     8
1002
}
  0
MTEXT
  5
C9F
102
{ACAD_REACTORS
330
C9E
102
}
330
1F
100
AcDbEntity
  8
AM_5
100
AcDbMText
 10
308.2208161774243
 20
156.7020882102314
 30
0.0
 40
3.0
 41
0.0
 71
     6
 72
     1
  1
2-M5x0.8\PAir port
  7
CHINA
 73
     1
 44
1.0
1001
ACAD
1000
MTEXTBEGIN
1070
    73
1070
     1
1070
    44
1040
1.0
1070
    74
1070
     0
1000
MTEXTEND
  0
LINE
  5
CA0
330
1F
100
AcDbEntity
  8
AM_7
100
AcDbLine
 10
356.8331463404786
 20
163.2156692747438
 30
0.0
 11
349.1229457360115
 21
163.2156692747438
 31
0.0
  0
DIMENSION
  5
CA1
330
1F
100
AcDbEntity
  8
AM_5
100
AcDbDimension
  2
*D14
 10
206.5670895902913
 20
131.2156692747438
 30
0.0
 11
209.5670895902913
 21
133.9656692747438
 31
0.0
 70
    32
 71
     5
 42
6.0
  3
AM_ISO$0
100
AcDbAlignedDimension
 13
212.5670895902913
 23
143.2156692747438
 33
0.0
 14
206.5670895902913
 24
143.2156692747437
 34
0.0
100
AcDbRotatedDimension
1001
ACAD
1000
DSTYLE
1002
{
1070
   272
1070
     8
1002
}
  0
DIMENSION
  5
CA2
330
1F
100
AcDbEntity
  8
AM_5
100
AcDbDimension
  2
*D15
 10
242.5670895902913
 20
131.2156692747438
 30
0.0
 11
227.5670895902913
 21
133.9656692747438
 31
0.0
 70
    32
  1
MAX30
 71
     5
 42
30.0
  3
AM_ISO$0
100
AcDbAlignedDimension
 13
212.5670895902913
 23
136.04675509402
 33
0.0
 14
242.5670895902913
 24
143.2156692747437
 34
0.0
100
AcDbRotatedDimension
1001
ACAD
1000
DSTYLE
1002
{
1070
   272
1070
     8
1002
}
  0
DIMENSION
  5
CA3
330
1F
100
AcDbEntity
  8
AM_5
100
AcDbDimension
  2
*D16
 10
248.5670895902913
 20
131.2156692747438
 30
0.0
 11
245.5670895902913
 21
133.9656692747438
 31
0.0
 70
    32
 71
     5
 42
6.0
  3
AM_ISO$0
100
AcDbAlignedDimension
 13
242.5670895902913
 23
136.04675509402
 33
0.0
 14
248.5670895902913
 24
143.2156692747437
 34
0.0
100
AcDbRotatedDimension
1001
ACAD
1000
DSTYLE
1002
{
1070
   272
1070
     8
1002
}
  0
TEXT
  5
CA4
330
1F
100
AcDbEntity
  8
AM_5
100
AcDbText
 10
220.7242926291583
 20
126.9830685354078
 30
0.0
 40
3.0
  1
MIN15
  7
CHINA
100
AcDbText
  0
DIMENSION
  5
CA5
330
1F
100
AcDbEntity
  8
AM_5
100
AcDbDimension
  2
*D17
 10
343.0214039239059
 20
131.2156692747437
 30
0.0
 11
336.021403923906
 21
133.9656692747437
 31
0.0
 70
    32
 71
     5
 42
14.0
  3
AM_ISO$0
100
AcDbAlignedDimension
 13
329.021403923906
 23
143.7108057740585
 33
0.0
 14
343.0214039239059
 24
143.9019959751254
 34
0.0
100
AcDbRotatedDimension
1001
ACAD
1000
DSTYLE
1002
{
1070
   272
1070
     8
1002
}
  0
DIMENSION
  5
CA6
330
1F
100
AcDbEntity
  8
AM_5
100
AcDbDimension
  2
*D18
 10
347.0214039239059
 20
123.2156692747437
 30
0.0
 11
331.2318512389359
 21
123.2156692747437
 31
0.0
 70
   160
 71
     5
 42
22.0
  3
AM_ISO$0
100
AcDbAlignedDimension
 13
325.021403923906
 23
143.2156692747437
 33
0.0
 14
347.0214039239059
 24
143.2156692747437
 34
0.0
100
AcDbRotatedDimension
1001
ACAD
1000
DSTYLE
1002
{
1070
   272
1070
     8
1002
}
  0
TEXT
  5
CA7
330
1F
100
AcDbEntity
  8
AM_5
100
AcDbText
 10
336.7860459016684
 20
126.4635518641782
 30
0.0
 40
1.75
  1
0
  7
CHINA
100
AcDbText
  0
TEXT
  5
CA8
330
1F
100
AcDbEntity
  8
AM_5
100
AcDbText
 10
334.724695382683
 20
124.2022559919063
 30
0.0
 40
1.75
  1
-0.1
  7
CHINA
100
AcDbText
  0
CIRCLE
  5
CA9
330
1F
100
AcDbEntity
  8
0
100
AcDbCircle
 10
343.0214039239059
 20
158.2156692747438
 30
0.0
 40
2.5
  0
LINE
  5
CAA
330
1F
100
AcDbEntity
  8
Center
100
AcDbLine
 10
329.021403923906
 20
154.5052685158166
 30
0.0
 11
329.021403923906
 21
161.7676032726102
 31
0.0
  0
CIRCLE
  5
CAB
330
1F
100
AcDbEntity
  8
0
100
AcDbCircle
 10
329.021403923906
 20
158.2156692747438
 30
0.0
 40
2.5
  0
LINE
  5
CAC
330
1F
100
AcDbEntity
  8
Center
100
AcDbLine
 10
332.9308579938639
 20
158.2156692747438
 30
0.0
 11
325.7022529472691
 21
158.2156692747438
 31
0.0
  0
LEADER
  5
CAD
330
1F
100
AcDbEntity
  8
AM_5
100
AcDbLeader
  3
AM_ISO$7
 73
     0
 74
     0
 75
     1
 40
3.0
 41
26.85714285714286
 76
     3
 10
344.4326680422236
 20
145.9127102630797
 30
0.0
 10
356.9793232303029
 20
133.1438362015353
 30
0.0
 10
359.979323230303
 20
133.1438362015353
 30
0.0
340
CAE
213
2.354325849322322
223
-0.2689606264586644
233
0.0
1001
ACAD
1000
DSTYLE
1002
{
1070
   140
1040
3.5
1070
   272
1070
     8
1002
}
  0
MTEXT
  5
CAE
102
{ACAD_REACTORS
330
CAD
102
}
330
1F
100
AcDbEntity
  8
AM_5
100
AcDbMText
 10
358.6249973809807
 20
137.412796827994
 30
0.0
 40
3.0
 41
0.0
 71
     1
 72
     1
  1
2x2-M4x0.7
  7
CHINA
 73
     1
 44
1.0
1001
ACAD
1000
MTEXTBEGIN
1070
    73
1070
     1
1070
    44
1040
1.0
1070
    74
1070
     0
1000
MTEXTEND
  0
CIRCLE
  5
CB0
330
1F
100
AcDbEntity
  8
0
100
AcDbCircle
 10
207.5670895902913
 20
173.2156692747438
 30
0.0
 40
0.75
  0
CIRCLE
  5
CB2
330
1F
100
AcDbEntity
  8
0
100
AcDbCircle
 10
227.5670895902913
 20
231.77839584215
 30
0.0
 40
2.0
  0
LEADER
  5
CB3
330
1F
100
AcDbEntity
  8
AM_5
100
AcDbLeader
  3
AM_ISO$7
 73
     0
 74
     0
 75
     1
 40
4.0
 41
41.99999999999997
 76
     3
 10
242.5670895902913
 20
172.7156692747438
 30
0.0
 10
258.7807741661631
 20
190.9962754517394
 30
0.0
 10
261.7807741661632
 20
190.9962754517394
 30
0.0
340
CB4
213
2.093522604127429
223
-0.9258607592188354
233
0.0
1001
ACAD
1000
DSTYLE
1002
{
1070
   140
1040
3.5
1070
   272
1070
     8
1002
}
  0
MTEXT
  5
CB4
102
{ACAD_REACTORS
330
CB3
102
}
330
1F
100
AcDbEntity
  8
AM_5
100
AcDbMText
 10
260.6872515620357
 20
196.9221362109582
 30
0.0
 40
3.0
 41
0.0
 71
     1
 72
     1
  1
2-M5x0.8x10depth
  7
CHINA
 73
     1
 44
1.0
1001
ACAD
1000
MTEXTBEGIN
1070
    73
1070
     1
1070
    44
1040
1.0
1070
    74
1070
     0
1000
MTEXTEND
  0
DIMENSION
  5
CB6
330
1F
100
AcDbEntity
  8
AM_5
100
AcDbDimension
  2
*D19
 10
301.888278499234
 20
173.2156692747438
 30
0.0
 11
301.888278499234
 21
177.7156692747438
 31
0.0
 70
   160
 71
     5
 42
8.999999999999971
  3
AM_ISO$0
100
AcDbAlignedDimension
 13
318.521403923906
 23
182.2156692747438
 33
0.0
 14
326.3930071109706
 24
173.2156692747438
 34
0.0
 50
90.0
100
AcDbRotatedDimension
1001
ACAD
1000
DSTYLE
1002
{
1070
   272
1070
     8
1002
}
  0
LEADER
  5
CB8
330
1F
100
AcDbEntity
  8
AM_5
100
AcDbLeader
  3
AM_ISO$7
 76
     3
 10
228.9440315687877
 20
230.2336176456731
 30
0.0
 10
260.3900622758258
 20
215.0915941847922
 30
0.0
 10
293.6706491338404
 20
215.0915941847922
 30
0.0
1001
ACAD
1000
DSTYLE
1002
{
1070
   140
1040
3.5
1070
   272
1070
     8
1002
}
  0
MTEXT
  5
CB9
330
1F
100
AcDbEntity
  8
AM_5
100
AcDbMText
 10
260.5521535038141
 20
220.0944210976206
 30
0.0
 40
3.0
 41
0.0
 71
     1
 72
     1
  1
%%C2h9x1.8depth
  7
CHINA
 73
     1
 44
1.0
1001
ACAD
1000
MTEXTBEGIN
1070
    73
1070
     1
1070
    44
1040
1.0
1070
    74
1070
     0
1000
MTEXTEND
  0
TEXT
  5
1195
330
1F
100
AcDbEntity
  8
LOGO
 62
     7
100
AcDbText
 10
206.1480295942115
 20
104.2999631811155
 30
0.0
 40
2.399652488687782
  1
Order example:
 41
0.8
  7
chineset
100
AcDbText
  0
TEXT
  5
1196
330
1F
100
AcDbEntity
  8
LOGO
 62
     7
100
AcDbText
 10
206.5785470950009
 20
107.6781770308003
 30
0.0
 40
3.599478733031673
  1
訂購代號：
  7
chineset
100
AcDbText
  0
LINE
  5
1197
330
1F
100
AcDbEntity
  8
LOGO
 62
     4
100
AcDbLine
 10
205.1053724487234
 20
94.18692142884058
 30
0.0
 11
205.1053724487234
 21
112.184315093999
 31
0.0
  0
TEXT
  5
1198
330
1F
100
AcDbEntity
  8
LOGO
  6
Continuous
100
AcDbText
 10
171.9758510897496
 20
97.7224822539258
 30
0.0
 40
2.699609049773755
  1
金器工業股份有限公司
  7
chineset
100
AcDbText
  0
TEXT
  5
1199
330
1F
100
AcDbEntity
  8
LOGO
  6
Continuous
100
AcDbText
 10
167.0172033566271
 20
95.02234429243584
 30
0.0
 40
1.799739366515836
  1
MINDMAN INDUSTRIAL CO., LTD.
 41
0.85
  7
chineset
100
AcDbText
  0
LINE
  5
119A
330
1F
100
AcDbEntity
  8
LOGO
 62
     4
100
AcDbLine
 10
205.1053724487234
 20
108.5848363609673
 30
0.0
 11
178.7091950731575
 21
108.5848363609673
 31
0.0
  0
LINE
  5
119B
330
1F
100
AcDbEntity
  8
LOGO
 62
     4
100
AcDbLine
 10
205.1053724487234
 20
104.9853576279357
 30
0.0
 11
178.7091950731575
 21
104.9853576279357
 31
0.0
  0
LINE
  5
119C
330
1F
100
AcDbEntity
  8
LOGO
 62
     4
100
AcDbLine
 10
205.1053724487234
 20
101.3858788949042
 30
0.0
 11
165.5111063853749
 21
101.3858788949042
 31
0.0
  0
LINE
  5
119D
330
1F
100
AcDbEntity
  8
LOGO
 62
     4
100
AcDbLine
 10
178.7091950731575
 20
101.3858788949042
 30
0.0
 11
178.7091950731575
 21
112.184315093999
 31
0.0
  0
TEXT
  5
119E
330
1F
100
AcDbEntity
  8
LOGO
100
AcDbText
 10
196.7497364287617
 20
102.2857485781618
 30
0.0
 40
1.799739366515836
  1
mm
  7
chineset
 72
     1
 11
198.9779851682575
 21
103.1856182614197
 31
0.0
100
AcDbText
 73
     2
  0
TEXT
  5
119F
330
1F
100
AcDbEntity
  8
LOGO
100
AcDbText
 10
195.8070158082058
 20
109.4847060442252
 30
0.0
 40
1.799739366515836
  1
1 : 1
  7
chineset
 72
     1
 11
198.9779851682575
 21
110.3845757274831
 31
0.0
100
AcDbText
 73
     2
  0
LINE
  5
11A0
330
1F
100
AcDbEntity
  8
LOGO
 62
     4
100
AcDbLine
 10
193.1071100052843
 20
101.3858788949042
 30
0.0
 11
193.1071100052843
 21
112.184315093999
 31
0.0
  0
TEXT
  5
11A1
330
1F
100
AcDbEntity
  8
LOGO
100
AcDbText
 10
180.1931765954588
 20
109.4855917427323
 30
117.9519531840448
 40
1.799739366515836
  1
比例 Scale:
 41
0.9
  7
chineset
 72
     4
 11
185.9081525392209
 21
110.3845757274831
 31
117.9519531840448
100
AcDbText
  0
TEXT
  5
11A2
330
1F
100
AcDbEntity
  8
LOGO
100
AcDbText
 10
180.0895308908693
 20
105.910543526856
 30
117.9519531840448
 40
1.799739366515836
  1
投影  View:
 41
0.9
  7
chineset
 72
     4
 11
185.9081525392209
 21
106.7850969944514
 31
117.9519531840448
100
AcDbText
  0
TEXT
  5
11A3
330
1F
100
AcDbEntity
  8
LOGO
100
AcDbText
 10
180.2654875521492
 20
102.2857485781618
 30
117.9519531840448
 40
1.799739366515836
  1
單位  Unit:
 41
0.9
  7
chineset
 72
     4
 11
185.9081525392209
 21
103.1856182614197
 31
117.9519531840448
100
AcDbText
  0
LWPOLYLINE
  5
11A4
330
1F
100
AcDbEntity
  8
LOGO
 62
     4
100
AcDbPolyline
 90
        4
 70
     1
 43
0.0
 10
165.5111063853749
 20
112.184315093999
 10
413.0111063853749
 20
112.184315093999
 10
413.0111063853749
 20
274.1869214288403
 10
165.5111063853749
 20
274.1869214288403
1001
GENIUS_GENREC_14
1002
{
1000
PYDIR
1011
165.5111063853749
1021
274.1869214288403
1031
0.0
1002
}
1002
{
1000
PXDIR
1011
413.0111063853749
1021
112.184315093999
1031
0.0
1002
}
1002
{
1000
PORI
1011
165.5111063853749
1021
112.184315093999
1031
0.0
1002
}
1002
{
1000
PINS
1011
165.5111063853749
1021
112.184315093999
1031
0.0
1002
}
1002
{
1000
PINS2
1011
413.0111063853749
1021
274.1869214288403
1031
0.0
1002
}
1002
{
1000
C
1070
     1
1002
}
1001
GENIUS_GENODEF_13
1002
{
1000
HIER
1070
     0
1002
}
1002
{
1000
MANEDIT
1070
     0
1002
}
1002
{
1000
NOSEL
1070
     0
1002
}
1002
{
1000
BEHIND
1070
     0
1002
}
1002
{
1000
OTHER
1070
     0
1002
}
1002
{
1000
REACTOR
1002
}
1001
GENIUS_GENOBJ-N-REC_13
1002
{
1000
OWNER
1000
GEN
1002
}
  0
SOLID
  5
11A5
330
1F
100
AcDbEntity
  8
LOGO
 62
     5
100
AcDbTrace
 10
167.3783648617549
 20
104.3776894190102
 30
0.0
 11
168.1565249386753
 21
104.37768941901
 31
0.0
 12
171.4033307768606
 22
111.7567935967045
 32
0.0
 13
172.1814908537814
 23
111.7567935967041
 33
0.0
  0
SOLID
  5
11A6
330
1F
100
AcDbEntity
  8
LOGO
 62
     5
100
AcDbTrace
 10
168.4785222118846
 20
104.3776894190102
 30
0.0
 11
169.2566822888051
 21
104.3776894190102
 31
0.0
 12
172.1814908537814
 22
111.1664652624887
 32
0.0
 13
171.4033307768606
 23
108.3132116471136
 33
0.0
  0
SOLID
  5
11A7
330
1F
100
AcDbEntity
  8
LOGO
 62
     2
100
AcDbTrace
 10
168.1565249386753
 20
104.37768941901
 30
0.0
 11
168.4785222118846
 21
104.3776894190102
 31
0.0
 12
172.1814908537814
 22
111.7567935967041
 32
0.0
 13
172.5034881269903
 23
111.7567935967041
 33
0.0
  0
SOLID
  5
11A8
330
1F
100
AcDbEntity
  8
LOGO
 62
     5
100
AcDbTrace
 10
166.1307834302253
 20
101.6943788089398
 30
0.0
 11
166.3991144912327
 21
101.6943788089398
 31
0.0
 12
167.1547556442492
 22
103.0360341139749
 32
0.0
 13
167.4230867052557
 23
103.0360341139749
 33
0.0
  0
SOLID
  5
11A9
330
1F
100
AcDbEntity
  8
LOGO
 62
     5
100
AcDbTrace
 10
167.1547556442492
 20
103.0360341139749
 30
0.0
 11
167.4230867052557
 21
103.0360341139749
 31
0.0
 12
167.1547556442492
 22
101.6943788089398
 32
0.0
 13
167.4230867052557
 23
101.6943788089398
 33
0.0
  0
SOLID
  5
11AA
330
1F
100
AcDbEntity
  8
LOGO
 62
     5
100
AcDbTrace
 10
167.1547556442492
 20
101.6943788089398
 30
0.0
 11
167.4230867052557
 21
101.6943788089398
 31
0.0
 12
168.1787278582735
 22
103.0360341139749
 32
0.0
 13
168.4470589192804
 23
103.0360341139749
 33
0.0
  0
SOLID
  5
11AB
330
1F
100
AcDbEntity
  8
LOGO
 62
     5
100
AcDbTrace
 10
168.1787278582735
 20
103.0360341139749
 30
0.0
 11
168.4470589192804
 21
103.0360341139749
 31
0.0
 12
168.1787278582735
 22
101.6943788089398
 32
0.0
 13
168.4470589192804
 23
101.6943788089398
 33
0.0
  0
POLYLINE
  5
11AC
330
1F
100
AcDbEntity
  8
LOGO
 62
     5
100
AcDb2dPolyline
 66
     1
 10
0.0
 20
0.0
 30
0.0
 40
0.2687610787330316
 41
0.2687610787330316
  0
VERTEX
  5
11AD
330
11AC
100
AcDbEntity
  8
LOGO
 62
     5
100
AcDbVertex
100
AcDb2dVertex
 10
177.173093615102
 20
102.4993719919608
 30
0.0
 42
1.0
  0
VERTEX
  5
11AE
330
11AC
100
AcDbEntity
  8
LOGO
 62
     5
100
AcDbVertex
100
AcDb2dVertex
 10
176.3668103789028
 20
102.4993719919608
 30
0.0
 42
1.0
  0
SEQEND
  5
11AF
330
11AC
100
AcDbEntity
  8
LOGO
 62
     5
  0
POLYLINE
  5
11B0
330
1F
100
AcDbEntity
  8
LOGO
 62
     5
100
AcDb2dPolyline
 66
     1
 10
0.0
 20
0.0
 30
0.0
 70
     1
  0
VERTEX
  5
11B1
330
11B0
100
AcDbEntity
  8
LOGO
 62
     5
100
AcDbVertex
100
AcDb2dVertex
 10
174.8469306151887
 20
102.3652064614571
 30
0.0
 42
1.000000057330635
  0
VERTEX
  5
11B2
330
11B0
100
AcDbEntity
  8
LOGO
 62
     5
100
AcDbVertex
100
AcDb2dVertex
 10
175.6519237982099
 20
102.3652064614571
 30
0.0
 42
1.000000057330635
  0
SEQEND
  5
11B3
330
11B0
100
AcDbEntity
  8
LOGO
 62
     5
  0
CIRCLE
  5
11B4
330
1F
100
AcDbEntity
  8
LOGO
 62
     5
100
AcDbCircle
 10
175.2494272066999
 20
102.3652064614571
 30
0.0
 40
0.4024965915105883
  0
POLYLINE
  5
11B5
330
1F
100
AcDbEntity
  8
LOGO
 62
     5
100
AcDb2dPolyline
 66
     1
 10
0.0
 20
0.0
 30
0.0
 70
     1
 40
0.2687610787330316
 41
0.2687610787330316
  0
VERTEX
  5
11B6
330
11B5
100
AcDbEntity
  8
LOGO
 62
     5
100
AcDbVertex
100
AcDb2dVertex
 10
174.7119050492335
 20
102.3652064614571
 30
0.0
 42
1.0
  0
VERTEX
  5
11B7
330
11B5
100
AcDbEntity
  8
LOGO
 62
     5
100
AcDbVertex
100
AcDb2dVertex
 10
175.7869493641655
 20
102.3652064614571
 30
0.0
 42
1.0
  0
SEQEND
  5
11B8
330
11B5
100
AcDbEntity
  8
LOGO
 62
     5
  0
LINE
  5
11B9
330
1F
100
AcDbEntity
  8
LOGO
100
AcDbLine
 10
177.3066141190161
 20
101.6943788089398
 30
0.0
 11
177.3066141190161
 21
102.4993719919608
 31
0.0
  0
SOLID
  5
11BA
330
1F
100
AcDbEntity
  8
LOGO
 62
     5
100
AcDbTrace
 10
175.651896965105
 20
103.0360341139749
 30
0.0
 11
175.9202280261115
 21
103.0360341139749
 31
0.0
 12
175.651896965105
 22
101.6943788089398
 32
0.0
 13
175.9202280261115
 23
101.6943788089398
 33
0.0
  0
SOLID
  5
11BB
330
1F
100
AcDbEntity
  8
LOGO
 62
     5
100
AcDbTrace
 10
176.2332898749879
 20
101.6943788089398
 30
0.0
 11
176.5016209359953
 21
101.6943788089398
 31
0.0
 12
176.2332898749879
 22
103.0360341139749
 32
0.0
 13
176.5016209359953
 23
103.0360341139749
 33
0.0
  0
SOLID
  5
11BC
330
1F
100
AcDbEntity
  8
LOGO
 62
     5
100
AcDbTrace
 10
177.0382830580095
 20
102.4993719919608
 30
0.0
 11
177.3066141190161
 21
102.4993719919608
 31
0.0
 12
177.0382830580095
 22
101.6943788089398
 32
0.0
 13
177.3066141190161
 23
101.6943788089398
 33
0.0
  0
SOLID
  5
11BD
330
1F
100
AcDbEntity
  8
LOGO
 62
     5
100
AcDbTrace
 10
176.2064567688871
 20
111.1664652624887
 30
0.0
 11
175.4282966919671
 21
108.3132116471136
 31
0.0
 12
176.2064567688871
 22
104.37768941901
 32
0.0
 13
175.4282966919671
 23
104.37768941901
 33
0.0
  0
SOLID
  5
11BE
330
1F
100
AcDbEntity
  8
LOGO
 62
     5
100
AcDbTrace
 10
176.528454042096
 20
104.37768941901
 30
0.0
 11
177.3066141190161
 21
104.37768941901
 31
0.0
 12
176.528454042096
 22
111.7567935967041
 32
0.0
 13
177.3066141190161
 23
111.7567935967045
 33
0.0
  0
SOLID
  5
11BF
330
1F
100
AcDbEntity
  8
LOGO
 62
     2
100
AcDbTrace
 10
176.2064567688871
 20
111.7567935967045
 30
0.0
 11
176.528454042096
 21
111.7567935967041
 31
0.0
 12
176.2064567688871
 22
104.37768941901
 32
0.0
 13
176.528454042096
 23
104.37768941901
 33
0.0
  0
POLYLINE
  5
11C0
330
1F
100
AcDbEntity
  8
LOGO
 62
     5
100
AcDb2dPolyline
 66
     1
 10
0.0
 20
0.0
 30
0.0
 40
0.2687610787330316
 41
0.2687610787330316
  0
VERTEX
  5
11C1
330
11C0
100
AcDbEntity
  8
LOGO
 62
     5
100
AcDbVertex
100
AcDb2dVertex
 10
173.3269971852635
 20
102.4993719919608
 30
0.0
 42
1.0
  0
VERTEX
  5
11C2
330
11C0
100
AcDbEntity
  8
LOGO
 62
     5
100
AcDbVertex
100
AcDb2dVertex
 10
172.5207139490643
 20
102.4993719919608
 30
0.0
 42
1.0
  0
SEQEND
  5
11C3
330
11C0
100
AcDbEntity
  8
LOGO
 62
     5
  0
POLYLINE
  5
11C4
330
1F
100
AcDbEntity
  8
LOGO
 62
     5
100
AcDb2dPolyline
 66
     1
 10
0.0
 20
0.0
 30
0.0
 40
0.2687610787330316
 41
0.2687610787330316
  0
VERTEX
  5
11C5
330
11C4
100
AcDbEntity
  8
LOGO
 62
     5
100
AcDbVertex
100
AcDb2dVertex
 10
174.1319903682839
 20
102.4993719919608
 30
0.0
 42
1.0
  0
VERTEX
  5
11C6
330
11C4
100
AcDbEntity
  8
LOGO
 62
     5
100
AcDbVertex
100
AcDb2dVertex
 10
173.3257071320851
 20
102.4993719919608
 30
0.0
 42
1.0
  0
SEQEND
  5
11C7
330
11C4
100
AcDbEntity
  8
LOGO
 62
     5
  0
POLYLINE
  5
11C8
330
1F
100
AcDbEntity
  8
LOGO
 62
     5
100
AcDb2dPolyline
 66
     1
 10
0.0
 20
0.0
 30
0.0
 40
0.2687610787330316
 41
0.2687610787330316
  0
VERTEX
  5
11C9
330
11C8
100
AcDbEntity
  8
LOGO
 62
     5
100
AcDbVertex
100
AcDb2dVertex
 10
170.2858939384454
 20
102.4993719919608
 30
0.0
 42
1.0
  0
VERTEX
  5
11CA
330
11C8
100
AcDbEntity
  8
LOGO
 62
     5
100
AcDbVertex
100
AcDb2dVertex
 10
169.4796107022466
 20
102.4993719919608
 30
0.0
 42
1.0
  0
SEQEND
  5
11CB
330
11C8
100
AcDbEntity
  8
LOGO
 62
     5
  0
SOLID
  5
11CC
330
1F
100
AcDbEntity
  8
LOGO
 62
     5
100
AcDbTrace
 10
169.3460901983321
 20
103.0360341139749
 30
0.0
 11
169.6144212593386
 21
103.0360341139749
 31
0.0
 12
169.3460901983321
 22
101.6943788089398
 32
0.0
 13
169.6144212593386
 23
101.6943788089398
 33
0.0
  0
SOLID
  5
11CD
330
1F
100
AcDbEntity
  8
LOGO
 62
     5
100
AcDbTrace
 10
170.1510833813534
 20
102.4993719919608
 30
0.0
 11
170.4194144423607
 21
102.4993719919608
 31
0.0
 12
170.1510833813534
 22
101.6943788089398
 32
0.0
 13
170.4194144423607
 23
101.6943788089398
 33
0.0
  0
POLYLINE
  5
11CE
330
1F
100
AcDbEntity
  8
LOGO
 62
     5
100
AcDb2dPolyline
 66
     1
 10
0.0
 20
0.0
 30
0.0
 70
     1
 40
0.2687610787330316
 41
0.2687610787330316
  0
VERTEX
  5
11CF
330
11CE
100
AcDbEntity
  8
LOGO
 62
     5
100
AcDbVertex
100
AcDb2dVertex
 10
170.8658086193945
 20
102.3652064614571
 30
0.0
 42
1.0
  0
VERTEX
  5
11D0
330
11CE
100
AcDbEntity
  8
LOGO
 62
     5
100
AcDbVertex
100
AcDb2dVertex
 10
171.940852934327
 20
102.3652064614571
 30
0.0
 42
1.0
  0
SEQEND
  5
11D1
330
11CE
100
AcDbEntity
  8
LOGO
 62
     5
  0
SOLID
  5
11D2
330
1F
100
AcDbEntity
  8
LOGO
 62
     5
100
AcDbTrace
 10
171.8058005352657
 20
103.4385307054857
 30
0.0
 11
172.0741315962726
 21
103.4385307054857
 31
0.0
 12
171.8058005352657
 22
101.6943788089398
 32
0.0
 13
172.0741315962726
 23
101.6943788089398
 33
0.0
  0
SOLID
  5
11D3
330
1F
100
AcDbEntity
  8
LOGO
 62
     5
100
AcDbTrace
 10
172.3871934451502
 20
103.0360341139749
 30
0.0
 11
172.6555245061567
 21
103.0360341139749
 31
0.0
 12
172.3871934451502
 22
101.6943788089398
 32
0.0
 13
172.6555245061567
 23
101.6943788089398
 33
0.0
  0
SOLID
  5
11D4
330
1F
100
AcDbEntity
  8
LOGO
 62
     5
100
AcDbTrace
 10
173.1921866281706
 20
102.4993719919608
 30
0.0
 11
173.460517689178
 21
102.4993719919608
 31
0.0
 12
173.1921866281706
 22
101.6943788089398
 32
0.0
 13
173.460517689178
 23
101.6943788089398
 33
0.0
  0
SOLID
  5
11D5
330
1F
100
AcDbEntity
  8
LOGO
 62
     5
100
AcDbTrace
 10
173.9971798111918
 20
102.4993719919608
 30
0.0
 11
174.2655108721988
 21
102.4993719919608
 31
0.0
 12
173.9971798111918
 22
101.6943788089394
 32
0.0
 13
174.2655108721988
 23
101.6943788089394
 33
0.0
  0
SOLID
  5
11D6
330
1F
100
AcDbEntity
  8
LOGO
 62
     5
100
AcDbTrace
 10
168.764697288448
 20
103.2238658566799
 30
0.0
 11
169.0330283494557
 21
103.2238658566799
 31
0.0
 12
168.764697288448
 22
103.4385307054857
 32
0.0
 13
169.0330283494557
 23
103.4385307054857
 33
0.0
  0
SOLID
  5
11D7
330
1F
100
AcDbEntity
  8
LOGO
 62
     5
100
AcDbTrace
 10
168.764697288448
 20
103.0360341139749
 30
0.0
 11
169.0330283494557
 21
103.0360341139749
 31
0.0
 12
168.764697288448
 22
101.6943788089394
 32
0.0
 13
169.0330283494557
 23
101.6943788089398
 33
0.0
  0
SOLID
  5
11D8
330
1F
100
AcDbEntity
  8
LOGO
 62
     5
100
AcDbTrace
 10
171.4033307768606
 20
104.3776894190102
 30
0.0
 11
172.1814908537814
 21
104.3776894190102
 31
0.0
 12
171.4033307768606
 22
108.3132116471136
 32
0.0
 13
172.1814908537814
 23
111.1664652624887
 33
0.0
  0
SOLID
  5
11D9
330
1F
100
AcDbEntity
  8
LOGO
 62
     5
100
AcDbTrace
 10
172.5034881269903
 20
111.7567935967041
 30
0.0
 11
173.2816482039104
 21
111.7567935967045
 31
0.0
 12
172.5034881269903
 22
104.9680177532256
 32
0.0
 13
173.2816482039104
 23
107.8212713686008
 33
0.0
  0
SOLID
  5
11DA
330
1F
100
AcDbEntity
  8
LOGO
 62
     2
100
AcDbTrace
 10
172.1814908537814
 20
111.7567935967041
 30
0.0
 11
172.5034881269903
 21
111.7567935967041
 31
0.0
 12
172.1814908537814
 22
104.3776894190102
 32
0.0
 13
172.5034881269903
 23
104.3776894190102
 33
0.0
  0
SOLID
  5
11DB
330
1F
100
AcDbEntity
  8
LOGO
 62
     5
100
AcDbTrace
 10
172.5034881269903
 20
104.9680177532256
 30
0.0
 11
173.2816482039104
 21
107.8212713686008
 31
0.0
 12
176.2064567688871
 22
111.7567935967045
 32
0.0
 13
175.4282966919671
 23
111.7567935967045
 33
0.0
  0
SOLID
  5
11DC
330
1F
100
AcDbEntity
  8
LOGO
 62
     5
100
AcDbTrace
 10
172.5034881269903
 20
104.3776894190102
 30
0.0
 11
173.2816482039104
 21
104.3776894190102
 31
0.0
 12
176.2064567688871
 22
111.1664652624887
 32
0.0
 13
175.4282966919671
 23
108.3132116471136
 33
0.0
  0
SOLID
  5
11DD
330
1F
100
AcDbEntity
  8
LOGO
 62
     2
100
AcDbTrace
 10
172.1814908537814
 20
104.3776894190102
 30
0.0
 11
172.5034881269903
 21
104.3776894190102
 31
0.0
 12
176.2064567688871
 22
111.7567935967045
 32
0.0
 13
176.528454042096
 23
111.7567935967041
 33
0.0
  0
LWPOLYLINE
  5
11DE
330
1F
100
AcDbEntity
  8
LOGO
 62
     4
100
AcDbPolyline
 90
        4
 70
     1
 43
0.0
 10
165.5111063853749
 20
112.184315093999
 10
413.0111063853749
 20
112.184315093999
 10
413.0111063853749
 20
94.18692142884037
 10
165.5111063853749
 20
94.18692142884037
1001
GENIUS_GENREC_14
1002
{
1000
PYDIR
1011
165.5111063853749
1021
94.18692142884037
1031
0.0
1002
}
1002
{
1000
PXDIR
1011
413.0111063853749
1021
112.184315093999
1031
0.0
1002
}
1002
{
1000
PORI
1011
165.5111063853749
1021
112.184315093999
1031
0.0
1002
}
1002
{
1000
PINS
1011
165.5111063853749
1021
112.184315093999
1031
0.0
1002
}
1002
{
1000
PINS2
1011
413.0111063853749
1021
94.18692142884037
1031
0.0
1002
}
1002
{
1000
C
1070
     1
1002
}
1001
GENIUS_GENOBJ-N-REC_13
1002
{
1000
OWNER
1000
GEN
1002
}
1001
GENIUS_GENODEF_13
1002
{
1000
HIER
1070
     0
1002
}
1002
{
1000
MANEDIT
1070
     0
1002
}
1002
{
1000
NOSEL
1070
     0
1002
}
1002
{
1000
BEHIND
1070
     0
1002
}
1002
{
1000
OTHER
1070
     0
1002
}
1002
{
1000
REACTOR
1002
}
  0
LINE
  5
11DF
330
1F
100
AcDbEntity
  8
LOGO
 62
     4
100
AcDbLine
 10
241.8582511137074
 20
102.2857485781621
 30
0.0
 11
241.8582511137074
 21
95.6867042342704
 31
0.0
  0
LINE
  5
11E0
330
1F
100
AcDbEntity
  8
LOGO
 62
     4
100
AcDbLine
 10
229.8599886702684
 20
102.2857485781621
 30
0.0
 11
229.8599886702684
 21
95.6867042342704
 31
0.0
  0
LINE
  5
11E1
330
1F
100
AcDbEntity
  8
LOGO
 62
     4
100
AcDbLine
 10
241.8582511137074
 20
95.6867042342704
 30
0.0
 11
229.8599886702684
 21
95.6867042342704
 31
0.0
  0
LINE
  5
11E2
330
1F
100
AcDbEntity
  8
LOGO
 62
     4
100
AcDbLine
 10
244.010266994533
 20
110.3845757274831
 30
0.0
 11
229.8599886702684
 21
110.3845757274831
 31
0.0
  0
LINE
  5
11E3
330
1F
100
AcDbEntity
  8
LOGO
 62
     4
100
AcDbLine
 10
244.010266994533
 20
104.9853576279357
 30
0.0
 11
229.8599886702684
 21
104.9853576279357
 31
0.0
  0
LINE
  5
11E4
330
1F
100
AcDbEntity
  8
LOGO
 62
     4
100
AcDbLine
 10
229.8599886702684
 20
110.3845757274831
 30
0.0
 11
229.8599886702684
 21
104.9853576279357
 31
0.0
  0
LINE
  5
11E5
330
1F
100
AcDbEntity
  8
LOGO
 62
     4
100
AcDbLine
 10
244.010266994533
 20
110.3845757274831
 30
0.0
 11
244.010266994533
 21
104.9853576279357
 31
0.0
  0
LINE
  5
11E6
330
1F
100
AcDbEntity
  8
LOGO
 62
     4
100
AcDbLine
 10
236.4851278324007
 20
104.9853576279357
 30
0.0
 11
236.4851278324007
 21
102.2857485781621
 31
0.0
  0
TEXT
  5
11E7
330
1F
100
AcDbEntity
  8
LOGO
  6
Continuous
100
AcDbText
 10
230.8193451672204
 20
106.1124365125601
 30
0.0
 40
3.149999999999999
  1
MCHU
  7
chineset
100
AcDbText
  0
LINE
  5
11E8
330
1F
100
AcDbEntity
  8
LOGO
 62
     4
100
AcDbLine
 10
241.8582511137074
 20
102.2857485781621
 30
0.0
 11
229.8599886702684
 21
102.2857485781621
 31
0.0
  0
TEXT
  5
11E9
330
1F
100
AcDbEntity
  8
LOGO
  6
Continuous
100
AcDbText
 10
233.7101931024471
 20
96.61814534981211
 30
117.9519531840448
 40
1.35
  1
Model
 41
0.8
  7
chineset
100
AcDbText
  0
TEXT
  5
11EA
330
1F
100
AcDbEntity
  8
LOGO
100
AcDbText
 10
233.350866988248
 20
99.12075440404674
 30
117.9519531840448
 40
2.25
  1
型號
  7
chineset
100
AcDbText
  0
LINE
  5
11EB
330
1F
100
AcDbEntity
  8
LOGO
  6
Continuous
100
AcDbLine
 10
244.5842485024381
 20
107.6658417939227
 30
0.0
 11
246.9683462064837
 21
107.6658417939227
 31
0.0
  0
LINE
  5
11EC
330
1F
100
AcDbEntity
  8
LOGO
 62
     4
100
AcDbLine
 10
253.5510737681768
 20
102.2857485781621
 30
0.0
 11
253.5510737681768
 21
95.6867042342704
 31
0.0
  0
LINE
  5
11ED
330
1F
100
AcDbEntity
  8
LOGO
 62
     4
100
AcDbLine
 10
243.1175083017246
 20
102.2857485781621
 30
0.0
 11
243.1175083017246
 21
95.6867042342704
 31
0.0
  0
LINE
  5
11EE
330
1F
100
AcDbEntity
  8
LOGO
 62
     4
100
AcDbLine
 10
253.5510737681768
 20
95.6867042342704
 30
0.0
 11
243.1175083017246
 21
95.6867042342704
 31
0.0
  0
LINE
  5
11EF
330
1F
100
AcDbEntity
  8
LOGO
 62
     4
100
AcDbLine
 10
254.1722185447533
 20
110.3845757274831
 30
0.0
 11
247.534715159052
 21
110.3845757274831
 31
0.0
  0
LINE
  5
11F0
330
1F
100
AcDbEntity
  8
LOGO
 62
     4
100
AcDbLine
 10
254.1722185447533
 20
104.9853576279357
 30
0.0
 11
247.534715159052
 21
104.9853576279357
 31
0.0
  0
LINE
  5
11F1
330
1F
100
AcDbEntity
  8
LOGO
 62
     4
100
AcDbLine
 10
247.534715159052
 20
110.3845757274831
 30
0.0
 11
247.534715159052
 21
104.9853576279357
 31
0.0
  0
LINE
  5
11F2
330
1F
100
AcDbEntity
  8
LOGO
 62
     4
100
AcDbLine
 10
254.1722185447533
 20
110.3845757274831
 30
0.0
 11
254.1722185447533
 21
104.9853576279357
 31
0.0
  0
LINE
  5
11F3
330
1F
100
AcDbEntity
  8
LOGO
 62
     4
100
AcDbLine
 10
250.8534668519026
 20
104.9853576279357
 30
0.0
 11
250.8534668519026
 21
102.2857485781621
 31
0.0
  0
TEXT
  5
11F4
330
1F
100
AcDbEntity
  8
LOGO
  6
Continuous
100
AcDbText
 10
248.2533366506022
 20
106.1124365125601
 30
0.0
 40
3.149999999999999
  1
12
  7
chineset
100
AcDbText
  0
LINE
  5
11F5
330
1F
100
AcDbEntity
  8
LOGO
 62
     4
100
AcDbLine
 10
253.5510737681768
 20
102.2857485781621
 30
0.0
 11
243.1175083017246
 21
102.2857485781621
 31
0.0
  0
LINE
  5
11F6
330
1F
100
AcDbEntity
  8
LOGO
  6
Continuous
100
AcDbLine
 10
264.6549614721026
 20
107.6658417939227
 30
0.0
 11
267.0390591761486
 21
107.6658417939227
 31
0.0
  0
LINE
  5
11F7
330
1F
100
AcDbEntity
  8
LOGO
 62
     4
100
AcDbLine
 10
284.5358256050527
 20
102.2857485781621
 30
0.0
 11
284.5358256050527
 21
95.6867042342704
 31
0.0
  0
LINE
  5
11F8
330
1F
100
AcDbEntity
  8
LOGO
 62
     4
100
AcDbLine
 10
268.3798684129885
 20
102.2857485781621
 30
0.0
 11
268.3798684129885
 21
95.6867042342704
 31
0.0
  0
LINE
  5
11F9
330
1F
100
AcDbEntity
  8
LOGO
 62
     4
100
AcDbLine
 10
284.5358256050527
 20
95.6867042342704
 30
0.0
 11
268.3798684129885
 21
95.6867042342704
 31
0.0
  0
LINE
  5
11FA
330
1F
100
AcDbEntity
  8
LOGO
 62
     4
100
AcDbLine
 10
276.1812648571473
 20
110.3845757274831
 30
0.0
 11
267.7911163284847
 21
110.3845757274831
 31
0.0
  0
LINE
  5
11FB
330
1F
100
AcDbEntity
  8
LOGO
 62
     4
100
AcDbLine
 10
276.1812648571473
 20
104.9853576279357
 30
0.0
 11
267.7911163284847
 21
104.9853576279357
 31
0.0
  0
LINE
  5
11FC
330
1F
100
AcDbEntity
  8
LOGO
 62
     4
100
AcDbLine
 10
267.7911163284847
 20
110.3845757274831
 30
0.0
 11
267.7911163284847
 21
104.9853576279357
 31
0.0
  0
LINE
  5
11FD
330
1F
100
AcDbEntity
  8
LOGO
 62
     4
100
AcDbLine
 10
276.1812648571473
 20
110.3845757274831
 30
0.0
 11
276.1812648571473
 21
104.9853576279357
 31
0.0
  0
TEXT
  5
11FE
330
1F
100
AcDbEntity
  8
LOGO
  6
Continuous
100
AcDbText
 10
269.7273268163185
 20
106.1124365125601
 30
0.0
 40
3.149999999999999
  1
RT
  7
chineset
100
AcDbText
  0
LINE
  5
11FF
330
1F
100
AcDbEntity
  8
LOGO
 62
     4
100
AcDbLine
 10
284.5358256050527
 20
102.2857485781621
 30
0.0
 11
268.3798684129885
 21
102.2857485781621
 31
0.0
  0
TEXT
  5
1200
330
1F
100
AcDbEntity
  8
LOGO
  6
Continuous
100
AcDbText
 10
244.9600684871515
 20
96.61814534981211
 30
117.9519531840448
 40
1.35
  1
Tube I.D.
 41
0.8
  7
chineset
100
AcDbText
  0
TEXT
  5
1201
330
1F
100
AcDbEntity
  8
LOGO
100
AcDbText
 10
245.8481391124345
 20
99.12075440404674
 30
117.9519531840448
 40
2.25
  1
內徑
  7
chineset
100
AcDbText
  0
TEXT
  5
1202
330
1F
100
AcDbEntity
  8
LOGO
  6
Continuous
100
AcDbText
 10
269.5155995203834
 20
96.61814534981211
 30
117.9519531840448
 40
1.35
  1
Auto swicth type
 41
0.8
  7
chineset
100
AcDbText
  0
TEXT
  5
1203
330
1F
100
AcDbEntity
  8
LOGO
100
AcDbText
 10
271.0812671350855
 20
99.12075440404674
 30
117.9519531840448
 40
2.25
  1
感應開關
  7
chineset
100
AcDbText
  0
LINE
  5
1204
330
1F
100
AcDbEntity
  8
LOGO
 62
     4
100
AcDbLine
 10
286.8194765696772
 20
110.3845757274831
 30
0.0
 11
280.2907143766762
 21
110.3845757274831
 31
0.0
  0
LINE
  5
1205
330
1F
100
AcDbEntity
  8
LOGO
 62
     4
100
AcDbLine
 10
286.8194765696772
 20
104.9853576279357
 30
0.0
 11
280.2907143766762
 21
104.9853576279357
 31
0.0
  0
LINE
  5
1206
330
1F
100
AcDbEntity
  8
LOGO
 62
     4
100
AcDbLine
 10
280.2907143766762
 20
110.3845757274831
 30
0.0
 11
280.2907143766762
 21
104.9853576279357
 31
0.0
  0
LINE
  5
1207
330
1F
100
AcDbEntity
  8
LOGO
 62
     4
100
AcDbLine
 10
286.8194765696772
 20
110.3845757274831
 30
0.0
 11
286.8194765696772
 21
104.9853576279357
 31
0.0
  0
TEXT
  5
1208
330
1F
100
AcDbEntity
  8
LOGO
  6
Continuous
100
AcDbText
 10
282.50231549903
 20
106.1124365125601
 30
0.0
 40
3.149999999999999
  1
*
  7
chineset
100
AcDbText
  0
LINE
  5
1209
330
1F
100
AcDbEntity
  8
LOGO
 62
     4
100
AcDbLine
 10
308.4080309783642
 20
102.2857485781621
 30
0.0
 11
308.4080309783642
 21
95.6867042342704
 31
0.0
  0
LINE
  5
120A
330
1F
100
AcDbEntity
  8
LOGO
 62
     4
100
AcDbLine
 10
285.7832712326534
 20
102.2857485781621
 30
0.0
 11
285.7832712326534
 21
95.6867042342704
 31
0.0
  0
LINE
  5
120B
330
1F
100
AcDbEntity
  8
LOGO
 62
     4
100
AcDbLine
 10
308.4080309783642
 20
95.6867042342704
 30
0.0
 11
285.7832712326534
 21
95.6867042342704
 31
0.0
  0
LINE
  5
120C
330
1F
100
AcDbEntity
  8
LOGO
 62
     4
100
AcDbLine
 10
308.4080309783642
 20
102.2857485781621
 30
0.0
 11
285.7832712326534
 21
102.2857485781621
 31
0.0
  0
TEXT
  5
120D
330
1F
100
AcDbEntity
  8
LOGO
  6
Continuous
100
AcDbText
 10
287.9079954426905
 20
96.61814534981211
 30
117.9519531840448
 40
1.35
  1
Number of auto swicth
 41
0.8
  7
chineset
100
AcDbText
  0
TEXT
  5
120E
330
1F
100
AcDbEntity
  8
LOGO
100
AcDbText
 10
289.9538457839191
 20
99.12075440404674
 30
117.9519531840448
 40
2.25
  1
感應開關數量
  7
chineset
100
AcDbText
  0
LINE
  5
120F
330
1F
100
AcDbEntity
  8
LOGO
 62
     4
100
AcDbLine
 10
297.0956511055088
 20
103.6355531030489
 30
0.0
 11
297.0956511055088
 21
102.2857485781621
 31
0.0
  0
TEXT
  5
1210
330
1F
100
AcDbEntity
  8
LOGO
100
AcDbText
 10
205.9392544808372
 20
95.1443756683698
 30
0.0
 40
1.8
  1
10710302
 41
0.7
  7
chineset
 72
     1
 11
210.3192544808373
 21
95.1443756683698
 31
0.0
100
AcDbText
  0
LINE
  5
1211
330
1F
100
AcDbEntity
  8
LOGO
 62
     4
100
AcDbLine
 10
215.9053724487225
 20
97.78640016187267
 30
0.0
 11
215.9053724487233
 21
94.18692142884077
 31
0.0
  0
LINE
  5
1212
330
1F
100
AcDbEntity
  8
LOGO
 62
     4
100
AcDbLine
 10
215.9053724487225
 20
97.78640016187267
 30
0.0
 11
205.1053724487234
 21
97.78640016187267
 31
0.0
  0
CIRCLE
  5
1213
330
1F
100
AcDbEntity
  8
LOGO
  6
Continuous
100
AcDbCircle
 10
196.4395525502298
 20
106.7889466501267
 30
0.0
 40
1.044971037288568
  0
CIRCLE
  5
1214
330
1F
100
AcDbEntity
  8
LOGO
  6
Continuous
100
AcDbCircle
 10
196.4395525502298
 20
106.7889466501267
 30
0.0
 40
0.6122605217990375
  0
LINE
  5
1215
330
1F
100
AcDbEntity
  8
LOGO
100
AcDbLine
 10
203.0062718018627
 20
105.7439756128379
 30
0.0
 11
203.0062718018627
 21
107.8339176874155
 31
0.0
  0
LINE
  5
1216
330
1F
100
AcDbEntity
  8
LOGO
100
AcDbLine
 10
199.7303475841628
 20
106.1766861283278
 30
0.0
 11
199.7303475841628
 21
107.4012071719258
 31
0.0
  0
LINE
  5
1217
330
1F
100
AcDbEntity
  8
LOGO
  6
Continuous
100
AcDbLine
 10
199.7303475841628
 20
107.4012071719258
 30
0.0
 11
203.0062718018627
 21
107.8339176874155
 31
0.0
  0
LINE
  5
1218
330
1F
100
AcDbEntity
  8
LOGO
  6
Continuous
100
AcDbLine
 10
199.7303475841628
 20
106.1766861283278
 30
0.0
 11
203.0062718018627
 21
105.7439756128379
 31
0.0
  0
LINE
  5
1219
330
1F
100
AcDbEntity
  8
LOGO
  6
AM_ISO08W050x2
 48
0.3
100
AcDbLine
 10
194.9990443281184
 20
106.7889466501267
 30
0.0
 11
197.8800607723412
 21
106.7889466501267
 31
0.0
1001
GENIUS_GENOREF_13
1005
1222
  0
LINE
  5
121A
330
1F
100
AcDbEntity
  8
LOGO
  6
AM_ISO08W050x2
 48
0.3
100
AcDbLine
 10
196.4395525502298
 20
105.3484384280153
 30
0.0
 11
196.4395525502298
 21
108.2294548722381
 31
0.0
1001
GENIUS_GENOREF_13
1005
1221
  0
LINE
  5
121B
330
1F
100
AcDbEntity
  8
LOGO
  6
CENTER
 48
0.5
100
AcDbLine
 10
199.4683647006345
 20
106.7889466501267
 30
0.0
 11
203.3361467658716
 21
106.7889466501267
 31
0.0
1001
GENIUS_GENOREF_13
1005
1220
  0
LINE
  5
121C
330
1F
100
AcDbEntity
  8
LOGO
  6
Continuous
100
AcDbLine
 10
277.1624980469993
 20
107.6658417939227
 30
0.0
 11
279.5465957510453
 21
107.6658417939227
 31
0.0
  0
LINE
  5
121D
330
1F
100
AcDbEntity
  8
LOGO
 62
     4
100
AcDbLine
 10
297.0956511055088
 20
103.6355531030489
 30
0.0
 11
283.5550954731767
 21
103.6355531030489
 31
0.0
  0
LINE
  5
121E
330
1F
100
AcDbEntity
  8
LOGO
 62
     4
100
AcDbLine
 10
271.986190592816
 20
104.9853576279357
 30
0.0
 11
271.986190592816
 21
102.2857485781621
 31
0.0
  0
LINE
  5
121F
330
1F
100
AcDbEntity
  8
LOGO
 62
     4
100
AcDbLine
 10
283.5550954731767
 20
104.9853576279357
 30
0.0
 11
283.5550954731767
 21
103.6355531030489
 31
0.0
  0
POINT
  5
1220
330
1F
100
AcDbEntity
  8
0
 60
     1
100
AcDbPoint
 10
-1583.150379115036
 20
-766.7068263546341
 30
0.0
1001
GENIUS_GENOBJ-N-CRS_13
1002
{
1000
OWNER
1000
GEN
1002
}
1001
GENIUS_GENOLIS_13
1002
{
1000
ENT
1005
0
1005
0
1005
0
1005
121B
1002
}
1001
GENIUS_GENOENT_13
1002
{
1000
MYREF
1005
1220
1002
}
1002
{
1000
GRP
1005
0
1002
}
1001
GENIUS_GENODEF_13
1002
{
1000
HIER
1070
    10
1002
}
1002
{
1000
MANEDIT
1070
     1
1002
}
1002
{
1000
NOSEL
1070
     0
1002
}
1002
{
1000
BEHIND
1070
     0
1002
}
1002
{
1000
OTHER
1070
     0
1002
}
1002
{
1000
REACTOR
1002
}
  0
POINT
  5
1221
330
1F
100
AcDbEntity
  8
0
 60
     1
100
AcDbPoint
 10
-1594.474964337891
 20
-757.8312398759979
 30
0.0
1001
GENIUS_GENOBJ-N-CRS_13
1002
{
1000
OWNER
1000
GEN
1002
}
1001
GENIUS_GENOLIS_13
1002
{
1000
ENT
1005
0
1005
0
1005
0
1005
121A
1002
}
1001
GENIUS_GENOENT_13
1002
{
1000
MYREF
1005
1221
1002
}
1002
{
1000
GRP
1005
0
1002
}
1001
GENIUS_GENODEF_13
1002
{
1000
HIER
1070
    10
1002
}
1002
{
1000
MANEDIT
1070
     1
1002
}
1002
{
1000
NOSEL
1070
     0
1002
}
1002
{
1000
BEHIND
1070
     0
1002
}
1002
{
1000
OTHER
1070
     0
1002
}
1002
{
1000
REACTOR
1002
}
  0
POINT
  5
1222
330
1F
100
AcDbEntity
  8
0
 60
     1
100
AcDbPoint
 10
-1588.116290640054
 20
-766.7068263546341
 30
0.0
1001
GENIUS_GENOBJ-N-CRS_13
1002
{
1000
OWNER
1000
GEN
1002
}
1001
GENIUS_GENOLIS_13
1002
{
1000
ENT
1005
0
1005
0
1005
0
1005
1219
1002
}
1001
GENIUS_GENOENT_13
1002
{
1000
MYREF
1005
1222
1002
}
1002
{
1000
GRP
1005
0
1002
}
1001
GENIUS_GENODEF_13
1002
{
1000
HIER
1070
    10
1002
}
1002
{
1000
MANEDIT
1070
     1
1002
}
1002
{
1000
NOSEL
1070
     0
1002
}
1002
{
1000
BEHIND
1070
     0
1002
}
1002
{
1000
OTHER
1070
     0
1002
}
1002
{
1000
REACTOR
1002
}
  0
LINE
  5
1223
330
1F
100
AcDbEntity
  8
LOGO
 62
     4
100
AcDbLine
 10
266.9341881262571
 20
102.2857485781621
 30
0.0
 11
266.9341881262571
 21
95.6867042342704
 31
0.0
  0
LINE
  5
1224
330
1F
100
AcDbEntity
  8
LOGO
 62
     4
100
AcDbLine
 10
254.9359256828181
 20
102.2857485781621
 30
0.0
 11
254.9359256828181
 21
95.6867042342704
 31
0.0
  0
LINE
  5
1225
330
1F
100
AcDbEntity
  8
LOGO
 62
     4
100
AcDbLine
 10
266.9341881262571
 20
95.6867042342704
 30
0.0
 11
254.9359256828181
 21
95.6867042342704
 31
0.0
  0
LINE
  5
1226
330
1F
100
AcDbEntity
  8
LOGO
 62
     4
100
AcDbLine
 10
263.7569334379624
 20
110.3845757274831
 30
0.0
 11
255.1955907946295
 21
110.3845757274831
 31
0.0
  0
LINE
  5
1227
330
1F
100
AcDbEntity
  8
LOGO
 62
     4
100
AcDbLine
 10
263.7569334379624
 20
104.9853576279357
 30
0.0
 11
255.1955907946295
 21
104.9853576279357
 31
0.0
  0
LINE
  5
1228
330
1F
100
AcDbEntity
  8
LOGO
 62
     4
100
AcDbLine
 10
255.1955907946295
 20
110.3845757274831
 30
0.0
 11
255.1955907946295
 21
104.9853576279357
 31
0.0
  0
LINE
  5
1229
330
1F
100
AcDbEntity
  8
LOGO
 62
     4
100
AcDbLine
 10
263.7569334379624
 20
110.3845757274831
 30
0.0
 11
263.7569334379624
 21
104.9853576279357
 31
0.0
  0
LINE
  5
122A
330
1F
100
AcDbEntity
  8
LOGO
 62
     4
100
AcDbLine
 10
259.476262116296
 20
104.9853576279357
 30
0.0
 11
259.476262116296
 21
102.2857485781621
 31
0.0
  0
TEXT
  5
122B
330
1F
100
AcDbEntity
  8
LOGO
  6
Continuous
100
AcDbText
 10
255.9142122861797
 20
106.1124365125601
 30
0.0
 40
3.149999999999999
  1
(M)
  7
chineset
100
AcDbText
  0
LINE
  5
122C
330
1F
100
AcDbEntity
  8
LOGO
 62
     4
100
AcDbLine
 10
266.9341881262571
 20
102.2857485781621
 30
0.0
 11
254.9359256828181
 21
102.2857485781621
 31
0.0
  0
TEXT
  5
122D
330
1F
100
AcDbEntity
  8
LOGO
  6
Continuous
100
AcDbText
 10
257.4490712826911
 20
96.61814534981211
 30
117.9519531840448
 40
1.35
  1
Magnet
 41
0.8
  7
chineset
100
AcDbText
  0
TEXT
  5
122E
330
1F
100
AcDbEntity
  8
LOGO
100
AcDbText
 10
258.3371419079741
 20
99.12075440404674
 30
117.9519531840448
 40
2.25
  1
附磁石
  7
chineset
100
AcDbText
  0
LINE
  5
1255
330
1F
100
AcDbEntity
  8
AM_7
  6
AM_ISO08W050x2
100
AcDbLine
 10
207.5670895902913
 20
173.2156692747438
 30
0.0
 11
209.7457517862802
 21
173.2156692747438
 31
0.0
1001
GENIUS_GENOREF_13
1005
1259
  0
LINE
  5
1256
330
1F
100
AcDbEntity
  8
AM_7
  6
AM_ISO08W050x2
100
AcDbLine
 10
207.5670895902913
 20
173.2156692747438
 30
0.0
 11
207.5670895902913
 21
175.3943314707327
 31
0.0
1001
GENIUS_GENOREF_13
1005
1259
  0
LINE
  5
1257
330
1F
100
AcDbEntity
  8
AM_7
  6
AM_ISO08W050x2
100
AcDbLine
 10
207.5670895902913
 20
173.2156692747438
 30
0.0
 11
205.3884273943023
 21
173.2156692747438
 31
0.0
1001
GENIUS_GENOREF_13
1005
1259
  0
LINE
  5
1258
330
1F
100
AcDbEntity
  8
AM_7
  6
AM_ISO08W050x2
100
AcDbLine
 10
207.5670895902913
 20
173.2156692747438
 30
0.0
 11
207.5670895902913
 21
171.0370070787548
 31
0.0
1001
GENIUS_GENOREF_13
1005
1259
  0
POINT
  5
1259
330
1F
100
AcDbEntity
  8
0
 60
     1
100
AcDbPoint
 10
0.0
 20
0.0
 30
0.0
1001
GENIUS_GENOENT_13
1002
{
1000
MYREF
1005
1259
1002
}
1002
{
1000
GRP
1005
0
1002
}
1001
GENIUS_GENOBJ-N-CRS_13
1002
{
1000
OWNER
1000
GEN
1002
}
1001
GENIUS_GENODEF_13
1002
{
1000
HIER
1070
    10
1002
}
1002
{
1000
MANEDIT
1070
     0
1002
}
1002
{
1000
NOSEL
1070
     0
1002
}
1002
{
1000
BEHIND
1070
     0
1002
}
1002
{
1000
OTHER
1070
     0
1002
}
1002
{
1000
REACTOR
1002
}
1001
GENIUS_GENOLIS_13
1002
{
1000
ENT
1005
1258
1005
1257
1005
1256
1005
1255
1002
}
  0
LINE
  5
125D
330
1F
100
AcDbEntity
  8
AM_7
100
AcDbLine
 10
247.0188989033367
 20
231.77839584215
 30
0.0
 11
237.2870960011943
 21
231.77839584215
 31
0.0
  0
CIRCLE
  5
12F9
330
1F
100
AcDbEntity
  8
AM_0
100
AcDbCircle
 10
219.5040457489112
 20
162.069430536739
 30
0.0
 40
2.066987298107819
  0
ARC
  5
12FA
330
1F
100
AcDbEntity
  8
AM_4
100
AcDbCircle
 10
219.5040457489112
 20
162.069430536739
 30
0.0
 40
2.5
100
AcDbArc
 50
259.9999999999998
 51
169.9999999999997
  0
CIRCLE
  5
12FB
330
1F
100
AcDbEntity
  8
AM_0
100
AcDbCircle
 10
212.5670895902913
 20
231.77839584215
 30
0.0
 40
2.066987298107819
  0
ARC
  5
12FC
330
1F
100
AcDbEntity
  8
AM_4
100
AcDbCircle
 10
212.5670895902913
 20
231.77839584215
 30
0.0
 40
2.5
100
AcDbArc
 50
259.9999999999998
 51
169.9999999999997
  0
CIRCLE
  5
12FF
330
1F
100
AcDbEntity
  8
AM_0
100
AcDbCircle
 10
242.5670895902913
 20
231.77839584215
 30
0.0
 40
2.066987298107819
  0
ARC
  5
1300
330
1F
100
AcDbEntity
  8
AM_4
100
AcDbCircle
 10
242.5670895902913
 20
231.77839584215
 30
0.0
 40
2.5
100
AcDbArc
 50
259.9999999999998
 51
169.9999999999997
  0
CIRCLE
  5
1301
330
1F
100
AcDbEntity
  8
AM_0
100
AcDbCircle
 10
212.5670895902913
 20
170.2156692747438
 30
0.0
 40
2.066987298107819
  0
ARC
  5
1302
330
1F
100
AcDbEntity
  8
AM_4
100
AcDbCircle
 10
212.5670895902913
 20
170.2156692747438
 30
0.0
 40
2.5
100
AcDbArc
 50
259.9999999999998
 51
169.9999999999997
  0
CIRCLE
  5
1303
330
1F
100
AcDbEntity
  8
AM_0
100
AcDbCircle
 10
242.5670895902913
 20
170.2156692747438
 30
0.0
 40
2.066987298107819
  0
ARC
  5
1304
330
1F
100
AcDbEntity
  8
AM_4
100
AcDbCircle
 10
242.5670895902913
 20
170.2156692747438
 30
0.0
 40
2.5
100
AcDbArc
 50
259.9999999999998
 51
169.9999999999997
  0
CIRCLE
  5
1306
330
1F
100
AcDbEntity
  8
AM_0
100
AcDbCircle
 10
322.5214039239059
 20
175.7156692747438
 30
0.0
 40
2.066987298107819
  0
ARC
  5
1307
330
1F
100
AcDbEntity
  8
AM_4
100
AcDbCircle
 10
322.5214039239059
 20
175.7156692747438
 30
0.0
 40
2.5
100
AcDbArc
 50
259.9999999999998
 51
169.9999999999997
  0
CIRCLE
  5
1308
330
1F
100
AcDbEntity
  8
AM_0
100
AcDbCircle
 10
332.5214039239059
 20
173.2156692747438
 30
0.0
 40
2.066987298107819
  0
ARC
  5
1309
330
1F
100
AcDbEntity
  8
AM_4
100
AcDbCircle
 10
332.5214039239059
 20
173.2156692747438
 30
0.0
 40
2.5
100
AcDbArc
 50
259.9999999999998
 51
169.9999999999997
  0
ARC
  5
1347
330
1F
100
AcDbEntity
  8
AM_4
100
AcDbCircle
 10
343.0214039239059
 20
147.2156692747438
 30
0.0
 40
2.0
100
AcDbArc
 50
260.0
 51
170.0
  0
CIRCLE
  5
1348
330
1F
100
AcDbEntity
  8
AM_0
100
AcDbCircle
 10
343.0214039239059
 20
147.2156692747438
 30
0.0
 40
1.621113885844339
  0
ARC
  5
1349
330
1F
100
AcDbEntity
  8
AM_4
100
AcDbCircle
 10
329.021403923906
 20
147.2156692747438
 30
0.0
 40
2.0
100
AcDbArc
 50
260.0
 51
170.0
  0
CIRCLE
  5
134A
330
1F
100
AcDbEntity
  8
AM_0
100
AcDbCircle
 10
329.021403923906
 20
147.2156692747438
 30
0.0
 40
1.621113885844339
  0
ENDSEC
  0
SECTION
  2
OBJECTS
  0
DICTIONARY
  5
C
330
0
100
AcDbDictionary
281
     1
  3
ACAD_COLOR
350
BE
  3
ACAD_GROUP
350
D
  3
ACAD_LAYOUT
350
1A
  3
ACAD_MATERIAL
350
BD
  3
ACAD_MLINESTYLE
350
17
  3
ACAD_PLOTSETTINGS
350
19
  3
ACAD_PLOTSTYLENAME
350
E
  3
ACAD_TABLESTYLE
350
11A
  3
ACDBHEADERROUNDTRIPXREC
350
13B6
  3
AcDbVariableDictionary
350
94
  3
AcmDictionary
350
5B
  3
AMG
350
41
  3
AMGSNAPSETTINGS
350
1B8
  3
DWGPROPS
350
13B5
  0
DICTIONARY
  5
3F9
330
2
100
AcDbDictionary
280
     1
281
     1
  3
ACAD_LAYERFILTERS
360
5B7
  3
ACAD_LAYERSTATES
360
1101
  3
ACLYDICTIONARY
360
5B6
  0
DICTIONARY
  5
8F
330
1F
100
AcDbDictionary
280
     1
281
     1
  3
ACAD_SORTENTS
360
1341
  0
DICTIONARY
  5
BE
102
{ACAD_REACTORS
330
C
102
}
330
C
100
AcDbDictionary
281
     1
  0
DICTIONARY
  5
D
102
{ACAD_REACTORS
330
C
102
}
330
C
100
AcDbDictionary
281
     1
  0
DICTIONARY
  5
1A
102
{ACAD_REACTORS
330
C
102
}
330
C
100
AcDbDictionary
281
     1
  3
Model
350
22
  3
配置1
350
1E
  3
配置2
350
26
  0
DICTIONARY
  5
BD
102
{ACAD_REACTORS
330
C
102
}
330
C
100
AcDbDictionary
281
     1
  0
DICTIONARY
  5
17
102
{ACAD_REACTORS
330
C
102
}
330
C
100
AcDbDictionary
281
     1
  3
Standard
350
18
  0
DICTIONARY
  5
19
102
{ACAD_REACTORS
330
C
102
}
330
C
100
AcDbDictionary
281
     1
  0
ACDBDICTIONARYWDFLT
  5
E
102
{ACAD_REACTORS
330
C
102
}
330
C
100
AcDbDictionary
281
     1
  3
Normal
350
F
100
AcDbDictionaryWithDefault
340
F
  0
DICTIONARY
  5
11A
102
{ACAD_REACTORS
330
C
102
}
330
C
100
AcDbDictionary
281
     1
  3
Standard
350
11B
  0
DICTIONARY
  5
13B6
102
{ACAD_REACTORS
330
C
102
}
330
C
100
AcDbDictionary
281
     1
  0
DICTIONARY
  5
94
102
{ACAD_REACTORS
330
C
102
}
330
C
100
AcDbDictionary
281
     1
  3
CTABLESTYLE
350
138
  3
DIMASSOC
350
96
  3
INDEXCTL
350
95
  3
PROJECTNAME
350
13B3
  0
DICTIONARY
  5
5B
102
{ACAD_REACTORS
330
C
102
}
330
C
100
AcDbDictionary
281
     1
  3
AcmBOM
350
1B5
  3
AcmStdDictionary
350
61
  3
AMDTSECTSYM_ARROWCOLOR
350
123
  0
DICTIONARY
  5
41
102
{ACAD_REACTORS
330
C
102
}
330
C
100
AcDbDictionary
281
     1
  0
DICTIONARY
  5
1B8
102
{ACAD_REACTORS
330
C
102
}
330
C
100
AcDbDictionary
281
     1
  0
XRECORD
  5
13B5
102
{ACAD_REACTORS
330
C
102
}
330
C
100
AcDbXrecord
280
     1
  1
DWGPROPS COOKIE
  2

  3

  4

  6

  7

  8

  9

300
AmdtFileType=84
301
=
302
=
303
=
304
=
305
=
306
=
307
=
308
=
309
=
 40
0.2108582870370371
 41
2454404.499322188
 42
2454407.7056986
  1

 90
        1
  0
DICTIONARY
  5
5B7
102
{ACAD_REACTORS
330
3F9
102
}
330
3F9
100
AcDbDictionary
281
     1
  0
DICTIONARY
  5
1101
102
{ACAD_REACTORS
330
3F9
102
}
330
3F9
100
AcDbDictionary
281
     1
  0
DICTIONARY
  5
5B6
102
{ACAD_REACTORS
330
3F9
102
}
330
3F9
100
AcDbDictionary
281
     1
1001
ACAD
1000
<All
  0
SORTENTSTABLE
  5
1341
102
{ACAD_REACTORS
330
8F
102
}
330
8F
100
AcDbSortentsTable
330
1F
331
1302
  5
1302
331
C8F
  5
C8F
331
C58
  5
C58
331
1228
  5
1228
331
C60
  5
C60
331
C97
  5
C97
331
11E9
  5
11E9
331
11F1
  5
11F1
331
C68
  5
C68
331
C9F
  5
C9F
331
11BA
  5
11BA
331
CA7
  5
CA7
331
11F9
  5
11F9
331
1258
  5
1258
331
1201
  5
1201
331
12FB
  5
12FB
331
C78
  5
C78
331
1209
  5
1209
331
C80
  5
C80
331
C41
  5
C41
331
11D2
  5
11D2
331
1211
  5
1211
331
C49
  5
C49
331
119B
  5
119B
331
11DA
  5
11DA
331
1219
  5
1219
331
11E2
  5
11E2
331
11A3
  5
11A3
331
11AB
  5
11AB
331
1303
  5
1303
331
C51
  5
C51
331
C88
  5
C88
331
C90
  5
C90
331
C59
  5
C59
331
C98
  5
C98
331
11EA
  5
11EA
331
1229
  5
1229
331
11F2
  5
11F2
331
CA0
  5
CA0
331
C69
  5
C69
331
11BB
  5
11BB
331
11FA
  5
11FA
331
1202
  5
1202
331
12FC
  5
12FC
331
C71
  5
C71
331
CA8
  5
CA8
331
C79
  5
C79
331
CB0
  5
CB0
331
120A
  5
120A
331
11D3
  5
11D3
331
CB8
  5
CB8
331
C42
  5
C42
331
C81
  5
C81
331
11DB
  5
11DB
331
119C
  5
119C
331
1212
  5
1212
331
C4A
  5
C4A
331
121A
  5
121A
331
11A4
  5
11A4
331
11E3
  5
11E3
331
11AC
  5
11AC
331
1304
  5
1304
331
C89
  5
C89
331
C52
  5
C52
331
C91
  5
C91
331
C5A
  5
C5A
331
122A
  5
122A
331
11EB
  5
11EB
331
11B4
  5
11B4
331
C99
  5
C99
331
11F3
  5
11F3
331
11BC
  5
11BC
331
CA1
  5
CA1
331
C6A
  5
C6A
331
11FB
  5
11FB
331
11C4
  5
11C4
331
1203
  5
1203
331
11CC
  5
11CC
331
CA9
  5
CA9
331
C72
  5
C72
331
C7A
  5
C7A
331
120B
  5
120B
331
1195
  5
1195
331
11D4
  5
11D4
331
C82
  5
C82
331
C43
  5
C43
331
CB9
  5
CB9
331
1213
  5
1213
331
119D
  5
119D
331
11DC
  5
11DC
331
121B
  5
121B
331
11E4
  5
11E4
331
11A5
  5
11A5
331
1223
  5
1223
331
C53
  5
C53
331
C8A
  5
C8A
331
C92
  5
C92
331
C5B
  5
C5B
331
11EC
  5
11EC
331
11B5
  5
11B5
331
122B
  5
122B
331
C9A
  5
C9A
331
C63
  5
C63
331
11F4
  5
11F4
331
11BD
  5
11BD
331
CA2
  5
CA2
331
C6B
  5
C6B
331
11FC
  5
11FC
331
1204
  5
1204
331
11CD
  5
11CD
331
CAA
  5
CAA
331
CB2
  5
CB2
331
C7B
  5
C7B
331
120C
  5
120C
331
11D5
  5
11D5
331
1196
  5
1196
331
C44
  5
C44
331
1214
  5
1214
331
119E
  5
119E
331
11DD
  5
11DD
331
121C
  5
121C
331
11A6
  5
11A6
331
11E5
  5
11E5
331
1224
  5
1224
331
1306
  5
1306
331
C8B
  5
C8B
331
C54
  5
C54
331
C93
  5
C93
331
C5C
  5
C5C
331
122C
  5
122C
331
11ED
  5
11ED
331
C64
  5
C64
331
C9B
  5
C9B
331
11F5
  5
11F5
331
11BE
  5
11BE
331
CA3
  5
CA3
331
11FD
  5
11FD
331
1205
  5
1205
331
11CE
  5
11CE
331
12FF
  5
12FF
331
CAB
  5
CAB
331
CB3
  5
CB3
331
C7C
  5
C7C
331
120D
  5
120D
331
1197
  5
1197
331
11D6
  5
11D6
331
C45
  5
C45
331
1215
  5
1215
331
119F
  5
119F
331
11DE
  5
11DE
331
C4D
  5
C4D
331
121D
  5
121D
331
11E6
  5
11E6
331
11A7
  5
11A7
331
1225
  5
1225
331
1307
  5
1307
331
C55
  5
C55
331
C8C
  5
C8C
331
C94
  5
C94
331
C5D
  5
C5D
331
122D
  5
122D
331
11EE
  5
11EE
331
C65
  5
C65
331
11F6
  5
11F6
331
11BF
  5
11BF
331
CA4
  5
CA4
331
1255
  5
1255
331
11FE
  5
11FE
331
1206
  5
1206
331
125D
  5
125D
331
C75
  5
C75
331
CAC
  5
CAC
331
CB4
  5
CB4
331
C7D
  5
C7D
331
120E
  5
120E
331
11D7
  5
11D7
331
1198
  5
1198
331
C46
  5
C46
331
C85
  5
C85
331
1216
  5
1216
331
11A0
  5
11A0
331
11DF
  5
11DF
331
C4E
  5
C4E
331
121E
  5
121E
331
11A8
  5
11A8
331
11E7
  5
11E7
331
1226
  5
1226
331
1300
  5
1300
331
1308
  5
1308
331
C8D
  5
C8D
331
C56
  5
C56
331
11B0
  5
11B0
331
C95
  5
C95
331
122E
  5
122E
331
11EF
  5
11EF
331
C66
  5
C66
331
11F7
  5
11F7
331
11C0
  5
11C0
331
CA5
  5
CA5
331
C6E
  5
C6E
331
1256
  5
1256
331
11C8
  5
11C8
331
11FF
  5
11FF
331
1207
  5
1207
331
12F9
  5
12F9
331
CAD
  5
CAD
331
C76
  5
C76
331
C7E
  5
C7E
331
C3F
  5
C3F
331
120F
  5
120F
331
1199
  5
1199
331
11D8
  5
11D8
331
C47
  5
C47
331
1217
  5
1217
331
11E0
  5
11E0
331
11A1
  5
11A1
331
121F
  5
121F
331
11A9
  5
11A9
331
1227
  5
1227
331
1301
  5
1301
331
1309
  5
1309
331
C57
  5
C57
331
C8E
  5
C8E
331
11E8
  5
11E8
331
C96
  5
C96
331
11B9
  5
11B9
331
11F0
  5
11F0
331
C9E
  5
C9E
331
C67
  5
C67
331
11F8
  5
11F8
331
C6F
  5
C6F
331
CA6
  5
CA6
331
1257
  5
1257
331
1200
  5
1200
331
12FA
  5
12FA
331
C77
  5
C77
331
CAE
  5
CAE
331
CB6
  5
CB6
331
C40
  5
C40
331
C7F
  5
C7F
331
1208
  5
1208
331
11D9
  5
11D9
331
C48
  5
C48
331
119A
  5
119A
331
1210
  5
1210
331
1218
  5
1218
331
11A2
  5
11A2
331
11E1
  5
11E1
331
11AA
  5
11AA
  0
LAYOUT
  5
22
102
{ACAD_XDICTIONARY
360
13B9
102
}
102
{ACAD_REACTORS
330
1A
102
}
330
1A
100
AcDbPlotSettings
  1

  2
\\RD\EPSON Stylus C63 Series單色
  4
A4
  6

 40
3.757083177566528
 41
3.757076978683471
 42
3.757080078125
 43
3.757080078125
 44
209.9733276367187
 45
296.9683227539062
 46
0.0
 47
0.0
 48
0.0
 49
0.0
140
0.0
141
0.0
142
1.0
143
0.3405120737814363
 70
 11952
 72
     1
 73
     0
 74
     0
  7
彩色出圖.ctb
 75
     0
147
2.936753428137963
148
-2047.07469463503
149
-1261.649717473083
100
AcDbLayout
  1
Model
 70
     1
 71
     0
 10
0.0
 20
0.0
 11
12.0
 21
9.0
 12
0.0
 22
0.0
 32
0.0
 14
0.0
 24
0.0
 34
0.0
 15
0.0
 25
0.0
 35
0.0
146
0.0
 13
0.0
 23
0.0
 33
0.0
 16
1.0
 26
0.0
 36
0.0
 17
0.0
 27
1.0
 37
0.0
 76
     0
330
1F
1001
ACAD_PSEXT
1000
\\RD\EPSON Stylus C63 Series單色
1000
EPSON Stylus C63 Series
1000
\\RD
1000

1070
     0
  0
LAYOUT
  5
1E
102
{ACAD_XDICTIONARY
360
13B7
102
}
102
{ACAD_REACTORS
330
1A
102
}
330
1A
100
AcDbPlotSettings
  1

  2

  4

  6

 40
0.0
 41
0.0
 42
0.0
 43
0.0
 44
0.0
 45
0.0
 46
0.0
 47
0.0
 48
0.0
 49
0.0
140
0.0
141
0.0
142
1.0
143
1.0
 70
   688
 72
     0
 73
     0
 74
     5
  7
彩色出圖.ctb
 75
    16
147
1.0
148
0.0
149
0.0
100
AcDbLayout
  1
配置1
 70
     1
 71
     1
 10
0.0
 20
0.0
 11
420.0
 21
297.0
 12
0.0
 22
0.0
 32
0.0
 14
1.000000000000000E+20
 24
1.000000000000000E+20
 34
1.000000000000000E+20
 15
-1.000000000000000E+20
 25
-1.000000000000000E+20
 35
-1.000000000000000E+20
146
0.0
 13
0.0
 23
0.0
 33
0.0
 16
1.0
 26
0.0
 36
0.0
 17
0.0
 27
1.0
 37
0.0
 76
     0
330
1B
  0
LAYOUT
  5
26
102
{ACAD_XDICTIONARY
360
13BB
102
}
102
{ACAD_REACTORS
330
1A
102
}
330
1A
100
AcDbPlotSettings
  1

  2

  4

  6

 40
0.0
 41
0.0
 42
0.0
 43
0.0
 44
0.0
 45
0.0
 46
0.0
 47
0.0
 48
0.0
 49
0.0
140
0.0
141
0.0
142
1.0
143
1.0
 70
   688
 72
     0
 73
     0
 74
     5
  7
彩色出圖.ctb
 75
    16
147
1.0
148
0.0
149
0.0
100
AcDbLayout
  1
配置2
 70
     1
 71
     2
 10
0.0
 20
0.0
 11
12.0
 21
9.0
 12
0.0
 22
0.0
 32
0.0
 14
0.0
 24
0.0
 34
0.0
 15
0.0
 25
0.0
 35
0.0
146
0.0
 13
0.0
 23
0.0
 33
0.0
 16
1.0
 26
0.0
 36
0.0
 17
0.0
 27
1.0
 37
0.0
 76
     0
330
23
  0
MLINESTYLE
  5
18
102
{ACAD_REACTORS
330
17
102
}
330
17
100
AcDbMlineStyle
  2
STANDARD
 70
     0
  3

 62
   256
 51
90.0
 52
90.0
 71
     2
 49
0.5
 62
   256
  6
BYLAYER
 49
-0.5
 62
   256
  6
BYLAYER
  0
ACDBPLACEHOLDER
  5
F
102
{ACAD_REACTORS
330
E
102
}
330
E
  0
TABLESTYLE
  5
11B
102
{ACAD_REACTORS
330
11A
102
}
330
11A
100
AcDbTableStyle
  3
Standard
 70
     0
 71
     0
 40
1.5
 41
1.5
280
     0
281
     0
  7
STANDARD
140
4.5
170
     2
 62
     0
 63
     7
283
     0
274
    -2
284
     1
 64
     0
275
    -2
285
     1
 65
     0
276
    -2
286
     1
 66
     0
277
    -2
287
     1
 67
     0
278
    -2
288
     1
 68
     0
279
    -2
289
     1
 69
     0
  7
STANDARD
140
6.0
170
     5
 62
     0
 63
     7
283
     0
274
    -2
284
     1
 64
     0
275
    -2
285
     1
 65
     0
276
    -2
286
     1
 66
     0
277
    -2
287
     1
 67
     0
278
    -2
288
     1
 68
     0
279
    -2
289
     1
 69
     0
  7
STANDARD
140
4.5
170
     5
 62
     0
 63
     7
283
     0
274
    -2
284
     1
 64
     0
275
    -2
285
     1
 65
     0
276
    -2
286
     1
 66
     0
277
    -2
287
     1
 67
     0
278
    -2
288
     1
 68
     0
279
    -2
289
     1
 69
     0
  0
DICTIONARYVAR
  5
138
102
{ACAD_REACTORS
330
94
102
}
330
94
100
DictionaryVariables
280
     0
  1
STANDARD
  0
DICTIONARYVAR
  5
96
102
{ACAD_REACTORS
330
94
102
}
330
94
100
DictionaryVariables
280
     0
  1
2
  0
DICTIONARYVAR
  5
95
102
{ACAD_REACTORS
330
94
102
}
330
94
100
DictionaryVariables
280
     0
  1
0
  0
DICTIONARYVAR
  5
13B3
102
{ACAD_REACTORS
330
94
102
}
330
94
100
DictionaryVariables
280
     0
  1

  0
DICTIONARY
  5
1B5
102
{ACAD_REACTORS
330
5B
102
}
330
5B
100
AcDbDictionary
281
     1
  0
DICTIONARY
  5
61
102
{ACAD_REACTORS
330
5B
102
}
330
5B
100
AcDbDictionary
281
     1
  0
XRECORD
  5
123
102
{ACAD_REACTORS
330
5B
102
}
330
5B
100
AcDbXrecord
280
     1
 90
-1023410169
  0
DICTIONARY
  5
13B9
330
22
100
AcDbDictionary
280
     1
281
     1
  3
ACAD_XREC_ROUNDTRIP
360
13BA
  0
DICTIONARY
  5
13B7
330
1E
100
AcDbDictionary
280
     1
281
     1
  3
ACAD_XREC_ROUNDTRIP
360
13B8
  0
DICTIONARY
  5
13BB
330
26
100
AcDbDictionary
280
     1
281
     1
  3
ACAD_XREC_ROUNDTRIP
360
13BC
  0
XRECORD
  5
13BA
102
{ACAD_REACTORS
330
13B9
102
}
330
13B9
100
AcDbXrecord
280
     1
102
SHADEPLOT
 70
     0
102
SHADEPLOTRESLEVEL
 70
     2
102
SHADEPLOTCUSTOMDPI
 70
   300
  0
XRECORD
  5
13B8
102
{ACAD_REACTORS
330
13B7
102
}
330
13B7
100
AcDbXrecord
280
     1
102
SHADEPLOT
 70
     0
102
SHADEPLOTRESLEVEL
 70
     2
102
SHADEPLOTCUSTOMDPI
 70
   300
  0
XRECORD
  5
13BC
102
{ACAD_REACTORS
330
13BB
102
}
330
13BB
100
AcDbXrecord
280
     1
102
SHADEPLOT
 70
     0
102
SHADEPLOTRESLEVEL
 70
     2
102
SHADEPLOTCUSTOMDPI
 70
   300
  0
ENDSEC
  0
EOF
