  0
SECTION
  2
HEADER
  9
$ACADVER
  1
AC1015
  9
$ACADMAINTVER
 70
    20
  9
$DWGCODEPAGE
  3
ANSI_950
  9
$INSBASE
 10
0.0
 20
0.0
 30
0.0
  9
$EXTMIN
 10
130.9208365214511
 20
80.79400713321991
 30
-0.0057582631507103
  9
$EXTMAX
 10
427.9546650263378
 20
296.8277899979472
 30
141.5423444965179
  9
$LIMMIN
 10
0.0
 20
0.0
  9
$LIMMAX
 10
420.0
 20
297.0
  9
$ORTHOMODE
 70
     1
  9
$REGENMODE
 70
     1
  9
$FILLMODE
 70
     1
  9
$QTEXTMODE
 70
     0
  9
$MIRRTEXT
 70
     1
  9
$LTSCALE
 40
1.0
  9
$ATTMODE
 70
     1
  9
$TEXTSIZE
 40
3.0
  9
$TRACEWID
 40
1.0
  9
$TEXTSTYLE
  7
STANDARD
  9
$CLAYER
  8
0
  9
$CELTYPE
  6
ByLayer
  9
$CECOLOR
 62
   256
  9
$CELTSCALE
 40
1.0
  9
$DISPSILH
 70
     0
  9
$DIMSCALE
 40
1.0
  9
$DIMASZ
 40
3.0
  9
$DIMEXO
 40
1.5
  9
$DIMDLI
 40
8.0
  9
$DIMRND
 40
0.0
  9
$DIMDLE
 40
0.0
  9
$DIMEXE
 40
1.5
  9
$DIMTP
 40
0.1
  9
$DIMTM
 40
0.1
  9
$DIMTXT
 40
3.5
  9
$DIMCEN
 40
0.0
  9
$DIMTSZ
 40
0.0
  9
$DIMTOL
 70
     0
  9
$DIMLIM
 70
     0
  9
$DIMTIH
 70
     0
  9
$DIMTOH
 70
     0
  9
$DIMSE1
 70
     0
  9
$DIMSE2
 70
     0
  9
$DIMTAD
 70
     1
  9
$DIMZIN
 70
     8
  9
$DIMBLK
  1

  9
$DIMASO
 70
     1
  9
$DIMSHO
 70
     1
  9
$DIMPOST
  1

  9
$DIMAPOST
  1
"
  9
$DIMALT
 70
     0
  9
$DIMALTD
 70
     2
  9
$DIMALTF
 40
0.0393701
  9
$DIMLFAC
 40
1.0
  9
$DIMTOFL
 70
     1
  9
$DIMTVP
 40
0.0
  9
$DIMTIX
 70
     0
  9
$DIMSOXD
 70
     0
  9
$DIMSAH
 70
     0
  9
$DIMBLK1
  1

  9
$DIMBLK2
  1

  9
$DIMSTYLE
  2
AM_ISO
  9
$DIMCLRD
 70
   256
  9
$DIMCLRE
 70
   256
  9
$DIMCLRT
 70
   256
  9
$DIMTFAC
 40
0.6
  9
$DIMGAP
 40
1.0
  9
$DIMJUST
 70
     0
  9
$DIMSD1
 70
     0
  9
$DIMSD2
 70
     0
  9
$DIMTOLJ
 70
     0
  9
$DIMTZIN
 70
     8
  9
$DIMALTZ
 70
     0
  9
$DIMALTTZ
 70
     0
  9
$DIMUPT
 70
     0
  9
$DIMDEC
 70
     2
  9
$DIMTDEC
 70
     8
  9
$DIMALTU
 70
     2
  9
$DIMALTTD
 70
     2
  9
$DIMTXSTY
  7
STANDARD
  9
$DIMAUNIT
 70
     0
  9
$DIMADEC
 70
     0
  9
$DIMALTRND
 40
0.0
  9
$DIMAZIN
 70
     2
  9
$DIMDSEP
 70
    46
  9
$DIMATFIT
 70
     3
  9
$DIMFRAC
 70
     0
  9
$DIMLDRBLK
  1

  9
$DIMLUNIT
 70
     2
  9
$DIMLWD
 70
    -1
  9
$DIMLWE
 70
    -1
  9
$DIMTMOVE
 70
     0
  9
$LUNITS
 70
     2
  9
$LUPREC
 70
     2
  9
$SKETCHINC
 40
1.0
  9
$FILLETRAD
 40
2.5
  9
$AUNITS
 70
     0
  9
$AUPREC
 70
     0
  9
$MENU
  1
.
  9
$ELEVATION
 40
0.0
  9
$PELEVATION
 40
0.0
  9
$THICKNESS
 40
0.0
  9
$LIMCHECK
 70
     0
  9
$CHAMFERA
 40
2.5
  9
$CHAMFERB
 40
2.5
  9
$CHAMFERC
 40
20.0
  9
$CHAMFERD
 40
0.0
  9
$SKPOLY
 70
     0
  9
$TDCREATE
 40
2454404.499322188
  9
$TDUCREATE
 40
2454404.165988854
  9
$TDUPDATE
 40
2454407.706228113
  9
$TDUUPDATE
 40
2454407.372894780
  9
$TDINDWG
 40
0.2098518981
  9
$TDUSRTIMER
 40
0.2098518981
  9
$USRTIMER
 70
     1
  9
$ANGBASE
 50
0.0
  9
$ANGDIR
 70
     0
  9
$PDMODE
 70
     0
  9
$PDSIZE
 40
0.0
  9
$PLINEWID
 40
0.0
  9
$SPLFRAME
 70
     0
  9
$SPLINETYPE
 70
     6
  9
$SPLINESEGS
 70
     8
  9
$HANDSEED
  5
1C46
  9
$SURFTAB1
 70
     6
  9
$SURFTAB2
 70
     6
  9
$SURFTYPE
 70
     6
  9
$SURFU
 70
     6
  9
$SURFV
 70
     6
  9
$UCSBASE
  2

  9
$UCSNAME
  2

  9
$UCSORG
 10
0.0
 20
0.0
 30
0.0
  9
$UCSXDIR
 10
1.0
 20
0.0
 30
0.0
  9
$UCSYDIR
 10
0.0
 20
1.0
 30
0.0
  9
$UCSORTHOREF
  2

  9
$UCSORTHOVIEW
 70
     0
  9
$UCSORGTOP
 10
0.0
 20
0.0
 30
0.0
  9
$UCSORGBOTTOM
 10
0.0
 20
0.0
 30
0.0
  9
$UCSORGLEFT
 10
0.0
 20
0.0
 30
0.0
  9
$UCSORGRIGHT
 10
0.0
 20
0.0
 30
0.0
  9
$UCSORGFRONT
 10
0.0
 20
0.0
 30
0.0
  9
$UCSORGBACK
 10
0.0
 20
0.0
 30
0.0
  9
$PUCSBASE
  2

  9
$PUCSNAME
  2

  9
$PUCSORG
 10
0.0
 20
0.0
 30
0.0
  9
$PUCSXDIR
 10
1.0
 20
0.0
 30
0.0
  9
$PUCSYDIR
 10
0.0
 20
1.0
 30
0.0
  9
$PUCSORTHOREF
  2

  9
$PUCSORTHOVIEW
 70
     0
  9
$PUCSORGTOP
 10
0.0
 20
0.0
 30
0.0
  9
$PUCSORGBOTTOM
 10
0.0
 20
0.0
 30
0.0
  9
$PUCSORGLEFT
 10
0.0
 20
0.0
 30
0.0
  9
$PUCSORGRIGHT
 10
0.0
 20
0.0
 30
0.0
  9
$PUCSORGFRONT
 10
0.0
 20
0.0
 30
0.0
  9
$PUCSORGBACK
 10
0.0
 20
0.0
 30
0.0
  9
$USERI1
 70
     0
  9
$USERI2
 70
     0
  9
$USERI3
 70
     0
  9
$USERI4
 70
     0
  9
$USERI5
 70
     0
  9
$USERR1
 40
0.0
  9
$USERR2
 40
0.0
  9
$USERR3
 40
0.0
  9
$USERR4
 40
0.0
  9
$USERR5
 40
0.0
  9
$WORLDVIEW
 70
     1
  9
$SHADEDGE
 70
     3
  9
$SHADEDIF
 70
    70
  9
$TILEMODE
 70
     1
  9
$MAXACTVP
 70
    64
  9
$PINSBASE
 10
0.0
 20
0.0
 30
0.0
  9
$PLIMCHECK
 70
     0
  9
$PEXTMIN
 10
1.000000000000000E+20
 20
1.000000000000000E+20
 30
1.000000000000000E+20
  9
$PEXTMAX
 10
-1.000000000000000E+20
 20
-1.000000000000000E+20
 30
-1.000000000000000E+20
  9
$PLIMMIN
 10
0.0
 20
0.0
  9
$PLIMMAX
 10
420.0
 20
297.0
  9
$UNITMODE
 70
     0
  9
$VISRETAIN
 70
     1
  9
$PLINEGEN
 70
     0
  9
$PSLTSCALE
 70
     1
  9
$TREEDEPTH
 70
  3020
  9
$CMLSTYLE
  2
Standard
  9
$CMLJUST
 70
     0
  9
$CMLSCALE
 40
20.0
  9
$PROXYGRAPHICS
 70
     1
  9
$MEASUREMENT
 70
     1
  9
$CELWEIGHT
370
    -1
  9
$ENDCAPS
280
     0
  9
$JOINSTYLE
280
     0
  9
$LWDISPLAY
290
     0
  9
$INSUNITS
 70
     4
  9
$HYPERLINKBASE
  1

  9
$STYLESHEET
  1
彩色出圖.ctb
  9
$XEDIT
290
     1
  9
$CEPSNTYPE
380
     0
  9
$PSTYLEMODE
290
     1
  9
$FINGERPRINTGUID
  2
{074D7011-B32B-4E84-AF1B-A87C3313AB9B}
  9
$VERSIONGUID
  2
{7DFD2C2F-9591-4C7C-B09B-04D2ABE22B7C}
  9
$EXTNAMES
290
     1
  9
$PSVPSCALE
 40
0.0
  9
$OLESTARTUP
290
     0
  0
ENDSEC
  0
SECTION
  2
CLASSES
  0
CLASS
  1
ACDBDICTIONARYWDFLT
  2
AcDbDictionaryWithDefault
  3
ObjectDBX Classes
 90
        0
280
     0
281
     0
  0
CLASS
  1
ACDBPLACEHOLDER
  2
AcDbPlaceHolder
  3
ObjectDBX Classes
 90
        0
280
     0
281
     0
  0
CLASS
  1
LAYOUT
  2
AcDbLayout
  3
ObjectDBX Classes
 90
        0
280
     0
281
     0
  0
CLASS
  1
ACME_DOCUMENT
  2
AcMeDbDoc
  3
AcMeServices
 90
        0
280
     0
281
     0
  0
CLASS
  1
AMGSETTINGSOBJ
  2
AmgSettingsObj
  3
"AcadM|Product Description: AutoCAD Mechanical 2000|Company: Autodesk"
 90
        0
280
     0
281
     0
  0
CLASS
  1
ACMESCOPE
  2
AcMeScope
  3
AcMeServices
 90
        0
280
     0
281
     0
  0
CLASS
  1
ACMECOMMANDHISTORY
  2
AcMeCommandHistory
  3
AcMeServices
 90
        0
280
     0
281
     0
  0
CLASS
  1
ACIMSYSVARMAN
  2
AcImSysVarManager
  3
AcMeServices
 90
        0
280
     0
281
     0
  0
CLASS
  1
ACIMREALSYSVAR
  2
AcImRealSysVar
  3
AcMeServices
 90
        0
280
     0
281
     0
  0
CLASS
  1
ACIMINTSYSVAR
  2
AcImIntSysVar
  3
AcMeServices
 90
        0
280
     0
281
     0
  0
CLASS
  1
ACMEDRAWINGMAN
  2
AcMeDrawingMan
  3
AcMeServices
 90
        0
280
     0
281
     0
  0
CLASS
  1
ACMEVIEW
  2
AcMeView
  3
AcMeServices
 90
        0
280
     0
281
     0
  0
CLASS
  1
ACDBENTITYCACHE
  2
AcMeEntityCache
  3
AcMeServices
 90
        0
280
     0
281
     0
  0
CLASS
  1
GSMANAGER
  2
AcMeGSManager
  3
AcMeServices
 90
        0
280
     0
281
     0
  0
CLASS
  1
AMDTINTERNALREACTOR
  2
AmdtInternalReactor
  3
AcMeServices
 90
        0
280
     0
281
     0
  0
CLASS
  1
ACMESTATEMGR
  2
AcMeStateMgr
  3
AcMeServices
 90
        0
280
     0
281
     0
  0
CLASS
  1
ACGREFMASTER
  2
AcGrefMaster
  3
AcAttribServices
 90
        0
280
     0
281
     0
  0
CLASS
  1
ACME_DATABASE
  2
AcMeDbDatabase
  3
AcMeServices
 90
        0
280
     0
281
     0
  0
CLASS
  1
ACRFINSADJUSTERMGR
  2
AcRfInsAdjusterMgr
  3
AcMeServices
 90
        0
280
     0
281
     0
  0
CLASS
  1
ACGREFACADMASTER
  2
AcGrefacadMaster
  3
AcGrefServices
 90
        0
280
     0
281
     0
  0
CLASS
  1
AMIMASTER
  2
AmiMaster
  3
AmiServices
 90
        0
280
     0
281
     0
  0
CLASS
  1
ACMDATADICTIONARY
  2
AcmDataDictionary
  3
"AcmSymBB|Product Description: AutoCAD Mechanical 2004 DX|Company: Autodesk"
 90
        0
280
     0
281
     0
  0
CLASS
  1
ACMDATAENTRYBLOCK
  2
AcmDataEntryBlock
  3
"AcmSymBB|Product Description: AutoCAD Mechanical 2004 DX|Company: Autodesk"
 90
        0
280
     0
281
     0
  0
CLASS
  1
ACIMSTRSYSVAR
  2
AcImStrSysVar
  3
AcMeServices
 90
        0
280
     0
281
     0
  0
CLASS
  1
ACMSTANDARDISO
  2
AcmStandardISO
  3
"Amdt_StdImp|Product Description: AutoCAD Mechanical 2004 DX|Company: Autodesk"
 90
        0
280
     0
281
     0
  0
CLASS
  1
AMGOBJPROPCFG
  2
AmgObjPropCfg
  3
"AmgLay|Product Description: AutoCAD Mechanical 2000|Company: Autodesk"
 90
        1
280
     0
281
     0
  0
CLASS
  1
AMDTEDGESTANDARDISO
  2
AmdtEdgeStdISO
  3
"Amdt_StdImp|Product Description: AutoCAD Mechanical 2004 DX|Company: Autodesk"
 90
        0
280
     0
281
     0
  0
CLASS
  1
ACMSURFSTANDARDISO
  2
AcmSurfTextStdISO
  3
"Amdt_StdImp|Product Description: AutoCAD Mechanical 2004 DX|Company: Autodesk"
 90
        0
280
     0
281
     0
  0
CLASS
  1
ACMFCFSTANDARDISO
  2
AcmFCFStdISO
  3
"Amdt_StdImp|Product Description: AutoCAD Mechanical 2004 DX|Company: Autodesk"
 90
        0
280
     0
281
     0
  0
CLASS
  1
ACMWELDSTANDARDISO
  2
AcmWeldingStdISO
  3
"Amdt_StdImp|Product Description: AutoCAD Mechanical 2004 DX|Company: Autodesk"
 90
        0
280
     0
281
     0
  0
CLASS
  1
ACMIDSTANDARDISO
  2
AcmIdStdISO
  3
"Amdt_StdImp|Product Description: AutoCAD Mechanical 2004 DX|Company: Autodesk"
 90
        0
280
     0
281
     0
  0
CLASS
  1
ACMDATUMSTANDARDISO
  2
AcmDatumStdISO
  3
"Amdt_StdImp|Product Description: AutoCAD Mechanical 2004 DX|Company: Autodesk"
 90
        0
280
     0
281
     0
  0
CLASS
  1
ACMBOMSTANDARDISO
  2
AcmBOMStdISO
  3
"Amdt_StdImp|Product Description: AutoCAD Mechanical 2004 DX|Company: Autodesk"
 90
        0
280
     0
281
     0
  0
CLASS
  1
ACMDETAILSTANDARDISO
  2
AmdtDetailSymStdISO
  3
"Amdt_StdImp|Product Description: AutoCAD Mechanical 2004 DX|Company: Autodesk"
 90
        0
280
     0
281
     0
  0
CLASS
  1
ACMSECTIONSTANDARDISO
  2
AmdtSectionSymStdISO
  3
"Amdt_StdImp|Product Description: AutoCAD Mechanical 2004 DX|Company: Autodesk"
 90
        0
280
     0
281
     0
  0
CLASS
  1
ACMCENTERLINESTANDARDISO
  2
AmdtCenterLineStdISO
  3
"Amdt_StdImp|Product Description: AutoCAD Mechanical 2004 DX|Company: Autodesk"
 90
        0
280
     0
281
     0
  0
CLASS
  1
ACMNOTESTANDARDISO
  2
AmdtNoteStdISO
  3
"Amdt_StdImp|Product Description: AutoCAD Mechanical 2004 DX|Company: Autodesk"
 90
        0
280
     0
281
     0
  0
CLASS
  1
ACAMGLAYSTD
  2
AcAmgLayStd
  3
"AcAmgLayStd|Product Description: AutoCAD Mechanical 2000|Company: Autodesk"
 90
        0
280
     0
281
     0
  0
CLASS
  1
ACAMGDIMSTD
  2
AcAmgDimStd
  3
"AcAmgDimStd|Product Description: AutoCAD Mechanical 2000|Company: Autodesk"
 90
        0
280
     0
281
     0
  0
CLASS
  1
ACAMGHOLECHARTSTDISO
  2
AcAmgHoleChartStdISO
  3
ACMSYMBB_MODULE_NAME
 90
        0
280
     0
281
     0
  0
CLASS
  1
ACAMGTITLESTD
  2
AcAmgTitleStd
  3
"TITLEAPP"
 90
        0
280
     0
281
     0
  0
CLASS
  1
LAYER_INDEX
  2
AcDbLayerIndex
  3
ObjectDBX Classes
 90
    32768
280
     0
281
     0
  0
CLASS
  1
IDBUFFER
  2
AcDbIdBuffer
  3
ObjectDBX Classes
 90
    32768
280
     0
281
     0
  0
CLASS
  1
DICTIONARYVAR
  2
AcDbDictionaryVar
  3
ObjectDBX Classes
 90
        0
280
     0
281
     0
  0
CLASS
  1
AM_DRAWING_MGR
  2
AcDmDwgMgr
  3
AcMechDwgViewMgmt
 90
        0
280
     0
281
     0
  0
CLASS
  1
AM_DWG_DOCUMENT
  2
AcDmDwgDocument
  3
AcMechDwgViewMgmt
 90
        0
280
     0
281
     0
  0
CLASS
  1
AM_DWG_SHEET
  2
AcDmSheet
  3
AcMechDwgViewMgmt
 90
        0
280
     0
281
     0
  0
CLASS
  1
AM_VIEWDIMPARMAP
  2
AcDmViewDimParMap
  3
AcMechDwgViewMgmt
 90
        0
280
     0
281
     0
  0
CLASS
  1
AM_DWGMGR_NAME
  2
AcDmDwgMgrName
  3
AcMechDwgViewMgmt
 90
        0
280
     0
281
     0
  0
CLASS
  1
AMDTMENUSTATEMGR
  2
AmdtMenuStateMgr
  3
McadcomServices
 90
        0
280
     0
281
     0
  0
CLASS
  1
AMDTMCOMMENUSTATE
  2
AmdtMcomMenuState
  3
McadcomServices
 90
        0
280
     0
281
     0
  0
CLASS
  1
MAPIAMMOUDLE
  2
MApiAmModule
  3
MApiAmServices
 90
        0
280
     0
281
     0
  0
CLASS
  1
AMDTADMENUSTATE
  2
AmdtAdMenuState
  3
DesignerServices
 90
        0
280
     0
281
     0
  0
CLASS
  1
ADAPPL
  2
AcAdAppl
  3
DesignerServices
 90
        0
280
     0
281
     0
  0
CLASS
  1
DEPMGR
  2
AcAdDepMgr
  3
DesignerServices
 90
        0
280
     0
281
     0
  0
CLASS
  1
PARAMMGR
  2
AcAdParamMgr
  3
DesignerServices
 90
        0
280
     0
281
     0
  0
CLASS
  1
PARAMSCOPE
  2
AcAdParamScope
  3
DesignerServices
 90
        0
280
     0
281
     0
  0
CLASS
  1
NAMEDAPPL
  2
AcAdNamedAppl
  3
DesignerServices
 90
        0
280
     0
281
     0
  0
CLASS
  1
AMDTDMMENUSTATE
  2
AmdtDmMenuState
  3
AcMechDwgViewMgmt
 90
        0
280
     0
281
     0
  0
CLASS
  1
AMDTAMMENUSTATE
  2
AmdtAmMenuState
  3
DesignerAssemblies
 90
        0
280
     0
281
     0
  0
CLASS
  1
ACAMPROJECT
  2
AcAmProject
  3
DesignerAssemblies
 90
        0
280
     0
281
     0
  0
CLASS
  1
ACAMGRCOMPDEF
  2
AcAmGrCompDef
  3
DesignerAssemblies
 90
        0
280
     0
281
     0
  0
CLASS
  1
ACCMCONTEXT
  2
AcCmContext
  3
DesignerAssemblies
 90
        0
280
     0
281
     0
  0
CLASS
  1
ACAMCOMPDEF
  2
AcAmCompDef
  3
DesignerAssemblies
 90
        0
280
     0
281
     0
  0
CLASS
  1
ACAMCOMPDEFMGR
  2
AcAmCompDefMgr
  3
DesignerAssemblies
 90
        0
280
     0
281
     0
  0
CLASS
  1
AMCONTEXTMGR
  2
AcAmContextMgr
  3
DesignerAssemblies
 90
        0
280
     0
281
     0
  0
CLASS
  1
ACAMCONTEXTMODELER
  2
AcAmContextModeler
  3
DesignerAssemblies
 90
        0
280
     0
281
     0
  0
CLASS
  1
ACMTHREADLINESTANDARDISO
  2
AmdtThreadLineStdISO
  3
"Amdt_StdImp|Product Description: AutoCAD Mechanical 2004 DX|Company: Autodesk"
 90
        0
280
     0
281
     0
  0
CLASS
  1
CATALOGSTATE
  2
AcAmCatalogState
  3
DesignerAssemblies
 90
        0
280
     0
281
     0
  0
CLASS
  1
ACAMGRCOMPDEFSET
  2
AcAmGrCompDefSet
  3
DesignerAssemblies
 90
        0
280
     0
281
     0
  0
CLASS
  1
AMDTBROWSERDBTAB
  2
AmdtBrowserDbTab
  3
McadcomServices
 90
        0
280
     0
281
     0
  0
CLASS
  1
CBROWSERAPPOBJECT
  2
CBrowserAppObject
  3
McadcomServices
 90
        0
280
     0
281
     0
  0
CLASS
  1
DM_PLACEHOLDER
  2
AcDmSelsetPlaceholder
  3
AcMechDwgViewMgmt
 90
        0
280
     0
281
     0
  0
CLASS
  1
TABLESTYLE
  2
AcDbTableStyle
  3
ObjectDBX Classes
 90
     2047
280
     0
281
     0
  0
CLASS
  1
VAACXREFPANELOBJECT
  2
VaAcXREFPanelObject
  3
VAAC_ADDIN
 90
    32768
280
     0
281
     0
  0
CLASS
  1
VAACIMAGEINVENTORY
  2
VaAcImageInventory
  3
VAAC_ADDIN
 90
    32768
280
     0
281
     0
  0
CLASS
  1
AMDTNOTETEMPLATEDB
  2
AmdtNoteTemplateDB
  3
AMDT_STDIMP_MODULE_NAME
 90
        0
280
     0
281
     0
  0
CLASS
  1
ACMBOM
  2
AcmBom
  3
"AcmSymBB|Product Description: AutoCAD Mechanical 2004 DX|Company: Autodesk"
 90
    32768
280
     0
281
     0
  0
CLASS
  1
AMDTFORMULAUPDATEDISPATCHER
  2
AmdtFormulaUpdateDispatcher
  3
AcMeServices
 90
        0
280
     0
281
     0
  0
CLASS
  1
ACMPARTLIST
  2
AcmPartList
  3
"AcmSymBB|Product Description: AutoCAD Mechanical 2004 DX|Company: Autodesk"
 90
    33791
280
     0
281
     1
  0
CLASS
  1
ACAMGFILTERDAT
  2
AcAmgFilterDat
  3
"AcadM|Product Description: AutoCAD Mechanical 2000|Company: Autodesk"
 90
        0
280
     0
281
     0
  0
CLASS
  1
DIMASSOC
  2
AcDbDimAssoc
  3
"AcDbDimAssoc|Product Desc:     AcDim ARX App For Dimension|Company:          Autodesk, Inc.|WEB Address:      www.autodesk.com"
 90
    32768
280
     0
281
     0
  0
CLASS
  1
ACMSTANDARDANSI
  2
AcmStandardANSI
  3
"Amdt_StdImp|Product Description: AutoCAD Mechanical 2004 DX|Company: Autodesk"
 90
        0
280
     0
281
     0
  0
CLASS
  1
ACMSURFSTANDARDANSI
  2
AcmSurfTextStdANSI
  3
"Amdt_StdImp|Product Description: AutoCAD Mechanical 2004 DX|Company: Autodesk"
 90
        0
280
     0
281
     0
  0
CLASS
  1
ACMFCFSTANDARDANSI
  2
AcmFCFStdANSI
  3
"Amdt_StdImp|Product Description: AutoCAD Mechanical 2004 DX|Company: Autodesk"
 90
        0
280
     0
281
     0
  0
CLASS
  1
ACMWELDSTANDARDANSI
  2
AcmWeldingStdANSI
  3
"Amdt_StdImp|Product Description: AutoCAD Mechanical 2004 DX|Company: Autodesk"
 90
        0
280
     0
281
     0
  0
CLASS
  1
ACMIDSTANDARDANSI
  2
AcmIdStdANSI
  3
"Amdt_StdImp|Product Description: AutoCAD Mechanical 2004 DX|Company: Autodesk"
 90
        0
280
     0
281
     0
  0
CLASS
  1
ACMDATUMSTANDARDANSI
  2
AcmDatumStdANSI
  3
"Amdt_StdImp|Product Description: AutoCAD Mechanical 2004 DX|Company: Autodesk"
 90
        0
280
     0
281
     0
  0
CLASS
  1
ACMBOMSTANDARDANSI
  2
AcmBOMStdANSI
  3
"Amdt_StdImp|Product Description: AutoCAD Mechanical 2004 DX|Company: Autodesk"
 90
        0
280
     0
281
     0
  0
CLASS
  1
ACMDETAILSTANDARDANSI
  2
AmdtDetailSymStdANSI
  3
"Amdt_StdImp|Product Description: AutoCAD Mechanical 2004 DX|Company: Autodesk"
 90
        0
280
     0
281
     0
  0
CLASS
  1
ACMSECTIONSTANDARDANSI
  2
AmdtSectionSymStdANSI
  3
"Amdt_StdImp|Product Description: AutoCAD Mechanical 2004 DX|Company: Autodesk"
 90
        0
280
     0
281
     0
  0
CLASS
  1
ACMCENTERLINESTANDARDANSI
  2
AmdtCenterLineStdANSI
  3
"Amdt_StdImp|Product Description: AutoCAD Mechanical 2004 DX|Company: Autodesk"
 90
        0
280
     0
281
     0
  0
CLASS
  1
ACMTHREADLINESTANDARDANSI
  2
AmdtThreadLineStdANSI
  3
"Amdt_StdImp|Product Description: AutoCAD Mechanical 2004 DX|Company: Autodesk"
 90
        0
280
     0
281
     0
  0
CLASS
  1
ACMNOTESTANDARDANSI
  2
AmdtNoteStdANSI
  3
"Amdt_StdImp|Product Description: AutoCAD Mechanical 2004 DX|Company: Autodesk"
 90
        0
280
     0
281
     0
  0
CLASS
  1
ACAMGHOLECHARTSTDANSI
  2
AcAmgHoleChartStdANSI
  3
ACMSYMBB_MODULE_NAME
 90
        0
280
     0
281
     0
  0
CLASS
  1
AMDTNOTE
  2
AmdtNote
  3
"AcmSymBB|Product Description: AutoCAD Mechanical 2004 DX|Company: Autodesk"
 90
     1023
280
     0
281
     1
  0
CLASS
  1
STDPART2D
  2
AmgStdPart
  3
"AmgStdPart|Product Description: AutoCAD Mechanical 2000|Company: Autodesk"
 90
    33791
280
     0
281
     1
  0
CLASS
  1
ACAMSTDPCOMPDEF
  2
AcAmStdpCompDef
  3
DesignerAssemblies
 90
    32768
280
     0
281
     0
  0
CLASS
  1
ACRFATTGENMGR
  2
AcRfAttGeneralMgr
  3
AcAttribServices
 90
        0
280
     0
281
     0
  0
CLASS
  1
ACRFOBJATTMGR
  2
AcRfObjAttGroupMgr
  3
AcAttribServices
 90
    32768
280
     0
281
     0
  0
CLASS
  1
ACRFMCADAPIATTHOLDER
  2
AcRfMCADAPIAttHolder
  3
AcAttribServices
 90
    32768
280
     0
281
     0
  0
CLASS
  1
AMDTSYSATTR
  2
AmdtSystemAttribute
  3
AcAttribServices
 90
    32768
280
     0
281
     0
  0
CLASS
  1
ACAMCOMP
  2
AcAmComp
  3
DesignerAssemblies
 90
    32768
280
     0
281
     0
  0
CLASS
  1
AC_AM_STDP_VIEW_DEF
  2
AcAmStdpViewDef
  3
DesignerAssemblies
 90
    32768
280
     0
281
     0
  0
CLASS
  1
AC_AM_MVD_DEP_MGR
  2
AcAmMVDdepMgr
  3
DesignerAssemblies
 90
        0
280
     0
281
     0
  0
CLASS
  1
AC_AM_MASTER_VIEW_DEF
  2
AcAmMasterViewDef
  3
DesignerAssemblies
 90
        0
280
     0
281
     0
  0
CLASS
  1
AC_AM_DIRTY_NODES
  2
AcAmDirtyNodes
  3
DesignerAssemblies
 90
        0
280
     0
281
     0
  0
CLASS
  1
AC_AM_MAPPER_CACHE
  2
AcAmMapperCache
  3
DesignerAssemblies
 90
        0
280
     0
281
     0
  0
CLASS
  1
ACAMMVDBACKUPOBJECT
  2
AcAmMVDBackupObject
  3
DesignerAssemblies
 90
        0
280
     0
281
     0
  0
CLASS
  1
AC_AM_COMP_VIEW_INST
  2
AcAmCompView
  3
DesignerAssemblies
 90
    32768
280
     0
281
     0
  0
CLASS
  1
AC_AM_2D_XREF_MGR
  2
AcAmXrefMgr2d
  3
DesignerAssemblies
 90
        0
280
     0
281
     0
  0
CLASS
  1
SORTENTSTABLE
  2
AcDbSortentsTable
  3
ObjectDBX Classes
 90
        0
280
     0
281
     0
  0
ENDSEC
  0
SECTION
  2
TABLES
  0
TABLE
  2
VPORT
  5
8
330
0
100
AcDbSymbolTable
 70
     4
  0
VPORT
  5
1C3D
330
8
100
AcDbSymbolTableRecord
100
AcDbViewportTableRecord
  2
*Active
 70
     0
 10
0.0
 20
0.0
 11
1.0
 21
1.0
 12
279.4377507738944
 22
188.8108985655835
 13
0.0
 23
0.0
 14
2.5
 24
2.5
 15
10.0
 25
10.0
 16
0.0
 26
0.0
 36
1.0
 17
0.0
 27
0.0
 37
0.0
 40
217.8118386907744
 41
1.679945054945054
 42
50.0
 43
0.0
 44
0.0
 50
0.0
 51
0.0
 71
     0
 72
   100
 73
     1
 74
     3
 75
     0
 76
     0
 77
     0
 78
     0
281
     0
 65
     1
110
0.0
120
0.0
130
0.0
111
1.0
121
0.0
131
0.0
112
0.0
122
1.0
132
0.0
 79
     0
146
0.0
  0
ENDTAB
  0
TABLE
  2
LTYPE
  5
5
330
0
100
AcDbSymbolTable
 70
    19
  0
LTYPE
  5
14
330
5
100
AcDbSymbolTableRecord
100
AcDbLinetypeTableRecord
  2
ByBlock
 70
     0
  3

 72
    65
 73
     0
 40
0.0
  0
LTYPE
  5
15
330
5
100
AcDbSymbolTableRecord
100
AcDbLinetypeTableRecord
  2
ByLayer
 70
     0
  3

 72
    65
 73
     0
 40
0.0
  0
LTYPE
  5
16
330
5
100
AcDbSymbolTableRecord
100
AcDbLinetypeTableRecord
  2
Continuous
 70
     0
  3
Solid line
 72
    65
 73
     0
 40
0.0
  0
LTYPE
  5
64
330
5
100
AcDbSymbolTableRecord
100
AcDbLinetypeTableRecord
  2
AM_ISO02W050
 70
     0
  3
__ __ __ __ __ __ __ __ __ __ __ __ __ __ __
 72
    65
 73
     2
 40
7.5
 49
6.0
 74
     0
 49
-1.5
 74
     0
  0
LTYPE
  5
65
330
5
100
AcDbSymbolTableRecord
100
AcDbLinetypeTableRecord
  2
AM_ISO08W050
 70
     0
  3
____ . ____ . ____ . ____ . ____ . ____ . ____
 72
    65
 73
     4
 40
18.0
 49
12.0
 74
     0
 49
-1.5
 74
     0
 49
3.0
 74
     0
 49
-1.5
 74
     0
  0
LTYPE
  5
66
330
5
100
AcDbSymbolTableRecord
100
AcDbLinetypeTableRecord
  2
AM_ISO09W050
 70
     0
  3
_____ . . _____ . . _____ . . ____ .. ____
 72
    65
 73
     6
 40
22.5
 49
12.0
 74
     0
 49
-1.5
 74
     0
 49
3.0
 74
     0
 49
-1.5
 74
     0
 49
3.0
 74
     0
 49
-1.5
 74
     0
  0
LTYPE
  5
67
330
5
100
AcDbSymbolTableRecord
100
AcDbLinetypeTableRecord
  2
Amconstr
 70
     0
  3
_______________________
 72
    65
 73
     2
 40
9999.0
 49
9999.0
 74
     0
 49
0.0
 74
     0
  0
LTYPE
  5
68
330
5
100
AcDbSymbolTableRecord
100
AcDbLinetypeTableRecord
  2
AM_ISO08W050x2
 70
     0
  3
__ . __ . __ . __ . __ . __
 72
    65
 73
     4
 40
9.0
 49
6.0
 74
     0
 49
-0.75
 74
     0
 49
1.5
 74
     0
 49
-0.75
 74
     0
  0
LTYPE
  5
69
330
5
100
AcDbSymbolTableRecord
100
AcDbLinetypeTableRecord
  2
AM_ISO02W050x2
 70
     0
  3
 _ _ _ _ _ _ _ _ _ _ _ _
 72
    65
 73
     2
 40
3.75
 49
3.0
 74
     0
 49
-0.75
 74
     0
  0
LTYPE
  5
6C
330
5
100
AcDbSymbolTableRecord
100
AcDbLinetypeTableRecord
  2
Amzigzag
 70
     0
  3
/\/-/\/-/\/-/\/-/\/-/\/
 72
    65
 73
     2
 40
11.0001
 49
0.0001
 74
     4
 75
   135
340
6B
 46
0.04
 50
0.0
 44
0.0
 45
0.0
 49
-11.0
 74
     0
  0
LTYPE
  5
7A
330
5
100
AcDbSymbolTableRecord
100
AcDbLinetypeTableRecord
  2
ACISOWELD
 70
     0
  3
_ _ _ _ _
 72
    65
 73
     2
 40
2.0
 49
2.0
 74
     0
 49
-1.0
 74
     0
  0
LTYPE
  5
7B
330
5
100
AcDbSymbolTableRecord
100
AcDbLinetypeTableRecord
  2
ACISOTGB
 70
     0
  3
__ . . __ . .
 72
    65
 73
     6
 40
9.0
 49
4.0
 74
     0
 49
-1.0
 74
     0
 49
1.0
 74
     0
 49
-1.0
 74
     0
 49
1.0
 74
     0
 49
-1.0
 74
     0
  0
LTYPE
  5
7C
330
5
100
AcDbSymbolTableRecord
100
AcDbLinetypeTableRecord
  2
ACISOTGL
 70
     0
  3
_ _ _ _ _
 72
    65
 73
     2
 40
3.0
 49
2.0
 74
     0
 49
-1.0
 74
     0
  0
LTYPE
  5
7E
330
5
100
AcDbSymbolTableRecord
100
AcDbLinetypeTableRecord
  2
CENTER
 70
     0
  3
__ . __
 72
    65
 73
     4
 40
7.0
 49
4.0
 74
     0
 49
-1.0
 74
     0
 49
1.0
 74
     0
 49
-1.0
 74
     0
  0
LTYPE
  5
D8
330
5
100
AcDbSymbolTableRecord
100
AcDbLinetypeTableRecord
  2
HIDDEN
 70
     0
  3
Hidden __ __ __ __ __ __ __ __ __ __ __ __ __ _
 72
    65
 73
     2
 40
9.524999999999998
 49
6.349999999999999
 74
     0
 49
-3.174999999999999
 74
     0
  0
LTYPE
  5
D9
330
5
100
AcDbSymbolTableRecord
100
AcDbLinetypeTableRecord
  2
PHANTOM2
 70
     0
  3
Phantom (.5x) ___ _ _ ___ _ _ ___ _ _ ___ _ _
 72
    65
 73
     6
 40
31.75
 49
15.875
 74
     0
 49
-3.174999999999999
 74
     0
 49
3.174999999999999
 74
     0
 49
-3.174999999999999
 74
     0
 49
3.174999999999999
 74
     0
 49
-3.174999999999999
 74
     0
  0
LTYPE
  5
B96
330
5
100
AcDbSymbolTableRecord
100
AcDbLinetypeTableRecord
  2
CENTER2
 70
     0
  3
Center (.5x) ___ _ ___ _ ___ _ ___ _ ___ _ ___
 72
    65
 73
     4
 40
1.125
 49
0.75
 74
     0
 49
-0.125
 74
     0
 49
0.125
 74
     0
 49
-0.125
 74
     0
  0
LTYPE
  5
B99
330
5
100
AcDbSymbolTableRecord
100
AcDbLinetypeTableRecord
  2
ACANSTGB
 70
     0
  3
__ . . __ . .
 72
    65
 73
     6
 40
0.35433070866
 49
0.15748031496
 74
     0
 49
-0.03937007874
 74
     0
 49
0.03937007874
 74
     0
 49
-0.03937007874
 74
     0
 49
0.03937007874
 74
     0
 49
-0.03937007874
 74
     0
  0
LTYPE
  5
B9A
330
5
100
AcDbSymbolTableRecord
100
AcDbLinetypeTableRecord
  2
ACANSTGL
 70
     0
  3
_ _ _ _ _
 72
    65
 73
     2
 40
0.11811023622
 49
0.07874015748
 74
     0
 49
-0.03937007874
 74
     0
  0
LTYPE
  5
134C
330
5
100
AcDbSymbolTableRecord
100
AcDbLinetypeTableRecord
  2
HIDDEN2
 70
     0
  3
Hidden (.5x) _ _ _ _ _ _ _ _ _ _ _ _ _ _ _ _ _
 72
    65
 73
     2
 40
0.1875
 49
0.125
 74
     0
 49
-0.0625
 74
     0
  0
LTYPE
  5
134D
330
5
100
AcDbSymbolTableRecord
100
AcDbLinetypeTableRecord
  2
Amzigzag2
 70
     0
  3
/\/-/\/-/\/-/\/-/\/-/\/
 72
    65
 73
     2
 40
0.4401
 49
0.0001
 74
     4
 75
   135
340
6B
 46
0.0016
 50
0.0
 44
0.0
 45
0.0
 49
-0.4400000000000001
 74
     0
  0
ENDTAB
  0
TABLE
  2
LAYER
  5
2
102
{ACAD_XDICTIONARY
360
3F9
102
}
330
0
100
AcDbSymbolTable
 70
    10
  0
LAYER
  5
10
330
2
100
AcDbSymbolTableRecord
100
AcDbLayerTableRecord
  2
0
 70
     0
 62
     7
  6
Continuous
370
    -3
390
F
  0
LAYER
  5
B9B
330
2
100
AcDbSymbolTableRecord
100
AcDbLayerTableRecord
  2
DIM
 70
     0
 62
     4
  6
Continuous
370
    18
390
F
  0
LAYER
  5
B9C
330
2
100
AcDbSymbolTableRecord
100
AcDbLayerTableRecord
  2
DEFPOINTS
 70
     0
 62
     7
  6
Continuous
290
     0
370
    -3
390
F
  0
LAYER
  5
B9D
330
2
100
AcDbSymbolTableRecord
100
AcDbLayerTableRecord
  2
Center
 70
     0
 62
     1
  6
CENTER2
370
    13
390
F
  0
LAYER
  5
E18
330
2
100
AcDbSymbolTableRecord
100
AcDbLayerTableRecord
  2
AM_5
 70
     0
 62
     5
  6
Continuous
370
    50
390
F
  0
LAYER
  5
10FD
330
2
100
AcDbSymbolTableRecord
100
AcDbLayerTableRecord
  2
LOGO
 70
     0
 62
     7
  6
Continuous
370
    -3
390
F
  0
LAYER
  5
1240
330
2
100
AcDbSymbolTableRecord
100
AcDbLayerTableRecord
  2
AM_7
 70
     0
 62
     1
  6
CENTER
370
    25
390
F
  0
LAYER
  5
183E
330
2
100
AcDbSymbolTableRecord
100
AcDbLayerTableRecord
  2
AM_0
 70
     0
 62
     7
  6
Continuous
370
    50
390
F
  0
LAYER
  5
186F
330
2
100
AcDbSymbolTableRecord
100
AcDbLayerTableRecord
  2
AM_4
 70
     0
 62
     3
  6
Continuous
370
    25
390
F
  0
LAYER
  5
1870
330
2
100
AcDbSymbolTableRecord
100
AcDbLayerTableRecord
  2
AM_9
 70
     0
 62
  -253
  6
Continuous
370
     0
390
F
  0
ENDTAB
  0
TABLE
  2
STYLE
  5
3
330
0
100
AcDbSymbolTable
 70
    10
  0
STYLE
  5
11
330
3
100
AcDbSymbolTableRecord
100
AcDbTextStyleTableRecord
  2
STANDARD
 70
     0
 40
0.0
 41
1.0
 50
0.0
 71
     0
 42
3.0
  3
ISOCP.SHX
  4
CHINESET.SHX
  0
STYLE
  5
6B
330
3
100
AcDbSymbolTableRecord
100
AcDbTextStyleTableRecord
  2

 70
     1
 40
0.0
 41
1.0
 50
0.0
 71
     0
 42
2.5
  3
ltypeshp.shx
  4

  0
STYLE
  5
6D
330
3
100
AcDbSymbolTableRecord
100
AcDbTextStyleTableRecord
  2
ACISOTS
 70
     0
 40
1.0
 41
1.0
 50
0.0
 71
     0
 42
1.0
  3
isocp.shx
  4
chineset.shx
  0
STYLE
  5
79
330
3
100
AcDbSymbolTableRecord
100
AcDbTextStyleTableRecord
  2
ACISOGDT
 70
     0
 40
0.0
 41
1.0
 50
0.0
 71
     0
 42
2.5
  3
amgdt.shx
  4
chineset.shx
  0
STYLE
  5
B9E
330
3
100
AcDbSymbolTableRecord
100
AcDbTextStyleTableRecord
  2
CHINA
 70
     0
 40
0.0
 41
1.0
 50
0.0
 71
     0
 42
3.5
  3
romans.shx
  4
chineset.shx
  0
STYLE
  5
B9F
330
3
100
AcDbSymbolTableRecord
100
AcDbTextStyleTableRecord
  2
ACANSTS
 70
     0
 40
1.0
 41
1.0
 50
0.0
 71
     0
 42
3.5
  3
romans.shx
  4
chineset.shx
  0
STYLE
  5
BA0
330
3
100
AcDbSymbolTableRecord
100
AcDbTextStyleTableRecord
  2
ACANSGDT
 70
     0
 40
0.0
 41
1.0
 50
0.0
 71
     0
 42
3.5
  3
amgdtans.shx
  4

  0
STYLE
  5
10FE
330
3
100
AcDbSymbolTableRecord
100
AcDbTextStyleTableRecord
  2
chineset
 70
     0
 40
0.0
 41
1.0
 50
0.0
 71
     0
 42
5.0
  3
simplex.shx
  4
chineset.shx
  0
ENDTAB
  0
TABLE
  2
VIEW
  5
6
330
0
100
AcDbSymbolTable
 70
     0
  0
ENDTAB
  0
TABLE
  2
UCS
  5
7
330
0
100
AcDbSymbolTable
 70
     0
  0
ENDTAB
  0
TABLE
  2
APPID
  5
9
330
0
100
AcDbSymbolTable
 70
    26
  0
APPID
  5
12
330
9
100
AcDbSymbolTableRecord
100
AcDbRegAppTableRecord
  2
ACAD
 70
     0
  0
APPID
  5
46
330
9
100
AcDbSymbolTableRecord
100
AcDbRegAppTableRecord
  2
MCAD_NO_VIS
 70
     0
  0
APPID
  5
47
330
9
100
AcDbSymbolTableRecord
100
AcDbRegAppTableRecord
  2
ACAD_TEMP_GRAPHIC
 70
     0
  0
APPID
  5
58
330
9
100
AcDbSymbolTableRecord
100
AcDbRegAppTableRecord
  2
ACATTRIBSERVICES
 70
     0
  0
APPID
  5
EE
330
9
100
AcDbSymbolTableRecord
100
AcDbRegAppTableRecord
  2
AD_DRAW
 70
     0
  0
APPID
  5
10C
330
9
100
AcDbSymbolTableRecord
100
AcDbRegAppTableRecord
  2
DESIGNERASSEMBLIES
 70
     0
  0
APPID
  5
111
330
9
100
AcDbSymbolTableRecord
100
AcDbRegAppTableRecord
  2
ACADM_DIM_EDIT
 70
     0
  0
APPID
  5
112
330
9
100
AcDbSymbolTableRecord
100
AcDbRegAppTableRecord
  2
AMDT_DM_ADJ
 70
     0
  0
APPID
  5
22C
330
9
100
AcDbSymbolTableRecord
100
AcDbRegAppTableRecord
  2
ACAD_DSTYLE_DIMTEXT_FILL
 70
     0
  0
APPID
  5
452
330
9
100
AcDbSymbolTableRecord
100
AcDbRegAppTableRecord
  2
GENIUS_GENOENT_13
 70
     0
  0
APPID
  5
453
330
9
100
AcDbSymbolTableRecord
100
AcDbRegAppTableRecord
  2
GENIUS_GENOBJ-N-CRS_13
 70
     0
  0
APPID
  5
454
330
9
100
AcDbSymbolTableRecord
100
AcDbRegAppTableRecord
  2
GENIUS_GENOLIS_13
 70
     0
  0
APPID
  5
455
330
9
100
AcDbSymbolTableRecord
100
AcDbRegAppTableRecord
  2
GENIUS_GENODEF_13
 70
     0
  0
APPID
  5
456
330
9
100
AcDbSymbolTableRecord
100
AcDbRegAppTableRecord
  2
GENIUS_GENOREF_13
 70
     0
  0
APPID
  5
6F3
330
9
100
AcDbSymbolTableRecord
100
AcDbRegAppTableRecord
  2
ACAD_PSEXT
 70
     0
  0
APPID
  5
808
330
9
100
AcDbSymbolTableRecord
100
AcDbRegAppTableRecord
  2
GENIUS_GENDTOL_13
 70
     0
  0
APPID
  5
10FF
330
9
100
AcDbSymbolTableRecord
100
AcDbRegAppTableRecord
  2
GENIUS_GENREC_14
 70
     0
  0
APPID
  5
1100
330
9
100
AcDbSymbolTableRecord
100
AcDbRegAppTableRecord
  2
GENIUS_GENOBJ-N-REC_13
 70
     0
  0
APPID
  5
1242
330
9
100
AcDbSymbolTableRecord
100
AcDbRegAppTableRecord
  2
GENIUS_GENOBJ-N-CEN_13
 70
     0
  0
APPID
  5
1243
330
9
100
AcDbSymbolTableRecord
100
AcDbRegAppTableRecord
  2
GENIUS_GENCEN_19
 70
     0
  0
APPID
  5
1850
330
9
100
AcDbSymbolTableRecord
100
AcDbRegAppTableRecord
  2
GEVID1193807179
 70
     0
  0
APPID
  5
1851
330
9
100
AcDbSymbolTableRecord
100
AcDbRegAppTableRecord
  2
GEVDC
 70
     0
  0
APPID
  5
1852
330
9
100
AcDbSymbolTableRecord
100
AcDbRegAppTableRecord
  2
GEVRADREF
 70
     0
  0
APPID
  5
185B
330
9
100
AcDbSymbolTableRecord
100
AcDbRegAppTableRecord
  2
AMG_2DHIDE
 70
     0
  0
APPID
  5
185C
330
9
100
AcDbSymbolTableRecord
100
AcDbRegAppTableRecord
  2
AMG_2DSTRUCT_BTR
 70
     0
  0
APPID
  5
186D
330
9
100
AcDbSymbolTableRecord
100
AcDbRegAppTableRecord
  2
ACADM_2DVIEW_IGN_NOTIFY
 70
     0
  0
ENDTAB
  0
TABLE
  2
DIMSTYLE
  5
A
330
0
100
AcDbSymbolTable
 70
    18
100
AcDbDimStyleTable
 71
     3
340
81
340
8B
340
86
  0
DIMSTYLE
105
81
330
A
100
AcDbSymbolTableRecord
100
AcDbDimStyleTableRecord
  2
AM_ISO
 70
     0
  4
"
 41
3.0
 42
1.5
 43
8.0
 44
1.5
 47
0.1
 48
0.1
 73
     0
 74
     0
 77
     1
 78
     8
 79
     2
140
3.5
141
0.0
143
0.0393701
146
0.6
147
1.0
172
     1
176
   256
177
   256
178
   256
271
     2
272
     2
283
     0
284
     8
340
11
371
    -1
372
    -1
  0
DIMSTYLE
105
82
330
A
100
AcDbSymbolTableRecord
100
AcDbDimStyleTableRecord
  2
AM_ISO$3
 70
     0
  4
"
 41
3.0
 42
1.5
 43
8.0
 44
1.5
 47
0.1
 48
0.1
 73
     0
 77
     1
 78
     8
 79
     2
140
3.5
141
0.0
143
0.0393701
146
0.6
147
1.0
176
   256
177
   256
178
   256
271
     2
272
     2
283
     0
284
     8
288
     1
289
     0
340
11
371
    -1
372
    -1
  0
DIMSTYLE
105
83
330
A
100
AcDbSymbolTableRecord
100
AcDbDimStyleTableRecord
  2
AM_ISO$4
 70
     0
  4
"
 41
3.0
 42
1.5
 43
8.0
 44
1.5
 47
0.1
 48
0.1
 73
     0
 77
     1
 78
     8
 79
     2
140
3.5
141
0.0
143
0.0393701
146
0.6
147
1.0
176
   256
177
   256
178
   256
271
     2
272
     2
283
     0
284
     8
288
     1
289
     0
340
11
371
    -1
372
    -1
  0
DIMSTYLE
105
84
330
A
100
AcDbSymbolTableRecord
100
AcDbDimStyleTableRecord
  2
AM_ISO$6
 70
     0
  4
"
 41
3.0
 42
1.5
 43
8.0
 44
1.5
 47
0.1
 48
0.1
 73
     0
 74
     0
 78
     8
 79
     2
140
3.5
141
0.0
143
0.0393701
146
0.6
147
1.0
172
     1
176
   256
177
   256
178
   256
271
     2
272
     2
283
     0
284
     8
340
11
371
    -1
372
    -1
  0
DIMSTYLE
105
85
330
A
100
AcDbSymbolTableRecord
100
AcDbDimStyleTableRecord
  2
AM_ISO$7
 70
     0
  4
"
 41
3.0
 42
1.5
 43
8.0
 44
1.5
 47
0.1
 48
0.1
 73
     0
 74
     0
 77
     1
 78
     8
 79
     2
140
5.0
141
0.0
143
0.0393701
146
0.6
147
1.0
172
     1
176
   256
177
   256
178
   256
271
     2
272
     2
283
     0
284
     8
340
11
371
    -1
372
    -1
  0
DIMSTYLE
105
86
330
A
100
AcDbSymbolTableRecord
100
AcDbDimStyleTableRecord
  2
AM_ISO$SF
 70
     0
  4
"
 41
2.5
 42
1.0
 43
10.0
 44
1.0
 47
0.1
 48
0.1
 73
     0
 74
     0
 75
     1
 76
     1
 77
     1
 78
     8
 79
     2
140
3.5
141
0.0
143
0.0393701
146
0.71
147
1.5
172
     1
176
   256
177
   256
178
     2
271
     2
272
     3
274
     4
283
     0
284
     8
340
11
371
    -1
372
    -1
  0
DIMSTYLE
105
8B
330
A
100
AcDbSymbolTableRecord
100
AcDbDimStyleTableRecord
  2
AM_ISO$SH
 70
     0
  4
"
 41
2.5
 42
1.0
 43
10.0
 44
1.0
 47
0.1
 48
0.1
 73
     0
 74
     0
 75
     1
 76
     1
 77
     1
 78
     8
 79
     2
140
3.5
141
0.0
143
0.0393701
144
2.0
146
0.71
147
1.5
172
     1
173
     1
176
   256
177
   256
178
     2
271
     2
272
     3
274
     4
283
     0
284
     8
340
11
343
87
371
    -1
372
    -1
  0
DIMSTYLE
105
40B
102
{ACAD_REACTORS
330
1434
330
1433
330
1432
330
1430
330
142F
330
1446
330
1445
330
1431
330
1444
330
142C
330
142A
330
1447
330
142D
330
142B
330
142E
330
1441
330
1440
102
}
330
A
100
AcDbSymbolTableRecord
100
AcDbDimStyleTableRecord
  2
AM_ISO$0
 70
     0
  4
"
 41
3.0
 42
1.5
 43
8.0
 44
1.5
 47
0.1
 48
0.1
 73
     0
 74
     0
 77
     1
 78
     8
 79
     2
140
3.5
141
0.0
143
0.0393701
146
0.6
147
1.0
172
     1
176
   256
177
   256
178
   256
271
     2
272
     2
283
     0
284
     8
340
11
371
    -1
372
    -1
  0
DIMSTYLE
105
BA3
330
A
100
AcDbSymbolTableRecord
100
AcDbDimStyleTableRecord
  2
AM_ANSI
 70
     0
  4
mm
 41
0.1
 42
0.05
 43
0.5
 44
0.1
 47
0.1
 48
0.1
 78
     7
 79
     2
140
0.12
141
0.0
146
0.71
147
0.06
176
   256
177
   256
178
     2
274
     4
284
     7
340
11
371
    -1
372
    -1
  0
DIMSTYLE
105
BA4
330
A
100
AcDbSymbolTableRecord
100
AcDbDimStyleTableRecord
  2
AM_ANSI$3
 70
     0
  4
mm
 41
0.1
 42
0.05
 43
0.5
 44
0.1
 47
0.1
 48
0.1
 78
     7
 79
     2
140
0.12
141
0.0
146
0.71
147
0.06
176
   256
177
   256
178
     2
274
     4
284
     7
288
     1
289
     0
340
11
371
    -1
372
    -1
  0
DIMSTYLE
105
BA5
330
A
100
AcDbSymbolTableRecord
100
AcDbDimStyleTableRecord
  2
AM_ANSI$4
 70
     0
  4
mm
 41
0.1
 42
0.05
 43
0.5
 44
0.1
 47
0.1
 48
0.1
 78
     7
 79
     2
140
0.12
141
0.0
146
0.71
147
0.06
176
   256
177
   256
178
     2
274
     4
284
     7
288
     1
289
     0
340
11
371
    -1
372
    -1
  0
DIMSTYLE
105
BA6
330
A
100
AcDbSymbolTableRecord
100
AcDbDimStyleTableRecord
  2
AM_ANSI$7
 70
     0
  4
mm
 41
0.1
 42
0.05
 43
0.5
 44
0.1
 47
0.1
 48
0.1
 78
     7
 79
     2
140
0.24
141
0.0
146
0.71
147
0.06
176
   256
177
   256
178
     2
274
     4
284
     7
340
11
371
    -1
372
    -1
  0
DIMSTYLE
105
BA7
330
A
100
AcDbSymbolTableRecord
100
AcDbDimStyleTableRecord
  2
AM_ANSI$SF
 70
     0
  4
mm
 41
0.1
 42
0.05
 43
0.5
 44
0.1
 47
0.1
 48
0.1
 75
     1
 76
     1
 78
     7
 79
     2
140
0.12
141
0.0
146
0.71
147
0.06
176
   256
177
   256
178
     2
274
     4
284
     7
340
11
371
    -1
372
    -1
  0
DIMSTYLE
105
BA8
330
A
100
AcDbSymbolTableRecord
100
AcDbDimStyleTableRecord
  2
AM_ANSI$SH
 70
     0
  4
mm
 41
0.1
 42
0.05
 43
0.5
 44
0.1
 47
0.1
 48
0.1
 75
     1
 76
     1
 78
     7
 79
     2
140
0.12
141
0.0
146
0.71
147
0.06
173
     1
176
   256
177
   256
178
     2
274
     4
284
     7
340
11
343
87
371
    -1
372
    -1
  0
DIMSTYLE
105
134E
330
A
100
AcDbSymbolTableRecord
100
AcDbDimStyleTableRecord
  2
STANDARD
 70
     0
 73
     0
 74
     0
 77
     1
140
3.0
271
     2
272
     2
279
     2
284
     8
285
     8
286
     8
340
B9E
  0
DIMSTYLE
105
134F
330
A
100
AcDbSymbolTableRecord
100
AcDbDimStyleTableRecord
  2
ISO-25
 70
     0
 41
2.0
 42
1.0
 44
1.0
 73
     0
 74
     0
 77
     1
 78
     8
140
3.0
141
0.0
143
0.03937007874016
147
0.75
171
     3
172
     1
176
   256
177
   256
178
   256
271
     2
272
     2
274
     3
283
     0
284
     8
340
B9E
  0
ENDTAB
  0
TABLE
  2
BLOCK_RECORD
  5
1
330
0
100
AcDbSymbolTable
 70
    30
  0
BLOCK_RECORD
  5
1F
102
{ACAD_XDICTIONARY
360
8F
102
}
330
1
100
AcDbSymbolTableRecord
100
AcDbBlockTableRecord
  2
*Model_Space
340
22
  0
BLOCK_RECORD
  5
1B
330
1
100
AcDbSymbolTableRecord
100
AcDbBlockTableRecord
  2
*Paper_Space
340
1E
  0
BLOCK_RECORD
  5
23
330
1
100
AcDbSymbolTableRecord
100
AcDbBlockTableRecord
  2
*Paper_Space0
340
26
  0
BLOCK_RECORD
  5
87
330
1
100
AcDbSymbolTableRecord
100
AcDbBlockTableRecord
  2
GENAXEH
340
0
  0
BLOCK_RECORD
  5
127F
330
1
100
AcDbSymbolTableRecord
100
AcDbBlockTableRecord
  2
_NONE
340
0
  0
BLOCK_RECORD
  5
144C
330
1
100
AcDbSymbolTableRecord
100
AcDbBlockTableRecord
  2
*D4
340
0
  0
BLOCK_RECORD
  5
1458
330
1
100
AcDbSymbolTableRecord
100
AcDbBlockTableRecord
  2
*D5
340
0
  0
BLOCK_RECORD
  5
1464
330
1
100
AcDbSymbolTableRecord
100
AcDbBlockTableRecord
  2
*D6
340
0
  0
BLOCK_RECORD
  5
1470
330
1
100
AcDbSymbolTableRecord
100
AcDbBlockTableRecord
  2
*D7
340
0
  0
BLOCK_RECORD
  5
147C
330
1
100
AcDbSymbolTableRecord
100
AcDbBlockTableRecord
  2
*D8
340
0
  0
BLOCK_RECORD
  5
1488
330
1
100
AcDbSymbolTableRecord
100
AcDbBlockTableRecord
  2
*D9
340
0
  0
BLOCK_RECORD
  5
1494
330
1
100
AcDbSymbolTableRecord
100
AcDbBlockTableRecord
  2
*D10
340
0
  0
BLOCK_RECORD
  5
149F
330
1
100
AcDbSymbolTableRecord
100
AcDbBlockTableRecord
  2
*D11
340
0
  0
BLOCK_RECORD
  5
14AB
330
1
100
AcDbSymbolTableRecord
100
AcDbBlockTableRecord
  2
*D12
340
0
  0
BLOCK_RECORD
  5
14B7
330
1
100
AcDbSymbolTableRecord
100
AcDbBlockTableRecord
  2
*D13
340
0
  0
BLOCK_RECORD
  5
14C2
330
1
100
AcDbSymbolTableRecord
100
AcDbBlockTableRecord
  2
*D14
340
0
  0
BLOCK_RECORD
  5
14CD
330
1
100
AcDbSymbolTableRecord
100
AcDbBlockTableRecord
  2
*D15
340
0
  0
BLOCK_RECORD
  5
14D9
330
1
100
AcDbSymbolTableRecord
100
AcDbBlockTableRecord
  2
*D16
340
0
  0
BLOCK_RECORD
  5
14E5
330
1
100
AcDbSymbolTableRecord
100
AcDbBlockTableRecord
  2
*D17
340
0
  0
BLOCK_RECORD
  5
14F1
330
1
100
AcDbSymbolTableRecord
100
AcDbBlockTableRecord
  2
*D18
340
0
  0
BLOCK_RECORD
  5
14FD
330
1
100
AcDbSymbolTableRecord
100
AcDbBlockTableRecord
  2
*D19
340
0
  0
BLOCK_RECORD
  5
1509
330
1
100
AcDbSymbolTableRecord
100
AcDbBlockTableRecord
  2
*D20
340
0
  0
BLOCK_RECORD
  5
1872
330
1
100
AcDbSymbolTableRecord
100
AcDbBlockTableRecord
  2
*U22
340
0
  0
BLOCK_RECORD
  5
1C13
330
1
100
AcDbSymbolTableRecord
100
AcDbBlockTableRecord
  2
*S25
340
0
  0
BLOCK_RECORD
  5
1C1B
330
1
100
AcDbSymbolTableRecord
100
AcDbBlockTableRecord
  2
*S26
340
0
  0
BLOCK_RECORD
  5
1C23
330
1
100
AcDbSymbolTableRecord
100
AcDbBlockTableRecord
  2
*S27
340
0
  0
BLOCK_RECORD
  5
1C2B
330
1
100
AcDbSymbolTableRecord
100
AcDbBlockTableRecord
  2
*S28
340
0
  0
BLOCK_RECORD
  5
1C33
330
1
100
AcDbSymbolTableRecord
100
AcDbBlockTableRecord
  2
*S29
340
0
  0
ENDTAB
  0
ENDSEC
  0
SECTION
  2
BLOCKS
  0
BLOCK
  5
20
330
1F
100
AcDbEntity
  8
0
100
AcDbBlockBegin
  2
*Model_Space
 70
     0
 10
0.0
 20
0.0
 30
0.0
  3
*Model_Space
  1

  0
ENDBLK
  5
21
330
1F
100
AcDbEntity
  8
0
100
AcDbBlockEnd
  0
BLOCK
  5
1C
330
1B
100
AcDbEntity
 67
     1
  8
0
100
AcDbBlockBegin
  2
*Paper_Space
 70
     0
 10
0.0
 20
0.0
 30
0.0
  3
*Paper_Space
  1

  0
ENDBLK
  5
1D
330
1B
100
AcDbEntity
 67
     1
  8
0
100
AcDbBlockEnd
  0
BLOCK
  5
24
330
23
100
AcDbEntity
  8
0
100
AcDbBlockBegin
  2
*Paper_Space0
 70
     0
 10
0.0
 20
0.0
 30
0.0
  3
*Paper_Space0
  1

  0
ENDBLK
  5
25
330
23
100
AcDbEntity
  8
0
100
AcDbBlockEnd
  0
BLOCK
  5
89
330
87
100
AcDbEntity
  8
0
100
AcDbBlockBegin
  2
GENAXEH
 70
     0
 10
0.0
 20
0.0
 30
0.0
  3
GENAXEH
  1

  0
LINE
  5
88
330
87
100
AcDbEntity
  8
0
100
AcDbLine
 10
-1.0
 20
0.0
 30
0.0
 11
1.0
 21
0.0
 31
0.0
  0
ENDBLK
  5
8A
330
87
100
AcDbEntity
  8
0
100
AcDbBlockEnd
  0
BLOCK
  5
1280
330
127F
100
AcDbEntity
  8
0
100
AcDbBlockBegin
  2
_NONE
 70
     0
 10
0.0
 20
0.0
 30
0.0
  3
_NONE
  1

  0
CIRCLE
  5
1281
330
127F
100
AcDbEntity
  8
0
  6
ByBlock
 62
     0
100
AcDbCircle
 10
0.0
 20
0.0
 30
0.0
 40
0.25
  0
ENDBLK
  5
1282
330
127F
100
AcDbEntity
  8
0
100
AcDbBlockEnd
  0
BLOCK
  5
1456
330
144C
100
AcDbEntity
  8
0
100
AcDbBlockBegin
  2
*D4
 70
     1
 10
0.0
 20
0.0
 30
0.0
  3
*D4
  1

  0
LINE
  5
1B1E
330
144C
100
AcDbEntity
  8
AM_5
100
AcDbLine
 10
324.7114185426009
 20
183.0190059119539
 30
0.0
 11
324.7114185426009
 21
197.8097422040176
 31
0.0
  0
LINE
  5
1B1F
330
144C
100
AcDbEntity
  8
AM_5
100
AcDbLine
 10
336.7114185426009
 20
179.4564601066575
 30
0.0
 11
336.7114185426009
 21
197.8097422040176
 31
0.0
  0
LINE
  5
1B20
330
144C
100
AcDbEntity
  8
AM_5
100
AcDbLine
 10
327.7114185426009
 20
196.3097422040176
 30
0.0
 11
333.7114185426009
 21
196.3097422040176
 31
0.0
  0
SOLID
  5
1B21
330
144C
100
AcDbEntity
  8
AM_5
100
AcDbTrace
 10
327.7114185426009
 20
196.8097422040176
 30
0.0
 11
327.7114185426009
 21
195.8097422040176
 31
0.0
 12
324.7114185426009
 22
196.3097422040176
 32
0.0
 13
324.7114185426009
 23
196.3097422040176
 33
0.0
  0
SOLID
  5
1B22
330
144C
100
AcDbEntity
  8
AM_5
100
AcDbTrace
 10
333.7114185426009
 20
196.8097422040176
 30
0.0
 11
333.7114185426009
 21
195.8097422040176
 31
0.0
 12
336.7114185426009
 22
196.3097422040176
 32
0.0
 13
336.7114185426009
 23
196.3097422040176
 33
0.0
  0
MTEXT
  5
1B23
330
144C
100
AcDbEntity
  8
AM_5
100
AcDbMText
 10
330.7114185426009
 20
199.0600866922066
 30
0.0
 40
3.5
 41
0.0
 71
     5
 72
     1
  1
12
 73
     1
 44
1.0
1001
ACAD
1000
MTEXTBEGIN
1070
    73
1070
     1
1070
    44
1040
1.0
1070
    74
1070
     0
1000
MTEXTEND
  0
POINT
  5
1B24
330
144C
100
AcDbEntity
  8
DEFPOINTS
 62
     0
100
AcDbPoint
 10
324.7114185426009
 20
181.5190059119539
 30
0.0
  0
POINT
  5
1B25
330
144C
100
AcDbEntity
  8
DEFPOINTS
 62
     0
100
AcDbPoint
 10
336.7114185426009
 20
177.9564601066575
 30
0.0
  0
POINT
  5
1B26
330
144C
100
AcDbEntity
  8
DEFPOINTS
 62
     0
100
AcDbPoint
 10
336.7114185426009
 20
196.3097422040176
 30
0.0
  0
ENDBLK
  5
1457
330
144C
100
AcDbEntity
  8
0
100
AcDbBlockEnd
  0
BLOCK
  5
1462
330
1458
100
AcDbEntity
  8
0
100
AcDbBlockBegin
  2
*D5
 70
     1
 10
0.0
 20
0.0
 30
0.0
  3
*D5
  1

  0
LINE
  5
1B27
330
1458
100
AcDbEntity
  8
AM_5
100
AcDbLine
 10
324.7114185426009
 20
183.0190059119539
 30
0.0
 11
324.7114185426009
 21
197.8097422040176
 31
0.0
  0
LINE
  5
1B28
330
1458
100
AcDbEntity
  8
AM_5
100
AcDbLine
 10
317.7114185426009
 20
183.8097422040176
 30
0.0
 11
317.7114185426009
 21
197.8097422040176
 31
0.0
  0
LINE
  5
1B29
330
1458
100
AcDbEntity
  8
AM_5
100
AcDbLine
 10
327.7114185426009
 20
196.3097422040176
 30
0.0
 11
330.7114185426009
 21
196.3097422040176
 31
0.0
  0
LINE
  5
1B2A
330
1458
100
AcDbEntity
  8
AM_5
100
AcDbLine
 10
314.7114185426009
 20
196.3097422040176
 30
0.0
 11
311.7114185426009
 21
196.3097422040176
 31
0.0
  0
LINE
  5
1B2B
330
1458
100
AcDbEntity
  8
AM_5
100
AcDbLine
 10
324.7114185426009
 20
196.3097422040176
 30
0.0
 11
317.7114185426009
 21
196.3097422040176
 31
0.0
  0
SOLID
  5
1B2C
330
1458
100
AcDbEntity
  8
AM_5
100
AcDbTrace
 10
327.7114185426009
 20
196.8097422040176
 30
0.0
 11
327.7114185426009
 21
195.8097422040176
 31
0.0
 12
324.7114185426009
 22
196.3097422040176
 32
0.0
 13
324.7114185426009
 23
196.3097422040176
 33
0.0
  0
SOLID
  5
1B2D
330
1458
100
AcDbEntity
  8
AM_5
100
AcDbTrace
 10
314.7114185426009
 20
196.8097422040176
 30
0.0
 11
314.7114185426009
 21
195.8097422040176
 31
0.0
 12
317.7114185426009
 22
196.3097422040176
 32
0.0
 13
317.7114185426009
 23
196.3097422040176
 33
0.0
  0
MTEXT
  5
1B2E
330
1458
100
AcDbEntity
  8
AM_5
100
AcDbMText
 10
321.2114185426009
 20
199.0597422040176
 30
0.0
 40
3.5
 41
0.0
 71
     5
 72
     1
  1
7
 73
     1
 44
1.0
1001
ACAD
1000
MTEXTBEGIN
1070
    73
1070
     1
1070
    44
1040
1.0
1070
    74
1070
     0
1000
MTEXTEND
  0
POINT
  5
1B2F
330
1458
100
AcDbEntity
  8
DEFPOINTS
 62
     0
100
AcDbPoint
 10
324.7114185426009
 20
181.5190059119539
 30
0.0
  0
POINT
  5
1B30
330
1458
100
AcDbEntity
  8
DEFPOINTS
 62
     0
100
AcDbPoint
 10
317.7114185426009
 20
182.3097422040176
 30
0.0
  0
POINT
  5
1B31
330
1458
100
AcDbEntity
  8
DEFPOINTS
 62
     0
100
AcDbPoint
 10
317.7114185426009
 20
196.3097422040176
 30
0.0
  0
ENDBLK
  5
1463
330
1458
100
AcDbEntity
  8
0
100
AcDbBlockEnd
  0
BLOCK
  5
146E
330
1464
100
AcDbEntity
  8
0
100
AcDbBlockBegin
  2
*D6
 70
     1
 10
0.0
 20
0.0
 30
0.0
  3
*D6
  1

  0
LINE
  5
1B32
330
1464
100
AcDbEntity
  8
AM_5
100
AcDbLine
 10
317.7114185426009
 20
191.1576766713588
 30
0.0
 11
317.7114185426009
 21
205.8097422040177
 31
0.0
  0
LINE
  5
1B33
330
1464
100
AcDbEntity
  8
AM_5
100
AcDbLine
 10
360.7114185426009
 20
183.8097422040176
 30
0.0
 11
360.7114185426009
 21
205.8097422040177
 31
0.0
  0
LINE
  5
1B34
330
1464
100
AcDbEntity
  8
AM_5
100
AcDbLine
 10
320.7114185426009
 20
204.3097422040176
 30
0.0
 11
357.7114185426009
 21
204.3097422040176
 31
0.0
  0
SOLID
  5
1B35
330
1464
100
AcDbEntity
  8
AM_5
100
AcDbTrace
 10
320.7114185426009
 20
204.8097422040176
 30
0.0
 11
320.7114185426009
 21
203.8097422040177
 31
0.0
 12
317.7114185426009
 22
204.3097422040176
 32
0.0
 13
317.7114185426009
 23
204.3097422040176
 33
0.0
  0
SOLID
  5
1B36
330
1464
100
AcDbEntity
  8
AM_5
100
AcDbTrace
 10
357.7114185426009
 20
204.8097422040176
 30
0.0
 11
357.7114185426009
 21
203.8097422040177
 31
0.0
 12
360.7114185426009
 22
204.3097422040176
 32
0.0
 13
360.7114185426009
 23
204.3097422040176
 33
0.0
  0
MTEXT
  5
1B37
330
1464
100
AcDbEntity
  8
AM_5
100
AcDbMText
 10
339.2114185426009
 20
207.0597422040176
 30
0.0
 40
3.5
 41
0.0
 71
     5
 72
     1
  1
43
 73
     1
 44
1.0
1001
ACAD
1000
MTEXTBEGIN
1070
    73
1070
     1
1070
    44
1040
1.0
1070
    74
1070
     0
1000
MTEXTEND
  0
POINT
  5
1B38
330
1464
100
AcDbEntity
  8
DEFPOINTS
 62
     0
100
AcDbPoint
 10
317.7114185426009
 20
189.6576766713588
 30
0.0
  0
POINT
  5
1B39
330
1464
100
AcDbEntity
  8
DEFPOINTS
 62
     0
100
AcDbPoint
 10
360.7114185426009
 20
182.3097422040176
 30
0.0
  0
POINT
  5
1B3A
330
1464
100
AcDbEntity
  8
DEFPOINTS
 62
     0
100
AcDbPoint
 10
360.7114185426009
 20
204.3097422040176
 30
0.0
  0
ENDBLK
  5
146F
330
1464
100
AcDbEntity
  8
0
100
AcDbBlockEnd
  0
BLOCK
  5
147A
330
1470
100
AcDbEntity
  8
0
100
AcDbBlockBegin
  2
*D7
 70
     1
 10
0.0
 20
0.0
 30
0.0
  3
*D7
  1

  0
LINE
  5
1B3B
330
1470
100
AcDbEntity
  8
AM_5
100
AcDbLine
 10
318.2114185426009
 20
184.3097422040176
 30
0.0
 11
304.2114185426009
 21
184.3097422040176
 31
0.0
  0
LINE
  5
1B3C
330
1470
100
AcDbEntity
  8
AM_5
100
AcDbLine
 10
319.8835824309512
 20
177.3097422040176
 30
0.0
 11
304.2114185426009
 21
177.3097422040176
 31
0.0
  0
LINE
  5
1B3D
330
1470
100
AcDbEntity
  8
AM_5
100
AcDbLine
 10
305.7114185426009
 20
187.3097422040176
 30
0.0
 11
305.7114185426009
 21
190.3097422040176
 31
0.0
  0
LINE
  5
1B3E
330
1470
100
AcDbEntity
  8
AM_5
100
AcDbLine
 10
305.7114185426009
 20
174.3097422040176
 30
0.0
 11
305.7114185426009
 21
171.3097422040176
 31
0.0
  0
LINE
  5
1B3F
330
1470
100
AcDbEntity
  8
AM_5
100
AcDbLine
 10
305.7114185426009
 20
184.3097422040176
 30
0.0
 11
305.7114185426009
 21
177.3097422040176
 31
0.0
  0
SOLID
  5
1B40
330
1470
100
AcDbEntity
  8
AM_5
100
AcDbTrace
 10
305.2114185426009
 20
187.3097422040176
 30
0.0
 11
306.2114185426009
 21
187.3097422040176
 31
0.0
 12
305.7114185426009
 22
184.3097422040176
 32
0.0
 13
305.7114185426009
 23
184.3097422040176
 33
0.0
  0
SOLID
  5
1B41
330
1470
100
AcDbEntity
  8
AM_5
100
AcDbTrace
 10
305.2114185426009
 20
174.3097422040176
 30
0.0
 11
306.2114185426009
 21
174.3097422040176
 31
0.0
 12
305.7114185426009
 22
177.3097422040176
 32
0.0
 13
305.7114185426009
 23
177.3097422040176
 33
0.0
  0
MTEXT
  5
1B42
330
1470
100
AcDbEntity
  8
AM_5
100
AcDbMText
 10
302.9614185426008
 20
180.8097422040177
 30
0.0
 40
3.5
 41
0.0
 71
     5
 72
     1
  1
7
 11
0.0000000000000001
 21
1.0
 31
0.0
 73
     1
 44
1.0
1001
ACAD
1000
MTEXTBEGIN
1070
    73
1070
     1
1070
    44
1040
1.0
1070
    74
1070
     0
1000
MTEXTEND
  0
POINT
  5
1B43
330
1470
100
AcDbEntity
  8
DEFPOINTS
 62
     0
100
AcDbPoint
 10
319.7114185426009
 20
184.3097422040176
 30
0.0
  0
POINT
  5
1B44
330
1470
100
AcDbEntity
  8
DEFPOINTS
 62
     0
100
AcDbPoint
 10
321.3835824309513
 20
177.3097422040176
 30
0.0
  0
POINT
  5
1B45
330
1470
100
AcDbEntity
  8
DEFPOINTS
 62
     0
100
AcDbPoint
 10
305.7114185426009
 20
177.3097422040176
 30
0.0
  0
ENDBLK
  5
147B
330
1470
100
AcDbEntity
  8
0
100
AcDbBlockEnd
  0
BLOCK
  5
1486
330
147C
100
AcDbEntity
  8
0
100
AcDbBlockBegin
  2
*D8
 70
     1
 10
0.0
 20
0.0
 30
0.0
  3
*D8
  1

  0
LINE
  5
1B46
330
147C
100
AcDbEntity
  8
AM_5
100
AcDbLine
 10
360.2114185426009
 20
184.3097422040176
 30
0.0
 11
374.2114185426009
 21
184.3097422040176
 31
0.0
  0
LINE
  5
1B47
330
147C
100
AcDbEntity
  8
AM_5
100
AcDbLine
 10
353.8575714249149
 20
143.3097422040176
 30
0.0
 11
374.2114185426009
 21
143.3097422040176
 31
0.0
  0
LINE
  5
1B48
330
147C
100
AcDbEntity
  8
AM_5
100
AcDbLine
 10
372.7114185426009
 20
181.3097422040176
 30
0.0
 11
372.7114185426009
 21
146.3097422040176
 31
0.0
  0
SOLID
  5
1B49
330
147C
100
AcDbEntity
  8
AM_5
100
AcDbTrace
 10
372.2114185426009
 20
181.3097422040176
 30
0.0
 11
373.2114185426009
 21
181.3097422040176
 31
0.0
 12
372.7114185426009
 22
184.3097422040176
 32
0.0
 13
372.7114185426009
 23
184.3097422040176
 33
0.0
  0
SOLID
  5
1B4A
330
147C
100
AcDbEntity
  8
AM_5
100
AcDbTrace
 10
372.2114185426009
 20
146.3097422040176
 30
0.0
 11
373.2114185426009
 21
146.3097422040176
 31
0.0
 12
372.7114185426009
 22
143.3097422040176
 32
0.0
 13
372.7114185426009
 23
143.3097422040176
 33
0.0
  0
MTEXT
  5
1B4B
330
147C
100
AcDbEntity
  8
AM_5
100
AcDbMText
 10
369.9614185426008
 20
163.8097422040176
 30
0.0
 40
3.5
 41
0.0
 71
     5
 72
     1
  1
41
 11
0.0000000000000001
 21
1.0
 31
0.0
 73
     1
 44
1.0
1001
ACAD
1000
MTEXTBEGIN
1070
    73
1070
     1
1070
    44
1040
1.0
1070
    74
1070
     0
1000
MTEXTEND
  0
POINT
  5
1B4C
330
147C
100
AcDbEntity
  8
DEFPOINTS
 62
     0
100
AcDbPoint
 10
358.7114185426009
 20
184.3097422040176
 30
0.0
  0
POINT
  5
1B4D
330
147C
100
AcDbEntity
  8
DEFPOINTS
 62
     0
100
AcDbPoint
 10
352.3575714249149
 20
143.3097422040176
 30
0.0
  0
POINT
  5
1B4E
330
147C
100
AcDbEntity
  8
DEFPOINTS
 62
     0
100
AcDbPoint
 10
372.7114185426009
 20
143.3097422040176
 30
0.0
  0
ENDBLK
  5
1487
330
147C
100
AcDbEntity
  8
0
100
AcDbBlockEnd
  0
BLOCK
  5
1492
330
1488
100
AcDbEntity
  8
0
100
AcDbBlockBegin
  2
*D9
 70
     1
 10
0.0
 20
0.0
 30
0.0
  3
*D9
  1

  0
LINE
  5
1AB3
330
1488
100
AcDbEntity
  8
AM_5
100
AcDbLine
 10
253.7583027316241
 20
184.3097422040176
 30
0.0
 11
265.7583027316241
 21
184.3097422040176
 31
0.0
  0
LINE
  5
1AB4
330
1488
100
AcDbEntity
  8
AM_5
100
AcDbLine
 10
253.7583027316241
 20
150.3097422040176
 30
0.0
 11
265.7583027316241
 21
150.3097422040176
 31
0.0
  0
LINE
  5
1AB5
330
1488
100
AcDbEntity
  8
AM_5
100
AcDbLine
 10
264.2583027316241
 20
181.3097422040176
 30
0.0
 11
264.2583027316241
 21
153.3097422040176
 31
0.0
  0
SOLID
  5
1AB6
330
1488
100
AcDbEntity
  8
AM_5
100
AcDbTrace
 10
263.7583027316241
 20
181.3097422040176
 30
0.0
 11
264.7583027316241
 21
181.3097422040176
 31
0.0
 12
264.2583027316241
 22
184.3097422040176
 32
0.0
 13
264.2583027316241
 23
184.3097422040176
 33
0.0
  0
SOLID
  5
1AB7
330
1488
100
AcDbEntity
  8
AM_5
100
AcDbTrace
 10
263.7583027316241
 20
153.3097422040176
 30
0.0
 11
264.7583027316241
 21
153.3097422040176
 31
0.0
 12
264.2583027316241
 22
150.3097422040176
 32
0.0
 13
264.2583027316241
 23
150.3097422040176
 33
0.0
  0
MTEXT
  5
1AB8
330
1488
100
AcDbEntity
  8
AM_5
100
AcDbMText
 10
261.5083027316241
 20
167.3097422040176
 30
0.0
 40
3.5
 41
0.0
 71
     5
 72
     1
  1
34
 11
0.0000000000000001
 21
1.0
 31
0.0
 73
     1
 44
1.0
1001
ACAD
1000
MTEXTBEGIN
1070
    73
1070
     1
1070
    44
1040
1.0
1070
    74
1070
     0
1000
MTEXTEND
  0
POINT
  5
1AB9
330
1488
100
AcDbEntity
  8
DEFPOINTS
 62
     0
100
AcDbPoint
 10
252.2583027316241
 20
184.3097422040176
 30
0.0
  0
POINT
  5
1ABA
330
1488
100
AcDbEntity
  8
DEFPOINTS
 62
     0
100
AcDbPoint
 10
252.2583027316241
 20
150.3097422040176
 30
0.0
  0
POINT
  5
1ABB
330
1488
100
AcDbEntity
  8
DEFPOINTS
 62
     0
100
AcDbPoint
 10
264.2583027316241
 20
150.3097422040176
 30
0.0
  0
ENDBLK
  5
1493
330
1488
100
AcDbEntity
  8
0
100
AcDbBlockEnd
  0
BLOCK
  5
149D
330
1494
100
AcDbEntity
  8
0
100
AcDbBlockBegin
  2
*D10
 70
     1
 10
0.0
 20
0.0
 30
0.0
  3
*D10
  1

  0
LINE
  5
1ABC
330
1494
100
AcDbEntity
  8
AM_5
100
AcDbLine
 10
261.3712873264699
 20
150.3097422040176
 30
0.0
 11
265.7583027316241
 21
150.3097422040176
 31
0.0
  0
LINE
  5
1ABD
330
1494
100
AcDbEntity
  8
AM_5
100
AcDbLine
 10
248.7583027316241
 20
138.3097422040176
 30
0.0
 11
265.7583027316241
 21
138.3097422040176
 31
0.0
  0
LINE
  5
1ABE
330
1494
100
AcDbEntity
  8
AM_5
100
AcDbLine
 10
264.2583027316241
 20
147.3097422040176
 30
0.0
 11
264.2583027316241
 21
141.3097422040176
 31
0.0
  0
SOLID
  5
1ABF
330
1494
100
AcDbEntity
  8
AM_5
100
AcDbTrace
 10
263.7583027316241
 20
147.3097422040176
 30
0.0
 11
264.7583027316241
 21
147.3097422040176
 31
0.0
 12
264.2583027316241
 22
150.3097422040176
 32
0.0
 13
264.2583027316241
 23
150.3097422040176
 33
0.0
  0
SOLID
  5
1AC0
330
1494
100
AcDbEntity
  8
AM_5
100
AcDbTrace
 10
263.7583027316241
 20
141.3097422040176
 30
0.0
 11
264.7583027316241
 21
141.3097422040176
 31
0.0
 12
264.2583027316241
 22
138.3097422040176
 32
0.0
 13
264.2583027316241
 23
138.3097422040176
 33
0.0
  0
MTEXT
  5
1AC1
330
1494
100
AcDbEntity
  8
AM_5
100
AcDbMText
 10
261.5079582434351
 20
144.3097422040176
 30
0.0
 40
3.5
 41
0.0
 71
     5
 72
     1
  1
12
 11
0.0000000000000001
 21
1.0
 31
0.0
 73
     1
 44
1.0
1001
ACAD
1000
MTEXTBEGIN
1070
    73
1070
     1
1070
    44
1040
1.0
1070
    74
1070
     0
1000
MTEXTEND
  0
POINT
  5
1AC2
330
1494
100
AcDbEntity
  8
DEFPOINTS
 62
     0
100
AcDbPoint
 10
259.8712873264699
 20
150.3097422040176
 30
0.0
  0
POINT
  5
1AC3
330
1494
100
AcDbEntity
  8
DEFPOINTS
 62
     0
100
AcDbPoint
 10
247.2583027316241
 20
138.3097422040176
 30
0.0
  0
POINT
  5
1AC4
330
1494
100
AcDbEntity
  8
DEFPOINTS
 62
     0
100
AcDbPoint
 10
264.2583027316241
 20
138.3097422040176
 30
0.0
  0
ENDBLK
  5
149E
330
1494
100
AcDbEntity
  8
0
100
AcDbBlockEnd
  0
BLOCK
  5
14A9
330
149F
100
AcDbEntity
  8
0
100
AcDbBlockBegin
  2
*D11
 70
     1
 10
0.0
 20
0.0
 30
0.0
  3
*D11
  1

  0
LINE
  5
1AC5
330
149F
100
AcDbEntity
  8
AM_5
100
AcDbLine
 10
190.5682298216165
 20
170.8097422040176
 30
0.0
 11
168.758302731624
 21
170.8097422040176
 31
0.0
  0
LINE
  5
1AC6
330
149F
100
AcDbEntity
  8
AM_5
100
AcDbLine
 10
180.758302731624
 20
184.3097422040176
 30
0.0
 11
168.758302731624
 21
184.3097422040176
 31
0.0
  0
LINE
  5
1AC7
330
149F
100
AcDbEntity
  8
AM_5
100
AcDbLine
 10
170.258302731624
 20
173.8097422040176
 30
0.0
 11
170.258302731624
 21
181.3097422040176
 31
0.0
  0
SOLID
  5
1AC8
330
149F
100
AcDbEntity
  8
AM_5
100
AcDbTrace
 10
169.758302731624
 20
173.8097422040176
 30
0.0
 11
170.758302731624
 21
173.8097422040176
 31
0.0
 12
170.258302731624
 22
170.8097422040176
 32
0.0
 13
170.258302731624
 23
170.8097422040176
 33
0.0
  0
SOLID
  5
1AC9
330
149F
100
AcDbEntity
  8
AM_5
100
AcDbTrace
 10
169.758302731624
 20
181.3097422040176
 30
0.0
 11
170.758302731624
 21
181.3097422040176
 31
0.0
 12
170.258302731624
 22
184.3097422040176
 32
0.0
 13
170.258302731624
 23
184.3097422040176
 33
0.0
  0
MTEXT
  5
1ACA
330
149F
100
AcDbEntity
  8
AM_5
100
AcDbMText
 10
167.508302731624
 20
177.5597422040176
 30
0.0
 40
3.5
 41
0.0
 71
     5
 72
     1
  1
13.5
 11
0.0000000000000001
 21
1.0
 31
0.0
 73
     1
 44
1.0
1001
ACAD
1000
MTEXTBEGIN
1070
    73
1070
     1
1070
    44
1040
1.0
1070
    74
1070
     0
1000
MTEXTEND
  0
POINT
  5
1ACB
330
149F
100
AcDbEntity
  8
DEFPOINTS
 62
     0
100
AcDbPoint
 10
192.0682298216165
 20
170.8097422040176
 30
0.0
  0
POINT
  5
1ACC
330
149F
100
AcDbEntity
  8
DEFPOINTS
 62
     0
100
AcDbPoint
 10
182.258302731624
 20
184.3097422040176
 30
0.0
  0
POINT
  5
1ACD
330
149F
100
AcDbEntity
  8
DEFPOINTS
 62
     0
100
AcDbPoint
 10
170.258302731624
 20
184.3097422040176
 30
0.0
  0
ENDBLK
  5
14AA
330
149F
100
AcDbEntity
  8
0
100
AcDbBlockEnd
  0
BLOCK
  5
14B5
330
14AB
100
AcDbEntity
  8
0
100
AcDbBlockBegin
  2
*D12
 70
     1
 10
0.0
 20
0.0
 30
0.0
  3
*D12
  1

  0
LINE
  5
1ACE
330
14AB
100
AcDbEntity
  8
AM_5
100
AcDbLine
 10
187.258302731624
 20
136.8097422040176
 30
0.0
 11
187.258302731624
 21
124.8097422040176
 31
0.0
  0
LINE
  5
1ACF
330
14AB
100
AcDbEntity
  8
AM_5
100
AcDbLine
 10
197.258302731624
 20
136.8097422040176
 30
0.0
 11
197.258302731624
 21
124.8097422040176
 31
0.0
  0
LINE
  5
1AD0
330
14AB
100
AcDbEntity
  8
AM_5
100
AcDbLine
 10
190.258302731624
 20
126.3097422040176
 30
0.0
 11
194.258302731624
 21
126.3097422040176
 31
0.0
  0
SOLID
  5
1AD1
330
14AB
100
AcDbEntity
  8
AM_5
100
AcDbTrace
 10
190.258302731624
 20
126.8097422040176
 30
0.0
 11
190.258302731624
 21
125.8097422040176
 31
0.0
 12
187.258302731624
 22
126.3097422040176
 32
0.0
 13
187.258302731624
 23
126.3097422040176
 33
0.0
  0
SOLID
  5
1AD2
330
14AB
100
AcDbEntity
  8
AM_5
100
AcDbTrace
 10
194.258302731624
 20
126.8097422040176
 30
0.0
 11
194.258302731624
 21
125.8097422040176
 31
0.0
 12
197.258302731624
 22
126.3097422040176
 32
0.0
 13
197.258302731624
 23
126.3097422040176
 33
0.0
  0
MTEXT
  5
1AD3
330
14AB
100
AcDbEntity
  8
AM_5
100
AcDbMText
 10
192.258302731624
 20
129.0597422040176
 30
0.0
 40
3.5
 41
0.0
 71
     5
 72
     1
  1
10
 73
     1
 44
1.0
1001
ACAD
1000
MTEXTBEGIN
1070
    73
1070
     1
1070
    44
1040
1.0
1070
    74
1070
     0
1000
MTEXTEND
  0
POINT
  5
1AD4
330
14AB
100
AcDbEntity
  8
DEFPOINTS
 62
     0
100
AcDbPoint
 10
187.258302731624
 20
138.3097422040176
 30
0.0
  0
POINT
  5
1AD5
330
14AB
100
AcDbEntity
  8
DEFPOINTS
 62
     0
100
AcDbPoint
 10
197.258302731624
 20
138.3097422040176
 30
0.0
  0
POINT
  5
1AD6
330
14AB
100
AcDbEntity
  8
DEFPOINTS
 62
     0
100
AcDbPoint
 10
197.258302731624
 20
126.3097422040176
 30
0.0
  0
ENDBLK
  5
14B6
330
14AB
100
AcDbEntity
  8
0
100
AcDbBlockEnd
  0
BLOCK
  5
14C0
330
14B7
100
AcDbEntity
  8
0
100
AcDbBlockBegin
  2
*D13
 70
     1
 10
0.0
 20
0.0
 30
0.0
  3
*D13
  1

  0
LINE
  5
1AD7
330
14B7
100
AcDbEntity
  8
AM_5
100
AcDbLine
 10
197.258302731624
 20
128.9424645528119
 30
0.0
 11
197.258302731624
 21
124.8097422040176
 31
0.0
  0
LINE
  5
1AD8
330
14B7
100
AcDbEntity
  8
AM_5
100
AcDbLine
 10
237.2583027316241
 20
136.8097422040176
 30
0.0
 11
237.2583027316241
 21
124.8097422040176
 31
0.0
  0
LINE
  5
1AD9
330
14B7
100
AcDbEntity
  8
AM_5
100
AcDbLine
 10
200.258302731624
 20
126.3097422040176
 30
0.0
 11
234.2583027316241
 21
126.3097422040176
 31
0.0
  0
SOLID
  5
1ADA
330
14B7
100
AcDbEntity
  8
AM_5
100
AcDbTrace
 10
200.258302731624
 20
126.8097422040176
 30
0.0
 11
200.258302731624
 21
125.8097422040176
 31
0.0
 12
197.258302731624
 22
126.3097422040176
 32
0.0
 13
197.258302731624
 23
126.3097422040176
 33
0.0
  0
SOLID
  5
1ADB
330
14B7
100
AcDbEntity
  8
AM_5
100
AcDbTrace
 10
234.2583027316241
 20
126.8097422040176
 30
0.0
 11
234.2583027316241
 21
125.8097422040176
 31
0.0
 12
237.2583027316241
 22
126.3097422040176
 32
0.0
 13
237.2583027316241
 23
126.3097422040176
 33
0.0
  0
MTEXT
  5
1ADC
330
14B7
100
AcDbEntity
  8
AM_5
100
AcDbMText
 10
217.2583027316241
 20
129.0597422040176
 30
0.0
 40
3.5
 41
0.0
 71
     5
 72
     1
  1
MAX40
 73
     1
 44
1.0
1001
ACAD
1000
MTEXTBEGIN
1070
    73
1070
     1
1070
    44
1040
1.0
1070
    74
1070
     0
1000
MTEXTEND
  0
POINT
  5
1ADD
330
14B7
100
AcDbEntity
  8
DEFPOINTS
 62
     0
100
AcDbPoint
 10
197.258302731624
 20
130.4424645528118
 30
0.0
  0
POINT
  5
1ADE
330
14B7
100
AcDbEntity
  8
DEFPOINTS
 62
     0
100
AcDbPoint
 10
237.2583027316241
 20
138.3097422040176
 30
0.0
  0
POINT
  5
1ADF
330
14B7
100
AcDbEntity
  8
DEFPOINTS
 62
     0
100
AcDbPoint
 10
237.2583027316241
 20
126.3097422040176
 30
0.0
  0
ENDBLK
  5
14C1
330
14B7
100
AcDbEntity
  8
0
100
AcDbBlockEnd
  0
BLOCK
  5
14CB
330
14C2
100
AcDbEntity
  8
0
100
AcDbBlockBegin
  2
*D14
 70
     1
 10
0.0
 20
0.0
 30
0.0
  3
*D14
  1

  0
LINE
  5
1AE0
330
14C2
100
AcDbEntity
  8
AM_5
100
AcDbLine
 10
237.2583027316241
 20
128.9424645528119
 30
0.0
 11
237.2583027316241
 21
124.8097422040176
 31
0.0
  0
LINE
  5
1AE1
330
14C2
100
AcDbEntity
  8
AM_5
100
AcDbLine
 10
247.2583027316241
 20
136.8097422040176
 30
0.0
 11
247.2583027316241
 21
124.8097422040176
 31
0.0
  0
LINE
  5
1AE2
330
14C2
100
AcDbEntity
  8
AM_5
100
AcDbLine
 10
240.2583027316241
 20
126.3097422040176
 30
0.0
 11
244.2583027316241
 21
126.3097422040176
 31
0.0
  0
SOLID
  5
1AE3
330
14C2
100
AcDbEntity
  8
AM_5
100
AcDbTrace
 10
240.2583027316241
 20
126.8097422040176
 30
0.0
 11
240.2583027316241
 21
125.8097422040176
 31
0.0
 12
237.2583027316241
 22
126.3097422040176
 32
0.0
 13
237.2583027316241
 23
126.3097422040176
 33
0.0
  0
SOLID
  5
1AE4
330
14C2
100
AcDbEntity
  8
AM_5
100
AcDbTrace
 10
244.2583027316241
 20
126.8097422040176
 30
0.0
 11
244.2583027316241
 21
125.8097422040176
 31
0.0
 12
247.2583027316241
 22
126.3097422040176
 32
0.0
 13
247.2583027316241
 23
126.3097422040176
 33
0.0
  0
MTEXT
  5
1AE5
330
14C2
100
AcDbEntity
  8
AM_5
100
AcDbMText
 10
242.2583027316241
 20
129.0597422040176
 30
0.0
 40
3.5
 41
0.0
 71
     5
 72
     1
  1
10
 73
     1
 44
1.0
1001
ACAD
1000
MTEXTBEGIN
1070
    73
1070
     1
1070
    44
1040
1.0
1070
    74
1070
     0
1000
MTEXTEND
  0
POINT
  5
1AE6
330
14C2
100
AcDbEntity
  8
DEFPOINTS
 62
     0
100
AcDbPoint
 10
237.2583027316241
 20
130.4424645528118
 30
0.0
  0
POINT
  5
1AE7
330
14C2
100
AcDbEntity
  8
DEFPOINTS
 62
     0
100
AcDbPoint
 10
247.2583027316241
 20
138.3097422040176
 30
0.0
  0
POINT
  5
1AE8
330
14C2
100
AcDbEntity
  8
DEFPOINTS
 62
     0
100
AcDbPoint
 10
247.2583027316241
 20
126.3097422040176
 30
0.0
  0
ENDBLK
  5
14CC
330
14C2
100
AcDbEntity
  8
0
100
AcDbBlockEnd
  0
BLOCK
  5
14D7
330
14CD
100
AcDbEntity
  8
0
100
AcDbBlockBegin
  2
*D15
 70
     1
 10
0.0
 20
0.0
 30
0.0
  3
*D15
  1

  0
LINE
  5
1B4F
330
14CD
100
AcDbEntity
  8
AM_5
100
AcDbLine
 10
348.2114185426009
 20
137.863383723807
 30
0.0
 11
348.2114185426009
 21
124.8097422040176
 31
0.0
  0
LINE
  5
1B50
330
14CD
100
AcDbEntity
  8
AM_5
100
AcDbLine
 10
330.2114185426009
 20
137.3097422040176
 30
0.0
 11
330.2114185426009
 21
124.8097422040176
 31
0.0
  0
LINE
  5
1B51
330
14CD
100
AcDbEntity
  8
AM_5
100
AcDbLine
 10
345.2114185426009
 20
126.3097422040176
 30
0.0
 11
333.2114185426009
 21
126.3097422040176
 31
0.0
  0
SOLID
  5
1B52
330
14CD
100
AcDbEntity
  8
AM_5
100
AcDbTrace
 10
345.2114185426009
 20
126.8097422040176
 30
0.0
 11
345.2114185426009
 21
125.8097422040176
 31
0.0
 12
348.2114185426009
 22
126.3097422040176
 32
0.0
 13
348.2114185426009
 23
126.3097422040176
 33
0.0
  0
SOLID
  5
1B53
330
14CD
100
AcDbEntity
  8
AM_5
100
AcDbTrace
 10
333.2114185426009
 20
126.8097422040176
 30
0.0
 11
333.2114185426009
 21
125.8097422040176
 31
0.0
 12
330.2114185426009
 22
126.3097422040176
 32
0.0
 13
330.2114185426009
 23
126.3097422040176
 33
0.0
  0
MTEXT
  5
1B54
330
14CD
100
AcDbEntity
  8
AM_5
100
AcDbMText
 10
339.2114185426009
 20
129.0597422040176
 30
0.0
 40
3.5
 41
0.0
 71
     5
 72
     1
  1
18
 73
     1
 44
1.0
1001
ACAD
1000
MTEXTBEGIN
1070
    73
1070
     1
1070
    44
1040
1.0
1070
    74
1070
     0
1000
MTEXTEND
  0
POINT
  5
1B55
330
14CD
100
AcDbEntity
  8
DEFPOINTS
 62
     0
100
AcDbPoint
 10
348.2114185426009
 20
139.363383723807
 30
0.0
  0
POINT
  5
1B56
330
14CD
100
AcDbEntity
  8
DEFPOINTS
 62
     0
100
AcDbPoint
 10
330.2114185426009
 20
138.8097422040176
 30
0.0
  0
POINT
  5
1B57
330
14CD
100
AcDbEntity
  8
DEFPOINTS
 62
     0
100
AcDbPoint
 10
330.2114185426009
 20
126.3097422040176
 30
0.0
  0
ENDBLK
  5
14D8
330
14CD
100
AcDbEntity
  8
0
100
AcDbBlockEnd
  0
BLOCK
  5
14E3
330
14D9
100
AcDbEntity
  8
0
100
AcDbBlockBegin
  2
*D16
 70
     1
 10
0.0
 20
0.0
 30
0.0
  3
*D16
  1

  0
LINE
  5
1B58
330
14D9
100
AcDbEntity
  8
AM_5
100
AcDbLine
 10
324.2114185426009
 20
136.8097422040176
 30
0.0
 11
324.2114185426009
 21
116.8097422040176
 31
0.0
  0
LINE
  5
1B59
330
14D9
100
AcDbEntity
  8
AM_5
100
AcDbLine
 10
354.2114185426009
 20
136.8097422040176
 30
0.0
 11
354.2114185426009
 21
116.8097422040176
 31
0.0
  0
LINE
  5
1B5A
330
14D9
100
AcDbEntity
  8
AM_5
100
AcDbLine
 10
327.2114185426009
 20
118.3097422040176
 30
0.0
 11
351.2114185426009
 21
118.3097422040176
 31
0.0
  0
SOLID
  5
1B5B
330
14D9
100
AcDbEntity
  8
AM_5
100
AcDbTrace
 10
327.2114185426009
 20
118.8097422040176
 30
0.0
 11
327.2114185426009
 21
117.8097422040176
 31
0.0
 12
324.2114185426009
 22
118.3097422040176
 32
0.0
 13
324.2114185426009
 23
118.3097422040176
 33
0.0
  0
SOLID
  5
1B5C
330
14D9
100
AcDbEntity
  8
AM_5
100
AcDbTrace
 10
351.2114185426009
 20
118.8097422040176
 30
0.0
 11
351.2114185426009
 21
117.8097422040176
 31
0.0
 12
354.2114185426009
 22
118.3097422040176
 32
0.0
 13
354.2114185426009
 23
118.3097422040176
 33
0.0
  0
MTEXT
  5
1B5D
330
14D9
100
AcDbEntity
  8
AM_5
100
AcDbMText
 10
339.2114185426009
 20
121.0597422040176
 30
0.0
 40
3.5
 41
0.0
 71
     5
 72
     1
  1
30
 73
     1
 44
1.0
1001
ACAD
1000
MTEXTBEGIN
1070
    73
1070
     1
1070
    44
1040
1.0
1070
    74
1070
     0
1000
MTEXTEND
  0
POINT
  5
1B5E
330
14D9
100
AcDbEntity
  8
DEFPOINTS
 62
     0
100
AcDbPoint
 10
324.2114185426009
 20
138.3097422040176
 30
0.0
  0
POINT
  5
1B5F
330
14D9
100
AcDbEntity
  8
DEFPOINTS
 62
     0
100
AcDbPoint
 10
354.2114185426009
 20
138.3097422040176
 30
0.0
  0
POINT
  5
1B60
330
14D9
100
AcDbEntity
  8
DEFPOINTS
 62
     0
100
AcDbPoint
 10
354.2114185426009
 20
118.3097422040176
 30
0.0
  0
ENDBLK
  5
14E4
330
14D9
100
AcDbEntity
  8
0
100
AcDbBlockEnd
  0
BLOCK
  5
14EF
330
14E5
100
AcDbEntity
  8
0
100
AcDbBlockBegin
  2
*D17
 70
     1
 10
0.0
 20
0.0
 30
0.0
  3
*D17
  1

  0
LINE
  5
1A5C
330
14E5
100
AcDbEntity
  8
AM_5
100
AcDbLine
 10
237.2583027316241
 20
251.9261791324587
 30
0.0
 11
237.2583027316241
 21
280.1732490949279
 31
0.0
  0
LINE
  5
1A5D
330
14E5
100
AcDbEntity
  8
AM_5
100
AcDbLine
 10
197.258302731624
 20
251.9261791324587
 30
0.0
 11
197.258302731624
 21
280.1732490949279
 31
0.0
  0
LINE
  5
1A5E
330
14E5
100
AcDbEntity
  8
AM_5
100
AcDbLine
 10
234.2583027316241
 20
278.673249094928
 30
0.0
 11
200.258302731624
 21
278.673249094928
 31
0.0
  0
SOLID
  5
1A5F
330
14E5
100
AcDbEntity
  8
AM_5
100
AcDbTrace
 10
234.2583027316241
 20
279.1732490949279
 30
0.0
 11
234.2583027316241
 21
278.1732490949279
 31
0.0
 12
237.2583027316241
 22
278.673249094928
 32
0.0
 13
237.2583027316241
 23
278.673249094928
 33
0.0
  0
SOLID
  5
1A60
330
14E5
100
AcDbEntity
  8
AM_5
100
AcDbTrace
 10
200.258302731624
 20
279.1732490949279
 30
0.0
 11
200.258302731624
 21
278.1732490949279
 31
0.0
 12
197.258302731624
 22
278.673249094928
 32
0.0
 13
197.258302731624
 23
278.673249094928
 33
0.0
  0
MTEXT
  5
1A61
330
14E5
100
AcDbEntity
  8
AM_5
100
AcDbMText
 10
217.2583027316241
 20
281.4232490949279
 30
0.0
 40
3.5
 41
0.0
 71
     5
 72
     1
  1
40
 73
     1
 44
1.0
1001
ACAD
1000
MTEXTBEGIN
1070
    73
1070
     1
1070
    44
1040
1.0
1070
    74
1070
     0
1000
MTEXTEND
  0
POINT
  5
1A62
330
14E5
100
AcDbEntity
  8
DEFPOINTS
 62
     0
100
AcDbPoint
 10
237.2583027316241
 20
250.4261791324587
 30
0.0
  0
POINT
  5
1A63
330
14E5
100
AcDbEntity
  8
DEFPOINTS
 62
     0
100
AcDbPoint
 10
197.258302731624
 20
250.4261791324587
 30
0.0
  0
POINT
  5
1A64
330
14E5
100
AcDbEntity
  8
DEFPOINTS
 62
     0
100
AcDbPoint
 10
197.258302731624
 20
278.673249094928
 30
0.0
  0
ENDBLK
  5
14F0
330
14E5
100
AcDbEntity
  8
0
100
AcDbBlockEnd
  0
BLOCK
  5
14FB
330
14F1
100
AcDbEntity
  8
0
100
AcDbBlockBegin
  2
*D18
 70
     1
 10
0.0
 20
0.0
 30
0.0
  3
*D18
  1

  0
LINE
  5
1AFB
330
14F1
100
AcDbEntity
  8
AM_5
100
AcDbLine
 10
237.2583027316241
 20
177.8403143766946
 30
0.0
 11
237.2583027316241
 21
197.8097422040176
 31
0.0
  0
LINE
  5
1AFC
330
14F1
100
AcDbEntity
  8
AM_5
100
AcDbLine
 10
197.258302731624
 20
179.3769591424775
 30
0.0
 11
197.258302731624
 21
197.8097422040176
 31
0.0
  0
LINE
  5
1AFD
330
14F1
100
AcDbEntity
  8
AM_5
100
AcDbLine
 10
234.2583027316241
 20
196.3097422040176
 30
0.0
 11
200.258302731624
 21
196.3097422040176
 31
0.0
  0
SOLID
  5
1AFE
330
14F1
100
AcDbEntity
  8
AM_5
100
AcDbTrace
 10
234.2583027316241
 20
196.8097422040176
 30
0.0
 11
234.2583027316241
 21
195.8097422040176
 31
0.0
 12
237.2583027316241
 22
196.3097422040176
 32
0.0
 13
237.2583027316241
 23
196.3097422040176
 33
0.0
  0
SOLID
  5
1AFF
330
14F1
100
AcDbEntity
  8
AM_5
100
AcDbTrace
 10
200.258302731624
 20
196.8097422040176
 30
0.0
 11
200.258302731624
 21
195.8097422040176
 31
0.0
 12
197.258302731624
 22
196.3097422040176
 32
0.0
 13
197.258302731624
 23
196.3097422040176
 33
0.0
  0
MTEXT
  5
1B00
330
14F1
100
AcDbEntity
  8
AM_5
100
AcDbMText
 10
217.2583027316241
 20
199.0597422040176
 30
0.0
 40
3.5
 41
0.0
 71
     5
 72
     1
  1
40
 73
     1
 44
1.0
1001
ACAD
1000
MTEXTBEGIN
1070
    73
1070
     1
1070
    44
1040
1.0
1070
    74
1070
     0
1000
MTEXTEND
  0
POINT
  5
1B01
330
14F1
100
AcDbEntity
  8
DEFPOINTS
 62
     0
100
AcDbPoint
 10
237.2583027316241
 20
176.3403143766946
 30
0.0
  0
POINT
  5
1B02
330
14F1
100
AcDbEntity
  8
DEFPOINTS
 62
     0
100
AcDbPoint
 10
197.258302731624
 20
177.8769591424775
 30
0.0
  0
POINT
  5
1B03
330
14F1
100
AcDbEntity
  8
DEFPOINTS
 62
     0
100
AcDbPoint
 10
197.258302731624
 20
196.3097422040176
 30
0.0
  0
ENDBLK
  5
14FC
330
14F1
100
AcDbEntity
  8
0
100
AcDbBlockEnd
  0
BLOCK
  5
1507
330
14FD
100
AcDbEntity
  8
0
100
AcDbBlockBegin
  2
*D19
 70
     1
 10
0.0
 20
0.0
 30
0.0
  3
*D19
  1

  0
LINE
  5
1B04
330
14FD
100
AcDbEntity
  8
AM_5
100
AcDbLine
 10
252.2583027316241
 20
185.8097422040176
 30
0.0
 11
252.2583027316241
 21
205.8097422040176
 31
0.0
  0
LINE
  5
1B05
330
14FD
100
AcDbEntity
  8
AM_5
100
AcDbLine
 10
182.258302731624
 20
185.8097422040176
 30
0.0
 11
182.258302731624
 21
205.8097422040176
 31
0.0
  0
LINE
  5
1B06
330
14FD
100
AcDbEntity
  8
AM_5
100
AcDbLine
 10
249.2583027316241
 20
204.3097422040176
 30
0.0
 11
185.258302731624
 21
204.3097422040176
 31
0.0
  0
SOLID
  5
1B07
330
14FD
100
AcDbEntity
  8
AM_5
100
AcDbTrace
 10
249.2583027316241
 20
204.8097422040176
 30
0.0
 11
249.2583027316241
 21
203.8097422040176
 31
0.0
 12
252.2583027316241
 22
204.3097422040176
 32
0.0
 13
252.2583027316241
 23
204.3097422040176
 33
0.0
  0
SOLID
  5
1B08
330
14FD
100
AcDbEntity
  8
AM_5
100
AcDbTrace
 10
185.258302731624
 20
204.8097422040176
 30
0.0
 11
185.258302731624
 21
203.8097422040176
 31
0.0
 12
182.258302731624
 22
204.3097422040176
 32
0.0
 13
182.258302731624
 23
204.3097422040176
 33
0.0
  0
MTEXT
  5
1B09
330
14FD
100
AcDbEntity
  8
AM_5
100
AcDbMText
 10
217.2583027316241
 20
207.0597422040176
 30
0.0
 40
3.5
 41
0.0
 71
     5
 72
     1
  1
70
 73
     1
 44
1.0
1001
ACAD
1000
MTEXTBEGIN
1070
    73
1070
     1
1070
    44
1040
1.0
1070
    74
1070
     0
1000
MTEXTEND
  0
POINT
  5
1B0A
330
14FD
100
AcDbEntity
  8
DEFPOINTS
 62
     0
100
AcDbPoint
 10
252.2583027316241
 20
184.3097422040176
 30
0.0
  0
POINT
  5
1B0B
330
14FD
100
AcDbEntity
  8
DEFPOINTS
 62
     0
100
AcDbPoint
 10
182.258302731624
 20
184.3097422040176
 30
0.0
  0
POINT
  5
1B0C
330
14FD
100
AcDbEntity
  8
DEFPOINTS
 62
     0
100
AcDbPoint
 10
182.258302731624
 20
204.3097422040176
 30
0.0
  0
ENDBLK
  5
1508
330
14FD
100
AcDbEntity
  8
0
100
AcDbBlockEnd
  0
BLOCK
  5
1513
330
1509
100
AcDbEntity
  8
0
100
AcDbBlockBegin
  2
*D20
 70
     1
 10
0.0
 20
0.0
 30
0.0
  3
*D20
  1

  0
LINE
  5
1B61
330
1509
100
AcDbEntity
  8
AM_5
100
AcDbLine
 10
318.2114185426009
 20
184.3097422040176
 30
0.0
 11
296.2114185426009
 21
184.3097422040176
 31
0.0
  0
LINE
  5
1B62
330
1509
100
AcDbEntity
  8
AM_5
100
AcDbLine
 10
331.6556362846786
 20
174.3097422040176
 30
0.0
 11
296.2114185426009
 21
174.3097422040176
 31
0.0
  0
LINE
  5
1B63
330
1509
100
AcDbEntity
  8
AM_5
100
AcDbLine
 10
297.7114185426009
 20
181.3097422040176
 30
0.0
 11
297.7114185426009
 21
177.3097422040176
 31
0.0
  0
SOLID
  5
1B64
330
1509
100
AcDbEntity
  8
AM_5
100
AcDbTrace
 10
297.2114185426009
 20
181.3097422040176
 30
0.0
 11
298.2114185426009
 21
181.3097422040176
 31
0.0
 12
297.7114185426009
 22
184.3097422040176
 32
0.0
 13
297.7114185426009
 23
184.3097422040176
 33
0.0
  0
SOLID
  5
1B65
330
1509
100
AcDbEntity
  8
AM_5
100
AcDbTrace
 10
297.2114185426009
 20
177.3097422040176
 30
0.0
 11
298.2114185426009
 21
177.3097422040176
 31
0.0
 12
297.7114185426009
 22
174.3097422040176
 32
0.0
 13
297.7114185426009
 23
174.3097422040176
 33
0.0
  0
MTEXT
  5
1B66
330
1509
100
AcDbEntity
  8
AM_5
100
AcDbMText
 10
294.9614185426008
 20
179.3097422040176
 30
0.0
 40
3.5
 41
0.0
 71
     5
 72
     1
  1
10
 11
0.0000000000000001
 21
1.0
 31
0.0
 73
     1
 44
1.0
1001
ACAD
1000
MTEXTBEGIN
1070
    73
1070
     1
1070
    44
1040
1.0
1070
    74
1070
     0
1000
MTEXTEND
  0
POINT
  5
1B67
330
1509
100
AcDbEntity
  8
DEFPOINTS
 62
     0
100
AcDbPoint
 10
319.7114185426009
 20
184.3097422040176
 30
0.0
  0
POINT
  5
1B68
330
1509
100
AcDbEntity
  8
DEFPOINTS
 62
     0
100
AcDbPoint
 10
333.1556362846786
 20
174.3097422040176
 30
0.0
  0
POINT
  5
1B69
330
1509
100
AcDbEntity
  8
DEFPOINTS
 62
     0
100
AcDbPoint
 10
297.7114185426009
 20
174.3097422040176
 30
0.0
  0
ENDBLK
  5
1514
330
1509
100
AcDbEntity
  8
0
100
AcDbBlockEnd
  0
BLOCK
  5
1873
330
1872
100
AcDbEntity
  8
0
100
AcDbBlockBegin
  2
*U22
 70
     1
 10
0.0
 20
0.0
 30
0.0
  3
*U22
  1

  0
ENDBLK
  5
1874
330
1872
100
AcDbEntity
  8
0
100
AcDbBlockEnd
  0
BLOCK
  5
1C18
330
1C13
100
AcDbEntity
  8
0
100
AcDbBlockBegin
  2
*S25
 70
     1
 10
0.0
 20
0.0
 30
0.0
  3
*S25
  1

  0
LINE
  5
1C14
330
1C13
100
AcDbEntity
  8
AM_5
 62
     5
100
AcDbLine
 10
305.7114185426009
 20
197.5677064922058
 30
0.0
 11
261.1672782701323
 21
197.5677064922058
 31
0.0
  0
LINE
  5
1C15
330
1C13
100
AcDbEntity
  8
AM_5
 62
     5
100
AcDbLine
 10
261.1672782701323
 20
197.5677064922058
 30
0.0
 11
241.5932739556224
 21
174.8930632675632
 31
0.0
  0
TRACE
  5
1C16
330
1C13
100
AcDbEntity
  8
AM_5
 62
     5
370
    35
100
AcDbTrace
 10
241.2444764667189
 20
175.1941645234925
 30
0.0
 11
241.9420714445259
 21
174.591962011634
 31
0.0
 12
239.3061828423466
 22
172.2436832948952
 32
0.0
 13
239.3061828423466
 23
172.2436832948952
 33
0.0
  0
MTEXT
  5
1C17
330
1C13
100
AcDbEntity
  8
AM_5
 62
     5
100
AcDbMText
 10
305.7114185426009
 20
190.3097422040176
 30
0.0
 40
3.5
 41
0.0
 71
     7
 72
     5
  1

  7
ACISOTS
 73
     1
 44
1.0
1001
ACAD
1000
MTEXTBEGIN
1070
    73
1070
     1
1070
    44
1040
1.0
1070
    74
1070
     0
1000
MTEXTEND
  0
ENDBLK
  5
1C19
330
1C13
100
AcDbEntity
  8
0
100
AcDbBlockEnd
  0
BLOCK
  5
1C20
330
1C1B
100
AcDbEntity
  8
0
100
AcDbBlockBegin
  2
*S26
 70
     1
 10
0.0
 20
0.0
 30
0.0
  3
*S26
  1

  0
LINE
  5
1C1C
330
1C1B
100
AcDbEntity
  8
AM_5
 62
     5
100
AcDbLine
 10
290.8899106410591
 20
225.1555444171054
 30
0.0
 11
261.1672782701323
 21
225.1555444171054
 31
0.0
  0
LINE
  5
1C1D
330
1C1B
100
AcDbEntity
  8
AM_5
 62
     5
100
AcDbLine
 10
261.1672782701323
 20
225.1555444171054
 30
0.0
 11
221.6973694035795
 21
242.5065934988307
 31
0.0
  0
TRACE
  5
1C1E
330
1C1B
100
AcDbEntity
  8
AM_5
 62
     5
370
    35
100
AcDbTrace
 10
221.8828041267281
 20
242.9284176541827
 30
0.0
 11
221.5119346804309
 21
242.0847693434788
 31
0.0
 12
218.4932968264222
 22
243.9151100661131
 32
0.0
 13
218.4932968264222
 23
243.9151100661131
 33
0.0
  0
MTEXT
  5
1C1F
330
1C1B
100
AcDbEntity
  8
AM_5
 62
     5
100
AcDbMText
 10
290.8899106410591
 20
220.3653386693907
 30
0.0
 40
3.5
 41
0.0
 71
     7
 72
     5
  1

  7
ACISOTS
 73
     1
 44
1.0
1001
ACAD
1000
MTEXTBEGIN
1070
    73
1070
     1
1070
    44
1040
1.0
1070
    74
1070
     0
1000
MTEXTEND
  0
ENDBLK
  5
1C21
330
1C1B
100
AcDbEntity
  8
0
100
AcDbBlockEnd
  0
BLOCK
  5
1C28
330
1C23
100
AcDbEntity
  8
0
100
AcDbBlockBegin
  2
*S27
 70
     1
 10
0.0
 20
0.0
 30
0.0
  3
*S27
  1

  0
LINE
  5
1C24
330
1C23
100
AcDbEntity
  8
AM_5
 62
     5
100
AcDbLine
 10
301.7629289439967
 20
262.4173042073007
 30
0.0
 11
258.2612540265263
 21
262.4173042073007
 31
0.0
  0
LINE
  5
1C25
330
1C23
100
AcDbEntity
  8
AM_5
 62
     5
100
AcDbLine
 10
258.2612540265263
 20
262.4173042073007
 30
0.0
 11
241.8738660951376
 21
248.6837202881273
 31
0.0
  0
TRACE
  5
1C26
330
1C23
100
AcDbEntity
  8
AM_5
 62
     5
370
    35
100
AcDbTrace
 10
241.5778959138169
 20
249.0368821580348
 30
0.0
 11
242.1698362764584
 21
248.3305584182198
 31
0.0
 12
239.1913353573614
 22
246.4356035560856
 32
0.0
 13
239.1913353573614
 23
246.4356035560856
 33
0.0
  0
MTEXT
  5
1C27
330
1C23
100
AcDbEntity
  8
AM_5
 62
     5
100
AcDbMText
 10
301.7629289439967
 20
258.8810532382411
 30
0.0
 40
3.5
 41
0.0
 71
     7
 72
     5
  1

  7
ACISOTS
 73
     1
 44
1.0
1001
ACAD
1000
MTEXTBEGIN
1070
    73
1070
     1
1070
    44
1040
1.0
1070
    74
1070
     0
1000
MTEXTEND
  0
ENDBLK
  5
1C29
330
1C23
100
AcDbEntity
  8
0
100
AcDbBlockEnd
  0
BLOCK
  5
1C30
330
1C2B
100
AcDbEntity
  8
0
100
AcDbBlockBegin
  2
*S28
 70
     1
 10
0.0
 20
0.0
 30
0.0
  3
*S28
  1

  0
LINE
  5
1C2C
330
1C2B
100
AcDbEntity
  8
AM_5
 62
     5
100
AcDbLine
 10
283.3138336392281
 20
160.2942542861651
 30
0.0
 11
308.2020177585416
 21
160.2942542861651
 31
0.0
  0
LINE
  5
1C2D
330
1C2B
100
AcDbEntity
  8
AM_5
 62
     5
100
AcDbLine
 10
308.2020177585416
 20
160.2942542861651
 30
0.0
 11
332.2844661857816
 21
171.7648822899374
 31
0.0
  0
TRACE
  5
1C2E
330
1C2B
100
AcDbEntity
  8
AM_5
 62
     5
370
    35
100
AcDbTrace
 10
332.4826119505964
 20
171.3488775898755
 30
0.0
 11
332.0863204209667
 21
172.1808869899992
 31
0.0
 12
335.4443356112877
 22
173.2699488046641
 32
0.0
 13
335.4443356112877
 23
173.2699488046641
 33
0.0
  0
MTEXT
  5
1C2F
330
1C2B
100
AcDbEntity
  8
AM_5
 62
     5
100
AcDbMText
 10
283.3138336392281
 20
155.0353988910246
 30
0.0
 40
3.5
 41
0.0
 71
     7
 72
     5
  1

  7
ACISOTS
210
0.0
220
0.0
230
-1.0
 11
-1.0
 21
0.0
 31
0.0
 73
     1
 44
1.0
1001
ACAD
1000
MTEXTBEGIN
1070
    73
1070
     1
1070
    44
1040
1.0
1070
    74
1070
     0
1000
MTEXTEND
  0
ENDBLK
  5
1C31
330
1C2B
100
AcDbEntity
  8
0
100
AcDbBlockEnd
  0
BLOCK
  5
1C38
330
1C33
100
AcDbEntity
  8
0
100
AcDbBlockBegin
  2
*S29
 70
     1
 10
0.0
 20
0.0
 30
0.0
  3
*S29
  1

  0
LINE
  5
1C34
330
1C33
100
AcDbEntity
  8
AM_5
 62
     5
100
AcDbLine
 10
391.6320023032818
 20
127.149629992346
 30
0.0
 11
362.2397050384289
 21
127.149629992346
 31
0.0
  0
LINE
  5
1C35
330
1C33
100
AcDbEntity
  8
AM_5
 62
     5
100
AcDbLine
 10
362.2397050384289
 20
127.149629992346
 30
0.0
 11
352.2754511085286
 21
139.0193281593336
 31
0.0
  0
TRACE
  5
1C36
330
1C33
100
AcDbEntity
  8
AM_5
 62
     5
370
    35
100
AcDbTrace
 10
352.6283675848613
 20
139.3155909064358
 30
0.0
 11
351.9225346321959
 21
138.7230654122315
 31
0.0
 12
350.02511211874
 22
141.6999949478468
 32
0.0
 13
350.02511211874
 23
141.6999949478468
 33
0.0
  0
MTEXT
  5
1C37
330
1C33
100
AcDbEntity
  8
AM_5
 62
     5
100
AcDbMText
 10
391.6320023032818
 20
118.9523778770547
 30
0.0
 40
3.5
 41
0.0
 71
     7
 72
     5
  1

  7
ACISOTS
 73
     1
 44
1.0
1001
ACAD
1000
MTEXTBEGIN
1070
    73
1070
     1
1070
    44
1040
1.0
1070
    74
1070
     0
1000
MTEXTEND
  0
ENDBLK
  5
1C39
330
1C33
100
AcDbEntity
  8
0
100
AcDbBlockEnd
  0
ENDSEC
  0
SECTION
  2
ENTITIES
  0
TEXT
  5
1195
330
1F
100
AcDbEntity
  8
LOGO
 62
     7
100
AcDbText
 10
179.7119953810622
 20
92.94482512055974
 30
0.0
 40
2.879582986425339
  1
Order example:
 41
0.8
  7
chineset
100
AcDbText
  0
TEXT
  5
1196
330
1F
100
AcDbEntity
  8
LOGO
 62
     7
100
AcDbText
 10
180.2286163820095
 20
96.99868174018151
 30
0.0
 40
4.319374479638008
  1
訂購代號：
  7
chineset
100
AcDbText
  0
LINE
  5
1197
330
1F
100
AcDbEntity
  8
LOGO
 62
     4
100
AcDbLine
 10
178.4608068064765
 20
80.80917501782977
 30
0.0
 11
178.4608068064765
 21
102.4060474160199
 31
0.0
  0
TEXT
  5
1198
330
1F
100
AcDbEntity
  8
LOGO
  6
Continuous
100
AcDbText
 10
138.705381175708
 20
85.05184800793204
 30
0.0
 40
3.239530859728506
  1
金器工業股份有限公司
  7
chineset
100
AcDbText
  0
TEXT
  5
1199
330
1F
100
AcDbEntity
  8
LOGO
  6
Continuous
100
AcDbText
 10
132.755003895961
 20
81.8116824541441
 30
0.0
 40
2.159687239819004
  1
MINDMAN INDUSTRIAL CO., LTD.
 41
0.85
  7
chineset
100
AcDbText
  0
LINE
  5
119A
330
1F
100
AcDbEntity
  8
LOGO
 62
     4
100
AcDbLine
 10
178.4608068064765
 20
98.08667293638192
 30
0.0
 11
146.7853939557975
 21
98.08667293638192
 31
0.0
  0
LINE
  5
119B
330
1F
100
AcDbEntity
  8
LOGO
 62
     4
100
AcDbLine
 10
178.4608068064765
 20
93.76729845674388
 30
0.0
 11
146.7853939557975
 21
93.76729845674388
 31
0.0
  0
LINE
  5
119C
330
1F
100
AcDbEntity
  8
LOGO
 62
     4
100
AcDbLine
 10
178.4608068064765
 20
89.4479239771061
 30
0.0
 11
130.9476875304583
 21
89.4479239771061
 31
0.0
  0
LINE
  5
119D
330
1F
100
AcDbEntity
  8
LOGO
 62
     4
100
AcDbLine
 10
146.7853939557975
 20
89.4479239771061
 30
0.0
 11
146.7853939557975
 21
102.4060474160199
 31
0.0
  0
TEXT
  5
119E
330
1F
100
AcDbEntity
  8
LOGO
100
AcDbText
 10
168.4340435825225
 20
90.52776759701526
 30
0.0
 40
2.159687239819004
  1
mm
  7
chineset
 72
     1
 11
171.1079420699175
 21
91.60761121692475
 31
0.0
100
AcDbText
 73
     2
  0
TEXT
  5
119F
330
1F
100
AcDbEntity
  8
LOGO
100
AcDbText
 10
167.3027788378554
 20
99.16651655629133
 30
0.0
 40
2.159687239819004
  1
1 : 1
  7
chineset
 72
     1
 11
171.1079420699175
 21
100.2463601762008
 31
0.0
100
AcDbText
 73
     2
  0
LINE
  5
11A0
330
1F
100
AcDbEntity
  8
LOGO
 62
     4
100
AcDbLine
 10
164.0628918743497
 20
89.4479239771061
 30
0.0
 11
164.0628918743497
 21
102.4060474160199
 31
0.0
  0
TEXT
  5
11A1
330
1F
100
AcDbEntity
  8
LOGO
100
AcDbText
 10
148.5661717825591
 20
99.1675793944999
 30
141.5423438208537
 40
2.159687239819004
  1
比例 Scale:
 41
0.9
  7
chineset
 72
     4
 11
155.4241429150736
 21
100.2463601762008
 31
141.5423438208537
100
AcDbText
  0
TEXT
  5
11A2
330
1F
100
AcDbEntity
  8
LOGO
100
AcDbText
 10
148.4417969370516
 20
94.8775215354483
 30
141.5423438208537
 40
2.159687239819004
  1
投影  View:
 41
0.9
  7
chineset
 72
     4
 11
155.4241429150736
 21
95.92698569656278
 31
141.5423438208537
100
AcDbText
  0
TEXT
  5
11A3
330
1F
100
AcDbEntity
  8
LOGO
100
AcDbText
 10
148.6529449305875
 20
90.52776759701526
 30
141.5423438208537
 40
2.159687239819004
  1
單位  Unit:
 41
0.9
  7
chineset
 72
     4
 11
155.4241429150736
 21
91.60761121692475
 31
141.5423438208537
100
AcDbText
  0
LWPOLYLINE
  5
11A4
330
1F
100
AcDbEntity
  8
LOGO
 62
     4
100
AcDbPolyline
 90
        4
 70
     1
 43
0.0
 10
130.9476875304583
 20
102.4060474160199
 10
427.9476875304583
 20
102.4060474160199
 10
427.9476875304583
 20
296.8091750178294
 10
130.9476875304583
 20
296.8091750178294
1001
GENIUS_GENREC_14
1002
{
1000
PYDIR
1011
130.9476875304583
1021
296.8091750178294
1031
0.0
1002
}
1002
{
1000
PXDIR
1011
427.9476875304583
1021
102.4060474160199
1031
0.0
1002
}
1002
{
1000
PORI
1011
130.9476875304583
1021
102.4060474160199
1031
0.0
1002
}
1002
{
1000
PINS
1011
130.9476875304583
1021
102.4060474160199
1031
0.0
1002
}
1002
{
1000
PINS2
1011
427.9476875304583
1021
296.8091750178294
1031
0.0
1002
}
1002
{
1000
C
1070
     1
1002
}
1001
GENIUS_GENODEF_13
1002
{
1000
HIER
1070
     0
1002
}
1002
{
1000
MANEDIT
1070
     0
1002
}
1002
{
1000
NOSEL
1070
     0
1002
}
1002
{
1000
BEHIND
1070
     0
1002
}
1002
{
1000
OTHER
1070
     0
1002
}
1002
{
1000
REACTOR
1002
}
1001
GENIUS_GENOBJ-N-REC_13
1002
{
1000
OWNER
1000
GEN
1002
}
  0
SOLID
  5
11A5
330
1F
100
AcDbEntity
  8
LOGO
 62
     5
100
AcDbTrace
 10
133.1883977021143
 20
93.03809660603338
 30
0.0
 11
134.1221897944188
 21
93.03809660603313
 31
0.0
 12
138.0183568002411
 22
101.8930216192665
 32
0.0
 13
138.9521488925462
 23
101.893021619266
 33
0.0
  0
SOLID
  5
11A6
330
1F
100
AcDbEntity
  8
LOGO
 62
     5
100
AcDbTrace
 10
134.50858652227
 20
93.03809660603338
 30
0.0
 11
135.4423786145745
 21
93.03809660603338
 31
0.0
 12
138.9521488925462
 22
101.1846276182075
 32
0.0
 13
138.0183568002411
 23
97.76072327975738
 33
0.0
  0
SOLID
  5
11A7
330
1F
100
AcDbEntity
  8
LOGO
 62
     2
100
AcDbTrace
 10
134.1221897944188
 20
93.03809660603313
 30
0.0
 11
134.50858652227
 21
93.03809660603338
 31
0.0
 12
138.9521488925462
 22
101.893021619266
 32
0.0
 13
139.3385456203968
 23
101.893021619266
 33
0.0
  0
SOLID
  5
11A8
330
1F
100
AcDbEntity
  8
LOGO
 62
     5
100
AcDbTrace
 10
131.6912999842789
 20
89.81812387394887
 30
0.0
 11
132.0132972574877
 21
89.81812387394887
 31
0.0
 12
132.9200666411075
 22
91.42811023999101
 32
0.0
 13
133.2420639143154
 23
91.42811023999101
 33
0.0
  0
SOLID
  5
11A9
330
1F
100
AcDbEntity
  8
LOGO
 62
     5
100
AcDbTrace
 10
132.9200666411075
 20
91.42811023999101
 30
0.0
 11
133.2420639143154
 21
91.42811023999101
 31
0.0
 12
132.9200666411075
 22
89.81812387394887
 32
0.0
 13
133.2420639143154
 23
89.81812387394887
 33
0.0
  0
SOLID
  5
11AA
330
1F
100
AcDbEntity
  8
LOGO
 62
     5
100
AcDbTrace
 10
132.9200666411075
 20
89.81812387394887
 30
0.0
 11
133.2420639143154
 21
89.81812387394887
 31
0.0
 12
134.1488332979366
 22
91.42811023999101
 32
0.0
 13
134.470830571145
 23
91.42811023999101
 33
0.0
  0
SOLID
  5
11AB
330
1F
100
AcDbEntity
  8
LOGO
 62
     5
100
AcDbTrace
 10
134.1488332979366
 20
91.42811023999101
 30
0.0
 11
134.470830571145
 21
91.42811023999101
 31
0.0
 12
134.1488332979366
 22
89.81812387394887
 32
0.0
 13
134.470830571145
 23
89.81812387394887
 33
0.0
  0
POLYLINE
  5
11AC
330
1F
100
AcDbEntity
  8
LOGO
 62
     5
100
AcDb2dPolyline
 66
     1
 10
0.0
 20
0.0
 30
0.0
 40
0.3225132944796379
 41
0.3225132944796379
  0
VERTEX
  5
11AD
330
11AC
100
AcDbEntity
  8
LOGO
 62
     5
100
AcDbVertex
100
AcDb2dVertex
 10
144.9420722061309
 20
90.78411569357411
 30
0.0
 42
1.0
  0
VERTEX
  5
11AE
330
11AC
100
AcDbEntity
  8
LOGO
 62
     5
100
AcDbVertex
100
AcDb2dVertex
 10
143.9745323226918
 20
90.78411569357411
 30
0.0
 42
1.0
  0
SEQEND
  5
11AF
330
11AC
100
AcDbEntity
  8
LOGO
 62
     5
  0
POLYLINE
  5
11B0
330
1F
100
AcDbEntity
  8
LOGO
 62
     5
100
AcDb2dPolyline
 66
     1
 10
0.0
 20
0.0
 30
0.0
 70
     1
  0
VERTEX
  5
11B1
330
11B0
100
AcDbEntity
  8
LOGO
 62
     5
100
AcDbVertex
100
AcDb2dVertex
 10
142.1506766062348
 20
90.6231170569697
 30
0.0
 42
1.000000057330635
  0
VERTEX
  5
11B2
330
11B0
100
AcDbEntity
  8
LOGO
 62
     5
100
AcDbVertex
100
AcDb2dVertex
 10
143.1166684258603
 20
90.6231170569697
 30
0.0
 42
1.000000057330635
  0
SEQEND
  5
11B3
330
11B0
100
AcDbEntity
  8
LOGO
 62
     5
  0
CIRCLE
  5
11B4
330
1F
100
AcDbEntity
  8
LOGO
 62
     5
100
AcDbCircle
 10
142.6336725160483
 20
90.6231170569697
 30
0.0
 40
0.4829959098127059
  0
POLYLINE
  5
11B5
330
1F
100
AcDbEntity
  8
LOGO
 62
     5
100
AcDb2dPolyline
 66
     1
 10
0.0
 20
0.0
 30
0.0
 70
     1
 40
0.3225132944796379
 41
0.3225132944796379
  0
VERTEX
  5
11B6
330
11B5
100
AcDbEntity
  8
LOGO
 62
     5
100
AcDbVertex
100
AcDb2dVertex
 10
141.9886459270886
 20
90.6231170569697
 30
0.0
 42
1.0
  0
VERTEX
  5
11B7
330
11B5
100
AcDbEntity
  8
LOGO
 62
     5
100
AcDbVertex
100
AcDb2dVertex
 10
143.2786991050071
 20
90.6231170569697
 30
0.0
 42
1.0
  0
SEQEND
  5
11B8
330
11B5
100
AcDbEntity
  8
LOGO
 62
     5
  0
LINE
  5
11B9
330
1F
100
AcDbEntity
  8
LOGO
100
AcDbLine
 10
145.1022968108278
 20
89.81812387394887
 30
0.0
 11
145.1022968108278
 21
90.78411569357411
 31
0.0
  0
SOLID
  5
11BA
330
1F
100
AcDbEntity
  8
LOGO
 62
     5
100
AcDbTrace
 10
143.1166362261344
 20
91.42811023999101
 30
0.0
 11
143.4386334993423
 21
91.42811023999101
 31
0.0
 12
143.1166362261344
 22
89.81812387394887
 32
0.0
 13
143.4386334993423
 23
89.81812387394887
 33
0.0
  0
SOLID
  5
11BB
330
1F
100
AcDbEntity
  8
LOGO
 62
     5
100
AcDbTrace
 10
143.814307717994
 20
89.81812387394887
 30
0.0
 11
144.1363049912028
 21
89.81812387394887
 31
0.0
 12
143.814307717994
 22
91.42811023999101
 32
0.0
 13
144.1363049912028
 23
91.42811023999101
 33
0.0
  0
SOLID
  5
11BC
330
1F
100
AcDbEntity
  8
LOGO
 62
     5
100
AcDbTrace
 10
144.7802995376199
 20
90.78411569357411
 30
0.0
 11
145.1022968108278
 21
90.78411569357411
 31
0.0
 12
144.7802995376199
 22
89.81812387394887
 32
0.0
 13
145.1022968108278
 23
89.81812387394887
 33
0.0
  0
SOLID
  5
11BD
330
1F
100
AcDbEntity
  8
LOGO
 62
     5
100
AcDbTrace
 10
143.7821079906731
 20
101.1846276182075
 30
0.0
 11
142.848315898369
 21
97.76072327975738
 31
0.0
 12
143.7821079906731
 22
93.03809660603313
 32
0.0
 13
142.848315898369
 23
93.03809660603313
 33
0.0
  0
SOLID
  5
11BE
330
1F
100
AcDbEntity
  8
LOGO
 62
     5
100
AcDbTrace
 10
144.1685047185237
 20
93.03809660603313
 30
0.0
 11
145.1022968108278
 21
93.03809660603313
 31
0.0
 12
144.1685047185237
 22
101.893021619266
 32
0.0
 13
145.1022968108278
 23
101.8930216192665
 33
0.0
  0
SOLID
  5
11BF
330
1F
100
AcDbEntity
  8
LOGO
 62
     2
100
AcDbTrace
 10
143.7821079906731
 20
101.8930216192665
 30
0.0
 11
144.1685047185237
 21
101.893021619266
 31
0.0
 12
143.7821079906731
 22
93.03809660603313
 32
0.0
 13
144.1685047185237
 23
93.03809660603313
 33
0.0
  0
POLYLINE
  5
11C0
330
1F
100
AcDbEntity
  8
LOGO
 62
     5
100
AcDb2dPolyline
 66
     1
 10
0.0
 20
0.0
 30
0.0
 40
0.3225132944796379
 41
0.3225132944796379
  0
VERTEX
  5
11C1
330
11C0
100
AcDbEntity
  8
LOGO
 62
     5
100
AcDbVertex
100
AcDb2dVertex
 10
140.3267564903247
 20
90.78411569357411
 30
0.0
 42
1.0
  0
VERTEX
  5
11C2
330
11C0
100
AcDbEntity
  8
LOGO
 62
     5
100
AcDbVertex
100
AcDb2dVertex
 10
139.3592166068856
 20
90.78411569357411
 30
0.0
 42
1.0
  0
SEQEND
  5
11C3
330
11C0
100
AcDbEntity
  8
LOGO
 62
     5
  0
POLYLINE
  5
11C4
330
1F
100
AcDbEntity
  8
LOGO
 62
     5
100
AcDb2dPolyline
 66
     1
 10
0.0
 20
0.0
 30
0.0
 40
0.3225132944796379
 41
0.3225132944796379
  0
VERTEX
  5
11C5
330
11C4
100
AcDbEntity
  8
LOGO
 62
     5
100
AcDbVertex
100
AcDb2dVertex
 10
141.2927483099492
 20
90.78411569357411
 30
0.0
 42
1.0
  0
VERTEX
  5
11C6
330
11C4
100
AcDbEntity
  8
LOGO
 62
     5
100
AcDbVertex
100
AcDb2dVertex
 10
140.3252084265106
 20
90.78411569357411
 30
0.0
 42
1.0
  0
SEQEND
  5
11C7
330
11C4
100
AcDbEntity
  8
LOGO
 62
     5
  0
POLYLINE
  5
11C8
330
1F
100
AcDbEntity
  8
LOGO
 62
     5
100
AcDb2dPolyline
 66
     1
 10
0.0
 20
0.0
 30
0.0
 40
0.3225132944796379
 41
0.3225132944796379
  0
VERTEX
  5
11C9
330
11C8
100
AcDbEntity
  8
LOGO
 62
     5
100
AcDbVertex
100
AcDb2dVertex
 10
136.677432594143
 20
90.78411569357411
 30
0.0
 42
1.0
  0
VERTEX
  5
11CA
330
11C8
100
AcDbEntity
  8
LOGO
 62
     5
100
AcDbVertex
100
AcDb2dVertex
 10
135.7098927107043
 20
90.78411569357411
 30
0.0
 42
1.0
  0
SEQEND
  5
11CB
330
11C8
100
AcDbEntity
  8
LOGO
 62
     5
  0
SOLID
  5
11CC
330
1F
100
AcDbEntity
  8
LOGO
 62
     5
100
AcDbTrace
 10
135.549668106007
 20
91.42811023999101
 30
0.0
 11
135.8716653792148
 21
91.42811023999101
 31
0.0
 12
135.549668106007
 22
89.81812387394887
 32
0.0
 13
135.8716653792148
 23
89.81812387394887
 33
0.0
  0
SOLID
  5
11CD
330
1F
100
AcDbEntity
  8
LOGO
 62
     5
100
AcDbTrace
 10
136.5156599256325
 20
90.78411569357411
 30
0.0
 11
136.8376571988413
 21
90.78411569357411
 31
0.0
 12
136.5156599256325
 22
89.81812387394887
 32
0.0
 13
136.8376571988413
 23
89.81812387394887
 33
0.0
  0
POLYLINE
  5
11CE
330
1F
100
AcDbEntity
  8
LOGO
 62
     5
100
AcDb2dPolyline
 66
     1
 10
0.0
 20
0.0
 30
0.0
 70
     1
 40
0.3225132944796379
 41
0.3225132944796379
  0
VERTEX
  5
11CF
330
11CE
100
AcDbEntity
  8
LOGO
 62
     5
100
AcDbVertex
100
AcDb2dVertex
 10
137.3733302112819
 20
90.6231170569697
 30
0.0
 42
1.0
  0
VERTEX
  5
11D0
330
11CE
100
AcDbEntity
  8
LOGO
 62
     5
100
AcDbVertex
100
AcDb2dVertex
 10
138.6633833892009
 20
90.6231170569697
 30
0.0
 42
1.0
  0
SEQEND
  5
11D1
330
11CE
100
AcDbEntity
  8
LOGO
 62
     5
  0
SOLID
  5
11D2
330
1F
100
AcDbEntity
  8
LOGO
 62
     5
100
AcDbTrace
 10
138.5013205103273
 20
91.91110614980399
 30
0.0
 11
138.8233177835356
 21
91.91110614980399
 31
0.0
 12
138.5013205103273
 22
89.81812387394887
 32
0.0
 13
138.8233177835356
 23
89.81812387394887
 33
0.0
  0
SOLID
  5
11D3
330
1F
100
AcDbEntity
  8
LOGO
 62
     5
100
AcDbTrace
 10
139.1989920021888
 20
91.42811023999101
 30
0.0
 11
139.5209892753966
 21
91.42811023999101
 31
0.0
 12
139.1989920021888
 22
89.81812387394887
 32
0.0
 13
139.5209892753966
 23
89.81812387394887
 33
0.0
  0
SOLID
  5
11D4
330
1F
100
AcDbEntity
  8
LOGO
 62
     5
100
AcDbTrace
 10
140.1649838218132
 20
90.78411569357411
 30
0.0
 11
140.4869810950221
 21
90.78411569357411
 31
0.0
 12
140.1649838218132
 22
89.81812387394887
 32
0.0
 13
140.4869810950221
 23
89.81812387394887
 33
0.0
  0
SOLID
  5
11D5
330
1F
100
AcDbEntity
  8
LOGO
 62
     5
100
AcDbTrace
 10
141.1309756414387
 20
90.78411569357411
 30
0.0
 11
141.452972914647
 21
90.78411569357411
 31
0.0
 12
141.1309756414387
 22
89.81812387394839
 32
0.0
 13
141.452972914647
 23
89.81812387394839
 33
0.0
  0
SOLID
  5
11D6
330
1F
100
AcDbEntity
  8
LOGO
 62
     5
100
AcDbTrace
 10
134.851996614146
 20
91.65350833123701
 30
0.0
 11
135.1739938873553
 21
91.65350833123701
 31
0.0
 12
134.851996614146
 22
91.91110614980399
 32
0.0
 13
135.1739938873553
 23
91.91110614980399
 33
0.0
  0
SOLID
  5
11D7
330
1F
100
AcDbEntity
  8
LOGO
 62
     5
100
AcDbTrace
 10
134.851996614146
 20
91.42811023999101
 30
0.0
 11
135.1739938873553
 21
91.42811023999101
 31
0.0
 12
134.851996614146
 22
89.81812387394839
 32
0.0
 13
135.1739938873553
 23
89.81812387394887
 33
0.0
  0
SOLID
  5
11D8
330
1F
100
AcDbEntity
  8
LOGO
 62
     5
100
AcDbTrace
 10
138.0183568002411
 20
93.03809660603338
 30
0.0
 11
138.9521488925462
 21
93.03809660603338
 31
0.0
 12
138.0183568002411
 22
97.76072327975738
 32
0.0
 13
138.9521488925462
 23
101.1846276182075
 33
0.0
  0
SOLID
  5
11D9
330
1F
100
AcDbEntity
  8
LOGO
 62
     5
100
AcDbTrace
 10
139.3385456203968
 20
101.893021619266
 30
0.0
 11
140.2723377127009
 21
101.8930216192665
 31
0.0
 12
139.3385456203968
 22
93.74649060709188
 32
0.0
 13
140.2723377127009
 23
97.17039494554201
 33
0.0
  0
SOLID
  5
11DA
330
1F
100
AcDbEntity
  8
LOGO
 62
     2
100
AcDbTrace
 10
138.9521488925462
 20
101.893021619266
 30
0.0
 11
139.3385456203968
 21
101.893021619266
 31
0.0
 12
138.9521488925462
 22
93.03809660603338
 32
0.0
 13
139.3385456203968
 23
93.03809660603338
 33
0.0
  0
SOLID
  5
11DB
330
1F
100
AcDbEntity
  8
LOGO
 62
     5
100
AcDbTrace
 10
139.3385456203968
 20
93.74649060709188
 30
0.0
 11
140.2723377127009
 21
97.17039494554201
 31
0.0
 12
143.7821079906731
 22
101.8930216192665
 32
0.0
 13
142.848315898369
 23
101.8930216192665
 33
0.0
  0
SOLID
  5
11DC
330
1F
100
AcDbEntity
  8
LOGO
 62
     5
100
AcDbTrace
 10
139.3385456203968
 20
93.03809660603338
 30
0.0
 11
140.2723377127009
 21
93.03809660603338
 31
0.0
 12
143.7821079906731
 22
101.1846276182075
 32
0.0
 13
142.848315898369
 23
97.76072327975738
 33
0.0
  0
SOLID
  5
11DD
330
1F
100
AcDbEntity
  8
LOGO
 62
     2
100
AcDbTrace
 10
138.9521488925462
 20
93.03809660603338
 30
0.0
 11
139.3385456203968
 21
93.03809660603338
 31
0.0
 12
143.7821079906731
 22
101.8930216192665
 32
0.0
 13
144.1685047185237
 23
101.893021619266
 33
0.0
  0
LWPOLYLINE
  5
11DE
330
1F
100
AcDbEntity
  8
LOGO
 62
     4
100
AcDbPolyline
 90
        4
 70
     1
 43
0.0
 10
130.9476875304583
 20
102.4060474160199
 10
427.9476875304583
 20
102.4060474160199
 10
427.9476875304583
 20
80.80917501782952
 10
130.9476875304583
 20
80.80917501782952
1001
GENIUS_GENREC_14
1002
{
1000
PYDIR
1011
130.9476875304583
1021
80.80917501782952
1031
0.0
1002
}
1002
{
1000
PXDIR
1011
427.9476875304583
1021
102.4060474160199
1031
0.0
1002
}
1002
{
1000
PORI
1011
130.9476875304583
1021
102.4060474160199
1031
0.0
1002
}
1002
{
1000
PINS
1011
130.9476875304583
1021
102.4060474160199
1031
0.0
1002
}
1002
{
1000
PINS2
1011
427.9476875304583
1021
80.80917501782952
1031
0.0
1002
}
1002
{
1000
C
1070
     1
1002
}
1001
GENIUS_GENOBJ-N-REC_13
1002
{
1000
OWNER
1000
GEN
1002
}
1001
GENIUS_GENODEF_13
1002
{
1000
HIER
1070
     0
1002
}
1002
{
1000
MANEDIT
1070
     0
1002
}
1002
{
1000
NOSEL
1070
     0
1002
}
1002
{
1000
BEHIND
1070
     0
1002
}
1002
{
1000
OTHER
1070
     0
1002
}
1002
{
1000
REACTOR
1002
}
  0
LINE
  5
11DF
330
1F
100
AcDbEntity
  8
LOGO
 62
     4
100
AcDbLine
 10
222.5642612044573
 20
90.52776759701567
 30
0.0
 11
222.5642612044573
 21
82.60891438434555
 31
0.0
  0
LINE
  5
11E0
330
1F
100
AcDbEntity
  8
LOGO
 62
     4
100
AcDbLine
 10
208.1663462723305
 20
90.52776759701567
 30
0.0
 11
208.1663462723305
 21
82.60891438434555
 31
0.0
  0
LINE
  5
11E1
330
1F
100
AcDbEntity
  8
LOGO
 62
     4
100
AcDbLine
 10
222.5642612044573
 20
82.60891438434555
 30
0.0
 11
208.1663462723305
 21
82.60891438434555
 31
0.0
  0
LINE
  5
11E2
330
1F
100
AcDbEntity
  8
LOGO
 62
     4
100
AcDbLine
 10
225.1466802614481
 20
100.2463601762008
 30
0.0
 11
208.1663462723305
 21
100.2463601762008
 31
0.0
  0
LINE
  5
11E3
330
1F
100
AcDbEntity
  8
LOGO
 62
     4
100
AcDbLine
 10
225.1466802614481
 20
93.76729845674388
 30
0.0
 11
208.1663462723305
 21
93.76729845674388
 31
0.0
  0
LINE
  5
11E4
330
1F
100
AcDbEntity
  8
LOGO
 62
     4
100
AcDbLine
 10
208.1663462723305
 20
100.2463601762008
 30
0.0
 11
208.1663462723305
 21
93.76729845674388
 31
0.0
  0
LINE
  5
11E5
330
1F
100
AcDbEntity
  8
LOGO
 62
     4
100
AcDbLine
 10
225.1466802614481
 20
100.2463601762008
 30
0.0
 11
225.1466802614481
 21
93.76729845674388
 31
0.0
  0
LINE
  5
11E6
330
1F
100
AcDbEntity
  8
LOGO
 62
     4
100
AcDbLine
 10
216.1165132668894
 20
93.76729845674388
 30
0.0
 11
216.1165132668894
 21
90.52776759701567
 31
0.0
  0
TEXT
  5
11E7
330
1F
100
AcDbEntity
  8
LOGO
  6
Continuous
100
AcDbText
 10
209.3175740686729
 20
95.11979311829326
 30
0.0
 40
3.779999999999999
  1
MCHU
  7
chineset
100
AcDbText
  0
LINE
  5
11E8
330
1F
100
AcDbEntity
  8
LOGO
 62
     4
100
AcDbLine
 10
222.5642612044573
 20
90.52776759701567
 30
0.0
 11
208.1663462723305
 21
90.52776759701567
 31
0.0
  0
TEXT
  5
11E9
330
1F
100
AcDbEntity
  8
LOGO
  6
Continuous
100
AcDbText
 10
212.786591590945
 20
83.7266437229956
 30
141.5423438208537
 40
1.62
  1
Model
 41
0.8
  7
chineset
100
AcDbText
  0
TEXT
  5
11EA
330
1F
100
AcDbEntity
  8
LOGO
100
AcDbText
 10
212.355400253906
 20
86.72977458807716
 30
141.5423438208537
 40
2.699999999999999
  1
型號
  7
chineset
100
AcDbText
  0
LINE
  5
11EB
330
1F
100
AcDbEntity
  8
LOGO
  6
Continuous
100
AcDbLine
 10
225.8354580709343
 20
96.98387945592839
 30
0.0
 11
228.6963753157889
 21
96.98387945592839
 31
0.0
  0
LINE
  5
11EC
330
1F
100
AcDbEntity
  8
LOGO
 62
     4
100
AcDbLine
 10
236.5956483898206
 20
90.52776759701567
 30
0.0
 11
236.5956483898206
 21
82.60891438434555
 31
0.0
  0
LINE
  5
11ED
330
1F
100
AcDbEntity
  8
LOGO
 62
     4
100
AcDbLine
 10
224.075369830078
 20
90.52776759701567
 30
0.0
 11
224.075369830078
 21
82.60891438434555
 31
0.0
  0
LINE
  5
11EE
330
1F
100
AcDbEntity
  8
LOGO
 62
     4
100
AcDbLine
 10
236.5956483898206
 20
82.60891438434555
 30
0.0
 11
224.075369830078
 21
82.60891438434555
 31
0.0
  0
LINE
  5
11EF
330
1F
100
AcDbEntity
  8
LOGO
 62
     4
100
AcDbLine
 10
237.3410221217124
 20
100.2463601762008
 30
0.0
 11
229.3760180588709
 21
100.2463601762008
 31
0.0
  0
LINE
  5
11F0
330
1F
100
AcDbEntity
  8
LOGO
 62
     4
100
AcDbLine
 10
237.3410221217124
 20
93.76729845674388
 30
0.0
 11
229.3760180588709
 21
93.76729845674388
 31
0.0
  0
LINE
  5
11F1
330
1F
100
AcDbEntity
  8
LOGO
 62
     4
100
AcDbLine
 10
229.3760180588709
 20
100.2463601762008
 30
0.0
 11
229.3760180588709
 21
93.76729845674388
 31
0.0
  0
LINE
  5
11F2
330
1F
100
AcDbEntity
  8
LOGO
 62
     4
100
AcDbLine
 10
237.3410221217124
 20
100.2463601762008
 30
0.0
 11
237.3410221217124
 21
93.76729845674388
 31
0.0
  0
LINE
  5
11F3
330
1F
100
AcDbEntity
  8
LOGO
 62
     4
100
AcDbLine
 10
233.3585200902916
 20
93.76729845674388
 30
0.0
 11
233.3585200902916
 21
90.52776759701567
 31
0.0
  0
TEXT
  5
11F4
330
1F
100
AcDbEntity
  8
LOGO
  6
Continuous
100
AcDbText
 10
230.2383638487312
 20
95.11979311829326
 30
0.0
 40
3.779999999999999
  1
16
  7
chineset
100
AcDbText
  0
LINE
  5
11F5
330
1F
100
AcDbEntity
  8
LOGO
 62
     4
100
AcDbLine
 10
236.5956483898206
 20
90.52776759701567
 30
0.0
 11
224.075369830078
 21
90.52776759701567
 31
0.0
  0
LINE
  5
11F6
330
1F
100
AcDbEntity
  8
LOGO
  6
Continuous
100
AcDbLine
 10
249.9203136345316
 20
96.98387945592839
 30
0.0
 11
252.7812308793868
 21
96.98387945592839
 31
0.0
  0
LINE
  5
11F7
330
1F
100
AcDbEntity
  8
LOGO
 62
     4
100
AcDbLine
 10
273.7773505940717
 20
90.52776759701567
 30
0.0
 11
273.7773505940717
 21
82.60891438434555
 31
0.0
  0
LINE
  5
11F8
330
1F
100
AcDbEntity
  8
LOGO
 62
     4
100
AcDbLine
 10
254.3902019635946
 20
90.52776759701567
 30
0.0
 11
254.3902019635946
 21
82.60891438434555
 31
0.0
  0
LINE
  5
11F9
330
1F
100
AcDbEntity
  8
LOGO
 62
     4
100
AcDbLine
 10
273.7773505940717
 20
82.60891438434555
 30
0.0
 11
254.3902019635946
 21
82.60891438434555
 31
0.0
  0
LINE
  5
11FA
330
1F
100
AcDbEntity
  8
LOGO
 62
     4
100
AcDbLine
 10
263.7518776965852
 20
100.2463601762008
 30
0.0
 11
253.6836994621901
 21
100.2463601762008
 31
0.0
  0
LINE
  5
11FB
330
1F
100
AcDbEntity
  8
LOGO
 62
     4
100
AcDbLine
 10
263.7518776965852
 20
93.76729845674388
 30
0.0
 11
253.6836994621901
 21
93.76729845674388
 31
0.0
  0
LINE
  5
11FC
330
1F
100
AcDbEntity
  8
LOGO
 62
     4
100
AcDbLine
 10
253.6836994621901
 20
100.2463601762008
 30
0.0
 11
253.6836994621901
 21
93.76729845674388
 31
0.0
  0
LINE
  5
11FD
330
1F
100
AcDbEntity
  8
LOGO
 62
     4
100
AcDbLine
 10
263.7518776965852
 20
100.2463601762008
 30
0.0
 11
263.7518776965852
 21
93.76729845674388
 31
0.0
  0
TEXT
  5
11FE
330
1F
100
AcDbEntity
  8
LOGO
  6
Continuous
100
AcDbText
 10
256.0071520475907
 20
95.11979311829326
 30
0.0
 40
3.779999999999999
  1
RT
  7
chineset
100
AcDbText
  0
LINE
  5
11FF
330
1F
100
AcDbEntity
  8
LOGO
 62
     4
100
AcDbLine
 10
273.7773505940717
 20
90.52776759701567
 30
0.0
 11
254.3902019635946
 21
90.52776759701567
 31
0.0
  0
TEXT
  5
1200
330
1F
100
AcDbEntity
  8
LOGO
  6
Continuous
100
AcDbText
 10
226.2864420525902
 20
83.7266437229956
 30
141.5423438208537
 40
1.62
  1
Tube I.D.
 41
0.8
  7
chineset
100
AcDbText
  0
TEXT
  5
1201
330
1F
100
AcDbEntity
  8
LOGO
100
AcDbText
 10
227.3521268029299
 20
86.72977458807716
 30
141.5423438208537
 40
2.699999999999999
  1
內徑
  7
chineset
100
AcDbText
  0
TEXT
  5
1202
330
1F
100
AcDbEntity
  8
LOGO
  6
Continuous
100
AcDbText
 10
255.7530792924685
 20
83.7266437229956
 30
141.5423438208537
 40
1.62
  1
Auto swicth type
 41
0.8
  7
chineset
100
AcDbText
  0
TEXT
  5
1203
330
1F
100
AcDbEntity
  8
LOGO
100
AcDbText
 10
257.6318804301111
 20
86.72977458807716
 30
141.5423438208537
 40
2.699999999999999
  1
感應開關
  7
chineset
100
AcDbText
  0
LINE
  5
1204
330
1F
100
AcDbEntity
  8
LOGO
 62
     4
100
AcDbLine
 10
276.5177317516211
 20
100.2463601762008
 30
0.0
 11
268.6832171200199
 21
100.2463601762008
 31
0.0
  0
LINE
  5
1205
330
1F
100
AcDbEntity
  8
LOGO
 62
     4
100
AcDbLine
 10
276.5177317516211
 20
93.76729845674388
 30
0.0
 11
268.6832171200199
 21
93.76729845674388
 31
0.0
  0
LINE
  5
1206
330
1F
100
AcDbEntity
  8
LOGO
 62
     4
100
AcDbLine
 10
268.6832171200199
 20
100.2463601762008
 30
0.0
 11
268.6832171200199
 21
93.76729845674388
 31
0.0
  0
LINE
  5
1207
330
1F
100
AcDbEntity
  8
LOGO
 62
     4
100
AcDbLine
 10
276.5177317516211
 20
100.2463601762008
 30
0.0
 11
276.5177317516211
 21
93.76729845674388
 31
0.0
  0
TEXT
  5
1208
330
1F
100
AcDbEntity
  8
LOGO
  6
Continuous
100
AcDbText
 10
271.3371384668444
 20
95.11979311829326
 30
0.0
 40
3.779999999999999
  1
*
  7
chineset
100
AcDbText
  0
LINE
  5
1209
330
1F
100
AcDbEntity
  8
LOGO
 62
     4
100
AcDbLine
 10
302.4239970420455
 20
90.52776759701567
 30
0.0
 11
302.4239970420455
 21
82.60891438434555
 31
0.0
  0
LINE
  5
120A
330
1F
100
AcDbEntity
  8
LOGO
 62
     4
100
AcDbLine
 10
275.2742853471925
 20
90.52776759701567
 30
0.0
 11
275.2742853471925
 21
82.60891438434555
 31
0.0
  0
LINE
  5
120B
330
1F
100
AcDbEntity
  8
LOGO
 62
     4
100
AcDbLine
 10
302.4239970420455
 20
82.60891438434555
 30
0.0
 11
275.2742853471925
 21
82.60891438434555
 31
0.0
  0
LINE
  5
120C
330
1F
100
AcDbEntity
  8
LOGO
 62
     4
100
AcDbLine
 10
302.4239970420455
 20
90.52776759701567
 30
0.0
 11
275.2742853471925
 21
90.52776759701567
 31
0.0
  0
TEXT
  5
120D
330
1F
100
AcDbEntity
  8
LOGO
  6
Continuous
100
AcDbText
 10
277.8239543992371
 20
83.7266437229956
 30
141.5423438208537
 40
1.62
  1
Number of auto swicth
 41
0.8
  7
chineset
100
AcDbText
  0
TEXT
  5
120E
330
1F
100
AcDbEntity
  8
LOGO
100
AcDbText
 10
280.2789748087113
 20
86.72977458807716
 30
141.5423438208537
 40
2.699999999999999
  1
感應開關數量
  7
chineset
100
AcDbText
  0
LINE
  5
120F
330
1F
100
AcDbEntity
  8
LOGO
 62
     4
100
AcDbLine
 10
288.8491411946191
 20
92.14753302687979
 30
0.0
 11
288.8491411946191
 21
90.52776759701567
 31
0.0
  0
TEXT
  5
1210
330
1F
100
AcDbEntity
  8
LOGO
100
AcDbText
 10
179.4614652450131
 20
81.95812010526484
 30
0.0
 40
2.16
  1
10710302
 41
0.7
  7
chineset
 72
     1
 11
184.7174652450131
 21
81.95812010526484
 31
0.0
100
AcDbText
  0
LINE
  5
1211
330
1F
100
AcDbEntity
  8
LOGO
 62
     4
100
AcDbLine
 10
191.4208068064754
 20
85.12854949746829
 30
0.0
 11
191.4208068064764
 21
80.80917501783002
 31
0.0
  0
LINE
  5
1212
330
1F
100
AcDbEntity
  8
LOGO
 62
     4
100
AcDbLine
 10
191.4208068064754
 20
85.12854949746829
 30
0.0
 11
178.4608068064765
 21
85.12854949746829
 31
0.0
  0
CIRCLE
  5
1213
330
1F
100
AcDbEntity
  8
LOGO
  6
Continuous
100
AcDbCircle
 10
168.0618229282843
 20
95.93160528337314
 30
0.0
 40
1.253965244746281
  0
CIRCLE
  5
1214
330
1F
100
AcDbEntity
  8
LOGO
  6
Continuous
100
AcDbCircle
 10
168.0618229282843
 20
95.93160528337314
 30
0.0
 40
0.7347126261588449
  0
LINE
  5
1215
330
1F
100
AcDbEntity
  8
LOGO
100
AcDbLine
 10
175.9418860302437
 20
94.67764003862662
 30
0.0
 11
175.9418860302437
 21
97.18557052811966
 31
0.0
  0
LINE
  5
1216
330
1F
100
AcDbEntity
  8
LOGO
100
AcDbLine
 10
172.0107769690039
 20
95.19689265721444
 30
0.0
 11
172.0107769690039
 21
96.66631790953211
 31
0.0
  0
LINE
  5
1217
330
1F
100
AcDbEntity
  8
LOGO
  6
Continuous
100
AcDbLine
 10
172.0107769690039
 20
96.66631790953211
 30
0.0
 11
175.9418860302437
 21
97.18557052811966
 31
0.0
  0
LINE
  5
1218
330
1F
100
AcDbEntity
  8
LOGO
  6
Continuous
100
AcDbLine
 10
172.0107769690039
 20
95.19689265721444
 30
0.0
 11
175.9418860302437
 21
94.67764003862662
 31
0.0
  0
LINE
  5
1219
330
1F
100
AcDbEntity
  8
LOGO
  6
AM_ISO08W050x2
 48
0.3
100
AcDbLine
 10
166.3332130617505
 20
95.93160528337314
 30
0.0
 11
169.790432794818
 21
95.93160528337314
 31
0.0
1001
GENIUS_GENOREF_13
1005
1222
  0
LINE
  5
121A
330
1F
100
AcDbEntity
  8
LOGO
  6
AM_ISO08W050x2
 48
0.3
100
AcDbLine
 10
168.0618229282843
 20
94.20299541683943
 30
0.0
 11
168.0618229282843
 21
97.66021514990685
 31
0.0
1001
GENIUS_GENOREF_13
1005
1221
  0
LINE
  5
121B
330
1F
100
AcDbEntity
  8
LOGO
  6
CENTER
 48
0.5
100
AcDbLine
 10
171.6963975087698
 20
95.93160528337314
 30
0.0
 11
176.3377359870544
 21
95.93160528337314
 31
0.0
1001
GENIUS_GENOREF_13
1005
1220
  0
LINE
  5
121C
330
1F
100
AcDbEntity
  8
LOGO
  6
Continuous
100
AcDbLine
 10
264.9293575244076
 20
96.98387945592839
 30
0.0
 11
267.7902747692628
 21
96.98387945592839
 31
0.0
  0
LINE
  5
121D
330
1F
100
AcDbEntity
  8
LOGO
 62
     4
100
AcDbLine
 10
288.8491411946191
 20
92.14753302687977
 30
0.0
 11
272.6004744358205
 21
92.14753302687977
 31
0.0
  0
LINE
  5
121E
330
1F
100
AcDbEntity
  8
LOGO
 62
     4
100
AcDbLine
 10
258.7177885793877
 20
93.76729845674388
 30
0.0
 11
258.7177885793877
 21
90.52776759701567
 31
0.0
  0
LINE
  5
121F
330
1F
100
AcDbEntity
  8
LOGO
 62
     4
100
AcDbLine
 10
272.6004744358205
 20
93.76729845674388
 30
0.0
 11
272.6004744358205
 21
92.14753302687977
 31
0.0
  0
POINT
  5
1220
330
1F
100
AcDbEntity
  8
0
 60
     1
100
AcDbPoint
 10
-1583.150379115036
 20
-766.7068263546341
 30
0.0
1001
GENIUS_GENOBJ-N-CRS_13
1002
{
1000
OWNER
1000
GEN
1002
}
1001
GENIUS_GENOLIS_13
1002
{
1000
ENT
1005
0
1005
0
1005
0
1005
121B
1002
}
1001
GENIUS_GENOENT_13
1002
{
1000
MYREF
1005
1220
1002
}
1002
{
1000
GRP
1005
0
1002
}
1001
GENIUS_GENODEF_13
1002
{
1000
HIER
1070
    10
1002
}
1002
{
1000
MANEDIT
1070
     1
1002
}
1002
{
1000
NOSEL
1070
     0
1002
}
1002
{
1000
BEHIND
1070
     0
1002
}
1002
{
1000
OTHER
1070
     0
1002
}
1002
{
1000
REACTOR
1002
}
  0
POINT
  5
1221
330
1F
100
AcDbEntity
  8
0
 60
     1
100
AcDbPoint
 10
-1594.474964337891
 20
-757.8312398759979
 30
0.0
1001
GENIUS_GENOBJ-N-CRS_13
1002
{
1000
OWNER
1000
GEN
1002
}
1001
GENIUS_GENOLIS_13
1002
{
1000
ENT
1005
0
1005
0
1005
0
1005
121A
1002
}
1001
GENIUS_GENOENT_13
1002
{
1000
MYREF
1005
1221
1002
}
1002
{
1000
GRP
1005
0
1002
}
1001
GENIUS_GENODEF_13
1002
{
1000
HIER
1070
    10
1002
}
1002
{
1000
MANEDIT
1070
     1
1002
}
1002
{
1000
NOSEL
1070
     0
1002
}
1002
{
1000
BEHIND
1070
     0
1002
}
1002
{
1000
OTHER
1070
     0
1002
}
1002
{
1000
REACTOR
1002
}
  0
POINT
  5
1222
330
1F
100
AcDbEntity
  8
0
 60
     1
100
AcDbPoint
 10
-1588.116290640054
 20
-766.7068263546341
 30
0.0
1001
GENIUS_GENOBJ-N-CRS_13
1002
{
1000
OWNER
1000
GEN
1002
}
1001
GENIUS_GENOLIS_13
1002
{
1000
ENT
1005
0
1005
0
1005
0
1005
1219
1002
}
1001
GENIUS_GENOENT_13
1002
{
1000
MYREF
1005
1222
1002
}
1002
{
1000
GRP
1005
0
1002
}
1001
GENIUS_GENODEF_13
1002
{
1000
HIER
1070
    10
1002
}
1002
{
1000
MANEDIT
1070
     1
1002
}
1002
{
1000
NOSEL
1070
     0
1002
}
1002
{
1000
BEHIND
1070
     0
1002
}
1002
{
1000
OTHER
1070
     0
1002
}
1002
{
1000
REACTOR
1002
}
  0
LINE
  5
1223
330
1F
100
AcDbEntity
  8
LOGO
 62
     4
100
AcDbLine
 10
252.655385619517
 20
90.52776759701567
 30
0.0
 11
252.655385619517
 21
82.60891438434555
 31
0.0
  0
LINE
  5
1224
330
1F
100
AcDbEntity
  8
LOGO
 62
     4
100
AcDbLine
 10
238.2574706873902
 20
90.52776759701567
 30
0.0
 11
238.2574706873902
 21
82.60891438434555
 31
0.0
  0
LINE
  5
1225
330
1F
100
AcDbEntity
  8
LOGO
 62
     4
100
AcDbLine
 10
252.655385619517
 20
82.60891438434555
 30
0.0
 11
238.2574706873902
 21
82.60891438434555
 31
0.0
  0
LINE
  5
1226
330
1F
100
AcDbEntity
  8
LOGO
 62
     4
100
AcDbLine
 10
248.8426799935634
 20
100.2463601762008
 30
0.0
 11
238.5690688215639
 21
100.2463601762008
 31
0.0
  0
LINE
  5
1227
330
1F
100
AcDbEntity
  8
LOGO
 62
     4
100
AcDbLine
 10
248.8426799935634
 20
93.76729845674388
 30
0.0
 11
238.5690688215639
 21
93.76729845674388
 31
0.0
  0
LINE
  5
1228
330
1F
100
AcDbEntity
  8
LOGO
 62
     4
100
AcDbLine
 10
238.5690688215639
 20
100.2463601762008
 30
0.0
 11
238.5690688215639
 21
93.76729845674388
 31
0.0
  0
LINE
  5
1229
330
1F
100
AcDbEntity
  8
LOGO
 62
     4
100
AcDbLine
 10
248.8426799935634
 20
100.2463601762008
 30
0.0
 11
248.8426799935634
 21
93.76729845674388
 31
0.0
  0
LINE
  5
122A
330
1F
100
AcDbEntity
  8
LOGO
 62
     4
100
AcDbLine
 10
243.7058744075636
 20
93.76729845674388
 30
0.0
 11
243.7058744075636
 21
90.52776759701567
 31
0.0
  0
TEXT
  5
122B
330
1F
100
AcDbEntity
  8
LOGO
  6
Continuous
100
AcDbText
 10
239.4314146114241
 20
95.11979311829326
 30
0.0
 40
3.779999999999999
  1
(M)
  7
chineset
100
AcDbText
  0
LINE
  5
122C
330
1F
100
AcDbEntity
  8
LOGO
 62
     4
100
AcDbLine
 10
252.655385619517
 20
90.52776759701567
 30
0.0
 11
238.2574706873902
 21
90.52776759701567
 31
0.0
  0
TEXT
  5
122D
330
1F
100
AcDbEntity
  8
LOGO
  6
Continuous
100
AcDbText
 10
241.2732454072378
 20
83.7266437229956
 30
141.5423438208537
 40
1.62
  1
Magnet
 41
0.8
  7
chineset
100
AcDbText
  0
TEXT
  5
122E
330
1F
100
AcDbEntity
  8
LOGO
100
AcDbText
 10
242.3389301575774
 20
86.72977458807716
 30
141.5423438208537
 40
2.699999999999999
  1
附磁石
  7
chineset
100
AcDbText
  0
LINE
  5
13D0
330
1F
100
AcDbEntity
  8
AM_7
100
AcDbLine
 10
217.2583027316241
 20
146.9686233028101
 30
0.0
 11
217.2583027316241
 21
185.8966443135699
 31
0.0
  0
LINE
  5
13D1
330
1F
100
AcDbEntity
  8
0
100
AcDbLine
 10
182.258302731624
 20
150.3097422040176
 30
0.0
 11
252.2583027316241
 21
150.3097422040176
 31
0.0
  0
LINE
  5
13D2
330
1F
100
AcDbEntity
  8
0
100
AcDbLine
 10
252.2583027316241
 20
150.3097422040176
 30
0.0
 11
252.2583027316241
 21
184.3097422040176
 31
0.0
  0
LINE
  5
13D3
330
1F
100
AcDbEntity
  8
0
100
AcDbLine
 10
252.2583027316241
 20
184.3097422040176
 30
0.0
 11
182.258302731624
 21
184.3097422040176
 31
0.0
  0
LINE
  5
13D4
330
1F
100
AcDbEntity
  8
0
100
AcDbLine
 10
182.258302731624
 20
184.3097422040176
 30
0.0
 11
182.258302731624
 21
150.3097422040176
 31
0.0
  0
LINE
  5
13D5
330
1F
100
AcDbEntity
  8
0
100
AcDbLine
 10
182.258302731624
 20
223.6732490949279
 30
0.0
 11
252.2583027316241
 21
223.6732490949279
 31
0.0
  0
LINE
  5
13D6
330
1F
100
AcDbEntity
  8
0
100
AcDbLine
 10
252.2583027316241
 20
223.6732490949279
 30
0.0
 11
252.2583027316241
 21
266.6732490949279
 31
0.0
  0
LINE
  5
13D7
330
1F
100
AcDbEntity
  8
0
100
AcDbLine
 10
252.2583027316241
 20
266.6732490949279
 30
0.0
 11
182.258302731624
 21
266.6732490949279
 31
0.0
  0
LINE
  5
13D8
330
1F
100
AcDbEntity
  8
0
100
AcDbLine
 10
182.258302731624
 20
266.6732490949279
 30
0.0
 11
182.258302731624
 21
223.6732490949279
 31
0.0
  0
LINE
  5
13D9
330
1F
100
AcDbEntity
  8
0
100
AcDbLine
 10
319.7114185426009
 20
150.3097422040176
 30
0.0
 11
358.7114185426009
 21
150.3097422040176
 31
0.0
  0
LINE
  5
13DA
330
1F
100
AcDbEntity
  8
0
100
AcDbLine
 10
360.7114185426009
 20
152.3097422040176
 30
0.0
 11
360.7114185426009
 21
163.8097422040176
 31
0.0
  0
LINE
  5
13DB
330
1F
100
AcDbEntity
  8
0
100
AcDbLine
 10
358.7114185426009
 20
184.3097422040176
 30
0.0
 11
319.7114185426009
 21
184.3097422040176
 31
0.0
  0
LINE
  5
13DC
330
1F
100
AcDbEntity
  8
0
100
AcDbLine
 10
317.7114185426009
 20
182.3097422040176
 30
0.0
 11
317.7114185426009
 21
152.3097422040176
 31
0.0
  0
LINE
  5
13DD
330
1F
100
AcDbEntity
  8
AM_7
100
AcDbLine
 10
243.7500384982523
 20
170.8097422040176
 30
0.0
 11
231.1372161187914
 21
170.8097422040176
 31
0.0
  0
LINE
  5
13DE
330
1F
100
AcDbEntity
  8
AM_7
100
AcDbLine
 10
237.2583027316241
 20
164.9691434728981
 30
0.0
 11
237.2583027316241
 21
176.3403143766946
 31
0.0
  0
LINE
  5
13E1
330
1F
100
AcDbEntity
  8
AM_7
100
AcDbLine
 10
197.258302731624
 20
240.5916535994404
 30
0.0
 11
197.258302731624
 21
250.4261791324587
 31
0.0
  0
LINE
  5
13E2
330
1F
100
AcDbEntity
  8
AM_7
100
AcDbLine
 10
237.2583027316241
 20
240.5916535994404
 30
0.0
 11
237.2583027316241
 21
250.4261791324587
 31
0.0
  0
LINE
  5
13E5
330
1F
100
AcDbEntity
  8
AM_7
100
AcDbLine
 10
197.258302731624
 20
166.22814670853
 30
0.0
 11
197.258302731624
 21
176.0626722415484
 31
0.0
  0
LINE
  5
13E8
330
1F
100
AcDbEntity
  8
AM_7
100
AcDbLine
 10
237.2583027316241
 20
166.22814670853
 30
0.0
 11
237.2583027316241
 21
176.0626722415484
 31
0.0
  0
LINE
  5
13EB
330
1F
100
AcDbEntity
  8
AM_7
100
AcDbLine
 10
202.797394930147
 20
170.8097422040176
 30
0.0
 11
192.0682298216165
 21
170.8097422040176
 31
0.0
  0
LINE
  5
13EC
330
1F
100
AcDbEntity
  8
AM_7
100
AcDbLine
 10
197.258302731624
 20
164.6618150037377
 30
0.0
 11
197.258302731624
 21
177.8769591424775
 31
0.0
  0
LINE
  5
13ED
330
1F
100
AcDbEntity
  8
AM_7
100
AcDbLine
 10
256.838799348044
 20
245.1732490949279
 30
0.0
 11
177.7369994058338
 21
245.1732490949279
 31
0.0
  0
LINE
  5
13EE
330
1F
100
AcDbEntity
  8
AM_7
100
AcDbLine
 10
217.2583027316241
 20
219.3859565576305
 30
0.0
 11
217.2583027316241
 21
271.324547100113
 31
0.0
  0
LINE
  5
13EF
330
1F
100
AcDbEntity
  8
0
100
AcDbLine
 10
247.2583027316241
 20
138.3097422040176
 30
0.0
 11
237.2583027316241
 21
138.3097422040176
 31
0.0
  0
LINE
  5
13F0
330
1F
100
AcDbEntity
  8
0
100
AcDbLine
 10
237.2583027316241
 20
138.3097422040176
 30
0.0
 11
237.2583027316241
 21
150.3097422040176
 31
0.0
  0
LINE
  5
13F1
330
1F
100
AcDbEntity
  8
0
100
AcDbLine
 10
197.258302731624
 20
138.3097422040176
 30
0.0
 11
197.258302731624
 21
150.3097422040176
 31
0.0
  0
LINE
  5
13F2
330
1F
100
AcDbEntity
  8
0
100
AcDbLine
 10
247.2583027316241
 20
138.3097422040176
 30
0.0
 11
247.2583027316241
 21
150.3097422040176
 31
0.0
  0
LINE
  5
13F3
330
1F
100
AcDbEntity
  8
0
100
AcDbLine
 10
187.258302731624
 20
138.3097422040176
 30
0.0
 11
187.258302731624
 21
150.3097422040176
 31
0.0
  0
LINE
  5
13F4
330
1F
100
AcDbEntity
  8
0
100
AcDbLine
 10
197.258302731624
 20
138.3097422040176
 30
0.0
 11
187.258302731624
 21
138.3097422040176
 31
0.0
  0
LINE
  5
13F5
330
1F
100
AcDbEntity
  8
AM_7
100
AcDbLine
 10
339.2114185426009
 20
135.5948435532829
 30
0.0
 11
339.2114185426009
 21
152.532551244708
 31
0.0
  0
LINE
  5
13F6
330
1F
100
AcDbEntity
  8
0
100
AcDbLine
 10
354.2114185426009
 20
138.3097422040176
 30
0.0
 11
354.2114185426009
 21
150.3097422040176
 31
0.0
  0
LINE
  5
13F7
330
1F
100
AcDbEntity
  8
0
100
AcDbLine
 10
324.2114185426009
 20
138.3097422040176
 30
0.0
 11
324.2114185426009
 21
150.3097422040176
 31
0.0
  0
LINE
  5
13F8
330
1F
100
AcDbEntity
  8
0
100
AcDbLine
 10
324.2114185426009
 20
138.3097422040176
 30
0.0
 11
354.2114185426009
 21
138.3097422040176
 31
0.0
  0
LINE
  5
1401
330
1F
100
AcDbEntity
  8
Center
100
AcDbLine
 10
324.7114185426009
 20
172.9200735147756
 30
0.0
 11
324.7114185426009
 21
181.5190059119539
 31
0.0
  0
LINE
  5
1402
330
1F
100
AcDbEntity
  8
Center
100
AcDbLine
 10
328.5692898214049
 20
177.3097422040176
 30
0.0
 11
321.3835824309513
 21
177.3097422040176
 31
0.0
  0
LINE
  5
1405
330
1F
100
AcDbEntity
  8
Center
100
AcDbLine
 10
336.7114185426009
 20
170.5914925659454
 30
0.0
 11
336.7114185426009
 21
177.9564601066575
 31
0.0
  0
LINE
  5
1406
330
1F
100
AcDbEntity
  8
Center
100
AcDbLine
 10
343.2031543092291
 20
174.3097422040176
 30
0.0
 11
333.1556362846786
 21
174.3097422040176
 31
0.0
  0
LINE
  5
1409
330
1F
100
AcDbEntity
  8
AM_7
100
AcDbLine
 10
358.5224579082685
 20
172.3097422040176
 30
0.0
 11
338.3601701367648
 21
172.3097422040176
 31
0.0
  0
LINE
  5
140A
330
1F
100
AcDbEntity
  8
AM_7
100
AcDbLine
 10
348.7114185426009
 20
161.28921264069
 30
0.0
 11
348.7114185426009
 21
182.9089017374982
 31
0.0
  0
CIRCLE
  5
140B
330
1F
100
AcDbEntity
  8
0
100
AcDbCircle
 10
348.7114185426009
 20
172.3097422040176
 30
0.0
 40
8.5
  0
LINE
  5
140C
330
1F
100
AcDbEntity
  8
Center
100
AcDbLine
 10
185.258302731624
 20
157.9404141935423
 30
0.0
 11
185.258302731624
 21
152.5333573665307
 31
0.0
  0
LINE
  5
140D
330
1F
100
AcDbEntity
  8
Center
100
AcDbLine
 10
183.6594488390687
 20
155.3097422040176
 30
0.0
 11
187.2202064675828
 21
155.3097422040176
 31
0.0
  0
CIRCLE
  5
140E
330
1F
100
AcDbEntity
  8
0
100
AcDbCircle
 10
185.258302731624
 20
155.3097422040176
 30
0.0
 40
1.0
  0
LINE
  5
140F
330
1F
100
AcDbEntity
  8
Center
100
AcDbLine
 10
193.0598475838755
 20
175.3097422040176
 30
0.0
 11
188.0747880660144
 21
175.3097422040176
 31
0.0
  0
LINE
  5
1410
330
1F
100
AcDbEntity
  8
Center
100
AcDbLine
 10
190.258302731624
 20
177.5765688201653
 30
0.0
 11
190.258302731624
 21
172.8809666726088
 31
0.0
  0
CIRCLE
  5
1411
330
1F
100
AcDbEntity
  8
0
100
AcDbCircle
 10
190.258302731624
 20
175.3097422040176
 30
0.0
 40
0.75
  0
LINE
  5
1412
330
1F
100
AcDbEntity
  8
AM_7
100
AcDbLine
 10
249.2583027316241
 20
157.9404141935423
 30
0.0
 11
249.2583027316241
 21
152.5333573665307
 31
0.0
  0
CIRCLE
  5
1413
330
1F
100
AcDbEntity
  8
0
100
AcDbCircle
 10
249.2583027316241
 20
155.3097422040176
 30
0.0
 40
1.0
  0
LINE
  5
1414
330
1F
100
AcDbEntity
  8
AM_7
100
AcDbLine
 10
250.8571566241793
 20
155.3097422040176
 30
0.0
 11
247.2963989956653
 21
155.3097422040176
 31
0.0
  0
CIRCLE
  5
1416
330
1F
100
AcDbEntity
  8
0
100
AcDbCircle
 10
217.2583027316241
 20
245.1732490949279
 30
0.0
 40
2.0
  0
ARC
  5
1417
330
1F
100
AcDbEntity
  8
0
100
AcDbCircle
 10
319.7114185426009
 20
182.3097422040176
 30
0.0
 40
2.0
100
AcDbArc
 50
90.0
 51
180.0
  0
ARC
  5
1418
330
1F
100
AcDbEntity
  8
0
100
AcDbCircle
 10
358.7114185426009
 20
182.3097422040176
 30
0.0
 40
2.0
100
AcDbArc
 50
0.0
 51
90.0
  0
ARC
  5
1419
330
1F
100
AcDbEntity
  8
0
100
AcDbCircle
 10
358.7114185426009
 20
152.3097422040176
 30
0.0
 40
2.0
100
AcDbArc
 50
270.0
 51
0.0
  0
ARC
  5
141A
330
1F
100
AcDbEntity
  8
0
100
AcDbCircle
 10
319.7114185426009
 20
152.3097422040176
 30
0.0
 40
2.0
100
AcDbArc
 50
180.0
 51
270.0
  0
CIRCLE
  5
141C
330
1F
100
AcDbEntity
  8
0
100
AcDbCircle
 10
330.2114185426009
 20
155.3097422040176
 30
0.0
 40
2.5
  0
CIRCLE
  5
141D
330
1F
100
AcDbEntity
  8
0
100
AcDbCircle
 10
348.2114185426009
 20
155.3097422040176
 30
0.0
 40
2.5
  0
ARC
  5
141E
330
1F
100
AcDbEntity
  8
0
100
AcDbCircle
 10
357.9885428870686
 20
179.3097422040176
 30
0.0
 40
2.0
100
AcDbArc
 50
48.5903778907308
 51
311.4096221092692
  0
LINE
  5
141F
330
1F
100
AcDbEntity
  8
AM_7
100
AcDbLine
 10
363.0231609591735
 20
179.3097422040176
 30
0.0
 11
355.3129603547064
 21
179.3097422040176
 31
0.0
  0
LINE
  5
1420
330
1F
100
AcDbEntity
  8
0
100
AcDbLine
 10
359.3114185426009
 20
177.8097422040176
 30
0.0
 11
360.7114185426009
 21
177.8097422040176
 31
0.0
  0
ARC
  5
1421
330
1F
100
AcDbEntity
  8
0
100
AcDbCircle
 10
358.7114185426009
 20
182.3097422040176
 30
0.0
 40
2.0
100
AcDbArc
 50
0.0
 51
90.0
  0
LINE
  5
1422
330
1F
100
AcDbEntity
  8
0
100
AcDbLine
 10
359.3114185426009
 20
180.8097422040176
 30
0.0
 11
360.7114185426009
 21
180.8097422040176
 31
0.0
  0
LINE
  5
1423
330
1F
100
AcDbEntity
  8
0
100
AcDbLine
 10
360.7114185426009
 20
180.8097422040176
 30
0.0
 11
360.7114185426009
 21
182.3097422040176
 31
0.0
  0
LINE
  5
1424
330
1F
100
AcDbEntity
  8
AM_7
100
AcDbLine
 10
363.0231609591735
 20
165.3097422040176
 30
0.0
 11
355.3129603547064
 21
165.3097422040176
 31
0.0
  0
ARC
  5
1425
330
1F
100
AcDbEntity
  8
0
100
AcDbCircle
 10
357.9885428870686
 20
165.3097422040176
 30
0.0
 40
2.0
100
AcDbArc
 50
48.5903778907308
 51
311.4096221092692
  0
LINE
  5
1426
330
1F
100
AcDbEntity
  8
0
100
AcDbLine
 10
359.3114185426009
 20
166.8097422040176
 30
0.0
 11
360.7114185426009
 21
166.8097422040176
 31
0.0
  0
LINE
  5
1427
330
1F
100
AcDbEntity
  8
0
100
AcDbLine
 10
359.3114185426009
 20
163.8097422040176
 30
0.0
 11
360.7114185426009
 21
163.8097422040176
 31
0.0
  0
LINE
  5
1428
330
1F
100
AcDbEntity
  8
0
100
AcDbLine
 10
360.7114185426009
 20
180.8097422040176
 30
0.0
 11
360.7114185426009
 21
182.3097422040176
 31
0.0
  0
LINE
  5
1429
330
1F
100
AcDbEntity
  8
0
100
AcDbLine
 10
360.7114185426009
 20
166.8097422040176
 30
0.0
 11
360.7114185426009
 21
177.8097422040176
 31
0.0
  0
DIMENSION
  5
142A
330
1F
100
AcDbEntity
  8
AM_5
100
AcDbDimension
  2
*D4
 10
336.7114185426009
 20
196.3097422040176
 30
0.0
 11
330.7114185426009
 21
199.0600866922066
 31
0.0
 70
    32
 71
     5
 42
12.0
  3
AM_ISO$0
100
AcDbAlignedDimension
 13
324.7114185426009
 23
181.5190059119539
 33
0.0
 14
336.7114185426009
 24
177.9564601066575
 34
0.0
100
AcDbRotatedDimension
1001
ACAD
1000
DSTYLE
1002
{
1070
   272
1070
     8
1002
}
  0
DIMENSION
  5
142B
330
1F
100
AcDbEntity
  8
AM_5
100
AcDbDimension
  2
*D5
 10
317.7114185426009
 20
196.3097422040176
 30
0.0
 11
321.2114185426009
 21
199.0597422040176
 31
0.0
 70
    32
 71
     5
 42
7.0
  3
AM_ISO$0
100
AcDbAlignedDimension
 13
324.7114185426009
 23
181.5190059119539
 33
0.0
 14
317.7114185426009
 24
182.3097422040176
 34
0.0
100
AcDbRotatedDimension
1001
ACAD
1000
DSTYLE
1002
{
1070
   272
1070
     8
1002
}
  0
DIMENSION
  5
142C
330
1F
100
AcDbEntity
  8
AM_5
100
AcDbDimension
  2
*D6
 10
360.7114185426009
 20
204.3097422040176
 30
0.0
 11
339.2114185426009
 21
207.0597422040176
 31
0.0
 70
    32
 71
     5
 42
43.0
  3
AM_ISO$0
100
AcDbAlignedDimension
 13
317.7114185426009
 23
189.6576766713588
 33
0.0
 14
360.7114185426009
 24
182.3097422040176
 34
0.0
100
AcDbRotatedDimension
1001
ACAD
1000
DSTYLE
1002
{
1070
   272
1070
     8
1002
}
  0
DIMENSION
  5
142D
330
1F
100
AcDbEntity
  8
AM_5
100
AcDbDimension
  2
*D7
 10
305.7114185426009
 20
177.3097422040176
 30
0.0
 11
302.9614185426008
 21
180.8097422040177
 31
0.0
 70
    32
 71
     5
 42
7.000000000000028
  3
AM_ISO$0
100
AcDbAlignedDimension
 13
319.7114185426009
 23
184.3097422040176
 33
0.0
 14
321.3835824309513
 24
177.3097422040176
 34
0.0
 50
90.0
100
AcDbRotatedDimension
1001
ACAD
1000
DSTYLE
1002
{
1070
   272
1070
     8
1002
}
  0
DIMENSION
  5
142E
330
1F
100
AcDbEntity
  8
AM_5
100
AcDbDimension
  2
*D8
 10
372.7114185426009
 20
143.3097422040176
 30
0.0
 11
372.7114185426008
 21
163.8097422040176
 31
0.0
 70
   160
 71
     5
 42
41.0
  3
AM_ISO$0
100
AcDbAlignedDimension
 13
358.7114185426009
 23
184.3097422040176
 33
0.0
 14
352.3575714249149
 24
143.3097422040176
 34
0.0
 50
90.0
100
AcDbRotatedDimension
1001
ACAD
1000
DSTYLE
1002
{
1070
   272
1070
     8
1002
}
  0
DIMENSION
  5
142F
330
1F
100
AcDbEntity
  8
AM_5
100
AcDbDimension
  2
*D9
 10
264.2583027316241
 20
150.3097422040176
 30
0.0
 11
261.5083027316241
 21
167.3097422040176
 31
0.0
 70
    32
 71
     5
 42
34.0
  3
AM_ISO$0
100
AcDbAlignedDimension
 13
252.2583027316241
 23
184.3097422040176
 33
0.0
 14
252.2583027316241
 24
150.3097422040176
 34
0.0
 50
90.0
100
AcDbRotatedDimension
1001
ACAD
1000
DSTYLE
1002
{
1070
   272
1070
     8
1002
}
  0
DIMENSION
  5
1430
330
1F
100
AcDbEntity
  8
AM_5
100
AcDbDimension
  2
*D10
 10
264.2583027316241
 20
138.3097422040176
 30
0.0
 11
261.5079582434351
 21
144.3097422040176
 31
0.0
 70
    32
 71
     5
 42
12.0
  3
AM_ISO$0
100
AcDbAlignedDimension
 13
259.8712873264699
 23
150.3097422040176
 33
0.0
 14
247.2583027316241
 24
138.3097422040176
 34
0.0
 50
90.0
100
AcDbRotatedDimension
1001
ACAD
1000
DSTYLE
1002
{
1070
   272
1070
     8
1002
}
  0
DIMENSION
  5
1431
330
1F
100
AcDbEntity
  8
AM_5
100
AcDbDimension
  2
*D11
 10
170.258302731624
 20
184.3097422040176
 30
0.0
 11
167.508302731624
 21
177.5597422040176
 31
0.0
 70
    32
 71
     5
 42
13.49999999999997
  3
AM_ISO$0
100
AcDbAlignedDimension
 13
192.0682298216165
 23
170.8097422040176
 33
0.0
 14
182.258302731624
 24
184.3097422040176
 34
0.0
 50
90.0
100
AcDbRotatedDimension
1001
ACAD
1000
DSTYLE
1002
{
1070
   272
1070
     8
1002
}
  0
DIMENSION
  5
1432
330
1F
100
AcDbEntity
  8
AM_5
100
AcDbDimension
  2
*D12
 10
197.258302731624
 20
126.3097422040176
 30
0.0
 11
192.258302731624
 21
129.0597422040176
 31
0.0
 70
    32
 71
     5
 42
10.0
  3
AM_ISO$0
100
AcDbAlignedDimension
 13
187.258302731624
 23
138.3097422040176
 33
0.0
 14
197.258302731624
 24
138.3097422040176
 34
0.0
100
AcDbRotatedDimension
1001
ACAD
1000
DSTYLE
1002
{
1070
   272
1070
     8
1002
}
  0
DIMENSION
  5
1433
330
1F
100
AcDbEntity
  8
AM_5
100
AcDbDimension
  2
*D13
 10
237.2583027316241
 20
126.3097422040176
 30
0.0
 11
217.2583027316241
 21
129.0597422040176
 31
0.0
 70
    32
  1
MAX40
 71
     5
 42
40.00000000000006
  3
AM_ISO$0
100
AcDbAlignedDimension
 13
197.258302731624
 23
130.4424645528118
 33
0.0
 14
237.2583027316241
 24
138.3097422040176
 34
0.0
100
AcDbRotatedDimension
1001
ACAD
1000
DSTYLE
1002
{
1070
   272
1070
     8
1002
}
  0
DIMENSION
  5
1434
330
1F
100
AcDbEntity
  8
AM_5
100
AcDbDimension
  2
*D14
 10
247.2583027316241
 20
126.3097422040176
 30
0.0
 11
242.2583027316241
 21
129.0597422040176
 31
0.0
 70
    32
 71
     5
 42
10.0
  3
AM_ISO$0
100
AcDbAlignedDimension
 13
237.2583027316241
 23
130.4424645528118
 33
0.0
 14
247.2583027316241
 24
138.3097422040176
 34
0.0
100
AcDbRotatedDimension
1001
ACAD
1000
DSTYLE
1002
{
1070
   272
1070
     8
1002
}
  0
TEXT
  5
1435
330
1F
100
AcDbEntity
  8
AM_5
100
AcDbText
 10
211.1177125052495
 20
121.3089805013439
 30
0.0
 40
3.0
  1
MIN20
  7
CHINA
100
AcDbText
  0
MTEXT
  5
1436
330
1F
100
AcDbEntity
  8
AM_5
100
AcDbMText
 10
259.3224282393039
 20
267.3459334945369
 30
0.0
 40
3.0
 41
0.0
 71
     1
 72
     1
  1
2-M5x0.8x10depth
  7
CHINA
 73
     1
 44
1.0
1001
ACAD
1000
MTEXTBEGIN
1070
    73
1070
     1
1070
    44
1040
1.0
1070
    74
1070
     0
1000
MTEXTEND
  0
MTEXT
  5
1439
330
1F
100
AcDbEntity
  8
AM_5
100
AcDbMText
 10
262.53517751487
 20
202.6137810229847
 30
0.0
 40
3.0
 41
0.0
 71
     1
 72
     1
  1
2-M5x0.8x10depth
  7
CHINA
 73
     1
 44
1.0
1001
ACAD
1000
MTEXTBEGIN
1070
    73
1070
     1
1070
    44
1040
1.0
1070
    74
1070
     0
1000
MTEXTEND
  0
MTEXT
  5
143A
330
1F
100
AcDbEntity
  8
AM_5
100
AcDbMText
 10
363.9059412617205
 20
131.912066622513
 30
0.0
 40
3.0
 41
0.0
 71
     1
 72
     1
  1
2x2-M5x0.8
  7
CHINA
 73
     1
 44
1.0
1001
ACAD
1000
MTEXTBEGIN
1070
    73
1070
     1
1070
    44
1040
1.0
1070
    74
1070
     0
1000
MTEXTEND
  0
TEXT
  5
143E
330
1F
100
AcDbEntity
  8
AM_5
100
AcDbText
 10
341.5699586139276
 20
118.9953314166262
 30
0.0
 40
1.75
  1
-0.1
  7
CHINA
100
AcDbText
  0
TEXT
  5
143F
330
1F
100
AcDbEntity
  8
AM_5
100
AcDbText
 10
343.6313091329131
 20
121.256627288898
 30
0.0
 40
1.75
  1
0
  7
CHINA
100
AcDbText
  0
DIMENSION
  5
1440
330
1F
100
AcDbEntity
  8
AM_5
100
AcDbDimension
  2
*D15
 10
330.2114185426009
 20
126.3097422040176
 30
0.0
 11
339.2114185426009
 21
129.0597422040176
 31
0.0
 70
    32
 71
     5
 42
18.0
  3
AM_ISO$0
100
AcDbAlignedDimension
 13
348.2114185426009
 23
139.363383723807
 33
0.0
 14
330.2114185426009
 24
138.8097422040176
 34
0.0
100
AcDbRotatedDimension
1001
ACAD
1000
DSTYLE
1002
{
1070
   272
1070
     8
1002
}
  0
DIMENSION
  5
1441
330
1F
100
AcDbEntity
  8
AM_5
100
AcDbDimension
  2
*D16
 10
354.2114185426009
 20
118.3097422040176
 30
0.0
 11
339.2114185426009
 21
121.0597422040176
 31
0.0
 70
    32
 71
     5
 42
30.0
  3
AM_ISO$0
100
AcDbAlignedDimension
 13
324.2114185426009
 23
138.3097422040176
 33
0.0
 14
354.2114185426009
 24
138.3097422040176
 34
0.0
100
AcDbRotatedDimension
1001
ACAD
1000
DSTYLE
1002
{
1070
   272
1070
     8
1002
}
  0
MTEXT
  5
1443
330
1F
100
AcDbEntity
  8
AM_5
100
AcDbMText
 10
306.5085908537266
 20
156.1459283212593
 30
0.0
 40
3.0
 41
0.0
 71
     9
 72
     1
  1
2-M5x0.8\P Air port
  7
CHINA
 73
     1
 44
1.0
1001
ACAD
1000
MTEXTBEGIN
1070
    73
1070
     1
1070
    44
1040
1.0
1070
    74
1070
     0
1000
MTEXTEND
  0
DIMENSION
  5
1444
330
1F
100
AcDbEntity
  8
AM_5
100
AcDbDimension
  2
*D17
 10
197.258302731624
 20
278.673249094928
 30
0.0
 11
217.2583027316241
 21
281.4232490949279
 31
0.0
 70
    32
 71
     5
 42
40.00000000000006
  3
AM_ISO$0
100
AcDbAlignedDimension
 13
237.2583027316241
 23
250.4261791324587
 33
0.0
 14
197.258302731624
 24
250.4261791324587
 34
0.0
100
AcDbRotatedDimension
1001
ACAD
1000
DSTYLE
1002
{
1070
   272
1070
     8
1002
}
  0
DIMENSION
  5
1445
330
1F
100
AcDbEntity
  8
AM_5
100
AcDbDimension
  2
*D18
 10
197.258302731624
 20
196.3097422040176
 30
0.0
 11
217.2583027316241
 21
199.0597422040176
 31
0.0
 70
    32
 71
     5
 42
40.00000000000006
  3
AM_ISO$0
100
AcDbAlignedDimension
 13
237.2583027316241
 23
176.3403143766946
 33
0.0
 14
197.258302731624
 24
177.8769591424775
 34
0.0
100
AcDbRotatedDimension
1001
ACAD
1000
DSTYLE
1002
{
1070
   272
1070
     8
1002
}
  0
DIMENSION
  5
1446
330
1F
100
AcDbEntity
  8
AM_5
100
AcDbDimension
  2
*D19
 10
182.258302731624
 20
204.3097422040176
 30
0.0
 11
217.2583027316241
 21
207.0597422040176
 31
0.0
 70
    32
 71
     5
 42
70.00000000000006
  3
AM_ISO$0
100
AcDbAlignedDimension
 13
252.2583027316241
 23
184.3097422040176
 33
0.0
 14
182.258302731624
 24
184.3097422040176
 34
0.0
100
AcDbRotatedDimension
1001
ACAD
1000
DSTYLE
1002
{
1070
   272
1070
     8
1002
}
  0
DIMENSION
  5
1447
330
1F
100
AcDbEntity
  8
AM_5
100
AcDbDimension
  2
*D20
 10
297.7114185426009
 20
174.3097422040176
 30
0.0
 11
294.9614185426008
 21
179.3097422040176
 31
0.0
 70
    32
 71
     5
 42
10.00000000000003
  3
AM_ISO$0
100
AcDbAlignedDimension
 13
319.7114185426009
 23
184.3097422040176
 33
0.0
 14
333.1556362846786
 24
174.3097422040176
 34
0.0
 50
90.0
100
AcDbRotatedDimension
1001
ACAD
1000
DSTYLE
1002
{
1070
   272
1070
     8
1002
}
  0
MTEXT
  5
144B
330
1F
100
AcDbEntity
  8
AM_5
100
AcDbMText
 10
261.942745612128
 20
230.1368502947035
 30
0.0
 40
3.0
 41
0.0
 71
     1
 72
     1
  1
%%c3h9x3depth
  7
CHINA
 73
     1
 44
1.0
1001
ACAD
1000
MTEXTBEGIN
1070
    73
1070
     1
1070
    44
1040
1.0
1070
    74
1070
     0
1000
MTEXTEND
  0
INSERT
  5
1836
330
1F
100
AcDbEntity
  8
AM_5
100
AcDbBlockReference
  2
*S25
 10
0.0
 20
0.0
 30
0.0
  0
ARC
  5
1883
330
1F
100
AcDbEntity
  8
AM_4
100
AcDbCircle
 10
237.2583027316241
 20
170.8097422040176
 30
0.0
 40
2.5
100
AcDbArc
 50
260.0
 51
170.0
  0
CIRCLE
  5
1884
330
1F
100
AcDbEntity
  8
AM_0
100
AcDbCircle
 10
237.2583027316241
 20
170.8097422040176
 30
0.0
 40
2.066987298107819
  0
ARC
  5
1885
330
1F
100
AcDbEntity
  8
AM_4
100
AcDbCircle
 10
197.258302731624
 20
170.8097422040176
 30
0.0
 40
2.5
100
AcDbArc
 50
260.0
 51
170.0
  0
CIRCLE
  5
1886
330
1F
100
AcDbEntity
  8
AM_0
100
AcDbCircle
 10
197.258302731624
 20
170.8097422040176
 30
0.0
 40
2.066987298107819
  0
ARC
  5
1887
330
1F
100
AcDbEntity
  8
AM_4
100
AcDbCircle
 10
237.2583027316241
 20
245.1732490949279
 30
0.0
 40
2.5
100
AcDbArc
 50
260.0
 51
170.0
  0
CIRCLE
  5
1888
330
1F
100
AcDbEntity
  8
AM_0
100
AcDbCircle
 10
237.2583027316241
 20
245.1732490949279
 30
0.0
 40
2.066987298107819
  0
CIRCLE
  5
1889
330
1F
100
AcDbEntity
  8
AM_0
100
AcDbCircle
 10
197.2583027316241
 20
245.1732490949279
 30
0.0
 40
2.066987298107819
  0
ARC
  5
188A
330
1F
100
AcDbEntity
  8
AM_4
100
AcDbCircle
 10
197.2583027316241
 20
245.1732490949279
 30
0.0
 40
2.5
100
AcDbArc
 50
260.0
 51
170.0
  0
ARC
  5
188B
330
1F
100
AcDbEntity
  8
AM_4
100
AcDbCircle
 10
324.7114185426009
 20
177.3097422040176
 30
0.0
 40
2.5
100
AcDbArc
 50
260.0
 51
170.0
  0
CIRCLE
  5
188C
330
1F
100
AcDbEntity
  8
AM_0
100
AcDbCircle
 10
324.7114185426009
 20
177.3097422040176
 30
0.0
 40
2.066987298107819
  0
ARC
  5
188D
330
1F
100
AcDbEntity
  8
AM_4
100
AcDbCircle
 10
336.7114185426009
 20
174.3097422040176
 30
0.0
 40
2.5
100
AcDbArc
 50
260.0
 51
170.0
  0
CIRCLE
  5
188E
330
1F
100
AcDbEntity
  8
AM_0
100
AcDbCircle
 10
336.7114185426009
 20
174.3097422040176
 30
0.0
 40
2.066987298107819
  0
ARC
  5
1890
330
1F
100
AcDbEntity
  8
AM_4
100
AcDbCircle
 10
330.2114185426009
 20
143.3097422040176
 30
0.0
 40
2.5
100
AcDbArc
 50
260.0
 51
170.0
  0
CIRCLE
  5
1891
330
1F
100
AcDbEntity
  8
AM_0
100
AcDbCircle
 10
330.2114185426009
 20
143.3097422040176
 30
0.0
 40
2.066987298107819
  0
ARC
  5
1892
330
1F
100
AcDbEntity
  8
AM_4
100
AcDbCircle
 10
348.2114185426009
 20
143.3097422040176
 30
0.0
 40
2.5
100
AcDbArc
 50
260.0
 51
170.0
  0
CIRCLE
  5
1893
330
1F
100
AcDbEntity
  8
AM_0
100
AcDbCircle
 10
348.2114185426009
 20
143.3097422040176
 30
0.0
 40
2.066987298107819
  0
INSERT
  5
1894
330
1F
100
AcDbEntity
  8
AM_5
100
AcDbBlockReference
  2
*S26
 10
0.0
 20
0.0
 30
0.0
  0
INSERT
  5
1895
330
1F
100
AcDbEntity
  8
AM_5
100
AcDbBlockReference
  2
*S27
 10
0.0
 20
0.0
 30
0.0
  0
INSERT
  5
1898
330
1F
100
AcDbEntity
  8
AM_5
100
AcDbBlockReference
  2
*S28
 10
0.0
 20
0.0
 30
0.0
  0
INSERT
  5
1899
330
1F
100
AcDbEntity
  8
AM_5
100
AcDbBlockReference
  2
*S29
 10
0.0
 20
0.0
 30
0.0
  0
LINE
  5
18A7
330
1F
100
AcDbEntity
  8
AM_7
  6
AM_ISO08W050x2
100
AcDbLine
 10
348.2114185426009
 20
155.3097422040176
 30
0.0
 11
352.7114185426009
 21
155.3097422040176
 31
0.0
1001
GENIUS_GENOREF_13
1005
18AB
  0
LINE
  5
18A8
330
1F
100
AcDbEntity
  8
AM_7
  6
AM_ISO08W050x2
100
AcDbLine
 10
348.2114185426009
 20
155.3097422040176
 30
0.0
 11
348.2114185426009
 21
159.8097422040176
 31
0.0
1001
GENIUS_GENOREF_13
1005
18AB
  0
LINE
  5
18A9
330
1F
100
AcDbEntity
  8
AM_7
  6
AM_ISO08W050x2
100
AcDbLine
 10
348.2114185426009
 20
155.3097422040176
 30
0.0
 11
343.7114185426009
 21
155.3097422040176
 31
0.0
1001
GENIUS_GENOREF_13
1005
18AB
  0
LINE
  5
18AA
330
1F
100
AcDbEntity
  8
AM_7
  6
AM_ISO08W050x2
100
AcDbLine
 10
348.2114185426009
 20
155.3097422040176
 30
0.0
 11
348.2114185426009
 21
150.8097422040176
 31
0.0
1001
GENIUS_GENOREF_13
1005
18AB
  0
POINT
  5
18AB
330
1F
100
AcDbEntity
  8
0
 60
     1
100
AcDbPoint
 10
0.0
 20
0.0
 30
0.0
1001
GENIUS_GENODEF_13
1002
{
1000
HIER
1070
    10
1002
}
1002
{
1000
MANEDIT
1070
     0
1002
}
1002
{
1000
NOSEL
1070
     0
1002
}
1002
{
1000
BEHIND
1070
     0
1002
}
1002
{
1000
OTHER
1070
     0
1002
}
1002
{
1000
REACTOR
1002
}
1001
GENIUS_GENOLIS_13
1002
{
1000
ENT
1005
18AA
1005
18A9
1005
18A8
1005
18A7
1002
}
1001
GENIUS_GENOENT_13
1002
{
1000
MYREF
1005
18AB
1002
}
1002
{
1000
GRP
1005
0
1002
}
1001
GENIUS_GENOBJ-N-CRS_13
1002
{
1000
OWNER
1000
GEN
1002
}
  0
LINE
  5
18B9
330
1F
100
AcDbEntity
  8
AM_7
  6
AM_ISO08W050x2
100
AcDbLine
 10
348.2114185426009
 20
143.3097422040176
 30
0.0
 11
352.7114185426009
 21
143.3097422040176
 31
0.0
1001
GENIUS_GENOREF_13
1005
18BD
  0
LINE
  5
18BA
330
1F
100
AcDbEntity
  8
AM_7
  6
AM_ISO08W050x2
100
AcDbLine
 10
348.2114185426009
 20
143.3097422040176
 30
0.0
 11
348.2114185426009
 21
147.8097422040176
 31
0.0
1001
GENIUS_GENOREF_13
1005
18BD
  0
LINE
  5
18BB
330
1F
100
AcDbEntity
  8
AM_7
  6
AM_ISO08W050x2
100
AcDbLine
 10
348.2114185426009
 20
143.3097422040176
 30
0.0
 11
343.7114185426009
 21
143.3097422040176
 31
0.0
1001
GENIUS_GENOREF_13
1005
18BD
  0
LINE
  5
18BC
330
1F
100
AcDbEntity
  8
AM_7
  6
AM_ISO08W050x2
100
AcDbLine
 10
348.2114185426009
 20
143.3097422040176
 30
0.0
 11
348.2114185426009
 21
138.8097422040176
 31
0.0
1001
GENIUS_GENOREF_13
1005
18BD
  0
POINT
  5
18BD
330
1F
100
AcDbEntity
  8
0
 60
     1
100
AcDbPoint
 10
0.0
 20
0.0
 30
0.0
1001
GENIUS_GENOLIS_13
1002
{
1000
ENT
1005
18BC
1005
18BB
1005
18BA
1005
18B9
1002
}
1001
GENIUS_GENOENT_13
1002
{
1000
MYREF
1005
18BD
1002
}
1002
{
1000
GRP
1005
0
1002
}
1001
GENIUS_GENOBJ-N-CRS_13
1002
{
1000
OWNER
1000
GEN
1002
}
1001
GENIUS_GENODEF_13
1002
{
1000
HIER
1070
    10
1002
}
1002
{
1000
MANEDIT
1070
     0
1002
}
1002
{
1000
NOSEL
1070
     0
1002
}
1002
{
1000
BEHIND
1070
     0
1002
}
1002
{
1000
OTHER
1070
     0
1002
}
1002
{
1000
REACTOR
1002
}
  0
LINE
  5
18CB
330
1F
100
AcDbEntity
  8
AM_7
  6
AM_ISO08W050x2
100
AcDbLine
 10
330.2114185426009
 20
143.3097422040176
 30
0.0
 11
334.7114185426009
 21
143.3097422040176
 31
0.0
1001
GENIUS_GENOREF_13
1005
18CF
  0
LINE
  5
18CC
330
1F
100
AcDbEntity
  8
AM_7
  6
AM_ISO08W050x2
100
AcDbLine
 10
330.2114185426009
 20
143.3097422040176
 30
0.0
 11
330.2114185426009
 21
147.8097422040176
 31
0.0
1001
GENIUS_GENOREF_13
1005
18CF
  0
LINE
  5
18CD
330
1F
100
AcDbEntity
  8
AM_7
  6
AM_ISO08W050x2
100
AcDbLine
 10
330.2114185426009
 20
143.3097422040176
 30
0.0
 11
325.7114185426009
 21
143.3097422040176
 31
0.0
1001
GENIUS_GENOREF_13
1005
18CF
  0
LINE
  5
18CE
330
1F
100
AcDbEntity
  8
AM_7
  6
AM_ISO08W050x2
100
AcDbLine
 10
330.2114185426009
 20
143.3097422040176
 30
0.0
 11
330.2114185426009
 21
138.8097422040176
 31
0.0
1001
GENIUS_GENOREF_13
1005
18CF
  0
POINT
  5
18CF
330
1F
100
AcDbEntity
  8
0
 60
     1
100
AcDbPoint
 10
0.0
 20
0.0
 30
0.0
1001
GENIUS_GENOBJ-N-CRS_13
1002
{
1000
OWNER
1000
GEN
1002
}
1001
GENIUS_GENODEF_13
1002
{
1000
HIER
1070
    10
1002
}
1002
{
1000
MANEDIT
1070
     0
1002
}
1002
{
1000
NOSEL
1070
     0
1002
}
1002
{
1000
BEHIND
1070
     0
1002
}
1002
{
1000
OTHER
1070
     0
1002
}
1002
{
1000
REACTOR
1002
}
1001
GENIUS_GENOLIS_13
1002
{
1000
ENT
1005
18CE
1005
18CD
1005
18CC
1005
18CB
1002
}
1001
GENIUS_GENOENT_13
1002
{
1000
MYREF
1005
18CF
1002
}
1002
{
1000
GRP
1005
0
1002
}
  0
LINE
  5
18DD
330
1F
100
AcDbEntity
  8
AM_7
  6
AM_ISO08W050x2
100
AcDbLine
 10
330.2114185426009
 20
155.3097422040176
 30
0.0
 11
334.7114185426009
 21
155.3097422040176
 31
0.0
1001
GENIUS_GENOREF_13
1005
18E1
  0
LINE
  5
18DE
330
1F
100
AcDbEntity
  8
AM_7
  6
AM_ISO08W050x2
100
AcDbLine
 10
330.2114185426009
 20
155.3097422040176
 30
0.0
 11
330.2114185426009
 21
159.8097422040176
 31
0.0
1001
GENIUS_GENOREF_13
1005
18E1
  0
LINE
  5
18DF
330
1F
100
AcDbEntity
  8
AM_7
  6
AM_ISO08W050x2
100
AcDbLine
 10
330.2114185426009
 20
155.3097422040176
 30
0.0
 11
325.7114185426009
 21
155.3097422040176
 31
0.0
1001
GENIUS_GENOREF_13
1005
18E1
  0
LINE
  5
18E0
330
1F
100
AcDbEntity
  8
AM_7
  6
AM_ISO08W050x2
100
AcDbLine
 10
330.2114185426009
 20
155.3097422040176
 30
0.0
 11
330.2114185426009
 21
150.8097422040176
 31
0.0
1001
GENIUS_GENOREF_13
1005
18E1
  0
POINT
  5
18E1
330
1F
100
AcDbEntity
  8
0
 60
     1
100
AcDbPoint
 10
0.0
 20
0.0
 30
0.0
1001
GENIUS_GENODEF_13
1002
{
1000
HIER
1070
    10
1002
}
1002
{
1000
MANEDIT
1070
     0
1002
}
1002
{
1000
NOSEL
1070
     0
1002
}
1002
{
1000
BEHIND
1070
     0
1002
}
1002
{
1000
OTHER
1070
     0
1002
}
1002
{
1000
REACTOR
1002
}
1001
GENIUS_GENOLIS_13
1002
{
1000
ENT
1005
18E0
1005
18DF
1005
18DE
1005
18DD
1002
}
1001
GENIUS_GENOENT_13
1002
{
1000
MYREF
1005
18E1
1002
}
1002
{
1000
GRP
1005
0
1002
}
1001
GENIUS_GENOBJ-N-CRS_13
1002
{
1000
OWNER
1000
GEN
1002
}
  0
ENDSEC
  0
SECTION
  2
OBJECTS
  0
DICTIONARY
  5
C
330
0
100
AcDbDictionary
281
     1
  3
ACAD_COLOR
350
BE
  3
ACAD_GROUP
350
D
  3
ACAD_LAYOUT
350
1A
  3
ACAD_MATERIAL
350
BD
  3
ACAD_MLINESTYLE
350
17
  3
ACAD_PLOTSETTINGS
350
19
  3
ACAD_PLOTSTYLENAME
350
E
  3
ACAD_TABLESTYLE
350
11A
  3
ACDBHEADERROUNDTRIPXREC
350
1C3F
  3
AcDbVariableDictionary
350
94
  3
AcmDictionary
350
5B
  3
AMG
350
41
  3
AMGSNAPSETTINGS
350
1B8
  3
DWGPROPS
350
1C3E
  0
DICTIONARY
  5
3F9
330
2
100
AcDbDictionary
280
     1
281
     1
  3
ACAD_LAYERFILTERS
360
5B7
  3
ACAD_LAYERSTATES
360
1101
  3
ACLYDICTIONARY
360
5B6
  3
AMLAYER_GROUPCOLORS
360
183F
  0
DICTIONARY
  5
8F
330
1F
100
AcDbDictionary
280
     1
281
     1
  3
ACAD_SORTENTS
360
187D
  0
DICTIONARY
  5
BE
102
{ACAD_REACTORS
330
C
102
}
330
C
100
AcDbDictionary
281
     1
  0
DICTIONARY
  5
D
102
{ACAD_REACTORS
330
C
102
}
330
C
100
AcDbDictionary
281
     1
  0
DICTIONARY
  5
1A
102
{ACAD_REACTORS
330
C
102
}
330
C
100
AcDbDictionary
281
     1
  3
Model
350
22
  3
配置1
350
1E
  3
配置2
350
26
  0
DICTIONARY
  5
BD
102
{ACAD_REACTORS
330
C
102
}
330
C
100
AcDbDictionary
281
     1
  0
DICTIONARY
  5
17
102
{ACAD_REACTORS
330
C
102
}
330
C
100
AcDbDictionary
281
     1
  3
Standard
350
18
  0
DICTIONARY
  5
19
102
{ACAD_REACTORS
330
C
102
}
330
C
100
AcDbDictionary
281
     1
  0
ACDBDICTIONARYWDFLT
  5
E
102
{ACAD_REACTORS
330
C
102
}
330
C
100
AcDbDictionary
281
     1
  3
Normal
350
F
100
AcDbDictionaryWithDefault
340
F
  0
DICTIONARY
  5
11A
102
{ACAD_REACTORS
330
C
102
}
330
C
100
AcDbDictionary
281
     1
  3
Standard
350
11B
  0
DICTIONARY
  5
1C3F
102
{ACAD_REACTORS
330
C
102
}
330
C
100
AcDbDictionary
281
     1
  0
DICTIONARY
  5
94
102
{ACAD_REACTORS
330
C
102
}
330
C
100
AcDbDictionary
281
     1
  3
CTABLESTYLE
350
138
  3
DIMASSOC
350
96
  3
INDEXCTL
350
95
  3
PROJECTNAME
350
1C3C
  0
DICTIONARY
  5
5B
102
{ACAD_REACTORS
330
C
102
}
330
C
100
AcDbDictionary
281
     1
  3
AcmBOM
350
1B5
  3
AcmStdDictionary
350
61
  3
AMDTSECTSYM_ARROWCOLOR
350
123
  0
DICTIONARY
  5
41
102
{ACAD_REACTORS
330
C
102
}
330
C
100
AcDbDictionary
281
     1
  0
DICTIONARY
  5
1B8
102
{ACAD_REACTORS
330
C
102
}
330
C
100
AcDbDictionary
281
     1
  0
XRECORD
  5
1C3E
102
{ACAD_REACTORS
330
C
102
}
330
C
100
AcDbXrecord
280
     1
  1
DWGPROPS COOKIE
  2

  3

  4

  6

  7

  8

  9

300
AmdtFileType=84
301
=
302
=
303
=
304
=
305
=
306
=
307
=
308
=
309
=
 40
0.2098517129629629
 41
2454404.499322188
 42
2454407.706228113
  1

 90
        1
  0
DICTIONARY
  5
5B7
102
{ACAD_REACTORS
330
3F9
102
}
330
3F9
100
AcDbDictionary
281
     1
  0
DICTIONARY
  5
1101
102
{ACAD_REACTORS
330
3F9
102
}
330
3F9
100
AcDbDictionary
281
     1
  0
DICTIONARY
  5
5B6
102
{ACAD_REACTORS
330
3F9
102
}
330
3F9
100
AcDbDictionary
281
     1
1001
ACAD
1000
<All
  0
DICTIONARY
  5
183F
102
{ACAD_REACTORS
330
3F9
102
}
330
3F9
100
AcDbDictionary
280
     1
281
     1
  0
SORTENTSTABLE
  5
187D
102
{ACAD_REACTORS
330
8F
102
}
330
8F
100
AcDbSortentsTable
330
1F
331
11E6
  5
11E6
331
1225
  5
1225
331
1425
  5
1425
331
11EE
  5
11EE
331
122D
  5
122D
331
13EE
  5
13EE
331
142D
  5
142D
331
11F6
  5
11F6
331
11BF
  5
11BF
331
13F6
  5
13F6
331
11FE
  5
11FE
331
1435
  5
1435
331
1406
  5
1406
331
1206
  5
1206
331
120E
  5
120E
331
1445
  5
1445
331
140E
  5
140E
331
1198
  5
1198
331
11D7
  5
11D7
331
13D7
  5
13D7
331
1416
  5
1416
331
11A0
  5
11A0
331
1216
  5
1216
331
121E
  5
121E
331
11DF
  5
11DF
331
141E
  5
141E
331
11A8
  5
11A8
331
1226
  5
1226
331
1426
  5
1426
331
11B0
  5
11B0
331
11E7
  5
11E7
331
13EF
  5
13EF
331
142E
  5
142E
331
11EF
  5
11EF
331
122E
  5
122E
331
13F7
  5
13F7
331
11F7
  5
11F7
331
11FF
  5
11FF
331
1436
  5
1436
331
11C0
  5
11C0
331
143E
  5
143E
331
11C8
  5
11C8
331
1207
  5
1207
331
120F
  5
120F
331
1446
  5
1446
331
13D0
  5
13D0
331
140F
  5
140F
331
1199
  5
1199
331
1217
  5
1217
331
1417
  5
1417
331
11A1
  5
11A1
331
11D8
  5
11D8
331
121F
  5
121F
331
13D8
  5
13D8
331
11E0
  5
11E0
331
141F
  5
141F
331
11A9
  5
11A9
331
13E8
  5
13E8
331
1427
  5
1427
331
11E8
  5
11E8
331
1227
  5
1227
331
11F0
  5
11F0
331
142F
  5
142F
331
13F0
  5
13F0
331
11B9
  5
11B9
331
11F8
  5
11F8
331
13F8
  5
13F8
331
1200
  5
1200
331
143F
  5
143F
331
1208
  5
1208
331
1210
  5
1210
331
1447
  5
1447
331
13D1
  5
13D1
331
1410
  5
1410
331
119A
  5
119A
331
11A2
  5
11A2
331
11D9
  5
11D9
331
1218
  5
1218
331
13D9
  5
13D9
331
1418
  5
1418
331
1420
  5
1420
331
13E1
  5
13E1
331
11AA
  5
11AA
331
11E1
  5
11E1
331
1228
  5
1228
331
1428
  5
1428
331
11E9
  5
11E9
331
11F1
  5
11F1
331
13F1
  5
13F1
331
11BA
  5
11BA
331
11F9
  5
11F9
331
1430
  5
1430
331
1401
  5
1401
331
1201
  5
1201
331
1440
  5
1440
331
1409
  5
1409
331
1209
  5
1209
331
1211
  5
1211
331
13D2
  5
13D2
331
1411
  5
1411
331
119B
  5
119B
331
11D2
  5
11D2
331
11DA
  5
11DA
331
11A3
  5
11A3
331
1219
  5
1219
331
13DA
  5
13DA
331
1419
  5
1419
331
11E2
  5
11E2
331
13E2
  5
13E2
331
1421
  5
1421
331
11AB
  5
11AB
331
1429
  5
1429
331
11EA
  5
11EA
331
1229
  5
1229
331
11F2
  5
11F2
331
13F2
  5
13F2
331
11BB
  5
11BB
331
11FA
  5
11FA
331
1431
  5
1431
331
1439
  5
1439
331
1402
  5
1402
331
1202
  5
1202
331
1441
  5
1441
331
140A
  5
140A
331
120A
  5
120A
331
11D3
  5
11D3
331
13D3
  5
13D3
331
1412
  5
1412
331
119C
  5
119C
331
1212
  5
1212
331
11A4
  5
11A4
331
11DB
  5
11DB
331
121A
  5
121A
331
13DB
  5
13DB
331
141A
  5
141A
331
1422
  5
1422
331
1836
  5
1836
331
11AC
  5
11AC
331
11E3
  5
11E3
331
11EB
  5
11EB
331
13EB
  5
13EB
331
142A
  5
142A
331
11B4
  5
11B4
331
122A
  5
122A
331
11F3
  5
11F3
331
13F3
  5
13F3
331
11BC
  5
11BC
331
11FB
  5
11FB
331
1432
  5
1432
331
143A
  5
143A
331
11C4
  5
11C4
331
1203
  5
1203
331
140B
  5
140B
331
1195
  5
1195
331
11CC
  5
11CC
331
120B
  5
120B
331
1213
  5
1213
331
13D4
  5
13D4
331
1413
  5
1413
331
119D
  5
119D
331
11D4
  5
11D4
331
11DC
  5
11DC
331
11A5
  5
11A5
331
121B
  5
121B
331
13DC
  5
13DC
331
1423
  5
1423
331
11E4
  5
11E4
331
1223
  5
1223
331
13EC
  5
13EC
331
142B
  5
142B
331
11B5
  5
11B5
331
11EC
  5
11EC
331
122B
  5
122B
331
13F4
  5
13F4
331
11BD
  5
11BD
331
11F4
  5
11F4
331
11FC
  5
11FC
331
1433
  5
1433
331
1204
  5
1204
331
11CD
  5
11CD
331
1196
  5
1196
331
120C
  5
120C
331
1443
  5
1443
331
140C
  5
140C
331
119E
  5
119E
331
11D5
  5
11D5
331
1214
  5
1214
331
144B
  5
144B
331
13D5
  5
13D5
331
1414
  5
1414
331
11A6
  5
11A6
331
11DD
  5
11DD
331
121C
  5
121C
331
13DD
  5
13DD
331
141C
  5
141C
331
1224
  5
1224
331
11E5
  5
11E5
331
1424
  5
1424
331
13E5
  5
13E5
331
11ED
  5
11ED
331
122C
  5
122C
331
13ED
  5
13ED
331
142C
  5
142C
331
11F5
  5
11F5
331
11BE
  5
11BE
331
13F5
  5
13F5
331
11FD
  5
11FD
331
1434
  5
1434
331
1205
  5
1205
331
1405
  5
1405
331
120D
  5
120D
331
1197
  5
1197
331
11CE
  5
11CE
331
1444
  5
1444
331
140D
  5
140D
331
1215
  5
1215
331
119F
  5
119F
331
11D6
  5
11D6
331
13D6
  5
13D6
331
11DE
  5
11DE
331
11A7
  5
11A7
331
121D
  5
121D
331
13DE
  5
13DE
331
141D
  5
141D
  0
LAYOUT
  5
22
102
{ACAD_XDICTIONARY
360
1C42
102
}
102
{ACAD_REACTORS
330
1A
102
}
330
1A
100
AcDbPlotSettings
  1

  2
\\RD\EPSON Stylus C63 Series單色
  4
A4
  6

 40
3.757083177566528
 41
3.757076978683471
 42
3.757080078125
 43
3.757080078125
 44
209.9733276367187
 45
296.9683227539062
 46
0.0
 47
0.0
 48
0.0
 49
0.0
140
0.0
141
0.0
142
1.0
143
0.3405120737814363
 70
 11952
 72
     1
 73
     0
 74
     0
  7
單色出圖.ctb
 75
     0
147
2.936753428137963
148
-2047.07469463503
149
-1261.649717473083
100
AcDbLayout
  1
Model
 70
     1
 71
     0
 10
0.0
 20
0.0
 11
12.0
 21
9.0
 12
0.0
 22
0.0
 32
0.0
 14
0.0
 24
0.0
 34
0.0
 15
0.0
 25
0.0
 35
0.0
146
0.0
 13
0.0
 23
0.0
 33
0.0
 16
1.0
 26
0.0
 36
0.0
 17
0.0
 27
1.0
 37
0.0
 76
     0
330
1F
1001
ACAD_PSEXT
1000
\\RD\EPSON Stylus C63 Series單色
1000
EPSON Stylus C63 Series
1000
\\RD
1000

1070
     0
  0
LAYOUT
  5
1E
102
{ACAD_XDICTIONARY
360
1C40
102
}
102
{ACAD_REACTORS
330
1A
102
}
330
1A
100
AcDbPlotSettings
  1

  2

  4

  6

 40
0.0
 41
0.0
 42
0.0
 43
0.0
 44
0.0
 45
0.0
 46
0.0
 47
0.0
 48
0.0
 49
0.0
140
0.0
141
0.0
142
1.0
143
1.0
 70
   688
 72
     0
 73
     0
 74
     5
  7
單色出圖.ctb
 75
    16
147
1.0
148
0.0
149
0.0
100
AcDbLayout
  1
配置1
 70
     1
 71
     1
 10
0.0
 20
0.0
 11
420.0
 21
297.0
 12
0.0
 22
0.0
 32
0.0
 14
1.000000000000000E+20
 24
1.000000000000000E+20
 34
1.000000000000000E+20
 15
-1.000000000000000E+20
 25
-1.000000000000000E+20
 35
-1.000000000000000E+20
146
0.0
 13
0.0
 23
0.0
 33
0.0
 16
1.0
 26
0.0
 36
0.0
 17
0.0
 27
1.0
 37
0.0
 76
     0
330
1B
  0
LAYOUT
  5
26
102
{ACAD_XDICTIONARY
360
1C44
102
}
102
{ACAD_REACTORS
330
1A
102
}
330
1A
100
AcDbPlotSettings
  1

  2

  4

  6

 40
0.0
 41
0.0
 42
0.0
 43
0.0
 44
0.0
 45
0.0
 46
0.0
 47
0.0
 48
0.0
 49
0.0
140
0.0
141
0.0
142
1.0
143
1.0
 70
   688
 72
     0
 73
     0
 74
     5
  7
單色出圖.ctb
 75
    16
147
1.0
148
0.0
149
0.0
100
AcDbLayout
  1
配置2
 70
     1
 71
     2
 10
0.0
 20
0.0
 11
12.0
 21
9.0
 12
0.0
 22
0.0
 32
0.0
 14
0.0
 24
0.0
 34
0.0
 15
0.0
 25
0.0
 35
0.0
146
0.0
 13
0.0
 23
0.0
 33
0.0
 16
1.0
 26
0.0
 36
0.0
 17
0.0
 27
1.0
 37
0.0
 76
     0
330
23
  0
MLINESTYLE
  5
18
102
{ACAD_REACTORS
330
17
102
}
330
17
100
AcDbMlineStyle
  2
STANDARD
 70
     0
  3

 62
   256
 51
90.0
 52
90.0
 71
     2
 49
0.5
 62
   256
  6
BYLAYER
 49
-0.5
 62
   256
  6
BYLAYER
  0
ACDBPLACEHOLDER
  5
F
102
{ACAD_REACTORS
330
E
102
}
330
E
  0
TABLESTYLE
  5
11B
102
{ACAD_REACTORS
330
11A
102
}
330
11A
100
AcDbTableStyle
  3
Standard
 70
     0
 71
     0
 40
1.5
 41
1.5
280
     0
281
     0
  7
STANDARD
140
4.5
170
     2
 62
     0
 63
     7
283
     0
274
    -2
284
     1
 64
     0
275
    -2
285
     1
 65
     0
276
    -2
286
     1
 66
     0
277
    -2
287
     1
 67
     0
278
    -2
288
     1
 68
     0
279
    -2
289
     1
 69
     0
  7
STANDARD
140
6.0
170
     5
 62
     0
 63
     7
283
     0
274
    -2
284
     1
 64
     0
275
    -2
285
     1
 65
     0
276
    -2
286
     1
 66
     0
277
    -2
287
     1
 67
     0
278
    -2
288
     1
 68
     0
279
    -2
289
     1
 69
     0
  7
STANDARD
140
4.5
170
     5
 62
     0
 63
     7
283
     0
274
    -2
284
     1
 64
     0
275
    -2
285
     1
 65
     0
276
    -2
286
     1
 66
     0
277
    -2
287
     1
 67
     0
278
    -2
288
     1
 68
     0
279
    -2
289
     1
 69
     0
  0
DICTIONARYVAR
  5
138
102
{ACAD_REACTORS
330
94
102
}
330
94
100
DictionaryVariables
280
     0
  1
STANDARD
  0
DICTIONARYVAR
  5
96
102
{ACAD_REACTORS
330
94
102
}
330
94
100
DictionaryVariables
280
     0
  1
2
  0
DICTIONARYVAR
  5
95
102
{ACAD_REACTORS
330
94
102
}
330
94
100
DictionaryVariables
280
     0
  1
0
  0
DICTIONARYVAR
  5
1C3C
102
{ACAD_REACTORS
330
94
102
}
330
94
100
DictionaryVariables
280
     0
  1

  0
DICTIONARY
  5
1B5
102
{ACAD_REACTORS
330
5B
102
}
330
5B
100
AcDbDictionary
281
     1
  0
DICTIONARY
  5
61
102
{ACAD_REACTORS
330
5B
102
}
330
5B
100
AcDbDictionary
281
     1
  0
XRECORD
  5
123
102
{ACAD_REACTORS
330
5B
102
}
330
5B
100
AcDbXrecord
280
     1
 90
-1023410169
  0
DICTIONARY
  5
1C42
330
22
100
AcDbDictionary
280
     1
281
     1
  3
ACAD_XREC_ROUNDTRIP
360
1C43
  0
DICTIONARY
  5
1C40
330
1E
100
AcDbDictionary
280
     1
281
     1
  3
ACAD_XREC_ROUNDTRIP
360
1C41
  0
DICTIONARY
  5
1C44
330
26
100
AcDbDictionary
280
     1
281
     1
  3
ACAD_XREC_ROUNDTRIP
360
1C45
  0
XRECORD
  5
1C43
102
{ACAD_REACTORS
330
1C42
102
}
330
1C42
100
AcDbXrecord
280
     1
102
SHADEPLOT
 70
     0
102
SHADEPLOTRESLEVEL
 70
     2
102
SHADEPLOTCUSTOMDPI
 70
   300
  0
XRECORD
  5
1C41
102
{ACAD_REACTORS
330
1C40
102
}
330
1C40
100
AcDbXrecord
280
     1
102
SHADEPLOT
 70
     0
102
SHADEPLOTRESLEVEL
 70
     2
102
SHADEPLOTCUSTOMDPI
 70
   300
  0
XRECORD
  5
1C45
102
{ACAD_REACTORS
330
1C44
102
}
330
1C44
100
AcDbXrecord
280
     1
102
SHADEPLOT
 70
     0
102
SHADEPLOTRESLEVEL
 70
     2
102
SHADEPLOTCUSTOMDPI
 70
   300
  0
ENDSEC
  0
EOF
