  0
SECTION
  2
HEADER
  9
$ACADVER
  1
AC1015
  9
$ACADMAINTVER
 70
    20
  9
$DWGCODEPAGE
  3
ANSI_950
  9
$INSBASE
 10
0.0
 20
0.0
 30
0.0
  9
$EXTMIN
 10
130.9135179139423
 20
76.26575547287803
 30
-0.0017049944398764
  9
$EXTMAX
 10
460.304512780631
 20
337.6548697208707
 30
171.2732129331856
  9
$LIMMIN
 10
0.0
 20
0.0
  9
$LIMMAX
 10
420.0
 20
297.0
  9
$ORTHOMODE
 70
     1
  9
$REGENMODE
 70
     1
  9
$FILLMODE
 70
     1
  9
$QTEXTMODE
 70
     0
  9
$MIRRTEXT
 70
     1
  9
$LTSCALE
 40
1.0
  9
$ATTMODE
 70
     1
  9
$TEXTSIZE
 40
3.0
  9
$TRACEWID
 40
1.0
  9
$TEXTSTYLE
  7
STANDARD
  9
$CLAYER
  8
0
  9
$CELTYPE
  6
ByLayer
  9
$CECOLOR
 62
   256
  9
$CELTSCALE
 40
1.0
  9
$DISPSILH
 70
     0
  9
$DIMSCALE
 40
1.0
  9
$DIMASZ
 40
3.0
  9
$DIMEXO
 40
1.5
  9
$DIMDLI
 40
8.0
  9
$DIMRND
 40
0.0
  9
$DIMDLE
 40
0.0
  9
$DIMEXE
 40
1.5
  9
$DIMTP
 40
0.1
  9
$DIMTM
 40
0.1
  9
$DIMTXT
 40
3.5
  9
$DIMCEN
 40
0.0
  9
$DIMTSZ
 40
0.0
  9
$DIMTOL
 70
     0
  9
$DIMLIM
 70
     0
  9
$DIMTIH
 70
     0
  9
$DIMTOH
 70
     0
  9
$DIMSE1
 70
     0
  9
$DIMSE2
 70
     0
  9
$DIMTAD
 70
     1
  9
$DIMZIN
 70
     8
  9
$DIMBLK
  1

  9
$DIMASO
 70
     1
  9
$DIMSHO
 70
     1
  9
$DIMPOST
  1

  9
$DIMAPOST
  1
"
  9
$DIMALT
 70
     0
  9
$DIMALTD
 70
     2
  9
$DIMALTF
 40
0.0393701
  9
$DIMLFAC
 40
1.0
  9
$DIMTOFL
 70
     1
  9
$DIMTVP
 40
0.0
  9
$DIMTIX
 70
     0
  9
$DIMSOXD
 70
     0
  9
$DIMSAH
 70
     0
  9
$DIMBLK1
  1

  9
$DIMBLK2
  1

  9
$DIMSTYLE
  2
AM_ISO
  9
$DIMCLRD
 70
   256
  9
$DIMCLRE
 70
   256
  9
$DIMCLRT
 70
   256
  9
$DIMTFAC
 40
0.6
  9
$DIMGAP
 40
1.0
  9
$DIMJUST
 70
     0
  9
$DIMSD1
 70
     0
  9
$DIMSD2
 70
     0
  9
$DIMTOLJ
 70
     0
  9
$DIMTZIN
 70
     8
  9
$DIMALTZ
 70
     0
  9
$DIMALTTZ
 70
     0
  9
$DIMUPT
 70
     0
  9
$DIMDEC
 70
     2
  9
$DIMTDEC
 70
     8
  9
$DIMALTU
 70
     2
  9
$DIMALTTD
 70
     2
  9
$DIMTXSTY
  7
STANDARD
  9
$DIMAUNIT
 70
     0
  9
$DIMADEC
 70
     0
  9
$DIMALTRND
 40
0.0
  9
$DIMAZIN
 70
     2
  9
$DIMDSEP
 70
    46
  9
$DIMATFIT
 70
     3
  9
$DIMFRAC
 70
     0
  9
$DIMLDRBLK
  1

  9
$DIMLUNIT
 70
     2
  9
$DIMLWD
 70
    -1
  9
$DIMLWE
 70
    -1
  9
$DIMTMOVE
 70
     0
  9
$LUNITS
 70
     2
  9
$LUPREC
 70
     2
  9
$SKETCHINC
 40
1.0
  9
$FILLETRAD
 40
2.5
  9
$AUNITS
 70
     0
  9
$AUPREC
 70
     0
  9
$MENU
  1
.
  9
$ELEVATION
 40
0.0
  9
$PELEVATION
 40
0.0
  9
$THICKNESS
 40
0.0
  9
$LIMCHECK
 70
     0
  9
$CHAMFERA
 40
2.5
  9
$CHAMFERB
 40
2.5
  9
$CHAMFERC
 40
20.0
  9
$CHAMFERD
 40
0.0
  9
$SKPOLY
 70
     0
  9
$TDCREATE
 40
2454404.499322188
  9
$TDUCREATE
 40
2454404.165988854
  9
$TDUPDATE
 40
2454407.706533565
  9
$TDUUPDATE
 40
2454407.373200232
  9
$TDINDWG
 40
0.2212214236
  9
$TDUSRTIMER
 40
0.2212214236
  9
$USRTIMER
 70
     1
  9
$ANGBASE
 50
0.0
  9
$ANGDIR
 70
     0
  9
$PDMODE
 70
     0
  9
$PDSIZE
 40
0.0
  9
$PLINEWID
 40
0.0
  9
$SPLFRAME
 70
     0
  9
$SPLINETYPE
 70
     6
  9
$SPLINESEGS
 70
     8
  9
$HANDSEED
  5
24AC
  9
$SURFTAB1
 70
     6
  9
$SURFTAB2
 70
     6
  9
$SURFTYPE
 70
     6
  9
$SURFU
 70
     6
  9
$SURFV
 70
     6
  9
$UCSBASE
  2

  9
$UCSNAME
  2

  9
$UCSORG
 10
0.0
 20
0.0
 30
0.0
  9
$UCSXDIR
 10
1.0
 20
0.0
 30
0.0
  9
$UCSYDIR
 10
0.0
 20
1.0
 30
0.0
  9
$UCSORTHOREF
  2

  9
$UCSORTHOVIEW
 70
     0
  9
$UCSORGTOP
 10
0.0
 20
0.0
 30
0.0
  9
$UCSORGBOTTOM
 10
0.0
 20
0.0
 30
0.0
  9
$UCSORGLEFT
 10
0.0
 20
0.0
 30
0.0
  9
$UCSORGRIGHT
 10
0.0
 20
0.0
 30
0.0
  9
$UCSORGFRONT
 10
0.0
 20
0.0
 30
0.0
  9
$UCSORGBACK
 10
0.0
 20
0.0
 30
0.0
  9
$PUCSBASE
  2

  9
$PUCSNAME
  2

  9
$PUCSORG
 10
0.0
 20
0.0
 30
0.0
  9
$PUCSXDIR
 10
1.0
 20
0.0
 30
0.0
  9
$PUCSYDIR
 10
0.0
 20
1.0
 30
0.0
  9
$PUCSORTHOREF
  2

  9
$PUCSORTHOVIEW
 70
     0
  9
$PUCSORGTOP
 10
0.0
 20
0.0
 30
0.0
  9
$PUCSORGBOTTOM
 10
0.0
 20
0.0
 30
0.0
  9
$PUCSORGLEFT
 10
0.0
 20
0.0
 30
0.0
  9
$PUCSORGRIGHT
 10
0.0
 20
0.0
 30
0.0
  9
$PUCSORGFRONT
 10
0.0
 20
0.0
 30
0.0
  9
$PUCSORGBACK
 10
0.0
 20
0.0
 30
0.0
  9
$USERI1
 70
     0
  9
$USERI2
 70
     0
  9
$USERI3
 70
     0
  9
$USERI4
 70
     0
  9
$USERI5
 70
     0
  9
$USERR1
 40
0.0
  9
$USERR2
 40
0.0
  9
$USERR3
 40
0.0
  9
$USERR4
 40
0.0
  9
$USERR5
 40
0.0
  9
$WORLDVIEW
 70
     1
  9
$SHADEDGE
 70
     3
  9
$SHADEDIF
 70
    70
  9
$TILEMODE
 70
     1
  9
$MAXACTVP
 70
    64
  9
$PINSBASE
 10
0.0
 20
0.0
 30
0.0
  9
$PLIMCHECK
 70
     0
  9
$PEXTMIN
 10
1.000000000000000E+20
 20
1.000000000000000E+20
 30
1.000000000000000E+20
  9
$PEXTMAX
 10
-1.000000000000000E+20
 20
-1.000000000000000E+20
 30
-1.000000000000000E+20
  9
$PLIMMIN
 10
0.0
 20
0.0
  9
$PLIMMAX
 10
420.0
 20
297.0
  9
$UNITMODE
 70
     0
  9
$VISRETAIN
 70
     1
  9
$PLINEGEN
 70
     0
  9
$PSLTSCALE
 70
     1
  9
$TREEDEPTH
 70
  3020
  9
$CMLSTYLE
  2
Standard
  9
$CMLJUST
 70
     0
  9
$CMLSCALE
 40
20.0
  9
$PROXYGRAPHICS
 70
     1
  9
$MEASUREMENT
 70
     1
  9
$CELWEIGHT
370
    -1
  9
$ENDCAPS
280
     0
  9
$JOINSTYLE
280
     0
  9
$LWDISPLAY
290
     0
  9
$INSUNITS
 70
     4
  9
$HYPERLINKBASE
  1

  9
$STYLESHEET
  1
彩色出圖.ctb
  9
$XEDIT
290
     1
  9
$CEPSNTYPE
380
     0
  9
$PSTYLEMODE
290
     1
  9
$FINGERPRINTGUID
  2
{074D7011-B32B-4E84-AF1B-A87C3313AB9B}
  9
$VERSIONGUID
  2
{EBB33ED6-08C1-4477-B50F-84C9A5F68F5E}
  9
$EXTNAMES
290
     1
  9
$PSVPSCALE
 40
0.0
  9
$OLESTARTUP
290
     0
  0
ENDSEC
  0
SECTION
  2
CLASSES
  0
CLASS
  1
ACDBDICTIONARYWDFLT
  2
AcDbDictionaryWithDefault
  3
ObjectDBX Classes
 90
        0
280
     0
281
     0
  0
CLASS
  1
ACDBPLACEHOLDER
  2
AcDbPlaceHolder
  3
ObjectDBX Classes
 90
        0
280
     0
281
     0
  0
CLASS
  1
LAYOUT
  2
AcDbLayout
  3
ObjectDBX Classes
 90
        0
280
     0
281
     0
  0
CLASS
  1
ACME_DOCUMENT
  2
AcMeDbDoc
  3
AcMeServices
 90
        0
280
     0
281
     0
  0
CLASS
  1
AMGSETTINGSOBJ
  2
AmgSettingsObj
  3
"AcadM|Product Description: AutoCAD Mechanical 2000|Company: Autodesk"
 90
        0
280
     0
281
     0
  0
CLASS
  1
ACMESCOPE
  2
AcMeScope
  3
AcMeServices
 90
        0
280
     0
281
     0
  0
CLASS
  1
ACMECOMMANDHISTORY
  2
AcMeCommandHistory
  3
AcMeServices
 90
        0
280
     0
281
     0
  0
CLASS
  1
ACIMSYSVARMAN
  2
AcImSysVarManager
  3
AcMeServices
 90
        0
280
     0
281
     0
  0
CLASS
  1
ACIMREALSYSVAR
  2
AcImRealSysVar
  3
AcMeServices
 90
        0
280
     0
281
     0
  0
CLASS
  1
ACIMINTSYSVAR
  2
AcImIntSysVar
  3
AcMeServices
 90
        0
280
     0
281
     0
  0
CLASS
  1
ACMEDRAWINGMAN
  2
AcMeDrawingMan
  3
AcMeServices
 90
        0
280
     0
281
     0
  0
CLASS
  1
ACMEVIEW
  2
AcMeView
  3
AcMeServices
 90
        0
280
     0
281
     0
  0
CLASS
  1
ACDBENTITYCACHE
  2
AcMeEntityCache
  3
AcMeServices
 90
        0
280
     0
281
     0
  0
CLASS
  1
GSMANAGER
  2
AcMeGSManager
  3
AcMeServices
 90
        0
280
     0
281
     0
  0
CLASS
  1
AMDTINTERNALREACTOR
  2
AmdtInternalReactor
  3
AcMeServices
 90
        0
280
     0
281
     0
  0
CLASS
  1
ACMESTATEMGR
  2
AcMeStateMgr
  3
AcMeServices
 90
        0
280
     0
281
     0
  0
CLASS
  1
ACGREFMASTER
  2
AcGrefMaster
  3
AcAttribServices
 90
        0
280
     0
281
     0
  0
CLASS
  1
ACME_DATABASE
  2
AcMeDbDatabase
  3
AcMeServices
 90
        0
280
     0
281
     0
  0
CLASS
  1
ACRFINSADJUSTERMGR
  2
AcRfInsAdjusterMgr
  3
AcMeServices
 90
        0
280
     0
281
     0
  0
CLASS
  1
ACGREFACADMASTER
  2
AcGrefacadMaster
  3
AcGrefServices
 90
        0
280
     0
281
     0
  0
CLASS
  1
AMIMASTER
  2
AmiMaster
  3
AmiServices
 90
        0
280
     0
281
     0
  0
CLASS
  1
ACMDATADICTIONARY
  2
AcmDataDictionary
  3
"AcmSymBB|Product Description: AutoCAD Mechanical 2004 DX|Company: Autodesk"
 90
        0
280
     0
281
     0
  0
CLASS
  1
ACMDATAENTRYBLOCK
  2
AcmDataEntryBlock
  3
"AcmSymBB|Product Description: AutoCAD Mechanical 2004 DX|Company: Autodesk"
 90
        0
280
     0
281
     0
  0
CLASS
  1
ACIMSTRSYSVAR
  2
AcImStrSysVar
  3
AcMeServices
 90
        0
280
     0
281
     0
  0
CLASS
  1
ACMSTANDARDISO
  2
AcmStandardISO
  3
"Amdt_StdImp|Product Description: AutoCAD Mechanical 2004 DX|Company: Autodesk"
 90
        0
280
     0
281
     0
  0
CLASS
  1
AMGOBJPROPCFG
  2
AmgObjPropCfg
  3
"AmgLay|Product Description: AutoCAD Mechanical 2000|Company: Autodesk"
 90
        1
280
     0
281
     0
  0
CLASS
  1
AMDTEDGESTANDARDISO
  2
AmdtEdgeStdISO
  3
"Amdt_StdImp|Product Description: AutoCAD Mechanical 2004 DX|Company: Autodesk"
 90
        0
280
     0
281
     0
  0
CLASS
  1
ACMSURFSTANDARDISO
  2
AcmSurfTextStdISO
  3
"Amdt_StdImp|Product Description: AutoCAD Mechanical 2004 DX|Company: Autodesk"
 90
        0
280
     0
281
     0
  0
CLASS
  1
ACMFCFSTANDARDISO
  2
AcmFCFStdISO
  3
"Amdt_StdImp|Product Description: AutoCAD Mechanical 2004 DX|Company: Autodesk"
 90
        0
280
     0
281
     0
  0
CLASS
  1
ACMWELDSTANDARDISO
  2
AcmWeldingStdISO
  3
"Amdt_StdImp|Product Description: AutoCAD Mechanical 2004 DX|Company: Autodesk"
 90
        0
280
     0
281
     0
  0
CLASS
  1
ACMIDSTANDARDISO
  2
AcmIdStdISO
  3
"Amdt_StdImp|Product Description: AutoCAD Mechanical 2004 DX|Company: Autodesk"
 90
        0
280
     0
281
     0
  0
CLASS
  1
ACMDATUMSTANDARDISO
  2
AcmDatumStdISO
  3
"Amdt_StdImp|Product Description: AutoCAD Mechanical 2004 DX|Company: Autodesk"
 90
        0
280
     0
281
     0
  0
CLASS
  1
ACMBOMSTANDARDISO
  2
AcmBOMStdISO
  3
"Amdt_StdImp|Product Description: AutoCAD Mechanical 2004 DX|Company: Autodesk"
 90
        0
280
     0
281
     0
  0
CLASS
  1
ACMDETAILSTANDARDISO
  2
AmdtDetailSymStdISO
  3
"Amdt_StdImp|Product Description: AutoCAD Mechanical 2004 DX|Company: Autodesk"
 90
        0
280
     0
281
     0
  0
CLASS
  1
ACMSECTIONSTANDARDISO
  2
AmdtSectionSymStdISO
  3
"Amdt_StdImp|Product Description: AutoCAD Mechanical 2004 DX|Company: Autodesk"
 90
        0
280
     0
281
     0
  0
CLASS
  1
ACMCENTERLINESTANDARDISO
  2
AmdtCenterLineStdISO
  3
"Amdt_StdImp|Product Description: AutoCAD Mechanical 2004 DX|Company: Autodesk"
 90
        0
280
     0
281
     0
  0
CLASS
  1
ACMNOTESTANDARDISO
  2
AmdtNoteStdISO
  3
"Amdt_StdImp|Product Description: AutoCAD Mechanical 2004 DX|Company: Autodesk"
 90
        0
280
     0
281
     0
  0
CLASS
  1
ACAMGLAYSTD
  2
AcAmgLayStd
  3
"AcAmgLayStd|Product Description: AutoCAD Mechanical 2000|Company: Autodesk"
 90
        0
280
     0
281
     0
  0
CLASS
  1
ACAMGDIMSTD
  2
AcAmgDimStd
  3
"AcAmgDimStd|Product Description: AutoCAD Mechanical 2000|Company: Autodesk"
 90
        0
280
     0
281
     0
  0
CLASS
  1
ACAMGHOLECHARTSTDISO
  2
AcAmgHoleChartStdISO
  3
ACMSYMBB_MODULE_NAME
 90
        0
280
     0
281
     0
  0
CLASS
  1
ACAMGTITLESTD
  2
AcAmgTitleStd
  3
"TITLEAPP"
 90
        0
280
     0
281
     0
  0
CLASS
  1
LAYER_INDEX
  2
AcDbLayerIndex
  3
ObjectDBX Classes
 90
    32768
280
     0
281
     0
  0
CLASS
  1
IDBUFFER
  2
AcDbIdBuffer
  3
ObjectDBX Classes
 90
    32768
280
     0
281
     0
  0
CLASS
  1
DICTIONARYVAR
  2
AcDbDictionaryVar
  3
ObjectDBX Classes
 90
        0
280
     0
281
     0
  0
CLASS
  1
AM_DRAWING_MGR
  2
AcDmDwgMgr
  3
AcMechDwgViewMgmt
 90
        0
280
     0
281
     0
  0
CLASS
  1
AM_DWG_DOCUMENT
  2
AcDmDwgDocument
  3
AcMechDwgViewMgmt
 90
        0
280
     0
281
     0
  0
CLASS
  1
AM_DWG_SHEET
  2
AcDmSheet
  3
AcMechDwgViewMgmt
 90
        0
280
     0
281
     0
  0
CLASS
  1
AM_VIEWDIMPARMAP
  2
AcDmViewDimParMap
  3
AcMechDwgViewMgmt
 90
        0
280
     0
281
     0
  0
CLASS
  1
AM_DWGMGR_NAME
  2
AcDmDwgMgrName
  3
AcMechDwgViewMgmt
 90
        0
280
     0
281
     0
  0
CLASS
  1
AMDTMENUSTATEMGR
  2
AmdtMenuStateMgr
  3
McadcomServices
 90
        0
280
     0
281
     0
  0
CLASS
  1
AMDTMCOMMENUSTATE
  2
AmdtMcomMenuState
  3
McadcomServices
 90
        0
280
     0
281
     0
  0
CLASS
  1
MAPIAMMOUDLE
  2
MApiAmModule
  3
MApiAmServices
 90
        0
280
     0
281
     0
  0
CLASS
  1
AMDTADMENUSTATE
  2
AmdtAdMenuState
  3
DesignerServices
 90
        0
280
     0
281
     0
  0
CLASS
  1
ADAPPL
  2
AcAdAppl
  3
DesignerServices
 90
        0
280
     0
281
     0
  0
CLASS
  1
DEPMGR
  2
AcAdDepMgr
  3
DesignerServices
 90
        0
280
     0
281
     0
  0
CLASS
  1
PARAMMGR
  2
AcAdParamMgr
  3
DesignerServices
 90
        0
280
     0
281
     0
  0
CLASS
  1
PARAMSCOPE
  2
AcAdParamScope
  3
DesignerServices
 90
        0
280
     0
281
     0
  0
CLASS
  1
NAMEDAPPL
  2
AcAdNamedAppl
  3
DesignerServices
 90
        0
280
     0
281
     0
  0
CLASS
  1
AMDTDMMENUSTATE
  2
AmdtDmMenuState
  3
AcMechDwgViewMgmt
 90
        0
280
     0
281
     0
  0
CLASS
  1
AMDTAMMENUSTATE
  2
AmdtAmMenuState
  3
DesignerAssemblies
 90
        0
280
     0
281
     0
  0
CLASS
  1
ACAMPROJECT
  2
AcAmProject
  3
DesignerAssemblies
 90
        0
280
     0
281
     0
  0
CLASS
  1
ACAMGRCOMPDEF
  2
AcAmGrCompDef
  3
DesignerAssemblies
 90
        0
280
     0
281
     0
  0
CLASS
  1
ACCMCONTEXT
  2
AcCmContext
  3
DesignerAssemblies
 90
        0
280
     0
281
     0
  0
CLASS
  1
ACAMCOMPDEF
  2
AcAmCompDef
  3
DesignerAssemblies
 90
        0
280
     0
281
     0
  0
CLASS
  1
ACAMCOMPDEFMGR
  2
AcAmCompDefMgr
  3
DesignerAssemblies
 90
        0
280
     0
281
     0
  0
CLASS
  1
AMCONTEXTMGR
  2
AcAmContextMgr
  3
DesignerAssemblies
 90
        0
280
     0
281
     0
  0
CLASS
  1
ACAMCONTEXTMODELER
  2
AcAmContextModeler
  3
DesignerAssemblies
 90
        0
280
     0
281
     0
  0
CLASS
  1
ACMTHREADLINESTANDARDISO
  2
AmdtThreadLineStdISO
  3
"Amdt_StdImp|Product Description: AutoCAD Mechanical 2004 DX|Company: Autodesk"
 90
        0
280
     0
281
     0
  0
CLASS
  1
CATALOGSTATE
  2
AcAmCatalogState
  3
DesignerAssemblies
 90
        0
280
     0
281
     0
  0
CLASS
  1
ACAMGRCOMPDEFSET
  2
AcAmGrCompDefSet
  3
DesignerAssemblies
 90
        0
280
     0
281
     0
  0
CLASS
  1
AMDTBROWSERDBTAB
  2
AmdtBrowserDbTab
  3
McadcomServices
 90
        0
280
     0
281
     0
  0
CLASS
  1
CBROWSERAPPOBJECT
  2
CBrowserAppObject
  3
McadcomServices
 90
        0
280
     0
281
     0
  0
CLASS
  1
DM_PLACEHOLDER
  2
AcDmSelsetPlaceholder
  3
AcMechDwgViewMgmt
 90
        0
280
     0
281
     0
  0
CLASS
  1
TABLESTYLE
  2
AcDbTableStyle
  3
ObjectDBX Classes
 90
     2047
280
     0
281
     0
  0
CLASS
  1
VAACXREFPANELOBJECT
  2
VaAcXREFPanelObject
  3
VAAC_ADDIN
 90
    32768
280
     0
281
     0
  0
CLASS
  1
VAACIMAGEINVENTORY
  2
VaAcImageInventory
  3
VAAC_ADDIN
 90
    32768
280
     0
281
     0
  0
CLASS
  1
AMDTNOTETEMPLATEDB
  2
AmdtNoteTemplateDB
  3
AMDT_STDIMP_MODULE_NAME
 90
        0
280
     0
281
     0
  0
CLASS
  1
ACMBOM
  2
AcmBom
  3
"AcmSymBB|Product Description: AutoCAD Mechanical 2004 DX|Company: Autodesk"
 90
    32768
280
     0
281
     0
  0
CLASS
  1
AMDTFORMULAUPDATEDISPATCHER
  2
AmdtFormulaUpdateDispatcher
  3
AcMeServices
 90
    32768
280
     0
281
     0
  0
CLASS
  1
ACMPARTLIST
  2
AcmPartList
  3
"AcmSymBB|Product Description: AutoCAD Mechanical 2004 DX|Company: Autodesk"
 90
    33791
280
     0
281
     1
  0
CLASS
  1
ACAMGFILTERDAT
  2
AcAmgFilterDat
  3
"AcadM|Product Description: AutoCAD Mechanical 2000|Company: Autodesk"
 90
        0
280
     0
281
     0
  0
CLASS
  1
DIMASSOC
  2
AcDbDimAssoc
  3
"AcDbDimAssoc|Product Desc:     AcDim ARX App For Dimension|Company:          Autodesk, Inc.|WEB Address:      www.autodesk.com"
 90
        0
280
     0
281
     0
  0
CLASS
  1
ACMSTANDARDANSI
  2
AcmStandardANSI
  3
"Amdt_StdImp|Product Description: AutoCAD Mechanical 2004 DX|Company: Autodesk"
 90
        0
280
     0
281
     0
  0
CLASS
  1
ACMSURFSTANDARDANSI
  2
AcmSurfTextStdANSI
  3
"Amdt_StdImp|Product Description: AutoCAD Mechanical 2004 DX|Company: Autodesk"
 90
        0
280
     0
281
     0
  0
CLASS
  1
ACMFCFSTANDARDANSI
  2
AcmFCFStdANSI
  3
"Amdt_StdImp|Product Description: AutoCAD Mechanical 2004 DX|Company: Autodesk"
 90
        0
280
     0
281
     0
  0
CLASS
  1
ACMWELDSTANDARDANSI
  2
AcmWeldingStdANSI
  3
"Amdt_StdImp|Product Description: AutoCAD Mechanical 2004 DX|Company: Autodesk"
 90
        0
280
     0
281
     0
  0
CLASS
  1
ACMIDSTANDARDANSI
  2
AcmIdStdANSI
  3
"Amdt_StdImp|Product Description: AutoCAD Mechanical 2004 DX|Company: Autodesk"
 90
        0
280
     0
281
     0
  0
CLASS
  1
ACMDATUMSTANDARDANSI
  2
AcmDatumStdANSI
  3
"Amdt_StdImp|Product Description: AutoCAD Mechanical 2004 DX|Company: Autodesk"
 90
        0
280
     0
281
     0
  0
CLASS
  1
ACMBOMSTANDARDANSI
  2
AcmBOMStdANSI
  3
"Amdt_StdImp|Product Description: AutoCAD Mechanical 2004 DX|Company: Autodesk"
 90
        0
280
     0
281
     0
  0
CLASS
  1
ACMDETAILSTANDARDANSI
  2
AmdtDetailSymStdANSI
  3
"Amdt_StdImp|Product Description: AutoCAD Mechanical 2004 DX|Company: Autodesk"
 90
        0
280
     0
281
     0
  0
CLASS
  1
ACMSECTIONSTANDARDANSI
  2
AmdtSectionSymStdANSI
  3
"Amdt_StdImp|Product Description: AutoCAD Mechanical 2004 DX|Company: Autodesk"
 90
        0
280
     0
281
     0
  0
CLASS
  1
ACMCENTERLINESTANDARDANSI
  2
AmdtCenterLineStdANSI
  3
"Amdt_StdImp|Product Description: AutoCAD Mechanical 2004 DX|Company: Autodesk"
 90
        0
280
     0
281
     0
  0
CLASS
  1
ACMTHREADLINESTANDARDANSI
  2
AmdtThreadLineStdANSI
  3
"Amdt_StdImp|Product Description: AutoCAD Mechanical 2004 DX|Company: Autodesk"
 90
        0
280
     0
281
     0
  0
CLASS
  1
ACMNOTESTANDARDANSI
  2
AmdtNoteStdANSI
  3
"Amdt_StdImp|Product Description: AutoCAD Mechanical 2004 DX|Company: Autodesk"
 90
        0
280
     0
281
     0
  0
CLASS
  1
ACAMGHOLECHARTSTDANSI
  2
AcAmgHoleChartStdANSI
  3
ACMSYMBB_MODULE_NAME
 90
        0
280
     0
281
     0
  0
CLASS
  1
AMDTNOTE
  2
AmdtNote
  3
"AcmSymBB|Product Description: AutoCAD Mechanical 2004 DX|Company: Autodesk"
 90
     1023
280
     0
281
     1
  0
CLASS
  1
STDPART2D
  2
AmgStdPart
  3
"AmgStdPart|Product Description: AutoCAD Mechanical 2000|Company: Autodesk"
 90
    33791
280
     0
281
     1
  0
CLASS
  1
ACAMSTDPCOMPDEF
  2
AcAmStdpCompDef
  3
DesignerAssemblies
 90
    32768
280
     0
281
     0
  0
CLASS
  1
ACRFATTGENMGR
  2
AcRfAttGeneralMgr
  3
AcAttribServices
 90
        0
280
     0
281
     0
  0
CLASS
  1
ACRFOBJATTMGR
  2
AcRfObjAttGroupMgr
  3
AcAttribServices
 90
    32768
280
     0
281
     0
  0
CLASS
  1
ACRFMCADAPIATTHOLDER
  2
AcRfMCADAPIAttHolder
  3
AcAttribServices
 90
    32768
280
     0
281
     0
  0
CLASS
  1
AMDTSYSATTR
  2
AmdtSystemAttribute
  3
AcAttribServices
 90
    32768
280
     0
281
     0
  0
CLASS
  1
ACAMCOMP
  2
AcAmComp
  3
DesignerAssemblies
 90
    32768
280
     0
281
     0
  0
CLASS
  1
AC_AM_STDP_VIEW_DEF
  2
AcAmStdpViewDef
  3
DesignerAssemblies
 90
    32768
280
     0
281
     0
  0
CLASS
  1
AC_AM_MVD_DEP_MGR
  2
AcAmMVDdepMgr
  3
DesignerAssemblies
 90
        0
280
     0
281
     0
  0
CLASS
  1
AC_AM_MASTER_VIEW_DEF
  2
AcAmMasterViewDef
  3
DesignerAssemblies
 90
        0
280
     0
281
     0
  0
CLASS
  1
AC_AM_DIRTY_NODES
  2
AcAmDirtyNodes
  3
DesignerAssemblies
 90
        0
280
     0
281
     0
  0
CLASS
  1
AC_AM_MAPPER_CACHE
  2
AcAmMapperCache
  3
DesignerAssemblies
 90
        0
280
     0
281
     0
  0
CLASS
  1
ACAMMVDBACKUPOBJECT
  2
AcAmMVDBackupObject
  3
DesignerAssemblies
 90
        0
280
     0
281
     0
  0
CLASS
  1
AC_AM_COMP_VIEW_INST
  2
AcAmCompView
  3
DesignerAssemblies
 90
    32768
280
     0
281
     0
  0
CLASS
  1
AC_AM_2D_XREF_MGR
  2
AcAmXrefMgr2d
  3
DesignerAssemblies
 90
        0
280
     0
281
     0
  0
CLASS
  1
SORTENTSTABLE
  2
AcDbSortentsTable
  3
ObjectDBX Classes
 90
        0
280
     0
281
     0
  0
ENDSEC
  0
SECTION
  2
TABLES
  0
TABLE
  2
VPORT
  5
8
330
0
100
AcDbSymbolTable
 70
     3
  0
VPORT
  5
24A3
330
8
100
AcDbSymbolTableRecord
100
AcDbViewportTableRecord
  2
*Active
 70
     0
 10
0.0
 20
0.0
 11
1.0
 21
1.0
 12
332.5586113327406
 22
206.9539963802618
 13
0.0
 23
0.0
 14
2.5
 24
2.5
 15
10.0
 25
10.0
 16
0.0
 26
0.0
 36
1.0
 17
0.0
 27
0.0
 37
0.0
 40
263.6023766037642
 41
1.679945054945054
 42
50.0
 43
0.0
 44
0.0
 50
0.0
 51
0.0
 71
     0
 72
   100
 73
     1
 74
     3
 75
     0
 76
     0
 77
     0
 78
     0
281
     0
 65
     1
110
0.0
120
0.0
130
0.0
111
1.0
121
0.0
131
0.0
112
0.0
122
1.0
132
0.0
 79
     0
146
0.0
  0
ENDTAB
  0
TABLE
  2
LTYPE
  5
5
330
0
100
AcDbSymbolTable
 70
    19
  0
LTYPE
  5
14
330
5
100
AcDbSymbolTableRecord
100
AcDbLinetypeTableRecord
  2
ByBlock
 70
     0
  3

 72
    65
 73
     0
 40
0.0
  0
LTYPE
  5
15
330
5
100
AcDbSymbolTableRecord
100
AcDbLinetypeTableRecord
  2
ByLayer
 70
     0
  3

 72
    65
 73
     0
 40
0.0
  0
LTYPE
  5
16
330
5
100
AcDbSymbolTableRecord
100
AcDbLinetypeTableRecord
  2
Continuous
 70
     0
  3
Solid line
 72
    65
 73
     0
 40
0.0
  0
LTYPE
  5
64
330
5
100
AcDbSymbolTableRecord
100
AcDbLinetypeTableRecord
  2
AM_ISO02W050
 70
     0
  3
__ __ __ __ __ __ __ __ __ __ __ __ __ __ __
 72
    65
 73
     2
 40
7.5
 49
6.0
 74
     0
 49
-1.5
 74
     0
  0
LTYPE
  5
65
330
5
100
AcDbSymbolTableRecord
100
AcDbLinetypeTableRecord
  2
AM_ISO08W050
 70
     0
  3
____ . ____ . ____ . ____ . ____ . ____ . ____
 72
    65
 73
     4
 40
18.0
 49
12.0
 74
     0
 49
-1.5
 74
     0
 49
3.0
 74
     0
 49
-1.5
 74
     0
  0
LTYPE
  5
66
330
5
100
AcDbSymbolTableRecord
100
AcDbLinetypeTableRecord
  2
AM_ISO09W050
 70
     0
  3
_____ . . _____ . . _____ . . ____ .. ____
 72
    65
 73
     6
 40
22.5
 49
12.0
 74
     0
 49
-1.5
 74
     0
 49
3.0
 74
     0
 49
-1.5
 74
     0
 49
3.0
 74
     0
 49
-1.5
 74
     0
  0
LTYPE
  5
67
330
5
100
AcDbSymbolTableRecord
100
AcDbLinetypeTableRecord
  2
Amconstr
 70
     0
  3
_______________________
 72
    65
 73
     2
 40
9999.0
 49
9999.0
 74
     0
 49
0.0
 74
     0
  0
LTYPE
  5
68
330
5
100
AcDbSymbolTableRecord
100
AcDbLinetypeTableRecord
  2
AM_ISO08W050x2
 70
     0
  3
__ . __ . __ . __ . __ . __
 72
    65
 73
     4
 40
9.0
 49
6.0
 74
     0
 49
-0.75
 74
     0
 49
1.5
 74
     0
 49
-0.75
 74
     0
  0
LTYPE
  5
69
330
5
100
AcDbSymbolTableRecord
100
AcDbLinetypeTableRecord
  2
AM_ISO02W050x2
 70
     0
  3
 _ _ _ _ _ _ _ _ _ _ _ _
 72
    65
 73
     2
 40
3.75
 49
3.0
 74
     0
 49
-0.75
 74
     0
  0
LTYPE
  5
6C
330
5
100
AcDbSymbolTableRecord
100
AcDbLinetypeTableRecord
  2
Amzigzag
 70
     0
  3
/\/-/\/-/\/-/\/-/\/-/\/
 72
    65
 73
     2
 40
11.0001
 49
0.0001
 74
     4
 75
   135
340
6B
 46
0.04
 50
0.0
 44
0.0
 45
0.0
 49
-11.0
 74
     0
  0
LTYPE
  5
7A
330
5
100
AcDbSymbolTableRecord
100
AcDbLinetypeTableRecord
  2
ACISOWELD
 70
     0
  3
_ _ _ _ _
 72
    65
 73
     2
 40
2.0
 49
2.0
 74
     0
 49
-1.0
 74
     0
  0
LTYPE
  5
7B
330
5
100
AcDbSymbolTableRecord
100
AcDbLinetypeTableRecord
  2
ACISOTGB
 70
     0
  3
__ . . __ . .
 72
    65
 73
     6
 40
9.0
 49
4.0
 74
     0
 49
-1.0
 74
     0
 49
1.0
 74
     0
 49
-1.0
 74
     0
 49
1.0
 74
     0
 49
-1.0
 74
     0
  0
LTYPE
  5
7C
330
5
100
AcDbSymbolTableRecord
100
AcDbLinetypeTableRecord
  2
ACISOTGL
 70
     0
  3
_ _ _ _ _
 72
    65
 73
     2
 40
3.0
 49
2.0
 74
     0
 49
-1.0
 74
     0
  0
LTYPE
  5
7E
330
5
100
AcDbSymbolTableRecord
100
AcDbLinetypeTableRecord
  2
CENTER
 70
     0
  3
__ . __
 72
    65
 73
     4
 40
7.0
 49
4.0
 74
     0
 49
-1.0
 74
     0
 49
1.0
 74
     0
 49
-1.0
 74
     0
  0
LTYPE
  5
D8
330
5
100
AcDbSymbolTableRecord
100
AcDbLinetypeTableRecord
  2
HIDDEN
 70
     0
  3
Hidden __ __ __ __ __ __ __ __ __ __ __ __ __ _
 72
    65
 73
     2
 40
9.524999999999998
 49
6.349999999999999
 74
     0
 49
-3.174999999999999
 74
     0
  0
LTYPE
  5
D9
330
5
100
AcDbSymbolTableRecord
100
AcDbLinetypeTableRecord
  2
PHANTOM2
 70
     0
  3
Phantom (.5x) ___ _ _ ___ _ _ ___ _ _ ___ _ _
 72
    65
 73
     6
 40
31.75
 49
15.875
 74
     0
 49
-3.174999999999999
 74
     0
 49
3.174999999999999
 74
     0
 49
-3.174999999999999
 74
     0
 49
3.174999999999999
 74
     0
 49
-3.174999999999999
 74
     0
  0
LTYPE
  5
B96
330
5
100
AcDbSymbolTableRecord
100
AcDbLinetypeTableRecord
  2
CENTER2
 70
     0
  3
Center (.5x) ___ _ ___ _ ___ _ ___ _ ___ _ ___
 72
    65
 73
     4
 40
1.125
 49
0.75
 74
     0
 49
-0.125
 74
     0
 49
0.125
 74
     0
 49
-0.125
 74
     0
  0
LTYPE
  5
B99
330
5
100
AcDbSymbolTableRecord
100
AcDbLinetypeTableRecord
  2
ACANSTGB
 70
     0
  3
__ . . __ . .
 72
    65
 73
     6
 40
0.35433070866
 49
0.15748031496
 74
     0
 49
-0.03937007874
 74
     0
 49
0.03937007874
 74
     0
 49
-0.03937007874
 74
     0
 49
0.03937007874
 74
     0
 49
-0.03937007874
 74
     0
  0
LTYPE
  5
B9A
330
5
100
AcDbSymbolTableRecord
100
AcDbLinetypeTableRecord
  2
ACANSTGL
 70
     0
  3
_ _ _ _ _
 72
    65
 73
     2
 40
0.11811023622
 49
0.07874015748
 74
     0
 49
-0.03937007874
 74
     0
  0
LTYPE
  5
134C
330
5
100
AcDbSymbolTableRecord
100
AcDbLinetypeTableRecord
  2
HIDDEN2
 70
     0
  3
Hidden (.5x) _ _ _ _ _ _ _ _ _ _ _ _ _ _ _ _ _
 72
    65
 73
     2
 40
0.1875
 49
0.125
 74
     0
 49
-0.0625
 74
     0
  0
LTYPE
  5
134D
330
5
100
AcDbSymbolTableRecord
100
AcDbLinetypeTableRecord
  2
Amzigzag2
 70
     0
  3
/\/-/\/-/\/-/\/-/\/-/\/
 72
    65
 73
     2
 40
0.4401
 49
0.0001
 74
     4
 75
   135
340
6B
 46
0.0016
 50
0.0
 44
0.0
 45
0.0
 49
-0.4400000000000001
 74
     0
  0
ENDTAB
  0
TABLE
  2
LAYER
  5
2
102
{ACAD_XDICTIONARY
360
3F9
102
}
330
0
100
AcDbSymbolTable
 70
    10
  0
LAYER
  5
10
330
2
100
AcDbSymbolTableRecord
100
AcDbLayerTableRecord
  2
0
 70
     0
 62
     7
  6
Continuous
370
    -3
390
F
  0
LAYER
  5
B9B
330
2
100
AcDbSymbolTableRecord
100
AcDbLayerTableRecord
  2
DIM
 70
     0
 62
     4
  6
Continuous
370
    18
390
F
  0
LAYER
  5
B9C
330
2
100
AcDbSymbolTableRecord
100
AcDbLayerTableRecord
  2
DEFPOINTS
 70
     0
 62
     7
  6
Continuous
290
     0
370
    -3
390
F
  0
LAYER
  5
B9D
330
2
100
AcDbSymbolTableRecord
100
AcDbLayerTableRecord
  2
Center
 70
     0
 62
     1
  6
CENTER2
370
    13
390
F
  0
LAYER
  5
E18
330
2
100
AcDbSymbolTableRecord
100
AcDbLayerTableRecord
  2
AM_5
 70
     0
 62
     5
  6
Continuous
370
    50
390
F
  0
LAYER
  5
10FD
330
2
100
AcDbSymbolTableRecord
100
AcDbLayerTableRecord
  2
LOGO
 70
     0
 62
     7
  6
Continuous
370
    -3
390
F
  0
LAYER
  5
1240
330
2
100
AcDbSymbolTableRecord
100
AcDbLayerTableRecord
  2
AM_7
 70
     0
 62
     1
  6
CENTER
370
    25
390
F
  0
LAYER
  5
183E
330
2
100
AcDbSymbolTableRecord
100
AcDbLayerTableRecord
  2
AM_0
 70
     0
 62
     7
  6
Continuous
370
    50
390
F
  0
LAYER
  5
186F
330
2
100
AcDbSymbolTableRecord
100
AcDbLayerTableRecord
  2
AM_4
 70
     0
 62
     3
  6
Continuous
370
    25
390
F
  0
LAYER
  5
1870
330
2
100
AcDbSymbolTableRecord
100
AcDbLayerTableRecord
  2
AM_9
 70
     0
 62
  -253
  6
Continuous
370
     0
390
F
  0
ENDTAB
  0
TABLE
  2
STYLE
  5
3
330
0
100
AcDbSymbolTable
 70
     9
  0
STYLE
  5
11
330
3
100
AcDbSymbolTableRecord
100
AcDbTextStyleTableRecord
  2
STANDARD
 70
     0
 40
0.0
 41
1.0
 50
0.0
 71
     0
 42
3.0
  3
ISOCP.SHX
  4
CHINESET.SHX
  0
STYLE
  5
6B
330
3
100
AcDbSymbolTableRecord
100
AcDbTextStyleTableRecord
  2

 70
     1
 40
0.0
 41
1.0
 50
0.0
 71
     0
 42
2.5
  3
ltypeshp.shx
  4

  0
STYLE
  5
6D
330
3
100
AcDbSymbolTableRecord
100
AcDbTextStyleTableRecord
  2
ACISOTS
 70
     0
 40
1.0
 41
1.0
 50
0.0
 71
     0
 42
1.0
  3
isocp.shx
  4
chineset.shx
  0
STYLE
  5
79
330
3
100
AcDbSymbolTableRecord
100
AcDbTextStyleTableRecord
  2
ACISOGDT
 70
     0
 40
0.0
 41
1.0
 50
0.0
 71
     0
 42
2.5
  3
amgdt.shx
  4
chineset.shx
  0
STYLE
  5
B9E
330
3
100
AcDbSymbolTableRecord
100
AcDbTextStyleTableRecord
  2
CHINA
 70
     0
 40
0.0
 41
1.0
 50
0.0
 71
     0
 42
3.5
  3
romans.shx
  4
chineset.shx
  0
STYLE
  5
B9F
330
3
100
AcDbSymbolTableRecord
100
AcDbTextStyleTableRecord
  2
ACANSTS
 70
     0
 40
1.0
 41
1.0
 50
0.0
 71
     0
 42
3.5
  3
romans.shx
  4
chineset.shx
  0
STYLE
  5
BA0
330
3
100
AcDbSymbolTableRecord
100
AcDbTextStyleTableRecord
  2
ACANSGDT
 70
     0
 40
0.0
 41
1.0
 50
0.0
 71
     0
 42
3.5
  3
amgdtans.shx
  4

  0
STYLE
  5
10FE
330
3
100
AcDbSymbolTableRecord
100
AcDbTextStyleTableRecord
  2
chineset
 70
     0
 40
0.0
 41
1.0
 50
0.0
 71
     0
 42
5.0
  3
simplex.shx
  4
chineset.shx
  0
ENDTAB
  0
TABLE
  2
VIEW
  5
6
330
0
100
AcDbSymbolTable
 70
     0
  0
ENDTAB
  0
TABLE
  2
UCS
  5
7
330
0
100
AcDbSymbolTable
 70
     0
  0
ENDTAB
  0
TABLE
  2
APPID
  5
9
330
0
100
AcDbSymbolTable
 70
    26
  0
APPID
  5
12
330
9
100
AcDbSymbolTableRecord
100
AcDbRegAppTableRecord
  2
ACAD
 70
     0
  0
APPID
  5
46
330
9
100
AcDbSymbolTableRecord
100
AcDbRegAppTableRecord
  2
MCAD_NO_VIS
 70
     0
  0
APPID
  5
47
330
9
100
AcDbSymbolTableRecord
100
AcDbRegAppTableRecord
  2
ACAD_TEMP_GRAPHIC
 70
     0
  0
APPID
  5
58
330
9
100
AcDbSymbolTableRecord
100
AcDbRegAppTableRecord
  2
ACATTRIBSERVICES
 70
     0
  0
APPID
  5
EE
330
9
100
AcDbSymbolTableRecord
100
AcDbRegAppTableRecord
  2
AD_DRAW
 70
     0
  0
APPID
  5
10C
330
9
100
AcDbSymbolTableRecord
100
AcDbRegAppTableRecord
  2
DESIGNERASSEMBLIES
 70
     0
  0
APPID
  5
111
330
9
100
AcDbSymbolTableRecord
100
AcDbRegAppTableRecord
  2
ACADM_DIM_EDIT
 70
     0
  0
APPID
  5
112
330
9
100
AcDbSymbolTableRecord
100
AcDbRegAppTableRecord
  2
AMDT_DM_ADJ
 70
     0
  0
APPID
  5
22C
330
9
100
AcDbSymbolTableRecord
100
AcDbRegAppTableRecord
  2
ACAD_DSTYLE_DIMTEXT_FILL
 70
     0
  0
APPID
  5
452
330
9
100
AcDbSymbolTableRecord
100
AcDbRegAppTableRecord
  2
GENIUS_GENOENT_13
 70
     0
  0
APPID
  5
453
330
9
100
AcDbSymbolTableRecord
100
AcDbRegAppTableRecord
  2
GENIUS_GENOBJ-N-CRS_13
 70
     0
  0
APPID
  5
454
330
9
100
AcDbSymbolTableRecord
100
AcDbRegAppTableRecord
  2
GENIUS_GENOLIS_13
 70
     0
  0
APPID
  5
455
330
9
100
AcDbSymbolTableRecord
100
AcDbRegAppTableRecord
  2
GENIUS_GENODEF_13
 70
     0
  0
APPID
  5
456
330
9
100
AcDbSymbolTableRecord
100
AcDbRegAppTableRecord
  2
GENIUS_GENOREF_13
 70
     0
  0
APPID
  5
6F3
330
9
100
AcDbSymbolTableRecord
100
AcDbRegAppTableRecord
  2
ACAD_PSEXT
 70
     0
  0
APPID
  5
808
330
9
100
AcDbSymbolTableRecord
100
AcDbRegAppTableRecord
  2
GENIUS_GENDTOL_13
 70
     0
  0
APPID
  5
10FF
330
9
100
AcDbSymbolTableRecord
100
AcDbRegAppTableRecord
  2
GENIUS_GENREC_14
 70
     0
  0
APPID
  5
1100
330
9
100
AcDbSymbolTableRecord
100
AcDbRegAppTableRecord
  2
GENIUS_GENOBJ-N-REC_13
 70
     0
  0
APPID
  5
1242
330
9
100
AcDbSymbolTableRecord
100
AcDbRegAppTableRecord
  2
GENIUS_GENOBJ-N-CEN_13
 70
     0
  0
APPID
  5
1243
330
9
100
AcDbSymbolTableRecord
100
AcDbRegAppTableRecord
  2
GENIUS_GENCEN_19
 70
     0
  0
APPID
  5
1850
330
9
100
AcDbSymbolTableRecord
100
AcDbRegAppTableRecord
  2
GEVID1193807179
 70
     0
  0
APPID
  5
1851
330
9
100
AcDbSymbolTableRecord
100
AcDbRegAppTableRecord
  2
GEVDC
 70
     0
  0
APPID
  5
1852
330
9
100
AcDbSymbolTableRecord
100
AcDbRegAppTableRecord
  2
GEVRADREF
 70
     0
  0
APPID
  5
185B
330
9
100
AcDbSymbolTableRecord
100
AcDbRegAppTableRecord
  2
AMG_2DHIDE
 70
     0
  0
APPID
  5
185C
330
9
100
AcDbSymbolTableRecord
100
AcDbRegAppTableRecord
  2
AMG_2DSTRUCT_BTR
 70
     0
  0
APPID
  5
186D
330
9
100
AcDbSymbolTableRecord
100
AcDbRegAppTableRecord
  2
ACADM_2DVIEW_IGN_NOTIFY
 70
     0
  0
ENDTAB
  0
TABLE
  2
DIMSTYLE
  5
A
330
0
100
AcDbSymbolTable
 70
    17
100
AcDbDimStyleTable
 71
     3
340
81
340
8B
340
86
  0
DIMSTYLE
105
81
330
A
100
AcDbSymbolTableRecord
100
AcDbDimStyleTableRecord
  2
AM_ISO
 70
     0
  4
"
 41
3.0
 42
1.5
 43
8.0
 44
1.5
 47
0.1
 48
0.1
 73
     0
 74
     0
 77
     1
 78
     8
 79
     2
140
3.5
141
0.0
143
0.0393701
146
0.6
147
1.0
172
     1
176
   256
177
   256
178
   256
271
     2
272
     2
283
     0
284
     8
340
11
371
    -1
372
    -1
  0
DIMSTYLE
105
82
330
A
100
AcDbSymbolTableRecord
100
AcDbDimStyleTableRecord
  2
AM_ISO$3
 70
     0
  4
"
 41
3.0
 42
1.5
 43
8.0
 44
1.5
 47
0.1
 48
0.1
 73
     0
 77
     1
 78
     8
 79
     2
140
3.5
141
0.0
143
0.0393701
146
0.6
147
1.0
176
   256
177
   256
178
   256
271
     2
272
     2
283
     0
284
     8
288
     1
289
     0
340
11
371
    -1
372
    -1
  0
DIMSTYLE
105
83
330
A
100
AcDbSymbolTableRecord
100
AcDbDimStyleTableRecord
  2
AM_ISO$4
 70
     0
  4
"
 41
3.0
 42
1.5
 43
8.0
 44
1.5
 47
0.1
 48
0.1
 73
     0
 77
     1
 78
     8
 79
     2
140
3.5
141
0.0
143
0.0393701
146
0.6
147
1.0
176
   256
177
   256
178
   256
271
     2
272
     2
283
     0
284
     8
288
     1
289
     0
340
11
371
    -1
372
    -1
  0
DIMSTYLE
105
84
330
A
100
AcDbSymbolTableRecord
100
AcDbDimStyleTableRecord
  2
AM_ISO$6
 70
     0
  4
"
 41
3.0
 42
1.5
 43
8.0
 44
1.5
 47
0.1
 48
0.1
 73
     0
 74
     0
 78
     8
 79
     2
140
3.5
141
0.0
143
0.0393701
146
0.6
147
1.0
172
     1
176
   256
177
   256
178
   256
271
     2
272
     2
283
     0
284
     8
340
11
371
    -1
372
    -1
  0
DIMSTYLE
105
85
330
A
100
AcDbSymbolTableRecord
100
AcDbDimStyleTableRecord
  2
AM_ISO$7
 70
     0
  4
"
 41
3.0
 42
1.5
 43
8.0
 44
1.5
 47
0.1
 48
0.1
 73
     0
 74
     0
 77
     1
 78
     8
 79
     2
140
5.0
141
0.0
143
0.0393701
146
0.6
147
1.0
172
     1
176
   256
177
   256
178
   256
271
     2
272
     2
283
     0
284
     8
340
11
371
    -1
372
    -1
  0
DIMSTYLE
105
86
330
A
100
AcDbSymbolTableRecord
100
AcDbDimStyleTableRecord
  2
AM_ISO$SF
 70
     0
  4
"
 41
2.5
 42
1.0
 43
10.0
 44
1.0
 47
0.1
 48
0.1
 73
     0
 74
     0
 75
     1
 76
     1
 77
     1
 78
     8
 79
     2
140
3.5
141
0.0
143
0.0393701
146
0.71
147
1.5
172
     1
176
   256
177
   256
178
     2
271
     2
272
     3
274
     4
283
     0
284
     8
340
11
371
    -1
372
    -1
  0
DIMSTYLE
105
8B
330
A
100
AcDbSymbolTableRecord
100
AcDbDimStyleTableRecord
  2
AM_ISO$SH
 70
     0
  4
"
 41
2.5
 42
1.0
 43
10.0
 44
1.0
 47
0.1
 48
0.1
 73
     0
 74
     0
 75
     1
 76
     1
 77
     1
 78
     8
 79
     2
140
3.5
141
0.0
143
0.0393701
144
2.0
146
0.71
147
1.5
172
     1
173
     1
176
   256
177
   256
178
     2
271
     2
272
     3
274
     4
283
     0
284
     8
340
11
343
87
371
    -1
372
    -1
  0
DIMSTYLE
105
40B
102
{ACAD_REACTORS
330
1D26
330
1D20
330
1D1F
330
1CDF
330
1CBB
330
1CB1
330
1CBA
330
1D30
330
1D2B
330
1D17
330
1D14
330
1D2C
330
1CE1
330
1CE0
330
1D28
330
1CED
330
2117
102
}
330
A
100
AcDbSymbolTableRecord
100
AcDbDimStyleTableRecord
  2
AM_ISO$0
 70
     0
  4
"
 41
3.0
 42
1.5
 43
8.0
 44
1.5
 47
0.1
 48
0.1
 73
     0
 74
     0
 77
     1
 78
     8
 79
     2
140
3.5
141
0.0
143
0.0393701
146
0.6
147
1.0
172
     1
176
   256
177
   256
178
   256
271
     2
272
     2
283
     0
284
     8
340
11
371
    -1
372
    -1
  0
DIMSTYLE
105
BA3
330
A
100
AcDbSymbolTableRecord
100
AcDbDimStyleTableRecord
  2
AM_ANSI
 70
     0
  4
mm
 41
0.1
 42
0.05
 43
0.5
 44
0.1
 47
0.1
 48
0.1
 78
     7
 79
     2
140
0.12
141
0.0
146
0.71
147
0.06
176
   256
177
   256
178
     2
274
     4
284
     7
340
11
371
    -1
372
    -1
  0
DIMSTYLE
105
BA4
330
A
100
AcDbSymbolTableRecord
100
AcDbDimStyleTableRecord
  2
AM_ANSI$3
 70
     0
  4
mm
 41
0.1
 42
0.05
 43
0.5
 44
0.1
 47
0.1
 48
0.1
 78
     7
 79
     2
140
0.12
141
0.0
146
0.71
147
0.06
176
   256
177
   256
178
     2
274
     4
284
     7
288
     1
289
     0
340
11
371
    -1
372
    -1
  0
DIMSTYLE
105
BA5
330
A
100
AcDbSymbolTableRecord
100
AcDbDimStyleTableRecord
  2
AM_ANSI$4
 70
     0
  4
mm
 41
0.1
 42
0.05
 43
0.5
 44
0.1
 47
0.1
 48
0.1
 78
     7
 79
     2
140
0.12
141
0.0
146
0.71
147
0.06
176
   256
177
   256
178
     2
274
     4
284
     7
288
     1
289
     0
340
11
371
    -1
372
    -1
  0
DIMSTYLE
105
BA6
330
A
100
AcDbSymbolTableRecord
100
AcDbDimStyleTableRecord
  2
AM_ANSI$7
 70
     0
  4
mm
 41
0.1
 42
0.05
 43
0.5
 44
0.1
 47
0.1
 48
0.1
 78
     7
 79
     2
140
0.24
141
0.0
146
0.71
147
0.06
176
   256
177
   256
178
     2
274
     4
284
     7
340
11
371
    -1
372
    -1
  0
DIMSTYLE
105
BA7
330
A
100
AcDbSymbolTableRecord
100
AcDbDimStyleTableRecord
  2
AM_ANSI$SF
 70
     0
  4
mm
 41
0.1
 42
0.05
 43
0.5
 44
0.1
 47
0.1
 48
0.1
 75
     1
 76
     1
 78
     7
 79
     2
140
0.12
141
0.0
146
0.71
147
0.06
176
   256
177
   256
178
     2
274
     4
284
     7
340
11
371
    -1
372
    -1
  0
DIMSTYLE
105
BA8
330
A
100
AcDbSymbolTableRecord
100
AcDbDimStyleTableRecord
  2
AM_ANSI$SH
 70
     0
  4
mm
 41
0.1
 42
0.05
 43
0.5
 44
0.1
 47
0.1
 48
0.1
 75
     1
 76
     1
 78
     7
 79
     2
140
0.12
141
0.0
146
0.71
147
0.06
173
     1
176
   256
177
   256
178
     2
274
     4
284
     7
340
11
343
87
371
    -1
372
    -1
  0
DIMSTYLE
105
134E
330
A
100
AcDbSymbolTableRecord
100
AcDbDimStyleTableRecord
  2
STANDARD
 70
     0
 73
     0
 74
     0
 77
     1
140
3.0
271
     2
272
     2
279
     2
284
     8
285
     8
286
     8
340
B9E
  0
DIMSTYLE
105
134F
330
A
100
AcDbSymbolTableRecord
100
AcDbDimStyleTableRecord
  2
ISO-25
 70
     0
 41
2.0
 42
1.0
 44
1.0
 73
     0
 74
     0
 77
     1
 78
     8
140
3.0
141
0.0
143
0.03937007874016
147
0.75
171
     3
172
     1
176
   256
177
   256
178
   256
271
     2
272
     2
274
     3
283
     0
284
     8
340
B9E
  0
ENDTAB
  0
TABLE
  2
BLOCK_RECORD
  5
1
330
0
100
AcDbSymbolTable
 70
    29
  0
BLOCK_RECORD
  5
1F
102
{ACAD_XDICTIONARY
360
8F
102
}
330
1
100
AcDbSymbolTableRecord
100
AcDbBlockTableRecord
  2
*Model_Space
340
22
  0
BLOCK_RECORD
  5
1B
330
1
100
AcDbSymbolTableRecord
100
AcDbBlockTableRecord
  2
*Paper_Space
340
1E
  0
BLOCK_RECORD
  5
23
330
1
100
AcDbSymbolTableRecord
100
AcDbBlockTableRecord
  2
*Paper_Space0
340
26
  0
BLOCK_RECORD
  5
87
330
1
100
AcDbSymbolTableRecord
100
AcDbBlockTableRecord
  2
GENAXEH
340
0
  0
BLOCK_RECORD
  5
127F
330
1
100
AcDbSymbolTableRecord
100
AcDbBlockTableRecord
  2
_NONE
340
0
  0
BLOCK_RECORD
  5
1872
330
1
100
AcDbSymbolTableRecord
100
AcDbBlockTableRecord
  2
*U5
340
0
  0
BLOCK_RECORD
  5
1D31
330
1
100
AcDbSymbolTableRecord
100
AcDbBlockTableRecord
  2
*D6
340
0
  0
BLOCK_RECORD
  5
1D3D
330
1
100
AcDbSymbolTableRecord
100
AcDbBlockTableRecord
  2
*D7
340
0
  0
BLOCK_RECORD
  5
1D49
330
1
100
AcDbSymbolTableRecord
100
AcDbBlockTableRecord
  2
*D8
340
0
  0
BLOCK_RECORD
  5
1D55
330
1
100
AcDbSymbolTableRecord
100
AcDbBlockTableRecord
  2
*D9
340
0
  0
BLOCK_RECORD
  5
1D60
330
1
100
AcDbSymbolTableRecord
100
AcDbBlockTableRecord
  2
*D10
340
0
  0
BLOCK_RECORD
  5
1D6C
330
1
100
AcDbSymbolTableRecord
100
AcDbBlockTableRecord
  2
*D11
340
0
  0
BLOCK_RECORD
  5
1D78
330
1
100
AcDbSymbolTableRecord
100
AcDbBlockTableRecord
  2
*D12
340
0
  0
BLOCK_RECORD
  5
1D84
330
1
100
AcDbSymbolTableRecord
100
AcDbBlockTableRecord
  2
*D13
340
0
  0
BLOCK_RECORD
  5
1D90
330
1
100
AcDbSymbolTableRecord
100
AcDbBlockTableRecord
  2
*D14
340
0
  0
BLOCK_RECORD
  5
1D9C
330
1
100
AcDbSymbolTableRecord
100
AcDbBlockTableRecord
  2
*D15
340
0
  0
BLOCK_RECORD
  5
1DA8
330
1
100
AcDbSymbolTableRecord
100
AcDbBlockTableRecord
  2
*D16
340
0
  0
BLOCK_RECORD
  5
1DB4
330
1
100
AcDbSymbolTableRecord
100
AcDbBlockTableRecord
  2
*D17
340
0
  0
BLOCK_RECORD
  5
1DC0
330
1
100
AcDbSymbolTableRecord
100
AcDbBlockTableRecord
  2
*D18
340
0
  0
BLOCK_RECORD
  5
1DCC
330
1
100
AcDbSymbolTableRecord
100
AcDbBlockTableRecord
  2
*D19
340
0
  0
BLOCK_RECORD
  5
1DD8
330
1
100
AcDbSymbolTableRecord
100
AcDbBlockTableRecord
  2
*D20
340
0
  0
BLOCK_RECORD
  5
1DE4
330
1
100
AcDbSymbolTableRecord
100
AcDbBlockTableRecord
  2
*D21
340
0
  0
BLOCK_RECORD
  5
2118
330
1
100
AcDbSymbolTableRecord
100
AcDbBlockTableRecord
  2
*D22
340
0
  0
BLOCK_RECORD
  5
2479
330
1
100
AcDbSymbolTableRecord
100
AcDbBlockTableRecord
  2
*S24
340
0
  0
BLOCK_RECORD
  5
2481
330
1
100
AcDbSymbolTableRecord
100
AcDbBlockTableRecord
  2
*S25
340
0
  0
BLOCK_RECORD
  5
2489
330
1
100
AcDbSymbolTableRecord
100
AcDbBlockTableRecord
  2
*S26
340
0
  0
BLOCK_RECORD
  5
2491
330
1
100
AcDbSymbolTableRecord
100
AcDbBlockTableRecord
  2
*S27
340
0
  0
BLOCK_RECORD
  5
2499
330
1
100
AcDbSymbolTableRecord
100
AcDbBlockTableRecord
  2
*S28
340
0
  0
ENDTAB
  0
ENDSEC
  0
SECTION
  2
BLOCKS
  0
BLOCK
  5
20
330
1F
100
AcDbEntity
  8
0
100
AcDbBlockBegin
  2
*Model_Space
 70
     0
 10
0.0
 20
0.0
 30
0.0
  3
*Model_Space
  1

  0
ENDBLK
  5
21
330
1F
100
AcDbEntity
  8
0
100
AcDbBlockEnd
  0
BLOCK
  5
1C
330
1B
100
AcDbEntity
 67
     1
  8
0
100
AcDbBlockBegin
  2
*Paper_Space
 70
     0
 10
0.0
 20
0.0
 30
0.0
  3
*Paper_Space
  1

  0
ENDBLK
  5
1D
330
1B
100
AcDbEntity
 67
     1
  8
0
100
AcDbBlockEnd
  0
BLOCK
  5
24
330
23
100
AcDbEntity
  8
0
100
AcDbBlockBegin
  2
*Paper_Space0
 70
     0
 10
0.0
 20
0.0
 30
0.0
  3
*Paper_Space0
  1

  0
ENDBLK
  5
25
330
23
100
AcDbEntity
  8
0
100
AcDbBlockEnd
  0
BLOCK
  5
89
330
87
100
AcDbEntity
  8
0
100
AcDbBlockBegin
  2
GENAXEH
 70
     0
 10
0.0
 20
0.0
 30
0.0
  3
GENAXEH
  1

  0
LINE
  5
88
330
87
100
AcDbEntity
  8
0
100
AcDbLine
 10
-1.0
 20
0.0
 30
0.0
 11
1.0
 21
0.0
 31
0.0
  0
ENDBLK
  5
8A
330
87
100
AcDbEntity
  8
0
100
AcDbBlockEnd
  0
BLOCK
  5
1280
330
127F
100
AcDbEntity
  8
0
100
AcDbBlockBegin
  2
_NONE
 70
     0
 10
0.0
 20
0.0
 30
0.0
  3
_NONE
  1

  0
CIRCLE
  5
1281
330
127F
100
AcDbEntity
  8
0
  6
ByBlock
 62
     0
100
AcDbCircle
 10
0.0
 20
0.0
 30
0.0
 40
0.25
  0
ENDBLK
  5
1282
330
127F
100
AcDbEntity
  8
0
100
AcDbBlockEnd
  0
BLOCK
  5
1873
330
1872
100
AcDbEntity
  8
0
100
AcDbBlockBegin
  2
*U5
 70
     1
 10
0.0
 20
0.0
 30
0.0
  3
*U5
  1

  0
ENDBLK
  5
1874
330
1872
100
AcDbEntity
  8
0
100
AcDbBlockEnd
  0
BLOCK
  5
1D3B
330
1D31
100
AcDbEntity
  8
0
100
AcDbBlockBegin
  2
*D6
 70
     1
 10
0.0
 20
0.0
 30
0.0
  3
*D6
  1

  0
LINE
  5
235E
330
1D31
100
AcDbEntity
  8
AM_5
100
AcDbLine
 10
184.2693835748269
 20
209.2004789468279
 30
0.0
 11
184.2693835748269
 21
224.8204694003431
 31
0.0
  0
LINE
  5
235F
330
1D31
100
AcDbEntity
  8
AM_5
100
AcDbLine
 10
266.2693835748269
 20
209.2004789468279
 30
0.0
 11
266.2693835748269
 21
224.8204694003431
 31
0.0
  0
LINE
  5
2360
330
1D31
100
AcDbEntity
  8
AM_5
100
AcDbLine
 10
187.2693835748268
 20
223.3204694003431
 30
0.0
 11
263.2693835748268
 21
223.3204694003431
 31
0.0
  0
SOLID
  5
2361
330
1D31
100
AcDbEntity
  8
AM_5
100
AcDbTrace
 10
187.2693835748268
 20
223.8204694003431
 30
0.0
 11
187.2693835748268
 21
222.8204694003431
 31
0.0
 12
184.2693835748269
 22
223.3204694003431
 32
0.0
 13
184.2693835748269
 23
223.3204694003431
 33
0.0
  0
SOLID
  5
2362
330
1D31
100
AcDbEntity
  8
AM_5
100
AcDbTrace
 10
263.2693835748268
 20
223.8204694003431
 30
0.0
 11
263.2693835748268
 21
222.8204694003431
 31
0.0
 12
266.2693835748269
 22
223.3204694003431
 32
0.0
 13
266.2693835748269
 23
223.3204694003431
 33
0.0
  0
MTEXT
  5
2363
330
1D31
100
AcDbEntity
  8
AM_5
100
AcDbMText
 10
225.2693835748269
 20
226.0708138885321
 30
0.0
 40
3.5
 41
0.0
 71
     5
 72
     1
  1
82
 73
     1
 44
1.0
1001
ACAD
1000
MTEXTBEGIN
1070
    73
1070
     1
1070
    44
1040
1.0
1070
    74
1070
     0
1000
MTEXTEND
  0
POINT
  5
2364
330
1D31
100
AcDbEntity
  8
DEFPOINTS
 62
     0
100
AcDbPoint
 10
184.2693835748269
 20
207.7004789468279
 30
0.0
  0
POINT
  5
2365
330
1D31
100
AcDbEntity
  8
DEFPOINTS
 62
     0
100
AcDbPoint
 10
266.2693835748269
 20
207.7004789468279
 30
0.0
  0
POINT
  5
2366
330
1D31
100
AcDbEntity
  8
DEFPOINTS
 62
     0
100
AcDbPoint
 10
266.2693835748269
 20
223.3204694003431
 30
0.0
  0
ENDBLK
  5
1D3C
330
1D31
100
AcDbEntity
  8
0
100
AcDbBlockEnd
  0
BLOCK
  5
1D47
330
1D3D
100
AcDbEntity
  8
0
100
AcDbBlockBegin
  2
*D7
 70
     1
 10
0.0
 20
0.0
 30
0.0
  3
*D7
  1

  0
LINE
  5
2367
330
1D3D
100
AcDbEntity
  8
AM_5
100
AcDbLine
 10
189.2693835748268
 20
192.7004789468279
 30
0.0
 11
174.0576172115762
 21
192.7004789468279
 31
0.0
  0
LINE
  5
2368
330
1D3D
100
AcDbEntity
  8
AM_5
100
AcDbLine
 10
182.7693835748268
 20
207.7004789468279
 30
0.0
 11
174.0576172115762
 21
207.7004789468279
 31
0.0
  0
LINE
  5
2369
330
1D3D
100
AcDbEntity
  8
AM_5
100
AcDbLine
 10
175.5576172115762
 20
195.7004789468279
 30
0.0
 11
175.5576172115762
 21
204.7004789468279
 31
0.0
  0
SOLID
  5
236A
330
1D3D
100
AcDbEntity
  8
AM_5
100
AcDbTrace
 10
175.0576172115762
 20
195.7004789468279
 30
0.0
 11
176.0576172115762
 21
195.7004789468279
 31
0.0
 12
175.5576172115762
 22
192.7004789468279
 32
0.0
 13
175.5576172115762
 23
192.7004789468279
 33
0.0
  0
SOLID
  5
236B
330
1D3D
100
AcDbEntity
  8
AM_5
100
AcDbTrace
 10
175.0576172115762
 20
204.7004789468279
 30
0.0
 11
176.0576172115762
 21
204.7004789468279
 31
0.0
 12
175.5576172115762
 22
207.7004789468279
 32
0.0
 13
175.5576172115762
 23
207.7004789468279
 33
0.0
  0
MTEXT
  5
236C
330
1D3D
100
AcDbEntity
  8
AM_5
100
AcDbMText
 10
172.8076172115762
 20
200.2004789468279
 30
0.0
 40
3.5
 41
0.0
 71
     5
 72
     1
  1
15
 11
0.0000000000000001
 21
1.0
 31
0.0
 73
     1
 44
1.0
1001
ACAD
1000
MTEXTBEGIN
1070
    73
1070
     1
1070
    44
1040
1.0
1070
    74
1070
     0
1000
MTEXTEND
  0
POINT
  5
236D
330
1D3D
100
AcDbEntity
  8
DEFPOINTS
 62
     0
100
AcDbPoint
 10
190.7693835748268
 20
192.7004789468279
 30
0.0
  0
POINT
  5
236E
330
1D3D
100
AcDbEntity
  8
DEFPOINTS
 62
     0
100
AcDbPoint
 10
184.2693835748269
 20
207.7004789468279
 30
0.0
  0
POINT
  5
236F
330
1D3D
100
AcDbEntity
  8
DEFPOINTS
 62
     0
100
AcDbPoint
 10
175.5576172115762
 20
207.7004789468279
 30
0.0
  0
ENDBLK
  5
1D48
330
1D3D
100
AcDbEntity
  8
0
100
AcDbBlockEnd
  0
BLOCK
  5
1D53
330
1D49
100
AcDbEntity
  8
0
100
AcDbBlockBegin
  2
*D8
 70
     1
 10
0.0
 20
0.0
 30
0.0
  3
*D8
  1

  0
LINE
  5
2370
330
1D49
100
AcDbEntity
  8
AM_5
100
AcDbLine
 10
255.2693835748268
 20
198.5931534421941
 30
0.0
 11
255.2693835748268
 21
216.8204694003431
 31
0.0
  0
LINE
  5
2371
330
1D49
100
AcDbEntity
  8
AM_5
100
AcDbLine
 10
195.2693835748268
 20
198.2004789468279
 30
0.0
 11
195.2693835748268
 21
216.8204694003431
 31
0.0
  0
LINE
  5
2372
330
1D49
100
AcDbEntity
  8
AM_5
100
AcDbLine
 10
252.2693835748269
 20
215.3204694003431
 30
0.0
 11
198.2693835748268
 21
215.3204694003431
 31
0.0
  0
SOLID
  5
2373
330
1D49
100
AcDbEntity
  8
AM_5
100
AcDbTrace
 10
252.2693835748269
 20
215.8204694003431
 30
0.0
 11
252.2693835748269
 21
214.8204694003431
 31
0.0
 12
255.2693835748268
 22
215.3204694003431
 32
0.0
 13
255.2693835748268
 23
215.3204694003431
 33
0.0
  0
SOLID
  5
2374
330
1D49
100
AcDbEntity
  8
AM_5
100
AcDbTrace
 10
198.2693835748268
 20
215.8204694003431
 30
0.0
 11
198.2693835748268
 21
214.8204694003431
 31
0.0
 12
195.2693835748268
 22
215.3204694003431
 32
0.0
 13
195.2693835748268
 23
215.3204694003431
 33
0.0
  0
MTEXT
  5
2375
330
1D49
100
AcDbEntity
  8
AM_5
100
AcDbMText
 10
225.2693835748269
 20
218.0704694003431
 30
0.0
 40
3.5
 41
0.0
 71
     5
 72
     1
  1
60
 73
     1
 44
1.0
1001
ACAD
1000
MTEXTBEGIN
1070
    73
1070
     1
1070
    44
1040
1.0
1070
    74
1070
     0
1000
MTEXTEND
  0
POINT
  5
2376
330
1D49
100
AcDbEntity
  8
DEFPOINTS
 62
     0
100
AcDbPoint
 10
255.2693835748268
 20
197.0931534421941
 30
0.0
  0
POINT
  5
2377
330
1D49
100
AcDbEntity
  8
DEFPOINTS
 62
     0
100
AcDbPoint
 10
195.2693835748268
 20
196.7004789468279
 30
0.0
  0
POINT
  5
2378
330
1D49
100
AcDbEntity
  8
DEFPOINTS
 62
     0
100
AcDbPoint
 10
195.2693835748268
 20
215.3204694003431
 30
0.0
  0
ENDBLK
  5
1D54
330
1D49
100
AcDbEntity
  8
0
100
AcDbBlockEnd
  0
BLOCK
  5
1D5E
330
1D55
100
AcDbEntity
  8
0
100
AcDbBlockBegin
  2
*D9
 70
     1
 10
0.0
 20
0.0
 30
0.0
  3
*D9
  1

  0
LINE
  5
2379
330
1D55
100
AcDbEntity
  8
AM_5
100
AcDbLine
 10
267.7693835748268
 20
164.7004789468279
 30
0.0
 11
279.7693835748269
 21
164.7004789468279
 31
0.0
  0
LINE
  5
237A
330
1D55
100
AcDbEntity
  8
AM_5
100
AcDbLine
 10
267.7693835748268
 20
207.7004789468279
 30
0.0
 11
279.7693835748269
 21
207.7004789468279
 31
0.0
  0
LINE
  5
237B
330
1D55
100
AcDbEntity
  8
AM_5
100
AcDbLine
 10
278.2693835748268
 20
167.7004789468279
 30
0.0
 11
278.2693835748268
 21
204.7004789468279
 31
0.0
  0
SOLID
  5
237C
330
1D55
100
AcDbEntity
  8
AM_5
100
AcDbTrace
 10
277.7693835748269
 20
167.7004789468279
 30
0.0
 11
278.7693835748269
 21
167.7004789468279
 31
0.0
 12
278.2693835748268
 22
164.7004789468279
 32
0.0
 13
278.2693835748268
 23
164.7004789468279
 33
0.0
  0
SOLID
  5
237D
330
1D55
100
AcDbEntity
  8
AM_5
100
AcDbTrace
 10
277.7693835748269
 20
204.7004789468279
 30
0.0
 11
278.7693835748269
 21
204.7004789468279
 31
0.0
 12
278.2693835748268
 22
207.7004789468279
 32
0.0
 13
278.2693835748268
 23
207.7004789468279
 33
0.0
  0
MTEXT
  5
237E
330
1D55
100
AcDbEntity
  8
AM_5
100
AcDbMText
 10
275.5193835748268
 20
186.2004789468279
 30
0.0
 40
3.5
 41
0.0
 71
     5
 72
     1
  1
43
 11
0.0000000000000001
 21
1.0
 31
0.0
 73
     1
 44
1.0
1001
ACAD
1000
MTEXTBEGIN
1070
    73
1070
     1
1070
    44
1040
1.0
1070
    74
1070
     0
1000
MTEXTEND
  0
POINT
  5
237F
330
1D55
100
AcDbEntity
  8
DEFPOINTS
 62
     0
100
AcDbPoint
 10
266.2693835748269
 20
164.7004789468279
 30
0.0
  0
POINT
  5
2380
330
1D55
100
AcDbEntity
  8
DEFPOINTS
 62
     0
100
AcDbPoint
 10
266.2693835748269
 20
207.7004789468279
 30
0.0
  0
POINT
  5
2381
330
1D55
100
AcDbEntity
  8
DEFPOINTS
 62
     0
100
AcDbPoint
 10
278.2693835748268
 20
207.7004789468279
 30
0.0
  0
ENDBLK
  5
1D5F
330
1D55
100
AcDbEntity
  8
0
100
AcDbBlockEnd
  0
BLOCK
  5
1D6A
330
1D60
100
AcDbEntity
  8
0
100
AcDbBlockBegin
  2
*D10
 70
     1
 10
0.0
 20
0.0
 30
0.0
  3
*D10
  1

  0
LINE
  5
2382
330
1D60
100
AcDbEntity
  8
AM_5
100
AcDbLine
 10
391.3215654408019
 20
207.700478946828
 30
0.0
 11
405.3215654408019
 21
207.700478946828
 31
0.0
  0
LINE
  5
2383
330
1D60
100
AcDbEntity
  8
AM_5
100
AcDbLine
 10
381.8215654408018
 20
148.7004789468279
 30
0.0
 11
405.3215654408019
 21
148.7004789468279
 31
0.0
  0
LINE
  5
2384
330
1D60
100
AcDbEntity
  8
AM_5
100
AcDbLine
 10
403.8215654408019
 20
204.7004789468279
 30
0.0
 11
403.8215654408019
 21
151.7004789468279
 31
0.0
  0
SOLID
  5
2385
330
1D60
100
AcDbEntity
  8
AM_5
100
AcDbTrace
 10
403.3215654408019
 20
204.7004789468279
 30
0.0
 11
404.3215654408019
 21
204.7004789468279
 31
0.0
 12
403.8215654408019
 22
207.700478946828
 32
0.0
 13
403.8215654408019
 23
207.700478946828
 33
0.0
  0
SOLID
  5
2386
330
1D60
100
AcDbEntity
  8
AM_5
100
AcDbTrace
 10
403.3215654408019
 20
151.7004789468279
 30
0.0
 11
404.3215654408019
 21
151.7004789468279
 31
0.0
 12
403.8215654408019
 22
148.7004789468279
 32
0.0
 13
403.8215654408019
 23
148.7004789468279
 33
0.0
  0
MTEXT
  5
2387
330
1D60
100
AcDbEntity
  8
AM_5
100
AcDbMText
 10
401.0715654408018
 20
178.2004789468279
 30
0.0
 40
3.5
 41
0.0
 71
     5
 72
     1
  1
59
 11
0.0000000000000001
 21
1.0
 31
0.0
 73
     1
 44
1.0
1001
ACAD
1000
MTEXTBEGIN
1070
    73
1070
     1
1070
    44
1040
1.0
1070
    74
1070
     0
1000
MTEXTEND
  0
POINT
  5
2388
330
1D60
100
AcDbEntity
  8
DEFPOINTS
 62
     0
100
AcDbPoint
 10
389.8215654408019
 20
207.700478946828
 30
0.0
  0
POINT
  5
2389
330
1D60
100
AcDbEntity
  8
DEFPOINTS
 62
     0
100
AcDbPoint
 10
380.3215654408018
 20
148.7004789468279
 30
0.0
  0
POINT
  5
238A
330
1D60
100
AcDbEntity
  8
DEFPOINTS
 62
     0
100
AcDbPoint
 10
403.8215654408019
 20
148.7004789468279
 30
0.0
  0
ENDBLK
  5
1D6B
330
1D60
100
AcDbEntity
  8
0
100
AcDbBlockEnd
  0
BLOCK
  5
1D76
330
1D6C
100
AcDbEntity
  8
0
100
AcDbBlockBegin
  2
*D11
 70
     1
 10
0.0
 20
0.0
 30
0.0
  3
*D11
  1

  0
LINE
  5
238B
330
1D6C
100
AcDbEntity
  8
AM_5
100
AcDbLine
 10
341.3215654408018
 20
197.7004789468279
 30
0.0
 11
327.4463847295524
 21
197.7004789468279
 31
0.0
  0
LINE
  5
238C
330
1D6C
100
AcDbEntity
  8
AM_5
100
AcDbLine
 10
336.3215654408018
 20
207.7004789468279
 30
0.0
 11
327.4463847295524
 21
207.7004789468279
 31
0.0
  0
LINE
  5
238D
330
1D6C
100
AcDbEntity
  8
AM_5
100
AcDbLine
 10
328.9463847295524
 20
200.7004789468279
 30
0.0
 11
328.9463847295524
 21
204.7004789468279
 31
0.0
  0
SOLID
  5
238E
330
1D6C
100
AcDbEntity
  8
AM_5
100
AcDbTrace
 10
328.4463847295524
 20
200.7004789468279
 30
0.0
 11
329.4463847295524
 21
200.7004789468279
 31
0.0
 12
328.9463847295524
 22
197.7004789468279
 32
0.0
 13
328.9463847295524
 23
197.7004789468279
 33
0.0
  0
SOLID
  5
238F
330
1D6C
100
AcDbEntity
  8
AM_5
100
AcDbTrace
 10
328.4463847295524
 20
204.7004789468279
 30
0.0
 11
329.4463847295524
 21
204.7004789468279
 31
0.0
 12
328.9463847295524
 22
207.7004789468279
 32
0.0
 13
328.9463847295524
 23
207.7004789468279
 33
0.0
  0
MTEXT
  5
2390
330
1D6C
100
AcDbEntity
  8
AM_5
100
AcDbMText
 10
326.1963847295523
 20
202.7004789468279
 30
0.0
 40
3.5
 41
0.0
 71
     5
 72
     1
  1
10
 11
0.0000000000000001
 21
1.0
 31
0.0
 73
     1
 44
1.0
1001
ACAD
1000
MTEXTBEGIN
1070
    73
1070
     1
1070
    44
1040
1.0
1070
    74
1070
     0
1000
MTEXTEND
  0
POINT
  5
2391
330
1D6C
100
AcDbEntity
  8
DEFPOINTS
 62
     0
100
AcDbPoint
 10
342.8215654408018
 20
197.7004789468279
 30
0.0
  0
POINT
  5
2392
330
1D6C
100
AcDbEntity
  8
DEFPOINTS
 62
     0
100
AcDbPoint
 10
337.8215654408018
 20
207.7004789468279
 30
0.0
  0
POINT
  5
2393
330
1D6C
100
AcDbEntity
  8
DEFPOINTS
 62
     0
100
AcDbPoint
 10
328.9463847295524
 20
207.7004789468279
 30
0.0
  0
ENDBLK
  5
1D77
330
1D6C
100
AcDbEntity
  8
0
100
AcDbBlockEnd
  0
BLOCK
  5
1D82
330
1D78
100
AcDbEntity
  8
0
100
AcDbBlockBegin
  2
*D12
 70
     1
 10
0.0
 20
0.0
 30
0.0
  3
*D12
  1

  0
LINE
  5
2394
330
1D78
100
AcDbEntity
  8
AM_5
100
AcDbLine
 10
348.3215654408018
 20
141.2004789468279
 30
0.0
 11
348.3215654408018
 21
121.2004789468279
 31
0.0
  0
LINE
  5
2395
330
1D78
100
AcDbEntity
  8
AM_5
100
AcDbLine
 10
383.3215654408019
 20
141.2004789468279
 30
0.0
 11
383.3215654408019
 21
121.2004789468279
 31
0.0
  0
LINE
  5
2396
330
1D78
100
AcDbEntity
  8
AM_5
100
AcDbLine
 10
351.3215654408018
 20
122.7004789468279
 30
0.0
 11
380.3215654408019
 21
122.7004789468279
 31
0.0
  0
SOLID
  5
2397
330
1D78
100
AcDbEntity
  8
AM_5
100
AcDbTrace
 10
351.3215654408018
 20
123.2004789468279
 30
0.0
 11
351.3215654408018
 21
122.2004789468279
 31
0.0
 12
348.3215654408018
 22
122.7004789468279
 32
0.0
 13
348.3215654408018
 23
122.7004789468279
 33
0.0
  0
SOLID
  5
2398
330
1D78
100
AcDbEntity
  8
AM_5
100
AcDbTrace
 10
380.3215654408019
 20
123.2004789468279
 30
0.0
 11
380.3215654408019
 21
122.2004789468279
 31
0.0
 12
383.3215654408019
 22
122.7004789468279
 32
0.0
 13
383.3215654408019
 23
122.7004789468279
 33
0.0
  0
MTEXT
  5
2399
330
1D78
100
AcDbEntity
  8
AM_5
100
AcDbMText
 10
365.8215654408018
 20
125.4504789468279
 30
0.0
 40
3.5
 41
0.0
 71
     5
 72
     1
  1
35
 73
     1
 44
1.0
1001
ACAD
1000
MTEXTBEGIN
1070
    73
1070
     1
1070
    44
1040
1.0
1070
    74
1070
     0
1000
MTEXTEND
  0
POINT
  5
239A
330
1D78
100
AcDbEntity
  8
DEFPOINTS
 62
     0
100
AcDbPoint
 10
348.3215654408018
 20
142.7004789468279
 30
0.0
  0
POINT
  5
239B
330
1D78
100
AcDbEntity
  8
DEFPOINTS
 62
     0
100
AcDbPoint
 10
383.3215654408019
 20
142.7004789468279
 30
0.0
  0
POINT
  5
239C
330
1D78
100
AcDbEntity
  8
DEFPOINTS
 62
     0
100
AcDbPoint
 10
383.3215654408019
 20
122.7004789468279
 30
0.0
  0
ENDBLK
  5
1D83
330
1D78
100
AcDbEntity
  8
0
100
AcDbBlockEnd
  0
BLOCK
  5
1D8E
330
1D84
100
AcDbEntity
  8
0
100
AcDbBlockBegin
  2
*D13
 70
     1
 10
0.0
 20
0.0
 30
0.0
  3
*D13
  1

  0
LINE
  5
239D
330
1D84
100
AcDbEntity
  8
AM_5
100
AcDbLine
 10
335.8215654408018
 20
215.5520319613247
 30
0.0
 11
335.8215654408018
 21
224.8204694003431
 31
0.0
  0
LINE
  5
239E
330
1D84
100
AcDbEntity
  8
AM_5
100
AcDbLine
 10
391.8215654408019
 20
207.200478946828
 30
0.0
 11
391.8215654408019
 21
224.8204694003431
 31
0.0
  0
LINE
  5
239F
330
1D84
100
AcDbEntity
  8
AM_5
100
AcDbLine
 10
338.8215654408018
 20
223.3204694003431
 30
0.0
 11
388.8215654408019
 21
223.3204694003431
 31
0.0
  0
SOLID
  5
23A0
330
1D84
100
AcDbEntity
  8
AM_5
100
AcDbTrace
 10
338.8215654408018
 20
223.8204694003431
 30
0.0
 11
338.8215654408018
 21
222.8204694003431
 31
0.0
 12
335.8215654408018
 22
223.3204694003431
 32
0.0
 13
335.8215654408018
 23
223.3204694003431
 33
0.0
  0
SOLID
  5
23A1
330
1D84
100
AcDbEntity
  8
AM_5
100
AcDbTrace
 10
388.8215654408019
 20
223.8204694003431
 30
0.0
 11
388.8215654408019
 21
222.8204694003431
 31
0.0
 12
391.8215654408019
 22
223.3204694003431
 32
0.0
 13
391.8215654408019
 23
223.3204694003431
 33
0.0
  0
MTEXT
  5
23A2
330
1D84
100
AcDbEntity
  8
AM_5
100
AcDbMText
 10
363.8215654408019
 20
226.0704694003431
 30
0.0
 40
3.5
 41
0.0
 71
     5
 72
     1
  1
56
 73
     1
 44
1.0
1001
ACAD
1000
MTEXTBEGIN
1070
    73
1070
     1
1070
    44
1040
1.0
1070
    74
1070
     0
1000
MTEXTEND
  0
POINT
  5
23A3
330
1D84
100
AcDbEntity
  8
DEFPOINTS
 62
     0
100
AcDbPoint
 10
335.8215654408018
 20
214.0520319613246
 30
0.0
  0
POINT
  5
23A4
330
1D84
100
AcDbEntity
  8
DEFPOINTS
 62
     0
100
AcDbPoint
 10
391.8215654408019
 20
205.700478946828
 30
0.0
  0
POINT
  5
23A5
330
1D84
100
AcDbEntity
  8
DEFPOINTS
 62
     0
100
AcDbPoint
 10
391.8215654408019
 20
223.3204694003431
 30
0.0
  0
ENDBLK
  5
1D8F
330
1D84
100
AcDbEntity
  8
0
100
AcDbBlockEnd
  0
BLOCK
  5
1D9A
330
1D90
100
AcDbEntity
  8
0
100
AcDbBlockBegin
  2
*D14
 70
     1
 10
0.0
 20
0.0
 30
0.0
  3
*D14
  1

  0
LINE
  5
23A6
330
1D90
100
AcDbEntity
  8
AM_5
100
AcDbLine
 10
347.3215654408018
 20
203.7004789468279
 30
0.0
 11
347.3215654408018
 21
216.8204694003431
 31
0.0
  0
LINE
  5
23A7
330
1D90
100
AcDbEntity
  8
AM_5
100
AcDbLine
 10
335.8215654408018
 20
207.2004789468279
 30
0.0
 11
335.8215654408018
 21
216.8204694003431
 31
0.0
  0
LINE
  5
23A8
330
1D90
100
AcDbEntity
  8
AM_5
100
AcDbLine
 10
344.3215654408018
 20
215.3204694003431
 30
0.0
 11
338.8215654408018
 21
215.3204694003431
 31
0.0
  0
SOLID
  5
23A9
330
1D90
100
AcDbEntity
  8
AM_5
100
AcDbTrace
 10
344.3215654408018
 20
215.8204694003431
 30
0.0
 11
344.3215654408018
 21
214.8204694003431
 31
0.0
 12
347.3215654408018
 22
215.3204694003431
 32
0.0
 13
347.3215654408018
 23
215.3204694003431
 33
0.0
  0
SOLID
  5
23AA
330
1D90
100
AcDbEntity
  8
AM_5
100
AcDbTrace
 10
338.8215654408018
 20
215.8204694003431
 30
0.0
 11
338.8215654408018
 21
214.8204694003431
 31
0.0
 12
335.8215654408018
 22
215.3204694003431
 32
0.0
 13
335.8215654408018
 23
215.3204694003431
 33
0.0
  0
MTEXT
  5
23AB
330
1D90
100
AcDbEntity
  8
AM_5
100
AcDbMText
 10
341.5715654408018
 20
218.0704694003431
 30
0.0
 40
3.5
 41
0.0
 71
     5
 72
     1
  1
11.5
 73
     1
 44
1.0
1001
ACAD
1000
MTEXTBEGIN
1070
    73
1070
     1
1070
    44
1040
1.0
1070
    74
1070
     0
1000
MTEXTEND
  0
POINT
  5
23AC
330
1D90
100
AcDbEntity
  8
DEFPOINTS
 62
     0
100
AcDbPoint
 10
347.3215654408018
 20
202.2004789468279
 30
0.0
  0
POINT
  5
23AD
330
1D90
100
AcDbEntity
  8
DEFPOINTS
 62
     0
100
AcDbPoint
 10
335.8215654408018
 20
205.7004789468279
 30
0.0
  0
POINT
  5
23AE
330
1D90
100
AcDbEntity
  8
DEFPOINTS
 62
     0
100
AcDbPoint
 10
335.8215654408018
 20
215.3204694003431
 30
0.0
  0
ENDBLK
  5
1D9B
330
1D90
100
AcDbEntity
  8
0
100
AcDbBlockEnd
  0
BLOCK
  5
1DA6
330
1D9C
100
AcDbEntity
  8
0
100
AcDbBlockBegin
  2
*D15
 70
     1
 10
0.0
 20
0.0
 30
0.0
  3
*D15
  1

  0
LINE
  5
23AF
330
1D9C
100
AcDbEntity
  8
AM_5
100
AcDbLine
 10
267.7693835748268
 20
164.7004789468279
 30
0.0
 11
279.7693835748269
 21
164.7004789468279
 31
0.0
  0
LINE
  5
23B0
330
1D9C
100
AcDbEntity
  8
AM_5
100
AcDbLine
 10
261.769383574827
 20
142.7004789468279
 30
0.0
 11
279.7693835748269
 21
142.7004789468279
 31
0.0
  0
LINE
  5
23B1
330
1D9C
100
AcDbEntity
  8
AM_5
100
AcDbLine
 10
278.2693835748268
 20
161.7004789468279
 30
0.0
 11
278.2693835748268
 21
145.7004789468279
 31
0.0
  0
SOLID
  5
23B2
330
1D9C
100
AcDbEntity
  8
AM_5
100
AcDbTrace
 10
277.7693835748269
 20
161.7004789468279
 30
0.0
 11
278.7693835748269
 21
161.7004789468279
 31
0.0
 12
278.2693835748268
 22
164.7004789468279
 32
0.0
 13
278.2693835748268
 23
164.7004789468279
 33
0.0
  0
SOLID
  5
23B3
330
1D9C
100
AcDbEntity
  8
AM_5
100
AcDbTrace
 10
277.7693835748269
 20
145.7004789468279
 30
0.0
 11
278.7693835748269
 21
145.7004789468279
 31
0.0
 12
278.2693835748268
 22
142.7004789468279
 32
0.0
 13
278.2693835748268
 23
142.7004789468279
 33
0.0
  0
MTEXT
  5
23B4
330
1D9C
100
AcDbEntity
  8
AM_5
100
AcDbMText
 10
275.5190390866378
 20
153.7004789468279
 30
0.0
 40
3.5
 41
0.0
 71
     5
 72
     1
  1
22
 11
0.0000000000000001
 21
1.0
 31
0.0
 73
     1
 44
1.0
1001
ACAD
1000
MTEXTBEGIN
1070
    73
1070
     1
1070
    44
1040
1.0
1070
    74
1070
     0
1000
MTEXTEND
  0
POINT
  5
23B5
330
1D9C
100
AcDbEntity
  8
DEFPOINTS
 62
     0
100
AcDbPoint
 10
266.2693835748269
 20
164.7004789468279
 30
0.0
  0
POINT
  5
23B6
330
1D9C
100
AcDbEntity
  8
DEFPOINTS
 62
     0
100
AcDbPoint
 10
260.269383574827
 20
142.7004789468279
 30
0.0
  0
POINT
  5
23B7
330
1D9C
100
AcDbEntity
  8
DEFPOINTS
 62
     0
100
AcDbPoint
 10
278.2693835748268
 20
142.7004789468279
 30
0.0
  0
ENDBLK
  5
1DA7
330
1D9C
100
AcDbEntity
  8
0
100
AcDbBlockEnd
  0
BLOCK
  5
1DB2
330
1DA8
100
AcDbEntity
  8
0
100
AcDbBlockBegin
  2
*D16
 70
     1
 10
0.0
 20
0.0
 30
0.0
  3
*D16
  1

  0
LINE
  5
23B8
330
1DA8
100
AcDbEntity
  8
AM_5
100
AcDbLine
 10
250.269383574827
 20
141.2004789468279
 30
0.0
 11
250.269383574827
 21
129.2004789468279
 31
0.0
  0
LINE
  5
23B9
330
1DA8
100
AcDbEntity
  8
AM_5
100
AcDbLine
 10
260.2693835748269
 20
141.2004789468279
 30
0.0
 11
260.2693835748269
 21
129.2004789468279
 31
0.0
  0
LINE
  5
23BA
330
1DA8
100
AcDbEntity
  8
AM_5
100
AcDbLine
 10
253.269383574827
 20
130.7004789468279
 30
0.0
 11
257.2693835748269
 21
130.7004789468279
 31
0.0
  0
SOLID
  5
23BB
330
1DA8
100
AcDbEntity
  8
AM_5
100
AcDbTrace
 10
253.269383574827
 20
131.2004789468279
 30
0.0
 11
253.269383574827
 21
130.2004789468279
 31
0.0
 12
250.269383574827
 22
130.7004789468279
 32
0.0
 13
250.269383574827
 23
130.7004789468279
 33
0.0
  0
SOLID
  5
23BC
330
1DA8
100
AcDbEntity
  8
AM_5
100
AcDbTrace
 10
257.2693835748269
 20
131.2004789468279
 30
0.0
 11
257.2693835748269
 21
130.2004789468279
 31
0.0
 12
260.2693835748269
 22
130.7004789468279
 32
0.0
 13
260.2693835748269
 23
130.7004789468279
 33
0.0
  0
MTEXT
  5
23BD
330
1DA8
100
AcDbEntity
  8
AM_5
100
AcDbMText
 10
255.2693835748269
 20
133.4504789468279
 30
0.0
 40
3.5
 41
0.0
 71
     5
 72
     1
  1
10
 73
     1
 44
1.0
1001
ACAD
1000
MTEXTBEGIN
1070
    73
1070
     1
1070
    44
1040
1.0
1070
    74
1070
     0
1000
MTEXTEND
  0
POINT
  5
23BE
330
1DA8
100
AcDbEntity
  8
DEFPOINTS
 62
     0
100
AcDbPoint
 10
250.269383574827
 20
142.7004789468279
 30
0.0
  0
POINT
  5
23BF
330
1DA8
100
AcDbEntity
  8
DEFPOINTS
 62
     0
100
AcDbPoint
 10
260.2693835748269
 20
142.7004789468279
 30
0.0
  0
POINT
  5
23C0
330
1DA8
100
AcDbEntity
  8
DEFPOINTS
 62
     0
100
AcDbPoint
 10
260.2693835748269
 20
130.7004789468279
 30
0.0
  0
ENDBLK
  5
1DB3
330
1DA8
100
AcDbEntity
  8
0
100
AcDbBlockEnd
  0
BLOCK
  5
1DBE
330
1DB4
100
AcDbEntity
  8
0
100
AcDbBlockBegin
  2
*D17
 70
     1
 10
0.0
 20
0.0
 30
0.0
  3
*D17
  1

  0
LINE
  5
23C1
330
1DB4
100
AcDbEntity
  8
AM_5
100
AcDbLine
 10
190.269383574827
 20
141.2004789468279
 30
0.0
 11
190.269383574827
 21
129.2004789468279
 31
0.0
  0
LINE
  5
23C2
330
1DB4
100
AcDbEntity
  8
AM_5
100
AcDbLine
 10
200.2693835748268
 20
141.2004789468279
 30
0.0
 11
200.2693835748268
 21
129.2004789468279
 31
0.0
  0
LINE
  5
23C3
330
1DB4
100
AcDbEntity
  8
AM_5
100
AcDbLine
 10
193.2693835748269
 20
130.7004789468279
 30
0.0
 11
197.2693835748268
 21
130.7004789468279
 31
0.0
  0
SOLID
  5
23C4
330
1DB4
100
AcDbEntity
  8
AM_5
100
AcDbTrace
 10
193.2693835748269
 20
131.2004789468279
 30
0.0
 11
193.2693835748269
 21
130.2004789468279
 31
0.0
 12
190.269383574827
 22
130.7004789468279
 32
0.0
 13
190.269383574827
 23
130.7004789468279
 33
0.0
  0
SOLID
  5
23C5
330
1DB4
100
AcDbEntity
  8
AM_5
100
AcDbTrace
 10
197.2693835748268
 20
131.2004789468279
 30
0.0
 11
197.2693835748268
 21
130.2004789468279
 31
0.0
 12
200.2693835748268
 22
130.7004789468279
 32
0.0
 13
200.2693835748268
 23
130.7004789468279
 33
0.0
  0
MTEXT
  5
23C6
330
1DB4
100
AcDbEntity
  8
AM_5
100
AcDbMText
 10
195.2693835748269
 20
133.4504789468279
 30
0.0
 40
3.5
 41
0.0
 71
     5
 72
     1
  1
10
 73
     1
 44
1.0
1001
ACAD
1000
MTEXTBEGIN
1070
    73
1070
     1
1070
    44
1040
1.0
1070
    74
1070
     0
1000
MTEXTEND
  0
POINT
  5
23C7
330
1DB4
100
AcDbEntity
  8
DEFPOINTS
 62
     0
100
AcDbPoint
 10
190.269383574827
 20
142.7004789468279
 30
0.0
  0
POINT
  5
23C8
330
1DB4
100
AcDbEntity
  8
DEFPOINTS
 62
     0
100
AcDbPoint
 10
200.2693835748268
 20
142.7004789468279
 30
0.0
  0
POINT
  5
23C9
330
1DB4
100
AcDbEntity
  8
DEFPOINTS
 62
     0
100
AcDbPoint
 10
200.2693835748268
 20
130.7004789468279
 30
0.0
  0
ENDBLK
  5
1DBF
330
1DB4
100
AcDbEntity
  8
0
100
AcDbBlockEnd
  0
BLOCK
  5
1DCA
330
1DC0
100
AcDbEntity
  8
0
100
AcDbBlockBegin
  2
*D18
 70
     1
 10
0.0
 20
0.0
 30
0.0
  3
*D18
  1

  0
LINE
  5
23CA
330
1DC0
100
AcDbEntity
  8
AM_5
100
AcDbLine
 10
355.8215654408018
 20
142.7004789468279
 30
0.0
 11
355.8215654408018
 21
129.2004789468279
 31
0.0
  0
LINE
  5
23CB
330
1DC0
100
AcDbEntity
  8
AM_5
100
AcDbLine
 10
375.8215654408018
 20
142.7004789468279
 30
0.0
 11
375.8215654408018
 21
129.2004789468279
 31
0.0
  0
LINE
  5
23CC
330
1DC0
100
AcDbEntity
  8
AM_5
100
AcDbLine
 10
358.8215654408018
 20
130.7004789468279
 30
0.0
 11
372.8215654408018
 21
130.7004789468279
 31
0.0
  0
SOLID
  5
23CD
330
1DC0
100
AcDbEntity
  8
AM_5
100
AcDbTrace
 10
358.8215654408018
 20
131.2004789468279
 30
0.0
 11
358.8215654408018
 21
130.2004789468279
 31
0.0
 12
355.8215654408018
 22
130.7004789468279
 32
0.0
 13
355.8215654408018
 23
130.7004789468279
 33
0.0
  0
SOLID
  5
23CE
330
1DC0
100
AcDbEntity
  8
AM_5
100
AcDbTrace
 10
372.8215654408018
 20
131.2004789468279
 30
0.0
 11
372.8215654408018
 21
130.2004789468279
 31
0.0
 12
375.8215654408018
 22
130.7004789468279
 32
0.0
 13
375.8215654408018
 23
130.7004789468279
 33
0.0
  0
MTEXT
  5
23CF
330
1DC0
100
AcDbEntity
  8
AM_5
100
AcDbMText
 10
365.8215654408018
 20
133.4508234350169
 30
0.0
 40
3.5
 41
0.0
 71
     5
 72
     1
  1
20
 73
     1
 44
1.0
1001
ACAD
1000
MTEXTBEGIN
1070
    73
1070
     1
1070
    44
1040
1.0
1070
    74
1070
     0
1000
MTEXTEND
  0
POINT
  5
23D0
330
1DC0
100
AcDbEntity
  8
DEFPOINTS
 62
     0
100
AcDbPoint
 10
355.8215654408018
 20
144.2004789468279
 30
0.0
  0
POINT
  5
23D1
330
1DC0
100
AcDbEntity
  8
DEFPOINTS
 62
     0
100
AcDbPoint
 10
375.8215654408018
 20
144.2004789468279
 30
0.0
  0
POINT
  5
23D2
330
1DC0
100
AcDbEntity
  8
DEFPOINTS
 62
     0
100
AcDbPoint
 10
375.8215654408018
 20
130.7004789468279
 30
0.0
  0
ENDBLK
  5
1DCB
330
1DC0
100
AcDbEntity
  8
0
100
AcDbBlockEnd
  0
BLOCK
  5
1DD6
330
1DCC
100
AcDbEntity
  8
0
100
AcDbBlockBegin
  2
*D19
 70
     1
 10
0.0
 20
0.0
 30
0.0
  3
*D19
  1

  0
LINE
  5
23D3
330
1DCC
100
AcDbEntity
  8
AM_5
100
AcDbLine
 10
359.8215654408018
 20
193.21602669279
 30
0.0
 11
359.8215654408018
 21
216.8204694003431
 31
0.0
  0
LINE
  5
23D4
330
1DCC
100
AcDbEntity
  8
AM_5
100
AcDbLine
 10
347.3215654408017
 20
209.2004789468279
 30
0.0
 11
347.3215654408017
 21
216.8204694003431
 31
0.0
  0
LINE
  5
23D5
330
1DCC
100
AcDbEntity
  8
AM_5
100
AcDbLine
 10
356.8215654408018
 20
215.3204694003431
 30
0.0
 11
350.3215654408017
 21
215.3204694003431
 31
0.0
  0
SOLID
  5
23D6
330
1DCC
100
AcDbEntity
  8
AM_5
100
AcDbTrace
 10
356.8215654408018
 20
215.8204694003431
 30
0.0
 11
356.8215654408018
 21
214.8204694003431
 31
0.0
 12
359.8215654408018
 22
215.3204694003431
 32
0.0
 13
359.8215654408018
 23
215.3204694003431
 33
0.0
  0
SOLID
  5
23D7
330
1DCC
100
AcDbEntity
  8
AM_5
100
AcDbTrace
 10
350.3215654408017
 20
215.8204694003431
 30
0.0
 11
350.3215654408017
 21
214.8204694003431
 31
0.0
 12
347.3215654408017
 22
215.3204694003431
 32
0.0
 13
347.3215654408017
 23
215.3204694003431
 33
0.0
  0
MTEXT
  5
23D8
330
1DCC
100
AcDbEntity
  8
AM_5
100
AcDbMText
 10
353.5715654408018
 20
218.0708138885321
 30
0.0
 40
3.5
 41
0.0
 71
     5
 72
     1
  1
12.5
 73
     1
 44
1.0
1001
ACAD
1000
MTEXTBEGIN
1070
    73
1070
     1
1070
    44
1040
1.0
1070
    74
1070
     0
1000
MTEXTEND
  0
POINT
  5
23D9
330
1DCC
100
AcDbEntity
  8
DEFPOINTS
 62
     0
100
AcDbPoint
 10
359.8215654408018
 20
191.71602669279
 30
0.0
  0
POINT
  5
23DA
330
1DCC
100
AcDbEntity
  8
DEFPOINTS
 62
     0
100
AcDbPoint
 10
347.3215654408017
 20
207.7004789468279
 30
0.0
  0
POINT
  5
23DB
330
1DCC
100
AcDbEntity
  8
DEFPOINTS
 62
     0
100
AcDbPoint
 10
347.3215654408017
 20
215.3204694003431
 30
0.0
  0
ENDBLK
  5
1DD7
330
1DCC
100
AcDbEntity
  8
0
100
AcDbBlockEnd
  0
BLOCK
  5
1DE2
330
1DD8
100
AcDbEntity
  8
0
100
AcDbBlockBegin
  2
*D20
 70
     1
 10
0.0
 20
0.0
 30
0.0
  3
*D20
  1

  0
LINE
  5
23DC
330
1DD8
100
AcDbEntity
  8
AM_5
100
AcDbLine
 10
336.3215654408018
 20
207.7004789468279
 30
0.0
 11
319.4463847295524
 21
207.7004789468279
 31
0.0
  0
LINE
  5
23DD
330
1DD8
100
AcDbEntity
  8
AM_5
100
AcDbLine
 10
354.380824551869
 20
187.2004789468279
 30
0.0
 11
319.4463847295524
 21
187.2004789468279
 31
0.0
  0
LINE
  5
23DE
330
1DD8
100
AcDbEntity
  8
AM_5
100
AcDbLine
 10
320.9463847295524
 20
204.7004789468279
 30
0.0
 11
320.9463847295524
 21
190.2004789468279
 31
0.0
  0
SOLID
  5
23DF
330
1DD8
100
AcDbEntity
  8
AM_5
100
AcDbTrace
 10
320.4463847295524
 20
204.7004789468279
 30
0.0
 11
321.4463847295524
 21
204.7004789468279
 31
0.0
 12
320.9463847295524
 22
207.7004789468279
 32
0.0
 13
320.9463847295524
 23
207.7004789468279
 33
0.0
  0
SOLID
  5
23E0
330
1DD8
100
AcDbEntity
  8
AM_5
100
AcDbTrace
 10
320.4463847295524
 20
190.2004789468279
 30
0.0
 11
321.4463847295524
 21
190.2004789468279
 31
0.0
 12
320.9463847295524
 22
187.2004789468279
 32
0.0
 13
320.9463847295524
 23
187.2004789468279
 33
0.0
  0
MTEXT
  5
23E1
330
1DD8
100
AcDbEntity
  8
AM_5
100
AcDbMText
 10
318.1960402413633
 20
197.4504789468279
 30
0.0
 40
3.5
 41
0.0
 71
     5
 72
     1
  1
20.5
 11
0.0000000000000001
 21
1.0
 31
0.0
 73
     1
 44
1.0
1001
ACAD
1000
MTEXTBEGIN
1070
    73
1070
     1
1070
    44
1040
1.0
1070
    74
1070
     0
1000
MTEXTEND
  0
POINT
  5
23E2
330
1DD8
100
AcDbEntity
  8
DEFPOINTS
 62
     0
100
AcDbPoint
 10
337.8215654408018
 20
207.7004789468279
 30
0.0
  0
POINT
  5
23E3
330
1DD8
100
AcDbEntity
  8
DEFPOINTS
 62
     0
100
AcDbPoint
 10
355.880824551869
 20
187.2004789468279
 30
0.0
  0
POINT
  5
23E4
330
1DD8
100
AcDbEntity
  8
DEFPOINTS
 62
     0
100
AcDbPoint
 10
320.9463847295524
 20
187.2004789468279
 30
0.0
  0
ENDBLK
  5
1DE3
330
1DD8
100
AcDbEntity
  8
0
100
AcDbBlockEnd
  0
BLOCK
  5
1DEE
330
1DE4
100
AcDbEntity
  8
0
100
AcDbBlockBegin
  2
*D21
 70
     1
 10
0.0
 20
0.0
 30
0.0
  3
*D21
  1

  0
LINE
  5
23E5
330
1DE4
100
AcDbEntity
  8
AM_5
100
AcDbLine
 10
195.2693835748268
 20
275.6555608638433
 30
0.0
 11
195.2693835748268
 21
309.1555608638433
 31
0.0
  0
LINE
  5
23E6
330
1DE4
100
AcDbEntity
  8
AM_5
100
AcDbLine
 10
255.2693835748268
 20
275.6555608638433
 30
0.0
 11
255.2693835748268
 21
309.1555608638433
 31
0.0
  0
LINE
  5
23E7
330
1DE4
100
AcDbEntity
  8
AM_5
100
AcDbLine
 10
198.2693835748268
 20
307.6555608638433
 30
0.0
 11
252.2693835748269
 21
307.6555608638433
 31
0.0
  0
SOLID
  5
23E8
330
1DE4
100
AcDbEntity
  8
AM_5
100
AcDbTrace
 10
198.2693835748268
 20
308.1555608638433
 30
0.0
 11
198.2693835748268
 21
307.1555608638433
 31
0.0
 12
195.2693835748268
 22
307.6555608638433
 32
0.0
 13
195.2693835748268
 23
307.6555608638433
 33
0.0
  0
SOLID
  5
23E9
330
1DE4
100
AcDbEntity
  8
AM_5
100
AcDbTrace
 10
252.2693835748269
 20
308.1555608638433
 30
0.0
 11
252.2693835748269
 21
307.1555608638433
 31
0.0
 12
255.2693835748268
 22
307.6555608638433
 32
0.0
 13
255.2693835748268
 23
307.6555608638433
 33
0.0
  0
MTEXT
  5
23EA
330
1DE4
100
AcDbEntity
  8
AM_5
100
AcDbMText
 10
225.2693835748269
 20
310.4055608638433
 30
0.0
 40
3.5
 41
0.0
 71
     5
 72
     1
  1
60
 73
     1
 44
1.0
1001
ACAD
1000
MTEXTBEGIN
1070
    73
1070
     1
1070
    44
1040
1.0
1070
    74
1070
     0
1000
MTEXTEND
  0
POINT
  5
23EB
330
1DE4
100
AcDbEntity
  8
DEFPOINTS
 62
     0
100
AcDbPoint
 10
195.2693835748268
 20
274.1555608638433
 30
0.0
  0
POINT
  5
23EC
330
1DE4
100
AcDbEntity
  8
DEFPOINTS
 62
     0
100
AcDbPoint
 10
255.2693835748268
 20
274.1555608638433
 30
0.0
  0
POINT
  5
23ED
330
1DE4
100
AcDbEntity
  8
DEFPOINTS
 62
     0
100
AcDbPoint
 10
255.2693835748268
 20
307.6555608638433
 30
0.0
  0
ENDBLK
  5
1DEF
330
1DE4
100
AcDbEntity
  8
0
100
AcDbBlockEnd
  0
BLOCK
  5
2122
330
2118
100
AcDbEntity
  8
0
100
AcDbBlockBegin
  2
*D22
 70
     1
 10
0.0
 20
0.0
 30
0.0
  3
*D22
  1

  0
LINE
  5
23EE
330
2118
100
AcDbEntity
  8
AM_5
100
AcDbLine
 10
200.2693835748268
 20
141.2004789468279
 30
0.0
 11
200.2693835748268
 21
129.200478946828
 31
0.0
  0
LINE
  5
23EF
330
2118
100
AcDbEntity
  8
AM_5
100
AcDbLine
 10
250.269383574827
 20
141.2004789468279
 30
0.0
 11
250.269383574827
 21
129.200478946828
 31
0.0
  0
LINE
  5
23F0
330
2118
100
AcDbEntity
  8
AM_5
100
AcDbLine
 10
203.2693835748268
 20
130.700478946828
 30
0.0
 11
247.269383574827
 21
130.700478946828
 31
0.0
  0
SOLID
  5
23F1
330
2118
100
AcDbEntity
  8
AM_5
100
AcDbTrace
 10
203.2693835748268
 20
131.200478946828
 30
0.0
 11
203.2693835748268
 21
130.200478946828
 31
0.0
 12
200.2693835748268
 22
130.700478946828
 32
0.0
 13
200.2693835748268
 23
130.700478946828
 33
0.0
  0
SOLID
  5
23F2
330
2118
100
AcDbEntity
  8
AM_5
100
AcDbTrace
 10
247.269383574827
 20
131.200478946828
 30
0.0
 11
247.269383574827
 21
130.200478946828
 31
0.0
 12
250.269383574827
 22
130.700478946828
 32
0.0
 13
250.269383574827
 23
130.700478946828
 33
0.0
  0
MTEXT
  5
23F3
330
2118
100
AcDbEntity
  8
AM_5
100
AcDbMText
 10
225.2693835748269
 20
133.450478946828
 30
0.0
 40
3.5
 41
0.0
 71
     5
 72
     1
  1
Max.50\P
 73
     1
 44
1.0
1001
ACAD
1000
MTEXTBEGIN
1070
    73
1070
     1
1070
    44
1040
1.0
1070
    74
1070
     0
1000
MTEXTEND
  0
POINT
  5
23F4
330
2118
100
AcDbEntity
  8
DEFPOINTS
 62
     0
100
AcDbPoint
 10
200.2693835748268
 20
142.7004789468279
 30
0.0
  0
POINT
  5
23F5
330
2118
100
AcDbEntity
  8
DEFPOINTS
 62
     0
100
AcDbPoint
 10
250.269383574827
 20
142.7004789468279
 30
0.0
  0
POINT
  5
23F6
330
2118
100
AcDbEntity
  8
DEFPOINTS
 62
     0
100
AcDbPoint
 10
250.269383574827
 20
130.700478946828
 30
0.0
  0
ENDBLK
  5
2123
330
2118
100
AcDbEntity
  8
0
100
AcDbBlockEnd
  0
BLOCK
  5
247E
330
2479
100
AcDbEntity
  8
0
100
AcDbBlockBegin
  2
*S24
 70
     1
 10
0.0
 20
0.0
 30
0.0
  3
*S24
  1

  0
LINE
  5
247A
330
2479
100
AcDbEntity
  8
AM_5
 62
     5
100
AcDbLine
 10
301.9249310382869
 20
167.9540057527064
 30
0.0
 11
326.8131151576004
 21
167.9540057527064
 31
0.0
  0
LINE
  5
247B
330
2479
100
AcDbEntity
  8
AM_5
 62
     5
100
AcDbLine
 10
326.8131151576004
 20
167.9540057527064
 30
0.0
 11
355.1829655472015
 21
184.1626184401975
 31
0.0
  0
TRACE
  5
247C
330
2479
100
AcDbEntity
  8
AM_5
 62
     5
370
    35
100
AcDbTrace
 10
355.4115492745876
 20
183.7625295323759
 30
0.0
 11
354.9543818198154
 21
184.5627073480191
 31
0.0
 12
358.2219425278021
 22
185.8988842353394
 32
0.0
 13
358.2219425278021
 23
185.8988842353394
 33
0.0
  0
MTEXT
  5
247D
330
2479
100
AcDbEntity
  8
AM_5
 62
     5
100
AcDbMText
 10
301.9249310382869
 20
162.6951503575659
 30
0.0
 40
3.5
 41
0.0
 71
     7
 72
     5
  1

  7
ACISOTS
210
0.0
220
0.0
230
-1.0
 11
-1.0
 21
0.0
 31
0.0
 73
     1
 44
1.0
1001
ACAD
1000
MTEXTBEGIN
1070
    73
1070
     1
1070
    44
1040
1.0
1070
    74
1070
     0
1000
MTEXTEND
  0
ENDBLK
  5
247F
330
2479
100
AcDbEntity
  8
0
100
AcDbBlockEnd
  0
BLOCK
  5
2486
330
2481
100
AcDbEntity
  8
0
100
AcDbBlockBegin
  2
*S25
 70
     1
 10
0.0
 20
0.0
 30
0.0
  3
*S25
  1

  0
LINE
  5
2482
330
2481
100
AcDbEntity
  8
AM_5
 62
     5
100
AcDbLine
 10
273.0827849840891
 20
234.0989242226959
 30
0.0
 11
242.5646404229292
 21
234.0989242226959
 31
0.0
  0
LINE
  5
2483
330
2481
100
AcDbEntity
  8
AM_5
 62
     5
100
AcDbLine
 10
242.5646404229292
 20
234.0989242226959
 30
0.0
 11
228.031722370569
 21
265.2445101369748
 31
0.0
  0
TRACE
  5
2484
330
2481
100
AcDbEntity
  8
AM_5
 62
     5
370
    35
100
AcDbTrace
 10
228.44928550206
 20
265.4393502914786
 30
0.0
 11
227.6141592390779
 21
265.0496699824712
 31
0.0
 12
226.5517644590705
 22
268.4162170244714
 32
0.0
 13
226.5517644590705
 23
268.4162170244714
 33
0.0
  0
MTEXT
  5
2485
330
2481
100
AcDbEntity
  8
AM_5
 62
     5
100
AcDbMText
 10
273.0827849840891
 20
229.3087184749812
 30
0.0
 40
3.5
 41
0.0
 71
     7
 72
     5
  1

  7
ACISOTS
 73
     1
 44
1.0
1001
ACAD
1000
MTEXTBEGIN
1070
    73
1070
     1
1070
    44
1040
1.0
1070
    74
1070
     0
1000
MTEXTEND
  0
ENDBLK
  5
2487
330
2481
100
AcDbEntity
  8
0
100
AcDbBlockEnd
  0
BLOCK
  5
248E
330
2489
100
AcDbEntity
  8
0
100
AcDbBlockBegin
  2
*S26
 70
     1
 10
0.0
 20
0.0
 30
0.0
  3
*S26
  1

  0
LINE
  5
248A
330
2489
100
AcDbEntity
  8
AM_5
 62
     5
100
AcDbLine
 10
316.6939485197242
 20
284.8233917390448
 30
0.0
 11
273.1922736022539
 21
284.8233917390448
 31
0.0
  0
LINE
  5
248B
330
2489
100
AcDbEntity
  8
AM_5
 62
     5
100
AcDbLine
 10
273.1922736022539
 20
284.8233917390448
 30
0.0
 11
259.6832282740721
 21
273.2629010034159
 31
0.0
  0
TRACE
  5
248C
330
2489
100
AcDbEntity
  8
AM_5
 62
     5
370
    35
100
AcDbTrace
 10
259.3836335200753
 20
273.6129933311884
 30
0.0
 11
259.982823028069
 21
272.9128086756434
 31
0.0
 12
257.0240130236959
 22
270.9872529084401
 32
0.0
 13
257.0240130236959
 23
270.9872529084401
 33
0.0
  0
MTEXT
  5
248D
330
2489
100
AcDbEntity
  8
AM_5
 62
     5
100
AcDbMText
 10
316.6939485197242
 20
281.2871407699851
 30
0.0
 40
3.5
 41
0.0
 71
     7
 72
     5
  1

  7
ACISOTS
 73
     1
 44
1.0
1001
ACAD
1000
MTEXTBEGIN
1070
    73
1070
     1
1070
    44
1040
1.0
1070
    74
1070
     0
1000
MTEXTEND
  0
ENDBLK
  5
248F
330
2489
100
AcDbEntity
  8
0
100
AcDbBlockEnd
  0
BLOCK
  5
2496
330
2491
100
AcDbEntity
  8
0
100
AcDbBlockBegin
  2
*S27
 70
     1
 10
0.0
 20
0.0
 30
0.0
  3
*S27
  1

  0
LINE
  5
2492
330
2491
100
AcDbEntity
  8
AM_5
 62
     5
100
AcDbLine
 10
323.8748961622234
 20
220.7322711130241
 30
0.0
 11
277.7636181294945
 21
220.7322711130241
 31
0.0
  0
LINE
  5
2493
330
2491
100
AcDbEntity
  8
AM_5
 62
     5
100
AcDbLine
 10
277.7636181294945
 20
220.7322711130241
 30
0.0
 11
259.4503643699272
 21
196.9092860651574
 31
0.0
  0
TRACE
  5
2494
330
2491
100
AcDbEntity
  8
AM_5
 62
     5
370
    35
100
AcDbTrace
 10
259.0850463285727
 20
197.1901140966082
 30
0.0
 11
259.8156824112817
 21
196.6284580337066
 31
0.0
 12
257.3172636855493
 22
194.1344200377055
 32
0.0
 13
257.3172636855493
 23
194.1344200377055
 33
0.0
  0
MTEXT
  5
2495
330
2491
100
AcDbEntity
  8
AM_5
 62
     5
100
AcDbMText
 10
323.8748961622234
 20
217.1960201439645
 30
0.0
 40
3.5
 41
0.0
 71
     7
 72
     5
  1

  7
ACISOTS
 73
     1
 44
1.0
1001
ACAD
1000
MTEXTBEGIN
1070
    73
1070
     1
1070
    44
1040
1.0
1070
    74
1070
     0
1000
MTEXTEND
  0
ENDBLK
  5
2497
330
2491
100
AcDbEntity
  8
0
100
AcDbBlockEnd
  0
BLOCK
  5
249E
330
2499
100
AcDbEntity
  8
0
100
AcDbBlockBegin
  2
*S28
 70
     1
 10
0.0
 20
0.0
 30
0.0
  3
*S28
  1

  0
LINE
  5
249A
330
2499
100
AcDbEntity
  8
AM_5
 62
     5
100
AcDbLine
 10
417.2627364740717
 20
134.3928253592577
 30
0.0
 11
387.8704392092188
 21
134.3928253592577
 31
0.0
  0
LINE
  5
249B
330
2499
100
AcDbEntity
  8
AM_5
 62
     5
100
AcDbLine
 10
387.8704392092188
 20
134.3928253592577
 30
0.0
 11
379.899516702651
 21
144.3315851410034
 31
0.0
  0
TRACE
  5
249C
330
2499
100
AcDbEntity
  8
AM_5
 62
     5
370
    35
100
AcDbTrace
 10
380.2589767363444
 20
144.6198734320677
 30
0.0
 11
379.5400566689577
 21
144.0432968499391
 31
0.0
 12
377.7097497203788
 22
147.0619551824722
 32
0.0
 13
377.7097497203788
 23
147.0619551824722
 33
0.0
  0
MTEXT
  5
249D
330
2499
100
AcDbEntity
  8
AM_5
 62
     5
100
AcDbMText
 10
417.2627364740717
 20
126.1955732439663
 30
0.0
 40
3.5
 41
0.0
 71
     7
 72
     5
  1

  7
ACISOTS
 73
     1
 44
1.0
1001
ACAD
1000
MTEXTBEGIN
1070
    73
1070
     1
1070
    44
1040
1.0
1070
    74
1070
     0
1000
MTEXTEND
  0
ENDBLK
  5
249F
330
2499
100
AcDbEntity
  8
0
100
AcDbBlockEnd
  0
ENDSEC
  0
SECTION
  2
ENTITIES
  0
TEXT
  5
1195
330
1F
100
AcDbEntity
  8
LOGO
 62
     7
100
AcDbText
 10
189.9525000296891
 20
90.95796843851308
 30
0.0
 40
3.48429541357466
  1
Order example:
 41
0.8
  7
chineset
100
AcDbText
  0
TEXT
  5
1196
330
1F
100
AcDbEntity
  8
LOGO
 62
     7
100
AcDbText
 10
190.5776114408353
 20
95.86313494825544
 30
0.0
 40
5.226443120361991
  1
訂購代號：
  7
chineset
100
AcDbText
  0
LINE
  5
1197
330
1F
100
AcDbEntity
  8
LOGO
 62
     4
100
AcDbLine
 10
188.4385618544403
 20
76.27383181420983
 30
0.0
 11
188.4385618544403
 21
102.4060474160199
 31
0.0
  0
TEXT
  5
1198
330
1F
100
AcDbEntity
  8
LOGO
  6
Continuous
100
AcDbText
 10
140.3344968412104
 20
81.40746613223356
 30
0.0
 40
3.919832340271494
  1
金器工業股份有限公司
  7
chineset
100
AcDbText
  0
TEXT
  5
1199
330
1F
100
AcDbEntity
  8
LOGO
  6
Continuous
100
AcDbText
 10
133.1345403327165
 20
77.48686581215015
 30
0.0
 40
2.613221560180995
  1
MINDMAN INDUSTRIAL CO., LTD.
 41
0.85
  7
chineset
100
AcDbText
  0
LINE
  5
119A
330
1F
100
AcDbEntity
  8
LOGO
 62
     4
100
AcDbLine
 10
188.4385618544403
 20
97.17960429565792
 30
0.0
 11
150.1113123051187
 21
97.17960429565792
 31
0.0
  0
LINE
  5
119B
330
1F
100
AcDbEntity
  8
LOGO
 62
     4
100
AcDbLine
 10
188.4385618544403
 20
91.95316117529591
 30
0.0
 11
150.1113123051187
 21
91.95316117529591
 31
0.0
  0
LINE
  5
119C
330
1F
100
AcDbEntity
  8
LOGO
 62
     4
100
AcDbLine
 10
188.4385618544403
 20
86.7267180549342
 30
0.0
 11
130.9476875304583
 21
86.7267180549342
 31
0.0
  0
LINE
  5
119D
330
1F
100
AcDbEntity
  8
LOGO
 62
     4
100
AcDbLine
 10
150.1113123051187
 20
86.7267180549342
 30
0.0
 11
150.1113123051187
 21
102.4060474160199
 31
0.0
  0
TEXT
  5
119E
330
1F
100
AcDbEntity
  8
LOGO
100
AcDbText
 10
176.306178353456
 20
88.03332883502426
 30
0.0
 40
2.613221560180995
  1
mm
  7
chineset
 72
     1
 11
179.5415955232039
 21
89.33993961511475
 31
0.0
100
AcDbText
 73
     2
  0
TEXT
  5
119F
330
1F
100
AcDbEntity
  8
LOGO
100
AcDbText
 10
174.9373480124088
 20
98.48621507574831
 30
0.0
 40
2.613221560180995
  1
1 : 1
  7
chineset
 72
     1
 11
179.5415955232039
 21
99.79282585583881
 31
0.0
100
AcDbText
 73
     2
  0
LINE
  5
11A0
330
1F
100
AcDbEntity
  8
LOGO
 62
     4
100
AcDbLine
 10
171.0170847865669
 20
86.7267180549342
 30
0.0
 11
171.0170847865669
 21
102.4060474160199
 31
0.0
  0
TEXT
  5
11A1
330
1F
100
AcDbEntity
  8
LOGO
100
AcDbText
 10
152.2660534755002
 20
98.48750110998068
 30
171.2662360232331
 40
2.613221560180995
  1
比例 Scale:
 41
0.9
  7
chineset
 72
     4
 11
160.5641985458428
 21
99.79282585583881
 31
171.2662360232331
100
AcDbText
  0
TEXT
  5
11A2
330
1F
100
AcDbEntity
  8
LOGO
100
AcDbText
 10
152.1155599124362
 20
93.29653110052825
 30
171.2662360232331
 40
2.613221560180995
  1
投影  View:
 41
0.9
  7
chineset
 72
     4
 11
160.5641985458428
 21
94.56638273547676
 31
171.2662360232331
100
AcDbText
  0
TEXT
  5
11A3
330
1F
100
AcDbEntity
  8
LOGO
100
AcDbText
 10
152.3710489846146
 20
88.03332883502426
 30
171.2662360232331
 40
2.613221560180995
  1
單位  Unit:
 41
0.9
  7
chineset
 72
     4
 11
160.5641985458428
 21
89.33993961511475
 31
171.2662360232331
100
AcDbText
  0
LWPOLYLINE
  5
11A4
330
1F
100
AcDbEntity
  8
LOGO
 62
     4
100
AcDbPolyline
 90
        4
 70
     1
 43
0.0
 10
130.9476875304583
 20
102.4060474160199
 10
460.3008885228099
 20
102.4060474160199
 10
460.3008885228099
 20
337.6338318142095
 10
130.9476875304583
 20
337.6338318142095
1001
GENIUS_GENREC_14
1002
{
1000
PYDIR
1011
130.9476875304583
1021
337.6338318142095
1031
0.0
1002
}
1002
{
1000
PXDIR
1011
460.3008885228099
1021
102.4060474160199
1031
0.0
1002
}
1002
{
1000
PORI
1011
130.9476875304583
1021
102.4060474160199
1031
0.0
1002
}
1002
{
1000
PINS
1011
130.9476875304583
1021
102.4060474160199
1031
0.0
1002
}
1002
{
1000
PINS2
1011
460.3008885228099
1021
337.6338318142095
1031
0.0
1002
}
1002
{
1000
C
1070
     1
1002
}
1001
GENIUS_GENODEF_13
1002
{
1000
HIER
1070
     0
1002
}
1002
{
1000
MANEDIT
1070
     0
1002
}
1002
{
1000
NOSEL
1070
     0
1002
}
1002
{
1000
BEHIND
1070
     0
1002
}
1002
{
1000
OTHER
1070
     0
1002
}
1002
{
1000
REACTOR
1002
}
1001
GENIUS_GENOBJ-N-REC_13
1002
{
1000
OWNER
1000
GEN
1002
}
  0
SOLID
  5
11A5
330
1F
100
AcDbEntity
  8
LOGO
 62
     5
100
AcDbTrace
 10
133.6589468381621
 20
91.07082693593618
 30
0.0
 11
134.7888352698505
 21
91.07082693593591
 31
0.0
 12
139.5031973468956
 22
101.7852862019483
 32
0.0
 13
140.6330857785846
 23
101.7852862019477
 33
0.0
  0
SOLID
  5
11A6
330
1F
100
AcDbEntity
  8
LOGO
 62
     5
100
AcDbTrace
 10
135.2563753105505
 20
91.07082693593618
 30
0.0
 11
136.3862637422389
 21
91.07082693593618
 31
0.0
 12
140.6330857785846
 22
100.9281294606669
 32
0.0
 13
139.5031973468956
 23
96.78520521114222
 33
0.0
  0
SOLID
  5
11A7
330
1F
100
AcDbEntity
  8
LOGO
 62
     2
100
AcDbTrace
 10
134.7888352698505
 20
91.07082693593591
 30
0.0
 11
135.2563753105505
 21
91.07082693593618
 31
0.0
 12
140.6330857785846
 22
101.7852862019477
 32
0.0
 13
141.1006258192839
 23
101.7852862019477
 33
0.0
  0
SOLID
  5
11A8
330
1F
100
AcDbEntity
  8
LOGO
 62
     5
100
AcDbTrace
 10
131.8474585995812
 20
87.17465993011392
 30
0.0
 11
132.2370753001638
 21
87.17465993011392
 31
0.0
 12
133.3342662543439
 22
89.12274343302494
 32
0.0
 13
133.7238829549254
 23
89.12274343302494
 33
0.0
  0
SOLID
  5
11A9
330
1F
100
AcDbEntity
  8
LOGO
 62
     5
100
AcDbTrace
 10
133.3342662543439
 20
89.12274343302494
 30
0.0
 11
133.7238829549254
 21
89.12274343302494
 31
0.0
 12
133.3342662543439
 22
87.17465993011392
 32
0.0
 13
133.7238829549254
 23
87.17465993011392
 33
0.0
  0
SOLID
  5
11AA
330
1F
100
AcDbEntity
  8
LOGO
 62
     5
100
AcDbTrace
 10
133.3342662543439
 20
87.17465993011392
 30
0.0
 11
133.7238829549254
 21
87.17465993011392
 31
0.0
 12
134.8210739091071
 22
89.12274343302494
 32
0.0
 13
135.2106906096892
 23
89.12274343302494
 33
0.0
  0
SOLID
  5
11AB
330
1F
100
AcDbEntity
  8
LOGO
 62
     5
100
AcDbTrace
 10
134.8210739091071
 20
89.12274343302494
 30
0.0
 11
135.2106906096892
 21
89.12274343302494
 31
0.0
 12
134.8210739091071
 22
87.17465993011392
 32
0.0
 13
135.2106906096892
 23
87.17465993011392
 33
0.0
  0
POLYLINE
  5
11AC
330
1F
100
AcDbEntity
  8
LOGO
 62
     5
100
AcDb2dPolyline
 66
     1
 10
0.0
 20
0.0
 30
0.0
 40
0.390241086320362
 41
0.390241086320362
  0
VERTEX
  5
11AD
330
11AC
100
AcDbEntity
  8
LOGO
 62
     5
100
AcDbVertex
100
AcDb2dVertex
 10
147.8808929880222
 20
88.34351003186048
 30
0.0
 42
1.0
  0
VERTEX
  5
11AE
330
11AC
100
AcDbEntity
  8
LOGO
 62
     5
100
AcDbVertex
100
AcDb2dVertex
 10
146.7101697290609
 20
88.34351003186048
 30
0.0
 42
1.0
  0
SEQEND
  5
11AF
330
11AC
100
AcDbEntity
  8
LOGO
 62
     5
  0
POLYLINE
  5
11B0
330
1F
100
AcDbEntity
  8
LOGO
 62
     5
100
AcDb2dPolyline
 66
     1
 10
0.0
 20
0.0
 30
0.0
 70
     1
  0
VERTEX
  5
11B1
330
11B0
100
AcDbEntity
  8
LOGO
 62
     5
100
AcDbVertex
100
AcDb2dVertex
 10
144.5033043121479
 20
88.14870168156915
 30
0.0
 42
1.000000057330635
  0
VERTEX
  5
11B2
330
11B0
100
AcDbEntity
  8
LOGO
 62
     5
100
AcDbVertex
100
AcDb2dVertex
 10
145.6721544138947
 20
88.14870168156915
 30
0.0
 42
1.000000057330635
  0
SEQEND
  5
11B3
330
11B0
100
AcDbEntity
  8
LOGO
 62
     5
  0
CIRCLE
  5
11B4
330
1F
100
AcDbEntity
  8
LOGO
 62
     5
100
AcDbCircle
 10
145.0877293630222
 20
88.14870168156915
 30
0.0
 40
0.5844250508733743
  0
POLYLINE
  5
11B5
330
1F
100
AcDbEntity
  8
LOGO
 62
     5
100
AcDb2dPolyline
 66
     1
 10
0.0
 20
0.0
 30
0.0
 70
     1
 40
0.390241086320362
 41
0.390241086320362
  0
VERTEX
  5
11B6
330
11B5
100
AcDbEntity
  8
LOGO
 62
     5
100
AcDbVertex
100
AcDb2dVertex
 10
144.307247190381
 20
88.14870168156915
 30
0.0
 42
1.0
  0
VERTEX
  5
11B7
330
11B5
100
AcDbEntity
  8
LOGO
 62
     5
100
AcDbVertex
100
AcDb2dVertex
 10
145.8682115356623
 20
88.14870168156915
 30
0.0
 42
1.0
  0
SEQEND
  5
11B8
330
11B5
100
AcDbEntity
  8
LOGO
 62
     5
  0
LINE
  5
11B9
330
1F
100
AcDbEntity
  8
LOGO
100
AcDbLine
 10
148.0747647597054
 20
87.17465993011392
 30
0.0
 11
148.0747647597054
 21
88.34351003186048
 31
0.0
  0
SOLID
  5
11BA
330
1F
100
AcDbEntity
  8
LOGO
 62
     5
100
AcDbTrace
 10
145.6721154522264
 20
89.12274343302494
 30
0.0
 11
146.0617321528079
 21
89.12274343302494
 31
0.0
 12
145.6721154522264
 22
87.17465993011392
 32
0.0
 13
146.0617321528079
 23
87.17465993011392
 33
0.0
  0
SOLID
  5
11BB
330
1F
100
AcDbEntity
  8
LOGO
 62
     5
100
AcDbTrace
 10
146.5162979573765
 20
87.17465993011392
 30
0.0
 11
146.9059146579591
 21
87.17465993011392
 31
0.0
 12
146.5162979573765
 22
89.12274343302494
 32
0.0
 13
146.9059146579591
 23
89.12274343302494
 33
0.0
  0
SOLID
  5
11BC
330
1F
100
AcDbEntity
  8
LOGO
 62
     5
100
AcDbTrace
 10
147.6851480591239
 20
88.34351003186048
 30
0.0
 11
148.0747647597054
 21
88.34351003186048
 31
0.0
 12
147.6851480591239
 22
87.17465993011392
 32
0.0
 13
148.0747647597054
 23
87.17465993011392
 33
0.0
  0
SOLID
  5
11BD
330
1F
100
AcDbEntity
  8
LOGO
 62
     5
100
AcDbTrace
 10
146.4773362873181
 20
100.9281294606669
 30
0.0
 11
145.3474478556303
 21
96.78520521114222
 31
0.0
 12
146.4773362873181
 22
91.07082693593591
 32
0.0
 13
145.3474478556303
 23
91.07082693593591
 33
0.0
  0
SOLID
  5
11BE
330
1F
100
AcDbEntity
  8
LOGO
 62
     5
100
AcDbTrace
 10
146.9448763280175
 20
91.07082693593591
 30
0.0
 11
148.0747647597054
 21
91.07082693593591
 31
0.0
 12
146.9448763280175
 22
101.7852862019477
 32
0.0
 13
148.0747647597054
 23
101.7852862019483
 33
0.0
  0
SOLID
  5
11BF
330
1F
100
AcDbEntity
  8
LOGO
 62
     2
100
AcDbTrace
 10
146.4773362873181
 20
101.7852862019483
 30
0.0
 11
146.9448763280175
 21
101.7852862019477
 31
0.0
 12
146.4773362873181
 22
91.07082693593591
 32
0.0
 13
146.9448763280175
 23
91.07082693593591
 33
0.0
  0
POLYLINE
  5
11C0
330
1F
100
AcDbEntity
  8
LOGO
 62
     5
100
AcDb2dPolyline
 66
     1
 10
0.0
 20
0.0
 30
0.0
 40
0.390241086320362
 41
0.390241086320362
  0
VERTEX
  5
11C1
330
11C0
100
AcDbEntity
  8
LOGO
 62
     5
100
AcDbVertex
100
AcDb2dVertex
 10
142.2963609718966
 20
88.34351003186048
 30
0.0
 42
1.0
  0
VERTEX
  5
11C2
330
11C0
100
AcDbEntity
  8
LOGO
 62
     5
100
AcDbVertex
100
AcDb2dVertex
 10
141.1256377129354
 20
88.34351003186048
 30
0.0
 42
1.0
  0
SEQEND
  5
11C3
330
11C0
100
AcDbEntity
  8
LOGO
 62
     5
  0
POLYLINE
  5
11C4
330
1F
100
AcDbEntity
  8
LOGO
 62
     5
100
AcDb2dPolyline
 66
     1
 10
0.0
 20
0.0
 30
0.0
 40
0.390241086320362
 41
0.390241086320362
  0
VERTEX
  5
11C5
330
11C4
100
AcDbEntity
  8
LOGO
 62
     5
100
AcDbVertex
100
AcDb2dVertex
 10
143.4652110736423
 20
88.34351003186048
 30
0.0
 42
1.0
  0
VERTEX
  5
11C6
330
11C4
100
AcDbEntity
  8
LOGO
 62
     5
100
AcDbVertex
100
AcDb2dVertex
 10
142.2944878146815
 20
88.34351003186048
 30
0.0
 42
1.0
  0
SEQEND
  5
11C7
330
11C4
100
AcDbEntity
  8
LOGO
 62
     5
  0
POLYLINE
  5
11C8
330
1F
100
AcDbEntity
  8
LOGO
 62
     5
100
AcDb2dPolyline
 66
     1
 10
0.0
 20
0.0
 30
0.0
 40
0.390241086320362
 41
0.390241086320362
  0
VERTEX
  5
11C9
330
11C8
100
AcDbEntity
  8
LOGO
 62
     5
100
AcDbVertex
100
AcDb2dVertex
 10
137.8806790575167
 20
88.34351003186048
 30
0.0
 42
1.0
  0
VERTEX
  5
11CA
330
11C8
100
AcDbEntity
  8
LOGO
 62
     5
100
AcDbVertex
100
AcDb2dVertex
 10
136.709955798556
 20
88.34351003186048
 30
0.0
 42
1.0
  0
SEQEND
  5
11CB
330
11C8
100
AcDbEntity
  8
LOGO
 62
     5
  0
SOLID
  5
11CC
330
1F
100
AcDbEntity
  8
LOGO
 62
     5
100
AcDbTrace
 10
136.5160840268722
 20
89.12274343302494
 30
0.0
 11
136.9057007274537
 21
89.12274343302494
 31
0.0
 12
136.5160840268722
 22
87.17465993011392
 32
0.0
 13
136.9057007274537
 23
87.17465993011392
 33
0.0
  0
SOLID
  5
11CD
330
1F
100
AcDbEntity
  8
LOGO
 62
     5
100
AcDbTrace
 10
137.6849341286191
 20
88.34351003186048
 30
0.0
 11
138.0745508292017
 21
88.34351003186048
 31
0.0
 12
137.6849341286191
 22
87.17465993011392
 32
0.0
 13
138.0745508292017
 23
87.17465993011392
 33
0.0
  0
POLYLINE
  5
11CE
330
1F
100
AcDbEntity
  8
LOGO
 62
     5
100
AcDb2dPolyline
 66
     1
 10
0.0
 20
0.0
 30
0.0
 70
     1
 40
0.390241086320362
 41
0.390241086320362
  0
VERTEX
  5
11CF
330
11CE
100
AcDbEntity
  8
LOGO
 62
     5
100
AcDbVertex
100
AcDb2dVertex
 10
138.7227151742549
 20
88.14870168156915
 30
0.0
 42
1.0
  0
VERTEX
  5
11D0
330
11CE
100
AcDbEntity
  8
LOGO
 62
     5
100
AcDbVertex
100
AcDb2dVertex
 10
140.2836795195369
 20
88.14870168156915
 30
0.0
 42
1.0
  0
SEQEND
  5
11D1
330
11CE
100
AcDbEntity
  8
LOGO
 62
     5
  0
SOLID
  5
11D2
330
1F
100
AcDbEntity
  8
LOGO
 62
     5
100
AcDbTrace
 10
140.0875834360997
 20
89.70716848389862
 30
0.0
 11
140.4772001366818
 21
89.70716848389862
 31
0.0
 12
140.0875834360997
 22
87.17465993011392
 32
0.0
 13
140.4772001366818
 23
87.17465993011392
 33
0.0
  0
SOLID
  5
11D3
330
1F
100
AcDbEntity
  8
LOGO
 62
     5
100
AcDbTrace
 10
140.9317659412522
 20
89.12274343302494
 30
0.0
 11
141.3213826418336
 21
89.12274343302494
 31
0.0
 12
140.9317659412522
 22
87.17465993011392
 32
0.0
 13
141.3213826418336
 23
87.17465993011392
 33
0.0
  0
SOLID
  5
11D4
330
1F
100
AcDbEntity
  8
LOGO
 62
     5
100
AcDbTrace
 10
142.1006160429977
 20
88.34351003186048
 30
0.0
 11
142.4902327435804
 21
88.34351003186048
 31
0.0
 12
142.1006160429977
 22
87.17465993011392
 32
0.0
 13
142.4902327435804
 23
87.17465993011392
 33
0.0
  0
SOLID
  5
11D5
330
1F
100
AcDbEntity
  8
LOGO
 62
     5
100
AcDbTrace
 10
143.2694661447445
 20
88.34351003186048
 30
0.0
 11
143.6590828453266
 21
88.34351003186048
 31
0.0
 12
143.2694661447445
 22
87.17465993011336
 32
0.0
 13
143.6590828453266
 23
87.17465993011336
 33
0.0
  0
SOLID
  5
11D6
330
1F
100
AcDbEntity
  8
LOGO
 62
     5
100
AcDbTrace
 10
135.6719015217205
 20
89.3954751234326
 30
0.0
 11
136.0615182223037
 21
89.3954751234326
 31
0.0
 12
135.6719015217205
 22
89.70716848389862
 32
0.0
 13
136.0615182223037
 23
89.70716848389862
 33
0.0
  0
SOLID
  5
11D7
330
1F
100
AcDbEntity
  8
LOGO
 62
     5
100
AcDbTrace
 10
135.6719015217205
 20
89.12274343302494
 30
0.0
 11
136.0615182223037
 21
89.12274343302494
 31
0.0
 12
135.6719015217205
 22
87.17465993011336
 32
0.0
 13
136.0615182223037
 23
87.17465993011392
 33
0.0
  0
SOLID
  5
11D8
330
1F
100
AcDbEntity
  8
LOGO
 62
     5
100
AcDbTrace
 10
139.5031973468956
 20
91.07082693593618
 30
0.0
 11
140.6330857785846
 21
91.07082693593618
 31
0.0
 12
139.5031973468956
 22
96.78520521114222
 32
0.0
 13
140.6330857785846
 23
100.9281294606669
 33
0.0
  0
SOLID
  5
11D9
330
1F
100
AcDbEntity
  8
LOGO
 62
     5
100
AcDbTrace
 10
141.1006258192839
 20
101.7852862019477
 30
0.0
 11
142.2305142509718
 21
101.7852862019483
 31
0.0
 12
141.1006258192839
 22
91.92798367721698
 32
0.0
 13
142.2305142509718
 23
96.07090792674163
 33
0.0
  0
SOLID
  5
11DA
330
1F
100
AcDbEntity
  8
LOGO
 62
     2
100
AcDbTrace
 10
140.6330857785846
 20
101.7852862019477
 30
0.0
 11
141.1006258192839
 21
101.7852862019477
 31
0.0
 12
140.6330857785846
 22
91.07082693593618
 32
0.0
 13
141.1006258192839
 23
91.07082693593618
 33
0.0
  0
SOLID
  5
11DB
330
1F
100
AcDbEntity
  8
LOGO
 62
     5
100
AcDbTrace
 10
141.1006258192839
 20
91.92798367721698
 30
0.0
 11
142.2305142509718
 21
96.07090792674163
 31
0.0
 12
146.4773362873181
 22
101.7852862019483
 32
0.0
 13
145.3474478556303
 23
101.7852862019483
 33
0.0
  0
SOLID
  5
11DC
330
1F
100
AcDbEntity
  8
LOGO
 62
     5
100
AcDbTrace
 10
141.1006258192839
 20
91.07082693593618
 30
0.0
 11
142.2305142509718
 21
91.07082693593618
 31
0.0
 12
146.4773362873181
 22
100.9281294606669
 32
0.0
 13
145.3474478556303
 23
96.78520521114222
 33
0.0
  0
SOLID
  5
11DD
330
1F
100
AcDbEntity
  8
LOGO
 62
     2
100
AcDbTrace
 10
140.6330857785846
 20
91.07082693593618
 30
0.0
 11
141.1006258192839
 21
91.07082693593618
 31
0.0
 12
146.4773362873181
 22
101.7852862019483
 32
0.0
 13
146.9448763280175
 23
101.7852862019477
 33
0.0
  0
LWPOLYLINE
  5
11DE
330
1F
100
AcDbEntity
  8
LOGO
 62
     4
100
AcDbPolyline
 90
        4
 70
     1
 43
0.0
 10
130.9476875304583
 20
102.4060474160199
 10
460.3008885228099
 20
102.4060474160199
 10
460.3008885228099
 20
76.2738318142095
 10
130.9476875304583
 20
76.2738318142095
1001
GENIUS_GENREC_14
1002
{
1000
PYDIR
1011
130.9476875304583
1021
76.2738318142095
1031
0.0
1002
}
1002
{
1000
PXDIR
1011
460.3008885228099
1021
102.4060474160199
1031
0.0
1002
}
1002
{
1000
PORI
1011
130.9476875304583
1021
102.4060474160199
1031
0.0
1002
}
1002
{
1000
PINS
1011
130.9476875304583
1021
102.4060474160199
1031
0.0
1002
}
1002
{
1000
PINS2
1011
460.3008885228099
1021
76.2738318142095
1031
0.0
1002
}
1002
{
1000
C
1070
     1
1002
}
1001
GENIUS_GENOBJ-N-REC_13
1002
{
1000
OWNER
1000
GEN
1002
}
1001
GENIUS_GENODEF_13
1002
{
1000
HIER
1070
     0
1002
}
1002
{
1000
MANEDIT
1070
     0
1002
}
1002
{
1000
NOSEL
1070
     0
1002
}
1002
{
1000
BEHIND
1070
     0
1002
}
1002
{
1000
OTHER
1070
     0
1002
}
1002
{
1000
REACTOR
1002
}
  0
LINE
  5
11DF
330
1F
100
AcDbEntity
  8
LOGO
 62
     4
100
AcDbLine
 10
241.8037416759972
 20
88.03332883502477
 30
0.0
 11
241.8037416759972
 21
78.45151644769392
 31
0.0
  0
LINE
  5
11E0
330
1F
100
AcDbEntity
  8
LOGO
 62
     4
100
AcDbLine
 10
224.3822646081238
 20
88.03332883502477
 30
0.0
 11
224.3822646081238
 21
78.45151644769392
 31
0.0
  0
LINE
  5
11E1
330
1F
100
AcDbEntity
  8
LOGO
 62
     4
100
AcDbLine
 10
241.8037416759972
 20
78.45151644769392
 30
0.0
 11
224.3822646081238
 21
78.45151644769392
 31
0.0
  0
LINE
  5
11E2
330
1F
100
AcDbEntity
  8
LOGO
 62
     4
100
AcDbLine
 10
244.9284687349559
 20
99.79282585583881
 30
0.0
 11
224.3822646081238
 21
99.79282585583881
 31
0.0
  0
LINE
  5
11E3
330
1F
100
AcDbEntity
  8
LOGO
 62
     4
100
AcDbLine
 10
244.9284687349559
 20
91.95316117529591
 30
0.0
 11
224.3822646081238
 21
91.95316117529591
 31
0.0
  0
LINE
  5
11E4
330
1F
100
AcDbEntity
  8
LOGO
 62
     4
100
AcDbLine
 10
224.3822646081238
 20
99.79282585583881
 30
0.0
 11
224.3822646081238
 21
91.95316117529591
 31
0.0
  0
LINE
  5
11E5
330
1F
100
AcDbEntity
  8
LOGO
 62
     4
100
AcDbLine
 10
244.9284687349559
 20
99.79282585583881
 30
0.0
 11
244.9284687349559
 21
91.95316117529591
 31
0.0
  0
LINE
  5
11E6
330
1F
100
AcDbEntity
  8
LOGO
 62
     4
100
AcDbLine
 10
234.0019666715399
 20
91.95316117529591
 30
0.0
 11
234.0019666715399
 21
88.03332883502477
 31
0.0
  0
TEXT
  5
11E7
330
1F
100
AcDbEntity
  8
LOGO
  6
Continuous
100
AcDbText
 10
225.775250241698
 20
93.58967971577065
 30
0.0
 40
4.573800000000001
  1
MCHU
  7
chineset
100
AcDbText
  0
LINE
  5
11E8
330
1F
100
AcDbEntity
  8
LOGO
 62
     4
100
AcDbLine
 10
241.8037416759972
 20
88.03332883502477
 30
0.0
 11
224.3822646081238
 21
88.03332883502477
 31
0.0
  0
TEXT
  5
11E9
330
1F
100
AcDbEntity
  8
LOGO
  6
Continuous
100
AcDbText
 10
229.9727614436473
 20
79.80396894746047
 30
171.2662360232331
 40
1.9602
  1
Model
 41
0.8
  7
chineset
100
AcDbText
  0
TEXT
  5
11EA
330
1F
100
AcDbEntity
  8
LOGO
100
AcDbText
 10
229.45101992583
 20
83.43775729420917
 30
171.2662360232331
 40
3.266999999999999
  1
型號
  7
chineset
100
AcDbText
  0
LINE
  5
11EB
330
1F
100
AcDbEntity
  8
LOGO
  6
Continuous
100
AcDbLine
 10
245.7618898844342
 20
95.84522418430916
 30
0.0
 11
249.2235997507084
 21
95.84522418430916
 31
0.0
  0
LINE
  5
11EC
330
1F
100
AcDbEntity
  8
LOGO
 62
     4
100
AcDbLine
 10
258.7817201702866
 20
88.03332883502477
 30
0.0
 11
258.7817201702866
 21
78.45151644769392
 31
0.0
  0
LINE
  5
11ED
330
1F
100
AcDbEntity
  8
LOGO
 62
     4
100
AcDbLine
 10
243.6321831129982
 20
88.03332883502477
 30
0.0
 11
243.6321831129982
 21
78.45151644769392
 31
0.0
  0
LINE
  5
11EE
330
1F
100
AcDbEntity
  8
LOGO
 62
     4
100
AcDbLine
 10
258.7817201702866
 20
78.45151644769392
 30
0.0
 11
243.6321831129982
 21
78.45151644769392
 31
0.0
  0
LINE
  5
11EF
330
1F
100
AcDbEntity
  8
LOGO
 62
     4
100
AcDbLine
 10
259.6836223858758
 20
99.79282585583881
 30
0.0
 11
250.0459674698376
 21
99.79282585583881
 31
0.0
  0
LINE
  5
11F0
330
1F
100
AcDbEntity
  8
LOGO
 62
     4
100
AcDbLine
 10
259.6836223858758
 20
91.95316117529591
 30
0.0
 11
250.0459674698376
 21
91.95316117529591
 31
0.0
  0
LINE
  5
11F1
330
1F
100
AcDbEntity
  8
LOGO
 62
     4
100
AcDbLine
 10
250.0459674698376
 20
99.79282585583881
 30
0.0
 11
250.0459674698376
 21
91.95316117529591
 31
0.0
  0
LINE
  5
11F2
330
1F
100
AcDbEntity
  8
LOGO
 62
     4
100
AcDbLine
 10
259.6836223858758
 20
99.79282585583881
 30
0.0
 11
259.6836223858758
 21
91.95316117529591
 31
0.0
  0
LINE
  5
11F3
330
1F
100
AcDbEntity
  8
LOGO
 62
     4
100
AcDbLine
 10
254.8647949278566
 20
91.95316117529591
 30
0.0
 11
254.8647949278566
 21
88.03332883502477
 31
0.0
  0
TEXT
  5
11F4
330
1F
100
AcDbEntity
  8
LOGO
  6
Continuous
100
AcDbText
 10
251.0894058755685
 20
93.58967971577065
 30
0.0
 40
4.573800000000001
  1
20
  7
chineset
100
AcDbText
  0
LINE
  5
11F5
330
1F
100
AcDbEntity
  8
LOGO
 62
     4
100
AcDbLine
 10
258.7817201702866
 20
88.03332883502477
 30
0.0
 11
243.6321831129982
 21
88.03332883502477
 31
0.0
  0
LINE
  5
11F6
330
1F
100
AcDbEntity
  8
LOGO
  6
Continuous
100
AcDbLine
 10
274.9045651163871
 20
95.84522418430916
 30
0.0
 11
278.3662749826618
 21
95.84522418430916
 31
0.0
  0
LINE
  5
11F7
330
1F
100
AcDbEntity
  8
LOGO
 62
     4
100
AcDbLine
 10
303.7715798374305
 20
88.03332883502477
 30
0.0
 11
303.7715798374305
 21
78.45151644769392
 31
0.0
  0
LINE
  5
11F8
330
1F
100
AcDbEntity
  8
LOGO
 62
     4
100
AcDbLine
 10
280.3131299945533
 20
88.03332883502477
 30
0.0
 11
280.3131299945533
 21
78.45151644769392
 31
0.0
  0
LINE
  5
11F9
330
1F
100
AcDbEntity
  8
LOGO
 62
     4
100
AcDbLine
 10
303.7715798374305
 20
78.45151644769392
 30
0.0
 11
280.3131299945533
 21
78.45151644769392
 31
0.0
  0
LINE
  5
11FA
330
1F
100
AcDbEntity
  8
LOGO
 62
     4
100
AcDbLine
 10
291.6407576314719
 20
99.79282585583881
 30
0.0
 11
279.4582619678538
 21
99.79282585583881
 31
0.0
  0
LINE
  5
11FB
330
1F
100
AcDbEntity
  8
LOGO
 62
     4
100
AcDbLine
 10
291.6407576314719
 20
91.95316117529591
 30
0.0
 11
279.4582619678538
 21
91.95316117529591
 31
0.0
  0
LINE
  5
11FC
330
1F
100
AcDbEntity
  8
LOGO
 62
     4
100
AcDbLine
 10
279.4582619678538
 20
99.79282585583881
 30
0.0
 11
279.4582619678538
 21
91.95316117529591
 31
0.0
  0
LINE
  5
11FD
330
1F
100
AcDbEntity
  8
LOGO
 62
     4
100
AcDbLine
 10
291.6407576314719
 20
99.79282585583881
 30
0.0
 11
291.6407576314719
 21
91.95316117529591
 31
0.0
  0
TEXT
  5
11FE
330
1F
100
AcDbEntity
  8
LOGO
  6
Continuous
100
AcDbText
 10
282.2696395961886
 20
93.58967971577065
 30
0.0
 40
4.573800000000001
  1
RT
  7
chineset
100
AcDbText
  0
LINE
  5
11FF
330
1F
100
AcDbEntity
  8
LOGO
 62
     4
100
AcDbLine
 10
303.7715798374305
 20
88.03332883502477
 30
0.0
 11
280.3131299945533
 21
88.03332883502477
 31
0.0
  0
TEXT
  5
1200
330
1F
100
AcDbEntity
  8
LOGO
  6
Continuous
100
AcDbText
 10
246.307580502238
 20
79.80396894746047
 30
171.2662360232331
 40
1.9602
  1
Tube I.D.
 41
0.8
  7
chineset
100
AcDbText
  0
TEXT
  5
1201
330
1F
100
AcDbEntity
  8
LOGO
100
AcDbText
 10
247.5970590501489
 20
83.43775729420917
 30
171.2662360232331
 40
3.266999999999999
  1
內徑
  7
chineset
100
AcDbText
  0
TEXT
  5
1202
330
1F
100
AcDbEntity
  8
LOGO
  6
Continuous
100
AcDbText
 10
281.9622115624907
 20
79.80396894746047
 30
171.2662360232331
 40
1.9602
  1
Auto swicth type
 41
0.8
  7
chineset
100
AcDbText
  0
TEXT
  5
1203
330
1F
100
AcDbEntity
  8
LOGO
100
AcDbText
 10
284.2355609390383
 20
83.43775729420917
 30
171.2662360232331
 40
3.266999999999999
  1
感應開關
  7
chineset
100
AcDbText
  0
LINE
  5
1204
330
1F
100
AcDbEntity
  8
LOGO
 62
     4
100
AcDbLine
 10
307.0874410380653
 20
99.79282585583881
 30
0.0
 11
297.6076783338279
 21
99.79282585583881
 31
0.0
  0
LINE
  5
1205
330
1F
100
AcDbEntity
  8
LOGO
 62
     4
100
AcDbLine
 10
307.0874410380653
 20
91.95316117529591
 30
0.0
 11
297.6076783338279
 21
91.95316117529591
 31
0.0
  0
LINE
  5
1206
330
1F
100
AcDbEntity
  8
LOGO
 62
     4
100
AcDbLine
 10
297.6076783338279
 20
99.79282585583881
 30
0.0
 11
297.6076783338279
 21
91.95316117529591
 31
0.0
  0
LINE
  5
1207
330
1F
100
AcDbEntity
  8
LOGO
 62
     4
100
AcDbLine
 10
307.0874410380653
 20
99.79282585583881
 30
0.0
 11
307.0874410380653
 21
91.95316117529591
 31
0.0
  0
TEXT
  5
1208
330
1F
100
AcDbEntity
  8
LOGO
  6
Continuous
100
AcDbText
 10
300.8189231634855
 20
93.58967971577065
 30
0.0
 40
4.573800000000001
  1
*
  7
chineset
100
AcDbText
  0
LINE
  5
1209
330
1F
100
AcDbEntity
  8
LOGO
 62
     4
100
AcDbLine
 10
338.4340220394788
 20
88.03332883502477
 30
0.0
 11
338.4340220394788
 21
78.45151644769392
 31
0.0
  0
LINE
  5
120A
330
1F
100
AcDbEntity
  8
LOGO
 62
     4
100
AcDbLine
 10
305.5828708887068
 20
88.03332883502477
 30
0.0
 11
305.5828708887068
 21
78.45151644769392
 31
0.0
  0
LINE
  5
120B
330
1F
100
AcDbEntity
  8
LOGO
 62
     4
100
AcDbLine
 10
338.4340220394788
 20
78.45151644769392
 30
0.0
 11
305.5828708887068
 21
78.45151644769392
 31
0.0
  0
LINE
  5
120C
330
1F
100
AcDbEntity
  8
LOGO
 62
     4
100
AcDbLine
 10
338.4340220394788
 20
88.03332883502477
 30
0.0
 11
305.5828708887068
 21
88.03332883502477
 31
0.0
  0
TEXT
  5
120D
330
1F
100
AcDbEntity
  8
LOGO
  6
Continuous
100
AcDbText
 10
308.6679704416807
 20
79.80396894746047
 30
171.2662360232331
 40
1.9602
  1
Number of auto swicth
 41
0.8
  7
chineset
100
AcDbText
  0
TEXT
  5
120E
330
1F
100
AcDbEntity
  8
LOGO
100
AcDbText
 10
311.6385451371445
 20
83.43775729420917
 30
171.2662360232331
 40
3.266999999999999
  1
感應開關數量
  7
chineset
100
AcDbText
  0
LINE
  5
120F
330
1F
100
AcDbEntity
  8
LOGO
 62
     4
100
AcDbLine
 10
322.0084464640928
 20
89.99324500516035
 30
0.0
 11
322.0084464640928
 21
88.03332883502477
 31
0.0
  0
TEXT
  5
1210
330
1F
100
AcDbEntity
  8
LOGO
100
AcDbText
 10
189.6493585650697
 20
77.66405537000625
 30
0.0
 40
2.6136
  1
10710302
 41
0.7
  7
chineset
 72
     1
 11
196.0091185650697
 21
77.66405537000625
 31
0.0
100
AcDbText
  0
LINE
  5
1211
330
1F
100
AcDbEntity
  8
LOGO
 62
     4
100
AcDbLine
 10
204.1201618544391
 20
81.50027493457246
 30
0.0
 11
204.1201618544402
 21
76.27383181421013
 31
0.0
  0
LINE
  5
1212
330
1F
100
AcDbEntity
  8
LOGO
 62
     4
100
AcDbLine
 10
204.1201618544391
 20
81.50027493457246
 30
0.0
 11
188.4385618544403
 21
81.50027493457246
 31
0.0
  0
CIRCLE
  5
1213
330
1F
100
AcDbEntity
  8
LOGO
  6
Continuous
100
AcDbCircle
 10
175.8557913618277
 20
94.57197243551732
 30
0.0
 40
1.517297946143001
  0
CIRCLE
  5
1214
330
1F
100
AcDbEntity
  8
LOGO
  6
Continuous
100
AcDbCircle
 10
175.8557913618277
 20
94.57197243551732
 30
0.0
 40
0.8890022776522025
  0
LINE
  5
1215
330
1F
100
AcDbEntity
  8
LOGO
100
AcDbLine
 10
185.3906677151987
 20
93.05467448937402
 30
0.0
 11
185.3906677151987
 21
96.0892703816606
 31
0.0
  0
LINE
  5
1216
330
1F
100
AcDbEntity
  8
LOGO
100
AcDbLine
 10
180.6340257510985
 20
93.68297015786527
 30
0.0
 11
180.6340257510985
 21
95.46097471316965
 31
0.0
  0
LINE
  5
1217
330
1F
100
AcDbEntity
  8
LOGO
  6
Continuous
100
AcDbLine
 10
180.6340257510985
 20
95.46097471316965
 30
0.0
 11
185.3906677151987
 21
96.0892703816606
 31
0.0
  0
LINE
  5
1218
330
1F
100
AcDbEntity
  8
LOGO
  6
Continuous
100
AcDbLine
 10
180.6340257510985
 20
93.68297015786527
 30
0.0
 11
185.3906677151987
 21
93.05467448937402
 31
0.0
  0
LINE
  5
1219
330
1F
100
AcDbEntity
  8
LOGO
  6
AM_ISO08W050x2
 48
0.3
100
AcDbLine
 10
173.7641734233219
 20
94.57197243551732
 30
0.0
 11
177.9474093003335
 21
94.57197243551732
 31
0.0
1001
GENIUS_GENOREF_13
1005
1222
  0
LINE
  5
121A
330
1F
100
AcDbEntity
  8
LOGO
  6
AM_ISO08W050x2
 48
0.3
100
AcDbLine
 10
175.8557913618277
 20
92.48035449701152
 30
0.0
 11
175.8557913618277
 21
96.66359037402308
 31
0.0
1001
GENIUS_GENOREF_13
1005
1221
  0
LINE
  5
121B
330
1F
100
AcDbEntity
  8
LOGO
  6
CENTER
 48
0.5
100
AcDbLine
 10
180.2536266042153
 20
94.57197243551732
 30
0.0
 11
185.8696461629396
 21
94.57197243551732
 31
0.0
1001
GENIUS_GENOREF_13
1005
1220
  0
LINE
  5
121C
330
1F
100
AcDbEntity
  8
LOGO
  6
Continuous
100
AcDbLine
 10
293.0655082231369
 20
95.84522418430916
 30
0.0
 11
296.5272180894117
 21
95.84522418430916
 31
0.0
  0
LINE
  5
121D
330
1F
100
AcDbEntity
  8
LOGO
 62
     4
100
AcDbLine
 10
322.0084464640928
 20
89.99324500516033
 30
0.0
 11
302.3475596859466
 21
89.99324500516033
 31
0.0
  0
LINE
  5
121E
330
1F
100
AcDbEntity
  8
LOGO
 62
     4
100
AcDbLine
 10
285.5495097996629
 20
91.95316117529591
 30
0.0
 11
285.5495097996629
 21
88.03332883502477
 31
0.0
  0
LINE
  5
121F
330
1F
100
AcDbEntity
  8
LOGO
 62
     4
100
AcDbLine
 10
302.3475596859466
 20
91.95316117529591
 30
0.0
 11
302.3475596859466
 21
89.99324500516033
 31
0.0
  0
POINT
  5
1220
330
1F
100
AcDbEntity
  8
0
 60
     1
100
AcDbPoint
 10
-1583.150379115036
 20
-766.7068263546341
 30
0.0
1001
GENIUS_GENOBJ-N-CRS_13
1002
{
1000
OWNER
1000
GEN
1002
}
1001
GENIUS_GENOLIS_13
1002
{
1000
ENT
1005
0
1005
0
1005
0
1005
121B
1002
}
1001
GENIUS_GENOENT_13
1002
{
1000
MYREF
1005
1220
1002
}
1002
{
1000
GRP
1005
0
1002
}
1001
GENIUS_GENODEF_13
1002
{
1000
HIER
1070
    10
1002
}
1002
{
1000
MANEDIT
1070
     1
1002
}
1002
{
1000
NOSEL
1070
     0
1002
}
1002
{
1000
BEHIND
1070
     0
1002
}
1002
{
1000
OTHER
1070
     0
1002
}
1002
{
1000
REACTOR
1002
}
  0
POINT
  5
1221
330
1F
100
AcDbEntity
  8
0
 60
     1
100
AcDbPoint
 10
-1594.474964337891
 20
-757.8312398759979
 30
0.0
1001
GENIUS_GENOBJ-N-CRS_13
1002
{
1000
OWNER
1000
GEN
1002
}
1001
GENIUS_GENOLIS_13
1002
{
1000
ENT
1005
0
1005
0
1005
0
1005
121A
1002
}
1001
GENIUS_GENOENT_13
1002
{
1000
MYREF
1005
1221
1002
}
1002
{
1000
GRP
1005
0
1002
}
1001
GENIUS_GENODEF_13
1002
{
1000
HIER
1070
    10
1002
}
1002
{
1000
MANEDIT
1070
     1
1002
}
1002
{
1000
NOSEL
1070
     0
1002
}
1002
{
1000
BEHIND
1070
     0
1002
}
1002
{
1000
OTHER
1070
     0
1002
}
1002
{
1000
REACTOR
1002
}
  0
POINT
  5
1222
330
1F
100
AcDbEntity
  8
0
 60
     1
100
AcDbPoint
 10
-1588.116290640054
 20
-766.7068263546341
 30
0.0
1001
GENIUS_GENOBJ-N-CRS_13
1002
{
1000
OWNER
1000
GEN
1002
}
1001
GENIUS_GENOLIS_13
1002
{
1000
ENT
1005
0
1005
0
1005
0
1005
1219
1002
}
1001
GENIUS_GENOENT_13
1002
{
1000
MYREF
1005
1222
1002
}
1002
{
1000
GRP
1005
0
1002
}
1001
GENIUS_GENODEF_13
1002
{
1000
HIER
1070
    10
1002
}
1002
{
1000
MANEDIT
1070
     1
1002
}
1002
{
1000
NOSEL
1070
     0
1002
}
1002
{
1000
BEHIND
1070
     0
1002
}
1002
{
1000
OTHER
1070
     0
1002
}
1002
{
1000
REACTOR
1002
}
  0
LINE
  5
1223
330
1F
100
AcDbEntity
  8
LOGO
 62
     4
100
AcDbLine
 10
278.2140022182193
 20
88.03332883502477
 30
0.0
 11
278.2140022182193
 21
78.45151644769392
 31
0.0
  0
LINE
  5
1224
330
1F
100
AcDbEntity
  8
LOGO
 62
     4
100
AcDbLine
 10
260.7925251503459
 20
88.03332883502477
 30
0.0
 11
260.7925251503459
 21
78.45151644769392
 31
0.0
  0
LINE
  5
1225
330
1F
100
AcDbEntity
  8
LOGO
 62
     4
100
AcDbLine
 10
278.2140022182193
 20
78.45151644769392
 30
0.0
 11
260.7925251503459
 21
78.45151644769392
 31
0.0
  0
LINE
  5
1226
330
1F
100
AcDbEntity
  8
LOGO
 62
     4
100
AcDbLine
 10
273.6006284108155
 20
99.79282585583881
 30
0.0
 11
261.1695588926961
 21
99.79282585583881
 31
0.0
  0
LINE
  5
1227
330
1F
100
AcDbEntity
  8
LOGO
 62
     4
100
AcDbLine
 10
273.6006284108155
 20
91.95316117529591
 30
0.0
 11
261.1695588926961
 21
91.95316117529591
 31
0.0
  0
LINE
  5
1228
330
1F
100
AcDbEntity
  8
LOGO
 62
     4
100
AcDbLine
 10
261.1695588926961
 20
99.79282585583881
 30
0.0
 11
261.1695588926961
 21
91.95316117529591
 31
0.0
  0
LINE
  5
1229
330
1F
100
AcDbEntity
  8
LOGO
 62
     4
100
AcDbLine
 10
273.6006284108155
 20
99.79282585583881
 30
0.0
 11
273.6006284108155
 21
91.95316117529591
 31
0.0
  0
LINE
  5
122A
330
1F
100
AcDbEntity
  8
LOGO
 62
     4
100
AcDbLine
 10
267.3850936517557
 20
91.95316117529591
 30
0.0
 11
267.3850936517557
 21
88.03332883502477
 31
0.0
  0
TEXT
  5
122B
330
1F
100
AcDbEntity
  8
LOGO
  6
Continuous
100
AcDbText
 10
262.2129972984269
 20
93.58967971577065
 30
0.0
 40
4.573800000000001
  1
(M)
  7
chineset
100
AcDbText
  0
LINE
  5
122C
330
1F
100
AcDbEntity
  8
LOGO
 62
     4
100
AcDbLine
 10
278.2140022182193
 20
88.03332883502477
 30
0.0
 11
260.7925251503459
 21
88.03332883502477
 31
0.0
  0
TEXT
  5
122D
330
1F
100
AcDbEntity
  8
LOGO
  6
Continuous
100
AcDbText
 10
264.4416125613615
 20
79.80396894746047
 30
171.2662360232331
 40
1.9602
  1
Magnet
 41
0.8
  7
chineset
100
AcDbText
  0
TEXT
  5
122E
330
1F
100
AcDbEntity
  8
LOGO
100
AcDbText
 10
265.7310911092724
 20
83.43775729420917
 30
171.2662360232331
 40
3.266999999999999
  1
附磁石
  7
chineset
100
AcDbText
  0
DIMENSION
  5
1CB1
330
1F
100
AcDbEntity
  8
AM_5
100
AcDbDimension
  2
*D6
 10
266.2693835748269
 20
223.3204694003431
 30
0.0
 11
225.2693835748269
 21
226.0708138885321
 31
0.0
 70
    32
 71
     5
 42
82.0
  3
AM_ISO$0
100
AcDbAlignedDimension
 13
184.2693835748269
 23
207.7004789468279
 33
0.0
 14
266.2693835748269
 24
207.7004789468279
 34
0.0
100
AcDbRotatedDimension
1001
ACAD
1000
DSTYLE
1002
{
1070
   272
1070
     8
1002
}
  0
MTEXT
  5
1CB3
330
1F
100
AcDbEntity
  8
AM_5
100
AcDbMText
 10
274.5992124320842
 20
289.4146729252347
 30
0.0
 40
3.0
 41
0.0
 71
     1
 72
     1
  1
2-M5x0.8x10depth
  7
CHINA
 73
     1
 44
1.0
1001
ACAD
1000
MTEXTBEGIN
1070
    73
1070
     1
1070
    44
1040
1.0
1070
    74
1070
     0
1000
MTEXTEND
  0
LINE
  5
1CB6
330
1F
100
AcDbEntity
  8
0
100
AcDbLine
 10
266.2693835748269
 20
295.6555608638433
 30
0.0
 11
184.2693835748269
 21
295.6555608638433
 31
0.0
  0
LINE
  5
1CB7
330
1F
100
AcDbEntity
  8
0
100
AcDbLine
 10
184.2693835748269
 20
243.6555608638433
 30
0.0
 11
266.2693835748269
 21
243.6555608638433
 31
0.0
  0
LINE
  5
1CB8
330
1F
100
AcDbEntity
  8
0
100
AcDbLine
 10
266.2693835748269
 20
207.7004789468279
 30
0.0
 11
184.2693835748269
 21
207.7004789468279
 31
0.0
  0
LINE
  5
1CB9
330
1F
100
AcDbEntity
  8
0
100
AcDbLine
 10
184.2693835748269
 20
164.7004789468279
 30
0.0
 11
266.2693835748269
 21
164.7004789468279
 31
0.0
  0
DIMENSION
  5
1CBA
330
1F
100
AcDbEntity
  8
AM_5
100
AcDbDimension
  2
*D7
 10
175.5576172115762
 20
207.7004789468279
 30
0.0
 11
172.8076172115762
 21
200.2004789468279
 31
0.0
 70
    32
 71
     5
 42
15.0
  3
AM_ISO$0
100
AcDbAlignedDimension
 13
190.7693835748268
 23
192.7004789468279
 33
0.0
 14
184.2693835748269
 24
207.7004789468279
 34
0.0
 50
90.0
100
AcDbRotatedDimension
1001
ACAD
1000
DSTYLE
1002
{
1070
   272
1070
     8
1002
}
  0
DIMENSION
  5
1CBB
330
1F
100
AcDbEntity
  8
AM_5
100
AcDbDimension
  2
*D8
 10
195.2693835748268
 20
215.3204694003431
 30
0.0
 11
225.2693835748269
 21
218.0704694003431
 31
0.0
 70
    32
 71
     5
 42
60.0
  3
AM_ISO$0
100
AcDbAlignedDimension
 13
255.2693835748268
 23
197.0931534421941
 33
0.0
 14
195.2693835748268
 24
196.7004789468279
 34
0.0
100
AcDbRotatedDimension
1001
ACAD
1000
DSTYLE
1002
{
1070
   272
1070
     8
1002
}
  0
LINE
  5
1CBE
330
1F
100
AcDbEntity
  8
AM_7
100
AcDbLine
 10
225.2693835748269
 20
209.7309514736486
 30
0.0
 11
225.2693835748269
 21
154.9290368843535
 31
0.0
  0
LINE
  5
1CBF
330
1F
100
AcDbEntity
  8
0
100
AcDbLine
 10
184.2693835748269
 20
207.7004789468279
 30
0.0
 11
184.2693835748269
 21
164.7004789468279
 31
0.0
  0
LINE
  5
1CC0
330
1F
100
AcDbEntity
  8
Center
100
AcDbLine
 10
187.7693835748269
 20
175.5389040819174
 30
0.0
 11
187.7693835748268
 21
166.3236815344204
 31
0.0
  0
LINE
  5
1CC1
330
1F
100
AcDbEntity
  8
0
100
AcDbLine
 10
190.269383574827
 20
164.7004789468279
 30
0.0
 11
190.269383574827
 21
142.7004789468279
 31
0.0
  0
LINE
  5
1CC2
330
1F
100
AcDbEntity
  8
0
100
AcDbLine
 10
200.269383574827
 20
164.7004789468279
 30
0.0
 11
200.2693835748268
 21
142.7004789468279
 31
0.0
  0
CIRCLE
  5
1CC3
330
1F
100
AcDbEntity
  8
0
100
AcDbCircle
 10
187.7693835748268
 20
170.7004789468279
 30
0.0
 40
1.0
  0
LINE
  5
1CC4
330
1F
100
AcDbEntity
  8
Center
100
AcDbLine
 10
184.2693835748269
 20
170.7004789468279
 30
0.0
 11
191.7944946691482
 21
170.7004789468279
 31
0.0
  0
LINE
  5
1CC8
330
1F
100
AcDbEntity
  8
Center
100
AcDbLine
 10
194.8416327240784
 20
198.7004789468278
 30
0.0
 11
188.6738447684454
 21
198.7004789468278
 31
0.0
  0
LINE
  5
1CC9
330
1F
100
AcDbEntity
  8
Center
100
AcDbLine
 10
191.2693835748268
 20
200.8034465742705
 30
0.0
 11
191.2693835748268
 21
195.8074287941192
 31
0.0
  0
CIRCLE
  5
1CCA
330
1F
100
AcDbEntity
  8
0
100
AcDbCircle
 10
191.2693835748268
 20
198.7004789468279
 30
0.0
 40
0.75
  0
LINE
  5
1CCC
330
1F
100
AcDbEntity
  8
0
100
AcDbLine
 10
250.269383574827
 20
164.7004789468279
 30
0.0
 11
250.269383574827
 21
142.7004789468279
 31
0.0
  0
LINE
  5
1CD3
330
1F
100
AcDbEntity
  8
0
100
AcDbLine
 10
184.2693835748269
 20
295.6555608638433
 30
0.0
 11
184.2693835748269
 21
243.6555608638433
 31
0.0
  0
ARC
  5
1CD4
330
1F
100
AcDbEntity
  8
DIM
100
AcDbCircle
 10
195.2693835748268
 20
269.6555608638433
 30
0.0
 40
2.5
100
AcDbArc
 50
337.9537653902096
 51
287.43587604593
  0
CIRCLE
  5
1CD5
330
1F
100
AcDbEntity
  8
0
100
AcDbCircle
 10
195.2693835748268
 20
269.6555608638433
 30
0.0
 40
1.75
  0
CIRCLE
  5
1CD7
330
1F
100
AcDbEntity
  8
0
100
AcDbCircle
 10
225.2693835748269
 20
269.6555608638433
 30
0.0
 40
2.0
  0
ARC
  5
1CD9
330
1F
100
AcDbEntity
  8
DIM
100
AcDbCircle
 10
255.2693835748268
 20
269.6555608638433
 30
0.0
 40
2.5
100
AcDbArc
 50
337.9537653902096
 51
287.43587604593
  0
CIRCLE
  5
1CDA
330
1F
100
AcDbEntity
  8
0
100
AcDbCircle
 10
255.2693835748268
 20
269.6555608638433
 30
0.0
 40
1.75
  0
MTEXT
  5
1CDD
330
1F
100
AcDbEntity
  8
AM_5
100
AcDbMText
 10
304.2104858511433
 20
172.1981515001877
 30
0.0
 40
3.0
 41
0.0
 71
     1
 72
     1
  1
2-M5x0.8\P Air port
  7
CHINA
 73
     1
 44
1.0
1001
ACAD
1000
MTEXTBEGIN
1070
    73
1070
     1
1070
    44
1040
1.0
1070
    74
1070
     0
1000
MTEXTEND
  0
ARC
  5
1CDE
330
1F
100
AcDbEntity
  8
0
100
AcDbCircle
 10
389.0986897852696
 20
202.7004789468279
 30
0.0
 40
2.0
100
AcDbArc
 50
48.59037789073025
 51
311.4096221092698
  0
DIMENSION
  5
1CDF
330
1F
100
AcDbEntity
  8
AM_5
100
AcDbDimension
  2
*D9
 10
278.2693835748268
 20
207.7004789468279
 30
0.0
 11
275.5193835748268
 21
186.2004789468279
 31
0.0
 70
    32
 71
     5
 42
43.0
  3
AM_ISO$0
100
AcDbAlignedDimension
 13
266.2693835748269
 23
164.7004789468279
 33
0.0
 14
266.2693835748269
 24
207.7004789468279
 34
0.0
 50
90.0
100
AcDbRotatedDimension
1001
ACAD
1000
DSTYLE
1002
{
1070
   272
1070
     8
1002
}
  0
DIMENSION
  5
1CE0
330
1F
100
AcDbEntity
  8
AM_5
100
AcDbDimension
  2
*D10
 10
403.8215654408019
 20
148.7004789468279
 30
0.0
 11
403.8215654408018
 21
178.2004789468279
 31
0.0
 70
   160
 71
     5
 42
59.00000000000005
  3
AM_ISO$0
100
AcDbAlignedDimension
 13
389.8215654408019
 23
207.700478946828
 33
0.0
 14
380.3215654408018
 24
148.7004789468279
 34
0.0
 50
90.0
100
AcDbRotatedDimension
1001
ACAD
1000
DSTYLE
1002
{
1070
   272
1070
     8
1002
}
  0
DIMENSION
  5
1CE1
330
1F
100
AcDbEntity
  8
AM_5
100
AcDbDimension
  2
*D11
 10
328.9463847295524
 20
207.7004789468279
 30
0.0
 11
326.1963847295523
 21
202.7004789468279
 31
0.0
 70
    32
 71
     5
 42
10.0
  3
AM_ISO$0
100
AcDbAlignedDimension
 13
342.8215654408018
 23
197.7004789468279
 33
0.0
 14
337.8215654408018
 24
207.7004789468279
 34
0.0
 50
90.0
100
AcDbRotatedDimension
1001
ACAD
1000
DSTYLE
1002
{
1070
   272
1070
     8
1002
}
  0
CIRCLE
  5
1CE6
330
1F
100
AcDbEntity
  8
0
100
AcDbCircle
 10
378.6215654408019
 20
194.5004789468279
 30
0.0
 40
9.5
  0
LINE
  5
1CE7
330
1F
100
AcDbEntity
  8
AM_7
100
AcDbLine
 10
378.6215654408019
 20
181.3198050178215
 30
0.0
 11
378.6215654408019
 21
205.1911987331989
 31
0.0
  0
LINE
  5
1CE8
330
1F
100
AcDbEntity
  8
AM_7
100
AcDbLine
 10
365.8215654408018
 20
141.2164343679147
 30
0.0
 11
365.8215654408018
 21
168.0116303692617
 31
0.0
  0
LINE
  5
1CE9
330
1F
100
AcDbEntity
  8
0
100
AcDbLine
 10
266.2693835748269
 20
164.7004789468279
 30
0.0
 11
266.2693835748269
 21
207.7004789468279
 31
0.0
  0
LINE
  5
1CEA
330
1F
100
AcDbEntity
  8
0
100
AcDbLine
 10
335.8215654408018
 20
205.7004789468279
 30
0.0
 11
335.8215654408019
 21
166.7004789468279
 31
0.0
  0
MTEXT
  5
1CEC
330
1F
100
AcDbEntity
  8
AM_5
100
AcDbMText
 10
388.8906835395309
 20
138.9323735902213
 30
0.0
 40
3.0
 41
0.0
 71
     1
 72
     1
  1
2x2-M5x0.8
  7
CHINA
 73
     1
 44
1.0
1001
ACAD
1000
MTEXTBEGIN
1070
    73
1070
     1
1070
    44
1040
1.0
1070
    74
1070
     0
1000
MTEXTEND
  0
DIMENSION
  5
1CED
330
1F
100
AcDbEntity
  8
AM_5
100
AcDbDimension
  2
*D12
 10
383.3215654408019
 20
122.7004789468279
 30
0.0
 11
365.8215654408018
 21
122.7004789468279
 31
0.0
 70
   160
 71
     5
 42
35.00000000000011
  3
AM_ISO$0
100
AcDbAlignedDimension
 13
348.3215654408018
 23
142.7004789468279
 33
0.0
 14
383.3215654408019
 24
142.7004789468279
 34
0.0
100
AcDbRotatedDimension
1001
ACAD
1000
DSTYLE
1002
{
1070
   272
1070
     8
1002
}
  0
LINE
  5
1CEF
330
1F
100
AcDbEntity
  8
AM_7
100
AcDbLine
 10
390.0754880210998
 20
194.5004789468279
 30
0.0
 11
367.5982092677954
 21
194.5004789468279
 31
0.0
  0
LINE
  5
1CF1
330
1F
100
AcDbEntity
  8
0
100
AcDbLine
 10
337.8215654408019
 20
164.7004789468279
 30
0.0
 11
389.8215654408019
 21
164.7004789468279
 31
0.0
  0
LINE
  5
1CF2
330
1F
100
AcDbEntity
  8
Center
100
AcDbLine
 10
262.7693835748269
 20
175.226523585214
 30
0.0
 11
262.7693835748269
 21
166.3236815344204
 31
0.0
  0
LINE
  5
1CF3
330
1F
100
AcDbEntity
  8
0
100
AcDbLine
 10
260.269383574827
 20
164.7004789468279
 30
0.0
 11
260.269383574827
 21
142.7004789468279
 31
0.0
  0
LINE
  5
1CF4
330
1F
100
AcDbEntity
  8
Center
100
AcDbLine
 10
258.7093530052678
 20
170.7004789468279
 30
0.0
 11
266.2693835748269
 21
170.7004789468279
 31
0.0
  0
CIRCLE
  5
1CF5
330
1F
100
AcDbEntity
  8
0
100
AcDbCircle
 10
262.7693835748269
 20
170.7004789468279
 30
0.0
 40
1.0
  0
CIRCLE
  5
1CF6
330
1F
100
AcDbEntity
  8
0
100
AcDbCircle
 10
375.8215654408018
 20
170.7004789468279
 30
0.0
 40
3.0
  0
CIRCLE
  5
1CF7
330
1F
100
AcDbEntity
  8
0
100
AcDbCircle
 10
355.8215654408018
 20
170.7004789468279
 30
0.0
 40
3.0
  0
ARC
  5
1CFE
330
1F
100
AcDbEntity
  8
0
100
AcDbCircle
 10
337.8215654408019
 20
166.7004789468279
 30
0.0
 40
2.0
100
AcDbArc
 50
180.0
 51
270.0
  0
TEXT
  5
1D00
330
1F
100
AcDbEntity
  8
AM_5
100
AcDbText
 10
368.8306820462178
 20
123.5722937942518
 30
0.0
 40
1.75
  1
-0.1
  7
CHINA
100
AcDbText
  0
TEXT
  5
1D01
330
1F
100
AcDbEntity
  8
AM_5
100
AcDbText
 10
370.8920325652033
 20
125.8335896665237
 30
0.0
 40
1.75
  1
0
  7
CHINA
100
AcDbText
  0
LINE
  5
1D0B
330
1F
100
AcDbEntity
  8
0
100
AcDbLine
 10
391.8215654408019
 20
166.7004789468279
 30
0.0
 11
391.8215654408019
 21
184.8004789468278
 31
0.0
  0
ARC
  5
1D0C
330
1F
100
AcDbEntity
  8
0
100
AcDbCircle
 10
389.8215654408019
 20
166.7004789468279
 30
0.0
 40
2.0
100
AcDbArc
 50
270.0
 51
0.0
  0
ARC
  5
1D0D
330
1F
100
AcDbEntity
  8
0
100
AcDbCircle
 10
389.0986897852696
 20
186.3004789468278
 30
0.0
 40
2.0
100
AcDbArc
 50
48.59037789073025
 51
311.4096221092698
  0
LINE
  5
1D0E
330
1F
100
AcDbEntity
  8
0
100
AcDbLine
 10
390.4215654408019
 20
184.8004789468278
 30
0.0
 11
391.8215654408019
 21
184.8004789468278
 31
0.0
  0
LINE
  5
1D0F
330
1F
100
AcDbEntity
  8
0
100
AcDbLine
 10
390.4215654408019
 20
187.8004789468278
 30
0.0
 11
391.8215654408019
 21
187.8004789468278
 31
0.0
  0
LINE
  5
1D10
330
1F
100
AcDbEntity
  8
AM_7
100
AcDbLine
 10
394.1333078573746
 20
186.3004789468278
 30
0.0
 11
386.4231072529075
 21
186.3004789468278
 31
0.0
  0
LINE
  5
1D11
330
1F
100
AcDbEntity
  8
0
100
AcDbLine
 10
390.4215654408019
 20
201.200478946828
 30
0.0
 11
391.8215654408019
 21
201.200478946828
 31
0.0
  0
LINE
  5
1D12
330
1F
100
AcDbEntity
  8
0
100
AcDbLine
 10
391.8215654408019
 20
187.8004789468278
 30
0.0
 11
391.8215654408019
 21
201.200478946828
 31
0.0
  0
DIMENSION
  5
1D14
330
1F
100
AcDbEntity
  8
AM_5
100
AcDbDimension
  2
*D13
 10
391.8215654408019
 20
223.3204694003431
 30
0.0
 11
363.8215654408019
 21
226.0704694003431
 31
0.0
 70
    32
 71
     5
 42
56.00000000000012
  3
AM_ISO$0
100
AcDbAlignedDimension
 13
335.8215654408018
 23
214.0520319613246
 33
0.0
 14
391.8215654408019
 24
205.700478946828
 34
0.0
100
AcDbRotatedDimension
1001
ACAD
1000
DSTYLE
1002
{
1070
   272
1070
     8
1002
}
  0
LINE
  5
1D15
330
1F
100
AcDbEntity
  8
0
100
AcDbLine
 10
389.8215654408019
 20
207.700478946828
 30
0.0
 11
337.8215654408018
 21
207.7004789468279
 31
0.0
  0
LINE
  5
1D16
330
1F
100
AcDbEntity
  8
0
100
AcDbLine
 10
266.2693835748269
 20
243.6555608638433
 30
0.0
 11
266.2693835748269
 21
295.6555608638433
 31
0.0
  0
DIMENSION
  5
1D17
330
1F
100
AcDbEntity
  8
AM_5
100
AcDbDimension
  2
*D14
 10
335.8215654408018
 20
215.3204694003431
 30
0.0
 11
341.5715654408018
 21
218.0704694003431
 31
0.0
 70
    32
 71
     5
 42
11.5
  3
AM_ISO$0
100
AcDbAlignedDimension
 13
347.3215654408018
 23
202.2004789468279
 33
0.0
 14
335.8215654408018
 24
205.7004789468279
 34
0.0
100
AcDbRotatedDimension
1001
ACAD
1000
DSTYLE
1002
{
1070
   272
1070
     8
1002
}
  0
ARC
  5
1D18
330
1F
100
AcDbEntity
  8
0
100
AcDbCircle
 10
337.8215654408018
 20
205.7004789468279
 30
0.0
 40
2.0
100
AcDbArc
 50
90.0
 51
180.0
  0
LINE
  5
1D19
330
1F
100
AcDbEntity
  8
0
100
AcDbLine
 10
390.4215654408019
 20
204.200478946828
 30
0.0
 11
391.8215654408019
 21
204.200478946828
 31
0.0
  0
LINE
  5
1D1A
330
1F
100
AcDbEntity
  8
AM_7
100
AcDbLine
 10
394.1333078573746
 20
202.7004789468279
 30
0.0
 11
386.4231072529075
 21
202.7004789468279
 31
0.0
  0
ARC
  5
1D1B
330
1F
100
AcDbEntity
  8
0
100
AcDbCircle
 10
389.8215654408019
 20
205.700478946828
 30
0.0
 40
2.0
100
AcDbArc
 50
0.0
 51
90.0
  0
LINE
  5
1D1C
330
1F
100
AcDbEntity
  8
0
100
AcDbLine
 10
391.8215654408019
 20
204.200478946828
 30
0.0
 11
391.8215654408019
 21
205.700478946828
 31
0.0
  0
LINE
  5
1D1D
102
{ACAD_REACTORS
330
2125
102
}
330
1F
100
AcDbEntity
  8
0
100
AcDbLine
 10
190.269383574827
 20
142.7004789468279
 30
0.0
 11
200.2693835748268
 21
142.7004789468279
 31
0.0
  0
LINE
  5
1D1E
102
{ACAD_REACTORS
330
2125
102
}
330
1F
100
AcDbEntity
  8
0
100
AcDbLine
 10
250.269383574827
 20
142.7004789468279
 30
0.0
 11
260.2693835748269
 21
142.7004789468279
 31
0.0
  0
DIMENSION
  5
1D1F
330
1F
100
AcDbEntity
  8
AM_5
100
AcDbDimension
  2
*D15
 10
278.2693835748268
 20
142.7004789468279
 30
0.0
 11
275.5190390866378
 21
153.7004789468279
 31
0.0
 70
    32
 71
     5
 42
22.0
  3
AM_ISO$0
100
AcDbAlignedDimension
 13
266.2693835748269
 23
164.7004789468279
 33
0.0
 14
260.269383574827
 24
142.7004789468279
 34
0.0
 50
90.0
100
AcDbRotatedDimension
1001
ACAD
1000
DSTYLE
1002
{
1070
   272
1070
     8
1002
}
  0
DIMENSION
  5
1D20
330
1F
100
AcDbEntity
  8
AM_5
100
AcDbDimension
  2
*D16
 10
260.2693835748269
 20
130.7004789468279
 30
0.0
 11
255.2693835748269
 21
133.4504789468279
 31
0.0
 70
    32
 71
     5
 42
9.999999999999943
  3
AM_ISO$0
100
AcDbAlignedDimension
 13
250.269383574827
 23
142.7004789468279
 33
0.0
 14
260.2693835748269
 24
142.7004789468279
 34
0.0
100
AcDbRotatedDimension
1001
ACAD
1000
DSTYLE
1002
{
1070
   272
1070
     8
1002
}
  0
LINE
  5
1D21
330
1F
100
AcDbEntity
  8
AM_5
100
AcDbLine
 10
200.2693835748268
 20
141.7004789468279
 30
0.0
 11
200.2693835748268
 21
134.1560040343487
 31
0.0
  0
LINE
  5
1D22
330
1F
100
AcDbEntity
  8
AM_5
100
AcDbLine
 10
250.269383574827
 20
141.7004789468279
 30
0.0
 11
250.269383574827
 21
134.1560040343487
 31
0.0
  0
DIMENSION
  5
1D26
330
1F
100
AcDbEntity
  8
AM_5
100
AcDbDimension
  2
*D17
 10
200.2693835748268
 20
130.7004789468279
 30
0.0
 11
195.2693835748269
 21
133.4504789468279
 31
0.0
 70
    32
 71
     5
 42
9.999999999999829
  3
AM_ISO$0
100
AcDbAlignedDimension
 13
190.269383574827
 23
142.7004789468279
 33
0.0
 14
200.2693835748268
 24
142.7004789468279
 34
0.0
100
AcDbRotatedDimension
1001
ACAD
1000
DSTYLE
1002
{
1070
   272
1070
     8
1002
}
  0
LINE
  5
1D27
330
1F
100
AcDbEntity
  8
0
100
AcDbLine
 39
3.299999999999999
 10
348.3215654408018
 20
142.7004789468279
 30
0.0
 11
383.3215654408018
 21
142.7004789468279
 31
0.0
  0
DIMENSION
  5
1D28
330
1F
100
AcDbEntity
  8
AM_5
100
AcDbDimension
  2
*D18
 10
375.8215654408018
 20
130.7004789468279
 30
0.0
 11
365.8215654408018
 21
130.7004789468279
 31
0.0
 70
   160
 71
     5
 42
20.0
  3
AM_ISO$0
100
AcDbAlignedDimension
 13
355.8215654408018
 23
144.2004789468279
 33
0.0
 14
375.8215654408018
 24
144.2004789468279
 34
0.0
100
AcDbRotatedDimension
1001
ACAD
1000
DSTYLE
1002
{
1070
   272
1070
     8
1002
}
  0
LINE
  5
1D29
330
1F
100
AcDbEntity
  8
0
100
AcDbLine
 10
348.3215654408019
 20
142.7004789468279
 30
0.0
 11
348.3215654408019
 21
164.7004789468279
 31
0.0
  0
LINE
  5
1D2A
330
1F
100
AcDbEntity
  8
0
100
AcDbLine
 10
383.3215654408019
 20
142.7004789468279
 30
0.0
 11
383.3215654408019
 21
164.7004789468279
 31
0.0
  0
DIMENSION
  5
1D2B
330
1F
100
AcDbEntity
  8
AM_5
100
AcDbDimension
  2
*D19
 10
347.3215654408017
 20
215.3204694003431
 30
0.0
 11
353.5715654408018
 21
218.0708138885321
 31
0.0
 70
    32
 71
     5
 42
12.50000000000011
  3
AM_ISO$0
100
AcDbAlignedDimension
 13
359.8215654408018
 23
191.71602669279
 33
0.0
 14
347.3215654408017
 24
207.7004789468279
 34
0.0
100
AcDbRotatedDimension
1001
ACAD
1000
DSTYLE
1002
{
1070
   272
1070
     8
1002
}
  0
DIMENSION
  5
1D2C
330
1F
100
AcDbEntity
  8
AM_5
100
AcDbDimension
  2
*D20
 10
320.9463847295524
 20
187.2004789468279
 30
0.0
 11
318.1960402413633
 21
197.4504789468279
 31
0.0
 70
    32
 71
     5
 42
20.5
  3
AM_ISO$0
100
AcDbAlignedDimension
 13
337.8215654408018
 23
207.7004789468279
 33
0.0
 14
355.880824551869
 24
187.2004789468279
 34
0.0
 50
90.0
100
AcDbRotatedDimension
1001
ACAD
1000
DSTYLE
1002
{
1070
   272
1070
     8
1002
}
  0
MTEXT
  5
1D2F
330
1F
100
AcDbEntity
  8
AM_5
100
AcDbMText
 10
244.1637185709586
 20
238.5205780777937
 30
0.0
 40
3.0
 41
0.0
 71
     1
 72
     1
  1
%%c3h9x6depth
  7
CHINA
 73
     1
 44
1.0
1001
ACAD
1000
MTEXTBEGIN
1070
    73
1070
     1
1070
    44
1040
1.0
1070
    74
1070
     0
1000
MTEXTEND
  0
DIMENSION
  5
1D30
330
1F
100
AcDbEntity
  8
AM_5
100
AcDbDimension
  2
*D21
 10
255.2693835748268
 20
307.6555608638433
 30
0.0
 11
225.2693835748269
 21
310.4055608638433
 31
0.0
 70
    32
 71
     5
 42
60.0
  3
AM_ISO$0
100
AcDbAlignedDimension
 13
195.2693835748268
 23
274.1555608638433
 33
0.0
 14
255.2693835748268
 24
274.1555608638433
 34
0.0
100
AcDbRotatedDimension
1001
ACAD
1000
DSTYLE
1002
{
1070
   272
1070
     8
1002
}
  0
LINE
  5
1F6D
330
1F
100
AcDbEntity
  8
AM_7
  6
AM_ISO08W050x2
100
AcDbLine
 10
195.2693835748268
 20
269.6555608638433
 30
0.0
 11
199.7693835748268
 21
269.6555608638433
 31
0.0
1001
GENIUS_GENOREF_13
1005
1F71
  0
LINE
  5
1F6E
330
1F
100
AcDbEntity
  8
AM_7
  6
AM_ISO08W050x2
100
AcDbLine
 10
195.2693835748268
 20
269.6555608638433
 30
0.0
 11
195.2693835748268
 21
274.1555608638433
 31
0.0
1001
GENIUS_GENOREF_13
1005
1F71
  0
LINE
  5
1F6F
330
1F
100
AcDbEntity
  8
AM_7
  6
AM_ISO08W050x2
100
AcDbLine
 10
195.2693835748268
 20
269.6555608638433
 30
0.0
 11
190.7693835748268
 21
269.6555608638433
 31
0.0
1001
GENIUS_GENOREF_13
1005
1F71
  0
LINE
  5
1F70
330
1F
100
AcDbEntity
  8
AM_7
  6
AM_ISO08W050x2
100
AcDbLine
 10
195.2693835748268
 20
269.6555608638433
 30
0.0
 11
195.2693835748268
 21
265.1555608638433
 31
0.0
1001
GENIUS_GENOREF_13
1005
1F71
  0
POINT
  5
1F71
330
1F
100
AcDbEntity
  8
0
 60
     1
100
AcDbPoint
 10
0.0
 20
0.0
 30
0.0
1001
GENIUS_GENODEF_13
1002
{
1000
HIER
1070
    10
1002
}
1002
{
1000
MANEDIT
1070
     0
1002
}
1002
{
1000
NOSEL
1070
     0
1002
}
1002
{
1000
BEHIND
1070
     0
1002
}
1002
{
1000
OTHER
1070
     0
1002
}
1002
{
1000
REACTOR
1002
}
1001
GENIUS_GENOENT_13
1002
{
1000
MYREF
1005
1F71
1002
}
1002
{
1000
GRP
1005
0
1002
}
1001
GENIUS_GENOBJ-N-CRS_13
1002
{
1000
OWNER
1000
GEN
1002
}
1001
GENIUS_GENOLIS_13
1002
{
1000
ENT
1005
1F70
1005
1F6F
1005
1F6E
1005
1F6D
1002
}
  0
LINE
  5
1F7F
330
1F
100
AcDbEntity
  8
AM_7
  6
AM_ISO08W050x2
100
AcDbLine
 10
255.2693835748268
 20
269.6555608638433
 30
0.0
 11
259.7693835748269
 21
269.6555608638433
 31
0.0
1001
GENIUS_GENOREF_13
1005
1F83
  0
LINE
  5
1F80
330
1F
100
AcDbEntity
  8
AM_7
  6
AM_ISO08W050x2
100
AcDbLine
 10
255.2693835748268
 20
269.6555608638433
 30
0.0
 11
255.2693835748268
 21
274.1555608638433
 31
0.0
1001
GENIUS_GENOREF_13
1005
1F83
  0
LINE
  5
1F81
330
1F
100
AcDbEntity
  8
AM_7
  6
AM_ISO08W050x2
100
AcDbLine
 10
255.2693835748268
 20
269.6555608638433
 30
0.0
 11
250.7693835748268
 21
269.6555608638433
 31
0.0
1001
GENIUS_GENOREF_13
1005
1F83
  0
LINE
  5
1F82
330
1F
100
AcDbEntity
  8
AM_7
  6
AM_ISO08W050x2
100
AcDbLine
 10
255.2693835748268
 20
269.6555608638433
 30
0.0
 11
255.2693835748268
 21
265.1555608638433
 31
0.0
1001
GENIUS_GENOREF_13
1005
1F83
  0
POINT
  5
1F83
330
1F
100
AcDbEntity
  8
0
 60
     1
100
AcDbPoint
 10
0.0
 20
0.0
 30
0.0
1001
GENIUS_GENOENT_13
1002
{
1000
MYREF
1005
1F83
1002
}
1002
{
1000
GRP
1005
0
1002
}
1001
GENIUS_GENOLIS_13
1002
{
1000
ENT
1005
1F82
1005
1F81
1005
1F80
1005
1F7F
1002
}
1001
GENIUS_GENODEF_13
1002
{
1000
HIER
1070
    10
1002
}
1002
{
1000
MANEDIT
1070
     0
1002
}
1002
{
1000
NOSEL
1070
     0
1002
}
1002
{
1000
BEHIND
1070
     0
1002
}
1002
{
1000
OTHER
1070
     0
1002
}
1002
{
1000
REACTOR
1002
}
1001
GENIUS_GENOBJ-N-CRS_13
1002
{
1000
OWNER
1000
GEN
1002
}
  0
LINE
  5
1FA3
330
1F
100
AcDbEntity
  8
AM_7
  6
AM_ISO08W050x2
100
AcDbLine
 10
195.2693835748268
 20
192.7004789468279
 30
0.0
 11
199.7693835748268
 21
192.7004789468279
 31
0.0
1001
GENIUS_GENOREF_13
1005
1FA7
  0
LINE
  5
1FA4
330
1F
100
AcDbEntity
  8
AM_7
  6
AM_ISO08W050x2
100
AcDbLine
 10
195.2693835748268
 20
192.7004789468279
 30
0.0
 11
195.2693835748268
 21
197.2004789468279
 31
0.0
1001
GENIUS_GENOREF_13
1005
1FA7
  0
LINE
  5
1FA5
330
1F
100
AcDbEntity
  8
AM_7
  6
AM_ISO08W050x2
100
AcDbLine
 10
195.2693835748268
 20
192.7004789468279
 30
0.0
 11
190.7693835748268
 21
192.7004789468279
 31
0.0
1001
GENIUS_GENOREF_13
1005
1FA7
  0
LINE
  5
1FA6
330
1F
100
AcDbEntity
  8
AM_7
  6
AM_ISO08W050x2
100
AcDbLine
 10
195.2693835748268
 20
192.7004789468279
 30
0.0
 11
195.2693835748268
 21
188.2004789468279
 31
0.0
1001
GENIUS_GENOREF_13
1005
1FA7
  0
POINT
  5
1FA7
330
1F
100
AcDbEntity
  8
0
 60
     1
100
AcDbPoint
 10
0.0
 20
0.0
 30
0.0
1001
GENIUS_GENODEF_13
1002
{
1000
HIER
1070
    10
1002
}
1002
{
1000
MANEDIT
1070
     0
1002
}
1002
{
1000
NOSEL
1070
     0
1002
}
1002
{
1000
BEHIND
1070
     0
1002
}
1002
{
1000
OTHER
1070
     0
1002
}
1002
{
1000
REACTOR
1002
}
1001
GENIUS_GENOENT_13
1002
{
1000
MYREF
1005
1FA7
1002
}
1002
{
1000
GRP
1005
0
1002
}
1001
GENIUS_GENOBJ-N-CRS_13
1002
{
1000
OWNER
1000
GEN
1002
}
1001
GENIUS_GENOLIS_13
1002
{
1000
ENT
1005
1FA6
1005
1FA5
1005
1FA4
1005
1FA3
1002
}
  0
LINE
  5
1FB5
330
1F
100
AcDbEntity
  8
AM_7
  6
AM_ISO08W050x2
100
AcDbLine
 10
255.2693835748268
 20
192.7004789468279
 30
0.0
 11
259.7693835748269
 21
192.7004789468279
 31
0.0
1001
GENIUS_GENOREF_13
1005
1FB9
  0
LINE
  5
1FB6
330
1F
100
AcDbEntity
  8
AM_7
  6
AM_ISO08W050x2
100
AcDbLine
 10
255.2693835748268
 20
192.7004789468279
 30
0.0
 11
255.2693835748268
 21
197.2004789468279
 31
0.0
1001
GENIUS_GENOREF_13
1005
1FB9
  0
LINE
  5
1FB7
330
1F
100
AcDbEntity
  8
AM_7
  6
AM_ISO08W050x2
100
AcDbLine
 10
255.2693835748268
 20
192.7004789468279
 30
0.0
 11
250.7693835748268
 21
192.7004789468279
 31
0.0
1001
GENIUS_GENOREF_13
1005
1FB9
  0
LINE
  5
1FB8
330
1F
100
AcDbEntity
  8
AM_7
  6
AM_ISO08W050x2
100
AcDbLine
 10
255.2693835748268
 20
192.7004789468279
 30
0.0
 11
255.2693835748268
 21
188.2004789468279
 31
0.0
1001
GENIUS_GENOREF_13
1005
1FB9
  0
POINT
  5
1FB9
330
1F
100
AcDbEntity
  8
0
 60
     1
100
AcDbPoint
 10
0.0
 20
0.0
 30
0.0
1001
GENIUS_GENOENT_13
1002
{
1000
MYREF
1005
1FB9
1002
}
1002
{
1000
GRP
1005
0
1002
}
1001
GENIUS_GENOBJ-N-CRS_13
1002
{
1000
OWNER
1000
GEN
1002
}
1001
GENIUS_GENODEF_13
1002
{
1000
HIER
1070
    10
1002
}
1002
{
1000
MANEDIT
1070
     0
1002
}
1002
{
1000
NOSEL
1070
     0
1002
}
1002
{
1000
BEHIND
1070
     0
1002
}
1002
{
1000
OTHER
1070
     0
1002
}
1002
{
1000
REACTOR
1002
}
1001
GENIUS_GENOLIS_13
1002
{
1000
ENT
1005
1FB8
1005
1FB7
1005
1FB6
1005
1FB5
1002
}
  0
LINE
  5
1FD9
330
1F
100
AcDbEntity
  8
AM_7
  6
AM_ISO08W050x2
100
AcDbLine
 10
347.3215654408018
 20
197.7004789468279
 30
0.0
 11
351.8215654408018
 21
197.7004789468279
 31
0.0
1001
GENIUS_GENOREF_13
1005
1FDD
  0
LINE
  5
1FDA
330
1F
100
AcDbEntity
  8
AM_7
  6
AM_ISO08W050x2
100
AcDbLine
 10
347.3215654408018
 20
197.7004789468279
 30
0.0
 11
347.3215654408018
 21
202.2004789468279
 31
0.0
1001
GENIUS_GENOREF_13
1005
1FDD
  0
LINE
  5
1FDB
330
1F
100
AcDbEntity
  8
AM_7
  6
AM_ISO08W050x2
100
AcDbLine
 10
347.3215654408018
 20
197.7004789468279
 30
0.0
 11
342.8215654408018
 21
197.7004789468279
 31
0.0
1001
GENIUS_GENOREF_13
1005
1FDD
  0
LINE
  5
1FDC
330
1F
100
AcDbEntity
  8
AM_7
  6
AM_ISO08W050x2
100
AcDbLine
 10
347.3215654408018
 20
197.7004789468279
 30
0.0
 11
347.3215654408018
 21
193.2004789468279
 31
0.0
1001
GENIUS_GENOREF_13
1005
1FDD
  0
POINT
  5
1FDD
330
1F
100
AcDbEntity
  8
0
 60
     1
100
AcDbPoint
 10
0.0
 20
0.0
 30
0.0
1001
GENIUS_GENODEF_13
1002
{
1000
HIER
1070
    10
1002
}
1002
{
1000
MANEDIT
1070
     0
1002
}
1002
{
1000
NOSEL
1070
     0
1002
}
1002
{
1000
BEHIND
1070
     0
1002
}
1002
{
1000
OTHER
1070
     0
1002
}
1002
{
1000
REACTOR
1002
}
1001
GENIUS_GENOBJ-N-CRS_13
1002
{
1000
OWNER
1000
GEN
1002
}
1001
GENIUS_GENOLIS_13
1002
{
1000
ENT
1005
1FDC
1005
1FDB
1005
1FDA
1005
1FD9
1002
}
1001
GENIUS_GENOENT_13
1002
{
1000
MYREF
1005
1FDD
1002
}
1002
{
1000
GRP
1005
0
1002
}
  0
LINE
  5
2006
330
1F
100
AcDbEntity
  8
AM_7
100
AcDbLine
 10
359.8215654408018
 20
187.2004789468279
 30
0.0
 11
364.3215654408018
 21
187.2004789468279
 31
0.0
1001
GENIUS_GENOREF_13
1005
200A
  0
LINE
  5
2007
330
1F
100
AcDbEntity
  8
AM_7
100
AcDbLine
 10
359.8215654408018
 20
187.2004789468279
 30
0.0
 11
359.8215654408018
 21
191.7004789468279
 31
0.0
1001
GENIUS_GENOREF_13
1005
200A
  0
LINE
  5
2008
330
1F
100
AcDbEntity
  8
AM_7
100
AcDbLine
 10
359.8215654408018
 20
187.2004789468279
 30
0.0
 11
355.3215654408018
 21
187.2004789468279
 31
0.0
1001
GENIUS_GENOREF_13
1005
200A
  0
LINE
  5
2009
330
1F
100
AcDbEntity
  8
AM_7
100
AcDbLine
 10
359.8215654408018
 20
187.2004789468279
 30
0.0
 11
359.8215654408018
 21
182.7004789468279
 31
0.0
1001
GENIUS_GENOREF_13
1005
200A
  0
POINT
  5
200A
330
1F
100
AcDbEntity
  8
0
 60
     1
100
AcDbPoint
 10
0.0
 20
0.0
 30
0.0
1001
GENIUS_GENOLIS_13
1002
{
1000
ENT
1005
2009
1005
2008
1005
2007
1005
2006
1002
}
1001
GENIUS_GENODEF_13
1002
{
1000
HIER
1070
    10
1002
}
1002
{
1000
MANEDIT
1070
     0
1002
}
1002
{
1000
NOSEL
1070
     0
1002
}
1002
{
1000
BEHIND
1070
     0
1002
}
1002
{
1000
OTHER
1070
     0
1002
}
1002
{
1000
REACTOR
1002
}
1001
GENIUS_GENOENT_13
1002
{
1000
MYREF
1005
200A
1002
}
1002
{
1000
GRP
1005
0
1002
}
1001
GENIUS_GENOBJ-N-CRS_13
1002
{
1000
OWNER
1000
GEN
1002
}
  0
LINE
  5
2018
330
1F
100
AcDbEntity
  8
AM_7
  6
AM_ISO08W050x2
100
AcDbLine
 10
355.8215654408018
 20
170.7004789468279
 30
0.0
 11
360.8215654408018
 21
170.7004789468279
 31
0.0
1001
GENIUS_GENOREF_13
1005
201C
  0
LINE
  5
2019
330
1F
100
AcDbEntity
  8
AM_7
  6
AM_ISO08W050x2
100
AcDbLine
 10
355.8215654408018
 20
170.7004789468279
 30
0.0
 11
355.8215654408018
 21
175.7004789468279
 31
0.0
1001
GENIUS_GENOREF_13
1005
201C
  0
LINE
  5
201A
330
1F
100
AcDbEntity
  8
AM_7
  6
AM_ISO08W050x2
100
AcDbLine
 10
355.8215654408018
 20
170.7004789468279
 30
0.0
 11
350.8215654408018
 21
170.7004789468279
 31
0.0
1001
GENIUS_GENOREF_13
1005
201C
  0
LINE
  5
201B
330
1F
100
AcDbEntity
  8
AM_7
  6
AM_ISO08W050x2
100
AcDbLine
 10
355.8215654408018
 20
170.7004789468279
 30
0.0
 11
355.8215654408018
 21
165.7004789468279
 31
0.0
1001
GENIUS_GENOREF_13
1005
201C
  0
POINT
  5
201C
330
1F
100
AcDbEntity
  8
0
 60
     1
100
AcDbPoint
 10
0.0
 20
0.0
 30
0.0
1001
GENIUS_GENODEF_13
1002
{
1000
HIER
1070
    10
1002
}
1002
{
1000
MANEDIT
1070
     0
1002
}
1002
{
1000
NOSEL
1070
     0
1002
}
1002
{
1000
BEHIND
1070
     0
1002
}
1002
{
1000
OTHER
1070
     0
1002
}
1002
{
1000
REACTOR
1002
}
1001
GENIUS_GENOENT_13
1002
{
1000
MYREF
1005
201C
1002
}
1002
{
1000
GRP
1005
0
1002
}
1001
GENIUS_GENOBJ-N-CRS_13
1002
{
1000
OWNER
1000
GEN
1002
}
1001
GENIUS_GENOLIS_13
1002
{
1000
ENT
1005
201B
1005
201A
1005
2019
1005
2018
1002
}
  0
LINE
  5
202A
330
1F
100
AcDbEntity
  8
AM_7
  6
AM_ISO08W050x2
100
AcDbLine
 10
375.8215654408018
 20
170.7004789468279
 30
0.0
 11
380.8215654408018
 21
170.7004789468279
 31
0.0
1001
GENIUS_GENOREF_13
1005
202E
  0
LINE
  5
202B
330
1F
100
AcDbEntity
  8
AM_7
  6
AM_ISO08W050x2
100
AcDbLine
 10
375.8215654408018
 20
170.7004789468279
 30
0.0
 11
375.8215654408018
 21
175.7004789468279
 31
0.0
1001
GENIUS_GENOREF_13
1005
202E
  0
LINE
  5
202C
330
1F
100
AcDbEntity
  8
AM_7
  6
AM_ISO08W050x2
100
AcDbLine
 10
375.8215654408018
 20
170.7004789468279
 30
0.0
 11
370.8215654408018
 21
170.7004789468279
 31
0.0
1001
GENIUS_GENOREF_13
1005
202E
  0
LINE
  5
202D
330
1F
100
AcDbEntity
  8
AM_7
  6
AM_ISO08W050x2
100
AcDbLine
 10
375.8215654408018
 20
170.7004789468279
 30
0.0
 11
375.8215654408018
 21
165.7004789468279
 31
0.0
1001
GENIUS_GENOREF_13
1005
202E
  0
POINT
  5
202E
330
1F
100
AcDbEntity
  8
0
 60
     1
100
AcDbPoint
 10
0.0
 20
0.0
 30
0.0
1001
GENIUS_GENOBJ-N-CRS_13
1002
{
1000
OWNER
1000
GEN
1002
}
1001
GENIUS_GENOENT_13
1002
{
1000
MYREF
1005
202E
1002
}
1002
{
1000
GRP
1005
0
1002
}
1001
GENIUS_GENODEF_13
1002
{
1000
HIER
1070
    10
1002
}
1002
{
1000
MANEDIT
1070
     0
1002
}
1002
{
1000
NOSEL
1070
     0
1002
}
1002
{
1000
BEHIND
1070
     0
1002
}
1002
{
1000
OTHER
1070
     0
1002
}
1002
{
1000
REACTOR
1002
}
1001
GENIUS_GENOLIS_13
1002
{
1000
ENT
1005
202D
1005
202C
1005
202B
1005
202A
1002
}
  0
LINE
  5
203C
330
1F
100
AcDbEntity
  8
AM_7
  6
AM_ISO08W050x2
100
AcDbLine
 10
375.8215654408018
 20
148.7004789468279
 30
0.0
 11
380.3215654408018
 21
148.7004789468279
 31
0.0
1001
GENIUS_GENOREF_13
1005
2040
  0
LINE
  5
203D
330
1F
100
AcDbEntity
  8
AM_7
  6
AM_ISO08W050x2
100
AcDbLine
 10
375.8215654408018
 20
148.7004789468279
 30
0.0
 11
375.8215654408018
 21
153.2004789468279
 31
0.0
1001
GENIUS_GENOREF_13
1005
2040
  0
LINE
  5
203E
330
1F
100
AcDbEntity
  8
AM_7
  6
AM_ISO08W050x2
100
AcDbLine
 10
375.8215654408018
 20
148.7004789468279
 30
0.0
 11
371.3215654408018
 21
148.7004789468279
 31
0.0
1001
GENIUS_GENOREF_13
1005
2040
  0
LINE
  5
203F
330
1F
100
AcDbEntity
  8
AM_7
  6
AM_ISO08W050x2
100
AcDbLine
 10
375.8215654408018
 20
148.7004789468279
 30
0.0
 11
375.8215654408018
 21
144.2004789468279
 31
0.0
1001
GENIUS_GENOREF_13
1005
2040
  0
POINT
  5
2040
330
1F
100
AcDbEntity
  8
0
 60
     1
100
AcDbPoint
 10
0.0
 20
0.0
 30
0.0
1001
GENIUS_GENOLIS_13
1002
{
1000
ENT
1005
203F
1005
203E
1005
203D
1005
203C
1002
}
1001
GENIUS_GENODEF_13
1002
{
1000
HIER
1070
    10
1002
}
1002
{
1000
MANEDIT
1070
     0
1002
}
1002
{
1000
NOSEL
1070
     0
1002
}
1002
{
1000
BEHIND
1070
     0
1002
}
1002
{
1000
OTHER
1070
     0
1002
}
1002
{
1000
REACTOR
1002
}
1001
GENIUS_GENOENT_13
1002
{
1000
MYREF
1005
2040
1002
}
1002
{
1000
GRP
1005
0
1002
}
1001
GENIUS_GENOBJ-N-CRS_13
1002
{
1000
OWNER
1000
GEN
1002
}
  0
LINE
  5
204E
330
1F
100
AcDbEntity
  8
AM_7
  6
AM_ISO08W050x2
100
AcDbLine
 10
355.8215654408018
 20
148.7004789468279
 30
0.0
 11
360.3215654408018
 21
148.7004789468279
 31
0.0
1001
GENIUS_GENOREF_13
1005
2052
  0
LINE
  5
204F
330
1F
100
AcDbEntity
  8
AM_7
  6
AM_ISO08W050x2
100
AcDbLine
 10
355.8215654408018
 20
148.7004789468279
 30
0.0
 11
355.8215654408018
 21
153.2004789468279
 31
0.0
1001
GENIUS_GENOREF_13
1005
2052
  0
LINE
  5
2050
330
1F
100
AcDbEntity
  8
AM_7
  6
AM_ISO08W050x2
100
AcDbLine
 10
355.8215654408018
 20
148.7004789468279
 30
0.0
 11
351.3215654408018
 21
148.7004789468279
 31
0.0
1001
GENIUS_GENOREF_13
1005
2052
  0
LINE
  5
2051
330
1F
100
AcDbEntity
  8
AM_7
  6
AM_ISO08W050x2
100
AcDbLine
 10
355.8215654408018
 20
148.7004789468279
 30
0.0
 11
355.8215654408018
 21
144.2004789468279
 31
0.0
1001
GENIUS_GENOREF_13
1005
2052
  0
POINT
  5
2052
330
1F
100
AcDbEntity
  8
0
 60
     1
100
AcDbPoint
 10
0.0
 20
0.0
 30
0.0
1001
GENIUS_GENOENT_13
1002
{
1000
MYREF
1005
2052
1002
}
1002
{
1000
GRP
1005
0
1002
}
1001
GENIUS_GENODEF_13
1002
{
1000
HIER
1070
    10
1002
}
1002
{
1000
MANEDIT
1070
     0
1002
}
1002
{
1000
NOSEL
1070
     0
1002
}
1002
{
1000
BEHIND
1070
     0
1002
}
1002
{
1000
OTHER
1070
     0
1002
}
1002
{
1000
REACTOR
1002
}
1001
GENIUS_GENOBJ-N-CRS_13
1002
{
1000
OWNER
1000
GEN
1002
}
1001
GENIUS_GENOLIS_13
1002
{
1000
ENT
1005
2051
1005
2050
1005
204F
1005
204E
1002
}
  0
ARC
  5
2077
330
1F
100
AcDbEntity
  8
AM_4
100
AcDbCircle
 10
375.8215654408018
 20
148.7004789468279
 30
0.0
 40
2.5
100
AcDbArc
 50
260.0
 51
170.0
  0
CIRCLE
  5
2078
330
1F
100
AcDbEntity
  8
AM_0
100
AcDbCircle
 10
375.8215654408018
 20
148.7004789468279
 30
0.0
 40
2.066987298107819
  0
ARC
  5
2079
330
1F
100
AcDbEntity
  8
AM_4
100
AcDbCircle
 10
355.8215654408018
 20
148.7004789468279
 30
0.0
 40
2.5
100
AcDbArc
 50
260.0
 51
170.0
  0
CIRCLE
  5
207A
330
1F
100
AcDbEntity
  8
AM_0
100
AcDbCircle
 10
355.8215654408018
 20
148.7004789468279
 30
0.0
 40
2.066987298107819
  0
ARC
  5
207B
330
1F
100
AcDbEntity
  8
AM_4
100
AcDbCircle
 10
347.3215654408018
 20
197.7004789468279
 30
0.0
 40
2.5
100
AcDbArc
 50
260.0
 51
170.0
  0
CIRCLE
  5
207C
330
1F
100
AcDbEntity
  8
AM_0
100
AcDbCircle
 10
347.3215654408018
 20
197.7004789468279
 30
0.0
 40
2.066987298107819
  0
ARC
  5
207D
330
1F
100
AcDbEntity
  8
AM_4
100
AcDbCircle
 10
359.8215654408018
 20
187.2004789468279
 30
0.0
 40
2.5
100
AcDbArc
 50
260.0
 51
170.0
  0
CIRCLE
  5
207E
330
1F
100
AcDbEntity
  8
AM_0
100
AcDbCircle
 10
359.8215654408018
 20
187.2004789468279
 30
0.0
 40
2.066987298107819
  0
INSERT
  5
20A5
330
1F
100
AcDbEntity
  8
AM_5
100
AcDbBlockReference
  2
*S24
 10
0.0
 20
0.0
 30
0.0
  0
INSERT
  5
20A6
330
1F
100
AcDbEntity
  8
AM_5
100
AcDbBlockReference
  2
*S25
 10
0.0
 20
0.0
 30
0.0
  0
INSERT
  5
20A7
330
1F
100
AcDbEntity
  8
AM_5
100
AcDbBlockReference
  2
*S26
 10
0.0
 20
0.0
 30
0.0
  0
MTEXT
  5
20A9
330
1F
100
AcDbEntity
  8
AM_5
100
AcDbMText
 10
279.1705569593248
 20
225.323552299214
 30
0.0
 40
3.0
 41
0.0
 71
     1
 72
     1
  1
2-M5x0.8x10depth
  7
CHINA
 73
     1
 44
1.0
1001
ACAD
1000
MTEXTBEGIN
1070
    73
1070
     1
1070
    44
1040
1.0
1070
    74
1070
     0
1000
MTEXTEND
  0
INSERT
  5
20AA
330
1F
100
AcDbEntity
  8
AM_5
100
AcDbBlockReference
  2
*S27
 10
0.0
 20
0.0
 30
0.0
  0
ARC
  5
20AB
330
1F
100
AcDbEntity
  8
AM_4
100
AcDbCircle
 10
255.2693835748268
 20
192.7004789468279
 30
0.0
 40
2.5
100
AcDbArc
 50
260.0
 51
170.0
  0
CIRCLE
  5
20AC
330
1F
100
AcDbEntity
  8
AM_0
100
AcDbCircle
 10
255.2693835748268
 20
192.7004789468279
 30
0.0
 40
2.066987298107819
  0
ARC
  5
20AD
330
1F
100
AcDbEntity
  8
AM_4
100
AcDbCircle
 10
195.2693835748268
 20
192.7004789468279
 30
0.0
 40
2.5
100
AcDbArc
 50
260.0
 51
170.0
  0
CIRCLE
  5
20AE
330
1F
100
AcDbEntity
  8
AM_0
100
AcDbCircle
 10
195.2693835748268
 20
192.7004789468279
 30
0.0
 40
2.066987298107819
  0
INSERT
  5
20AF
330
1F
100
AcDbEntity
  8
AM_5
100
AcDbBlockReference
  2
*S28
 10
0.0
 20
0.0
 30
0.0
  0
DIMENSION
  5
2117
102
{ACAD_XDICTIONARY
360
2124
102
}
102
{ACAD_REACTORS
330
2125
102
}
330
1F
100
AcDbEntity
  8
AM_5
100
AcDbDimension
  2
*D22
 10
250.269383574827
 20
130.700478946828
 30
0.0
 11
225.2693835748269
 21
133.450478946828
 31
0.0
 70
    32
  1
Max.<>\P
 71
     5
 42
50.00000000000017
  3
AM_ISO$0
100
AcDbAlignedDimension
 13
200.2693835748268
 23
142.7004789468279
 33
0.0
 14
250.269383574827
 24
142.7004789468279
 34
0.0
100
AcDbRotatedDimension
1001
ACAD
1000
DSTYLE
1002
{
1070
    40
1040
1.0
1070
   144
1040
1.0
1070
   272
1070
     8
1002
}
  0
MTEXT
  5
214F
330
1F
100
AcDbEntity
  8
AM_5
100
AcDbMText
 10
225.2693835748267
 20
127.5449342888626
 30
0.0
 40
3.5
 41
0.0
 71
     5
 72
     1
  1
Min.25
 73
     1
 44
1.0
1001
ACAD
1000
MTEXTBEGIN
1070
    73
1070
     1
1070
    44
1040
1.0
1070
    74
1070
     0
1000
MTEXTEND
  0
LINE
  5
21DE
330
1F
100
AcDbEntity
  8
AM_7
  6
AM_ISO08W050x2
100
AcDbLine
 10
225.2693835748269
 20
269.6555608638433
 30
0.0
 11
229.2693835748269
 21
269.6555608638433
 31
0.0
1001
GENIUS_GENOREF_13
1005
21E2
  0
LINE
  5
21DF
330
1F
100
AcDbEntity
  8
AM_7
  6
AM_ISO08W050x2
100
AcDbLine
 10
225.2693835748269
 20
269.6555608638433
 30
0.0
 11
225.2693835748269
 21
273.6555608638433
 31
0.0
1001
GENIUS_GENOREF_13
1005
21E2
  0
LINE
  5
21E0
330
1F
100
AcDbEntity
  8
AM_7
  6
AM_ISO08W050x2
100
AcDbLine
 10
225.2693835748269
 20
269.6555608638433
 30
0.0
 11
221.2693835748269
 21
269.6555608638433
 31
0.0
1001
GENIUS_GENOREF_13
1005
21E2
  0
LINE
  5
21E1
330
1F
100
AcDbEntity
  8
AM_7
  6
AM_ISO08W050x2
100
AcDbLine
 10
225.2693835748269
 20
269.6555608638433
 30
0.0
 11
225.2693835748269
 21
265.6555608638433
 31
0.0
1001
GENIUS_GENOREF_13
1005
21E2
  0
POINT
  5
21E2
330
1F
100
AcDbEntity
  8
0
 60
     1
100
AcDbPoint
 10
0.0
 20
0.0
 30
0.0
1001
GENIUS_GENODEF_13
1002
{
1000
HIER
1070
    10
1002
}
1002
{
1000
MANEDIT
1070
     0
1002
}
1002
{
1000
NOSEL
1070
     0
1002
}
1002
{
1000
BEHIND
1070
     0
1002
}
1002
{
1000
OTHER
1070
     0
1002
}
1002
{
1000
REACTOR
1002
}
1001
GENIUS_GENOENT_13
1002
{
1000
MYREF
1005
21E2
1002
}
1002
{
1000
GRP
1005
0
1002
}
1001
GENIUS_GENOBJ-N-CRS_13
1002
{
1000
OWNER
1000
GEN
1002
}
1001
GENIUS_GENOLIS_13
1002
{
1000
ENT
1005
21E1
1005
21E0
1005
21DF
1005
21DE
1002
}
  0
ENDSEC
  0
SECTION
  2
OBJECTS
  0
DICTIONARY
  5
C
330
0
100
AcDbDictionary
281
     1
  3
ACAD_COLOR
350
BE
  3
ACAD_GROUP
350
D
  3
ACAD_LAYOUT
350
1A
  3
ACAD_MATERIAL
350
BD
  3
ACAD_MLINESTYLE
350
17
  3
ACAD_PLOTSETTINGS
350
19
  3
ACAD_PLOTSTYLENAME
350
E
  3
ACAD_TABLESTYLE
350
11A
  3
ACDBHEADERROUNDTRIPXREC
350
24A5
  3
AcDbVariableDictionary
350
94
  3
AcmDictionary
350
5B
  3
AMG
350
41
  3
AMGSNAPSETTINGS
350
1B8
  3
DWGPROPS
350
24A4
  0
DICTIONARY
  5
3F9
330
2
100
AcDbDictionary
280
     1
281
     1
  3
ACAD_LAYERFILTERS
360
5B7
  3
ACAD_LAYERSTATES
360
1101
  3
ACLYDICTIONARY
360
5B6
  3
AMLAYER_GROUPCOLORS
360
183F
  0
DICTIONARY
  5
8F
330
1F
100
AcDbDictionary
280
     1
281
     1
  3
ACAD_SORTENTS
360
187D
  0
DICTIONARY
  5
2124
330
2117
100
AcDbDictionary
280
     1
281
     1
  3
ACAD_DIMASSOC
360
2125
  0
DICTIONARY
  5
BE
102
{ACAD_REACTORS
330
C
102
}
330
C
100
AcDbDictionary
281
     1
  0
DICTIONARY
  5
D
102
{ACAD_REACTORS
330
C
102
}
330
C
100
AcDbDictionary
281
     1
  0
DICTIONARY
  5
1A
102
{ACAD_REACTORS
330
C
102
}
330
C
100
AcDbDictionary
281
     1
  3
Model
350
22
  3
配置1
350
1E
  3
配置2
350
26
  0
DICTIONARY
  5
BD
102
{ACAD_REACTORS
330
C
102
}
330
C
100
AcDbDictionary
281
     1
  0
DICTIONARY
  5
17
102
{ACAD_REACTORS
330
C
102
}
330
C
100
AcDbDictionary
281
     1
  3
Standard
350
18
  0
DICTIONARY
  5
19
102
{ACAD_REACTORS
330
C
102
}
330
C
100
AcDbDictionary
281
     1
  0
ACDBDICTIONARYWDFLT
  5
E
102
{ACAD_REACTORS
330
C
102
}
330
C
100
AcDbDictionary
281
     1
  3
Normal
350
F
100
AcDbDictionaryWithDefault
340
F
  0
DICTIONARY
  5
11A
102
{ACAD_REACTORS
330
C
102
}
330
C
100
AcDbDictionary
281
     1
  3
Standard
350
11B
  0
DICTIONARY
  5
24A5
102
{ACAD_REACTORS
330
C
102
}
330
C
100
AcDbDictionary
281
     1
  0
DICTIONARY
  5
94
102
{ACAD_REACTORS
330
C
102
}
330
C
100
AcDbDictionary
281
     1
  3
CTABLESTYLE
350
138
  3
DIMASSOC
350
96
  3
INDEXCTL
350
95
  3
PROJECTNAME
350
24A2
  0
DICTIONARY
  5
5B
102
{ACAD_REACTORS
330
C
102
}
330
C
100
AcDbDictionary
281
     1
  3
AcmBOM
350
1B5
  3
AcmStdDictionary
350
61
  3
AMDTSECTSYM_ARROWCOLOR
350
123
  0
DICTIONARY
  5
41
102
{ACAD_REACTORS
330
C
102
}
330
C
100
AcDbDictionary
281
     1
  0
DICTIONARY
  5
1B8
102
{ACAD_REACTORS
330
C
102
}
330
C
100
AcDbDictionary
281
     1
  0
XRECORD
  5
24A4
102
{ACAD_REACTORS
330
C
102
}
330
C
100
AcDbXrecord
280
     1
  1
DWGPROPS COOKIE
  2

  3

  4

  6

  7

  8

  9

300
AmdtFileType=84
301
=
302
=
303
=
304
=
305
=
306
=
307
=
308
=
309
=
 40
0.2212212384259259
 41
2454404.499322188
 42
2454407.706533565
  1

 90
        1
  0
DICTIONARY
  5
5B7
102
{ACAD_REACTORS
330
3F9
102
}
330
3F9
100
AcDbDictionary
281
     1
  0
DICTIONARY
  5
1101
102
{ACAD_REACTORS
330
3F9
102
}
330
3F9
100
AcDbDictionary
281
     1
  0
DICTIONARY
  5
5B6
102
{ACAD_REACTORS
330
3F9
102
}
330
3F9
100
AcDbDictionary
281
     1
1001
ACAD
1000
<All
  0
DICTIONARY
  5
183F
102
{ACAD_REACTORS
330
3F9
102
}
330
3F9
100
AcDbDictionary
280
     1
281
     1
  0
SORTENTSTABLE
  5
187D
102
{ACAD_REACTORS
330
8F
102
}
330
8F
100
AcDbSortentsTable
330
1F
331
1223
  5
1223
331
11E4
  5
11E4
331
122B
  5
122B
331
11EC
  5
11EC
331
11B5
  5
11B5
331
11BD
  5
11BD
331
11F4
  5
11F4
331
11FC
  5
11FC
331
1204
  5
1204
331
120C
  5
120C
331
1196
  5
1196
331
11CD
  5
11CD
331
1214
  5
1214
331
11D5
  5
11D5
331
119E
  5
119E
331
121C
  5
121C
331
11DD
  5
11DD
331
11A6
  5
11A6
331
11E5
  5
11E5
331
1224
  5
1224
331
122C
  5
122C
331
11ED
  5
11ED
331
11BE
  5
11BE
331
11F5
  5
11F5
331
11FD
  5
11FD
331
1205
  5
1205
331
11CE
  5
11CE
331
1197
  5
1197
331
120D
  5
120D
331
11D6
  5
11D6
331
119F
  5
119F
331
1215
  5
1215
331
121D
  5
121D
331
11A7
  5
11A7
331
11DE
  5
11DE
331
1225
  5
1225
331
11E6
  5
11E6
331
122D
  5
122D
331
11EE
  5
11EE
331
11BF
  5
11BF
331
11F6
  5
11F6
331
11FE
  5
11FE
331
1206
  5
1206
331
1198
  5
1198
331
120E
  5
120E
331
1216
  5
1216
331
11A0
  5
11A0
331
11D7
  5
11D7
331
11DF
  5
11DF
331
121E
  5
121E
331
11A8
  5
11A8
331
11E7
  5
11E7
331
11B0
  5
11B0
331
1226
  5
1226
331
122E
  5
122E
331
11EF
  5
11EF
331
11F7
  5
11F7
331
11FF
  5
11FF
331
11C0
  5
11C0
331
1207
  5
1207
331
11C8
  5
11C8
331
1199
  5
1199
331
120F
  5
120F
331
11D8
  5
11D8
331
11A1
  5
11A1
331
1217
  5
1217
331
121F
  5
121F
331
11A9
  5
11A9
331
11E0
  5
11E0
331
1227
  5
1227
331
11E8
  5
11E8
331
11B9
  5
11B9
331
11F0
  5
11F0
331
11F8
  5
11F8
331
1200
  5
1200
331
1208
  5
1208
331
119A
  5
119A
331
1210
  5
1210
331
1218
  5
1218
331
11D9
  5
11D9
331
11A2
  5
11A2
331
11E1
  5
11E1
331
11AA
  5
11AA
331
11E9
  5
11E9
331
1228
  5
1228
331
11BA
  5
11BA
331
11F1
  5
11F1
331
11F9
  5
11F9
331
1201
  5
1201
331
1209
  5
1209
331
11D2
  5
11D2
331
119B
  5
119B
331
1211
  5
1211
331
1219
  5
1219
331
11A3
  5
11A3
331
11DA
  5
11DA
331
11AB
  5
11AB
331
11E2
  5
11E2
331
1229
  5
1229
331
11EA
  5
11EA
331
11BB
  5
11BB
331
11F2
  5
11F2
331
11FA
  5
11FA
331
1202
  5
1202
331
120A
  5
120A
331
1212
  5
1212
331
119C
  5
119C
331
11D3
  5
11D3
331
121A
  5
121A
331
11DB
  5
11DB
331
11A4
  5
11A4
331
11E3
  5
11E3
331
11AC
  5
11AC
331
122A
  5
122A
331
11B4
  5
11B4
331
11EB
  5
11EB
331
11BC
  5
11BC
331
11F3
  5
11F3
331
11FB
  5
11FB
331
1203
  5
1203
331
11C4
  5
11C4
331
120B
  5
120B
331
11CC
  5
11CC
331
1195
  5
1195
331
11D4
  5
11D4
331
119D
  5
119D
331
1213
  5
1213
331
121B
  5
121B
331
11A5
  5
11A5
331
11DC
  5
11DC
  0
DIMASSOC
  5
2125
102
{ACAD_REACTORS
330
2124
102
}
330
2124
100
AcDbDimAssoc
330
2117
 90
        3
 70
     0
 71
     0
  1
AcDbOsnapPointRef
 72
     1
331
1D1D
 73
     0
 91
        0
 40
0.0
 10
0.0
 20
0.0
 30
2.000000000000000E+50
 75
     0
  1
AcDbOsnapPointRef
 72
    13
331
1D1E
 73
     0
 91
        0
 40
0.0
 10
0.0
 20
0.0
 30
2.000000000000000E+50
 75
     0
  0
LAYOUT
  5
22
102
{ACAD_XDICTIONARY
360
24A8
102
}
102
{ACAD_REACTORS
330
1A
102
}
330
1A
100
AcDbPlotSettings
  1

  2
\\RD\EPSON Stylus C63 Series單色
  4
A4
  6

 40
3.757083177566528
 41
3.757076978683471
 42
3.757080078125
 43
3.757080078125
 44
209.9733276367187
 45
296.9683227539062
 46
0.0
 47
0.0
 48
0.0
 49
0.0
140
0.0
141
0.0
142
1.0
143
0.3405120737814363
 70
 11952
 72
     1
 73
     0
 74
     0
  7
單色出圖.ctb
 75
     0
147
2.936753428137963
148
-2047.07469463503
149
-1261.649717473083
100
AcDbLayout
  1
Model
 70
     1
 71
     0
 10
0.0
 20
0.0
 11
12.0
 21
9.0
 12
0.0
 22
0.0
 32
0.0
 14
0.0
 24
0.0
 34
0.0
 15
0.0
 25
0.0
 35
0.0
146
0.0
 13
0.0
 23
0.0
 33
0.0
 16
1.0
 26
0.0
 36
0.0
 17
0.0
 27
1.0
 37
0.0
 76
     0
330
1F
1001
ACAD_PSEXT
1000
\\RD\EPSON Stylus C63 Series單色
1000
EPSON Stylus C63 Series
1000
\\RD
1000

1070
     0
  0
LAYOUT
  5
1E
102
{ACAD_XDICTIONARY
360
24A6
102
}
102
{ACAD_REACTORS
330
1A
102
}
330
1A
100
AcDbPlotSettings
  1

  2

  4

  6

 40
0.0
 41
0.0
 42
0.0
 43
0.0
 44
0.0
 45
0.0
 46
0.0
 47
0.0
 48
0.0
 49
0.0
140
0.0
141
0.0
142
1.0
143
1.0
 70
   688
 72
     0
 73
     0
 74
     5
  7
單色出圖.ctb
 75
    16
147
1.0
148
0.0
149
0.0
100
AcDbLayout
  1
配置1
 70
     1
 71
     1
 10
0.0
 20
0.0
 11
420.0
 21
297.0
 12
0.0
 22
0.0
 32
0.0
 14
1.000000000000000E+20
 24
1.000000000000000E+20
 34
1.000000000000000E+20
 15
-1.000000000000000E+20
 25
-1.000000000000000E+20
 35
-1.000000000000000E+20
146
0.0
 13
0.0
 23
0.0
 33
0.0
 16
1.0
 26
0.0
 36
0.0
 17
0.0
 27
1.0
 37
0.0
 76
     0
330
1B
  0
LAYOUT
  5
26
102
{ACAD_XDICTIONARY
360
24AA
102
}
102
{ACAD_REACTORS
330
1A
102
}
330
1A
100
AcDbPlotSettings
  1

  2

  4

  6

 40
0.0
 41
0.0
 42
0.0
 43
0.0
 44
0.0
 45
0.0
 46
0.0
 47
0.0
 48
0.0
 49
0.0
140
0.0
141
0.0
142
1.0
143
1.0
 70
   688
 72
     0
 73
     0
 74
     5
  7
單色出圖.ctb
 75
    16
147
1.0
148
0.0
149
0.0
100
AcDbLayout
  1
配置2
 70
     1
 71
     2
 10
0.0
 20
0.0
 11
12.0
 21
9.0
 12
0.0
 22
0.0
 32
0.0
 14
0.0
 24
0.0
 34
0.0
 15
0.0
 25
0.0
 35
0.0
146
0.0
 13
0.0
 23
0.0
 33
0.0
 16
1.0
 26
0.0
 36
0.0
 17
0.0
 27
1.0
 37
0.0
 76
     0
330
23
  0
MLINESTYLE
  5
18
102
{ACAD_REACTORS
330
17
102
}
330
17
100
AcDbMlineStyle
  2
STANDARD
 70
     0
  3

 62
   256
 51
90.0
 52
90.0
 71
     2
 49
0.5
 62
   256
  6
BYLAYER
 49
-0.5
 62
   256
  6
BYLAYER
  0
ACDBPLACEHOLDER
  5
F
102
{ACAD_REACTORS
330
E
102
}
330
E
  0
TABLESTYLE
  5
11B
102
{ACAD_REACTORS
330
11A
102
}
330
11A
100
AcDbTableStyle
  3
Standard
 70
     0
 71
     0
 40
1.5
 41
1.5
280
     0
281
     0
  7
STANDARD
140
4.5
170
     2
 62
     0
 63
     7
283
     0
274
    -2
284
     1
 64
     0
275
    -2
285
     1
 65
     0
276
    -2
286
     1
 66
     0
277
    -2
287
     1
 67
     0
278
    -2
288
     1
 68
     0
279
    -2
289
     1
 69
     0
  7
STANDARD
140
6.0
170
     5
 62
     0
 63
     7
283
     0
274
    -2
284
     1
 64
     0
275
    -2
285
     1
 65
     0
276
    -2
286
     1
 66
     0
277
    -2
287
     1
 67
     0
278
    -2
288
     1
 68
     0
279
    -2
289
     1
 69
     0
  7
STANDARD
140
4.5
170
     5
 62
     0
 63
     7
283
     0
274
    -2
284
     1
 64
     0
275
    -2
285
     1
 65
     0
276
    -2
286
     1
 66
     0
277
    -2
287
     1
 67
     0
278
    -2
288
     1
 68
     0
279
    -2
289
     1
 69
     0
  0
DICTIONARYVAR
  5
138
102
{ACAD_REACTORS
330
94
102
}
330
94
100
DictionaryVariables
280
     0
  1
STANDARD
  0
DICTIONARYVAR
  5
96
102
{ACAD_REACTORS
330
94
102
}
330
94
100
DictionaryVariables
280
     0
  1
2
  0
DICTIONARYVAR
  5
95
102
{ACAD_REACTORS
330
94
102
}
330
94
100
DictionaryVariables
280
     0
  1
0
  0
DICTIONARYVAR
  5
24A2
102
{ACAD_REACTORS
330
94
102
}
330
94
100
DictionaryVariables
280
     0
  1

  0
DICTIONARY
  5
1B5
102
{ACAD_REACTORS
330
5B
102
}
330
5B
100
AcDbDictionary
281
     1
  0
DICTIONARY
  5
61
102
{ACAD_REACTORS
330
5B
102
}
330
5B
100
AcDbDictionary
281
     1
  0
XRECORD
  5
123
102
{ACAD_REACTORS
330
5B
102
}
330
5B
100
AcDbXrecord
280
     1
 90
-1023410169
  0
DICTIONARY
  5
24A8
330
22
100
AcDbDictionary
280
     1
281
     1
  3
ACAD_XREC_ROUNDTRIP
360
24A9
  0
DICTIONARY
  5
24A6
330
1E
100
AcDbDictionary
280
     1
281
     1
  3
ACAD_XREC_ROUNDTRIP
360
24A7
  0
DICTIONARY
  5
24AA
330
26
100
AcDbDictionary
280
     1
281
     1
  3
ACAD_XREC_ROUNDTRIP
360
24AB
  0
XRECORD
  5
24A9
102
{ACAD_REACTORS
330
24A8
102
}
330
24A8
100
AcDbXrecord
280
     1
102
SHADEPLOT
 70
     0
102
SHADEPLOTRESLEVEL
 70
     2
102
SHADEPLOTCUSTOMDPI
 70
   300
  0
XRECORD
  5
24A7
102
{ACAD_REACTORS
330
24A6
102
}
330
24A6
100
AcDbXrecord
280
     1
102
SHADEPLOT
 70
     0
102
SHADEPLOTRESLEVEL
 70
     2
102
SHADEPLOTCUSTOMDPI
 70
   300
  0
XRECORD
  5
24AB
102
{ACAD_REACTORS
330
24AA
102
}
330
24AA
100
AcDbXrecord
280
     1
102
SHADEPLOT
 70
     0
102
SHADEPLOTRESLEVEL
 70
     2
102
SHADEPLOTCUSTOMDPI
 70
   300
  0
ENDSEC
  0
EOF
