  0
SECTION
  2
HEADER
  9
$ACADVER
  1
AC1015
  9
$ACADMAINTVER
 70
    20
  9
$DWGCODEPAGE
  3
ANSI_950
  9
$INSBASE
 10
0.0
 20
0.0
 30
0.0
  9
$EXTMIN
 10
193.3547770694156
 20
271.7999186820502
 30
-0.0056867319772209
  9
$EXTMAX
 10
895.6803263823289
 20
786.63887169085
 30
337.3618047985167
  9
$LIMMIN
 10
0.0
 20
0.0
  9
$LIMMAX
 10
420.0
 20
297.0
  9
$ORTHOMODE
 70
     1
  9
$REGENMODE
 70
     1
  9
$FILLMODE
 70
     1
  9
$QTEXTMODE
 70
     0
  9
$MIRRTEXT
 70
     1
  9
$LTSCALE
 40
1.0
  9
$ATTMODE
 70
     1
  9
$TEXTSIZE
 40
3.0
  9
$TRACEWID
 40
1.0
  9
$TEXTSTYLE
  7
STANDARD
  9
$CLAYER
  8
0
  9
$CELTYPE
  6
ByLayer
  9
$CECOLOR
 62
   256
  9
$CELTSCALE
 40
1.0
  9
$DISPSILH
 70
     0
  9
$DIMSCALE
 40
1.0
  9
$DIMASZ
 40
3.0
  9
$DIMEXO
 40
1.0
  9
$DIMDLI
 40
8.0
  9
$DIMRND
 40
0.0
  9
$DIMDLE
 40
0.0
  9
$DIMEXE
 40
1.5
  9
$DIMTP
 40
0.2
  9
$DIMTM
 40
-0.1
  9
$DIMTXT
 40
3.5
  9
$DIMCEN
 40
0.0
  9
$DIMTSZ
 40
0.0
  9
$DIMTOL
 70
     0
  9
$DIMLIM
 70
     0
  9
$DIMTIH
 70
     0
  9
$DIMTOH
 70
     0
  9
$DIMSE1
 70
     0
  9
$DIMSE2
 70
     0
  9
$DIMTAD
 70
     1
  9
$DIMZIN
 70
     8
  9
$DIMBLK
  1

  9
$DIMASO
 70
     1
  9
$DIMSHO
 70
     1
  9
$DIMPOST
  1

  9
$DIMAPOST
  1
"
  9
$DIMALT
 70
     0
  9
$DIMALTD
 70
     2
  9
$DIMALTF
 40
0.0393701
  9
$DIMLFAC
 40
1.0
  9
$DIMTOFL
 70
     1
  9
$DIMTVP
 40
0.0
  9
$DIMTIX
 70
     0
  9
$DIMSOXD
 70
     0
  9
$DIMSAH
 70
     0
  9
$DIMBLK1
  1

  9
$DIMBLK2
  1

  9
$DIMSTYLE
  2
AM_ISO
  9
$DIMCLRD
 70
   256
  9
$DIMCLRE
 70
   256
  9
$DIMCLRT
 70
   256
  9
$DIMTFAC
 40
0.6
  9
$DIMGAP
 40
0.7
  9
$DIMJUST
 70
     0
  9
$DIMSD1
 70
     0
  9
$DIMSD2
 70
     0
  9
$DIMTOLJ
 70
     0
  9
$DIMTZIN
 70
     8
  9
$DIMALTZ
 70
     0
  9
$DIMALTTZ
 70
     0
  9
$DIMUPT
 70
     0
  9
$DIMDEC
 70
     2
  9
$DIMTDEC
 70
     8
  9
$DIMALTU
 70
     2
  9
$DIMALTTD
 70
     2
  9
$DIMTXSTY
  7
STANDARD
  9
$DIMAUNIT
 70
     0
  9
$DIMADEC
 70
     0
  9
$DIMALTRND
 40
0.0
  9
$DIMAZIN
 70
     2
  9
$DIMDSEP
 70
    46
  9
$DIMATFIT
 70
     3
  9
$DIMFRAC
 70
     0
  9
$DIMLDRBLK
  1

  9
$DIMLUNIT
 70
     2
  9
$DIMLWD
 70
    -1
  9
$DIMLWE
 70
    -1
  9
$DIMTMOVE
 70
     0
  9
$LUNITS
 70
     2
  9
$LUPREC
 70
     2
  9
$SKETCHINC
 40
1.0
  9
$FILLETRAD
 40
2.5
  9
$AUNITS
 70
     0
  9
$AUPREC
 70
     0
  9
$MENU
  1
.
  9
$ELEVATION
 40
0.0
  9
$PELEVATION
 40
0.0
  9
$THICKNESS
 40
0.0
  9
$LIMCHECK
 70
     0
  9
$CHAMFERA
 40
2.5
  9
$CHAMFERB
 40
2.5
  9
$CHAMFERC
 40
20.0
  9
$CHAMFERD
 40
0.0
  9
$SKPOLY
 70
     0
  9
$TDCREATE
 40
2454240.471761424
  9
$TDUCREATE
 40
2454240.138428090
  9
$TDUPDATE
 40
2454242.388809132
  9
$TDUUPDATE
 40
2454242.055475798
  9
$TDINDWG
 40
0.2431881134
  9
$TDUSRTIMER
 40
0.2431881134
  9
$USRTIMER
 70
     1
  9
$ANGBASE
 50
0.0
  9
$ANGDIR
 70
     0
  9
$PDMODE
 70
     0
  9
$PDSIZE
 40
0.0
  9
$PLINEWID
 40
0.0
  9
$SPLFRAME
 70
     0
  9
$SPLINETYPE
 70
     6
  9
$SPLINESEGS
 70
     8
  9
$HANDSEED
  5
1A39
  9
$SURFTAB1
 70
     6
  9
$SURFTAB2
 70
     6
  9
$SURFTYPE
 70
     6
  9
$SURFU
 70
     6
  9
$SURFV
 70
     6
  9
$UCSBASE
  2

  9
$UCSNAME
  2

  9
$UCSORG
 10
0.0
 20
0.0
 30
0.0
  9
$UCSXDIR
 10
1.0
 20
0.0
 30
0.0
  9
$UCSYDIR
 10
0.0
 20
1.0
 30
0.0
  9
$UCSORTHOREF
  2

  9
$UCSORTHOVIEW
 70
     0
  9
$UCSORGTOP
 10
0.0
 20
0.0
 30
0.0
  9
$UCSORGBOTTOM
 10
0.0
 20
0.0
 30
0.0
  9
$UCSORGLEFT
 10
0.0
 20
0.0
 30
0.0
  9
$UCSORGRIGHT
 10
0.0
 20
0.0
 30
0.0
  9
$UCSORGFRONT
 10
0.0
 20
0.0
 30
0.0
  9
$UCSORGBACK
 10
0.0
 20
0.0
 30
0.0
  9
$PUCSBASE
  2

  9
$PUCSNAME
  2

  9
$PUCSORG
 10
0.0
 20
0.0
 30
0.0
  9
$PUCSXDIR
 10
1.0
 20
0.0
 30
0.0
  9
$PUCSYDIR
 10
0.0
 20
1.0
 30
0.0
  9
$PUCSORTHOREF
  2

  9
$PUCSORTHOVIEW
 70
     0
  9
$PUCSORGTOP
 10
0.0
 20
0.0
 30
0.0
  9
$PUCSORGBOTTOM
 10
0.0
 20
0.0
 30
0.0
  9
$PUCSORGLEFT
 10
0.0
 20
0.0
 30
0.0
  9
$PUCSORGRIGHT
 10
0.0
 20
0.0
 30
0.0
  9
$PUCSORGFRONT
 10
0.0
 20
0.0
 30
0.0
  9
$PUCSORGBACK
 10
0.0
 20
0.0
 30
0.0
  9
$USERI1
 70
     0
  9
$USERI2
 70
     0
  9
$USERI3
 70
     0
  9
$USERI4
 70
     0
  9
$USERI5
 70
     0
  9
$USERR1
 40
0.0
  9
$USERR2
 40
0.0
  9
$USERR3
 40
0.0
  9
$USERR4
 40
0.0
  9
$USERR5
 40
0.0
  9
$WORLDVIEW
 70
     1
  9
$SHADEDGE
 70
     3
  9
$SHADEDIF
 70
    70
  9
$TILEMODE
 70
     1
  9
$MAXACTVP
 70
    64
  9
$PINSBASE
 10
0.0
 20
0.0
 30
0.0
  9
$PLIMCHECK
 70
     0
  9
$PEXTMIN
 10
1.000000000000000E+20
 20
1.000000000000000E+20
 30
1.000000000000000E+20
  9
$PEXTMAX
 10
-1.000000000000000E+20
 20
-1.000000000000000E+20
 30
-1.000000000000000E+20
  9
$PLIMMIN
 10
0.0
 20
0.0
  9
$PLIMMAX
 10
420.0
 20
297.0
  9
$UNITMODE
 70
     0
  9
$VISRETAIN
 70
     1
  9
$PLINEGEN
 70
     0
  9
$PSLTSCALE
 70
     1
  9
$TREEDEPTH
 70
  3020
  9
$CMLSTYLE
  2
Standard
  9
$CMLJUST
 70
     0
  9
$CMLSCALE
 40
20.0
  9
$PROXYGRAPHICS
 70
     1
  9
$MEASUREMENT
 70
     1
  9
$CELWEIGHT
370
    -1
  9
$ENDCAPS
280
     0
  9
$JOINSTYLE
280
     0
  9
$LWDISPLAY
290
     0
  9
$INSUNITS
 70
     4
  9
$HYPERLINKBASE
  1

  9
$STYLESHEET
  1
彩色出圖.ctb
  9
$XEDIT
290
     1
  9
$CEPSNTYPE
380
     0
  9
$PSTYLEMODE
290
     1
  9
$FINGERPRINTGUID
  2
{FC4B0ED2-7F28-4D89-91BC-F1BB001E8572}
  9
$VERSIONGUID
  2
{1EA1C3E9-7E94-47F5-81CE-A7422086F437}
  9
$EXTNAMES
290
     1
  9
$PSVPSCALE
 40
0.0
  9
$OLESTARTUP
290
     0
  0
ENDSEC
  0
SECTION
  2
CLASSES
  0
CLASS
  1
ACDBDICTIONARYWDFLT
  2
AcDbDictionaryWithDefault
  3
ObjectDBX Classes
 90
        0
280
     0
281
     0
  0
CLASS
  1
ACDBPLACEHOLDER
  2
AcDbPlaceHolder
  3
ObjectDBX Classes
 90
        0
280
     0
281
     0
  0
CLASS
  1
LAYOUT
  2
AcDbLayout
  3
ObjectDBX Classes
 90
        0
280
     0
281
     0
  0
CLASS
  1
ACME_DOCUMENT
  2
AcMeDbDoc
  3
AcMeServices
 90
        0
280
     0
281
     0
  0
CLASS
  1
AMGSETTINGSOBJ
  2
AmgSettingsObj
  3
"AcadM|Product Description: AutoCAD Mechanical 2000|Company: Autodesk"
 90
        0
280
     0
281
     0
  0
CLASS
  1
ACMESCOPE
  2
AcMeScope
  3
AcMeServices
 90
        0
280
     0
281
     0
  0
CLASS
  1
ACMECOMMANDHISTORY
  2
AcMeCommandHistory
  3
AcMeServices
 90
        0
280
     0
281
     0
  0
CLASS
  1
ACIMSYSVARMAN
  2
AcImSysVarManager
  3
AcMeServices
 90
        0
280
     0
281
     0
  0
CLASS
  1
ACIMREALSYSVAR
  2
AcImRealSysVar
  3
AcMeServices
 90
        0
280
     0
281
     0
  0
CLASS
  1
ACIMINTSYSVAR
  2
AcImIntSysVar
  3
AcMeServices
 90
        0
280
     0
281
     0
  0
CLASS
  1
ACMEDRAWINGMAN
  2
AcMeDrawingMan
  3
AcMeServices
 90
        0
280
     0
281
     0
  0
CLASS
  1
ACMEVIEW
  2
AcMeView
  3
AcMeServices
 90
        0
280
     0
281
     0
  0
CLASS
  1
ACDBENTITYCACHE
  2
AcMeEntityCache
  3
AcMeServices
 90
        0
280
     0
281
     0
  0
CLASS
  1
GSMANAGER
  2
AcMeGSManager
  3
AcMeServices
 90
        0
280
     0
281
     0
  0
CLASS
  1
AMDTINTERNALREACTOR
  2
AmdtInternalReactor
  3
AcMeServices
 90
        0
280
     0
281
     0
  0
CLASS
  1
ACMESTATEMGR
  2
AcMeStateMgr
  3
AcMeServices
 90
        0
280
     0
281
     0
  0
CLASS
  1
ACGREFMASTER
  2
AcGrefMaster
  3
AcAttribServices
 90
        0
280
     0
281
     0
  0
CLASS
  1
ACME_DATABASE
  2
AcMeDbDatabase
  3
AcMeServices
 90
        0
280
     0
281
     0
  0
CLASS
  1
ACRFINSADJUSTERMGR
  2
AcRfInsAdjusterMgr
  3
AcMeServices
 90
        0
280
     0
281
     0
  0
CLASS
  1
ACGREFACADMASTER
  2
AcGrefacadMaster
  3
AcGrefServices
 90
        0
280
     0
281
     0
  0
CLASS
  1
AMIMASTER
  2
AmiMaster
  3
AmiServices
 90
        0
280
     0
281
     0
  0
CLASS
  1
ACMDATADICTIONARY
  2
AcmDataDictionary
  3
"AcmSymBB|Product Description: AutoCAD Mechanical 2004 DX|Company: Autodesk"
 90
        0
280
     0
281
     0
  0
CLASS
  1
ACMDATAENTRYBLOCK
  2
AcmDataEntryBlock
  3
"AcmSymBB|Product Description: AutoCAD Mechanical 2004 DX|Company: Autodesk"
 90
        0
280
     0
281
     0
  0
CLASS
  1
ACIMSTRSYSVAR
  2
AcImStrSysVar
  3
AcMeServices
 90
        0
280
     0
281
     0
  0
CLASS
  1
ACMSTANDARDISO
  2
AcmStandardISO
  3
"Amdt_StdImp|Product Description: AutoCAD Mechanical 2004 DX|Company: Autodesk"
 90
        0
280
     0
281
     0
  0
CLASS
  1
AMGOBJPROPCFG
  2
AmgObjPropCfg
  3
"AmgLay|Product Description: AutoCAD Mechanical 2000|Company: Autodesk"
 90
        1
280
     0
281
     0
  0
CLASS
  1
AMDTEDGESTANDARDISO
  2
AmdtEdgeStdISO
  3
"Amdt_StdImp|Product Description: AutoCAD Mechanical 2004 DX|Company: Autodesk"
 90
        0
280
     0
281
     0
  0
CLASS
  1
ACMSURFSTANDARDISO
  2
AcmSurfTextStdISO
  3
"Amdt_StdImp|Product Description: AutoCAD Mechanical 2004 DX|Company: Autodesk"
 90
        0
280
     0
281
     0
  0
CLASS
  1
ACMFCFSTANDARDISO
  2
AcmFCFStdISO
  3
"Amdt_StdImp|Product Description: AutoCAD Mechanical 2004 DX|Company: Autodesk"
 90
        0
280
     0
281
     0
  0
CLASS
  1
ACMWELDSTANDARDISO
  2
AcmWeldingStdISO
  3
"Amdt_StdImp|Product Description: AutoCAD Mechanical 2004 DX|Company: Autodesk"
 90
        0
280
     0
281
     0
  0
CLASS
  1
ACMIDSTANDARDISO
  2
AcmIdStdISO
  3
"Amdt_StdImp|Product Description: AutoCAD Mechanical 2004 DX|Company: Autodesk"
 90
        0
280
     0
281
     0
  0
CLASS
  1
ACMDATUMSTANDARDISO
  2
AcmDatumStdISO
  3
"Amdt_StdImp|Product Description: AutoCAD Mechanical 2004 DX|Company: Autodesk"
 90
        0
280
     0
281
     0
  0
CLASS
  1
ACMBOMSTANDARDISO
  2
AcmBOMStdISO
  3
"Amdt_StdImp|Product Description: AutoCAD Mechanical 2004 DX|Company: Autodesk"
 90
        0
280
     0
281
     0
  0
CLASS
  1
ACMDETAILSTANDARDISO
  2
AmdtDetailSymStdISO
  3
"Amdt_StdImp|Product Description: AutoCAD Mechanical 2004 DX|Company: Autodesk"
 90
        0
280
     0
281
     0
  0
CLASS
  1
ACMSECTIONSTANDARDISO
  2
AmdtSectionSymStdISO
  3
"Amdt_StdImp|Product Description: AutoCAD Mechanical 2004 DX|Company: Autodesk"
 90
        0
280
     0
281
     0
  0
CLASS
  1
ACMCENTERLINESTANDARDISO
  2
AmdtCenterLineStdISO
  3
"Amdt_StdImp|Product Description: AutoCAD Mechanical 2004 DX|Company: Autodesk"
 90
        0
280
     0
281
     0
  0
CLASS
  1
ACMNOTESTANDARDISO
  2
AmdtNoteStdISO
  3
"Amdt_StdImp|Product Description: AutoCAD Mechanical 2004 DX|Company: Autodesk"
 90
        0
280
     0
281
     0
  0
CLASS
  1
ACAMGLAYSTD
  2
AcAmgLayStd
  3
"AcAmgLayStd|Product Description: AutoCAD Mechanical 2000|Company: Autodesk"
 90
        0
280
     0
281
     0
  0
CLASS
  1
ACAMGDIMSTD
  2
AcAmgDimStd
  3
"AcAmgDimStd|Product Description: AutoCAD Mechanical 2000|Company: Autodesk"
 90
        0
280
     0
281
     0
  0
CLASS
  1
ACAMGHOLECHARTSTDISO
  2
AcAmgHoleChartStdISO
  3
ACMSYMBB_MODULE_NAME
 90
        0
280
     0
281
     0
  0
CLASS
  1
ACAMGTITLESTD
  2
AcAmgTitleStd
  3
"TITLEAPP"
 90
        0
280
     0
281
     0
  0
CLASS
  1
LAYER_INDEX
  2
AcDbLayerIndex
  3
ObjectDBX Classes
 90
    32768
280
     0
281
     0
  0
CLASS
  1
IDBUFFER
  2
AcDbIdBuffer
  3
ObjectDBX Classes
 90
    32768
280
     0
281
     0
  0
CLASS
  1
DICTIONARYVAR
  2
AcDbDictionaryVar
  3
ObjectDBX Classes
 90
        0
280
     0
281
     0
  0
CLASS
  1
AM_DRAWING_MGR
  2
AcDmDwgMgr
  3
AcMechDwgViewMgmt
 90
        0
280
     0
281
     0
  0
CLASS
  1
AM_DWG_DOCUMENT
  2
AcDmDwgDocument
  3
AcMechDwgViewMgmt
 90
        0
280
     0
281
     0
  0
CLASS
  1
AM_DWG_SHEET
  2
AcDmSheet
  3
AcMechDwgViewMgmt
 90
        0
280
     0
281
     0
  0
CLASS
  1
AM_VIEWDIMPARMAP
  2
AcDmViewDimParMap
  3
AcMechDwgViewMgmt
 90
        0
280
     0
281
     0
  0
CLASS
  1
AM_DWGMGR_NAME
  2
AcDmDwgMgrName
  3
AcMechDwgViewMgmt
 90
        0
280
     0
281
     0
  0
CLASS
  1
AMDTMENUSTATEMGR
  2
AmdtMenuStateMgr
  3
McadcomServices
 90
        0
280
     0
281
     0
  0
CLASS
  1
AMDTMCOMMENUSTATE
  2
AmdtMcomMenuState
  3
McadcomServices
 90
        0
280
     0
281
     0
  0
CLASS
  1
MAPIAMMOUDLE
  2
MApiAmModule
  3
MApiAmServices
 90
        0
280
     0
281
     0
  0
CLASS
  1
AMDTADMENUSTATE
  2
AmdtAdMenuState
  3
DesignerServices
 90
        0
280
     0
281
     0
  0
CLASS
  1
ADAPPL
  2
AcAdAppl
  3
DesignerServices
 90
        0
280
     0
281
     0
  0
CLASS
  1
DEPMGR
  2
AcAdDepMgr
  3
DesignerServices
 90
        0
280
     0
281
     0
  0
CLASS
  1
PARAMMGR
  2
AcAdParamMgr
  3
DesignerServices
 90
        0
280
     0
281
     0
  0
CLASS
  1
PARAMSCOPE
  2
AcAdParamScope
  3
DesignerServices
 90
        0
280
     0
281
     0
  0
CLASS
  1
NAMEDAPPL
  2
AcAdNamedAppl
  3
DesignerServices
 90
        0
280
     0
281
     0
  0
CLASS
  1
AMDTDMMENUSTATE
  2
AmdtDmMenuState
  3
AcMechDwgViewMgmt
 90
        0
280
     0
281
     0
  0
CLASS
  1
AMDTAMMENUSTATE
  2
AmdtAmMenuState
  3
DesignerAssemblies
 90
        0
280
     0
281
     0
  0
CLASS
  1
ACAMPROJECT
  2
AcAmProject
  3
DesignerAssemblies
 90
        0
280
     0
281
     0
  0
CLASS
  1
ACAMGRCOMPDEF
  2
AcAmGrCompDef
  3
DesignerAssemblies
 90
        0
280
     0
281
     0
  0
CLASS
  1
ACCMCONTEXT
  2
AcCmContext
  3
DesignerAssemblies
 90
        0
280
     0
281
     0
  0
CLASS
  1
ACAMCOMPDEF
  2
AcAmCompDef
  3
DesignerAssemblies
 90
        0
280
     0
281
     0
  0
CLASS
  1
ACAMCOMPDEFMGR
  2
AcAmCompDefMgr
  3
DesignerAssemblies
 90
        0
280
     0
281
     0
  0
CLASS
  1
AMCONTEXTMGR
  2
AcAmContextMgr
  3
DesignerAssemblies
 90
        0
280
     0
281
     0
  0
CLASS
  1
ACAMCONTEXTMODELER
  2
AcAmContextModeler
  3
DesignerAssemblies
 90
        0
280
     0
281
     0
  0
CLASS
  1
ACMTHREADLINESTANDARDISO
  2
AmdtThreadLineStdISO
  3
"Amdt_StdImp|Product Description: AutoCAD Mechanical 2004 DX|Company: Autodesk"
 90
        0
280
     0
281
     0
  0
CLASS
  1
CATALOGSTATE
  2
AcAmCatalogState
  3
DesignerAssemblies
 90
        0
280
     0
281
     0
  0
CLASS
  1
ACAMGRCOMPDEFSET
  2
AcAmGrCompDefSet
  3
DesignerAssemblies
 90
        0
280
     0
281
     0
  0
CLASS
  1
AMDTBROWSERDBTAB
  2
AmdtBrowserDbTab
  3
McadcomServices
 90
        0
280
     0
281
     0
  0
CLASS
  1
CBROWSERAPPOBJECT
  2
CBrowserAppObject
  3
McadcomServices
 90
        0
280
     0
281
     0
  0
CLASS
  1
DM_PLACEHOLDER
  2
AcDmSelsetPlaceholder
  3
AcMechDwgViewMgmt
 90
        0
280
     0
281
     0
  0
CLASS
  1
TABLESTYLE
  2
AcDbTableStyle
  3
ObjectDBX Classes
 90
     2047
280
     0
281
     0
  0
CLASS
  1
VAACXREFPANELOBJECT
  2
VaAcXREFPanelObject
  3
VAAC_ADDIN
 90
    32768
280
     0
281
     0
  0
CLASS
  1
VAACIMAGEINVENTORY
  2
VaAcImageInventory
  3
VAAC_ADDIN
 90
    32768
280
     0
281
     0
  0
CLASS
  1
AMDTNOTETEMPLATEDB
  2
AmdtNoteTemplateDB
  3
AMDT_STDIMP_MODULE_NAME
 90
        0
280
     0
281
     0
  0
CLASS
  1
ACMBOM
  2
AcmBom
  3
"AcmSymBB|Product Description: AutoCAD Mechanical 2004 DX|Company: Autodesk"
 90
    32768
280
     0
281
     0
  0
CLASS
  1
AMDTFORMULAUPDATEDISPATCHER
  2
AmdtFormulaUpdateDispatcher
  3
AcMeServices
 90
    32768
280
     0
281
     0
  0
CLASS
  1
ACMPARTLIST
  2
AcmPartList
  3
"AcmSymBB|Product Description: AutoCAD Mechanical 2004 DX|Company: Autodesk"
 90
    33791
280
     0
281
     1
  0
CLASS
  1
ACAMGFILTERDAT
  2
AcAmgFilterDat
  3
"AcadM|Product Description: AutoCAD Mechanical 2000|Company: Autodesk"
 90
        0
280
     0
281
     0
  0
CLASS
  1
DIMASSOC
  2
AcDbDimAssoc
  3
"AcDbDimAssoc|Product Desc:     AcDim ARX App For Dimension|Company:          Autodesk, Inc.|WEB Address:      www.autodesk.com"
 90
        0
280
     0
281
     0
  0
CLASS
  1
ACMSTANDARDANSI
  2
AcmStandardANSI
  3
"Amdt_StdImp|Product Description: AutoCAD Mechanical 2004 DX|Company: Autodesk"
 90
        0
280
     0
281
     0
  0
CLASS
  1
ACMSURFSTANDARDANSI
  2
AcmSurfTextStdANSI
  3
"Amdt_StdImp|Product Description: AutoCAD Mechanical 2004 DX|Company: Autodesk"
 90
        0
280
     0
281
     0
  0
CLASS
  1
ACMFCFSTANDARDANSI
  2
AcmFCFStdANSI
  3
"Amdt_StdImp|Product Description: AutoCAD Mechanical 2004 DX|Company: Autodesk"
 90
        0
280
     0
281
     0
  0
CLASS
  1
ACMWELDSTANDARDANSI
  2
AcmWeldingStdANSI
  3
"Amdt_StdImp|Product Description: AutoCAD Mechanical 2004 DX|Company: Autodesk"
 90
        0
280
     0
281
     0
  0
CLASS
  1
ACMIDSTANDARDANSI
  2
AcmIdStdANSI
  3
"Amdt_StdImp|Product Description: AutoCAD Mechanical 2004 DX|Company: Autodesk"
 90
        0
280
     0
281
     0
  0
CLASS
  1
ACMDATUMSTANDARDANSI
  2
AcmDatumStdANSI
  3
"Amdt_StdImp|Product Description: AutoCAD Mechanical 2004 DX|Company: Autodesk"
 90
        0
280
     0
281
     0
  0
CLASS
  1
ACMBOMSTANDARDANSI
  2
AcmBOMStdANSI
  3
"Amdt_StdImp|Product Description: AutoCAD Mechanical 2004 DX|Company: Autodesk"
 90
        0
280
     0
281
     0
  0
CLASS
  1
ACMDETAILSTANDARDANSI
  2
AmdtDetailSymStdANSI
  3
"Amdt_StdImp|Product Description: AutoCAD Mechanical 2004 DX|Company: Autodesk"
 90
        0
280
     0
281
     0
  0
CLASS
  1
ACMSECTIONSTANDARDANSI
  2
AmdtSectionSymStdANSI
  3
"Amdt_StdImp|Product Description: AutoCAD Mechanical 2004 DX|Company: Autodesk"
 90
        0
280
     0
281
     0
  0
CLASS
  1
ACMCENTERLINESTANDARDANSI
  2
AmdtCenterLineStdANSI
  3
"Amdt_StdImp|Product Description: AutoCAD Mechanical 2004 DX|Company: Autodesk"
 90
        0
280
     0
281
     0
  0
CLASS
  1
ACMTHREADLINESTANDARDANSI
  2
AmdtThreadLineStdANSI
  3
"Amdt_StdImp|Product Description: AutoCAD Mechanical 2004 DX|Company: Autodesk"
 90
        0
280
     0
281
     0
  0
CLASS
  1
ACMNOTESTANDARDANSI
  2
AmdtNoteStdANSI
  3
"Amdt_StdImp|Product Description: AutoCAD Mechanical 2004 DX|Company: Autodesk"
 90
        0
280
     0
281
     0
  0
CLASS
  1
ACAMGHOLECHARTSTDANSI
  2
AcAmgHoleChartStdANSI
  3
ACMSYMBB_MODULE_NAME
 90
        0
280
     0
281
     0
  0
CLASS
  1
ACRFATTGENMGR
  2
AcRfAttGeneralMgr
  3
AcAttribServices
 90
        0
280
     0
281
     0
  0
ENDSEC
  0
SECTION
  2
TABLES
  0
TABLE
  2
VPORT
  5
8
330
0
100
AcDbSymbolTable
 70
     4
  0
VPORT
  5
1A30
330
8
100
AcDbSymbolTableRecord
100
AcDbViewportTableRecord
  2
*Active
 70
     0
 10
0.0
 20
0.0
 11
1.0
 21
1.0
 12
544.5175517258721
 22
529.2193951864501
 13
0.0
 23
0.0
 14
2.5
 24
2.5
 15
10.0
 25
10.0
 16
0.0
 26
0.0
 36
1.0
 17
0.0
 27
0.0
 37
0.0
 40
519.0303149057506
 41
1.661684782608695
 42
50.0
 43
0.0
 44
0.0
 50
0.0
 51
0.0
 71
     0
 72
   100
 73
     1
 74
     3
 75
     0
 76
     0
 77
     0
 78
     0
281
     0
 65
     1
110
0.0
120
0.0
130
0.0
111
1.0
121
0.0
131
0.0
112
0.0
122
1.0
132
0.0
 79
     0
146
0.0
  0
ENDTAB
  0
TABLE
  2
LTYPE
  5
5
330
0
100
AcDbSymbolTable
 70
    17
  0
LTYPE
  5
14
330
5
100
AcDbSymbolTableRecord
100
AcDbLinetypeTableRecord
  2
ByBlock
 70
     0
  3

 72
    65
 73
     0
 40
0.0
  0
LTYPE
  5
15
330
5
100
AcDbSymbolTableRecord
100
AcDbLinetypeTableRecord
  2
ByLayer
 70
     0
  3

 72
    65
 73
     0
 40
0.0
  0
LTYPE
  5
16
330
5
100
AcDbSymbolTableRecord
100
AcDbLinetypeTableRecord
  2
Continuous
 70
     0
  3
Solid line
 72
    65
 73
     0
 40
0.0
  0
LTYPE
  5
64
330
5
100
AcDbSymbolTableRecord
100
AcDbLinetypeTableRecord
  2
AM_ISO02W050
 70
     0
  3
__ __ __ __ __ __ __ __ __ __ __ __ __ __ __
 72
    65
 73
     2
 40
7.5
 49
6.0
 74
     0
 49
-1.5
 74
     0
  0
LTYPE
  5
65
330
5
100
AcDbSymbolTableRecord
100
AcDbLinetypeTableRecord
  2
AM_ISO08W050
 70
     0
  3
____ . ____ . ____ . ____ . ____ . ____ . ____
 72
    65
 73
     4
 40
18.0
 49
12.0
 74
     0
 49
-1.5
 74
     0
 49
3.0
 74
     0
 49
-1.5
 74
     0
  0
LTYPE
  5
66
330
5
100
AcDbSymbolTableRecord
100
AcDbLinetypeTableRecord
  2
AM_ISO09W050
 70
     0
  3
_____ . . _____ . . _____ . . ____ .. ____
 72
    65
 73
     6
 40
22.5
 49
12.0
 74
     0
 49
-1.5
 74
     0
 49
3.0
 74
     0
 49
-1.5
 74
     0
 49
3.0
 74
     0
 49
-1.5
 74
     0
  0
LTYPE
  5
67
330
5
100
AcDbSymbolTableRecord
100
AcDbLinetypeTableRecord
  2
Amconstr
 70
     0
  3
_______________________
 72
    65
 73
     2
 40
9999.0
 49
9999.0
 74
     0
 49
0.0
 74
     0
  0
LTYPE
  5
68
330
5
100
AcDbSymbolTableRecord
100
AcDbLinetypeTableRecord
  2
AM_ISO08W050x2
 70
     0
  3
__ . __ . __ . __ . __ . __
 72
    65
 73
     4
 40
9.0
 49
6.0
 74
     0
 49
-0.75
 74
     0
 49
1.5
 74
     0
 49
-0.75
 74
     0
  0
LTYPE
  5
69
330
5
100
AcDbSymbolTableRecord
100
AcDbLinetypeTableRecord
  2
AM_ISO02W050x2
 70
     0
  3
 _ _ _ _ _ _ _ _ _ _ _ _
 72
    65
 73
     2
 40
3.75
 49
3.0
 74
     0
 49
-0.75
 74
     0
  0
LTYPE
  5
6C
330
5
100
AcDbSymbolTableRecord
100
AcDbLinetypeTableRecord
  2
Amzigzag
 70
     0
  3
/\/-/\/-/\/-/\/-/\/-/\/
 72
    65
 73
     2
 40
11.0001
 49
0.0001
 74
     4
 75
   135
340
6B
 46
0.04
 50
0.0
 44
0.0
 45
0.0
 49
-11.0
 74
     0
  0
LTYPE
  5
7A
330
5
100
AcDbSymbolTableRecord
100
AcDbLinetypeTableRecord
  2
ACISOWELD
 70
     0
  3
_ _ _ _ _
 72
    65
 73
     2
 40
2.0
 49
2.0
 74
     0
 49
-1.0
 74
     0
  0
LTYPE
  5
7B
330
5
100
AcDbSymbolTableRecord
100
AcDbLinetypeTableRecord
  2
ACISOTGB
 70
     0
  3
__ . . __ . .
 72
    65
 73
     6
 40
9.0
 49
4.0
 74
     0
 49
-1.0
 74
     0
 49
1.0
 74
     0
 49
-1.0
 74
     0
 49
1.0
 74
     0
 49
-1.0
 74
     0
  0
LTYPE
  5
7C
330
5
100
AcDbSymbolTableRecord
100
AcDbLinetypeTableRecord
  2
ACISOTGL
 70
     0
  3
_ _ _ _ _
 72
    65
 73
     2
 40
3.0
 49
2.0
 74
     0
 49
-1.0
 74
     0
  0
LTYPE
  5
7E
330
5
100
AcDbSymbolTableRecord
100
AcDbLinetypeTableRecord
  2
CENTER
 70
     0
  3
__ . __
 72
    65
 73
     4
 40
7.0
 49
4.0
 74
     0
 49
-1.0
 74
     0
 49
1.0
 74
     0
 49
-1.0
 74
     0
  0
LTYPE
  5
D8
330
5
100
AcDbSymbolTableRecord
100
AcDbLinetypeTableRecord
  2
HIDDEN
 70
     0
  3
Hidden __ __ __ __ __ __ __ __ __ __ __ __ __ _
 72
    65
 73
     2
 40
9.524999999999998
 49
6.349999999999999
 74
     0
 49
-3.174999999999999
 74
     0
  0
LTYPE
  5
D9
330
5
100
AcDbSymbolTableRecord
100
AcDbLinetypeTableRecord
  2
PHANTOM2
 70
     0
  3
Phantom (.5x) ___ _ _ ___ _ _ ___ _ _ ___ _ _
 72
    65
 73
     6
 40
31.75
 49
15.875
 74
     0
 49
-3.174999999999999
 74
     0
 49
3.174999999999999
 74
     0
 49
-3.174999999999999
 74
     0
 49
3.174999999999999
 74
     0
 49
-3.174999999999999
 74
     0
  0
LTYPE
  5
BDD
330
5
100
AcDbSymbolTableRecord
100
AcDbLinetypeTableRecord
  2
PHANTOM
 70
     0
  3
______  __  __  ______  __  __  ______  __  __ 
 72
    65
 73
     6
 40
2.5
 49
1.25
 74
     0
 49
-0.25
 74
     0
 49
0.25
 74
     0
 49
-0.25
 74
     0
 49
0.25
 74
     0
 49
-0.25
 74
     0
  0
LTYPE
  5
BE1
330
5
100
AcDbSymbolTableRecord
100
AcDbLinetypeTableRecord
  2
ACANSTGB
 70
     0
  3
__ . . __ . .
 72
    65
 73
     6
 40
0.35433070866
 49
0.15748031496
 74
     0
 49
-0.03937007874
 74
     0
 49
0.03937007874
 74
     0
 49
-0.03937007874
 74
     0
 49
0.03937007874
 74
     0
 49
-0.03937007874
 74
     0
  0
LTYPE
  5
BE2
330
5
100
AcDbSymbolTableRecord
100
AcDbLinetypeTableRecord
  2
ACANSTGL
 70
     0
  3
_ _ _ _ _
 72
    65
 73
     2
 40
0.11811023622
 49
0.07874015748
 74
     0
 49
-0.03937007874
 74
     0
  0
ENDTAB
  0
TABLE
  2
LAYER
  5
2
102
{ACAD_XDICTIONARY
360
3F9
102
}
330
0
100
AcDbSymbolTable
 70
     7
  0
LAYER
  5
10
330
2
100
AcDbSymbolTableRecord
100
AcDbLayerTableRecord
  2
0
 70
     0
 62
     7
  6
Continuous
370
    -3
390
F
  0
LAYER
  5
BE3
330
2
100
AcDbSymbolTableRecord
100
AcDbLayerTableRecord
  2
Dim
 70
     0
 62
     5
  6
Continuous
370
    13
390
F
  0
LAYER
  5
BE4
330
2
100
AcDbSymbolTableRecord
100
AcDbLayerTableRecord
  2
Defpoints
 70
     0
 62
     7
  6
Continuous
290
     0
370
    -3
390
F
  0
LAYER
  5
BE6
330
2
100
AcDbSymbolTableRecord
100
AcDbLayerTableRecord
  2
圖層1
 70
     0
 62
     2
  6
PHANTOM
370
    -3
390
F
  0
LAYER
  5
12B6
330
2
100
AcDbSymbolTableRecord
100
AcDbLayerTableRecord
  2
AM_7
 70
     0
 62
     1
  6
CENTER
370
    25
390
F
  0
LAYER
  5
14DF
330
2
100
AcDbSymbolTableRecord
100
AcDbLayerTableRecord
  2
LOGO
 70
     0
 62
     7
  6
Continuous
370
    -3
390
F
  0
LAYER
  5
164C
330
2
100
AcDbSymbolTableRecord
100
AcDbLayerTableRecord
  2
AM_5
 70
     0
 62
     5
  6
Continuous
370
    50
390
F
  0
ENDTAB
  0
TABLE
  2
STYLE
  5
3
330
0
100
AcDbSymbolTable
 70
    10
  0
STYLE
  5
11
330
3
100
AcDbSymbolTableRecord
100
AcDbTextStyleTableRecord
  2
STANDARD
 70
     0
 40
0.0
 41
1.0
 50
0.0
 71
     0
 42
3.0
  3
ISOCP.SHX
  4
CHINESET.SHX
  0
STYLE
  5
6B
330
3
100
AcDbSymbolTableRecord
100
AcDbTextStyleTableRecord
  2

 70
     1
 40
0.0
 41
1.0
 50
0.0
 71
     0
 42
2.5
  3
ltypeshp.shx
  4

  0
STYLE
  5
6D
330
3
100
AcDbSymbolTableRecord
100
AcDbTextStyleTableRecord
  2
ACISOTS
 70
     0
 40
1.0
 41
1.0
 50
0.0
 71
     0
 42
1.0
  3
isocp.shx
  4
chineset.shx
  0
STYLE
  5
79
330
3
100
AcDbSymbolTableRecord
100
AcDbTextStyleTableRecord
  2
ACISOGDT
 70
     0
 40
0.0
 41
1.0
 50
0.0
 71
     0
 42
2.5
  3
amgdt.shx
  4
chineset.shx
  0
STYLE
  5
BE7
330
3
100
AcDbSymbolTableRecord
100
AcDbTextStyleTableRecord
  2
AAA
 70
     0
 40
0.0
 41
1.0
 50
0.0
 71
     0
 42
3.2
  3
TXT
  4

  0
STYLE
  5
BE8
330
3
100
AcDbSymbolTableRecord
100
AcDbTextStyleTableRecord
  2
China
 70
     0
 40
0.0
 41
1.0
 50
0.0
 71
     0
 42
3.2
  3
romans.shx
  4
chineset.shx
  0
STYLE
  5
BE9
330
3
100
AcDbSymbolTableRecord
100
AcDbTextStyleTableRecord
  2
ACANSTS
 70
     0
 40
1.0
 41
1.0
 50
0.0
 71
     0
 42
3.2
  3
romans.shx
  4
chineset.shx
  0
STYLE
  5
BEA
330
3
100
AcDbSymbolTableRecord
100
AcDbTextStyleTableRecord
  2
ACANSGDT
 70
     0
 40
0.0
 41
1.0
 50
0.0
 71
     0
 42
3.2
  3
amgdtans.shx
  4

  0
STYLE
  5
14E0
330
3
100
AcDbSymbolTableRecord
100
AcDbTextStyleTableRecord
  2
CHINESET
 70
     0
 40
0.0
 41
1.0
 50
0.0
 71
     0
 42
3.0
  3
simplex.shx
  4
CHINESET.SHX
  0
ENDTAB
  0
TABLE
  2
VIEW
  5
6
330
0
100
AcDbSymbolTable
 70
     0
  0
ENDTAB
  0
TABLE
  2
UCS
  5
7
330
0
100
AcDbSymbolTable
 70
     0
  0
ENDTAB
  0
TABLE
  2
APPID
  5
9
330
0
100
AcDbSymbolTable
 70
    20
  0
APPID
  5
12
330
9
100
AcDbSymbolTableRecord
100
AcDbRegAppTableRecord
  2
ACAD
 70
     0
  0
APPID
  5
46
330
9
100
AcDbSymbolTableRecord
100
AcDbRegAppTableRecord
  2
MCAD_NO_VIS
 70
     0
  0
APPID
  5
47
330
9
100
AcDbSymbolTableRecord
100
AcDbRegAppTableRecord
  2
ACAD_TEMP_GRAPHIC
 70
     0
  0
APPID
  5
58
330
9
100
AcDbSymbolTableRecord
100
AcDbRegAppTableRecord
  2
ACATTRIBSERVICES
 70
     0
  0
APPID
  5
EE
330
9
100
AcDbSymbolTableRecord
100
AcDbRegAppTableRecord
  2
AD_DRAW
 70
     0
  0
APPID
  5
10C
330
9
100
AcDbSymbolTableRecord
100
AcDbRegAppTableRecord
  2
DESIGNERASSEMBLIES
 70
     0
  0
APPID
  5
111
330
9
100
AcDbSymbolTableRecord
100
AcDbRegAppTableRecord
  2
ACADM_DIM_EDIT
 70
     0
  0
APPID
  5
112
330
9
100
AcDbSymbolTableRecord
100
AcDbRegAppTableRecord
  2
AMDT_DM_ADJ
 70
     0
  0
APPID
  5
22C
330
9
100
AcDbSymbolTableRecord
100
AcDbRegAppTableRecord
  2
ACAD_DSTYLE_DIMTEXT_FILL
 70
     0
  0
APPID
  5
452
330
9
100
AcDbSymbolTableRecord
100
AcDbRegAppTableRecord
  2
GENIUS_GENOENT_13
 70
     0
  0
APPID
  5
453
330
9
100
AcDbSymbolTableRecord
100
AcDbRegAppTableRecord
  2
GENIUS_GENOBJ-N-CRS_13
 70
     0
  0
APPID
  5
454
330
9
100
AcDbSymbolTableRecord
100
AcDbRegAppTableRecord
  2
GENIUS_GENOLIS_13
 70
     0
  0
APPID
  5
455
330
9
100
AcDbSymbolTableRecord
100
AcDbRegAppTableRecord
  2
GENIUS_GENODEF_13
 70
     0
  0
APPID
  5
456
330
9
100
AcDbSymbolTableRecord
100
AcDbRegAppTableRecord
  2
GENIUS_GENOREF_13
 70
     0
  0
APPID
  5
6F3
330
9
100
AcDbSymbolTableRecord
100
AcDbRegAppTableRecord
  2
ACAD_PSEXT
 70
     0
  0
APPID
  5
808
330
9
100
AcDbSymbolTableRecord
100
AcDbRegAppTableRecord
  2
GENIUS_GENDTOL_13
 70
     0
  0
APPID
  5
12B8
330
9
100
AcDbSymbolTableRecord
100
AcDbRegAppTableRecord
  2
GENIUS_GENOBJ-N-CEN_13
 70
     0
  0
APPID
  5
12B9
330
9
100
AcDbSymbolTableRecord
100
AcDbRegAppTableRecord
  2
GENIUS_GENCEN_19
 70
     0
  0
APPID
  5
14E1
330
9
100
AcDbSymbolTableRecord
100
AcDbRegAppTableRecord
  2
GENIUS_GENREC_14
 70
     0
  0
APPID
  5
14E2
330
9
100
AcDbSymbolTableRecord
100
AcDbRegAppTableRecord
  2
GENIUS_GENOBJ-N-REC_13
 70
     0
  0
ENDTAB
  0
TABLE
  2
DIMSTYLE
  5
A
330
0
100
AcDbSymbolTable
 70
    16
100
AcDbDimStyleTable
 71
     4
340
81
340
BEB
340
8B
340
86
  0
DIMSTYLE
105
81
330
A
100
AcDbSymbolTableRecord
100
AcDbDimStyleTableRecord
  2
AM_ISO
 70
     0
  4
"
 41
3.0
 42
1.0
 43
8.0
 44
1.5
 47
0.1
 48
0.1
 73
     0
 74
     0
 77
     1
 78
     8
 79
     2
140
3.5
141
0.0
143
0.0393701
146
0.6
147
0.7
172
     1
176
   256
177
   256
178
   256
271
     2
272
     2
283
     0
284
     8
340
11
371
    -1
372
    -1
  0
DIMSTYLE
105
82
330
A
100
AcDbSymbolTableRecord
100
AcDbDimStyleTableRecord
  2
AM_ISO$3
 70
     0
  4
"
 41
3.0
 42
1.0
 43
8.0
 44
1.5
 47
0.1
 48
0.1
 73
     0
 77
     1
 78
     8
 79
     2
140
3.5
141
0.0
143
0.0393701
146
0.6
147
0.7
176
   256
177
   256
178
   256
271
     2
272
     2
283
     0
284
     8
288
     1
289
     0
340
11
371
    -1
372
    -1
  0
DIMSTYLE
105
83
330
A
100
AcDbSymbolTableRecord
100
AcDbDimStyleTableRecord
  2
AM_ISO$4
 70
     0
  4
"
 41
3.0
 42
1.0
 43
8.0
 44
1.5
 47
0.1
 48
0.1
 73
     0
 77
     1
 78
     8
 79
     2
140
3.5
141
0.0
143
0.0393701
146
0.6
147
0.7
176
   256
177
   256
178
   256
271
     2
272
     2
283
     0
284
     8
288
     1
289
     0
340
11
371
    -1
372
    -1
  0
DIMSTYLE
105
84
330
A
100
AcDbSymbolTableRecord
100
AcDbDimStyleTableRecord
  2
AM_ISO$6
 70
     0
  4
"
 41
3.0
 42
1.0
 43
8.0
 44
1.5
 47
0.1
 48
0.1
 73
     0
 74
     0
 78
     8
 79
     2
140
3.5
141
0.0
143
0.0393701
146
0.6
147
0.7
172
     1
176
   256
177
   256
178
   256
271
     2
272
     2
283
     0
284
     8
340
11
371
    -1
372
    -1
  0
DIMSTYLE
105
85
330
A
100
AcDbSymbolTableRecord
100
AcDbDimStyleTableRecord
  2
AM_ISO$7
 70
     0
  4
"
 41
3.0
 42
1.0
 43
8.0
 44
1.5
 47
0.1
 48
0.1
 73
     0
 74
     0
 77
     1
 78
     8
 79
     2
140
5.0
141
0.0
143
0.0393701
146
0.6
147
0.7
172
     1
176
   256
177
   256
178
   256
271
     2
272
     2
283
     0
284
     8
340
11
371
    -1
372
    -1
  0
DIMSTYLE
105
86
330
A
100
AcDbSymbolTableRecord
100
AcDbDimStyleTableRecord
  2
AM_ISO$SF
 70
     0
  4
"
 41
2.5
 42
1.0
 43
10.0
 44
1.0
 47
0.1
 48
0.1
 73
     0
 74
     0
 75
     1
 76
     1
 77
     1
 78
     8
 79
     2
140
3.5
141
0.0
143
0.0393701
146
0.71
147
1.5
172
     1
176
   256
177
   256
178
     2
271
     2
272
     3
274
     4
283
     0
284
     8
340
11
371
    -1
372
    -1
  0
DIMSTYLE
105
8B
330
A
100
AcDbSymbolTableRecord
100
AcDbDimStyleTableRecord
  2
AM_ISO$SH
 70
     0
  4
"
 41
2.5
 42
1.0
 43
10.0
 44
1.0
 47
0.1
 48
0.1
 73
     0
 74
     0
 75
     1
 76
     1
 77
     1
 78
     8
 79
     2
140
3.5
141
0.0
143
0.0393701
144
2.0
146
0.71
147
1.5
172
     1
173
     1
176
   256
177
   256
178
     2
271
     2
272
     3
274
     4
283
     0
284
     8
340
11
343
87
371
    -1
372
    -1
  0
DIMSTYLE
105
40B
102
{ACAD_REACTORS
330
1729
102
}
330
A
100
AcDbSymbolTableRecord
100
AcDbDimStyleTableRecord
  2
AM_ISO$0
 70
     0
  4
"
 41
3.0
 42
1.0
 43
8.0
 44
1.5
 47
0.1
 48
0.1
 73
     0
 74
     0
 77
     1
 78
     8
 79
     2
140
3.5
141
0.0
143
0.0393701
146
0.6
147
0.7
172
     1
176
   256
177
   256
178
   256
271
     2
272
     2
283
     0
284
     8
340
11
371
    -1
372
    -1
  0
DIMSTYLE
105
BEB
102
{ACAD_REACTORS
330
E1A
330
E1B
330
E22
330
E27
330
E51
330
E52
330
E55
330
E62
330
E6B
330
E6C
330
E6F
330
E75
330
E7A
330
E7B
330
E7C
330
EAD
330
EAE
330
EC2
330
EC3
330
EC4
330
EC5
330
EE9
330
F04
330
F0B
330
165B
330
1853
330
182D
330
17D2
330
1792
330
17F8
330
19B9
102
}
330
A
100
AcDbSymbolTableRecord
100
AcDbDimStyleTableRecord
  2
Standard
 70
     0
340
BE7
  0
DIMSTYLE
105
BEC
330
A
100
AcDbSymbolTableRecord
100
AcDbDimStyleTableRecord
  2
AM_ANSI
 70
     0
  4
mm
 41
0.1
 42
0.05
 43
0.5
 44
0.1
 47
0.1
 48
0.1
 78
     7
 79
     2
140
0.12
141
0.0
146
0.71
147
0.06
176
   256
177
   256
178
     2
274
     4
284
     7
340
BE7
371
    -1
372
    -1
  0
DIMSTYLE
105
BED
330
A
100
AcDbSymbolTableRecord
100
AcDbDimStyleTableRecord
  2
AM_ANSI$3
 70
     0
  4
mm
 41
0.1
 42
0.05
 43
0.5
 44
0.1
 47
0.1
 48
0.1
 78
     7
 79
     2
140
0.12
141
0.0
146
0.71
147
0.06
176
   256
177
   256
178
     2
274
     4
284
     7
288
     1
289
     0
340
BE7
371
    -1
372
    -1
  0
DIMSTYLE
105
BEE
330
A
100
AcDbSymbolTableRecord
100
AcDbDimStyleTableRecord
  2
AM_ANSI$4
 70
     0
  4
mm
 41
0.1
 42
0.05
 43
0.5
 44
0.1
 47
0.1
 48
0.1
 78
     7
 79
     2
140
0.12
141
0.0
146
0.71
147
0.06
176
   256
177
   256
178
     2
274
     4
284
     7
288
     1
289
     0
340
BE7
371
    -1
372
    -1
  0
DIMSTYLE
105
BEF
330
A
100
AcDbSymbolTableRecord
100
AcDbDimStyleTableRecord
  2
AM_ANSI$7
 70
     0
  4
mm
 41
0.1
 42
0.05
 43
0.5
 44
0.1
 47
0.1
 48
0.1
 78
     7
 79
     2
140
0.24
141
0.0
146
0.71
147
0.06
176
   256
177
   256
178
     2
274
     4
284
     7
340
BE7
371
    -1
372
    -1
  0
DIMSTYLE
105
BF0
330
A
100
AcDbSymbolTableRecord
100
AcDbDimStyleTableRecord
  2
AM_ANSI$SF
 70
     0
  4
mm
 41
0.1
 42
0.05
 43
0.5
 44
0.1
 47
0.1
 48
0.1
 75
     1
 76
     1
 78
     7
 79
     2
140
0.12
141
0.0
146
0.71
147
0.06
176
   256
177
   256
178
     2
274
     4
284
     7
340
BE7
371
    -1
372
    -1
  0
DIMSTYLE
105
BF1
330
A
100
AcDbSymbolTableRecord
100
AcDbDimStyleTableRecord
  2
AM_ANSI$SH
 70
     0
  4
mm
 41
0.1
 42
0.05
 43
0.5
 44
0.1
 47
0.1
 48
0.1
 75
     1
 76
     1
 78
     7
 79
     2
140
0.12
141
0.0
146
0.71
147
0.06
173
     1
176
   256
177
   256
178
     2
274
     4
284
     7
340
BE7
343
87
371
    -1
372
    -1
  0
ENDTAB
  0
TABLE
  2
BLOCK_RECORD
  5
1
330
0
100
AcDbSymbolTable
 70
    36
  0
BLOCK_RECORD
  5
1F
102
{ACAD_XDICTIONARY
360
8F
102
}
330
1
100
AcDbSymbolTableRecord
100
AcDbBlockTableRecord
  2
*Model_Space
340
22
  0
BLOCK_RECORD
  5
1B
330
1
100
AcDbSymbolTableRecord
100
AcDbBlockTableRecord
  2
*Paper_Space
340
1E
  0
BLOCK_RECORD
  5
23
330
1
100
AcDbSymbolTableRecord
100
AcDbBlockTableRecord
  2
*Paper_Space0
340
26
  0
BLOCK_RECORD
  5
87
330
1
100
AcDbSymbolTableRecord
100
AcDbBlockTableRecord
  2
GENAXEH
340
0
  0
BLOCK_RECORD
  5
101A
330
1
100
AcDbSymbolTableRecord
100
AcDbBlockTableRecord
  2
*D3
340
0
  0
BLOCK_RECORD
  5
1026
330
1
100
AcDbSymbolTableRecord
100
AcDbBlockTableRecord
  2
*D4
340
0
  0
BLOCK_RECORD
  5
1032
330
1
100
AcDbSymbolTableRecord
100
AcDbBlockTableRecord
  2
*D5
340
0
  0
BLOCK_RECORD
  5
103E
330
1
100
AcDbSymbolTableRecord
100
AcDbBlockTableRecord
  2
*D6
340
0
  0
BLOCK_RECORD
  5
1049
330
1
100
AcDbSymbolTableRecord
100
AcDbBlockTableRecord
  2
*D7
340
0
  0
BLOCK_RECORD
  5
1055
330
1
100
AcDbSymbolTableRecord
100
AcDbBlockTableRecord
  2
*D8
340
0
  0
BLOCK_RECORD
  5
1061
330
1
100
AcDbSymbolTableRecord
100
AcDbBlockTableRecord
  2
*D9
340
0
  0
BLOCK_RECORD
  5
106D
330
1
100
AcDbSymbolTableRecord
100
AcDbBlockTableRecord
  2
*D10
340
0
  0
BLOCK_RECORD
  5
1079
330
1
100
AcDbSymbolTableRecord
100
AcDbBlockTableRecord
  2
*D11
340
0
  0
BLOCK_RECORD
  5
1085
330
1
100
AcDbSymbolTableRecord
100
AcDbBlockTableRecord
  2
*D12
340
0
  0
BLOCK_RECORD
  5
1091
330
1
100
AcDbSymbolTableRecord
100
AcDbBlockTableRecord
  2
*D13
340
0
  0
BLOCK_RECORD
  5
109D
330
1
100
AcDbSymbolTableRecord
100
AcDbBlockTableRecord
  2
*D14
340
0
  0
BLOCK_RECORD
  5
10A8
330
1
100
AcDbSymbolTableRecord
100
AcDbBlockTableRecord
  2
*D15
340
0
  0
BLOCK_RECORD
  5
10B4
330
1
100
AcDbSymbolTableRecord
100
AcDbBlockTableRecord
  2
*D16
340
0
  0
BLOCK_RECORD
  5
10C0
330
1
100
AcDbSymbolTableRecord
100
AcDbBlockTableRecord
  2
*D17
340
0
  0
BLOCK_RECORD
  5
10CC
330
1
100
AcDbSymbolTableRecord
100
AcDbBlockTableRecord
  2
*D18
340
0
  0
BLOCK_RECORD
  5
10DA
330
1
100
AcDbSymbolTableRecord
100
AcDbBlockTableRecord
  2
*D19
340
0
  0
BLOCK_RECORD
  5
10F2
330
1
100
AcDbSymbolTableRecord
100
AcDbBlockTableRecord
  2
*D20
340
0
  0
BLOCK_RECORD
  5
10FE
330
1
100
AcDbSymbolTableRecord
100
AcDbBlockTableRecord
  2
*D21
340
0
  0
BLOCK_RECORD
  5
110A
330
1
100
AcDbSymbolTableRecord
100
AcDbBlockTableRecord
  2
*D22
340
0
  0
BLOCK_RECORD
  5
1116
330
1
100
AcDbSymbolTableRecord
100
AcDbBlockTableRecord
  2
*D23
340
0
  0
BLOCK_RECORD
  5
1122
330
1
100
AcDbSymbolTableRecord
100
AcDbBlockTableRecord
  2
*D24
340
0
  0
BLOCK_RECORD
  5
112E
330
1
100
AcDbSymbolTableRecord
100
AcDbBlockTableRecord
  2
*D25
340
0
  0
BLOCK_RECORD
  5
113A
330
1
100
AcDbSymbolTableRecord
100
AcDbBlockTableRecord
  2
*D26
340
0
  0
BLOCK_RECORD
  5
165C
330
1
100
AcDbSymbolTableRecord
100
AcDbBlockTableRecord
  2
*D27
340
0
  0
BLOCK_RECORD
  5
172A
330
1
100
AcDbSymbolTableRecord
100
AcDbBlockTableRecord
  2
*D28
340
0
  0
BLOCK_RECORD
  5
1793
330
1
100
AcDbSymbolTableRecord
100
AcDbBlockTableRecord
  2
*D29
340
0
  0
BLOCK_RECORD
  5
17D3
330
1
100
AcDbSymbolTableRecord
100
AcDbBlockTableRecord
  2
*D30
340
0
  0
BLOCK_RECORD
  5
17F9
330
1
100
AcDbSymbolTableRecord
100
AcDbBlockTableRecord
  2
*D31
340
0
  0
BLOCK_RECORD
  5
182E
330
1
100
AcDbSymbolTableRecord
100
AcDbBlockTableRecord
  2
*D32
340
0
  0
BLOCK_RECORD
  5
1854
330
1
100
AcDbSymbolTableRecord
100
AcDbBlockTableRecord
  2
*D33
340
0
  0
BLOCK_RECORD
  5
19BA
330
1
100
AcDbSymbolTableRecord
100
AcDbBlockTableRecord
  2
*D34
340
0
  0
ENDTAB
  0
ENDSEC
  0
SECTION
  2
BLOCKS
  0
BLOCK
  5
20
330
1F
100
AcDbEntity
  8
0
100
AcDbBlockBegin
  2
*Model_Space
 70
     0
 10
0.0
 20
0.0
 30
0.0
  3
*Model_Space
  1

  0
ENDBLK
  5
21
330
1F
100
AcDbEntity
  8
0
100
AcDbBlockEnd
  0
BLOCK
  5
1C
330
1B
100
AcDbEntity
 67
     1
  8
0
100
AcDbBlockBegin
  2
*Paper_Space
 70
     0
 10
0.0
 20
0.0
 30
0.0
  3
*Paper_Space
  1

  0
ENDBLK
  5
1D
330
1B
100
AcDbEntity
 67
     1
  8
0
100
AcDbBlockEnd
  0
BLOCK
  5
24
330
23
100
AcDbEntity
  8
0
100
AcDbBlockBegin
  2
*Paper_Space0
 70
     0
 10
0.0
 20
0.0
 30
0.0
  3
*Paper_Space0
  1

  0
ENDBLK
  5
25
330
23
100
AcDbEntity
  8
0
100
AcDbBlockEnd
  0
BLOCK
  5
89
330
87
100
AcDbEntity
  8
0
100
AcDbBlockBegin
  2
GENAXEH
 70
     0
 10
0.0
 20
0.0
 30
0.0
  3
GENAXEH
  1

  0
LINE
  5
88
330
87
100
AcDbEntity
  8
0
100
AcDbLine
 10
-1.0
 20
0.0
 30
0.0
 11
1.0
 21
0.0
 31
0.0
  0
ENDBLK
  5
8A
330
87
100
AcDbEntity
  8
0
100
AcDbBlockEnd
  0
BLOCK
  5
1024
330
101A
100
AcDbEntity
  8
0
100
AcDbBlockBegin
  2
*D3
 70
     1
 10
0.0
 20
0.0
 30
0.0
  3
*D3
  1

  0
LINE
  5
14AB
330
101A
100
AcDbEntity
  8
Dim
100
AcDbLine
 10
472.4216985167843
 20
569.3746906443849
 30
0.0
 11
490.8556985167843
 21
569.3746906443849
 31
0.0
  0
LINE
  5
14AC
330
101A
100
AcDbEntity
  8
Dim
100
AcDbLine
 10
442.6346985167842
 20
524.3746906443849
 30
0.0
 11
490.8556985167843
 21
524.3746906443849
 31
0.0
  0
LINE
  5
14AD
330
101A
100
AcDbEntity
  8
Dim
100
AcDbLine
 10
489.8556985167842
 20
567.3746906443849
 30
0.0
 11
489.8556985167842
 21
526.3746906443849
 31
0.0
  0
SOLID
  5
14AE
330
101A
100
AcDbEntity
  8
Dim
100
AcDbTrace
 10
489.5223651834509
 20
567.3746906443849
 30
0.0
 11
490.1890318501176
 21
567.3746906443849
 31
0.0
 12
489.8556985167842
 22
569.3746906443849
 32
0.0
 13
489.8556985167842
 23
569.3746906443849
 33
0.0
  0
SOLID
  5
14AF
330
101A
100
AcDbEntity
  8
Dim
100
AcDbTrace
 10
489.5223651834509
 20
526.3746906443849
 30
0.0
 11
490.1890318501176
 21
526.3746906443849
 31
0.0
 12
489.8556985167842
 22
524.3746906443849
 32
0.0
 13
489.8556985167842
 23
524.3746906443849
 33
0.0
  0
MTEXT
  5
14B0
330
101A
100
AcDbEntity
  8
Dim
100
AcDbMText
 10
487.6056985167842
 20
546.874690644385
 30
0.0
 40
2.5
 41
0.0
 71
     5
 72
     1
  1
\A1;45
  7
China
 11
0.0000000000000001
 21
1.0
 31
0.0
 73
     1
 44
1.0
1001
ACAD
1000
MTEXTBEGIN
1070
    73
1070
     1
1070
    44
1040
1.0
1070
    74
1070
     0
1000
MTEXTEND
  0
POINT
  5
14B1
330
101A
100
AcDbEntity
  8
Defpoints
 62
     0
100
AcDbPoint
 10
471.4216985167843
 20
569.3746906443849
 30
0.0
  0
POINT
  5
14B2
330
101A
100
AcDbEntity
  8
Defpoints
 62
     0
100
AcDbPoint
 10
441.6346985167843
 20
524.3746906443849
 30
0.0
  0
POINT
  5
14B3
330
101A
100
AcDbEntity
  8
Defpoints
 62
     0
100
AcDbPoint
 10
489.8556985167842
 20
524.3746906443849
 30
0.0
  0
ENDBLK
  5
1025
330
101A
100
AcDbEntity
  8
0
100
AcDbBlockEnd
  0
BLOCK
  5
1030
330
1026
100
AcDbEntity
  8
0
100
AcDbBlockBegin
  2
*D4
 70
     1
 10
0.0
 20
0.0
 30
0.0
  3
*D4
  1

  0
LINE
  5
1182
330
1026
100
AcDbEntity
  8
Dim
100
AcDbLine
 10
346.8316555476885
 20
407.02341425171
 30
0.0
 11
346.8316555476885
 21
390.2786125472731
 31
0.0
  0
LINE
  5
1183
330
1026
100
AcDbEntity
  8
Dim
100
AcDbLine
 10
359.8316555476886
 20
400.70541425171
 30
0.0
 11
359.8316555476886
 21
390.2786125472731
 31
0.0
  0
LINE
  5
1184
330
1026
100
AcDbEntity
  8
Dim
100
AcDbLine
 10
348.8316555476886
 20
391.2786125472732
 30
0.0
 11
357.8316555476886
 21
391.2786125472732
 31
0.0
  0
SOLID
  5
1185
330
1026
100
AcDbEntity
  8
Dim
100
AcDbTrace
 10
348.8316555476886
 20
391.6119458806065
 30
0.0
 11
348.8316555476886
 21
390.9452792139398
 31
0.0
 12
346.8316555476885
 22
391.2786125472732
 32
0.0
 13
346.8316555476885
 23
391.2786125472732
 33
0.0
  0
SOLID
  5
1186
330
1026
100
AcDbEntity
  8
Dim
100
AcDbTrace
 10
357.8316555476886
 20
391.6119458806065
 30
0.0
 11
357.8316555476886
 21
390.9452792139398
 31
0.0
 12
359.8316555476886
 22
391.2786125472732
 32
0.0
 13
359.8316555476886
 23
391.2786125472732
 33
0.0
  0
MTEXT
  5
1187
330
1026
100
AcDbEntity
  8
Dim
100
AcDbMText
 10
353.3316555476886
 20
393.5286125472732
 30
0.0
 40
2.5
 41
0.0
 71
     5
 72
     1
  1
\A1;13
  7
China
 73
     1
 44
1.0
1001
ACAD
1000
MTEXTBEGIN
1070
    73
1070
     1
1070
    44
1040
1.0
1070
    74
1070
     0
1000
MTEXTEND
  0
POINT
  5
1188
330
1026
100
AcDbEntity
  8
Defpoints
 62
     0
100
AcDbPoint
 10
346.8316555476885
 20
408.02341425171
 30
0.0
  0
POINT
  5
1189
330
1026
100
AcDbEntity
  8
Defpoints
 62
     0
100
AcDbPoint
 10
359.8316555476886
 20
401.7054142517101
 30
0.0
  0
POINT
  5
118A
330
1026
100
AcDbEntity
  8
Defpoints
 62
     0
100
AcDbPoint
 10
359.8316555476886
 20
391.2786125472732
 30
0.0
  0
ENDBLK
  5
1031
330
1026
100
AcDbEntity
  8
0
100
AcDbBlockEnd
  0
BLOCK
  5
103C
330
1032
100
AcDbEntity
  8
0
100
AcDbBlockBegin
  2
*D5
 70
     1
 10
0.0
 20
0.0
 30
0.0
  3
*D5
  1

  0
LINE
  5
13B0
330
1032
100
AcDbEntity
  8
Dim
100
AcDbLine
 10
283.8316555476886
 20
449.70541425171
 30
0.0
 11
247.3316555476886
 21
449.70541425171
 31
0.0
  0
LINE
  5
13B1
330
1032
100
AcDbEntity
  8
Dim
100
AcDbLine
 10
283.8316555476886
 20
398.7054142517101
 30
0.0
 11
247.3316555476886
 21
398.7054142517101
 31
0.0
  0
LINE
  5
13B2
330
1032
100
AcDbEntity
  8
Dim
100
AcDbLine
 10
248.3316555476886
 20
447.7054142517101
 30
0.0
 11
248.3316555476886
 21
400.70541425171
 31
0.0
  0
SOLID
  5
13B3
330
1032
100
AcDbEntity
  8
Dim
100
AcDbTrace
 10
247.9983222143553
 20
447.7054142517101
 30
0.0
 11
248.6649888810219
 21
447.7054142517101
 31
0.0
 12
248.3316555476886
 22
449.70541425171
 32
0.0
 13
248.3316555476886
 23
449.70541425171
 33
0.0
  0
SOLID
  5
13B4
330
1032
100
AcDbEntity
  8
Dim
100
AcDbTrace
 10
247.9983222143553
 20
400.70541425171
 30
0.0
 11
248.6649888810219
 21
400.70541425171
 31
0.0
 12
248.3316555476886
 22
398.7054142517101
 32
0.0
 13
248.3316555476886
 23
398.7054142517101
 33
0.0
  0
MTEXT
  5
13B5
330
1032
100
AcDbEntity
  8
Dim
100
AcDbMText
 10
246.0816555476885
 20
424.2054142517101
 30
0.0
 40
2.5
 41
0.0
 71
     5
 72
     1
  1
\A1;51
  7
China
 11
0.0000000000000001
 21
1.0
 31
0.0
 73
     1
 44
1.0
1001
ACAD
1000
MTEXTBEGIN
1070
    73
1070
     1
1070
    44
1040
1.0
1070
    74
1070
     0
1000
MTEXTEND
  0
POINT
  5
13B6
330
1032
100
AcDbEntity
  8
Defpoints
 62
     0
100
AcDbPoint
 10
284.8316555476886
 20
449.70541425171
 30
0.0
  0
POINT
  5
13B7
330
1032
100
AcDbEntity
  8
Defpoints
 62
     0
100
AcDbPoint
 10
284.8316555476886
 20
398.7054142517101
 30
0.0
  0
POINT
  5
13B8
330
1032
100
AcDbEntity
  8
Defpoints
 62
     0
100
AcDbPoint
 10
248.3316555476886
 20
398.7054142517101
 30
0.0
  0
ENDBLK
  5
103D
330
1032
100
AcDbEntity
  8
0
100
AcDbBlockEnd
  0
BLOCK
  5
1047
330
103E
100
AcDbEntity
  8
0
100
AcDbBlockBegin
  2
*D6
 70
     1
 10
0.0
 20
0.0
 30
0.0
  3
*D6
  1

  0
LINE
  5
1194
330
103E
100
AcDbEntity
  8
Dim
100
AcDbLine
 10
321.8316555476885
 20
428.34141425171
 30
0.0
 11
321.8316555476885
 21
390.2786125472731
 31
0.0
  0
LINE
  5
1195
330
103E
100
AcDbEntity
  8
Dim
100
AcDbLine
 10
344.8316555476886
 20
391.2786125472732
 30
0.0
 11
323.8316555476886
 21
391.2786125472732
 31
0.0
  0
SOLID
  5
1196
330
103E
100
AcDbEntity
  8
Dim
100
AcDbTrace
 10
344.8316555476886
 20
391.6119458806065
 30
0.0
 11
344.8316555476886
 21
390.9452792139398
 31
0.0
 12
346.8316555476885
 22
391.2786125472732
 32
0.0
 13
346.8316555476885
 23
391.2786125472732
 33
0.0
  0
SOLID
  5
1197
330
103E
100
AcDbEntity
  8
Dim
100
AcDbTrace
 10
323.8316555476886
 20
391.6119458806065
 30
0.0
 11
323.8316555476886
 21
390.9452792139398
 31
0.0
 12
321.8316555476885
 22
391.2786125472732
 32
0.0
 13
321.8316555476885
 23
391.2786125472732
 33
0.0
  0
MTEXT
  5
1198
330
103E
100
AcDbEntity
  8
Dim
100
AcDbMText
 10
334.3316555476885
 20
393.5286125472732
 30
0.0
 40
2.5
 41
0.0
 71
     5
 72
     1
  1
\A1;25
  7
China
 73
     1
 44
1.0
1001
ACAD
1000
MTEXTBEGIN
1070
    73
1070
     1
1070
    44
1040
1.0
1070
    74
1070
     0
1000
MTEXTEND
  0
POINT
  5
1199
330
103E
100
AcDbEntity
  8
Defpoints
 62
     0
100
AcDbPoint
 10
346.8316555476885
 20
391.2786125472732
 30
0.0
  0
POINT
  5
119A
330
103E
100
AcDbEntity
  8
Defpoints
 62
     0
100
AcDbPoint
 10
321.8316555476885
 20
429.34141425171
 30
0.0
  0
POINT
  5
119B
330
103E
100
AcDbEntity
  8
Defpoints
 62
     0
100
AcDbPoint
 10
321.8316555476885
 20
391.2786125472732
 30
0.0
  0
ENDBLK
  5
1048
330
103E
100
AcDbEntity
  8
0
100
AcDbBlockEnd
  0
BLOCK
  5
1053
330
1049
100
AcDbEntity
  8
0
100
AcDbBlockBegin
  2
*D7
 70
     1
 10
0.0
 20
0.0
 30
0.0
  3
*D7
  1

  0
LINE
  5
191A
330
1049
100
AcDbEntity
  8
Dim
100
AcDbLine
 10
641.9919564900442
 20
592.8786906443849
 30
0.0
 11
641.9919564900442
 21
634.8786906443848
 31
0.0
  0
LINE
  5
191B
330
1049
100
AcDbEntity
  8
Dim
100
AcDbLine
 10
692.9919564900442
 20
592.8786906443849
 30
0.0
 11
692.9919564900442
 21
634.8786906443848
 31
0.0
  0
LINE
  5
191C
330
1049
100
AcDbEntity
  8
Dim
100
AcDbLine
 10
643.9919564900442
 20
633.8786906443848
 30
0.0
 11
690.9919564900442
 21
633.8786906443848
 31
0.0
  0
SOLID
  5
191D
330
1049
100
AcDbEntity
  8
Dim
100
AcDbTrace
 10
643.9919564900442
 20
634.2120239777182
 30
0.0
 11
643.9919564900442
 21
633.5453573110514
 31
0.0
 12
641.9919564900442
 22
633.8786906443848
 32
0.0
 13
641.9919564900442
 23
633.8786906443848
 33
0.0
  0
SOLID
  5
191E
330
1049
100
AcDbEntity
  8
Dim
100
AcDbTrace
 10
690.9919564900442
 20
634.2120239777182
 30
0.0
 11
690.9919564900442
 21
633.5453573110514
 31
0.0
 12
692.9919564900442
 22
633.8786906443848
 32
0.0
 13
692.9919564900442
 23
633.8786906443848
 33
0.0
  0
MTEXT
  5
191F
330
1049
100
AcDbEntity
  8
Dim
100
AcDbMText
 10
667.4919564900442
 20
636.1286906443848
 30
0.0
 40
2.5
 41
0.0
 71
     5
 72
     1
  1
\A1;51
  7
China
 73
     1
 44
1.0
1001
ACAD
1000
MTEXTBEGIN
1070
    73
1070
     1
1070
    44
1040
1.0
1070
    74
1070
     0
1000
MTEXTEND
  0
POINT
  5
1920
330
1049
100
AcDbEntity
  8
Defpoints
 62
     0
100
AcDbPoint
 10
641.9919564900442
 20
591.8786906443849
 30
0.0
  0
POINT
  5
1921
330
1049
100
AcDbEntity
  8
Defpoints
 62
     0
100
AcDbPoint
 10
692.9919564900442
 20
591.8786906443849
 30
0.0
  0
POINT
  5
1922
330
1049
100
AcDbEntity
  8
Defpoints
 62
     0
100
AcDbPoint
 10
692.9919564900442
 20
633.8786906443848
 30
0.0
  0
ENDBLK
  5
1054
330
1049
100
AcDbEntity
  8
0
100
AcDbBlockEnd
  0
BLOCK
  5
105F
330
1055
100
AcDbEntity
  8
0
100
AcDbBlockBegin
  2
*D8
 70
     1
 10
0.0
 20
0.0
 30
0.0
  3
*D8
  1

  0
LINE
  5
1923
330
1055
100
AcDbEntity
  8
Dim
100
AcDbLine
 10
650.4919564900442
 20
606.8786906443848
 30
0.0
 11
650.4919564900442
 21
626.8786906443848
 31
0.0
  0
LINE
  5
1924
330
1055
100
AcDbEntity
  8
Dim
100
AcDbLine
 10
684.4919564900442
 20
606.8786906443848
 30
0.0
 11
684.4919564900442
 21
626.8786906443848
 31
0.0
  0
LINE
  5
1925
330
1055
100
AcDbEntity
  8
Dim
100
AcDbLine
 10
652.4919564900442
 20
625.8786906443848
 30
0.0
 11
682.4919564900442
 21
625.8786906443848
 31
0.0
  0
SOLID
  5
1926
330
1055
100
AcDbEntity
  8
Dim
100
AcDbTrace
 10
652.4919564900442
 20
626.2120239777182
 30
0.0
 11
652.4919564900442
 21
625.5453573110514
 31
0.0
 12
650.4919564900442
 22
625.8786906443848
 32
0.0
 13
650.4919564900442
 23
625.8786906443848
 33
0.0
  0
SOLID
  5
1927
330
1055
100
AcDbEntity
  8
Dim
100
AcDbTrace
 10
682.4919564900442
 20
626.2120239777182
 30
0.0
 11
682.4919564900442
 21
625.5453573110514
 31
0.0
 12
684.4919564900442
 22
625.8786906443848
 32
0.0
 13
684.4919564900442
 23
625.8786906443848
 33
0.0
  0
MTEXT
  5
1928
330
1055
100
AcDbEntity
  8
Dim
100
AcDbMText
 10
667.4919564900442
 20
628.1286906443848
 30
0.0
 40
2.5
 41
0.0
 71
     5
 72
     1
  1
\A1;34
  7
China
 73
     1
 44
1.0
1001
ACAD
1000
MTEXTBEGIN
1070
    73
1070
     1
1070
    44
1040
1.0
1070
    74
1070
     0
1000
MTEXTEND
  0
POINT
  5
1929
330
1055
100
AcDbEntity
  8
Defpoints
 62
     0
100
AcDbPoint
 10
650.4919564900442
 20
605.8786906443848
 30
0.0
  0
POINT
  5
192A
330
1055
100
AcDbEntity
  8
Defpoints
 62
     0
100
AcDbPoint
 10
684.4919564900442
 20
605.8786906443848
 30
0.0
  0
POINT
  5
192B
330
1055
100
AcDbEntity
  8
Defpoints
 62
     0
100
AcDbPoint
 10
684.4919564900442
 20
625.8786906443848
 30
0.0
  0
ENDBLK
  5
1060
330
1055
100
AcDbEntity
  8
0
100
AcDbBlockEnd
  0
BLOCK
  5
106B
330
1061
100
AcDbEntity
  8
0
100
AcDbBlockBegin
  2
*D9
 70
     1
 10
0.0
 20
0.0
 30
0.0
  3
*D9
  1

  0
LINE
  5
192C
330
1061
100
AcDbEntity
  8
Dim
100
AcDbLine
 10
658.4919564900442
 20
604.6086906443848
 30
0.0
 11
658.4919564900442
 21
618.8786906443848
 31
0.0
  0
LINE
  5
192D
330
1061
100
AcDbEntity
  8
Dim
100
AcDbLine
 10
676.4919564900442
 20
604.6086906443848
 30
0.0
 11
676.4919564900442
 21
618.8786906443848
 31
0.0
  0
LINE
  5
192E
330
1061
100
AcDbEntity
  8
Dim
100
AcDbLine
 10
660.4919564900442
 20
617.8786906443848
 30
0.0
 11
674.4919564900442
 21
617.8786906443848
 31
0.0
  0
SOLID
  5
192F
330
1061
100
AcDbEntity
  8
Dim
100
AcDbTrace
 10
660.4919564900442
 20
618.2120239777182
 30
0.0
 11
660.4919564900442
 21
617.5453573110514
 31
0.0
 12
658.4919564900442
 22
617.8786906443848
 32
0.0
 13
658.4919564900442
 23
617.8786906443848
 33
0.0
  0
SOLID
  5
1930
330
1061
100
AcDbEntity
  8
Dim
100
AcDbTrace
 10
674.4919564900442
 20
618.2120239777182
 30
0.0
 11
674.4919564900442
 21
617.5453573110514
 31
0.0
 12
676.4919564900442
 22
617.8786906443848
 32
0.0
 13
676.4919564900442
 23
617.8786906443848
 33
0.0
  0
MTEXT
  5
1931
330
1061
100
AcDbEntity
  8
Dim
100
AcDbMText
 10
667.4919564900442
 20
620.1286906443848
 30
0.0
 40
2.5
 41
0.0
 71
     5
 72
     1
  1
\A1;18
  7
China
 73
     1
 44
1.0
1001
ACAD
1000
MTEXTBEGIN
1070
    73
1070
     1
1070
    44
1040
1.0
1070
    74
1070
     0
1000
MTEXTEND
  0
POINT
  5
1932
330
1061
100
AcDbEntity
  8
Defpoints
 62
     0
100
AcDbPoint
 10
658.4919564900442
 20
603.6086906443848
 30
0.0
  0
POINT
  5
1933
330
1061
100
AcDbEntity
  8
Defpoints
 62
     0
100
AcDbPoint
 10
676.4919564900442
 20
603.6086906443848
 30
0.0
  0
POINT
  5
1934
330
1061
100
AcDbEntity
  8
Defpoints
 62
     0
100
AcDbPoint
 10
676.4919564900442
 20
617.8786906443848
 30
0.0
  0
ENDBLK
  5
106C
330
1061
100
AcDbEntity
  8
0
100
AcDbBlockEnd
  0
BLOCK
  5
1077
330
106D
100
AcDbEntity
  8
0
100
AcDbBlockBegin
  2
*D10
 70
     1
 10
0.0
 20
0.0
 30
0.0
  3
*D10
  1

  0
LINE
  5
18DA
330
106D
100
AcDbEntity
  8
Dim
100
AcDbLine
 10
345.4496555476886
 20
684.2728472738935
 30
0.0
 11
372.9068519771754
 21
684.2728472738935
 31
0.0
  0
LINE
  5
18DB
330
106D
100
AcDbEntity
  8
Dim
100
AcDbLine
 10
345.4496555476886
 20
660.2728472738935
 30
0.0
 11
372.9068519771754
 21
660.2728472738935
 31
0.0
  0
LINE
  5
18DC
330
106D
100
AcDbEntity
  8
Dim
100
AcDbLine
 10
371.9068519771754
 20
682.2728472738934
 30
0.0
 11
371.9068519771754
 21
662.2728472738934
 31
0.0
  0
SOLID
  5
18DD
330
106D
100
AcDbEntity
  8
Dim
100
AcDbTrace
 10
371.5735186438421
 20
682.2728472738934
 30
0.0
 11
372.2401853105087
 21
682.2728472738934
 31
0.0
 12
371.9068519771754
 22
684.2728472738935
 32
0.0
 13
371.9068519771754
 23
684.2728472738935
 33
0.0
  0
SOLID
  5
18DE
330
106D
100
AcDbEntity
  8
Dim
100
AcDbTrace
 10
371.5735186438421
 20
662.2728472738934
 30
0.0
 11
372.2401853105087
 21
662.2728472738934
 31
0.0
 12
371.9068519771754
 22
660.2728472738935
 32
0.0
 13
371.9068519771754
 23
660.2728472738935
 33
0.0
  0
MTEXT
  5
18DF
330
106D
100
AcDbEntity
  8
Dim
100
AcDbMText
 10
369.6568519771753
 20
672.2728472738936
 30
0.0
 40
2.5
 41
0.0
 71
     5
 72
     1
  1
\A1;24
  7
China
 11
0.0000000000000001
 21
1.0
 31
0.0
 73
     1
 44
1.0
1001
ACAD
1000
MTEXTBEGIN
1070
    73
1070
     1
1070
    44
1040
1.0
1070
    74
1070
     0
1000
MTEXTEND
  0
POINT
  5
18E0
330
106D
100
AcDbEntity
  8
Defpoints
 62
     0
100
AcDbPoint
 10
344.4496555476886
 20
684.2728472738935
 30
0.0
  0
POINT
  5
18E1
330
106D
100
AcDbEntity
  8
Defpoints
 62
     0
100
AcDbPoint
 10
344.4496555476886
 20
660.2728472738935
 30
0.0
  0
POINT
  5
18E2
330
106D
100
AcDbEntity
  8
Defpoints
 62
     0
100
AcDbPoint
 10
371.9068519771754
 20
660.2728472738935
 30
0.0
  0
ENDBLK
  5
1078
330
106D
100
AcDbEntity
  8
0
100
AcDbBlockEnd
  0
BLOCK
  5
1083
330
1079
100
AcDbEntity
  8
0
100
AcDbBlockBegin
  2
*D11
 70
     1
 10
0.0
 20
0.0
 30
0.0
  3
*D11
  1

  0
LINE
  5
1A13
330
1079
100
AcDbEntity
  8
Dim
100
AcDbLine
 10
337.0946555476886
 20
567.8746906443849
 30
0.0
 11
372.8316555476886
 21
567.8746906443849
 31
0.0
  0
LINE
  5
1A14
330
1079
100
AcDbEntity
  8
Dim
100
AcDbLine
 10
337.0946555476886
 20
525.8746906443849
 30
0.0
 11
372.8316555476886
 21
525.8746906443849
 31
0.0
  0
LINE
  5
1A15
330
1079
100
AcDbEntity
  8
Dim
100
AcDbLine
 10
371.8316555476885
 20
565.8746906443849
 30
0.0
 11
371.8316555476885
 21
527.8746906443849
 31
0.0
  0
SOLID
  5
1A16
330
1079
100
AcDbEntity
  8
Dim
100
AcDbTrace
 10
371.4983222143553
 20
565.8746906443849
 30
0.0
 11
372.1649888810219
 21
565.8746906443849
 31
0.0
 12
371.8316555476885
 22
567.8746906443849
 32
0.0
 13
371.8316555476885
 23
567.8746906443849
 33
0.0
  0
SOLID
  5
1A17
330
1079
100
AcDbEntity
  8
Dim
100
AcDbTrace
 10
371.4983222143553
 20
527.8746906443849
 30
0.0
 11
372.1649888810219
 21
527.8746906443849
 31
0.0
 12
371.8316555476885
 22
525.8746906443849
 32
0.0
 13
371.8316555476885
 23
525.8746906443849
 33
0.0
  0
MTEXT
  5
1A18
330
1079
100
AcDbEntity
  8
Dim
100
AcDbMText
 10
369.5816555476885
 20
546.874690644385
 30
0.0
 40
2.5
 41
0.0
 71
     5
 72
     1
  1
\A1;42
  7
China
 11
0.0000000000000001
 21
1.0
 31
0.0
 73
     1
 44
1.0
1001
ACAD
1000
MTEXTBEGIN
1070
    73
1070
     1
1070
    44
1040
1.0
1070
    74
1070
     0
1000
MTEXTEND
  0
POINT
  5
1A19
330
1079
100
AcDbEntity
  8
Defpoints
 62
     0
100
AcDbPoint
 10
336.0946555476886
 20
567.8746906443849
 30
0.0
  0
POINT
  5
1A1A
330
1079
100
AcDbEntity
  8
Defpoints
 62
     0
100
AcDbPoint
 10
336.0946555476886
 20
525.8746906443849
 30
0.0
  0
POINT
  5
1A1B
330
1079
100
AcDbEntity
  8
Defpoints
 62
     0
100
AcDbPoint
 10
371.8316555476885
 20
525.8746906443849
 30
0.0
  0
ENDBLK
  5
1084
330
1079
100
AcDbEntity
  8
0
100
AcDbBlockEnd
  0
BLOCK
  5
108F
330
1085
100
AcDbEntity
  8
0
100
AcDbBlockBegin
  2
*D12
 70
     1
 10
0.0
 20
0.0
 30
0.0
  3
*D12
  1

  0
LINE
  5
134D
330
1085
100
AcDbEntity
  8
Dim
100
AcDbLine
 10
360.8316555476886
 20
575.8746906443849
 30
0.0
 11
380.8316555476886
 21
575.8746906443849
 31
0.0
  0
LINE
  5
134E
330
1085
100
AcDbEntity
  8
Dim
100
AcDbLine
 10
360.8316555476886
 20
517.8746906443849
 30
0.0
 11
380.8316555476886
 21
517.8746906443849
 31
0.0
  0
LINE
  5
134F
330
1085
100
AcDbEntity
  8
Dim
100
AcDbLine
 10
379.8316555476886
 20
573.8746906443849
 30
0.0
 11
379.8316555476886
 21
519.8746906443849
 31
0.0
  0
SOLID
  5
1350
330
1085
100
AcDbEntity
  8
Dim
100
AcDbTrace
 10
379.4983222143553
 20
573.8746906443849
 30
0.0
 11
380.1649888810219
 21
573.8746906443849
 31
0.0
 12
379.8316555476886
 22
575.8746906443849
 32
0.0
 13
379.8316555476886
 23
575.8746906443849
 33
0.0
  0
SOLID
  5
1351
330
1085
100
AcDbEntity
  8
Dim
100
AcDbTrace
 10
379.4983222143553
 20
519.8746906443849
 30
0.0
 11
380.1649888810219
 21
519.8746906443849
 31
0.0
 12
379.8316555476886
 22
517.8746906443849
 32
0.0
 13
379.8316555476886
 23
517.8746906443849
 33
0.0
  0
MTEXT
  5
1352
330
1085
100
AcDbEntity
  8
Dim
100
AcDbMText
 10
377.5816555476885
 20
546.874690644385
 30
0.0
 40
2.5
 41
0.0
 71
     5
 72
     1
  1
\A1;58
  7
China
 11
0.0000000000000001
 21
1.0
 31
0.0
 73
     1
 44
1.0
1001
ACAD
1000
MTEXTBEGIN
1070
    73
1070
     1
1070
    44
1040
1.0
1070
    74
1070
     0
1000
MTEXTEND
  0
POINT
  5
1353
330
1085
100
AcDbEntity
  8
Defpoints
 62
     0
100
AcDbPoint
 10
359.8316555476886
 20
575.8746906443849
 30
0.0
  0
POINT
  5
1354
330
1085
100
AcDbEntity
  8
Defpoints
 62
     0
100
AcDbPoint
 10
359.8316555476886
 20
517.8746906443849
 30
0.0
  0
POINT
  5
1355
330
1085
100
AcDbEntity
  8
Defpoints
 62
     0
100
AcDbPoint
 10
379.8316555476886
 20
517.8746906443849
 30
0.0
  0
ENDBLK
  5
1090
330
1085
100
AcDbEntity
  8
0
100
AcDbBlockEnd
  0
BLOCK
  5
109B
330
1091
100
AcDbEntity
  8
0
100
AcDbBlockBegin
  2
*D13
 70
     1
 10
0.0
 20
0.0
 30
0.0
  3
*D13
  1

  0
LINE
  5
11D2
330
1091
100
AcDbEntity
  8
Dim
100
AcDbLine
 10
330.3256555476886
 20
434.20541425171
 30
0.0
 11
372.0595419572092
 21
434.20541425171
 31
0.0
  0
LINE
  5
11D3
330
1091
100
AcDbEntity
  8
Dim
100
AcDbLine
 10
354.6516555476886
 20
414.2054142517101
 30
0.0
 11
372.0595419572092
 21
414.2054142517101
 31
0.0
  0
LINE
  5
11D4
330
1091
100
AcDbEntity
  8
Dim
100
AcDbLine
 10
371.0595419572091
 20
432.20541425171
 30
0.0
 11
371.0595419572091
 21
416.20541425171
 31
0.0
  0
SOLID
  5
11D5
330
1091
100
AcDbEntity
  8
Dim
100
AcDbTrace
 10
370.7262086238758
 20
432.20541425171
 30
0.0
 11
371.3928752905425
 21
432.20541425171
 31
0.0
 12
371.0595419572091
 22
434.20541425171
 32
0.0
 13
371.0595419572091
 23
434.20541425171
 33
0.0
  0
SOLID
  5
11D6
330
1091
100
AcDbEntity
  8
Dim
100
AcDbTrace
 10
370.7262086238758
 20
416.20541425171
 30
0.0
 11
371.3928752905425
 21
416.20541425171
 31
0.0
 12
371.0595419572091
 22
414.2054142517101
 32
0.0
 13
371.0595419572091
 23
414.2054142517101
 33
0.0
  0
MTEXT
  5
11D7
330
1091
100
AcDbEntity
  8
Dim
100
AcDbMText
 10
368.809541957209
 20
424.2054142517101
 30
0.0
 40
2.5
 41
0.0
 71
     5
 72
     1
  1
\A1;20
  7
China
 11
0.0000000000000001
 21
1.0
 31
0.0
 73
     1
 44
1.0
1001
ACAD
1000
MTEXTBEGIN
1070
    73
1070
     1
1070
    44
1040
1.0
1070
    74
1070
     0
1000
MTEXTEND
  0
POINT
  5
11D8
330
1091
100
AcDbEntity
  8
Defpoints
 62
     0
100
AcDbPoint
 10
329.3256555476886
 20
434.20541425171
 30
0.0
  0
POINT
  5
11D9
330
1091
100
AcDbEntity
  8
Defpoints
 62
     0
100
AcDbPoint
 10
353.6516555476886
 20
414.2054142517101
 30
0.0
  0
POINT
  5
11DA
330
1091
100
AcDbEntity
  8
Defpoints
 62
     0
100
AcDbPoint
 10
371.0595419572091
 20
414.2054142517101
 30
0.0
  0
ENDBLK
  5
109C
330
1091
100
AcDbEntity
  8
0
100
AcDbBlockEnd
  0
BLOCK
  5
10A6
330
109D
100
AcDbEntity
  8
0
100
AcDbBlockBegin
  2
*D14
 70
     1
 10
0.0
 20
0.0
 30
0.0
  3
*D14
  1

  0
LINE
  5
13FD
330
109D
100
AcDbEntity
  8
Dim
100
AcDbLine
 10
283.1286555476886
 20
531.8746906443849
 30
0.0
 11
255.8316555476886
 21
531.874690644385
 31
0.0
  0
LINE
  5
13FE
330
109D
100
AcDbEntity
  8
Dim
100
AcDbLine
 10
283.8316555476886
 20
499.8746906443849
 30
0.0
 11
255.8316555476886
 21
499.8746906443849
 31
0.0
  0
LINE
  5
13FF
330
109D
100
AcDbEntity
  8
Dim
100
AcDbLine
 10
256.8316555476886
 20
529.8746906443849
 30
0.0
 11
256.8316555476886
 21
501.8746906443849
 31
0.0
  0
SOLID
  5
1400
330
109D
100
AcDbEntity
  8
Dim
100
AcDbTrace
 10
256.4983222143553
 20
529.8746906443849
 30
0.0
 11
257.1649888810219
 21
529.8746906443849
 31
0.0
 12
256.8316555476886
 22
531.8746906443849
 32
0.0
 13
256.8316555476886
 23
531.8746906443849
 33
0.0
  0
SOLID
  5
1401
330
109D
100
AcDbEntity
  8
Dim
100
AcDbTrace
 10
256.4983222143553
 20
501.8746906443849
 30
0.0
 11
257.1649888810219
 21
501.8746906443849
 31
0.0
 12
256.8316555476886
 22
499.8746906443849
 32
0.0
 13
256.8316555476886
 23
499.8746906443849
 33
0.0
  0
MTEXT
  5
1402
330
109D
100
AcDbEntity
  8
Dim
100
AcDbMText
 10
254.5816555476885
 20
515.874690644385
 30
0.0
 40
2.5
 41
0.0
 71
     5
 72
     1
  1
\A1;32
  7
China
 11
0.0000000000000001
 21
1.0
 31
0.0
 73
     1
 44
1.0
1001
ACAD
1000
MTEXTBEGIN
1070
    73
1070
     1
1070
    44
1040
1.0
1070
    74
1070
     0
1000
MTEXTEND
  0
POINT
  5
1403
330
109D
100
AcDbEntity
  8
Defpoints
 62
     0
100
AcDbPoint
 10
284.1286555476886
 20
531.8746906443849
 30
0.0
  0
POINT
  5
1404
330
109D
100
AcDbEntity
  8
Defpoints
 62
     0
100
AcDbPoint
 10
284.8316555476886
 20
499.8746906443849
 30
0.0
  0
POINT
  5
1405
330
109D
100
AcDbEntity
  8
Defpoints
 62
     0
100
AcDbPoint
 10
256.8316555476886
 20
499.8746906443849
 30
0.0
  0
ENDBLK
  5
10A7
330
109D
100
AcDbEntity
  8
0
100
AcDbBlockEnd
  0
BLOCK
  5
10B2
330
10A8
100
AcDbEntity
  8
0
100
AcDbBlockBegin
  2
*D15
 70
     1
 10
0.0
 20
0.0
 30
0.0
  3
*D15
  1

  0
LINE
  5
13E2
330
10A8
100
AcDbEntity
  8
Dim
100
AcDbLine
 10
278.3540135972671
 20
499.8746906443849
 30
0.0
 11
263.8316555476886
 21
499.8746906443849
 31
0.0
  0
LINE
  5
13E3
330
10A8
100
AcDbEntity
  8
Dim
100
AcDbLine
 10
283.8316555476886
 20
508.8746906443849
 30
0.0
 11
263.8316555476886
 21
508.8746906443849
 31
0.0
  0
LINE
  5
13E4
330
10A8
100
AcDbEntity
  8
Dim
100
AcDbLine
 10
264.8316555476886
 20
501.8746906443849
 30
0.0
 11
264.8316555476886
 21
506.8746906443849
 31
0.0
  0
SOLID
  5
13E5
330
10A8
100
AcDbEntity
  8
Dim
100
AcDbTrace
 10
264.4983222143553
 20
501.8746906443849
 30
0.0
 11
265.1649888810219
 21
501.8746906443849
 31
0.0
 12
264.8316555476886
 22
499.8746906443849
 32
0.0
 13
264.8316555476886
 23
499.8746906443849
 33
0.0
  0
SOLID
  5
13E6
330
10A8
100
AcDbEntity
  8
Dim
100
AcDbTrace
 10
264.4983222143553
 20
506.8746906443849
 30
0.0
 11
265.1649888810219
 21
506.8746906443849
 31
0.0
 12
264.8316555476886
 22
508.8746906443849
 32
0.0
 13
264.8316555476886
 23
508.8746906443849
 33
0.0
  0
MTEXT
  5
13E7
330
10A8
100
AcDbEntity
  8
Dim
100
AcDbMText
 10
262.5816555476885
 20
504.374690644385
 30
0.0
 40
2.5
 41
0.0
 71
     5
 72
     1
  1
\A1;9
  7
China
 11
0.0000000000000001
 21
1.0
 31
0.0
 73
     1
 44
1.0
1001
ACAD
1000
MTEXTBEGIN
1070
    73
1070
     1
1070
    44
1040
1.0
1070
    74
1070
     0
1000
MTEXTEND
  0
POINT
  5
13E8
330
10A8
100
AcDbEntity
  8
Defpoints
 62
     0
100
AcDbPoint
 10
279.3540135972671
 20
499.8746906443849
 30
0.0
  0
POINT
  5
13E9
330
10A8
100
AcDbEntity
  8
Defpoints
 62
     0
100
AcDbPoint
 10
284.8316555476886
 20
508.8746906443849
 30
0.0
  0
POINT
  5
13EA
330
10A8
100
AcDbEntity
  8
Defpoints
 62
     0
100
AcDbPoint
 10
264.8316555476886
 20
508.8746906443849
 30
0.0
  0
ENDBLK
  5
10B3
330
10A8
100
AcDbEntity
  8
0
100
AcDbBlockEnd
  0
BLOCK
  5
10BE
330
10B4
100
AcDbEntity
  8
0
100
AcDbBlockBegin
  2
*D16
 70
     1
 10
0.0
 20
0.0
 30
0.0
  3
*D16
  1

  0
LINE
  5
13A7
330
10B4
100
AcDbEntity
  8
Dim
100
AcDbLine
 10
275.3316555476886
 20
440.70541425171
 30
0.0
 11
255.3316555476885
 21
440.70541425171
 31
0.0
  0
LINE
  5
13A8
330
10B4
100
AcDbEntity
  8
Dim
100
AcDbLine
 10
275.3316555476886
 20
407.70541425171
 30
0.0
 11
255.3316555476885
 21
407.70541425171
 31
0.0
  0
LINE
  5
13A9
330
10B4
100
AcDbEntity
  8
Dim
100
AcDbLine
 10
256.3316555476886
 20
438.70541425171
 30
0.0
 11
256.3316555476886
 21
409.70541425171
 31
0.0
  0
SOLID
  5
13AA
330
10B4
100
AcDbEntity
  8
Dim
100
AcDbTrace
 10
255.9983222143552
 20
438.70541425171
 30
0.0
 11
256.6649888810219
 21
438.70541425171
 31
0.0
 12
256.3316555476886
 22
440.70541425171
 32
0.0
 13
256.3316555476886
 23
440.70541425171
 33
0.0
  0
SOLID
  5
13AB
330
10B4
100
AcDbEntity
  8
Dim
100
AcDbTrace
 10
255.9983222143552
 20
409.70541425171
 30
0.0
 11
256.6649888810219
 21
409.70541425171
 31
0.0
 12
256.3316555476886
 22
407.70541425171
 32
0.0
 13
256.3316555476886
 23
407.70541425171
 33
0.0
  0
MTEXT
  5
13AC
330
10B4
100
AcDbEntity
  8
Dim
100
AcDbMText
 10
254.0816555476885
 20
424.2054142517101
 30
0.0
 40
2.5
 41
0.0
 71
     5
 72
     1
  1
\A1;33
  7
China
 11
0.0000000000000001
 21
1.0
 31
0.0
 73
     1
 44
1.0
1001
ACAD
1000
MTEXTBEGIN
1070
    73
1070
     1
1070
    44
1040
1.0
1070
    74
1070
     0
1000
MTEXTEND
  0
POINT
  5
13AD
330
10B4
100
AcDbEntity
  8
Defpoints
 62
     0
100
AcDbPoint
 10
276.3316555476886
 20
440.70541425171
 30
0.0
  0
POINT
  5
13AE
330
10B4
100
AcDbEntity
  8
Defpoints
 62
     0
100
AcDbPoint
 10
276.3316555476886
 20
407.70541425171
 30
0.0
  0
POINT
  5
13AF
330
10B4
100
AcDbEntity
  8
Defpoints
 62
     0
100
AcDbPoint
 10
256.3316555476886
 20
407.70541425171
 30
0.0
  0
ENDBLK
  5
10BF
330
10B4
100
AcDbEntity
  8
0
100
AcDbBlockEnd
  0
BLOCK
  5
10CA
330
10C0
100
AcDbEntity
  8
0
100
AcDbBlockBegin
  2
*D17
 70
     1
 10
0.0
 20
0.0
 30
0.0
  3
*D17
  1

  0
LINE
  5
139E
330
10C0
100
AcDbEntity
  8
Dim
100
AcDbLine
 10
293.0626555476885
 20
434.20541425171
 30
0.0
 11
263.3316555476886
 21
434.20541425171
 31
0.0
  0
LINE
  5
139F
330
10C0
100
AcDbEntity
  8
Dim
100
AcDbLine
 10
292.6266555476885
 20
414.2054142517101
 30
0.0
 11
263.3316555476886
 21
414.2054142517101
 31
0.0
  0
LINE
  5
13A0
330
10C0
100
AcDbEntity
  8
Dim
100
AcDbLine
 10
264.3316555476886
 20
432.20541425171
 30
0.0
 11
264.3316555476886
 21
416.20541425171
 31
0.0
  0
SOLID
  5
13A1
330
10C0
100
AcDbEntity
  8
Dim
100
AcDbTrace
 10
263.9983222143552
 20
432.20541425171
 30
0.0
 11
264.6649888810219
 21
432.20541425171
 31
0.0
 12
264.3316555476886
 22
434.20541425171
 32
0.0
 13
264.3316555476886
 23
434.20541425171
 33
0.0
  0
SOLID
  5
13A2
330
10C0
100
AcDbEntity
  8
Dim
100
AcDbTrace
 10
263.9983222143552
 20
416.20541425171
 30
0.0
 11
264.6649888810219
 21
416.20541425171
 31
0.0
 12
264.3316555476886
 22
414.2054142517101
 32
0.0
 13
264.3316555476886
 23
414.2054142517101
 33
0.0
  0
MTEXT
  5
13A3
330
10C0
100
AcDbEntity
  8
Dim
100
AcDbMText
 10
262.0816555476884
 20
424.2054142517101
 30
0.0
 40
2.5
 41
0.0
 71
     5
 72
     1
  1
\A1;20
  7
China
 11
0.0000000000000001
 21
1.0
 31
0.0
 73
     1
 44
1.0
1001
ACAD
1000
MTEXTBEGIN
1070
    73
1070
     1
1070
    44
1040
1.0
1070
    74
1070
     0
1000
MTEXTEND
  0
POINT
  5
13A4
330
10C0
100
AcDbEntity
  8
Defpoints
 62
     0
100
AcDbPoint
 10
294.0626555476886
 20
434.20541425171
 30
0.0
  0
POINT
  5
13A5
330
10C0
100
AcDbEntity
  8
Defpoints
 62
     0
100
AcDbPoint
 10
293.6266555476885
 20
414.2054142517101
 30
0.0
  0
POINT
  5
13A6
330
10C0
100
AcDbEntity
  8
Defpoints
 62
     0
100
AcDbPoint
 10
264.3316555476886
 20
414.2054142517101
 30
0.0
  0
ENDBLK
  5
10CB
330
10C0
100
AcDbEntity
  8
0
100
AcDbBlockEnd
  0
BLOCK
  5
10D8
330
10CC
100
AcDbEntity
  8
0
100
AcDbBlockBegin
  2
*D18
 70
     1
 10
0.0
 20
0.0
 30
0.0
  3
*D18
  1

  0
LINE
  5
13D7
330
10CC
100
AcDbEntity
  8
Dim
100
AcDbLine
 10
283.8316555476886
 20
499.8746906443849
 30
0.0
 11
271.8316555476886
 21
499.8746906443849
 31
0.0
  0
LINE
  5
13D8
330
10CC
100
AcDbEntity
  8
Dim
100
AcDbLine
 10
285.8316555476886
 20
501.8746906443849
 30
0.0
 11
271.8316555476886
 21
501.8746906443849
 31
0.0
  0
LINE
  5
13D9
330
10CC
100
AcDbEntity
  8
Dim
100
AcDbLine
 10
272.8316555476886
 20
503.8746906443849
 30
0.0
 11
272.8316555476886
 21
505.8746906443849
 31
0.0
  0
LINE
  5
13DA
330
10CC
100
AcDbEntity
  8
Dim
100
AcDbLine
 10
272.8316555476886
 20
497.8746906443849
 30
0.0
 11
272.8316555476886
 21
492.2080239777182
 31
0.0
  0
LINE
  5
13DB
330
10CC
100
AcDbEntity
  8
Dim
100
AcDbLine
 10
272.8316555476886
 20
501.8746906443849
 30
0.0
 11
272.8316555476886
 21
499.8746906443849
 31
0.0
  0
SOLID
  5
13DC
330
10CC
100
AcDbEntity
  8
Dim
100
AcDbTrace
 10
272.4983222143553
 20
503.8746906443849
 30
0.0
 11
273.164988881022
 21
503.8746906443849
 31
0.0
 12
272.8316555476886
 22
501.8746906443849
 32
0.0
 13
272.8316555476886
 23
501.8746906443849
 33
0.0
  0
SOLID
  5
13DD
330
10CC
100
AcDbEntity
  8
Dim
100
AcDbTrace
 10
272.4983222143553
 20
497.8746906443849
 30
0.0
 11
273.164988881022
 21
497.8746906443849
 31
0.0
 12
272.8316555476886
 22
499.8746906443849
 32
0.0
 13
272.8316555476886
 23
499.8746906443849
 33
0.0
  0
MTEXT
  5
13DE
330
10CC
100
AcDbEntity
  8
Dim
100
AcDbMText
 10
270.5816555476886
 20
494.0413573110516
 30
0.0
 40
2.5
 41
0.0
 71
     5
 72
     1
  1
\A1;2
  7
China
 11
0.0000000000000001
 21
1.0
 31
0.0
 73
     1
 44
1.0
1001
ACAD
1000
MTEXTBEGIN
1070
    73
1070
     1
1070
    44
1040
1.0
1070
    74
1070
     0
1000
MTEXTEND
  0
POINT
  5
13DF
330
10CC
100
AcDbEntity
  8
Defpoints
 62
     0
100
AcDbPoint
 10
284.8316555476886
 20
499.8746906443849
 30
0.0
  0
POINT
  5
13E0
330
10CC
100
AcDbEntity
  8
Defpoints
 62
     0
100
AcDbPoint
 10
286.8316555476886
 20
501.8746906443849
 30
0.0
  0
POINT
  5
13E1
330
10CC
100
AcDbEntity
  8
Defpoints
 62
     0
100
AcDbPoint
 10
272.8316555476886
 20
501.8746906443849
 30
0.0
  0
ENDBLK
  5
10D9
330
10CC
100
AcDbEntity
  8
0
100
AcDbBlockEnd
  0
BLOCK
  5
10E4
330
10DA
100
AcDbEntity
  8
0
100
AcDbBlockBegin
  2
*D19
 70
     1
 10
0.0
 20
0.0
 30
0.0
  3
*D19
  1

  0
LINE
  5
1777
330
10DA
100
AcDbEntity
  8
Dim
100
AcDbLine
 10
284.8316555476886
 20
498.8746906443849
 30
0.0
 11
284.8316555476886
 21
478.8746906443848
 31
0.0
  0
LINE
  5
1778
330
10DA
100
AcDbEntity
  8
Dim
100
AcDbLine
 10
311.8316555476886
 20
498.8746906443849
 30
0.0
 11
311.8316555476886
 21
478.8746906443848
 31
0.0
  0
LINE
  5
1779
330
10DA
100
AcDbEntity
  8
Dim
100
AcDbLine
 10
286.8316555476886
 20
479.8746906443849
 30
0.0
 11
309.8316555476886
 21
479.8746906443849
 31
0.0
  0
SOLID
  5
177A
330
10DA
100
AcDbEntity
  8
Dim
100
AcDbTrace
 10
286.8316555476886
 20
480.2080239777182
 30
0.0
 11
286.8316555476886
 21
479.5413573110515
 31
0.0
 12
284.8316555476886
 22
479.8746906443849
 32
0.0
 13
284.8316555476886
 23
479.8746906443849
 33
0.0
  0
SOLID
  5
177B
330
10DA
100
AcDbEntity
  8
Dim
100
AcDbTrace
 10
309.8316555476886
 20
480.2080239777182
 30
0.0
 11
309.8316555476886
 21
479.5413573110515
 31
0.0
 12
311.8316555476886
 22
479.8746906443849
 32
0.0
 13
311.8316555476886
 23
479.8746906443849
 33
0.0
  0
MTEXT
  5
177C
330
10DA
100
AcDbEntity
  8
Dim
100
AcDbMText
 10
298.3316555476886
 20
482.1246906443849
 30
0.0
 40
2.5
 41
0.0
 71
     5
 72
     1
  1
\A1;27
  7
China
 73
     1
 44
1.0
1001
ACAD
1000
MTEXTBEGIN
1070
    73
1070
     1
1070
    44
1040
1.0
1070
    74
1070
     0
1000
MTEXTEND
  0
POINT
  5
177D
330
10DA
100
AcDbEntity
  8
Defpoints
 62
     0
100
AcDbPoint
 10
284.8316555476886
 20
499.8746906443849
 30
0.0
  0
POINT
  5
177E
330
10DA
100
AcDbEntity
  8
Defpoints
 62
     0
100
AcDbPoint
 10
311.8316555476886
 20
499.8746906443849
 30
0.0
  0
POINT
  5
177F
330
10DA
100
AcDbEntity
  8
Defpoints
 62
     0
100
AcDbPoint
 10
311.8316555476886
 20
479.8746906443849
 30
0.0
  0
ENDBLK
  5
10E5
330
10DA
100
AcDbEntity
  8
0
100
AcDbBlockEnd
  0
BLOCK
  5
10FC
330
10F2
100
AcDbEntity
  8
0
100
AcDbBlockBegin
  2
*D20
 70
     1
 10
0.0
 20
0.0
 30
0.0
  3
*D20
  1

  0
LINE
  5
1406
330
10F2
100
AcDbEntity
  8
Dim
100
AcDbLine
 10
282.9286555476885
 20
561.8746906443849
 30
0.0
 11
255.8316555476886
 21
561.874690644385
 31
0.0
  0
LINE
  5
1407
330
10F2
100
AcDbEntity
  8
Dim
100
AcDbLine
 10
283.1286555476886
 20
531.8746906443849
 30
0.0
 11
255.8316555476886
 21
531.874690644385
 31
0.0
  0
LINE
  5
1408
330
10F2
100
AcDbEntity
  8
Dim
100
AcDbLine
 10
256.8316555476886
 20
559.8746906443849
 30
0.0
 11
256.8316555476886
 21
533.8746906443849
 31
0.0
  0
SOLID
  5
1409
330
10F2
100
AcDbEntity
  8
Dim
100
AcDbTrace
 10
256.4983222143553
 20
559.8746906443849
 30
0.0
 11
257.1649888810219
 21
559.8746906443849
 31
0.0
 12
256.8316555476886
 22
561.8746906443849
 32
0.0
 13
256.8316555476886
 23
561.8746906443849
 33
0.0
  0
SOLID
  5
140A
330
10F2
100
AcDbEntity
  8
Dim
100
AcDbTrace
 10
256.4983222143553
 20
533.8746906443849
 30
0.0
 11
257.1649888810219
 21
533.8746906443849
 31
0.0
 12
256.8316555476886
 22
531.8746906443849
 32
0.0
 13
256.8316555476886
 23
531.8746906443849
 33
0.0
  0
MTEXT
  5
140B
330
10F2
100
AcDbEntity
  8
Dim
100
AcDbMText
 10
254.5816555476885
 20
546.8915290026372
 30
0.0
 40
2.5
 41
0.0
 71
     5
 72
     1
  1
\A1;30
  7
China
 11
0.0000000000000001
 21
1.0
 31
0.0
 73
     1
 44
1.0
1001
ACAD
1000
MTEXTBEGIN
1070
    73
1070
     1
1070
    44
1040
1.0
1070
    74
1070
     0
1000
MTEXTEND
  0
POINT
  5
140C
330
10F2
100
AcDbEntity
  8
Defpoints
 62
     0
100
AcDbPoint
 10
283.9286555476885
 20
561.8746906443849
 30
0.0
  0
POINT
  5
140D
330
10F2
100
AcDbEntity
  8
Defpoints
 62
     0
100
AcDbPoint
 10
284.1286555476886
 20
531.8746906443849
 30
0.0
  0
POINT
  5
140E
330
10F2
100
AcDbEntity
  8
Defpoints
 62
     0
100
AcDbPoint
 10
256.8316555476886
 20
531.8746906443849
 30
0.0
  0
ENDBLK
  5
10FD
330
10F2
100
AcDbEntity
  8
0
100
AcDbBlockEnd
  0
BLOCK
  5
1108
330
10FE
100
AcDbEntity
  8
0
100
AcDbBlockBegin
  2
*D21
 70
     1
 10
0.0
 20
0.0
 30
0.0
  3
*D21
  1

  0
LINE
  5
1484
330
10FE
100
AcDbEntity
  8
Dim
100
AcDbLine
 10
359.8316555476886
 20
601.294069609744
 30
0.0
 11
359.8316555476886
 21
612.8746906443849
 31
0.0
  0
LINE
  5
1485
330
10FE
100
AcDbEntity
  8
Dim
100
AcDbLine
 10
276.3316555476886
 20
565.3786906443849
 30
0.0
 11
276.3316555476886
 21
612.8746906443849
 31
0.0
  0
LINE
  5
1486
330
10FE
100
AcDbEntity
  8
Dim
100
AcDbLine
 10
357.8316555476886
 20
611.8746906443849
 30
0.0
 11
278.3316555476886
 21
611.8746906443849
 31
0.0
  0
SOLID
  5
1487
330
10FE
100
AcDbEntity
  8
Dim
100
AcDbTrace
 10
357.8316555476886
 20
612.2080239777183
 30
0.0
 11
357.8316555476886
 21
611.5413573110515
 31
0.0
 12
359.8316555476886
 22
611.8746906443849
 32
0.0
 13
359.8316555476886
 23
611.8746906443849
 33
0.0
  0
SOLID
  5
1488
330
10FE
100
AcDbEntity
  8
Dim
100
AcDbTrace
 10
278.3316555476886
 20
612.2080239777183
 30
0.0
 11
278.3316555476886
 21
611.5413573110515
 31
0.0
 12
276.3316555476886
 22
611.8746906443849
 32
0.0
 13
276.3316555476886
 23
611.8746906443849
 33
0.0
  0
MTEXT
  5
1489
330
10FE
100
AcDbEntity
  8
Dim
100
AcDbMText
 10
318.0816555476886
 20
614.1246906443849
 30
0.0
 40
2.5
 41
0.0
 71
     5
 72
     1
  1
\A1;83.5
  7
China
 73
     1
 44
1.0
1001
ACAD
1000
MTEXTBEGIN
1070
    73
1070
     1
1070
    44
1040
1.0
1070
    74
1070
     0
1000
MTEXTEND
  0
POINT
  5
148A
330
10FE
100
AcDbEntity
  8
Defpoints
 62
     0
100
AcDbPoint
 10
359.8316555476886
 20
600.294069609744
 30
0.0
  0
POINT
  5
148B
330
10FE
100
AcDbEntity
  8
Defpoints
 62
     0
100
AcDbPoint
 10
276.3316555476886
 20
564.3786906443849
 30
0.0
  0
POINT
  5
148C
330
10FE
100
AcDbEntity
  8
Defpoints
 62
     0
100
AcDbPoint
 10
276.3316555476886
 20
611.8746906443849
 30
0.0
  0
ENDBLK
  5
1109
330
10FE
100
AcDbEntity
  8
0
100
AcDbBlockEnd
  0
BLOCK
  5
1114
330
110A
100
AcDbEntity
  8
0
100
AcDbBlockBegin
  2
*D22
 70
     1
 10
0.0
 20
0.0
 30
0.0
  3
*D22
  1

  0
LINE
  5
147B
330
110A
100
AcDbEntity
  8
Dim
100
AcDbLine
 10
359.8316555476886
 20
592.0066710705765
 30
0.0
 11
359.8316555476886
 21
604.8746906443849
 31
0.0
  0
LINE
  5
147C
330
110A
100
AcDbEntity
  8
Dim
100
AcDbLine
 10
298.3316555476886
 20
595.8336906443848
 30
0.0
 11
298.3316555476886
 21
604.8746906443849
 31
0.0
  0
LINE
  5
147D
330
110A
100
AcDbEntity
  8
Dim
100
AcDbLine
 10
357.8316555476886
 20
603.8746906443849
 30
0.0
 11
300.3316555476886
 21
603.8746906443849
 31
0.0
  0
SOLID
  5
147E
330
110A
100
AcDbEntity
  8
Dim
100
AcDbTrace
 10
357.8316555476886
 20
604.2080239777183
 30
0.0
 11
357.8316555476886
 21
603.5413573110515
 31
0.0
 12
359.8316555476886
 22
603.8746906443849
 32
0.0
 13
359.8316555476886
 23
603.8746906443849
 33
0.0
  0
SOLID
  5
147F
330
110A
100
AcDbEntity
  8
Dim
100
AcDbTrace
 10
300.3316555476886
 20
604.2080239777183
 30
0.0
 11
300.3316555476886
 21
603.5413573110515
 31
0.0
 12
298.3316555476886
 22
603.8746906443849
 32
0.0
 13
298.3316555476886
 23
603.8746906443849
 33
0.0
  0
MTEXT
  5
1480
330
110A
100
AcDbEntity
  8
Dim
100
AcDbMText
 10
329.0816555476886
 20
606.1246906443849
 30
0.0
 40
2.5
 41
0.0
 71
     5
 72
     1
  1
\A1;61.5
  7
China
 73
     1
 44
1.0
1001
ACAD
1000
MTEXTBEGIN
1070
    73
1070
     1
1070
    44
1040
1.0
1070
    74
1070
     0
1000
MTEXTEND
  0
POINT
  5
1481
330
110A
100
AcDbEntity
  8
Defpoints
 62
     0
100
AcDbPoint
 10
359.8316555476886
 20
591.0066710705765
 30
0.0
  0
POINT
  5
1482
330
110A
100
AcDbEntity
  8
Defpoints
 62
     0
100
AcDbPoint
 10
298.3316555476886
 20
594.8336906443849
 30
0.0
  0
POINT
  5
1483
330
110A
100
AcDbEntity
  8
Defpoints
 62
     0
100
AcDbPoint
 10
298.3316555476886
 20
603.8746906443849
 30
0.0
  0
ENDBLK
  5
1115
330
110A
100
AcDbEntity
  8
0
100
AcDbBlockEnd
  0
BLOCK
  5
1120
330
1116
100
AcDbEntity
  8
0
100
AcDbBlockBegin
  2
*D23
 70
     1
 10
0.0
 20
0.0
 30
0.0
  3
*D23
  1

  0
LINE
  5
1472
330
1116
100
AcDbEntity
  8
Dim
100
AcDbLine
 10
312.8316555476886
 20
576.8746906443849
 30
0.0
 11
312.8316555476886
 21
596.8746906443849
 31
0.0
  0
LINE
  5
1473
330
1116
100
AcDbEntity
  8
Dim
100
AcDbLine
 10
359.8316555476886
 20
584.5767506502726
 30
0.0
 11
359.8316555476886
 21
596.8746906443849
 31
0.0
  0
LINE
  5
1474
330
1116
100
AcDbEntity
  8
Dim
100
AcDbLine
 10
314.8316555476886
 20
595.8746906443849
 30
0.0
 11
357.8316555476886
 21
595.8746906443849
 31
0.0
  0
SOLID
  5
1475
330
1116
100
AcDbEntity
  8
Dim
100
AcDbTrace
 10
314.8316555476886
 20
596.2080239777183
 30
0.0
 11
314.8316555476886
 21
595.5413573110515
 31
0.0
 12
312.8316555476886
 22
595.8746906443849
 32
0.0
 13
312.8316555476886
 23
595.8746906443849
 33
0.0
  0
SOLID
  5
1476
330
1116
100
AcDbEntity
  8
Dim
100
AcDbTrace
 10
357.8316555476886
 20
596.2080239777183
 30
0.0
 11
357.8316555476886
 21
595.5413573110515
 31
0.0
 12
359.8316555476886
 22
595.8746906443849
 32
0.0
 13
359.8316555476886
 23
595.8746906443849
 33
0.0
  0
MTEXT
  5
1477
330
1116
100
AcDbEntity
  8
Dim
100
AcDbMText
 10
336.3316555476886
 20
598.1246906443849
 30
0.0
 40
2.5
 41
0.0
 71
     5
 72
     1
  1
\A1;47
  7
China
 73
     1
 44
1.0
1001
ACAD
1000
MTEXTBEGIN
1070
    73
1070
     1
1070
    44
1040
1.0
1070
    74
1070
     0
1000
MTEXTEND
  0
POINT
  5
1478
330
1116
100
AcDbEntity
  8
Defpoints
 62
     0
100
AcDbPoint
 10
312.8316555476886
 20
575.8746906443849
 30
0.0
  0
POINT
  5
1479
330
1116
100
AcDbEntity
  8
Defpoints
 62
     0
100
AcDbPoint
 10
359.8316555476886
 20
583.5767506502726
 30
0.0
  0
POINT
  5
147A
330
1116
100
AcDbEntity
  8
Defpoints
 62
     0
100
AcDbPoint
 10
359.8316555476886
 20
595.8746906443849
 30
0.0
  0
ENDBLK
  5
1121
330
1116
100
AcDbEntity
  8
0
100
AcDbBlockEnd
  0
BLOCK
  5
112C
330
1122
100
AcDbEntity
  8
0
100
AcDbBlockBegin
  2
*D24
 70
     1
 10
0.0
 20
0.0
 30
0.0
  3
*D24
  1

  0
LINE
  5
1469
330
1122
100
AcDbEntity
  8
Dim
100
AcDbLine
 10
330.8316555476886
 20
573.1966906443849
 30
0.0
 11
330.8316555476886
 21
588.8746906443849
 31
0.0
  0
LINE
  5
146A
330
1122
100
AcDbEntity
  8
Dim
100
AcDbLine
 10
359.8316555476886
 20
576.8746906443849
 30
0.0
 11
359.8316555476886
 21
588.8746906443849
 31
0.0
  0
LINE
  5
146B
330
1122
100
AcDbEntity
  8
Dim
100
AcDbLine
 10
332.8316555476886
 20
587.8746906443849
 30
0.0
 11
357.8316555476886
 21
587.8746906443849
 31
0.0
  0
SOLID
  5
146C
330
1122
100
AcDbEntity
  8
Dim
100
AcDbTrace
 10
332.8316555476886
 20
588.2080239777183
 30
0.0
 11
332.8316555476886
 21
587.5413573110515
 31
0.0
 12
330.8316555476886
 22
587.8746906443849
 32
0.0
 13
330.8316555476886
 23
587.8746906443849
 33
0.0
  0
SOLID
  5
146D
330
1122
100
AcDbEntity
  8
Dim
100
AcDbTrace
 10
357.8316555476886
 20
588.2080239777183
 30
0.0
 11
357.8316555476886
 21
587.5413573110515
 31
0.0
 12
359.8316555476886
 22
587.8746906443849
 32
0.0
 13
359.8316555476886
 23
587.8746906443849
 33
0.0
  0
MTEXT
  5
146E
330
1122
100
AcDbEntity
  8
Dim
100
AcDbMText
 10
345.3316555476886
 20
590.1246906443849
 30
0.0
 40
2.5
 41
0.0
 71
     5
 72
     1
  1
\A1;29
  7
China
 73
     1
 44
1.0
1001
ACAD
1000
MTEXTBEGIN
1070
    73
1070
     1
1070
    44
1040
1.0
1070
    74
1070
     0
1000
MTEXTEND
  0
POINT
  5
146F
330
1122
100
AcDbEntity
  8
Defpoints
 62
     0
100
AcDbPoint
 10
330.8316555476886
 20
572.1966906443849
 30
0.0
  0
POINT
  5
1470
330
1122
100
AcDbEntity
  8
Defpoints
 62
     0
100
AcDbPoint
 10
359.8316555476886
 20
575.8746906443849
 30
0.0
  0
POINT
  5
1471
330
1122
100
AcDbEntity
  8
Defpoints
 62
     0
100
AcDbPoint
 10
359.8316555476886
 20
587.8746906443849
 30
0.0
  0
ENDBLK
  5
112D
330
1122
100
AcDbEntity
  8
0
100
AcDbBlockEnd
  0
BLOCK
  5
1138
330
112E
100
AcDbEntity
  8
0
100
AcDbBlockBegin
  2
*D25
 70
     1
 10
0.0
 20
0.0
 30
0.0
  3
*D25
  1

  0
LINE
  5
149C
330
112E
100
AcDbEntity
  8
Dim
100
AcDbLine
 10
437.3556985167843
 20
519.3526906443849
 30
0.0
 11
437.3556985167843
 21
486.8746906443849
 31
0.0
  0
LINE
  5
149D
330
112E
100
AcDbEntity
  8
Dim
100
AcDbLine
 10
467.3556985167842
 20
563.7986906443849
 30
0.0
 11
467.3556985167842
 21
486.8746906443849
 31
0.0
  0
LINE
  5
149E
330
112E
100
AcDbEntity
  8
Dim
100
AcDbLine
 10
439.3556985167842
 20
487.8746906443849
 30
0.0
 11
465.3556985167843
 21
487.8746906443849
 31
0.0
  0
SOLID
  5
149F
330
112E
100
AcDbEntity
  8
Dim
100
AcDbTrace
 10
439.3556985167842
 20
488.2080239777182
 30
0.0
 11
439.3556985167842
 21
487.5413573110516
 31
0.0
 12
437.3556985167843
 22
487.8746906443849
 32
0.0
 13
437.3556985167843
 23
487.8746906443849
 33
0.0
  0
SOLID
  5
14A0
330
112E
100
AcDbEntity
  8
Dim
100
AcDbTrace
 10
465.3556985167843
 20
488.2080239777182
 30
0.0
 11
465.3556985167843
 21
487.5413573110516
 31
0.0
 12
467.3556985167842
 22
487.8746906443849
 32
0.0
 13
467.3556985167842
 23
487.8746906443849
 33
0.0
  0
MTEXT
  5
14A1
330
112E
100
AcDbEntity
  8
Dim
100
AcDbMText
 10
452.3556985167842
 20
490.1246906443849
 30
0.0
 40
2.5
 41
0.0
 71
     5
 72
     1
  1
\A1;30
  7
China
 73
     1
 44
1.0
1001
ACAD
1000
MTEXTBEGIN
1070
    73
1070
     1
1070
    44
1040
1.0
1070
    74
1070
     0
1000
MTEXTEND
  0
POINT
  5
14A2
330
112E
100
AcDbEntity
  8
Defpoints
 62
     0
100
AcDbPoint
 10
437.3556985167843
 20
520.3526906443848
 30
0.0
  0
POINT
  5
14A3
330
112E
100
AcDbEntity
  8
Defpoints
 62
     0
100
AcDbPoint
 10
467.3556985167842
 20
564.7986906443849
 30
0.0
  0
POINT
  5
14A4
330
112E
100
AcDbEntity
  8
Defpoints
 62
     0
100
AcDbPoint
 10
467.3556985167842
 20
487.8746906443849
 30
0.0
  0
ENDBLK
  5
1139
330
112E
100
AcDbEntity
  8
0
100
AcDbBlockEnd
  0
BLOCK
  5
1144
330
113A
100
AcDbEntity
  8
0
100
AcDbBlockBegin
  2
*D26
 70
     1
 10
0.0
 20
0.0
 30
0.0
  3
*D26
  1

  0
LINE
  5
1493
330
113A
100
AcDbEntity
  8
Dim
100
AcDbLine
 10
429.8556985167842
 20
516.8746906443849
 30
0.0
 11
429.8556985167842
 21
478.8746906443849
 31
0.0
  0
LINE
  5
1494
330
113A
100
AcDbEntity
  8
Dim
100
AcDbLine
 10
474.8556985167843
 20
516.8746906443849
 30
0.0
 11
474.8556985167843
 21
478.8746906443849
 31
0.0
  0
LINE
  5
1495
330
113A
100
AcDbEntity
  8
Dim
100
AcDbLine
 10
431.8556985167843
 20
479.8746906443849
 30
0.0
 11
472.8556985167842
 21
479.8746906443849
 31
0.0
  0
SOLID
  5
1496
330
113A
100
AcDbEntity
  8
Dim
100
AcDbTrace
 10
431.8556985167843
 20
480.2080239777182
 30
0.0
 11
431.8556985167843
 21
479.5413573110516
 31
0.0
 12
429.8556985167842
 22
479.8746906443849
 32
0.0
 13
429.8556985167842
 23
479.8746906443849
 33
0.0
  0
SOLID
  5
1497
330
113A
100
AcDbEntity
  8
Dim
100
AcDbTrace
 10
472.8556985167842
 20
480.2080239777182
 30
0.0
 11
472.8556985167842
 21
479.5413573110516
 31
0.0
 12
474.8556985167843
 22
479.8746906443849
 32
0.0
 13
474.8556985167843
 23
479.8746906443849
 33
0.0
  0
MTEXT
  5
1498
330
113A
100
AcDbEntity
  8
Dim
100
AcDbMText
 10
452.3556985167842
 20
482.1246906443849
 30
0.0
 40
2.5
 41
0.0
 71
     5
 72
     1
  1
\A1;45
  7
China
 73
     1
 44
1.0
1001
ACAD
1000
MTEXTBEGIN
1070
    73
1070
     1
1070
    44
1040
1.0
1070
    74
1070
     0
1000
MTEXTEND
  0
POINT
  5
1499
330
113A
100
AcDbEntity
  8
Defpoints
 62
     0
100
AcDbPoint
 10
429.8556985167842
 20
517.8746906443849
 30
0.0
  0
POINT
  5
149A
330
113A
100
AcDbEntity
  8
Defpoints
 62
     0
100
AcDbPoint
 10
474.8556985167843
 20
517.8746906443849
 30
0.0
  0
POINT
  5
149B
330
113A
100
AcDbEntity
  8
Defpoints
 62
     0
100
AcDbPoint
 10
474.8556985167843
 20
479.8746906443849
 30
0.0
  0
ENDBLK
  5
1145
330
113A
100
AcDbEntity
  8
0
100
AcDbBlockEnd
  0
BLOCK
  5
1666
330
165C
100
AcDbEntity
  8
0
100
AcDbBlockBegin
  2
*D27
 70
     1
 10
0.0
 20
0.0
 30
0.0
  3
*D27
  1

  0
LINE
  5
18E3
330
165C
100
AcDbEntity
  8
Dim
100
AcDbLine
 10
338.8316555476886
 20
653.0028472738934
 30
0.0
 11
338.8316555476886
 21
639.7658889590914
 31
0.0
  0
LINE
  5
18E4
330
165C
100
AcDbEntity
  8
Dim
100
AcDbLine
 10
359.8316555476886
 20
648.7728472738934
 30
0.0
 11
359.8316555476886
 21
639.7658889590914
 31
0.0
  0
LINE
  5
18E5
330
165C
100
AcDbEntity
  8
Dim
100
AcDbLine
 10
340.8316555476886
 20
640.7658889590914
 30
0.0
 11
357.8316555476886
 21
640.7658889590914
 31
0.0
  0
SOLID
  5
18E6
330
165C
100
AcDbEntity
  8
Dim
100
AcDbTrace
 10
340.8316555476886
 20
641.0992222924248
 30
0.0
 11
340.8316555476886
 21
640.432555625758
 31
0.0
 12
338.8316555476886
 22
640.7658889590914
 32
0.0
 13
338.8316555476886
 23
640.7658889590914
 33
0.0
  0
SOLID
  5
18E7
330
165C
100
AcDbEntity
  8
Dim
100
AcDbTrace
 10
357.8316555476886
 20
641.0992222924248
 30
0.0
 11
357.8316555476886
 21
640.432555625758
 31
0.0
 12
359.8316555476886
 22
640.7658889590914
 32
0.0
 13
359.8316555476886
 23
640.7658889590914
 33
0.0
  0
MTEXT
  5
18E8
330
165C
100
AcDbEntity
  8
Dim
100
AcDbMText
 10
349.3316555476886
 20
643.0158889590914
 30
0.0
 40
2.5
 41
0.0
 71
     5
 72
     1
  1
\A1;21
  7
China
 73
     1
 44
1.0
1001
ACAD
1000
MTEXTBEGIN
1070
    73
1070
     1
1070
    44
1040
1.0
1070
    74
1070
     0
1000
MTEXTEND
  0
POINT
  5
18E9
330
165C
100
AcDbEntity
  8
Defpoints
 62
     0
100
AcDbPoint
 10
338.8316555476886
 20
654.0028472738935
 30
0.0
  0
POINT
  5
18EA
330
165C
100
AcDbEntity
  8
Defpoints
 62
     0
100
AcDbPoint
 10
359.8316555476886
 20
649.7728472738934
 30
0.0
  0
POINT
  5
18EB
330
165C
100
AcDbEntity
  8
Defpoints
 62
     0
100
AcDbPoint
 10
359.8316555476886
 20
640.7658889590914
 30
0.0
  0
ENDBLK
  5
1667
330
165C
100
AcDbEntity
  8
0
100
AcDbBlockEnd
  0
BLOCK
  5
1734
330
172A
100
AcDbEntity
  8
0
100
AcDbBlockBegin
  2
*D28
 70
     1
 10
0.0
 20
0.0
 30
0.0
  3
*D28
  1

  0
LINE
  5
176E
330
172A
100
AcDbEntity
  8
AM_5
100
AcDbLine
 10
286.8316555476886
 20
498.8746906443849
 30
0.0
 11
286.8316555476886
 21
486.3746906443849
 31
0.0
  0
LINE
  5
176F
330
172A
100
AcDbEntity
  8
AM_5
100
AcDbLine
 10
309.8316555476886
 20
498.8746906443849
 30
0.0
 11
309.8316555476886
 21
486.3746906443849
 31
0.0
  0
LINE
  5
1770
330
172A
100
AcDbEntity
  8
AM_5
100
AcDbLine
 10
289.8316555476886
 20
487.8746906443849
 30
0.0
 11
306.8316555476886
 21
487.8746906443849
 31
0.0
  0
SOLID
  5
1771
330
172A
100
AcDbEntity
  8
AM_5
100
AcDbTrace
 10
289.8316555476886
 20
488.3746906443849
 30
0.0
 11
289.8316555476886
 21
487.3746906443849
 31
0.0
 12
286.8316555476886
 22
487.8746906443849
 32
0.0
 13
286.8316555476886
 23
487.8746906443849
 33
0.0
  0
SOLID
  5
1772
330
172A
100
AcDbEntity
  8
AM_5
100
AcDbTrace
 10
306.8316555476886
 20
488.3746906443849
 30
0.0
 11
306.8316555476886
 21
487.3746906443849
 31
0.0
 12
309.8316555476886
 22
487.8746906443849
 32
0.0
 13
309.8316555476886
 23
487.8746906443849
 33
0.0
  0
MTEXT
  5
1773
330
172A
100
AcDbEntity
  8
AM_5
100
AcDbMText
 10
298.3316555476886
 20
490.8686374947786
 30
0.0
 40
3.5
 41
0.0
 71
     5
 72
     1
  1
23{\H2.100000;\S+0.2^ +0.1;}
 73
     1
 44
1.0
1001
ACAD
1000
MTEXTBEGIN
1070
    73
1070
     1
1070
    44
1040
1.0
1070
    74
1070
     0
1000
MTEXTEND
  0
POINT
  5
1774
330
172A
100
AcDbEntity
  8
Defpoints
 62
     0
100
AcDbPoint
 10
286.8316555476886
 20
499.8746906443849
 30
0.0
  0
POINT
  5
1775
330
172A
100
AcDbEntity
  8
Defpoints
 62
     0
100
AcDbPoint
 10
309.8316555476886
 20
499.8746906443849
 30
0.0
  0
POINT
  5
1776
330
172A
100
AcDbEntity
  8
Defpoints
 62
     0
100
AcDbPoint
 10
309.8316555476886
 20
487.8746906443849
 30
0.0
  0
ENDBLK
  5
1735
330
172A
100
AcDbEntity
  8
0
100
AcDbBlockEnd
  0
BLOCK
  5
179F
330
1793
100
AcDbEntity
  8
0
100
AcDbBlockBegin
  2
*D29
 70
     1
 10
0.0
 20
0.0
 30
0.0
  3
*D29
  1

  0
LINE
  5
1935
330
1793
100
AcDbEntity
  8
Dim
100
AcDbLine
 10
780.3287751840739
 20
606.8786906443848
 30
0.0
 11
780.3287751840739
 21
618.8786906443848
 31
0.0
  0
LINE
  5
1936
330
1793
100
AcDbEntity
  8
Dim
100
AcDbLine
 10
787.3287751840739
 20
606.8786906443848
 30
0.0
 11
787.3287751840739
 21
618.8786906443848
 31
0.0
  0
LINE
  5
1937
330
1793
100
AcDbEntity
  8
Dim
100
AcDbLine
 10
782.3287751840739
 20
617.8786906443848
 30
0.0
 11
785.3287751840739
 21
617.8786906443848
 31
0.0
  0
SOLID
  5
1938
330
1793
100
AcDbEntity
  8
Dim
100
AcDbTrace
 10
782.3287751840739
 20
618.2120239777182
 30
0.0
 11
782.3287751840739
 21
617.5453573110514
 31
0.0
 12
780.3287751840739
 22
617.8786906443848
 32
0.0
 13
780.3287751840739
 23
617.8786906443848
 33
0.0
  0
SOLID
  5
1939
330
1793
100
AcDbEntity
  8
Dim
100
AcDbTrace
 10
785.3287751840739
 20
618.2120239777182
 30
0.0
 11
785.3287751840739
 21
617.5453573110514
 31
0.0
 12
787.3287751840739
 22
617.8786906443848
 32
0.0
 13
787.3287751840739
 23
617.8786906443848
 33
0.0
  0
MTEXT
  5
193A
330
1793
100
AcDbEntity
  8
Dim
100
AcDbMText
 10
783.8287751840739
 20
620.1286906443848
 30
0.0
 40
2.5
 41
0.0
 71
     5
 72
     1
  1
\A1;7
  7
China
 73
     1
 44
1.0
1001
ACAD
1000
MTEXTBEGIN
1070
    73
1070
     1
1070
    44
1040
1.0
1070
    74
1070
     0
1000
MTEXTEND
  0
POINT
  5
193B
330
1793
100
AcDbEntity
  8
Defpoints
 62
     0
100
AcDbPoint
 10
780.3287751840739
 20
605.8786906443848
 30
0.0
  0
POINT
  5
193C
330
1793
100
AcDbEntity
  8
Defpoints
 62
     0
100
AcDbPoint
 10
787.3287751840739
 20
605.8786906443848
 30
0.0
  0
POINT
  5
193D
330
1793
100
AcDbEntity
  8
Defpoints
 62
     0
100
AcDbPoint
 10
787.3287751840739
 20
617.8786906443848
 30
0.0
  0
ENDBLK
  5
17A0
330
1793
100
AcDbEntity
  8
0
100
AcDbBlockEnd
  0
BLOCK
  5
17DD
330
17D3
100
AcDbEntity
  8
0
100
AcDbBlockBegin
  2
*D30
 70
     1
 10
0.0
 20
0.0
 30
0.0
  3
*D30
  1

  0
LINE
  5
193E
330
17D3
100
AcDbEntity
  8
Dim
100
AcDbLine
 10
760.3287751840739
 20
592.8786906443849
 30
0.0
 11
760.3287751840739
 21
626.8786906443848
 31
0.0
  0
LINE
  5
193F
330
17D3
100
AcDbEntity
  8
Dim
100
AcDbLine
 10
787.3287751840739
 20
606.8786906443848
 30
0.0
 11
787.3287751840739
 21
626.8786906443848
 31
0.0
  0
LINE
  5
1940
330
17D3
100
AcDbEntity
  8
Dim
100
AcDbLine
 10
762.3287751840739
 20
625.8786906443848
 30
0.0
 11
785.3287751840739
 21
625.8786906443848
 31
0.0
  0
SOLID
  5
1941
330
17D3
100
AcDbEntity
  8
Dim
100
AcDbTrace
 10
762.3287751840739
 20
626.2120239777182
 30
0.0
 11
762.3287751840739
 21
625.5453573110514
 31
0.0
 12
760.3287751840739
 22
625.8786906443848
 32
0.0
 13
760.3287751840739
 23
625.8786906443848
 33
0.0
  0
SOLID
  5
1942
330
17D3
100
AcDbEntity
  8
Dim
100
AcDbTrace
 10
785.3287751840739
 20
626.2120239777182
 30
0.0
 11
785.3287751840739
 21
625.5453573110514
 31
0.0
 12
787.3287751840739
 22
625.8786906443848
 32
0.0
 13
787.3287751840739
 23
625.8786906443848
 33
0.0
  0
MTEXT
  5
1943
330
17D3
100
AcDbEntity
  8
Dim
100
AcDbMText
 10
773.8287751840739
 20
628.1286906443848
 30
0.0
 40
2.5
 41
0.0
 71
     5
 72
     1
  1
\A1;27
  7
China
 73
     1
 44
1.0
1001
ACAD
1000
MTEXTBEGIN
1070
    73
1070
     1
1070
    44
1040
1.0
1070
    74
1070
     0
1000
MTEXTEND
  0
POINT
  5
1944
330
17D3
100
AcDbEntity
  8
Defpoints
 62
     0
100
AcDbPoint
 10
760.3287751840739
 20
591.8786906443849
 30
0.0
  0
POINT
  5
1945
330
17D3
100
AcDbEntity
  8
Defpoints
 62
     0
100
AcDbPoint
 10
787.3287751840739
 20
605.8786906443848
 30
0.0
  0
POINT
  5
1946
330
17D3
100
AcDbEntity
  8
Defpoints
 62
     0
100
AcDbPoint
 10
787.3287751840739
 20
625.8786906443848
 30
0.0
  0
ENDBLK
  5
17DE
330
17D3
100
AcDbEntity
  8
0
100
AcDbBlockEnd
  0
BLOCK
  5
1803
330
17F9
100
AcDbEntity
  8
0
100
AcDbBlockBegin
  2
*D31
 70
     1
 10
0.0
 20
0.0
 30
0.0
  3
*D31
  1

  0
LINE
  5
1982
330
17F9
100
AcDbEntity
  8
Dim
100
AcDbLine
 10
779.3287751840739
 20
605.8786906443848
 30
0.0
 11
740.0693042540888
 21
605.8786906443849
 31
0.0
  0
LINE
  5
1983
330
17F9
100
AcDbEntity
  8
Dim
100
AcDbLine
 10
759.328775184074
 20
584.8786906443849
 30
0.0
 11
740.0693042540888
 21
584.8786906443849
 31
0.0
  0
LINE
  5
1984
330
17F9
100
AcDbEntity
  8
Dim
100
AcDbLine
 10
741.0693042540888
 20
603.8786906443849
 30
0.0
 11
741.0693042540888
 21
586.8786906443849
 31
0.0
  0
SOLID
  5
1985
330
17F9
100
AcDbEntity
  8
Dim
100
AcDbTrace
 10
740.7359709207554
 20
603.8786906443849
 30
0.0
 11
741.4026375874222
 21
603.8786906443849
 31
0.0
 12
741.0693042540888
 22
605.8786906443849
 32
0.0
 13
741.0693042540888
 23
605.8786906443849
 33
0.0
  0
SOLID
  5
1986
330
17F9
100
AcDbEntity
  8
Dim
100
AcDbTrace
 10
740.7359709207554
 20
586.8786906443849
 30
0.0
 11
741.4026375874222
 21
586.8786906443849
 31
0.0
 12
741.0693042540888
 22
584.8786906443849
 32
0.0
 13
741.0693042540888
 23
584.8786906443849
 33
0.0
  0
MTEXT
  5
1987
330
17F9
100
AcDbEntity
  8
Dim
100
AcDbMText
 10
738.8193042540887
 20
595.378690644385
 30
0.0
 40
2.5
 41
0.0
 71
     5
 72
     1
  1
\A1;21
  7
China
 11
0.0000000000000001
 21
1.0
 31
0.0
 73
     1
 44
1.0
1001
ACAD
1000
MTEXTBEGIN
1070
    73
1070
     1
1070
    44
1040
1.0
1070
    74
1070
     0
1000
MTEXTEND
  0
POINT
  5
1988
330
17F9
100
AcDbEntity
  8
Defpoints
 62
     0
100
AcDbPoint
 10
780.3287751840739
 20
605.8786906443848
 30
0.0
  0
POINT
  5
1989
330
17F9
100
AcDbEntity
  8
Defpoints
 62
     0
100
AcDbPoint
 10
760.3287751840739
 20
584.8786906443849
 30
0.0
  0
POINT
  5
198A
330
17F9
100
AcDbEntity
  8
Defpoints
 62
     0
100
AcDbPoint
 10
741.0693042540888
 20
584.8786906443849
 30
0.0
  0
ENDBLK
  5
1804
330
17F9
100
AcDbEntity
  8
0
100
AcDbBlockEnd
  0
BLOCK
  5
1838
330
182E
100
AcDbEntity
  8
0
100
AcDbBlockBegin
  2
*D32
 70
     1
 10
0.0
 20
0.0
 30
0.0
  3
*D32
  1

  0
LINE
  5
1950
330
182E
100
AcDbEntity
  8
Dim
100
AcDbLine
 10
779.3287751840739
 20
605.8786906443848
 30
0.0
 11
747.3287751840739
 21
605.8786906443849
 31
0.0
  0
LINE
  5
1951
330
182E
100
AcDbEntity
  8
Dim
100
AcDbLine
 10
759.328775184074
 20
591.8786906443849
 30
0.0
 11
747.3287751840739
 21
591.8786906443849
 31
0.0
  0
LINE
  5
1952
330
182E
100
AcDbEntity
  8
Dim
100
AcDbLine
 10
748.3287751840739
 20
603.8786906443849
 30
0.0
 11
748.3287751840739
 21
593.878690644385
 31
0.0
  0
SOLID
  5
1953
330
182E
100
AcDbEntity
  8
Dim
100
AcDbTrace
 10
747.9954418507405
 20
603.8786906443849
 30
0.0
 11
748.6621085174073
 21
603.8786906443849
 31
0.0
 12
748.3287751840739
 22
605.8786906443849
 32
0.0
 13
748.3287751840739
 23
605.8786906443849
 33
0.0
  0
SOLID
  5
1954
330
182E
100
AcDbEntity
  8
Dim
100
AcDbTrace
 10
747.9954418507405
 20
593.878690644385
 30
0.0
 11
748.6621085174073
 21
593.878690644385
 31
0.0
 12
748.3287751840739
 22
591.8786906443849
 32
0.0
 13
748.3287751840739
 23
591.8786906443849
 33
0.0
  0
MTEXT
  5
1955
330
182E
100
AcDbEntity
  8
Dim
100
AcDbMText
 10
746.0787751840738
 20
598.878690644385
 30
0.0
 40
2.5
 41
0.0
 71
     5
 72
     1
  1
\A1;14
  7
China
 11
0.0000000000000001
 21
1.0
 31
0.0
 73
     1
 44
1.0
1001
ACAD
1000
MTEXTBEGIN
1070
    73
1070
     1
1070
    44
1040
1.0
1070
    74
1070
     0
1000
MTEXTEND
  0
POINT
  5
1956
330
182E
100
AcDbEntity
  8
Defpoints
 62
     0
100
AcDbPoint
 10
780.3287751840739
 20
605.8786906443848
 30
0.0
  0
POINT
  5
1957
330
182E
100
AcDbEntity
  8
Defpoints
 62
     0
100
AcDbPoint
 10
760.3287751840739
 20
591.8786906443849
 30
0.0
  0
POINT
  5
1958
330
182E
100
AcDbEntity
  8
Defpoints
 62
     0
100
AcDbPoint
 10
748.3287751840739
 20
591.8786906443849
 30
0.0
  0
ENDBLK
  5
1839
330
182E
100
AcDbEntity
  8
0
100
AcDbBlockEnd
  0
BLOCK
  5
185E
330
1854
100
AcDbEntity
  8
0
100
AcDbBlockBegin
  2
*D33
 70
     1
 10
0.0
 20
0.0
 30
0.0
  3
*D33
  1

  0
LINE
  5
1959
330
1854
100
AcDbEntity
  8
Dim
100
AcDbLine
 10
779.3287751840739
 20
605.8786906443848
 30
0.0
 11
724.9759877827425
 21
605.8786906443849
 31
0.0
  0
LINE
  5
195A
330
1854
100
AcDbEntity
  8
Dim
100
AcDbLine
 10
758.4287751840738
 20
561.8746906443849
 30
0.0
 11
724.9759877827425
 21
561.8746906443849
 31
0.0
  0
LINE
  5
195B
330
1854
100
AcDbEntity
  8
Dim
100
AcDbLine
 10
725.9759877827425
 20
603.8786906443849
 30
0.0
 11
725.9759877827425
 21
563.8746906443849
 31
0.0
  0
SOLID
  5
195C
330
1854
100
AcDbEntity
  8
Dim
100
AcDbTrace
 10
725.6426544494091
 20
603.8786906443849
 30
0.0
 11
726.3093211160759
 21
603.8786906443849
 31
0.0
 12
725.9759877827425
 22
605.8786906443849
 32
0.0
 13
725.9759877827425
 23
605.8786906443849
 33
0.0
  0
SOLID
  5
195D
330
1854
100
AcDbEntity
  8
Dim
100
AcDbTrace
 10
725.6426544494091
 20
563.8746906443849
 30
0.0
 11
726.3093211160759
 21
563.8746906443849
 31
0.0
 12
725.9759877827425
 22
561.8746906443849
 32
0.0
 13
725.9759877827425
 23
561.8746906443849
 33
0.0
  0
MTEXT
  5
195E
330
1854
100
AcDbEntity
  8
Dim
100
AcDbMText
 10
723.7259877827424
 20
583.876690644385
 30
0.0
 40
2.5
 41
0.0
 71
     5
 72
     1
  1
\A1;44
  7
China
 11
0.0000000000000001
 21
1.0
 31
0.0
 73
     1
 44
1.0
1001
ACAD
1000
MTEXTBEGIN
1070
    73
1070
     1
1070
    44
1040
1.0
1070
    74
1070
     0
1000
MTEXTEND
  0
POINT
  5
195F
330
1854
100
AcDbEntity
  8
Defpoints
 62
     0
100
AcDbPoint
 10
780.3287751840739
 20
605.8786906443848
 30
0.0
  0
POINT
  5
1960
330
1854
100
AcDbEntity
  8
Defpoints
 62
     0
100
AcDbPoint
 10
759.4287751840738
 20
561.8746906443849
 30
0.0
  0
POINT
  5
1961
330
1854
100
AcDbEntity
  8
Defpoints
 62
     0
100
AcDbPoint
 10
725.9759877827425
 20
561.8746906443849
 30
0.0
  0
ENDBLK
  5
185F
330
1854
100
AcDbEntity
  8
0
100
AcDbBlockEnd
  0
BLOCK
  5
19C6
330
19BA
100
AcDbEntity
  8
0
100
AcDbBlockBegin
  2
*D34
 70
     1
 10
0.0
 20
0.0
 30
0.0
  3
*D34
  1

  0
LINE
  5
19E1
330
19BA
100
AcDbEntity
  8
Dim
100
AcDbLine
 10
685.4919564900442
 20
605.8786906443848
 30
0.0
 11
702.5455016679297
 21
605.8786906443848
 31
0.0
  0
LINE
  5
19E2
330
19BA
100
AcDbEntity
  8
Dim
100
AcDbLine
 10
683.5819564900441
 20
598.8786906443849
 30
0.0
 11
702.5455016679297
 21
598.8786906443849
 31
0.0
  0
LINE
  5
19E3
330
19BA
100
AcDbEntity
  8
Dim
100
AcDbLine
 10
701.5455016679298
 20
603.8786906443848
 30
0.0
 11
701.5455016679298
 21
600.8786906443849
 31
0.0
  0
SOLID
  5
19E4
330
19BA
100
AcDbEntity
  8
Dim
100
AcDbTrace
 10
701.2121683345964
 20
603.8786906443848
 30
0.0
 11
701.8788350012632
 21
603.8786906443848
 31
0.0
 12
701.5455016679298
 22
605.8786906443848
 32
0.0
 13
701.5455016679298
 23
605.8786906443848
 33
0.0
  0
SOLID
  5
19E5
330
19BA
100
AcDbEntity
  8
Dim
100
AcDbTrace
 10
701.2121683345964
 20
600.8786906443849
 30
0.0
 11
701.8788350012632
 21
600.8786906443849
 31
0.0
 12
701.5455016679298
 22
598.8786906443849
 32
0.0
 13
701.5455016679298
 23
598.8786906443849
 33
0.0
  0
MTEXT
  5
19E6
330
19BA
100
AcDbEntity
  8
Dim
100
AcDbMText
 10
699.2955016679296
 20
602.378690644385
 30
0.0
 40
2.5
 41
0.0
 71
     5
 72
     1
  1
\A1;7
  7
China
 11
0.0000000000000001
 21
1.0
 31
0.0
 73
     1
 44
1.0
1001
ACAD
1000
MTEXTBEGIN
1070
    73
1070
     1
1070
    44
1040
1.0
1070
    74
1070
     0
1000
MTEXTEND
  0
POINT
  5
19E7
330
19BA
100
AcDbEntity
  8
Defpoints
 62
     0
100
AcDbPoint
 10
684.4919564900442
 20
605.8786906443848
 30
0.0
  0
POINT
  5
19E8
330
19BA
100
AcDbEntity
  8
Defpoints
 62
     0
100
AcDbPoint
 10
682.5819564900442
 20
598.8786906443849
 30
0.0
  0
POINT
  5
19E9
330
19BA
100
AcDbEntity
  8
Defpoints
 62
     0
100
AcDbPoint
 10
701.5455016679298
 20
598.8786906443849
 30
0.0
  0
ENDBLK
  5
19C7
330
19BA
100
AcDbEntity
  8
0
100
AcDbBlockEnd
  0
ENDSEC
  0
SECTION
  2
ENTITIES
  0
LINE
  5
E14
330
1F
100
AcDbEntity
  8
圖層1
  6
ACISOTGB
100
AcDbLine
 10
729.5587751840737
 20
566.1406906443849
 30
0.0
 11
743.5387751840737
 21
566.8486906443848
 31
0.0
  0
LINE
  5
E15
330
1F
100
AcDbEntity
  8
圖層1
  6
ACISOTGB
100
AcDbLine
 10
755.7787751840737
 20
574.4776906443848
 30
0.0
 11
729.1987751840738
 21
573.1316906443849
 31
0.0
  0
LINE
  5
E16
330
1F
100
AcDbEntity
  8
圖層1
  6
ACISOTGB
100
AcDbLine
 10
729.5587751840737
 20
527.6076906443848
 30
0.0
 11
743.5387751840737
 21
526.8996906443849
 31
0.0
  0
LINE
  5
E17
330
1F
100
AcDbEntity
  8
圖層1
  6
ACISOTGB
100
AcDbLine
 10
755.7787751840737
 20
519.2706906443849
 30
0.0
 11
729.1987751840738
 21
520.6166906443849
 31
0.0
  0
DIMENSION
  5
E1A
330
1F
100
AcDbEntity
  8
Dim
100
AcDbDimension
  2
*D3
 10
489.8556985167842
 20
524.3746906443849
 30
0.0
 11
487.6056985167842
 21
546.874690644385
 31
0.0
 70
    32
 71
     5
 42
45.0
  3
Standard
100
AcDbAlignedDimension
 13
471.4216985167843
 23
569.3746906443849
 33
0.0
 14
441.6346985167843
 24
524.3746906443849
 34
0.0
 50
90.0
100
AcDbRotatedDimension
1001
ACAD
1000
DSTYLE
1002
{
1070
    41
1040
2.0
1070
    42
1040
1.0
1070
    44
1040
1.0
1070
    73
1070
     0
1070
    74
1070
     0
1070
    77
1070
     1
1070
    78
1070
     8
1070
    79
1070
     2
1070
   140
1040
2.5
1070
   141
1040
0.0
1070
   147
1040
1.0
1070
   172
1070
     1
1070
   174
1070
     1
1070
   176
1070
   256
1070
   177
1070
   256
1070
   178
1070
   256
1070
   271
1070
     2
1070
   272
1070
     2
1070
   340
1005
BE8
1070
   371
1070
    -1
1070
   372
1070
    -1
1002
}
  0
DIMENSION
  5
E1B
330
1F
100
AcDbEntity
  8
Dim
100
AcDbDimension
  2
*D4
 10
359.8316555476886
 20
391.2786125472732
 30
0.0
 11
353.3316555476886
 21
393.5286125472732
 31
0.0
 70
    32
 71
     5
 42
13.0
  3
Standard
100
AcDbAlignedDimension
 13
346.8316555476885
 23
408.02341425171
 33
0.0
 14
359.8316555476886
 24
401.7054142517101
 34
0.0
100
AcDbRotatedDimension
1001
ACAD
1000
DSTYLE
1002
{
1070
    41
1040
2.0
1070
    42
1040
1.0
1070
    44
1040
1.0
1070
    73
1070
     0
1070
    74
1070
     0
1070
    77
1070
     1
1070
    78
1070
     8
1070
    79
1070
     2
1070
   140
1040
2.5
1070
   141
1040
0.0
1070
   147
1040
1.0
1070
   172
1070
     1
1070
   174
1070
     1
1070
   176
1070
   256
1070
   177
1070
   256
1070
   178
1070
   256
1070
   271
1070
     2
1070
   272
1070
     2
1070
   340
1005
BE8
1070
   371
1070
    -1
1070
   372
1070
    -1
1002
}
  0
LINE
  5
E1C
330
1F
100
AcDbEntity
  8
AM_7
100
AcDbLine
 10
305.3316555476886
 20
398.0444142517101
 30
0.0
 11
305.3316555476886
 21
407.51341425171
 31
0.0
  0
CIRCLE
  5
E1D
330
1F
100
AcDbEntity
  8
0
  6
Continuous
 62
     7
100
AcDbCircle
 10
305.3316555476886
 20
402.70541425171
 30
0.0
 40
3.85
  0
CIRCLE
  5
E1E
330
1F
100
AcDbEntity
  8
0
  6
Continuous
 62
     7
100
AcDbCircle
 10
291.3316555476886
 20
402.70541425171
 30
0.0
 40
3.85
  0
LINE
  5
E1F
330
1F
100
AcDbEntity
  8
AM_7
100
AcDbLine
 10
291.3316555476886
 20
407.45341425171
 30
0.0
 11
291.3316555476886
 21
397.44741425171
 31
0.0
  0
LEADER
  5
E20
330
1F
100
AcDbEntity
  8
Dim
100
AcDbLeader
  3
Standard
 76
     3
 10
296.5466157286126
 20
412.7252630834496
 30
0.0
 10
280.2435706713777
 20
386.5240965239251
 30
0.0
 10
235.178354731758
 20
386.5240965239251
 30
0.0
1001
ACAD
1000
DSTYLE
1002
{
1070
    41
1040
2.0
1070
    42
1040
1.0
1070
    44
1040
1.0
1070
    73
1070
     0
1070
    74
1070
     0
1070
    77
1070
     0
1070
    78
1070
     8
1070
    79
1070
     2
1070
   140
1040
2.5
1070
   141
1040
0.0
1070
   147
1040
1.0
1070
   172
1070
     1
1070
   174
1070
     1
1070
   176
1070
   256
1070
   177
1070
   256
1070
   178
1070
   256
1070
   271
1070
     2
1070
   272
1070
     2
1070
   340
1005
BE8
1070
   371
1070
    -1
1070
   372
1070
    -1
1002
}
  0
LEADER
  5
E21
330
1F
100
AcDbEntity
  8
Dim
100
AcDbLeader
  3
Standard
 76
     3
 10
351.6956555476885
 20
414.2054142517101
 30
0.0
 10
367.2218639080957
 20
398.1668848751907
 30
0.0
 10
415.9605340809066
 20
398.1668848751907
 30
0.0
1001
ACAD
1000
DSTYLE
1002
{
1070
    41
1040
2.0
1070
    42
1040
1.0
1070
    44
1040
1.0
1070
    73
1070
     0
1070
    74
1070
     0
1070
    77
1070
     0
1070
    78
1070
     8
1070
    79
1070
     2
1070
   140
1040
2.5
1070
   141
1040
0.0
1070
   147
1040
1.0
1070
   172
1070
     1
1070
   174
1070
     1
1070
   176
1070
   256
1070
   177
1070
   256
1070
   178
1070
   256
1070
   271
1070
     2
1070
   272
1070
     2
1070
   340
1005
BE8
1070
   371
1070
    -1
1070
   372
1070
    -1
1002
}
  0
DIMENSION
  5
E22
330
1F
100
AcDbEntity
  8
Dim
100
AcDbDimension
  2
*D5
 10
248.3316555476886
 20
398.7054142517101
 30
0.0
 11
246.0816555476885
 21
424.2054142517101
 31
0.0
 70
    32
 71
     5
 42
51.0
  3
Standard
100
AcDbAlignedDimension
 13
284.8316555476886
 23
449.70541425171
 33
0.0
 14
284.8316555476886
 24
398.7054142517101
 34
0.0
 50
90.0
100
AcDbRotatedDimension
1001
ACAD
1000
DSTYLE
1002
{
1070
    41
1040
2.0
1070
    42
1040
1.0
1070
    44
1040
1.0
1070
    73
1070
     0
1070
    74
1070
     0
1070
    77
1070
     1
1070
    78
1070
     8
1070
    79
1070
     2
1070
   140
1040
2.5
1070
   141
1040
0.0
1070
   147
1040
1.0
1070
   172
1070
     1
1070
   174
1070
     1
1070
   176
1070
   256
1070
   177
1070
   256
1070
   178
1070
   256
1070
   271
1070
     2
1070
   272
1070
     2
1070
   340
1005
BE8
1070
   371
1070
    -1
1070
   372
1070
    -1
1002
}
  0
LINE
  5
E23
330
1F
100
AcDbEntity
  8
0
  6
Continuous
 62
     7
100
AcDbLine
 10
286.8316555476886
 20
398.7054142517101
 30
0.0
 11
286.8316555476886
 21
449.70541425171
 31
0.0
  0
LINE
  5
E24
330
1F
100
AcDbEntity
  8
0
  6
Continuous
 62
     7
100
AcDbLine
 10
284.8316555476886
 20
398.7054142517101
 30
0.0
 11
284.8316555476886
 21
449.70541425171
 31
0.0
  0
LINE
  5
E25
330
1F
100
AcDbEntity
  8
0
  6
Continuous
 62
     7
100
AcDbLine
 10
309.8316555476886
 20
449.70541425171
 30
0.0
 11
309.8316555476886
 21
398.7054142517101
 31
0.0
  0
LINE
  5
E26
330
1F
100
AcDbEntity
  8
0
  6
Continuous
 62
     7
100
AcDbLine
 10
311.8316555476886
 20
449.70541425171
 30
0.0
 11
311.8316555476886
 21
398.7054142517101
 31
0.0
  0
DIMENSION
  5
E27
330
1F
100
AcDbEntity
  8
Dim
100
AcDbDimension
  2
*D6
 10
321.8316555476885
 20
391.2786125472732
 30
0.0
 11
334.3316555476885
 21
393.5286125472732
 31
0.0
 70
    32
 71
     5
 42
25.0
  3
Standard
100
AcDbAlignedDimension
 13
346.8316555476885
 23
391.2786125472732
 33
0.0
 14
321.8316555476885
 24
429.34141425171
 34
0.0
100
AcDbRotatedDimension
1001
ACAD
1000
DSTYLE
1002
{
1070
    41
1040
2.0
1070
    42
1040
1.0
1070
    44
1040
1.0
1070
    73
1070
     0
1070
    74
1070
     0
1070
    77
1070
     1
1070
    78
1070
     8
1070
    79
1070
     2
1070
   140
1040
2.5
1070
   141
1040
0.0
1070
   147
1040
1.0
1070
   172
1070
     1
1070
   174
1070
     1
1070
   176
1070
   256
1070
   177
1070
   256
1070
   178
1070
   256
1070
   271
1070
     2
1070
   272
1070
     2
1070
   340
1005
BE8
1070
   371
1070
    -1
1070
   372
1070
    -1
1002
}
  0
TEXT
  5
E28
330
1F
100
AcDbEntity
  8
Dim
100
AcDbText
 10
236.0571503311911
 20
387.4355488986875
 30
0.0
 40
3.2
  1
4-M6x1.0x7depth
  7
China
100
AcDbText
  0
LINE
  5
E29
330
1F
100
AcDbEntity
  8
0
  6
Continuous
 62
     7
100
AcDbLine
 10
311.8316555476886
 20
398.7054142517101
 30
0.0
 11
284.8316555476886
 21
398.7054142517101
 31
0.0
  0
LINE
  5
E2D
330
1F
100
AcDbEntity
  8
AM_7
100
AcDbLine
 10
667.4919564900442
 20
611.1286906443848
 30
0.0
 11
667.4919564900442
 21
482.8916906443849
 31
0.0
  0
LINE
  5
E2E
330
1F
100
AcDbEntity
  8
0
  6
Continuous
 62
     7
100
AcDbLine
 10
692.9919564900442
 20
591.8786906443849
 30
0.0
 11
692.9919564900442
 21
548.3746906443849
 31
0.0
  0
LINE
  5
E2F
330
1F
100
AcDbEntity
  8
0
  6
Continuous
 62
     7
100
AcDbLine
 10
641.9919564900442
 20
591.8786906443849
 30
0.0
 11
641.9919564900442
 21
548.3746906443849
 31
0.0
  0
LINE
  5
E30
330
1F
100
AcDbEntity
  8
0
  6
Continuous
 62
     7
100
AcDbLine
 10
649.9919564900442
 20
584.8786906443849
 30
0.0
 11
649.9919564900442
 21
548.3746906443849
 31
0.0
  0
LINE
  5
E31
330
1F
100
AcDbEntity
  8
0
  6
Continuous
 62
     7
100
AcDbLine
 10
684.9919564900442
 20
584.8786906443849
 30
0.0
 11
684.9919564900442
 21
548.3746906443849
 31
0.0
  0
LINE
  5
E32
330
1F
100
AcDbEntity
  8
0
  6
Continuous
 62
     7
100
AcDbLine
 10
650.4919564900442
 20
487.8746906443849
 30
0.0
 11
684.4919564900442
 21
487.8746906443849
 31
0.0
  0
LINE
  5
E33
330
1F
100
AcDbEntity
  8
0
  6
Continuous
 62
     7
100
AcDbLine
 10
692.9919564900442
 20
508.8746906443849
 30
0.0
 11
641.9919564900442
 21
508.8746906443849
 31
0.0
  0
LINE
  5
E34
330
1F
100
AcDbEntity
  8
AM_7
100
AcDbLine
 10
694.3819564900441
 20
546.8746906443849
 30
0.0
 11
635.9419564900441
 21
546.8746906443849
 31
0.0
  0
LINE
  5
E35
330
1F
100
AcDbEntity
  8
0
  6
Continuous
 62
     7
100
AcDbLine
 10
649.9919564900442
 20
508.8746906443849
 30
0.0
 11
649.9919564900442
 21
545.3746906443849
 31
0.0
  0
LINE
  5
E36
330
1F
100
AcDbEntity
  8
0
  6
Continuous
 62
     7
100
AcDbLine
 10
641.9919564900442
 20
501.8746906443849
 30
0.0
 11
641.9919564900442
 21
545.3746906443849
 31
0.0
  0
TEXT
  5
E37
330
1F
100
AcDbEntity
  8
Dim
100
AcDbText
 10
628.2953136799074
 20
480.5756906443849
 30
0.0
 40
3.2
  1
4-M6x1
  7
China
100
AcDbText
  0
CIRCLE
  5
E3A
330
1F
100
AcDbEntity
  8
0
  6
Continuous
 62
     7
100
AcDbCircle
 10
658.4919564900442
 20
494.8746906443849
 30
0.0
 40
2.458499999999999
  0
LINE
  5
E3B
330
1F
100
AcDbEntity
  8
AM_7
100
AcDbLine
 10
653.471956490044
 20
494.8746906443849
 30
0.0
 11
681.431956490044
 21
494.8746906443849
 31
0.0
  0
LINE
  5
E3C
330
1F
100
AcDbEntity
  8
0
  6
Continuous
 62
     7
100
AcDbLine
 10
650.4919564900442
 20
501.8746906443849
 30
0.0
 11
650.4919564900442
 21
487.8746906443849
 31
0.0
  0
LINE
  5
E3D
330
1F
100
AcDbEntity
  8
AM_7
100
AcDbLine
 10
658.4919564900442
 20
490.4106906443849
 30
0.0
 11
658.4919564900442
 21
499.6116906443849
 31
0.0
  0
LINE
  5
E42
330
1F
100
AcDbEntity
  8
0
  6
Continuous
 62
     7
100
AcDbLine
 10
650.4919564900442
 20
501.8746906443849
 30
0.0
 11
641.9919564900442
 21
501.8746906443849
 31
0.0
  0
LINE
  5
E43
330
1F
100
AcDbEntity
  8
AM_7
100
AcDbLine
 10
676.4919564900442
 20
490.4106906443849
 30
0.0
 11
676.4919564900442
 21
499.6116906443849
 31
0.0
  0
CIRCLE
  5
E45
330
1F
100
AcDbEntity
  8
0
  6
Continuous
 62
     7
100
AcDbCircle
 10
676.4919564900442
 20
494.8746906443849
 30
0.0
 40
2.458499999999999
  0
LINE
  5
E46
330
1F
100
AcDbEntity
  8
0
  6
Continuous
 62
     7
100
AcDbLine
 10
649.9919564900442
 20
545.3746906443849
 30
0.0
 11
641.9919564900442
 21
545.3746906443849
 31
0.0
  0
LINE
  5
E47
330
1F
100
AcDbEntity
  8
0
  6
Continuous
 62
     7
100
AcDbLine
 10
649.9919564900442
 20
548.3746906443849
 30
0.0
 11
641.9919564900442
 21
548.3746906443849
 31
0.0
  0
POINT
  5
E48
330
1F
100
AcDbEntity
  8
AM_7
100
AcDbPoint
 10
667.4919564900442
 20
546.8746906443849
 30
0.0
  0
LINE
  5
E49
330
1F
100
AcDbEntity
  8
0
  6
Continuous
 62
     7
100
AcDbLine
 10
692.9919564900442
 20
501.8746906443849
 30
0.0
 11
692.9919564900442
 21
545.3746906443849
 31
0.0
  0
LINE
  5
E4A
330
1F
100
AcDbEntity
  8
0
  6
Continuous
 62
     7
100
AcDbLine
 10
684.9919564900442
 20
508.8746906443849
 30
0.0
 11
684.9919564900442
 21
545.3746906443849
 31
0.0
  0
LINE
  5
E4B
330
1F
100
AcDbEntity
  8
0
  6
Continuous
 62
     7
100
AcDbLine
 10
684.4919564900442
 20
501.8746906443849
 30
0.0
 11
684.4919564900442
 21
487.8746906443849
 31
0.0
  0
LINE
  5
E4C
330
1F
100
AcDbEntity
  8
0
  6
Continuous
 62
     7
100
AcDbLine
 10
692.9919564900442
 20
501.8746906443849
 30
0.0
 11
684.4919564900442
 21
501.8746906443849
 31
0.0
  0
LINE
  5
E4D
330
1F
100
AcDbEntity
  8
0
  6
Continuous
 62
     7
100
AcDbLine
 10
692.9919564900442
 20
545.3746906443849
 30
0.0
 11
684.9919564900442
 21
545.3746906443849
 31
0.0
  0
LINE
  5
E4E
330
1F
100
AcDbEntity
  8
0
  6
Continuous
 62
     7
100
AcDbLine
 10
692.9919564900442
 20
548.3746906443849
 30
0.0
 11
684.9919564900442
 21
548.3746906443849
 31
0.0
  0
LINE
  5
E4F
330
1F
100
AcDbEntity
  8
圖層1
  6
ACISOTGB
100
AcDbLine
 10
729.1987751840738
 20
520.6166906443849
 30
0.0
 11
729.5587751840737
 21
527.6076906443848
 31
0.0
  0
LINE
  5
E50
330
1F
100
AcDbEntity
  8
圖層1
  6
PHANTOM
100
AcDbLine
 10
729.1987751840738
 20
573.1316906443849
 30
0.0
 11
729.5587751840737
 21
566.1406906443849
 31
0.0
  0
DIMENSION
  5
E51
330
1F
100
AcDbEntity
  8
Dim
100
AcDbDimension
  2
*D7
 10
692.9919564900442
 20
633.8786906443848
 30
0.0
 11
667.4919564900442
 21
636.1286906443848
 31
0.0
 70
    32
 71
     5
 42
51.0
  3
Standard
100
AcDbAlignedDimension
 13
641.9919564900442
 23
591.8786906443849
 33
0.0
 14
692.9919564900442
 24
591.8786906443849
 34
0.0
100
AcDbRotatedDimension
1001
ACAD
1000
DSTYLE
1002
{
1070
    41
1040
2.0
1070
    42
1040
1.0
1070
    44
1040
1.0
1070
    73
1070
     0
1070
    74
1070
     0
1070
    77
1070
     1
1070
    78
1070
     8
1070
    79
1070
     2
1070
   140
1040
2.5
1070
   141
1040
0.0
1070
   147
1040
1.0
1070
   172
1070
     1
1070
   174
1070
     1
1070
   176
1070
   256
1070
   177
1070
   256
1070
   178
1070
   256
1070
   271
1070
     2
1070
   272
1070
     2
1070
   340
1005
BE8
1070
   371
1070
    -1
1070
   372
1070
    -1
1002
}
  0
DIMENSION
  5
E52
330
1F
100
AcDbEntity
  8
Dim
100
AcDbDimension
  2
*D8
 10
684.4919564900442
 20
625.8786906443848
 30
0.0
 11
667.4919564900442
 21
628.1286906443848
 31
0.0
 70
    32
 71
     5
 42
34.0
  3
Standard
100
AcDbAlignedDimension
 13
650.4919564900442
 23
605.8786906443848
 33
0.0
 14
684.4919564900442
 24
605.8786906443848
 34
0.0
100
AcDbRotatedDimension
1001
ACAD
1000
DSTYLE
1002
{
1070
    41
1040
2.0
1070
    42
1040
1.0
1070
    44
1040
1.0
1070
    73
1070
     0
1070
    74
1070
     0
1070
    77
1070
     1
1070
    78
1070
     8
1070
    79
1070
     2
1070
   140
1040
2.5
1070
   141
1040
0.0
1070
   147
1040
1.0
1070
   172
1070
     1
1070
   174
1070
     1
1070
   176
1070
   256
1070
   177
1070
   256
1070
   178
1070
   256
1070
   271
1070
     2
1070
   272
1070
     2
1070
   340
1005
BE8
1070
   371
1070
    -1
1070
   372
1070
    -1
1002
}
  0
LINE
  5
E53
330
1F
100
AcDbEntity
  8
0
  6
Continuous
 62
     7
100
AcDbLine
 10
650.4919564900442
 20
605.8786906443848
 30
0.0
 11
684.4919564900442
 21
605.8786906443848
 31
0.0
  0
LINE
  5
E54
330
1F
100
AcDbEntity
  8
0
  6
Continuous
 62
     7
100
AcDbLine
 10
692.9919564900442
 20
584.8786906443849
 30
0.0
 11
641.9919564900442
 21
584.8786906443849
 31
0.0
  0
DIMENSION
  5
E55
330
1F
100
AcDbEntity
  8
Dim
100
AcDbDimension
  2
*D9
 10
676.4919564900442
 20
617.8786906443848
 30
0.0
 11
667.4919564900442
 21
620.1286906443848
 31
0.0
 70
    32
 71
     5
 42
18.0
  3
Standard
100
AcDbAlignedDimension
 13
658.4919564900442
 23
603.6086906443848
 33
0.0
 14
676.4919564900442
 24
603.6086906443848
 34
0.0
100
AcDbRotatedDimension
1001
ACAD
1000
DSTYLE
1002
{
1070
    41
1040
2.0
1070
    42
1040
1.0
1070
    44
1040
1.0
1070
    73
1070
     0
1070
    74
1070
     0
1070
    77
1070
     1
1070
    78
1070
     8
1070
    79
1070
     2
1070
   140
1040
2.5
1070
   141
1040
0.0
1070
   147
1040
1.0
1070
   172
1070
     1
1070
   174
1070
     1
1070
   176
1070
   256
1070
   177
1070
   256
1070
   178
1070
   256
1070
   271
1070
     2
1070
   272
1070
     2
1070
   340
1005
BE8
1070
   371
1070
    -1
1070
   372
1070
    -1
1002
}
  0
CIRCLE
  5
E57
330
1F
100
AcDbEntity
  8
0
  6
Continuous
 62
     7
100
AcDbCircle
 10
658.4919564900442
 20
598.8786906443849
 30
0.0
 40
2.458499999999999
  0
LINE
  5
E58
102
{ACAD_REACTORS
330
19C9
102
}
330
1F
100
AcDbEntity
  8
AM_7
100
AcDbLine
 10
653.5519564900441
 20
598.8786906443849
 30
0.0
 11
682.5819564900442
 21
598.8786906443849
 31
0.0
  0
LINE
  5
E59
330
1F
100
AcDbEntity
  8
AM_7
100
AcDbLine
 10
658.4919564900442
 20
594.4086906443849
 30
0.0
 11
658.4919564900442
 21
603.6086906443848
 31
0.0
  0
LINE
  5
E5A
330
1F
100
AcDbEntity
  8
0
  6
Continuous
 62
     7
100
AcDbLine
 10
650.4919564900442
 20
605.8786906443848
 30
0.0
 11
650.4919564900442
 21
591.8786906443849
 31
0.0
  0
LINE
  5
E5B
330
1F
100
AcDbEntity
  8
0
  6
Continuous
 62
     7
100
AcDbLine
 10
650.4919564900442
 20
591.8786906443849
 30
0.0
 11
641.9919564900442
 21
591.8786906443849
 31
0.0
  0
LINE
  5
E5C
330
1F
100
AcDbEntity
  8
AM_7
100
AcDbLine
 10
676.4919564900442
 20
594.4086906443849
 30
0.0
 11
676.4919564900442
 21
603.6086906443848
 31
0.0
  0
CIRCLE
  5
E5E
330
1F
100
AcDbEntity
  8
0
  6
Continuous
 62
     7
100
AcDbCircle
 10
676.4919564900442
 20
598.8786906443849
 30
0.0
 40
2.458499999999999
  0
LINE
  5
E5F
102
{ACAD_REACTORS
330
19C9
102
}
330
1F
100
AcDbEntity
  8
0
  6
Continuous
 62
     7
100
AcDbLine
 10
684.4919564900442
 20
605.8786906443848
 30
0.0
 11
684.4919564900442
 21
591.8786906443849
 31
0.0
  0
LINE
  5
E60
330
1F
100
AcDbEntity
  8
0
  6
Continuous
 62
     7
100
AcDbLine
 10
692.9919564900442
 20
591.8786906443849
 30
0.0
 11
684.4919564900442
 21
591.8786906443849
 31
0.0
  0
DIMENSION
  5
E62
330
1F
100
AcDbEntity
  8
Dim
100
AcDbDimension
  2
*D10
 10
371.9068519771754
 20
660.2728472738935
 30
0.0
 11
369.6568519771753
 21
672.2728472738936
 31
0.0
 70
    32
 71
     5
 42
24.0
  3
Standard
100
AcDbAlignedDimension
 13
344.4496555476886
 23
684.2728472738935
 33
0.0
 14
344.4496555476886
 24
660.2728472738935
 34
0.0
 50
90.0
100
AcDbRotatedDimension
1001
ACAD
1000
DSTYLE
1002
{
1070
    41
1040
2.0
1070
    42
1040
1.0
1070
    44
1040
1.0
1070
    73
1070
     0
1070
    74
1070
     0
1070
    77
1070
     1
1070
    78
1070
     8
1070
    79
1070
     2
1070
   140
1040
2.5
1070
   141
1040
0.0
1070
   147
1040
1.0
1070
   172
1070
     1
1070
   174
1070
     1
1070
   176
1070
   256
1070
   177
1070
   256
1070
   178
1070
   256
1070
   271
1070
     2
1070
   272
1070
     2
1070
   340
1005
BE8
1070
   371
1070
    -1
1070
   372
1070
    -1
1002
}
  0
LINE
  5
E63
330
1F
100
AcDbEntity
  8
0
  6
Continuous
 62
     7
100
AcDbLine
 10
309.8316555476886
 20
697.7728472738935
 30
0.0
 11
309.8316555476886
 21
646.7728472738935
 31
0.0
  0
LINE
  5
E64
330
1F
100
AcDbEntity
  8
0
  6
Continuous
 62
     7
100
AcDbLine
 10
286.8316555476886
 20
646.7728472738935
 30
0.0
 11
286.8316555476886
 21
697.7728472738935
 31
0.0
  0
LINE
  5
E65
330
1F
100
AcDbEntity
  8
0
  6
Continuous
 62
     7
100
AcDbLine
 10
284.8316555476886
 20
646.7728472738935
 30
0.0
 11
284.8316555476886
 21
697.7728472738935
 31
0.0
  0
LINE
  5
E66
330
1F
100
AcDbEntity
  8
0
  6
Continuous
 62
     7
100
AcDbLine
 10
311.8316555476886
 20
697.7728472738935
 30
0.0
 11
311.8316555476886
 21
646.7728472738935
 31
0.0
  0
LINE
  5
E67
330
1F
100
AcDbEntity
  8
0
  6
Continuous
 62
     7
100
AcDbLine
 10
280.8316555476886
 20
688.7728472738935
 30
0.0
 11
280.8316555476886
 21
655.7728472738935
 31
0.0
  0
LINE
  5
E68
330
1F
100
AcDbEntity
  8
0
  6
Continuous
 62
     7
100
AcDbLine
 10
276.3316555476886
 20
688.7728472738935
 30
0.0
 11
276.3316555476886
 21
655.7728472738935
 31
0.0
  0
LINE
  5
E69
102
{ACAD_REACTORS
330
1669
102
}
330
1F
100
AcDbEntity
  8
AM_7
100
AcDbLine
 10
338.8316555476886
 20
664.9625048732375
 30
0.0
 11
338.8316555476886
 21
654.0028472738935
 31
0.0
  0
LINE
  5
E6A
330
1F
100
AcDbEntity
  8
0
  6
Continuous
 62
     7
100
AcDbLine
 10
359.8316555476886
 20
694.7728472738934
 30
0.0
 11
359.8316555476886
 21
649.7728472738934
 31
0.0
  0
DIMENSION
  5
E6B
330
1F
100
AcDbEntity
  8
Dim
100
AcDbDimension
  2
*D11
 10
371.8316555476885
 20
525.8746906443849
 30
0.0
 11
369.5816555476885
 21
546.874690644385
 31
0.0
 70
    32
 71
     5
 42
42.0
  3
Standard
100
AcDbAlignedDimension
 13
336.0946555476886
 23
567.8746906443849
 33
0.0
 14
336.0946555476886
 24
525.8746906443849
 34
0.0
 50
90.0
100
AcDbRotatedDimension
1001
ACAD
1000
DSTYLE
1002
{
1070
    41
1040
2.0
1070
    42
1040
1.0
1070
    44
1040
1.0
1070
    73
1070
     0
1070
    74
1070
     0
1070
    77
1070
     1
1070
    78
1070
     8
1070
    79
1070
     2
1070
   140
1040
2.5
1070
   141
1040
0.0
1070
   147
1040
1.0
1070
   172
1070
     1
1070
   174
1070
     1
1070
   176
1070
   256
1070
   177
1070
   256
1070
   178
1070
   256
1070
   271
1070
     2
1070
   272
1070
     2
1070
   340
1005
BE8
1070
   371
1070
    -1
1070
   372
1070
    -1
1002
}
  0
DIMENSION
  5
E6C
330
1F
100
AcDbEntity
  8
Dim
100
AcDbDimension
  2
*D12
 10
379.8316555476886
 20
517.8746906443849
 30
0.0
 11
377.5816555476885
 21
546.874690644385
 31
0.0
 70
    32
 71
     5
 42
58.0
  3
Standard
100
AcDbAlignedDimension
 13
359.8316555476886
 23
575.8746906443849
 33
0.0
 14
359.8316555476886
 24
517.8746906443849
 34
0.0
 50
90.0
100
AcDbRotatedDimension
1001
ACAD
1000
DSTYLE
1002
{
1070
    41
1040
2.0
1070
    42
1040
1.0
1070
    44
1040
1.0
1070
    73
1070
     0
1070
    74
1070
     0
1070
    77
1070
     1
1070
    78
1070
     8
1070
    79
1070
     2
1070
   140
1040
2.5
1070
   141
1040
0.0
1070
   147
1040
1.0
1070
   172
1070
     1
1070
   174
1070
     1
1070
   176
1070
   256
1070
   177
1070
   256
1070
   178
1070
   256
1070
   271
1070
     2
1070
   272
1070
     2
1070
   340
1005
BE8
1070
   371
1070
    -1
1070
   372
1070
    -1
1002
}
  0
LEADER
  5
E6D
330
1F
100
AcDbEntity
  8
Dim
100
AcDbLeader
  3
Standard
 76
     3
 10
332.9339028274148
 20
524.0057473820252
 30
0.0
 10
344.7322393148342
 20
504.4848177718153
 30
0.0
 10
407.9278583164741
 20
504.4848177718153
 30
0.0
1001
ACAD
1000
DSTYLE
1002
{
1070
    41
1040
2.0
1070
    42
1040
1.0
1070
    44
1040
1.0
1070
    73
1070
     0
1070
    74
1070
     0
1070
    77
1070
     0
1070
    78
1070
     8
1070
    79
1070
     2
1070
   140
1040
2.5
1070
   141
1040
0.0
1070
   147
1040
1.0
1070
   172
1070
     1
1070
   174
1070
     1
1070
   176
1070
   256
1070
   177
1070
   256
1070
   178
1070
   256
1070
   271
1070
     2
1070
   272
1070
     2
1070
   340
1005
BE8
1070
   371
1070
    -1
1070
   372
1070
    -1
1002
}
  0
LEADER
  5
E6E
330
1F
100
AcDbEntity
  8
Dim
100
AcDbLeader
  3
Standard
 76
     3
 10
469.2940127187839
 20
571.2126162411707
 30
0.0
 10
489.6051440789896
 20
607.4078386680588
 30
0.0
 10
531.2130399576221
 20
607.4078386680588
 30
0.0
1001
ACAD
1000
DSTYLE
1002
{
1070
    41
1040
2.0
1070
    42
1040
1.0
1070
    44
1040
1.0
1070
    73
1070
     0
1070
    74
1070
     0
1070
    77
1070
     0
1070
    78
1070
     8
1070
    79
1070
     2
1070
   140
1040
2.5
1070
   141
1040
0.0
1070
   147
1040
1.0
1070
   172
1070
     1
1070
   174
1070
     1
1070
   176
1070
   256
1070
   177
1070
   256
1070
   178
1070
   256
1070
   271
1070
     2
1070
   272
1070
     2
1070
   340
1005
BE8
1070
   371
1070
    -1
1070
   372
1070
    -1
1002
}
  0
DIMENSION
  5
E6F
330
1F
100
AcDbEntity
  8
Dim
100
AcDbDimension
  2
*D13
 10
371.0595419572091
 20
414.2054142517101
 30
0.0
 11
368.809541957209
 21
424.2054142517101
 31
0.0
 70
    32
 71
     5
 42
20.0
  3
Standard
100
AcDbAlignedDimension
 13
329.3256555476886
 23
434.20541425171
 33
0.0
 14
353.6516555476886
 24
414.2054142517101
 34
0.0
 50
90.0
100
AcDbRotatedDimension
1001
ACAD
1000
DSTYLE
1002
{
1070
    41
1040
2.0
1070
    42
1040
1.0
1070
    44
1040
1.0
1070
    73
1070
     0
1070
    74
1070
     0
1070
    77
1070
     1
1070
    78
1070
     8
1070
    79
1070
     2
1070
   140
1040
2.5
1070
   141
1040
0.0
1070
   147
1040
1.0
1070
   172
1070
     1
1070
   174
1070
     1
1070
   176
1070
   256
1070
   177
1070
   256
1070
   178
1070
   256
1070
   271
1070
     2
1070
   272
1070
     2
1070
   340
1005
BE8
1070
   371
1070
    -1
1070
   372
1070
    -1
1002
}
  0
LINE
  5
E70
330
1F
100
AcDbEntity
  8
0
  6
Continuous
 62
     7
100
AcDbLine
 10
293.1316555476886
 20
534.3746906443849
 30
0.0
 11
293.1316555476886
 21
529.3746906443849
 31
0.0
  0
LINE
  5
E71
330
1F
100
AcDbEntity
  8
0
  6
Continuous
 62
     7
100
AcDbLine
 10
288.5316555476886
 20
529.3746906443849
 30
0.0
 11
288.5316555476886
 21
534.3746906443849
 31
0.0
  0
ARC
  5
E72
330
1F
100
AcDbEntity
  8
0
  6
Continuous
 62
     7
100
AcDbCircle
 10
298.3316555476886
 20
531.8746906443849
 30
0.0
 40
7.5
100
AcDbArc
 50
199.4710000000001
 51
160.5289999999999
  0
LINE
  5
E73
330
1F
100
AcDbEntity
  8
0
  6
Continuous
 62
     7
100
AcDbLine
 10
284.8316555476886
 20
535.0826906443849
 30
0.0
 11
284.8316555476886
 21
499.8746906443849
 31
0.0
  0
LINE
  5
E74
330
1F
100
AcDbEntity
  8
0
  6
Continuous
 62
     7
100
AcDbLine
 10
311.8316555476886
 20
535.0826906443849
 30
0.0
 11
311.8316555476886
 21
499.8746906443849
 31
0.0
  0
DIMENSION
  5
E75
330
1F
100
AcDbEntity
  8
Dim
100
AcDbDimension
  2
*D14
 10
256.8316555476886
 20
499.8746906443849
 30
0.0
 11
254.5816555476885
 21
515.874690644385
 31
0.0
 70
    32
 71
     5
 42
32.00000000000006
  3
Standard
100
AcDbAlignedDimension
 13
284.1286555476886
 23
531.8746906443849
 33
0.0
 14
284.8316555476886
 24
499.8746906443849
 34
0.0
 50
90.0
100
AcDbRotatedDimension
1001
ACAD
1000
DSTYLE
1002
{
1070
    41
1040
2.0
1070
    42
1040
1.0
1070
    44
1040
1.0
1070
    73
1070
     0
1070
    74
1070
     0
1070
    77
1070
     1
1070
    78
1070
     8
1070
    79
1070
     2
1070
   140
1040
2.5
1070
   141
1040
0.0
1070
   147
1040
1.0
1070
   172
1070
     1
1070
   174
1070
     1
1070
   176
1070
   256
1070
   177
1070
   256
1070
   178
1070
   256
1070
   271
1070
     2
1070
   272
1070
     2
1070
   340
1005
BE8
1070
   371
1070
    -1
1070
   372
1070
    -1
1002
}
  0
LINE
  5
E76
330
1F
100
AcDbEntity
  8
0
  6
Continuous
 62
     7
100
AcDbLine
 10
359.8316555476886
 20
575.8746906443849
 30
0.0
 11
359.8316555476886
 21
517.8746906443849
 31
0.0
  0
LINE
  5
E77
330
1F
100
AcDbEntity
  8
0
  6
Continuous
 62
     7
100
AcDbLine
 10
276.3316555476886
 20
564.3786906443849
 30
0.0
 11
276.3316555476886
 21
529.377690644385
 31
0.0
  0
LINE
  5
E78
330
1F
100
AcDbEntity
  8
0
  6
Continuous
 62
     7
100
AcDbLine
 10
312.8316555476886
 20
575.8746906443849
 30
0.0
 11
312.8316555476886
 21
517.8746906443849
 31
0.0
  0
LINE
  5
E79
330
1F
100
AcDbEntity
  8
AM_7
100
AcDbLine
 10
298.3316555476886
 20
594.8336906443849
 30
0.0
 11
298.3316555476886
 21
497.1616906443848
 31
0.0
  0
DIMENSION
  5
E7A
330
1F
100
AcDbEntity
  8
Dim
100
AcDbDimension
  2
*D15
 10
264.8316555476886
 20
508.8746906443849
 30
0.0
 11
262.5816555476885
 21
504.374690644385
 31
0.0
 70
    32
 71
     5
 42
9.0
  3
Standard
100
AcDbAlignedDimension
 13
279.3540135972671
 23
499.8746906443849
 33
0.0
 14
284.8316555476886
 24
508.8746906443849
 34
0.0
 50
90.0
100
AcDbRotatedDimension
1001
ACAD
1000
DSTYLE
1002
{
1070
    41
1040
2.0
1070
    42
1040
1.0
1070
    44
1040
1.0
1070
    73
1070
     0
1070
    74
1070
     0
1070
    77
1070
     1
1070
    78
1070
     8
1070
    79
1070
     2
1070
   140
1040
2.5
1070
   141
1040
0.0
1070
   147
1040
1.0
1070
   172
1070
     1
1070
   174
1070
     1
1070
   176
1070
   256
1070
   177
1070
   256
1070
   178
1070
   256
1070
   271
1070
     2
1070
   272
1070
     2
1070
   340
1005
BE8
1070
   371
1070
    -1
1070
   372
1070
    -1
1002
}
  0
DIMENSION
  5
E7B
330
1F
100
AcDbEntity
  8
Dim
100
AcDbDimension
  2
*D16
 10
256.3316555476886
 20
407.70541425171
 30
0.0
 11
254.0816555476885
 21
424.2054142517101
 31
0.0
 70
    32
 71
     5
 42
33.0
  3
Standard
100
AcDbAlignedDimension
 13
276.3316555476886
 23
440.70541425171
 33
0.0
 14
276.3316555476886
 24
407.70541425171
 34
0.0
 50
90.0
100
AcDbRotatedDimension
1001
ACAD
1000
DSTYLE
1002
{
1070
    41
1040
2.0
1070
    42
1040
1.0
1070
    44
1040
1.0
1070
    73
1070
     0
1070
    74
1070
     0
1070
    77
1070
     1
1070
    78
1070
     8
1070
    79
1070
     2
1070
   140
1040
2.5
1070
   141
1040
0.0
1070
   147
1040
1.0
1070
   172
1070
     1
1070
   174
1070
     1
1070
   176
1070
   256
1070
   177
1070
   256
1070
   178
1070
   256
1070
   271
1070
     2
1070
   272
1070
     2
1070
   340
1005
BE8
1070
   371
1070
    -1
1070
   372
1070
    -1
1002
}
  0
DIMENSION
  5
E7C
330
1F
100
AcDbEntity
  8
Dim
100
AcDbDimension
  2
*D17
 10
264.3316555476886
 20
414.2054142517101
 30
0.0
 11
262.0816555476884
 21
424.2054142517101
 31
0.0
 70
    32
 71
     5
 42
20.0
  3
Standard
100
AcDbAlignedDimension
 13
294.0626555476886
 23
434.20541425171
 33
0.0
 14
293.6266555476885
 24
414.2054142517101
 34
0.0
 50
90.0
100
AcDbRotatedDimension
1001
ACAD
1000
DSTYLE
1002
{
1070
    41
1040
2.0
1070
    42
1040
1.0
1070
    44
1040
1.0
1070
    73
1070
     0
1070
    74
1070
     0
1070
    77
1070
     1
1070
    78
1070
     8
1070
    79
1070
     2
1070
   140
1040
2.5
1070
   141
1040
0.0
1070
   147
1040
1.0
1070
   172
1070
     1
1070
   174
1070
     1
1070
   176
1070
   256
1070
   177
1070
   256
1070
   178
1070
   256
1070
   271
1070
     2
1070
   272
1070
     2
1070
   340
1005
BE8
1070
   371
1070
    -1
1070
   372
1070
    -1
1002
}
  0
TEXT
  5
E7E
330
1F
100
AcDbEntity
  8
Dim
100
AcDbText
 10
337.5160411194051
 20
464.0945537441187
 30
0.0
 40
3.2
  1
Rc1/8
  7
China
100
AcDbText
  0
CIRCLE
  5
E81
330
1F
100
AcDbEntity
  8
0
  6
Continuous
 62
     7
100
AcDbCircle
 10
321.8316555476885
 20
434.20541425171
 30
0.0
 40
4.282499999999999
  0
ARC
  5
E82
330
1F
100
AcDbEntity
  8
0
  6
Continuous
 62
     3
100
AcDbCircle
 10
321.8316555476885
 20
434.20541425171
 30
0.0
 40
4.863999999999999
100
AcDbArc
 50
260.0
 51
170.0
  0
LINE
  5
E83
330
1F
100
AcDbEntity
  8
AM_7
100
AcDbLine
 10
273.1946555476886
 20
424.20541425171
 30
0.0
 11
363.2606555476885
 21
424.20541425171
 31
0.0
  0
LINE
  5
E84
330
1F
100
AcDbEntity
  8
AM_7
100
AcDbLine
 10
314.5666555476886
 20
434.20541425171
 30
0.0
 11
329.3256555476886
 21
434.20541425171
 31
0.0
  0
LINE
  5
E86
330
1F
100
AcDbEntity
  8
0
  6
Continuous
 62
     7
100
AcDbLine
 10
312.8316555476886
 20
446.70541425171
 30
0.0
 11
359.8316555476886
 21
446.70541425171
 31
0.0
  0
LINE
  5
E87
330
1F
100
AcDbEntity
  8
0
  6
Continuous
 62
     7
100
AcDbLine
 10
312.8316555476886
 20
401.7054142517101
 30
0.0
 11
359.8316555476886
 21
401.7054142517101
 31
0.0
  0
LINE
  5
E88
330
1F
100
AcDbEntity
  8
AM_7
100
AcDbLine
 10
298.3316555476886
 20
429.74241425171
 30
0.0
 11
298.3316555476886
 21
438.9424142517101
 31
0.0
  0
CIRCLE
  5
E89
330
1F
100
AcDbEntity
  8
0
  6
Continuous
 62
     7
100
AcDbCircle
 10
298.3316555476886
 20
434.20541425171
 30
0.0
 40
2.458499999999999
  0
LINE
  5
E8B
330
1F
100
AcDbEntity
  8
0
  6
Continuous
 62
     7
100
AcDbLine
 10
280.8316555476886
 20
440.70541425171
 30
0.0
 11
280.8316555476886
 21
407.70541425171
 31
0.0
  0
LINE
  5
E8C
330
1F
100
AcDbEntity
  8
0
  6
Continuous
 62
     7
100
AcDbLine
 10
276.3316555476886
 20
440.70541425171
 30
0.0
 11
276.3316555476886
 21
407.70541425171
 31
0.0
  0
LINE
  5
E8D
330
1F
100
AcDbEntity
  8
AM_7
100
AcDbLine
 10
295.7086555476886
 20
402.70541425171
 30
0.0
 11
286.5076555476885
 21
402.70541425171
 31
0.0
  0
LINE
  5
E8E
330
1F
100
AcDbEntity
  8
AM_7
100
AcDbLine
 10
302.8266555476886
 20
414.2054142517101
 30
0.0
 11
293.6266555476885
 21
414.2054142517101
 31
0.0
  0
LINE
  5
E90
330
1F
100
AcDbEntity
  8
0
  6
Continuous
 62
     7
100
AcDbLine
 10
276.3316555476886
 20
407.70541425171
 30
0.0
 11
284.8316555476886
 21
407.70541425171
 31
0.0
  0
LINE
  5
E91
330
1F
100
AcDbEntity
  8
0
  6
Continuous
 62
     7
100
AcDbLine
 10
311.8316555476886
 20
407.70541425171
 30
0.0
 11
312.8316555476886
 21
407.70541425171
 31
0.0
  0
LINE
  5
E92
330
1F
100
AcDbEntity
  8
0
  6
Continuous
 62
     7
100
AcDbLine
 10
312.8316555476886
 20
401.7054142517101
 30
0.0
 11
312.8316555476886
 21
407.70541425171
 31
0.0
  0
LINE
  5
E93
330
1F
100
AcDbEntity
  8
AM_7
100
AcDbLine
 10
310.3486555476886
 20
402.70541425171
 30
0.0
 11
300.5096555476886
 21
402.70541425171
 31
0.0
  0
LINE
  5
E94
330
1F
100
AcDbEntity
  8
AM_7
100
AcDbLine
 10
298.3316555476886
 20
409.12541425171
 30
0.0
 11
298.3316555476886
 21
418.92941425171
 31
0.0
  0
CIRCLE
  5
E95
330
1F
100
AcDbEntity
  8
0
  6
Continuous
 62
     7
100
AcDbCircle
 10
298.3316555476886
 20
414.2054142517101
 30
0.0
 40
2.458499999999999
  0
LINE
  5
E96
330
1F
100
AcDbEntity
  8
0
  6
Continuous
 62
     7
100
AcDbLine
 10
311.8316555476886
 20
449.70541425171
 30
0.0
 11
284.8316555476886
 21
449.70541425171
 31
0.0
  0
LINE
  5
E97
330
1F
100
AcDbEntity
  8
AM_7
100
AcDbLine
 10
296.0436555476885
 20
445.70541425171
 30
0.0
 11
286.2726555476886
 21
445.70541425171
 31
0.0
  0
LINE
  5
E98
330
1F
100
AcDbEntity
  8
AM_7
100
AcDbLine
 10
302.4236555476885
 20
434.20541425171
 30
0.0
 11
294.0626555476886
 21
434.20541425171
 31
0.0
  0
LINE
  5
E99
330
1F
100
AcDbEntity
  8
0
  6
Continuous
 62
     7
100
AcDbLine
 10
276.3316555476886
 20
440.70541425171
 30
0.0
 11
284.8316555476886
 21
440.70541425171
 31
0.0
  0
CIRCLE
  5
E9A
330
1F
100
AcDbEntity
  8
0
  6
Continuous
 62
     7
100
AcDbCircle
 10
291.3316555476886
 20
445.70541425171
 30
0.0
 40
3.85
  0
LINE
  5
E9B
330
1F
100
AcDbEntity
  8
AM_7
100
AcDbLine
 10
291.3316555476886
 20
440.95741425171
 30
0.0
 11
291.3316555476886
 21
450.96341425171
 31
0.0
  0
LINE
  5
E9C
330
1F
100
AcDbEntity
  8
0
  6
Continuous
 62
     7
100
AcDbLine
 10
312.8316555476886
 20
440.70541425171
 30
0.0
 11
312.8316555476886
 21
446.70541425171
 31
0.0
  0
LINE
  5
E9D
330
1F
100
AcDbEntity
  8
0
  6
Continuous
 62
     7
100
AcDbLine
 10
311.8316555476886
 20
440.70541425171
 30
0.0
 11
312.8316555476886
 21
440.70541425171
 31
0.0
  0
LINE
  5
E9E
330
1F
100
AcDbEntity
  8
AM_7
100
AcDbLine
 10
310.4826555476886
 20
445.70541425171
 30
0.0
 11
300.4096555476885
 21
445.70541425171
 31
0.0
  0
LINE
  5
E9F
330
1F
100
AcDbEntity
  8
AM_7
100
AcDbLine
 10
305.3316555476886
 20
440.95741425171
 30
0.0
 11
305.3316555476886
 21
450.5604142517101
 31
0.0
  0
CIRCLE
  5
EA0
330
1F
100
AcDbEntity
  8
0
  6
Continuous
 62
     7
100
AcDbCircle
 10
305.3316555476886
 20
445.70541425171
 30
0.0
 40
3.85
  0
LINE
  5
EA1
330
1F
100
AcDbEntity
  8
AM_7
100
AcDbLine
 10
321.8316555476885
 20
427.98241425171
 30
0.0
 11
321.8316555476885
 21
441.88041425171
 31
0.0
  0
LINE
  5
EA3
330
1F
100
AcDbEntity
  8
0
  6
Continuous
 62
     7
100
AcDbLine
 10
359.8316555476886
 20
401.7054142517101
 30
0.0
 11
359.8316555476886
 21
446.70541425171
 31
0.0
  0
LINE
  5
EA4
330
1F
100
AcDbEntity
  8
AM_7
100
AcDbLine
 10
353.6516555476886
 20
414.2054142517101
 30
0.0
 11
340.2386555476886
 21
414.2054142517101
 31
0.0
  0
POINT
  5
EA6
330
1F
100
AcDbEntity
  8
0
100
AcDbPoint
 10
359.8316555476886
 20
424.20541425171
 30
0.0
  0
LINE
  5
EA7
330
1F
100
AcDbEntity
  8
AM_7
100
AcDbLine
 10
346.8316555476885
 20
408.02341425171
 30
0.0
 11
346.8316555476885
 21
421.42341425171
 31
0.0
  0
CIRCLE
  5
EA9
330
1F
100
AcDbEntity
  8
0
  6
Continuous
 62
     7
100
AcDbCircle
 10
346.8316555476885
 20
414.2054142517101
 30
0.0
 40
4.282499999999999
  0
LINE
  5
EAC
330
1F
100
AcDbEntity
  8
0
  6
Continuous
 62
     7
100
AcDbLine
 10
311.8316555476886
 20
517.8746906443849
 30
0.0
 11
359.8316555476886
 21
517.8746906443849
 31
0.0
  0
DIMENSION
  5
EAD
330
1F
100
AcDbEntity
  8
Dim
100
AcDbDimension
  2
*D18
 10
272.8316555476886
 20
501.8746906443849
 30
0.0
 11
272.8316555476886
 21
494.0413573110516
 31
0.0
 70
   160
 71
     5
 42
2.0
  3
Standard
100
AcDbAlignedDimension
 13
284.8316555476886
 23
499.8746906443849
 33
0.0
 14
286.8316555476886
 24
501.8746906443849
 34
0.0
 50
90.0
100
AcDbRotatedDimension
1001
ACAD
1000
DSTYLE
1002
{
1070
    41
1040
2.0
1070
    42
1040
1.0
1070
    44
1040
1.0
1070
    73
1070
     0
1070
    74
1070
     0
1070
    77
1070
     1
1070
    78
1070
     8
1070
    79
1070
     2
1070
   140
1040
2.5
1070
   141
1040
0.0
1070
   147
1040
1.0
1070
   172
1070
     1
1070
   174
1070
     1
1070
   176
1070
   256
1070
   177
1070
   256
1070
   178
1070
   256
1070
   271
1070
     2
1070
   272
1070
     2
1070
   340
1005
BE8
1070
   371
1070
    -1
1070
   372
1070
    -1
1002
}
  0
DIMENSION
  5
EAE
330
1F
100
AcDbEntity
  8
Dim
100
AcDbDimension
  2
*D19
 10
311.8316555476886
 20
479.8746906443849
 30
0.0
 11
298.3316555476886
 21
482.1246906443849
 31
0.0
 70
    32
 71
     5
 42
27.0
  3
Standard
100
AcDbAlignedDimension
 13
284.8316555476886
 23
499.8746906443849
 33
0.0
 14
311.8316555476886
 24
499.8746906443849
 34
0.0
100
AcDbRotatedDimension
1001
ACAD
1000
DSTYLE
1002
{
1070
    41
1040
2.0
1070
    42
1040
1.0
1070
    44
1040
1.0
1070
    73
1070
     0
1070
    74
1070
     0
1070
    77
1070
     1
1070
    78
1070
     8
1070
    79
1070
     2
1070
   140
1040
2.5
1070
   141
1040
0.0
1070
   147
1040
1.0
1070
   172
1070
     1
1070
   174
1070
     1
1070
   176
1070
   256
1070
   177
1070
   256
1070
   178
1070
   256
1070
   271
1070
     2
1070
   272
1070
     2
1070
   340
1005
BE8
1070
   371
1070
    -1
1070
   372
1070
    -1
1002
}
  0
LINE
  5
EB0
330
1F
100
AcDbEntity
  8
0
  6
Continuous
 62
     7
100
AcDbLine
 10
286.8316555476886
 20
501.8746906443849
 30
0.0
 11
309.8316555476886
 21
501.8746906443849
 31
0.0
  0
LINE
  5
EB1
330
1F
100
AcDbEntity
  8
0
  6
Continuous
 62
     7
100
AcDbLine
 10
294.3316555476886
 20
507.5746906443849
 30
0.0
 11
302.3316555476886
 21
507.5746906443849
 31
0.0
  0
LINE
  5
EB2
330
1F
100
AcDbEntity
  8
0
  6
Continuous
 62
     7
100
AcDbLine
 10
280.8326555476885
 20
517.8746906443849
 30
0.0
 11
284.8316555476886
 21
517.8746906443849
 31
0.0
  0
LINE
  5
EB3
330
1F
100
AcDbEntity
  8
0
  6
Continuous
 62
     7
100
AcDbLine
 10
276.3316555476886
 20
529.377690644385
 30
0.0
 11
280.8326555476885
 21
517.8756906443849
 31
0.0
  0
LINE
  5
EB4
330
1F
100
AcDbEntity
  8
0
  6
Continuous
 62
     7
100
AcDbLine
 10
288.5316555476886
 20
529.3746906443849
 30
0.0
 11
293.1316555476886
 21
529.3746906443849
 31
0.0
  0
LINE
  5
EB5
330
1F
100
AcDbEntity
  8
0
  6
Continuous
 62
     7
100
AcDbLine
 10
294.3316555476886
 20
507.5746906443849
 30
0.0
 11
294.3316555476886
 21
508.8746906443849
 31
0.0
  0
LINE
  5
EB6
330
1F
100
AcDbEntity
  8
0
  6
Continuous
 62
     7
100
AcDbLine
 10
284.8316555476886
 20
508.8746906443849
 30
0.0
 11
294.3316555476886
 21
508.8746906443849
 31
0.0
  0
LINE
  5
EB7
330
1F
100
AcDbEntity
  8
0
  6
Continuous
 62
     7
100
AcDbLine
 10
284.8316555476886
 20
499.8746906443849
 30
0.0
 11
286.8316555476886
 21
499.8746906443849
 31
0.0
  0
LINE
  5
EB8
102
{ACAD_REACTORS
330
1737
102
}
330
1F
100
AcDbEntity
  8
0
  6
Continuous
 62
     7
100
AcDbLine
 10
286.8316555476886
 20
499.8746906443849
 30
0.0
 11
286.8316555476886
 21
501.8746906443849
 31
0.0
  0
LINE
  5
EB9
330
1F
100
AcDbEntity
  8
0
  6
Continuous
 62
     7
100
AcDbLine
 10
302.3316555476886
 20
508.8746906443849
 30
0.0
 11
311.8316555476886
 21
508.8746906443849
 31
0.0
  0
LINE
  5
EBA
330
1F
100
AcDbEntity
  8
0
  6
Continuous
 62
     7
100
AcDbLine
 10
302.3316555476886
 20
507.5746906443849
 30
0.0
 11
302.3316555476886
 21
508.8746906443849
 31
0.0
  0
LINE
  5
EBB
330
1F
100
AcDbEntity
  8
0
  6
Continuous
 62
     7
100
AcDbLine
 10
309.8316555476886
 20
499.8746906443849
 30
0.0
 11
311.8316555476886
 21
499.8746906443849
 31
0.0
  0
LINE
  5
EBC
102
{ACAD_REACTORS
330
1737
102
}
330
1F
100
AcDbEntity
  8
0
  6
Continuous
 62
     7
100
AcDbLine
 10
309.8316555476886
 20
499.8746906443849
 30
0.0
 11
309.8316555476886
 21
501.8746906443849
 31
0.0
  0
CIRCLE
  5
EBD
330
1F
100
AcDbEntity
  8
0
  6
Continuous
 62
     7
100
AcDbCircle
 10
330.8316555476886
 20
525.8746906443849
 30
0.0
 40
2.458499999999999
  0
LINE
  5
EBF
330
1F
100
AcDbEntity
  8
AM_7
100
AcDbLine
 10
325.2016555476886
 20
525.8746906443849
 30
0.0
 11
336.0946555476886
 21
525.8746906443849
 31
0.0
  0
LINE
  5
EC0
330
1F
100
AcDbEntity
  8
AM_7
100
AcDbLine
 10
330.8316555476886
 20
530.6156906443849
 30
0.0
 11
330.8316555476886
 21
520.9746906443849
 31
0.0
  0
LINE
  5
EC1
330
1F
100
AcDbEntity
  8
AM_7
100
AcDbLine
 10
270.1436555476886
 20
546.8746906443849
 30
0.0
 11
364.6006555476886
 21
546.8746906443849
 31
0.0
  0
DIMENSION
  5
EC2
330
1F
100
AcDbEntity
  8
Dim
100
AcDbDimension
  2
*D20
 10
256.8316555476886
 20
531.8746906443849
 30
0.0
 11
256.8316555476885
 21
546.8915290026372
 31
0.0
 70
   160
 71
     5
 42
30.0
  3
Standard
100
AcDbAlignedDimension
 13
283.9286555476885
 23
561.8746906443849
 33
0.0
 14
284.1286555476886
 24
531.8746906443849
 34
0.0
 50
90.0
100
AcDbRotatedDimension
1001
ACAD
1000
DSTYLE
1002
{
1070
    41
1040
2.0
1070
    42
1040
1.0
1070
    44
1040
1.0
1070
    73
1070
     0
1070
    74
1070
     0
1070
    77
1070
     1
1070
    78
1070
     8
1070
    79
1070
     2
1070
   140
1040
2.5
1070
   141
1040
0.0
1070
   147
1040
1.0
1070
   172
1070
     1
1070
   174
1070
     1
1070
   176
1070
   256
1070
   177
1070
   256
1070
   178
1070
   256
1070
   271
1070
     2
1070
   272
1070
     2
1070
   340
1005
BE8
1070
   371
1070
    -1
1070
   372
1070
    -1
1002
}
  0
DIMENSION
  5
EC3
330
1F
100
AcDbEntity
  8
Dim
100
AcDbDimension
  2
*D21
 10
276.3316555476886
 20
611.8746906443849
 30
0.0
 11
318.0816555476886
 21
614.1246906443849
 31
0.0
 70
    32
 71
     5
 42
83.49999999999999
  3
Standard
100
AcDbAlignedDimension
 13
359.8316555476886
 23
600.294069609744
 33
0.0
 14
276.3316555476886
 24
564.3786906443849
 34
0.0
100
AcDbRotatedDimension
1001
ACAD
1000
DSTYLE
1002
{
1070
    41
1040
2.0
1070
    42
1040
1.0
1070
    44
1040
1.0
1070
    73
1070
     0
1070
    74
1070
     0
1070
    77
1070
     1
1070
    78
1070
     8
1070
    79
1070
     2
1070
   140
1040
2.5
1070
   141
1040
0.0
1070
   147
1040
1.0
1070
   172
1070
     1
1070
   174
1070
     1
1070
   176
1070
   256
1070
   177
1070
   256
1070
   178
1070
   256
1070
   271
1070
     2
1070
   272
1070
     2
1070
   340
1005
BE8
1070
   371
1070
    -1
1070
   372
1070
    -1
1002
}
  0
DIMENSION
  5
EC4
330
1F
100
AcDbEntity
  8
Dim
100
AcDbDimension
  2
*D22
 10
298.3316555476886
 20
603.8746906443849
 30
0.0
 11
329.0816555476886
 21
606.1246906443849
 31
0.0
 70
    32
 71
     5
 42
61.5
  3
Standard
100
AcDbAlignedDimension
 13
359.8316555476886
 23
591.0066710705765
 33
0.0
 14
298.3316555476886
 24
594.8336906443849
 34
0.0
100
AcDbRotatedDimension
1001
ACAD
1000
DSTYLE
1002
{
1070
    41
1040
2.0
1070
    42
1040
1.0
1070
    44
1040
1.0
1070
    73
1070
     0
1070
    74
1070
     0
1070
    77
1070
     1
1070
    78
1070
     8
1070
    79
1070
     2
1070
   140
1040
2.5
1070
   141
1040
0.0
1070
   147
1040
1.0
1070
   172
1070
     1
1070
   174
1070
     1
1070
   176
1070
   256
1070
   177
1070
   256
1070
   178
1070
   256
1070
   271
1070
     2
1070
   272
1070
     2
1070
   340
1005
BE8
1070
   371
1070
    -1
1070
   372
1070
    -1
1002
}
  0
DIMENSION
  5
EC5
330
1F
100
AcDbEntity
  8
Dim
100
AcDbDimension
  2
*D23
 10
359.8316555476886
 20
595.8746906443849
 30
0.0
 11
336.3316555476886
 21
598.1246906443849
 31
0.0
 70
    32
 71
     5
 42
47.0
  3
Standard
100
AcDbAlignedDimension
 13
312.8316555476886
 23
575.8746906443849
 33
0.0
 14
359.8316555476886
 24
583.5767506502726
 34
0.0
100
AcDbRotatedDimension
1001
ACAD
1000
DSTYLE
1002
{
1070
    41
1040
2.0
1070
    42
1040
1.0
1070
    44
1040
1.0
1070
    73
1070
     0
1070
    74
1070
     0
1070
    77
1070
     1
1070
    78
1070
     8
1070
    79
1070
     2
1070
   140
1040
2.5
1070
   141
1040
0.0
1070
   147
1040
1.0
1070
   172
1070
     1
1070
   174
1070
     1
1070
   176
1070
   256
1070
   177
1070
   256
1070
   178
1070
   256
1070
   271
1070
     2
1070
   272
1070
     2
1070
   340
1005
BE8
1070
   371
1070
    -1
1070
   372
1070
    -1
1002
}
  0
LINE
  5
EC6
330
1F
100
AcDbEntity
  8
0
  6
Continuous
 62
     7
100
AcDbLine
 10
311.8316555476886
 20
575.8746906443849
 30
0.0
 11
359.8316555476886
 21
575.8746906443849
 31
0.0
  0
LINE
  5
EC7
330
1F
100
AcDbEntity
  8
0
  6
Continuous
 62
     7
100
AcDbLine
 10
312.8316555476886
 20
555.3746906443849
 30
0.0
 11
359.8316555476886
 21
555.3746906443849
 31
0.0
  0
LINE
  5
EC8
330
1F
100
AcDbEntity
  8
0
  6
Continuous
 62
     7
100
AcDbLine
 10
312.8316555476886
 20
560.3746906443849
 30
0.0
 11
359.8316555476886
 21
560.3746906443849
 31
0.0
  0
LINE
  5
EC9
330
1F
100
AcDbEntity
  8
AM_7
100
AcDbLine
 10
311.5356555476886
 20
557.8746906443849
 30
0.0
 11
361.5386555476886
 21
557.8746906443849
 31
0.0
  0
LINE
  5
ECA
330
1F
100
AcDbEntity
  8
0
  6
Continuous
 62
     7
100
AcDbLine
 10
312.8316555476886
 20
538.3746906443849
 30
0.0
 11
359.8316555476886
 21
538.3746906443849
 31
0.0
  0
LINE
  5
ECB
330
1F
100
AcDbEntity
  8
0
  6
Continuous
 62
     7
100
AcDbLine
 10
312.8316555476886
 20
533.3746906443849
 30
0.0
 11
359.8316555476886
 21
533.3746906443849
 31
0.0
  0
LINE
  5
ECC
330
1F
100
AcDbEntity
  8
AM_7
100
AcDbLine
 10
311.6076555476886
 20
535.8746906443849
 30
0.0
 11
361.6196555476886
 21
535.8746906443849
 31
0.0
  0
LINE
  5
ECD
330
1F
100
AcDbEntity
  8
0
  6
Continuous
 62
     7
100
AcDbLine
 10
293.1316555476886
 20
559.3746906443849
 30
0.0
 11
293.1316555476886
 21
564.3746906443849
 31
0.0
  0
LINE
  5
ECE
330
1F
100
AcDbEntity
  8
0
  6
Continuous
 62
     7
100
AcDbLine
 10
288.5316555476886
 20
559.3746906443849
 30
0.0
 11
288.5316555476886
 21
564.3746906443849
 31
0.0
  0
ARC
  5
ECF
330
1F
100
AcDbEntity
  8
0
  6
Continuous
 62
     7
100
AcDbCircle
 10
298.3316555476886
 20
561.8746906443849
 30
0.0
 40
7.5
100
AcDbArc
 50
199.4710000000001
 51
160.5289999999999
  0
LINE
  5
ED0
330
1F
100
AcDbEntity
  8
0
  6
Continuous
 62
     7
100
AcDbLine
 10
284.8316555476886
 20
558.6666906443849
 30
0.0
 11
284.8316555476886
 21
593.8746906443849
 31
0.0
  0
LINE
  5
ED1
330
1F
100
AcDbEntity
  8
0
  6
Continuous
 62
     7
100
AcDbLine
 10
311.8316555476886
 20
558.6666906443849
 30
0.0
 11
311.8316555476886
 21
593.8746906443849
 31
0.0
  0
ARC
  5
ED2
330
1F
100
AcDbEntity
  8
0
  6
Continuous
 62
     7
100
AcDbCircle
 10
298.3316555476886
 20
562.3746906443849
 30
0.0
 40
14.0
100
AcDbArc
 50
195.3589999999998
 51
344.6409999999993
  0
LINE
  5
ED3
330
1F
100
AcDbEntity
  8
AM_7
100
AcDbLine
 10
307.4116555476886
 20
561.8746906443849
 30
0.0
 11
283.9286555476885
 21
561.8746906443849
 31
0.0
  0
ARC
  5
ED4
330
1F
100
AcDbEntity
  8
0
  6
Continuous
 62
     7
100
AcDbCircle
 10
298.3316555476886
 20
531.3746906443849
 30
0.0
 40
14.0
100
AcDbArc
 50
15.35890000000032
 51
164.6410000000002
  0
LINE
  5
ED5
330
1F
100
AcDbEntity
  8
AM_7
100
AcDbLine
 10
308.2606555476886
 20
531.8746906443849
 30
0.0
 11
284.1286555476886
 21
531.8746906443849
 31
0.0
  0
LINE
  5
ED6
330
1F
100
AcDbEntity
  8
0
  6
Continuous
 62
     7
100
AcDbLine
 10
293.1316555476886
 20
559.3746906443849
 30
0.0
 11
288.5316555476886
 21
559.3746906443849
 31
0.0
  0
LINE
  5
ED7
330
1F
100
AcDbEntity
  8
0
  6
Continuous
 62
     7
100
AcDbLine
 10
293.1316555476886
 20
534.3746906443849
 30
0.0
 11
288.5316555476886
 21
534.3746906443849
 31
0.0
  0
LINE
  5
ED8
330
1F
100
AcDbEntity
  8
0
  6
Continuous
 62
     7
100
AcDbLine
 10
309.8316555476886
 20
591.8746906443849
 30
0.0
 11
286.8316555476886
 21
591.8746906443849
 31
0.0
  0
LINE
  5
ED9
330
1F
100
AcDbEntity
  8
0
  6
Continuous
 62
     7
100
AcDbLine
 10
302.3316555476886
 20
586.1746906443849
 30
0.0
 11
294.3316555476886
 21
586.1746906443849
 31
0.0
  0
LINE
  5
EDA
330
1F
100
AcDbEntity
  8
0
  6
Continuous
 62
     7
100
AcDbLine
 10
294.3316555476886
 20
584.8746906443849
 30
0.0
 11
284.8316555476886
 21
584.8746906443849
 31
0.0
  0
LINE
  5
EDB
330
1F
100
AcDbEntity
  8
0
  6
Continuous
 62
     7
100
AcDbLine
 10
286.8316555476886
 20
593.8746906443849
 30
0.0
 11
286.8316555476886
 21
591.8746906443849
 31
0.0
  0
LINE
  5
EDC
330
1F
100
AcDbEntity
  8
0
  6
Continuous
 62
     7
100
AcDbLine
 10
294.3316555476886
 20
586.1746906443849
 30
0.0
 11
294.3316555476886
 21
584.8746906443849
 31
0.0
  0
LINE
  5
EDD
330
1F
100
AcDbEntity
  8
0
  6
Continuous
 62
     7
100
AcDbLine
 10
286.8316555476886
 20
593.8746906443849
 30
0.0
 11
284.8316555476886
 21
593.8746906443849
 31
0.0
  0
LINE
  5
EDE
330
1F
100
AcDbEntity
  8
0
  6
Continuous
 62
     7
100
AcDbLine
 10
280.8306555476886
 20
575.8746906443849
 30
0.0
 11
284.8316555476886
 21
575.8746906443849
 31
0.0
  0
LINE
  5
EDF
330
1F
100
AcDbEntity
  8
0
  6
Continuous
 62
     7
100
AcDbLine
 10
276.3316555476886
 20
564.3786906443849
 30
0.0
 11
280.8306555476886
 21
575.8746906443849
 31
0.0
  0
LINE
  5
EE0
330
1F
100
AcDbEntity
  8
0
  6
Continuous
 62
     7
100
AcDbLine
 10
293.1316555476886
 20
564.3746906443849
 30
0.0
 11
288.5316555476886
 21
564.3746906443849
 31
0.0
  0
LINE
  5
EE1
330
1F
100
AcDbEntity
  8
0
  6
Continuous
 62
     7
100
AcDbLine
 10
311.8316555476886
 20
584.8746906443849
 30
0.0
 11
302.3316555476886
 21
584.8746906443849
 31
0.0
  0
LINE
  5
EE2
330
1F
100
AcDbEntity
  8
0
  6
Continuous
 62
     7
100
AcDbLine
 10
302.3316555476886
 20
586.1746906443849
 30
0.0
 11
302.3316555476886
 21
584.8746906443849
 31
0.0
  0
LINE
  5
EE3
330
1F
100
AcDbEntity
  8
0
  6
Continuous
 62
     7
100
AcDbLine
 10
309.8316555476886
 20
593.8746906443849
 30
0.0
 11
309.8316555476886
 21
591.8746906443849
 31
0.0
  0
LINE
  5
EE4
330
1F
100
AcDbEntity
  8
0
  6
Continuous
 62
     7
100
AcDbLine
 10
311.8316555476886
 20
593.8746906443849
 30
0.0
 11
309.8316555476886
 21
593.8746906443849
 31
0.0
  0
LINE
  5
EE5
330
1F
100
AcDbEntity
  8
AM_7
100
AcDbLine
 10
330.8316555476886
 20
572.1966906443849
 30
0.0
 11
330.8316555476886
 21
562.9896906443849
 31
0.0
  0
POINT
  5
EE7
330
1F
100
AcDbEntity
  8
0
100
AcDbPoint
 10
359.8316555476886
 20
546.8746906443849
 30
0.0
  0
DIMENSION
  5
EE9
330
1F
100
AcDbEntity
  8
Dim
100
AcDbDimension
  2
*D24
 10
359.8316555476886
 20
587.8746906443849
 30
0.0
 11
345.3316555476886
 21
590.1246906443849
 31
0.0
 70
    32
 71
     5
 42
29.0
  3
Standard
100
AcDbAlignedDimension
 13
330.8316555476886
 23
572.1966906443849
 33
0.0
 14
359.8316555476886
 24
575.8746906443849
 34
0.0
100
AcDbRotatedDimension
1001
ACAD
1000
DSTYLE
1002
{
1070
    41
1040
2.0
1070
    42
1040
1.0
1070
    44
1040
1.0
1070
    73
1070
     0
1070
    74
1070
     0
1070
    77
1070
     1
1070
    78
1070
     8
1070
    79
1070
     2
1070
   140
1040
2.5
1070
   141
1040
0.0
1070
   147
1040
1.0
1070
   172
1070
     1
1070
   174
1070
     1
1070
   176
1070
   256
1070
   177
1070
   256
1070
   178
1070
   256
1070
   271
1070
     2
1070
   272
1070
     2
1070
   340
1005
BE8
1070
   371
1070
    -1
1070
   372
1070
    -1
1002
}
  0
LINE
  5
EEA
330
1F
100
AcDbEntity
  8
AM_7
100
AcDbLine
 10
325.2016555476886
 20
567.8746906443849
 30
0.0
 11
336.0946555476886
 21
567.8746906443849
 31
0.0
  0
CIRCLE
  5
EEB
330
1F
100
AcDbEntity
  8
0
  6
Continuous
 62
     7
100
AcDbCircle
 10
330.8316555476886
 20
567.8746906443849
 30
0.0
 40
2.458499999999999
  0
LINE
  5
EED
102
{ACAD_REACTORS
330
1669
102
}
330
1F
100
AcDbEntity
  8
0
  6
Continuous
 62
     7
100
AcDbLine
 10
312.8316555476886
 20
649.7728472738934
 30
0.0
 11
359.8316555476886
 21
649.7728472738934
 31
0.0
  0
LINE
  5
EEE
330
1F
100
AcDbEntity
  8
AM_7
100
AcDbLine
 10
273.0756555476886
 20
672.2728472738935
 30
0.0
 11
364.2866555476885
 21
672.2728472738935
 31
0.0
  0
LINE
  5
EF0
330
1F
100
AcDbEntity
  8
AM_7
100
AcDbLine
 10
295.7086555476886
 20
650.7728472738935
 30
0.0
 11
286.5076555476885
 21
650.7728472738935
 31
0.0
  0
LINE
  5
EF1
330
1F
100
AcDbEntity
  8
AM_7
100
AcDbLine
 10
302.8266555476886
 20
662.2728472738934
 30
0.0
 11
293.6266555476885
 21
662.2728472738934
 31
0.0
  0
LINE
  5
EF2
330
1F
100
AcDbEntity
  8
0
  6
Continuous
 62
     7
100
AcDbLine
 10
311.8316555476886
 20
646.7728472738935
 30
0.0
 11
284.8316555476886
 21
646.7728472738935
 31
0.0
  0
CIRCLE
  5
EF3
330
1F
100
AcDbEntity
  8
0
  6
Continuous
 62
     7
100
AcDbCircle
 10
291.3316555476886
 20
650.7728472738935
 30
0.0
 40
3.85
  0
LINE
  5
EF4
330
1F
100
AcDbEntity
  8
AM_7
100
AcDbLine
 10
291.3316555476886
 20
655.5208472738935
 30
0.0
 11
291.3316555476886
 21
645.5148472738934
 31
0.0
  0
LINE
  5
EF5
330
1F
100
AcDbEntity
  8
0
  6
Continuous
 62
     7
100
AcDbLine
 10
276.3316555476886
 20
655.7728472738935
 30
0.0
 11
284.8316555476886
 21
655.7728472738935
 31
0.0
  0
LINE
  5
EF6
330
1F
100
AcDbEntity
  8
0
  6
Continuous
 62
     7
100
AcDbLine
 10
311.8316555476886
 20
655.7728472738935
 30
0.0
 11
312.8316555476886
 21
655.7728472738935
 31
0.0
  0
LINE
  5
EF7
330
1F
100
AcDbEntity
  8
0
  6
Continuous
 62
     7
100
AcDbLine
 10
312.8316555476886
 20
655.7728472738935
 30
0.0
 11
312.8316555476886
 21
649.7728472738934
 31
0.0
  0
LINE
  5
EF8
330
1F
100
AcDbEntity
  8
AM_7
100
AcDbLine
 10
298.3316555476886
 20
657.1928472738935
 30
0.0
 11
298.3316555476886
 21
666.9968472738934
 31
0.0
  0
CIRCLE
  5
EF9
330
1F
100
AcDbEntity
  8
0
  6
Continuous
 62
     7
100
AcDbCircle
 10
298.3316555476886
 20
662.2728472738934
 30
0.0
 40
2.458499999999999
  0
LINE
  5
EFA
330
1F
100
AcDbEntity
  8
AM_7
100
AcDbLine
 10
305.3316555476886
 20
646.1118472738934
 30
0.0
 11
305.3316555476886
 21
655.5808472738934
 31
0.0
  0
CIRCLE
  5
EFB
330
1F
100
AcDbEntity
  8
0
  6
Continuous
 62
     7
100
AcDbCircle
 10
305.3316555476886
 20
650.7728472738935
 30
0.0
 40
3.85
  0
LINE
  5
EFC
330
1F
100
AcDbEntity
  8
AM_7
100
AcDbLine
 10
310.3486555476886
 20
650.7728472738935
 30
0.0
 11
300.5096555476886
 21
650.7728472738935
 31
0.0
  0
LINE
  5
EFD
330
1F
100
AcDbEntity
  8
AM_7
100
AcDbLine
 10
332.8426555476885
 20
660.2728472738935
 30
0.0
 11
344.4496555476886
 21
660.2728472738935
 31
0.0
  0
CIRCLE
  5
EFE
330
1F
100
AcDbEntity
  8
0
  6
Continuous
 62
     7
100
AcDbCircle
 10
338.8316555476886
 20
660.2728472738935
 30
0.0
 40
2.458499999999999
  0
POINT
  5
F01
330
1F
100
AcDbEntity
  8
0
100
AcDbPoint
 10
359.8316555476886
 20
672.2728472738935
 30
0.0
  0
LINE
  5
F03
330
1F
100
AcDbEntity
  8
AM_7
100
AcDbLine
 10
452.3556985167842
 20
597.3216906443849
 30
0.0
 11
452.3556985167842
 21
495.4836906443849
 31
0.0
  0
DIMENSION
  5
F04
330
1F
100
AcDbEntity
  8
Dim
100
AcDbDimension
  2
*D25
 10
467.3556985167842
 20
487.8746906443849
 30
0.0
 11
452.3556985167842
 21
490.1246906443849
 31
0.0
 70
    32
 71
     5
 42
30.0
  3
Standard
100
AcDbAlignedDimension
 13
437.3556985167843
 23
520.3526906443848
 33
0.0
 14
467.3556985167842
 24
564.7986906443849
 34
0.0
100
AcDbRotatedDimension
1001
ACAD
1000
DSTYLE
1002
{
1070
    41
1040
2.0
1070
    42
1040
1.0
1070
    44
1040
1.0
1070
    73
1070
     0
1070
    74
1070
     0
1070
    77
1070
     1
1070
    78
1070
     8
1070
    79
1070
     2
1070
   140
1040
2.5
1070
   141
1040
0.0
1070
   147
1040
1.0
1070
   172
1070
     1
1070
   174
1070
     1
1070
   176
1070
   256
1070
   177
1070
   256
1070
   178
1070
   256
1070
   271
1070
     2
1070
   272
1070
     2
1070
   340
1005
BE8
1070
   371
1070
    -1
1070
   372
1070
    -1
1002
}
  0
LINE
  5
F05
330
1F
100
AcDbEntity
  8
0
  6
Continuous
 62
     7
100
AcDbLine
 10
429.8556985167842
 20
555.3746906443849
 30
0.0
 11
429.8556985167842
 21
538.3746906443849
 31
0.0
  0
CIRCLE
  5
F06
330
1F
100
AcDbEntity
  8
0
  6
Continuous
 62
     7
100
AcDbCircle
 10
452.3556985167842
 20
546.8746906443849
 30
0.0
 40
17.0
  0
LINE
  5
F07
330
1F
100
AcDbEntity
  8
0
  6
Continuous
 62
     7
100
AcDbLine
 10
474.8556985167843
 20
555.3746906443849
 30
0.0
 11
474.8556985167843
 21
538.3746906443849
 31
0.0
  0
TEXT
  5
F08
330
1F
100
AcDbEntity
  8
Dim
100
AcDbText
 10
368.4707303539697
 20
399.5138848751907
 30
0.0
 40
3.2
  1
Rc1/8
  7
China
100
AcDbText
  0
DIMENSION
  5
F0B
330
1F
100
AcDbEntity
  8
Dim
100
AcDbDimension
  2
*D26
 10
474.8556985167843
 20
479.8746906443849
 30
0.0
 11
452.3556985167842
 21
482.1246906443849
 31
0.0
 70
    32
 71
     5
 42
45.0
  3
Standard
100
AcDbAlignedDimension
 13
429.8556985167842
 23
517.8746906443849
 33
0.0
 14
474.8556985167843
 24
517.8746906443849
 34
0.0
100
AcDbRotatedDimension
1001
ACAD
1000
DSTYLE
1002
{
1070
    41
1040
2.0
1070
    42
1040
1.0
1070
    44
1040
1.0
1070
    73
1070
     0
1070
    74
1070
     0
1070
    77
1070
     1
1070
    78
1070
     8
1070
    79
1070
     2
1070
   140
1040
2.5
1070
   141
1040
0.0
1070
   147
1040
1.0
1070
   172
1070
     1
1070
   174
1070
     1
1070
   176
1070
   256
1070
   177
1070
   256
1070
   178
1070
   256
1070
   271
1070
     2
1070
   272
1070
     2
1070
   340
1005
BE8
1070
   371
1070
    -1
1070
   372
1070
    -1
1002
}
  0
LINE
  5
F0C
330
1F
100
AcDbEntity
  8
0
  6
Continuous
 62
     7
100
AcDbLine
 10
474.8556985167843
 20
517.8746906443849
 30
0.0
 11
429.8556985167842
 21
517.8746906443849
 31
0.0
  0
LINE
  5
F0D
330
1F
100
AcDbEntity
  8
0
  6
Continuous
 62
     7
100
AcDbLine
 10
477.8556985167843
 20
499.8746906443849
 30
0.0
 11
426.8556985167842
 21
499.8746906443849
 31
0.0
  0
LINE
  5
F0E
330
1F
100
AcDbEntity
  8
0
  6
Continuous
 62
     7
100
AcDbLine
 10
477.8556985167843
 20
508.8746906443849
 30
0.0
 11
426.8556985167842
 21
508.8746906443849
 31
0.0
  0
LINE
  5
F0F
330
1F
100
AcDbEntity
  8
0
  6
Continuous
 62
     7
100
AcDbLine
 10
434.8556985167842
 20
508.8746906443849
 30
0.0
 11
434.8556985167842
 21
517.8746906443849
 31
0.0
  0
LINE
  5
F10
330
1F
100
AcDbEntity
  8
0
  6
Continuous
 62
     7
100
AcDbLine
 10
426.8556985167842
 20
499.8746906443849
 30
0.0
 11
426.8556985167842
 21
545.3746906443849
 31
0.0
  0
LINE
  5
F11
330
1F
100
AcDbEntity
  8
0
  6
Continuous
 62
     7
100
AcDbLine
 10
435.3556985167842
 20
532.6496906443849
 30
0.0
 11
435.3556985167842
 21
539.099690644385
 31
0.0
  0
LINE
  5
F12
330
1F
100
AcDbEntity
  8
0
  6
Continuous
 62
     7
100
AcDbLine
 10
431.6546985167843
 20
532.6496906443849
 30
0.0
 11
431.2356985167842
 21
533.3736906443849
 31
0.0
  0
LINE
  5
F13
330
1F
100
AcDbEntity
  8
0
  6
Continuous
 62
     7
100
AcDbLine
 10
434.8556985167842
 20
532.6496906443849
 30
0.0
 11
434.8556985167842
 21
539.099690644385
 31
0.0
  0
LINE
  5
F14
330
1F
100
AcDbEntity
  8
AM_7
100
AcDbLine
 10
437.3556985167843
 20
528.666690644385
 30
0.0
 11
437.3556985167843
 21
520.3526906443848
 31
0.0
  0
LINE
  5
F15
330
1F
100
AcDbEntity
  8
AM_7
100
AcDbLine
 10
441.6346985167843
 20
524.3746906443849
 30
0.0
 11
433.2106985167842
 21
524.3746906443849
 31
0.0
  0
LINE
  5
F16
330
1F
100
AcDbEntity
  8
0
  6
Continuous
 62
     7
100
AcDbLine
 10
435.3556985167842
 20
532.6496906443849
 30
0.0
 11
431.6546985167843
 21
532.6496906443849
 31
0.0
  0
ARC
  5
F17
330
1F
100
AcDbEntity
  8
0
  6
Continuous
 62
     3
100
AcDbCircle
 10
437.3556985167843
 20
524.374690644385
 30
0.0
 40
3.0
100
AcDbArc
 50
260.0
 51
170.0
  0
CIRCLE
  5
F18
330
1F
100
AcDbEntity
  8
0
  6
Continuous
 62
     7
100
AcDbCircle
 10
437.3556985167843
 20
524.3746906443849
 30
0.0
 40
2.458499999999999
  0
POINT
  5
F19
330
1F
100
AcDbEntity
  8
0
100
AcDbPoint
 10
435.3556985167842
 20
535.8746906443849
 30
0.0
  0
LINE
  5
F1A
330
1F
100
AcDbEntity
  8
0
  6
Continuous
 62
     7
100
AcDbLine
 10
431.6556985167842
 20
539.099690644385
 30
0.0
 11
431.2366985167842
 21
538.3746906443849
 31
0.0
  0
LINE
  5
F1B
330
1F
100
AcDbEntity
  8
0
  6
Continuous
 62
     7
100
AcDbLine
 10
435.3556985167842
 20
539.099690644385
 30
0.0
 11
431.6556985167842
 21
539.099690644385
 31
0.0
  0
LINE
  5
F1C
330
1F
100
AcDbEntity
  8
0
  6
Continuous
 62
     7
100
AcDbLine
 10
429.8556985167842
 20
533.3746906443849
 30
0.0
 11
429.8556985167842
 21
517.8746906443849
 31
0.0
  0
LINE
  5
F1D
330
1F
100
AcDbEntity
  8
0
  6
Continuous
 62
     7
100
AcDbLine
 10
429.8556985167842
 20
545.3746906443849
 30
0.0
 11
426.8556985167842
 21
545.3746906443849
 31
0.0
  0
LINE
  5
F1E
330
1F
100
AcDbEntity
  8
AM_7
100
AcDbLine
 10
437.1536985167843
 20
535.8746906443849
 30
0.0
 11
427.1906985167842
 21
535.8746906443849
 31
0.0
  0
LINE
  5
F1F
330
1F
100
AcDbEntity
  8
0
  6
Continuous
 62
     7
100
AcDbLine
 10
431.2356985167842
 20
533.3746906443849
 30
0.0
 11
429.8556985167842
 21
533.3746906443849
 31
0.0
  0
LINE
  5
F20
330
1F
100
AcDbEntity
  8
0
  6
Continuous
 62
     7
100
AcDbLine
 10
431.2366985167842
 20
538.3746906443849
 30
0.0
 11
429.8556985167842
 21
538.3746906443849
 31
0.0
  0
LINE
  5
F21
330
1F
100
AcDbEntity
  8
0
  6
Continuous
 62
     7
100
AcDbLine
 10
477.8556985167843
 20
499.8746906443849
 30
0.0
 11
477.8556985167843
 21
545.3746906443849
 31
0.0
  0
LINE
  5
F22
330
1F
100
AcDbEntity
  8
0
  6
Continuous
 62
     7
100
AcDbLine
 10
469.8556985167843
 20
508.8746906443849
 30
0.0
 11
469.8556985167843
 21
517.8746906443849
 31
0.0
  0
LINE
  5
F23
330
1F
100
AcDbEntity
  8
0
  6
Continuous
 62
     7
100
AcDbLine
 10
469.3556985167843
 20
532.6496906443849
 30
0.0
 11
469.3556985167843
 21
539.099690644385
 31
0.0
  0
LINE
  5
F24
330
1F
100
AcDbEntity
  8
0
  6
Continuous
 62
     7
100
AcDbLine
 10
473.0546985167843
 20
532.6496906443849
 30
0.0
 11
473.4736985167842
 21
533.3746906443849
 31
0.0
  0
LINE
  5
F25
330
1F
100
AcDbEntity
  8
0
  6
Continuous
 62
     7
100
AcDbLine
 10
474.8556985167843
 20
533.3746906443849
 30
0.0
 11
474.8556985167843
 21
517.8746906443849
 31
0.0
  0
LINE
  5
F26
330
1F
100
AcDbEntity
  8
0
  6
Continuous
 62
     7
100
AcDbLine
 10
469.8556985167843
 20
532.6496906443849
 30
0.0
 11
469.8556985167843
 21
539.099690644385
 31
0.0
  0
LINE
  5
F27
330
1F
100
AcDbEntity
  8
0
  6
Continuous
 62
     7
100
AcDbLine
 10
469.3556985167843
 20
532.6496906443849
 30
0.0
 11
473.0546985167843
 21
532.6496906443849
 31
0.0
  0
LINE
  5
F28
330
1F
100
AcDbEntity
  8
0
  6
Continuous
 62
     7
100
AcDbLine
 10
473.4736985167842
 20
533.3746906443849
 30
0.0
 11
474.8556985167843
 21
533.3746906443849
 31
0.0
  0
LINE
  5
F29
330
1F
100
AcDbEntity
  8
0
  6
Continuous
 62
     7
100
AcDbLine
 10
473.0546985167843
 20
539.0986906443849
 30
0.0
 11
473.4726985167842
 21
538.3746906443849
 31
0.0
  0
LINE
  5
F2A
330
1F
100
AcDbEntity
  8
0
  6
Continuous
 62
     7
100
AcDbLine
 10
473.4726985167842
 20
538.3746906443849
 30
0.0
 11
474.8556985167843
 21
538.3746906443849
 31
0.0
  0
LINE
  5
F2B
330
1F
100
AcDbEntity
  8
0
  6
Continuous
 62
     7
100
AcDbLine
 10
469.3556985167843
 20
539.099690644385
 30
0.0
 11
473.0546985167843
 21
539.099690644385
 31
0.0
  0
LINE
  5
F2C
330
1F
100
AcDbEntity
  8
0
  6
Continuous
 62
     7
100
AcDbLine
 10
477.8556985167843
 20
545.3746906443849
 30
0.0
 11
474.8556985167843
 21
545.3746906443849
 31
0.0
  0
LINE
  5
F2D
330
1F
100
AcDbEntity
  8
AM_7
100
AcDbLine
 10
467.5576985167842
 20
535.8746906443849
 30
0.0
 11
477.5206985167842
 21
535.8746906443849
 31
0.0
  0
TEXT
  5
F2E
330
1F
100
AcDbEntity
  8
Dim
100
AcDbText
 10
410.1065148722985
 20
604.2109716082964
 30
0.0
 40
3.2
  1
x4depth
  7
China
100
AcDbText
  0
TEXT
  5
F32
330
1F
100
AcDbEntity
  8
Dim
100
AcDbText
 10
345.3720459415554
 20
506.0086910168503
 30
0.0
 40
3.2
  1
4-M6x1.0x12depth
  7
China
100
AcDbText
  0
TEXT
  5
F35
330
1F
100
AcDbEntity
  8
Dim
100
AcDbText
 10
387.2755281852264
 20
604.2769716082963
 30
0.0
 40
3.2
  1
34H9
  7
China
100
AcDbText
  0
LINE
  5
F36
330
1F
100
AcDbEntity
  8
Dim
  6
Continuous
100
AcDbLine
 10
385.6605281852265
 20
604.2139716082964
 30
0.0
 11
386.8235281852264
 21
607.4089716082964
 31
0.0
  0
CIRCLE
  5
F37
330
1F
100
AcDbEntity
  8
Dim
  6
Continuous
100
AcDbCircle
 10
386.2415281852264
 20
605.8109716082964
 30
0.0
 40
0.9
  0
TEXT
  5
F38
330
1F
100
AcDbEntity
  8
Dim
100
AcDbText
 10
402.1025281852264
 20
603.8919716082963
 30
0.0
 40
1.6
  1
0
  7
China
100
AcDbText
  0
TEXT
  5
F39
330
1F
100
AcDbEntity
  8
Dim
100
AcDbText
 10
400.5885281852264
 20
606.1969716082963
 30
0.0
 40
1.6
  1
+0.062
  7
China
100
AcDbText
  0
LINE
  5
F3B
330
1F
100
AcDbEntity
  8
0
  6
Continuous
 62
     7
100
AcDbLine
 10
474.8556985167843
 20
575.8746906443849
 30
0.0
 11
429.8556985167842
 21
575.8746906443849
 31
0.0
  0
LINE
  5
F3C
330
1F
100
AcDbEntity
  8
AM_7
100
AcDbLine
 10
479.2426985167842
 20
546.8746906443849
 30
0.0
 11
427.1536985167842
 21
546.8746906443849
 31
0.0
  0
LINE
  5
F3D
330
1F
100
AcDbEntity
  8
0
  6
Continuous
 62
     7
100
AcDbLine
 10
477.8556985167843
 20
593.8746906443849
 30
0.0
 11
426.8556985167842
 21
593.8746906443849
 31
0.0
  0
LINE
  5
F3E
330
1F
100
AcDbEntity
  8
0
  6
Continuous
 62
     7
100
AcDbLine
 10
477.8556985167843
 20
584.8746906443849
 30
0.0
 11
426.8556985167842
 21
584.8746906443849
 31
0.0
  0
LINE
  5
F3F
330
1F
100
AcDbEntity
  8
0
  6
Continuous
 62
     7
100
AcDbLine
 10
434.8556985167842
 20
584.8746906443849
 30
0.0
 11
434.8556985167842
 21
575.8746906443849
 31
0.0
  0
LINE
  5
F40
330
1F
100
AcDbEntity
  8
0
  6
Continuous
 62
     7
100
AcDbLine
 10
426.8556985167842
 20
593.8746906443849
 30
0.0
 11
426.8556985167842
 21
548.3746906443849
 31
0.0
  0
POINT
  5
F41
330
1F
100
AcDbEntity
  8
0
100
AcDbPoint
 10
435.3556985167842
 20
557.8746906443849
 30
0.0
  0
LINE
  5
F42
330
1F
100
AcDbEntity
  8
0
  6
Continuous
 62
     7
100
AcDbLine
 10
435.3556985167842
 20
561.0996906443849
 30
0.0
 11
435.3556985167842
 21
554.6496906443849
 31
0.0
  0
LINE
  5
F43
330
1F
100
AcDbEntity
  8
0
  6
Continuous
 62
     7
100
AcDbLine
 10
431.6546985167843
 20
554.6496906443849
 30
0.0
 11
431.2366985167842
 21
555.3746906443849
 31
0.0
  0
LINE
  5
F44
330
1F
100
AcDbEntity
  8
0
  6
Continuous
 62
     7
100
AcDbLine
 10
431.6546985167843
 20
561.0996906443849
 30
0.0
 11
431.2366985167842
 21
560.3746906443849
 31
0.0
  0
LINE
  5
F45
330
1F
100
AcDbEntity
  8
0
  6
Continuous
 62
     7
100
AcDbLine
 10
434.8556985167842
 20
561.0996906443849
 30
0.0
 11
434.8556985167842
 21
554.6496906443849
 31
0.0
  0
LINE
  5
F46
330
1F
100
AcDbEntity
  8
0
  6
Continuous
 62
     7
100
AcDbLine
 10
435.3556985167842
 20
554.6496906443849
 30
0.0
 11
431.6546985167843
 21
554.6496906443849
 31
0.0
  0
LINE
  5
F47
330
1F
100
AcDbEntity
  8
0
  6
Continuous
 62
     7
100
AcDbLine
 10
435.3556985167842
 20
561.0996906443849
 30
0.0
 11
431.6546985167843
 21
561.0996906443849
 31
0.0
  0
LINE
  5
F48
330
1F
100
AcDbEntity
  8
0
  6
Continuous
 62
     7
100
AcDbLine
 10
429.8556985167842
 20
575.8746906443849
 30
0.0
 11
429.8556985167842
 21
560.3746906443849
 31
0.0
  0
LINE
  5
F49
330
1F
100
AcDbEntity
  8
0
  6
Continuous
 62
     7
100
AcDbLine
 10
429.8556985167842
 20
548.3746906443849
 30
0.0
 11
426.8556985167842
 21
548.3746906443849
 31
0.0
  0
LINE
  5
F4A
330
1F
100
AcDbEntity
  8
AM_7
100
AcDbLine
 10
437.1536985167843
 20
557.8746906443849
 30
0.0
 11
427.1906985167842
 21
557.8746906443849
 31
0.0
  0
LINE
  5
F4B
330
1F
100
AcDbEntity
  8
0
  6
Continuous
 62
     7
100
AcDbLine
 10
431.2356985167842
 20
555.3746906443849
 30
0.0
 11
429.8556985167842
 21
555.3746906443849
 31
0.0
  0
LINE
  5
F4C
330
1F
100
AcDbEntity
  8
0
  6
Continuous
 62
     7
100
AcDbLine
 10
431.2366985167842
 20
560.3746906443849
 30
0.0
 11
429.8556985167842
 21
560.3746906443849
 31
0.0
  0
LINE
  5
F4D
330
1F
100
AcDbEntity
  8
0
  6
Continuous
 62
     7
100
AcDbLine
 10
477.8556985167843
 20
593.8746906443849
 30
0.0
 11
477.8556985167843
 21
548.3746906443849
 31
0.0
  0
LINE
  5
F4E
330
1F
100
AcDbEntity
  8
0
  6
Continuous
 62
     7
100
AcDbLine
 10
469.8556985167843
 20
584.8746906443849
 30
0.0
 11
469.8556985167843
 21
575.8746906443849
 31
0.0
  0
LINE
  5
F4F
330
1F
100
AcDbEntity
  8
AM_7
100
AcDbLine
 10
471.4216985167843
 20
569.3746906443849
 30
0.0
 11
462.2066985167842
 21
569.3746906443849
 31
0.0
  0
CIRCLE
  5
F50
330
1F
100
AcDbEntity
  8
0
  6
Continuous
 62
     7
100
AcDbCircle
 10
467.3556985167842
 20
569.3746906443849
 30
0.0
 40
2.458499999999999
  0
LINE
  5
F53
330
1F
100
AcDbEntity
  8
0
  6
Continuous
 62
     7
100
AcDbLine
 10
474.8556985167843
 20
575.8746906443849
 30
0.0
 11
474.8556985167843
 21
560.3746906443849
 31
0.0
  0
LINE
  5
F54
330
1F
100
AcDbEntity
  8
AM_7
100
AcDbLine
 10
467.3556985167842
 20
574.905690644385
 30
0.0
 11
467.3556985167842
 21
564.7986906443849
 31
0.0
  0
LINE
  5
F55
330
1F
100
AcDbEntity
  8
0
  6
Continuous
 62
     7
100
AcDbLine
 10
469.3556985167843
 20
561.0996906443849
 30
0.0
 11
469.3556985167843
 21
554.6496906443849
 31
0.0
  0
LINE
  5
F56
330
1F
100
AcDbEntity
  8
0
  6
Continuous
 62
     7
100
AcDbLine
 10
473.4726985167842
 20
555.3746906443849
 30
0.0
 11
474.8556985167843
 21
555.3746906443849
 31
0.0
  0
LINE
  5
F57
330
1F
100
AcDbEntity
  8
0
  6
Continuous
 62
     7
100
AcDbLine
 10
473.4736985167842
 20
560.3746906443849
 30
0.0
 11
474.8556985167843
 21
560.3746906443849
 31
0.0
  0
LINE
  5
F58
330
1F
100
AcDbEntity
  8
0
  6
Continuous
 62
     7
100
AcDbLine
 10
473.0536985167843
 20
554.6496906443849
 30
0.0
 11
473.4726985167842
 21
555.3746906443849
 31
0.0
  0
LINE
  5
F59
330
1F
100
AcDbEntity
  8
0
  6
Continuous
 62
     7
100
AcDbLine
 10
473.0546985167843
 20
561.0996906443849
 30
0.0
 11
473.4736985167842
 21
560.3746906443849
 31
0.0
  0
LINE
  5
F5A
330
1F
100
AcDbEntity
  8
0
  6
Continuous
 62
     7
100
AcDbLine
 10
469.8556985167843
 20
561.0996906443849
 30
0.0
 11
469.8556985167843
 21
554.6496906443849
 31
0.0
  0
LINE
  5
F5B
330
1F
100
AcDbEntity
  8
0
  6
Continuous
 62
     7
100
AcDbLine
 10
469.3556985167843
 20
554.6496906443849
 30
0.0
 11
473.0536985167843
 21
554.6496906443849
 31
0.0
  0
LINE
  5
F5C
330
1F
100
AcDbEntity
  8
0
  6
Continuous
 62
     7
100
AcDbLine
 10
469.3556985167843
 20
561.0996906443849
 30
0.0
 11
473.0546985167843
 21
561.0996906443849
 31
0.0
  0
LINE
  5
F5D
330
1F
100
AcDbEntity
  8
0
  6
Continuous
 62
     7
100
AcDbLine
 10
477.8556985167843
 20
548.3746906443849
 30
0.0
 11
474.8556985167843
 21
548.3746906443849
 31
0.0
  0
LINE
  5
F5E
330
1F
100
AcDbEntity
  8
AM_7
100
AcDbLine
 10
467.5576985167842
 20
557.8746906443849
 30
0.0
 11
477.5206985167842
 21
557.8746906443849
 31
0.0
  0
TEXT
  5
F5F
330
1F
100
AcDbEntity
  8
Dim
100
AcDbText
 10
358.3391275783716
 20
708.8955222058956
 30
0.0
 40
3.2
  1
2-M6x10depth
  7
China
100
AcDbText
  0
LEADER
  5
F60
330
1F
100
AcDbEntity
  8
Dim
100
AcDbLeader
  3
Standard
 76
     3
 10
341.2901555476886
 20
684.2728472738935
 30
0.0
 10
357.3150115030567
 20
706.6245682373431
 30
0.0
 10
394.4894564645847
 20
706.6245682373431
 30
0.0
1001
ACAD
1000
DSTYLE
1002
{
1070
    41
1040
2.0
1070
    42
1040
1.0
1070
    44
1040
1.0
1070
    73
1070
     0
1070
    74
1070
     0
1070
    77
1070
     0
1070
    78
1070
     8
1070
    79
1070
     2
1070
   140
1040
2.5
1070
   141
1040
0.0
1070
   147
1040
1.0
1070
   172
1070
     1
1070
   174
1070
     1
1070
   176
1070
   256
1070
   177
1070
   256
1070
   178
1070
   256
1070
   271
1070
     2
1070
   272
1070
     2
1070
   340
1005
BE8
1070
   371
1070
    -1
1070
   372
1070
    -1
1002
}
  0
LINE
  5
F61
330
1F
100
AcDbEntity
  8
0
  6
Continuous
 62
     7
100
AcDbLine
 10
312.8316555476886
 20
694.7728472738934
 30
0.0
 11
359.8316555476886
 21
694.7728472738934
 31
0.0
  0
LINE
  5
F63
330
1F
100
AcDbEntity
  8
AM_7
100
AcDbLine
 10
302.4236555476885
 20
682.2728472738934
 30
0.0
 11
294.0626555476886
 21
682.2728472738934
 31
0.0
  0
LINE
  5
F64
330
1F
100
AcDbEntity
  8
AM_7
100
AcDbLine
 10
296.0436555476885
 20
693.7728472738935
 30
0.0
 11
286.2726555476886
 21
693.7728472738935
 31
0.0
  0
LINE
  5
F65
330
1F
100
AcDbEntity
  8
0
  6
Continuous
 62
     7
100
AcDbLine
 10
311.8316555476886
 20
697.7728472738935
 30
0.0
 11
284.8316555476886
 21
697.7728472738935
 31
0.0
  0
CIRCLE
  5
F66
330
1F
100
AcDbEntity
  8
0
  6
Continuous
 62
     7
100
AcDbCircle
 10
291.3316555476886
 20
693.7728472738935
 30
0.0
 40
3.85
  0
LINE
  5
F67
330
1F
100
AcDbEntity
  8
AM_7
100
AcDbLine
 10
291.3316555476886
 20
689.0248472738934
 30
0.0
 11
291.3316555476886
 21
699.0308472738935
 31
0.0
  0
LINE
  5
F68
330
1F
100
AcDbEntity
  8
0
  6
Continuous
 62
     7
100
AcDbLine
 10
276.3316555476886
 20
688.7728472738935
 30
0.0
 11
284.8316555476886
 21
688.7728472738935
 31
0.0
  0
LINE
  5
F69
330
1F
100
AcDbEntity
  8
0
  6
Continuous
 62
     7
100
AcDbLine
 10
312.8316555476886
 20
694.7728472738934
 30
0.0
 11
312.8316555476886
 21
688.7728472738935
 31
0.0
  0
LINE
  5
F6A
330
1F
100
AcDbEntity
  8
0
  6
Continuous
 62
     7
100
AcDbLine
 10
311.8316555476886
 20
688.7728472738935
 30
0.0
 11
312.8316555476886
 21
688.7728472738935
 31
0.0
  0
LINE
  5
F6B
330
1F
100
AcDbEntity
  8
AM_7
100
AcDbLine
 10
305.3316555476886
 20
689.0248472738934
 30
0.0
 11
305.3316555476886
 21
698.6278472738935
 31
0.0
  0
LINE
  5
F6C
330
1F
100
AcDbEntity
  8
AM_7
100
AcDbLine
 10
298.3316555476886
 20
677.8098472738935
 30
0.0
 11
298.3316555476886
 21
687.0098472738935
 31
0.0
  0
CIRCLE
  5
F6D
330
1F
100
AcDbEntity
  8
0
  6
Continuous
 62
     7
100
AcDbCircle
 10
298.3316555476886
 20
682.2728472738934
 30
0.0
 40
2.458499999999999
  0
CIRCLE
  5
F6E
330
1F
100
AcDbEntity
  8
0
  6
Continuous
 62
     7
100
AcDbCircle
 10
305.3316555476886
 20
693.7728472738935
 30
0.0
 40
3.85
  0
LINE
  5
F6F
330
1F
100
AcDbEntity
  8
AM_7
100
AcDbLine
 10
310.4826555476886
 20
693.7728472738935
 30
0.0
 11
300.4096555476885
 21
693.7728472738935
 31
0.0
  0
LINE
  5
F70
330
1F
100
AcDbEntity
  8
AM_7
100
AcDbLine
 10
332.8426555476885
 20
684.2728472738935
 30
0.0
 11
344.4496555476886
 21
684.2728472738935
 31
0.0
  0
CIRCLE
  5
F71
330
1F
100
AcDbEntity
  8
0
  6
Continuous
 62
     7
100
AcDbCircle
 10
338.8316555476886
 20
684.2728472738935
 30
0.0
 40
2.458499999999999
  0
LINE
  5
F76
330
1F
100
AcDbEntity
  8
AM_7
100
AcDbLine
 10
773.8287751840739
 20
572.8138950774523
 30
0.0
 11
773.8287751840739
 21
546.8866619896723
 31
0.0
  0
LINE
  5
F77
330
1F
100
AcDbEntity
  8
0
  6
Continuous
 62
     7
100
AcDbLine
 10
760.3287751840739
 20
558.6666906443849
 30
0.0
 11
760.3287751840739
 21
591.8786906443849
 31
0.0
  0
LINE
  5
F78
330
1F
100
AcDbEntity
  8
0
  6
Continuous
 62
     7
100
AcDbLine
 10
787.3287751840739
 20
558.6666906443849
 30
0.0
 11
787.3287751840739
 21
605.8786906443848
 31
0.0
  0
LINE
  5
F79
330
1F
100
AcDbEntity
  8
0
  6
Continuous
 62
     7
100
AcDbLine
 10
760.3287751840739
 20
535.0826906443849
 30
0.0
 11
760.3287751840739
 21
501.8746906443849
 31
0.0
  0
LINE
  5
F7A
330
1F
100
AcDbEntity
  8
0
  6
Continuous
 62
     7
100
AcDbLine
 10
787.3287751840739
 20
535.0826906443849
 30
0.0
 11
787.3287751840739
 21
487.8746906443849
 31
0.0
  0
LINE
  5
F7B
330
1F
100
AcDbEntity
  8
0
  6
Continuous
 62
     7
100
AcDbLine
 10
777.8287751840739
 20
508.8746906443849
 30
0.0
 11
787.3287751840739
 21
508.8746906443849
 31
0.0
  0
LINE
  5
F7C
330
1F
100
AcDbEntity
  8
0
  6
Continuous
 62
     7
100
AcDbLine
 10
787.3287751840739
 20
487.8746906443849
 30
0.0
 11
780.3287751840739
 21
487.8746906443849
 31
0.0
  0
LINE
  5
F7D
330
1F
100
AcDbEntity
  8
0
  6
Continuous
 62
     7
100
AcDbLine
 10
760.3287751840739
 20
501.8746906443849
 30
0.0
 11
787.3287751840739
 21
501.8746906443849
 31
0.0
  0
LINE
  5
F7E
330
1F
100
AcDbEntity
  8
0
  6
Continuous
 62
     7
100
AcDbLine
 10
777.8287751840739
 20
507.5746906443848
 30
0.0
 11
777.8287751840739
 21
508.8746906443849
 31
0.0
  0
LINE
  5
F7F
330
1F
100
AcDbEntity
  8
0
  6
Continuous
 62
     7
100
AcDbLine
 10
780.3287751840739
 20
487.8746906443849
 30
0.0
 11
780.3287751840739
 21
501.8746906443849
 31
0.0
  0
LINE
  5
F80
330
1F
100
AcDbEntity
  8
0
  6
Continuous
 62
     7
100
AcDbLine
 10
769.8287751840739
 20
507.5746906443848
 30
0.0
 11
769.8287751840739
 21
508.8746906443849
 31
0.0
  0
LINE
  5
F81
330
1F
100
AcDbEntity
  8
0
  6
Continuous
 62
     7
100
AcDbLine
 10
760.3287751840739
 20
508.8746906443849
 30
0.0
 11
769.8287751840739
 21
508.8746906443849
 31
0.0
  0
LINE
  5
F82
330
1F
100
AcDbEntity
  8
0
  6
Continuous
 62
     7
100
AcDbLine
 10
769.8287751840739
 20
507.5746906443848
 30
0.0
 11
777.8287751840739
 21
507.5746906443848
 31
0.0
  0
ARC
  5
F83
330
1F
100
AcDbEntity
  8
0
  6
Continuous
 62
     7
100
AcDbCircle
 10
773.8287751840739
 20
562.3746906443849
 30
0.0
 40
14.0
100
AcDbArc
 50
195.3589999999998
 51
344.6409999999993
  0
ARC
  5
F84
330
1F
100
AcDbEntity
  8
0
  6
Continuous
 62
     7
100
AcDbCircle
 10
773.8287751840739
 20
531.3746906443849
 30
0.0
 40
14.0
100
AcDbArc
 50
15.35890000000032
 51
164.6410000000002
  0
LINE
  5
F85
330
1F
100
AcDbEntity
  8
AM_7
100
AcDbLine
 10
783.7587751840738
 20
531.8746906443849
 30
0.0
 11
759.6287751840739
 21
531.8746906443849
 31
0.0
  0
LINE
  5
F86
330
1F
100
AcDbEntity
  8
圖層1
  6
ACISOTGB
100
AcDbLine
 10
744.5487751840737
 20
546.8736906443849
 30
0.0
 11
743.5387751840737
 21
526.8996906443849
 31
0.0
  0
LINE
  5
F87
330
1F
100
AcDbEntity
  8
0
  6
Continuous
 62
     7
100
AcDbLine
 10
768.6287751840739
 20
534.3746906443849
 30
0.0
 11
768.6287751840739
 21
529.3746906443849
 31
0.0
  0
LINE
  5
F88
330
1F
100
AcDbEntity
  8
0
  6
Continuous
 62
     7
100
AcDbLine
 10
768.6287751840739
 20
534.3746906443849
 30
0.0
 11
764.0287751840737
 21
534.3746906443849
 31
0.0
  0
LINE
  5
F89
330
1F
100
AcDbEntity
  8
0
  6
Continuous
 62
     7
100
AcDbLine
 10
764.0287751840737
 20
529.3746906443849
 30
0.0
 11
764.0287751840737
 21
534.3746906443849
 31
0.0
  0
LINE
  5
F8A
330
1F
100
AcDbEntity
  8
0
  6
Continuous
 62
     7
100
AcDbLine
 10
764.0287751840737
 20
529.3746906443849
 30
0.0
 11
768.6287751840739
 21
529.3746906443849
 31
0.0
  0
ARC
  5
F8B
330
1F
100
AcDbEntity
  8
0
  6
Continuous
 62
     7
100
AcDbCircle
 10
773.8287751840739
 20
531.8746906443849
 30
0.0
 40
7.5
100
AcDbArc
 50
199.4710000000001
 51
160.5289999999999
  0
LINE
  5
F8C
102
{ACAD_REACTORS
330
1861
102
}
330
1F
100
AcDbEntity
  8
AM_7
100
AcDbLine
 10
782.9087751840739
 20
561.8746906443849
 30
0.0
 11
759.4287751840738
 21
561.8746906443849
 31
0.0
  0
LINE
  5
F8D
330
1F
100
AcDbEntity
  8
圖層1
  6
ACISOTGB
100
AcDbLine
 10
743.5387751840737
 20
566.8486906443848
 30
0.0
 11
744.5487751840737
 21
546.8746906443849
 31
0.0
  0
LINE
  5
F8E
330
1F
100
AcDbEntity
  8
圖層1
  6
ACISOTGB
100
AcDbLine
 10
751.8287751840739
 20
546.5056906443849
 30
0.0
 11
744.5487751840737
 21
546.8736906443849
 31
0.0
  0
LINE
  5
F8F
330
1F
100
AcDbEntity
  8
圖層1
  6
ACISOTGB
100
AcDbLine
 10
751.8287751840739
 20
547.2426906443849
 30
0.0
 11
744.5487751840737
 21
546.8746906443849
 31
0.0
  0
LINE
  5
F90
330
1F
100
AcDbEntity
  8
0
  6
Continuous
 62
     7
100
AcDbLine
 10
768.6287751840739
 20
559.3746906443849
 30
0.0
 11
768.6287751840739
 21
564.3746906443849
 31
0.0
  0
LINE
  5
F91
330
1F
100
AcDbEntity
  8
0
  6
Continuous
 62
     7
100
AcDbLine
 10
768.6287751840739
 20
559.3746906443849
 30
0.0
 11
764.0287751840737
 21
559.3746906443849
 31
0.0
  0
LINE
  5
F92
330
1F
100
AcDbEntity
  8
0
  6
Continuous
 62
     7
100
AcDbLine
 10
768.6287751840739
 20
564.3746906443849
 30
0.0
 11
764.0287751840737
 21
564.3746906443849
 31
0.0
  0
LINE
  5
F93
330
1F
100
AcDbEntity
  8
0
  6
Continuous
 62
     7
100
AcDbLine
 10
764.0287751840737
 20
559.3746906443849
 30
0.0
 11
764.0287751840737
 21
564.3746906443849
 31
0.0
  0
ARC
  5
F94
330
1F
100
AcDbEntity
  8
0
  6
Continuous
 62
     7
100
AcDbCircle
 10
773.8287751840739
 20
561.8746906443849
 30
0.0
 40
7.5
100
AcDbArc
 50
199.4710000000001
 51
160.5289999999999
  0
LINE
  5
F95
330
1F
100
AcDbEntity
  8
0
  6
Continuous
 62
     7
100
AcDbLine
 10
787.3287751840739
 20
584.8786906443849
 30
0.0
 11
777.8287751840739
 21
584.8786906443849
 31
0.0
  0
LINE
  5
F96
102
{ACAD_REACTORS
330
17A2
330
17E0
102
}
330
1F
100
AcDbEntity
  8
0
  6
Continuous
 62
     7
100
AcDbLine
 10
787.3287751840739
 20
605.8786906443848
 30
0.0
 11
780.3287751840739
 21
605.8786906443848
 31
0.0
  0
LINE
  5
F97
102
{ACAD_REACTORS
330
17E0
330
183B
102
}
330
1F
100
AcDbEntity
  8
0
  6
Continuous
 62
     7
100
AcDbLine
 10
787.3287751840739
 20
591.8786906443849
 30
0.0
 11
760.3287751840739
 21
591.8786906443849
 31
0.0
  0
LINE
  5
F98
330
1F
100
AcDbEntity
  8
0
  6
Continuous
 62
     7
100
AcDbLine
 10
777.8287751840739
 20
586.1786906443849
 30
0.0
 11
777.8287751840739
 21
584.8786906443849
 31
0.0
  0
LINE
  5
F99
102
{ACAD_REACTORS
330
17A2
330
183B
330
1861
102
}
330
1F
100
AcDbEntity
  8
0
  6
Continuous
 62
     7
100
AcDbLine
 10
780.3287751840739
 20
605.8786906443848
 30
0.0
 11
780.3287751840739
 21
591.8786906443849
 31
0.0
  0
LINE
  5
F9A
330
1F
100
AcDbEntity
  8
0
  6
Continuous
 62
     7
100
AcDbLine
 10
769.8287751840739
 20
584.8786906443849
 30
0.0
 11
760.3287751840739
 21
584.8786906443849
 31
0.0
  0
LINE
  5
F9B
330
1F
100
AcDbEntity
  8
0
  6
Continuous
 62
     7
100
AcDbLine
 10
769.8287751840739
 20
586.1786906443849
 30
0.0
 11
769.8287751840739
 21
584.8786906443849
 31
0.0
  0
LINE
  5
F9C
330
1F
100
AcDbEntity
  8
0
  6
Continuous
 62
     7
100
AcDbLine
 10
777.8287751840739
 20
586.1786906443849
 30
0.0
 11
769.8287751840739
 21
586.1786906443849
 31
0.0
  0
TEXT
  5
F9D
330
1F
100
AcDbEntity
  8
Dim
100
AcDbText
 10
489.8779755396567
 20
608.954690644385
 30
0.0
 40
3.2
  1
2-M6x12depth
  7
China
100
AcDbText
  0
LINE
  5
FA3
330
1F
100
AcDbEntity
  8
AM_7
100
AcDbLine
 10
806.3287751840739
 20
530.6156906443849
 30
0.0
 11
806.3287751840739
 21
520.9746906443849
 31
0.0
  0
LINE
  5
FA4
330
1F
100
AcDbEntity
  8
0
  6
Continuous
 62
     7
100
AcDbLine
 10
788.328775184074
 20
575.8746906443849
 30
0.0
 11
788.328775184074
 21
517.8746906443849
 31
0.0
  0
LINE
  5
FA5
330
1F
100
AcDbEntity
  8
0
  6
Continuous
 62
     7
100
AcDbLine
 10
835.3287751840738
 20
575.8746906443849
 30
0.0
 11
835.3287751840738
 21
517.8746906443849
 31
0.0
  0
LINE
  5
FA6
330
1F
100
AcDbEntity
  8
0
  6
Continuous
 62
     7
100
AcDbLine
 10
787.3287751840739
 20
517.8746906443849
 30
0.0
 11
835.3287751840738
 21
517.8746906443849
 31
0.0
  0
LINE
  5
FA7
330
1F
100
AcDbEntity
  8
AM_7
100
AcDbLine
 10
800.6987751840739
 20
525.8746906443849
 30
0.0
 11
811.591775184074
 21
525.8746906443849
 31
0.0
  0
CIRCLE
  5
FA9
330
1F
100
AcDbEntity
  8
0
  6
Continuous
 62
     7
100
AcDbCircle
 10
806.3287751840739
 20
525.8746906443849
 30
0.0
 40
2.458499999999999
  0
LINE
  5
FAA
330
1F
100
AcDbEntity
  8
AM_7
100
AcDbLine
 10
787.104775184074
 20
535.8746906443849
 30
0.0
 11
837.116775184074
 21
535.8746906443849
 31
0.0
  0
LINE
  5
FAB
330
1F
100
AcDbEntity
  8
0
  6
Continuous
 62
     7
100
AcDbLine
 10
788.328775184074
 20
533.3746906443849
 30
0.0
 11
835.3287751840738
 21
533.3746906443849
 31
0.0
  0
LINE
  5
FAC
330
1F
100
AcDbEntity
  8
0
  6
Continuous
 62
     7
100
AcDbLine
 10
788.328775184074
 20
538.3746906443849
 30
0.0
 11
835.3287751840738
 21
538.3746906443849
 31
0.0
  0
LINE
  5
FAD
330
1F
100
AcDbEntity
  8
AM_7
100
AcDbLine
 10
787.0327751840739
 20
557.8746906443849
 30
0.0
 11
837.0357751840739
 21
557.8746906443849
 31
0.0
  0
LINE
  5
FAE
330
1F
100
AcDbEntity
  8
0
  6
Continuous
 62
     7
100
AcDbLine
 10
788.328775184074
 20
560.3746906443849
 30
0.0
 11
835.3287751840738
 21
560.3746906443849
 31
0.0
  0
LINE
  5
FAF
330
1F
100
AcDbEntity
  8
0
  6
Continuous
 62
     7
100
AcDbLine
 10
788.328775184074
 20
555.3746906443849
 30
0.0
 11
835.3287751840738
 21
555.3746906443849
 31
0.0
  0
LINE
  5
FB0
330
1F
100
AcDbEntity
  8
0
  6
Continuous
 62
     7
100
AcDbLine
 10
787.3287751840739
 20
575.8746906443849
 30
0.0
 11
835.3287751840738
 21
575.8746906443849
 31
0.0
  0
LINE
  5
FB1
330
1F
100
AcDbEntity
  8
AM_7
100
AcDbLine
 10
800.6987751840739
 20
567.8746906443849
 30
0.0
 11
811.591775184074
 21
567.8746906443849
 31
0.0
  0
LINE
  5
FB3
330
1F
100
AcDbEntity
  8
AM_7
100
AcDbLine
 10
806.3287751840739
 20
572.1966906443849
 30
0.0
 11
806.3287751840739
 21
562.9896906443849
 31
0.0
  0
CIRCLE
  5
FB4
330
1F
100
AcDbEntity
  8
0
  6
Continuous
 62
     7
100
AcDbCircle
 10
806.3287751840739
 20
567.8746906443849
 30
0.0
 40
2.458499999999999
  0
POINT
  5
FB5
330
1F
100
AcDbEntity
  8
0
100
AcDbPoint
 10
803.328775184074
 20
557.8746906443849
 30
0.0
  0
POINT
  5
FB6
330
1F
100
AcDbEntity
  8
0
100
AcDbPoint
 10
820.928775184074
 20
535.8746906443849
 30
0.0
  0
POINT
  5
FB7
330
1F
100
AcDbEntity
  8
0
100
AcDbPoint
 10
835.3287751840738
 20
546.8746906443849
 30
0.0
  0
LINE
  5
FB8
330
1F
100
AcDbEntity
  8
AM_7
100
AcDbLine
 10
737.2033642100611
 20
546.8746906443849
 30
0.0
 11
840.097775184074
 21
546.8746906443849
 31
0.0
  0
LINE
  5
FB9
330
1F
100
AcDbEntity
  8
0
  6
Continuous
 62
     7
100
AcDbLine
 10
751.8287751840739
 20
564.3786906443849
 30
0.0
 11
751.8287751840739
 21
529.377690644385
 31
0.0
  0
LINE
  5
FBA
330
1F
100
AcDbEntity
  8
0
  6
Continuous
 62
     7
100
AcDbLine
 10
756.3297751840739
 20
517.8746906443849
 30
0.0
 11
760.3287751840739
 21
517.8746906443849
 31
0.0
  0
LINE
  5
FBB
330
1F
100
AcDbEntity
  8
0
  6
Continuous
 62
     7
100
AcDbLine
 10
751.8287751840739
 20
529.377690644385
 30
0.0
 11
756.3297751840739
 21
517.8756906443849
 31
0.0
  0
LINE
  5
FBC
330
1F
100
AcDbEntity
  8
0
  6
Continuous
 62
     7
100
AcDbLine
 10
756.327775184074
 20
575.8746906443849
 30
0.0
 11
760.3287751840739
 21
575.8746906443849
 31
0.0
  0
LINE
  5
FBD
330
1F
100
AcDbEntity
  8
0
  6
Continuous
 62
     7
100
AcDbLine
 10
751.8287751840739
 20
564.3786906443849
 30
0.0
 11
756.327775184074
 21
575.8746906443849
 31
0.0
  0
TEXT
  5
FBE
330
1F
100
AcDbEntity
  8
Dim
100
AcDbText
 10
345.336787716181
 20
499.8776972075907
 30
0.0
 40
3.2
  1
Bottom through hole die.
  7
China
100
AcDbText
  0
TEXT
  5
FBF
330
1F
100
AcDbEntity
  8
Dim
100
AcDbText
 10
345.336787716181
 20
495.3644190561221
 30
0.0
 40
3.2
  1
5.1(Mounting hole)
  7
China
100
AcDbText
  0
TEXT
  5
FC0
330
1F
100
AcDbEntity
  8
Dim
100
AcDbText
 10
489.6891854676176
 20
602.4803541130486
 30
0.0
 40
3.2
  1
(Mounting thred)
  7
China
100
AcDbText
  0
TEXT
  5
FCA
330
1F
100
AcDbEntity
  8
Dim
100
AcDbText
 10
336.8677108203766
 20
458.2992784646818
 30
0.0
 40
3.2
  1
(Finger opening port)
  7
China
100
AcDbText
  0
TEXT
  5
FCB
330
1F
100
AcDbEntity
  8
Dim
100
AcDbText
 10
235.2625684310433
 20
381.8103395499012
 30
0.0
 40
3.2
  1
(Thread for mounting attachment)
  7
China
100
AcDbText
  0
TEXT
  5
FCD
330
1F
100
AcDbEntity
  8
Dim
100
AcDbText
 10
628.6983534161541
 20
467.6606362194262
 30
0.0
 40
3.2
  1
attachment)
  7
China
100
AcDbText
  0
TEXT
  5
FCE
330
1F
100
AcDbEntity
  8
Dim
100
AcDbText
 10
628.6983534161541
 20
473.8811430134842
 30
0.0
 40
3.2
  1
(Thread for mounting 
  7
China
100
AcDbText
  0
TEXT
  5
FCF
330
1F
100
AcDbEntity
  8
Dim
100
AcDbText
 10
357.4869151974775
 20
700.8684549232486
 30
0.0
 40
3.2
  1
(Mounting thred)
  7
China
100
AcDbText
  0
TEXT
  5
FD0
330
1F
100
AcDbEntity
  8
Dim
100
AcDbText
 10
367.0443178619439
 20
392.8538789380486
 30
0.0
 40
3.2
  1
(Finger closing port)
  7
China
100
AcDbText
  0
LINE
  5
1014
330
1F
100
AcDbEntity
  8
0
100
AcDbLine
 10
650.4919564900442
 20
591.8786906443849
 30
0.0
 11
684.4919564900442
 21
591.8786906443849
 31
0.0
  0
LINE
  5
1015
330
1F
100
AcDbEntity
  8
0
100
AcDbLine
 10
650.4919564900442
 20
501.8746906443849
 30
0.0
 11
684.4919564900442
 21
501.8746906443849
 31
0.0
  0
LINE
  5
1016
330
1F
100
AcDbEntity
  8
0
100
AcDbLine
 10
684.9919564900442
 20
575.8746906443849
 30
0.0
 11
649.9919564900442
 21
575.8746906443849
 31
0.0
  0
LINE
  5
1017
330
1F
100
AcDbEntity
  8
0
100
AcDbLine
 10
684.9919564900442
 20
564.3786906443849
 30
0.0
 11
649.9919564900442
 21
564.3786906443849
 31
0.0
  0
LINE
  5
1018
330
1F
100
AcDbEntity
  8
0
100
AcDbLine
 10
684.9919564900442
 20
517.8746906443849
 30
0.0
 11
649.9919564900442
 21
517.8746906443849
 31
0.0
  0
LINE
  5
1019
330
1F
100
AcDbEntity
  8
0
100
AcDbLine
 10
684.9919564900442
 20
529.3706906443849
 30
0.0
 11
649.9919564900442
 21
529.3706906443849
 31
0.0
  0
LEADER
  5
12A9
330
1F
100
AcDbEntity
  8
Dim
100
AcDbLeader
  3
Standard
 76
     3
 10
445.7347767137944
 20
562.2769566436357
 30
0.0
 10
429.90628164197
 20
602.1971490572113
 30
0.0
 10
384.1032989082405
 20
602.1971490572113
 30
0.0
211
-1.0
221
0.0
231
0.0
1001
ACAD
1000
DSTYLE
1002
{
1070
    41
1040
2.0
1070
    42
1040
1.0
1070
    44
1040
1.0
1070
    73
1070
     0
1070
    74
1070
     0
1070
    77
1070
     0
1070
    78
1070
     8
1070
    79
1070
     2
1070
   140
1040
2.5
1070
   141
1040
0.0
1070
   147
1040
1.0
1070
   172
1070
     1
1070
   174
1070
     1
1070
   176
1070
   256
1070
   177
1070
   256
1070
   178
1070
   256
1070
   271
1070
     2
1070
   272
1070
     2
1070
   340
1005
BE8
1070
   371
1070
    -1
1070
   372
1070
    -1
1002
}
  0
ARC
  5
12BC
330
1F
100
AcDbEntity
  8
0
  6
Continuous
 62
     3
100
AcDbCircle
 10
467.3556985167842
 20
569.374690644385
 30
0.0
 40
3.0
100
AcDbArc
 50
260.0
 51
170.0
  0
ARC
  5
12BD
330
1F
100
AcDbEntity
  8
0
  6
Continuous
 62
     3
100
AcDbCircle
 10
338.8316555476886
 20
684.2728472738936
 30
0.0
 40
3.0
100
AcDbArc
 50
260.0
 51
170.0
  0
ARC
  5
12BE
330
1F
100
AcDbEntity
  8
0
  6
Continuous
 62
     3
100
AcDbCircle
 10
338.8316555476886
 20
660.2728472738935
 30
0.0
 40
3.0
100
AcDbArc
 50
260.0
 51
170.0
  0
ARC
  5
12BF
330
1F
100
AcDbEntity
  8
0
  6
Continuous
 62
     3
100
AcDbCircle
 10
330.8316555476886
 20
567.874690644385
 30
0.0
 40
3.0
100
AcDbArc
 50
260.0
 51
170.0
  0
ARC
  5
12C0
330
1F
100
AcDbEntity
  8
0
  6
Continuous
 62
     3
100
AcDbCircle
 10
330.8316555476886
 20
525.8746906443851
 30
0.0
 40
3.0
100
AcDbArc
 50
260.0
 51
170.0
  0
ARC
  5
12C1
330
1F
100
AcDbEntity
  8
0
  6
Continuous
 62
     3
100
AcDbCircle
 10
298.3316555476886
 20
434.2054142517101
 30
0.0
 40
3.0
100
AcDbArc
 50
260.0
 51
170.0
  0
ARC
  5
12C2
330
1F
100
AcDbEntity
  8
0
  6
Continuous
 62
     3
100
AcDbCircle
 10
298.3316555476886
 20
414.2054142517101
 30
0.0
 40
3.0
100
AcDbArc
 50
260.0
 51
170.0
  0
ARC
  5
12C3
330
1F
100
AcDbEntity
  8
0
  6
Continuous
 62
     3
100
AcDbCircle
 10
658.4919564900442
 20
494.874690644385
 30
0.0
 40
3.0
100
AcDbArc
 50
260.0
 51
170.0
  0
ARC
  5
12C4
330
1F
100
AcDbEntity
  8
0
  6
Continuous
 62
     3
100
AcDbCircle
 10
676.4919564900442
 20
494.874690644385
 30
0.0
 40
3.0
100
AcDbArc
 50
260.0
 51
170.0
  0
ARC
  5
12C5
330
1F
100
AcDbEntity
  8
0
  6
Continuous
 62
     3
100
AcDbCircle
 10
658.4919564900442
 20
598.8786906443849
 30
0.0
 40
3.0
100
AcDbArc
 50
260.0
 51
170.0
  0
ARC
  5
12C6
330
1F
100
AcDbEntity
  8
0
  6
Continuous
 62
     3
100
AcDbCircle
 10
676.4919564900442
 20
598.8786906443849
 30
0.0
 40
3.0
100
AcDbArc
 50
260.0
 51
170.0
  0
ARC
  5
12C7
330
1F
100
AcDbEntity
  8
0
  6
Continuous
 62
     3
100
AcDbCircle
 10
806.3287751840739
 20
567.874690644385
 30
0.0
 40
3.0
100
AcDbArc
 50
260.0
 51
170.0
  0
ARC
  5
12C8
330
1F
100
AcDbEntity
  8
0
  6
Continuous
 62
     3
100
AcDbCircle
 10
806.3287751840739
 20
525.8746906443851
 30
0.0
 40
3.0
100
AcDbArc
 50
260.0
 51
170.0
  0
ARC
  5
12C9
330
1F
100
AcDbEntity
  8
0
  6
Continuous
 62
     3
100
AcDbCircle
 10
298.3316555476886
 20
682.2728472738934
 30
0.0
 40
3.0
100
AcDbArc
 50
260.0
 51
170.0
  0
ARC
  5
12CA
330
1F
100
AcDbEntity
  8
0
  6
Continuous
 62
     3
100
AcDbCircle
 10
298.3316555476886
 20
662.2728472738934
 30
0.0
 40
3.0
100
AcDbArc
 50
260.0
 51
170.0
  0
ARC
  5
12CB
330
1F
100
AcDbEntity
  8
0
  6
Continuous
 62
     3
100
AcDbCircle
 10
346.8316555476885
 20
414.20541425171
 30
0.0
 40
4.863999999999999
100
AcDbArc
 50
260.0
 51
170.0
  0
LEADER
  5
12CC
330
1F
100
AcDbEntity
  8
Dim
100
AcDbLeader
  3
Standard
 76
     3
 10
324.8472866567663
 20
437.8308213569977
 30
0.0
 10
336.3140060863728
 20
463.1315537441188
 30
0.0
 10
386.9937002393702
 20
463.1315537441188
 30
0.0
211
-1.0
221
0.0
231
0.0
1001
ACAD
1000
DSTYLE
1002
{
1070
    41
1040
2.0
1070
    42
1040
1.0
1070
    44
1040
1.0
1070
    73
1070
     0
1070
    74
1070
     0
1070
    77
1070
     0
1070
    78
1070
     8
1070
    79
1070
     2
1070
   140
1040
2.5
1070
   141
1040
0.0
1070
   147
1040
1.0
1070
   172
1070
     1
1070
   174
1070
     1
1070
   176
1070
   256
1070
   177
1070
   256
1070
   178
1070
   256
1070
   271
1070
     2
1070
   272
1070
     2
1070
   340
1005
BE8
1070
   371
1070
    -1
1070
   372
1070
    -1
1002
}
  0
LEADER
  5
1306
330
1F
100
AcDbEntity
  8
Dim
100
AcDbLeader
  3
Standard
 76
     3
 10
657.024588045688
 20
493.2319560071134
 30
0.0
 10
649.2813793853806
 20
479.012976704741
 30
0.0
 10
628.3814615256662
 20
479.012976704741
 30
0.0
1001
ACAD
1000
DSTYLE
1002
{
1070
    41
1040
2.0
1070
    42
1040
1.0
1070
    44
1040
1.0
1070
    73
1070
     0
1070
    74
1070
     0
1070
    77
1070
     0
1070
    78
1070
     8
1070
    79
1070
     2
1070
   140
1040
2.5
1070
   141
1040
0.0
1070
   147
1040
1.0
1070
   172
1070
     1
1070
   174
1070
     1
1070
   176
1070
   256
1070
   177
1070
   256
1070
   178
1070
   256
1070
   271
1070
     2
1070
   272
1070
     2
1070
   340
1005
BE8
1070
   371
1070
    -1
1070
   372
1070
    -1
1002
}
  0
LINE
  5
14D6
330
1F
100
AcDbEntity
  8
AM_7
100
AcDbLine
 10
338.8316555476886
 20
688.9625048732376
 30
0.0
 11
338.8316555476886
 21
678.0028472738934
 31
0.0
  0
LINE
  5
14DB
330
1F
100
AcDbEntity
  8
AM_7
100
AcDbLine
 10
773.8287751840739
 20
520.9354862113175
 30
0.0
 11
773.8287751840739
 21
546.8627192990975
 31
0.0
  0
TEXT
  5
1585
330
1F
100
AcDbEntity
  8
LOGO
 62
     7
100
AcDbText
 10
309.6193740655404
 20
300.7367084261785
 30
0.0
 40
6.863082906526694
  1
Order example:
 41
0.8
  7
CHINESET
100
AcDbText
  0
TEXT
  5
1586
330
1F
100
AcDbEntity
  8
LOGO
 62
     7
100
AcDbText
 10
310.8506678943578
 20
310.3985081391204
 30
0.0
 40
10.29462435979004
  1
訂購代號：
  7
CHINESET
100
AcDbText
  0
LINE
  5
1587
330
1F
100
AcDbEntity
  8
LOGO
 62
     4
100
AcDbLine
 10
306.6373412644158
 20
271.8130853973362
 30
0.0
 11
306.6373412644158
 21
323.2862071962866
 31
0.0
  0
TEXT
  5
1588
330
1F
100
AcDbEntity
  8
LOGO
  6
Continuous
100
AcDbText
 10
211.8858500330673
 20
281.9249024950262
 30
0.0
 40
7.720968269842532
  1
金器工業股份有限公司
  7
CHINESET
100
AcDbText
  0
TEXT
  5
1589
330
1F
100
AcDbEntity
  8
LOGO
  6
Continuous
100
AcDbText
 10
197.7039588396096
 20
274.2024215207503
 30
0.0
 40
5.14731217989502
  1
MINDMAN INDUSTRIAL CO., LTD.
 41
0.85
  7
CHINESET
100
AcDbText
  0
LINE
  5
158A
330
1F
100
AcDbEntity
  8
LOGO
 62
     4
100
AcDbLine
 10
306.6373412644158
 20
312.9915828364965
 30
0.0
 11
231.1434292926215
 21
312.9915828364965
 31
0.0
  0
LINE
  5
158B
330
1F
100
AcDbEntity
  8
LOGO
 62
     4
100
AcDbLine
 10
306.6373412644158
 20
302.6969584767065
 30
0.0
 11
231.1434292926215
 21
302.6969584767065
 31
0.0
  0
LINE
  5
158C
330
1F
100
AcDbEntity
  8
LOGO
 62
     4
100
AcDbLine
 10
306.6373412644158
 20
292.4023341169169
 30
0.0
 11
193.396473306725
 21
292.4023341169169
 31
0.0
  0
LINE
  5
158D
330
1F
100
AcDbEntity
  8
LOGO
 62
     4
100
AcDbLine
 10
231.1434292926215
 20
292.4023341169169
 30
0.0
 11
231.1434292926215
 21
323.2862071962866
 31
0.0
  0
TEXT
  5
158E
330
1F
100
AcDbEntity
  8
LOGO
100
AcDbText
 10
282.739954866973
 20
294.9759902068635
 30
0.0
 40
5.14731217989502
  1
mm
  7
CHINESET
 72
     1
 11
289.1128175658906
 21
297.549646296811
 31
0.0
100
AcDbText
 73
     2
  0
TEXT
  5
158F
330
1F
100
AcDbEntity
  8
LOGO
100
AcDbText
 10
280.0437437251232
 20
315.5652389264438
 30
0.0
 40
5.14731217989502
  1
1 : 1
  7
CHINESET
 72
     1
 11
289.1128175658906
 21
318.1388950163914
 31
0.0
100
AcDbText
 73
     2
  0
LINE
  5
1590
330
1F
100
AcDbEntity
  8
LOGO
 62
     4
100
AcDbLine
 10
272.3219267317821
 20
292.4023341169169
 30
0.0
 11
272.3219267317821
 21
323.2862071962866
 31
0.0
  0
TEXT
  5
1591
330
1F
100
AcDbEntity
  8
LOGO
100
AcDbText
 10
235.3876639338118
 20
315.5677720525166
 30
337.34636056887
 40
5.14731217989502
  1
比例 Scale:
 41
0.9
  7
CHINESET
 72
     4
 11
251.7326780122017
 21
318.1388950163914
 31
337.34636056887
100
AcDbText
  0
TEXT
  5
1592
330
1F
100
AcDbEntity
  8
LOGO
100
AcDbText
 10
235.0912339020232
 20
305.3430197535674
 30
337.34636056887
 40
5.14731217989502
  1
投影  View:
 41
0.9
  7
CHINESET
 72
     4
 11
251.7326780122017
 21
307.8442706566012
 31
337.34636056887
100
AcDbText
  0
TEXT
  5
1593
330
1F
100
AcDbEntity
  8
LOGO
100
AcDbText
 10
235.5944755838969
 20
294.9759902068635
 30
337.34636056887
 40
5.14731217989502
  1
單位  Unit:
 41
0.9
  7
CHINESET
 72
     4
 11
251.7326780122017
 21
297.549646296811
 31
337.34636056887
100
AcDbText
  0
LWPOLYLINE
  5
1594
330
1F
100
AcDbEntity
  8
LOGO
 62
     4
100
AcDbPolyline
 90
        4
 70
     1
 43
0.0
 10
193.3964733067251
 20
323.2862071962866
 10
895.636473306725
 20
323.2862071962866
 10
895.636473306725
 20
786.618845397335
 10
193.3964733067251
 20
786.618845397335
1001
GENIUS_GENREC_14
1002
{
1000
PYDIR
1011
193.3964733067251
1021
786.618845397335
1031
0.0
1002
}
1002
{
1000
PXDIR
1011
895.636473306725
1021
323.2862071962866
1031
0.0
1002
}
1002
{
1000
PORI
1011
193.3964733067251
1021
323.2862071962866
1031
0.0
1002
}
1002
{
1000
PINS
1011
193.3964733067251
1021
323.2862071962866
1031
0.0
1002
}
1002
{
1000
PINS2
1011
895.636473306725
1021
786.618845397335
1031
0.0
1002
}
1002
{
1000
C
1070
     1
1002
}
1001
GENIUS_GENODEF_13
1002
{
1000
HIER
1070
     0
1002
}
1002
{
1000
MANEDIT
1070
     0
1002
}
1002
{
1000
NOSEL
1070
     0
1002
}
1002
{
1000
BEHIND
1070
     0
1002
}
1002
{
1000
OTHER
1070
     0
1002
}
1002
{
1000
REACTOR
1002
}
1001
GENIUS_GENOBJ-N-REC_13
1002
{
1000
OWNER
1000
GEN
1002
}
  0
SOLID
  5
1595
330
1F
100
AcDbEntity
  8
LOGO
 62
     5
100
AcDbTrace
 10
198.736892301443
 20
300.959007953797
 30
0.0
 11
200.9624550225578
 21
300.9590079537964
 31
0.0
 12
210.2484236175547
 22
322.0634820333363
 32
0.0
 13
212.4739863386707
 23
322.0634820333352
 33
0.0
  0
SOLID
  5
1596
330
1F
100
AcDbEntity
  8
LOGO
 62
     5
100
AcDbTrace
 10
201.8833775278493
 20
300.959007953797
 30
0.0
 11
204.1089402489644
 21
300.959007953797
 31
0.0
 12
212.4739863386707
 22
320.3751241069724
 32
0.0
 13
210.2484236175547
 23
312.2147274628838
 33
0.0
  0
SOLID
  5
1597
330
1F
100
AcDbEntity
  8
LOGO
 62
     2
100
AcDbTrace
 10
200.9624550225578
 20
300.9590079537964
 30
0.0
 11
201.8833775278493
 21
300.959007953797
 31
0.0
 12
212.4739863386707
 22
322.0634820333352
 32
0.0
 13
213.394908843961
 23
322.0634820333352
 33
0.0
  0
SOLID
  5
1598
330
1F
100
AcDbEntity
  8
LOGO
 62
     5
100
AcDbTrace
 10
195.1687694846627
 20
293.2846537430561
 30
0.0
 11
195.9362049057378
 21
293.2846537430561
 31
0.0
 12
198.0973627838819
 22
297.1218308484264
 32
0.0
 13
198.8647982049544
 23
297.1218308484264
 33
0.0
  0
SOLID
  5
1599
330
1F
100
AcDbEntity
  8
LOGO
 62
     5
100
AcDbTrace
 10
198.0973627838819
 20
297.1218308484264
 30
0.0
 11
198.8647982049544
 21
297.1218308484264
 31
0.0
 12
198.0973627838819
 22
293.2846537430561
 32
0.0
 13
198.8647982049544
 23
293.2846537430561
 33
0.0
  0
SOLID
  5
159A
330
1F
100
AcDbEntity
  8
LOGO
 62
     5
100
AcDbTrace
 10
198.0973627838819
 20
293.2846537430561
 30
0.0
 11
198.8647982049544
 21
293.2846537430561
 31
0.0
 12
201.0259560831023
 22
297.1218308484264
 32
0.0
 13
201.793391504176
 23
297.1218308484264
 33
0.0
  0
SOLID
  5
159B
330
1F
100
AcDbEntity
  8
LOGO
 62
     5
100
AcDbTrace
 10
201.0259560831023
 20
297.1218308484264
 30
0.0
 11
201.793391504176
 21
297.1218308484264
 31
0.0
 12
201.0259560831023
 22
293.2846537430561
 32
0.0
 13
201.793391504176
 23
293.2846537430561
 33
0.0
  0
POLYLINE
  5
159C
330
1F
100
AcDbEntity
  8
LOGO
 62
     5
100
AcDb2dPolyline
 66
     1
 10
0.0
 20
0.0
 30
0.0
 40
0.7686652855309897
 41
0.7686652855309897
  0
VERTEX
  5
159D
330
159C
100
AcDbEntity
  8
LOGO
 62
     5
100
AcDbVertex
100
AcDb2dVertex
 10
226.7501299673361
 20
295.5869600062781
 30
0.0
 42
1.0
  0
VERTEX
  5
159E
330
159C
100
AcDbEntity
  8
LOGO
 62
     5
100
AcDbVertex
100
AcDb2dVertex
 10
224.4441341107428
 20
295.5869600062781
 30
0.0
 42
1.0
  0
SEQEND
  5
159F
330
159C
100
AcDbEntity
  8
LOGO
 62
     5
  0
POLYLINE
  5
15A0
330
1F
100
AcDbEntity
  8
LOGO
 62
     5
100
AcDb2dPolyline
 66
     1
 10
0.0
 20
0.0
 30
0.0
 70
     1
  0
VERTEX
  5
15A1
330
15A0
100
AcDbEntity
  8
LOGO
 62
     5
100
AcDbVertex
100
AcDb2dVertex
 10
220.0972293503678
 20
295.2032422957407
 30
0.0
 42
1.000000057330635
  0
VERTEX
  5
15A2
330
15A0
100
AcDbEntity
  8
LOGO
 62
     5
100
AcDbVertex
100
AcDb2dVertex
 10
222.3995356135903
 20
295.2032422957407
 30
0.0
 42
1.000000057330635
  0
SEQEND
  5
15A3
330
15A0
100
AcDbEntity
  8
LOGO
 62
     5
  0
CIRCLE
  5
15A4
330
1F
100
AcDbEntity
  8
LOGO
 62
     5
100
AcDbCircle
 10
221.2483824819809
 20
295.2032422957407
 30
0.0
 40
1.15115313161121
  0
POLYLINE
  5
15A5
330
1F
100
AcDbEntity
  8
LOGO
 62
     5
100
AcDb2dPolyline
 66
     1
 10
0.0
 20
0.0
 30
0.0
 70
     1
 40
0.7686652855309897
 41
0.7686652855309897
  0
VERTEX
  5
15A6
330
15A5
100
AcDbEntity
  8
LOGO
 62
     5
100
AcDbVertex
100
AcDb2dVertex
 10
219.7110519109178
 20
295.2032422957407
 30
0.0
 42
1.0
  0
VERTEX
  5
15A7
330
15A5
100
AcDbEntity
  8
LOGO
 62
     5
100
AcDbVertex
100
AcDb2dVertex
 10
222.7857130530414
 20
295.2032422957407
 30
0.0
 42
1.0
  0
SEQEND
  5
15A8
330
15A5
100
AcDbEntity
  8
LOGO
 62
     5
  0
LINE
  5
15A9
330
1F
100
AcDbEntity
  8
LOGO
100
AcDbLine
 10
227.1320028811863
 20
293.2846537430561
 30
0.0
 11
227.1320028811863
 21
295.5869600062781
 31
0.0
  0
SOLID
  5
15AA
330
1F
100
AcDbEntity
  8
LOGO
 62
     5
100
AcDbTrace
 10
222.3994588700519
 20
297.1218308484264
 30
0.0
 11
223.1668942911245
 21
297.1218308484264
 31
0.0
 12
222.3994588700519
 22
293.2846537430561
 32
0.0
 13
223.1668942911245
 23
293.2846537430561
 33
0.0
  0
SOLID
  5
15AB
330
1F
100
AcDbEntity
  8
LOGO
 62
     5
100
AcDbTrace
 10
224.0622611968901
 20
293.2846537430561
 30
0.0
 11
224.829696617965
 21
293.2846537430561
 31
0.0
 12
224.0622611968901
 22
297.1218308484264
 32
0.0
 13
224.829696617965
 23
297.1218308484264
 33
0.0
  0
SOLID
  5
15AC
330
1F
100
AcDbEntity
  8
LOGO
 62
     5
100
AcDbTrace
 10
226.3645674601137
 20
295.5869600062781
 30
0.0
 11
227.1320028811863
 21
295.5869600062781
 31
0.0
 12
226.3645674601137
 22
293.2846537430561
 32
0.0
 13
227.1320028811863
 23
293.2846537430561
 33
0.0
  0
SOLID
  5
15AD
330
1F
100
AcDbEntity
  8
LOGO
 62
     5
100
AcDbTrace
 10
223.9855176547824
 20
320.3751241069724
 30
0.0
 11
221.7599549336688
 21
312.2147274628838
 31
0.0
 12
223.9855176547824
 22
300.9590079537964
 32
0.0
 13
221.7599549336688
 23
300.9590079537964
 33
0.0
  0
SOLID
  5
15AE
330
1F
100
AcDbEntity
  8
LOGO
 62
     5
100
AcDbTrace
 10
224.9064401600727
 20
300.9590079537964
 30
0.0
 11
227.1320028811863
 21
300.9590079537964
 31
0.0
 12
224.9064401600727
 22
322.0634820333352
 32
0.0
 13
227.1320028811863
 23
322.0634820333363
 33
0.0
  0
SOLID
  5
15AF
330
1F
100
AcDbEntity
  8
LOGO
 62
     2
100
AcDbTrace
 10
223.9855176547824
 20
322.0634820333363
 30
0.0
 11
224.9064401600727
 21
322.0634820333352
 31
0.0
 12
223.9855176547824
 22
300.9590079537964
 32
0.0
 13
224.9064401600727
 23
300.9590079537964
 33
0.0
  0
POLYLINE
  5
15B0
330
1F
100
AcDbEntity
  8
LOGO
 62
     5
100
AcDb2dPolyline
 66
     1
 10
0.0
 20
0.0
 30
0.0
 40
0.7686652855309897
 41
0.7686652855309897
  0
VERTEX
  5
15B1
330
15B0
100
AcDbEntity
  8
LOGO
 62
     5
100
AcDbVertex
100
AcDb2dVertex
 10
215.7501711029123
 20
295.5869600062781
 30
0.0
 42
1.0
  0
VERTEX
  5
15B2
330
15B0
100
AcDbEntity
  8
LOGO
 62
     5
100
AcDbVertex
100
AcDb2dVertex
 10
213.4441752463188
 20
295.5869600062781
 30
0.0
 42
1.0
  0
SEQEND
  5
15B3
330
15B0
100
AcDbEntity
  8
LOGO
 62
     5
  0
POLYLINE
  5
15B4
330
1F
100
AcDbEntity
  8
LOGO
 62
     5
100
AcDb2dPolyline
 66
     1
 10
0.0
 20
0.0
 30
0.0
 40
0.7686652855309897
 41
0.7686652855309897
  0
VERTEX
  5
15B5
330
15B4
100
AcDbEntity
  8
LOGO
 62
     5
100
AcDbVertex
100
AcDb2dVertex
 10
218.0524773661325
 20
295.5869600062781
 30
0.0
 42
1.0
  0
VERTEX
  5
15B6
330
15B4
100
AcDbEntity
  8
LOGO
 62
     5
100
AcDbVertex
100
AcDb2dVertex
 10
215.7464815095403
 20
295.5869600062781
 30
0.0
 42
1.0
  0
SEQEND
  5
15B7
330
15B4
100
AcDbEntity
  8
LOGO
 62
     5
  0
POLYLINE
  5
15B8
330
1F
100
AcDbEntity
  8
LOGO
 62
     5
100
AcDb2dPolyline
 66
     1
 10
0.0
 20
0.0
 30
0.0
 40
0.7686652855309897
 41
0.7686652855309897
  0
VERTEX
  5
15B9
330
15B8
100
AcDbEntity
  8
LOGO
 62
     5
100
AcDbVertex
100
AcDb2dVertex
 10
207.0525185017084
 20
295.5869600062781
 30
0.0
 42
1.0
  0
VERTEX
  5
15BA
330
15B8
100
AcDbEntity
  8
LOGO
 62
     5
100
AcDbVertex
100
AcDb2dVertex
 10
204.7465226451163
 20
295.5869600062781
 30
0.0
 42
1.0
  0
SEQEND
  5
15BB
330
15B8
100
AcDbEntity
  8
LOGO
 62
     5
  0
SOLID
  5
15BC
330
1F
100
AcDbEntity
  8
LOGO
 62
     5
100
AcDbTrace
 10
204.3646497312648
 20
297.1218308484264
 30
0.0
 11
205.1320851523374
 21
297.1218308484264
 31
0.0
 12
204.3646497312648
 22
293.2846537430561
 32
0.0
 13
205.1320851523374
 23
293.2846537430561
 33
0.0
  0
SOLID
  5
15BD
330
1F
100
AcDbEntity
  8
LOGO
 62
     5
100
AcDbTrace
 10
206.6669559944872
 20
295.5869600062781
 30
0.0
 11
207.4343914155625
 21
295.5869600062781
 31
0.0
 12
206.6669559944872
 22
293.2846537430561
 32
0.0
 13
207.4343914155625
 23
293.2846537430561
 33
0.0
  0
POLYLINE
  5
15BE
330
1F
100
AcDbEntity
  8
LOGO
 62
     5
100
AcDb2dPolyline
 66
     1
 10
0.0
 20
0.0
 30
0.0
 70
     1
 40
0.7686652855309897
 41
0.7686652855309897
  0
VERTEX
  5
15BF
330
15BE
100
AcDbEntity
  8
LOGO
 62
     5
100
AcDbVertex
100
AcDb2dVertex
 10
208.7110930464928
 20
295.2032422957407
 30
0.0
 42
1.0
  0
VERTEX
  5
15C0
330
15BE
100
AcDbEntity
  8
LOGO
 62
     5
100
AcDbVertex
100
AcDb2dVertex
 10
211.7857541886178
 20
295.2032422957407
 30
0.0
 42
1.0
  0
SEQEND
  5
15C1
330
15BE
100
AcDbEntity
  8
LOGO
 62
     5
  0
SOLID
  5
15C2
330
1F
100
AcDbEntity
  8
LOGO
 62
     5
100
AcDbTrace
 10
211.3995000056256
 20
298.2729839800382
 30
0.0
 11
212.1669354266995
 21
298.2729839800382
 31
0.0
 12
211.3995000056256
 22
293.2846537430561
 32
0.0
 13
212.1669354266995
 23
293.2846537430561
 33
0.0
  0
SOLID
  5
15C3
330
1F
100
AcDbEntity
  8
LOGO
 62
     5
100
AcDbTrace
 10
213.0623023324685
 20
297.1218308484264
 30
0.0
 11
213.8297377535412
 21
297.1218308484264
 31
0.0
 12
213.0623023324685
 22
293.2846537430561
 32
0.0
 13
213.8297377535412
 23
293.2846537430561
 33
0.0
  0
SOLID
  5
15C4
330
1F
100
AcDbEntity
  8
LOGO
 62
     5
100
AcDbTrace
 10
215.3646085956884
 20
295.5869600062781
 30
0.0
 11
216.1320440167638
 21
295.5869600062781
 31
0.0
 12
215.3646085956884
 22
293.2846537430561
 32
0.0
 13
216.1320440167638
 23
293.2846537430561
 33
0.0
  0
SOLID
  5
15C5
330
1F
100
AcDbEntity
  8
LOGO
 62
     5
100
AcDbTrace
 10
217.6669148589112
 20
295.5869600062781
 30
0.0
 11
218.4343502799851
 21
295.5869600062781
 31
0.0
 12
217.6669148589112
 22
293.284653743055
 32
0.0
 13
218.4343502799851
 23
293.284653743055
 33
0.0
  0
SOLID
  5
15C6
330
1F
100
AcDbEntity
  8
LOGO
 62
     5
100
AcDbTrace
 10
202.701847404423
 20
297.6590356431784
 30
0.0
 11
203.4692828254992
 21
297.6590356431784
 31
0.0
 12
202.701847404423
 22
298.2729839800382
 32
0.0
 13
203.4692828254992
 23
298.2729839800382
 33
0.0
  0
SOLID
  5
15C7
330
1F
100
AcDbEntity
  8
LOGO
 62
     5
100
AcDbTrace
 10
202.701847404423
 20
297.1218308484264
 30
0.0
 11
203.4692828254992
 21
297.1218308484264
 31
0.0
 12
202.701847404423
 22
293.284653743055
 32
0.0
 13
203.4692828254992
 23
293.2846537430561
 33
0.0
  0
SOLID
  5
15C8
330
1F
100
AcDbEntity
  8
LOGO
 62
     5
100
AcDbTrace
 10
210.2484236175547
 20
300.959007953797
 30
0.0
 11
212.4739863386707
 21
300.959007953797
 31
0.0
 12
210.2484236175547
 22
312.2147274628838
 32
0.0
 13
212.4739863386707
 23
320.3751241069724
 33
0.0
  0
SOLID
  5
15C9
330
1F
100
AcDbEntity
  8
LOGO
 62
     5
100
AcDbTrace
 10
213.394908843961
 20
322.0634820333352
 30
0.0
 11
215.6204715650747
 21
322.0634820333363
 31
0.0
 12
213.394908843961
 22
302.6473658801598
 32
0.0
 13
215.6204715650747
 23
310.8077625242483
 33
0.0
  0
SOLID
  5
15CA
330
1F
100
AcDbEntity
  8
LOGO
 62
     2
100
AcDbTrace
 10
212.4739863386707
 20
322.0634820333352
 30
0.0
 11
213.394908843961
 21
322.0634820333352
 31
0.0
 12
212.4739863386707
 22
300.959007953797
 32
0.0
 13
213.394908843961
 23
300.959007953797
 33
0.0
  0
SOLID
  5
15CB
330
1F
100
AcDbEntity
  8
LOGO
 62
     5
100
AcDbTrace
 10
213.394908843961
 20
302.6473658801598
 30
0.0
 11
215.6204715650747
 21
310.8077625242483
 31
0.0
 12
223.9855176547824
 22
322.0634820333363
 32
0.0
 13
221.7599549336688
 23
322.0634820333363
 33
0.0
  0
SOLID
  5
15CC
330
1F
100
AcDbEntity
  8
LOGO
 62
     5
100
AcDbTrace
 10
213.394908843961
 20
300.959007953797
 30
0.0
 11
215.6204715650747
 21
300.959007953797
 31
0.0
 12
223.9855176547824
 22
320.3751241069724
 32
0.0
 13
221.7599549336688
 23
312.2147274628838
 33
0.0
  0
SOLID
  5
15CD
330
1F
100
AcDbEntity
  8
LOGO
 62
     2
100
AcDbTrace
 10
212.4739863386707
 20
300.959007953797
 30
0.0
 11
213.394908843961
 21
300.959007953797
 31
0.0
 12
223.9855176547824
 22
322.0634820333363
 32
0.0
 13
224.9064401600727
 23
322.0634820333352
 33
0.0
  0
LWPOLYLINE
  5
15CE
330
1F
100
AcDbEntity
  8
LOGO
 62
     4
100
AcDbPolyline
 90
        4
 70
     1
 43
0.0
 10
193.3964733067251
 20
323.2862071962866
 10
895.636473306725
 20
323.2862071962866
 10
895.636473306725
 20
271.8130853973355
 10
193.3964733067251
 20
271.8130853973355
1001
GENIUS_GENREC_14
1002
{
1000
PYDIR
1011
193.3964733067251
1021
271.8130853973355
1031
0.0
1002
}
1002
{
1000
PXDIR
1011
895.636473306725
1021
323.2862071962866
1031
0.0
1002
}
1002
{
1000
PORI
1011
193.3964733067251
1021
323.2862071962866
1031
0.0
1002
}
1002
{
1000
PINS
1011
193.3964733067251
1021
323.2862071962866
1031
0.0
1002
}
1002
{
1000
PINS2
1011
895.636473306725
1021
271.8130853973355
1031
0.0
1002
}
1002
{
1000
C
1070
     1
1002
}
1001
GENIUS_GENOBJ-N-REC_13
1002
{
1000
OWNER
1000
GEN
1002
}
1001
GENIUS_GENODEF_13
1002
{
1000
HIER
1070
     0
1002
}
1002
{
1000
MANEDIT
1070
     0
1002
}
1002
{
1000
NOSEL
1070
     0
1002
}
1002
{
1000
BEHIND
1070
     0
1002
}
1002
{
1000
OTHER
1070
     0
1002
}
1002
{
1000
REACTOR
1002
}
  0
LINE
  5
15CF
330
1F
100
AcDbEntity
  8
LOGO
 62
     4
100
AcDbLine
 10
411.7517503383875
 20
294.9759902068646
 30
0.0
 11
411.7517503383875
 21
276.1025122139151
 31
0.0
  0
LINE
  5
15D0
330
1F
100
AcDbEntity
  8
LOGO
 62
     4
100
AcDbLine
 10
377.4363358057536
 20
294.9759902068646
 30
0.0
 11
377.4363358057536
 21
276.1025122139151
 31
0.0
  0
LINE
  5
15D1
330
1F
100
AcDbEntity
  8
LOGO
 62
     4
100
AcDbLine
 10
411.7517503383875
 20
276.1025122139151
 30
0.0
 11
377.4363358057536
 21
276.1025122139151
 31
0.0
  0
LINE
  5
15D2
330
1F
100
AcDbEntity
  8
LOGO
 62
     4
100
AcDbLine
 10
421.7406537648927
 20
318.1388950163914
 30
0.0
 11
377.4363358057536
 21
318.1388950163914
 31
0.0
  0
LINE
  5
15D3
330
1F
100
AcDbEntity
  8
LOGO
 62
     4
100
AcDbLine
 10
421.7406537648927
 20
302.6969584767065
 30
0.0
 11
377.4363358057536
 21
302.6969584767065
 31
0.0
  0
LINE
  5
15D4
330
1F
100
AcDbEntity
  8
LOGO
 62
     4
100
AcDbLine
 10
377.4363358057536
 20
318.1388950163914
 30
0.0
 11
377.4363358057536
 21
302.6969584767065
 31
0.0
  0
LINE
  5
15D5
330
1F
100
AcDbEntity
  8
LOGO
 62
     4
100
AcDbLine
 10
421.7406537648927
 20
318.1388950163914
 30
0.0
 11
421.7406537648927
 21
302.6969584767065
 31
0.0
  0
LINE
  5
15D6
330
1F
100
AcDbEntity
  8
LOGO
 62
     4
100
AcDbLine
 10
396.3844458139054
 20
302.6969584767065
 30
0.0
 11
396.3844458139054
 21
294.9759902068646
 31
0.0
  0
TEXT
  5
15D7
330
1F
100
AcDbEntity
  8
LOGO
  6
Continuous
100
AcDbText
 10
380.1801260864441
 20
305.9204401532568
 30
0.0
 40
9.009100799999998
  1
MCHW
  7
CHINESET
100
AcDbText
  0
LINE
  5
15D8
330
1F
100
AcDbEntity
  8
LOGO
 62
     4
100
AcDbLine
 10
411.7517503383875
 20
294.9759902068646
 30
0.0
 11
377.4363358057536
 21
294.9759902068646
 31
0.0
  0
TEXT
  5
15D9
330
1F
100
AcDbEntity
  8
LOGO
  6
Continuous
100
AcDbText
 10
388.4480436883265
 20
278.7664636104802
 30
337.34636056887
 40
3.861043199999999
  1
Model
 41
0.8
  7
CHINESET
100
AcDbText
  0
TEXT
  5
15DA
330
1F
100
AcDbEntity
  8
LOGO
100
AcDbText
 10
387.4203595032816
 20
285.9240055890809
 30
337.34636056887
 40
6.435071999999999
  1
型號
  7
CHINESET
100
AcDbText
  0
LINE
  5
15DB
330
1F
100
AcDbEntity
  8
LOGO
  6
Continuous
100
AcDbLine
 10
423.3822592449092
 20
310.3632289669227
 30
0.0
 11
430.2008549696061
 21
310.3632289669227
 31
0.0
  0
LINE
  5
15DC
330
1F
100
AcDbEntity
  8
LOGO
 62
     4
100
AcDbLine
 10
454.3687459070899
 20
294.9759902068646
 30
0.0
 11
454.3687459070899
 21
276.1025122139151
 31
0.0
  0
LINE
  5
15DD
330
1F
100
AcDbEntity
  8
LOGO
 62
     4
100
AcDbLine
 10
420.0533313744557
 20
294.9759902068646
 30
0.0
 11
420.0533313744557
 21
276.1025122139151
 31
0.0
  0
LINE
  5
15DE
330
1F
100
AcDbEntity
  8
LOGO
 62
     4
100
AcDbLine
 10
454.3687459070899
 20
276.1025122139151
 30
0.0
 11
420.0533313744557
 21
276.1025122139151
 31
0.0
  0
LINE
  5
15DF
330
1F
100
AcDbEntity
  8
LOGO
 62
     4
100
AcDbLine
 10
452.6698867419956
 20
318.1388950163914
 30
0.0
 11
432.6866843370312
 21
318.1388950163914
 31
0.0
  0
LINE
  5
15E0
330
1F
100
AcDbEntity
  8
LOGO
 62
     4
100
AcDbLine
 10
452.6698867419956
 20
302.6969584767065
 30
0.0
 11
432.6866843370312
 21
302.6969584767065
 31
0.0
  0
LINE
  5
15E1
330
1F
100
AcDbEntity
  8
LOGO
 62
     4
100
AcDbLine
 10
432.6866843370312
 20
318.1388950163914
 30
0.0
 11
432.6866843370312
 21
302.6969584767065
 31
0.0
  0
LINE
  5
15E2
330
1F
100
AcDbEntity
  8
LOGO
 62
     4
100
AcDbLine
 10
452.6698867419956
 20
318.1388950163914
 30
0.0
 11
452.6698867419956
 21
302.6969584767065
 31
0.0
  0
LINE
  5
15E3
330
1F
100
AcDbEntity
  8
LOGO
 62
     4
100
AcDbLine
 10
444.5510100103692
 20
302.6969584767065
 30
0.0
 11
444.5510100103692
 21
294.9759902068646
 31
0.0
  0
TEXT
  5
15E4
330
1F
100
AcDbEntity
  8
LOGO
  6
Continuous
100
AcDbText
 10
435.5108274674186
 20
305.9204401532568
 30
0.0
 40
9.009100799999998
  1
32
  7
CHINESET
100
AcDbText
  0
LINE
  5
15E5
330
1F
100
AcDbEntity
  8
LOGO
 62
     4
100
AcDbLine
 10
454.3687459070899
 20
294.9759902068646
 30
0.0
 11
420.0533313744557
 21
294.9759902068646
 31
0.0
  0
LINE
  5
15E6
330
1F
100
AcDbEntity
  8
LOGO
  6
Continuous
100
AcDbLine
 10
484.1424074509226
 20
310.3632289669227
 30
0.0
 11
490.9610031756204
 21
310.3632289669227
 31
0.0
  0
LINE
  5
15E7
330
1F
100
AcDbEntity
  8
LOGO
 62
     4
100
AcDbLine
 10
542.972534510023
 20
294.9759902068646
 30
0.0
 11
542.972534510023
 21
276.1025122139151
 31
0.0
  0
LINE
  5
15E8
330
1F
100
AcDbEntity
  8
LOGO
 62
     4
100
AcDbLine
 10
497.2128420606209
 20
294.9759902068646
 30
0.0
 11
497.2128420606209
 21
276.1025122139151
 31
0.0
  0
LINE
  5
15E9
330
1F
100
AcDbEntity
  8
LOGO
 62
     4
100
AcDbLine
 10
542.972534510023
 20
276.1025122139151
 30
0.0
 11
497.2128420606209
 21
276.1025122139151
 31
0.0
  0
LINE
  5
15EA
330
1F
100
AcDbEntity
  8
LOGO
 62
     4
100
AcDbLine
 10
515.2512115259262
 20
318.1388950163914
 30
0.0
 11
494.4218416357214
 21
318.1388950163914
 31
0.0
  0
LINE
  5
15EB
330
1F
100
AcDbEntity
  8
LOGO
 62
     4
100
AcDbLine
 10
515.2512115259262
 20
302.6969584767065
 30
0.0
 11
494.4218416357214
 21
302.6969584767065
 31
0.0
  0
LINE
  5
15EC
330
1F
100
AcDbEntity
  8
LOGO
 62
     4
100
AcDbLine
 10
494.4218416357214
 20
318.1388950163914
 30
0.0
 11
494.4218416357214
 21
302.6969584767065
 31
0.0
  0
LINE
  5
15ED
330
1F
100
AcDbEntity
  8
LOGO
 62
     4
100
AcDbLine
 10
515.2512115259262
 20
318.1388950163914
 30
0.0
 11
515.2512115259262
 21
302.6969584767065
 31
0.0
  0
LINE
  5
15EE
330
1F
100
AcDbEntity
  8
LOGO
 62
     4
100
AcDbLine
 10
506.4607119878163
 20
302.6969584767065
 30
0.0
 11
506.4607119878163
 21
294.9759902068646
 31
0.0
  0
TEXT
  5
15EF
330
1F
100
AcDbEntity
  8
LOGO
  6
Continuous
100
AcDbText
 10
497.6909337681452
 20
305.9204401532568
 30
0.0
 40
9.009100799999998
  1
RK
  7
CHINESET
100
AcDbText
  0
LINE
  5
15F0
330
1F
100
AcDbEntity
  8
LOGO
 62
     4
100
AcDbLine
 10
542.972534510023
 20
294.9759902068646
 30
0.0
 11
497.2128420606209
 21
294.9759902068646
 31
0.0
  0
TEXT
  5
15F1
330
1F
100
AcDbEntity
  8
LOGO
  6
Continuous
100
AcDbText
 10
427.241008210752
 20
278.7664636104802
 30
337.34636056887
 40
3.861043199999999
  1
Tube I.D.
 41
0.8
  7
CHINESET
100
AcDbText
  0
TEXT
  5
15F2
330
1F
100
AcDbEntity
  8
LOGO
100
AcDbText
 10
429.7809186173213
 20
285.9240055890809
 30
337.34636056887
 40
6.435071999999999
  1
內徑
  7
CHINESET
100
AcDbText
  0
TEXT
  5
15F3
330
1F
100
AcDbEntity
  8
LOGO
  6
Continuous
100
AcDbText
 10
499.6355326985231
 20
278.7664636104802
 30
337.34636056887
 40
3.861043199999999
  1
Auto switch type
 41
0.8
  7
CHINESET
100
AcDbText
  0
TEXT
  5
15F4
330
1F
100
AcDbEntity
  8
LOGO
100
AcDbText
 10
502.1281812477997
 20
285.9240055890809
 30
337.34636056887
 40
6.435071999999999
  1
感應器型式
  7
CHINESET
100
AcDbText
  0
LINE
  5
15F5
330
1F
100
AcDbEntity
  8
LOGO
 62
     4
100
AcDbLine
 10
547.255566356426
 20
318.1388950163914
 30
0.0
 11
530.4992118989032
 21
318.1388950163914
 31
0.0
  0
LINE
  5
15F6
330
1F
100
AcDbEntity
  8
LOGO
 62
     4
100
AcDbLine
 10
547.255566356426
 20
302.6969584767065
 30
0.0
 11
530.4992118989032
 21
302.6969584767065
 31
0.0
  0
LINE
  5
15F7
330
1F
100
AcDbEntity
  8
LOGO
 62
     4
100
AcDbLine
 10
530.4992118989032
 20
318.1388950163914
 30
0.0
 11
530.4992118989032
 21
302.6969584767065
 31
0.0
  0
LINE
  5
15F8
330
1F
100
AcDbEntity
  8
LOGO
 62
     4
100
AcDbLine
 10
547.255566356426
 20
318.1388950163914
 30
0.0
 11
547.255566356426
 21
302.6969584767065
 31
0.0
  0
LINE
  5
15F9
330
1F
100
AcDbEntity
  8
LOGO
 62
     4
100
AcDbLine
 10
612.3510030412776
 20
294.9759902068646
 30
0.0
 11
612.3510030412776
 21
276.1025122139151
 31
0.0
  0
LINE
  5
15FA
330
1F
100
AcDbEntity
  8
LOGO
 62
     4
100
AcDbLine
 10
547.5672073538698
 20
294.9759902068646
 30
0.0
 11
547.5672073538698
 21
276.1025122139151
 31
0.0
  0
LINE
  5
15FB
330
1F
100
AcDbEntity
  8
LOGO
 62
     4
100
AcDbLine
 10
612.3510030412776
 20
276.1025122139151
 30
0.0
 11
547.5672073538698
 21
276.1025122139151
 31
0.0
  0
LINE
  5
15FC
330
1F
100
AcDbEntity
  8
LOGO
 62
     4
100
AcDbLine
 10
612.3510030412776
 20
294.9759902068646
 30
0.0
 11
547.5672073538698
 21
294.9759902068646
 31
0.0
  0
TEXT
  5
15FD
330
1F
100
AcDbEntity
  8
LOGO
  6
Continuous
100
AcDbText
 10
553.6439865857508
 20
278.7664636104802
 30
337.34636056887
 40
3.861043199999999
  1
Number of auto switch
 41
0.8
  7
CHINESET
100
AcDbText
  0
TEXT
  5
15FE
330
1F
100
AcDbEntity
  8
LOGO
100
AcDbText
 10
563.9506976741166
 20
285.9240055890809
 30
337.34636056887
 40
6.435071999999999
  1
感應器數量
  7
CHINESET
100
AcDbText
  0
LINE
  5
15FF
330
1F
100
AcDbEntity
  8
LOGO
 62
     4
100
AcDbLine
 10
579.9591051975737
 20
298.8364743417855
 30
0.0
 11
579.9591051975737
 21
294.9759902068646
 31
0.0
  0
TEXT
  5
1600
330
1F
100
AcDbEntity
  8
LOGO
100
AcDbText
 10
308.6790667204864
 20
274.5514351609254
 30
0.0
 40
5.148057599999999
  1
10705205
 41
0.7
  7
CHINESET
 72
     1
 11
321.5492107204864
 21
274.5514351609254
 31
0.0
100
AcDbText
  0
LINE
  5
1601
330
1F
100
AcDbEntity
  8
LOGO
 62
     4
100
AcDbLine
 10
337.5256868644132
 20
282.1077097571274
 30
0.0
 11
337.5256868644158
 21
271.8130853973367
 31
0.0
  0
LINE
  5
1602
330
1F
100
AcDbEntity
  8
LOGO
 62
     4
100
AcDbLine
 10
337.5256868644132
 20
282.1077097571274
 30
0.0
 11
306.6373412644158
 21
282.1077097571274
 31
0.0
  0
CIRCLE
  5
1603
330
1F
100
AcDbEntity
  8
LOGO
  6
Continuous
100
AcDbCircle
 10
281.8528190484877
 20
307.8552807950215
 30
0.0
 40
2.988650605718497
  0
CIRCLE
  5
1604
330
1F
100
AcDbEntity
  8
LOGO
  6
Continuous
100
AcDbCircle
 10
281.8528190484877
 20
307.8552807950215
 30
0.0
 40
1.751084684681943
  0
LINE
  5
1605
330
1F
100
AcDbEntity
  8
LOGO
100
AcDbLine
 10
300.6338462431735
 20
304.8666301893025
 30
0.0
 11
300.6338462431735
 21
310.8439314007406
 31
0.0
  0
LINE
  5
1606
330
1F
100
AcDbEntity
  8
LOGO
100
AcDbLine
 10
291.2645981509773
 20
306.1041961103399
 30
0.0
 11
291.2645981509773
 21
309.6063654797038
 31
0.0
  0
LINE
  5
1607
330
1F
100
AcDbEntity
  8
LOGO
  6
Continuous
100
AcDbLine
 10
291.2645981509773
 20
309.6063654797038
 30
0.0
 11
300.6338462431735
 21
310.8439314007406
 31
0.0
  0
LINE
  5
1608
330
1F
100
AcDbEntity
  8
LOGO
  6
Continuous
100
AcDbLine
 10
291.2645981509773
 20
306.1041961103399
 30
0.0
 11
300.6338462431735
 21
304.8666301893025
 31
0.0
  0
LINE
  5
1609
330
1F
100
AcDbEntity
  8
LOGO
  6
AM_ISO08W050x2
 48
0.3
100
AcDbLine
 10
277.732919436986
 20
307.8552807950215
 30
0.0
 11
285.9727186599894
 21
307.8552807950215
 31
0.0
1001
GENIUS_GENOREF_13
1005
1620
  0
LINE
  5
160A
330
1F
100
AcDbEntity
  8
LOGO
  6
AM_ISO08W050x2
 48
0.3
100
AcDbLine
 10
281.8528190484877
 20
303.7353811835197
 30
0.0
 11
281.8528190484877
 21
311.9751804065233
 31
0.0
1001
GENIUS_GENOREF_13
1005
161F
  0
LINE
  5
160B
330
1F
100
AcDbEntity
  8
LOGO
  6
CENTER
 48
0.5
100
AcDbLine
 10
290.5153187206333
 20
307.8552807950215
 30
0.0
 11
301.5772991962379
 21
307.8552807950215
 31
0.0
1001
GENIUS_GENOREF_13
1005
161E
  0
TEXT
  5
160C
330
1F
100
AcDbEntity
  8
LOGO
  6
Continuous
100
AcDbText
 10
456.3345430931737
 20
305.9204401532568
 30
0.0
 40
9.009100799999998
  1
D
  7
CHINESET
100
AcDbText
  0
LINE
  5
160D
330
1F
100
AcDbEntity
  8
LOGO
 62
     4
100
AcDbLine
 10
494.0747476894194
 20
294.9759902068646
 30
0.0
 11
494.0747476894194
 21
276.1025122139151
 31
0.0
  0
LINE
  5
160E
330
1F
100
AcDbEntity
  8
LOGO
 62
     4
100
AcDbLine
 10
458.0514843515768
 20
294.9759902068646
 30
0.0
 11
458.0514843515768
 21
276.1025122139151
 31
0.0
  0
LINE
  5
160F
330
1F
100
AcDbEntity
  8
LOGO
 62
     4
100
AcDbLine
 10
494.0747476894194
 20
276.1025122139151
 30
0.0
 11
458.0514843515768
 21
276.1025122139151
 31
0.0
  0
LINE
  5
1610
330
1F
100
AcDbEntity
  8
LOGO
 62
     4
100
AcDbLine
 10
481.5230265769708
 20
318.1388950163914
 30
0.0
 11
465.0932349182648
 21
318.1388950163914
 31
0.0
  0
LINE
  5
1611
330
1F
100
AcDbEntity
  8
LOGO
 62
     4
100
AcDbLine
 10
481.5230265769708
 20
302.6969584767065
 30
0.0
 11
465.0932349182648
 21
302.6969584767065
 31
0.0
  0
LINE
  5
1612
330
1F
100
AcDbEntity
  8
LOGO
 62
     4
100
AcDbLine
 10
465.0932349182648
 20
318.1388950163914
 30
0.0
 11
465.0932349182648
 21
302.6969584767065
 31
0.0
  0
LINE
  5
1613
330
1F
100
AcDbEntity
  8
LOGO
 62
     4
100
AcDbLine
 10
481.5230265769708
 20
318.1388950163914
 30
0.0
 11
481.5230265769708
 21
302.6969584767065
 31
0.0
  0
LINE
  5
1614
330
1F
100
AcDbEntity
  8
LOGO
 62
     4
100
AcDbLine
 10
473.3081307476179
 20
302.6969584767065
 30
0.0
 11
473.3081307476179
 21
294.9759902068646
 31
0.0
  0
LINE
  5
1615
330
1F
100
AcDbEntity
  8
LOGO
 62
     4
100
AcDbLine
 10
494.0747476894194
 20
294.9759902068646
 30
0.0
 11
458.0514843515768
 21
294.9759902068646
 31
0.0
  0
TEXT
  5
1616
330
1F
100
AcDbEntity
  8
LOGO
  6
Continuous
100
AcDbText
 10
461.1635554046414
 20
278.7664636104802
 30
337.34636056887
 40
3.861043199999999
  1
Finger option
 41
0.8
  7
CHINESET
100
AcDbText
  0
TEXT
  5
1617
330
1F
100
AcDbEntity
  8
LOGO
100
AcDbText
 10
462.1370580439665
 20
285.9240055890809
 30
337.34636056887
 40
6.435071999999999
  1
夾爪選配
  7
CHINESET
100
AcDbText
  0
TEXT
  5
1618
330
1F
100
AcDbEntity
  8
LOGO
  6
Continuous
100
AcDbText
 10
521.2663246967192
 20
305.9204401532568
 30
0.0
 40
9.009100799999998
  1
x
  7
CHINESET
100
AcDbText
  0
LINE
  5
1619
330
1F
100
AcDbEntity
  8
LOGO
 62
     4
100
AcDbLine
 10
538.8773891276646
 20
302.6969584767065
 30
0.0
 11
538.8773891276646
 21
298.8364743417855
 31
0.0
  0
LINE
  5
161A
330
1F
100
AcDbEntity
  8
LOGO
 62
     4
100
AcDbLine
 10
538.8773891276646
 20
298.8364743417855
 30
0.0
 11
579.9591051975737
 21
298.8364743417855
 31
0.0
  0
LINE
  5
161B
330
1F
100
AcDbEntity
  8
LOGO
 62
     4
100
AcDbLine
 10
569.7614179122429
 20
786.618845397335
 30
0.0
 11
569.7614179122429
 21
323.2862071962866
 31
0.0
  0
TEXT
  5
161C
330
1F
100
AcDbEntity
  8
0
100
AcDbText
 10
579.9860825254584
 20
764.7381805549421
 30
0.0
 40
7.660799999999998
  1
Right angle finger tap mounting
 41
0.85
  7
CHINESET
100
AcDbText
  0
TEXT
  5
161D
330
1F
100
AcDbEntity
  8
0
100
AcDbText
 10
203.6211379199406
 20
764.7381805549421
 30
0.0
 40
7.660799999999998
  1
Flat finger (standard)
 41
0.85
  7
CHINESET
100
AcDbText
  0
POINT
  5
161E
330
1F
100
AcDbEntity
  8
0
 60
     1
100
AcDbPoint
 10
432.7745939074783
 20
-570.5807328477474
 30
0.0
1001
GENIUS_GENOBJ-N-CRS_13
1002
{
1000
OWNER
1000
GEN
1002
}
1001
GENIUS_GENOLIS_13
1002
{
1000
ENT
1005
0
1005
0
1005
0
1005
160B
1002
}
1001
GENIUS_GENOENT_13
1002
{
1000
MYREF
1005
161E
1002
}
1002
{
1000
GRP
1005
0
1002
}
1001
GENIUS_GENODEF_13
1002
{
1000
HIER
1070
    10
1002
}
1002
{
1000
MANEDIT
1070
     1
1002
}
1002
{
1000
NOSEL
1070
     0
1002
}
1002
{
1000
BEHIND
1070
     0
1002
}
1002
{
1000
OTHER
1070
     0
1002
}
1002
{
1000
REACTOR
1002
}
  0
POINT
  5
161F
330
1F
100
AcDbEntity
  8
0
 60
     1
100
AcDbPoint
 10
421.4500086846236
 20
-561.7051463691111
 30
0.0
1001
GENIUS_GENOBJ-N-CRS_13
1002
{
1000
OWNER
1000
GEN
1002
}
1001
GENIUS_GENOLIS_13
1002
{
1000
ENT
1005
0
1005
0
1005
0
1005
160A
1002
}
1001
GENIUS_GENOENT_13
1002
{
1000
MYREF
1005
161F
1002
}
1002
{
1000
GRP
1005
0
1002
}
1001
GENIUS_GENODEF_13
1002
{
1000
HIER
1070
    10
1002
}
1002
{
1000
MANEDIT
1070
     1
1002
}
1002
{
1000
NOSEL
1070
     0
1002
}
1002
{
1000
BEHIND
1070
     0
1002
}
1002
{
1000
OTHER
1070
     0
1002
}
1002
{
1000
REACTOR
1002
}
  0
POINT
  5
1620
330
1F
100
AcDbEntity
  8
0
 60
     1
100
AcDbPoint
 10
427.8086823824605
 20
-570.5807328477474
 30
0.0
1001
GENIUS_GENOBJ-N-CRS_13
1002
{
1000
OWNER
1000
GEN
1002
}
1001
GENIUS_GENOLIS_13
1002
{
1000
ENT
1005
0
1005
0
1005
0
1005
1609
1002
}
1001
GENIUS_GENOENT_13
1002
{
1000
MYREF
1005
1620
1002
}
1002
{
1000
GRP
1005
0
1002
}
1001
GENIUS_GENODEF_13
1002
{
1000
HIER
1070
    10
1002
}
1002
{
1000
MANEDIT
1070
     1
1002
}
1002
{
1000
NOSEL
1070
     0
1002
}
1002
{
1000
BEHIND
1070
     0
1002
}
1002
{
1000
OTHER
1070
     0
1002
}
1002
{
1000
REACTOR
1002
}
  0
DIMENSION
  5
165B
102
{ACAD_XDICTIONARY
360
1668
102
}
102
{ACAD_REACTORS
330
1669
102
}
330
1F
100
AcDbEntity
  8
Dim
100
AcDbDimension
  2
*D27
 10
359.8316555476886
 20
640.7658889590914
 30
0.0
 11
349.3316555476886
 21
643.0158889590914
 31
0.0
 70
    32
 71
     5
 42
21.0
  3
Standard
100
AcDbAlignedDimension
 13
338.8316555476886
 23
654.0028472738935
 33
0.0
 14
359.8316555476886
 24
649.7728472738934
 34
0.0
 50
0.0000000000001018
100
AcDbRotatedDimension
1001
ACAD
1000
DSTYLE
1002
{
1070
    41
1040
2.0
1070
    42
1040
1.0
1070
    44
1040
1.0
1070
    73
1070
     0
1070
    74
1070
     0
1070
    77
1070
     1
1070
    78
1070
     8
1070
    79
1070
     2
1070
   140
1040
2.5
1070
   141
1040
0.0
1070
   147
1040
1.0
1070
   172
1070
     1
1070
   174
1070
     1
1070
   176
1070
   256
1070
   177
1070
   256
1070
   178
1070
   256
1070
   271
1070
     2
1070
   272
1070
     2
1070
   340
1005
BE8
1070
   371
1070
    -1
1070
   372
1070
    -1
1002
}
  0
DIMENSION
  5
1729
102
{ACAD_XDICTIONARY
360
1736
102
}
102
{ACAD_REACTORS
330
1737
102
}
330
1F
100
AcDbEntity
  8
AM_5
100
AcDbDimension
  2
*D28
 10
309.8316555476886
 20
487.8746906443849
 30
0.0
 11
298.3316555476886
 21
490.8686374947786
 31
0.0
 70
    32
  1
<>
 71
     5
 42
23.0
  3
AM_ISO$0
100
AcDbAlignedDimension
 13
286.8316555476886
 23
499.8746906443849
 33
0.0
 14
309.8316555476886
 24
499.8746906443849
 34
0.0
 50
0.0000000000001132
100
AcDbRotatedDimension
1001
ACAD
1000
DSTYLE
1002
{
1070
    47
1040
0.2
1070
    48
1040
-0.1
1070
    71
1070
     1
1070
   272
1070
     8
1002
}
1001
GENIUS_GENDTOL_13
1000
TolAcTol
1000

1000

1040
23.0
  0
DIMENSION
  5
1792
102
{ACAD_XDICTIONARY
360
17A1
102
}
102
{ACAD_REACTORS
330
17A2
102
}
330
1F
100
AcDbEntity
  8
Dim
100
AcDbDimension
  2
*D29
 10
787.3287751840739
 20
617.8786906443848
 30
0.0
 11
783.8287751840739
 21
620.1286906443848
 31
0.0
 70
    32
 71
     5
 42
7.0
  3
Standard
100
AcDbAlignedDimension
 13
780.3287751840739
 23
605.8786906443848
 33
0.0
 14
787.3287751840739
 24
605.8786906443848
 34
0.0
100
AcDbRotatedDimension
1001
ACAD
1000
DSTYLE
1002
{
1070
    41
1040
2.0
1070
    42
1040
1.0
1070
    44
1040
1.0
1070
    73
1070
     0
1070
    74
1070
     0
1070
    77
1070
     1
1070
    78
1070
     8
1070
    79
1070
     2
1070
   140
1040
2.5
1070
   141
1040
0.0
1070
   147
1040
1.0
1070
   172
1070
     1
1070
   174
1070
     1
1070
   176
1070
   256
1070
   177
1070
   256
1070
   178
1070
   256
1070
   271
1070
     2
1070
   272
1070
     2
1070
   340
1005
BE8
1070
   371
1070
    -1
1070
   372
1070
    -1
1002
}
  0
DIMENSION
  5
17D2
102
{ACAD_XDICTIONARY
360
17DF
102
}
102
{ACAD_REACTORS
330
17E0
102
}
330
1F
100
AcDbEntity
  8
Dim
100
AcDbDimension
  2
*D30
 10
787.3287751840739
 20
625.8786906443848
 30
0.0
 11
773.8287751840739
 21
628.1286906443848
 31
0.0
 70
    32
 71
     5
 42
27.0
  3
Standard
100
AcDbAlignedDimension
 13
760.3287751840739
 23
591.8786906443849
 33
0.0
 14
787.3287751840739
 24
605.8786906443848
 34
0.0
 50
0.0000000000000114
100
AcDbRotatedDimension
1001
ACAD
1000
DSTYLE
1002
{
1070
    41
1040
2.0
1070
    42
1040
1.0
1070
    44
1040
1.0
1070
    73
1070
     0
1070
    74
1070
     0
1070
    77
1070
     1
1070
    78
1070
     8
1070
    79
1070
     2
1070
   140
1040
2.5
1070
   141
1040
0.0
1070
   147
1040
1.0
1070
   172
1070
     1
1070
   174
1070
     1
1070
   176
1070
   256
1070
   177
1070
   256
1070
   178
1070
   256
1070
   271
1070
     2
1070
   272
1070
     2
1070
   340
1005
BE8
1070
   371
1070
    -1
1070
   372
1070
    -1
1002
}
  0
DIMENSION
  5
17F8
330
1F
100
AcDbEntity
  8
Dim
100
AcDbDimension
  2
*D31
 10
741.0693042540888
 20
584.8786906443849
 30
0.0
 11
738.8193042540887
 21
595.378690644385
 31
0.0
 70
    32
 71
     5
 42
21.0
  3
Standard
100
AcDbAlignedDimension
 13
780.3287751840739
 23
605.8786906443848
 33
0.0
 14
760.3287751840739
 24
584.8786906443849
 34
0.0
 50
90.0
100
AcDbRotatedDimension
1001
ACAD
1000
DSTYLE
1002
{
1070
    41
1040
2.0
1070
    42
1040
1.0
1070
    44
1040
1.0
1070
    73
1070
     0
1070
    74
1070
     0
1070
    77
1070
     1
1070
    78
1070
     8
1070
    79
1070
     2
1070
   140
1040
2.5
1070
   141
1040
0.0
1070
   147
1040
1.0
1070
   172
1070
     1
1070
   174
1070
     1
1070
   176
1070
   256
1070
   177
1070
   256
1070
   178
1070
   256
1070
   271
1070
     2
1070
   272
1070
     2
1070
   340
1005
BE8
1070
   371
1070
    -1
1070
   372
1070
    -1
1002
}
  0
DIMENSION
  5
182D
102
{ACAD_XDICTIONARY
360
183A
102
}
102
{ACAD_REACTORS
330
183B
102
}
330
1F
100
AcDbEntity
  8
Dim
100
AcDbDimension
  2
*D32
 10
748.3287751840739
 20
591.8786906443849
 30
0.0
 11
746.0787751840738
 21
598.878690644385
 31
0.0
 70
    32
 71
     5
 42
14.0
  3
Standard
100
AcDbAlignedDimension
 13
780.3287751840739
 23
605.8786906443848
 33
0.0
 14
760.3287751840739
 24
591.8786906443849
 34
0.0
 50
90.0
100
AcDbRotatedDimension
1001
ACAD
1000
DSTYLE
1002
{
1070
    41
1040
2.0
1070
    42
1040
1.0
1070
    44
1040
1.0
1070
    73
1070
     0
1070
    74
1070
     0
1070
    77
1070
     1
1070
    78
1070
     8
1070
    79
1070
     2
1070
   140
1040
2.5
1070
   141
1040
0.0
1070
   147
1040
1.0
1070
   172
1070
     1
1070
   174
1070
     1
1070
   176
1070
   256
1070
   177
1070
   256
1070
   178
1070
   256
1070
   271
1070
     2
1070
   272
1070
     2
1070
   340
1005
BE8
1070
   371
1070
    -1
1070
   372
1070
    -1
1002
}
  0
DIMENSION
  5
1853
102
{ACAD_XDICTIONARY
360
1860
102
}
102
{ACAD_REACTORS
330
1861
102
}
330
1F
100
AcDbEntity
  8
Dim
100
AcDbDimension
  2
*D33
 10
725.9759877827425
 20
561.8746906443849
 30
0.0
 11
723.7259877827424
 21
583.876690644385
 31
0.0
 70
    32
 71
     5
 42
44.00400000000002
  3
Standard
100
AcDbAlignedDimension
 13
780.3287751840739
 23
605.8786906443848
 33
0.0
 14
759.4287751840738
 24
561.8746906443849
 34
0.0
 50
90.0
100
AcDbRotatedDimension
1001
ACAD
1000
DSTYLE
1002
{
1070
    41
1040
2.0
1070
    42
1040
1.0
1070
    44
1040
1.0
1070
    73
1070
     0
1070
    74
1070
     0
1070
    77
1070
     1
1070
    78
1070
     8
1070
    79
1070
     2
1070
   140
1040
2.5
1070
   141
1040
0.0
1070
   147
1040
1.0
1070
   172
1070
     1
1070
   174
1070
     1
1070
   176
1070
   256
1070
   177
1070
   256
1070
   178
1070
   256
1070
   271
1070
     2
1070
   272
1070
     2
1070
   340
1005
BE8
1070
   371
1070
    -1
1070
   372
1070
    -1
1002
}
  0
DIMENSION
  5
19B9
102
{ACAD_XDICTIONARY
360
19C8
102
}
102
{ACAD_REACTORS
330
19C9
102
}
330
1F
100
AcDbEntity
  8
Dim
100
AcDbDimension
  2
*D34
 10
701.5455016679298
 20
598.8786906443849
 30
0.0
 11
699.2955016679296
 21
602.378690644385
 31
0.0
 70
    32
 71
     5
 42
6.999999999999886
  3
Standard
100
AcDbAlignedDimension
 13
684.4919564900442
 23
605.8786906443848
 33
0.0
 14
682.5819564900442
 24
598.8786906443849
 34
0.0
 50
90.0
100
AcDbRotatedDimension
1001
ACAD
1000
DSTYLE
1002
{
1070
    41
1040
2.0
1070
    42
1040
1.0
1070
    44
1040
1.0
1070
    73
1070
     0
1070
    74
1070
     0
1070
    77
1070
     1
1070
    78
1070
     8
1070
    79
1070
     2
1070
   140
1040
2.5
1070
   141
1040
0.0
1070
   147
1040
1.0
1070
   172
1070
     1
1070
   174
1070
     1
1070
   176
1070
   256
1070
   177
1070
   256
1070
   178
1070
   256
1070
   271
1070
     2
1070
   272
1070
     2
1070
   340
1005
BE8
1070
   371
1070
    -1
1070
   372
1070
    -1
1002
}
  0
ENDSEC
  0
SECTION
  2
OBJECTS
  0
DICTIONARY
  5
C
330
0
100
AcDbDictionary
281
     1
  3
ACAD_COLOR
350
BE
  3
ACAD_GROUP
350
D
  3
ACAD_LAYOUT
350
1A
  3
ACAD_MATERIAL
350
BD
  3
ACAD_MLINESTYLE
350
17
  3
ACAD_PLOTSETTINGS
350
19
  3
ACAD_PLOTSTYLENAME
350
E
  3
ACAD_TABLESTYLE
350
11A
  3
ACDBHEADERROUNDTRIPXREC
350
1A32
  3
AcDbVariableDictionary
350
94
  3
AcmDictionary
350
5B
  3
AMG
350
41
  3
AMGSNAPSETTINGS
350
1B8
  3
DWGPROPS
350
1A31
  0
DICTIONARY
  5
3F9
330
2
100
AcDbDictionary
280
     1
281
     1
  3
ACAD_LAYERFILTERS
360
12A5
  3
ACAD_LAYERSTATES
360
14E3
  3
ACLYDICTIONARY
360
12A4
  0
DICTIONARY
  5
8F
330
1F
100
AcDbDictionary
280
     1
281
     1
  0
DICTIONARY
  5
1668
330
165B
100
AcDbDictionary
280
     1
281
     1
  3
ACAD_DIMASSOC
360
1669
  0
DICTIONARY
  5
1736
330
1729
100
AcDbDictionary
280
     1
281
     1
  3
ACAD_DIMASSOC
360
1737
  0
DICTIONARY
  5
17A1
330
1792
100
AcDbDictionary
280
     1
281
     1
  3
ACAD_DIMASSOC
360
17A2
  0
DICTIONARY
  5
17DF
330
17D2
100
AcDbDictionary
280
     1
281
     1
  3
ACAD_DIMASSOC
360
17E0
  0
DICTIONARY
  5
183A
330
182D
100
AcDbDictionary
280
     1
281
     1
  3
ACAD_DIMASSOC
360
183B
  0
DICTIONARY
  5
1860
330
1853
100
AcDbDictionary
280
     1
281
     1
  3
ACAD_DIMASSOC
360
1861
  0
DICTIONARY
  5
19C8
330
19B9
100
AcDbDictionary
280
     1
281
     1
  3
ACAD_DIMASSOC
360
19C9
  0
DICTIONARY
  5
BE
102
{ACAD_REACTORS
330
C
102
}
330
C
100
AcDbDictionary
281
     1
  0
DICTIONARY
  5
D
102
{ACAD_REACTORS
330
C
102
}
330
C
100
AcDbDictionary
281
     1
  0
DICTIONARY
  5
1A
102
{ACAD_REACTORS
330
C
102
}
330
C
100
AcDbDictionary
281
     1
  3
Model
350
22
  3
配置1
350
1E
  3
配置2
350
26
  0
DICTIONARY
  5
BD
102
{ACAD_REACTORS
330
C
102
}
330
C
100
AcDbDictionary
281
     1
  0
DICTIONARY
  5
17
102
{ACAD_REACTORS
330
C
102
}
330
C
100
AcDbDictionary
281
     1
  3
Standard
350
18
  0
DICTIONARY
  5
19
102
{ACAD_REACTORS
330
C
102
}
330
C
100
AcDbDictionary
281
     1
  0
ACDBDICTIONARYWDFLT
  5
E
102
{ACAD_REACTORS
330
C
102
}
330
C
100
AcDbDictionary
281
     1
  3
Normal
350
F
100
AcDbDictionaryWithDefault
340
F
  0
DICTIONARY
  5
11A
102
{ACAD_REACTORS
330
C
102
}
330
C
100
AcDbDictionary
281
     1
  3
Standard
350
11B
  0
DICTIONARY
  5
1A32
102
{ACAD_REACTORS
330
C
102
}
330
C
100
AcDbDictionary
281
     1
  0
DICTIONARY
  5
94
102
{ACAD_REACTORS
330
C
102
}
330
C
100
AcDbDictionary
281
     1
  3
CTABLESTYLE
350
138
  3
DIMASSOC
350
96
  3
INDEXCTL
350
95
  3
PROJECTNAME
350
1A2F
  0
DICTIONARY
  5
5B
102
{ACAD_REACTORS
330
C
102
}
330
C
100
AcDbDictionary
281
     1
  3
AcmBOM
350
1B5
  3
AcmStdDictionary
350
61
  3
AMDTSECTSYM_ARROWCOLOR
350
123
  0
DICTIONARY
  5
41
102
{ACAD_REACTORS
330
C
102
}
330
C
100
AcDbDictionary
281
     1
  0
DICTIONARY
  5
1B8
102
{ACAD_REACTORS
330
C
102
}
330
C
100
AcDbDictionary
281
     1
  0
XRECORD
  5
1A31
102
{ACAD_REACTORS
330
C
102
}
330
C
100
AcDbXrecord
280
     1
  1
DWGPROPS COOKIE
  2

  3

  4

  6

  7

  8

  9

300
AmdtFileType=84
301
=
302
=
303
=
304
=
305
=
306
=
307
=
308
=
309
=
 40
0.2431877546296296
 41
2454240.471761424
 42
2454242.388809132
  1

 90
        1
  0
DICTIONARY
  5
12A5
102
{ACAD_REACTORS
330
3F9
102
}
330
3F9
100
AcDbDictionary
281
     1
  0
DICTIONARY
  5
14E3
102
{ACAD_REACTORS
330
3F9
102
}
330
3F9
100
AcDbDictionary
281
     1
  0
DICTIONARY
  5
12A4
102
{ACAD_REACTORS
330
3F9
102
}
330
3F9
100
AcDbDictionary
281
     1
1001
ACAD
1000
<All
  0
DIMASSOC
  5
1669
102
{ACAD_REACTORS
330
1668
102
}
330
1668
100
AcDbDimAssoc
330
165B
 90
        3
 70
     0
 71
     0
  1
AcDbOsnapPointRef
 72
     1
331
E69
 73
     0
 91
        0
 40
0.0
 10
0.0
 20
0.0
 30
2.000000000000000E+50
 75
     0
  1
AcDbOsnapPointRef
 72
     1
331
EED
 73
     0
 91
        0
 40
0.0
 10
0.0
 20
0.0
 30
2.000000000000000E+50
 75
     0
  0
DIMASSOC
  5
1737
102
{ACAD_REACTORS
330
1736
102
}
330
1736
100
AcDbDimAssoc
330
1729
 90
        3
 70
     0
 71
     0
  1
AcDbOsnapPointRef
 72
    13
331
EB8
 73
     0
 91
        0
 40
0.0
 10
0.0
 20
0.0
 30
2.000000000000000E+50
 75
     0
  1
AcDbOsnapPointRef
 72
    13
331
EBC
 73
     0
 91
        0
 40
0.0
 10
0.0
 20
0.0
 30
2.000000000000000E+50
 75
     0
  0
DIMASSOC
  5
17A2
102
{ACAD_REACTORS
330
17A1
102
}
330
17A1
100
AcDbDimAssoc
330
1792
 90
        3
 70
     0
 71
     0
  1
AcDbOsnapPointRef
 72
    13
331
F99
 73
     0
 91
        0
 40
0.0
 10
0.0
 20
0.0
 30
2.000000000000000E+50
 75
     0
  1
AcDbOsnapPointRef
 72
    13
331
F96
 73
     0
 91
        0
 40
0.0
 10
0.0
 20
0.0
 30
2.000000000000000E+50
 75
     0
  0
DIMASSOC
  5
17E0
102
{ACAD_REACTORS
330
17DF
102
}
330
17DF
100
AcDbDimAssoc
330
17D2
 90
        3
 70
     0
 71
     0
  1
AcDbOsnapPointRef
 72
     1
331
F97
 73
     0
 91
        0
 40
0.0
 10
0.0
 20
0.0
 30
2.000000000000000E+50
 75
     0
  1
AcDbOsnapPointRef
 72
    13
331
F96
 73
     0
 91
        0
 40
0.0
 10
0.0
 20
0.0
 30
2.000000000000000E+50
 75
     0
  0
DIMASSOC
  5
183B
102
{ACAD_REACTORS
330
183A
102
}
330
183A
100
AcDbDimAssoc
330
182D
 90
        3
 70
     0
 71
     0
  1
AcDbOsnapPointRef
 72
    13
331
F99
 73
     0
 91
        0
 40
0.0
 10
0.0
 20
0.0
 30
2.000000000000000E+50
 75
     0
  1
AcDbOsnapPointRef
 72
     1
331
F97
 73
     0
 91
        0
 40
0.0
 10
0.0
 20
0.0
 30
2.000000000000000E+50
 75
     0
  0
DIMASSOC
  5
1861
102
{ACAD_REACTORS
330
1860
102
}
330
1860
100
AcDbDimAssoc
330
1853
 90
        3
 70
     0
 71
     0
  1
AcDbOsnapPointRef
 72
    13
331
F99
 73
     0
 91
        0
 40
0.0
 10
0.0
 20
0.0
 30
2.000000000000000E+50
 75
     0
  1
AcDbOsnapPointRef
 72
     1
331
F8C
 73
     0
 91
        0
 40
0.0
 10
0.0
 20
0.0
 30
2.000000000000000E+50
 75
     0
  0
DIMASSOC
  5
19C9
102
{ACAD_REACTORS
330
19C8
102
}
330
19C8
100
AcDbDimAssoc
330
19B9
 90
        3
 70
     0
 71
     0
  1
AcDbOsnapPointRef
 72
    13
331
E5F
 73
     0
 91
        0
 40
0.0
 10
0.0
 20
0.0
 30
2.000000000000000E+50
 75
     0
  1
AcDbOsnapPointRef
 72
     1
331
E58
 73
     0
 91
        0
 40
0.0
 10
0.0
 20
0.0
 30
2.000000000000000E+50
 75
     0
  0
LAYOUT
  5
22
102
{ACAD_XDICTIONARY
360
1A35
102
}
102
{ACAD_REACTORS
330
1A
102
}
330
1A
100
AcDbPlotSettings
  1

  2
\\RD\EPSON Stylus C63 Series單色
  4
A4
  6

 40
3.757083177566528
 41
3.757076978683471
 42
3.757080078125
 43
3.757080078125
 44
209.9733276367187
 45
296.9683227539062
 46
0.0
 47
0.0
 48
0.0
 49
0.0
140
0.0
141
0.0
142
1.0
143
0.3405120737814363
 70
 11952
 72
     1
 73
     0
 74
     0
  7
單色出圖.ctb
 75
     0
147
2.936753428137963
148
-2047.07469463503
149
-1261.649717473083
100
AcDbLayout
  1
Model
 70
     1
 71
     0
 10
0.0
 20
0.0
 11
12.0
 21
9.0
 12
0.0
 22
0.0
 32
0.0
 14
0.0
 24
0.0
 34
0.0
 15
0.0
 25
0.0
 35
0.0
146
0.0
 13
0.0
 23
0.0
 33
0.0
 16
1.0
 26
0.0
 36
0.0
 17
0.0
 27
1.0
 37
0.0
 76
     0
330
1F
1001
ACAD_PSEXT
1000
\\RD\EPSON Stylus C63 Series單色
1000
EPSON Stylus C63 Series
1000
\\RD
1000

1070
     0
  0
LAYOUT
  5
1E
102
{ACAD_XDICTIONARY
360
1A33
102
}
102
{ACAD_REACTORS
330
1A
102
}
330
1A
100
AcDbPlotSettings
  1

  2

  4

  6

 40
0.0
 41
0.0
 42
0.0
 43
0.0
 44
0.0
 45
0.0
 46
0.0
 47
0.0
 48
0.0
 49
0.0
140
0.0
141
0.0
142
1.0
143
1.0
 70
   688
 72
     0
 73
     0
 74
     5
  7
單色出圖.ctb
 75
    16
147
1.0
148
0.0
149
0.0
100
AcDbLayout
  1
配置1
 70
     1
 71
     1
 10
0.0
 20
0.0
 11
420.0
 21
297.0
 12
0.0
 22
0.0
 32
0.0
 14
1.000000000000000E+20
 24
1.000000000000000E+20
 34
1.000000000000000E+20
 15
-1.000000000000000E+20
 25
-1.000000000000000E+20
 35
-1.000000000000000E+20
146
0.0
 13
0.0
 23
0.0
 33
0.0
 16
1.0
 26
0.0
 36
0.0
 17
0.0
 27
1.0
 37
0.0
 76
     0
330
1B
  0
LAYOUT
  5
26
102
{ACAD_XDICTIONARY
360
1A37
102
}
102
{ACAD_REACTORS
330
1A
102
}
330
1A
100
AcDbPlotSettings
  1

  2

  4

  6

 40
0.0
 41
0.0
 42
0.0
 43
0.0
 44
0.0
 45
0.0
 46
0.0
 47
0.0
 48
0.0
 49
0.0
140
0.0
141
0.0
142
1.0
143
1.0
 70
   688
 72
     0
 73
     0
 74
     5
  7
單色出圖.ctb
 75
    16
147
1.0
148
0.0
149
0.0
100
AcDbLayout
  1
配置2
 70
     1
 71
     2
 10
0.0
 20
0.0
 11
12.0
 21
9.0
 12
0.0
 22
0.0
 32
0.0
 14
0.0
 24
0.0
 34
0.0
 15
0.0
 25
0.0
 35
0.0
146
0.0
 13
0.0
 23
0.0
 33
0.0
 16
1.0
 26
0.0
 36
0.0
 17
0.0
 27
1.0
 37
0.0
 76
     0
330
23
  0
MLINESTYLE
  5
18
102
{ACAD_REACTORS
330
17
102
}
330
17
100
AcDbMlineStyle
  2
STANDARD
 70
     0
  3

 62
   256
 51
90.0
 52
90.0
 71
     2
 49
0.5
 62
   256
  6
BYLAYER
 49
-0.5
 62
   256
  6
BYLAYER
  0
ACDBPLACEHOLDER
  5
F
102
{ACAD_REACTORS
330
E
102
}
330
E
  0
TABLESTYLE
  5
11B
102
{ACAD_REACTORS
330
11A
102
}
330
11A
100
AcDbTableStyle
  3
Standard
 70
     0
 71
     0
 40
1.5
 41
1.5
280
     0
281
     0
  7
STANDARD
140
4.5
170
     2
 62
     0
 63
     7
283
     0
274
    -2
284
     1
 64
     0
275
    -2
285
     1
 65
     0
276
    -2
286
     1
 66
     0
277
    -2
287
     1
 67
     0
278
    -2
288
     1
 68
     0
279
    -2
289
     1
 69
     0
  7
STANDARD
140
6.0
170
     5
 62
     0
 63
     7
283
     0
274
    -2
284
     1
 64
     0
275
    -2
285
     1
 65
     0
276
    -2
286
     1
 66
     0
277
    -2
287
     1
 67
     0
278
    -2
288
     1
 68
     0
279
    -2
289
     1
 69
     0
  7
STANDARD
140
4.5
170
     5
 62
     0
 63
     7
283
     0
274
    -2
284
     1
 64
     0
275
    -2
285
     1
 65
     0
276
    -2
286
     1
 66
     0
277
    -2
287
     1
 67
     0
278
    -2
288
     1
 68
     0
279
    -2
289
     1
 69
     0
  0
DICTIONARYVAR
  5
138
102
{ACAD_REACTORS
330
94
102
}
330
94
100
DictionaryVariables
280
     0
  1
STANDARD
  0
DICTIONARYVAR
  5
96
102
{ACAD_REACTORS
330
94
102
}
330
94
100
DictionaryVariables
280
     0
  1
2
  0
DICTIONARYVAR
  5
95
102
{ACAD_REACTORS
330
94
102
}
330
94
100
DictionaryVariables
280
     0
  1
0
  0
DICTIONARYVAR
  5
1A2F
102
{ACAD_REACTORS
330
94
102
}
330
94
100
DictionaryVariables
280
     0
  1

  0
DICTIONARY
  5
1B5
102
{ACAD_REACTORS
330
5B
102
}
330
5B
100
AcDbDictionary
281
     1
  0
DICTIONARY
  5
61
102
{ACAD_REACTORS
330
5B
102
}
330
5B
100
AcDbDictionary
281
     1
  0
XRECORD
  5
123
102
{ACAD_REACTORS
330
5B
102
}
330
5B
100
AcDbXrecord
280
     1
 90
-1023410169
  0
DICTIONARY
  5
1A35
330
22
100
AcDbDictionary
280
     1
281
     1
  3
ACAD_XREC_ROUNDTRIP
360
1A36
  0
DICTIONARY
  5
1A33
330
1E
100
AcDbDictionary
280
     1
281
     1
  3
ACAD_XREC_ROUNDTRIP
360
1A34
  0
DICTIONARY
  5
1A37
330
26
100
AcDbDictionary
280
     1
281
     1
  3
ACAD_XREC_ROUNDTRIP
360
1A38
  0
XRECORD
  5
1A36
102
{ACAD_REACTORS
330
1A35
102
}
330
1A35
100
AcDbXrecord
280
     1
102
SHADEPLOT
 70
     0
102
SHADEPLOTRESLEVEL
 70
     2
102
SHADEPLOTCUSTOMDPI
 70
   300
  0
XRECORD
  5
1A34
102
{ACAD_REACTORS
330
1A33
102
}
330
1A33
100
AcDbXrecord
280
     1
102
SHADEPLOT
 70
     0
102
SHADEPLOTRESLEVEL
 70
     2
102
SHADEPLOTCUSTOMDPI
 70
   300
  0
XRECORD
  5
1A38
102
{ACAD_REACTORS
330
1A37
102
}
330
1A37
100
AcDbXrecord
280
     1
102
SHADEPLOT
 70
     0
102
SHADEPLOTRESLEVEL
 70
     2
102
SHADEPLOTCUSTOMDPI
 70
   300
  0
ENDSEC
  0
EOF
