  0
SECTION
  2
HEADER
  9
$ACADVER
  1
AC1015
  9
$ACADMAINTVER
 70
    20
  9
$DWGCODEPAGE
  3
ANSI_950
  9
$INSBASE
 10
0.0
 20
0.0
 30
0.0
  9
$EXTMIN
 10
93.02243462518594
 20
202.4030859090678
 30
-0.005598962945669
  9
$EXTMAX
 10
437.896133871875
 20
482.4740503084749
 30
183.4864158814144
  9
$LIMMIN
 10
0.0
 20
0.0
  9
$LIMMAX
 10
420.0
 20
297.0
  9
$ORTHOMODE
 70
     1
  9
$REGENMODE
 70
     1
  9
$FILLMODE
 70
     1
  9
$QTEXTMODE
 70
     0
  9
$MIRRTEXT
 70
     1
  9
$LTSCALE
 40
1.0
  9
$ATTMODE
 70
     1
  9
$TEXTSIZE
 40
3.0
  9
$TRACEWID
 40
1.0
  9
$TEXTSTYLE
  7
STANDARD
  9
$CLAYER
  8
0
  9
$CELTYPE
  6
ByLayer
  9
$CECOLOR
 62
   256
  9
$CELTSCALE
 40
1.0
  9
$DISPSILH
 70
     0
  9
$DIMSCALE
 40
1.0
  9
$DIMASZ
 40
3.0
  9
$DIMEXO
 40
1.0
  9
$DIMDLI
 40
8.0
  9
$DIMRND
 40
0.0
  9
$DIMDLE
 40
0.0
  9
$DIMEXE
 40
1.5
  9
$DIMTP
 40
0.1
  9
$DIMTM
 40
0.1
  9
$DIMTXT
 40
3.5
  9
$DIMCEN
 40
0.0
  9
$DIMTSZ
 40
0.0
  9
$DIMTOL
 70
     0
  9
$DIMLIM
 70
     0
  9
$DIMTIH
 70
     0
  9
$DIMTOH
 70
     0
  9
$DIMSE1
 70
     0
  9
$DIMSE2
 70
     0
  9
$DIMTAD
 70
     1
  9
$DIMZIN
 70
     8
  9
$DIMBLK
  1

  9
$DIMASO
 70
     1
  9
$DIMSHO
 70
     1
  9
$DIMPOST
  1

  9
$DIMAPOST
  1
"
  9
$DIMALT
 70
     0
  9
$DIMALTD
 70
     2
  9
$DIMALTF
 40
0.0393701
  9
$DIMLFAC
 40
1.0
  9
$DIMTOFL
 70
     1
  9
$DIMTVP
 40
0.0
  9
$DIMTIX
 70
     0
  9
$DIMSOXD
 70
     0
  9
$DIMSAH
 70
     0
  9
$DIMBLK1
  1

  9
$DIMBLK2
  1

  9
$DIMSTYLE
  2
AM_ISO
  9
$DIMCLRD
 70
   256
  9
$DIMCLRE
 70
   256
  9
$DIMCLRT
 70
   256
  9
$DIMTFAC
 40
0.6
  9
$DIMGAP
 40
0.7
  9
$DIMJUST
 70
     0
  9
$DIMSD1
 70
     0
  9
$DIMSD2
 70
     0
  9
$DIMTOLJ
 70
     0
  9
$DIMTZIN
 70
     8
  9
$DIMALTZ
 70
     0
  9
$DIMALTTZ
 70
     0
  9
$DIMUPT
 70
     0
  9
$DIMDEC
 70
     2
  9
$DIMTDEC
 70
     8
  9
$DIMALTU
 70
     2
  9
$DIMALTTD
 70
     2
  9
$DIMTXSTY
  7
STANDARD
  9
$DIMAUNIT
 70
     0
  9
$DIMADEC
 70
     0
  9
$DIMALTRND
 40
0.0
  9
$DIMAZIN
 70
     2
  9
$DIMDSEP
 70
    46
  9
$DIMATFIT
 70
     3
  9
$DIMFRAC
 70
     0
  9
$DIMLDRBLK
  1

  9
$DIMLUNIT
 70
     2
  9
$DIMLWD
 70
    -1
  9
$DIMLWE
 70
    -1
  9
$DIMTMOVE
 70
     0
  9
$LUNITS
 70
     2
  9
$LUPREC
 70
     2
  9
$SKETCHINC
 40
1.0
  9
$FILLETRAD
 40
2.5
  9
$AUNITS
 70
     0
  9
$AUPREC
 70
     0
  9
$MENU
  1
.
  9
$ELEVATION
 40
0.0
  9
$PELEVATION
 40
0.0
  9
$THICKNESS
 40
0.0
  9
$LIMCHECK
 70
     0
  9
$CHAMFERA
 40
2.5
  9
$CHAMFERB
 40
2.5
  9
$CHAMFERC
 40
20.0
  9
$CHAMFERD
 40
0.0
  9
$SKPOLY
 70
     0
  9
$TDCREATE
 40
2454239.676025752
  9
$TDUCREATE
 40
2454239.342692419
  9
$TDUPDATE
 40
2454240.348849283
  9
$TDUUPDATE
 40
2454240.015515949
  9
$TDINDWG
 40
0.0496053935
  9
$TDUSRTIMER
 40
0.0496053935
  9
$USRTIMER
 70
     1
  9
$ANGBASE
 50
0.0
  9
$ANGDIR
 70
     0
  9
$PDMODE
 70
     0
  9
$PDSIZE
 40
0.0
  9
$PLINEWID
 40
0.0
  9
$SPLFRAME
 70
     0
  9
$SPLINETYPE
 70
     6
  9
$SPLINESEGS
 70
     8
  9
$HANDSEED
  5
2518
  9
$SURFTAB1
 70
     6
  9
$SURFTAB2
 70
     6
  9
$SURFTYPE
 70
     6
  9
$SURFU
 70
     6
  9
$SURFV
 70
     6
  9
$UCSBASE
  2

  9
$UCSNAME
  2

  9
$UCSORG
 10
0.0
 20
0.0
 30
0.0
  9
$UCSXDIR
 10
1.0
 20
0.0
 30
0.0
  9
$UCSYDIR
 10
0.0
 20
1.0
 30
0.0
  9
$UCSORTHOREF
  2

  9
$UCSORTHOVIEW
 70
     0
  9
$UCSORGTOP
 10
0.0
 20
0.0
 30
0.0
  9
$UCSORGBOTTOM
 10
0.0
 20
0.0
 30
0.0
  9
$UCSORGLEFT
 10
0.0
 20
0.0
 30
0.0
  9
$UCSORGRIGHT
 10
0.0
 20
0.0
 30
0.0
  9
$UCSORGFRONT
 10
0.0
 20
0.0
 30
0.0
  9
$UCSORGBACK
 10
0.0
 20
0.0
 30
0.0
  9
$PUCSBASE
  2

  9
$PUCSNAME
  2

  9
$PUCSORG
 10
0.0
 20
0.0
 30
0.0
  9
$PUCSXDIR
 10
1.0
 20
0.0
 30
0.0
  9
$PUCSYDIR
 10
0.0
 20
1.0
 30
0.0
  9
$PUCSORTHOREF
  2

  9
$PUCSORTHOVIEW
 70
     0
  9
$PUCSORGTOP
 10
0.0
 20
0.0
 30
0.0
  9
$PUCSORGBOTTOM
 10
0.0
 20
0.0
 30
0.0
  9
$PUCSORGLEFT
 10
0.0
 20
0.0
 30
0.0
  9
$PUCSORGRIGHT
 10
0.0
 20
0.0
 30
0.0
  9
$PUCSORGFRONT
 10
0.0
 20
0.0
 30
0.0
  9
$PUCSORGBACK
 10
0.0
 20
0.0
 30
0.0
  9
$USERI1
 70
     0
  9
$USERI2
 70
     0
  9
$USERI3
 70
     0
  9
$USERI4
 70
     0
  9
$USERI5
 70
     0
  9
$USERR1
 40
0.0
  9
$USERR2
 40
0.0
  9
$USERR3
 40
0.0
  9
$USERR4
 40
0.0
  9
$USERR5
 40
0.0
  9
$WORLDVIEW
 70
     1
  9
$SHADEDGE
 70
     3
  9
$SHADEDIF
 70
    70
  9
$TILEMODE
 70
     1
  9
$MAXACTVP
 70
    64
  9
$PINSBASE
 10
0.0
 20
0.0
 30
0.0
  9
$PLIMCHECK
 70
     0
  9
$PEXTMIN
 10
1.000000000000000E+20
 20
1.000000000000000E+20
 30
1.000000000000000E+20
  9
$PEXTMAX
 10
-1.000000000000000E+20
 20
-1.000000000000000E+20
 30
-1.000000000000000E+20
  9
$PLIMMIN
 10
0.0
 20
0.0
  9
$PLIMMAX
 10
420.0
 20
297.0
  9
$UNITMODE
 70
     0
  9
$VISRETAIN
 70
     1
  9
$PLINEGEN
 70
     0
  9
$PSLTSCALE
 70
     1
  9
$TREEDEPTH
 70
  3020
  9
$CMLSTYLE
  2
Standard
  9
$CMLJUST
 70
     0
  9
$CMLSCALE
 40
20.0
  9
$PROXYGRAPHICS
 70
     1
  9
$MEASUREMENT
 70
     1
  9
$CELWEIGHT
370
    -1
  9
$ENDCAPS
280
     0
  9
$JOINSTYLE
280
     0
  9
$LWDISPLAY
290
     0
  9
$INSUNITS
 70
     4
  9
$HYPERLINKBASE
  1

  9
$STYLESHEET
  1
彩色出圖.ctb
  9
$XEDIT
290
     1
  9
$CEPSNTYPE
380
     0
  9
$PSTYLEMODE
290
     1
  9
$FINGERPRINTGUID
  2
{AB7EC673-D24C-4AF7-8A26-CB3376412AB6}
  9
$VERSIONGUID
  2
{CE8E9F68-5BC9-4AF8-9AE4-B9C551BE05C7}
  9
$EXTNAMES
290
     1
  9
$PSVPSCALE
 40
0.0
  9
$OLESTARTUP
290
     0
  0
ENDSEC
  0
SECTION
  2
CLASSES
  0
CLASS
  1
ACDBDICTIONARYWDFLT
  2
AcDbDictionaryWithDefault
  3
ObjectDBX Classes
 90
        0
280
     0
281
     0
  0
CLASS
  1
ACDBPLACEHOLDER
  2
AcDbPlaceHolder
  3
ObjectDBX Classes
 90
        0
280
     0
281
     0
  0
CLASS
  1
LAYOUT
  2
AcDbLayout
  3
ObjectDBX Classes
 90
        0
280
     0
281
     0
  0
CLASS
  1
ACME_DOCUMENT
  2
AcMeDbDoc
  3
AcMeServices
 90
        0
280
     0
281
     0
  0
CLASS
  1
AMGSETTINGSOBJ
  2
AmgSettingsObj
  3
"AcadM|Product Description: AutoCAD Mechanical 2000|Company: Autodesk"
 90
        0
280
     0
281
     0
  0
CLASS
  1
ACMESCOPE
  2
AcMeScope
  3
AcMeServices
 90
        0
280
     0
281
     0
  0
CLASS
  1
ACMECOMMANDHISTORY
  2
AcMeCommandHistory
  3
AcMeServices
 90
        0
280
     0
281
     0
  0
CLASS
  1
ACIMSYSVARMAN
  2
AcImSysVarManager
  3
AcMeServices
 90
        0
280
     0
281
     0
  0
CLASS
  1
ACIMREALSYSVAR
  2
AcImRealSysVar
  3
AcMeServices
 90
        0
280
     0
281
     0
  0
CLASS
  1
ACIMINTSYSVAR
  2
AcImIntSysVar
  3
AcMeServices
 90
        0
280
     0
281
     0
  0
CLASS
  1
ACMEDRAWINGMAN
  2
AcMeDrawingMan
  3
AcMeServices
 90
        0
280
     0
281
     0
  0
CLASS
  1
ACMEVIEW
  2
AcMeView
  3
AcMeServices
 90
        0
280
     0
281
     0
  0
CLASS
  1
ACDBENTITYCACHE
  2
AcMeEntityCache
  3
AcMeServices
 90
        0
280
     0
281
     0
  0
CLASS
  1
GSMANAGER
  2
AcMeGSManager
  3
AcMeServices
 90
        0
280
     0
281
     0
  0
CLASS
  1
AMDTINTERNALREACTOR
  2
AmdtInternalReactor
  3
AcMeServices
 90
        0
280
     0
281
     0
  0
CLASS
  1
ACMESTATEMGR
  2
AcMeStateMgr
  3
AcMeServices
 90
        0
280
     0
281
     0
  0
CLASS
  1
ACGREFMASTER
  2
AcGrefMaster
  3
AcAttribServices
 90
        0
280
     0
281
     0
  0
CLASS
  1
ACME_DATABASE
  2
AcMeDbDatabase
  3
AcMeServices
 90
        0
280
     0
281
     0
  0
CLASS
  1
ACRFINSADJUSTERMGR
  2
AcRfInsAdjusterMgr
  3
AcMeServices
 90
        0
280
     0
281
     0
  0
CLASS
  1
ACGREFACADMASTER
  2
AcGrefacadMaster
  3
AcGrefServices
 90
        0
280
     0
281
     0
  0
CLASS
  1
AMIMASTER
  2
AmiMaster
  3
AmiServices
 90
        0
280
     0
281
     0
  0
CLASS
  1
ACMDATADICTIONARY
  2
AcmDataDictionary
  3
"AcmSymBB|Product Description: AutoCAD Mechanical 2004 DX|Company: Autodesk"
 90
        0
280
     0
281
     0
  0
CLASS
  1
ACMDATAENTRYBLOCK
  2
AcmDataEntryBlock
  3
"AcmSymBB|Product Description: AutoCAD Mechanical 2004 DX|Company: Autodesk"
 90
        0
280
     0
281
     0
  0
CLASS
  1
ACIMSTRSYSVAR
  2
AcImStrSysVar
  3
AcMeServices
 90
        0
280
     0
281
     0
  0
CLASS
  1
ACMSTANDARDISO
  2
AcmStandardISO
  3
"Amdt_StdImp|Product Description: AutoCAD Mechanical 2004 DX|Company: Autodesk"
 90
        0
280
     0
281
     0
  0
CLASS
  1
AMGOBJPROPCFG
  2
AmgObjPropCfg
  3
"AmgLay|Product Description: AutoCAD Mechanical 2000|Company: Autodesk"
 90
        1
280
     0
281
     0
  0
CLASS
  1
AMDTEDGESTANDARDISO
  2
AmdtEdgeStdISO
  3
"Amdt_StdImp|Product Description: AutoCAD Mechanical 2004 DX|Company: Autodesk"
 90
        0
280
     0
281
     0
  0
CLASS
  1
ACMSURFSTANDARDISO
  2
AcmSurfTextStdISO
  3
"Amdt_StdImp|Product Description: AutoCAD Mechanical 2004 DX|Company: Autodesk"
 90
        0
280
     0
281
     0
  0
CLASS
  1
ACMFCFSTANDARDISO
  2
AcmFCFStdISO
  3
"Amdt_StdImp|Product Description: AutoCAD Mechanical 2004 DX|Company: Autodesk"
 90
        0
280
     0
281
     0
  0
CLASS
  1
ACMWELDSTANDARDISO
  2
AcmWeldingStdISO
  3
"Amdt_StdImp|Product Description: AutoCAD Mechanical 2004 DX|Company: Autodesk"
 90
        0
280
     0
281
     0
  0
CLASS
  1
ACMIDSTANDARDISO
  2
AcmIdStdISO
  3
"Amdt_StdImp|Product Description: AutoCAD Mechanical 2004 DX|Company: Autodesk"
 90
        0
280
     0
281
     0
  0
CLASS
  1
ACMDATUMSTANDARDISO
  2
AcmDatumStdISO
  3
"Amdt_StdImp|Product Description: AutoCAD Mechanical 2004 DX|Company: Autodesk"
 90
        0
280
     0
281
     0
  0
CLASS
  1
ACMBOMSTANDARDISO
  2
AcmBOMStdISO
  3
"Amdt_StdImp|Product Description: AutoCAD Mechanical 2004 DX|Company: Autodesk"
 90
        0
280
     0
281
     0
  0
CLASS
  1
ACMDETAILSTANDARDISO
  2
AmdtDetailSymStdISO
  3
"Amdt_StdImp|Product Description: AutoCAD Mechanical 2004 DX|Company: Autodesk"
 90
        0
280
     0
281
     0
  0
CLASS
  1
ACMSECTIONSTANDARDISO
  2
AmdtSectionSymStdISO
  3
"Amdt_StdImp|Product Description: AutoCAD Mechanical 2004 DX|Company: Autodesk"
 90
        0
280
     0
281
     0
  0
CLASS
  1
ACMCENTERLINESTANDARDISO
  2
AmdtCenterLineStdISO
  3
"Amdt_StdImp|Product Description: AutoCAD Mechanical 2004 DX|Company: Autodesk"
 90
        0
280
     0
281
     0
  0
CLASS
  1
ACMNOTESTANDARDISO
  2
AmdtNoteStdISO
  3
"Amdt_StdImp|Product Description: AutoCAD Mechanical 2004 DX|Company: Autodesk"
 90
        0
280
     0
281
     0
  0
CLASS
  1
ACAMGLAYSTD
  2
AcAmgLayStd
  3
"AcAmgLayStd|Product Description: AutoCAD Mechanical 2000|Company: Autodesk"
 90
        0
280
     0
281
     0
  0
CLASS
  1
ACAMGDIMSTD
  2
AcAmgDimStd
  3
"AcAmgDimStd|Product Description: AutoCAD Mechanical 2000|Company: Autodesk"
 90
        0
280
     0
281
     0
  0
CLASS
  1
ACAMGHOLECHARTSTDISO
  2
AcAmgHoleChartStdISO
  3
ACMSYMBB_MODULE_NAME
 90
        0
280
     0
281
     0
  0
CLASS
  1
ACAMGTITLESTD
  2
AcAmgTitleStd
  3
"TITLEAPP"
 90
        0
280
     0
281
     0
  0
CLASS
  1
LAYER_INDEX
  2
AcDbLayerIndex
  3
ObjectDBX Classes
 90
    32768
280
     0
281
     0
  0
CLASS
  1
IDBUFFER
  2
AcDbIdBuffer
  3
ObjectDBX Classes
 90
    32768
280
     0
281
     0
  0
CLASS
  1
DICTIONARYVAR
  2
AcDbDictionaryVar
  3
ObjectDBX Classes
 90
        0
280
     0
281
     0
  0
CLASS
  1
AM_DRAWING_MGR
  2
AcDmDwgMgr
  3
AcMechDwgViewMgmt
 90
        0
280
     0
281
     0
  0
CLASS
  1
AM_DWG_DOCUMENT
  2
AcDmDwgDocument
  3
AcMechDwgViewMgmt
 90
        0
280
     0
281
     0
  0
CLASS
  1
AM_DWG_SHEET
  2
AcDmSheet
  3
AcMechDwgViewMgmt
 90
        0
280
     0
281
     0
  0
CLASS
  1
AM_VIEWDIMPARMAP
  2
AcDmViewDimParMap
  3
AcMechDwgViewMgmt
 90
        0
280
     0
281
     0
  0
CLASS
  1
AM_DWGMGR_NAME
  2
AcDmDwgMgrName
  3
AcMechDwgViewMgmt
 90
        0
280
     0
281
     0
  0
CLASS
  1
AMDTMENUSTATEMGR
  2
AmdtMenuStateMgr
  3
McadcomServices
 90
        0
280
     0
281
     0
  0
CLASS
  1
AMDTMCOMMENUSTATE
  2
AmdtMcomMenuState
  3
McadcomServices
 90
        0
280
     0
281
     0
  0
CLASS
  1
MAPIAMMOUDLE
  2
MApiAmModule
  3
MApiAmServices
 90
        0
280
     0
281
     0
  0
CLASS
  1
AMDTADMENUSTATE
  2
AmdtAdMenuState
  3
DesignerServices
 90
        0
280
     0
281
     0
  0
CLASS
  1
ADAPPL
  2
AcAdAppl
  3
DesignerServices
 90
        0
280
     0
281
     0
  0
CLASS
  1
DEPMGR
  2
AcAdDepMgr
  3
DesignerServices
 90
        0
280
     0
281
     0
  0
CLASS
  1
PARAMMGR
  2
AcAdParamMgr
  3
DesignerServices
 90
        0
280
     0
281
     0
  0
CLASS
  1
PARAMSCOPE
  2
AcAdParamScope
  3
DesignerServices
 90
        0
280
     0
281
     0
  0
CLASS
  1
NAMEDAPPL
  2
AcAdNamedAppl
  3
DesignerServices
 90
        0
280
     0
281
     0
  0
CLASS
  1
AMDTDMMENUSTATE
  2
AmdtDmMenuState
  3
AcMechDwgViewMgmt
 90
        0
280
     0
281
     0
  0
CLASS
  1
AMDTAMMENUSTATE
  2
AmdtAmMenuState
  3
DesignerAssemblies
 90
        0
280
     0
281
     0
  0
CLASS
  1
ACAMPROJECT
  2
AcAmProject
  3
DesignerAssemblies
 90
        0
280
     0
281
     0
  0
CLASS
  1
ACAMGRCOMPDEF
  2
AcAmGrCompDef
  3
DesignerAssemblies
 90
        0
280
     0
281
     0
  0
CLASS
  1
ACCMCONTEXT
  2
AcCmContext
  3
DesignerAssemblies
 90
        0
280
     0
281
     0
  0
CLASS
  1
ACAMCOMPDEF
  2
AcAmCompDef
  3
DesignerAssemblies
 90
        0
280
     0
281
     0
  0
CLASS
  1
ACAMCOMPDEFMGR
  2
AcAmCompDefMgr
  3
DesignerAssemblies
 90
        0
280
     0
281
     0
  0
CLASS
  1
AMCONTEXTMGR
  2
AcAmContextMgr
  3
DesignerAssemblies
 90
        0
280
     0
281
     0
  0
CLASS
  1
ACAMCONTEXTMODELER
  2
AcAmContextModeler
  3
DesignerAssemblies
 90
        0
280
     0
281
     0
  0
CLASS
  1
ACMTHREADLINESTANDARDISO
  2
AmdtThreadLineStdISO
  3
"Amdt_StdImp|Product Description: AutoCAD Mechanical 2004 DX|Company: Autodesk"
 90
        0
280
     0
281
     0
  0
CLASS
  1
CATALOGSTATE
  2
AcAmCatalogState
  3
DesignerAssemblies
 90
        0
280
     0
281
     0
  0
CLASS
  1
ACAMGRCOMPDEFSET
  2
AcAmGrCompDefSet
  3
DesignerAssemblies
 90
        0
280
     0
281
     0
  0
CLASS
  1
AMDTBROWSERDBTAB
  2
AmdtBrowserDbTab
  3
McadcomServices
 90
        0
280
     0
281
     0
  0
CLASS
  1
CBROWSERAPPOBJECT
  2
CBrowserAppObject
  3
McadcomServices
 90
        0
280
     0
281
     0
  0
CLASS
  1
DM_PLACEHOLDER
  2
AcDmSelsetPlaceholder
  3
AcMechDwgViewMgmt
 90
        0
280
     0
281
     0
  0
CLASS
  1
TABLESTYLE
  2
AcDbTableStyle
  3
ObjectDBX Classes
 90
     2047
280
     0
281
     0
  0
CLASS
  1
VAACXREFPANELOBJECT
  2
VaAcXREFPanelObject
  3
VAAC_ADDIN
 90
    32768
280
     0
281
     0
  0
CLASS
  1
VAACIMAGEINVENTORY
  2
VaAcImageInventory
  3
VAAC_ADDIN
 90
    32768
280
     0
281
     0
  0
CLASS
  1
AMDTNOTETEMPLATEDB
  2
AmdtNoteTemplateDB
  3
AMDT_STDIMP_MODULE_NAME
 90
        0
280
     0
281
     0
  0
CLASS
  1
ACMBOM
  2
AcmBom
  3
"AcmSymBB|Product Description: AutoCAD Mechanical 2004 DX|Company: Autodesk"
 90
    32768
280
     0
281
     0
  0
CLASS
  1
AMDTFORMULAUPDATEDISPATCHER
  2
AmdtFormulaUpdateDispatcher
  3
AcMeServices
 90
    32768
280
     0
281
     0
  0
CLASS
  1
ACMPARTLIST
  2
AcmPartList
  3
"AcmSymBB|Product Description: AutoCAD Mechanical 2004 DX|Company: Autodesk"
 90
    33791
280
     0
281
     1
  0
CLASS
  1
ACAMGFILTERDAT
  2
AcAmgFilterDat
  3
"AcadM|Product Description: AutoCAD Mechanical 2000|Company: Autodesk"
 90
        0
280
     0
281
     0
  0
CLASS
  1
DIMASSOC
  2
AcDbDimAssoc
  3
"AcDbDimAssoc|Product Desc:     AcDim ARX App For Dimension|Company:          Autodesk, Inc.|WEB Address:      www.autodesk.com"
 90
        0
280
     0
281
     0
  0
CLASS
  1
AMDTNOTE
  2
AmdtNote
  3
"AcmSymBB|Product Description: AutoCAD Mechanical 2004 DX|Company: Autodesk"
 90
     1023
280
     0
281
     1
  0
CLASS
  1
SORTENTSTABLE
  2
AcDbSortentsTable
  3
ObjectDBX Classes
 90
        0
280
     0
281
     0
  0
CLASS
  1
STDPART2D
  2
AmgStdPart
  3
"AmgStdPart|Product Description: AutoCAD Mechanical 2000|Company: Autodesk"
 90
    33791
280
     0
281
     1
  0
CLASS
  1
ACAMSTDPCOMPDEF
  2
AcAmStdpCompDef
  3
DesignerAssemblies
 90
    32768
280
     0
281
     0
  0
CLASS
  1
ACRFATTGENMGR
  2
AcRfAttGeneralMgr
  3
AcAttribServices
 90
        0
280
     0
281
     0
  0
CLASS
  1
ACRFOBJATTMGR
  2
AcRfObjAttGroupMgr
  3
AcAttribServices
 90
    32768
280
     0
281
     0
  0
CLASS
  1
ACRFMCADAPIATTHOLDER
  2
AcRfMCADAPIAttHolder
  3
AcAttribServices
 90
    32768
280
     0
281
     0
  0
CLASS
  1
AMDTSYSATTR
  2
AmdtSystemAttribute
  3
AcAttribServices
 90
    32768
280
     0
281
     0
  0
CLASS
  1
ACAMCOMP
  2
AcAmComp
  3
DesignerAssemblies
 90
    32768
280
     0
281
     0
  0
CLASS
  1
AC_AM_STDP_VIEW_DEF
  2
AcAmStdpViewDef
  3
DesignerAssemblies
 90
    32768
280
     0
281
     0
  0
CLASS
  1
AC_AM_MVD_DEP_MGR
  2
AcAmMVDdepMgr
  3
DesignerAssemblies
 90
        0
280
     0
281
     0
  0
CLASS
  1
AC_AM_MASTER_VIEW_DEF
  2
AcAmMasterViewDef
  3
DesignerAssemblies
 90
        0
280
     0
281
     0
  0
CLASS
  1
AC_AM_DIRTY_NODES
  2
AcAmDirtyNodes
  3
DesignerAssemblies
 90
        0
280
     0
281
     0
  0
CLASS
  1
AC_AM_MAPPER_CACHE
  2
AcAmMapperCache
  3
DesignerAssemblies
 90
        0
280
     0
281
     0
  0
CLASS
  1
ACAMMVDBACKUPOBJECT
  2
AcAmMVDBackupObject
  3
DesignerAssemblies
 90
        0
280
     0
281
     0
  0
CLASS
  1
AC_AM_COMP_VIEW_INST
  2
AcAmCompView
  3
DesignerAssemblies
 90
    32768
280
     0
281
     0
  0
CLASS
  1
AC_AM_2D_XREF_MGR
  2
AcAmXrefMgr2d
  3
DesignerAssemblies
 90
        0
280
     0
281
     0
  0
ENDSEC
  0
SECTION
  2
TABLES
  0
TABLE
  2
VPORT
  5
8
330
0
100
AcDbSymbolTable
 70
    30
  0
VPORT
  5
250F
330
8
100
AcDbSymbolTableRecord
100
AcDbViewportTableRecord
  2
*Active
 70
     0
 10
0.0
 20
0.0
 11
1.0
 21
1.0
 12
265.4592842485305
 22
342.4385681087714
 13
0.0
 23
0.0
 14
2.5
 24
2.5
 15
10.0
 25
10.0
 16
0.0
 26
0.0
 36
1.0
 17
0.0
 27
0.0
 37
0.0
 40
282.3510536618174
 41
1.661684782608695
 42
50.0
 43
0.0
 44
0.0
 50
0.0
 51
0.0
 71
     0
 72
   100
 73
     1
 74
     3
 75
     0
 76
     0
 77
     0
 78
     0
281
     0
 65
     1
110
0.0
120
0.0
130
0.0
111
1.0
121
0.0
131
0.0
112
0.0
122
1.0
132
0.0
 79
     0
146
0.0
  0
ENDTAB
  0
TABLE
  2
LTYPE
  5
5
330
0
100
AcDbSymbolTable
 70
    15
  0
LTYPE
  5
14
330
5
100
AcDbSymbolTableRecord
100
AcDbLinetypeTableRecord
  2
ByBlock
 70
     0
  3

 72
    65
 73
     0
 40
0.0
  0
LTYPE
  5
15
330
5
100
AcDbSymbolTableRecord
100
AcDbLinetypeTableRecord
  2
ByLayer
 70
     0
  3

 72
    65
 73
     0
 40
0.0
  0
LTYPE
  5
16
330
5
100
AcDbSymbolTableRecord
100
AcDbLinetypeTableRecord
  2
Continuous
 70
     0
  3
Solid line
 72
    65
 73
     0
 40
0.0
  0
LTYPE
  5
64
330
5
100
AcDbSymbolTableRecord
100
AcDbLinetypeTableRecord
  2
AM_ISO02W050
 70
     0
  3
__ __ __ __ __ __ __ __ __ __ __ __ __ __ __
 72
    65
 73
     2
 40
7.5
 49
6.0
 74
     0
 49
-1.5
 74
     0
  0
LTYPE
  5
65
330
5
100
AcDbSymbolTableRecord
100
AcDbLinetypeTableRecord
  2
AM_ISO08W050
 70
     0
  3
____ . ____ . ____ . ____ . ____ . ____ . ____
 72
    65
 73
     4
 40
18.0
 49
12.0
 74
     0
 49
-1.5
 74
     0
 49
3.0
 74
     0
 49
-1.5
 74
     0
  0
LTYPE
  5
66
330
5
100
AcDbSymbolTableRecord
100
AcDbLinetypeTableRecord
  2
AM_ISO09W050
 70
     0
  3
_____ . . _____ . . _____ . . ____ .. ____
 72
    65
 73
     6
 40
22.5
 49
12.0
 74
     0
 49
-1.5
 74
     0
 49
3.0
 74
     0
 49
-1.5
 74
     0
 49
3.0
 74
     0
 49
-1.5
 74
     0
  0
LTYPE
  5
67
330
5
100
AcDbSymbolTableRecord
100
AcDbLinetypeTableRecord
  2
Amconstr
 70
     0
  3
_______________________
 72
    65
 73
     2
 40
9999.0
 49
9999.0
 74
     0
 49
0.0
 74
     0
  0
LTYPE
  5
68
330
5
100
AcDbSymbolTableRecord
100
AcDbLinetypeTableRecord
  2
AM_ISO08W050x2
 70
     0
  3
__ . __ . __ . __ . __ . __
 72
    65
 73
     4
 40
9.0
 49
6.0
 74
     0
 49
-0.75
 74
     0
 49
1.5
 74
     0
 49
-0.75
 74
     0
  0
LTYPE
  5
69
330
5
100
AcDbSymbolTableRecord
100
AcDbLinetypeTableRecord
  2
AM_ISO02W050x2
 70
     0
  3
 _ _ _ _ _ _ _ _ _ _ _ _
 72
    65
 73
     2
 40
3.75
 49
3.0
 74
     0
 49
-0.75
 74
     0
  0
LTYPE
  5
6C
330
5
100
AcDbSymbolTableRecord
100
AcDbLinetypeTableRecord
  2
Amzigzag
 70
     0
  3
/\/-/\/-/\/-/\/-/\/-/\/
 72
    65
 73
     2
 40
11.0001
 49
0.0001
 74
     4
 75
   135
340
6B
 46
0.04
 50
0.0
 44
0.0
 45
0.0
 49
-11.0
 74
     0
  0
LTYPE
  5
7A
330
5
100
AcDbSymbolTableRecord
100
AcDbLinetypeTableRecord
  2
ACISOWELD
 70
     0
  3
_ _ _ _ _
 72
    65
 73
     2
 40
2.0
 49
2.0
 74
     0
 49
-1.0
 74
     0
  0
LTYPE
  5
7B
330
5
100
AcDbSymbolTableRecord
100
AcDbLinetypeTableRecord
  2
ACISOTGB
 70
     0
  3
__ . . __ . .
 72
    65
 73
     6
 40
9.0
 49
4.0
 74
     0
 49
-1.0
 74
     0
 49
1.0
 74
     0
 49
-1.0
 74
     0
 49
1.0
 74
     0
 49
-1.0
 74
     0
  0
LTYPE
  5
7C
330
5
100
AcDbSymbolTableRecord
100
AcDbLinetypeTableRecord
  2
ACISOTGL
 70
     0
  3
_ _ _ _ _
 72
    65
 73
     2
 40
3.0
 49
2.0
 74
     0
 49
-1.0
 74
     0
  0
LTYPE
  5
7E
330
5
100
AcDbSymbolTableRecord
100
AcDbLinetypeTableRecord
  2
CENTER
 70
     0
  3
__ . __
 72
    65
 73
     4
 40
7.0
 49
4.0
 74
     0
 49
-1.0
 74
     0
 49
1.0
 74
     0
 49
-1.0
 74
     0
  0
LTYPE
  5
D8
330
5
100
AcDbSymbolTableRecord
100
AcDbLinetypeTableRecord
  2
HIDDEN
 70
     0
  3
Hidden __ __ __ __ __ __ __ __ __ __ __ __ __ _
 72
    65
 73
     2
 40
9.524999999999998
 49
6.349999999999999
 74
     0
 49
-3.174999999999999
 74
     0
  0
LTYPE
  5
D9
330
5
100
AcDbSymbolTableRecord
100
AcDbLinetypeTableRecord
  2
PHANTOM2
 70
     0
  3
Phantom (.5x) ___ _ _ ___ _ _ ___ _ _ ___ _ _
 72
    65
 73
     6
 40
31.75
 49
15.875
 74
     0
 49
-3.174999999999999
 74
     0
 49
3.174999999999999
 74
     0
 49
-3.174999999999999
 74
     0
 49
3.174999999999999
 74
     0
 49
-3.174999999999999
 74
     0
  0
ENDTAB
  0
TABLE
  2
LAYER
  5
2
102
{ACAD_XDICTIONARY
360
3F9
102
}
330
0
100
AcDbSymbolTable
 70
     8
  0
LAYER
  5
10
330
2
100
AcDbSymbolTableRecord
100
AcDbLayerTableRecord
  2
0
 70
     0
 62
     7
  6
Continuous
370
    -3
390
F
  0
LAYER
  5
BDE
330
2
100
AcDbSymbolTableRecord
100
AcDbLayerTableRecord
  2
Defpoints
 70
     0
 62
     7
  6
Continuous
290
     0
370
    -3
390
F
  0
LAYER
  5
128E
330
2
100
AcDbSymbolTableRecord
100
AcDbLayerTableRecord
  2
AM_7
 70
     0
 62
     1
  6
CENTER
370
    25
390
F
  0
LAYER
  5
1312
330
2
100
AcDbSymbolTableRecord
100
AcDbLayerTableRecord
  2
AM_5
 70
     0
 62
     5
  6
Continuous
370
    50
390
F
  0
LAYER
  5
1504
330
2
100
AcDbSymbolTableRecord
100
AcDbLayerTableRecord
  2
AM_0
 70
     0
 62
     7
  6
Continuous
370
    50
390
F
  0
LAYER
  5
1505
330
2
100
AcDbSymbolTableRecord
100
AcDbLayerTableRecord
  2
AM_4
 70
     0
 62
     3
  6
Continuous
370
    25
390
F
  0
LAYER
  5
1FB7
330
2
100
AcDbSymbolTableRecord
100
AcDbLayerTableRecord
  2
LOGO
 70
     0
 62
     7
  6
Continuous
370
    -3
390
F
  0
ENDTAB
  0
TABLE
  2
STYLE
  5
3
330
0
100
AcDbSymbolTable
 70
     6
  0
STYLE
  5
11
330
3
100
AcDbSymbolTableRecord
100
AcDbTextStyleTableRecord
  2
STANDARD
 70
     0
 40
0.0
 41
1.0
 50
0.0
 71
     0
 42
3.0
  3
ISOCP.SHX
  4
CHINESET.SHX
  0
STYLE
  5
6B
330
3
100
AcDbSymbolTableRecord
100
AcDbTextStyleTableRecord
  2

 70
     1
 40
0.0
 41
1.0
 50
0.0
 71
     0
 42
2.5
  3
ltypeshp.shx
  4

  0
STYLE
  5
6D
330
3
100
AcDbSymbolTableRecord
100
AcDbTextStyleTableRecord
  2
ACISOTS
 70
     0
 40
1.0
 41
1.0
 50
0.0
 71
     0
 42
1.0
  3
isocp.shx
  4
chineset.shx
  0
STYLE
  5
79
330
3
100
AcDbSymbolTableRecord
100
AcDbTextStyleTableRecord
  2
ACISOGDT
 70
     0
 40
0.0
 41
1.0
 50
0.0
 71
     0
 42
2.5
  3
amgdt.shx
  4
chineset.shx
  0
STYLE
  5
1FB8
330
3
100
AcDbSymbolTableRecord
100
AcDbTextStyleTableRecord
  2
CHINESET
 70
     0
 40
0.0
 41
1.0
 50
0.0
 71
     0
 42
3.0
  3
simplex.shx
  4
CHINESET.SHX
  0
ENDTAB
  0
TABLE
  2
VIEW
  5
6
330
0
100
AcDbSymbolTable
 70
     0
  0
ENDTAB
  0
TABLE
  2
UCS
  5
7
330
0
100
AcDbSymbolTable
 70
     0
  0
ENDTAB
  0
TABLE
  2
APPID
  5
9
330
0
100
AcDbSymbolTable
 70
    27
  0
APPID
  5
12
330
9
100
AcDbSymbolTableRecord
100
AcDbRegAppTableRecord
  2
ACAD
 70
     0
  0
APPID
  5
46
330
9
100
AcDbSymbolTableRecord
100
AcDbRegAppTableRecord
  2
MCAD_NO_VIS
 70
     0
  0
APPID
  5
47
330
9
100
AcDbSymbolTableRecord
100
AcDbRegAppTableRecord
  2
ACAD_TEMP_GRAPHIC
 70
     0
  0
APPID
  5
58
330
9
100
AcDbSymbolTableRecord
100
AcDbRegAppTableRecord
  2
ACATTRIBSERVICES
 70
     0
  0
APPID
  5
EE
330
9
100
AcDbSymbolTableRecord
100
AcDbRegAppTableRecord
  2
AD_DRAW
 70
     0
  0
APPID
  5
10C
330
9
100
AcDbSymbolTableRecord
100
AcDbRegAppTableRecord
  2
DESIGNERASSEMBLIES
 70
     0
  0
APPID
  5
111
330
9
100
AcDbSymbolTableRecord
100
AcDbRegAppTableRecord
  2
ACADM_DIM_EDIT
 70
     0
  0
APPID
  5
112
330
9
100
AcDbSymbolTableRecord
100
AcDbRegAppTableRecord
  2
AMDT_DM_ADJ
 70
     0
  0
APPID
  5
22C
330
9
100
AcDbSymbolTableRecord
100
AcDbRegAppTableRecord
  2
ACAD_DSTYLE_DIMTEXT_FILL
 70
     0
  0
APPID
  5
452
330
9
100
AcDbSymbolTableRecord
100
AcDbRegAppTableRecord
  2
GENIUS_GENOENT_13
 70
     0
  0
APPID
  5
453
330
9
100
AcDbSymbolTableRecord
100
AcDbRegAppTableRecord
  2
GENIUS_GENOBJ-N-CRS_13
 70
     0
  0
APPID
  5
454
330
9
100
AcDbSymbolTableRecord
100
AcDbRegAppTableRecord
  2
GENIUS_GENOLIS_13
 70
     0
  0
APPID
  5
455
330
9
100
AcDbSymbolTableRecord
100
AcDbRegAppTableRecord
  2
GENIUS_GENODEF_13
 70
     0
  0
APPID
  5
456
330
9
100
AcDbSymbolTableRecord
100
AcDbRegAppTableRecord
  2
GENIUS_GENOREF_13
 70
     0
  0
APPID
  5
6F3
330
9
100
AcDbSymbolTableRecord
100
AcDbRegAppTableRecord
  2
ACAD_PSEXT
 70
     0
  0
APPID
  5
808
330
9
100
AcDbSymbolTableRecord
100
AcDbRegAppTableRecord
  2
GENIUS_GENDTOL_13
 70
     0
  0
APPID
  5
1290
330
9
100
AcDbSymbolTableRecord
100
AcDbRegAppTableRecord
  2
GENIUS_GENOBJ-N-CEN_13
 70
     0
  0
APPID
  5
1291
330
9
100
AcDbSymbolTableRecord
100
AcDbRegAppTableRecord
  2
GENIUS_GENCEN_19
 70
     0
  0
APPID
  5
1B6F
330
9
100
AcDbSymbolTableRecord
100
AcDbRegAppTableRecord
  2
GEVID1179476390
 70
     0
  0
APPID
  5
1B70
330
9
100
AcDbSymbolTableRecord
100
AcDbRegAppTableRecord
  2
GEVDC
 70
     0
  0
APPID
  5
1B71
330
9
100
AcDbSymbolTableRecord
100
AcDbRegAppTableRecord
  2
GEVRADREF
 70
     0
  0
APPID
  5
1B7A
330
9
100
AcDbSymbolTableRecord
100
AcDbRegAppTableRecord
  2
AMG_2DHIDE
 70
     0
  0
APPID
  5
1B7B
330
9
100
AcDbSymbolTableRecord
100
AcDbRegAppTableRecord
  2
AMG_2DSTRUCT_BTR
 70
     0
  0
APPID
  5
1B8C
330
9
100
AcDbSymbolTableRecord
100
AcDbRegAppTableRecord
  2
ACADM_2DVIEW_IGN_NOTIFY
 70
     0
  0
APPID
  5
1C43
330
9
100
AcDbSymbolTableRecord
100
AcDbRegAppTableRecord
  2
GENIUS_GENDIMSH_14
 70
     0
  0
APPID
  5
1FB9
330
9
100
AcDbSymbolTableRecord
100
AcDbRegAppTableRecord
  2
GENIUS_GENREC_14
 70
     0
  0
APPID
  5
1FBA
330
9
100
AcDbSymbolTableRecord
100
AcDbRegAppTableRecord
  2
GENIUS_GENOBJ-N-REC_13
 70
     0
  0
ENDTAB
  0
TABLE
  2
DIMSTYLE
  5
A
330
0
100
AcDbSymbolTable
 70
     9
100
AcDbDimStyleTable
 71
     3
340
81
340
8B
340
86
  0
DIMSTYLE
105
81
330
A
100
AcDbSymbolTableRecord
100
AcDbDimStyleTableRecord
  2
AM_ISO
 70
     0
  4
"
 41
3.0
 42
1.0
 43
8.0
 44
1.5
 47
0.1
 48
0.1
 73
     0
 74
     0
 77
     1
 78
     8
 79
     2
140
3.5
141
0.0
143
0.0393701
146
0.6
147
0.7
172
     1
176
   256
177
   256
178
   256
271
     2
272
     2
283
     0
284
     8
340
11
371
    -1
372
    -1
  0
DIMSTYLE
105
82
102
{ACAD_REACTORS
330
1D2B
102
}
330
A
100
AcDbSymbolTableRecord
100
AcDbDimStyleTableRecord
  2
AM_ISO$3
 70
     0
  4
"
 41
3.0
 42
1.0
 43
8.0
 44
1.5
 47
0.1
 48
0.1
 73
     0
 77
     1
 78
     8
 79
     2
140
3.5
141
0.0
143
0.0393701
146
0.6
147
0.7
176
   256
177
   256
178
   256
271
     2
272
     2
283
     0
284
     8
288
     1
289
     0
340
11
371
    -1
372
    -1
  0
DIMSTYLE
105
83
330
A
100
AcDbSymbolTableRecord
100
AcDbDimStyleTableRecord
  2
AM_ISO$4
 70
     0
  4
"
 41
3.0
 42
1.0
 43
8.0
 44
1.5
 47
0.1
 48
0.1
 73
     0
 77
     1
 78
     8
 79
     2
140
3.5
141
0.0
143
0.0393701
146
0.6
147
0.7
176
   256
177
   256
178
   256
271
     2
272
     2
283
     0
284
     8
288
     1
289
     0
340
11
371
    -1
372
    -1
  0
DIMSTYLE
105
84
330
A
100
AcDbSymbolTableRecord
100
AcDbDimStyleTableRecord
  2
AM_ISO$6
 70
     0
  4
"
 41
3.0
 42
1.0
 43
8.0
 44
1.5
 47
0.1
 48
0.1
 73
     0
 74
     0
 78
     8
 79
     2
140
3.5
141
0.0
143
0.0393701
146
0.6
147
0.7
172
     1
176
   256
177
   256
178
   256
271
     2
272
     2
283
     0
284
     8
340
11
371
    -1
372
    -1
  0
DIMSTYLE
105
85
330
A
100
AcDbSymbolTableRecord
100
AcDbDimStyleTableRecord
  2
AM_ISO$7
 70
     0
  4
"
 41
3.0
 42
1.0
 43
8.0
 44
1.5
 47
0.1
 48
0.1
 73
     0
 74
     0
 77
     1
 78
     8
 79
     2
140
5.0
141
0.0
143
0.0393701
146
0.6
147
0.7
172
     1
176
   256
177
   256
178
   256
271
     2
272
     2
283
     0
284
     8
340
11
371
    -1
372
    -1
  0
DIMSTYLE
105
86
330
A
100
AcDbSymbolTableRecord
100
AcDbDimStyleTableRecord
  2
AM_ISO$SF
 70
     0
  4
"
 41
2.5
 42
1.0
 43
10.0
 44
1.0
 47
0.1
 48
0.1
 73
     0
 74
     0
 75
     1
 76
     1
 77
     1
 78
     8
 79
     2
140
3.5
141
0.0
143
0.0393701
146
0.71
147
1.5
172
     1
176
   256
177
   256
178
     2
271
     2
272
     3
274
     4
283
     0
284
     8
340
11
371
    -1
372
    -1
  0
DIMSTYLE
105
8B
330
A
100
AcDbSymbolTableRecord
100
AcDbDimStyleTableRecord
  2
AM_ISO$SH
 70
     0
  4
"
 41
2.5
 42
1.0
 43
10.0
 44
1.0
 47
0.1
 48
0.1
 73
     0
 74
     0
 75
     1
 76
     1
 77
     1
 78
     8
 79
     2
140
3.5
141
0.0
143
0.0393701
144
2.0
146
0.71
147
1.5
172
     1
173
     1
176
   256
177
   256
178
     2
271
     2
272
     3
274
     4
283
     0
284
     8
340
11
343
87
371
    -1
372
    -1
  0
DIMSTYLE
105
40B
102
{ACAD_REACTORS
330
EC8
330
EC7
330
ECD
330
ED2
330
ED1
330
ED0
330
ECE
330
ED6
330
ED4
330
ED3
330
ED9
330
ED8
330
F8C
330
ECC
330
ECB
330
ECA
330
EC9
330
1BF7
330
1C27
330
ED7
102
}
330
A
100
AcDbSymbolTableRecord
100
AcDbDimStyleTableRecord
  2
AM_ISO$0
 70
     0
  4
"
 41
3.0
 42
1.0
 43
8.0
 44
1.5
 47
0.1
 48
0.1
 73
     0
 74
     0
 77
     1
 78
     8
 79
     2
140
3.5
141
0.0
143
0.0393701
146
0.6
147
0.7
172
     1
176
   256
177
   256
178
   256
271
     2
272
     2
283
     0
284
     8
340
11
371
    -1
372
    -1
  0
ENDTAB
  0
TABLE
  2
BLOCK_RECORD
  5
1
330
0
100
AcDbSymbolTable
 70
    37
  0
BLOCK_RECORD
  5
1F
102
{ACAD_XDICTIONARY
360
8F
102
}
330
1
100
AcDbSymbolTableRecord
100
AcDbBlockTableRecord
  2
*Model_Space
340
22
  0
BLOCK_RECORD
  5
1B
330
1
100
AcDbSymbolTableRecord
100
AcDbBlockTableRecord
  2
*Paper_Space
340
1E
  0
BLOCK_RECORD
  5
23
330
1
100
AcDbSymbolTableRecord
100
AcDbBlockTableRecord
  2
*Paper_Space0
340
26
  0
BLOCK_RECORD
  5
87
330
1
100
AcDbSymbolTableRecord
100
AcDbBlockTableRecord
  2
GENAXEH
340
0
  0
BLOCK_RECORD
  5
FD2
330
1
100
AcDbSymbolTableRecord
100
AcDbBlockTableRecord
  2
*D3
340
0
  0
BLOCK_RECORD
  5
FDE
330
1
100
AcDbSymbolTableRecord
100
AcDbBlockTableRecord
  2
*D4
340
0
  0
BLOCK_RECORD
  5
FEA
330
1
100
AcDbSymbolTableRecord
100
AcDbBlockTableRecord
  2
*D5
340
0
  0
BLOCK_RECORD
  5
FF6
330
1
100
AcDbSymbolTableRecord
100
AcDbBlockTableRecord
  2
*D6
340
0
  0
BLOCK_RECORD
  5
1002
330
1
100
AcDbSymbolTableRecord
100
AcDbBlockTableRecord
  2
*D7
340
0
  0
BLOCK_RECORD
  5
100E
330
1
100
AcDbSymbolTableRecord
100
AcDbBlockTableRecord
  2
*D8
340
0
  0
BLOCK_RECORD
  5
101A
330
1
100
AcDbSymbolTableRecord
100
AcDbBlockTableRecord
  2
*D9
340
0
  0
BLOCK_RECORD
  5
1026
330
1
100
AcDbSymbolTableRecord
100
AcDbBlockTableRecord
  2
*D10
340
0
  0
BLOCK_RECORD
  5
1032
330
1
100
AcDbSymbolTableRecord
100
AcDbBlockTableRecord
  2
*D11
340
0
  0
BLOCK_RECORD
  5
103E
330
1
100
AcDbSymbolTableRecord
100
AcDbBlockTableRecord
  2
*D12
340
0
  0
BLOCK_RECORD
  5
104A
330
1
100
AcDbSymbolTableRecord
100
AcDbBlockTableRecord
  2
*D13
340
0
  0
BLOCK_RECORD
  5
1056
330
1
100
AcDbSymbolTableRecord
100
AcDbBlockTableRecord
  2
*D14
340
0
  0
BLOCK_RECORD
  5
1064
330
1
100
AcDbSymbolTableRecord
100
AcDbBlockTableRecord
  2
*D15
340
0
  0
BLOCK_RECORD
  5
1070
330
1
100
AcDbSymbolTableRecord
100
AcDbBlockTableRecord
  2
*D16
340
0
  0
BLOCK_RECORD
  5
107B
330
1
100
AcDbSymbolTableRecord
100
AcDbBlockTableRecord
  2
*D17
340
0
  0
BLOCK_RECORD
  5
1089
330
1
100
AcDbSymbolTableRecord
100
AcDbBlockTableRecord
  2
*D18
340
0
  0
BLOCK_RECORD
  5
1095
330
1
100
AcDbSymbolTableRecord
100
AcDbBlockTableRecord
  2
*D19
340
0
  0
BLOCK_RECORD
  5
10F5
330
1
100
AcDbSymbolTableRecord
100
AcDbBlockTableRecord
  2
*D20
340
0
  0
BLOCK_RECORD
  5
14D6
330
1
100
AcDbSymbolTableRecord
100
AcDbBlockTableRecord
  2
GENDOT
340
0
102
{BLKREFS
331
246C
331
2476
102
}
  0
BLOCK_RECORD
  5
1B90
330
1
100
AcDbSymbolTableRecord
100
AcDbBlockTableRecord
  2
*U23
340
0
  0
BLOCK_RECORD
  5
1BF8
330
1
100
AcDbSymbolTableRecord
100
AcDbBlockTableRecord
  2
*D24
340
0
  0
BLOCK_RECORD
  5
1C28
330
1
100
AcDbSymbolTableRecord
100
AcDbBlockTableRecord
  2
*D25
340
0
  0
BLOCK_RECORD
  5
1D2C
330
1
100
AcDbSymbolTableRecord
100
AcDbBlockTableRecord
  2
*D26
340
0
  0
BLOCK_RECORD
  5
24D5
330
1
100
AcDbSymbolTableRecord
100
AcDbBlockTableRecord
  2
*S30
340
0
  0
BLOCK_RECORD
  5
24DD
330
1
100
AcDbSymbolTableRecord
100
AcDbBlockTableRecord
  2
*S31
340
0
  0
BLOCK_RECORD
  5
24E5
330
1
100
AcDbSymbolTableRecord
100
AcDbBlockTableRecord
  2
*S32
340
0
  0
BLOCK_RECORD
  5
24ED
330
1
100
AcDbSymbolTableRecord
100
AcDbBlockTableRecord
  2
*S33
340
0
  0
BLOCK_RECORD
  5
24F5
330
1
100
AcDbSymbolTableRecord
100
AcDbBlockTableRecord
  2
*S34
340
0
  0
BLOCK_RECORD
  5
24FD
330
1
100
AcDbSymbolTableRecord
100
AcDbBlockTableRecord
  2
*S35
340
0
  0
BLOCK_RECORD
  5
2505
330
1
100
AcDbSymbolTableRecord
100
AcDbBlockTableRecord
  2
*S36
340
0
  0
ENDTAB
  0
ENDSEC
  0
SECTION
  2
BLOCKS
  0
BLOCK
  5
20
330
1F
100
AcDbEntity
  8
0
100
AcDbBlockBegin
  2
*Model_Space
 70
     0
 10
0.0
 20
0.0
 30
0.0
  3
*Model_Space
  1

  0
ENDBLK
  5
21
330
1F
100
AcDbEntity
  8
0
100
AcDbBlockEnd
  0
BLOCK
  5
1C
330
1B
100
AcDbEntity
 67
     1
  8
0
100
AcDbBlockBegin
  2
*Paper_Space
 70
     0
 10
0.0
 20
0.0
 30
0.0
  3
*Paper_Space
  1

  0
ENDBLK
  5
1D
330
1B
100
AcDbEntity
 67
     1
  8
0
100
AcDbBlockEnd
  0
BLOCK
  5
24
330
23
100
AcDbEntity
  8
0
100
AcDbBlockBegin
  2
*Paper_Space0
 70
     0
 10
0.0
 20
0.0
 30
0.0
  3
*Paper_Space0
  1

  0
ENDBLK
  5
25
330
23
100
AcDbEntity
  8
0
100
AcDbBlockEnd
  0
BLOCK
  5
89
330
87
100
AcDbEntity
  8
0
100
AcDbBlockBegin
  2
GENAXEH
 70
     0
 10
0.0
 20
0.0
 30
0.0
  3
GENAXEH
  1

  0
LINE
  5
88
330
87
100
AcDbEntity
  8
0
100
AcDbLine
 10
-1.0
 20
0.0
 30
0.0
 11
1.0
 21
0.0
 31
0.0
  0
ENDBLK
  5
8A
330
87
100
AcDbEntity
  8
0
100
AcDbBlockEnd
  0
BLOCK
  5
FDC
330
FD2
100
AcDbEntity
  8
0
100
AcDbBlockBegin
  2
*D3
 70
     1
 10
0.0
 20
0.0
 30
0.0
  3
*D3
  1

  0
LINE
  5
23BC
330
FD2
100
AcDbEntity
  8
AM_5
100
AcDbLine
 10
249.7419602223288
 20
441.6555360683088
 30
0.0
 11
249.7419602223288
 21
453.2297550683088
 31
0.0
  0
LINE
  5
23BD
330
FD2
100
AcDbEntity
  8
AM_5
100
AcDbLine
 10
279.7419602223288
 20
442.7297550683087
 30
0.0
 11
279.7419602223288
 21
453.2297550683088
 31
0.0
  0
LINE
  5
23BE
330
FD2
100
AcDbEntity
  8
AM_5
100
AcDbLine
 10
252.7419602223288
 20
451.7297550683088
 30
0.0
 11
276.7419602223288
 21
451.7297550683088
 31
0.0
  0
SOLID
  5
23BF
330
FD2
100
AcDbEntity
  8
AM_5
100
AcDbTrace
 10
252.7419602223288
 20
452.2297550683088
 30
0.0
 11
252.7419602223288
 21
451.2297550683087
 31
0.0
 12
249.7419602223288
 22
451.7297550683088
 32
0.0
 13
249.7419602223288
 23
451.7297550683088
 33
0.0
  0
SOLID
  5
23C0
330
FD2
100
AcDbEntity
  8
AM_5
100
AcDbTrace
 10
276.7419602223288
 20
452.2297550683088
 30
0.0
 11
276.7419602223288
 21
451.2297550683087
 31
0.0
 12
279.7419602223288
 22
451.7297550683088
 32
0.0
 13
279.7419602223288
 23
451.7297550683088
 33
0.0
  0
MTEXT
  5
23C1
330
FD2
100
AcDbEntity
  8
AM_5
100
AcDbMText
 10
264.7419602223288
 20
454.1797550683088
 30
0.0
 40
3.5
 41
0.0
 71
     5
 72
     1
  1
30
 73
     1
 44
1.0
1001
ACAD
1000
MTEXTBEGIN
1070
    73
1070
     1
1070
    44
1040
1.0
1070
    74
1070
     0
1000
MTEXTEND
  0
POINT
  5
23C2
330
FD2
100
AcDbEntity
  8
Defpoints
 62
     0
100
AcDbPoint
 10
249.7419602223288
 20
440.6555360683088
 30
0.0
  0
POINT
  5
23C3
330
FD2
100
AcDbEntity
  8
Defpoints
 62
     0
100
AcDbPoint
 10
279.7419602223288
 20
441.7297550683088
 30
0.0
  0
POINT
  5
23C4
330
FD2
100
AcDbEntity
  8
Defpoints
 62
     0
100
AcDbPoint
 10
279.7419602223288
 20
451.7297550683088
 30
0.0
  0
ENDBLK
  5
FDD
330
FD2
100
AcDbEntity
  8
0
100
AcDbBlockEnd
  0
BLOCK
  5
FE8
330
FDE
100
AcDbEntity
  8
0
100
AcDbBlockBegin
  2
*D4
 70
     1
 10
0.0
 20
0.0
 30
0.0
  3
*D4
  1

  0
LINE
  5
23C5
330
FDE
100
AcDbEntity
  8
AM_5
100
AcDbLine
 10
252.9853682223288
 20
438.7297550683087
 30
0.0
 11
291.2419602223287
 21
438.7297550683087
 31
0.0
  0
LINE
  5
23C6
330
FDE
100
AcDbEntity
  8
AM_5
100
AcDbLine
 10
252.9853682223288
 20
429.7297550683087
 30
0.0
 11
291.2419602223287
 21
429.7297550683087
 31
0.0
  0
LINE
  5
23C7
330
FDE
100
AcDbEntity
  8
AM_5
100
AcDbLine
 10
289.7419602223288
 20
435.7297550683088
 30
0.0
 11
289.7419602223288
 21
432.7297550683088
 31
0.0
  0
SOLID
  5
23C8
330
FDE
100
AcDbEntity
  8
AM_5
100
AcDbTrace
 10
289.2419602223288
 20
435.7297550683088
 30
0.0
 11
290.2419602223288
 21
435.7297550683088
 31
0.0
 12
289.7419602223288
 22
438.7297550683087
 32
0.0
 13
289.7419602223288
 23
438.7297550683087
 33
0.0
  0
SOLID
  5
23C9
330
FDE
100
AcDbEntity
  8
AM_5
100
AcDbTrace
 10
289.2419602223288
 20
432.7297550683088
 30
0.0
 11
290.2419602223288
 21
432.7297550683088
 31
0.0
 12
289.7419602223288
 22
429.7297550683087
 32
0.0
 13
289.7419602223288
 23
429.7297550683087
 33
0.0
  0
MTEXT
  5
23CA
330
FDE
100
AcDbEntity
  8
AM_5
100
AcDbMText
 10
287.2919602223287
 20
434.2297550683088
 30
0.0
 40
3.5
 41
0.0
 71
     5
 72
     1
  1
9
 11
0.0000000000000001
 21
1.0
 31
0.0
 73
     1
 44
1.0
1001
ACAD
1000
MTEXTBEGIN
1070
    73
1070
     1
1070
    44
1040
1.0
1070
    74
1070
     0
1000
MTEXTEND
  0
POINT
  5
23CB
330
FDE
100
AcDbEntity
  8
Defpoints
 62
     0
100
AcDbPoint
 10
251.9853682223288
 20
438.7297550683087
 30
0.0
  0
POINT
  5
23CC
330
FDE
100
AcDbEntity
  8
Defpoints
 62
     0
100
AcDbPoint
 10
251.9853682223288
 20
429.7297550683087
 30
0.0
  0
POINT
  5
23CD
330
FDE
100
AcDbEntity
  8
Defpoints
 62
     0
100
AcDbPoint
 10
289.7419602223288
 20
429.7297550683087
 30
0.0
  0
ENDBLK
  5
FE9
330
FDE
100
AcDbEntity
  8
0
100
AcDbBlockEnd
  0
BLOCK
  5
FF4
330
FEA
100
AcDbEntity
  8
0
100
AcDbBlockBegin
  2
*D5
 70
     1
 10
0.0
 20
0.0
 30
0.0
  3
*D5
  1

  0
LINE
  5
23CE
330
FEA
100
AcDbEntity
  8
AM_5
100
AcDbLine
 10
336.2645701669687
 20
374.4957442875291
 30
0.0
 11
347.8163281669688
 21
374.4957442875291
 31
0.0
  0
LINE
  5
23CF
330
FEA
100
AcDbEntity
  8
AM_5
100
AcDbLine
 10
327.3856641669688
 20
350.4956832875291
 30
0.0
 11
347.8163281669688
 21
350.4956832875291
 31
0.0
  0
LINE
  5
23D0
330
FEA
100
AcDbEntity
  8
AM_5
100
AcDbLine
 10
346.3163281669688
 20
371.4957442875292
 30
0.0
 11
346.3163281669688
 21
353.4956832875291
 31
0.0
  0
SOLID
  5
23D1
330
FEA
100
AcDbEntity
  8
AM_5
100
AcDbTrace
 10
345.8163281669688
 20
371.4957442875292
 30
0.0
 11
346.8163281669688
 21
371.4957442875292
 31
0.0
 12
346.3163281669688
 22
374.4957442875291
 32
0.0
 13
346.3163281669688
 23
374.4957442875291
 33
0.0
  0
SOLID
  5
23D2
330
FEA
100
AcDbEntity
  8
AM_5
100
AcDbTrace
 10
345.8163281669688
 20
353.4956832875291
 30
0.0
 11
346.8163281669688
 21
353.4956832875291
 31
0.0
 12
346.3163281669688
 22
350.4956832875291
 32
0.0
 13
346.3163281669688
 23
350.4956832875291
 33
0.0
  0
MTEXT
  5
23D3
330
FEA
100
AcDbEntity
  8
AM_5
100
AcDbMText
 10
343.8659836787798
 20
362.4957137875292
 30
0.0
 40
3.5
 41
0.0
 71
     5
 72
     1
  1
24
 11
0.0000000000000001
 21
1.0
 31
0.0
 73
     1
 44
1.0
1001
ACAD
1000
MTEXTBEGIN
1070
    73
1070
     1
1070
    44
1040
1.0
1070
    74
1070
     0
1000
MTEXTEND
  0
POINT
  5
23D4
330
FEA
100
AcDbEntity
  8
Defpoints
 62
     0
100
AcDbPoint
 10
335.2645701669687
 20
374.4957442875291
 30
0.0
  0
POINT
  5
23D5
330
FEA
100
AcDbEntity
  8
Defpoints
 62
     0
100
AcDbPoint
 10
326.3856641669688
 20
350.4956832875291
 30
0.0
  0
POINT
  5
23D6
330
FEA
100
AcDbEntity
  8
Defpoints
 62
     0
100
AcDbPoint
 10
346.3163281669688
 20
350.4956832875291
 30
0.0
  0
ENDBLK
  5
FF5
330
FEA
100
AcDbEntity
  8
0
100
AcDbBlockEnd
  0
BLOCK
  5
1000
330
FF6
100
AcDbEntity
  8
0
100
AcDbBlockBegin
  2
*D6
 70
     1
 10
0.0
 20
0.0
 30
0.0
  3
*D6
  1

  0
LINE
  5
23D7
330
FF6
100
AcDbEntity
  8
AM_5
100
AcDbLine
 10
337.3163281669688
 20
377.4957442875291
 30
0.0
 11
355.8163281669688
 21
377.4957442875291
 31
0.0
  0
LINE
  5
23D8
330
FF6
100
AcDbEntity
  8
AM_5
100
AcDbLine
 10
337.3163281669688
 20
347.4956832875291
 30
0.0
 11
355.8163281669688
 21
347.4956832875291
 31
0.0
  0
LINE
  5
23D9
330
FF6
100
AcDbEntity
  8
AM_5
100
AcDbLine
 10
354.3163281669688
 20
374.4957442875291
 30
0.0
 11
354.3163281669688
 21
350.4956832875291
 31
0.0
  0
SOLID
  5
23DA
330
FF6
100
AcDbEntity
  8
AM_5
100
AcDbTrace
 10
353.8163281669688
 20
374.4957442875291
 30
0.0
 11
354.8163281669688
 21
374.4957442875291
 31
0.0
 12
354.3163281669688
 22
377.4957442875291
 32
0.0
 13
354.3163281669688
 23
377.4957442875291
 33
0.0
  0
SOLID
  5
23DB
330
FF6
100
AcDbEntity
  8
AM_5
100
AcDbTrace
 10
353.8163281669688
 20
350.4956832875291
 30
0.0
 11
354.8163281669688
 21
350.4956832875291
 31
0.0
 12
354.3163281669688
 22
347.4956832875291
 32
0.0
 13
354.3163281669688
 23
347.4956832875291
 33
0.0
  0
MTEXT
  5
23DC
330
FF6
100
AcDbEntity
  8
AM_5
100
AcDbMText
 10
351.8663281669688
 20
362.4957137875292
 30
0.0
 40
3.5
 41
0.0
 71
     5
 72
     1
  1
30
 11
0.0000000000000001
 21
1.0
 31
0.0
 73
     1
 44
1.0
1001
ACAD
1000
MTEXTBEGIN
1070
    73
1070
     1
1070
    44
1040
1.0
1070
    74
1070
     0
1000
MTEXTEND
  0
POINT
  5
23DD
330
FF6
100
AcDbEntity
  8
Defpoints
 62
     0
100
AcDbPoint
 10
336.3163281669688
 20
377.4957442875291
 30
0.0
  0
POINT
  5
23DE
330
FF6
100
AcDbEntity
  8
Defpoints
 62
     0
100
AcDbPoint
 10
336.3163281669688
 20
347.4956832875291
 30
0.0
  0
POINT
  5
23DF
330
FF6
100
AcDbEntity
  8
Defpoints
 62
     0
100
AcDbPoint
 10
354.3163281669688
 20
347.4956832875291
 30
0.0
  0
ENDBLK
  5
1001
330
FF6
100
AcDbEntity
  8
0
100
AcDbBlockEnd
  0
BLOCK
  5
100C
330
1002
100
AcDbEntity
  8
0
100
AcDbBlockBegin
  2
*D7
 70
     1
 10
0.0
 20
0.0
 30
0.0
  3
*D7
  1

  0
LINE
  5
23E0
330
1002
100
AcDbEntity
  8
AM_5
100
AcDbLine
 10
324.3163281669688
 20
347.4920212875291
 30
0.0
 11
324.3163281669688
 21
316.4956832875291
 31
0.0
  0
LINE
  5
23E1
330
1002
100
AcDbEntity
  8
AM_5
100
AcDbLine
 10
333.3163281669688
 20
371.3347942875291
 30
0.0
 11
333.3163281669688
 21
316.4956832875291
 31
0.0
  0
LINE
  5
23E2
330
1002
100
AcDbEntity
  8
AM_5
100
AcDbLine
 10
327.3163281669688
 20
317.9956832875291
 30
0.0
 11
330.3163281669688
 21
317.9956832875291
 31
0.0
  0
SOLID
  5
23E3
330
1002
100
AcDbEntity
  8
AM_5
100
AcDbTrace
 10
327.3163281669688
 20
318.4956832875291
 30
0.0
 11
327.3163281669688
 21
317.4956832875291
 31
0.0
 12
324.3163281669688
 22
317.9956832875291
 32
0.0
 13
324.3163281669688
 23
317.9956832875291
 33
0.0
  0
SOLID
  5
23E4
330
1002
100
AcDbEntity
  8
AM_5
100
AcDbTrace
 10
330.3163281669688
 20
318.4956832875291
 30
0.0
 11
330.3163281669688
 21
317.4956832875291
 31
0.0
 12
333.3163281669688
 22
317.9956832875291
 32
0.0
 13
333.3163281669688
 23
317.9956832875291
 33
0.0
  0
MTEXT
  5
23E5
330
1002
100
AcDbEntity
  8
AM_5
100
AcDbMText
 10
328.8163281669688
 20
320.4456832875291
 30
0.0
 40
3.5
 41
0.0
 71
     5
 72
     1
  1
9
 73
     1
 44
1.0
1001
ACAD
1000
MTEXTBEGIN
1070
    73
1070
     1
1070
    44
1040
1.0
1070
    74
1070
     0
1000
MTEXTEND
  0
POINT
  5
23E6
330
1002
100
AcDbEntity
  8
Defpoints
 62
     0
100
AcDbPoint
 10
324.3163281669688
 20
348.4920212875291
 30
0.0
  0
POINT
  5
23E7
330
1002
100
AcDbEntity
  8
Defpoints
 62
     0
100
AcDbPoint
 10
333.3163281669688
 20
372.3347942875291
 30
0.0
  0
POINT
  5
23E8
330
1002
100
AcDbEntity
  8
Defpoints
 62
     0
100
AcDbPoint
 10
333.3163281669688
 20
317.9956832875291
 30
0.0
  0
ENDBLK
  5
100D
330
1002
100
AcDbEntity
  8
0
100
AcDbBlockEnd
  0
BLOCK
  5
1018
330
100E
100
AcDbEntity
  8
0
100
AcDbBlockBegin
  2
*D8
 70
     1
 10
0.0
 20
0.0
 30
0.0
  3
*D8
  1

  0
LINE
  5
23E9
330
100E
100
AcDbEntity
  8
AM_5
100
AcDbLine
 10
321.3163281669688
 20
346.4956832875291
 30
0.0
 11
321.3163281669688
 21
308.4956832875291
 31
0.0
  0
LINE
  5
23EA
330
100E
100
AcDbEntity
  8
AM_5
100
AcDbLine
 10
336.3163281669688
 20
346.4956832875291
 30
0.0
 11
336.3163281669688
 21
308.4956832875291
 31
0.0
  0
LINE
  5
23EB
330
100E
100
AcDbEntity
  8
AM_5
100
AcDbLine
 10
324.3163281669688
 20
309.9956832875291
 30
0.0
 11
333.3163281669688
 21
309.9956832875291
 31
0.0
  0
SOLID
  5
23EC
330
100E
100
AcDbEntity
  8
AM_5
100
AcDbTrace
 10
324.3163281669688
 20
310.4956832875291
 30
0.0
 11
324.3163281669688
 21
309.4956832875291
 31
0.0
 12
321.3163281669688
 22
309.9956832875291
 32
0.0
 13
321.3163281669688
 23
309.9956832875291
 33
0.0
  0
SOLID
  5
23ED
330
100E
100
AcDbEntity
  8
AM_5
100
AcDbTrace
 10
333.3163281669688
 20
310.4956832875291
 30
0.0
 11
333.3163281669688
 21
309.4956832875291
 31
0.0
 12
336.3163281669688
 22
309.9956832875291
 32
0.0
 13
336.3163281669688
 23
309.9956832875291
 33
0.0
  0
MTEXT
  5
23EE
330
100E
100
AcDbEntity
  8
AM_5
100
AcDbMText
 10
328.8163281669688
 20
312.4456832875291
 30
0.0
 40
3.5
 41
0.0
 71
     5
 72
     1
  1
15
 73
     1
 44
1.0
1001
ACAD
1000
MTEXTBEGIN
1070
    73
1070
     1
1070
    44
1040
1.0
1070
    74
1070
     0
1000
MTEXTEND
  0
POINT
  5
23EF
330
100E
100
AcDbEntity
  8
Defpoints
 62
     0
100
AcDbPoint
 10
321.3163281669688
 20
347.4956832875291
 30
0.0
  0
POINT
  5
23F0
330
100E
100
AcDbEntity
  8
Defpoints
 62
     0
100
AcDbPoint
 10
336.3163281669688
 20
347.4956832875291
 30
0.0
  0
POINT
  5
23F1
330
100E
100
AcDbEntity
  8
Defpoints
 62
     0
100
AcDbPoint
 10
336.3163281669688
 20
309.9956832875291
 30
0.0
  0
ENDBLK
  5
1019
330
100E
100
AcDbEntity
  8
0
100
AcDbBlockEnd
  0
BLOCK
  5
1024
330
101A
100
AcDbEntity
  8
0
100
AcDbBlockBegin
  2
*D9
 70
     1
 10
0.0
 20
0.0
 30
0.0
  3
*D9
  1

  0
LINE
  5
23F2
330
101A
100
AcDbEntity
  8
AM_5
100
AcDbLine
 10
266.1784832223287
 20
374.4957442875291
 30
0.0
 11
291.2419602223287
 21
374.4957442875291
 31
0.0
  0
LINE
  5
23F3
330
101A
100
AcDbEntity
  8
AM_5
100
AcDbLine
 10
265.7522142223288
 20
350.4956832875291
 30
0.0
 11
291.2419602223287
 21
350.4956832875291
 31
0.0
  0
LINE
  5
23F4
330
101A
100
AcDbEntity
  8
AM_5
100
AcDbLine
 10
289.7419602223288
 20
371.4957442875292
 30
0.0
 11
289.7419602223288
 21
353.4956832875291
 31
0.0
  0
SOLID
  5
23F5
330
101A
100
AcDbEntity
  8
AM_5
100
AcDbTrace
 10
289.2419602223288
 20
371.4957442875292
 30
0.0
 11
290.2419602223288
 21
371.4957442875292
 31
0.0
 12
289.7419602223288
 22
374.4957442875291
 32
0.0
 13
289.7419602223288
 23
374.4957442875291
 33
0.0
  0
SOLID
  5
23F6
330
101A
100
AcDbEntity
  8
AM_5
100
AcDbTrace
 10
289.2419602223288
 20
353.4956832875291
 30
0.0
 11
290.2419602223288
 21
353.4956832875291
 31
0.0
 12
289.7419602223288
 22
350.4956832875291
 32
0.0
 13
289.7419602223288
 23
350.4956832875291
 33
0.0
  0
MTEXT
  5
23F7
330
101A
100
AcDbEntity
  8
AM_5
100
AcDbMText
 10
287.2916157341397
 20
362.4957137875292
 30
0.0
 40
3.5
 41
0.0
 71
     5
 72
     1
  1
24
 11
0.0000000000000001
 21
1.0
 31
0.0
 73
     1
 44
1.0
1001
ACAD
1000
MTEXTBEGIN
1070
    73
1070
     1
1070
    44
1040
1.0
1070
    74
1070
     0
1000
MTEXTEND
  0
POINT
  5
23F8
330
101A
100
AcDbEntity
  8
Defpoints
 62
     0
100
AcDbPoint
 10
265.1784832223287
 20
374.4957442875291
 30
0.0
  0
POINT
  5
23F9
330
101A
100
AcDbEntity
  8
Defpoints
 62
     0
100
AcDbPoint
 10
264.7522142223288
 20
350.4956832875291
 30
0.0
  0
POINT
  5
23FA
330
101A
100
AcDbEntity
  8
Defpoints
 62
     0
100
AcDbPoint
 10
289.7419602223288
 20
350.4956832875291
 30
0.0
  0
ENDBLK
  5
1025
330
101A
100
AcDbEntity
  8
0
100
AcDbBlockEnd
  0
BLOCK
  5
1030
330
1026
100
AcDbEntity
  8
0
100
AcDbBlockBegin
  2
*D10
 70
     1
 10
0.0
 20
0.0
 30
0.0
  3
*D10
  1

  0
LINE
  5
23FB
330
1026
100
AcDbEntity
  8
AM_5
100
AcDbLine
 10
261.7419602223288
 20
347.1681682875292
 30
0.0
 11
261.7419602223288
 21
333.7871938870389
 31
0.0
  0
LINE
  5
23FC
330
1026
100
AcDbEntity
  8
AM_5
100
AcDbLine
 10
279.7419602223288
 20
346.4956832875291
 30
0.0
 11
279.7419602223288
 21
333.7871938870389
 31
0.0
  0
LINE
  5
23FD
330
1026
100
AcDbEntity
  8
AM_5
100
AcDbLine
 10
264.7419602223288
 20
335.2871938870389
 30
0.0
 11
276.7419602223288
 21
335.2871938870389
 31
0.0
  0
SOLID
  5
23FE
330
1026
100
AcDbEntity
  8
AM_5
100
AcDbTrace
 10
264.7419602223288
 20
335.7871938870389
 30
0.0
 11
264.7419602223288
 21
334.7871938870389
 31
0.0
 12
261.7419602223288
 22
335.2871938870389
 32
0.0
 13
261.7419602223288
 23
335.2871938870389
 33
0.0
  0
SOLID
  5
23FF
330
1026
100
AcDbEntity
  8
AM_5
100
AcDbTrace
 10
276.7419602223288
 20
335.7871938870389
 30
0.0
 11
276.7419602223288
 21
334.7871938870389
 31
0.0
 12
279.7419602223288
 22
335.2871938870389
 32
0.0
 13
279.7419602223288
 23
335.2871938870389
 33
0.0
  0
MTEXT
  5
2400
330
1026
100
AcDbEntity
  8
AM_5
100
AcDbMText
 10
270.6567927757078
 20
337.737193887039
 30
0.0
 40
3.5
 41
0.0
 71
     5
 72
     1
  1
18
 73
     1
 44
1.0
1001
ACAD
1000
MTEXTBEGIN
1070
    73
1070
     1
1070
    44
1040
1.0
1070
    74
1070
     0
1000
MTEXTEND
  0
POINT
  5
2401
330
1026
100
AcDbEntity
  8
Defpoints
 62
     0
100
AcDbPoint
 10
261.7419602223288
 20
348.1681682875292
 30
0.0
  0
POINT
  5
2402
330
1026
100
AcDbEntity
  8
Defpoints
 62
     0
100
AcDbPoint
 10
279.7419602223288
 20
347.4956832875291
 30
0.0
  0
POINT
  5
2403
330
1026
100
AcDbEntity
  8
Defpoints
 62
     0
100
AcDbPoint
 10
279.7419602223288
 20
335.2871938870389
 30
0.0
  0
ENDBLK
  5
1031
330
1026
100
AcDbEntity
  8
0
100
AcDbBlockEnd
  0
BLOCK
  5
103C
330
1032
100
AcDbEntity
  8
0
100
AcDbBlockBegin
  2
*D11
 70
     1
 10
0.0
 20
0.0
 30
0.0
  3
*D11
  1

  0
LINE
  5
2404
330
1032
100
AcDbEntity
  8
AM_5
100
AcDbLine
 10
244.7419602223288
 20
347.4385542875291
 30
0.0
 11
244.7419602223288
 21
325.787193887039
 31
0.0
  0
LINE
  5
2405
330
1032
100
AcDbEntity
  8
AM_5
100
AcDbLine
 10
279.7419602223288
 20
339.1302571611085
 30
0.0
 11
279.7419602223288
 21
325.787193887039
 31
0.0
  0
LINE
  5
2406
330
1032
100
AcDbEntity
  8
AM_5
100
AcDbLine
 10
247.7419602223288
 20
327.2871938870389
 30
0.0
 11
276.7419602223288
 21
327.2871938870389
 31
0.0
  0
SOLID
  5
2407
330
1032
100
AcDbEntity
  8
AM_5
100
AcDbTrace
 10
247.7419602223288
 20
327.787193887039
 30
0.0
 11
247.7419602223288
 21
326.7871938870389
 31
0.0
 12
244.7419602223288
 22
327.2871938870389
 32
0.0
 13
244.7419602223288
 23
327.2871938870389
 33
0.0
  0
SOLID
  5
2408
330
1032
100
AcDbEntity
  8
AM_5
100
AcDbTrace
 10
276.7419602223288
 20
327.787193887039
 30
0.0
 11
276.7419602223288
 21
326.7871938870389
 31
0.0
 12
279.7419602223288
 22
327.2871938870389
 32
0.0
 13
279.7419602223288
 23
327.2871938870389
 33
0.0
  0
MTEXT
  5
2409
330
1032
100
AcDbEntity
  8
AM_5
100
AcDbMText
 10
262.2419602223288
 20
329.7371938870389
 30
0.0
 40
3.5
 41
0.0
 71
     5
 72
     1
  1
35
 73
     1
 44
1.0
1001
ACAD
1000
MTEXTBEGIN
1070
    73
1070
     1
1070
    44
1040
1.0
1070
    74
1070
     0
1000
MTEXTEND
  0
POINT
  5
240A
330
1032
100
AcDbEntity
  8
Defpoints
 62
     0
100
AcDbPoint
 10
244.7419602223288
 20
348.4385542875291
 30
0.0
  0
POINT
  5
240B
330
1032
100
AcDbEntity
  8
Defpoints
 62
     0
100
AcDbPoint
 10
279.7419602223288
 20
340.1302571611085
 30
0.0
  0
POINT
  5
240C
330
1032
100
AcDbEntity
  8
Defpoints
 62
     0
100
AcDbPoint
 10
279.7419602223288
 20
327.2871938870389
 30
0.0
  0
ENDBLK
  5
103D
330
1032
100
AcDbEntity
  8
0
100
AcDbBlockEnd
  0
BLOCK
  5
1048
330
103E
100
AcDbEntity
  8
0
100
AcDbBlockBegin
  2
*D12
 70
     1
 10
0.0
 20
0.0
 30
0.0
  3
*D12
  1

  0
LINE
  5
240D
330
103E
100
AcDbEntity
  8
AM_5
100
AcDbLine
 10
279.7419602223288
 20
331.9001297845519
 30
0.0
 11
279.7419602223288
 21
317.7871938870389
 31
0.0
  0
LINE
  5
240E
330
103E
100
AcDbEntity
  8
AM_5
100
AcDbLine
 10
232.2419602223288
 20
348.0388962875291
 30
0.0
 11
232.2419602223288
 21
317.7871938870389
 31
0.0
  0
LINE
  5
240F
330
103E
100
AcDbEntity
  8
AM_5
100
AcDbLine
 10
276.7419602223288
 20
319.287193887039
 30
0.0
 11
235.2419602223288
 21
319.287193887039
 31
0.0
  0
SOLID
  5
2410
330
103E
100
AcDbEntity
  8
AM_5
100
AcDbTrace
 10
276.7419602223288
 20
319.787193887039
 30
0.0
 11
276.7419602223288
 21
318.7871938870389
 31
0.0
 12
279.7419602223288
 22
319.287193887039
 32
0.0
 13
279.7419602223288
 23
319.287193887039
 33
0.0
  0
SOLID
  5
2411
330
103E
100
AcDbEntity
  8
AM_5
100
AcDbTrace
 10
235.2419602223288
 20
319.787193887039
 30
0.0
 11
235.2419602223288
 21
318.7871938870389
 31
0.0
 12
232.2419602223288
 22
319.287193887039
 32
0.0
 13
232.2419602223288
 23
319.287193887039
 33
0.0
  0
MTEXT
  5
2412
330
103E
100
AcDbEntity
  8
AM_5
100
AcDbMText
 10
255.9919602223288
 20
321.7371938870389
 30
0.0
 40
3.5
 41
0.0
 71
     5
 72
     1
  1
47.5
 73
     1
 44
1.0
1001
ACAD
1000
MTEXTBEGIN
1070
    73
1070
     1
1070
    44
1040
1.0
1070
    74
1070
     0
1000
MTEXTEND
  0
POINT
  5
2413
330
103E
100
AcDbEntity
  8
Defpoints
 62
     0
100
AcDbPoint
 10
279.7419602223288
 20
332.900129784552
 30
0.0
  0
POINT
  5
2414
330
103E
100
AcDbEntity
  8
Defpoints
 62
     0
100
AcDbPoint
 10
232.2419602223288
 20
349.0388962875291
 30
0.0
  0
POINT
  5
2415
330
103E
100
AcDbEntity
  8
Defpoints
 62
     0
100
AcDbPoint
 10
232.2419602223288
 20
319.287193887039
 30
0.0
  0
ENDBLK
  5
1049
330
103E
100
AcDbEntity
  8
0
100
AcDbBlockEnd
  0
BLOCK
  5
1054
330
104A
100
AcDbEntity
  8
0
100
AcDbBlockBegin
  2
*D13
 70
     1
 10
0.0
 20
0.0
 30
0.0
  3
*D13
  1

  0
LINE
  5
2416
330
104A
100
AcDbEntity
  8
AM_5
100
AcDbLine
 10
279.7419602223288
 20
323.317198981547
 30
0.0
 11
279.7419602223288
 21
309.7871938870389
 31
0.0
  0
LINE
  5
2417
330
104A
100
AcDbEntity
  8
AM_5
100
AcDbLine
 10
221.7419602223288
 20
346.9956832875291
 30
0.0
 11
221.7419602223288
 21
309.7871938870389
 31
0.0
  0
LINE
  5
2418
330
104A
100
AcDbEntity
  8
AM_5
100
AcDbLine
 10
276.7419602223288
 20
311.287193887039
 30
0.0
 11
224.7419602223288
 21
311.287193887039
 31
0.0
  0
SOLID
  5
2419
330
104A
100
AcDbEntity
  8
AM_5
100
AcDbTrace
 10
276.7419602223288
 20
311.7871938870389
 30
0.0
 11
276.7419602223288
 21
310.7871938870389
 31
0.0
 12
279.7419602223288
 22
311.287193887039
 32
0.0
 13
279.7419602223288
 23
311.287193887039
 33
0.0
  0
SOLID
  5
241A
330
104A
100
AcDbEntity
  8
AM_5
100
AcDbTrace
 10
224.7419602223288
 20
311.7871938870389
 30
0.0
 11
224.7419602223288
 21
310.7871938870389
 31
0.0
 12
221.7419602223288
 22
311.287193887039
 32
0.0
 13
221.7419602223288
 23
311.287193887039
 33
0.0
  0
MTEXT
  5
241B
330
104A
100
AcDbEntity
  8
AM_5
100
AcDbMText
 10
250.7419602223288
 20
313.7371938870389
 30
0.0
 40
3.5
 41
0.0
 71
     5
 72
     1
  1
58
 73
     1
 44
1.0
1001
ACAD
1000
MTEXTBEGIN
1070
    73
1070
     1
1070
    44
1040
1.0
1070
    74
1070
     0
1000
MTEXTEND
  0
POINT
  5
241C
330
104A
100
AcDbEntity
  8
Defpoints
 62
     0
100
AcDbPoint
 10
279.7419602223288
 20
324.317198981547
 30
0.0
  0
POINT
  5
241D
330
104A
100
AcDbEntity
  8
Defpoints
 62
     0
100
AcDbPoint
 10
221.7419602223288
 20
347.9956832875291
 30
0.0
  0
POINT
  5
241E
330
104A
100
AcDbEntity
  8
Defpoints
 62
     0
100
AcDbPoint
 10
221.7419602223288
 20
311.287193887039
 30
0.0
  0
ENDBLK
  5
1055
330
104A
100
AcDbEntity
  8
0
100
AcDbBlockEnd
  0
BLOCK
  5
1062
330
1056
100
AcDbEntity
  8
0
100
AcDbBlockBegin
  2
*D14
 70
     1
 10
0.0
 20
0.0
 30
0.0
  3
*D14
  1

  0
LINE
  5
241F
330
1056
100
AcDbEntity
  8
AM_5
100
AcDbLine
 10
277.8889332223288
 20
278.464273907947
 30
0.0
 11
291.2419602223287
 21
278.464273907947
 31
0.0
  0
LINE
  5
2420
330
1056
100
AcDbEntity
  8
AM_5
100
AcDbLine
 10
253.8921062223288
 20
281.464273907947
 30
0.0
 11
291.2419602223287
 21
281.464273907947
 31
0.0
  0
LINE
  5
2421
330
1056
100
AcDbEntity
  8
AM_5
100
AcDbLine
 10
289.7419602223288
 20
275.464273907947
 30
0.0
 11
289.7419602223288
 21
272.464273907947
 31
0.0
  0
LINE
  5
2422
330
1056
100
AcDbEntity
  8
AM_5
100
AcDbLine
 10
289.7419602223288
 20
284.464273907947
 30
0.0
 11
289.7419602223288
 21
287.464273907947
 31
0.0
  0
LINE
  5
2423
330
1056
100
AcDbEntity
  8
AM_5
100
AcDbLine
 10
289.7419602223288
 20
278.464273907947
 30
0.0
 11
289.7419602223288
 21
281.464273907947
 31
0.0
  0
SOLID
  5
2424
330
1056
100
AcDbEntity
  8
AM_5
100
AcDbTrace
 10
289.2419602223288
 20
275.464273907947
 30
0.0
 11
290.2419602223288
 21
275.464273907947
 31
0.0
 12
289.7419602223288
 22
278.464273907947
 32
0.0
 13
289.7419602223288
 23
278.464273907947
 33
0.0
  0
SOLID
  5
2425
330
1056
100
AcDbEntity
  8
AM_5
100
AcDbTrace
 10
289.2419602223288
 20
284.464273907947
 30
0.0
 11
290.2419602223288
 21
284.464273907947
 31
0.0
 12
289.7419602223288
 22
281.464273907947
 32
0.0
 13
289.7419602223288
 23
281.464273907947
 33
0.0
  0
MTEXT
  5
2426
330
1056
100
AcDbEntity
  8
AM_5
100
AcDbMText
 10
287.2919602223287
 20
279.9642739079471
 30
0.0
 40
3.5
 41
0.0
 71
     5
 72
     1
  1
3
 11
0.0000000000000001
 21
1.0
 31
0.0
 73
     1
 44
1.0
1001
ACAD
1000
MTEXTBEGIN
1070
    73
1070
     1
1070
    44
1040
1.0
1070
    74
1070
     0
1000
MTEXTEND
  0
POINT
  5
2427
330
1056
100
AcDbEntity
  8
Defpoints
 62
     0
100
AcDbPoint
 10
276.8889332223288
 20
278.464273907947
 30
0.0
  0
POINT
  5
2428
330
1056
100
AcDbEntity
  8
Defpoints
 62
     0
100
AcDbPoint
 10
252.8921062223288
 20
281.464273907947
 30
0.0
  0
POINT
  5
2429
330
1056
100
AcDbEntity
  8
Defpoints
 62
     0
100
AcDbPoint
 10
289.7419602223288
 20
281.464273907947
 30
0.0
  0
ENDBLK
  5
1063
330
1056
100
AcDbEntity
  8
0
100
AcDbBlockEnd
  0
BLOCK
  5
106E
330
1064
100
AcDbEntity
  8
0
100
AcDbBlockBegin
  2
*D15
 70
     1
 10
0.0
 20
0.0
 30
0.0
  3
*D15
  1

  0
LINE
  5
242A
330
1064
100
AcDbEntity
  8
AM_5
100
AcDbLine
 10
279.7419602223288
 20
271.464273907947
 30
0.0
 11
279.7419602223288
 21
260.964273907947
 31
0.0
  0
LINE
  5
242B
330
1064
100
AcDbEntity
  8
AM_5
100
AcDbLine
 10
272.7419602223288
 20
273.297769907947
 30
0.0
 11
272.7419602223288
 21
260.964273907947
 31
0.0
  0
LINE
  5
242C
330
1064
100
AcDbEntity
  8
AM_5
100
AcDbLine
 10
282.7419602223288
 20
262.464273907947
 30
0.0
 11
285.7419602223288
 21
262.464273907947
 31
0.0
  0
LINE
  5
242D
330
1064
100
AcDbEntity
  8
AM_5
100
AcDbLine
 10
269.7419602223288
 20
262.464273907947
 30
0.0
 11
266.7419602223288
 21
262.464273907947
 31
0.0
  0
LINE
  5
242E
330
1064
100
AcDbEntity
  8
AM_5
100
AcDbLine
 10
279.7419602223288
 20
262.464273907947
 30
0.0
 11
272.7419602223288
 21
262.464273907947
 31
0.0
  0
SOLID
  5
242F
330
1064
100
AcDbEntity
  8
AM_5
100
AcDbTrace
 10
282.7419602223288
 20
262.964273907947
 30
0.0
 11
282.7419602223288
 21
261.964273907947
 31
0.0
 12
279.7419602223288
 22
262.464273907947
 32
0.0
 13
279.7419602223288
 23
262.464273907947
 33
0.0
  0
SOLID
  5
2430
330
1064
100
AcDbEntity
  8
AM_5
100
AcDbTrace
 10
269.7419602223288
 20
262.964273907947
 30
0.0
 11
269.7419602223288
 21
261.964273907947
 31
0.0
 12
272.7419602223288
 22
262.464273907947
 32
0.0
 13
272.7419602223288
 23
262.464273907947
 33
0.0
  0
MTEXT
  5
2431
330
1064
100
AcDbEntity
  8
AM_5
100
AcDbMText
 10
276.2419602223288
 20
264.914273907947
 30
0.0
 40
3.5
 41
0.0
 71
     5
 72
     1
  1
7
 73
     1
 44
1.0
1001
ACAD
1000
MTEXTBEGIN
1070
    73
1070
     1
1070
    44
1040
1.0
1070
    74
1070
     0
1000
MTEXTEND
  0
POINT
  5
2432
330
1064
100
AcDbEntity
  8
Defpoints
 62
     0
100
AcDbPoint
 10
279.7419602223288
 20
272.464273907947
 30
0.0
  0
POINT
  5
2433
330
1064
100
AcDbEntity
  8
Defpoints
 62
     0
100
AcDbPoint
 10
272.7419602223288
 20
274.297769907947
 30
0.0
  0
POINT
  5
2434
330
1064
100
AcDbEntity
  8
Defpoints
 62
     0
100
AcDbPoint
 10
272.7419602223288
 20
262.464273907947
 30
0.0
  0
ENDBLK
  5
106F
330
1064
100
AcDbEntity
  8
0
100
AcDbBlockEnd
  0
BLOCK
  5
1079
330
1070
100
AcDbEntity
  8
0
100
AcDbBlockBegin
  2
*D16
 70
     1
 10
0.0
 20
0.0
 30
0.0
  3
*D16
  1

  0
LINE
  5
2435
330
1070
100
AcDbEntity
  8
AM_5
100
AcDbLine
 10
272.7419602223288
 20
262.2497974536644
 30
0.0
 11
272.7419602223288
 21
260.964273907947
 31
0.0
  0
LINE
  5
2436
330
1070
100
AcDbEntity
  8
AM_5
100
AcDbLine
 10
249.7419602223288
 20
277.232584907947
 30
0.0
 11
249.7419602223288
 21
260.964273907947
 31
0.0
  0
LINE
  5
2437
330
1070
100
AcDbEntity
  8
AM_5
100
AcDbLine
 10
269.7419602223288
 20
262.464273907947
 30
0.0
 11
252.7419602223288
 21
262.464273907947
 31
0.0
  0
SOLID
  5
2438
330
1070
100
AcDbEntity
  8
AM_5
100
AcDbTrace
 10
269.7419602223288
 20
262.964273907947
 30
0.0
 11
269.7419602223288
 21
261.964273907947
 31
0.0
 12
272.7419602223288
 22
262.464273907947
 32
0.0
 13
272.7419602223288
 23
262.464273907947
 33
0.0
  0
SOLID
  5
2439
330
1070
100
AcDbEntity
  8
AM_5
100
AcDbTrace
 10
252.7419602223288
 20
262.964273907947
 30
0.0
 11
252.7419602223288
 21
261.964273907947
 31
0.0
 12
249.7419602223288
 22
262.464273907947
 32
0.0
 13
249.7419602223288
 23
262.464273907947
 33
0.0
  0
MTEXT
  5
243A
330
1070
100
AcDbEntity
  8
AM_5
100
AcDbMText
 10
261.2419602223288
 20
264.914618396136
 30
0.0
 40
3.5
 41
0.0
 71
     5
 72
     1
  1
23
 73
     1
 44
1.0
1001
ACAD
1000
MTEXTBEGIN
1070
    73
1070
     1
1070
    44
1040
1.0
1070
    74
1070
     0
1000
MTEXTEND
  0
POINT
  5
243B
330
1070
100
AcDbEntity
  8
Defpoints
 62
     0
100
AcDbPoint
 10
272.7419602223288
 20
263.2497974536644
 30
0.0
  0
POINT
  5
243C
330
1070
100
AcDbEntity
  8
Defpoints
 62
     0
100
AcDbPoint
 10
249.7419602223288
 20
278.232584907947
 30
0.0
  0
POINT
  5
243D
330
1070
100
AcDbEntity
  8
Defpoints
 62
     0
100
AcDbPoint
 10
249.7419602223288
 20
262.464273907947
 30
0.0
  0
ENDBLK
  5
107A
330
1070
100
AcDbEntity
  8
0
100
AcDbBlockEnd
  0
BLOCK
  5
1087
330
107B
100
AcDbEntity
  8
0
100
AcDbBlockBegin
  2
*D17
 70
     1
 10
0.0
 20
0.0
 30
0.0
  3
*D17
  1

  0
LINE
  5
243E
330
107B
100
AcDbEntity
  8
AM_5
100
AcDbLine
 10
230.2419602223288
 20
397.9956832875291
 30
0.0
 11
230.2419602223288
 21
406.495683287529
 31
0.0
  0
LINE
  5
243F
330
107B
100
AcDbEntity
  8
AM_5
100
AcDbLine
 10
234.2419602223288
 20
397.9956832875291
 30
0.0
 11
234.2419602223288
 21
406.495683287529
 31
0.0
  0
LINE
  5
2440
330
107B
100
AcDbEntity
  8
AM_5
100
AcDbLine
 10
227.2419602223288
 20
404.9956832875291
 30
0.0
 11
224.2419602223288
 21
404.9956832875291
 31
0.0
  0
LINE
  5
2441
330
107B
100
AcDbEntity
  8
AM_5
100
AcDbLine
 10
237.2419602223288
 20
404.9956832875291
 30
0.0
 11
240.2419602223288
 21
404.9956832875291
 31
0.0
  0
LINE
  5
2442
330
107B
100
AcDbEntity
  8
AM_5
100
AcDbLine
 10
230.2419602223288
 20
404.9956832875291
 30
0.0
 11
234.2419602223288
 21
404.9956832875291
 31
0.0
  0
SOLID
  5
2443
330
107B
100
AcDbEntity
  8
AM_5
100
AcDbTrace
 10
227.2419602223288
 20
405.4956832875291
 30
0.0
 11
227.2419602223288
 21
404.4956832875291
 31
0.0
 12
230.2419602223288
 22
404.9956832875291
 32
0.0
 13
230.2419602223288
 23
404.9956832875291
 33
0.0
  0
SOLID
  5
2444
330
107B
100
AcDbEntity
  8
AM_5
100
AcDbTrace
 10
237.2419602223288
 20
405.4956832875291
 30
0.0
 11
237.2419602223288
 21
404.4956832875291
 31
0.0
 12
234.2419602223288
 22
404.9956832875291
 32
0.0
 13
234.2419602223288
 23
404.9956832875291
 33
0.0
  0
MTEXT
  5
2445
330
107B
100
AcDbEntity
  8
AM_5
100
AcDbMText
 10
232.2419602223288
 20
407.4456832875291
 30
0.0
 40
3.5
 41
0.0
 71
     5
 72
     1
  1
4
 73
     1
 44
1.0
1001
ACAD
1000
MTEXTBEGIN
1070
    73
1070
     1
1070
    44
1040
1.0
1070
    74
1070
     0
1000
MTEXTEND
  0
POINT
  5
2446
330
107B
100
AcDbEntity
  8
Defpoints
 62
     0
100
AcDbPoint
 10
230.2419602223288
 20
396.9956832875291
 30
0.0
  0
POINT
  5
2447
330
107B
100
AcDbEntity
  8
Defpoints
 62
     0
100
AcDbPoint
 10
234.2419602223288
 20
396.9956832875291
 30
0.0
  0
POINT
  5
2448
330
107B
100
AcDbEntity
  8
Defpoints
 62
     0
100
AcDbPoint
 10
234.2419602223288
 20
404.9956832875291
 30
0.0
  0
ENDBLK
  5
1088
330
107B
100
AcDbEntity
  8
0
100
AcDbBlockEnd
  0
BLOCK
  5
1093
330
1089
100
AcDbEntity
  8
0
100
AcDbBlockBegin
  2
*D18
 70
     1
 10
0.0
 20
0.0
 30
0.0
  3
*D18
  1

  0
LINE
  5
2449
330
1089
100
AcDbEntity
  8
AM_5
100
AcDbLine
 10
229.9919602223288
 20
373.4957442875292
 30
0.0
 11
197.1979232223287
 21
373.4957442875292
 31
0.0
  0
LINE
  5
244A
330
1089
100
AcDbEntity
  8
AM_5
100
AcDbLine
 10
229.9919602223288
 20
351.4956832875291
 30
0.0
 11
197.1979232223287
 21
351.4956832875291
 31
0.0
  0
LINE
  5
244B
330
1089
100
AcDbEntity
  8
AM_5
100
AcDbLine
 10
198.6979232223287
 20
370.4957442875291
 30
0.0
 11
198.6979232223287
 21
354.4956832875291
 31
0.0
  0
SOLID
  5
244C
330
1089
100
AcDbEntity
  8
AM_5
100
AcDbTrace
 10
198.1979232223287
 20
370.4957442875291
 30
0.0
 11
199.1979232223287
 21
370.4957442875291
 31
0.0
 12
198.6979232223287
 22
373.4957442875292
 32
0.0
 13
198.6979232223287
 23
373.4957442875292
 33
0.0
  0
SOLID
  5
244D
330
1089
100
AcDbEntity
  8
AM_5
100
AcDbTrace
 10
198.1979232223287
 20
354.4956832875291
 30
0.0
 11
199.1979232223287
 21
354.4956832875291
 31
0.0
 12
198.6979232223287
 22
351.4956832875291
 32
0.0
 13
198.6979232223287
 23
351.4956832875291
 33
0.0
  0
MTEXT
  5
244E
330
1089
100
AcDbEntity
  8
AM_5
100
AcDbMText
 10
196.2475787341397
 20
362.4957137875292
 30
0.0
 40
3.5
 41
0.0
 71
     5
 72
     1
  1
22
 11
0.0000000000000001
 21
1.0
 31
0.0
 73
     1
 44
1.0
1001
ACAD
1000
MTEXTBEGIN
1070
    73
1070
     1
1070
    44
1040
1.0
1070
    74
1070
     0
1000
MTEXTEND
  0
POINT
  5
244F
330
1089
100
AcDbEntity
  8
Defpoints
 62
     0
100
AcDbPoint
 10
230.9919602223288
 20
373.4957442875292
 30
0.0
  0
POINT
  5
2450
330
1089
100
AcDbEntity
  8
Defpoints
 62
     0
100
AcDbPoint
 10
230.9919602223288
 20
351.4956832875291
 30
0.0
  0
POINT
  5
2451
330
1089
100
AcDbEntity
  8
Defpoints
 62
     0
100
AcDbPoint
 10
198.6979232223287
 20
351.4956832875291
 30
0.0
  0
ENDBLK
  5
1094
330
1089
100
AcDbEntity
  8
0
100
AcDbBlockEnd
  0
BLOCK
  5
109E
330
1095
100
AcDbEntity
  8
0
100
AcDbBlockBegin
  2
*D19
 70
     1
 10
0.0
 20
0.0
 30
0.0
  3
*D19
  1

  0
LINE
  5
2452
330
1095
100
AcDbEntity
  8
AM_5
100
AcDbLine
 10
199.1033095518201
 20
351.4956832875291
 30
0.0
 11
197.1979232223287
 21
351.4956832875291
 31
0.0
  0
LINE
  5
2453
330
1095
100
AcDbEntity
  8
AM_5
100
AcDbLine
 10
229.2419602223288
 20
327.9956832875291
 30
0.0
 11
197.1979232223287
 21
327.9956832875291
 31
0.0
  0
LINE
  5
2454
330
1095
100
AcDbEntity
  8
AM_5
100
AcDbLine
 10
198.6979232223287
 20
348.4956832875291
 30
0.0
 11
198.6979232223287
 21
330.9956832875291
 31
0.0
  0
SOLID
  5
2455
330
1095
100
AcDbEntity
  8
AM_5
100
AcDbTrace
 10
198.1979232223287
 20
348.4956832875291
 30
0.0
 11
199.1979232223287
 21
348.4956832875291
 31
0.0
 12
198.6979232223287
 22
351.4956832875291
 32
0.0
 13
198.6979232223287
 23
351.4956832875291
 33
0.0
  0
SOLID
  5
2456
330
1095
100
AcDbEntity
  8
AM_5
100
AcDbTrace
 10
198.1979232223287
 20
330.9956832875291
 30
0.0
 11
199.1979232223287
 21
330.9956832875291
 31
0.0
 12
198.6979232223287
 22
327.9956832875291
 32
0.0
 13
198.6979232223287
 23
327.9956832875291
 33
0.0
  0
MTEXT
  5
2457
330
1095
100
AcDbEntity
  8
AM_5
100
AcDbMText
 10
196.2475787341397
 20
339.7456832875292
 30
0.0
 40
3.5
 41
0.0
 71
     5
 72
     1
  1
23.5
 11
0.0000000000000001
 21
1.0
 31
0.0
 73
     1
 44
1.0
1001
ACAD
1000
MTEXTBEGIN
1070
    73
1070
     1
1070
    44
1040
1.0
1070
    74
1070
     0
1000
MTEXTEND
  0
POINT
  5
2458
330
1095
100
AcDbEntity
  8
Defpoints
 62
     0
100
AcDbPoint
 10
200.1033095518201
 20
351.4956832875291
 30
0.0
  0
POINT
  5
2459
330
1095
100
AcDbEntity
  8
Defpoints
 62
     0
100
AcDbPoint
 10
230.2419602223288
 20
327.9956832875291
 30
0.0
  0
POINT
  5
245A
330
1095
100
AcDbEntity
  8
Defpoints
 62
     0
100
AcDbPoint
 10
198.6979232223287
 20
327.9956832875291
 30
0.0
  0
ENDBLK
  5
109F
330
1095
100
AcDbEntity
  8
0
100
AcDbBlockEnd
  0
BLOCK
  5
1101
330
10F5
100
AcDbEntity
  8
0
100
AcDbBlockBegin
  2
*D20
 70
     1
 10
0.0
 20
0.0
 30
0.0
  3
*D20
  1

  0
LINE
  5
245B
330
10F5
100
AcDbEntity
  8
AM_5
100
AcDbLine
 10
158.5035884588823
 20
397.9956832875291
 30
0.0
 11
158.5035884588823
 21
408.4956832875291
 31
0.0
  0
LINE
  5
245C
330
10F5
100
AcDbEntity
  8
AM_5
100
AcDbLine
 10
164.5035884588823
 20
397.9956832875291
 30
0.0
 11
164.5035884588823
 21
408.4956832875291
 31
0.0
  0
LINE
  5
245D
330
10F5
100
AcDbEntity
  8
AM_5
100
AcDbLine
 10
155.5035884588823
 20
406.995683287529
 30
0.0
 11
152.5035884588823
 21
406.995683287529
 31
0.0
  0
LINE
  5
245E
330
10F5
100
AcDbEntity
  8
AM_5
100
AcDbLine
 10
167.5035884588823
 20
406.995683287529
 30
0.0
 11
181.4750221258782
 21
406.995683287529
 31
0.0
  0
LINE
  5
245F
330
10F5
100
AcDbEntity
  8
AM_5
100
AcDbLine
 10
158.5035884588823
 20
406.995683287529
 30
0.0
 11
164.5035884588823
 21
406.995683287529
 31
0.0
  0
SOLID
  5
2460
330
10F5
100
AcDbEntity
  8
AM_5
100
AcDbTrace
 10
155.5035884588823
 20
407.4956832875291
 30
0.0
 11
155.5035884588823
 21
406.495683287529
 31
0.0
 12
158.5035884588823
 22
406.995683287529
 32
0.0
 13
158.5035884588823
 23
406.995683287529
 33
0.0
  0
SOLID
  5
2461
330
10F5
100
AcDbEntity
  8
AM_5
100
AcDbTrace
 10
167.5035884588823
 20
407.4956832875291
 30
0.0
 11
167.5035884588823
 21
406.495683287529
 31
0.0
 12
164.5035884588823
 22
406.995683287529
 32
0.0
 13
164.5035884588823
 23
406.995683287529
 33
0.0
  0
MTEXT
  5
2462
330
10F5
100
AcDbEntity
  8
AM_5
100
AcDbMText
 10
175.9893052923803
 20
410.0757882143676
 30
0.0
 40
3.5
 41
0.0
 71
     5
 72
     1
  1
6{\H2.100000;\S-0.005^ -0.025;}
 73
     1
 44
1.0
1001
ACAD
1000
MTEXTBEGIN
1070
    73
1070
     1
1070
    44
1040
1.0
1070
    74
1070
     0
1000
MTEXTEND
  0
POINT
  5
2463
330
10F5
100
AcDbEntity
  8
Defpoints
 62
     0
100
AcDbPoint
 10
158.5035884588823
 20
396.9956832875291
 30
0.0
  0
POINT
  5
2464
330
10F5
100
AcDbEntity
  8
Defpoints
 62
     0
100
AcDbPoint
 10
164.5035884588823
 20
396.9956832875291
 30
0.0
  0
POINT
  5
2465
330
10F5
100
AcDbEntity
  8
Defpoints
 62
     0
100
AcDbPoint
 10
164.5035884588823
 20
406.995683287529
 30
0.0
  0
ENDBLK
  5
1102
330
10F5
100
AcDbEntity
  8
0
100
AcDbBlockEnd
  0
BLOCK
  5
14D7
330
14D6
100
AcDbEntity
  8
0
100
AcDbBlockBegin
  2
GENDOT
 70
     0
 10
0.0
 20
0.0
 30
0.0
  3
GENDOT
  1

  0
LINE
  5
14D8
330
14D6
100
AcDbEntity
  8
0
100
AcDbLine
 10
0.0
 20
0.0
 30
0.0
 11
-1.0
 21
0.0
 31
0.0
  0
LWPOLYLINE
  5
14D9
330
14D6
100
AcDbEntity
  8
0
100
AcDbPolyline
 90
        2
 70
     1
 43
0.25
 10
-0.125
 20
0.0
 42
1.0
 10
0.125
 20
0.0
 42
1.0
  0
ENDBLK
  5
14DA
330
14D6
100
AcDbEntity
  8
0
100
AcDbBlockEnd
  0
BLOCK
  5
1B91
330
1B90
100
AcDbEntity
  8
0
100
AcDbBlockBegin
  2
*U23
 70
     1
 10
0.0
 20
0.0
 30
0.0
  3
*U23
  1

  0
ENDBLK
  5
1B92
330
1B90
100
AcDbEntity
  8
0
100
AcDbBlockEnd
  0
BLOCK
  5
1C04
330
1BF8
100
AcDbEntity
  8
0
100
AcDbBlockBegin
  2
*D24
 70
     1
 10
0.0
 20
0.0
 30
0.0
  3
*D24
  1

  0
LINE
  5
2466
330
1BF8
100
AcDbEntity
  8
AM_5
100
AcDbLine
 10
157.5035884588823
 20
396.9956832875291
 30
0.0
 11
147.0035884588823
 21
396.9956832875291
 31
0.0
  0
LINE
  5
2467
330
1BF8
100
AcDbEntity
  8
AM_5
100
AcDbLine
 10
158.0035884588823
 20
393.9956832875291
 30
0.0
 11
147.0035884588823
 21
393.9956832875291
 31
0.0
  0
LINE
  5
2468
330
1BF8
100
AcDbEntity
  8
AM_5
100
AcDbLine
 10
148.5035884588823
 20
399.9956832875291
 30
0.0
 11
148.5035884588823
 21
402.995683287529
 31
0.0
  0
LINE
  5
2469
330
1BF8
100
AcDbEntity
  8
AM_5
100
AcDbLine
 10
148.5035884588823
 20
390.9956832875291
 30
0.0
 11
148.5035884588823
 21
387.9956832875291
 31
0.0
  0
LINE
  5
246A
330
1BF8
100
AcDbEntity
  8
AM_5
100
AcDbLine
 10
148.5035884588823
 20
396.9956832875291
 30
0.0
 11
148.5035884588823
 21
393.9956832875291
 31
0.0
  0
SOLID
  5
246B
330
1BF8
100
AcDbEntity
  8
AM_5
100
AcDbTrace
 10
148.0035884588823
 20
399.9956832875291
 30
0.0
 11
149.0035884588823
 21
399.9956832875291
 31
0.0
 12
148.5035884588823
 22
396.9956832875291
 32
0.0
 13
148.5035884588823
 23
396.9956832875291
 33
0.0
  0
INSERT
  5
246C
330
1BF8
100
AcDbEntity
  8
AM_5
100
AcDbBlockReference
  2
GENDOT
 10
148.5035884588823
 20
393.9956832875291
 30
0.0
 41
3.0
 42
3.0
 43
3.0
 50
90.0
  0
MTEXT
  5
246D
330
1BF8
100
AcDbEntity
  8
AM_5
100
AcDbMText
 10
146.0535884588822
 20
395.4956832875292
 30
0.0
 40
3.5
 41
0.0
 71
     5
 72
     1
  1
3
 11
0.0000000000000001
 21
1.0
 31
0.0
 73
     1
 44
1.0
1001
ACAD
1000
MTEXTBEGIN
1070
    73
1070
     1
1070
    44
1040
1.0
1070
    74
1070
     0
1000
MTEXTEND
  0
POINT
  5
246E
330
1BF8
100
AcDbEntity
  8
Defpoints
 62
     0
100
AcDbPoint
 10
158.5035884588823
 20
396.9956832875291
 30
0.0
  0
POINT
  5
246F
330
1BF8
100
AcDbEntity
  8
Defpoints
 62
     0
100
AcDbPoint
 10
159.0035884588823
 20
393.9956832875291
 30
0.0
  0
POINT
  5
2470
330
1BF8
100
AcDbEntity
  8
Defpoints
 62
     0
100
AcDbPoint
 10
148.5035884588823
 20
393.9956832875291
 30
0.0
  0
ENDBLK
  5
1C05
330
1BF8
100
AcDbEntity
  8
0
100
AcDbBlockEnd
  0
BLOCK
  5
1C34
330
1C28
100
AcDbEntity
  8
0
100
AcDbBlockBegin
  2
*D25
 70
     1
 10
0.0
 20
0.0
 30
0.0
  3
*D25
  1

  0
LINE
  5
2471
330
1C28
100
AcDbEntity
  8
AM_5
100
AcDbLine
 10
158.0035884588823
 20
393.9956832875291
 30
0.0
 11
147.0035884588823
 21
393.9956832875291
 31
0.0
  0
LINE
  5
2472
330
1C28
100
AcDbEntity
  8
AM_5
100
AcDbLine
 10
158.0035884588823
 20
387.9956832875291
 30
0.0
 11
147.0035884588823
 21
387.9956832875291
 31
0.0
  0
LINE
  5
2473
330
1C28
100
AcDbEntity
  8
AM_5
100
AcDbLine
 10
148.5035884588823
 20
396.9956832875291
 30
0.0
 11
148.5035884588823
 21
399.9956832875291
 31
0.0
  0
LINE
  5
2474
330
1C28
100
AcDbEntity
  8
AM_5
100
AcDbLine
 10
148.5035884588823
 20
384.9956832875291
 30
0.0
 11
148.5035884588823
 21
381.9956832875291
 31
0.0
  0
LINE
  5
2475
330
1C28
100
AcDbEntity
  8
AM_5
100
AcDbLine
 10
148.5035884588823
 20
393.9956832875291
 30
0.0
 11
148.5035884588823
 21
387.9956832875291
 31
0.0
  0
INSERT
  5
2476
330
1C28
100
AcDbEntity
  8
AM_5
100
AcDbBlockReference
  2
GENDOT
 10
148.5035884588823
 20
393.9956832875291
 30
0.0
 41
3.0
 42
3.0
 43
3.0
 50
270.0
  0
SOLID
  5
2477
330
1C28
100
AcDbEntity
  8
AM_5
100
AcDbTrace
 10
148.0035884588823
 20
384.9956832875291
 30
0.0
 11
149.0035884588823
 21
384.9956832875291
 31
0.0
 12
148.5035884588823
 22
387.9956832875291
 32
0.0
 13
148.5035884588823
 23
387.9956832875291
 33
0.0
  0
MTEXT
  5
2478
330
1C28
100
AcDbEntity
  8
AM_5
100
AcDbMText
 10
146.0535884588822
 20
390.9956832875292
 30
0.0
 40
3.5
 41
0.0
 71
     5
 72
     1
  1
6
 11
0.0000000000000001
 21
1.0
 31
0.0
 73
     1
 44
1.0
1001
ACAD
1000
MTEXTBEGIN
1070
    73
1070
     1
1070
    44
1040
1.0
1070
    74
1070
     0
1000
MTEXTEND
  0
POINT
  5
2479
330
1C28
100
AcDbEntity
  8
Defpoints
 62
     0
100
AcDbPoint
 10
159.0035884588823
 20
393.9956832875291
 30
0.0
  0
POINT
  5
247A
330
1C28
100
AcDbEntity
  8
Defpoints
 62
     0
100
AcDbPoint
 10
159.0035884588823
 20
387.9956832875291
 30
0.0
  0
POINT
  5
247B
330
1C28
100
AcDbEntity
  8
Defpoints
 62
     0
100
AcDbPoint
 10
148.5035884588823
 20
387.9956832875291
 30
0.0
  0
ENDBLK
  5
1C35
330
1C28
100
AcDbEntity
  8
0
100
AcDbBlockEnd
  0
BLOCK
  5
1D35
330
1D2C
100
AcDbEntity
  8
0
100
AcDbBlockBegin
  2
*D26
 70
     1
 10
0.0
 20
0.0
 30
0.0
  3
*D26
  1

  0
LINE
  5
2482
330
1D2C
100
AcDbEntity
  8
AM_5
100
AcDbLine
 10
265.3672702487191
 20
377.4869191758553
 30
0.0
 11
270.9378153944681
 21
382.083070851976
 31
0.0
  0
LINE
  5
2483
330
1D2C
100
AcDbEntity
  8
AM_5
100
AcDbLine
 10
270.9378153944681
 20
382.083070851976
 30
0.0
 11
285.026693347224
 21
382.0830708519761
 31
0.0
  0
SOLID
  5
2484
330
1D2C
100
AcDbEntity
  8
AM_5
100
AcDbTrace
 10
265.0490601542164
 20
377.8725904552585
 30
0.0
 11
265.6854803432219
 21
377.1012478964521
 31
0.0
 12
263.0532425722997
 22
375.5776586088387
 32
0.0
 13
263.0532425722997
 23
375.5776586088387
 33
0.0
  0
MTEXT
  5
2485
330
1D2C
100
AcDbEntity
  8
AM_5
100
AcDbMText
 10
278.3322543708459
 20
384.5334153401651
 30
0.0
 40
3.5
 41
0.0
 71
     5
 72
     1
  1
2-\U+22053.4
 73
     1
 44
1.0
1001
ACAD
1000
MTEXTBEGIN
1070
    73
1070
     1
1070
    44
1040
1.0
1070
    74
1070
     0
1000
MTEXTEND
  0
POINT
  5
2486
330
1D2C
100
AcDbEntity
  8
Defpoints
 62
     0
100
AcDbPoint
 10
263.0532425722997
 20
375.5776586088387
 30
0.0
  0
POINT
  5
2487
330
1D2C
100
AcDbEntity
  8
Defpoints
 62
     0
100
AcDbPoint
 10
260.4306778723575
 20
373.4138299662195
 30
0.0
  0
ENDBLK
  5
1D36
330
1D2C
100
AcDbEntity
  8
0
100
AcDbBlockEnd
  0
BLOCK
  5
24DA
330
24D5
100
AcDbEntity
  8
0
100
AcDbBlockBegin
  2
*S30
 70
     1
 10
0.0
 20
0.0
 30
0.0
  3
*S30
  1

  0
LINE
  5
24D6
330
24D5
100
AcDbEntity
  8
AM_5
 62
     5
100
AcDbLine
 10
289.414781195423
 20
417.3846376376737
 30
0.0
 11
258.8719917455449
 21
417.3846376376737
 31
0.0
  0
LINE
  5
24D7
330
24D5
100
AcDbEntity
  8
AM_5
 62
     5
100
AcDbLine
 10
258.8719917455449
 20
417.3846376376737
 30
0.0
 11
252.8001520965406
 21
426.0186298607562
 31
0.0
  0
TRACE
  5
24D8
330
24D5
100
AcDbEntity
  8
AM_5
 62
     5
370
    35
100
AcDbTrace
 10
253.1770647781115
 20
426.2836930325825
 30
0.0
 11
252.4232394149697
 21
425.7535666889298
 31
0.0
 12
250.7867974100254
 22
428.88156592471
 32
0.0
 13
250.7867974100254
 23
428.88156592471
 33
0.0
  0
MTEXT
  5
24D9
330
24D5
100
AcDbEntity
  8
AM_5
 62
     5
100
AcDbMText
 10
289.414781195423
 20
423.1952407560724
 30
0.0
 40
3.5
 41
0.0
 71
     7
 72
     5
  1

  7
ACISOTS
 73
     1
 44
1.0
1001
ACAD
1000
MTEXTBEGIN
1070
    73
1070
     1
1070
    44
1040
1.0
1070
    74
1070
     0
1000
MTEXTEND
  0
ENDBLK
  5
24DB
330
24D5
100
AcDbEntity
  8
0
100
AcDbBlockEnd
  0
BLOCK
  5
24E2
330
24DD
100
AcDbEntity
  8
0
100
AcDbBlockBegin
  2
*S31
 70
     1
 10
0.0
 20
0.0
 30
0.0
  3
*S31
  1

  0
LINE
  5
24DE
330
24DD
100
AcDbEntity
  8
AM_5
 62
     5
100
AcDbLine
 10
194.5129683068845
 20
386.6177297794455
 30
0.0
 11
172.8819303310105
 21
386.6177297794455
 31
0.0
  0
LINE
  5
24DF
330
24DD
100
AcDbEntity
  8
AM_5
 62
     5
100
AcDbLine
 10
172.8819303310105
 20
386.6177297794455
 30
0.0
 11
165.2938668313254
 21
391.3396578814237
 31
0.0
  0
TRACE
  5
24E0
330
24DD
100
AcDbEntity
  8
AM_5
 62
     5
370
    35
100
AcDbTrace
 10
165.5373170838633
 20
391.7308785725008
 30
0.0
 11
165.0504165787875
 21
390.9484371903467
 31
0.0
 12
162.3222506448351
 22
393.1888461466333
 32
0.0
 13
162.3222506448351
 23
393.1888461466333
 33
0.0
  0
MTEXT
  5
24E1
330
24DD
100
AcDbEntity
  8
AM_5
 62
     5
100
AcDbMText
 10
194.5129683068845
 20
392.6549079184127
 30
0.0
 40
3.5
 41
0.0
 71
     7
 72
     5
  1

  7
ACISOTS
 73
     1
 44
1.0
1001
ACAD
1000
MTEXTBEGIN
1070
    73
1070
     1
1070
    44
1040
1.0
1070
    74
1070
     0
1000
MTEXTEND
  0
ENDBLK
  5
24E3
330
24DD
100
AcDbEntity
  8
0
100
AcDbBlockEnd
  0
BLOCK
  5
24EA
330
24E5
100
AcDbEntity
  8
0
100
AcDbBlockBegin
  2
*S32
 70
     1
 10
0.0
 20
0.0
 30
0.0
  3
*S32
  1

  0
LINE
  5
24E6
330
24E5
100
AcDbEntity
  8
AM_5
 62
     5
100
AcDbLine
 10
286.4199847179324
 20
391.5331459752017
 30
0.0
 11
255.8771952680543
 21
391.5331459752017
 31
0.0
  0
LINE
  5
24E7
330
24E5
100
AcDbEntity
  8
AM_5
 62
     5
100
AcDbLine
 10
255.8771952680543
 20
391.5331459752017
 30
0.0
 11
247.4300393703579
 21
378.3437776872526
 31
0.0
  0
TRACE
  5
24E8
330
24E5
100
AcDbEntity
  8
AM_5
 62
     5
370
    35
100
AcDbTrace
 10
247.0420140369867
 20
378.5922892468424
 30
0.0
 11
247.8180647037292
 21
378.0952661276628
 31
0.0
 12
245.5424066611219
 22
375.3964326523063
 32
0.0
 13
245.5424066611219
 23
375.3964326523063
 33
0.0
  0
MTEXT
  5
24E9
330
24E5
100
AcDbEntity
  8
AM_5
 62
     5
100
AcDbMText
 10
286.4199847179324
 20
397.3437490936005
 30
0.0
 40
3.5
 41
0.0
 71
     7
 72
     5
  1

  7
ACISOTS
 73
     1
 44
1.0
1001
ACAD
1000
MTEXTBEGIN
1070
    73
1070
     1
1070
    44
1040
1.0
1070
    74
1070
     0
1000
MTEXTEND
  0
ENDBLK
  5
24EB
330
24E5
100
AcDbEntity
  8
0
100
AcDbBlockEnd
  0
BLOCK
  5
24F2
330
24ED
100
AcDbEntity
  8
0
100
AcDbBlockBegin
  2
*S33
 70
     1
 10
0.0
 20
0.0
 30
0.0
  3
*S33
  1

  0
LINE
  5
24EE
330
24ED
100
AcDbEntity
  8
AM_5
 62
     5
100
AcDbLine
 10
308.2504805416013
 20
265.1615738239492
 30
0.0
 11
290.6003899503157
 21
265.1615738239492
 31
0.0
  0
LINE
  5
24EF
330
24ED
100
AcDbEntity
  8
AM_5
 62
     5
100
AcDbLine
 10
290.6003899503157
 20
265.1615738239492
 30
0.0
 11
277.3488128498201
 21
275.0256799862656
 31
0.0
  0
TRACE
  5
24F0
330
24ED
100
AcDbEntity
  8
AM_5
 62
     5
370
    35
100
AcDbTrace
 10
277.6239499951907
 20
275.3953030453743
 30
0.0
 11
277.0736757044495
 21
274.6560569271569
 31
0.0
 12
274.5412469659102
 22
277.1155540991023
 32
0.0
 13
274.5412469659102
 23
277.1155540991023
 33
0.0
  0
MTEXT
  5
24F1
330
24ED
100
AcDbEntity
  8
AM_5
 62
     5
100
AcDbMText
 10
308.2504805416013
 20
274.0789165695784
 30
0.0
 40
3.5
 41
0.0
 71
     7
 72
     5
  1

  7
ACISOTS
 73
     1
 44
1.0
1001
ACAD
1000
MTEXTBEGIN
1070
    73
1070
     1
1070
    44
1040
1.0
1070
    74
1070
     0
1000
MTEXTEND
  0
ENDBLK
  5
24F3
330
24ED
100
AcDbEntity
  8
0
100
AcDbBlockEnd
  0
BLOCK
  5
24FA
330
24F5
100
AcDbEntity
  8
0
100
AcDbBlockBegin
  2
*S34
 70
     1
 10
0.0
 20
0.0
 30
0.0
  3
*S34
  1

  0
LINE
  5
24F6
330
24F5
100
AcDbEntity
  8
AM_5
 62
     5
100
AcDbLine
 10
280.1987235095607
 20
296.0677750632775
 30
0.0
 11
262.5486329182752
 21
296.0677750632775
 31
0.0
  0
LINE
  5
24F7
330
24F5
100
AcDbEntity
  8
AM_5
 62
     5
100
AcDbLine
 10
262.5486329182752
 20
296.0677750632775
 30
0.0
 11
253.8008003671595
 21
285.835071943174
 31
0.0
  0
TRACE
  5
24F8
330
24F5
100
AcDbEntity
  8
AM_5
 62
     5
370
    35
100
AcDbTrace
 10
253.4505576334212
 20
286.134490850478
 30
0.0
 11
254.1510431008978
 21
285.5356530358699
 31
0.0
 12
251.5264879604302
 22
283.1747142460594
 32
0.0
 13
251.5264879604302
 23
283.1747142460594
 33
0.0
  0
MTEXT
  5
24F9
330
24F5
100
AcDbEntity
  8
AM_5
 62
     5
100
AcDbMText
 10
280.1987235095607
 20
304.9851178089067
 30
0.0
 40
3.5
 41
0.0
 71
     7
 72
     5
  1

  7
ACISOTS
 73
     1
 44
1.0
1001
ACAD
1000
MTEXTBEGIN
1070
    73
1070
     1
1070
    44
1040
1.0
1070
    74
1070
     0
1000
MTEXTEND
  0
ENDBLK
  5
24FB
330
24F5
100
AcDbEntity
  8
0
100
AcDbBlockEnd
  0
BLOCK
  5
2502
330
24FD
100
AcDbEntity
  8
0
100
AcDbBlockBegin
  2
*S35
 70
     1
 10
0.0
 20
0.0
 30
0.0
  3
*S35
  1

  0
LINE
  5
24FE
330
24FD
100
AcDbEntity
  8
AM_5
 62
     5
100
AcDbLine
 10
377.1005494505991
 20
335.5757610380677
 30
0.0
 11
344.1931042601467
 21
335.5757610380677
 31
0.0
  0
LINE
  5
24FF
330
24FD
100
AcDbEntity
  8
AM_5
 62
     5
100
AcDbLine
 10
344.1931042601467
 20
335.5757610380677
 30
0.0
 11
333.8465811929639
 21
355.4412879722939
 31
0.0
  0
TRACE
  5
2500
330
24FD
100
AcDbEntity
  8
AM_5
 62
     5
370
    35
100
AcDbTrace
 10
334.2552576708408
 20
355.6541381332471
 30
0.0
 11
333.437904715087
 21
355.2284378113408
 31
0.0
 12
332.2298237002967
 22
358.5454940237513
 32
0.0
 13
332.2298237002967
 23
358.5454940237513
 33
0.0
  0
MTEXT
  5
2501
330
24FD
100
AcDbEntity
  8
AM_5
 62
     5
100
AcDbMText
 10
377.1005494505991
 20
344.3029641650106
 30
0.0
 40
3.5
 41
0.0
 71
     7
 72
     5
  1

  7
ACISOTS
 73
     1
 44
1.0
1001
ACAD
1000
MTEXTBEGIN
1070
    73
1070
     1
1070
    44
1040
1.0
1070
    74
1070
     0
1000
MTEXTEND
  0
ENDBLK
  5
2503
330
24FD
100
AcDbEntity
  8
0
100
AcDbBlockEnd
  0
BLOCK
  5
250A
330
2505
100
AcDbEntity
  8
0
100
AcDbBlockBegin
  2
*S36
 70
     1
 10
0.0
 20
0.0
 30
0.0
  3
*S36
  1

  0
LINE
  5
2506
330
2505
100
AcDbEntity
  8
AM_5
 62
     5
100
AcDbLine
 10
374.7113437883769
 20
388.8409086508114
 30
0.0
 11
344.1219480771889
 21
388.8409086508114
 31
0.0
  0
LINE
  5
2507
330
2505
100
AcDbEntity
  8
AM_5
 62
     5
100
AcDbLine
 10
344.1219480771889
 20
388.8409086508114
 30
0.0
 11
336.0110133617684
 21
377.9106788526099
 31
0.0
  0
TRACE
  5
2508
330
2505
100
AcDbEntity
  8
AM_5
 62
     5
370
    35
100
AcDbTrace
 10
335.6409816822774
 20
378.1852661989329
 30
0.0
 11
336.3810450412594
 21
377.6360915062869
 31
0.0
 12
333.9253153873275
 22
375.1000091887374
 32
0.0
 13
333.9253153873275
 23
375.1000091887374
 33
0.0
  0
MTEXT
  5
2509
330
2505
100
AcDbEntity
  8
AM_5
 62
     5
100
AcDbMText
 10
374.7113437883769
 20
396.411522654123
 30
0.0
 40
3.5
 41
0.0
 71
     7
 72
     5
  1

  7
ACISOTS
 73
     1
 44
1.0
1001
ACAD
1000
MTEXTBEGIN
1070
    73
1070
     1
1070
    44
1040
1.0
1070
    74
1070
     0
1000
MTEXTEND
  0
ENDBLK
  5
250B
330
2505
100
AcDbEntity
  8
0
100
AcDbBlockEnd
  0
ENDSEC
  0
SECTION
  2
ENTITIES
  0
LINE
  5
DDE
330
1F
100
AcDbEntity
  8
0
  6
Continuous
 62
     7
100
AcDbLine
 10
223.7419602223288
 20
377.4957442875291
 30
0.0
 11
223.7419602223288
 21
347.4956832875291
 31
0.0
  0
LINE
  5
DDF
330
1F
100
AcDbEntity
  8
0
  6
Continuous
 62
     7
100
AcDbLine
 10
221.7419602223288
 20
376.9957442875291
 30
0.0
 11
221.7419602223288
 21
347.9956832875291
 31
0.0
  0
LINE
  5
DE2
330
1F
100
AcDbEntity
  8
0
  6
Continuous
 62
     7
100
AcDbLine
 10
279.7419602223288
 20
377.4957442875291
 30
0.0
 11
279.7419602223288
 21
347.4956832875291
 31
0.0
  0
LINE
  5
DE3
330
1F
100
AcDbEntity
  8
AM_7
100
AcDbLine
 10
272.7419602223288
 20
282.310953907947
 30
0.0
 11
272.7419602223288
 21
274.297769907947
 31
0.0
  0
LINE
  5
DE4
330
1F
100
AcDbEntity
  8
0
  6
Continuous
 62
     7
100
AcDbLine
 10
221.7419602223288
 20
286.9642129079471
 30
0.0
 11
221.7419602223288
 21
272.964273907947
 31
0.0
  0
LINE
  5
DE5
330
1F
100
AcDbEntity
  8
0
  6
Continuous
 62
     7
100
AcDbLine
 10
223.7419602223288
 20
272.464273907947
 30
0.0
 11
223.7419602223288
 21
276.964273907947
 31
0.0
  0
LINE
  5
DE6
330
1F
100
AcDbEntity
  8
AM_7
100
AcDbLine
 10
232.2419602223288
 20
270.814127907947
 30
0.0
 11
232.2419602223288
 21
288.423563907947
 31
0.0
  0
LINE
  5
DE7
330
1F
100
AcDbEntity
  8
0
  6
Continuous
 62
     7
100
AcDbLine
 10
279.7419602223288
 20
272.464273907947
 30
0.0
 11
279.7419602223288
 21
287.4641519079471
 31
0.0
  0
LINE
  5
DE8
330
1F
100
AcDbEntity
  8
0
  6
Continuous
 62
     7
100
AcDbLine
 10
279.7419602223288
 20
272.464273907947
 30
0.0
 11
223.7419602223288
 21
272.464273907947
 31
0.0
  0
LINE
  5
DE9
330
1F
100
AcDbEntity
  8
0
  6
Continuous
 62
     7
100
AcDbLine
 10
221.7419602223288
 20
272.964273907947
 30
0.0
 11
223.7419602223288
 21
272.964273907947
 31
0.0
  0
CIRCLE
  5
DEE
330
1F
100
AcDbEntity
  8
0
  6
Continuous
 62
     7
100
AcDbCircle
 10
261.7419602223288
 20
350.4956832875291
 30
0.0
 40
1.7
  0
LINE
  5
DEF
330
1F
100
AcDbEntity
  8
0
  6
Continuous
 62
     7
100
AcDbLine
 10
223.7419602223288
 20
358.1956342875291
 30
0.0
 11
279.7419602223288
 21
358.1956342875291
 31
0.0
  0
LINE
  5
DF0
330
1F
100
AcDbEntity
  8
0
  6
Continuous
 62
     7
100
AcDbLine
 10
223.7419602223288
 20
358.4956832875291
 30
0.0
 11
279.7419602223288
 21
358.4956832875291
 31
0.0
  0
LINE
  5
DF1
330
1F
100
AcDbEntity
  8
0
  6
Continuous
 62
     7
100
AcDbLine
 10
223.7419602223288
 20
357.4956832875291
 30
0.0
 11
279.7419602223288
 21
357.4956832875291
 31
0.0
  0
LINE
  5
DF2
330
1F
100
AcDbEntity
  8
0
  6
Continuous
 62
     7
100
AcDbLine
 10
223.7419602223288
 20
354.4956832875291
 30
0.0
 11
279.7419602223288
 21
354.4956832875291
 31
0.0
  0
LINE
  5
DF3
330
1F
100
AcDbEntity
  8
AM_7
100
AcDbLine
 10
282.9563152223288
 20
279.964273907947
 30
0.0
 11
219.0258962223288
 21
279.964273907947
 31
0.0
  0
LINE
  5
DF4
330
1F
100
AcDbEntity
  8
0
  6
Continuous
 62
     7
100
AcDbLine
 10
279.7419602223288
 20
287.4641519079471
 30
0.0
 11
223.7419602223288
 21
287.4641519079471
 31
0.0
  0
LINE
  5
DF5
330
1F
100
AcDbEntity
  8
0
  6
Continuous
 62
     7
100
AcDbLine
 10
279.7419602223288
 20
347.4956832875291
 30
0.0
 11
223.7419602223288
 21
347.4956832875291
 31
0.0
  0
LINE
  5
DF8
330
1F
100
AcDbEntity
  8
0
  6
Continuous
 62
     7
100
AcDbLine
 10
235.9419112223288
 20
282.964273907947
 30
0.0
 11
223.6418622223288
 21
282.964273907947
 31
0.0
  0
LINE
  5
DF9
330
1F
100
AcDbEntity
  8
0
  6
Continuous
 62
     7
100
AcDbLine
 10
235.9419112223288
 20
276.964273907947
 30
0.0
 11
223.6418622223288
 21
276.964273907947
 31
0.0
  0
LINE
  5
DFA
330
1F
100
AcDbEntity
  8
0
  6
Continuous
 62
     7
100
AcDbLine
 10
223.7419602223288
 20
282.964273907947
 30
0.0
 11
223.7419602223288
 21
287.4641519079471
 31
0.0
  0
LINE
  5
DFB
330
1F
100
AcDbEntity
  8
0
  6
Continuous
 62
     7
100
AcDbLine
 10
221.7419602223288
 20
283.264322907947
 30
0.0
 11
223.7419602223288
 21
283.264322907947
 31
0.0
  0
LINE
  5
DFC
330
1F
100
AcDbEntity
  8
0
  6
Continuous
 62
     7
100
AcDbLine
 10
221.7419602223288
 20
276.6642249079471
 30
0.0
 11
223.7419602223288
 21
276.6642249079471
 31
0.0
  0
LINE
  5
DFD
330
1F
100
AcDbEntity
  8
0
  6
Continuous
 62
     7
100
AcDbLine
 10
223.6418622223288
 20
276.964273907947
 30
0.0
 11
223.6418622223288
 21
282.964273907947
 31
0.0
  0
LINE
  5
DFE
330
1F
100
AcDbEntity
  8
0
  6
Continuous
 62
     7
100
AcDbLine
 10
221.7419602223288
 20
286.9642129079471
 30
0.0
 11
223.7419602223288
 21
286.9642129079471
 31
0.0
  0
LINE
  5
E04
330
1F
100
AcDbEntity
  8
AM_7
100
AcDbLine
 10
252.8921062223287
 20
281.464273907947
 30
0.0
 11
246.3784352223288
 21
281.464273907947
 31
0.0
  0
LINE
  5
E05
330
1F
100
AcDbEntity
  8
0
  6
Continuous
 62
     7
100
AcDbLine
 10
230.2419602223288
 20
276.964273907947
 30
0.0
 11
230.2419602223288
 21
282.964273907947
 31
0.0
  0
LINE
  5
E06
330
1F
100
AcDbEntity
  8
0
  6
Continuous
 62
     7
100
AcDbLine
 10
234.2419602223288
 20
276.964273907947
 30
0.0
 11
234.2419602223288
 21
282.964273907947
 31
0.0
  0
LINE
  5
E07
330
1F
100
AcDbEntity
  8
0
  6
Continuous
 62
     7
100
AcDbLine
 10
235.9419112223288
 20
276.964273907947
 30
0.0
 11
235.9419112223288
 21
282.964273907947
 31
0.0
  0
LINE
  5
E0A
330
1F
100
AcDbEntity
  8
AM_7
100
AcDbLine
 10
249.7419602223288
 20
284.7765299079469
 30
0.0
 11
249.7419602223288
 21
278.232584907947
 31
0.0
  0
LINE
  5
E0B
330
1F
100
AcDbEntity
  8
0
  6
Continuous
 62
     7
100
AcDbLine
 10
229.5110032223288
 20
343.1956342875291
 30
0.0
 11
230.2419602223288
 21
343.1956342875291
 31
0.0
  0
LINE
  5
E0D
330
1F
100
AcDbEntity
  8
AM_7
100
AcDbLine
 10
228.7419602223287
 20
351.5872972875291
 30
0.0
 11
207.8150502223287
 21
352.1352862875291
 31
0.0
  0
LINE
  5
E0E
330
1F
100
AcDbEntity
  8
0
  6
ACISOTGB
 62
     2
100
AcDbLine
 10
221.7420442223288
 20
353.7712872875292
 30
0.0
 11
208.8026292223287
 21
354.1101242875291
 31
0.0
  0
LINE
  5
E0F
330
1F
100
AcDbEntity
  8
0
  6
ACISOTGB
 62
     2
100
AcDbLine
 10
221.7420362223288
 20
349.7699752875291
 30
0.0
 11
208.6979232223288
 21
350.1115432875291
 31
0.0
  0
LINE
  5
E10
330
1F
100
AcDbEntity
  8
0
  6
ACISOTGB
 62
     2
100
AcDbLine
 10
208.8026292223287
 20
354.1101242875291
 30
0.0
 11
208.6979232223288
 21
350.1115432875291
 31
0.0
  0
LINE
  5
E11
330
1F
100
AcDbEntity
  8
0
  6
Continuous
 62
     7
100
AcDbLine
 10
221.7419602223288
 20
347.9956832875291
 30
0.0
 11
223.7419602223288
 21
347.9956832875291
 31
0.0
  0
ARC
  5
E12
330
1F
100
AcDbEntity
  8
0
  6
Continuous
 62
     7
100
AcDbCircle
 10
232.2419602223288
 20
351.4956832875291
 30
0.0
 40
8.599999
100
AcDbArc
 50
207.7177629999994
 51
248.6180829999991
  0
ARC
  5
E13
330
1F
100
AcDbEntity
  8
0
  6
Continuous
 62
     7
100
AcDbCircle
 10
228.7419602223287
 20
342.5564742875291
 30
0.0
 40
1.0
100
AcDbArc
 50
39.7349090000009
 51
68.61804700000039
  0
LINE
  5
E14
330
1F
100
AcDbEntity
  8
0
  6
Continuous
 62
     7
100
AcDbLine
 10
221.7419602223288
 20
353.8957072875291
 30
0.0
 11
223.7419602223288
 21
353.8957072875291
 31
0.0
  0
LINE
  5
E15
330
1F
100
AcDbEntity
  8
0
  6
Continuous
 62
     7
100
AcDbLine
 10
221.7419602223288
 20
358.0957202875292
 30
0.0
 11
223.7419602223288
 21
358.0957202875292
 31
0.0
  0
LINE
  5
E16
330
1F
100
AcDbEntity
  8
0
  6
Continuous
 62
     7
100
AcDbLine
 10
230.2419602223288
 20
343.1956342875291
 30
0.0
 11
230.2419602223288
 21
327.9956832875291
 31
0.0
  0
LINE
  5
E17
330
1F
100
AcDbEntity
  8
0
  6
Continuous
 62
     7
100
AcDbLine
 10
234.2419602223288
 20
347.4956832875291
 30
0.0
 11
234.2419602223288
 21
327.9956832875291
 31
0.0
  0
LINE
  5
E18
330
1F
100
AcDbEntity
  8
0
  6
Continuous
 62
     7
100
AcDbLine
 10
230.2419602223288
 20
327.9956832875291
 30
0.0
 11
234.2419602223288
 21
327.9956832875291
 31
0.0
  0
CIRCLE
  5
E19
330
1F
100
AcDbEntity
  8
0
  6
Continuous
 62
     7
100
AcDbCircle
 10
232.2419602223288
 20
351.4956832875291
 30
0.0
 40
1.25
  0
LINE
  5
E1E
330
1F
100
AcDbEntity
  8
AM_7
100
AcDbLine
 10
276.8889332223288
 20
278.464273907947
 30
0.0
 11
269.0041672223288
 21
278.464273907947
 31
0.0
  0
POINT
  5
E1F
330
1F
100
AcDbEntity
  8
0
  6
Continuous
 62
     7
100
AcDbPoint
 10
279.7419602223288
 20
279.964273907947
 30
0.0
  0
LINE
  5
E24
330
1F
100
AcDbEntity
  8
0
  6
Continuous
 62
     7
100
AcDbLine
 10
230.2419602223288
 20
431.2297550683088
 30
0.0
 11
230.2419602223288
 21
437.2297550683088
 31
0.0
  0
LINE
  5
E25
330
1F
100
AcDbEntity
  8
0
  6
Continuous
 62
     7
100
AcDbLine
 10
234.2419602223288
 20
431.2297550683088
 30
0.0
 11
234.2419602223288
 21
437.2297550683088
 31
0.0
  0
LINE
  5
E26
330
1F
100
AcDbEntity
  8
0
  6
Continuous
 62
     7
100
AcDbLine
 10
223.6418622223288
 20
431.2297550683088
 30
0.0
 11
223.6418622223288
 21
437.2297550683088
 31
0.0
  0
LINE
  5
E27
330
1F
100
AcDbEntity
  8
0
  6
Continuous
 62
     7
100
AcDbLine
 10
221.7419602223288
 20
441.2297550683088
 30
0.0
 11
221.7419602223288
 21
427.2297550683088
 31
0.0
  0
LINE
  5
E28
330
1F
100
AcDbEntity
  8
0
  6
Continuous
 62
     7
100
AcDbLine
 10
235.9419112223288
 20
431.2297550683088
 30
0.0
 11
235.9419112223288
 21
437.2297550683088
 31
0.0
  0
LINE
  5
E29
330
1F
100
AcDbEntity
  8
AM_7
100
AcDbLine
 10
232.2419602223288
 20
425.6436950683088
 30
0.0
 11
232.2419602223288
 21
442.2452580683088
 31
0.0
  0
LINE
  5
E2A
330
1F
100
AcDbEntity
  8
AM_7
100
AcDbLine
 10
249.7419602223288
 20
427.7088810683087
 30
0.0
 11
249.7419602223288
 21
440.6555360683088
 31
0.0
  0
LINE
  5
E2B
330
1F
100
AcDbEntity
  8
0
  6
Continuous
 62
     7
100
AcDbLine
 10
279.7419602223288
 20
426.7297550683088
 30
0.0
 11
279.7419602223288
 21
441.7297550683088
 31
0.0
  0
CIRCLE
  5
E2D
102
{ACAD_REACTORS
330
1D38
102
}
330
1F
100
AcDbEntity
  8
0
  6
Continuous
 62
     7
100
AcDbCircle
 10
261.7419602223288
 20
374.4957442875291
 30
0.0
 40
1.7
  0
LINE
  5
E2E
330
1F
100
AcDbEntity
  8
0
  6
Continuous
 62
     7
100
AcDbLine
 10
223.7419602223288
 20
366.4956832875291
 30
0.0
 11
279.7419602223288
 21
366.4956832875291
 31
0.0
  0
LINE
  5
E2F
330
1F
100
AcDbEntity
  8
0
  6
Continuous
 62
     7
100
AcDbLine
 10
223.7419602223288
 20
366.7956712875291
 30
0.0
 11
279.7419602223288
 21
366.7956712875291
 31
0.0
  0
LINE
  5
E30
330
1F
100
AcDbEntity
  8
0
  6
Continuous
 62
     7
100
AcDbLine
 10
223.7419602223288
 20
367.4956832875291
 30
0.0
 11
279.7419602223288
 21
367.4956832875291
 31
0.0
  0
LINE
  5
E31
330
1F
100
AcDbEntity
  8
0
  6
Continuous
 62
     7
100
AcDbLine
 10
279.7419602223288
 20
370.4956832875291
 30
0.0
 11
223.7419602223288
 21
370.4956832875291
 31
0.0
  0
LINE
  5
E32
330
1F
100
AcDbEntity
  8
0
  6
Continuous
 62
     7
100
AcDbLine
 10
279.7419602223288
 20
426.7297550683088
 30
0.0
 11
223.7419602223288
 21
426.7297550683088
 31
0.0
  0
LINE
  5
E33
330
1F
100
AcDbEntity
  8
0
  6
Continuous
 62
     7
100
AcDbLine
 10
279.7419602223288
 20
377.4957442875291
 30
0.0
 11
223.7419602223288
 21
377.4957442875291
 31
0.0
  0
LINE
  5
E35
330
1F
100
AcDbEntity
  8
AM_7
100
AcDbLine
 10
282.9563152223288
 20
362.4956832875291
 30
0.0
 11
219.7776052223287
 21
362.4956832875291
 31
0.0
  0
LINE
  5
E36
330
1F
100
AcDbEntity
  8
0
  6
Continuous
 62
     7
100
AcDbLine
 10
229.5110032223288
 20
381.7957932875291
 30
0.0
 11
230.2419602223288
 21
381.7957932875291
 31
0.0
  0
LINE
  5
E38
330
1F
100
AcDbEntity
  8
AM_7
100
AcDbLine
 10
228.7419602223287
 20
373.4040392875292
 30
0.0
 11
207.7488802223288
 21
372.8543102875292
 31
0.0
  0
LINE
  5
E39
330
1F
100
AcDbEntity
  8
0
  6
ACISOTGB
 62
     2
100
AcDbLine
 10
221.7420132223288
 20
371.2199872875292
 30
0.0
 11
208.8026062223288
 21
370.8811662875291
 31
0.0
  0
LINE
  5
E3A
330
1F
100
AcDbEntity
  8
0
  6
ACISOTGB
 62
     2
100
AcDbLine
 10
221.7420062223288
 20
375.2214222875291
 30
0.0
 11
208.6978932223287
 21
374.8798542875292
 31
0.0
  0
LINE
  5
E3B
330
1F
100
AcDbEntity
  8
0
  6
ACISOTGB
 62
     2
100
AcDbLine
 10
208.8026062223288
 20
370.8811662875291
 30
0.0
 11
208.6978932223287
 21
374.8798542875292
 31
0.0
  0
LINE
  5
E3C
330
1F
100
AcDbEntity
  8
0
  6
Continuous
 62
     7
100
AcDbLine
 10
221.7419602223288
 20
366.8957072875291
 30
0.0
 11
223.7419602223288
 21
366.8957072875291
 31
0.0
  0
LINE
  5
E3D
330
1F
100
AcDbEntity
  8
0
  6
Continuous
 62
     7
100
AcDbLine
 10
221.7419602223288
 20
371.0957202875292
 30
0.0
 11
223.7419602223288
 21
371.0957202875292
 31
0.0
  0
LINE
  5
E3E
330
1F
100
AcDbEntity
  8
0
  6
Continuous
 62
     7
100
AcDbLine
 10
221.7419602223288
 20
376.9957442875291
 30
0.0
 11
223.7419602223288
 21
376.9957442875291
 31
0.0
  0
ARC
  5
E3F
330
1F
100
AcDbEntity
  8
0
  6
Continuous
 62
     7
100
AcDbCircle
 10
232.2419602223288
 20
373.4957442875292
 30
0.0
 40
8.599999
100
AcDbArc
 50
111.3819170000008
 51
152.2822370000006
  0
ARC
  5
E40
330
1F
100
AcDbEntity
  8
0
  6
Continuous
 62
     7
100
AcDbCircle
 10
228.7419602223287
 20
382.4349532875291
 30
0.0
 40
1.0
100
AcDbArc
 50
291.3819529999996
 51
320.2650940000006
  0
LINE
  5
E41
330
1F
100
AcDbEntity
  8
0
  6
Continuous
 62
     7
100
AcDbLine
 10
230.2419602223288
 20
381.7957932875291
 30
0.0
 11
230.2419602223288
 21
396.9956832875291
 31
0.0
  0
LINE
  5
E42
330
1F
100
AcDbEntity
  8
0
  6
Continuous
 62
     7
100
AcDbLine
 10
234.2419602223288
 20
377.4957442875291
 30
0.0
 11
234.2419602223288
 21
396.9956832875291
 31
0.0
  0
CIRCLE
  5
E43
330
1F
100
AcDbEntity
  8
0
  6
Continuous
 62
     7
100
AcDbCircle
 10
232.2419602223288
 20
373.4957442875292
 30
0.0
 40
1.25
  0
LINE
  5
E46
330
1F
100
AcDbEntity
  8
0
  6
Continuous
 62
     7
100
AcDbLine
 10
230.2419602223288
 20
396.9956832875291
 30
0.0
 11
234.2419602223288
 21
396.9956832875291
 31
0.0
  0
LINE
  5
E47
330
1F
100
AcDbEntity
  8
0
  6
Continuous
 62
     7
100
AcDbLine
 10
235.9419112223288
 20
431.2297550683088
 30
0.0
 11
223.6418622223288
 21
431.2297550683088
 31
0.0
  0
LINE
  5
E48
330
1F
100
AcDbEntity
  8
0
  6
Continuous
 62
     7
100
AcDbLine
 10
221.7419602223288
 20
430.9297060683087
 30
0.0
 11
223.7419602223288
 21
430.9297060683087
 31
0.0
  0
LINE
  5
E49
330
1F
100
AcDbEntity
  8
0
  6
Continuous
 62
     7
100
AcDbLine
 10
221.7419602223288
 20
427.2297550683088
 30
0.0
 11
223.7419602223288
 21
427.2297550683088
 31
0.0
  0
LINE
  5
E4A
330
1F
100
AcDbEntity
  8
0
  6
Continuous
 62
     7
100
AcDbLine
 10
223.7419602223288
 20
426.7297550683088
 30
0.0
 11
223.7419602223288
 21
431.2297550683088
 31
0.0
  0
POINT
  5
E4F
330
1F
100
AcDbEntity
  8
0
  6
Continuous
 62
     7
100
AcDbPoint
 10
279.7419602223288
 20
362.4956832875291
 30
0.0
  0
LINE
  5
E58
330
1F
100
AcDbEntity
  8
0
  6
Continuous
 62
     7
100
AcDbLine
 10
279.7419602223288
 20
441.7297550683088
 30
0.0
 11
223.7419602223288
 21
441.7297550683088
 31
0.0
  0
LINE
  5
E59
330
1F
100
AcDbEntity
  8
AM_7
100
AcDbLine
 10
282.9563152223288
 20
434.2297550683087
 30
0.0
 11
219.8271652223287
 21
434.2297550683087
 31
0.0
  0
LINE
  5
E5A
330
1F
100
AcDbEntity
  8
0
  6
Continuous
 62
     7
100
AcDbLine
 10
235.9419112223288
 20
437.2297550683088
 30
0.0
 11
223.6418622223288
 21
437.2297550683088
 31
0.0
  0
LINE
  5
E5B
330
1F
100
AcDbEntity
  8
0
  6
Continuous
 62
     7
100
AcDbLine
 10
221.7419602223288
 20
437.5298040683088
 30
0.0
 11
223.7419602223288
 21
437.5298040683088
 31
0.0
  0
LINE
  5
E5C
330
1F
100
AcDbEntity
  8
0
  6
Continuous
 62
     7
100
AcDbLine
 10
221.7419602223288
 20
441.2297550683088
 30
0.0
 11
223.7419602223288
 21
441.2297550683088
 31
0.0
  0
LINE
  5
E5D
330
1F
100
AcDbEntity
  8
0
  6
Continuous
 62
     7
100
AcDbLine
 10
223.7419602223288
 20
441.7297550683088
 30
0.0
 11
223.7419602223288
 21
437.2297550683088
 31
0.0
  0
LINE
  5
E61
330
1F
100
AcDbEntity
  8
AM_7
100
AcDbLine
 10
251.9853682223288
 20
438.7297550683087
 30
0.0
 11
247.3884442223288
 21
438.7297550683087
 31
0.0
  0
POINT
  5
E63
330
1F
100
AcDbEntity
  8
0
  6
Continuous
 62
     7
100
AcDbPoint
 10
279.7419602223288
 20
434.2297550683087
 30
0.0
  0
LINE
  5
E67
330
1F
100
AcDbEntity
  8
AM_7
100
AcDbLine
 10
328.8163281669688
 20
398.1773242875291
 30
0.0
 11
328.8163281669688
 21
326.4384932875291
 31
0.0
  0
LINE
  5
E68
330
1F
100
AcDbEntity
  8
0
  6
Continuous
 62
     7
100
AcDbLine
 10
321.6163771669688
 20
366.4956832875291
 30
0.0
 11
321.6163771669688
 21
358.4956832875291
 31
0.0
  0
LINE
  5
E69
330
1F
100
AcDbEntity
  8
0
  6
Continuous
 62
     7
100
AcDbLine
 10
336.0162791669688
 20
366.4956832875291
 30
0.0
 11
336.0162791669688
 21
358.4956832875291
 31
0.0
  0
LINE
  5
E6B
330
1F
100
AcDbEntity
  8
0
  6
Continuous
 62
     7
100
AcDbLine
 10
325.8163281669688
 20
327.9956832875291
 30
0.0
 11
331.8163281669688
 21
327.9956832875291
 31
0.0
  0
LINE
  5
E6C
330
1F
100
AcDbEntity
  8
0
  6
Continuous
 62
     7
100
AcDbLine
 10
336.3163281669688
 20
347.4956832875291
 30
0.0
 11
321.3163281669688
 21
347.4956832875291
 31
0.0
  0
LINE
  5
E71
330
1F
100
AcDbEntity
  8
0
  6
Continuous
 62
     7
100
AcDbLine
 10
325.8163281669688
 20
347.4956832875291
 30
0.0
 11
325.8163281669688
 21
327.9956832875291
 31
0.0
  0
LINE
  5
E74
330
1F
100
AcDbEntity
  8
AM_7
100
AcDbLine
 10
326.3163281669688
 20
330.9956832875291
 30
0.0
 11
331.3163281669688
 21
330.9956832875291
 31
0.0
  0
LINE
  5
E75
330
1F
100
AcDbEntity
  8
0
  6
Continuous
 62
     7
100
AcDbLine
 10
321.3163281669688
 20
354.4956832875291
 30
0.0
 11
321.3163281669688
 21
347.4956832875291
 31
0.0
  0
LINE
  5
E76
330
1F
100
AcDbEntity
  8
AM_7
100
AcDbLine
 10
326.3163281669688
 20
336.9956832875291
 30
0.0
 11
331.3163281669688
 21
336.9956832875291
 31
0.0
  0
ARC
  5
E79
330
1F
100
AcDbEntity
  8
0
  6
Continuous
 62
     7
100
AcDbCircle
 10
323.3163281669688
 20
355.9956832875291
 30
0.0
 40
2.000000999999999
100
AcDbArc
 50
228.5903454070997
 51
131.4096545929003
  0
LINE
  5
E7A
330
1F
100
AcDbEntity
  8
AM_7
100
AcDbLine
 10
326.3856641669688
 20
350.4956832875291
 30
0.0
 11
322.0277541669688
 21
350.4956832875291
 31
0.0
  0
LINE
  5
E7B
330
1F
100
AcDbEntity
  8
0
  6
Continuous
 62
     7
100
AcDbLine
 10
321.6158581669688
 20
358.4960492875291
 30
0.0
 11
321.3158401669689
 21
358.1960162875291
 31
0.0
  0
LINE
  5
E7C
330
1F
100
AcDbEntity
  8
0
  6
Continuous
 62
     7
100
AcDbLine
 10
321.3163281669688
 20
358.1956342875291
 30
0.0
 11
321.3163281669688
 21
357.4956832875291
 31
0.0
  0
LINE
  5
E7D
330
1F
100
AcDbEntity
  8
0
  6
Continuous
 62
     7
100
AcDbLine
 10
321.9935741669687
 20
354.4956832875291
 30
0.0
 11
321.3163281669688
 21
354.4956832875291
 31
0.0
  0
LINE
  5
E7E
330
1F
100
AcDbEntity
  8
0
  6
Continuous
 62
     7
100
AcDbLine
 10
321.9935741669687
 20
357.4956832875291
 30
0.0
 11
321.3163281669688
 21
357.4956832875291
 31
0.0
  0
ARC
  5
E7F
330
1F
100
AcDbEntity
  8
0
  6
Continuous
 62
     7
100
AcDbCircle
 10
328.8163281669688
 20
352.9957442875292
 30
0.0
 40
1.5
100
AcDbArc
 50
179.9999639999999
 51
0.000009999999378
  0
ARC
  5
E80
330
1F
100
AcDbEntity
  8
0
  6
Continuous
 62
     7
100
AcDbCircle
 10
328.8163281669688
 20
353.9956832875291
 30
0.0
 40
1.5
100
AcDbArc
 50
359.9999630000002
 51
179.9999639999999
  0
LINE
  5
E81
330
1F
100
AcDbEntity
  8
0
  6
Continuous
 62
     7
100
AcDbLine
 10
327.3163281669688
 20
353.9956832875291
 30
0.0
 11
327.3163281669688
 21
352.9957442875292
 31
0.0
  0
LINE
  5
E82
330
1F
100
AcDbEntity
  8
0
  6
Continuous
 62
     7
100
AcDbLine
 10
330.3163281669688
 20
353.9956832875291
 30
0.0
 11
330.3163281669688
 21
352.9957442875292
 31
0.0
  0
LINE
  5
E83
330
1F
100
AcDbEntity
  8
AM_7
100
AcDbLine
 10
330.8163281669688
 20
353.4956832875291
 30
0.0
 11
326.8163281669688
 21
353.4956832875291
 31
0.0
  0
LINE
  5
E84
330
1F
100
AcDbEntity
  8
AM_7
100
AcDbLine
 10
324.3163281669688
 20
352.6649952875291
 30
0.0
 11
324.3163281669688
 21
348.4920212875291
 31
0.0
  0
POINT
  5
E85
330
1F
100
AcDbEntity
  8
0
  6
Continuous
 62
     7
100
AcDbPoint
 10
325.3163281669688
 20
355.9956832875291
 30
0.0
  0
LINE
  5
E89
330
1F
100
AcDbEntity
  8
0
  6
Continuous
 62
     7
100
AcDbLine
 10
331.8163281669688
 20
347.4956832875291
 30
0.0
 11
331.8163281669688
 21
327.9956832875291
 31
0.0
  0
LINE
  5
E8A
330
1F
100
AcDbEntity
  8
0
  6
Continuous
 62
     7
100
AcDbLine
 10
336.3163281669688
 20
354.4956832875291
 30
0.0
 11
336.3163281669688
 21
347.4956832875291
 31
0.0
  0
ARC
  5
E8D
330
1F
100
AcDbEntity
  8
0
  6
Continuous
 62
     7
100
AcDbCircle
 10
334.3163281669688
 20
355.9956832875291
 30
0.0
 40
2.000000999999999
100
AcDbArc
 50
48.59038600000012
 51
311.4096339999993
  0
LINE
  5
E8E
330
1F
100
AcDbEntity
  8
0
  6
Continuous
 62
     7
100
AcDbLine
 10
336.3163281669688
 20
357.4956832875291
 30
0.0
 11
335.6393261669688
 21
357.4956832875291
 31
0.0
  0
LINE
  5
E8F
330
1F
100
AcDbEntity
  8
0
  6
Continuous
 62
     7
100
AcDbLine
 10
336.3163281669688
 20
354.4956832875291
 30
0.0
 11
335.6393261669688
 21
354.4956832875291
 31
0.0
  0
LINE
  5
E90
330
1F
100
AcDbEntity
  8
0
  6
Continuous
 62
     7
100
AcDbLine
 10
336.0163711669688
 20
358.4946002875291
 30
0.0
 11
336.3162671669688
 21
358.1947642875291
 31
0.0
  0
LINE
  5
E91
330
1F
100
AcDbEntity
  8
0
  6
Continuous
 62
     7
100
AcDbLine
 10
336.3163281669688
 20
358.1957562875291
 30
0.0
 11
336.3163281669688
 21
357.4956832875291
 31
0.0
  0
LINE
  5
E97
330
1F
100
AcDbEntity
  8
0
  6
Continuous
 62
     7
100
AcDbLine
 10
325.8163281669688
 20
396.9956832875291
 30
0.0
 11
331.8163281669688
 21
396.9956832875291
 31
0.0
  0
LINE
  5
E98
330
1F
100
AcDbEntity
  8
0
  6
Continuous
 62
     7
100
AcDbLine
 10
336.3163281669688
 20
377.4957442875291
 30
0.0
 11
321.3163281669688
 21
377.4957442875291
 31
0.0
  0
LINE
  5
E99
330
1F
100
AcDbEntity
  8
AM_7
100
AcDbLine
 10
335.2645701669687
 20
374.4957442875291
 30
0.0
 11
331.2948441669688
 21
374.4957442875291
 31
0.0
  0
LINE
  5
E9C
330
1F
100
AcDbEntity
  8
0
  6
Continuous
 62
     7
100
AcDbLine
 10
325.8163281669688
 20
377.4957442875291
 30
0.0
 11
325.8163281669688
 21
396.9956832875291
 31
0.0
  0
ARC
  5
E9D
330
1F
100
AcDbEntity
  8
0
  6
Continuous
 62
     7
100
AcDbCircle
 10
323.3163281669688
 20
368.9956832875291
 30
0.0
 40
2.000000999999999
100
AcDbArc
 50
228.5903454070997
 51
131.4096545929003
  0
LINE
  5
E9E
330
1F
100
AcDbEntity
  8
0
  6
Continuous
 62
     7
100
AcDbLine
 10
321.3163281669688
 20
377.4957442875291
 30
0.0
 11
321.3163281669688
 21
370.4956832875291
 31
0.0
  0
LINE
  5
E9F
330
1F
100
AcDbEntity
  8
0
  6
Continuous
 62
     7
100
AcDbLine
 10
321.6161331669688
 20
366.4951492875291
 30
0.0
 11
321.3160531669688
 21
366.7951672875291
 31
0.0
  0
LINE
  5
EA0
330
1F
100
AcDbEntity
  8
0
  6
Continuous
 62
     7
100
AcDbLine
 10
321.3163281669688
 20
367.4956832875291
 30
0.0
 11
321.3163281669688
 21
366.7957322875291
 31
0.0
  0
LINE
  5
EA1
330
1F
100
AcDbEntity
  8
0
  6
Continuous
 62
     7
100
AcDbLine
 10
321.9935741669687
 20
367.4956832875291
 30
0.0
 11
321.3163281669688
 21
367.4956832875291
 31
0.0
  0
LINE
  5
EA2
330
1F
100
AcDbEntity
  8
0
  6
Continuous
 62
     7
100
AcDbLine
 10
321.9935741669687
 20
370.4956832875291
 30
0.0
 11
321.3163281669688
 21
370.4956832875291
 31
0.0
  0
POINT
  5
EA4
330
1F
100
AcDbEntity
  8
0
  6
Continuous
 62
     7
100
AcDbPoint
 10
325.3163281669688
 20
368.9956832875291
 30
0.0
  0
LINE
  5
EA9
330
1F
100
AcDbEntity
  8
AM_7
100
AcDbLine
 10
326.3163281669688
 20
387.9956832875291
 30
0.0
 11
331.3163281669688
 21
387.9956832875291
 31
0.0
  0
LINE
  5
EAA
330
1F
100
AcDbEntity
  8
AM_7
100
AcDbLine
 10
326.3163281669688
 20
393.9956832875291
 30
0.0
 11
331.3163281669688
 21
393.9956832875291
 31
0.0
  0
LINE
  5
EB4
330
1F
100
AcDbEntity
  8
0
  6
Continuous
 62
     7
100
AcDbLine
 10
331.8163281669688
 20
377.4957442875291
 30
0.0
 11
331.8163281669688
 21
396.9956832875291
 31
0.0
  0
ARC
  5
EB5
330
1F
100
AcDbEntity
  8
0
  6
Continuous
 62
     7
100
AcDbCircle
 10
334.3163281669688
 20
368.9956832875291
 30
0.0
 40
2.000000999999999
100
AcDbArc
 50
48.59038600000012
 51
311.4096339999993
  0
LINE
  5
EB6
330
1F
100
AcDbEntity
  8
0
  6
Continuous
 62
     7
100
AcDbLine
 10
336.3163281669688
 20
377.4957442875291
 30
0.0
 11
336.3163281669688
 21
370.4956832875291
 31
0.0
  0
LINE
  5
EB7
330
1F
100
AcDbEntity
  8
0
  6
Continuous
 62
     7
100
AcDbLine
 10
336.3163281669688
 20
370.4956832875291
 30
0.0
 11
335.6393261669688
 21
370.4956832875291
 31
0.0
  0
LINE
  5
EB8
330
1F
100
AcDbEntity
  8
0
  6
Continuous
 62
     7
100
AcDbLine
 10
336.3163281669688
 20
367.4956832875291
 30
0.0
 11
335.6393261669688
 21
367.4956832875291
 31
0.0
  0
LINE
  5
EB9
330
1F
100
AcDbEntity
  8
0
  6
Continuous
 62
     7
100
AcDbLine
 10
336.0158521669688
 20
366.4964762875291
 30
0.0
 11
336.3158701669688
 21
366.7965102875291
 31
0.0
  0
LINE
  5
EBA
330
1F
100
AcDbEntity
  8
0
  6
Continuous
 62
     7
100
AcDbLine
 10
336.3163281669688
 20
367.4956832875291
 30
0.0
 11
336.3163281669688
 21
366.7957322875291
 31
0.0
  0
LINE
  5
EBD
330
1F
100
AcDbEntity
  8
AM_7
100
AcDbLine
 10
333.3163281669688
 20
376.4271412875292
 30
0.0
 11
333.3163281669688
 21
372.3347942875291
 31
0.0
  0
DIMENSION
  5
EC7
330
1F
100
AcDbEntity
  8
AM_5
100
AcDbDimension
  2
*D3
 10
279.7419602223288
 20
451.7297550683088
 30
0.0
 11
264.7419602223288
 21
454.1797550683088
 31
0.0
 70
    32
 71
     5
 42
30.0
  3
AM_ISO$0
100
AcDbAlignedDimension
 13
249.7419602223288
 23
440.6555360683088
 33
0.0
 14
279.7419602223288
 24
441.7297550683088
 34
0.0
100
AcDbRotatedDimension
1001
ACAD
1000
DSTYLE
1002
{
1070
   272
1070
     8
1002
}
  0
DIMENSION
  5
EC8
330
1F
100
AcDbEntity
  8
AM_5
100
AcDbDimension
  2
*D4
 10
289.7419602223288
 20
429.7297550683087
 30
0.0
 11
287.2919602223287
 21
434.2297550683088
 31
0.0
 70
    32
 71
     5
 42
9.0
  3
AM_ISO$0
100
AcDbAlignedDimension
 13
251.9853682223288
 23
438.7297550683087
 33
0.0
 14
251.9853682223288
 24
429.7297550683087
 34
0.0
 50
90.0
100
AcDbRotatedDimension
1001
ACAD
1000
DSTYLE
1002
{
1070
   272
1070
     8
1002
}
  0
DIMENSION
  5
EC9
330
1F
100
AcDbEntity
  8
AM_5
100
AcDbDimension
  2
*D5
 10
346.3163281669688
 20
350.4956832875291
 30
0.0
 11
343.8659836787798
 21
362.4957137875292
 31
0.0
 70
    32
 71
     5
 42
24.00006100000002
  3
AM_ISO$0
100
AcDbAlignedDimension
 13
335.2645701669687
 23
374.4957442875291
 33
0.0
 14
326.3856641669688
 24
350.4956832875291
 34
0.0
 50
90.0
100
AcDbRotatedDimension
1001
ACAD
1000
DSTYLE
1002
{
1070
   272
1070
     8
1002
}
  0
DIMENSION
  5
ECA
330
1F
100
AcDbEntity
  8
AM_5
100
AcDbDimension
  2
*D6
 10
354.3163281669688
 20
347.4956832875291
 30
0.0
 11
351.8663281669688
 21
362.4957137875292
 31
0.0
 70
    32
 71
     5
 42
30.00006100000002
  3
AM_ISO$0
100
AcDbAlignedDimension
 13
336.3163281669688
 23
377.4957442875291
 33
0.0
 14
336.3163281669688
 24
347.4956832875291
 34
0.0
 50
90.0
100
AcDbRotatedDimension
1001
ACAD
1000
DSTYLE
1002
{
1070
   272
1070
     8
1002
}
  0
DIMENSION
  5
ECB
330
1F
100
AcDbEntity
  8
AM_5
100
AcDbDimension
  2
*D7
 10
333.3163281669688
 20
317.9956832875291
 30
0.0
 11
328.8163281669688
 21
320.4456832875291
 31
0.0
 70
    32
 71
     5
 42
9.0
  3
AM_ISO$0
100
AcDbAlignedDimension
 13
324.3163281669688
 23
348.4920212875291
 33
0.0
 14
333.3163281669688
 24
372.3347942875291
 34
0.0
100
AcDbRotatedDimension
1001
ACAD
1000
DSTYLE
1002
{
1070
   272
1070
     8
1002
}
  0
DIMENSION
  5
ECC
330
1F
100
AcDbEntity
  8
AM_5
100
AcDbDimension
  2
*D8
 10
336.3163281669688
 20
309.9956832875291
 30
0.0
 11
328.8163281669688
 21
312.4456832875291
 31
0.0
 70
    32
 71
     5
 42
15.0
  3
AM_ISO$0
100
AcDbAlignedDimension
 13
321.3163281669688
 23
347.4956832875291
 33
0.0
 14
336.3163281669688
 24
347.4956832875291
 34
0.0
100
AcDbRotatedDimension
1001
ACAD
1000
DSTYLE
1002
{
1070
   272
1070
     8
1002
}
  0
DIMENSION
  5
ECD
330
1F
100
AcDbEntity
  8
AM_5
100
AcDbDimension
  2
*D9
 10
289.7419602223288
 20
350.4956832875291
 30
0.0
 11
287.2916157341397
 21
362.4957137875292
 31
0.0
 70
    32
 71
     5
 42
24.00006100000002
  3
AM_ISO$0
100
AcDbAlignedDimension
 13
265.1784832223287
 23
374.4957442875291
 33
0.0
 14
264.7522142223288
 24
350.4956832875291
 34
0.0
 50
90.0
100
AcDbRotatedDimension
1001
ACAD
1000
DSTYLE
1002
{
1070
   272
1070
     8
1002
}
  0
DIMENSION
  5
ECE
330
1F
100
AcDbEntity
  8
AM_5
100
AcDbDimension
  2
*D10
 10
279.7419602223288
 20
335.2871938870389
 30
0.0
 11
270.6567927757078
 21
335.2871938870389
 31
0.0
 70
   160
 71
     5
 42
18.0
  3
AM_ISO$0
100
AcDbAlignedDimension
 13
261.7419602223288
 23
348.1681682875292
 33
0.0
 14
279.7419602223288
 24
347.4956832875291
 34
0.0
100
AcDbRotatedDimension
1001
ACAD
1000
DSTYLE
1002
{
1070
   272
1070
     8
1002
}
  0
DIMENSION
  5
ED0
330
1F
100
AcDbEntity
  8
AM_5
100
AcDbDimension
  2
*D11
 10
279.7419602223288
 20
327.2871938870389
 30
0.0
 11
262.2419602223288
 21
329.7371938870389
 31
0.0
 70
    32
 71
     5
 42
35.0
  3
AM_ISO$0
100
AcDbAlignedDimension
 13
244.7419602223288
 23
348.4385542875291
 33
0.0
 14
279.7419602223288
 24
340.1302571611085
 34
0.0
100
AcDbRotatedDimension
1001
ACAD
1000
DSTYLE
1002
{
1070
   272
1070
     8
1002
}
  0
DIMENSION
  5
ED1
330
1F
100
AcDbEntity
  8
AM_5
100
AcDbDimension
  2
*D12
 10
232.2419602223288
 20
319.287193887039
 30
0.0
 11
255.9919602223288
 21
321.7371938870389
 31
0.0
 70
    32
 71
     5
 42
47.5
  3
AM_ISO$0
100
AcDbAlignedDimension
 13
279.7419602223288
 23
332.900129784552
 33
0.0
 14
232.2419602223288
 24
349.0388962875291
 34
0.0
100
AcDbRotatedDimension
1001
ACAD
1000
DSTYLE
1002
{
1070
   272
1070
     8
1002
}
  0
DIMENSION
  5
ED2
330
1F
100
AcDbEntity
  8
AM_5
100
AcDbDimension
  2
*D13
 10
221.7419602223288
 20
311.287193887039
 30
0.0
 11
250.7419602223288
 21
313.7371938870389
 31
0.0
 70
    32
 71
     5
 42
58.0
  3
AM_ISO$0
100
AcDbAlignedDimension
 13
279.7419602223288
 23
324.317198981547
 33
0.0
 14
221.7419602223288
 24
347.9956832875291
 34
0.0
100
AcDbRotatedDimension
1001
ACAD
1000
DSTYLE
1002
{
1070
   272
1070
     8
1002
}
  0
DIMENSION
  5
ED3
330
1F
100
AcDbEntity
  8
AM_5
100
AcDbDimension
  2
*D14
 10
289.7419602223288
 20
281.464273907947
 30
0.0
 11
287.2919602223287
 21
279.9642739079471
 31
0.0
 70
    32
 71
     5
 42
3.0
  3
AM_ISO$0
100
AcDbAlignedDimension
 13
276.8889332223288
 23
278.464273907947
 33
0.0
 14
252.8921062223288
 24
281.464273907947
 34
0.0
 50
90.0
100
AcDbRotatedDimension
1001
ACAD
1000
DSTYLE
1002
{
1070
   272
1070
     8
1002
}
  0
DIMENSION
  5
ED4
330
1F
100
AcDbEntity
  8
AM_5
100
AcDbDimension
  2
*D15
 10
272.7419602223288
 20
262.464273907947
 30
0.0
 11
276.2419602223288
 21
264.914273907947
 31
0.0
 70
    32
 71
     5
 42
7.0
  3
AM_ISO$0
100
AcDbAlignedDimension
 13
279.7419602223288
 23
272.464273907947
 33
0.0
 14
272.7419602223288
 24
274.297769907947
 34
0.0
100
AcDbRotatedDimension
1001
ACAD
1000
DSTYLE
1002
{
1070
   272
1070
     8
1002
}
  0
DIMENSION
  5
ED6
330
1F
100
AcDbEntity
  8
AM_5
100
AcDbDimension
  2
*D16
 10
249.7419602223288
 20
262.464273907947
 30
0.0
 11
261.2419602223288
 21
264.914618396136
 31
0.0
 70
    32
 71
     5
 42
23.0
  3
AM_ISO$0
100
AcDbAlignedDimension
 13
272.7419602223288
 23
263.2497974536644
 33
0.0
 14
249.7419602223288
 24
278.232584907947
 34
0.0
100
AcDbRotatedDimension
1001
ACAD
1000
DSTYLE
1002
{
1070
   272
1070
     8
1002
}
  0
DIMENSION
  5
ED7
330
1F
100
AcDbEntity
  8
AM_5
100
AcDbDimension
  2
*D17
 10
234.2419602223288
 20
404.9956832875291
 30
0.0
 11
232.2419602223288
 21
407.4456832875291
 31
0.0
 70
    32
 71
     5
 42
4.0
  3
AM_ISO$0
100
AcDbAlignedDimension
 13
230.2419602223288
 23
396.9956832875291
 33
0.0
 14
234.2419602223288
 24
396.9956832875291
 34
0.0
100
AcDbRotatedDimension
1001
ACAD
1000
DSTYLE
1002
{
1070
   272
1070
     8
1002
}
  0
DIMENSION
  5
ED8
330
1F
100
AcDbEntity
  8
AM_5
100
AcDbDimension
  2
*D18
 10
198.6979232223287
 20
351.4956832875291
 30
0.0
 11
196.2475787341397
 21
362.4957137875292
 31
0.0
 70
    32
 71
     5
 42
22.00006100000002
  3
AM_ISO$0
100
AcDbAlignedDimension
 13
230.9919602223288
 23
373.4957442875292
 33
0.0
 14
230.9919602223288
 24
351.4956832875291
 34
0.0
 50
90.0
100
AcDbRotatedDimension
1001
ACAD
1000
DSTYLE
1002
{
1070
   272
1070
     8
1002
}
  0
DIMENSION
  5
ED9
330
1F
100
AcDbEntity
  8
AM_5
100
AcDbDimension
  2
*D19
 10
198.6979232223287
 20
327.9956832875291
 30
0.0
 11
196.2475787341397
 21
339.7456832875292
 31
0.0
 70
    32
 71
     5
 42
23.5
  3
AM_ISO$0
100
AcDbAlignedDimension
 13
200.1033095518201
 23
351.4956832875291
 33
0.0
 14
230.2419602223288
 24
327.9956832875291
 34
0.0
 50
90.0
100
AcDbRotatedDimension
1001
ACAD
1000
DSTYLE
1002
{
1070
   272
1070
     8
1002
}
  0
LINE
  5
F0F
330
1F
100
AcDbEntity
  8
0
  6
Continuous
 62
     7
100
AcDbLine
 10
168.7035394588823
 20
366.9956822875291
 30
0.0
 11
168.7035394588823
 21
357.9956842875291
 31
0.0
  0
LINE
  5
F10
330
1F
100
AcDbEntity
  8
0
  6
Continuous
 62
     7
100
AcDbLine
 10
154.3036374588822
 20
366.9956822875291
 30
0.0
 11
154.3036374588822
 21
357.9956842875291
 31
0.0
  0
LINE
  5
F11
330
1F
100
AcDbEntity
  8
AM_7
100
AcDbLine
 10
166.7809830910161
 20
359.4812547456518
 30
0.0
 11
166.7809830910161
 21
365.4198115474368
 31
0.0
  0
LINE
  5
F12
330
1F
100
AcDbEntity
  8
AM_7
100
AcDbLine
 10
156.2261938267485
 20
359.4812547456518
 30
0.0
 11
156.2261938267485
 21
365.4198115474368
 31
0.0
  0
CIRCLE
  5
F13
330
1F
100
AcDbEntity
  8
0
  6
Continuous
100
AcDbCircle
 10
166.7809830910161
 20
362.4956832875291
 30
0.0
 40
1.92255636786615
  0
CIRCLE
  5
F14
330
1F
100
AcDbEntity
  8
0
  6
Continuous
100
AcDbCircle
 10
156.2261938267485
 20
362.4956832875291
 30
0.0
 40
1.92255636786615
  0
LINE
  5
F15
330
1F
100
AcDbEntity
  8
AM_7
100
AcDbLine
 10
161.5035884588823
 20
398.1773242875291
 30
0.0
 11
161.5035884588823
 21
326.4384932875291
 31
0.0
  0
LINE
  5
F1C
330
1F
100
AcDbEntity
  8
AM_7
100
AcDbLine
 10
164.0035884588823
 20
336.9956832875291
 30
0.0
 11
159.0035884588823
 21
336.9956832875291
 31
0.0
  0
LINE
  5
F1D
330
1F
100
AcDbEntity
  8
AM_7
100
AcDbLine
 10
164.0035884588823
 20
330.9956832875291
 30
0.0
 11
159.0035884588823
 21
330.9956832875291
 31
0.0
  0
LINE
  5
F1E
330
1F
100
AcDbEntity
  8
0
  6
Continuous
100
AcDbLine
 10
168.5035884588823
 20
347.9956832875291
 30
0.0
 11
164.5035884588823
 21
347.9956832875291
 31
0.0
  0
LINE
  5
F1F
330
1F
100
AcDbEntity
  8
0
  6
Continuous
 62
     7
100
AcDbLine
 10
154.0035884588823
 20
347.4956832875291
 30
0.0
 11
158.5035884588823
 21
347.4956832875291
 31
0.0
  0
LINE
  5
F22
330
1F
100
AcDbEntity
  8
0
  6
Continuous
 62
     7
100
AcDbLine
 10
164.5035884588823
 20
327.9956832875291
 30
0.0
 11
158.5035884588823
 21
327.9956832875291
 31
0.0
  0
LINE
  5
F23
330
1F
100
AcDbEntity
  8
0
  6
Continuous
 62
     7
100
AcDbLine
 10
158.5035884588823
 20
359.0957202875292
 30
0.0
 11
158.5035884588823
 21
327.9956832875291
 31
0.0
  0
LINE
  5
F24
330
1F
100
AcDbEntity
  8
0
  6
Continuous
 62
     7
100
AcDbLine
 10
154.5035884588823
 20
353.9956822875291
 30
0.0
 11
154.5035884588823
 21
347.9956832875291
 31
0.0
  0
LINE
  5
F25
330
1F
100
AcDbEntity
  8
0
  6
Continuous
 62
     7
100
AcDbLine
 10
154.0035884588823
 20
354.4956832875291
 30
0.0
 11
154.0035884588823
 21
347.4956832875291
 31
0.0
  0
ARC
  5
F26
330
1F
100
AcDbEntity
  8
0
  6
Continuous
 62
     7
100
AcDbCircle
 10
156.0035884588823
 20
355.9956832875291
 30
0.0
 40
2.000000999999999
100
AcDbArc
 50
228.5903660000007
 51
131.4096139999999
  0
LINE
  5
F27
330
1F
100
AcDbEntity
  8
0
100
AcDbLine
 10
156.0035884588823
 20
353.9956822875291
 30
0.0
 11
154.5035884588823
 21
353.9956822875291
 31
0.0
  0
LINE
  5
F28
330
1F
100
AcDbEntity
  8
0
  6
Continuous
 62
     7
100
AcDbLine
 10
154.0035884588823
 20
354.4956832875291
 30
0.0
 11
154.6805904588823
 21
354.4956832875291
 31
0.0
  0
LINE
  5
F29
330
1F
100
AcDbEntity
  8
0
100
AcDbLine
 10
156.0035884588823
 20
357.9956842875291
 30
0.0
 11
154.3036374588822
 21
357.9956842875291
 31
0.0
  0
LINE
  5
F2A
330
1F
100
AcDbEntity
  8
0
  6
Continuous
 62
     7
100
AcDbLine
 10
154.3035454588822
 20
358.4946002875291
 30
0.0
 11
154.0036494588822
 21
358.1947642875291
 31
0.0
  0
LINE
  5
F2B
330
1F
100
AcDbEntity
  8
0
  6
Continuous
 62
     7
100
AcDbLine
 10
154.0035884588823
 20
358.1957562875291
 30
0.0
 11
154.0035884588823
 21
357.4956832875291
 31
0.0
  0
LINE
  5
F2C
330
1F
100
AcDbEntity
  8
0
  6
Continuous
 62
     7
100
AcDbLine
 10
154.0035884588823
 20
357.4956832875291
 30
0.0
 11
154.6805904588823
 21
357.4956832875291
 31
0.0
  0
LINE
  5
F2D
330
1F
100
AcDbEntity
  8
0
  6
Continuous
 62
     7
100
AcDbLine
 10
164.5035884588823
 20
359.0957202875292
 30
0.0
 11
164.5035884588823
 21
327.9956832875291
 31
0.0
  0
LINE
  5
F2E
330
1F
100
AcDbEntity
  8
0
  6
Continuous
 62
     7
100
AcDbLine
 10
168.5035884588823
 20
353.9956822875291
 30
0.0
 11
168.5035884588823
 21
347.9956832875291
 31
0.0
  0
LINE
  5
F2F
330
1F
100
AcDbEntity
  8
0
  6
Continuous
 62
     7
100
AcDbLine
 10
169.0035884588823
 20
354.4956832875291
 30
0.0
 11
169.0035884588823
 21
347.4956832875291
 31
0.0
  0
LINE
  5
F30
330
1F
100
AcDbEntity
  8
0
100
AcDbLine
 10
167.0035884588823
 20
357.9956842875291
 30
0.0
 11
168.7035394588823
 21
357.9956842875291
 31
0.0
  0
LINE
  5
F31
330
1F
100
AcDbEntity
  8
0
100
AcDbLine
 10
167.0035884588823
 20
353.9956822875291
 30
0.0
 11
168.5035884588823
 21
353.9956822875291
 31
0.0
  0
ARC
  5
F32
330
1F
100
AcDbEntity
  8
0
  6
Continuous
 62
     7
100
AcDbCircle
 10
167.0035884588823
 20
355.9956832875291
 30
0.0
 40
2.000000999999999
100
AcDbArc
 50
48.59034540709963
 51
311.4096545929003
  0
POINT
  5
F33
330
1F
100
AcDbEntity
  8
0
  6
Continuous
 62
     7
100
AcDbPoint
 10
165.0035884588823
 20
355.9956832875291
 30
0.0
  0
LINE
  5
F34
330
1F
100
AcDbEntity
  8
0
  6
Continuous
 62
     7
100
AcDbLine
 10
168.3263424588823
 20
354.4956832875291
 30
0.0
 11
169.0035884588823
 21
354.4956832875291
 31
0.0
  0
LINE
  5
F35
330
1F
100
AcDbEntity
  8
0
  6
Continuous
 62
     7
100
AcDbLine
 10
168.7040584588823
 20
358.4960492875291
 30
0.0
 11
169.0040764588822
 21
358.1960162875291
 31
0.0
  0
LINE
  5
F36
330
1F
100
AcDbEntity
  8
0
  6
Continuous
 62
     7
100
AcDbLine
 10
169.0035884588823
 20
358.1956342875292
 30
0.0
 11
169.0035884588823
 21
357.4956832875291
 31
0.0
  0
LINE
  5
F37
330
1F
100
AcDbEntity
  8
0
  6
Continuous
 62
     7
100
AcDbLine
 10
168.3263424588823
 20
357.4956832875291
 30
0.0
 11
169.0035884588823
 21
357.4956832875291
 31
0.0
  0
LINE
  5
F51
102
{ACAD_REACTORS
330
1C07
330
1C37
102
}
330
1F
100
AcDbEntity
  8
AM_7
100
AcDbLine
 10
164.0035884588823
 20
393.9956832875291
 30
0.0
 11
159.0035884588823
 21
393.9956832875291
 31
0.0
  0
LINE
  5
F52
102
{ACAD_REACTORS
330
1C37
102
}
330
1F
100
AcDbEntity
  8
AM_7
100
AcDbLine
 10
164.0035884588823
 20
387.9956832875291
 30
0.0
 11
159.0035884588823
 21
387.9956832875291
 31
0.0
  0
LINE
  5
F53
330
1F
100
AcDbEntity
  8
AM_7
100
AcDbLine
 10
152.9944758501755
 20
362.4956832875291
 30
0.0
 11
169.9983575650369
 21
362.4956832875291
 31
0.0
  0
LINE
  5
F54
330
1F
100
AcDbEntity
  8
0
  6
Continuous
100
AcDbLine
 10
168.5035884588823
 20
376.9957442875291
 30
0.0
 11
164.5035884588823
 21
376.9957442875291
 31
0.0
  0
LINE
  5
F56
330
1F
100
AcDbEntity
  8
0
  6
Continuous
 62
     7
100
AcDbLine
 10
164.5035884588823
 20
396.9956832875291
 30
0.0
 11
158.5035884588823
 21
396.9956832875291
 31
0.0
  0
LINE
  5
F58
330
1F
100
AcDbEntity
  8
0
  6
Continuous
 62
     7
100
AcDbLine
 10
154.0035884588823
 20
377.4957442875291
 30
0.0
 11
158.5035884588823
 21
377.4957442875291
 31
0.0
  0
LINE
  5
F59
102
{ACAD_REACTORS
330
1C07
102
}
330
1F
100
AcDbEntity
  8
0
  6
Continuous
 62
     7
100
AcDbLine
 10
158.5035884588823
 20
365.8956462875291
 30
0.0
 11
158.5035884588823
 21
396.9956832875291
 31
0.0
  0
LINE
  5
F5A
330
1F
100
AcDbEntity
  8
0
  6
Continuous
 62
     7
100
AcDbLine
 10
154.5035884588823
 20
376.9957442875291
 30
0.0
 11
154.5035884588823
 21
370.9956842875291
 31
0.0
  0
LINE
  5
F5B
330
1F
100
AcDbEntity
  8
0
  6
Continuous
 62
     7
100
AcDbLine
 10
154.0035884588823
 20
377.4957442875291
 30
0.0
 11
154.0035884588823
 21
370.4956832875291
 31
0.0
  0
LINE
  5
F5C
330
1F
100
AcDbEntity
  8
0
  6
Continuous
 62
     7
100
AcDbLine
 10
154.0035884588823
 20
367.4956832875291
 30
0.0
 11
154.0035884588823
 21
366.7957322875291
 31
0.0
  0
LINE
  5
F5D
330
1F
100
AcDbEntity
  8
0
  6
Continuous
 62
     7
100
AcDbLine
 10
154.3040644588823
 20
366.496476287529
 30
0.0
 11
154.0040464588822
 21
366.7965102875291
 31
0.0
  0
LINE
  5
F5E
330
1F
100
AcDbEntity
  8
0
100
AcDbLine
 10
156.0035884588823
 20
366.9956822875291
 30
0.0
 11
154.3036374588822
 21
366.9956822875291
 31
0.0
  0
LINE
  5
F5F
330
1F
100
AcDbEntity
  8
0
100
AcDbLine
 10
156.0035884588823
 20
370.9956842875291
 30
0.0
 11
154.5035884588823
 21
370.9956842875291
 31
0.0
  0
ARC
  5
F60
330
1F
100
AcDbEntity
  8
0
  6
Continuous
 62
     7
100
AcDbCircle
 10
156.0035884588823
 20
368.9956832875291
 30
0.0
 40
2.000000999999999
100
AcDbArc
 50
228.5903660000007
 51
131.4096139999999
  0
LINE
  5
F61
330
1F
100
AcDbEntity
  8
0
  6
Continuous
 62
     7
100
AcDbLine
 10
154.0035884588823
 20
370.4956832875291
 30
0.0
 11
154.6805904588823
 21
370.4956832875291
 31
0.0
  0
LINE
  5
F62
330
1F
100
AcDbEntity
  8
0
  6
Continuous
 62
     7
100
AcDbLine
 10
154.0035884588823
 20
367.4956832875291
 30
0.0
 11
154.6805904588823
 21
367.4956832875291
 31
0.0
  0
LINE
  5
F63
330
1F
100
AcDbEntity
  8
0
  6
Continuous
 62
     7
100
AcDbLine
 10
164.5035884588823
 20
365.8956462875291
 30
0.0
 11
164.5035884588823
 21
396.9956832875291
 31
0.0
  0
LINE
  5
F64
330
1F
100
AcDbEntity
  8
0
  6
Continuous
 62
     7
100
AcDbLine
 10
168.5035884588823
 20
376.9957442875291
 30
0.0
 11
168.5035884588823
 21
370.9956842875291
 31
0.0
  0
LINE
  5
F65
330
1F
100
AcDbEntity
  8
0
  6
Continuous
 62
     7
100
AcDbLine
 10
169.0035884588823
 20
377.4957442875291
 30
0.0
 11
169.0035884588823
 21
370.4956832875291
 31
0.0
  0
LINE
  5
F66
330
1F
100
AcDbEntity
  8
0
100
AcDbLine
 10
167.0035884588823
 20
366.9956822875291
 30
0.0
 11
168.7035394588823
 21
366.9956822875291
 31
0.0
  0
LINE
  5
F67
330
1F
100
AcDbEntity
  8
0
100
AcDbLine
 10
167.0035884588823
 20
370.9956842875291
 30
0.0
 11
168.5035884588823
 21
370.9956842875291
 31
0.0
  0
ARC
  5
F68
330
1F
100
AcDbEntity
  8
0
  6
Continuous
 62
     7
100
AcDbCircle
 10
167.0035884588823
 20
368.9956832875291
 30
0.0
 40
2.000000999999999
100
AcDbArc
 50
48.59034540709963
 51
311.4096545929003
  0
POINT
  5
F69
330
1F
100
AcDbEntity
  8
0
  6
Continuous
 62
     7
100
AcDbPoint
 10
165.0035884588823
 20
368.9956832875291
 30
0.0
  0
LINE
  5
F6A
330
1F
100
AcDbEntity
  8
0
  6
Continuous
 62
     7
100
AcDbLine
 10
169.0035884588823
 20
367.4956832875291
 30
0.0
 11
169.0035884588823
 21
366.7957322875291
 31
0.0
  0
LINE
  5
F6B
330
1F
100
AcDbEntity
  8
0
  6
Continuous
 62
     7
100
AcDbLine
 10
168.7037834588823
 20
366.4951492875291
 30
0.0
 11
169.0038634588822
 21
366.7951672875291
 31
0.0
  0
LINE
  5
F6C
330
1F
100
AcDbEntity
  8
0
  6
Continuous
 62
     7
100
AcDbLine
 10
168.3263424588823
 20
367.4956832875291
 30
0.0
 11
169.0035884588823
 21
367.4956832875291
 31
0.0
  0
LINE
  5
F6D
330
1F
100
AcDbEntity
  8
0
  6
Continuous
 62
     7
100
AcDbLine
 10
168.3263424588823
 20
370.4956832875291
 30
0.0
 11
169.0035884588823
 21
370.4956832875291
 31
0.0
  0
DIMENSION
  5
F8C
330
1F
100
AcDbEntity
  8
AM_5
100
AcDbDimension
  2
*D20
 10
164.5035884588823
 20
406.995683287529
 30
0.0
 11
175.9893052923803
 21
410.0757882143676
 31
0.0
 70
    32
  1
<>
 71
     5
 42
6.0
  3
AM_ISO$0
100
AcDbAlignedDimension
 13
158.5035884588823
 23
396.9956832875291
 33
0.0
 14
164.5035884588823
 24
396.9956832875291
 34
0.0
100
AcDbRotatedDimension
1001
ACAD
1000
DSTYLE
1002
{
1070
    47
1040
-0.005
1070
    48
1040
0.025
1070
    71
1070
     1
1070
   272
1070
     8
1002
}
1001
GENIUS_GENDTOL_13
1000
TolAcTol
1000

1000

1040
6.0
  0
LINE
  5
F90
330
1F
100
AcDbEntity
  8
AM_7
100
AcDbLine
 10
338.76054699169
 20
362.4956832875291
 30
0.0
 11
317.6328607536727
 21
362.4956832875291
 31
0.0
  0
LINE
  5
FB1
330
1F
100
AcDbEntity
  8
0
100
AcDbLine
 10
164.5035884588823
 20
358.0957202875292
 30
0.0
 11
158.5035884588823
 21
358.0957202875292
 31
0.0
  0
LINE
  5
FB2
330
1F
100
AcDbEntity
  8
0
100
AcDbLine
 10
164.5035884588823
 20
359.0957202875292
 30
0.0
 11
158.5035884588823
 21
359.0957202875292
 31
0.0
  0
LINE
  5
FB3
330
1F
100
AcDbEntity
  8
0
  6
Continuous
 62
     7
100
AcDbLine
 10
164.5035884588823
 20
347.4956832875291
 30
0.0
 11
169.0035884588823
 21
347.4956832875291
 31
0.0
  0
LINE
  5
FB4
330
1F
100
AcDbEntity
  8
0
  6
Continuous
100
AcDbLine
 10
158.5035884588823
 20
347.9956832875291
 30
0.0
 11
154.5035884588823
 21
347.9956832875291
 31
0.0
  0
LINE
  5
FB5
330
1F
100
AcDbEntity
  8
0
100
AcDbLine
 10
164.5035884588823
 20
365.8956462875291
 30
0.0
 11
158.5035884588823
 21
365.8956462875291
 31
0.0
  0
LINE
  5
FB6
330
1F
100
AcDbEntity
  8
0
100
AcDbLine
 10
164.5035884588823
 20
366.8956462875291
 30
0.0
 11
158.5035884588823
 21
366.8956462875291
 31
0.0
  0
LINE
  5
FB7
330
1F
100
AcDbEntity
  8
0
  6
Continuous
100
AcDbLine
 10
158.5035884588823
 20
376.9957442875291
 30
0.0
 11
154.5035884588823
 21
376.9957442875291
 31
0.0
  0
LINE
  5
FB8
330
1F
100
AcDbEntity
  8
0
  6
Continuous
 62
     7
100
AcDbLine
 10
164.5035884588823
 20
377.4957442875291
 30
0.0
 11
169.0035884588823
 21
377.4957442875291
 31
0.0
  0
LINE
  5
12B1
330
1F
100
AcDbEntity
  8
AM_7
  6
AM_ISO08W050x2
100
AcDbLine
 10
232.2419602223288
 20
373.4957442875292
 30
0.0
 11
234.4919602223288
 21
373.4957442875292
 31
0.0
1001
GENIUS_GENOREF_13
1005
12B5
  0
LINE
  5
12B2
330
1F
100
AcDbEntity
  8
AM_7
  6
AM_ISO08W050x2
100
AcDbLine
 10
232.2419602223288
 20
373.4957442875292
 30
0.0
 11
232.2419602223288
 21
375.7457442875292
 31
0.0
1001
GENIUS_GENOREF_13
1005
12B5
  0
LINE
  5
12B3
330
1F
100
AcDbEntity
  8
AM_7
  6
AM_ISO08W050x2
100
AcDbLine
 10
232.2419602223288
 20
373.4957442875292
 30
0.0
 11
229.9919602223288
 21
373.4957442875292
 31
0.0
1001
GENIUS_GENOREF_13
1005
12B5
  0
LINE
  5
12B4
330
1F
100
AcDbEntity
  8
AM_7
  6
AM_ISO08W050x2
100
AcDbLine
 10
232.2419602223288
 20
373.4957442875292
 30
0.0
 11
232.2419602223288
 21
371.2457442875291
 31
0.0
1001
GENIUS_GENOREF_13
1005
12B5
  0
POINT
  5
12B5
330
1F
100
AcDbEntity
  8
0
 60
     1
100
AcDbPoint
 10
0.0
 20
0.0
 30
0.0
1001
GENIUS_GENODEF_13
1002
{
1000
HIER
1070
    10
1002
}
1002
{
1000
MANEDIT
1070
     0
1002
}
1002
{
1000
NOSEL
1070
     0
1002
}
1002
{
1000
BEHIND
1070
     0
1002
}
1002
{
1000
OTHER
1070
     0
1002
}
1002
{
1000
REACTOR
1002
}
1001
GENIUS_GENOENT_13
1002
{
1000
MYREF
1005
12B5
1002
}
1002
{
1000
GRP
1005
0
1002
}
1001
GENIUS_GENOBJ-N-CRS_13
1002
{
1000
OWNER
1000
GEN
1002
}
1001
GENIUS_GENOLIS_13
1002
{
1000
ENT
1005
12B4
1005
12B3
1005
12B2
1005
12B1
1002
}
  0
LINE
  5
12C3
330
1F
100
AcDbEntity
  8
AM_7
  6
AM_ISO08W050x2
100
AcDbLine
 10
244.7419602223288
 20
374.4957442875291
 30
0.0
 11
247.2419602223288
 21
374.4957442875291
 31
0.0
1001
GENIUS_GENOREF_13
1005
12C7
  0
LINE
  5
12C4
330
1F
100
AcDbEntity
  8
AM_7
  6
AM_ISO08W050x2
100
AcDbLine
 10
244.7419602223288
 20
374.4957442875291
 30
0.0
 11
244.7419602223288
 21
376.9957442875291
 31
0.0
1001
GENIUS_GENOREF_13
1005
12C7
  0
LINE
  5
12C5
330
1F
100
AcDbEntity
  8
AM_7
  6
AM_ISO08W050x2
100
AcDbLine
 10
244.7419602223288
 20
374.4957442875291
 30
0.0
 11
242.2419602223288
 21
374.4957442875291
 31
0.0
1001
GENIUS_GENOREF_13
1005
12C7
  0
LINE
  5
12C6
330
1F
100
AcDbEntity
  8
AM_7
  6
AM_ISO08W050x2
100
AcDbLine
 10
244.7419602223288
 20
374.4957442875291
 30
0.0
 11
244.7419602223288
 21
371.9957442875291
 31
0.0
1001
GENIUS_GENOREF_13
1005
12C7
  0
POINT
  5
12C7
330
1F
100
AcDbEntity
  8
0
 60
     1
100
AcDbPoint
 10
0.0
 20
0.0
 30
0.0
1001
GENIUS_GENOLIS_13
1002
{
1000
ENT
1005
12C6
1005
12C5
1005
12C4
1005
12C3
1002
}
1001
GENIUS_GENODEF_13
1002
{
1000
HIER
1070
    10
1002
}
1002
{
1000
MANEDIT
1070
     0
1002
}
1002
{
1000
NOSEL
1070
     0
1002
}
1002
{
1000
BEHIND
1070
     0
1002
}
1002
{
1000
OTHER
1070
     0
1002
}
1002
{
1000
REACTOR
1002
}
1001
GENIUS_GENOENT_13
1002
{
1000
MYREF
1005
12C7
1002
}
1002
{
1000
GRP
1005
0
1002
}
1001
GENIUS_GENOBJ-N-CRS_13
1002
{
1000
OWNER
1000
GEN
1002
}
  0
LINE
  5
12D5
330
1F
100
AcDbEntity
  8
AM_7
  6
AM_ISO08W050x2
100
AcDbLine
 10
261.7419602223288
 20
374.4957442875291
 30
0.0
 11
264.4419602223288
 21
374.4957442875291
 31
0.0
1001
GENIUS_GENOREF_13
1005
12D9
  0
LINE
  5
12D6
330
1F
100
AcDbEntity
  8
AM_7
  6
AM_ISO08W050x2
100
AcDbLine
 10
261.7419602223288
 20
374.4957442875291
 30
0.0
 11
261.7419602223288
 21
377.1957442875291
 31
0.0
1001
GENIUS_GENOREF_13
1005
12D9
  0
LINE
  5
12D7
330
1F
100
AcDbEntity
  8
AM_7
  6
AM_ISO08W050x2
100
AcDbLine
 10
261.7419602223288
 20
374.4957442875291
 30
0.0
 11
259.0419602223288
 21
374.4957442875291
 31
0.0
1001
GENIUS_GENOREF_13
1005
12D9
  0
LINE
  5
12D8
330
1F
100
AcDbEntity
  8
AM_7
  6
AM_ISO08W050x2
100
AcDbLine
 10
261.7419602223288
 20
374.4957442875291
 30
0.0
 11
261.7419602223288
 21
371.7957442875292
 31
0.0
1001
GENIUS_GENOREF_13
1005
12D9
  0
POINT
  5
12D9
330
1F
100
AcDbEntity
  8
0
 60
     1
100
AcDbPoint
 10
0.0
 20
0.0
 30
0.0
1001
GENIUS_GENOLIS_13
1002
{
1000
ENT
1005
12D8
1005
12D7
1005
12D6
1005
12D5
1002
}
1001
GENIUS_GENOENT_13
1002
{
1000
MYREF
1005
12D9
1002
}
1002
{
1000
GRP
1005
0
1002
}
1001
GENIUS_GENOBJ-N-CRS_13
1002
{
1000
OWNER
1000
GEN
1002
}
1001
GENIUS_GENODEF_13
1002
{
1000
HIER
1070
    10
1002
}
1002
{
1000
MANEDIT
1070
     0
1002
}
1002
{
1000
NOSEL
1070
     0
1002
}
1002
{
1000
BEHIND
1070
     0
1002
}
1002
{
1000
OTHER
1070
     0
1002
}
1002
{
1000
REACTOR
1002
}
  0
LINE
  5
12E7
330
1F
100
AcDbEntity
  8
AM_7
  6
AM_ISO08W050x2
100
AcDbLine
 10
261.7419602223288
 20
350.4956832875291
 30
0.0
 11
264.4419602223288
 21
350.4956832875291
 31
0.0
1001
GENIUS_GENOREF_13
1005
12EB
  0
LINE
  5
12E8
330
1F
100
AcDbEntity
  8
AM_7
  6
AM_ISO08W050x2
100
AcDbLine
 10
261.7419602223288
 20
350.4956832875291
 30
0.0
 11
261.7419602223288
 21
353.1956832875291
 31
0.0
1001
GENIUS_GENOREF_13
1005
12EB
  0
LINE
  5
12E9
330
1F
100
AcDbEntity
  8
AM_7
  6
AM_ISO08W050x2
100
AcDbLine
 10
261.7419602223288
 20
350.4956832875291
 30
0.0
 11
259.0419602223288
 21
350.4956832875291
 31
0.0
1001
GENIUS_GENOREF_13
1005
12EB
  0
LINE
  5
12EA
330
1F
100
AcDbEntity
  8
AM_7
  6
AM_ISO08W050x2
100
AcDbLine
 10
261.7419602223288
 20
350.4956832875291
 30
0.0
 11
261.7419602223288
 21
347.7956832875291
 31
0.0
1001
GENIUS_GENOREF_13
1005
12EB
  0
POINT
  5
12EB
330
1F
100
AcDbEntity
  8
0
 60
     1
100
AcDbPoint
 10
0.0
 20
0.0
 30
0.0
1001
GENIUS_GENOENT_13
1002
{
1000
MYREF
1005
12EB
1002
}
1002
{
1000
GRP
1005
0
1002
}
1001
GENIUS_GENOBJ-N-CRS_13
1002
{
1000
OWNER
1000
GEN
1002
}
1001
GENIUS_GENODEF_13
1002
{
1000
HIER
1070
    10
1002
}
1002
{
1000
MANEDIT
1070
     0
1002
}
1002
{
1000
NOSEL
1070
     0
1002
}
1002
{
1000
BEHIND
1070
     0
1002
}
1002
{
1000
OTHER
1070
     0
1002
}
1002
{
1000
REACTOR
1002
}
1001
GENIUS_GENOLIS_13
1002
{
1000
ENT
1005
12EA
1005
12E9
1005
12E8
1005
12E7
1002
}
  0
LINE
  5
12F9
330
1F
100
AcDbEntity
  8
AM_7
  6
AM_ISO08W050x2
100
AcDbLine
 10
244.7419602223288
 20
350.4956832875291
 30
0.0
 11
247.0794602223287
 21
350.4956832875291
 31
0.0
1001
GENIUS_GENOREF_13
1005
12FD
  0
LINE
  5
12FA
330
1F
100
AcDbEntity
  8
AM_7
  6
AM_ISO08W050x2
100
AcDbLine
 10
244.7419602223288
 20
350.4956832875291
 30
0.0
 11
244.7419602223288
 21
352.8331832875291
 31
0.0
1001
GENIUS_GENOREF_13
1005
12FD
  0
LINE
  5
12FB
330
1F
100
AcDbEntity
  8
AM_7
  6
AM_ISO08W050x2
100
AcDbLine
 10
244.7419602223288
 20
350.4956832875291
 30
0.0
 11
242.4044602223288
 21
350.4956832875291
 31
0.0
1001
GENIUS_GENOREF_13
1005
12FD
  0
LINE
  5
12FC
330
1F
100
AcDbEntity
  8
AM_7
  6
AM_ISO08W050x2
100
AcDbLine
 10
244.7419602223288
 20
350.4956832875291
 30
0.0
 11
244.7419602223288
 21
348.1581832875292
 31
0.0
1001
GENIUS_GENOREF_13
1005
12FD
  0
POINT
  5
12FD
330
1F
100
AcDbEntity
  8
0
 60
     1
100
AcDbPoint
 10
0.0
 20
0.0
 30
0.0
1001
GENIUS_GENODEF_13
1002
{
1000
HIER
1070
    10
1002
}
1002
{
1000
MANEDIT
1070
     0
1002
}
1002
{
1000
NOSEL
1070
     0
1002
}
1002
{
1000
BEHIND
1070
     0
1002
}
1002
{
1000
OTHER
1070
     0
1002
}
1002
{
1000
REACTOR
1002
}
1001
GENIUS_GENOLIS_13
1002
{
1000
ENT
1005
12FC
1005
12FB
1005
12FA
1005
12F9
1002
}
1001
GENIUS_GENOBJ-N-CRS_13
1002
{
1000
OWNER
1000
GEN
1002
}
1001
GENIUS_GENOENT_13
1002
{
1000
MYREF
1005
12FD
1002
}
1002
{
1000
GRP
1005
0
1002
}
  0
LINE
  5
130B
330
1F
100
AcDbEntity
  8
AM_7
  6
AM_ISO08W050x2
100
AcDbLine
 10
232.2419602223288
 20
351.4956832875291
 30
0.0
 11
234.4919602223288
 21
351.4956832875291
 31
0.0
1001
GENIUS_GENOREF_13
1005
130F
  0
LINE
  5
130C
330
1F
100
AcDbEntity
  8
AM_7
  6
AM_ISO08W050x2
100
AcDbLine
 10
232.2419602223288
 20
351.4956832875291
 30
0.0
 11
232.2419602223288
 21
353.7456832875291
 31
0.0
1001
GENIUS_GENOREF_13
1005
130F
  0
LINE
  5
130D
330
1F
100
AcDbEntity
  8
AM_7
  6
AM_ISO08W050x2
100
AcDbLine
 10
232.2419602223288
 20
351.4956832875291
 30
0.0
 11
229.9919602223288
 21
351.4956832875291
 31
0.0
1001
GENIUS_GENOREF_13
1005
130F
  0
LINE
  5
130E
330
1F
100
AcDbEntity
  8
AM_7
  6
AM_ISO08W050x2
100
AcDbLine
 10
232.2419602223288
 20
351.4956832875291
 30
0.0
 11
232.2419602223288
 21
349.2456832875291
 31
0.0
1001
GENIUS_GENOREF_13
1005
130F
  0
POINT
  5
130F
330
1F
100
AcDbEntity
  8
0
 60
     1
100
AcDbPoint
 10
0.0
 20
0.0
 30
0.0
1001
GENIUS_GENODEF_13
1002
{
1000
HIER
1070
    10
1002
}
1002
{
1000
MANEDIT
1070
     0
1002
}
1002
{
1000
NOSEL
1070
     0
1002
}
1002
{
1000
BEHIND
1070
     0
1002
}
1002
{
1000
OTHER
1070
     0
1002
}
1002
{
1000
REACTOR
1002
}
1001
GENIUS_GENOLIS_13
1002
{
1000
ENT
1005
130E
1005
130D
1005
130C
1005
130B
1002
}
1001
GENIUS_GENOENT_13
1002
{
1000
MYREF
1005
130F
1002
}
1002
{
1000
GRP
1005
0
1002
}
1001
GENIUS_GENOBJ-N-CRS_13
1002
{
1000
OWNER
1000
GEN
1002
}
  0
TEXT
  5
1B60
330
1F
100
AcDbEntity
  8
AM_5
100
AcDbText
 10
259.7816479615769
 20
418.3391030202581
 30
0.0
 40
3.5
  1
2-M3x4depth
100
AcDbText
  0
INSERT
  5
1B61
330
1F
100
AcDbEntity
  8
AM_5
100
AcDbBlockReference
  2
*S30
 10
0.0
 20
0.0
 30
0.0
  0
ARC
  5
1BA1
330
1F
100
AcDbEntity
  8
AM_4
100
AcDbCircle
 10
249.7419602223288
 20
438.7297550683087
 30
0.0
 40
1.5
100
AcDbArc
 50
260.0
 51
170.0
  0
CIRCLE
  5
1BA2
330
1F
100
AcDbEntity
  8
AM_0
100
AcDbCircle
 10
249.7419602223288
 20
438.7297550683087
 30
0.0
 40
1.229367061317389
  0
LINE
  5
1BA3
330
1F
100
AcDbEntity
  8
AM_7
100
AcDbLine
 10
251.9853682223288
 20
429.7297550683087
 30
0.0
 11
247.3884442223288
 21
429.7297550683087
 31
0.0
  0
ARC
  5
1BA4
330
1F
100
AcDbEntity
  8
AM_4
100
AcDbCircle
 10
249.7419602223288
 20
429.7297550683087
 30
0.0
 40
1.5
100
AcDbArc
 50
260.0
 51
170.0
  0
CIRCLE
  5
1BA5
330
1F
100
AcDbEntity
  8
AM_0
100
AcDbCircle
 10
249.7419602223288
 20
429.7297550683087
 30
0.0
 40
1.229367061317389
  0
ARC
  5
1BD1
330
1F
100
AcDbEntity
  8
AM_4
100
AcDbCircle
 10
161.5035884588823
 20
393.9956832875291
 30
0.0
 40
1.5
100
AcDbArc
 50
260.0
 51
170.0
  0
CIRCLE
  5
1BD2
330
1F
100
AcDbEntity
  8
AM_0
100
AcDbCircle
 10
161.5035884588823
 20
393.9956832875291
 30
0.0
 40
1.229367061317389
  0
ARC
  5
1BD3
330
1F
100
AcDbEntity
  8
AM_4
100
AcDbCircle
 10
161.5035884588823
 20
387.9956832875291
 30
0.0
 40
1.5
100
AcDbArc
 50
260.0
 51
170.0
  0
CIRCLE
  5
1BD4
330
1F
100
AcDbEntity
  8
AM_0
100
AcDbCircle
 10
161.5035884588823
 20
387.9956832875291
 30
0.0
 40
1.229367061317389
  0
TEXT
  5
1BD5
330
1F
100
AcDbEntity
  8
AM_5
100
AcDbText
 10
173.7915865470426
 20
387.5721951620299
 30
0.0
 40
3.5
  1
4-M3x0.5
100
AcDbText
  0
INSERT
  5
1BD6
330
1F
100
AcDbEntity
  8
AM_5
100
AcDbBlockReference
  2
*S31
 10
0.0
 20
0.0
 30
0.0
  0
TEXT
  5
1BD7
330
1F
100
AcDbEntity
  8
AM_5
100
AcDbText
 10
173.7915865470426
 20
382.1090912746273
 30
0.0
 40
3.5
  1
or 4-%%C3.4
100
AcDbText
  0
DIMENSION
  5
1BF7
102
{ACAD_XDICTIONARY
360
1C06
102
}
102
{ACAD_REACTORS
330
1C07
102
}
330
1F
100
AcDbEntity
  8
AM_5
100
AcDbDimension
  2
*D24
 10
148.5035884588823
 20
393.9956832875291
 30
0.0
 11
146.0535884588822
 21
395.4956832875292
 31
0.0
 70
    32
 71
     5
 42
3.0
  3
AM_ISO$0
100
AcDbAlignedDimension
 13
158.5035884588823
 23
396.9956832875291
 33
0.0
 14
159.0035884588823
 24
393.9956832875291
 34
0.0
 50
90.0
100
AcDbRotatedDimension
1001
ACAD
1000
DSTYLE
1002
{
1070
   173
1070
     1
1070
   174
1070
     1
1070
   272
1070
     8
1070
   344
1005
14D6
1002
}
  0
DIMENSION
  5
1C27
102
{ACAD_XDICTIONARY
360
1C36
102
}
102
{ACAD_REACTORS
330
1C37
102
}
330
1F
100
AcDbEntity
  8
AM_5
100
AcDbDimension
  2
*D25
 10
148.5035884588823
 20
387.9956832875291
 30
0.0
 11
146.0535884588822
 21
390.9956832875292
 31
0.0
 70
    32
 71
     5
 42
6.0
  3
AM_ISO$0
100
AcDbAlignedDimension
 13
159.0035884588823
 23
393.9956832875291
 33
0.0
 14
159.0035884588823
 24
387.9956832875291
 34
0.0
 50
90.0
100
AcDbRotatedDimension
1001
ACAD
1000
DSTYLE
1002
{
1070
   173
1070
     1
1070
   174
1070
     1
1070
   272
1070
     8
1070
   343
1005
14D6
1002
}
  0
DIMENSION
  5
1D2B
102
{ACAD_XDICTIONARY
360
1D37
102
}
102
{ACAD_REACTORS
330
1D38
102
}
330
1F
100
AcDbEntity
  8
AM_5
100
AcDbDimension
  2
*D26
 10
260.4306778723575
 20
373.4138299662195
 30
0.0
 11
278.3322543708459
 21
382.0830708519762
 31
0.0
 70
   163
  1
2-<>
 71
     5
 42
3.400000000000261
  3
AM_ISO$3
100
AcDbDiametricDimension
 15
263.0532425722997
 25
375.5776586088387
 35
0.0
 40
0.0
1001
ACAD
1000
DSTYLE
1002
{
1070
    40
1040
1.0
1070
   144
1040
1.0
1002
}
  0
TEXT
  5
1D51
330
1F
100
AcDbEntity
  8
AM_5
100
AcDbText
 10
256.7868514840863
 20
392.4876113577862
 30
0.0
 40
3.5
  1
2-M3x6depth
100
AcDbText
  0
INSERT
  5
1D52
330
1F
100
AcDbEntity
  8
AM_5
100
AcDbBlockReference
  2
*S32
 10
0.0
 20
0.0
 30
0.0
  0
ARC
  5
1D87
330
1F
100
AcDbEntity
  8
AM_4
100
AcDbCircle
 10
244.7419602223288
 20
374.4957442875291
 30
0.0
 40
1.5
100
AcDbArc
 50
260.0
 51
170.0
  0
CIRCLE
  5
1D88
330
1F
100
AcDbEntity
  8
AM_0
100
AcDbCircle
 10
244.7419602223288
 20
374.4957442875291
 30
0.0
 40
1.229367061317389
  0
ARC
  5
1D89
330
1F
100
AcDbEntity
  8
AM_4
100
AcDbCircle
 10
244.7419602223288
 20
350.4956832875291
 30
0.0
 40
1.5
100
AcDbArc
 50
260.0
 51
170.0
  0
CIRCLE
  5
1D8A
330
1F
100
AcDbEntity
  8
AM_0
100
AcDbCircle
 10
244.7419602223288
 20
350.4956832875291
 30
0.0
 40
1.229367061317389
  0
ARC
  5
1D8B
330
1F
100
AcDbEntity
  8
AM_4
100
AcDbCircle
 10
249.7419602223288
 20
281.464273907947
 30
0.0
 40
2.5
100
AcDbArc
 50
260.0000000000014
 51
169.9999999999997
  0
CIRCLE
  5
1D8C
330
1F
100
AcDbEntity
  8
AM_0
100
AcDbCircle
 10
249.7419602223288
 20
281.464273907947
 30
0.0
 40
2.066987298107819
  0
INSERT
  5
1D8D
330
1F
100
AcDbEntity
  8
AM_5
100
AcDbBlockReference
  2
*S33
 10
0.0
 20
0.0
 30
0.0
  0
TEXT
  5
1D8E
330
1F
100
AcDbEntity
  8
AM_5
100
AcDbText
 10
263.4582891343073
 20
297.022240445862
 30
0.0
 40
3.5
  1
M5x0.8
100
AcDbText
  0
INSERT
  5
1D8F
330
1F
100
AcDbEntity
  8
AM_5
100
AcDbBlockReference
  2
*S34
 10
0.0
 20
0.0
 30
0.0
  0
TEXT
  5
1D90
330
1F
100
AcDbEntity
  8
AM_5
100
AcDbText
 10
263.4565356339074
 20
291.2169311822967
 30
0.0
 40
3.5
  1
(Finger closing port)
100
AcDbText
  0
TEXT
  5
1D91
330
1F
100
AcDbEntity
  8
AM_5
100
AcDbText
 10
292.4363446958318
 20
266.4612351542717
 30
0.0
 40
3.5
  1
M5x0.8
100
AcDbText
  0
TEXT
  5
1D92
330
1F
100
AcDbEntity
  8
AM_5
100
AcDbText
 10
292.1858403989992
 20
260.021735174213
 30
0.0
 40
3.5
  1
(Finger opening port)
100
AcDbText
  0
ARC
  5
1D93
330
1F
100
AcDbEntity
  8
AM_4
100
AcDbCircle
 10
272.7419602223288
 20
278.464273907947
 30
0.0
 40
2.5
100
AcDbArc
 50
260.0000000000014
 51
169.9999999999997
  0
CIRCLE
  5
1D94
330
1F
100
AcDbEntity
  8
AM_0
100
AcDbCircle
 10
272.7419602223288
 20
278.464273907947
 30
0.0
 40
2.066987298107819
  0
CIRCLE
  5
1DB7
330
1F
100
AcDbEntity
  8
0
100
AcDbCircle
 10
328.8163281669688
 20
362.4956832875291
 30
0.0
 40
5.5
  0
TEXT
  5
1DBC
330
1F
100
AcDbEntity
  8
AM_5
100
AcDbText
 10
345.1027604761788
 20
336.5302264206521
 30
0.0
 40
3.5
  1
%%c11  x1.5depth
100
AcDbText
  0
INSERT
  5
1DBD
330
1F
100
AcDbEntity
  8
AM_5
100
AcDbBlockReference
  2
*S35
 10
0.0
 20
0.0
 30
0.0
  0
TEXT
  5
1DC1
330
1F
100
AcDbEntity
  8
AM_5
100
AcDbText
 10
351.8201309959061
 20
339.3021170006857
 30
0.0
 40
2.099999999999999
  1
H9
100
AcDbText
  0
TEXT
  5
1DC4
330
1F
100
AcDbEntity
  8
AM_5
100
AcDbText
 10
345.031604293221
 20
389.7953740333958
 30
0.0
 40
3.5
  1
2-M3x6depth
100
AcDbText
  0
INSERT
  5
1DC5
330
1F
100
AcDbEntity
  8
AM_5
100
AcDbBlockReference
  2
*S36
 10
0.0
 20
0.0
 30
0.0
  0
ARC
  5
1DC7
330
1F
100
AcDbEntity
  8
AM_4
100
AcDbCircle
 10
328.8163281669688
 20
393.9956832875291
 30
0.0
 40
1.5
100
AcDbArc
 50
260.0
 51
170.0
  0
CIRCLE
  5
1DC8
330
1F
100
AcDbEntity
  8
AM_0
100
AcDbCircle
 10
328.8163281669688
 20
393.9956832875291
 30
0.0
 40
1.229367061317389
  0
ARC
  5
1DC9
330
1F
100
AcDbEntity
  8
AM_4
100
AcDbCircle
 10
328.8163281669688
 20
387.9956832875291
 30
0.0
 40
1.5
100
AcDbArc
 50
260.0
 51
170.0
  0
CIRCLE
  5
1DCA
330
1F
100
AcDbEntity
  8
AM_0
100
AcDbCircle
 10
328.8163281669688
 20
387.9956832875291
 30
0.0
 40
1.229367061317389
  0
ARC
  5
1DCB
330
1F
100
AcDbEntity
  8
AM_4
100
AcDbCircle
 10
333.3163281669688
 20
374.4957442875291
 30
0.0
 40
1.5
100
AcDbArc
 50
260.0
 51
170.0
  0
CIRCLE
  5
1DCC
330
1F
100
AcDbEntity
  8
AM_0
100
AcDbCircle
 10
333.3163281669688
 20
374.4957442875291
 30
0.0
 40
1.229367061317389
  0
ARC
  5
1DCD
330
1F
100
AcDbEntity
  8
AM_4
100
AcDbCircle
 10
324.3163281669688
 20
350.4956832875291
 30
0.0
 40
1.5
100
AcDbArc
 50
260.0
 51
170.0
  0
CIRCLE
  5
1DCE
330
1F
100
AcDbEntity
  8
AM_0
100
AcDbCircle
 10
324.3163281669688
 20
350.4956832875291
 30
0.0
 40
1.229367061317389
  0
ARC
  5
1DCF
330
1F
100
AcDbEntity
  8
AM_4
100
AcDbCircle
 10
328.8163281669688
 20
336.9956832875291
 30
0.0
 40
1.5
100
AcDbArc
 50
260.0
 51
170.0
  0
CIRCLE
  5
1DD0
330
1F
100
AcDbEntity
  8
AM_0
100
AcDbCircle
 10
328.8163281669688
 20
336.9956832875291
 30
0.0
 40
1.229367061317389
  0
ARC
  5
1DD1
330
1F
100
AcDbEntity
  8
AM_4
100
AcDbCircle
 10
328.8163281669688
 20
330.9956832875291
 30
0.0
 40
1.5
100
AcDbArc
 50
260.0
 51
170.0
  0
CIRCLE
  5
1DD2
330
1F
100
AcDbEntity
  8
AM_0
100
AcDbCircle
 10
328.8163281669688
 20
330.9956832875291
 30
0.0
 40
1.229367061317389
  0
ARC
  5
1DD4
330
1F
100
AcDbEntity
  8
AM_4
100
AcDbCircle
 10
161.5035884588823
 20
336.9956832875291
 30
0.0
 40
1.5
100
AcDbArc
 50
260.0
 51
170.0
  0
CIRCLE
  5
1DD5
330
1F
100
AcDbEntity
  8
AM_0
100
AcDbCircle
 10
161.5035884588823
 20
336.9956832875291
 30
0.0
 40
1.229367061317389
  0
ARC
  5
1DD6
330
1F
100
AcDbEntity
  8
AM_4
100
AcDbCircle
 10
161.5035884588823
 20
330.9956832875291
 30
0.0
 40
1.5
100
AcDbArc
 50
260.0
 51
170.0
  0
CIRCLE
  5
1DD7
330
1F
100
AcDbEntity
  8
AM_0
100
AcDbCircle
 10
161.5035884588823
 20
330.9956832875291
 30
0.0
 40
1.229367061317389
  0
LINE
  5
1DE9
330
1F
100
AcDbEntity
  8
0
  6
Continuous
 62
     7
100
AcDbLine
 10
158.5035884588823
 20
381.7957932875291
 30
0.0
 11
164.5035884588823
 21
381.7957932875291
 31
0.0
  0
LINE
  5
1DEA
330
1F
100
AcDbEntity
  8
0
  6
Continuous
 62
     7
100
AcDbLine
 10
158.5035884588823
 20
343.1956342875291
 30
0.0
 11
164.5035884588823
 21
343.1956342875291
 31
0.0
  0
TEXT
  5
2058
330
1F
100
AcDbEntity
  8
LOGO
 62
     7
100
AcDbText
 10
156.2488680938541
 20
218.1719423073045
 30
0.0
 40
3.732792760180994
  1
Order example:
 41
0.8
  7
CHINESET
100
AcDbText
  0
TEXT
  5
2059
330
1F
100
AcDbEntity
  8
LOGO
 62
     7
100
AcDbText
 10
156.9185619839709
 20
223.4269416290364
 30
0.0
 40
5.599189140271492
  1
訂購代號：
  7
CHINESET
100
AcDbText
  0
LINE
  5
205A
330
1F
100
AcDbEntity
  8
LOGO
 62
     4
100
AcDbLine
 10
154.6269569786503
 20
202.4405440259879
 30
0.0
 11
154.6269569786503
 21
230.4364897273455
 31
0.0
  0
TEXT
  5
205B
330
1F
100
AcDbEntity
  8
LOGO
  6
Continuous
100
AcDbText
 10
103.0921459758022
 20
207.9403053094538
 30
0.0
 40
4.19939185520362
  1
金器工業股份有限公司
  7
CHINESET
100
AcDbText
  0
TEXT
  5
205C
330
1F
100
AcDbEntity
  8
LOGO
  6
Continuous
100
AcDbText
 10
95.37869394650062
 20
203.7400907026916
 30
0.0
 40
2.799594570135746
  1
MINDMAN INDUSTRIAL CO., LTD.
 41
0.85
  7
CHINESET
100
AcDbText
  0
LINE
  5
205D
330
1F
100
AcDbEntity
  8
LOGO
 62
     4
100
AcDbLine
 10
154.6269569786503
 20
224.837300587074
 30
0.0
 11
113.566236616659
 21
224.837300587074
 31
0.0
  0
LINE
  5
205E
330
1F
100
AcDbEntity
  8
LOGO
 62
     4
100
AcDbLine
 10
154.6269569786503
 20
219.2381114468024
 30
0.0
 11
113.566236616659
 21
219.2381114468024
 31
0.0
  0
LINE
  5
205F
330
1F
100
AcDbEntity
  8
LOGO
 62
     4
100
AcDbLine
 10
154.6269569786503
 20
213.6389223065313
 30
0.0
 11
93.03587643566379
 21
213.6389223065313
 31
0.0
  0
LINE
  5
2060
330
1F
100
AcDbEntity
  8
LOGO
 62
     4
100
AcDbLine
 10
113.566236616659
 20
213.6389223065313
 30
0.0
 11
113.566236616659
 21
230.4364897273455
 31
0.0
  0
TEXT
  5
2061
330
1F
100
AcDbEntity
  8
LOGO
100
AcDbText
 10
141.6293009475989
 20
215.0387195915987
 30
0.0
 40
2.799594570135746
  1
mm
  7
CHINESET
 72
     1
 11
145.0954656534812
 21
216.4385168766665
 31
0.0
100
AcDbText
 73
     2
  0
TEXT
  5
2062
330
1F
100
AcDbEntity
  8
LOGO
100
AcDbText
 10
140.1628466489563
 20
226.2370978721417
 30
0.0
 40
2.799594570135746
  1
1 : 1
  7
CHINESET
 72
     1
 11
145.0954656534812
 21
227.6368951572096
 31
0.0
100
AcDbText
 73
     2
  0
LINE
  5
2063
330
1F
100
AcDbEntity
  8
LOGO
 62
     4
100
AcDbLine
 10
135.9629931777452
 20
213.6389223065313
 30
0.0
 11
135.9629931777452
 21
230.4364897273455
 31
0.0
  0
TEXT
  5
2064
330
1F
100
AcDbEntity
  8
LOGO
100
AcDbText
 10
115.8746523180166
 20
226.2384756253751
 30
183.4808160640697
 40
2.799594570135746
  1
比例 Scale:
 41
0.9
  7
CHINESET
 72
     4
 11
124.7646148972021
 21
227.6368951572096
 31
183.4808160640697
100
AcDbText
  0
TEXT
  5
2065
330
1F
100
AcDbEntity
  8
LOGO
100
AcDbText
 10
115.7134256664329
 20
220.6772895117897
 30
183.4808160640697
 40
2.799594570135746
  1
投影  View:
 41
0.9
  7
CHINESET
 72
     4
 11
124.7646148972021
 21
222.0377060169381
 31
183.4808160640697
100
AcDbText
  0
TEXT
  5
2066
330
1F
100
AcDbEntity
  8
LOGO
100
AcDbText
 10
115.9871360284238
 20
215.0387195915987
 30
183.4808160640697
 40
2.799594570135746
  1
單位  Unit:
 41
0.9
  7
CHINESET
 72
     4
 11
124.7646148972021
 21
216.4385168766665
 31
183.4808160640697
100
AcDbText
  0
LWPOLYLINE
  5
2067
330
1F
100
AcDbEntity
  8
LOGO
 62
     4
100
AcDbPolyline
 90
        4
 70
     1
 43
0.0
 10
93.03587643566379
 20
230.4364897273455
 10
437.8770407425878
 20
230.4364897273455
 10
437.8770407425878
 20
482.4405440259873
 10
93.03587643566379
 20
482.4405440259873
1001
GENIUS_GENREC_14
1002
{
1000
PYDIR
1011
93.03587643566379
1021
482.4405440259873
1031
0.0
1002
}
1002
{
1000
PXDIR
1011
437.8770407425878
1021
230.4364897273455
1031
0.0
1002
}
1002
{
1000
PORI
1011
93.03587643566379
1021
230.4364897273455
1031
0.0
1002
}
1002
{
1000
PINS
1011
93.03587643566379
1021
230.4364897273455
1031
0.0
1002
}
1002
{
1000
PINS2
1011
437.8770407425878
1021
482.4405440259873
1031
0.0
1002
}
1002
{
1000
C
1070
     1
1002
}
1001
GENIUS_GENODEF_13
1002
{
1000
HIER
1070
     0
1002
}
1002
{
1000
MANEDIT
1070
     0
1002
}
1002
{
1000
NOSEL
1070
     0
1002
}
1002
{
1000
BEHIND
1070
     0
1002
}
1002
{
1000
OTHER
1070
     0
1002
}
1002
{
1000
REACTOR
1002
}
1001
GENIUS_GENOBJ-N-REC_13
1002
{
1000
OWNER
1000
GEN
1002
}
  0
SOLID
  5
2068
330
1F
100
AcDbEntity
  8
LOGO
 62
     5
100
AcDbTrace
 10
95.94050073225492
 20
218.292849788474
 30
0.0
 11
97.15097196302004
 21
218.2928497884737
 31
0.0
 12
102.2015588224193
 22
229.7714562871096
 32
0.0
 13
103.4120300531851
 23
229.7714562871089
 33
0.0
  0
SOLID
  5
2069
330
1F
100
AcDbEntity
  8
LOGO
 62
     5
100
AcDbTrace
 10
97.65185661023451
 20
218.292849788474
 30
0.0
 11
98.86232784099968
 21
218.292849788474
 31
0.0
 12
103.4120300531851
 22
228.8531677672183
 32
0.0
 13
102.2015588224193
 23
224.4147732544126
 33
0.0
  0
SOLID
  5
206A
330
1F
100
AcDbEntity
  8
LOGO
 62
     2
100
AcDbTrace
 10
97.15097196302004
 20
218.2928497884737
 30
0.0
 11
97.65185661023451
 21
218.292849788474
 31
0.0
 12
103.4120300531851
 22
229.7714562871089
 32
0.0
 13
103.912914700399
 23
229.7714562871089
 33
0.0
  0
SOLID
  5
206B
330
1F
100
AcDbEntity
  8
LOGO
 62
     5
100
AcDbTrace
 10
93.99981850543117
 20
214.1188110616978
 30
0.0
 11
94.41722237810926
 21
214.1188110616978
 31
0.0
 12
95.59266417169055
 22
216.2058304250858
 32
0.0
 13
96.01006804436735
 23
216.2058304250858
 33
0.0
  0
SOLID
  5
206C
330
1F
100
AcDbEntity
  8
LOGO
 62
     5
100
AcDbTrace
 10
95.59266417169055
 20
216.2058304250858
 30
0.0
 11
96.01006804436735
 21
216.2058304250858
 31
0.0
 12
95.59266417169055
 22
214.1188110616978
 32
0.0
 13
96.01006804436735
 23
214.1188110616978
 33
0.0
  0
SOLID
  5
206D
330
1F
100
AcDbEntity
  8
LOGO
 62
     5
100
AcDbTrace
 10
95.59266417169055
 20
214.1188110616978
 30
0.0
 11
96.01006804436735
 21
214.1188110616978
 31
0.0
 12
97.18550983795058
 22
216.2058304250858
 32
0.0
 13
97.60291371062805
 23
216.2058304250858
 33
0.0
  0
SOLID
  5
206E
330
1F
100
AcDbEntity
  8
LOGO
 62
     5
100
AcDbTrace
 10
97.18550983795058
 20
216.2058304250858
 30
0.0
 11
97.60291371062805
 21
216.2058304250858
 31
0.0
 12
97.18550983795058
 22
214.1188110616978
 32
0.0
 13
97.60291371062805
 23
214.1188110616978
 33
0.0
  0
POLYLINE
  5
206F
330
1F
100
AcDbEntity
  8
LOGO
 62
     5
100
AcDb2dPolyline
 66
     1
 10
0.0
 20
0.0
 30
0.0
 40
0.4180727891402714
 41
0.4180727891402714
  0
VERTEX
  5
2070
330
206F
100
AcDbEntity
  8
LOGO
 62
     5
100
AcDbVertex
100
AcDb2dVertex
 10
111.1767454596838
 20
215.3710226797306
 30
0.0
 42
1.0
  0
VERTEX
  5
2071
330
206F
100
AcDbEntity
  8
LOGO
 62
     5
100
AcDbVertex
100
AcDb2dVertex
 10
109.9225270922628
 20
215.3710226797306
 30
0.0
 42
1.0
  0
SEQEND
  5
2072
330
206F
100
AcDbEntity
  8
LOGO
 62
     5
  0
POLYLINE
  5
2073
330
1F
100
AcDbEntity
  8
LOGO
 62
     5
100
AcDb2dPolyline
 66
     1
 10
0.0
 20
0.0
 30
0.0
 70
     1
  0
VERTEX
  5
2074
330
2073
100
AcDbEntity
  8
LOGO
 62
     5
100
AcDbVertex
100
AcDb2dVertex
 10
107.5582696820408
 20
215.1623207433915
 30
0.0
 42
1.000000057330635
  0
VERTEX
  5
2075
330
2073
100
AcDbEntity
  8
LOGO
 62
     5
100
AcDbVertex
100
AcDb2dVertex
 10
108.8104813000738
 20
215.1623207433915
 30
0.0
 42
1.000000057330635
  0
SEQEND
  5
2076
330
2073
100
AcDbEntity
  8
LOGO
 62
     5
  0
CIRCLE
  5
2077
330
1F
100
AcDbEntity
  8
LOGO
 62
     5
100
AcDbCircle
 10
108.1843754910583
 20
215.1623207433915
 30
0.0
 40
0.6261058090164707
  0
POLYLINE
  5
2078
330
1F
100
AcDbEntity
  8
LOGO
 62
     5
100
AcDb2dPolyline
 66
     1
 10
0.0
 20
0.0
 30
0.0
 70
     1
 40
0.4180727891402714
 41
0.4180727891402714
  0
VERTEX
  5
2079
330
2078
100
AcDbEntity
  8
LOGO
 62
     5
100
AcDbVertex
100
AcDb2dVertex
 10
107.3482299127771
 20
215.1623207433915
 30
0.0
 42
1.0
  0
VERTEX
  5
207A
330
2078
100
AcDbEntity
  8
LOGO
 62
     5
100
AcDbVertex
100
AcDb2dVertex
 10
109.0205210693381
 20
215.1623207433915
 30
0.0
 42
1.0
  0
SEQEND
  5
207B
330
2078
100
AcDbEntity
  8
LOGO
 62
     5
  0
LINE
  5
207C
330
1F
100
AcDbEntity
  8
LOGO
100
AcDbLine
 10
111.3844440213279
 20
214.1188110616978
 30
0.0
 11
111.3844440213279
 21
215.3710226797306
 31
0.0
  0
SOLID
  5
207D
330
1F
100
AcDbEntity
  8
LOGO
 62
     5
100
AcDbTrace
 10
108.8104395596884
 20
216.2058304250858
 30
0.0
 11
109.2278434323652
 21
216.2058304250858
 31
0.0
 12
108.8104395596884
 22
214.1188110616978
 32
0.0
 13
109.2278434323652
 23
214.1188110616978
 33
0.0
  0
SOLID
  5
207E
330
1F
100
AcDbEntity
  8
LOGO
 62
     5
100
AcDbTrace
 10
109.7148285306174
 20
214.1188110616978
 30
0.0
 11
110.1322324032955
 21
214.1188110616978
 31
0.0
 12
109.7148285306174
 22
216.2058304250858
 32
0.0
 13
110.1322324032955
 23
216.2058304250858
 33
0.0
  0
SOLID
  5
207F
330
1F
100
AcDbEntity
  8
LOGO
 62
     5
100
AcDbTrace
 10
110.9670401486511
 20
215.3710226797306
 30
0.0
 11
111.3844440213279
 21
215.3710226797306
 31
0.0
 12
110.9670401486511
 22
214.1188110616978
 32
0.0
 13
111.3844440213279
 23
214.1188110616978
 33
0.0
  0
SOLID
  5
2080
330
1F
100
AcDbEntity
  8
LOGO
 62
     5
100
AcDbTrace
 10
109.6730881433495
 20
228.8531677672183
 30
0.0
 11
108.462616912585
 21
224.4147732544126
 31
0.0
 12
109.6730881433495
 22
218.2928497884737
 32
0.0
 13
108.462616912585
 23
218.2928497884737
 33
0.0
  0
SOLID
  5
2081
330
1F
100
AcDbEntity
  8
LOGO
 62
     5
100
AcDbTrace
 10
110.1739727905634
 20
218.2928497884737
 30
0.0
 11
111.3844440213279
 21
218.2928497884737
 31
0.0
 12
110.1739727905634
 22
229.7714562871089
 32
0.0
 13
111.3844440213279
 23
229.7714562871096
 33
0.0
  0
SOLID
  5
2082
330
1F
100
AcDbEntity
  8
LOGO
 62
     2
100
AcDbTrace
 10
109.6730881433495
 20
229.7714562871096
 30
0.0
 11
110.1739727905634
 21
229.7714562871089
 31
0.0
 12
109.6730881433495
 22
218.2928497884737
 32
0.0
 13
110.1739727905634
 23
218.2928497884737
 33
0.0
  0
POLYLINE
  5
2083
330
1F
100
AcDbEntity
  8
LOGO
 62
     5
100
AcDb2dPolyline
 66
     1
 10
0.0
 20
0.0
 30
0.0
 40
0.4180727891402714
 41
0.4180727891402714
  0
VERTEX
  5
2084
330
2083
100
AcDbEntity
  8
LOGO
 62
     5
100
AcDbVertex
100
AcDb2dVertex
 10
105.1939287910462
 20
215.3710226797306
 30
0.0
 42
1.0
  0
VERTEX
  5
2085
330
2083
100
AcDbEntity
  8
LOGO
 62
     5
100
AcDbVertex
100
AcDb2dVertex
 10
103.9397104236251
 20
215.3710226797306
 30
0.0
 42
1.0
  0
SEQEND
  5
2086
330
2083
100
AcDbEntity
  8
LOGO
 62
     5
  0
POLYLINE
  5
2087
330
1F
100
AcDbEntity
  8
LOGO
 62
     5
100
AcDb2dPolyline
 66
     1
 10
0.0
 20
0.0
 30
0.0
 40
0.4180727891402714
 41
0.4180727891402714
  0
VERTEX
  5
2088
330
2087
100
AcDbEntity
  8
LOGO
 62
     5
100
AcDbVertex
100
AcDb2dVertex
 10
106.4461404090779
 20
215.3710226797306
 30
0.0
 42
1.0
  0
VERTEX
  5
2089
330
2087
100
AcDbEntity
  8
LOGO
 62
     5
100
AcDbVertex
100
AcDb2dVertex
 10
105.1919220416574
 20
215.3710226797306
 30
0.0
 42
1.0
  0
SEQEND
  5
208A
330
2087
100
AcDbEntity
  8
LOGO
 62
     5
  0
POLYLINE
  5
208B
330
1F
100
AcDbEntity
  8
LOGO
 62
     5
100
AcDb2dPolyline
 66
     1
 10
0.0
 20
0.0
 30
0.0
 40
0.4180727891402714
 41
0.4180727891402714
  0
VERTEX
  5
208C
330
208B
100
AcDbEntity
  8
LOGO
 62
     5
100
AcDbVertex
100
AcDb2dVertex
 10
100.4633237404402
 20
215.3710226797306
 30
0.0
 42
1.0
  0
VERTEX
  5
208D
330
208B
100
AcDbEntity
  8
LOGO
 62
     5
100
AcDbVertex
100
AcDb2dVertex
 10
99.20910537301978
 20
215.3710226797306
 30
0.0
 42
1.0
  0
SEQEND
  5
208E
330
208B
100
AcDbEntity
  8
LOGO
 62
     5
  0
SOLID
  5
208F
330
1F
100
AcDbEntity
  8
LOGO
 62
     5
100
AcDbTrace
 10
99.00140681137509
 20
216.2058304250858
 30
0.0
 11
99.41881068405189
 21
216.2058304250858
 31
0.0
 12
99.00140681137509
 22
214.1188110616978
 32
0.0
 13
99.41881068405189
 23
214.1188110616978
 33
0.0
  0
SOLID
  5
2090
330
1F
100
AcDbEntity
  8
LOGO
 62
     5
100
AcDbTrace
 10
100.2536184294081
 20
215.3710226797306
 30
0.0
 11
100.6710223020862
 21
215.3710226797306
 31
0.0
 12
100.2536184294081
 22
214.1188110616978
 32
0.0
 13
100.6710223020862
 23
214.1188110616978
 33
0.0
  0
POLYLINE
  5
2091
330
1F
100
AcDbEntity
  8
LOGO
 62
     5
100
AcDb2dPolyline
 66
     1
 10
0.0
 20
0.0
 30
0.0
 70
     1
 40
0.4180727891402714
 41
0.4180727891402714
  0
VERTEX
  5
2092
330
2091
100
AcDbEntity
  8
LOGO
 62
     5
100
AcDbVertex
100
AcDb2dVertex
 10
101.3654132441388
 20
215.1623207433915
 30
0.0
 42
1.0
  0
VERTEX
  5
2093
330
2091
100
AcDbEntity
  8
LOGO
 62
     5
100
AcDbVertex
100
AcDb2dVertex
 10
103.0377044007005
 20
215.1623207433915
 30
0.0
 42
1.0
  0
SEQEND
  5
2094
330
2091
100
AcDbEntity
  8
LOGO
 62
     5
  0
SOLID
  5
2095
330
1F
100
AcDbEntity
  8
LOGO
 62
     5
100
AcDbTrace
 10
102.8276228910495
 20
216.8319362341026
 30
0.0
 11
103.2450267637269
 21
216.8319362341026
 31
0.0
 12
102.8276228910495
 22
214.1188110616978
 32
0.0
 13
103.2450267637269
 23
214.1188110616978
 33
0.0
  0
SOLID
  5
2096
330
1F
100
AcDbEntity
  8
LOGO
 62
     5
100
AcDbTrace
 10
103.732011861981
 20
216.2058304250858
 30
0.0
 11
104.1494157346578
 21
216.2058304250858
 31
0.0
 12
103.732011861981
 22
214.1188110616978
 32
0.0
 13
104.1494157346578
 23
214.1188110616978
 33
0.0
  0
SOLID
  5
2097
330
1F
100
AcDbEntity
  8
LOGO
 62
     5
100
AcDbTrace
 10
104.9842234800127
 20
215.3710226797306
 30
0.0
 11
105.4016273526908
 21
215.3710226797306
 31
0.0
 12
104.9842234800127
 22
214.1188110616978
 32
0.0
 13
105.4016273526908
 23
214.1188110616978
 33
0.0
  0
SOLID
  5
2098
330
1F
100
AcDbEntity
  8
LOGO
 62
     5
100
AcDbTrace
 10
106.2364350980457
 20
215.3710226797306
 30
0.0
 11
106.6538389707232
 21
215.3710226797306
 31
0.0
 12
106.2364350980457
 22
214.1188110616972
 32
0.0
 13
106.6538389707232
 23
214.1188110616972
 33
0.0
  0
SOLID
  5
2099
330
1F
100
AcDbEntity
  8
LOGO
 62
     5
100
AcDbTrace
 10
98.0970178404442
 20
216.4980131359603
 30
0.0
 11
98.51442171312294
 21
216.4980131359603
 31
0.0
 12
98.0970178404442
 22
216.8319362341026
 32
0.0
 13
98.51442171312294
 23
216.8319362341026
 33
0.0
  0
SOLID
  5
209A
330
1F
100
AcDbEntity
  8
LOGO
 62
     5
100
AcDbTrace
 10
98.0970178404442
 20
216.2058304250858
 30
0.0
 11
98.51442171312294
 21
216.2058304250858
 31
0.0
 12
98.0970178404442
 22
214.1188110616972
 32
0.0
 13
98.51442171312294
 23
214.1188110616978
 33
0.0
  0
SOLID
  5
209B
330
1F
100
AcDbEntity
  8
LOGO
 62
     5
100
AcDbTrace
 10
102.2015588224193
 20
218.292849788474
 30
0.0
 11
103.4120300531851
 21
218.292849788474
 31
0.0
 12
102.2015588224193
 22
224.4147732544126
 32
0.0
 13
103.4120300531851
 23
228.8531677672183
 33
0.0
  0
SOLID
  5
209C
330
1F
100
AcDbEntity
  8
LOGO
 62
     5
100
AcDbTrace
 10
103.912914700399
 20
229.7714562871089
 30
0.0
 11
105.1233859311634
 21
229.7714562871096
 31
0.0
 12
103.912914700399
 22
219.2111383083647
 32
0.0
 13
105.1233859311634
 23
223.6495328211704
 33
0.0
  0
SOLID
  5
209D
330
1F
100
AcDbEntity
  8
LOGO
 62
     2
100
AcDbTrace
 10
103.4120300531851
 20
229.7714562871089
 30
0.0
 11
103.912914700399
 21
229.7714562871089
 31
0.0
 12
103.4120300531851
 22
218.292849788474
 32
0.0
 13
103.912914700399
 23
218.292849788474
 33
0.0
  0
SOLID
  5
209E
330
1F
100
AcDbEntity
  8
LOGO
 62
     5
100
AcDbTrace
 10
103.912914700399
 20
219.2111383083647
 30
0.0
 11
105.1233859311634
 21
223.6495328211704
 31
0.0
 12
109.6730881433495
 22
229.7714562871096
 32
0.0
 13
108.462616912585
 23
229.7714562871096
 33
0.0
  0
SOLID
  5
209F
330
1F
100
AcDbEntity
  8
LOGO
 62
     5
100
AcDbTrace
 10
103.912914700399
 20
218.292849788474
 30
0.0
 11
105.1233859311634
 21
218.292849788474
 31
0.0
 12
109.6730881433495
 22
228.8531677672183
 32
0.0
 13
108.462616912585
 23
224.4147732544126
 33
0.0
  0
SOLID
  5
20A0
330
1F
100
AcDbEntity
  8
LOGO
 62
     2
100
AcDbTrace
 10
103.4120300531851
 20
218.292849788474
 30
0.0
 11
103.912914700399
 21
218.292849788474
 31
0.0
 12
109.6730881433495
 22
229.7714562871096
 32
0.0
 13
110.1739727905634
 23
229.7714562871089
 33
0.0
  0
LWPOLYLINE
  5
20A1
330
1F
100
AcDbEntity
  8
LOGO
 62
     4
100
AcDbPolyline
 90
        4
 70
     1
 43
0.0
 10
93.03587643566379
 20
230.4364897273455
 10
437.8770407425878
 20
230.4364897273455
 10
437.8770407425878
 20
202.4405440259876
 10
93.03587643566379
 20
202.4405440259876
1001
GENIUS_GENREC_14
1002
{
1000
PYDIR
1011
93.03587643566379
1021
202.4405440259876
1031
0.0
1002
}
1002
{
1000
PXDIR
1011
437.8770407425878
1021
230.4364897273455
1031
0.0
1002
}
1002
{
1000
PORI
1011
93.03587643566379
1021
230.4364897273455
1031
0.0
1002
}
1002
{
1000
PINS
1011
93.03587643566379
1021
230.4364897273455
1031
0.0
1002
}
1002
{
1000
PINS2
1011
437.8770407425878
1021
202.4405440259876
1031
0.0
1002
}
1002
{
1000
C
1070
     1
1002
}
1001
GENIUS_GENOBJ-N-REC_13
1002
{
1000
OWNER
1000
GEN
1002
}
1001
GENIUS_GENODEF_13
1002
{
1000
HIER
1070
     0
1002
}
1002
{
1000
MANEDIT
1070
     0
1002
}
1002
{
1000
NOSEL
1070
     0
1002
}
1002
{
1000
BEHIND
1070
     0
1002
}
1002
{
1000
OTHER
1070
     0
1002
}
1002
{
1000
REACTOR
1002
}
  0
LINE
  5
20A2
330
1F
100
AcDbEntity
  8
LOGO
 62
     4
100
AcDbLine
 10
211.7981015686255
 20
215.0387195915993
 30
0.0
 11
211.7981015686255
 21
204.7735395011009
 31
0.0
  0
LINE
  5
20A3
330
1F
100
AcDbEntity
  8
LOGO
 62
     4
100
AcDbLine
 10
193.1341377677204
 20
215.0387195915993
 30
0.0
 11
193.1341377677204
 21
204.7735395011009
 31
0.0
  0
LINE
  5
20A4
330
1F
100
AcDbEntity
  8
LOGO
 62
     4
100
AcDbLine
 10
211.7981015686255
 20
204.7735395011009
 30
0.0
 11
193.1341377677204
 21
204.7735395011009
 31
0.0
  0
LINE
  5
20A5
330
1F
100
AcDbEntity
  8
LOGO
 62
     4
100
AcDbLine
 10
215.1456818276876
 20
227.6368951572096
 30
0.0
 11
193.1341377677204
 21
227.6368951572096
 31
0.0
  0
LINE
  5
20A6
330
1F
100
AcDbEntity
  8
LOGO
 62
     4
100
AcDbLine
 10
215.1456818276876
 20
219.2381114468024
 30
0.0
 11
193.1341377677204
 21
219.2381114468024
 31
0.0
  0
LINE
  5
20A7
330
1F
100
AcDbEntity
  8
LOGO
 62
     4
100
AcDbLine
 10
193.1341377677204
 20
227.6368951572096
 30
0.0
 11
193.1341377677204
 21
219.2381114468024
 31
0.0
  0
LINE
  5
20A8
330
1F
100
AcDbEntity
  8
LOGO
 62
     4
100
AcDbLine
 10
215.1456818276876
 20
227.6368951572096
 30
0.0
 11
215.1456818276876
 21
219.2381114468024
 31
0.0
  0
LINE
  5
20A9
330
1F
100
AcDbEntity
  8
LOGO
 62
     4
100
AcDbLine
 10
203.439909797704
 20
219.2381114468024
 30
0.0
 11
203.439909797704
 21
215.0387195915993
 31
0.0
  0
TEXT
  5
20AA
330
1F
100
AcDbEntity
  8
LOGO
  6
Continuous
100
AcDbText
 10
194.6264700963123
 20
220.9913452673295
 30
0.0
 40
4.899999999999999
  1
MCHY
  7
CHINESET
100
AcDbText
  0
LINE
  5
20AB
330
1F
100
AcDbEntity
  8
LOGO
 62
     4
100
AcDbLine
 10
211.7981015686255
 20
215.0387195915993
 30
0.0
 11
193.1341377677204
 21
215.0387195915993
 31
0.0
  0
TEXT
  5
20AC
330
1F
100
AcDbEntity
  8
LOGO
  6
Continuous
100
AcDbText
 10
199.1233446622206
 20
206.2224479030547
 30
183.4808160640697
 40
2.099999999999999
  1
Model
 41
0.8
  7
CHINESET
100
AcDbText
  0
TEXT
  5
20AD
330
1F
100
AcDbEntity
  8
LOGO
100
AcDbText
 10
198.5643929290219
 20
210.115395320753
 30
183.4808160640697
 40
3.5
  1
型號
  7
CHINESET
100
AcDbText
  0
LINE
  5
20AE
330
1F
100
AcDbEntity
  8
LOGO
  6
Continuous
100
AcDbLine
 10
216.0385419510955
 20
223.4077534827824
 30
0.0
 11
219.7471383796109
 21
223.4077534827824
 31
0.0
  0
LINE
  5
20BA
330
1F
100
AcDbEntity
  8
LOGO
 62
     4
100
AcDbLine
 10
232.8919203309537
 20
215.0387195915993
 30
0.0
 11
232.8919203309537
 21
204.7735395011009
 31
0.0
  0
LINE
  5
20BB
330
1F
100
AcDbEntity
  8
LOGO
 62
     4
100
AcDbLine
 10
214.2279565300486
 20
215.0387195915993
 30
0.0
 11
214.2279565300486
 21
204.7735395011009
 31
0.0
  0
LINE
  5
20BC
330
1F
100
AcDbEntity
  8
LOGO
 62
     4
100
AcDbLine
 10
232.8919203309537
 20
204.7735395011009
 30
0.0
 11
214.2279565300486
 21
204.7735395011009
 31
0.0
  0
LINE
  5
20BD
330
1F
100
AcDbEntity
  8
LOGO
 62
     4
100
AcDbLine
 10
231.9679202455111
 20
227.6368951572096
 30
0.0
 11
221.0991671970023
 21
227.6368951572096
 31
0.0
  0
LINE
  5
20BE
330
1F
100
AcDbEntity
  8
LOGO
 62
     4
100
AcDbLine
 10
231.9679202455111
 20
219.2381114468024
 30
0.0
 11
221.0991671970023
 21
219.2381114468024
 31
0.0
  0
LINE
  5
20BF
330
1F
100
AcDbEntity
  8
LOGO
 62
     4
100
AcDbLine
 10
221.0991671970023
 20
227.6368951572096
 30
0.0
 11
221.0991671970023
 21
219.2381114468024
 31
0.0
  0
LINE
  5
20C0
330
1F
100
AcDbEntity
  8
LOGO
 62
     4
100
AcDbLine
 10
231.9679202455111
 20
227.6368951572096
 30
0.0
 11
231.9679202455111
 21
219.2381114468024
 31
0.0
  0
LINE
  5
20C1
330
1F
100
AcDbEntity
  8
LOGO
 62
     4
100
AcDbLine
 10
227.5521081830056
 20
219.2381114468024
 30
0.0
 11
227.5521081830056
 21
215.0387195915993
 31
0.0
  0
TEXT
  5
20C2
330
1F
100
AcDbEntity
  8
LOGO
  6
Continuous
100
AcDbText
 10
222.6352029952582
 20
220.9913452673295
 30
0.0
 40
4.899999999999999
  1
10
  7
CHINESET
100
AcDbText
  0
LINE
  5
20C3
330
1F
100
AcDbEntity
  8
LOGO
 62
     4
100
AcDbLine
 10
232.8919203309537
 20
215.0387195915993
 30
0.0
 11
214.2279565300486
 21
215.0387195915993
 31
0.0
  0
LINE
  5
20C4
330
1F
100
AcDbEntity
  8
LOGO
  6
Continuous
100
AcDbLine
 10
249.0856498499729
 20
223.4077534827824
 30
0.0
 11
252.794246278489
 21
223.4077534827824
 31
0.0
  0
LINE
  5
20C5
330
1F
100
AcDbEntity
  8
LOGO
 62
     4
100
AcDbLine
 10
281.0830299425115
 20
215.0387195915993
 30
0.0
 11
281.0830299425115
 21
204.7735395011009
 31
0.0
  0
LINE
  5
20C6
330
1F
100
AcDbEntity
  8
LOGO
 62
     4
100
AcDbLine
 10
256.1945868026512
 20
215.0387195915993
 30
0.0
 11
256.1945868026512
 21
204.7735395011009
 31
0.0
  0
LINE
  5
20C7
330
1F
100
AcDbEntity
  8
LOGO
 62
     4
100
AcDbLine
 10
281.0830299425115
 20
204.7735395011009
 30
0.0
 11
256.1945868026512
 21
204.7735395011009
 31
0.0
  0
LINE
  5
20C8
330
1F
100
AcDbEntity
  8
LOGO
 62
     4
100
AcDbLine
 10
266.0055559928278
 20
227.6368951572096
 30
0.0
 11
254.6765771382454
 21
227.6368951572096
 31
0.0
  0
LINE
  5
20C9
330
1F
100
AcDbEntity
  8
LOGO
 62
     4
100
AcDbLine
 10
266.0055559928278
 20
219.2381114468024
 30
0.0
 11
254.6765771382454
 21
219.2381114468024
 31
0.0
  0
LINE
  5
20CA
330
1F
100
AcDbEntity
  8
LOGO
 62
     4
100
AcDbLine
 10
254.6765771382454
 20
227.6368951572096
 30
0.0
 11
254.6765771382454
 21
219.2381114468024
 31
0.0
  0
LINE
  5
20CB
330
1F
100
AcDbEntity
  8
LOGO
 62
     4
100
AcDbLine
 10
266.0055559928278
 20
227.6368951572096
 30
0.0
 11
266.0055559928278
 21
219.2381114468024
 31
0.0
  0
LINE
  5
20CC
330
1F
100
AcDbEntity
  8
LOGO
 62
     4
100
AcDbLine
 10
261.2244520077622
 20
219.2381114468024
 30
0.0
 11
261.2244520077622
 21
215.0387195915993
 31
0.0
  0
TEXT
  5
20CD
330
1F
100
AcDbEntity
  8
LOGO
  6
Continuous
100
AcDbText
 10
256.4546182329654
 20
220.9913452673295
 30
0.0
 40
4.899999999999999
  1
RT
  7
CHINESET
100
AcDbText
  0
LINE
  5
20CE
330
1F
100
AcDbEntity
  8
LOGO
 62
     4
100
AcDbLine
 10
281.0830299425115
 20
215.0387195915993
 30
0.0
 11
256.1945868026512
 21
215.0387195915993
 31
0.0
  0
TEXT
  5
20D1
330
1F
100
AcDbEntity
  8
LOGO
  6
Continuous
100
AcDbText
 10
218.137294129851
 20
206.2224479030547
 30
183.4808160640697
 40
2.099999999999999
  1
Tube I.D.
 41
0.8
  7
CHINESET
100
AcDbText
  0
TEXT
  5
20D2
330
1F
100
AcDbEntity
  8
LOGO
100
AcDbText
 10
219.5187373247356
 20
210.115395320753
 30
183.4808160640697
 40
3.5
  1
內徑
  7
CHINESET
100
AcDbText
  0
TEXT
  5
20D3
330
1F
100
AcDbEntity
  8
LOGO
  6
Continuous
100
AcDbText
 10
257.5122748149466
 20
206.2224479030547
 30
183.4808160640697
 40
2.099999999999999
  1
Auto switch type
 41
0.8
  7
CHINESET
100
AcDbText
  0
TEXT
  5
20D4
330
1F
100
AcDbEntity
  8
LOGO
100
AcDbText
 10
258.8680125475576
 20
210.115395320753
 30
183.4808160640697
 40
3.5
  1
感應器型式
  7
CHINESET
100
AcDbText
  0
LINE
  5
20D5
330
1F
100
AcDbEntity
  8
LOGO
 62
     4
100
AcDbLine
 10
283.4125472287843
 20
227.6368951572096
 30
0.0
 11
274.2988588968855
 21
227.6368951572096
 31
0.0
  0
LINE
  5
20D6
330
1F
100
AcDbEntity
  8
LOGO
 62
     4
100
AcDbLine
 10
283.4125472287843
 20
219.2381114468024
 30
0.0
 11
274.2988588968855
 21
219.2381114468024
 31
0.0
  0
LINE
  5
20D7
330
1F
100
AcDbEntity
  8
LOGO
 62
     4
100
AcDbLine
 10
274.2988588968855
 20
227.6368951572096
 30
0.0
 11
274.2988588968855
 21
219.2381114468024
 31
0.0
  0
LINE
  5
20D8
330
1F
100
AcDbEntity
  8
LOGO
 62
     4
100
AcDbLine
 10
283.4125472287843
 20
227.6368951572096
 30
0.0
 11
283.4125472287843
 21
219.2381114468024
 31
0.0
  0
LINE
  5
20DA
330
1F
100
AcDbEntity
  8
LOGO
 62
     4
100
AcDbLine
 10
318.8175945067295
 20
215.0387195915993
 30
0.0
 11
318.8175945067295
 21
204.7735395011009
 31
0.0
  0
LINE
  5
20DB
330
1F
100
AcDbEntity
  8
LOGO
 62
     4
100
AcDbLine
 10
283.5820470402944
 20
215.0387195915993
 30
0.0
 11
283.5820470402944
 21
204.7735395011009
 31
0.0
  0
LINE
  5
20DC
330
1F
100
AcDbEntity
  8
LOGO
 62
     4
100
AcDbLine
 10
318.8175945067295
 20
204.7735395011009
 30
0.0
 11
283.5820470402944
 21
204.7735395011009
 31
0.0
  0
LINE
  5
20DD
330
1F
100
AcDbEntity
  8
LOGO
 62
     4
100
AcDbLine
 10
318.8175945067295
 20
215.0387195915993
 30
0.0
 11
283.5820470402944
 21
215.0387195915993
 31
0.0
  0
TEXT
  5
20DE
330
1F
100
AcDbEntity
  8
LOGO
  6
Continuous
100
AcDbText
 10
286.887173589241
 20
206.2224479030547
 30
183.4808160640697
 40
2.099999999999999
  1
Number of auto switch
 41
0.8
  7
CHINESET
100
AcDbText
  0
TEXT
  5
20DF
330
1F
100
AcDbEntity
  8
LOGO
100
AcDbText
 10
292.4929366342045
 20
210.115395320753
 30
183.4808160640697
 40
3.5
  1
感應器數量
  7
CHINESET
100
AcDbText
  0
LINE
  5
20E0
330
1F
100
AcDbEntity
  8
LOGO
 62
     4
100
AcDbLine
 10
301.1998207735119
 20
217.1384155192009
 30
0.0
 11
301.1998207735119
 21
215.0387195915993
 31
0.0
  0
TEXT
  5
20E1
330
1F
100
AcDbEntity
  8
LOGO
100
AcDbText
 10
155.9707734730497
 20
203.9299172874778
 30
0.0
 40
2.799999999999999
  1
10705199
 41
0.7
  7
CHINESET
 72
     1
 11
162.7374401397163
 21
203.9299172874778
 31
0.0
100
AcDbText
  0
LINE
  5
20E2
330
1F
100
AcDbEntity
  8
LOGO
 62
     4
100
AcDbLine
 10
171.426956978649
 20
208.03973316626
 30
0.0
 11
171.4269569786503
 21
202.4405440259882
 31
0.0
  0
LINE
  5
20E3
330
1F
100
AcDbEntity
  8
LOGO
 62
     4
100
AcDbLine
 10
171.426956978649
 20
208.03973316626
 30
0.0
 11
154.6269569786503
 21
208.03973316626
 31
0.0
  0
CIRCLE
  5
20E4
330
1F
100
AcDbEntity
  8
LOGO
  6
Continuous
100
AcDbCircle
 10
141.1467926921048
 20
222.0436943702108
 30
0.0
 40
1.625510502448884
  0
CIRCLE
  5
20E5
330
1F
100
AcDbEntity
  8
LOGO
  6
Continuous
100
AcDbCircle
 10
141.1467926921048
 20
222.0436943702108
 30
0.0
 40
0.9524052561318359
  0
LINE
  5
20E6
330
1F
100
AcDbEntity
  8
LOGO
100
AcDbLine
 10
151.3616893057559
 20
220.4181838677616
 30
0.0
 11
151.3616893057559
 21
223.66920487266
 31
0.0
  0
LINE
  5
20E7
330
1F
100
AcDbEntity
  8
LOGO
100
AcDbLine
 10
146.265807189334
 20
221.0912891140791
 30
0.0
 11
146.265807189334
 21
222.9960996263427
 31
0.0
  0
LINE
  5
20E8
330
1F
100
AcDbEntity
  8
LOGO
  6
Continuous
100
AcDbLine
 10
146.265807189334
 20
222.9960996263427
 30
0.0
 11
151.3616893057559
 21
223.66920487266
 31
0.0
  0
LINE
  5
20E9
330
1F
100
AcDbEntity
  8
LOGO
  6
Continuous
100
AcDbLine
 10
146.265807189334
 20
221.0912891140791
 30
0.0
 11
151.3616893057559
 21
220.4181838677616
 31
0.0
  0
LINE
  5
20EA
330
1F
100
AcDbEntity
  8
LOGO
  6
AM_ISO08W050x2
 48
0.3
100
AcDbLine
 10
138.9060021243759
 20
222.0436943702108
 30
0.0
 11
143.3875832598337
 21
222.0436943702108
 31
0.0
1001
GENIUS_GENOREF_13
1005
20EF
  0
LINE
  5
20EB
330
1F
100
AcDbEntity
  8
LOGO
  6
AM_ISO08W050x2
 48
0.3
100
AcDbLine
 10
141.1467926921048
 20
219.8029038024819
 30
0.0
 11
141.1467926921048
 21
224.2844849379396
 31
0.0
1001
GENIUS_GENOREF_13
1005
20EE
  0
LINE
  5
20EC
330
1F
100
AcDbEntity
  8
LOGO
  6
CENTER
 48
0.5
100
AcDbLine
 10
145.8582782594009
 20
222.0436943702108
 30
0.0
 11
151.8748281386587
 21
222.0436943702108
 31
0.0
1001
GENIUS_GENOREF_13
1005
20ED
  0
POINT
  5
20ED
330
1F
100
AcDbEntity
  8
0
 60
     1
100
AcDbPoint
 10
-1655.206945061529
 20
-680.8266558932337
 30
0.0
1001
GENIUS_GENOBJ-N-CRS_13
1002
{
1000
OWNER
1000
GEN
1002
}
1001
GENIUS_GENOLIS_13
1002
{
1000
ENT
1005
0
1005
0
1005
0
1005
20EC
1002
}
1001
GENIUS_GENOENT_13
1002
{
1000
MYREF
1005
20ED
1002
}
1002
{
1000
GRP
1005
0
1002
}
1001
GENIUS_GENODEF_13
1002
{
1000
HIER
1070
    10
1002
}
1002
{
1000
MANEDIT
1070
     1
1002
}
1002
{
1000
NOSEL
1070
     0
1002
}
1002
{
1000
BEHIND
1070
     0
1002
}
1002
{
1000
OTHER
1070
     0
1002
}
1002
{
1000
REACTOR
1002
}
  0
POINT
  5
20EE
330
1F
100
AcDbEntity
  8
0
 60
     1
100
AcDbPoint
 10
-1666.531530284384
 20
-671.9510694145974
 30
0.0
1001
GENIUS_GENOBJ-N-CRS_13
1002
{
1000
OWNER
1000
GEN
1002
}
1001
GENIUS_GENOLIS_13
1002
{
1000
ENT
1005
0
1005
0
1005
0
1005
20EB
1002
}
1001
GENIUS_GENOENT_13
1002
{
1000
MYREF
1005
20EE
1002
}
1002
{
1000
GRP
1005
0
1002
}
1001
GENIUS_GENODEF_13
1002
{
1000
HIER
1070
    10
1002
}
1002
{
1000
MANEDIT
1070
     1
1002
}
1002
{
1000
NOSEL
1070
     0
1002
}
1002
{
1000
BEHIND
1070
     0
1002
}
1002
{
1000
OTHER
1070
     0
1002
}
1002
{
1000
REACTOR
1002
}
  0
POINT
  5
20EF
330
1F
100
AcDbEntity
  8
0
 60
     1
100
AcDbPoint
 10
-1660.172856586547
 20
-680.8266558932337
 30
0.0
1001
GENIUS_GENOBJ-N-CRS_13
1002
{
1000
OWNER
1000
GEN
1002
}
1001
GENIUS_GENOLIS_13
1002
{
1000
ENT
1005
0
1005
0
1005
0
1005
20EA
1002
}
1001
GENIUS_GENOENT_13
1002
{
1000
MYREF
1005
20EF
1002
}
1002
{
1000
GRP
1005
0
1002
}
1001
GENIUS_GENODEF_13
1002
{
1000
HIER
1070
    10
1002
}
1002
{
1000
MANEDIT
1070
     1
1002
}
1002
{
1000
NOSEL
1070
     0
1002
}
1002
{
1000
BEHIND
1070
     0
1002
}
1002
{
1000
OTHER
1070
     0
1002
}
1002
{
1000
REACTOR
1002
}
  0
TEXT
  5
20F4
330
1F
100
AcDbEntity
  8
LOGO
  6
Continuous
100
AcDbText
 10
233.9611065267405
 20
220.9913452673295
 30
0.0
 40
4.899999999999999
  1
D
  7
CHINESET
100
AcDbText
  0
LINE
  5
20F8
330
1F
100
AcDbEntity
  8
LOGO
 62
     4
100
AcDbLine
 10
254.4877946643186
 20
215.0387195915993
 30
0.0
 11
254.4877946643186
 21
204.7735395011009
 31
0.0
  0
LINE
  5
20F9
330
1F
100
AcDbEntity
  8
LOGO
 62
     4
100
AcDbLine
 10
234.8949413625294
 20
215.0387195915993
 30
0.0
 11
234.8949413625294
 21
204.7735395011009
 31
0.0
  0
LINE
  5
20FA
330
1F
100
AcDbEntity
  8
LOGO
 62
     4
100
AcDbLine
 10
254.4877946643186
 20
204.7735395011009
 30
0.0
 11
234.8949413625294
 21
204.7735395011009
 31
0.0
  0
LINE
  5
20FB
330
1F
100
AcDbEntity
  8
LOGO
 62
     4
100
AcDbLine
 10
247.6609831082753
 20
227.6368951572096
 30
0.0
 11
238.7249104729619
 21
227.6368951572096
 31
0.0
  0
LINE
  5
20FC
330
1F
100
AcDbEntity
  8
LOGO
 62
     4
100
AcDbLine
 10
247.6609831082753
 20
219.2381114468024
 30
0.0
 11
238.7249104729619
 21
219.2381114468024
 31
0.0
  0
LINE
  5
20FD
330
1F
100
AcDbEntity
  8
LOGO
 62
     4
100
AcDbLine
 10
238.7249104729619
 20
227.6368951572096
 30
0.0
 11
238.7249104729619
 21
219.2381114468024
 31
0.0
  0
LINE
  5
20FE
330
1F
100
AcDbEntity
  8
LOGO
 62
     4
100
AcDbLine
 10
247.6609831082753
 20
227.6368951572096
 30
0.0
 11
247.6609831082753
 21
219.2381114468024
 31
0.0
  0
LINE
  5
20FF
330
1F
100
AcDbEntity
  8
LOGO
 62
     4
100
AcDbLine
 10
243.1929467906186
 20
219.2381114468024
 30
0.0
 11
243.1929467906186
 21
215.0387195915993
 31
0.0
  0
LINE
  5
2101
330
1F
100
AcDbEntity
  8
LOGO
 62
     4
100
AcDbLine
 10
254.4877946643186
 20
215.0387195915993
 30
0.0
 11
234.8949413625294
 21
215.0387195915993
 31
0.0
  0
TEXT
  5
2102
330
1F
100
AcDbEntity
  8
LOGO
  6
Continuous
100
AcDbText
 10
236.5875795623392
 20
206.2224479030547
 30
183.4808160640697
 40
2.099999999999999
  1
Finger option
 41
0.8
  7
CHINESET
100
AcDbText
  0
TEXT
  5
2103
330
1F
100
AcDbEntity
  8
LOGO
100
AcDbText
 10
237.117062253075
 20
210.115395320753
 30
183.4808160640697
 40
3.5
  1
夾爪選配
  7
CHINESET
100
AcDbText
  0
TEXT
  5
210C
330
1F
100
AcDbEntity
  8
LOGO
  6
Continuous
100
AcDbText
 10
269.2771427128795
 20
220.9913452673295
 30
0.0
 40
4.899999999999999
  1
x
  7
CHINESET
100
AcDbText
  0
LINE
  5
2110
330
1F
100
AcDbEntity
  8
LOGO
 62
     4
100
AcDbLine
 10
278.8557030628349
 20
219.2381114468024
 30
0.0
 11
278.8557030628349
 21
217.1384155192009
 31
0.0
  0
LINE
  5
2111
330
1F
100
AcDbEntity
  8
LOGO
 62
     4
100
AcDbLine
 10
278.8557030628349
 20
217.1384155192009
 30
0.0
 11
301.1998207735119
 21
217.1384155192009
 31
0.0
  0
ENDSEC
  0
SECTION
  2
OBJECTS
  0
DICTIONARY
  5
C
330
0
100
AcDbDictionary
281
     1
  3
ACAD_COLOR
350
BE
  3
ACAD_GROUP
350
D
  3
ACAD_LAYOUT
350
1A
  3
ACAD_MATERIAL
350
BD
  3
ACAD_MLINESTYLE
350
17
  3
ACAD_PLOTSETTINGS
350
19
  3
ACAD_PLOTSTYLENAME
350
E
  3
ACAD_TABLESTYLE
350
11A
  3
ACDBHEADERROUNDTRIPXREC
350
2511
  3
AcDbVariableDictionary
350
94
  3
AcmDictionary
350
5B
  3
AMG
350
41
  3
AMGSNAPSETTINGS
350
1B8
  3
DWGPROPS
350
2510
  0
DICTIONARY
  5
3F9
330
2
100
AcDbDictionary
280
     1
281
     1
  3
ACAD_LAYERFILTERS
360
5B7
  3
ACAD_LAYERSTATES
360
1506
  3
ACLYDICTIONARY
360
5B6
  0
DICTIONARY
  5
8F
330
1F
100
AcDbDictionary
280
     1
281
     1
  3
ACAD_SORTENTS
360
1B9B
  0
DICTIONARY
  5
1C06
330
1BF7
100
AcDbDictionary
280
     1
281
     1
  3
ACAD_DIMASSOC
360
1C07
  0
DICTIONARY
  5
1C36
330
1C27
100
AcDbDictionary
280
     1
281
     1
  3
ACAD_DIMASSOC
360
1C37
  0
DICTIONARY
  5
1D37
330
1D2B
100
AcDbDictionary
280
     1
281
     1
  3
ACAD_DIMASSOC
360
1D38
  0
DICTIONARY
  5
BE
102
{ACAD_REACTORS
330
C
102
}
330
C
100
AcDbDictionary
281
     1
  0
DICTIONARY
  5
D
102
{ACAD_REACTORS
330
C
102
}
330
C
100
AcDbDictionary
281
     1
  0
DICTIONARY
  5
1A
102
{ACAD_REACTORS
330
C
102
}
330
C
100
AcDbDictionary
281
     1
  3
Model
350
22
  3
配置1
350
1E
  3
配置2
350
26
  0
DICTIONARY
  5
BD
102
{ACAD_REACTORS
330
C
102
}
330
C
100
AcDbDictionary
281
     1
  0
DICTIONARY
  5
17
102
{ACAD_REACTORS
330
C
102
}
330
C
100
AcDbDictionary
281
     1
  3
Standard
350
18
  0
DICTIONARY
  5
19
102
{ACAD_REACTORS
330
C
102
}
330
C
100
AcDbDictionary
281
     1
  0
ACDBDICTIONARYWDFLT
  5
E
102
{ACAD_REACTORS
330
C
102
}
330
C
100
AcDbDictionary
281
     1
  3
Normal
350
F
100
AcDbDictionaryWithDefault
340
F
  0
DICTIONARY
  5
11A
102
{ACAD_REACTORS
330
C
102
}
330
C
100
AcDbDictionary
281
     1
  3
Standard
350
11B
  0
DICTIONARY
  5
2511
102
{ACAD_REACTORS
330
C
102
}
330
C
100
AcDbDictionary
281
     1
  0
DICTIONARY
  5
94
102
{ACAD_REACTORS
330
C
102
}
330
C
100
AcDbDictionary
281
     1
  3
CTABLESTYLE
350
138
  3
DIMASSOC
350
96
  3
INDEXCTL
350
95
  3
PROJECTNAME
350
250E
  0
DICTIONARY
  5
5B
102
{ACAD_REACTORS
330
C
102
}
330
C
100
AcDbDictionary
281
     1
  3
AcmBOM
350
1B5
  3
AcmStdDictionary
350
61
  3
AMDTSECTSYM_ARROWCOLOR
350
123
  0
DICTIONARY
  5
41
102
{ACAD_REACTORS
330
C
102
}
330
C
100
AcDbDictionary
281
     1
  0
DICTIONARY
  5
1B8
102
{ACAD_REACTORS
330
C
102
}
330
C
100
AcDbDictionary
281
     1
  0
XRECORD
  5
2510
102
{ACAD_REACTORS
330
C
102
}
330
C
100
AcDbXrecord
280
     1
  1
DWGPROPS COOKIE
  2

  3

  4

  6

  7

  8

  9

300
AmdtFileType=84
301
=
302
=
303
=
304
=
305
=
306
=
307
=
308
=
309
=
 40
0.0496050347222222
 41
2454239.676025752
 42
2454240.348849283
  1

 90
        1
  0
DICTIONARY
  5
5B7
102
{ACAD_REACTORS
330
3F9
102
}
330
3F9
100
AcDbDictionary
281
     1
  0
DICTIONARY
  5
1506
102
{ACAD_REACTORS
330
3F9
102
}
330
3F9
100
AcDbDictionary
281
     1
  0
DICTIONARY
  5
5B6
102
{ACAD_REACTORS
330
3F9
102
}
330
3F9
100
AcDbDictionary
281
     1
1001
ACAD
1000
<All
  0
SORTENTSTABLE
  5
1B9B
102
{ACAD_REACTORS
330
8F
102
}
330
8F
100
AcDbSortentsTable
330
1F
331
E43
  5
E43
331
E82
  5
E82
331
E04
  5
E04
331
F28
  5
F28
331
E8A
  5
E8A
331
EC9
  5
EC9
331
FB7
  5
FB7
331
F30
  5
F30
331
E5B
  5
E5B
331
E14
  5
E14
331
ED1
  5
ED1
331
ED9
  5
ED9
331
F58
  5
F58
331
E63
  5
E63
331
EA2
  5
EA2
331
DE5
  5
DE5
331
E24
  5
E24
331
EAA
  5
EAA
331
E6B
  5
E6B
331
F60
  5
F60
331
12FB
  5
12FB
331
F68
  5
F68
331
12B4
  5
12B4
331
130B
  5
130B
331
F11
  5
F11
331
DF5
  5
DF5
331
12C4
  5
12C4
331
E7B
  5
E7B
331
EBA
  5
EBA
331
DFD
  5
DFD
331
E3C
  5
E3C
331
F90
  5
F90
331
E83
  5
E83
331
E05
  5
E05
331
ECA
  5
ECA
331
E0D
  5
E0D
331
F29
  5
F29
331
FB8
  5
FB8
331
ED2
  5
ED2
331
E5C
  5
E5C
331
DDE
  5
DDE
331
E15
  5
E15
331
F31
  5
F31
331
F51
  5
F51
331
F59
  5
F59
331
E25
  5
E25
331
DE6
  5
DE6
331
E6C
  5
E6C
331
F61
  5
F61
331
12FC
  5
12FC
331
DEE
  5
DEE
331
E2D
  5
E2D
331
F12
  5
F12
331
E35
  5
E35
331
E74
  5
E74
331
F69
  5
F69
331
130C
  5
130C
331
12C5
  5
12C5
331
E3D
  5
E3D
331
E7C
  5
E7C
331
DFE
  5
DFE
331
12D5
  5
12D5
331
E84
  5
E84
331
E06
  5
E06
331
F22
  5
F22
331
F2A
  5
F2A
331
E0E
  5
E0E
331
ECB
  5
ECB
331
FB1
  5
FB1
331
F32
  5
F32
331
E5D
  5
E5D
331
DDF
  5
DDF
331
E16
  5
E16
331
ED3
  5
ED3
331
F52
  5
F52
331
E9C
  5
E9C
331
E1E
  5
E1E
331
F5A
  5
F5A
331
EA4
  5
EA4
331
DE7
  5
DE7
331
E26
  5
E26
331
E2E
  5
E2E
331
DEF
  5
DEF
331
F62
  5
F62
331
F6A
  5
F6A
331
130D
  5
130D
331
EB4
  5
EB4
331
F13
  5
F13
331
E36
  5
E36
331
E75
  5
E75
331
E7D
  5
E7D
331
12C6
  5
12C6
331
E3E
  5
E3E
331
12D6
  5
12D6
331
E46
  5
E46
331
E85
  5
E85
331
E07
  5
E07
331
F23
  5
F23
331
FB2
  5
FB2
331
ECC
  5
ECC
331
E8D
  5
E8D
331
E0F
  5
E0F
331
F2B
  5
F2B
331
ED4
  5
ED4
331
E17
  5
E17
331
F33
  5
F33
331
E9D
  5
E9D
331
E1F
  5
E1F
331
F53
  5
F53
331
F5B
  5
F5B
331
DE8
  5
DE8
331
E27
  5
E27
331
F63
  5
F63
331
DF0
  5
DF0
331
E2F
  5
E2F
331
EB5
  5
EB5
331
F14
  5
F14
331
E76
  5
E76
331
DF8
  5
DF8
331
F6B
  5
F6B
331
130E
  5
130E
331
EBD
  5
EBD
331
F1C
  5
F1C
331
E3F
  5
E3F
331
E7E
  5
E7E
331
12D7
  5
12D7
331
F24
  5
F24
331
E47
  5
E47
331
F2C
  5
F2C
331
E8E
  5
E8E
331
ECD
  5
ECD
331
E10
  5
E10
331
E4F
  5
E4F
331
FB3
  5
FB3
331
12E7
  5
12E7
331
E18
  5
E18
331
F34
  5
F34
331
F54
  5
F54
331
E9E
  5
E9E
331
E67
  5
E67
331
F5C
  5
F5C
331
DE9
  5
DE9
331
E28
  5
E28
331
E30
  5
E30
331
DF1
  5
DF1
331
F64
  5
F64
331
F6C
  5
F6C
331
EB6
  5
EB6
331
DF9
  5
DF9
331
E38
  5
E38
331
F15
  5
F15
331
F1D
  5
F1D
331
F8C
  5
F8C
331
E7F
  5
E7F
331
E40
  5
E40
331
12D8
  5
12D8
331
E48
  5
E48
331
F25
  5
F25
331
FB4
  5
FB4
331
ECE
  5
ECE
331
E58
  5
E58
331
E8F
  5
E8F
331
E11
  5
E11
331
F2D
  5
F2D
331
F35
  5
F35
331
ED6
  5
ED6
331
12E8
  5
12E8
331
E97
  5
E97
331
E19
  5
E19
331
E9F
  5
E9F
331
DE2
  5
DE2
331
E68
  5
E68
331
F5D
  5
F5D
331
E29
  5
E29
331
F65
  5
F65
331
12B1
  5
12B1
331
DF2
  5
DF2
331
E31
  5
E31
331
EB7
  5
EB7
331
E39
  5
E39
331
DFA
  5
DFA
331
F6D
  5
F6D
331
F1E
  5
F1E
331
E41
  5
E41
331
E80
  5
E80
331
F26
  5
F26
331
EC7
  5
EC7
331
E0A
  5
E0A
331
E49
  5
E49
331
FB5
  5
FB5
331
E59
  5
E59
331
E90
  5
E90
331
E12
  5
E12
331
F2E
  5
F2E
331
1B60
  5
1B60
331
12E9
  5
12E9
331
ED7
  5
ED7
331
E98
  5
E98
331
F36
  5
F36
331
F56
  5
F56
331
E61
  5
E61
331
DE3
  5
DE3
331
EA0
  5
EA0
331
E69
  5
E69
331
F5E
  5
F5E
331
12F9
  5
12F9
331
E2A
  5
E2A
331
12B2
  5
12B2
331
F0F
  5
F0F
331
E32
  5
E32
331
E71
  5
E71
331
DF3
  5
DF3
331
F66
  5
F66
331
E79
  5
E79
331
EB8
  5
EB8
331
DFB
  5
DFB
331
E3A
  5
E3A
331
F1F
  5
F1F
331
E81
  5
E81
331
E42
  5
E42
331
EC8
  5
EC8
331
E4A
  5
E4A
331
E89
  5
E89
331
E0B
  5
E0B
331
F27
  5
F27
331
FB6
  5
FB6
331
ED0
  5
ED0
331
E5A
  5
E5A
331
E91
  5
E91
331
E13
  5
E13
331
F2F
  5
F2F
331
1B61
  5
1B61
331
F37
  5
F37
331
12EA
  5
12EA
331
E99
  5
E99
331
EA1
  5
EA1
331
ED8
  5
ED8
331
DE4
  5
DE4
331
F5F
  5
F5F
331
12FA
  5
12FA
331
E2B
  5
E2B
331
EA9
  5
EA9
331
F10
  5
F10
331
F67
  5
F67
331
12B3
  5
12B3
331
DF4
  5
DF4
331
E33
  5
E33
331
12C3
  5
12C3
331
EB9
  5
EB9
331
E3B
  5
E3B
331
E7A
  5
E7A
331
DFC
  5
DFC
  0
DIMASSOC
  5
1C07
102
{ACAD_REACTORS
330
1C06
102
}
330
1C06
100
AcDbDimAssoc
330
1BF7
 90
        3
 70
     0
 71
     0
  1
AcDbOsnapPointRef
 72
     1
331
F59
 73
     0
 91
        0
 40
0.0
 10
0.0
 20
0.0
 30
2.000000000000000E+50
 75
     0
  1
AcDbOsnapPointRef
 72
     1
331
F51
 73
     0
 91
        0
 40
0.0
 10
0.0
 20
0.0
 30
2.000000000000000E+50
 75
     0
  0
DIMASSOC
  5
1C37
102
{ACAD_REACTORS
330
1C36
102
}
330
1C36
100
AcDbDimAssoc
330
1C27
 90
        3
 70
     0
 71
     0
  1
AcDbOsnapPointRef
 72
     1
331
F51
 73
     0
 91
        0
 40
0.0
 10
0.0
 20
0.0
 30
2.000000000000000E+50
 75
     0
  1
AcDbOsnapPointRef
 72
     1
331
F52
 73
     0
 91
        0
 40
0.0
 10
0.0
 20
0.0
 30
2.000000000000000E+50
 75
     0
  0
DIMASSOC
  5
1D38
102
{ACAD_REACTORS
330
1D37
102
}
330
1D37
100
AcDbDimAssoc
330
1D2B
 90
        2
 70
     0
 71
     0
  1
AcDbOsnapPointRef
 72
     3
331
E2D
 73
     2
 91
        0
 40
0.0
 10
0.0
 20
0.0
 30
0.0
 75
     0
  0
LAYOUT
  5
22
102
{ACAD_XDICTIONARY
360
2514
102
}
102
{ACAD_REACTORS
330
1A
102
}
330
1A
100
AcDbPlotSettings
  1

  2
\\RD\EPSON Stylus C63 Series單色
  4
A4
  6

 40
3.757083177566528
 41
3.757076978683471
 42
3.757080078125
 43
3.757080078125
 44
209.9733276367187
 45
296.9683227539062
 46
0.0
 47
0.0
 48
0.0
 49
0.0
140
0.0
141
0.0
142
1.0
143
0.3405120737814363
 70
 11952
 72
     1
 73
     0
 74
     0
  7
彩色出圖.ctb
 75
     0
147
2.936753428137963
148
-2047.07469463503
149
-1261.649717473083
100
AcDbLayout
  1
Model
 70
     1
 71
     0
 10
0.0
 20
0.0
 11
12.0
 21
9.0
 12
0.0
 22
0.0
 32
0.0
 14
0.0
 24
0.0
 34
0.0
 15
0.0
 25
0.0
 35
0.0
146
0.0
 13
0.0
 23
0.0
 33
0.0
 16
1.0
 26
0.0
 36
0.0
 17
0.0
 27
1.0
 37
0.0
 76
     0
330
1F
1001
ACAD_PSEXT
1000
\\RD\EPSON Stylus C63 Series單色
1000
EPSON Stylus C63 Series
1000
\\RD
1000

1070
     0
  0
LAYOUT
  5
1E
102
{ACAD_XDICTIONARY
360
2512
102
}
102
{ACAD_REACTORS
330
1A
102
}
330
1A
100
AcDbPlotSettings
  1

  2

  4

  6

 40
0.0
 41
0.0
 42
0.0
 43
0.0
 44
0.0
 45
0.0
 46
0.0
 47
0.0
 48
0.0
 49
0.0
140
0.0
141
0.0
142
1.0
143
1.0
 70
   688
 72
     0
 73
     0
 74
     5
  7
彩色出圖.ctb
 75
    16
147
1.0
148
0.0
149
0.0
100
AcDbLayout
  1
配置1
 70
     1
 71
     1
 10
0.0
 20
0.0
 11
420.0
 21
297.0
 12
0.0
 22
0.0
 32
0.0
 14
1.000000000000000E+20
 24
1.000000000000000E+20
 34
1.000000000000000E+20
 15
-1.000000000000000E+20
 25
-1.000000000000000E+20
 35
-1.000000000000000E+20
146
0.0
 13
0.0
 23
0.0
 33
0.0
 16
1.0
 26
0.0
 36
0.0
 17
0.0
 27
1.0
 37
0.0
 76
     0
330
1B
  0
LAYOUT
  5
26
102
{ACAD_XDICTIONARY
360
2516
102
}
102
{ACAD_REACTORS
330
1A
102
}
330
1A
100
AcDbPlotSettings
  1

  2

  4

  6

 40
0.0
 41
0.0
 42
0.0
 43
0.0
 44
0.0
 45
0.0
 46
0.0
 47
0.0
 48
0.0
 49
0.0
140
0.0
141
0.0
142
1.0
143
1.0
 70
   688
 72
     0
 73
     0
 74
     5
  7
彩色出圖.ctb
 75
    16
147
1.0
148
0.0
149
0.0
100
AcDbLayout
  1
配置2
 70
     1
 71
     2
 10
0.0
 20
0.0
 11
12.0
 21
9.0
 12
0.0
 22
0.0
 32
0.0
 14
0.0
 24
0.0
 34
0.0
 15
0.0
 25
0.0
 35
0.0
146
0.0
 13
0.0
 23
0.0
 33
0.0
 16
1.0
 26
0.0
 36
0.0
 17
0.0
 27
1.0
 37
0.0
 76
     0
330
23
  0
MLINESTYLE
  5
18
102
{ACAD_REACTORS
330
17
102
}
330
17
100
AcDbMlineStyle
  2
STANDARD
 70
     0
  3

 62
   256
 51
90.0
 52
90.0
 71
     2
 49
0.5
 62
   256
  6
BYLAYER
 49
-0.5
 62
   256
  6
BYLAYER
  0
ACDBPLACEHOLDER
  5
F
102
{ACAD_REACTORS
330
E
102
}
330
E
  0
TABLESTYLE
  5
11B
102
{ACAD_REACTORS
330
11A
102
}
330
11A
100
AcDbTableStyle
  3
Standard
 70
     0
 71
     0
 40
1.5
 41
1.5
280
     0
281
     0
  7
STANDARD
140
4.5
170
     2
 62
     0
 63
     7
283
     0
274
    -2
284
     1
 64
     0
275
    -2
285
     1
 65
     0
276
    -2
286
     1
 66
     0
277
    -2
287
     1
 67
     0
278
    -2
288
     1
 68
     0
279
    -2
289
     1
 69
     0
  7
STANDARD
140
6.0
170
     5
 62
     0
 63
     7
283
     0
274
    -2
284
     1
 64
     0
275
    -2
285
     1
 65
     0
276
    -2
286
     1
 66
     0
277
    -2
287
     1
 67
     0
278
    -2
288
     1
 68
     0
279
    -2
289
     1
 69
     0
  7
STANDARD
140
4.5
170
     5
 62
     0
 63
     7
283
     0
274
    -2
284
     1
 64
     0
275
    -2
285
     1
 65
     0
276
    -2
286
     1
 66
     0
277
    -2
287
     1
 67
     0
278
    -2
288
     1
 68
     0
279
    -2
289
     1
 69
     0
  0
DICTIONARYVAR
  5
138
102
{ACAD_REACTORS
330
94
102
}
330
94
100
DictionaryVariables
280
     0
  1
STANDARD
  0
DICTIONARYVAR
  5
96
102
{ACAD_REACTORS
330
94
102
}
330
94
100
DictionaryVariables
280
     0
  1
2
  0
DICTIONARYVAR
  5
95
102
{ACAD_REACTORS
330
94
102
}
330
94
100
DictionaryVariables
280
     0
  1
0
  0
DICTIONARYVAR
  5
250E
102
{ACAD_REACTORS
330
94
102
}
330
94
100
DictionaryVariables
280
     0
  1

  0
DICTIONARY
  5
1B5
102
{ACAD_REACTORS
330
5B
102
}
330
5B
100
AcDbDictionary
281
     1
  0
DICTIONARY
  5
61
102
{ACAD_REACTORS
330
5B
102
}
330
5B
100
AcDbDictionary
281
     1
  0
XRECORD
  5
123
102
{ACAD_REACTORS
330
5B
102
}
330
5B
100
AcDbXrecord
280
     1
 90
-1023410169
  0
DICTIONARY
  5
2514
330
22
100
AcDbDictionary
280
     1
281
     1
  3
ACAD_XREC_ROUNDTRIP
360
2515
  0
DICTIONARY
  5
2512
330
1E
100
AcDbDictionary
280
     1
281
     1
  3
ACAD_XREC_ROUNDTRIP
360
2513
  0
DICTIONARY
  5
2516
330
26
100
AcDbDictionary
280
     1
281
     1
  3
ACAD_XREC_ROUNDTRIP
360
2517
  0
XRECORD
  5
2515
102
{ACAD_REACTORS
330
2514
102
}
330
2514
100
AcDbXrecord
280
     1
102
SHADEPLOT
 70
     0
102
SHADEPLOTRESLEVEL
 70
     2
102
SHADEPLOTCUSTOMDPI
 70
   300
  0
XRECORD
  5
2513
102
{ACAD_REACTORS
330
2512
102
}
330
2512
100
AcDbXrecord
280
     1
102
SHADEPLOT
 70
     0
102
SHADEPLOTRESLEVEL
 70
     2
102
SHADEPLOTCUSTOMDPI
 70
   300
  0
XRECORD
  5
2517
102
{ACAD_REACTORS
330
2516
102
}
330
2516
100
AcDbXrecord
280
     1
102
SHADEPLOT
 70
     0
102
SHADEPLOTRESLEVEL
 70
     2
102
SHADEPLOTCUSTOMDPI
 70
   300
  0
ENDSEC
  0
EOF
