  0
SECTION
  2
HEADER
  9
$ACADVER
  1
AC1015
  9
$ACADMAINTVER
 70
    20
  9
$DWGCODEPAGE
  3
ANSI_950
  9
$INSBASE
 10
0.0
 20
0.0
 30
0.0
  9
$EXTMIN
 10
595.8332619443171
 20
15.18119948770902
 30
-0.0067187555347914
  9
$EXTMAX
 10
1005.667369515417
 20
351.1985173297102
 30
220.1836990576973
  9
$LIMMIN
 10
0.0
 20
0.0
  9
$LIMMAX
 10
420.0
 20
297.0
  9
$ORTHOMODE
 70
     0
  9
$REGENMODE
 70
     1
  9
$FILLMODE
 70
     1
  9
$QTEXTMODE
 70
     0
  9
$MIRRTEXT
 70
     1
  9
$LTSCALE
 40
1.0
  9
$ATTMODE
 70
     1
  9
$TEXTSIZE
 40
3.5
  9
$TRACEWID
 40
1.0
  9
$TEXTSTYLE
  7
STANDARD
  9
$CLAYER
  8
0
  9
$CELTYPE
  6
ByLayer
  9
$CECOLOR
 62
   256
  9
$CELTSCALE
 40
1.0
  9
$DISPSILH
 70
     0
  9
$DIMSCALE
 40
1.0
  9
$DIMASZ
 40
3.0
  9
$DIMEXO
 40
1.0
  9
$DIMDLI
 40
8.0
  9
$DIMRND
 40
0.0
  9
$DIMDLE
 40
0.0
  9
$DIMEXE
 40
1.5
  9
$DIMTP
 40
0.1
  9
$DIMTM
 40
0.1
  9
$DIMTXT
 40
3.5
  9
$DIMCEN
 40
3.0
  9
$DIMTSZ
 40
0.0
  9
$DIMTOL
 70
     0
  9
$DIMLIM
 70
     0
  9
$DIMTIH
 70
     0
  9
$DIMTOH
 70
     0
  9
$DIMSE1
 70
     0
  9
$DIMSE2
 70
     0
  9
$DIMTAD
 70
     1
  9
$DIMZIN
 70
     8
  9
$DIMBLK
  1

  9
$DIMASO
 70
     1
  9
$DIMSHO
 70
     1
  9
$DIMPOST
  1

  9
$DIMAPOST
  1
"
  9
$DIMALT
 70
     0
  9
$DIMALTD
 70
     2
  9
$DIMALTF
 40
0.0393701
  9
$DIMLFAC
 40
1.0
  9
$DIMTOFL
 70
     1
  9
$DIMTVP
 40
0.0
  9
$DIMTIX
 70
     0
  9
$DIMSOXD
 70
     0
  9
$DIMSAH
 70
     0
  9
$DIMBLK1
  1

  9
$DIMBLK2
  1

  9
$DIMSTYLE
  2
AM_ISO
  9
$DIMCLRD
 70
   256
  9
$DIMCLRE
 70
   256
  9
$DIMCLRT
 70
   256
  9
$DIMTFAC
 40
0.71
  9
$DIMGAP
 40
0.8
  9
$DIMJUST
 70
     0
  9
$DIMSD1
 70
     0
  9
$DIMSD2
 70
     0
  9
$DIMTOLJ
 70
     0
  9
$DIMTZIN
 70
     8
  9
$DIMALTZ
 70
     0
  9
$DIMALTTZ
 70
     0
  9
$DIMUPT
 70
     0
  9
$DIMDEC
 70
     2
  9
$DIMTDEC
 70
     8
  9
$DIMALTU
 70
     2
  9
$DIMALTTD
 70
     2
  9
$DIMTXSTY
  7
STANDARD
  9
$DIMAUNIT
 70
     0
  9
$DIMADEC
 70
     0
  9
$DIMALTRND
 40
0.0
  9
$DIMAZIN
 70
     2
  9
$DIMDSEP
 70
    46
  9
$DIMATFIT
 70
     3
  9
$DIMFRAC
 70
     0
  9
$DIMLDRBLK
  1

  9
$DIMLUNIT
 70
     2
  9
$DIMLWD
 70
    -1
  9
$DIMLWE
 70
    -1
  9
$DIMTMOVE
 70
     0
  9
$LUNITS
 70
     2
  9
$LUPREC
 70
     2
  9
$SKETCHINC
 40
1.0
  9
$FILLETRAD
 40
2.5
  9
$AUNITS
 70
     0
  9
$AUPREC
 70
     0
  9
$MENU
  1
.
  9
$ELEVATION
 40
0.0
  9
$PELEVATION
 40
0.0
  9
$THICKNESS
 40
0.0
  9
$LIMCHECK
 70
     0
  9
$CHAMFERA
 40
2.5
  9
$CHAMFERB
 40
2.5
  9
$CHAMFERC
 40
20.0
  9
$CHAMFERD
 40
0.0
  9
$SKPOLY
 70
     0
  9
$TDCREATE
 40
2453021.369367211
  9
$TDUCREATE
 40
2453021.036033877
  9
$TDUPDATE
 40
2454240.349752604
  9
$TDUUPDATE
 40
2454240.016419271
  9
$TDINDWG
 40
0.5588342940
  9
$TDUSRTIMER
 40
0.5588339468
  9
$USRTIMER
 70
     1
  9
$ANGBASE
 50
0.0
  9
$ANGDIR
 70
     0
  9
$PDMODE
 70
     0
  9
$PDSIZE
 40
0.0
  9
$PLINEWID
 40
0.0
  9
$SPLFRAME
 70
     0
  9
$SPLINETYPE
 70
     6
  9
$SPLINESEGS
 70
     8
  9
$HANDSEED
  5
5600
  9
$SURFTAB1
 70
     6
  9
$SURFTAB2
 70
     6
  9
$SURFTYPE
 70
     6
  9
$SURFU
 70
     6
  9
$SURFV
 70
     6
  9
$UCSBASE
  2

  9
$UCSNAME
  2

  9
$UCSORG
 10
0.0
 20
0.0
 30
0.0
  9
$UCSXDIR
 10
1.0
 20
0.0
 30
0.0
  9
$UCSYDIR
 10
0.0
 20
1.0
 30
0.0
  9
$UCSORTHOREF
  2

  9
$UCSORTHOVIEW
 70
     0
  9
$UCSORGTOP
 10
0.0
 20
0.0
 30
0.0
  9
$UCSORGBOTTOM
 10
0.0
 20
0.0
 30
0.0
  9
$UCSORGLEFT
 10
0.0
 20
0.0
 30
0.0
  9
$UCSORGRIGHT
 10
0.0
 20
0.0
 30
0.0
  9
$UCSORGFRONT
 10
0.0
 20
0.0
 30
0.0
  9
$UCSORGBACK
 10
0.0
 20
0.0
 30
0.0
  9
$PUCSBASE
  2

  9
$PUCSNAME
  2

  9
$PUCSORG
 10
0.0
 20
0.0
 30
0.0
  9
$PUCSXDIR
 10
1.0
 20
0.0
 30
0.0
  9
$PUCSYDIR
 10
0.0
 20
1.0
 30
0.0
  9
$PUCSORTHOREF
  2

  9
$PUCSORTHOVIEW
 70
     0
  9
$PUCSORGTOP
 10
0.0
 20
0.0
 30
0.0
  9
$PUCSORGBOTTOM
 10
0.0
 20
0.0
 30
0.0
  9
$PUCSORGLEFT
 10
0.0
 20
0.0
 30
0.0
  9
$PUCSORGRIGHT
 10
0.0
 20
0.0
 30
0.0
  9
$PUCSORGFRONT
 10
0.0
 20
0.0
 30
0.0
  9
$PUCSORGBACK
 10
0.0
 20
0.0
 30
0.0
  9
$USERI1
 70
     0
  9
$USERI2
 70
     0
  9
$USERI3
 70
     0
  9
$USERI4
 70
     0
  9
$USERI5
 70
     0
  9
$USERR1
 40
0.0
  9
$USERR2
 40
0.0
  9
$USERR3
 40
0.0
  9
$USERR4
 40
0.0
  9
$USERR5
 40
0.0
  9
$WORLDVIEW
 70
     1
  9
$SHADEDGE
 70
     3
  9
$SHADEDIF
 70
    70
  9
$TILEMODE
 70
     1
  9
$MAXACTVP
 70
    64
  9
$PINSBASE
 10
0.0
 20
0.0
 30
0.0
  9
$PLIMCHECK
 70
     0
  9
$PEXTMIN
 10
1.000000000000000E+20
 20
1.000000000000000E+20
 30
1.000000000000000E+20
  9
$PEXTMAX
 10
-1.000000000000000E+20
 20
-1.000000000000000E+20
 30
-1.000000000000000E+20
  9
$PLIMMIN
 10
0.0
 20
0.0
  9
$PLIMMAX
 10
420.0
 20
297.0
  9
$UNITMODE
 70
     0
  9
$VISRETAIN
 70
     1
  9
$PLINEGEN
 70
     0
  9
$PSLTSCALE
 70
     1
  9
$TREEDEPTH
 70
  3020
  9
$CMLSTYLE
  2
Standard
  9
$CMLJUST
 70
     0
  9
$CMLSCALE
 40
20.0
  9
$PROXYGRAPHICS
 70
     1
  9
$MEASUREMENT
 70
     1
  9
$CELWEIGHT
370
    -1
  9
$ENDCAPS
280
     0
  9
$JOINSTYLE
280
     0
  9
$LWDISPLAY
290
     0
  9
$INSUNITS
 70
     4
  9
$HYPERLINKBASE
  1

  9
$STYLESHEET
  1
彩色出圖.ctb
  9
$XEDIT
290
     1
  9
$CEPSNTYPE
380
     0
  9
$PSTYLEMODE
290
     1
  9
$FINGERPRINTGUID
  2
{6C02722A-18D3-491A-897A-B8025DE410A9}
  9
$VERSIONGUID
  2
{A51A62B6-2CAC-487A-8CC0-EEFDB5135687}
  9
$EXTNAMES
290
     1
  9
$PSVPSCALE
 40
0.0
  9
$OLESTARTUP
290
     0
  0
ENDSEC
  0
SECTION
  2
CLASSES
  0
CLASS
  1
ACDBDICTIONARYWDFLT
  2
AcDbDictionaryWithDefault
  3
ObjectDBX Classes
 90
        0
280
     0
281
     0
  0
CLASS
  1
ACDBPLACEHOLDER
  2
AcDbPlaceHolder
  3
ObjectDBX Classes
 90
        0
280
     0
281
     0
  0
CLASS
  1
LAYOUT
  2
AcDbLayout
  3
ObjectDBX Classes
 90
        0
280
     0
281
     0
  0
CLASS
  1
AMGSETTINGSOBJ
  2
AmgSettingsObj
  3
"AcadM|Product Description: AutoCAD Mechanical 2000|Company: Autodesk"
 90
        0
280
     0
281
     0
  0
CLASS
  1
ACME_DOCUMENT
  2
AcMeDbDoc
  3
AcMeServices
 90
        0
280
     0
281
     0
  0
CLASS
  1
ACMESCOPE
  2
AcMeScope
  3
AcMeServices
 90
        0
280
     0
281
     0
  0
CLASS
  1
ACMECOMMANDHISTORY
  2
AcMeCommandHistory
  3
AcMeServices
 90
        0
280
     0
281
     0
  0
CLASS
  1
ACIMSYSVARMAN
  2
AcImSysVarManager
  3
AcMeServices
 90
        0
280
     0
281
     0
  0
CLASS
  1
ACIMREALSYSVAR
  2
AcImRealSysVar
  3
AcMeServices
 90
        0
280
     0
281
     0
  0
CLASS
  1
ACIMINTSYSVAR
  2
AcImIntSysVar
  3
AcMeServices
 90
        0
280
     0
281
     0
  0
CLASS
  1
ACMEDRAWINGMAN
  2
AcMeDrawingMan
  3
AcMeServices
 90
        0
280
     0
281
     0
  0
CLASS
  1
ACMEVIEW
  2
AcMeView
  3
AcMeServices
 90
        0
280
     0
281
     0
  0
CLASS
  1
ACDBENTITYCACHE
  2
AcMeEntityCache
  3
AcMeServices
 90
        0
280
     0
281
     0
  0
CLASS
  1
GSMANAGER
  2
AcMeGSManager
  3
AcMeServices
 90
        0
280
     0
281
     0
  0
CLASS
  1
AMDTINTERNALREACTOR
  2
AmdtInternalReactor
  3
AcMeServices
 90
        0
280
     0
281
     0
  0
CLASS
  1
ACMESTATEMGR
  2
AcMeStateMgr
  3
AcMeServices
 90
        0
280
     0
281
     0
  0
CLASS
  1
ACGREFMASTER
  2
AcGrefMaster
  3
AcAttribServices
 90
        0
280
     0
281
     0
  0
CLASS
  1
ACME_DATABASE
  2
AcMeDbDatabase
  3
AcMeServices
 90
        0
280
     0
281
     0
  0
CLASS
  1
ACRFINSADJUSTERMGR
  2
AcRfInsAdjusterMgr
  3
AcMeServices
 90
        0
280
     0
281
     0
  0
CLASS
  1
ACGREFACADMASTER
  2
AcGrefacadMaster
  3
AcGrefServices
 90
        0
280
     0
281
     0
  0
CLASS
  1
AMIMASTER
  2
AmiMaster
  3
AmiServices
 90
        0
280
     0
281
     0
  0
CLASS
  1
ACMDATADICTIONARY
  2
AcmDataDictionary
  3
"AcmSymBB|Product Description: AutoCAD Mechanical 2004 DX|Company: Autodesk"
 90
        0
280
     0
281
     0
  0
CLASS
  1
ACMDATAENTRYBLOCK
  2
AcmDataEntryBlock
  3
"AcmSymBB|Product Description: AutoCAD Mechanical 2004 DX|Company: Autodesk"
 90
    32768
280
     0
281
     0
  0
CLASS
  1
ACIMSTRSYSVAR
  2
AcImStrSysVar
  3
AcMeServices
 90
        0
280
     0
281
     0
  0
CLASS
  1
ACMSTANDARDISO
  2
AcmStandardISO
  3
"Amdt_StdImp|Product Description: AutoCAD Mechanical 2004 DX|Company: Autodesk"
 90
        0
280
     0
281
     0
  0
CLASS
  1
AMGOBJPROPCFG
  2
AmgObjPropCfg
  3
"AmgLay|Product Description: AutoCAD Mechanical 2000|Company: Autodesk"
 90
        1
280
     0
281
     0
  0
CLASS
  1
AMDTEDGESTANDARDISO
  2
AmdtEdgeStdISO
  3
"Amdt_StdImp|Product Description: AutoCAD Mechanical 2004 DX|Company: Autodesk"
 90
    32768
280
     0
281
     0
  0
CLASS
  1
ACMSURFSTANDARDISO
  2
AcmSurfTextStdISO
  3
"Amdt_StdImp|Product Description: AutoCAD Mechanical 2004 DX|Company: Autodesk"
 90
        0
280
     0
281
     0
  0
CLASS
  1
ACMFCFSTANDARDISO
  2
AcmFCFStdISO
  3
"Amdt_StdImp|Product Description: AutoCAD Mechanical 2004 DX|Company: Autodesk"
 90
        0
280
     0
281
     0
  0
CLASS
  1
ACMWELDSTANDARDISO
  2
AcmWeldingStdISO
  3
"Amdt_StdImp|Product Description: AutoCAD Mechanical 2004 DX|Company: Autodesk"
 90
        0
280
     0
281
     0
  0
CLASS
  1
ACMIDSTANDARDISO
  2
AcmIdStdISO
  3
"Amdt_StdImp|Product Description: AutoCAD Mechanical 2004 DX|Company: Autodesk"
 90
        0
280
     0
281
     0
  0
CLASS
  1
ACMDATUMSTANDARDISO
  2
AcmDatumStdISO
  3
"Amdt_StdImp|Product Description: AutoCAD Mechanical 2004 DX|Company: Autodesk"
 90
        0
280
     0
281
     0
  0
CLASS
  1
ACMBOMSTANDARDISO
  2
AcmBOMStdISO
  3
"Amdt_StdImp|Product Description: AutoCAD Mechanical 2004 DX|Company: Autodesk"
 90
        0
280
     0
281
     0
  0
CLASS
  1
ACMDETAILSTANDARDISO
  2
AmdtDetailSymStdISO
  3
"Amdt_StdImp|Product Description: AutoCAD Mechanical 2004 DX|Company: Autodesk"
 90
        0
280
     0
281
     0
  0
CLASS
  1
ACMSECTIONSTANDARDISO
  2
AmdtSectionSymStdISO
  3
"Amdt_StdImp|Product Description: AutoCAD Mechanical 2004 DX|Company: Autodesk"
 90
        0
280
     0
281
     0
  0
CLASS
  1
ACMCENTERLINESTANDARDISO
  2
AmdtCenterLineStdISO
  3
"Amdt_StdImp|Product Description: AutoCAD Mechanical 2004 DX|Company: Autodesk"
 90
        0
280
     0
281
     0
  0
CLASS
  1
ACMNOTESTANDARDISO
  2
AmdtNoteStdISO
  3
"Amdt_StdImp|Product Description: AutoCAD Mechanical 2004 DX|Company: Autodesk"
 90
        0
280
     0
281
     0
  0
CLASS
  1
ACAMGLAYSTD
  2
AcAmgLayStd
  3
"AcAmgLayStd|Product Description: AutoCAD Mechanical 2000|Company: Autodesk"
 90
        0
280
     0
281
     0
  0
CLASS
  1
ACAMGDIMSTD
  2
AcAmgDimStd
  3
"AcAmgDimStd|Product Description: AutoCAD Mechanical 2000|Company: Autodesk"
 90
        0
280
     0
281
     0
  0
CLASS
  1
ACAMGHOLECHARTSTDISO
  2
AcAmgHoleChartStdISO
  3
ACMSYMBB_MODULE_NAME
 90
        0
280
     0
281
     0
  0
CLASS
  1
ACAMGTITLESTD
  2
AcAmgTitleStd
  3
"TITLEAPP"
 90
        0
280
     0
281
     0
  0
CLASS
  1
LAYER_INDEX
  2
AcDbLayerIndex
  3
ObjectDBX Classes
 90
    32768
280
     0
281
     0
  0
CLASS
  1
IDBUFFER
  2
AcDbIdBuffer
  3
ObjectDBX Classes
 90
    32768
280
     0
281
     0
  0
CLASS
  1
DICTIONARYVAR
  2
AcDbDictionaryVar
  3
ObjectDBX Classes
 90
        0
280
     0
281
     0
  0
CLASS
  1
ACAMGFILTERDAT
  2
AcAmgFilterDat
  3
"AcadM|Product Description: AutoCAD Mechanical 2000|Company: Autodesk"
 90
    32768
280
     0
281
     0
  0
CLASS
  1
AMDTFORMULAUPDATEDISPATCHER
  2
AmdtFormulaUpdateDispatcher
  3
AcMeServices
 90
    32768
280
     0
281
     0
  0
CLASS
  1
DIMASSOC
  2
AcDbDimAssoc
  3
"AcDbDimAssoc|Product Desc:     AcDim ARX App For Dimension|Company:          Autodesk, Inc.|WEB Address:      www.autodesk.com"
 90
    32768
280
     0
281
     0
  0
CLASS
  1
AMDTNOTE
  2
AmdtNote
  3
"AcmSymBB|Product Description: AutoCAD Mechanical 2004 DX|Company: Autodesk"
 90
     1023
280
     0
281
     1
  0
CLASS
  1
TABLESTYLE
  2
AcDbTableStyle
  3
ObjectDBX Classes
 90
     2047
280
     0
281
     0
  0
CLASS
  1
AM_DRAWING_MGR
  2
AcDmDwgMgr
  3
AcMechDwgViewMgmt
 90
        0
280
     0
281
     0
  0
CLASS
  1
AM_DWG_DOCUMENT
  2
AcDmDwgDocument
  3
AcMechDwgViewMgmt
 90
        0
280
     0
281
     0
  0
CLASS
  1
AM_DWG_SHEET
  2
AcDmSheet
  3
AcMechDwgViewMgmt
 90
        0
280
     0
281
     0
  0
CLASS
  1
AM_VIEWDIMPARMAP
  2
AcDmViewDimParMap
  3
AcMechDwgViewMgmt
 90
        0
280
     0
281
     0
  0
CLASS
  1
AM_DWGMGR_NAME
  2
AcDmDwgMgrName
  3
AcMechDwgViewMgmt
 90
        0
280
     0
281
     0
  0
CLASS
  1
AMDTMENUSTATEMGR
  2
AmdtMenuStateMgr
  3
McadcomServices
 90
        0
280
     0
281
     0
  0
CLASS
  1
AMDTMCOMMENUSTATE
  2
AmdtMcomMenuState
  3
McadcomServices
 90
        0
280
     0
281
     0
  0
CLASS
  1
MAPIAMMOUDLE
  2
MApiAmModule
  3
MApiAmServices
 90
        0
280
     0
281
     0
  0
CLASS
  1
AMDTADMENUSTATE
  2
AmdtAdMenuState
  3
DesignerServices
 90
        0
280
     0
281
     0
  0
CLASS
  1
ADAPPL
  2
AcAdAppl
  3
DesignerServices
 90
        0
280
     0
281
     0
  0
CLASS
  1
DEPMGR
  2
AcAdDepMgr
  3
DesignerServices
 90
        0
280
     0
281
     0
  0
CLASS
  1
PARAMMGR
  2
AcAdParamMgr
  3
DesignerServices
 90
        0
280
     0
281
     0
  0
CLASS
  1
PARAMSCOPE
  2
AcAdParamScope
  3
DesignerServices
 90
        0
280
     0
281
     0
  0
CLASS
  1
NAMEDAPPL
  2
AcAdNamedAppl
  3
DesignerServices
 90
        0
280
     0
281
     0
  0
CLASS
  1
AMDTDMMENUSTATE
  2
AmdtDmMenuState
  3
AcMechDwgViewMgmt
 90
        0
280
     0
281
     0
  0
CLASS
  1
AMDTAMMENUSTATE
  2
AmdtAmMenuState
  3
DesignerAssemblies
 90
        0
280
     0
281
     0
  0
CLASS
  1
ACAMPROJECT
  2
AcAmProject
  3
DesignerAssemblies
 90
        0
280
     0
281
     0
  0
CLASS
  1
ACAMGRCOMPDEF
  2
AcAmGrCompDef
  3
DesignerAssemblies
 90
        0
280
     0
281
     0
  0
CLASS
  1
ACCMCONTEXT
  2
AcCmContext
  3
DesignerAssemblies
 90
        0
280
     0
281
     0
  0
CLASS
  1
ACAMCOMPDEF
  2
AcAmCompDef
  3
DesignerAssemblies
 90
        0
280
     0
281
     0
  0
CLASS
  1
ACAMCOMPDEFMGR
  2
AcAmCompDefMgr
  3
DesignerAssemblies
 90
        0
280
     0
281
     0
  0
CLASS
  1
AMCONTEXTMGR
  2
AcAmContextMgr
  3
DesignerAssemblies
 90
        0
280
     0
281
     0
  0
CLASS
  1
ACAMCONTEXTMODELER
  2
AcAmContextModeler
  3
DesignerAssemblies
 90
        0
280
     0
281
     0
  0
CLASS
  1
ACMTHREADLINESTANDARDISO
  2
AmdtThreadLineStdISO
  3
"Amdt_StdImp|Product Description: AutoCAD Mechanical 2004 DX|Company: Autodesk"
 90
        0
280
     0
281
     0
  0
CLASS
  1
CATALOGSTATE
  2
AcAmCatalogState
  3
DesignerAssemblies
 90
        0
280
     0
281
     0
  0
CLASS
  1
ACAMGRCOMPDEFSET
  2
AcAmGrCompDefSet
  3
DesignerAssemblies
 90
        0
280
     0
281
     0
  0
CLASS
  1
AMDTBROWSERDBTAB
  2
AmdtBrowserDbTab
  3
McadcomServices
 90
        0
280
     0
281
     0
  0
CLASS
  1
CBROWSERAPPOBJECT
  2
CBrowserAppObject
  3
McadcomServices
 90
        0
280
     0
281
     0
  0
CLASS
  1
DM_PLACEHOLDER
  2
AcDmSelsetPlaceholder
  3
AcMechDwgViewMgmt
 90
        0
280
     0
281
     0
  0
CLASS
  1
VAACXREFPANELOBJECT
  2
VaAcXREFPanelObject
  3
VAAC_ADDIN
 90
    32768
280
     0
281
     0
  0
CLASS
  1
VAACIMAGEINVENTORY
  2
VaAcImageInventory
  3
VAAC_ADDIN
 90
    32768
280
     0
281
     0
  0
CLASS
  1
AMDTEDGESTANDARDISO13715
  2
AmdtEdgeStdISO13715
  3
"Amdt_StdImp|Product Description: AutoCAD Mechanical 2004 DX|Company: Autodesk"
 90
        0
280
     0
281
     0
  0
CLASS
  1
AMDTNOTETEMPLATEDB
  2
AmdtNoteTemplateDB
  3
AMDT_STDIMP_MODULE_NAME
 90
        0
280
     0
281
     0
  0
CLASS
  1
ACRFATTGENMGR
  2
AcRfAttGeneralMgr
  3
AcAttribServices
 90
        0
280
     0
281
     0
  0
CLASS
  1
ACMDIMBREAKPERSREACTOR
  2
AcmDimBreakPersReactor
  3
amgDimApp().moduleName()
 90
    33791
280
     0
281
     0
  0
CLASS
  1
STDPART2D
  2
AmgStdPart
  3
"AmgStdPart|Product Description: AutoCAD Mechanical 2000|Company: Autodesk"
 90
    33791
280
     0
281
     1
  0
CLASS
  1
ACAMSTDPCOMPDEF
  2
AcAmStdpCompDef
  3
DesignerAssemblies
 90
    32768
280
     0
281
     0
  0
CLASS
  1
ACRFOBJATTMGR
  2
AcRfObjAttGroupMgr
  3
AcAttribServices
 90
    32768
280
     0
281
     0
  0
CLASS
  1
ACRFMCADAPIATTHOLDER
  2
AcRfMCADAPIAttHolder
  3
AcAttribServices
 90
    32768
280
     0
281
     0
  0
CLASS
  1
AMDTSYSATTR
  2
AmdtSystemAttribute
  3
AcAttribServices
 90
    32768
280
     0
281
     0
  0
CLASS
  1
ACAMCOMP
  2
AcAmComp
  3
DesignerAssemblies
 90
    32768
280
     0
281
     0
  0
CLASS
  1
AC_AM_STDP_VIEW_DEF
  2
AcAmStdpViewDef
  3
DesignerAssemblies
 90
    32768
280
     0
281
     0
  0
CLASS
  1
AC_AM_MVD_DEP_MGR
  2
AcAmMVDdepMgr
  3
DesignerAssemblies
 90
        0
280
     0
281
     0
  0
CLASS
  1
AC_AM_MASTER_VIEW_DEF
  2
AcAmMasterViewDef
  3
DesignerAssemblies
 90
        0
280
     0
281
     0
  0
CLASS
  1
AC_AM_DIRTY_NODES
  2
AcAmDirtyNodes
  3
DesignerAssemblies
 90
        0
280
     0
281
     0
  0
CLASS
  1
AC_AM_MAPPER_CACHE
  2
AcAmMapperCache
  3
DesignerAssemblies
 90
        0
280
     0
281
     0
  0
CLASS
  1
ACAMMVDBACKUPOBJECT
  2
AcAmMVDBackupObject
  3
DesignerAssemblies
 90
        0
280
     0
281
     0
  0
CLASS
  1
AC_AM_COMP_VIEW_INST
  2
AcAmCompView
  3
DesignerAssemblies
 90
    32768
280
     0
281
     0
  0
CLASS
  1
AC_AM_2D_XREF_MGR
  2
AcAmXrefMgr2d
  3
DesignerAssemblies
 90
        0
280
     0
281
     0
  0
CLASS
  1
SORTENTSTABLE
  2
AcDbSortentsTable
  3
ObjectDBX Classes
 90
        0
280
     0
281
     0
  0
ENDSEC
  0
SECTION
  2
TABLES
  0
TABLE
  2
VPORT
  5
8
330
0
100
AcDbSymbolTable
 70
    11
  0
VPORT
  5
55F7
330
8
100
AcDbSymbolTableRecord
100
AcDbViewportTableRecord
  2
*Active
 70
     0
 10
0.0
 20
0.0
 11
1.0
 21
1.0
 12
800.7503157298669
 22
183.1898584087096
 13
0.0
 23
0.0
 14
2.5
 24
2.5
 15
10.0
 25
10.0
 16
0.0
 26
0.0
 36
1.0
 17
0.0
 27
0.0
 37
0.0
 40
338.7528726683946
 41
1.661684782608695
 42
50.0
 43
0.0
 44
0.0
 50
0.0
 51
0.0
 71
     0
 72
   100
 73
     1
 74
     3
 75
     0
 76
     0
 77
     0
 78
     0
281
     0
 65
     1
110
0.0
120
0.0
130
0.0
111
1.0
121
0.0
131
0.0
112
0.0
122
1.0
132
0.0
 79
     0
146
0.0
  0
ENDTAB
  0
TABLE
  2
LTYPE
  5
5
330
0
100
AcDbSymbolTable
 70
    15
  0
LTYPE
  5
14
330
5
100
AcDbSymbolTableRecord
100
AcDbLinetypeTableRecord
  2
ByBlock
 70
     0
  3

 72
    65
 73
     0
 40
0.0
  0
LTYPE
  5
15
330
5
100
AcDbSymbolTableRecord
100
AcDbLinetypeTableRecord
  2
ByLayer
 70
     0
  3

 72
    65
 73
     0
 40
0.0
  0
LTYPE
  5
16
330
5
100
AcDbSymbolTableRecord
100
AcDbLinetypeTableRecord
  2
Continuous
 70
     0
  3
Solid line
 72
    65
 73
     0
 40
0.0
  0
LTYPE
  5
4D
330
5
100
AcDbSymbolTableRecord
100
AcDbLinetypeTableRecord
  2
AM_ISO02W050
 70
     0
  3
__ __ __ __ __ __ __ __ __ __ __ __ __ __ __
 72
    65
 73
     2
 40
7.5
 49
6.0
 74
     0
 49
-1.5
 74
     0
  0
LTYPE
  5
4E
330
5
100
AcDbSymbolTableRecord
100
AcDbLinetypeTableRecord
  2
AM_ISO08W050
 70
     0
  3
____ . ____ . ____ . ____ . ____ . ____ . ____
 72
    65
 73
     4
 40
18.0
 49
12.0
 74
     0
 49
-1.5
 74
     0
 49
3.0
 74
     0
 49
-1.5
 74
     0
  0
LTYPE
  5
4F
330
5
100
AcDbSymbolTableRecord
100
AcDbLinetypeTableRecord
  2
AM_ISO09W050
 70
     0
  3
_____ . . _____ . . _____ . . ____ .. ____
 72
    65
 73
     6
 40
22.5
 49
12.0
 74
     0
 49
-1.5
 74
     0
 49
3.0
 74
     0
 49
-1.5
 74
     0
 49
3.0
 74
     0
 49
-1.5
 74
     0
  0
LTYPE
  5
50
330
5
100
AcDbSymbolTableRecord
100
AcDbLinetypeTableRecord
  2
Amconstr
 70
     0
  3
_______________________
 72
    65
 73
     2
 40
9999.0
 49
9999.0
 74
     0
 49
0.0
 74
     0
  0
LTYPE
  5
51
330
5
100
AcDbSymbolTableRecord
100
AcDbLinetypeTableRecord
  2
AM_ISO08W050x2
 70
     0
  3
__ . __ . __ . __ . __ . __
 72
    65
 73
     4
 40
9.0
 49
6.0
 74
     0
 49
-0.75
 74
     0
 49
1.5
 74
     0
 49
-0.75
 74
     0
  0
LTYPE
  5
52
330
5
100
AcDbSymbolTableRecord
100
AcDbLinetypeTableRecord
  2
AM_ISO02W050x2
 70
     0
  3
 _ _ _ _ _ _ _ _ _ _ _ _
 72
    65
 73
     2
 40
3.75
 49
3.0
 74
     0
 49
-0.75
 74
     0
  0
LTYPE
  5
55
330
5
100
AcDbSymbolTableRecord
100
AcDbLinetypeTableRecord
  2
Amzigzag
 70
     0
  3
/\/-/\/-/\/-/\/-/\/-/\/
 72
    65
 73
     2
 40
11.0001
 49
0.0001
 74
     4
 75
   135
340
54
 46
0.04
 50
0.0
 44
0.0
 45
0.0
 49
-11.0
 74
     0
  0
LTYPE
  5
63
330
5
100
AcDbSymbolTableRecord
100
AcDbLinetypeTableRecord
  2
ACISOWELD
 70
     0
  3
_ _ _ _ _
 72
    65
 73
     2
 40
2.0
 49
2.0
 74
     0
 49
-1.0
 74
     0
  0
LTYPE
  5
64
330
5
100
AcDbSymbolTableRecord
100
AcDbLinetypeTableRecord
  2
ACISOTGB
 70
     0
  3
__ . . __ . .
 72
    65
 73
     6
 40
9.0
 49
4.0
 74
     0
 49
-1.0
 74
     0
 49
1.0
 74
     0
 49
-1.0
 74
     0
 49
1.0
 74
     0
 49
-1.0
 74
     0
  0
LTYPE
  5
65
330
5
100
AcDbSymbolTableRecord
100
AcDbLinetypeTableRecord
  2
ACISOTGL
 70
     0
  3
_ _ _ _ _
 72
    65
 73
     2
 40
3.0
 49
2.0
 74
     0
 49
-1.0
 74
     0
  0
LTYPE
  5
68
330
5
100
AcDbSymbolTableRecord
100
AcDbLinetypeTableRecord
  2
CENTER
 70
     0
  3
__ . __
 72
    65
 73
     4
 40
7.0
 49
4.0
 74
     0
 49
-1.0
 74
     0
 49
1.0
 74
     0
 49
-1.0
 74
     0
  0
LTYPE
  5
99B
330
5
100
AcDbSymbolTableRecord
100
AcDbLinetypeTableRecord
  2
HIDDEN
 70
     0
  3
Hidden __ __ __ __ __ __ __ __ __ __ __ __ __ _
 72
    65
 73
     2
 40
9.524999999999998
 49
6.349999999999999
 74
     0
 49
-3.174999999999999
 74
     0
  0
LTYPE
  5
99C
330
5
100
AcDbSymbolTableRecord
100
AcDbLinetypeTableRecord
  2
PHANTOM2
 70
     0
  3
Phantom (.5x) ___ _ _ ___ _ _ ___ _ _ ___ _ _
 72
    65
 73
     6
 40
31.75
 49
15.875
 74
     0
 49
-3.174999999999999
 74
     0
 49
3.174999999999999
 74
     0
 49
-3.174999999999999
 74
     0
 49
3.174999999999999
 74
     0
 49
-3.174999999999999
 74
     0
  0
ENDTAB
  0
TABLE
  2
LAYER
  5
2
102
{ACAD_XDICTIONARY
360
B9F
102
}
330
0
100
AcDbSymbolTable
 70
    10
  0
LAYER
  5
10
330
2
100
AcDbSymbolTableRecord
100
AcDbLayerTableRecord
  2
0
 70
     0
 62
     7
  6
Continuous
370
    -3
390
F
  0
LAYER
  5
42A
330
2
100
AcDbSymbolTableRecord
100
AcDbLayerTableRecord
  2
AM_5
 70
     0
 62
     5
  6
Continuous
370
    50
390
F
  0
LAYER
  5
43E
330
2
100
AcDbSymbolTableRecord
100
AcDbLayerTableRecord
  2
Defpoints
 70
     0
 62
     7
  6
Continuous
290
     0
370
    -3
390
F
  0
LAYER
  5
3FE5
330
2
100
AcDbSymbolTableRecord
100
AcDbLayerTableRecord
  2
AM_7
 70
     0
 62
     1
  6
CENTER
370
    25
390
F
  0
LAYER
  5
3FEF
330
2
100
AcDbSymbolTableRecord
100
AcDbLayerTableRecord
  2
AM_0
 70
     0
 62
     7
  6
Continuous
370
    50
390
F
  0
LAYER
  5
4007
330
2
100
AcDbSymbolTableRecord
100
AcDbLayerTableRecord
  2
AM_4
 70
     0
 62
     3
  6
Continuous
370
    25
390
F
  0
LAYER
  5
511B
330
2
100
AcDbSymbolTableRecord
100
AcDbLayerTableRecord
  2
LOGO
 70
     0
 62
     7
  6
Continuous
370
    -3
390
F
  0
ENDTAB
  0
TABLE
  2
STYLE
  5
3
330
0
100
AcDbSymbolTable
 70
     7
  0
STYLE
  5
11
330
3
100
AcDbSymbolTableRecord
100
AcDbTextStyleTableRecord
  2
STANDARD
 70
     0
 40
0.0
 41
1.0
 50
0.0
 71
     0
 42
3.5
  3
ISOCP.SHX
  4
CHINESET.SHX
  0
STYLE
  5
54
330
3
100
AcDbSymbolTableRecord
100
AcDbTextStyleTableRecord
  2

 70
     1
 40
0.0
 41
1.0
 50
0.0
 71
     0
 42
2.5
  3
ltypeshp.shx
  4

  0
STYLE
  5
56
330
3
100
AcDbSymbolTableRecord
100
AcDbTextStyleTableRecord
  2
ACISOTS
 70
     0
 40
1.0
 41
1.0
 50
0.0
 71
     0
 42
2.5
  3
isocp.shx
  4
chineset.shx
  0
STYLE
  5
62
330
3
100
AcDbSymbolTableRecord
100
AcDbTextStyleTableRecord
  2
ACISOGDT
 70
     0
 40
0.0
 41
1.0
 50
0.0
 71
     0
 42
3.5
  3
amgdt.shx
  4

  0
STYLE
  5
511C
330
3
100
AcDbSymbolTableRecord
100
AcDbTextStyleTableRecord
  2
CHINESET
 70
     0
 40
0.0
 41
1.0
 50
0.0
 71
     0
 42
3.0
  3
simplex.shx
  4
CHINESET.SHX
  0
ENDTAB
  0
TABLE
  2
VIEW
  5
6
330
0
100
AcDbSymbolTable
 70
     0
  0
ENDTAB
  0
TABLE
  2
UCS
  5
7
330
0
100
AcDbSymbolTable
 70
     0
  0
ENDTAB
  0
TABLE
  2
APPID
  5
9
330
0
100
AcDbSymbolTable
 70
    36
  0
APPID
  5
12
330
9
100
AcDbSymbolTableRecord
100
AcDbRegAppTableRecord
  2
ACAD
 70
     0
  0
APPID
  5
30
330
9
100
AcDbSymbolTableRecord
100
AcDbRegAppTableRecord
  2
MCAD_NO_VIS
 70
     0
  0
APPID
  5
31
330
9
100
AcDbSymbolTableRecord
100
AcDbRegAppTableRecord
  2
ACAD_TEMP_GRAPHIC
 70
     0
  0
APPID
  5
42
330
9
100
AcDbSymbolTableRecord
100
AcDbRegAppTableRecord
  2
ACATTRIBSERVICES
 70
     0
  0
APPID
  5
20A
330
9
100
AcDbSymbolTableRecord
100
AcDbRegAppTableRecord
  2
GENIUS_GENODEF_13
 70
     0
  0
APPID
  5
20B
330
9
100
AcDbSymbolTableRecord
100
AcDbRegAppTableRecord
  2
GENIUS_GENOBJ-N-HTC_13
 70
     0
  0
APPID
  5
20C
330
9
100
AcDbSymbolTableRecord
100
AcDbRegAppTableRecord
  2
GENIUS_GENHATCH_13
 70
     0
  0
APPID
  5
99E
330
9
100
AcDbSymbolTableRecord
100
AcDbRegAppTableRecord
  2
AD_DRAW
 70
     0
  0
APPID
  5
9BC
330
9
100
AcDbSymbolTableRecord
100
AcDbRegAppTableRecord
  2
DESIGNERASSEMBLIES
 70
     0
  0
APPID
  5
9C1
330
9
100
AcDbSymbolTableRecord
100
AcDbRegAppTableRecord
  2
ACADM_DIM_EDIT
 70
     0
  0
APPID
  5
9C2
330
9
100
AcDbSymbolTableRecord
100
AcDbRegAppTableRecord
  2
AMDT_DM_ADJ
 70
     0
  0
APPID
  5
D34
330
9
100
AcDbSymbolTableRecord
100
AcDbRegAppTableRecord
  2
ACAD_DSTYLE_DIMTEXT_FILL
 70
     0
  0
APPID
  5
10A5
330
9
100
AcDbSymbolTableRecord
100
AcDbRegAppTableRecord
  2
GENIUS_GENDTOL_13
 70
     0
  0
APPID
  5
10A6
330
9
100
AcDbSymbolTableRecord
100
AcDbRegAppTableRecord
  2
ACAD_DIMASSOC_DIMLFAC
 70
     0
  0
APPID
  5
10A7
330
9
100
AcDbSymbolTableRecord
100
AcDbRegAppTableRecord
  2
ACAD_DIMASSOC_CALC_DIMLFAC
 70
     0
  0
APPID
  5
2BA5
330
9
100
AcDbSymbolTableRecord
100
AcDbRegAppTableRecord
  2
GENIUS_GENOBJ-N-CRS_13
 70
     0
  0
APPID
  5
2BA6
330
9
100
AcDbSymbolTableRecord
100
AcDbRegAppTableRecord
  2
GENIUS_GENOLIS_13
 70
     0
  0
APPID
  5
2BA7
330
9
100
AcDbSymbolTableRecord
100
AcDbRegAppTableRecord
  2
GENIUS_GENOENT_13
 70
     0
  0
APPID
  5
2BA8
330
9
100
AcDbSymbolTableRecord
100
AcDbRegAppTableRecord
  2
GENIUS_GENOREF_13
 70
     0
  0
APPID
  5
2BDA
330
9
100
AcDbSymbolTableRecord
100
AcDbRegAppTableRecord
  2
GEVID1161390752
 70
     0
  0
APPID
  5
2BDB
330
9
100
AcDbSymbolTableRecord
100
AcDbRegAppTableRecord
  2
GEVDC
 70
     0
  0
APPID
  5
2BDC
330
9
100
AcDbSymbolTableRecord
100
AcDbRegAppTableRecord
  2
GEVRADREF
 70
     0
  0
APPID
  5
2BE5
330
9
100
AcDbSymbolTableRecord
100
AcDbRegAppTableRecord
  2
AMG_2DHIDE
 70
     0
  0
APPID
  5
2BE6
330
9
100
AcDbSymbolTableRecord
100
AcDbRegAppTableRecord
  2
AMG_2DSTRUCT_BTR
 70
     0
  0
APPID
  5
2BF7
330
9
100
AcDbSymbolTableRecord
100
AcDbRegAppTableRecord
  2
ACADM_2DVIEW_IGN_NOTIFY
 70
     0
  0
APPID
  5
2C44
330
9
100
AcDbSymbolTableRecord
100
AcDbRegAppTableRecord
  2
GEVID1161390753
 70
     0
  0
APPID
  5
3142
330
9
100
AcDbSymbolTableRecord
100
AcDbRegAppTableRecord
  2
GENIUS_GENDIMSH_14
 70
     0
  0
APPID
  5
3FE7
330
9
100
AcDbSymbolTableRecord
100
AcDbRegAppTableRecord
  2
GENIUS_GENOBJ-N-CEN_13
 70
     0
  0
APPID
  5
3FE8
330
9
100
AcDbSymbolTableRecord
100
AcDbRegAppTableRecord
  2
GENIUS_GENCEN_19
 70
     0
  0
APPID
  5
3FF5
330
9
100
AcDbSymbolTableRecord
100
AcDbRegAppTableRecord
  2
GEVID1178790495
 70
     0
  0
APPID
  5
421E
330
9
100
AcDbSymbolTableRecord
100
AcDbRegAppTableRecord
  2
GEVID1178790496
 70
     0
  0
APPID
  5
4387
330
9
100
AcDbSymbolTableRecord
100
AcDbRegAppTableRecord
  2
GEVID1178790497
 70
     0
  0
APPID
  5
4C4B
330
9
100
AcDbSymbolTableRecord
100
AcDbRegAppTableRecord
  2
GENIUS_GENREC_14
 70
     0
  0
APPID
  5
4C4C
330
9
100
AcDbSymbolTableRecord
100
AcDbRegAppTableRecord
  2
GENIUS_GENOBJ-N-REC_13
 70
     0
  0
APPID
  5
4D22
330
9
100
AcDbSymbolTableRecord
100
AcDbRegAppTableRecord
  2
AcAecLayerStandard
 70
     0
  0
APPID
  5
511D
330
9
100
AcDbSymbolTableRecord
100
AcDbRegAppTableRecord
  2
ACAD_PSEXT
 70
     0
  0
ENDTAB
  0
TABLE
  2
DIMSTYLE
  5
A
330
0
100
AcDbSymbolTable
 70
    10
100
AcDbDimStyleTable
 71
     2
340
6B
340
75
  0
DIMSTYLE
105
6B
330
A
100
AcDbSymbolTableRecord
100
AcDbDimStyleTableRecord
  2
AM_ISO
 70
     0
  4
"
 41
3.0
 42
1.0
 43
8.0
 44
1.5
 47
0.1
 48
0.1
 73
     0
 74
     0
 77
     1
 78
     8
 79
     2
140
3.5
141
3.0
143
0.0393701
146
0.71
147
0.8
172
     1
176
   256
177
   256
178
   256
271
     2
272
     2
283
     0
284
     8
340
11
371
    -1
372
    -1
  0
DIMSTYLE
105
6C
330
A
100
AcDbSymbolTableRecord
100
AcDbDimStyleTableRecord
  2
AM_ISO$3
 70
     0
  4
"
 41
3.0
 42
1.0
 43
8.0
 44
1.5
 47
0.1
 48
0.1
 73
     0
 77
     1
 78
     8
 79
     2
140
3.5
141
3.0
143
0.0393701
146
0.71
147
0.8
176
   256
177
   256
178
   256
271
     2
272
     2
283
     0
284
     8
288
     1
289
     0
340
11
371
    -1
372
    -1
  0
DIMSTYLE
105
6D
330
A
100
AcDbSymbolTableRecord
100
AcDbDimStyleTableRecord
  2
AM_ISO$4
 70
     0
  4
"
 41
3.0
 42
1.0
 43
8.0
 44
1.5
 47
0.1
 48
0.1
 73
     0
 77
     1
 78
     8
 79
     2
140
3.5
141
3.0
143
0.0393701
146
0.71
147
0.8
176
   256
177
   256
178
   256
271
     2
272
     2
283
     0
284
     8
288
     1
289
     0
340
11
371
    -1
372
    -1
  0
DIMSTYLE
105
6E
330
A
100
AcDbSymbolTableRecord
100
AcDbDimStyleTableRecord
  2
AM_ISO$6
 70
     0
  4
"
 41
3.0
 42
1.0
 43
8.0
 44
1.5
 47
0.1
 48
0.1
 73
     0
 74
     0
 78
     8
 79
     2
140
3.5
141
3.0
143
0.0393701
146
0.71
147
0.8
172
     1
176
   256
177
   256
178
   256
271
     2
272
     2
283
     0
284
     8
340
11
371
    -1
372
    -1
  0
DIMSTYLE
105
6F
330
A
100
AcDbSymbolTableRecord
100
AcDbDimStyleTableRecord
  2
AM_ISO$7
 70
     0
  4
"
 41
3.0
 42
1.0
 43
8.0
 44
1.5
 47
0.1
 48
0.1
 73
     0
 74
     0
 77
     1
 78
     8
 79
     2
140
5.0
141
3.0
143
0.0393701
146
0.71
147
0.8
172
     1
176
   256
177
   256
178
   256
271
     2
272
     2
283
     0
284
     8
340
11
371
    -1
372
    -1
  0
DIMSTYLE
105
70
330
A
100
AcDbSymbolTableRecord
100
AcDbDimStyleTableRecord
  2
AM_ISO$SF
 70
     0
  4
"
 41
2.5
 42
1.0
 43
10.0
 44
1.0
 47
0.1
 48
0.1
 73
     0
 74
     0
 75
     1
 76
     1
 77
     1
 78
     8
 79
     2
140
3.5
141
0.0
143
0.0393701
146
0.71
147
1.5
172
     1
176
   256
177
   256
178
     2
271
     2
272
     3
274
     4
283
     0
284
     8
340
11
371
    -1
372
    -1
  0
DIMSTYLE
105
75
330
A
100
AcDbSymbolTableRecord
100
AcDbDimStyleTableRecord
  2
AM_ISO$SH
 70
     0
  4
"
 41
2.5
 42
1.0
 43
10.0
 44
1.0
 47
0.1
 48
0.1
 73
     0
 74
     0
 75
     1
 76
     1
 77
     1
 78
     8
 79
     2
140
3.5
141
0.0
143
0.0393701
144
2.0
146
0.71
147
1.5
172
     1
173
     1
176
   256
177
   256
178
     2
271
     2
272
     3
274
     4
283
     0
284
     8
340
11
343
71
371
    -1
372
    -1
  0
DIMSTYLE
105
DB5
102
{ACAD_REACTORS
330
3597
330
359A
330
3599
330
3598
330
358E
330
358F
330
3590
330
360F
330
3607
330
360C
330
360A
330
35E6
330
35E8
330
35DE
330
3540
330
3554
330
3541
330
4452
330
4453
330
3EA1
102
}
330
A
100
AcDbSymbolTableRecord
100
AcDbDimStyleTableRecord
  2
AM_ISO$0
 70
     0
  4
"
 41
3.0
 42
1.0
 43
8.0
 44
1.5
 47
0.1
 48
0.1
 73
     0
 74
     0
 77
     1
 78
     8
 79
     2
140
3.5
141
3.0
143
0.0393701
146
0.71
147
0.8
172
     1
176
   256
177
   256
178
   256
271
     2
272
     2
283
     0
284
     8
340
11
371
    -1
372
    -1
  0
ENDTAB
  0
TABLE
  2
BLOCK_RECORD
  5
1
330
0
100
AcDbSymbolTable
 70
    39
  0
BLOCK_RECORD
  5
1F
102
{ACAD_XDICTIONARY
360
7D
102
}
330
1
100
AcDbSymbolTableRecord
100
AcDbBlockTableRecord
  2
*Model_Space
340
22
  0
BLOCK_RECORD
  5
1B
330
1
100
AcDbSymbolTableRecord
100
AcDbBlockTableRecord
  2
*Paper_Space
340
1E
  0
BLOCK_RECORD
  5
23
330
1
100
AcDbSymbolTableRecord
100
AcDbBlockTableRecord
  2
*Paper_Space0
340
26
  0
BLOCK_RECORD
  5
71
330
1
100
AcDbSymbolTableRecord
100
AcDbBlockTableRecord
  2
GENAXEH
340
0
  0
BLOCK_RECORD
  5
2BFB
330
1
100
AcDbSymbolTableRecord
100
AcDbBlockTableRecord
  2
*U4
340
0
  0
BLOCK_RECORD
  5
369B
330
1
100
AcDbSymbolTableRecord
100
AcDbBlockTableRecord
  2
*D5
340
0
  0
BLOCK_RECORD
  5
36A6
330
1
100
AcDbSymbolTableRecord
100
AcDbBlockTableRecord
  2
*D6
340
0
  0
BLOCK_RECORD
  5
36B2
330
1
100
AcDbSymbolTableRecord
100
AcDbBlockTableRecord
  2
*D7
340
0
  0
BLOCK_RECORD
  5
36FF
330
1
100
AcDbSymbolTableRecord
100
AcDbBlockTableRecord
  2
*D8
340
0
  0
BLOCK_RECORD
  5
370A
330
1
100
AcDbSymbolTableRecord
100
AcDbBlockTableRecord
  2
*D9
340
0
  0
BLOCK_RECORD
  5
3716
330
1
100
AcDbSymbolTableRecord
100
AcDbBlockTableRecord
  2
*D10
340
0
  0
BLOCK_RECORD
  5
3722
330
1
100
AcDbSymbolTableRecord
100
AcDbBlockTableRecord
  2
*D11
340
0
  0
BLOCK_RECORD
  5
372E
330
1
100
AcDbSymbolTableRecord
100
AcDbBlockTableRecord
  2
*D12
340
0
  0
BLOCK_RECORD
  5
373A
330
1
100
AcDbSymbolTableRecord
100
AcDbBlockTableRecord
  2
*D13
340
0
  0
BLOCK_RECORD
  5
3746
330
1
100
AcDbSymbolTableRecord
100
AcDbBlockTableRecord
  2
*D14
340
0
  0
BLOCK_RECORD
  5
3752
330
1
100
AcDbSymbolTableRecord
100
AcDbBlockTableRecord
  2
*D15
340
0
  0
BLOCK_RECORD
  5
3760
330
1
100
AcDbSymbolTableRecord
100
AcDbBlockTableRecord
  2
*D16
340
0
  0
BLOCK_RECORD
  5
376C
330
1
100
AcDbSymbolTableRecord
100
AcDbBlockTableRecord
  2
*D17
340
0
  0
BLOCK_RECORD
  5
3778
330
1
100
AcDbSymbolTableRecord
100
AcDbBlockTableRecord
  2
*D18
340
0
  0
BLOCK_RECORD
  5
3784
330
1
100
AcDbSymbolTableRecord
100
AcDbBlockTableRecord
  2
*D19
340
0
  0
BLOCK_RECORD
  5
3790
330
1
100
AcDbSymbolTableRecord
100
AcDbBlockTableRecord
  2
*D20
340
0
  0
BLOCK_RECORD
  5
379C
330
1
100
AcDbSymbolTableRecord
100
AcDbBlockTableRecord
  2
*D21
340
0
  0
BLOCK_RECORD
  5
3EC7
330
1
100
AcDbSymbolTableRecord
100
AcDbBlockTableRecord
  2
*D22
340
0
  0
BLOCK_RECORD
  5
432F
330
1
100
AcDbSymbolTableRecord
100
AcDbBlockTableRecord
  2
GENDOT
340
0
102
{BLKREFS
331
5549
331
5554
102
}
  0
BLOCK_RECORD
  5
4467
330
1
100
AcDbSymbolTableRecord
100
AcDbBlockTableRecord
  2
*D25
340
0
  0
BLOCK_RECORD
  5
4473
330
1
100
AcDbSymbolTableRecord
100
AcDbBlockTableRecord
  2
*D26
340
0
  0
BLOCK_RECORD
  5
55B6
330
1
100
AcDbSymbolTableRecord
100
AcDbBlockTableRecord
  2
*S31
340
0
  0
BLOCK_RECORD
  5
55BE
330
1
100
AcDbSymbolTableRecord
100
AcDbBlockTableRecord
  2
*S32
340
0
  0
BLOCK_RECORD
  5
55C6
330
1
100
AcDbSymbolTableRecord
100
AcDbBlockTableRecord
  2
*S33
340
0
  0
BLOCK_RECORD
  5
55CE
330
1
100
AcDbSymbolTableRecord
100
AcDbBlockTableRecord
  2
*S34
340
0
  0
BLOCK_RECORD
  5
55D6
330
1
100
AcDbSymbolTableRecord
100
AcDbBlockTableRecord
  2
*S35
340
0
  0
BLOCK_RECORD
  5
55DE
330
1
100
AcDbSymbolTableRecord
100
AcDbBlockTableRecord
  2
*S36
340
0
  0
BLOCK_RECORD
  5
55E6
330
1
100
AcDbSymbolTableRecord
100
AcDbBlockTableRecord
  2
*S37
340
0
  0
BLOCK_RECORD
  5
55EE
330
1
100
AcDbSymbolTableRecord
100
AcDbBlockTableRecord
  2
*S38
340
0
  0
ENDTAB
  0
ENDSEC
  0
SECTION
  2
BLOCKS
  0
BLOCK
  5
20
330
1F
100
AcDbEntity
  8
0
100
AcDbBlockBegin
  2
*Model_Space
 70
     0
 10
0.0
 20
0.0
 30
0.0
  3
*Model_Space
  1

  0
ENDBLK
  5
21
330
1F
100
AcDbEntity
  8
0
100
AcDbBlockEnd
  0
BLOCK
  5
1C
330
1B
100
AcDbEntity
 67
     1
  8
0
100
AcDbBlockBegin
  2
*Paper_Space
 70
     0
 10
0.0
 20
0.0
 30
0.0
  3
*Paper_Space
  1

  0
ENDBLK
  5
1D
330
1B
100
AcDbEntity
 67
     1
  8
0
100
AcDbBlockEnd
  0
BLOCK
  5
24
330
23
100
AcDbEntity
  8
0
100
AcDbBlockBegin
  2
*Paper_Space0
 70
     0
 10
0.0
 20
0.0
 30
0.0
  3
*Paper_Space0
  1

  0
ENDBLK
  5
25
330
23
100
AcDbEntity
  8
0
100
AcDbBlockEnd
  0
BLOCK
  5
73
330
71
100
AcDbEntity
  8
0
100
AcDbBlockBegin
  2
GENAXEH
 70
     0
 10
0.0
 20
0.0
 30
0.0
  3
GENAXEH
  1

  0
LINE
  5
72
330
71
100
AcDbEntity
  8
0
100
AcDbLine
 10
-1.0
 20
0.0
 30
0.0
 11
1.0
 21
0.0
 31
0.0
  0
ENDBLK
  5
74
330
71
100
AcDbEntity
  8
0
100
AcDbBlockEnd
  0
BLOCK
  5
2BFC
330
2BFB
100
AcDbEntity
  8
0
100
AcDbBlockBegin
  2
*U4
 70
     1
 10
0.0
 20
0.0
 30
0.0
  3
*U4
  1

  0
ENDBLK
  5
2BFD
330
2BFB
100
AcDbEntity
  8
0
100
AcDbBlockEnd
  0
BLOCK
  5
36A4
330
369B
100
AcDbEntity
  8
0
100
AcDbBlockBegin
  2
*D5
 70
     1
 10
0.0
 20
0.0
 30
0.0
  3
*D5
  1

  0
LINE
  5
549D
330
369B
100
AcDbEntity
  8
AM_5
100
AcDbLine
 10
809.0723234671296
 20
89.35880070241593
 30
0.0
 11
809.0723234671296
 21
89.85880070241591
 31
0.0
  0
LINE
  5
549E
330
369B
100
AcDbEntity
  8
AM_5
100
AcDbLine
 10
784.0723234671295
 20
107.1130696773317
 30
0.0
 11
784.0723234671295
 21
86.85880070241593
 31
0.0
  0
LINE
  5
549F
330
369B
100
AcDbEntity
  8
AM_5
100
AcDbLine
 10
806.0723234671295
 20
88.35880070241591
 30
0.0
 11
787.0723234671295
 21
88.35880070241591
 31
0.0
  0
SOLID
  5
54A0
330
369B
100
AcDbEntity
  8
AM_5
100
AcDbTrace
 10
806.0723234671295
 20
88.85880070241592
 30
0.0
 11
806.0723234671295
 21
87.85880070241592
 31
0.0
 12
809.0723234671296
 22
88.35880070241591
 32
0.0
 13
809.0723234671296
 23
88.35880070241591
 33
0.0
  0
SOLID
  5
54A1
330
369B
100
AcDbEntity
  8
AM_5
100
AcDbTrace
 10
787.0723234671295
 20
88.85880070241592
 30
0.0
 11
787.0723234671295
 21
87.85880070241592
 31
0.0
 12
784.0723234671295
 22
88.35880070241591
 32
0.0
 13
784.0723234671295
 23
88.35880070241591
 33
0.0
  0
MTEXT
  5
54A2
330
369B
100
AcDbEntity
  8
AM_5
100
AcDbMText
 10
796.5723234671295
 20
90.9091451906049
 30
0.0
 40
3.5
 41
0.0
 71
     5
 72
     1
  1
25
 73
     1
 44
1.0
1001
ACAD
1000
MTEXTBEGIN
1070
    73
1070
     1
1070
    44
1040
1.0
1070
    74
1070
     0
1000
MTEXTEND
  0
POINT
  5
54A3
330
369B
100
AcDbEntity
  8
Defpoints
 62
     0
100
AcDbPoint
 10
809.0723234671296
 20
88.35880070241591
 30
0.0
  0
POINT
  5
54A4
330
369B
100
AcDbEntity
  8
Defpoints
 62
     0
100
AcDbPoint
 10
784.0723234671295
 20
108.1130696773317
 30
0.0
  0
POINT
  5
54A5
330
369B
100
AcDbEntity
  8
Defpoints
 62
     0
100
AcDbPoint
 10
784.0723234671295
 20
88.35880070241591
 30
0.0
  0
ENDBLK
  5
36A5
330
369B
100
AcDbEntity
  8
0
100
AcDbBlockEnd
  0
BLOCK
  5
36B0
330
36A6
100
AcDbEntity
  8
0
100
AcDbBlockBegin
  2
*D6
 70
     1
 10
0.0
 20
0.0
 30
0.0
  3
*D6
  1

  0
LINE
  5
54A6
330
36A6
100
AcDbEntity
  8
AM_5
100
AcDbLine
 10
789.7390714671295
 20
111.9783036773317
 30
0.0
 11
828.3767450215826
 21
111.9783036773317
 31
0.0
  0
LINE
  5
54A7
330
36A6
100
AcDbEntity
  8
AM_5
100
AcDbLine
 10
813.8025484671295
 20
103.9783036773317
 30
0.0
 11
828.3767450215826
 21
103.9783036773317
 31
0.0
  0
LINE
  5
54A8
330
36A6
100
AcDbEntity
  8
AM_5
100
AcDbLine
 10
826.8767450215825
 20
108.9783036773317
 30
0.0
 11
826.8767450215825
 21
106.9783036773317
 31
0.0
  0
SOLID
  5
54A9
330
36A6
100
AcDbEntity
  8
AM_5
100
AcDbTrace
 10
826.3767450215825
 20
108.9783036773317
 30
0.0
 11
827.3767450215824
 21
108.9783036773317
 31
0.0
 12
826.8767450215825
 22
111.9783036773317
 32
0.0
 13
826.8767450215825
 23
111.9783036773317
 33
0.0
  0
SOLID
  5
54AA
330
36A6
100
AcDbEntity
  8
AM_5
100
AcDbTrace
 10
826.3767450215825
 20
106.9783036773317
 30
0.0
 11
827.3767450215824
 21
106.9783036773317
 31
0.0
 12
826.8767450215825
 22
103.9783036773317
 32
0.0
 13
826.8767450215825
 23
103.9783036773317
 33
0.0
  0
MTEXT
  5
54AB
330
36A6
100
AcDbEntity
  8
AM_5
100
AcDbMText
 10
824.3267450215826
 20
107.9783036773318
 30
0.0
 40
3.5
 41
0.0
 71
     5
 72
     1
  1
8
 11
0.0000000000000001
 21
1.0
 31
0.0
 73
     1
 44
1.0
1001
ACAD
1000
MTEXTBEGIN
1070
    73
1070
     1
1070
    44
1040
1.0
1070
    74
1070
     0
1000
MTEXTEND
  0
POINT
  5
54AC
330
36A6
100
AcDbEntity
  8
Defpoints
 62
     0
100
AcDbPoint
 10
788.7390714671295
 20
111.9783036773317
 30
0.0
  0
POINT
  5
54AD
330
36A6
100
AcDbEntity
  8
Defpoints
 62
     0
100
AcDbPoint
 10
812.8025484671296
 20
103.9783036773317
 30
0.0
  0
POINT
  5
54AE
330
36A6
100
AcDbEntity
  8
Defpoints
 62
     0
100
AcDbPoint
 10
826.8767450215825
 20
103.9783036773317
 30
0.0
  0
ENDBLK
  5
36B1
330
36A6
100
AcDbEntity
  8
0
100
AcDbBlockEnd
  0
BLOCK
  5
36BC
330
36B2
100
AcDbEntity
  8
0
100
AcDbBlockBegin
  2
*D7
 70
     1
 10
0.0
 20
0.0
 30
0.0
  3
*D7
  1

  0
LINE
  5
54AF
330
36B2
100
AcDbEntity
  8
AM_5
100
AcDbLine
 10
816.0723234671294
 20
96.97830367733173
 30
0.0
 11
816.0723234671294
 21
86.85880070241593
 31
0.0
  0
LINE
  5
54B0
330
36B2
100
AcDbEntity
  8
AM_5
100
AcDbLine
 10
809.0723234671296
 20
99.71316667733171
 30
0.0
 11
809.0723234671296
 21
86.85880070241593
 31
0.0
  0
LINE
  5
54B1
330
36B2
100
AcDbEntity
  8
AM_5
100
AcDbLine
 10
819.0723234671295
 20
88.35880070241591
 30
0.0
 11
822.0723234671295
 21
88.35880070241591
 31
0.0
  0
LINE
  5
54B2
330
36B2
100
AcDbEntity
  8
AM_5
100
AcDbLine
 10
806.0723234671295
 20
88.35880070241591
 30
0.0
 11
803.0723234671295
 21
88.35880070241591
 31
0.0
  0
LINE
  5
54B3
330
36B2
100
AcDbEntity
  8
AM_5
100
AcDbLine
 10
816.0723234671294
 20
88.35880070241591
 30
0.0
 11
809.0723234671296
 21
88.35880070241591
 31
0.0
  0
SOLID
  5
54B4
330
36B2
100
AcDbEntity
  8
AM_5
100
AcDbTrace
 10
819.0723234671295
 20
88.85880070241592
 30
0.0
 11
819.0723234671295
 21
87.85880070241592
 31
0.0
 12
816.0723234671294
 22
88.35880070241591
 32
0.0
 13
816.0723234671294
 23
88.35880070241591
 33
0.0
  0
SOLID
  5
54B5
330
36B2
100
AcDbEntity
  8
AM_5
100
AcDbTrace
 10
806.0723234671295
 20
88.85880070241592
 30
0.0
 11
806.0723234671295
 21
87.85880070241592
 31
0.0
 12
809.0723234671296
 22
88.35880070241591
 32
0.0
 13
809.0723234671296
 23
88.35880070241591
 33
0.0
  0
MTEXT
  5
54B6
330
36B2
100
AcDbEntity
  8
AM_5
100
AcDbMText
 10
812.5723234671294
 20
90.90880070241592
 30
0.0
 40
3.5
 41
0.0
 71
     5
 72
     1
  1
7
 73
     1
 44
1.0
1001
ACAD
1000
MTEXTBEGIN
1070
    73
1070
     1
1070
    44
1040
1.0
1070
    74
1070
     0
1000
MTEXTEND
  0
POINT
  5
54B7
330
36B2
100
AcDbEntity
  8
Defpoints
 62
     0
100
AcDbPoint
 10
816.0723234671294
 20
97.97830367733173
 30
0.0
  0
POINT
  5
54B8
330
36B2
100
AcDbEntity
  8
Defpoints
 62
     0
100
AcDbPoint
 10
809.0723234671296
 20
100.7131666773317
 30
0.0
  0
POINT
  5
54B9
330
36B2
100
AcDbEntity
  8
Defpoints
 62
     0
100
AcDbPoint
 10
809.0723234671296
 20
88.35880070241591
 30
0.0
  0
ENDBLK
  5
36BD
330
36B2
100
AcDbEntity
  8
0
100
AcDbBlockEnd
  0
BLOCK
  5
3708
330
36FF
100
AcDbEntity
  8
0
100
AcDbBlockBegin
  2
*D8
 70
     1
 10
0.0
 20
0.0
 30
0.0
  3
*D8
  1

  0
LINE
  5
54BA
330
36FF
100
AcDbEntity
  8
AM_5
100
AcDbLine
 10
757.0723234671295
 20
193.2961506957144
 30
0.0
 11
722.6478694671295
 21
193.2961506957144
 31
0.0
  0
LINE
  5
54BB
330
36FF
100
AcDbEntity
  8
AM_5
100
AcDbLine
 10
757.0723234671295
 20
164.7962116957145
 30
0.0
 11
722.6478694671295
 21
164.7962116957145
 31
0.0
  0
LINE
  5
54BC
330
36FF
100
AcDbEntity
  8
AM_5
100
AcDbLine
 10
724.1478694671295
 20
190.2961506957144
 30
0.0
 11
724.1478694671295
 21
167.7962116957145
 31
0.0
  0
SOLID
  5
54BD
330
36FF
100
AcDbEntity
  8
AM_5
100
AcDbTrace
 10
723.6478694671295
 20
190.2961506957144
 30
0.0
 11
724.6478694671296
 21
190.2961506957144
 31
0.0
 12
724.1478694671295
 22
193.2961506957144
 32
0.0
 13
724.1478694671295
 23
193.2961506957144
 33
0.0
  0
SOLID
  5
54BE
330
36FF
100
AcDbEntity
  8
AM_5
100
AcDbTrace
 10
723.6478694671295
 20
167.7962116957145
 30
0.0
 11
724.6478694671296
 21
167.7962116957145
 31
0.0
 12
724.1478694671295
 22
164.7962116957145
 32
0.0
 13
724.1478694671295
 23
164.7962116957145
 33
0.0
  0
MTEXT
  5
54BF
330
36FF
100
AcDbEntity
  8
AM_5
100
AcDbMText
 10
721.5975249789405
 20
179.0461811957146
 30
0.0
 40
3.5
 41
0.0
 71
     5
 72
     1
  1
28.5
 11
0.0000000000000001
 21
1.0
 31
0.0
 73
     1
 44
1.0
1001
ACAD
1000
MTEXTBEGIN
1070
    73
1070
     1
1070
    44
1040
1.0
1070
    74
1070
     0
1000
MTEXTEND
  0
POINT
  5
54C0
330
36FF
100
AcDbEntity
  8
Defpoints
 62
     0
100
AcDbPoint
 10
758.0723234671295
 20
193.2961506957144
 30
0.0
  0
POINT
  5
54C1
330
36FF
100
AcDbEntity
  8
Defpoints
 62
     0
100
AcDbPoint
 10
758.0723234671295
 20
164.7962116957145
 30
0.0
  0
POINT
  5
54C2
330
36FF
100
AcDbEntity
  8
Defpoints
 62
     0
100
AcDbPoint
 10
724.1478694671295
 20
164.7962116957145
 30
0.0
  0
ENDBLK
  5
3709
330
36FF
100
AcDbEntity
  8
0
100
AcDbBlockEnd
  0
BLOCK
  5
3714
330
370A
100
AcDbEntity
  8
0
100
AcDbBlockBegin
  2
*D9
 70
     1
 10
0.0
 20
0.0
 30
0.0
  3
*D9
  1

  0
LINE
  5
54C3
330
370A
100
AcDbEntity
  8
AM_5
100
AcDbLine
 10
757.0723234671295
 20
221.2961506957145
 30
0.0
 11
722.6478694671295
 21
221.2961506957145
 31
0.0
  0
LINE
  5
54C4
330
370A
100
AcDbEntity
  8
AM_5
100
AcDbLine
 10
757.0723234671295
 20
193.2961506957144
 30
0.0
 11
722.6478694671295
 21
193.2961506957144
 31
0.0
  0
LINE
  5
54C5
330
370A
100
AcDbEntity
  8
AM_5
100
AcDbLine
 10
724.1478694671295
 20
218.2961506957145
 30
0.0
 11
724.1478694671295
 21
196.2961506957144
 31
0.0
  0
SOLID
  5
54C6
330
370A
100
AcDbEntity
  8
AM_5
100
AcDbTrace
 10
723.6478694671295
 20
218.2961506957145
 30
0.0
 11
724.6478694671296
 21
218.2961506957145
 31
0.0
 12
724.1478694671295
 22
221.2961506957145
 32
0.0
 13
724.1478694671295
 23
221.2961506957145
 33
0.0
  0
SOLID
  5
54C7
330
370A
100
AcDbEntity
  8
AM_5
100
AcDbTrace
 10
723.6478694671295
 20
196.2961506957144
 30
0.0
 11
724.6478694671296
 21
196.2961506957144
 31
0.0
 12
724.1478694671295
 22
193.2961506957144
 32
0.0
 13
724.1478694671295
 23
193.2961506957144
 33
0.0
  0
MTEXT
  5
54C8
330
370A
100
AcDbEntity
  8
AM_5
100
AcDbMText
 10
721.5975249789405
 20
207.2961506957146
 30
0.0
 40
3.5
 41
0.0
 71
     5
 72
     1
  1
28
 11
0.0000000000000001
 21
1.0
 31
0.0
 73
     1
 44
1.0
1001
ACAD
1000
MTEXTBEGIN
1070
    73
1070
     1
1070
    44
1040
1.0
1070
    74
1070
     0
1000
MTEXTEND
  0
POINT
  5
54C9
330
370A
100
AcDbEntity
  8
Defpoints
 62
     0
100
AcDbPoint
 10
758.0723234671295
 20
221.2961506957145
 30
0.0
  0
POINT
  5
54CA
330
370A
100
AcDbEntity
  8
Defpoints
 62
     0
100
AcDbPoint
 10
758.0723234671295
 20
193.2961506957144
 30
0.0
  0
POINT
  5
54CB
330
370A
100
AcDbEntity
  8
Defpoints
 62
     0
100
AcDbPoint
 10
724.1478694671295
 20
193.2961506957144
 30
0.0
  0
ENDBLK
  5
3715
330
370A
100
AcDbEntity
  8
0
100
AcDbBlockEnd
  0
BLOCK
  5
3720
330
3716
100
AcDbEntity
  8
0
100
AcDbBlockBegin
  2
*D10
 70
     1
 10
0.0
 20
0.0
 30
0.0
  3
*D10
  1

  0
LINE
  5
54CC
330
3716
100
AcDbEntity
  8
AM_5
100
AcDbLine
 10
800.5669524671295
 20
222.2961506957144
 30
0.0
 11
828.1189544671295
 21
222.2961506957144
 31
0.0
  0
LINE
  5
54CD
330
3716
100
AcDbEntity
  8
AM_5
100
AcDbLine
 10
800.5669524671295
 20
192.2961506957144
 30
0.0
 11
828.1189544671295
 21
192.2961506957144
 31
0.0
  0
LINE
  5
54CE
330
3716
100
AcDbEntity
  8
AM_5
100
AcDbLine
 10
826.6189544671295
 20
219.2961506957145
 30
0.0
 11
826.6189544671295
 21
195.2961506957144
 31
0.0
  0
SOLID
  5
54CF
330
3716
100
AcDbEntity
  8
AM_5
100
AcDbTrace
 10
826.1189544671296
 20
219.2961506957145
 30
0.0
 11
827.1189544671296
 21
219.2961506957145
 31
0.0
 12
826.6189544671295
 22
222.2961506957144
 32
0.0
 13
826.6189544671295
 23
222.2961506957144
 33
0.0
  0
SOLID
  5
54D0
330
3716
100
AcDbEntity
  8
AM_5
100
AcDbTrace
 10
826.1189544671296
 20
195.2961506957144
 30
0.0
 11
827.1189544671296
 21
195.2961506957144
 31
0.0
 12
826.6189544671295
 22
192.2961506957144
 32
0.0
 13
826.6189544671295
 23
192.2961506957144
 33
0.0
  0
MTEXT
  5
54D1
330
3716
100
AcDbEntity
  8
AM_5
100
AcDbMText
 10
824.0689544671296
 20
207.2961506957146
 30
0.0
 40
3.5
 41
0.0
 71
     5
 72
     1
  1
30
 11
0.0000000000000001
 21
1.0
 31
0.0
 73
     1
 44
1.0
1001
ACAD
1000
MTEXTBEGIN
1070
    73
1070
     1
1070
    44
1040
1.0
1070
    74
1070
     0
1000
MTEXTEND
  0
POINT
  5
54D2
330
3716
100
AcDbEntity
  8
Defpoints
 62
     0
100
AcDbPoint
 10
799.5669524671296
 20
222.2961506957144
 30
0.0
  0
POINT
  5
54D3
330
3716
100
AcDbEntity
  8
Defpoints
 62
     0
100
AcDbPoint
 10
799.5669524671296
 20
192.2961506957144
 30
0.0
  0
POINT
  5
54D4
330
3716
100
AcDbEntity
  8
Defpoints
 62
     0
100
AcDbPoint
 10
826.6189544671295
 20
192.2961506957144
 30
0.0
  0
ENDBLK
  5
3721
330
3716
100
AcDbEntity
  8
0
100
AcDbBlockEnd
  0
BLOCK
  5
372C
330
3722
100
AcDbEntity
  8
0
100
AcDbBlockBegin
  2
*D11
 70
     1
 10
0.0
 20
0.0
 30
0.0
  3
*D11
  1

  0
LINE
  5
54D5
330
3722
100
AcDbEntity
  8
AM_5
100
AcDbLine
 10
796.0723234671295
 20
188.0661706957144
 30
0.0
 11
796.0723234671295
 21
170.2825918212237
 31
0.0
  0
LINE
  5
54D6
330
3722
100
AcDbEntity
  8
AM_5
100
AcDbLine
 10
816.0723234671294
 20
187.2963946957144
 30
0.0
 11
816.0723234671294
 21
170.2825918212237
 31
0.0
  0
LINE
  5
54D7
330
3722
100
AcDbEntity
  8
AM_5
100
AcDbLine
 10
799.0723234671295
 20
171.7825918212237
 30
0.0
 11
813.0723234671295
 21
171.7825918212237
 31
0.0
  0
SOLID
  5
54D8
330
3722
100
AcDbEntity
  8
AM_5
100
AcDbTrace
 10
799.0723234671295
 20
172.2825918212237
 30
0.0
 11
799.0723234671295
 21
171.2825918212237
 31
0.0
 12
796.0723234671295
 22
171.7825918212237
 32
0.0
 13
796.0723234671295
 23
171.7825918212237
 33
0.0
  0
SOLID
  5
54D9
330
3722
100
AcDbEntity
  8
AM_5
100
AcDbTrace
 10
813.0723234671295
 20
172.2825918212237
 30
0.0
 11
813.0723234671295
 21
171.2825918212237
 31
0.0
 12
816.0723234671294
 22
171.7825918212237
 32
0.0
 13
816.0723234671294
 23
171.7825918212237
 33
0.0
  0
MTEXT
  5
54DA
330
3722
100
AcDbEntity
  8
AM_5
100
AcDbMText
 10
806.0723234671295
 20
174.3329363094127
 30
0.0
 40
3.5
 41
0.0
 71
     5
 72
     1
  1
20
 73
     1
 44
1.0
1001
ACAD
1000
MTEXTBEGIN
1070
    73
1070
     1
1070
    44
1040
1.0
1070
    74
1070
     0
1000
MTEXTEND
  0
POINT
  5
54DB
330
3722
100
AcDbEntity
  8
Defpoints
 62
     0
100
AcDbPoint
 10
796.0723234671295
 20
189.0661706957144
 30
0.0
  0
POINT
  5
54DC
330
3722
100
AcDbEntity
  8
Defpoints
 62
     0
100
AcDbPoint
 10
816.0723234671294
 20
188.2963946957144
 30
0.0
  0
POINT
  5
54DD
330
3722
100
AcDbEntity
  8
Defpoints
 62
     0
100
AcDbPoint
 10
816.0723234671294
 20
171.7825918212237
 30
0.0
  0
ENDBLK
  5
372D
330
3722
100
AcDbEntity
  8
0
100
AcDbBlockEnd
  0
BLOCK
  5
3738
330
372E
100
AcDbEntity
  8
0
100
AcDbBlockBegin
  2
*D12
 70
     1
 10
0.0
 20
0.0
 30
0.0
  3
*D12
  1

  0
LINE
  5
54DE
330
372E
100
AcDbEntity
  8
AM_5
100
AcDbLine
 10
816.0723234671294
 20
160.9020489925951
 30
0.0
 11
816.0723234671294
 21
146.2825918212237
 31
0.0
  0
LINE
  5
54DF
330
372E
100
AcDbEntity
  8
AM_5
100
AcDbLine
 10
747.0723234671295
 20
187.7963946957144
 30
0.0
 11
747.0723234671295
 21
146.2825918212237
 31
0.0
  0
LINE
  5
54E0
330
372E
100
AcDbEntity
  8
AM_5
100
AcDbLine
 10
813.0723234671295
 20
147.7825918212237
 30
0.0
 11
750.0723234671295
 21
147.7825918212237
 31
0.0
  0
SOLID
  5
54E1
330
372E
100
AcDbEntity
  8
AM_5
100
AcDbTrace
 10
813.0723234671295
 20
148.2825918212237
 30
0.0
 11
813.0723234671295
 21
147.2825918212237
 31
0.0
 12
816.0723234671294
 22
147.7825918212237
 32
0.0
 13
816.0723234671294
 23
147.7825918212237
 33
0.0
  0
SOLID
  5
54E2
330
372E
100
AcDbEntity
  8
AM_5
100
AcDbTrace
 10
750.0723234671295
 20
148.2825918212237
 30
0.0
 11
750.0723234671295
 21
147.2825918212237
 31
0.0
 12
747.0723234671295
 22
147.7825918212237
 32
0.0
 13
747.0723234671295
 23
147.7825918212237
 33
0.0
  0
MTEXT
  5
54E3
330
372E
100
AcDbEntity
  8
AM_5
100
AcDbMText
 10
781.5723234671295
 20
150.3325918212237
 30
0.0
 40
3.5
 41
0.0
 71
     5
 72
     1
  1
69
 73
     1
 44
1.0
1001
ACAD
1000
MTEXTBEGIN
1070
    73
1070
     1
1070
    44
1040
1.0
1070
    74
1070
     0
1000
MTEXTEND
  0
POINT
  5
54E4
330
372E
100
AcDbEntity
  8
Defpoints
 62
     0
100
AcDbPoint
 10
816.0723234671294
 20
161.9020489925951
 30
0.0
  0
POINT
  5
54E5
330
372E
100
AcDbEntity
  8
Defpoints
 62
     0
100
AcDbPoint
 10
747.0723234671295
 20
188.7963946957144
 30
0.0
  0
POINT
  5
54E6
330
372E
100
AcDbEntity
  8
Defpoints
 62
     0
100
AcDbPoint
 10
747.0723234671295
 20
147.7825918212237
 30
0.0
  0
ENDBLK
  5
3739
330
372E
100
AcDbEntity
  8
0
100
AcDbBlockEnd
  0
BLOCK
  5
3744
330
373A
100
AcDbEntity
  8
0
100
AcDbBlockBegin
  2
*D13
 70
     1
 10
0.0
 20
0.0
 30
0.0
  3
*D13
  1

  0
LINE
  5
54E7
330
373A
100
AcDbEntity
  8
AM_5
100
AcDbLine
 10
760.5723234671295
 20
189.4509356957144
 30
0.0
 11
760.5723234671295
 21
154.2825918212237
 31
0.0
  0
LINE
  5
54E8
330
373A
100
AcDbEntity
  8
AM_5
100
AcDbLine
 10
816.0723234671294
 20
171.1393753336931
 30
0.0
 11
816.0723234671294
 21
154.2825918212237
 31
0.0
  0
LINE
  5
54E9
330
373A
100
AcDbEntity
  8
AM_5
100
AcDbLine
 10
763.5723234671295
 20
155.7825918212237
 30
0.0
 11
813.0723234671295
 21
155.7825918212237
 31
0.0
  0
SOLID
  5
54EA
330
373A
100
AcDbEntity
  8
AM_5
100
AcDbTrace
 10
763.5723234671295
 20
156.2825918212237
 30
0.0
 11
763.5723234671295
 21
155.2825918212237
 31
0.0
 12
760.5723234671295
 22
155.7825918212237
 32
0.0
 13
760.5723234671295
 23
155.7825918212237
 33
0.0
  0
SOLID
  5
54EB
330
373A
100
AcDbEntity
  8
AM_5
100
AcDbTrace
 10
813.0723234671295
 20
156.2825918212237
 30
0.0
 11
813.0723234671295
 21
155.2825918212237
 31
0.0
 12
816.0723234671294
 22
155.7825918212237
 32
0.0
 13
816.0723234671294
 23
155.7825918212237
 33
0.0
  0
MTEXT
  5
54EC
330
373A
100
AcDbEntity
  8
AM_5
100
AcDbMText
 10
788.3223234671295
 20
158.3325918212237
 30
0.0
 40
3.5
 41
0.0
 71
     5
 72
     1
  1
55.5
 73
     1
 44
1.0
1001
ACAD
1000
MTEXTBEGIN
1070
    73
1070
     1
1070
    44
1040
1.0
1070
    74
1070
     0
1000
MTEXTEND
  0
POINT
  5
54ED
330
373A
100
AcDbEntity
  8
Defpoints
 62
     0
100
AcDbPoint
 10
760.5723234671295
 20
190.4509356957144
 30
0.0
  0
POINT
  5
54EE
330
373A
100
AcDbEntity
  8
Defpoints
 62
     0
100
AcDbPoint
 10
816.0723234671294
 20
172.1393753336931
 30
0.0
  0
POINT
  5
54EF
330
373A
100
AcDbEntity
  8
Defpoints
 62
     0
100
AcDbPoint
 10
816.0723234671294
 20
155.7825918212237
 30
0.0
  0
ENDBLK
  5
3745
330
373A
100
AcDbEntity
  8
0
100
AcDbBlockEnd
  0
BLOCK
  5
3750
330
3746
100
AcDbEntity
  8
0
100
AcDbBlockBegin
  2
*D14
 70
     1
 10
0.0
 20
0.0
 30
0.0
  3
*D14
  1

  0
LINE
  5
54F0
330
3746
100
AcDbEntity
  8
AM_5
100
AcDbLine
 10
775.0723234671295
 20
188.1545486957144
 30
0.0
 11
775.0723234671295
 21
162.2825918212237
 31
0.0
  0
LINE
  5
54F1
330
3746
100
AcDbEntity
  8
AM_5
100
AcDbLine
 10
816.0723234671294
 20
178.1034611553586
 30
0.0
 11
816.0723234671294
 21
162.2825918212237
 31
0.0
  0
LINE
  5
54F2
330
3746
100
AcDbEntity
  8
AM_5
100
AcDbLine
 10
778.0723234671295
 20
163.7825918212237
 30
0.0
 11
813.0723234671295
 21
163.7825918212237
 31
0.0
  0
SOLID
  5
54F3
330
3746
100
AcDbEntity
  8
AM_5
100
AcDbTrace
 10
778.0723234671295
 20
164.2825918212237
 30
0.0
 11
778.0723234671295
 21
163.2825918212237
 31
0.0
 12
775.0723234671295
 22
163.7825918212237
 32
0.0
 13
775.0723234671295
 23
163.7825918212237
 33
0.0
  0
SOLID
  5
54F4
330
3746
100
AcDbEntity
  8
AM_5
100
AcDbTrace
 10
813.0723234671295
 20
164.2825918212237
 30
0.0
 11
813.0723234671295
 21
163.2825918212237
 31
0.0
 12
816.0723234671294
 22
163.7825918212237
 32
0.0
 13
816.0723234671294
 23
163.7825918212237
 33
0.0
  0
MTEXT
  5
54F5
330
3746
100
AcDbEntity
  8
AM_5
100
AcDbMText
 10
795.5723234671295
 20
166.3325918212237
 30
0.0
 40
3.5
 41
0.0
 71
     5
 72
     1
  1
41
 73
     1
 44
1.0
1001
ACAD
1000
MTEXTBEGIN
1070
    73
1070
     1
1070
    44
1040
1.0
1070
    74
1070
     0
1000
MTEXTEND
  0
POINT
  5
54F6
330
3746
100
AcDbEntity
  8
Defpoints
 62
     0
100
AcDbPoint
 10
775.0723234671295
 20
189.1545486957144
 30
0.0
  0
POINT
  5
54F7
330
3746
100
AcDbEntity
  8
Defpoints
 62
     0
100
AcDbPoint
 10
816.0723234671294
 20
179.1034611553586
 30
0.0
  0
POINT
  5
54F8
330
3746
100
AcDbEntity
  8
Defpoints
 62
     0
100
AcDbPoint
 10
816.0723234671294
 20
163.7825918212237
 30
0.0
  0
ENDBLK
  5
3751
330
3746
100
AcDbEntity
  8
0
100
AcDbBlockEnd
  0
BLOCK
  5
375E
330
3752
100
AcDbEntity
  8
0
100
AcDbBlockBegin
  2
*D15
 70
     1
 10
0.0
 20
0.0
 30
0.0
  3
*D15
  1

  0
LINE
  5
54F9
330
3752
100
AcDbEntity
  8
AM_5
100
AcDbLine
 10
758.0723234671295
 20
250.7961506957145
 30
0.0
 11
758.0723234671295
 21
259.2961506957145
 31
0.0
  0
LINE
  5
54FA
330
3752
100
AcDbEntity
  8
AM_5
100
AcDbLine
 10
763.0723234671295
 20
250.7961506957145
 30
0.0
 11
763.0723234671295
 21
259.2961506957145
 31
0.0
  0
LINE
  5
54FB
330
3752
100
AcDbEntity
  8
AM_5
100
AcDbLine
 10
755.0723234671295
 20
257.7961506957144
 30
0.0
 11
752.0723234671295
 21
257.7961506957144
 31
0.0
  0
LINE
  5
54FC
330
3752
100
AcDbEntity
  8
AM_5
100
AcDbLine
 10
766.0723234671295
 20
257.7961506957144
 30
0.0
 11
769.0723234671295
 21
257.7961506957144
 31
0.0
  0
LINE
  5
54FD
330
3752
100
AcDbEntity
  8
AM_5
100
AcDbLine
 10
758.0723234671295
 20
257.7961506957144
 30
0.0
 11
763.0723234671295
 21
257.7961506957144
 31
0.0
  0
SOLID
  5
54FE
330
3752
100
AcDbEntity
  8
AM_5
100
AcDbTrace
 10
755.0723234671295
 20
258.2961506957145
 30
0.0
 11
755.0723234671295
 21
257.2961506957144
 31
0.0
 12
758.0723234671295
 22
257.7961506957144
 32
0.0
 13
758.0723234671295
 23
257.7961506957144
 33
0.0
  0
SOLID
  5
54FF
330
3752
100
AcDbEntity
  8
AM_5
100
AcDbTrace
 10
766.0723234671295
 20
258.2961506957145
 30
0.0
 11
766.0723234671295
 21
257.2961506957144
 31
0.0
 12
763.0723234671295
 22
257.7961506957144
 32
0.0
 13
763.0723234671295
 23
257.7961506957144
 33
0.0
  0
MTEXT
  5
5500
330
3752
100
AcDbEntity
  8
AM_5
100
AcDbMText
 10
760.5723234671295
 20
260.3461506957145
 30
0.0
 40
3.5
 41
0.0
 71
     5
 72
     1
  1
5
 73
     1
 44
1.0
1001
ACAD
1000
MTEXTBEGIN
1070
    73
1070
     1
1070
    44
1040
1.0
1070
    74
1070
     0
1000
MTEXTEND
  0
POINT
  5
5501
330
3752
100
AcDbEntity
  8
Defpoints
 62
     0
100
AcDbPoint
 10
758.0723234671295
 20
249.7961506957145
 30
0.0
  0
POINT
  5
5502
330
3752
100
AcDbEntity
  8
Defpoints
 62
     0
100
AcDbPoint
 10
763.0723234671295
 20
249.7961506957145
 30
0.0
  0
POINT
  5
5503
330
3752
100
AcDbEntity
  8
Defpoints
 62
     0
100
AcDbPoint
 10
763.0723234671295
 20
257.7961506957144
 30
0.0
  0
ENDBLK
  5
375F
330
3752
100
AcDbEntity
  8
0
100
AcDbBlockEnd
  0
BLOCK
  5
376A
330
3760
100
AcDbEntity
  8
0
100
AcDbBlockBegin
  2
*D16
 70
     1
 10
0.0
 20
0.0
 30
0.0
  3
*D16
  1

  0
LINE
  5
5504
330
3760
100
AcDbEntity
  8
AM_5
100
AcDbLine
 10
783.0723234671295
 20
281.2024011978547
 30
0.0
 11
783.0723234671295
 21
271.7024011978547
 31
0.0
  0
LINE
  5
5505
330
3760
100
AcDbEntity
  8
AM_5
100
AcDbLine
 10
816.0723234671294
 20
280.2024011978547
 30
0.0
 11
816.0723234671294
 21
271.7024011978547
 31
0.0
  0
LINE
  5
5506
330
3760
100
AcDbEntity
  8
AM_5
100
AcDbLine
 10
786.0723234671295
 20
273.2024011978547
 30
0.0
 11
813.0723234671295
 21
273.2024011978547
 31
0.0
  0
SOLID
  5
5507
330
3760
100
AcDbEntity
  8
AM_5
100
AcDbTrace
 10
786.0723234671295
 20
273.7024011978547
 30
0.0
 11
786.0723234671295
 21
272.7024011978547
 31
0.0
 12
783.0723234671295
 22
273.2024011978547
 32
0.0
 13
783.0723234671295
 23
273.2024011978547
 33
0.0
  0
SOLID
  5
5508
330
3760
100
AcDbEntity
  8
AM_5
100
AcDbTrace
 10
813.0723234671295
 20
273.7024011978547
 30
0.0
 11
813.0723234671295
 21
272.7024011978547
 31
0.0
 12
816.0723234671294
 22
273.2024011978547
 32
0.0
 13
816.0723234671294
 23
273.2024011978547
 33
0.0
  0
MTEXT
  5
5509
330
3760
100
AcDbEntity
  8
AM_5
100
AcDbMText
 10
799.5723234671295
 20
275.7524011978547
 30
0.0
 40
3.5
 41
0.0
 71
     5
 72
     1
  1
33
 73
     1
 44
1.0
1001
ACAD
1000
MTEXTBEGIN
1070
    73
1070
     1
1070
    44
1040
1.0
1070
    74
1070
     0
1000
MTEXTEND
  0
POINT
  5
550A
330
3760
100
AcDbEntity
  8
Defpoints
 62
     0
100
AcDbPoint
 10
783.0723234671295
 20
282.2024011978547
 30
0.0
  0
POINT
  5
550B
330
3760
100
AcDbEntity
  8
Defpoints
 62
     0
100
AcDbPoint
 10
816.0723234671294
 20
281.2024011978547
 30
0.0
  0
POINT
  5
550C
330
3760
100
AcDbEntity
  8
Defpoints
 62
     0
100
AcDbPoint
 10
816.0723234671294
 20
273.2024011978547
 30
0.0
  0
ENDBLK
  5
376B
330
3760
100
AcDbEntity
  8
0
100
AcDbBlockEnd
  0
BLOCK
  5
3776
330
376C
100
AcDbEntity
  8
0
100
AcDbBlockBegin
  2
*D17
 70
     1
 10
0.0
 20
0.0
 30
0.0
  3
*D17
  1

  0
LINE
  5
550D
330
376C
100
AcDbEntity
  8
AM_5
100
AcDbLine
 10
787.1096774671295
 20
297.2024011978547
 30
0.0
 11
828.3630944671294
 21
297.2024011978547
 31
0.0
  0
LINE
  5
550E
330
376C
100
AcDbEntity
  8
AM_5
100
AcDbLine
 10
787.0723234671295
 20
285.2024011978547
 30
0.0
 11
828.3630944671294
 21
285.2024011978547
 31
0.0
  0
LINE
  5
550F
330
376C
100
AcDbEntity
  8
AM_5
100
AcDbLine
 10
826.8630944671295
 20
294.2024011978547
 30
0.0
 11
826.8630944671295
 21
288.2024011978547
 31
0.0
  0
SOLID
  5
5510
330
376C
100
AcDbEntity
  8
AM_5
100
AcDbTrace
 10
826.3630944671294
 20
294.2024011978547
 30
0.0
 11
827.3630944671294
 21
294.2024011978547
 31
0.0
 12
826.8630944671295
 22
297.2024011978547
 32
0.0
 13
826.8630944671295
 23
297.2024011978547
 33
0.0
  0
SOLID
  5
5511
330
376C
100
AcDbEntity
  8
AM_5
100
AcDbTrace
 10
826.3630944671294
 20
288.2024011978547
 30
0.0
 11
827.3630944671294
 21
288.2024011978547
 31
0.0
 12
826.8630944671295
 22
285.2024011978547
 32
0.0
 13
826.8630944671295
 23
285.2024011978547
 33
0.0
  0
MTEXT
  5
5512
330
376C
100
AcDbEntity
  8
AM_5
100
AcDbMText
 10
824.3127499789403
 20
291.2024011978548
 30
0.0
 40
3.5
 41
0.0
 71
     5
 72
     1
  1
12
 11
0.0000000000000001
 21
1.0
 31
0.0
 73
     1
 44
1.0
1001
ACAD
1000
MTEXTBEGIN
1070
    73
1070
     1
1070
    44
1040
1.0
1070
    74
1070
     0
1000
MTEXTEND
  0
POINT
  5
5513
330
376C
100
AcDbEntity
  8
Defpoints
 62
     0
100
AcDbPoint
 10
786.1096774671295
 20
297.2024011978547
 30
0.0
  0
POINT
  5
5514
330
376C
100
AcDbEntity
  8
Defpoints
 62
     0
100
AcDbPoint
 10
786.0723234671295
 20
285.2024011978547
 30
0.0
  0
POINT
  5
5515
330
376C
100
AcDbEntity
  8
Defpoints
 62
     0
100
AcDbPoint
 10
826.8630944671295
 20
285.2024011978547
 30
0.0
  0
ENDBLK
  5
3777
330
376C
100
AcDbEntity
  8
0
100
AcDbBlockEnd
  0
BLOCK
  5
3782
330
3778
100
AcDbEntity
  8
0
100
AcDbBlockBegin
  2
*D18
 70
     1
 10
0.0
 20
0.0
 30
0.0
  3
*D18
  1

  0
LINE
  5
5516
330
3778
100
AcDbEntity
  8
AM_5
100
AcDbLine
 10
861.8887795473987
 20
188.4995196957144
 30
0.0
 11
861.8887795473987
 21
154.7405548157842
 31
0.0
  0
LINE
  5
5517
330
3778
100
AcDbEntity
  8
AM_5
100
AcDbLine
 10
873.8887795473988
 20
218.3024986957144
 30
0.0
 11
873.8887795473988
 21
154.7405548157842
 31
0.0
  0
LINE
  5
5518
330
3778
100
AcDbEntity
  8
AM_5
100
AcDbLine
 10
864.8887795473989
 20
156.2405548157842
 30
0.0
 11
870.8887795473987
 21
156.2405548157842
 31
0.0
  0
SOLID
  5
5519
330
3778
100
AcDbEntity
  8
AM_5
100
AcDbTrace
 10
864.8887795473989
 20
156.7405548157842
 30
0.0
 11
864.8887795473989
 21
155.7405548157842
 31
0.0
 12
861.8887795473987
 22
156.2405548157842
 32
0.0
 13
861.8887795473987
 23
156.2405548157842
 33
0.0
  0
SOLID
  5
551A
330
3778
100
AcDbEntity
  8
AM_5
100
AcDbTrace
 10
870.8887795473987
 20
156.7405548157842
 30
0.0
 11
870.8887795473987
 21
155.7405548157842
 31
0.0
 12
873.8887795473988
 22
156.2405548157842
 32
0.0
 13
873.8887795473988
 23
156.2405548157842
 33
0.0
  0
MTEXT
  5
551B
330
3778
100
AcDbEntity
  8
AM_5
100
AcDbMText
 10
867.8887795473988
 20
158.7908993039732
 30
0.0
 40
3.5
 41
0.0
 71
     5
 72
     1
  1
12
 73
     1
 44
1.0
1001
ACAD
1000
MTEXTBEGIN
1070
    73
1070
     1
1070
    44
1040
1.0
1070
    74
1070
     0
1000
MTEXTEND
  0
POINT
  5
551C
330
3778
100
AcDbEntity
  8
Defpoints
 62
     0
100
AcDbPoint
 10
861.8887795473987
 20
189.4995196957144
 30
0.0
  0
POINT
  5
551D
330
3778
100
AcDbEntity
  8
Defpoints
 62
     0
100
AcDbPoint
 10
873.8887795473988
 20
219.3024986957145
 30
0.0
  0
POINT
  5
551E
330
3778
100
AcDbEntity
  8
Defpoints
 62
     0
100
AcDbPoint
 10
873.8887795473988
 20
156.2405548157842
 30
0.0
  0
ENDBLK
  5
3783
330
3778
100
AcDbEntity
  8
0
100
AcDbBlockEnd
  0
BLOCK
  5
378E
330
3784
100
AcDbEntity
  8
0
100
AcDbBlockBegin
  2
*D19
 70
     1
 10
0.0
 20
0.0
 30
0.0
  3
*D19
  1

  0
LINE
  5
551F
330
3784
100
AcDbEntity
  8
AM_5
100
AcDbLine
 10
878.8887795473987
 20
226.2962116957145
 30
0.0
 11
895.9004891113796
 21
226.2962116957145
 31
0.0
  0
LINE
  5
5520
330
3784
100
AcDbEntity
  8
AM_5
100
AcDbLine
 10
878.8887795473987
 20
188.2961506957144
 30
0.0
 11
895.9004891113796
 21
188.2961506957144
 31
0.0
  0
LINE
  5
5521
330
3784
100
AcDbEntity
  8
AM_5
100
AcDbLine
 10
894.4004891113795
 20
223.2962116957145
 30
0.0
 11
894.4004891113795
 21
191.2961506957144
 31
0.0
  0
SOLID
  5
5522
330
3784
100
AcDbEntity
  8
AM_5
100
AcDbTrace
 10
893.9004891113794
 20
223.2962116957145
 30
0.0
 11
894.9004891113796
 21
223.2962116957145
 31
0.0
 12
894.4004891113795
 22
226.2962116957145
 32
0.0
 13
894.4004891113795
 23
226.2962116957145
 33
0.0
  0
SOLID
  5
5523
330
3784
100
AcDbEntity
  8
AM_5
100
AcDbTrace
 10
893.9004891113794
 20
191.2961506957144
 30
0.0
 11
894.9004891113796
 21
191.2961506957144
 31
0.0
 12
894.4004891113795
 22
188.2961506957144
 32
0.0
 13
894.4004891113795
 23
188.2961506957144
 33
0.0
  0
MTEXT
  5
5524
330
3784
100
AcDbEntity
  8
AM_5
100
AcDbMText
 10
891.8504891113796
 20
207.2961811957146
 30
0.0
 40
3.5
 41
0.0
 71
     5
 72
     1
  1
38
 11
0.0000000000000001
 21
1.0
 31
0.0
 73
     1
 44
1.0
1001
ACAD
1000
MTEXTBEGIN
1070
    73
1070
     1
1070
    44
1040
1.0
1070
    74
1070
     0
1000
MTEXTEND
  0
POINT
  5
5525
330
3784
100
AcDbEntity
  8
Defpoints
 62
     0
100
AcDbPoint
 10
877.8887795473988
 20
226.2962116957145
 30
0.0
  0
POINT
  5
5526
330
3784
100
AcDbEntity
  8
Defpoints
 62
     0
100
AcDbPoint
 10
877.8887795473988
 20
188.2961506957144
 30
0.0
  0
POINT
  5
5527
330
3784
100
AcDbEntity
  8
Defpoints
 62
     0
100
AcDbPoint
 10
894.4004891113795
 20
188.2961506957144
 30
0.0
  0
ENDBLK
  5
378F
330
3784
100
AcDbEntity
  8
0
100
AcDbBlockEnd
  0
BLOCK
  5
379A
330
3790
100
AcDbEntity
  8
0
100
AcDbBlockBegin
  2
*D20
 70
     1
 10
0.0
 20
0.0
 30
0.0
  3
*D20
  1

  0
LINE
  5
5528
330
3790
100
AcDbEntity
  8
AM_5
100
AcDbLine
 10
871.2811135473987
 20
192.2961506957144
 30
0.0
 11
888.1221403155954
 21
192.2961506957144
 31
0.0
  0
LINE
  5
5529
330
3790
100
AcDbEntity
  8
AM_5
100
AcDbLine
 10
877.7994245473989
 20
222.2961506957144
 30
0.0
 11
888.1221403155954
 21
222.2961506957144
 31
0.0
  0
LINE
  5
552A
330
3790
100
AcDbEntity
  8
AM_5
100
AcDbLine
 10
886.6221403155956
 20
195.2961506957144
 30
0.0
 11
886.6221403155956
 21
219.2961506957145
 31
0.0
  0
SOLID
  5
552B
330
3790
100
AcDbEntity
  8
AM_5
100
AcDbTrace
 10
886.1221403155955
 20
195.2961506957144
 30
0.0
 11
887.1221403155955
 21
195.2961506957144
 31
0.0
 12
886.6221403155956
 22
192.2961506957144
 32
0.0
 13
886.6221403155956
 23
192.2961506957144
 33
0.0
  0
SOLID
  5
552C
330
3790
100
AcDbEntity
  8
AM_5
100
AcDbTrace
 10
886.1221403155955
 20
219.2961506957145
 30
0.0
 11
887.1221403155955
 21
219.2961506957145
 31
0.0
 12
886.6221403155956
 22
222.2961506957144
 32
0.0
 13
886.6221403155956
 23
222.2961506957144
 33
0.0
  0
MTEXT
  5
552D
330
3790
100
AcDbEntity
  8
AM_5
100
AcDbMText
 10
884.0721403155955
 20
207.2961506957146
 30
0.0
 40
3.5
 41
0.0
 71
     5
 72
     1
  1
30
 11
0.0000000000000001
 21
1.0
 31
0.0
 73
     1
 44
1.0
1001
ACAD
1000
MTEXTBEGIN
1070
    73
1070
     1
1070
    44
1040
1.0
1070
    74
1070
     0
1000
MTEXTEND
  0
POINT
  5
552E
330
3790
100
AcDbEntity
  8
Defpoints
 62
     0
100
AcDbPoint
 10
870.2811135473988
 20
192.2961506957144
 30
0.0
  0
POINT
  5
552F
330
3790
100
AcDbEntity
  8
Defpoints
 62
     0
100
AcDbPoint
 10
876.7994245473989
 20
222.2961506957144
 30
0.0
  0
POINT
  5
5530
330
3790
100
AcDbEntity
  8
Defpoints
 62
     0
100
AcDbPoint
 10
886.6221403155956
 20
222.2961506957144
 30
0.0
  0
ENDBLK
  5
379B
330
3790
100
AcDbEntity
  8
0
100
AcDbBlockEnd
  0
BLOCK
  5
37A6
330
379C
100
AcDbEntity
  8
0
100
AcDbBlockBegin
  2
*D21
 70
     1
 10
0.0
 20
0.0
 30
0.0
  3
*D21
  1

  0
LINE
  5
5531
330
379C
100
AcDbEntity
  8
AM_5
100
AcDbLine
 10
857.8887795473988
 20
187.2961506957144
 30
0.0
 11
857.8887795473988
 21
147.8013221438082
 31
0.0
  0
LINE
  5
5532
330
379C
100
AcDbEntity
  8
AM_5
100
AcDbLine
 10
877.8887795473988
 20
187.2961506957144
 30
0.0
 11
877.8887795473988
 21
147.8013221438082
 31
0.0
  0
LINE
  5
5533
330
379C
100
AcDbEntity
  8
AM_5
100
AcDbLine
 10
860.8887795473988
 20
149.3013221438082
 30
0.0
 11
874.8887795473988
 21
149.3013221438082
 31
0.0
  0
SOLID
  5
5534
330
379C
100
AcDbEntity
  8
AM_5
100
AcDbTrace
 10
860.8887795473988
 20
149.8013221438082
 30
0.0
 11
860.8887795473988
 21
148.8013221438082
 31
0.0
 12
857.8887795473988
 22
149.3013221438082
 32
0.0
 13
857.8887795473988
 23
149.3013221438082
 33
0.0
  0
SOLID
  5
5535
330
379C
100
AcDbEntity
  8
AM_5
100
AcDbTrace
 10
874.8887795473988
 20
149.8013221438082
 30
0.0
 11
874.8887795473988
 21
148.8013221438082
 31
0.0
 12
877.8887795473988
 22
149.3013221438082
 32
0.0
 13
877.8887795473988
 23
149.3013221438082
 33
0.0
  0
MTEXT
  5
5536
330
379C
100
AcDbEntity
  8
AM_5
100
AcDbMText
 10
867.8887795473988
 20
151.8516666319972
 30
0.0
 40
3.5
 41
0.0
 71
     5
 72
     1
  1
20
 73
     1
 44
1.0
1001
ACAD
1000
MTEXTBEGIN
1070
    73
1070
     1
1070
    44
1040
1.0
1070
    74
1070
     0
1000
MTEXTEND
  0
POINT
  5
5537
330
379C
100
AcDbEntity
  8
Defpoints
 62
     0
100
AcDbPoint
 10
857.8887795473988
 20
188.2961506957144
 30
0.0
  0
POINT
  5
5538
330
379C
100
AcDbEntity
  8
Defpoints
 62
     0
100
AcDbPoint
 10
877.8887795473988
 20
188.2961506957144
 30
0.0
  0
POINT
  5
5539
330
379C
100
AcDbEntity
  8
Defpoints
 62
     0
100
AcDbPoint
 10
877.8887795473988
 20
149.3013221438082
 30
0.0
  0
ENDBLK
  5
37A7
330
379C
100
AcDbEntity
  8
0
100
AcDbBlockEnd
  0
BLOCK
  5
3ED1
330
3EC7
100
AcDbEntity
  8
0
100
AcDbBlockBegin
  2
*D22
 70
     1
 10
0.0
 20
0.0
 30
0.0
  3
*D22
  1

  0
LINE
  5
553A
330
3EC7
100
AcDbEntity
  8
AM_5
100
AcDbLine
 10
674.4955482377202
 20
250.7961811957144
 30
0.0
 11
674.4955482377202
 21
259.2961811957144
 31
0.0
  0
LINE
  5
553B
330
3EC7
100
AcDbEntity
  8
AM_5
100
AcDbLine
 10
682.4955482377202
 20
250.7961811957144
 30
0.0
 11
682.4955482377202
 21
259.2961811957144
 31
0.0
  0
LINE
  5
553C
330
3EC7
100
AcDbEntity
  8
AM_5
100
AcDbLine
 10
677.4955482377201
 20
257.7961811957144
 30
0.0
 11
679.4955482377202
 21
257.7961811957144
 31
0.0
  0
LINE
  5
553D
330
3EC7
100
AcDbEntity
  8
AM_5
100
AcDbLine
 10
682.4955482377202
 20
257.7961811957144
 30
0.0
 11
697.8209803079699
 21
257.7961811957144
 31
0.0
  0
SOLID
  5
553E
330
3EC7
100
AcDbEntity
  8
AM_5
100
AcDbTrace
 10
677.4955482377201
 20
258.2961811957144
 30
0.0
 11
677.4955482377201
 21
257.2961811957144
 31
0.0
 12
674.4955482377202
 22
257.7961811957144
 32
0.0
 13
674.4955482377202
 23
257.7961811957144
 33
0.0
  0
SOLID
  5
553F
330
3EC7
100
AcDbEntity
  8
AM_5
100
AcDbTrace
 10
679.4955482377202
 20
258.2961811957144
 30
0.0
 11
679.4955482377202
 21
257.2961811957144
 31
0.0
 12
682.4955482377202
 22
257.7961811957144
 32
0.0
 13
682.4955482377202
 23
257.7961811957144
 33
0.0
  0
MTEXT
  5
5540
330
3EC7
100
AcDbEntity
  8
AM_5
100
AcDbMText
 10
691.658264272845
 20
261.4126386924734
 30
0.0
 40
3.5
 41
0.0
 71
     5
 72
     1
  1
8{\H2.485000;\S-0.005^ -0.025;}
 73
     1
 44
1.0
1001
ACAD
1000
MTEXTBEGIN
1070
    73
1070
     1
1070
    44
1040
1.0
1070
    74
1070
     0
1000
MTEXTEND
  0
POINT
  5
5541
330
3EC7
100
AcDbEntity
  8
Defpoints
 62
     0
100
AcDbPoint
 10
674.4955482377202
 20
249.7961811957144
 30
0.0
  0
POINT
  5
5542
330
3EC7
100
AcDbEntity
  8
Defpoints
 62
     0
100
AcDbPoint
 10
682.4955482377202
 20
249.7961811957144
 30
0.0
  0
POINT
  5
5543
330
3EC7
100
AcDbEntity
  8
Defpoints
 62
     0
100
AcDbPoint
 10
682.4955482377202
 20
257.7961811957144
 30
0.0
  0
ENDBLK
  5
3ED2
330
3EC7
100
AcDbEntity
  8
0
100
AcDbBlockEnd
  0
BLOCK
  5
4332
330
432F
100
AcDbEntity
  8
0
100
AcDbBlockBegin
  2
GENDOT
 70
     0
 10
0.0
 20
0.0
 30
0.0
  3
GENDOT
  1

  0
LINE
  5
4330
330
432F
100
AcDbEntity
  8
0
100
AcDbLine
 10
0.0
 20
0.0
 30
0.0
 11
-1.0
 21
0.0
 31
0.0
  0
LWPOLYLINE
  5
4331
330
432F
100
AcDbEntity
  8
0
100
AcDbPolyline
 90
        2
 70
     1
 43
0.25
 10
-0.125
 20
0.0
 42
1.0
 10
0.125
 20
0.0
 42
1.0
  0
ENDBLK
  5
4333
330
432F
100
AcDbEntity
  8
0
100
AcDbBlockEnd
  0
BLOCK
  5
449E
330
4467
100
AcDbEntity
  8
0
100
AcDbBlockBegin
  2
*D25
 70
     1
 10
0.0
 20
0.0
 30
0.0
  3
*D25
  1

  0
LINE
  5
5544
330
4467
100
AcDbEntity
  8
AM_5
100
AcDbLine
 10
667.1769319540244
 20
245.7961811957144
 30
0.0
 11
667.9955482377201
 21
245.7961811957144
 31
0.0
  0
LINE
  5
5545
330
4467
100
AcDbEntity
  8
AM_5
100
AcDbLine
 10
674.9938392377202
 20
238.7961811957144
 30
0.0
 11
664.9955482377201
 21
238.7961811957144
 31
0.0
  0
LINE
  5
5546
330
4467
100
AcDbEntity
  8
AM_5
100
AcDbLine
 10
666.4955482377202
 20
248.7961811957144
 30
0.0
 11
666.4955482377202
 21
251.7961811957144
 31
0.0
  0
LINE
  5
5547
330
4467
100
AcDbEntity
  8
AM_5
100
AcDbLine
 10
666.4955482377202
 20
235.7961811957145
 30
0.0
 11
666.4955482377202
 21
232.7961811957144
 31
0.0
  0
LINE
  5
5548
330
4467
100
AcDbEntity
  8
AM_5
100
AcDbLine
 10
666.4955482377202
 20
245.7961811957144
 30
0.0
 11
666.4955482377202
 21
238.7961811957144
 31
0.0
  0
INSERT
  5
5549
330
4467
100
AcDbEntity
  8
AM_5
100
AcDbBlockReference
  2
GENDOT
 10
666.4955482377202
 20
245.7961811957144
 30
0.0
 41
3.0
 42
3.0
 43
3.0
 50
270.0
  0
SOLID
  5
554A
330
4467
100
AcDbEntity
  8
AM_5
100
AcDbTrace
 10
665.9955482377202
 20
235.7961811957145
 30
0.0
 11
666.9955482377202
 21
235.7961811957145
 31
0.0
 12
666.4955482377202
 22
238.7961811957144
 32
0.0
 13
666.4955482377202
 23
238.7961811957144
 33
0.0
  0
MTEXT
  5
554B
330
4467
100
AcDbEntity
  8
AM_5
100
AcDbMText
 10
663.9455482377202
 20
242.2961811957145
 30
0.0
 40
3.5
 41
0.0
 71
     5
 72
     1
  1
7
 11
0.0000000000000001
 21
1.0
 31
0.0
 73
     1
 44
1.0
1001
ACAD
1000
MTEXTBEGIN
1070
    73
1070
     1
1070
    44
1040
1.0
1070
    74
1070
     0
1000
MTEXTEND
  0
POINT
  5
554C
330
4467
100
AcDbEntity
  8
Defpoints
 62
     0
100
AcDbPoint
 10
666.1769319540244
 20
245.7961811957144
 30
0.0
  0
POINT
  5
554D
330
4467
100
AcDbEntity
  8
Defpoints
 62
     0
100
AcDbPoint
 10
675.9938392377201
 20
238.7961811957144
 30
0.0
  0
POINT
  5
554E
330
4467
100
AcDbEntity
  8
Defpoints
 62
     0
100
AcDbPoint
 10
666.4955482377202
 20
238.7961811957144
 30
0.0
  0
ENDBLK
  5
449F
330
4467
100
AcDbEntity
  8
0
100
AcDbBlockEnd
  0
BLOCK
  5
44A0
330
4473
100
AcDbEntity
  8
0
100
AcDbBlockBegin
  2
*D26
 70
     1
 10
0.0
 20
0.0
 30
0.0
  3
*D26
  1

  0
LINE
  5
554F
330
4473
100
AcDbEntity
  8
AM_5
100
AcDbLine
 10
673.4955482377202
 20
249.7961811957144
 30
0.0
 11
664.9955482377201
 21
249.7961811957144
 31
0.0
  0
LINE
  5
5550
330
4473
100
AcDbEntity
  8
AM_5
100
AcDbLine
 10
675.1056552377201
 20
245.7961811957144
 30
0.0
 11
664.9955482377201
 21
245.7961811957144
 31
0.0
  0
LINE
  5
5551
330
4473
100
AcDbEntity
  8
AM_5
100
AcDbLine
 10
666.4955482377202
 20
242.7961811957144
 30
0.0
 11
666.4955482377202
 21
239.7961811957145
 31
0.0
  0
LINE
  5
5552
330
4473
100
AcDbEntity
  8
AM_5
100
AcDbLine
 10
666.4955482377202
 20
252.7961811957144
 30
0.0
 11
666.4955482377203
 21
260.4762845421712
 31
0.0
  0
LINE
  5
5553
330
4473
100
AcDbEntity
  8
AM_5
100
AcDbLine
 10
666.4955482377202
 20
245.7961811957144
 30
0.0
 11
666.4955482377202
 21
249.7961811957144
 31
0.0
  0
INSERT
  5
5554
330
4473
100
AcDbEntity
  8
AM_5
100
AcDbBlockReference
  2
GENDOT
 10
666.4955482377202
 20
245.7961811957144
 30
0.0
 41
3.0
 42
3.0
 43
3.0
 50
90.0
  0
SOLID
  5
5555
330
4473
100
AcDbEntity
  8
AM_5
100
AcDbTrace
 10
665.9955482377202
 20
252.7961811957144
 30
0.0
 11
666.9955482377202
 21
252.7961811957144
 31
0.0
 12
666.4955482377202
 22
249.7961811957144
 32
0.0
 13
666.4955482377202
 23
249.7961811957144
 33
0.0
  0
MTEXT
  5
5556
330
4473
100
AcDbEntity
  8
AM_5
100
AcDbMText
 10
663.9455482377202
 20
258.8012845421713
 30
0.0
 40
3.5
 41
0.0
 71
     5
 72
     1
  1
4
 11
0.0000000000000001
 21
1.0
 31
0.0
 73
     1
 44
1.0
1001
ACAD
1000
MTEXTBEGIN
1070
    73
1070
     1
1070
    44
1040
1.0
1070
    74
1070
     0
1000
MTEXTEND
  0
POINT
  5
5557
330
4473
100
AcDbEntity
  8
Defpoints
 62
     0
100
AcDbPoint
 10
674.4955482377202
 20
249.7961811957144
 30
0.0
  0
POINT
  5
5558
330
4473
100
AcDbEntity
  8
Defpoints
 62
     0
100
AcDbPoint
 10
676.1056552377201
 20
245.7961811957144
 30
0.0
  0
POINT
  5
5559
330
4473
100
AcDbEntity
  8
Defpoints
 62
     0
100
AcDbPoint
 10
666.4955482377202
 20
245.7961811957144
 30
0.0
  0
ENDBLK
  5
44A1
330
4473
100
AcDbEntity
  8
0
100
AcDbBlockEnd
  0
BLOCK
  5
55BB
330
55B6
100
AcDbEntity
  8
0
100
AcDbBlockBegin
  2
*S31
 70
     1
 10
0.0
 20
0.0
 30
0.0
  3
*S31
  1

  0
LINE
  5
55B7
330
55B6
100
AcDbEntity
  8
AM_5
 62
     5
100
AcDbLine
 10
825.450049695447
 20
312.0904535326307
 30
0.0
 11
794.9072602455689
 21
312.0904535326307
 31
0.0
  0
LINE
  5
55B8
330
55B6
100
AcDbEntity
  8
AM_5
 62
     5
100
AcDbLine
 10
794.9072602455689
 20
312.0904535326307
 30
0.0
 11
786.7963255301484
 21
301.1602237344292
 31
0.0
  0
TRACE
  5
55B9
330
55B6
100
AcDbEntity
  8
AM_5
 62
     5
370
    35
100
AcDbTrace
 10
786.4262938506575
 20
301.4348110807522
 30
0.0
 11
787.1663572096394
 21
300.8856363881062
 31
0.0
 12
784.7106275557075
 22
298.3495540705567
 32
0.0
 13
784.7106275557075
 23
298.3495540705567
 33
0.0
  0
MTEXT
  5
55BA
330
55B6
100
AcDbEntity
  8
AM_5
 62
     2
100
AcDbMText
 10
825.450049695447
 20
317.9010566510295
 30
0.0
 40
3.5
 41
0.0
 71
     7
 72
     5
  1

  7
ACISOTS
 73
     1
 44
1.0
1001
ACAD
1000
MTEXTBEGIN
1070
    73
1070
     1
1070
    44
1040
1.0
1070
    74
1070
     0
1000
MTEXTEND
  0
ENDBLK
  5
55BC
330
55B6
100
AcDbEntity
  8
0
100
AcDbBlockEnd
  0
BLOCK
  5
55C3
330
55BE
100
AcDbEntity
  8
0
100
AcDbBlockBegin
  2
*S32
 70
     1
 10
0.0
 20
0.0
 30
0.0
  3
*S32
  1

  0
LINE
  5
55BF
330
55BE
100
AcDbEntity
  8
AM_5
 62
     5
100
AcDbLine
 10
822.0925236586518
 20
233.7529631735198
 30
0.0
 11
805.9842543065848
 21
233.7529631735198
 31
0.0
  0
LINE
  5
55C0
330
55BE
100
AcDbEntity
  8
AM_5
 62
     5
100
AcDbLine
 10
805.9842543065848
 20
233.7529631735198
 30
0.0
 11
799.8479798752669
 21
226.6135789646245
 31
0.0
  0
TRACE
  5
55C1
330
55BE
100
AcDbEntity
  8
AM_5
 62
     5
370
    35
100
AcDbTrace
 10
799.4985334663247
 20
226.9139268660073
 30
0.0
 11
800.197426284209
 21
226.3132310632417
 31
0.0
 12
797.5666110579111
 22
223.9592699548826
 32
0.0
 13
797.5666110579111
 23
223.9592699548826
 33
0.0
  0
MTEXT
  5
55C2
330
55BE
100
AcDbEntity
  8
AM_5
 62
     2
100
AcDbMText
 10
822.0925236586518
 20
240.5575134376972
 30
0.0
 40
3.5
 41
0.0
 71
     7
 72
     5
  1

  7
ACISOTS
 73
     1
 44
1.0
1001
ACAD
1000
MTEXTBEGIN
1070
    73
1070
     1
1070
    44
1040
1.0
1070
    74
1070
     0
1000
MTEXTEND
  0
ENDBLK
  5
55C4
330
55BE
100
AcDbEntity
  8
0
100
AcDbBlockEnd
  0
BLOCK
  5
55CB
330
55C6
100
AcDbEntity
  8
0
100
AcDbBlockBegin
  2
*S33
 70
     1
 10
0.0
 20
0.0
 30
0.0
  3
*S33
  1

  0
LINE
  5
55C7
330
55C6
100
AcDbEntity
  8
AM_5
 62
     5
100
AcDbLine
 10
819.2291122237968
 20
246.5162542101219
 30
0.0
 11
788.6898388996556
 21
246.5162542101219
 31
0.0
  0
LINE
  5
55C8
330
55C6
100
AcDbEntity
  8
AM_5
 62
     5
100
AcDbLine
 10
788.6898388996556
 20
246.5162542101219
 30
0.0
 11
778.0282572415074
 21
226.7757672599478
 31
0.0
  0
TRACE
  5
55C9
330
55C6
100
AcDbEntity
  8
AM_5
 62
     5
370
    35
100
AcDbTrace
 10
777.6228259008567
 20
226.9947354827698
 30
0.0
 11
778.4336885821581
 21
226.5567990371259
 31
0.0
 12
776.3650284550306
 22
223.6962104730327
 32
0.0
 13
776.3650284550306
 23
223.6962104730327
 33
0.0
  0
MTEXT
  5
55CA
330
55C6
100
AcDbEntity
  8
AM_5
 62
     2
100
AcDbMText
 10
819.2291122237968
 20
253.1732997676438
 30
0.0
 40
3.5
 41
0.0
 71
     7
 72
     5
  1

  7
ACISOTS
 73
     1
 44
1.0
1001
ACAD
1000
MTEXTBEGIN
1070
    73
1070
     1
1070
    44
1040
1.0
1070
    74
1070
     0
1000
MTEXTEND
  0
ENDBLK
  5
55CC
330
55C6
100
AcDbEntity
  8
0
100
AcDbBlockEnd
  0
BLOCK
  5
55D3
330
55CE
100
AcDbEntity
  8
0
100
AcDbBlockBegin
  2
*S34
 70
     1
 10
0.0
 20
0.0
 30
0.0
  3
*S34
  1

  0
LINE
  5
55CF
330
55CE
100
AcDbEntity
  8
AM_5
 62
     5
100
AcDbLine
 10
915.7644042292455
 20
236.8232478456379
 30
0.0
 11
885.1750085180574
 21
236.8232478456379
 31
0.0
  0
LINE
  5
55D0
330
55CE
100
AcDbEntity
  8
AM_5
 62
     5
100
AcDbLine
 10
885.1750085180574
 20
236.8232478456379
 30
0.0
 11
877.0640738026369
 21
225.8930180474364
 31
0.0
  0
TRACE
  5
55D1
330
55CE
100
AcDbEntity
  8
AM_5
 62
     5
370
    35
100
AcDbTrace
 10
876.694042123146
 20
226.1676053937594
 30
0.0
 11
877.4341054821277
 21
225.6184307011134
 31
0.0
 12
874.978375828196
 22
223.0823483835639
 32
0.0
 13
874.978375828196
 23
223.0823483835639
 33
0.0
  0
MTEXT
  5
55D2
330
55CE
100
AcDbEntity
  8
AM_5
 62
     2
100
AcDbMText
 10
915.7644042292455
 20
244.3938618489495
 30
0.0
 40
3.5
 41
0.0
 71
     7
 72
     5
  1

  7
ACISOTS
 73
     1
 44
1.0
1001
ACAD
1000
MTEXTBEGIN
1070
    73
1070
     1
1070
    44
1040
1.0
1070
    74
1070
     0
1000
MTEXTEND
  0
ENDBLK
  5
55D4
330
55CE
100
AcDbEntity
  8
0
100
AcDbBlockEnd
  0
BLOCK
  5
55DB
330
55D6
100
AcDbEntity
  8
0
100
AcDbBlockBegin
  2
*S35
 70
     1
 10
0.0
 20
0.0
 30
0.0
  3
*S35
  1

  0
LINE
  5
55D7
330
55D6
100
AcDbEntity
  8
AM_5
 62
     5
100
AcDbLine
 10
839.6926537090296
 20
94.61717200444729
 30
0.0
 11
822.0425631177441
 21
94.61717200444729
 31
0.0
  0
LINE
  5
55D8
330
55D6
100
AcDbEntity
  8
AM_5
 62
     5
100
AcDbLine
 10
822.0425631177441
 20
94.61717200444729
 30
0.0
 11
813.798206631403
 21
100.5021258333394
 31
0.0
  0
TRACE
  5
55D9
330
55D6
100
AcDbEntity
  8
AM_5
 62
     5
370
    35
100
AcDbTrace
 10
814.065915087602
 20
100.8771642807912
 30
0.0
 11
813.5304981752039
 21
100.1270873858876
 31
0.0
 12
810.9495067890303
 22
102.5355734495978
 32
0.0
 13
810.9495067890303
 23
102.5355734495978
 33
0.0
  0
MTEXT
  5
55DA
330
55D6
100
AcDbEntity
  8
AM_5
 62
     2
100
AcDbMText
 10
839.6926537090296
 20
103.5345147500765
 30
0.0
 40
3.5
 41
0.0
 71
     7
 72
     5
  1

  7
ACISOTS
 73
     1
 44
1.0
1001
ACAD
1000
MTEXTBEGIN
1070
    73
1070
     1
1070
    44
1040
1.0
1070
    74
1070
     0
1000
MTEXTEND
  0
ENDBLK
  5
55DC
330
55D6
100
AcDbEntity
  8
0
100
AcDbBlockEnd
  0
BLOCK
  5
55E3
330
55DE
100
AcDbEntity
  8
0
100
AcDbBlockBegin
  2
*S36
 70
     1
 10
0.0
 20
0.0
 30
0.0
  3
*S36
  1

  0
LINE
  5
55DF
330
55DE
100
AcDbEntity
  8
AM_5
 62
     5
100
AcDbLine
 10
814.5290867543614
 20
126.5818048326622
 30
0.0
 11
796.878996163076
 21
126.5818048326622
 31
0.0
  0
LINE
  5
55E0
330
55DE
100
AcDbEntity
  8
AM_5
 62
     5
100
AcDbLine
 10
796.878996163076
 20
126.5818048326622
 30
0.0
 11
788.1311636119602
 21
116.3491017125586
 31
0.0
  0
TRACE
  5
55E1
330
55DE
100
AcDbEntity
  8
AM_5
 62
     5
370
    35
100
AcDbTrace
 10
787.780920878222
 20
116.6485206198626
 30
0.0
 11
788.4814063456985
 21
116.0496828052546
 31
0.0
 12
785.8568512052308
 22
113.688744015444
 32
0.0
 13
785.8568512052308
 23
113.688744015444
 33
0.0
  0
MTEXT
  5
55E2
330
55DE
100
AcDbEntity
  8
AM_5
 62
     2
100
AcDbMText
 10
814.5290867543614
 20
135.4991475782914
 30
0.0
 40
3.5
 41
0.0
 71
     7
 72
     5
  1

  7
ACISOTS
 73
     1
 44
1.0
1001
ACAD
1000
MTEXTBEGIN
1070
    73
1070
     1
1070
    44
1040
1.0
1070
    74
1070
     0
1000
MTEXTEND
  0
ENDBLK
  5
55E4
330
55DE
100
AcDbEntity
  8
0
100
AcDbBlockEnd
  0
BLOCK
  5
55EB
330
55E6
100
AcDbEntity
  8
0
100
AcDbBlockBegin
  2
*S37
 70
     1
 10
0.0
 20
0.0
 30
0.0
  3
*S37
  1

  0
LINE
  5
55E7
330
55E6
100
AcDbEntity
  8
AM_5
 62
     5
100
AcDbLine
 10
711.9149939662031
 20
238.5437697960041
 30
0.0
 11
690.2839559903291
 21
238.5437697960041
 31
0.0
  0
LINE
  5
55E8
330
55E6
100
AcDbEntity
  8
AM_5
 62
     5
100
AcDbLine
 10
690.2839559903291
 20
238.5437697960041
 30
0.0
 11
682.695892490644
 21
243.2656978979824
 31
0.0
  0
TRACE
  5
55E9
330
55E6
100
AcDbEntity
  8
AM_5
 62
     5
370
    35
100
AcDbTrace
 10
682.939342743182
 20
243.6569185890594
 30
0.0
 11
682.4524422381061
 21
242.8744772069053
 31
0.0
 12
679.7242763041537
 22
245.1148861631919
 32
0.0
 13
679.7242763041537
 23
245.1148861631919
 33
0.0
  0
MTEXT
  5
55EA
330
55E6
100
AcDbEntity
  8
AM_5
 62
     2
100
AcDbMText
 10
711.9149939662031
 20
244.5809479349713
 30
0.0
 40
3.5
 41
0.0
 71
     7
 72
     5
  1

  7
ACISOTS
 73
     1
 44
1.0
1001
ACAD
1000
MTEXTBEGIN
1070
    73
1070
     1
1070
    44
1040
1.0
1070
    74
1070
     0
1000
MTEXTEND
  0
ENDBLK
  5
55EC
330
55E6
100
AcDbEntity
  8
0
100
AcDbBlockEnd
  0
BLOCK
  5
55F3
330
55EE
100
AcDbEntity
  8
0
100
AcDbBlockBegin
  2
*S38
 70
     1
 10
0.0
 20
0.0
 30
0.0
  3
*S38
  1

  0
LINE
  5
55EF
330
55EE
100
AcDbEntity
  8
AM_5
 62
     5
100
AcDbLine
 10
916.4074446278494
 20
175.6449497028464
 30
0.0
 11
883.4999994373971
 21
175.6449497028464
 31
0.0
  0
LINE
  5
55F0
330
55EE
100
AcDbEntity
  8
AM_5
 62
     5
100
AcDbLine
 10
883.4999994373971
 20
175.6449497028464
 30
0.0
 11
874.0546269609533
 21
197.4298062683427
 31
0.0
  0
TRACE
  5
55F1
330
55EE
100
AcDbEntity
  8
AM_5
 62
     5
370
    35
100
AcDbTrace
 10
874.4773843680766
 20
197.6131033750025
 30
0.0
 11
873.6318695538297
 21
197.2465091616827
 31
0.0
 12
872.6623472029787
 22
200.6409675965127
 32
0.0
 13
872.6623472029787
 23
200.6409675965127
 33
0.0
  0
MTEXT
  5
55F2
330
55EE
100
AcDbEntity
  8
AM_5
 62
     2
100
AcDbMText
 10
916.4074446278494
 20
184.3721528297894
 30
0.0
 40
3.5
 41
0.0
 71
     7
 72
     5
  1

  7
ACISOTS
 73
     1
 44
1.0
1001
ACAD
1000
MTEXTBEGIN
1070
    73
1070
     1
1070
    44
1040
1.0
1070
    74
1070
     0
1000
MTEXTEND
  0
ENDBLK
  5
55F4
330
55EE
100
AcDbEntity
  8
0
100
AcDbBlockEnd
  0
ENDSEC
  0
SECTION
  2
ENTITIES
  0
LINE
  5
353D
330
1F
100
AcDbEntity
  8
AM_7
100
AcDbLine
 10
760.5723234671295
 20
95.62063767733173
 30
0.0
 11
760.5723234671295
 21
120.6247266773317
 31
0.0
  0
DIMENSION
  5
3540
330
1F
100
AcDbEntity
  8
AM_5
100
AcDbDimension
  2
*D5
 10
784.0723234671295
 20
88.35880070241591
 30
0.0
 11
796.5723234671295
 21
90.9091451906049
 31
0.0
 70
    32
  1
<>
 71
     5
 42
25.0
  3
AM_ISO$0
100
AcDbAlignedDimension
 13
809.0723234671296
 23
88.35880070241591
 33
0.0
 14
784.0723234671295
 24
108.1130696773317
 34
0.0
100
AcDbRotatedDimension
  0
DIMENSION
  5
3541
330
1F
100
AcDbEntity
  8
AM_5
100
AcDbDimension
  2
*D6
 10
826.8767450215825
 20
103.9783036773317
 30
0.0
 11
824.3267450215826
 21
107.9783036773318
 31
0.0
 70
    32
  1
<>
 71
     5
 42
7.999999999999985
  3
AM_ISO$0
100
AcDbAlignedDimension
 13
788.7390714671295
 23
111.9783036773317
 33
0.0
 14
812.8025484671296
 24
103.9783036773317
 34
0.0
 50
90.0
100
AcDbRotatedDimension
  0
LINE
  5
3542
330
1F
100
AcDbEntity
  8
0
  6
Continuous
 62
     7
100
AcDbLine
 10
816.0723234671294
 20
97.97830367733173
 30
0.0
 11
749.5723234671295
 21
97.97830367733173
 31
0.0
  0
LINE
  5
3543
330
1F
100
AcDbEntity
  8
0
  6
Continuous
 62
     7
100
AcDbLine
 10
816.0723234671294
 20
117.9783036773317
 30
0.0
 11
749.5723234671295
 21
117.9783036773317
 31
0.0
  0
LINE
  5
3544
330
1F
100
AcDbEntity
  8
AM_7
100
AcDbLine
 10
818.7554284671296
 20
107.9783036773317
 30
0.0
 11
743.6191984671295
 21
107.9783036773317
 31
0.0
  0
LINE
  5
3545
330
1F
100
AcDbEntity
  8
0
  6
Continuous
 62
     7
100
AcDbLine
 10
764.7656824671295
 20
103.9783036773317
 30
0.0
 11
749.5723234671295
 21
103.9783036773317
 31
0.0
  0
LINE
  5
3546
330
1F
100
AcDbEntity
  8
0
  6
Continuous
 62
     7
100
AcDbLine
 10
764.7656824671295
 20
111.9783036773317
 30
0.0
 11
749.5723234671295
 21
111.9783036773317
 31
0.0
  0
LINE
  5
3547
330
1F
100
AcDbEntity
  8
0
  6
Continuous
 62
     7
100
AcDbLine
 10
749.5723234671295
 20
97.97830367733173
 30
0.0
 11
749.5723234671295
 21
117.9783036773317
 31
0.0
  0
LINE
  5
3548
330
1F
100
AcDbEntity
  8
0
  6
Continuous
 62
     7
100
AcDbLine
 10
747.0723234671295
 20
117.4783036773317
 30
0.0
 11
747.0723234671295
 21
98.47830367733173
 31
0.0
  0
LINE
  5
3549
330
1F
100
AcDbEntity
  8
0
  6
Continuous
 62
     7
100
AcDbLine
 10
747.0723234671295
 20
98.47830367733173
 30
0.0
 11
749.5723234671295
 21
98.47830367733173
 31
0.0
  0
LINE
  5
354A
330
1F
100
AcDbEntity
  8
0
  6
Continuous
 62
     7
100
AcDbLine
 10
758.0723234671295
 20
103.9783036773317
 30
0.0
 11
758.0723234671295
 21
111.9783036773317
 31
0.0
  0
LINE
  5
354B
330
1F
100
AcDbEntity
  8
0
  6
Continuous
 62
     7
100
AcDbLine
 10
749.5723234671295
 20
103.6784986773317
 30
0.0
 11
747.0723234671295
 21
103.6784986773317
 31
0.0
  0
LINE
  5
354C
330
1F
100
AcDbEntity
  8
0
  6
Continuous
 62
     7
100
AcDbLine
 10
749.5723234671295
 20
112.2783526773317
 30
0.0
 11
747.0723234671295
 21
112.2783526773317
 31
0.0
  0
LINE
  5
354D
330
1F
100
AcDbEntity
  8
0
  6
Continuous
 62
     7
100
AcDbLine
 10
747.0723234671295
 20
117.4783036773317
 30
0.0
 11
749.5723234671295
 21
117.4783036773317
 31
0.0
  0
LINE
  5
3552
330
1F
100
AcDbEntity
  8
0
  6
Continuous
 62
     7
100
AcDbLine
 10
764.7656824671295
 20
103.9783036773317
 30
0.0
 11
764.7656824671295
 21
111.9783036773317
 31
0.0
  0
LINE
  5
3553
330
1F
100
AcDbEntity
  8
0
  6
Continuous
 62
     7
100
AcDbLine
 10
763.0723234671295
 20
103.9783036773317
 30
0.0
 11
763.0723234671295
 21
111.9783036773317
 31
0.0
  0
DIMENSION
  5
3554
330
1F
100
AcDbEntity
  8
AM_5
100
AcDbDimension
  2
*D7
 10
809.0723234671296
 20
88.35880070241591
 30
0.0
 11
812.5723234671294
 21
90.90880070241592
 31
0.0
 70
    32
  1
<>
 71
     5
 42
7.0
  3
AM_ISO$0
100
AcDbAlignedDimension
 13
816.0723234671294
 23
97.97830367733173
 33
0.0
 14
809.0723234671296
 24
100.7131666773317
 34
0.0
100
AcDbRotatedDimension
  0
LINE
  5
3555
330
1F
100
AcDbEntity
  8
0
  6
Continuous
 62
     7
100
AcDbLine
 10
816.0723234671294
 20
97.97830367733173
 30
0.0
 11
816.0723234671294
 21
117.9783036773317
 31
0.0
  0
POINT
  5
3556
330
1F
100
AcDbEntity
  8
0
  6
Continuous
 62
     7
100
AcDbPoint
 10
816.0723234671294
 20
107.9783036773317
 30
0.0
  0
DIMENSION
  5
358E
330
1F
100
AcDbEntity
  8
AM_5
100
AcDbDimension
  2
*D8
 10
724.1478694671295
 20
164.7962116957145
 30
0.0
 11
721.5975249789405
 21
179.0461811957146
 31
0.0
 70
    32
  1
<>
 71
     5
 42
28.49993899999999
  3
AM_ISO$0
100
AcDbAlignedDimension
 13
758.0723234671295
 23
193.2961506957144
 33
0.0
 14
758.0723234671295
 24
164.7962116957145
 34
0.0
 50
90.0
100
AcDbRotatedDimension
  0
DIMENSION
  5
358F
330
1F
100
AcDbEntity
  8
AM_5
100
AcDbDimension
  2
*D9
 10
724.1478694671295
 20
193.2961506957144
 30
0.0
 11
721.5975249789405
 21
207.2961506957146
 31
0.0
 70
    32
  1
<>
 71
     5
 42
28.0
  3
AM_ISO$0
100
AcDbAlignedDimension
 13
758.0723234671295
 23
221.2961506957145
 33
0.0
 14
758.0723234671295
 24
193.2961506957144
 34
0.0
 50
90.0
100
AcDbRotatedDimension
  0
DIMENSION
  5
3590
330
1F
100
AcDbEntity
  8
AM_5
100
AcDbDimension
  2
*D10
 10
826.6189544671295
 20
192.2961506957144
 30
0.0
 11
824.0689544671296
 21
207.2961506957146
 31
0.0
 70
    32
  1
<>
 71
     5
 42
30.0
  3
AM_ISO$0
100
AcDbAlignedDimension
 13
799.5669524671296
 23
222.2961506957144
 33
0.0
 14
799.5669524671296
 24
192.2961506957144
 34
0.0
 50
90.0
100
AcDbRotatedDimension
  0
LINE
  5
3592
330
1F
100
AcDbEntity
  8
0
  6
Continuous
 62
     7
100
AcDbLine
 10
749.5723234671295
 20
226.2962116957145
 30
0.0
 11
749.5723234671295
 21
188.2963946957144
 31
0.0
  0
LINE
  5
3595
330
1F
100
AcDbEntity
  8
0
  6
Continuous
 62
     7
100
AcDbLine
 10
747.0723234671295
 20
225.7960896957144
 30
0.0
 11
747.0723234671295
 21
188.7963946957144
 31
0.0
  0
LINE
  5
3596
330
1F
100
AcDbEntity
  8
0
  6
Continuous
 62
     7
100
AcDbLine
 10
816.0723234671294
 20
226.2962116957145
 30
0.0
 11
816.0723234671294
 21
188.2963946957144
 31
0.0
  0
DIMENSION
  5
3597
330
1F
100
AcDbEntity
  8
AM_5
100
AcDbDimension
  2
*D11
 10
816.0723234671294
 20
171.7825918212237
 30
0.0
 11
806.0723234671295
 21
174.3329363094127
 31
0.0
 70
    32
  1
<>
 71
     5
 42
20.0
  3
AM_ISO$0
100
AcDbAlignedDimension
 13
796.0723234671295
 23
189.0661706957144
 33
0.0
 14
816.0723234671294
 24
188.2963946957144
 34
0.0
100
AcDbRotatedDimension
  0
DIMENSION
  5
3598
330
1F
100
AcDbEntity
  8
AM_5
100
AcDbDimension
  2
*D12
 10
747.0723234671295
 20
147.7825918212237
 30
0.0
 11
781.5723234671295
 21
150.3325918212237
 31
0.0
 70
    32
  1
<>
 71
     5
 42
69.0
  3
AM_ISO$0
100
AcDbAlignedDimension
 13
816.0723234671294
 23
161.9020489925951
 33
0.0
 14
747.0723234671295
 24
188.7963946957144
 34
0.0
100
AcDbRotatedDimension
  0
DIMENSION
  5
3599
330
1F
100
AcDbEntity
  8
AM_5
100
AcDbDimension
  2
*D13
 10
816.0723234671294
 20
155.7825918212237
 30
0.0
 11
788.3223234671295
 21
155.7825918212237
 31
0.0
 70
   160
  1
<>
 71
     5
 42
55.5
  3
AM_ISO$0
100
AcDbAlignedDimension
 13
760.5723234671295
 23
190.4509356957144
 33
0.0
 14
816.0723234671294
 24
172.1393753336931
 34
0.0
100
AcDbRotatedDimension
  0
DIMENSION
  5
359A
330
1F
100
AcDbEntity
  8
AM_5
100
AcDbDimension
  2
*D14
 10
816.0723234671294
 20
163.7825918212237
 30
0.0
 11
795.5723234671295
 21
166.3325918212237
 31
0.0
 70
    32
  1
<>
 71
     5
 42
41.0
  3
AM_ISO$0
100
AcDbAlignedDimension
 13
775.0723234671295
 23
189.1545486957144
 33
0.0
 14
816.0723234671294
 24
179.1034611553586
 34
0.0
100
AcDbRotatedDimension
  0
LINE
  5
359B
330
1F
100
AcDbEntity
  8
0
  6
Continuous
 62
     7
100
AcDbLine
 10
816.0723234671294
 20
188.2963946957144
 30
0.0
 11
749.5723234671295
 21
188.2963946957144
 31
0.0
  0
LINE
  5
359C
330
1F
100
AcDbEntity
  8
0
  6
Continuous
 62
     7
100
AcDbLine
 10
816.0723234671294
 20
199.7961506957144
 30
0.0
 11
749.5723234671295
 21
199.7961506957144
 31
0.0
  0
LINE
  5
359D
330
1F
100
AcDbEntity
  8
0
  6
Continuous
 62
     7
100
AcDbLine
 10
816.0723234671294
 20
196.7961506957144
 30
0.0
 11
749.5723234671295
 21
196.7961506957144
 31
0.0
  0
LINE
  5
35A4
330
1F
100
AcDbEntity
  8
0
  6
Continuous
 62
     7
100
AcDbLine
 10
758.0723234671295
 20
164.7962116957145
 30
0.0
 11
763.0723234671295
 21
164.7962116957145
 31
0.0
  0
ARC
  5
35A5
330
1F
100
AcDbEntity
  8
0
  6
Continuous
 62
     7
100
AcDbCircle
 10
760.5723234671295
 20
193.2961506957144
 30
0.0
 40
10.999999
100
AcDbArc
 50
207.0343069999996
 51
250.5287879999982
  0
LINE
  5
35A6
330
1F
100
AcDbEntity
  8
0
  6
Continuous
 62
     7
100
AcDbLine
 10
758.0723234671295
 20
182.5961996957144
 30
0.0
 11
758.0723234671295
 21
164.7962116957145
 31
0.0
  0
LINE
  5
35A7
330
1F
100
AcDbEntity
  8
AM_7
100
AcDbLine
 10
754.5723384671295
 20
193.4531176957144
 30
0.0
 11
730.4757964671295
 21
194.0841146957144
 31
0.0
  0
LINE
  5
35A8
330
1F
100
AcDbEntity
  8
0
  6
ACISOTGB
 62
     2
100
AcDbLine
 10
747.0724374671294
 20
196.1503686957144
 30
0.0
 11
732.1478694671295
 21
196.5411766957144
 31
0.0
  0
LINE
  5
35A9
330
1F
100
AcDbEntity
  8
0
  6
ACISOTGB
 62
     2
100
AcDbLine
 10
747.0723694671295
 20
191.1486596957144
 30
0.0
 11
732.0169794671295
 21
191.5429006957145
 31
0.0
  0
LINE
  5
35AA
330
1F
100
AcDbEntity
  8
0
  6
ACISOTGB
 62
     2
100
AcDbLine
 10
732.0169794671295
 20
191.5429006957145
 30
0.0
 11
732.1478694671295
 21
196.5411766957144
 31
0.0
  0
LINE
  5
35AB
330
1F
100
AcDbEntity
  8
0
  6
Continuous
 62
     7
100
AcDbLine
 10
749.5723234671295
 20
188.7963946957144
 30
0.0
 11
747.0723234671295
 21
188.7963946957144
 31
0.0
  0
LINE
  5
35AC
330
1F
100
AcDbEntity
  8
0
  6
Continuous
 62
     7
100
AcDbLine
 10
757.3618744671295
 20
182.5961996957144
 30
0.0
 11
758.0723234671295
 21
182.5961996957144
 31
0.0
  0
ARC
  5
35AD
330
1F
100
AcDbEntity
  8
0
  6
Continuous
 62
     7
100
AcDbCircle
 10
756.5723234671295
 20
181.9824296957144
 30
0.0
 40
1.0
100
AcDbArc
 50
37.85813699999952
 51
70.52880699999672
  0
LINE
  5
35AE
330
1F
100
AcDbEntity
  8
0
  6
Continuous
 62
     7
100
AcDbLine
 10
749.5723234671295
 20
196.1961746957145
 30
0.0
 11
747.0723234671295
 21
196.1961746957145
 31
0.0
  0
LINE
  5
35AF
330
1F
100
AcDbEntity
  8
0
  6
Continuous
 62
     7
100
AcDbLine
 10
749.5723234671295
 20
200.3961876957145
 30
0.0
 11
747.0723234671295
 21
200.3961876957145
 31
0.0
  0
CIRCLE
  5
35B0
330
1F
100
AcDbEntity
  8
0
  6
Continuous
 62
     7
100
AcDbCircle
 10
760.5723234671295
 20
193.2961506957144
 30
0.0
 40
1.5
  0
LINE
  5
35B1
330
1F
100
AcDbEntity
  8
0
  6
Continuous
 62
     7
100
AcDbLine
 10
763.0723234671295
 20
188.2963946957144
 30
0.0
 11
763.0723234671295
 21
164.7962116957145
 31
0.0
  0
CIRCLE
  5
35B5
330
1F
100
AcDbEntity
  8
0
  6
Continuous
 62
     7
100
AcDbCircle
 10
796.0723234671295
 20
192.2961506957144
 30
0.0
 40
2.250000999999999
  0
LINE
  5
35C0
330
1F
100
AcDbEntity
  8
0
  6
Continuous
 62
     7
100
AcDbLine
 10
816.0723234671294
 20
226.2962116957145
 30
0.0
 11
749.5723234671295
 21
226.2962116957145
 31
0.0
  0
LINE
  5
35C1
330
1F
100
AcDbEntity
  8
AM_7
100
AcDbLine
 10
818.6189544671295
 20
207.2961506957144
 30
0.0
 11
743.7734954671295
 21
207.2961506957144
 31
0.0
  0
LINE
  5
35C2
330
1F
100
AcDbEntity
  8
0
  6
Continuous
 62
     7
100
AcDbLine
 10
816.0723234671294
 20
217.7961506957144
 30
0.0
 11
749.5723234671295
 21
217.7961506957144
 31
0.0
  0
LINE
  5
35C3
330
1F
100
AcDbEntity
  8
0
  6
Continuous
 62
     7
100
AcDbLine
 10
816.0723234671294
 20
214.7961506957145
 30
0.0
 11
749.5723234671295
 21
214.7961506957145
 31
0.0
  0
LINE
  5
35C4
330
1F
100
AcDbEntity
  8
0
  6
Continuous
 62
     7
100
AcDbLine
 10
749.5723234671295
 20
212.5961996957145
 30
0.0
 11
816.0723234671294
 21
212.5961996957145
 31
0.0
  0
LINE
  5
35C5
330
1F
100
AcDbEntity
  8
0
  6
Continuous
 62
     7
100
AcDbLine
 10
749.5723234671295
 20
212.2961506957145
 30
0.0
 11
816.0723234671294
 21
212.2961506957145
 31
0.0
  0
LINE
  5
35C6
330
1F
100
AcDbEntity
  8
0
  6
Continuous
 62
     7
100
AcDbLine
 10
749.5723234671295
 20
201.9961016957144
 30
0.0
 11
816.0723234671294
 21
201.9961016957144
 31
0.0
  0
LINE
  5
35C7
330
1F
100
AcDbEntity
  8
0
  6
Continuous
 62
     7
100
AcDbLine
 10
749.5723234671295
 20
202.2961506957145
 30
0.0
 11
816.0723234671294
 21
202.2961506957145
 31
0.0
  0
LINE
  5
35C9
330
1F
100
AcDbEntity
  8
0
  6
Continuous
 62
     7
100
AcDbLine
 10
763.0723234671295
 20
226.2962116957145
 30
0.0
 11
763.0723234671295
 21
249.7961506957145
 31
0.0
  0
LINE
  5
35CA
330
1F
100
AcDbEntity
  8
0
  6
Continuous
 62
     7
100
AcDbLine
 10
758.0723234671295
 20
231.9961016957145
 30
0.0
 11
758.0723234671295
 21
249.7961506957145
 31
0.0
  0
LINE
  5
35CD
330
1F
100
AcDbEntity
  8
0
  6
ACISOTGB
 62
     2
100
AcDbLine
 10
732.0165604671294
 20
223.0490496957144
 30
0.0
 11
732.1474424671294
 21
218.0506976957145
 31
0.0
  0
LINE
  5
35CE
330
1F
100
AcDbEntity
  8
0
  6
ACISOTGB
 62
     2
100
AcDbLine
 10
747.0725064671295
 20
218.4415366957145
 30
0.0
 11
732.1474424671294
 21
218.0506976957145
 31
0.0
  0
LINE
  5
35CF
330
1F
100
AcDbEntity
  8
0
  6
Continuous
 62
     7
100
AcDbLine
 10
749.5723234671295
 20
214.1961136957144
 30
0.0
 11
747.0723234671295
 21
214.1961136957144
 31
0.0
  0
LINE
  5
35D0
330
1F
100
AcDbEntity
  8
0
  6
Continuous
 62
     7
100
AcDbLine
 10
749.5723234671295
 20
218.3961266957144
 30
0.0
 11
747.0723234671295
 21
218.3961266957144
 31
0.0
  0
LINE
  5
35D1
330
1F
100
AcDbEntity
  8
AM_7
100
AcDbLine
 10
754.5723084671295
 20
221.1387716957144
 30
0.0
 11
730.4756204671296
 21
220.5077896957145
 31
0.0
  0
LINE
  5
35D2
330
1F
100
AcDbEntity
  8
0
  6
ACISOTGB
 62
     2
100
AcDbLine
 10
747.0724304671295
 20
223.4433066957144
 30
0.0
 11
732.0165604671294
 21
223.0490496957144
 31
0.0
  0
ARC
  5
35D3
330
1F
100
AcDbEntity
  8
0
  6
Continuous
 62
     7
100
AcDbCircle
 10
760.5723234671295
 20
221.2961506957145
 30
0.0
 40
10.999999
100
AcDbArc
 50
109.4712119999956
 51
152.9641079999979
  0
LINE
  5
35D4
330
1F
100
AcDbEntity
  8
0
  6
Continuous
 62
     7
100
AcDbLine
 10
749.5723234671295
 20
225.7960896957144
 30
0.0
 11
747.0723234671295
 21
225.7960896957144
 31
0.0
  0
CIRCLE
  5
35D5
330
1F
100
AcDbEntity
  8
0
  6
Continuous
 62
     7
100
AcDbCircle
 10
760.5723234671295
 20
221.2961506957145
 30
0.0
 40
1.5
  0
LINE
  5
35D6
330
1F
100
AcDbEntity
  8
0
  6
Continuous
 62
     7
100
AcDbLine
 10
757.3618744671295
 20
231.9961016957145
 30
0.0
 11
758.0723234671295
 21
231.9961016957145
 31
0.0
  0
ARC
  5
35D7
330
1F
100
AcDbEntity
  8
0
  6
Continuous
 62
     7
100
AcDbCircle
 10
756.5723234671295
 20
232.6098716957144
 30
0.0
 40
1.0
100
AcDbArc
 50
289.4711930000033
 51
322.1418670000005
  0
CIRCLE
  5
35DB
330
1F
100
AcDbEntity
  8
0
  6
Continuous
 62
     7
100
AcDbCircle
 10
796.0723234671295
 20
222.2961506957144
 30
0.0
 40
2.250000999999999
  0
LINE
  5
35DD
330
1F
100
AcDbEntity
  8
0
  6
Continuous
 62
     7
100
AcDbLine
 10
758.0723234671295
 20
249.7961506957145
 30
0.0
 11
763.0723234671295
 21
249.7961506957145
 31
0.0
  0
DIMENSION
  5
35DE
330
1F
100
AcDbEntity
  8
AM_5
100
AcDbDimension
  2
*D15
 10
763.0723234671295
 20
257.7961506957144
 30
0.0
 11
760.5723234671295
 21
260.3461506957145
 31
0.0
 70
    32
  1
<>
 71
     5
 42
5.0
  3
AM_ISO$0
100
AcDbAlignedDimension
 13
758.0723234671295
 23
249.7961506957145
 33
0.0
 14
763.0723234671295
 24
249.7961506957145
 34
0.0
100
AcDbRotatedDimension
  0
POINT
  5
35E1
330
1F
100
AcDbEntity
  8
0
  6
Continuous
 62
     7
100
AcDbPoint
 10
816.0723234671294
 20
207.2961506957144
 30
0.0
  0
DIMENSION
  5
35E6
330
1F
100
AcDbEntity
  8
AM_5
100
AcDbDimension
  2
*D16
 10
816.0723234671294
 20
273.2024011978547
 30
0.0
 11
799.5723234671295
 21
275.7524011978547
 31
0.0
 70
    32
  1
<>
 71
     5
 42
33.0
  3
AM_ISO$0
100
AcDbAlignedDimension
 13
783.0723234671295
 23
282.2024011978547
 33
0.0
 14
816.0723234671294
 24
281.2024011978547
 34
0.0
100
AcDbRotatedDimension
  0
DIMENSION
  5
35E8
330
1F
100
AcDbEntity
  8
AM_5
100
AcDbDimension
  2
*D17
 10
826.8630944671295
 20
285.2024011978547
 30
0.0
 11
824.3127499789403
 21
291.2024011978548
 31
0.0
 70
    32
  1
<>
 71
     5
 42
12.0
  3
AM_ISO$0
100
AcDbAlignedDimension
 13
786.1096774671295
 23
297.2024011978547
 33
0.0
 14
786.0723234671295
 24
285.2024011978547
 34
0.0
 50
90.0
100
AcDbRotatedDimension
  0
LINE
  5
35E9
330
1F
100
AcDbEntity
  8
0
  6
Continuous
 62
     7
100
AcDbLine
 10
816.0723234671294
 20
301.2024011978547
 30
0.0
 11
749.5723234671295
 21
301.2024011978547
 31
0.0
  0
LINE
  5
35EA
330
1F
100
AcDbEntity
  8
AM_7
100
AcDbLine
 10
818.8630944671295
 20
291.2024011978547
 30
0.0
 11
744.8777434671296
 21
291.2024011978547
 31
0.0
  0
LINE
  5
35EB
330
1F
100
AcDbEntity
  8
0
  6
Continuous
 62
     7
100
AcDbLine
 10
816.0723234671294
 20
281.2024011978547
 30
0.0
 11
749.5723234671295
 21
281.2024011978547
 31
0.0
  0
LINE
  5
35EE
330
1F
100
AcDbEntity
  8
AM_7
100
AcDbLine
 10
783.0723234671295
 20
299.7519621978547
 30
0.0
 11
783.0723234671295
 21
282.9074791978546
 31
0.0
  0
LINE
  5
35EF
330
1F
100
AcDbEntity
  8
0
  6
Continuous
 62
     7
100
AcDbLine
 10
749.5723234671295
 20
301.2024011978547
 30
0.0
 11
749.5723234671295
 21
281.2024011978547
 31
0.0
  0
LINE
  5
35F0
330
1F
100
AcDbEntity
  8
0
  6
Continuous
 62
     7
100
AcDbLine
 10
747.0723234671295
 20
300.7024011978547
 30
0.0
 11
747.0723234671295
 21
281.7024011978547
 31
0.0
  0
LINE
  5
35F1
330
1F
100
AcDbEntity
  8
AM_7
100
AcDbLine
 10
760.5723234671295
 20
303.0659261978546
 30
0.0
 11
760.5723234671295
 21
280.1318441978547
 31
0.0
  0
LINE
  5
35F2
330
1F
100
AcDbEntity
  8
0
  6
Continuous
 62
     7
100
AcDbLine
 10
764.7656824671295
 20
287.2024011978547
 30
0.0
 11
749.5723234671295
 21
287.2024011978547
 31
0.0
  0
LINE
  5
35F3
330
1F
100
AcDbEntity
  8
0
  6
Continuous
 62
     7
100
AcDbLine
 10
764.7656824671295
 20
295.2024011978547
 30
0.0
 11
749.5723234671295
 21
295.2024011978547
 31
0.0
  0
LINE
  5
35F4
330
1F
100
AcDbEntity
  8
0
  6
Continuous
 62
     7
100
AcDbLine
 10
758.0723234671295
 20
287.2024011978547
 30
0.0
 11
758.0723234671295
 21
295.2024011978547
 31
0.0
  0
LINE
  5
35F5
330
1F
100
AcDbEntity
  8
0
  6
Continuous
 62
     7
100
AcDbLine
 10
747.0723234671295
 20
281.7024011978547
 30
0.0
 11
749.5723234671295
 21
281.7024011978547
 31
0.0
  0
LINE
  5
35F6
330
1F
100
AcDbEntity
  8
0
  6
Continuous
 62
     7
100
AcDbLine
 10
749.5723234671295
 20
286.9023521978546
 30
0.0
 11
747.0723234671295
 21
286.9023521978546
 31
0.0
  0
LINE
  5
35F7
330
1F
100
AcDbEntity
  8
0
  6
Continuous
 62
     7
100
AcDbLine
 10
749.5723234671295
 20
295.5024501978547
 30
0.0
 11
747.0723234671295
 21
295.5024501978547
 31
0.0
  0
LINE
  5
35FC
330
1F
100
AcDbEntity
  8
0
  6
Continuous
 62
     7
100
AcDbLine
 10
764.7656824671295
 20
287.2024011978547
 30
0.0
 11
764.7656824671295
 21
295.2021571978547
 31
0.0
  0
LINE
  5
35FD
330
1F
100
AcDbEntity
  8
0
  6
Continuous
 62
     7
100
AcDbLine
 10
763.0723234671295
 20
287.2024011978547
 30
0.0
 11
763.0723234671295
 21
295.2024011978547
 31
0.0
  0
LINE
  5
35FE
330
1F
100
AcDbEntity
  8
0
  6
Continuous
 62
     7
100
AcDbLine
 10
747.0723234671295
 20
300.7024011978547
 30
0.0
 11
749.5723234671295
 21
300.7024011978547
 31
0.0
  0
LINE
  5
3601
330
1F
100
AcDbEntity
  8
0
  6
Continuous
 62
     7
100
AcDbLine
 10
816.0723234671294
 20
301.2024011978547
 30
0.0
 11
816.0723234671294
 21
281.2024011978547
 31
0.0
  0
POINT
  5
3602
330
1F
100
AcDbEntity
  8
0
  6
Continuous
 62
     7
100
AcDbPoint
 10
816.0723234671294
 20
291.2024011978547
 30
0.0
  0
DIMENSION
  5
3607
330
1F
100
AcDbEntity
  8
AM_5
100
AcDbDimension
  2
*D18
 10
873.8887795473988
 20
156.2405548157842
 30
0.0
 11
867.8887795473988
 21
158.7908993039732
 31
0.0
 70
    32
  1
<>
 71
     5
 42
12.0
  3
AM_ISO$0
100
AcDbAlignedDimension
 13
861.8887795473987
 23
189.4995196957144
 33
0.0
 14
873.8887795473988
 24
219.3024986957145
 34
0.0
100
AcDbRotatedDimension
  0
LINE
  5
3608
330
1F
100
AcDbEntity
  8
AM_7
100
AcDbLine
 10
867.8887795473988
 20
163.3205646957144
 30
0.0
 11
867.8887795473988
 21
250.8274616957145
 31
0.0
  0
LINE
  5
3609
330
1F
100
AcDbEntity
  8
0
  6
Continuous
 62
     7
100
AcDbLine
 10
857.8887795473988
 20
201.9961016957144
 30
0.0
 11
857.8887795473988
 21
199.7961506957144
 31
0.0
  0
DIMENSION
  5
360A
330
1F
100
AcDbEntity
  8
AM_5
100
AcDbDimension
  2
*D19
 10
894.4004891113795
 20
188.2961506957144
 30
0.0
 11
891.8504891113796
 21
207.2961811957146
 31
0.0
 70
    32
  1
<>
 71
     5
 42
38.00006100000002
  3
AM_ISO$0
100
AcDbAlignedDimension
 13
877.8887795473988
 23
226.2962116957145
 33
0.0
 14
877.8887795473988
 24
188.2961506957144
 34
0.0
 50
90.0
100
AcDbRotatedDimension
  0
LINE
  5
360B
330
1F
100
AcDbEntity
  8
0
  6
Continuous
 62
     7
100
AcDbLine
 10
877.8887795473988
 20
201.9948806957145
 30
0.0
 11
877.8887795473988
 21
199.7961506957144
 31
0.0
  0
DIMENSION
  5
360C
330
1F
100
AcDbEntity
  8
AM_5
100
AcDbDimension
  2
*D20
 10
886.6221403155956
 20
222.2961506957144
 30
0.0
 11
884.0721403155955
 21
207.2961506957146
 31
0.0
 70
    32
  1
<>
 71
     5
 42
30.0
  3
AM_ISO$0
100
AcDbAlignedDimension
 13
870.2811135473988
 23
192.2961506957144
 33
0.0
 14
876.7994245473989
 24
222.2961506957144
 34
0.0
 50
90.0
100
AcDbRotatedDimension
  0
DIMENSION
  5
360F
330
1F
100
AcDbEntity
  8
AM_5
100
AcDbDimension
  2
*D21
 10
877.8887795473988
 20
149.3013221438082
 30
0.0
 11
867.8887795473988
 21
151.8516666319972
 31
0.0
 70
    32
  1
<>
 71
     5
 42
20.0
  3
AM_ISO$0
100
AcDbAlignedDimension
 13
857.8887795473988
 23
188.2961506957144
 33
0.0
 14
877.8887795473988
 24
188.2961506957144
 34
0.0
100
AcDbRotatedDimension
  0
LINE
  5
3611
330
1F
100
AcDbEntity
  8
0
  6
Continuous
 62
     7
100
AcDbLine
 10
871.8887795473987
 20
164.7962116957145
 30
0.0
 11
871.8887795473987
 21
188.2961506957144
 31
0.0
  0
LINE
  5
3612
330
1F
100
AcDbEntity
  8
0
  6
Continuous
 62
     7
100
AcDbLine
 10
863.8887795473989
 20
164.7962116957145
 30
0.0
 11
863.8887795473989
 21
188.2961506957144
 31
0.0
  0
LINE
  5
3613
330
1F
100
AcDbEntity
  8
0
  6
Continuous
 62
     7
100
AcDbLine
 10
863.8887795473989
 20
164.7962116957145
 30
0.0
 11
871.8887795473987
 21
164.7962116957145
 31
0.0
  0
LINE
  5
361A
330
1F
100
AcDbEntity
  8
0
  6
Continuous
 62
     7
100
AcDbLine
 10
877.8887795473988
 20
196.7961506957144
 30
0.0
 11
877.8887795473988
 21
188.2961506957144
 31
0.0
  0
LINE
  5
361B
330
1F
100
AcDbEntity
  8
0
  6
Continuous
 62
     7
100
AcDbLine
 10
857.8887795473988
 20
196.7961506957144
 30
0.0
 11
857.8887795473988
 21
188.2961506957144
 31
0.0
  0
ARC
  5
361F
330
1F
100
AcDbEntity
  8
0
  6
Continuous
 62
     7
100
AcDbCircle
 10
867.8887795473988
 20
192.7961506957144
 30
0.0
 40
1.5
100
AcDbArc
 50
359.9999630000002
 51
179.9999639999999
  0
ARC
  5
3620
330
1F
100
AcDbEntity
  8
0
  6
Continuous
 62
     7
100
AcDbCircle
 10
867.8887795473988
 20
191.7960896957144
 30
0.0
 40
1.5
100
AcDbArc
 50
179.9999639999999
 51
0.000009999999378
  0
LINE
  5
3621
330
1F
100
AcDbEntity
  8
0
  6
Continuous
 62
     7
100
AcDbLine
 10
857.8887795473988
 20
188.2961506957144
 30
0.0
 11
877.8887795473988
 21
188.2961506957144
 31
0.0
  0
LINE
  5
3623
330
1F
100
AcDbEntity
  8
0
  6
Continuous
 62
     7
100
AcDbLine
 10
866.3887795473987
 20
192.7961506957144
 30
0.0
 11
866.3887795473987
 21
191.7960896957144
 31
0.0
  0
POINT
  5
3624
330
1F
100
AcDbEntity
  8
0
  6
Continuous
 62
     7
100
AcDbPoint
 10
862.3887795473988
 20
198.2961506957144
 30
0.0
  0
LINE
  5
3625
330
1F
100
AcDbEntity
  8
0
  6
Continuous
 62
     7
100
AcDbLine
 10
859.0660255473988
 20
196.7961506957144
 30
0.0
 11
857.8887795473988
 21
196.7961506957144
 31
0.0
  0
LINE
  5
3626
330
1F
100
AcDbEntity
  8
0
  6
Continuous
 62
     7
100
AcDbLine
 10
859.0660255473988
 20
199.7961506957144
 30
0.0
 11
857.8887795473988
 21
199.7961506957144
 31
0.0
  0
ARC
  5
3627
330
1F
100
AcDbEntity
  8
0
  6
Continuous
 62
     7
100
AcDbCircle
 10
860.3887795473989
 20
198.2961506957144
 30
0.0
 40
2.0
100
AcDbArc
 50
228.5903778907305
 51
131.4096221092695
  0
ARC
  5
3628
330
1F
100
AcDbEntity
  8
0
  6
Continuous
 62
     7
100
AcDbCircle
 10
875.3887795473987
 20
198.2961506957144
 30
0.0
 40
2.0
100
AcDbArc
 50
48.59038599999985
 51
311.4096340000015
  0
LINE
  5
3629
330
1F
100
AcDbEntity
  8
0
  6
Continuous
 62
     7
100
AcDbLine
 10
877.8887795473988
 20
196.7961506957144
 30
0.0
 11
876.7117775473987
 21
196.7961506957144
 31
0.0
  0
LINE
  5
362A
330
1F
100
AcDbEntity
  8
0
  6
Continuous
 62
     7
100
AcDbLine
 10
877.8887795473988
 20
199.7961506957144
 30
0.0
 11
876.7117775473987
 21
199.7961506957144
 31
0.0
  0
LINE
  5
362B
330
1F
100
AcDbEntity
  8
0
  6
Continuous
 62
     7
100
AcDbLine
 10
869.3887795473989
 20
192.7961506957144
 30
0.0
 11
869.3887795473989
 21
191.7960896957144
 31
0.0
  0
LINE
  5
3635
330
1F
100
AcDbEntity
  8
0
  6
Continuous
 62
     7
100
AcDbLine
 10
871.8887795473987
 20
249.7961506957145
 30
0.0
 11
871.8887795473987
 21
226.2962116957145
 31
0.0
  0
LINE
  5
3636
330
1F
100
AcDbEntity
  8
0
  6
Continuous
 62
     7
100
AcDbLine
 10
863.8887795473989
 20
249.7961506957145
 30
0.0
 11
863.8887795473989
 21
226.2962116957145
 31
0.0
  0
LINE
  5
3637
330
1F
100
AcDbEntity
  8
0
  6
Continuous
 62
     7
100
AcDbLine
 10
857.8887795473988
 20
226.2962116957145
 30
0.0
 11
857.8887795473988
 21
217.7961506957144
 31
0.0
  0
LINE
  5
3638
330
1F
100
AcDbEntity
  8
0
  6
Continuous
 62
     7
100
AcDbLine
 10
877.8887795473988
 20
226.2962116957145
 30
0.0
 11
877.8887795473988
 21
217.7961506957144
 31
0.0
  0
LINE
  5
3639
330
1F
100
AcDbEntity
  8
AM_7
100
AcDbLine
 10
856.6833043901093
 20
207.2961201957145
 30
0.0
 11
879.5207935163283
 21
207.2961201957145
 31
0.0
  0
LINE
  5
363A
330
1F
100
AcDbEntity
  8
0
  6
Continuous
 62
     7
100
AcDbLine
 10
877.5887305473988
 20
212.2960896957144
 30
0.0
 11
877.5887305473988
 21
202.2961506957145
 31
0.0
  0
LINE
  5
363B
330
1F
100
AcDbEntity
  8
0
  6
Continuous
 62
     7
100
AcDbLine
 10
858.1888285473988
 20
212.2960896957144
 30
0.0
 11
858.1888285473988
 21
202.2961506957145
 31
0.0
  0
POINT
  5
363C
330
1F
100
AcDbEntity
  8
0
  6
Continuous
 62
     7
100
AcDbPoint
 10
867.8887795473988
 20
207.2961506957144
 30
0.0
  0
LINE
  5
363D
330
1F
100
AcDbEntity
  8
0
  6
Continuous
 62
     7
100
AcDbLine
 10
858.1873325473988
 20
202.2946396957144
 30
0.0
 11
857.8887485473988
 21
201.9960716957145
 31
0.0
  0
LINE
  5
363E
330
1F
100
AcDbEntity
  8
0
  6
Continuous
 62
     7
100
AcDbLine
 10
877.5871745473988
 20
202.2946396957144
 30
0.0
 11
877.8877415473989
 21
201.9940876957145
 31
0.0
  0
POINT
  5
363F
330
1F
100
AcDbEntity
  8
0
  6
Continuous
 62
     7
100
AcDbPoint
 10
862.3887795473988
 20
216.2961506957145
 30
0.0
  0
LINE
  5
3640
330
1F
100
AcDbEntity
  8
0
  6
Continuous
 62
     7
100
AcDbLine
 10
859.0660255473988
 20
217.7961506957144
 30
0.0
 11
857.8887795473988
 21
217.7961506957144
 31
0.0
  0
LINE
  5
3641
330
1F
100
AcDbEntity
  8
0
  6
Continuous
 62
     7
100
AcDbLine
 10
859.0660255473988
 20
214.7961506957145
 30
0.0
 11
857.8887795473988
 21
214.7961506957145
 31
0.0
  0
LINE
  5
3642
330
1F
100
AcDbEntity
  8
0
  6
Continuous
 62
     7
100
AcDbLine
 10
857.8887795473988
 20
214.7961506957145
 30
0.0
 11
857.8887795473988
 21
212.5949176957145
 31
0.0
  0
LINE
  5
3643
330
1F
100
AcDbEntity
  8
0
  6
Continuous
 62
     7
100
AcDbLine
 10
857.8878025473988
 20
212.5941246957145
 30
0.0
 11
858.1873325473988
 21
212.2946096957145
 31
0.0
  0
ARC
  5
3644
330
1F
100
AcDbEntity
  8
0
  6
Continuous
 62
     7
100
AcDbCircle
 10
860.3887795473989
 20
216.2961506957145
 30
0.0
 40
2.0
100
AcDbArc
 50
228.5903778907305
 51
131.4096221092695
  0
ARC
  5
3645
330
1F
100
AcDbEntity
  8
0
  6
Continuous
 62
     7
100
AcDbCircle
 10
875.3887795473987
 20
216.2961506957145
 30
0.0
 40
2.0
100
AcDbArc
 50
48.59038599999985
 51
311.4096340000015
  0
LINE
  5
3646
330
1F
100
AcDbEntity
  8
0
  6
Continuous
 62
     7
100
AcDbLine
 10
877.8887795473988
 20
214.7961506957145
 30
0.0
 11
877.8887795473988
 21
212.5960166957144
 31
0.0
  0
LINE
  5
3647
330
1F
100
AcDbEntity
  8
0
  6
Continuous
 62
     7
100
AcDbLine
 10
877.8877415473989
 20
212.5951616957145
 30
0.0
 11
877.5871745473988
 21
212.2946096957145
 31
0.0
  0
LINE
  5
3648
330
1F
100
AcDbEntity
  8
0
  6
Continuous
 62
     7
100
AcDbLine
 10
877.8887795473988
 20
214.7961506957145
 30
0.0
 11
876.7117775473987
 21
214.7961506957145
 31
0.0
  0
LINE
  5
3649
330
1F
100
AcDbEntity
  8
0
  6
Continuous
 62
     7
100
AcDbLine
 10
877.8887795473988
 20
217.7961506957144
 30
0.0
 11
876.7117775473987
 21
217.7961506957144
 31
0.0
  0
LINE
  5
364A
330
1F
100
AcDbEntity
  8
0
  6
Continuous
 62
     7
100
AcDbLine
 10
877.8887795473988
 20
226.2962116957145
 30
0.0
 11
857.8887795473988
 21
226.2962116957145
 31
0.0
  0
LINE
  5
365E
330
1F
100
AcDbEntity
  8
0
  6
Continuous
 62
     7
100
AcDbLine
 10
863.8887795473989
 20
249.7961506957145
 30
0.0
 11
871.8887795473987
 21
249.7961506957145
 31
0.0
  0
LINE
  5
3E55
330
1F
100
AcDbEntity
  8
0
  6
Continuous
 62
     7
100
AcDbLine
 10
668.7955972377201
 20
212.2961201957145
 30
0.0
 11
668.7955972377201
 21
202.2961811957145
 31
0.0
  0
LINE
  5
3E56
330
1F
100
AcDbEntity
  8
0
  6
Continuous
 62
     7
100
AcDbLine
 10
688.1954992377202
 20
212.2961201957145
 30
0.0
 11
688.1954992377202
 21
202.2961811957145
 31
0.0
  0
CIRCLE
  5
3E57
330
1F
100
AcDbEntity
  8
0
100
AcDbCircle
 10
671.2955972377201
 20
207.2961506957144
 30
0.0
 40
2.5
  0
CIRCLE
  5
3E5A
330
1F
100
AcDbEntity
  8
0
100
AcDbCircle
 10
685.6954992377202
 20
207.2961506957144
 30
0.0
 40
2.5
  0
LINE
  5
3E5B
330
1F
100
AcDbEntity
  8
AM_7
100
AcDbLine
 10
678.4955482377202
 20
163.3205951957144
 30
0.0
 11
678.4955482377202
 21
250.8274921957144
 31
0.0
  0
LINE
  5
3E5D
330
1F
100
AcDbEntity
  8
0
  6
Continuous
 62
     7
100
AcDbLine
 10
674.4955482377202
 20
164.7962421957144
 30
0.0
 11
674.4955482377203
 21
201.3962181957145
 31
0.0
  0
LINE
  5
3E5E
330
1F
100
AcDbEntity
  8
0
  6
Continuous
 62
     7
100
AcDbLine
 10
682.4955482377202
 20
164.7962421957144
 30
0.0
 11
682.4955482377202
 21
201.3962181957145
 31
0.0
  0
LINE
  5
3E60
330
1F
100
AcDbEntity
  8
0
  6
Continuous
 62
     7
100
AcDbLine
 10
674.4955482377202
 20
164.7962421957144
 30
0.0
 11
682.4955482377202
 21
164.7962421957144
 31
0.0
  0
LINE
  5
3E63
330
1F
100
AcDbEntity
  8
0
  6
Continuous
 62
     7
100
AcDbLine
 10
674.4955482377203
 20
188.7960591957144
 30
0.0
 11
668.9955482377201
 21
188.7960591957144
 31
0.0
  0
LINE
  5
3E64
330
1F
100
AcDbEntity
  8
0
  6
Continuous
 62
     7
100
AcDbLine
 10
668.4955482377201
 20
188.2961811957144
 30
0.0
 11
674.4955482377203
 21
188.2961811957144
 31
0.0
  0
ARC
  5
3E65
330
1F
100
AcDbEntity
  8
0
  6
Continuous
 62
     7
100
AcDbCircle
 10
670.9955482377202
 20
198.2961811957144
 30
0.0
 40
2.0
100
AcDbArc
 50
228.5903778907308
 51
131.4096221092692
  0
LINE
  5
3E66
330
1F
100
AcDbEntity
  8
0
  6
Continuous
 62
     7
100
AcDbLine
 10
669.6727942377201
 20
196.7961811957144
 30
0.0
 11
668.4955482377201
 21
196.7961811957144
 31
0.0
  0
LINE
  5
3E67
330
1F
100
AcDbEntity
  8
0
  6
Continuous
 62
     7
100
AcDbLine
 10
668.4955482377201
 20
196.7961811957144
 30
0.0
 11
668.4955482377201
 21
188.2961811957144
 31
0.0
  0
LINE
  5
3E68
330
1F
100
AcDbEntity
  8
0
  6
Continuous
 62
     7
100
AcDbLine
 10
668.9955482377201
 20
188.7960591957144
 30
0.0
 11
668.9955482377201
 21
196.2961201957145
 31
0.0
  0
LINE
  5
3E69
330
1F
100
AcDbEntity
  8
0
100
AcDbLine
 10
670.9955482377202
 20
196.2961201957145
 30
0.0
 11
668.9955482377201
 21
196.2961201957145
 31
0.0
  0
LINE
  5
3E6A
330
1F
100
AcDbEntity
  8
0
  6
Continuous
 62
     7
100
AcDbLine
 10
668.4955482377201
 20
201.9961321957145
 30
0.0
 11
668.4955482377201
 21
199.7961811957144
 31
0.0
  0
LINE
  5
3E6B
330
1F
100
AcDbEntity
  8
0
  6
Continuous
 62
     7
100
AcDbLine
 10
668.7941012377201
 20
202.2946701957144
 30
0.0
 11
668.4955172377201
 21
201.9961021957144
 31
0.0
  0
LINE
  5
3E6C
330
1F
100
AcDbEntity
  8
0
  6
Continuous
 62
     7
100
AcDbLine
 10
669.6727942377201
 20
199.7961811957144
 30
0.0
 11
668.4955482377201
 21
199.7961811957144
 31
0.0
  0
LINE
  5
3E6D
330
1F
100
AcDbEntity
  8
0
100
AcDbLine
 10
670.9955482377202
 20
200.2961201957145
 30
0.0
 11
668.4955482377201
 21
200.2961201957145
 31
0.0
  0
ARC
  5
3E6E
330
1F
100
AcDbEntity
  8
0
  6
Continuous
 62
     7
100
AcDbCircle
 10
685.9955482377202
 20
198.2961811957144
 30
0.0
 40
2.0
100
AcDbArc
 50
48.59038599999958
 51
311.4096339999993
  0
LINE
  5
3E6F
330
1F
100
AcDbEntity
  8
0
  6
Continuous
 62
     7
100
AcDbLine
 10
687.9955482377202
 20
188.7960591957144
 30
0.0
 11
682.4955482377202
 21
188.7960591957144
 31
0.0
  0
LINE
  5
3E70
330
1F
100
AcDbEntity
  8
0
  6
Continuous
 62
     7
100
AcDbLine
 10
682.4955482377202
 20
188.2961811957144
 30
0.0
 11
688.4955482377201
 21
188.2961811957144
 31
0.0
  0
LINE
  5
3E71
330
1F
100
AcDbEntity
  8
0
  6
Continuous
 62
     7
100
AcDbLine
 10
688.4955482377201
 20
196.7961811957144
 30
0.0
 11
687.3185462377201
 21
196.7961811957144
 31
0.0
  0
LINE
  5
3E72
330
1F
100
AcDbEntity
  8
0
  6
Continuous
 62
     7
100
AcDbLine
 10
688.4955482377201
 20
196.7961811957144
 30
0.0
 11
688.4955482377201
 21
188.2961811957144
 31
0.0
  0
LINE
  5
3E73
330
1F
100
AcDbEntity
  8
0
  6
Continuous
 62
     7
100
AcDbLine
 10
687.9955482377202
 20
188.7960591957144
 30
0.0
 11
687.9955482377202
 21
196.2961201957145
 31
0.0
  0
LINE
  5
3E74
330
1F
100
AcDbEntity
  8
0
100
AcDbLine
 10
685.9955482377202
 20
196.2961201957145
 30
0.0
 11
687.9955482377202
 21
196.2961201957145
 31
0.0
  0
POINT
  5
3E75
330
1F
100
AcDbEntity
  8
0
  6
Continuous
 62
     7
100
AcDbPoint
 10
672.9955482377201
 20
198.2961811957144
 30
0.0
  0
LINE
  5
3E76
330
1F
100
AcDbEntity
  8
0
100
AcDbLine
 10
682.4955482377202
 20
200.3962181957145
 30
0.0
 11
674.4955482377202
 21
200.3962181957145
 31
0.0
  0
LINE
  5
3E77
330
1F
100
AcDbEntity
  8
0
100
AcDbLine
 10
682.4955482377202
 20
201.3962181957145
 30
0.0
 11
674.4955482377203
 21
201.3962181957145
 31
0.0
  0
LINE
  5
3E78
330
1F
100
AcDbEntity
  8
0
  6
Continuous
 62
     7
100
AcDbLine
 10
688.4955482377201
 20
201.9949111957145
 30
0.0
 11
688.4955482377201
 21
199.7961811957144
 31
0.0
  0
LINE
  5
3E79
330
1F
100
AcDbEntity
  8
0
  6
Continuous
 62
     7
100
AcDbLine
 10
688.4955482377201
 20
199.7961811957144
 30
0.0
 11
687.3185462377201
 21
199.7961811957144
 31
0.0
  0
LINE
  5
3E7A
330
1F
100
AcDbEntity
  8
0
  6
Continuous
 62
     7
100
AcDbLine
 10
688.1939432377201
 20
202.2946701957144
 30
0.0
 11
688.4945102377201
 21
201.9941181957145
 31
0.0
  0
LINE
  5
3E7B
330
1F
100
AcDbEntity
  8
0
100
AcDbLine
 10
685.9955482377202
 20
200.2961201957145
 30
0.0
 11
688.4955482377201
 21
200.2961201957144
 31
0.0
  0
LINE
  5
3E7E
330
1F
100
AcDbEntity
  8
0
  6
Continuous
 62
     7
100
AcDbLine
 10
674.4955482377202
 20
249.7961811957144
 30
0.0
 11
674.4955482377203
 21
213.1960831957144
 31
0.0
  0
LINE
  5
3E7F
330
1F
100
AcDbEntity
  8
0
  6
Continuous
 62
     7
100
AcDbLine
 10
682.4955482377202
 20
249.7961811957144
 30
0.0
 11
682.4955482377202
 21
213.1960831957143
 31
0.0
  0
LINE
  5
3E80
330
1F
100
AcDbEntity
  8
0
  6
Continuous
 62
     7
100
AcDbLine
 10
688.4955482377201
 20
226.2962421957144
 30
0.0
 11
688.4955482377201
 21
217.7961811957144
 31
0.0
  0
LINE
  5
3E81
330
1F
100
AcDbEntity
  8
0
  6
Continuous
 62
     7
100
AcDbLine
 10
668.4955482377201
 20
226.2962421957144
 30
0.0
 11
668.4955482377201
 21
217.7961811957144
 31
0.0
  0
LINE
  5
3E82
330
1F
100
AcDbEntity
  8
0
  6
Continuous
 62
     7
100
AcDbLine
 10
668.9955482377201
 20
225.7962421957144
 30
0.0
 11
668.9955482377201
 21
218.2961811957144
 31
0.0
  0
LINE
  5
3E83
330
1F
100
AcDbEntity
  8
0
  6
Continuous
 62
     7
100
AcDbLine
 10
687.9955482377202
 20
225.7962421957144
 30
0.0
 11
687.9955482377202
 21
218.2961811957144
 31
0.0
  0
ARC
  5
3E84
330
1F
100
AcDbEntity
  8
0
  6
Continuous
 62
     7
100
AcDbCircle
 10
670.9955482377202
 20
216.2961811957144
 30
0.0
 40
2.0
100
AcDbArc
 50
228.5903778907308
 51
131.4096221092692
  0
LINE
  5
3E86
330
1F
100
AcDbEntity
  8
0
  6
Continuous
 62
     7
100
AcDbLine
 10
668.4945712377202
 20
212.5941551957145
 30
0.0
 11
668.7941012377201
 21
212.2946401957145
 31
0.0
  0
LINE
  5
3E87
330
1F
100
AcDbEntity
  8
0
  6
Continuous
 62
     7
100
AcDbLine
 10
668.4955482377201
 20
214.7961811957145
 30
0.0
 11
668.4945712377202
 21
212.5941551957145
 31
0.0
  0
LINE
  5
3E88
330
1F
100
AcDbEntity
  8
0
  6
Continuous
 62
     7
100
AcDbLine
 10
669.6727942377201
 20
214.7961811957145
 30
0.0
 11
668.4955482377201
 21
214.7961811957145
 31
0.0
  0
LINE
  5
3E89
330
1F
100
AcDbEntity
  8
0
100
AcDbLine
 10
670.9955482377202
 20
214.2961811957144
 30
0.0
 11
668.4955482377201
 21
214.2961811957144
 31
0.0
  0
LINE
  5
3E8A
330
1F
100
AcDbEntity
  8
0
  6
Continuous
 62
     7
100
AcDbLine
 10
669.6727942377201
 20
217.7961811957144
 30
0.0
 11
668.4955482377201
 21
217.7961811957144
 31
0.0
  0
LINE
  5
3E8B
330
1F
100
AcDbEntity
  8
0
100
AcDbLine
 10
670.9955482377202
 20
218.2961811957144
 30
0.0
 11
668.9955482377201
 21
218.2961811957144
 31
0.0
  0
ARC
  5
3E8C
330
1F
100
AcDbEntity
  8
0
  6
Continuous
 62
     7
100
AcDbCircle
 10
685.9955482377202
 20
216.2961811957144
 30
0.0
 40
2.0
100
AcDbArc
 50
48.59038599999958
 51
311.4096339999993
  0
LINE
  5
3E8E
330
1F
100
AcDbEntity
  8
0
100
AcDbLine
 10
682.4955482377202
 20
213.1960831957143
 30
0.0
 11
674.4955482377203
 21
213.1960831957143
 31
0.0
  0
LINE
  5
3E8F
330
1F
100
AcDbEntity
  8
0
100
AcDbLine
 10
682.4955482377202
 20
214.1960831957143
 30
0.0
 11
674.4955482377202
 21
214.1960831957143
 31
0.0
  0
LINE
  5
3E90
330
1F
100
AcDbEntity
  8
0
  6
Continuous
 62
     7
100
AcDbLine
 10
688.4955482377201
 20
214.7961811957145
 30
0.0
 11
687.3185462377201
 21
214.7961811957145
 31
0.0
  0
LINE
  5
3E91
330
1F
100
AcDbEntity
  8
0
  6
Continuous
 62
     7
100
AcDbLine
 10
688.4945102377201
 20
212.5951921957145
 30
0.0
 11
688.1939432377201
 21
212.2946401957145
 31
0.0
  0
LINE
  5
3E92
330
1F
100
AcDbEntity
  8
0
  6
Continuous
 62
     7
100
AcDbLine
 10
688.4955482377201
 20
214.7961811957145
 30
0.0
 11
688.4955482377201
 21
212.5960471957144
 31
0.0
  0
LINE
  5
3E93
330
1F
100
AcDbEntity
  8
0
100
AcDbLine
 10
685.9955482377202
 20
214.2961811957144
 30
0.0
 11
688.4955482377201
 21
214.2961811957144
 31
0.0
  0
POINT
  5
3E94
330
1F
100
AcDbEntity
  8
0
  6
Continuous
 62
     7
100
AcDbPoint
 10
672.9955482377201
 20
216.2961811957144
 30
0.0
  0
LINE
  5
3E95
330
1F
100
AcDbEntity
  8
0
  6
Continuous
 62
     7
100
AcDbLine
 10
688.4955482377201
 20
217.7961811957144
 30
0.0
 11
687.3185462377201
 21
217.7961811957144
 31
0.0
  0
LINE
  5
3E96
330
1F
100
AcDbEntity
  8
0
100
AcDbLine
 10
685.9955482377202
 20
218.2961811957144
 30
0.0
 11
687.9955482377202
 21
218.2961811957144
 31
0.0
  0
LINE
  5
3E97
330
1F
100
AcDbEntity
  8
0
  6
Continuous
 62
     7
100
AcDbLine
 10
674.4955482377202
 20
225.7962421957144
 30
0.0
 11
668.9955482377201
 21
225.7962421957144
 31
0.0
  0
LINE
  5
3E98
330
1F
100
AcDbEntity
  8
0
  6
Continuous
 62
     7
100
AcDbLine
 10
674.4955482377202
 20
226.2962421957144
 30
0.0
 11
668.4955482377201
 21
226.2962421957144
 31
0.0
  0
LINE
  5
3E99
330
1F
100
AcDbEntity
  8
0
  6
Continuous
 62
     7
100
AcDbLine
 10
687.9955482377202
 20
225.7962421957144
 30
0.0
 11
682.4955482377202
 21
225.7962421957144
 31
0.0
  0
LINE
  5
3E9A
330
1F
100
AcDbEntity
  8
0
  6
Continuous
 62
     7
100
AcDbLine
 10
688.4955482377201
 20
226.2962421957144
 30
0.0
 11
682.4955482377202
 21
226.2962421957144
 31
0.0
  0
DIMENSION
  5
3EA1
330
1F
100
AcDbEntity
  8
AM_5
100
AcDbDimension
  2
*D22
 10
682.4955482377202
 20
257.7961811957144
 30
0.0
 11
691.658264272845
 21
261.4126386924734
 31
0.0
 70
    32
  1
<>
 71
     5
 42
8.0
  3
AM_ISO$0
100
AcDbAlignedDimension
 13
674.4955482377202
 23
249.7961811957144
 33
0.0
 14
682.4955482377202
 24
249.7961811957144
 34
0.0
100
AcDbRotatedDimension
1001
GENIUS_GENDTOL_13
1000
TolAcTol
1000

1000

1040
8.0
1001
ACAD
1000
DSTYLE
1002
{
1070
    47
1040
-0.005
1070
    48
1040
0.025
1070
    71
1070
     1
1070
   272
1070
     3
1002
}
  0
LINE
  5
3EA4
330
1F
100
AcDbEntity
  8
0
  6
Continuous
 62
     7
100
AcDbLine
 10
674.4955482377202
 20
249.7961811957144
 30
0.0
 11
682.4955482377202
 21
249.7961811957144
 31
0.0
  0
ARC
  5
4012
330
1F
100
AcDbEntity
  8
AM_4
100
AcDbCircle
 10
783.0723234671295
 20
297.2024011978547
 30
0.0
 40
2.0
100
AcDbArc
 50
260.0
 51
170.0
  0
CIRCLE
  5
4013
330
1F
100
AcDbEntity
  8
AM_0
100
AcDbCircle
 10
783.0723234671295
 20
297.2024011978547
 30
0.0
 40
1.621113885844339
  0
ARC
  5
4016
330
1F
100
AcDbEntity
  8
AM_4
100
AcDbCircle
 10
783.0723234671295
 20
285.2024011978547
 30
0.0
 40
2.0
100
AcDbArc
 50
260.0
 51
170.0
  0
CIRCLE
  5
4017
330
1F
100
AcDbEntity
  8
AM_0
100
AcDbCircle
 10
783.0723234671295
 20
285.2024011978547
 30
0.0
 40
1.621113885844339
  0
LINE
  5
402A
330
1F
100
AcDbEntity
  8
AM_7
  6
AM_ISO08W050x2
100
AcDbLine
 10
783.0723234671295
 20
297.2024011978547
 30
0.0
 11
786.0723234671295
 21
297.2024011978547
 31
0.0
1001
GENIUS_GENOREF_13
1005
402E
  0
LINE
  5
402B
330
1F
100
AcDbEntity
  8
AM_7
  6
AM_ISO08W050x2
100
AcDbLine
 10
783.0723234671295
 20
297.2024011978547
 30
0.0
 11
783.0723234671295
 21
300.2024011978547
 31
0.0
1001
GENIUS_GENOREF_13
1005
402E
  0
LINE
  5
402C
330
1F
100
AcDbEntity
  8
AM_7
  6
AM_ISO08W050x2
100
AcDbLine
 10
783.0723234671295
 20
297.2024011978547
 30
0.0
 11
780.0723234671295
 21
297.2024011978547
 31
0.0
1001
GENIUS_GENOREF_13
1005
402E
  0
LINE
  5
402D
330
1F
100
AcDbEntity
  8
AM_7
  6
AM_ISO08W050x2
100
AcDbLine
 10
783.0723234671295
 20
297.2024011978547
 30
0.0
 11
783.0723234671295
 21
294.2024011978547
 31
0.0
1001
GENIUS_GENOREF_13
1005
402E
  0
POINT
  5
402E
330
1F
100
AcDbEntity
  8
0
 60
     1
100
AcDbPoint
 10
0.0
 20
0.0
 30
0.0
1001
GENIUS_GENOLIS_13
1002
{
1000
ENT
1005
402D
1005
402C
1005
402B
1005
402A
1002
}
1001
GENIUS_GENOENT_13
1002
{
1000
MYREF
1005
402E
1002
}
1002
{
1000
GRP
1005
0
1002
}
1001
GENIUS_GENOBJ-N-CRS_13
1002
{
1000
OWNER
1000
GEN
1002
}
1001
GENIUS_GENODEF_13
1002
{
1000
HIER
1070
    10
1002
}
1002
{
1000
MANEDIT
1070
     0
1002
}
1002
{
1000
NOSEL
1070
     0
1002
}
1002
{
1000
BEHIND
1070
     0
1002
}
1002
{
1000
OTHER
1070
     0
1002
}
1002
{
1000
REACTOR
1002
}
  0
LINE
  5
403C
330
1F
100
AcDbEntity
  8
AM_7
  6
AM_ISO08W050x2
100
AcDbLine
 10
783.0723234671295
 20
285.2024011978547
 30
0.0
 11
786.0723234671295
 21
285.2024011978547
 31
0.0
1001
GENIUS_GENOREF_13
1005
4040
  0
LINE
  5
403D
330
1F
100
AcDbEntity
  8
AM_7
  6
AM_ISO08W050x2
100
AcDbLine
 10
783.0723234671295
 20
285.2024011978547
 30
0.0
 11
783.0723234671295
 21
288.2024011978547
 31
0.0
1001
GENIUS_GENOREF_13
1005
4040
  0
LINE
  5
403E
330
1F
100
AcDbEntity
  8
AM_7
  6
AM_ISO08W050x2
100
AcDbLine
 10
783.0723234671295
 20
285.2024011978547
 30
0.0
 11
780.0723234671295
 21
285.2024011978547
 31
0.0
1001
GENIUS_GENOREF_13
1005
4040
  0
LINE
  5
403F
330
1F
100
AcDbEntity
  8
AM_7
  6
AM_ISO08W050x2
100
AcDbLine
 10
783.0723234671295
 20
285.2024011978547
 30
0.0
 11
783.0723234671295
 21
282.2024011978547
 31
0.0
1001
GENIUS_GENOREF_13
1005
4040
  0
POINT
  5
4040
330
1F
100
AcDbEntity
  8
0
 60
     1
100
AcDbPoint
 10
0.0
 20
0.0
 30
0.0
1001
GENIUS_GENOLIS_13
1002
{
1000
ENT
1005
403F
1005
403E
1005
403D
1005
403C
1002
}
1001
GENIUS_GENOENT_13
1002
{
1000
MYREF
1005
4040
1002
}
1002
{
1000
GRP
1005
0
1002
}
1001
GENIUS_GENOBJ-N-CRS_13
1002
{
1000
OWNER
1000
GEN
1002
}
1001
GENIUS_GENODEF_13
1002
{
1000
HIER
1070
    10
1002
}
1002
{
1000
MANEDIT
1070
     0
1002
}
1002
{
1000
NOSEL
1070
     0
1002
}
1002
{
1000
BEHIND
1070
     0
1002
}
1002
{
1000
OTHER
1070
     0
1002
}
1002
{
1000
REACTOR
1002
}
  0
LINE
  5
4057
330
1F
100
AcDbEntity
  8
AM_7
  6
AM_ISO08W050x2
100
AcDbLine
 10
760.5723234671295
 20
221.2961506957145
 30
0.0
 11
763.0723234671295
 21
221.2961506957145
 31
0.0
1001
GENIUS_GENOREF_13
1005
405B
  0
LINE
  5
4058
330
1F
100
AcDbEntity
  8
AM_7
  6
AM_ISO08W050x2
100
AcDbLine
 10
760.5723234671295
 20
221.2961506957145
 30
0.0
 11
760.5723234671295
 21
223.7961506957145
 31
0.0
1001
GENIUS_GENOREF_13
1005
405B
  0
LINE
  5
4059
330
1F
100
AcDbEntity
  8
AM_7
  6
AM_ISO08W050x2
100
AcDbLine
 10
760.5723234671295
 20
221.2961506957145
 30
0.0
 11
758.0723234671295
 21
221.2961506957145
 31
0.0
1001
GENIUS_GENOREF_13
1005
405B
  0
LINE
  5
405A
330
1F
100
AcDbEntity
  8
AM_7
  6
AM_ISO08W050x2
100
AcDbLine
 10
760.5723234671295
 20
221.2961506957145
 30
0.0
 11
760.5723234671295
 21
218.7961506957145
 31
0.0
1001
GENIUS_GENOREF_13
1005
405B
  0
POINT
  5
405B
330
1F
100
AcDbEntity
  8
0
 60
     1
100
AcDbPoint
 10
0.0
 20
0.0
 30
0.0
1001
GENIUS_GENODEF_13
1002
{
1000
HIER
1070
    10
1002
}
1002
{
1000
MANEDIT
1070
     0
1002
}
1002
{
1000
NOSEL
1070
     0
1002
}
1002
{
1000
BEHIND
1070
     0
1002
}
1002
{
1000
OTHER
1070
     0
1002
}
1002
{
1000
REACTOR
1002
}
1001
GENIUS_GENOLIS_13
1002
{
1000
ENT
1005
405A
1005
4059
1005
4058
1005
4057
1002
}
1001
GENIUS_GENOENT_13
1002
{
1000
MYREF
1005
405B
1002
}
1002
{
1000
GRP
1005
0
1002
}
1001
GENIUS_GENOBJ-N-CRS_13
1002
{
1000
OWNER
1000
GEN
1002
}
  0
ARC
  5
406D
330
1F
100
AcDbEntity
  8
AM_4
100
AcDbCircle
 10
775.0723234671295
 20
222.2961506957144
 30
0.0
 40
2.0
100
AcDbArc
 50
260.0
 51
170.0
  0
CIRCLE
  5
406E
330
1F
100
AcDbEntity
  8
AM_0
100
AcDbCircle
 10
775.0723234671295
 20
222.2961506957144
 30
0.0
 40
1.621113885844339
  0
LINE
  5
406F
330
1F
100
AcDbEntity
  8
AM_7
  6
AM_ISO08W050x2
100
AcDbLine
 10
775.0723234671295
 20
222.2961506957144
 30
0.0
 11
778.0723234671295
 21
222.2961506957144
 31
0.0
1001
GENIUS_GENOREF_13
1005
4073
  0
LINE
  5
4070
330
1F
100
AcDbEntity
  8
AM_7
  6
AM_ISO08W050x2
100
AcDbLine
 10
775.0723234671295
 20
222.2961506957144
 30
0.0
 11
775.0723234671295
 21
225.2961506957145
 31
0.0
1001
GENIUS_GENOREF_13
1005
4073
  0
LINE
  5
4071
330
1F
100
AcDbEntity
  8
AM_7
  6
AM_ISO08W050x2
100
AcDbLine
 10
775.0723234671295
 20
222.2961506957144
 30
0.0
 11
772.0723234671295
 21
222.2961506957144
 31
0.0
1001
GENIUS_GENOREF_13
1005
4073
  0
LINE
  5
4072
330
1F
100
AcDbEntity
  8
AM_7
  6
AM_ISO08W050x2
100
AcDbLine
 10
775.0723234671295
 20
222.2961506957144
 30
0.0
 11
775.0723234671295
 21
219.2961506957145
 31
0.0
1001
GENIUS_GENOREF_13
1005
4073
  0
POINT
  5
4073
330
1F
100
AcDbEntity
  8
0
 60
     1
100
AcDbPoint
 10
-8.0
 20
-73.5
 30
0.0
1001
GENIUS_GENOLIS_13
1002
{
1000
ENT
1005
4072
1005
4071
1005
4070
1005
406F
1002
}
1001
GENIUS_GENOENT_13
1002
{
1000
MYREF
1005
4073
1002
}
1002
{
1000
GRP
1005
0
1002
}
1001
GENIUS_GENOBJ-N-CRS_13
1002
{
1000
OWNER
1000
GEN
1002
}
1001
GENIUS_GENODEF_13
1002
{
1000
HIER
1070
    10
1002
}
1002
{
1000
MANEDIT
1070
     0
1002
}
1002
{
1000
NOSEL
1070
     0
1002
}
1002
{
1000
BEHIND
1070
     0
1002
}
1002
{
1000
OTHER
1070
     0
1002
}
1002
{
1000
REACTOR
1002
}
  0
ARC
  5
4074
330
1F
100
AcDbEntity
  8
AM_4
100
AcDbCircle
 10
775.0723234671295
 20
192.2961506957144
 30
0.0
 40
2.0
100
AcDbArc
 50
260.0
 51
170.0
  0
CIRCLE
  5
4075
330
1F
100
AcDbEntity
  8
AM_0
100
AcDbCircle
 10
775.0723234671295
 20
192.2961506957144
 30
0.0
 40
1.621113885844339
  0
LINE
  5
4076
330
1F
100
AcDbEntity
  8
AM_7
  6
AM_ISO08W050x2
100
AcDbLine
 10
775.0723234671295
 20
192.2961506957144
 30
0.0
 11
778.0723234671295
 21
192.2961506957144
 31
0.0
1001
GENIUS_GENOREF_13
1005
407A
  0
LINE
  5
4077
330
1F
100
AcDbEntity
  8
AM_7
  6
AM_ISO08W050x2
100
AcDbLine
 10
775.0723234671295
 20
192.2961506957144
 30
0.0
 11
775.0723234671295
 21
195.2961506957144
 31
0.0
1001
GENIUS_GENOREF_13
1005
407A
  0
LINE
  5
4078
330
1F
100
AcDbEntity
  8
AM_7
  6
AM_ISO08W050x2
100
AcDbLine
 10
775.0723234671295
 20
192.2961506957144
 30
0.0
 11
772.0723234671295
 21
192.2961506957144
 31
0.0
1001
GENIUS_GENOREF_13
1005
407A
  0
LINE
  5
4079
330
1F
100
AcDbEntity
  8
AM_7
  6
AM_ISO08W050x2
100
AcDbLine
 10
775.0723234671295
 20
192.2961506957144
 30
0.0
 11
775.0723234671295
 21
189.2961506957144
 31
0.0
1001
GENIUS_GENOREF_13
1005
407A
  0
POINT
  5
407A
330
1F
100
AcDbEntity
  8
0
 60
     1
100
AcDbPoint
 10
-8.0
 20
-103.5
 30
0.0
1001
GENIUS_GENOLIS_13
1002
{
1000
ENT
1005
4079
1005
4078
1005
4077
1005
4076
1002
}
1001
GENIUS_GENOENT_13
1002
{
1000
MYREF
1005
407A
1002
}
1002
{
1000
GRP
1005
0
1002
}
1001
GENIUS_GENOBJ-N-CRS_13
1002
{
1000
OWNER
1000
GEN
1002
}
1001
GENIUS_GENODEF_13
1002
{
1000
HIER
1070
    10
1002
}
1002
{
1000
MANEDIT
1070
     0
1002
}
1002
{
1000
NOSEL
1070
     0
1002
}
1002
{
1000
BEHIND
1070
     0
1002
}
1002
{
1000
OTHER
1070
     0
1002
}
1002
{
1000
REACTOR
1002
}
  0
LINE
  5
4088
330
1F
100
AcDbEntity
  8
AM_7
  6
AM_ISO08W050x2
100
AcDbLine
 10
796.0723234671295
 20
222.2961506957144
 30
0.0
 11
799.3223244671295
 21
222.2961506957144
 31
0.0
1001
GENIUS_GENOREF_13
1005
408C
  0
LINE
  5
4089
330
1F
100
AcDbEntity
  8
AM_7
  6
AM_ISO08W050x2
100
AcDbLine
 10
796.0723234671295
 20
222.2961506957144
 30
0.0
 11
796.0723234671295
 21
225.5461516957145
 31
0.0
1001
GENIUS_GENOREF_13
1005
408C
  0
LINE
  5
408A
330
1F
100
AcDbEntity
  8
AM_7
  6
AM_ISO08W050x2
100
AcDbLine
 10
796.0723234671295
 20
222.2961506957144
 30
0.0
 11
792.8223224671295
 21
222.2961506957144
 31
0.0
1001
GENIUS_GENOREF_13
1005
408C
  0
LINE
  5
408B
330
1F
100
AcDbEntity
  8
AM_7
  6
AM_ISO08W050x2
100
AcDbLine
 10
796.0723234671295
 20
222.2961506957144
 30
0.0
 11
796.0723234671295
 21
219.0461496957145
 31
0.0
1001
GENIUS_GENOREF_13
1005
408C
  0
POINT
  5
408C
330
1F
100
AcDbEntity
  8
0
 60
     1
100
AcDbPoint
 10
0.0
 20
0.0
 30
0.0
1001
GENIUS_GENODEF_13
1002
{
1000
HIER
1070
    10
1002
}
1002
{
1000
MANEDIT
1070
     0
1002
}
1002
{
1000
NOSEL
1070
     0
1002
}
1002
{
1000
BEHIND
1070
     0
1002
}
1002
{
1000
OTHER
1070
     0
1002
}
1002
{
1000
REACTOR
1002
}
1001
GENIUS_GENOLIS_13
1002
{
1000
ENT
1005
408B
1005
408A
1005
4089
1005
4088
1002
}
1001
GENIUS_GENOENT_13
1002
{
1000
MYREF
1005
408C
1002
}
1002
{
1000
GRP
1005
0
1002
}
1001
GENIUS_GENOBJ-N-CRS_13
1002
{
1000
OWNER
1000
GEN
1002
}
  0
LINE
  5
409A
330
1F
100
AcDbEntity
  8
AM_7
  6
AM_ISO08W050x2
100
AcDbLine
 10
796.0723234671295
 20
192.2961506957144
 30
0.0
 11
799.3223244671295
 21
192.2961506957144
 31
0.0
1001
GENIUS_GENOREF_13
1005
409E
  0
LINE
  5
409B
330
1F
100
AcDbEntity
  8
AM_7
  6
AM_ISO08W050x2
100
AcDbLine
 10
796.0723234671295
 20
192.2961506957144
 30
0.0
 11
796.0723234671295
 21
195.5461516957144
 31
0.0
1001
GENIUS_GENOREF_13
1005
409E
  0
LINE
  5
409C
330
1F
100
AcDbEntity
  8
AM_7
  6
AM_ISO08W050x2
100
AcDbLine
 10
796.0723234671295
 20
192.2961506957144
 30
0.0
 11
792.8223224671295
 21
192.2961506957144
 31
0.0
1001
GENIUS_GENOREF_13
1005
409E
  0
LINE
  5
409D
330
1F
100
AcDbEntity
  8
AM_7
  6
AM_ISO08W050x2
100
AcDbLine
 10
796.0723234671295
 20
192.2961506957144
 30
0.0
 11
796.0723234671295
 21
189.0461496957144
 31
0.0
1001
GENIUS_GENOREF_13
1005
409E
  0
POINT
  5
409E
330
1F
100
AcDbEntity
  8
0
 60
     1
100
AcDbPoint
 10
0.0
 20
0.0
 30
0.0
1001
GENIUS_GENODEF_13
1002
{
1000
HIER
1070
    10
1002
}
1002
{
1000
MANEDIT
1070
     0
1002
}
1002
{
1000
NOSEL
1070
     0
1002
}
1002
{
1000
BEHIND
1070
     0
1002
}
1002
{
1000
OTHER
1070
     0
1002
}
1002
{
1000
REACTOR
1002
}
1001
GENIUS_GENOLIS_13
1002
{
1000
ENT
1005
409D
1005
409C
1005
409B
1005
409A
1002
}
1001
GENIUS_GENOENT_13
1002
{
1000
MYREF
1005
409E
1002
}
1002
{
1000
GRP
1005
0
1002
}
1001
GENIUS_GENOBJ-N-CRS_13
1002
{
1000
OWNER
1000
GEN
1002
}
  0
TEXT
  5
409F
330
1F
100
AcDbEntity
  8
AM_5
100
AcDbText
 10
795.816916461601
 20
313.0449189152151
 30
0.0
 40
3.5
  1
2-M4x5depth
100
AcDbText
  0
INSERT
  5
40A0
330
1F
100
AcDbEntity
  8
AM_5
100
AcDbBlockReference
  2
*S31
 10
0.0
 20
0.0
 30
0.0
  0
TEXT
  5
4209
330
1F
100
AcDbEntity
  8
AM_5
100
AcDbText
 10
806.8939105226167
 20
234.7074285561042
 30
0.0
 40
3.5
  1
2-%%c4.5
100
AcDbText
  0
INSERT
  5
420A
330
1F
100
AcDbEntity
  8
AM_5
100
AcDbBlockReference
  2
*S32
 10
0.0
 20
0.0
 30
0.0
  0
TEXT
  5
420C
330
1F
100
AcDbEntity
  8
AM_5
100
AcDbText
 10
789.5994951156876
 20
247.4707195927063
 30
0.0
 40
3.5
  1
2-M4x8depth
100
AcDbText
  0
INSERT
  5
420D
330
1F
100
AcDbEntity
  8
AM_5
100
AcDbBlockReference
  2
*S33
 10
0.0
 20
0.0
 30
0.0
  0
ARC
  5
423E
330
1F
100
AcDbEntity
  8
AM_4
100
AcDbCircle
 10
867.8887795473988
 20
245.7961506957145
 30
0.0
 40
1.5
100
AcDbArc
 50
260.0
 51
170.0
  0
CIRCLE
  5
423F
330
1F
100
AcDbEntity
  8
AM_0
100
AcDbCircle
 10
867.8887795473988
 20
245.7961506957145
 30
0.0
 40
1.229367061317389
  0
LINE
  5
4240
330
1F
100
AcDbEntity
  8
AM_7
  6
AM_ISO08W050x2
100
AcDbLine
 10
865.3887795473988
 20
245.7961506957145
 30
0.0
 11
870.3887795473988
 21
245.7961506957145
 31
0.0
  0
LINE
  5
4241
330
1F
100
AcDbEntity
  8
AM_7
  6
AM_ISO08W050x2
100
AcDbLine
 10
867.8887795473988
 20
243.2961506957145
 30
0.0
 11
867.8887795473988
 21
248.2961506957145
 31
0.0
  0
ARC
  5
4242
330
1F
100
AcDbEntity
  8
AM_4
100
AcDbCircle
 10
867.8887795473988
 20
238.7961506957144
 30
0.0
 40
1.5
100
AcDbArc
 50
260.0
 51
170.0
  0
CIRCLE
  5
4243
330
1F
100
AcDbEntity
  8
AM_0
100
AcDbCircle
 10
867.8887795473988
 20
238.7961506957144
 30
0.0
 40
1.229367061317389
  0
LINE
  5
4244
330
1F
100
AcDbEntity
  8
AM_7
  6
AM_ISO08W050x2
100
AcDbLine
 10
865.3887795473988
 20
238.7961506957144
 30
0.0
 11
870.3887795473988
 21
238.7961506957144
 31
0.0
  0
LINE
  5
4245
330
1F
100
AcDbEntity
  8
AM_7
  6
AM_ISO08W050x2
100
AcDbLine
 10
867.8887795473988
 20
236.2961506957145
 30
0.0
 11
867.8887795473988
 21
241.2961506957145
 31
0.0
  0
ARC
  5
424B
330
1F
100
AcDbEntity
  8
AM_4
100
AcDbCircle
 10
867.8887795473988
 20
168.7961506957144
 30
0.0
 40
1.5
100
AcDbArc
 50
260.0
 51
170.0
  0
CIRCLE
  5
424C
330
1F
100
AcDbEntity
  8
AM_0
100
AcDbCircle
 10
867.8887795473988
 20
168.7961506957144
 30
0.0
 40
1.229367061317389
  0
LINE
  5
424D
330
1F
100
AcDbEntity
  8
AM_7
  6
AM_ISO08W050x2
100
AcDbLine
 10
865.3887795473988
 20
168.7961506957144
 30
0.0
 11
870.3887795473988
 21
168.7961506957144
 31
0.0
  0
ARC
  5
424E
330
1F
100
AcDbEntity
  8
AM_4
100
AcDbCircle
 10
867.8887795473988
 20
175.7961506957144
 30
0.0
 40
1.5
100
AcDbArc
 50
260.0
 51
170.0
  0
CIRCLE
  5
424F
330
1F
100
AcDbEntity
  8
AM_0
100
AcDbCircle
 10
867.8887795473988
 20
175.7961506957144
 30
0.0
 40
1.229367061317389
  0
LINE
  5
4250
330
1F
100
AcDbEntity
  8
AM_7
  6
AM_ISO08W050x2
100
AcDbLine
 10
865.3887795473988
 20
175.7961506957144
 30
0.0
 11
870.3887795473988
 21
175.7961506957144
 31
0.0
  0
ARC
  5
4253
330
1F
100
AcDbEntity
  8
AM_4
100
AcDbCircle
 10
873.8887795473988
 20
222.2961506957144
 30
0.0
 40
2.0
100
AcDbArc
 50
260.0
 51
170.0
  0
CIRCLE
  5
4254
330
1F
100
AcDbEntity
  8
AM_0
100
AcDbCircle
 10
873.8887795473988
 20
222.2961506957144
 30
0.0
 40
1.621113885844339
  0
LINE
  5
4255
330
1F
100
AcDbEntity
  8
AM_7
  6
AM_ISO08W050x2
100
AcDbLine
 10
873.8887795473988
 20
222.2961506957144
 30
0.0
 11
876.8887795473988
 21
222.2961506957144
 31
0.0
1001
GENIUS_GENOREF_13
1005
4259
  0
LINE
  5
4256
330
1F
100
AcDbEntity
  8
AM_7
  6
AM_ISO08W050x2
100
AcDbLine
 10
873.8887795473988
 20
222.2961506957144
 30
0.0
 11
873.8887795473988
 21
225.2961506957145
 31
0.0
1001
GENIUS_GENOREF_13
1005
4259
  0
LINE
  5
4257
330
1F
100
AcDbEntity
  8
AM_7
  6
AM_ISO08W050x2
100
AcDbLine
 10
873.8887795473988
 20
222.2961506957144
 30
0.0
 11
870.8887795473987
 21
222.2961506957144
 31
0.0
1001
GENIUS_GENOREF_13
1005
4259
  0
LINE
  5
4258
330
1F
100
AcDbEntity
  8
AM_7
  6
AM_ISO08W050x2
100
AcDbLine
 10
873.8887795473988
 20
222.2961506957144
 30
0.0
 11
873.8887795473988
 21
219.2961506957145
 31
0.0
1001
GENIUS_GENOREF_13
1005
4259
  0
POINT
  5
4259
330
1F
100
AcDbEntity
  8
0
 60
     1
100
AcDbPoint
 10
107.164059304238
 20
-73.5
 30
0.0
1001
GENIUS_GENOLIS_13
1002
{
1000
ENT
1005
4258
1005
4257
1005
4256
1005
4255
1002
}
1001
GENIUS_GENOENT_13
1002
{
1000
MYREF
1005
4259
1002
}
1002
{
1000
GRP
1005
0
1002
}
1001
GENIUS_GENOBJ-N-CRS_13
1002
{
1000
OWNER
1000
GEN
1002
}
1001
GENIUS_GENODEF_13
1002
{
1000
HIER
1070
    10
1002
}
1002
{
1000
MANEDIT
1070
     0
1002
}
1002
{
1000
NOSEL
1070
     0
1002
}
1002
{
1000
BEHIND
1070
     0
1002
}
1002
{
1000
OTHER
1070
     0
1002
}
1002
{
1000
REACTOR
1002
}
  0
ARC
  5
425A
330
1F
100
AcDbEntity
  8
AM_4
100
AcDbCircle
 10
861.8887795473987
 20
192.2961506957144
 30
0.0
 40
2.0
100
AcDbArc
 50
260.0
 51
170.0
  0
CIRCLE
  5
425B
330
1F
100
AcDbEntity
  8
AM_0
100
AcDbCircle
 10
861.8887795473987
 20
192.2961506957144
 30
0.0
 40
1.621113885844339
  0
LINE
  5
425C
330
1F
100
AcDbEntity
  8
AM_7
  6
AM_ISO08W050x2
100
AcDbLine
 10
861.8887795473987
 20
192.2961506957144
 30
0.0
 11
870.5724094041002
 21
192.2961506957144
 31
0.0
1001
GENIUS_GENOREF_13
1005
4260
  0
LINE
  5
425D
330
1F
100
AcDbEntity
  8
AM_7
  6
AM_ISO08W050x2
100
AcDbLine
 10
861.8887795473987
 20
192.2961506957144
 30
0.0
 11
861.8887795473987
 21
195.2961506957144
 31
0.0
1001
GENIUS_GENOREF_13
1005
4260
  0
LINE
  5
425E
330
1F
100
AcDbEntity
  8
AM_7
  6
AM_ISO08W050x2
100
AcDbLine
 10
861.8887795473987
 20
192.2961506957144
 30
0.0
 11
858.8887795473988
 21
192.2961506957144
 31
0.0
1001
GENIUS_GENOREF_13
1005
4260
  0
LINE
  5
425F
330
1F
100
AcDbEntity
  8
AM_7
  6
AM_ISO08W050x2
100
AcDbLine
 10
861.8887795473987
 20
192.2961506957144
 30
0.0
 11
861.8887795473987
 21
189.2961506957144
 31
0.0
1001
GENIUS_GENOREF_13
1005
4260
  0
POINT
  5
4260
330
1F
100
AcDbEntity
  8
0
 60
     1
100
AcDbPoint
 10
95.16405930423799
 20
-103.468872
 30
0.0
1001
GENIUS_GENOLIS_13
1002
{
1000
ENT
1005
425F
1005
425E
1005
425D
1005
425C
1002
}
1001
GENIUS_GENOENT_13
1002
{
1000
MYREF
1005
4260
1002
}
1002
{
1000
GRP
1005
0
1002
}
1001
GENIUS_GENOBJ-N-CRS_13
1002
{
1000
OWNER
1000
GEN
1002
}
1001
GENIUS_GENODEF_13
1002
{
1000
HIER
1070
    10
1002
}
1002
{
1000
MANEDIT
1070
     0
1002
}
1002
{
1000
NOSEL
1070
     0
1002
}
1002
{
1000
BEHIND
1070
     0
1002
}
1002
{
1000
OTHER
1070
     0
1002
}
1002
{
1000
REACTOR
1002
}
  0
TEXT
  5
4262
330
1F
100
AcDbEntity
  8
AM_5
100
AcDbText
 10
886.0846647340895
 20
237.7777132282223
 30
0.0
 40
3.5
  1
2-M4x8depth
100
AcDbText
  0
INSERT
  5
4263
330
1F
100
AcDbEntity
  8
AM_5
100
AcDbBlockReference
  2
*S34
 10
0.0
 20
0.0
 30
0.0
  0
ARC
  5
43A4
330
1F
100
AcDbEntity
  8
AM_4
100
AcDbCircle
 10
784.0723234671295
 20
111.9783036773317
 30
0.0
 40
2.5
100
AcDbArc
 50
260.0
 51
170.0
  0
CIRCLE
  5
43A5
330
1F
100
AcDbEntity
  8
AM_0
100
AcDbCircle
 10
784.0723234671295
 20
111.9783036773317
 30
0.0
 40
2.066987298107819
  0
LINE
  5
43A6
330
1F
100
AcDbEntity
  8
AM_7
  6
AM_ISO08W050x2
100
AcDbLine
 10
780.5723234671295
 20
111.9783036773317
 30
0.0
 11
787.5723234671295
 21
111.9783036773317
 31
0.0
  0
LINE
  5
43A7
330
1F
100
AcDbEntity
  8
AM_7
  6
AM_ISO08W050x2
100
AcDbLine
 10
784.0723234671295
 20
108.4783036773317
 30
0.0
 11
784.0723234671295
 21
115.4783036773317
 31
0.0
  0
ARC
  5
43A8
330
1F
100
AcDbEntity
  8
AM_4
100
AcDbCircle
 10
809.0723234671296
 20
103.9783036773317
 30
0.0
 40
2.5
100
AcDbArc
 50
260.0
 51
170.0
  0
CIRCLE
  5
43A9
330
1F
100
AcDbEntity
  8
AM_0
100
AcDbCircle
 10
809.0723234671296
 20
103.9783036773317
 30
0.0
 40
2.066987298107819
  0
LINE
  5
43AA
330
1F
100
AcDbEntity
  8
AM_7
  6
AM_ISO08W050x2
100
AcDbLine
 10
805.5723234671296
 20
103.9783036773317
 30
0.0
 11
812.5723234671294
 21
103.9783036773317
 31
0.0
  0
LINE
  5
43AB
330
1F
100
AcDbEntity
  8
AM_7
  6
AM_ISO08W050x2
100
AcDbLine
 10
809.0723234671296
 20
100.4783036773317
 30
0.0
 11
809.0723234671296
 21
107.4783036773317
 31
0.0
  0
INSERT
  5
43AD
330
1F
100
AcDbEntity
  8
AM_5
100
AcDbBlockReference
  2
*S35
 10
0.0
 20
0.0
 30
0.0
  0
TEXT
  5
43B1
330
1F
100
AcDbEntity
  8
AM_5
100
AcDbText
 10
797.788652379108
 20
127.5362702152466
 30
0.0
 40
3.5
  1
M5x0.8
100
AcDbText
  0
INSERT
  5
43B2
330
1F
100
AcDbEntity
  8
AM_5
100
AcDbBlockReference
  2
*S36
 10
0.0
 20
0.0
 30
0.0
  0
TEXT
  5
43B4
330
1F
100
AcDbEntity
  8
AM_5
100
AcDbText
 10
797.7868988787081
 20
121.7309609516813
 30
0.0
 40
3.5
  1
(Finger closing port)
100
AcDbText
  0
DIMENSION
  5
4452
330
1F
100
AcDbEntity
  8
AM_5
100
AcDbDimension
  2
*D25
 10
666.4955482377202
 20
238.7961811957144
 30
0.0
 11
663.9455482377202
 21
242.2961811957145
 31
0.0
 70
    32
  1
<>
 71
     5
 42
7.0
  3
AM_ISO$0
100
AcDbAlignedDimension
 13
666.1769319540244
 23
245.7961811957144
 33
0.0
 14
675.9938392377201
 24
238.7961811957144
 34
0.0
 50
90.0
100
AcDbRotatedDimension
1001
ACAD
1000
DSTYLE
1002
{
1070
   173
1070
     1
1070
   174
1070
     1
1070
   343
1005
432F
1002
}
  0
DIMENSION
  5
4453
330
1F
100
AcDbEntity
  8
AM_5
100
AcDbDimension
  2
*D26
 10
666.4955482377202
 20
245.7961811957144
 30
0.0
 11
666.4955482377202
 21
258.8012845421713
 31
0.0
 70
   160
  1
<>
 71
     5
 42
4.0
  3
AM_ISO$0
100
AcDbAlignedDimension
 13
674.4955482377202
 23
249.7961811957144
 33
0.0
 14
676.1056552377201
 24
245.7961811957144
 34
0.0
 50
90.0
100
AcDbRotatedDimension
1001
ACAD
1000
DSTYLE
1002
{
1070
   173
1070
     1
1070
   174
1070
     1
1070
   344
1005
432F
1002
}
  0
ARC
  5
4454
330
1F
100
AcDbEntity
  8
AM_4
100
AcDbCircle
 10
678.4955482377202
 20
245.7961811957144
 30
0.0
 40
1.5
100
AcDbArc
 50
260.0
 51
170.0
  0
CIRCLE
  5
4455
330
1F
100
AcDbEntity
  8
AM_0
100
AcDbCircle
 10
678.4955482377202
 20
245.7961811957144
 30
0.0
 40
1.229367061317389
  0
LINE
  5
4456
330
1F
100
AcDbEntity
  8
AM_7
  6
AM_ISO08W050x2
100
AcDbLine
 10
675.9955482377201
 20
245.7961811957144
 30
0.0
 11
680.9955482377201
 21
245.7961811957144
 31
0.0
  0
LINE
  5
4457
330
1F
100
AcDbEntity
  8
AM_7
  6
AM_ISO08W050x2
100
AcDbLine
 10
678.4955482377202
 20
243.2961811957144
 30
0.0
 11
678.4955482377202
 21
248.2961811957145
 31
0.0
  0
ARC
  5
4458
330
1F
100
AcDbEntity
  8
AM_4
100
AcDbCircle
 10
678.4955482377202
 20
238.7961811957144
 30
0.0
 40
1.5
100
AcDbArc
 50
260.0
 51
170.0
  0
CIRCLE
  5
4459
330
1F
100
AcDbEntity
  8
AM_0
100
AcDbCircle
 10
678.4955482377202
 20
238.7961811957144
 30
0.0
 40
1.229367061317389
  0
LINE
  5
445A
330
1F
100
AcDbEntity
  8
AM_7
  6
AM_ISO08W050x2
100
AcDbLine
 10
675.9955482377201
 20
238.7961811957144
 30
0.0
 11
680.9955482377201
 21
238.7961811957144
 31
0.0
  0
ARC
  5
44B1
330
1F
100
AcDbEntity
  8
AM_4
100
AcDbCircle
 10
678.4955482377202
 20
168.7961811957143
 30
0.0
 40
1.5
100
AcDbArc
 50
260.0
 51
170.0
  0
CIRCLE
  5
44B2
330
1F
100
AcDbEntity
  8
AM_0
100
AcDbCircle
 10
678.4955482377202
 20
168.7961811957143
 30
0.0
 40
1.229367061317389
  0
LINE
  5
44B3
330
1F
100
AcDbEntity
  8
AM_7
  6
AM_ISO08W050x2
100
AcDbLine
 10
675.9955482377201
 20
168.7961811957143
 30
0.0
 11
680.9955482377201
 21
168.7961811957143
 31
0.0
  0
ARC
  5
44B4
330
1F
100
AcDbEntity
  8
AM_4
100
AcDbCircle
 10
678.4955482377202
 20
175.7961811957144
 30
0.0
 40
1.5
100
AcDbArc
 50
260.0
 51
170.0
  0
CIRCLE
  5
44B5
330
1F
100
AcDbEntity
  8
AM_0
100
AcDbCircle
 10
678.4955482377202
 20
175.7961811957144
 30
0.0
 40
1.229367061317389
  0
LINE
  5
44B6
330
1F
100
AcDbEntity
  8
AM_7
  6
AM_ISO08W050x2
100
AcDbLine
 10
675.9955482377201
 20
175.7961811957144
 30
0.0
 11
680.9955482377201
 21
175.7961811957144
 31
0.0
  0
LINE
  5
44C4
330
1F
100
AcDbEntity
  8
AM_7
  6
AM_ISO08W050x2
100
AcDbLine
 10
671.2955972377201
 20
207.2961506957144
 30
0.0
 11
674.7955972377201
 21
207.2961506957144
 31
0.0
1001
GENIUS_GENOREF_13
1005
44C8
  0
LINE
  5
44C5
330
1F
100
AcDbEntity
  8
AM_7
  6
AM_ISO08W050x2
100
AcDbLine
 10
671.2955972377201
 20
207.2961506957144
 30
0.0
 11
671.2955972377201
 21
210.7961506957145
 31
0.0
1001
GENIUS_GENOREF_13
1005
44C8
  0
LINE
  5
44C6
330
1F
100
AcDbEntity
  8
AM_7
  6
AM_ISO08W050x2
100
AcDbLine
 10
671.2955972377201
 20
207.2961506957144
 30
0.0
 11
667.7955972377201
 21
207.2961506957144
 31
0.0
1001
GENIUS_GENOREF_13
1005
44C8
  0
LINE
  5
44C7
330
1F
100
AcDbEntity
  8
AM_7
  6
AM_ISO08W050x2
100
AcDbLine
 10
671.2955972377201
 20
207.2961506957144
 30
0.0
 11
671.2955972377201
 21
203.7961506957145
 31
0.0
1001
GENIUS_GENOREF_13
1005
44C8
  0
POINT
  5
44C8
330
1F
100
AcDbEntity
  8
0
 60
     1
100
AcDbPoint
 10
0.0
 20
0.0
 30
0.0
1001
GENIUS_GENODEF_13
1002
{
1000
HIER
1070
    10
1002
}
1002
{
1000
MANEDIT
1070
     0
1002
}
1002
{
1000
NOSEL
1070
     0
1002
}
1002
{
1000
BEHIND
1070
     0
1002
}
1002
{
1000
OTHER
1070
     0
1002
}
1002
{
1000
REACTOR
1002
}
1001
GENIUS_GENOLIS_13
1002
{
1000
ENT
1005
44C7
1005
44C6
1005
44C5
1005
44C4
1002
}
1001
GENIUS_GENOENT_13
1002
{
1000
MYREF
1005
44C8
1002
}
1002
{
1000
GRP
1005
0
1002
}
1001
GENIUS_GENOBJ-N-CRS_13
1002
{
1000
OWNER
1000
GEN
1002
}
  0
LINE
  5
44D6
330
1F
100
AcDbEntity
  8
AM_7
  6
AM_ISO08W050x2
100
AcDbLine
 10
685.6954992377202
 20
207.2961506957144
 30
0.0
 11
689.19549923772
 21
207.2961506957144
 31
0.0
1001
GENIUS_GENOREF_13
1005
44DA
  0
LINE
  5
44D7
330
1F
100
AcDbEntity
  8
AM_7
  6
AM_ISO08W050x2
100
AcDbLine
 10
685.6954992377202
 20
207.2961506957144
 30
0.0
 11
685.6954992377202
 21
210.7961506957143
 31
0.0
1001
GENIUS_GENOREF_13
1005
44DA
  0
LINE
  5
44D8
330
1F
100
AcDbEntity
  8
AM_7
  6
AM_ISO08W050x2
100
AcDbLine
 10
685.6954992377202
 20
207.2961506957144
 30
0.0
 11
682.1954992377203
 21
207.2961506957144
 31
0.0
1001
GENIUS_GENOREF_13
1005
44DA
  0
LINE
  5
44D9
330
1F
100
AcDbEntity
  8
AM_7
  6
AM_ISO08W050x2
100
AcDbLine
 10
685.6954992377202
 20
207.2961506957144
 30
0.0
 11
685.6954992377202
 21
203.7961506957146
 31
0.0
1001
GENIUS_GENOREF_13
1005
44DA
  0
POINT
  5
44DA
330
1F
100
AcDbEntity
  8
0
 60
     1
100
AcDbPoint
 10
0.0
 20
0.0
 30
0.0
1001
GENIUS_GENODEF_13
1002
{
1000
HIER
1070
    10
1002
}
1002
{
1000
MANEDIT
1070
     0
1002
}
1002
{
1000
NOSEL
1070
     0
1002
}
1002
{
1000
BEHIND
1070
     0
1002
}
1002
{
1000
OTHER
1070
     0
1002
}
1002
{
1000
REACTOR
1002
}
1001
GENIUS_GENOLIS_13
1002
{
1000
ENT
1005
44D9
1005
44D8
1005
44D7
1005
44D6
1002
}
1001
GENIUS_GENOENT_13
1002
{
1000
MYREF
1005
44DA
1002
}
1002
{
1000
GRP
1005
0
1002
}
1001
GENIUS_GENOBJ-N-CRS_13
1002
{
1000
OWNER
1000
GEN
1002
}
  0
LINE
  5
44E9
330
1F
100
AcDbEntity
  8
AM_7
  6
AM_ISO08W050x2
100
AcDbLine
 10
760.5723234671295
 20
193.2961506957144
 30
0.0
 11
763.0723234671295
 21
193.2961506957144
 31
0.0
1001
GENIUS_GENOREF_13
1005
44ED
  0
LINE
  5
44EA
330
1F
100
AcDbEntity
  8
AM_7
  6
AM_ISO08W050x2
100
AcDbLine
 10
760.5723234671295
 20
193.2961506957144
 30
0.0
 11
760.5723234671295
 21
195.7961506957144
 31
0.0
1001
GENIUS_GENOREF_13
1005
44ED
  0
LINE
  5
44EB
330
1F
100
AcDbEntity
  8
AM_7
  6
AM_ISO08W050x2
100
AcDbLine
 10
760.5723234671295
 20
193.2961506957144
 30
0.0
 11
758.0723234671295
 21
193.2961506957144
 31
0.0
1001
GENIUS_GENOREF_13
1005
44ED
  0
LINE
  5
44EC
330
1F
100
AcDbEntity
  8
AM_7
  6
AM_ISO08W050x2
100
AcDbLine
 10
760.5723234671295
 20
193.2961506957144
 30
0.0
 11
760.5723234671295
 21
190.7961506957144
 31
0.0
1001
GENIUS_GENOREF_13
1005
44ED
  0
POINT
  5
44ED
330
1F
100
AcDbEntity
  8
0
 60
     1
100
AcDbPoint
 10
0.0
 20
0.0
 30
0.0
1001
GENIUS_GENODEF_13
1002
{
1000
HIER
1070
    10
1002
}
1002
{
1000
MANEDIT
1070
     0
1002
}
1002
{
1000
NOSEL
1070
     0
1002
}
1002
{
1000
BEHIND
1070
     0
1002
}
1002
{
1000
OTHER
1070
     0
1002
}
1002
{
1000
REACTOR
1002
}
1001
GENIUS_GENOBJ-N-CRS_13
1002
{
1000
OWNER
1000
GEN
1002
}
1001
GENIUS_GENOLIS_13
1002
{
1000
ENT
1005
44EC
1005
44EB
1005
44EA
1005
44E9
1002
}
1001
GENIUS_GENOENT_13
1002
{
1000
MYREF
1005
44ED
1002
}
1002
{
1000
GRP
1005
0
1002
}
  0
TEXT
  5
454B
330
1F
100
AcDbEntity
  8
AM_5
100
AcDbText
 10
691.1936122063612
 20
239.4982351785885
 30
0.0
 40
3.5
  1
4-M3x0.5
100
AcDbText
  0
INSERT
  5
454C
330
1F
100
AcDbEntity
  8
AM_5
100
AcDbBlockReference
  2
*S37
 10
0.0
 20
0.0
 30
0.0
  0
CIRCLE
  5
4F90
330
1F
100
AcDbEntity
  8
0
100
AcDbCircle
 10
867.8887795473988
 20
207.2961506957145
 30
0.0
 40
8.5
  0
TEXT
  5
4FD7
330
1F
100
AcDbEntity
  8
AM_5
100
AcDbText
 10
884.4096556534291
 20
176.5994150854309
 30
0.0
 40
3.5
  1
%%c17  x1.5depth
100
AcDbText
  0
INSERT
  5
4FD8
330
1F
100
AcDbEntity
  8
AM_5
100
AcDbBlockReference
  2
*S38
 10
0.0
 20
0.0
 30
0.0
  0
TEXT
  5
4FE1
330
1F
100
AcDbEntity
  8
AM_5
100
AcDbText
 10
823.8785178632602
 20
95.91683333476977
 30
0.0
 40
3.5
  1
M5x0.8
100
AcDbText
  0
TEXT
  5
4FE5
330
1F
100
AcDbEntity
  8
AM_5
100
AcDbText
 10
691.1936122063612
 20
234.0351312911859
 30
0.0
 40
3.5
  1
or 4-%%C3.4
100
AcDbText
  0
TEXT
  5
4FEA
330
1F
100
AcDbEntity
  8
AM_5
100
AcDbText
 10
823.6280135664275
 20
89.47733335471111
 30
0.0
 40
3.5
  1
(Finger opening port)
100
AcDbText
  0
TEXT
  5
50A9
330
1F
100
AcDbEntity
  8
AM_5
100
AcDbText
 10
891.6898625060415
 20
179.4089816203212
 30
0.0
 40
2.449999999999999
  1
H9
100
AcDbText
  0
LINE
  5
50E3
330
1F
100
AcDbEntity
  8
0
  6
Continuous
 62
     7
100
AcDbLine
 10
674.4955482377202
 20
231.9961016957145
 30
0.0
 11
682.4955482377202
 21
231.9961016957145
 31
0.0
  0
LINE
  5
50E4
330
1F
100
AcDbEntity
  8
0
  6
Continuous
 62
     7
100
AcDbLine
 10
674.4955482377203
 20
182.5961996957144
 30
0.0
 11
682.4955482377202
 21
182.5961996957144
 31
0.0
  0
TEXT
  5
51BD
330
1F
100
AcDbEntity
  8
LOGO
 62
     7
100
AcDbText
 10
671.7086078401447
 20
34.06547704850955
 30
0.0
 40
4.479351312217193
  1
Order example:
 41
0.8
  7
CHINESET
100
AcDbText
  0
TEXT
  5
51BE
330
1F
100
AcDbEntity
  8
LOGO
 62
     7
100
AcDbText
 10
672.5122405082848
 20
40.37147623458786
 30
0.0
 40
6.71902696832579
  1
訂購代號：
  7
CHINESET
100
AcDbText
  0
LINE
  5
51BF
330
1F
100
AcDbEntity
  8
LOGO
 62
     4
100
AcDbLine
 10
669.7623145019003
 20
15.18779911092962
 30
0.0
 11
669.7623145019003
 21
48.78293395255878
 31
0.0
  0
TEXT
  5
51C0
330
1F
100
AcDbEntity
  8
LOGO
  6
Continuous
100
AcDbText
 10
607.9205412984825
 20
21.78751265108868
 30
0.0
 40
5.039270226244344
  1
金器工業股份有限公司
  7
CHINESET
100
AcDbText
  0
TEXT
  5
51C1
330
1F
100
AcDbEntity
  8
LOGO
  6
Continuous
100
AcDbText
 10
598.6643988633207
 20
16.74725512297409
 30
0.0
 40
3.359513484162895
  1
MINDMAN INDUSTRIAL CO., LTD.
 41
0.85
  7
CHINESET
100
AcDbText
  0
LINE
  5
51C2
330
1F
100
AcDbEntity
  8
LOGO
 62
     4
100
AcDbLine
 10
669.7623145019003
 20
42.06390698423294
 30
0.0
 11
620.4894500675107
 21
42.06390698423294
 31
0.0
  0
LINE
  5
51C3
330
1F
100
AcDbEntity
  8
LOGO
 62
     4
100
AcDbLine
 10
669.7623145019003
 20
35.3448800159071
 30
0.0
 11
620.4894500675107
 21
35.3448800159071
 31
0.0
  0
LINE
  5
51C4
330
1F
100
AcDbEntity
  8
LOGO
 62
     4
100
AcDbLine
 10
669.7623145019003
 20
28.62585304758167
 30
0.0
 11
595.8530178503163
 21
28.62585304758167
 31
0.0
  0
LINE
  5
51C5
330
1F
100
AcDbEntity
  8
LOGO
 62
     4
100
AcDbLine
 10
620.4894500675107
 20
28.62585304758167
 30
0.0
 11
620.4894500675107
 21
48.78293395255878
 31
0.0
  0
TEXT
  5
51C6
330
1F
100
AcDbEntity
  8
LOGO
100
AcDbText
 10
654.1651272646386
 20
30.30560978966255
 30
0.0
 40
3.359513484162895
  1
mm
  7
CHINESET
 72
     1
 11
658.3245249116973
 21
31.985366531744
 31
0.0
100
AcDbText
 73
     2
  0
TEXT
  5
51C7
330
1F
100
AcDbEntity
  8
LOGO
100
AcDbText
 10
652.4053821062675
 20
43.74366372631423
 30
0.0
 40
3.359513484162895
  1
1 : 1
  7
CHINESET
 72
     1
 11
658.3245249116973
 21
45.42342046839567
 31
0.0
100
AcDbText
 73
     2
  0
LINE
  5
51C8
330
1F
100
AcDbEntity
  8
LOGO
 62
     4
100
AcDbLine
 10
647.3655579408141
 20
28.62585304758167
 30
0.0
 11
647.3655579408141
 21
48.78293395255878
 31
0.0
  0
TEXT
  5
51C9
330
1F
100
AcDbEntity
  8
LOGO
100
AcDbText
 10
623.2595489091397
 20
43.74531703019423
 30
220.1769792768836
 40
3.359513484162895
  1
比例 Scale:
 41
0.9
  7
CHINESET
 72
     4
 11
633.9275040041624
 21
45.42342046839567
 31
220.1769792768836
100
AcDbText
  0
TEXT
  5
51CA
330
1F
100
AcDbEntity
  8
LOGO
100
AcDbText
 10
623.0660769272393
 20
37.07189369389176
 30
220.1769792768836
 40
3.359513484162895
  1
投影  View:
 41
0.9
  7
CHINESET
 72
     4
 11
633.9275040041624
 21
38.70439350006984
 31
220.1769792768836
100
AcDbText
  0
TEXT
  5
51CB
330
1F
100
AcDbEntity
  8
LOGO
100
AcDbText
 10
623.3945293616284
 20
30.30560978966255
 30
220.1769792768836
 40
3.359513484162895
  1
單位  Unit:
 41
0.9
  7
CHINESET
 72
     4
 11
633.9275040041624
 21
31.985366531744
 31
220.1769792768836
100
AcDbText
  0
LWPOLYLINE
  5
51CC
330
1F
100
AcDbEntity
  8
LOGO
 62
     4
100
AcDbPolyline
 90
        4
 70
     1
 43
0.0
 10
595.8530178503163
 20
48.78293395255875
 10
1005.629273483542
 20
48.78293395255875
 10
1005.629273483542
 20
351.187799110929
 10
595.8530178503163
 20
351.187799110929
1001
GENIUS_GENREC_14
1002
{
1000
PYDIR
1011
595.8530178503163
1021
351.187799110929
1031
0.0
1002
}
1002
{
1000
PXDIR
1011
1005.629273483542
1021
48.78293395255875
1031
0.0
1002
}
1002
{
1000
PORI
1011
595.8530178503163
1021
48.78293395255875
1031
0.0
1002
}
1002
{
1000
PINS
1011
595.8530178503163
1021
48.78293395255875
1031
0.0
1002
}
1002
{
1000
PINS2
1011
1005.629273483542
1021
351.187799110929
1031
0.0
1002
}
1002
{
1000
C
1070
     1
1002
}
1001
GENIUS_GENODEF_13
1002
{
1000
HIER
1070
     0
1002
}
1002
{
1000
MANEDIT
1070
     0
1002
}
1002
{
1000
NOSEL
1070
     0
1002
}
1002
{
1000
BEHIND
1070
     0
1002
}
1002
{
1000
OTHER
1070
     0
1002
}
1002
{
1000
REACTOR
1002
}
1001
GENIUS_GENOBJ-N-REC_13
1002
{
1000
OWNER
1000
GEN
1002
}
  0
SOLID
  5
51CD
330
1F
100
AcDbEntity
  8
LOGO
 62
     5
100
AcDbTrace
 10
599.3385670062257
 20
34.21056602591298
 30
0.0
 11
600.7911324831438
 21
34.2105660259126
 31
0.0
 12
606.851836714423
 22
47.98489382427563
 32
0.0
 13
608.3044021913418
 23
47.98489382427488
 33
0.0
  0
SOLID
  5
51CE
330
1F
100
AcDbEntity
  8
LOGO
 62
     5
100
AcDbTrace
 10
601.3921940598012
 20
34.21056602591298
 30
0.0
 11
602.8447595367195
 21
34.21056602591298
 31
0.0
 12
608.3044021913418
 22
46.88294760040608
 32
0.0
 13
606.851836714423
 23
41.5568741850392
 33
0.0
  0
SOLID
  5
51CF
330
1F
100
AcDbEntity
  8
LOGO
 62
     2
100
AcDbTrace
 10
600.7911324831438
 20
34.2105660259126
 30
0.0
 11
601.3921940598012
 21
34.21056602591298
 31
0.0
 12
608.3044021913418
 22
47.98489382427488
 32
0.0
 13
608.9054637679986
 23
47.98489382427488
 33
0.0
  0
SOLID
  5
51D0
330
1F
100
AcDbEntity
  8
LOGO
 62
     5
100
AcDbTrace
 10
597.0097483340372
 20
29.20171955378155
 30
0.0
 11
597.5106329812509
 21
29.20171955378155
 31
0.0
 12
598.9211631335485
 22
31.70614278984706
 32
0.0
 13
599.4220477807606
 23
31.70614278984706
 33
0.0
  0
SOLID
  5
51D1
330
1F
100
AcDbEntity
  8
LOGO
 62
     5
100
AcDbTrace
 10
598.9211631335485
 20
31.70614278984706
 30
0.0
 11
599.4220477807606
 21
31.70614278984706
 31
0.0
 12
598.9211631335485
 22
29.20171955378155
 32
0.0
 13
599.4220477807606
 23
29.20171955378155
 33
0.0
  0
SOLID
  5
51D2
330
1F
100
AcDbEntity
  8
LOGO
 62
     5
100
AcDbTrace
 10
598.9211631335485
 20
29.20171955378155
 30
0.0
 11
599.4220477807606
 21
29.20171955378155
 31
0.0
 12
600.8325779330605
 22
31.70614278984706
 32
0.0
 13
601.3334625802734
 23
31.70614278984706
 33
0.0
  0
SOLID
  5
51D3
330
1F
100
AcDbEntity
  8
LOGO
 62
     5
100
AcDbTrace
 10
600.8325779330605
 20
31.70614278984706
 30
0.0
 11
601.3334625802734
 21
31.70614278984706
 31
0.0
 12
600.8325779330605
 22
29.20171955378155
 32
0.0
 13
601.3334625802734
 23
29.20171955378155
 33
0.0
  0
POLYLINE
  5
51D4
330
1F
100
AcDbEntity
  8
LOGO
 62
     5
100
AcDb2dPolyline
 66
     1
 10
0.0
 20
0.0
 30
0.0
 40
0.5016873469683257
 41
0.5016873469683257
  0
VERTEX
  5
51D5
330
51D4
100
AcDbEntity
  8
LOGO
 62
     5
100
AcDbVertex
100
AcDb2dVertex
 10
617.6220606791404
 20
30.7043734954208
 30
0.0
 42
1.0
  0
VERTEX
  5
51D6
330
51D4
100
AcDbEntity
  8
LOGO
 62
     5
100
AcDbVertex
100
AcDb2dVertex
 10
616.1169986382352
 20
30.7043734954208
 30
0.0
 42
1.0
  0
SEQEND
  5
51D7
330
51D4
100
AcDbEntity
  8
LOGO
 62
     5
  0
POLYLINE
  5
51D8
330
1F
100
AcDbEntity
  8
LOGO
 62
     5
100
AcDb2dPolyline
 66
     1
 10
0.0
 20
0.0
 30
0.0
 70
     1
  0
VERTEX
  5
51D9
330
51D8
100
AcDbEntity
  8
LOGO
 62
     5
100
AcDbVertex
100
AcDb2dVertex
 10
613.2798897459687
 20
30.45393117181394
 30
0.0
 42
1.000000057330635
  0
VERTEX
  5
51DA
330
51D8
100
AcDbEntity
  8
LOGO
 62
     5
100
AcDbVertex
100
AcDb2dVertex
 10
614.7825436876083
 20
30.45393117181394
 30
0.0
 42
1.000000057330635
  0
SEQEND
  5
51DB
330
51D8
100
AcDbEntity
  8
LOGO
 62
     5
  0
CIRCLE
  5
51DC
330
1F
100
AcDbEntity
  8
LOGO
 62
     5
100
AcDbCircle
 10
614.0312167167897
 20
30.45393117181394
 30
0.0
 40
0.7513269708197648
  0
POLYLINE
  5
51DD
330
1F
100
AcDbEntity
  8
LOGO
 62
     5
100
AcDb2dPolyline
 66
     1
 10
0.0
 20
0.0
 30
0.0
 70
     1
 40
0.5016873469683257
 41
0.5016873469683257
  0
VERTEX
  5
51DE
330
51DD
100
AcDbEntity
  8
LOGO
 62
     5
100
AcDbVertex
100
AcDb2dVertex
 10
613.0278420228523
 20
30.45393117181394
 30
0.0
 42
1.0
  0
VERTEX
  5
51DF
330
51DD
100
AcDbEntity
  8
LOGO
 62
     5
100
AcDbVertex
100
AcDb2dVertex
 10
615.0345914107255
 20
30.45393117181394
 30
0.0
 42
1.0
  0
SEQEND
  5
51E0
330
51DD
100
AcDbEntity
  8
LOGO
 62
     5
  0
LINE
  5
51E1
330
1F
100
AcDbEntity
  8
LOGO
100
AcDbLine
 10
617.8712989531133
 20
29.20171955378155
 30
0.0
 11
617.8712989531133
 21
30.7043734954208
 31
0.0
  0
SOLID
  5
51E2
330
1F
100
AcDbEntity
  8
LOGO
 62
     5
100
AcDbTrace
 10
614.782493599146
 20
31.70614278984706
 30
0.0
 11
615.2833782463582
 21
31.70614278984706
 31
0.0
 12
614.782493599146
 22
29.20171955378155
 32
0.0
 13
615.2833782463582
 23
29.20171955378155
 33
0.0
  0
SOLID
  5
51E3
330
1F
100
AcDbEntity
  8
LOGO
 62
     5
100
AcDbTrace
 10
615.8677603642607
 20
29.20171955378155
 30
0.0
 11
616.3686450114744
 21
29.20171955378155
 31
0.0
 12
615.8677603642607
 22
31.70614278984706
 32
0.0
 13
616.3686450114744
 23
31.70614278984706
 33
0.0
  0
SOLID
  5
51E4
330
1F
100
AcDbEntity
  8
LOGO
 62
     5
100
AcDbTrace
 10
617.3704143059011
 20
30.7043734954208
 30
0.0
 11
617.8712989531133
 21
30.7043734954208
 31
0.0
 12
617.3704143059011
 22
29.20171955378155
 32
0.0
 13
617.8712989531133
 23
29.20171955378155
 33
0.0
  0
SOLID
  5
51E5
330
1F
100
AcDbEntity
  8
LOGO
 62
     5
100
AcDbTrace
 10
615.8176718995393
 20
46.88294760040608
 30
0.0
 11
614.3651064226219
 21
41.5568741850392
 31
0.0
 12
615.8176718995393
 22
34.2105660259126
 32
0.0
 13
614.3651064226219
 23
34.2105660259126
 33
0.0
  0
SOLID
  5
51E6
330
1F
100
AcDbEntity
  8
LOGO
 62
     5
100
AcDbTrace
 10
616.4187334761959
 20
34.2105660259126
 30
0.0
 11
617.8712989531133
 21
34.2105660259126
 31
0.0
 12
616.4187334761959
 22
47.98489382427488
 32
0.0
 13
617.8712989531133
 23
47.98489382427563
 33
0.0
  0
SOLID
  5
51E7
330
1F
100
AcDbEntity
  8
LOGO
 62
     2
100
AcDbTrace
 10
615.8176718995393
 20
47.98489382427563
 30
0.0
 11
616.4187334761959
 21
47.98489382427488
 31
0.0
 12
615.8176718995393
 22
34.2105660259126
 32
0.0
 13
616.4187334761959
 23
34.2105660259126
 33
0.0
  0
POLYLINE
  5
51E8
330
1F
100
AcDbEntity
  8
LOGO
 62
     5
100
AcDb2dPolyline
 66
     1
 10
0.0
 20
0.0
 30
0.0
 40
0.5016873469683257
 41
0.5016873469683257
  0
VERTEX
  5
51E9
330
51E8
100
AcDbEntity
  8
LOGO
 62
     5
100
AcDbVertex
100
AcDb2dVertex
 10
610.4426806767754
 20
30.7043734954208
 30
0.0
 42
1.0
  0
VERTEX
  5
51EA
330
51E8
100
AcDbEntity
  8
LOGO
 62
     5
100
AcDbVertex
100
AcDb2dVertex
 10
608.9376186358699
 20
30.7043734954208
 30
0.0
 42
1.0
  0
SEQEND
  5
51EB
330
51E8
100
AcDbEntity
  8
LOGO
 62
     5
  0
POLYLINE
  5
51EC
330
1F
100
AcDbEntity
  8
LOGO
 62
     5
100
AcDb2dPolyline
 66
     1
 10
0.0
 20
0.0
 30
0.0
 40
0.5016873469683257
 41
0.5016873469683257
  0
VERTEX
  5
51ED
330
51EC
100
AcDbEntity
  8
LOGO
 62
     5
100
AcDbVertex
100
AcDb2dVertex
 10
611.9453346184132
 20
30.7043734954208
 30
0.0
 42
1.0
  0
VERTEX
  5
51EE
330
51EC
100
AcDbEntity
  8
LOGO
 62
     5
100
AcDbVertex
100
AcDb2dVertex
 10
610.4402725775088
 20
30.7043734954208
 30
0.0
 42
1.0
  0
SEQEND
  5
51EF
330
51EC
100
AcDbEntity
  8
LOGO
 62
     5
  0
POLYLINE
  5
51F0
330
1F
100
AcDbEntity
  8
LOGO
 62
     5
100
AcDb2dPolyline
 66
     1
 10
0.0
 20
0.0
 30
0.0
 40
0.5016873469683257
 41
0.5016873469683257
  0
VERTEX
  5
51F1
330
51F0
100
AcDbEntity
  8
LOGO
 62
     5
100
AcDbVertex
100
AcDb2dVertex
 10
604.765954616048
 20
30.7043734954208
 30
0.0
 42
1.0
  0
VERTEX
  5
51F2
330
51F0
100
AcDbEntity
  8
LOGO
 62
     5
100
AcDbVertex
100
AcDb2dVertex
 10
603.2608925751435
 20
30.7043734954208
 30
0.0
 42
1.0
  0
SEQEND
  5
51F3
330
51F0
100
AcDbEntity
  8
LOGO
 62
     5
  0
SOLID
  5
51F4
330
1F
100
AcDbEntity
  8
LOGO
 62
     5
100
AcDbTrace
 10
603.01165430117
 20
31.70614278984706
 30
0.0
 11
603.5125389483821
 21
31.70614278984706
 31
0.0
 12
603.01165430117
 22
29.20171955378155
 32
0.0
 13
603.5125389483821
 23
29.20171955378155
 33
0.0
  0
SOLID
  5
51F5
330
1F
100
AcDbEntity
  8
LOGO
 62
     5
100
AcDbTrace
 10
604.5143082428095
 20
30.7043734954208
 30
0.0
 11
605.0151928900234
 21
30.7043734954208
 31
0.0
 12
604.5143082428095
 22
29.20171955378155
 32
0.0
 13
605.0151928900234
 23
29.20171955378155
 33
0.0
  0
POLYLINE
  5
51F6
330
1F
100
AcDbEntity
  8
LOGO
 62
     5
100
AcDb2dPolyline
 66
     1
 10
0.0
 20
0.0
 30
0.0
 70
     1
 40
0.5016873469683257
 41
0.5016873469683257
  0
VERTEX
  5
51F7
330
51F6
100
AcDbEntity
  8
LOGO
 62
     5
100
AcDbVertex
100
AcDb2dVertex
 10
605.8484620204864
 20
30.45393117181394
 30
0.0
 42
1.0
  0
VERTEX
  5
51F8
330
51F6
100
AcDbEntity
  8
LOGO
 62
     5
100
AcDbVertex
100
AcDb2dVertex
 10
607.8552114083604
 20
30.45393117181394
 30
0.0
 42
1.0
  0
SEQEND
  5
51F9
330
51F6
100
AcDbEntity
  8
LOGO
 62
     5
  0
SOLID
  5
51FA
330
1F
100
AcDbEntity
  8
LOGO
 62
     5
100
AcDbTrace
 10
607.6031135967792
 20
32.45746976066728
 30
0.0
 11
608.1039982439922
 21
32.45746976066728
 31
0.0
 12
607.6031135967792
 22
29.20171955378155
 32
0.0
 13
608.1039982439922
 23
29.20171955378155
 33
0.0
  0
SOLID
  5
51FB
330
1F
100
AcDbEntity
  8
LOGO
 62
     5
100
AcDbTrace
 10
608.688380361897
 20
31.70614278984706
 30
0.0
 11
609.1892650091092
 21
31.70614278984706
 31
0.0
 12
608.688380361897
 22
29.20171955378155
 32
0.0
 13
609.1892650091092
 23
29.20171955378155
 33
0.0
  0
SOLID
  5
51FC
330
1F
100
AcDbEntity
  8
LOGO
 62
     5
100
AcDbTrace
 10
610.191034303535
 20
30.7043734954208
 30
0.0
 11
610.6919189507489
 21
30.7043734954208
 31
0.0
 12
610.191034303535
 22
29.20171955378155
 32
0.0
 13
610.6919189507489
 23
29.20171955378155
 33
0.0
  0
SOLID
  5
51FD
330
1F
100
AcDbEntity
  8
LOGO
 62
     5
100
AcDbTrace
 10
611.6936882451747
 20
30.7043734954208
 30
0.0
 11
612.1945728923877
 21
30.7043734954208
 31
0.0
 12
611.6936882451747
 22
29.2017195537808
 32
0.0
 13
612.1945728923877
 23
29.2017195537808
 33
0.0
  0
SOLID
  5
51FE
330
1F
100
AcDbEntity
  8
LOGO
 62
     5
100
AcDbTrace
 10
601.9263875360528
 20
32.05676204289647
 30
0.0
 11
602.4272721832674
 21
32.05676204289647
 31
0.0
 12
601.9263875360528
 22
32.45746976066728
 32
0.0
 13
602.4272721832674
 23
32.45746976066728
 33
0.0
  0
SOLID
  5
51FF
330
1F
100
AcDbEntity
  8
LOGO
 62
     5
100
AcDbTrace
 10
601.9263875360528
 20
31.70614278984706
 30
0.0
 11
602.4272721832674
 21
31.70614278984706
 31
0.0
 12
601.9263875360528
 22
29.2017195537808
 32
0.0
 13
602.4272721832674
 23
29.20171955378155
 33
0.0
  0
SOLID
  5
5200
330
1F
100
AcDbEntity
  8
LOGO
 62
     5
100
AcDbTrace
 10
606.851836714423
 20
34.21056602591298
 30
0.0
 11
608.3044021913418
 21
34.21056602591298
 31
0.0
 12
606.851836714423
 22
41.5568741850392
 32
0.0
 13
608.3044021913418
 23
46.88294760040608
 33
0.0
  0
SOLID
  5
5201
330
1F
100
AcDbEntity
  8
LOGO
 62
     5
100
AcDbTrace
 10
608.9054637679986
 20
47.98489382427488
 30
0.0
 11
610.3580292449159
 21
47.98489382427563
 31
0.0
 12
608.9054637679986
 22
35.31251224978178
 32
0.0
 13
610.3580292449159
 23
40.63858566514865
 33
0.0
  0
SOLID
  5
5202
330
1F
100
AcDbEntity
  8
LOGO
 62
     2
100
AcDbTrace
 10
608.3044021913418
 20
47.98489382427488
 30
0.0
 11
608.9054637679986
 21
47.98489382427488
 31
0.0
 12
608.3044021913418
 22
34.21056602591298
 32
0.0
 13
608.9054637679986
 23
34.21056602591298
 33
0.0
  0
SOLID
  5
5203
330
1F
100
AcDbEntity
  8
LOGO
 62
     5
100
AcDbTrace
 10
608.9054637679986
 20
35.31251224978178
 30
0.0
 11
610.3580292449159
 21
40.63858566514865
 31
0.0
 12
615.8176718995393
 22
47.98489382427563
 32
0.0
 13
614.3651064226219
 23
47.98489382427563
 33
0.0
  0
SOLID
  5
5204
330
1F
100
AcDbEntity
  8
LOGO
 62
     5
100
AcDbTrace
 10
608.9054637679986
 20
34.21056602591298
 30
0.0
 11
610.3580292449159
 21
34.21056602591298
 31
0.0
 12
615.8176718995393
 22
46.88294760040608
 32
0.0
 13
614.3651064226219
 23
41.5568741850392
 33
0.0
  0
SOLID
  5
5205
330
1F
100
AcDbEntity
  8
LOGO
 62
     2
100
AcDbTrace
 10
608.3044021913418
 20
34.21056602591298
 30
0.0
 11
608.9054637679986
 21
34.21056602591298
 31
0.0
 12
615.8176718995393
 22
47.98489382427563
 32
0.0
 13
616.4187334761959
 23
47.98489382427488
 33
0.0
  0
LWPOLYLINE
  5
5206
330
1F
100
AcDbEntity
  8
LOGO
 62
     4
100
AcDbPolyline
 90
        4
 70
     1
 43
0.0
 10
595.8530178503163
 20
48.78293395255875
 10
1005.629273483542
 20
48.78293395255875
 10
1005.629273483542
 20
15.18779911092924
 10
595.8530178503163
 20
15.18779911092924
1001
GENIUS_GENREC_14
1002
{
1000
PYDIR
1011
595.8530178503163
1021
15.18779911092924
1031
0.0
1002
}
1002
{
1000
PXDIR
1011
1005.629273483542
1021
48.78293395255875
1031
0.0
1002
}
1002
{
1000
PORI
1011
595.8530178503163
1021
48.78293395255875
1031
0.0
1002
}
1002
{
1000
PINS
1011
595.8530178503163
1021
48.78293395255875
1031
0.0
1002
}
1002
{
1000
PINS2
1011
1005.629273483542
1021
15.18779911092924
1031
0.0
1002
}
1002
{
1000
C
1070
     1
1002
}
1001
GENIUS_GENOBJ-N-REC_13
1002
{
1000
OWNER
1000
GEN
1002
}
1001
GENIUS_GENODEF_13
1002
{
1000
HIER
1070
     0
1002
}
1002
{
1000
MANEDIT
1070
     0
1002
}
1002
{
1000
NOSEL
1070
     0
1002
}
1002
{
1000
BEHIND
1070
     0
1002
}
1002
{
1000
OTHER
1070
     0
1002
}
1002
{
1000
REACTOR
1002
}
  0
LINE
  5
5207
330
1F
100
AcDbEntity
  8
LOGO
 62
     4
100
AcDbLine
 10
738.3676880098704
 20
30.30560978966323
 30
0.0
 11
738.3676880098704
 21
17.98739368106527
 31
0.0
  0
LINE
  5
5208
330
1F
100
AcDbEntity
  8
LOGO
 62
     4
100
AcDbLine
 10
715.9709314487843
 20
30.30560978966323
 30
0.0
 11
715.9709314487843
 21
17.98739368106527
 31
0.0
  0
LINE
  5
5209
330
1F
100
AcDbEntity
  8
LOGO
 62
     4
100
AcDbLine
 10
738.3676880098704
 20
17.98739368106527
 30
0.0
 11
715.9709314487843
 21
17.98739368106527
 31
0.0
  0
LINE
  5
520A
330
1F
100
AcDbEntity
  8
LOGO
 62
     4
100
AcDbLine
 10
742.3847843207449
 20
45.42342046839567
 30
0.0
 11
715.9709314487843
 21
45.42342046839567
 31
0.0
  0
LINE
  5
520B
330
1F
100
AcDbEntity
  8
LOGO
 62
     4
100
AcDbLine
 10
742.3847843207449
 20
35.3448800159071
 30
0.0
 11
715.9709314487843
 21
35.3448800159071
 31
0.0
  0
LINE
  5
520C
330
1F
100
AcDbEntity
  8
LOGO
 62
     4
100
AcDbLine
 10
715.9709314487843
 20
45.42342046839567
 30
0.0
 11
715.9709314487843
 21
35.3448800159071
 31
0.0
  0
LINE
  5
520D
330
1F
100
AcDbEntity
  8
LOGO
 62
     4
100
AcDbLine
 10
742.3847843207449
 20
45.42342046839567
 30
0.0
 11
742.3847843207449
 21
35.3448800159071
 31
0.0
  0
LINE
  5
520E
330
1F
100
AcDbEntity
  8
LOGO
 62
     4
100
AcDbLine
 10
728.3378578847646
 20
35.3448800159071
 30
0.0
 11
728.3378578847646
 21
30.30560978966323
 31
0.0
  0
TEXT
  5
520F
330
1F
100
AcDbEntity
  8
LOGO
  6
Continuous
100
AcDbText
 10
717.7617302430946
 20
37.44876060053949
 30
0.0
 40
5.879999999999999
  1
MCHY
  7
CHINESET
100
AcDbText
  0
LINE
  5
5210
330
1F
100
AcDbEntity
  8
LOGO
 62
     4
100
AcDbLine
 10
738.3676880098704
 20
30.30560978966323
 30
0.0
 11
715.9709314487843
 21
30.30560978966323
 31
0.0
  0
TEXT
  5
5211
330
1F
100
AcDbEntity
  8
LOGO
  6
Continuous
100
AcDbText
 10
723.1579797221845
 20
19.72608376340979
 30
220.1769792768836
 40
2.519999999999999
  1
Model
 41
0.8
  7
CHINESET
100
AcDbText
  0
TEXT
  5
5212
330
1F
100
AcDbEntity
  8
LOGO
100
AcDbText
 10
722.4872376423461
 20
24.39762066464776
 30
220.1769792768836
 40
4.2
  1
型號
  7
CHINESET
100
AcDbText
  0
LINE
  5
5213
330
1F
100
AcDbEntity
  8
LOGO
  6
Continuous
100
AcDbLine
 10
743.4562164688343
 20
40.34845045908299
 30
0.0
 11
747.9065321830528
 21
40.34845045908299
 31
0.0
  0
LINE
  5
5214
330
1F
100
AcDbEntity
  8
LOGO
 62
     4
100
AcDbLine
 10
763.6802705246642
 20
30.30560978966323
 30
0.0
 11
763.6802705246642
 21
17.98739368106527
 31
0.0
  0
LINE
  5
5215
330
1F
100
AcDbEntity
  8
LOGO
 62
     4
100
AcDbLine
 10
741.2835139635781
 20
30.30560978966323
 30
0.0
 11
741.2835139635781
 21
17.98739368106527
 31
0.0
  0
LINE
  5
5216
330
1F
100
AcDbEntity
  8
LOGO
 62
     4
100
AcDbLine
 10
763.6802705246642
 20
17.98739368106527
 30
0.0
 11
741.2835139635781
 21
17.98739368106527
 31
0.0
  0
LINE
  5
5217
330
1F
100
AcDbEntity
  8
LOGO
 62
     4
100
AcDbLine
 10
762.5714704221332
 20
45.42342046839567
 30
0.0
 11
749.5289667639224
 21
45.42342046839567
 31
0.0
  0
LINE
  5
5218
330
1F
100
AcDbEntity
  8
LOGO
 62
     4
100
AcDbLine
 10
762.5714704221332
 20
35.3448800159071
 30
0.0
 11
749.5289667639224
 21
35.3448800159071
 31
0.0
  0
LINE
  5
5219
330
1F
100
AcDbEntity
  8
LOGO
 62
     4
100
AcDbLine
 10
749.5289667639224
 20
45.42342046839567
 30
0.0
 11
749.5289667639224
 21
35.3448800159071
 31
0.0
  0
LINE
  5
521A
330
1F
100
AcDbEntity
  8
LOGO
 62
     4
100
AcDbLine
 10
762.5714704221332
 20
45.42342046839567
 30
0.0
 11
762.5714704221332
 21
35.3448800159071
 31
0.0
  0
LINE
  5
521B
330
1F
100
AcDbEntity
  8
LOGO
 62
     4
100
AcDbLine
 10
757.2724959471265
 20
35.3448800159071
 30
0.0
 11
757.2724959471265
 21
30.30560978966323
 31
0.0
  0
TEXT
  5
521C
330
1F
100
AcDbEntity
  8
LOGO
  6
Continuous
100
AcDbText
 10
751.3722097218296
 20
37.44876060053949
 30
0.0
 40
5.879999999999999
  1
16
  7
CHINESET
100
AcDbText
  0
LINE
  5
521D
330
1F
100
AcDbEntity
  8
LOGO
 62
     4
100
AcDbLine
 10
763.6802705246642
 20
30.30560978966323
 30
0.0
 11
741.2835139635781
 21
30.30560978966323
 31
0.0
  0
LINE
  5
521E
330
1F
100
AcDbEntity
  8
LOGO
  6
Continuous
100
AcDbLine
 10
783.1127459474873
 20
40.34845045908299
 30
0.0
 11
787.5630616617065
 21
40.34845045908299
 31
0.0
  0
LINE
  5
521F
330
1F
100
AcDbEntity
  8
LOGO
 62
     4
100
AcDbLine
 10
821.5096020585336
 20
30.30560978966323
 30
0.0
 11
821.5096020585336
 21
17.98739368106527
 31
0.0
  0
LINE
  5
5220
330
1F
100
AcDbEntity
  8
LOGO
 62
     4
100
AcDbLine
 10
791.6434702907013
 20
30.30560978966323
 30
0.0
 11
791.6434702907013
 21
17.98739368106527
 31
0.0
  0
LINE
  5
5221
330
1F
100
AcDbEntity
  8
LOGO
 62
     4
100
AcDbLine
 10
821.5096020585336
 20
17.98739368106527
 30
0.0
 11
791.6434702907013
 21
17.98739368106527
 31
0.0
  0
LINE
  5
5222
330
1F
100
AcDbEntity
  8
LOGO
 62
     4
100
AcDbLine
 10
803.4166333189132
 20
45.42342046839567
 30
0.0
 11
789.8218586934143
 21
45.42342046839567
 31
0.0
  0
LINE
  5
5223
330
1F
100
AcDbEntity
  8
LOGO
 62
     4
100
AcDbLine
 10
803.4166333189132
 20
35.3448800159071
 30
0.0
 11
789.8218586934143
 21
35.3448800159071
 31
0.0
  0
LINE
  5
5224
330
1F
100
AcDbEntity
  8
LOGO
 62
     4
100
AcDbLine
 10
789.8218586934143
 20
45.42342046839567
 30
0.0
 11
789.8218586934143
 21
35.3448800159071
 31
0.0
  0
LINE
  5
5225
330
1F
100
AcDbEntity
  8
LOGO
 62
     4
100
AcDbLine
 10
803.4166333189132
 20
45.42342046839567
 30
0.0
 11
803.4166333189132
 21
35.3448800159071
 31
0.0
  0
LINE
  5
5226
330
1F
100
AcDbEntity
  8
LOGO
 62
     4
100
AcDbLine
 10
797.6793085368343
 20
35.3448800159071
 30
0.0
 11
797.6793085368343
 21
30.30560978966323
 31
0.0
  0
TEXT
  5
5227
330
1F
100
AcDbEntity
  8
LOGO
  6
Continuous
100
AcDbText
 10
791.9555080070782
 20
37.44876060053949
 30
0.0
 40
5.879999999999999
  1
RT
  7
CHINESET
100
AcDbText
  0
LINE
  5
5228
330
1F
100
AcDbEntity
  8
LOGO
 62
     4
100
AcDbLine
 10
821.5096020585336
 20
30.30560978966323
 30
0.0
 11
791.6434702907013
 21
30.30560978966323
 31
0.0
  0
TEXT
  5
5229
330
1F
100
AcDbEntity
  8
LOGO
  6
Continuous
100
AcDbText
 10
745.9747190833411
 20
19.72608376340979
 30
220.1769792768836
 40
2.519999999999999
  1
Tube I.D.
 41
0.8
  7
CHINESET
100
AcDbText
  0
TEXT
  5
522A
330
1F
100
AcDbEntity
  8
LOGO
100
AcDbText
 10
747.6324509172026
 20
24.39762066464776
 30
220.1769792768836
 40
4.2
  1
內徑
  7
CHINESET
100
AcDbText
  0
TEXT
  5
522B
330
1F
100
AcDbEntity
  8
LOGO
  6
Continuous
100
AcDbText
 10
793.2246959054557
 20
19.72608376340979
 30
220.1769792768836
 40
2.519999999999999
  1
Auto switch type
 41
0.8
  7
CHINESET
100
AcDbText
  0
TEXT
  5
522C
330
1F
100
AcDbEntity
  8
LOGO
100
AcDbText
 10
794.8515811845888
 20
24.39762066464776
 30
220.1769792768836
 40
4.2
  1
感應器型式
  7
CHINESET
100
AcDbText
  0
LINE
  5
522D
330
1F
100
AcDbEntity
  8
LOGO
 62
     4
100
AcDbLine
 10
824.305022802061
 20
45.42342046839567
 30
0.0
 11
813.3685968037823
 21
45.42342046839567
 31
0.0
  0
LINE
  5
522E
330
1F
100
AcDbEntity
  8
LOGO
 62
     4
100
AcDbLine
 10
824.305022802061
 20
35.3448800159071
 30
0.0
 11
813.3685968037823
 21
35.3448800159071
 31
0.0
  0
LINE
  5
522F
330
1F
100
AcDbEntity
  8
LOGO
 62
     4
100
AcDbLine
 10
813.3685968037823
 20
45.42342046839567
 30
0.0
 11
813.3685968037823
 21
35.3448800159071
 31
0.0
  0
LINE
  5
5230
330
1F
100
AcDbEntity
  8
LOGO
 62
     4
100
AcDbLine
 10
824.305022802061
 20
45.42342046839567
 30
0.0
 11
824.305022802061
 21
35.3448800159071
 31
0.0
  0
LINE
  5
5231
330
1F
100
AcDbEntity
  8
LOGO
 62
     4
100
AcDbLine
 10
866.7910795355952
 20
30.30560978966323
 30
0.0
 11
866.7910795355952
 21
17.98739368106527
 31
0.0
  0
LINE
  5
5232
330
1F
100
AcDbEntity
  8
LOGO
 62
     4
100
AcDbLine
 10
824.5084225758731
 20
30.30560978966323
 30
0.0
 11
824.5084225758731
 21
17.98739368106527
 31
0.0
  0
LINE
  5
5233
330
1F
100
AcDbEntity
  8
LOGO
 62
     4
100
AcDbLine
 10
866.7910795355952
 20
17.98739368106527
 30
0.0
 11
824.5084225758731
 21
17.98739368106527
 31
0.0
  0
LINE
  5
5234
330
1F
100
AcDbEntity
  8
LOGO
 62
     4
100
AcDbLine
 10
866.7910795355952
 20
30.30560978966323
 30
0.0
 11
824.5084225758731
 21
30.30560978966323
 31
0.0
  0
TEXT
  5
5235
330
1F
100
AcDbEntity
  8
LOGO
  6
Continuous
100
AcDbText
 10
828.4745744346091
 20
19.72608376340979
 30
220.1769792768836
 40
2.519999999999999
  1
Number of auto switch
 41
0.8
  7
CHINESET
100
AcDbText
  0
TEXT
  5
5236
330
1F
100
AcDbEntity
  8
LOGO
100
AcDbText
 10
835.2014900885652
 20
24.39762066464776
 30
220.1769792768836
 40
4.2
  1
感應器數量
  7
CHINESET
100
AcDbText
  0
LINE
  5
5237
330
1F
100
AcDbEntity
  8
LOGO
 62
     4
100
AcDbLine
 10
845.6497510557341
 20
32.82524490278518
 30
0.0
 11
845.6497510557341
 21
30.30560978966323
 31
0.0
  0
TEXT
  5
5238
330
1F
100
AcDbEntity
  8
LOGO
100
AcDbText
 10
671.3188942951794
 20
16.9750470247175
 30
0.0
 40
3.359999999999999
  1
10705188
 41
0.7
  7
CHINESET
 72
     1
 11
679.4948942951795
 21
16.9750470247175
 31
0.0
100
AcDbText
  0
LINE
  5
5239
330
1F
100
AcDbEntity
  8
LOGO
 62
     4
100
AcDbLine
 10
689.9223145018985
 20
21.90682607925621
 30
0.0
 11
689.9223145019002
 21
15.18779911092999
 31
0.0
  0
LINE
  5
523A
330
1F
100
AcDbEntity
  8
LOGO
 62
     4
100
AcDbLine
 10
689.9223145018985
 20
21.90682607925621
 30
0.0
 11
669.7623145019003
 21
21.90682607925621
 31
0.0
  0
CIRCLE
  5
523B
330
1F
100
AcDbEntity
  8
LOGO
  6
Continuous
100
AcDbCircle
 10
653.5861173580457
 20
38.71157952399708
 30
0.0
 40
1.95061260293866
  0
CIRCLE
  5
523C
330
1F
100
AcDbEntity
  8
LOGO
  6
Continuous
100
AcDbCircle
 10
653.5861173580457
 20
38.71157952399708
 30
0.0
 40
1.142886307358202
  0
LINE
  5
523D
330
1F
100
AcDbEntity
  8
LOGO
100
AcDbLine
 10
665.8439932944268
 20
36.76096692105803
 30
0.0
 11
665.8439932944268
 21
40.66219212693612
 31
0.0
  0
LINE
  5
523E
330
1F
100
AcDbEntity
  8
LOGO
100
AcDbLine
 10
659.7289347547206
 20
37.56869321663907
 30
0.0
 11
659.7289347547206
 21
39.85446583135546
 31
0.0
  0
LINE
  5
523F
330
1F
100
AcDbEntity
  8
LOGO
  6
Continuous
100
AcDbLine
 10
659.7289347547206
 20
39.85446583135546
 30
0.0
 11
665.8439932944268
 21
40.66219212693612
 31
0.0
  0
LINE
  5
5240
330
1F
100
AcDbEntity
  8
LOGO
  6
Continuous
100
AcDbLine
 10
659.7289347547206
 20
37.56869321663907
 30
0.0
 11
665.8439932944268
 21
36.76096692105803
 31
0.0
  0
LINE
  5
5241
330
1F
100
AcDbEntity
  8
LOGO
  6
AM_ISO08W050x2
 48
0.3
100
AcDbLine
 10
650.897168676771
 20
38.71157952399708
 30
0.0
 11
656.2750660393203
 21
38.71157952399708
 31
0.0
1001
GENIUS_GENOREF_13
1005
5255
  0
LINE
  5
5242
330
1F
100
AcDbEntity
  8
LOGO
  6
AM_ISO08W050x2
 48
0.3
100
AcDbLine
 10
653.5861173580457
 20
36.02263084272239
 30
0.0
 11
653.5861173580457
 21
41.40052820527173
 31
0.0
1001
GENIUS_GENOREF_13
1005
5254
  0
LINE
  5
5243
330
1F
100
AcDbEntity
  8
LOGO
  6
CENTER
 48
0.5
100
AcDbLine
 10
659.2399000388009
 20
38.71157952399708
 30
0.0
 11
666.4597598939102
 21
38.71157952399708
 31
0.0
1001
GENIUS_GENOREF_13
1005
5253
  0
TEXT
  5
5244
330
1F
100
AcDbEntity
  8
LOGO
  6
Continuous
100
AcDbText
 10
764.9632939596084
 20
37.44876060053949
 30
0.0
 40
5.879999999999999
  1
D
  7
CHINESET
100
AcDbText
  0
LINE
  5
5245
330
1F
100
AcDbEntity
  8
LOGO
 62
     4
100
AcDbLine
 10
789.595319724702
 20
30.30560978966323
 30
0.0
 11
789.595319724702
 21
17.98739368106527
 31
0.0
  0
LINE
  5
5246
330
1F
100
AcDbEntity
  8
LOGO
 62
     4
100
AcDbLine
 10
766.0838957625551
 20
30.30560978966323
 30
0.0
 11
766.0838957625551
 21
17.98739368106527
 31
0.0
  0
LINE
  5
5247
330
1F
100
AcDbEntity
  8
LOGO
 62
     4
100
AcDbLine
 10
789.595319724702
 20
17.98739368106527
 30
0.0
 11
766.0838957625551
 21
17.98739368106527
 31
0.0
  0
LINE
  5
5248
330
1F
100
AcDbEntity
  8
LOGO
 62
     4
100
AcDbLine
 10
781.40314585745
 20
45.42342046839567
 30
0.0
 11
770.679858695074
 21
45.42342046839567
 31
0.0
  0
LINE
  5
5249
330
1F
100
AcDbEntity
  8
LOGO
 62
     4
100
AcDbLine
 10
781.40314585745
 20
35.3448800159071
 30
0.0
 11
770.679858695074
 21
35.3448800159071
 31
0.0
  0
LINE
  5
524A
330
1F
100
AcDbEntity
  8
LOGO
 62
     4
100
AcDbLine
 10
770.679858695074
 20
45.42342046839567
 30
0.0
 11
770.679858695074
 21
35.3448800159071
 31
0.0
  0
LINE
  5
524B
330
1F
100
AcDbEntity
  8
LOGO
 62
     4
100
AcDbLine
 10
781.40314585745
 20
45.42342046839567
 30
0.0
 11
781.40314585745
 21
35.3448800159071
 31
0.0
  0
LINE
  5
524C
330
1F
100
AcDbEntity
  8
LOGO
 62
     4
100
AcDbLine
 10
776.041502276262
 20
35.3448800159071
 30
0.0
 11
776.041502276262
 21
30.30560978966323
 31
0.0
  0
LINE
  5
524D
330
1F
100
AcDbEntity
  8
LOGO
 62
     4
100
AcDbLine
 10
789.595319724702
 20
30.30560978966323
 30
0.0
 11
766.0838957625551
 21
30.30560978966323
 31
0.0
  0
TEXT
  5
524E
330
1F
100
AcDbEntity
  8
LOGO
  6
Continuous
100
AcDbText
 10
768.1150616023269
 20
19.72608376340979
 30
220.1769792768836
 40
2.519999999999999
  1
Finger option
 41
0.8
  7
CHINESET
100
AcDbText
  0
TEXT
  5
524F
330
1F
100
AcDbEntity
  8
LOGO
100
AcDbText
 10
768.7504408312098
 20
24.39762066464776
 30
220.1769792768836
 40
4.2
  1
夾爪選配
  7
CHINESET
100
AcDbText
  0
TEXT
  5
5250
330
1F
100
AcDbEntity
  8
LOGO
  6
Continuous
100
AcDbText
 10
807.3425373829753
 20
37.44876060053949
 30
0.0
 40
5.879999999999999
  1
x
  7
CHINESET
100
AcDbText
  0
LINE
  5
5251
330
1F
100
AcDbEntity
  8
LOGO
 62
     4
100
AcDbLine
 10
818.8368098029217
 20
35.3448800159071
 30
0.0
 11
818.8368098029217
 21
32.82524490278518
 31
0.0
  0
LINE
  5
5252
330
1F
100
AcDbEntity
  8
LOGO
 62
     4
100
AcDbLine
 10
818.8368098029217
 20
32.82524490278518
 30
0.0
 11
845.6497510557341
 21
32.82524490278518
 31
0.0
  0
POINT
  5
5253
330
1F
100
AcDbEntity
  8
0
 60
     1
100
AcDbPoint
 10
-1152.389803646877
 20
-862.4802116680205
 30
0.0
1001
GENIUS_GENOBJ-N-CRS_13
1002
{
1000
OWNER
1000
GEN
1002
}
1001
GENIUS_GENOLIS_13
1002
{
1000
ENT
1005
0
1005
0
1005
0
1005
5243
1002
}
1001
GENIUS_GENOENT_13
1002
{
1000
MYREF
1005
5253
1002
}
1002
{
1000
GRP
1005
0
1002
}
1001
GENIUS_GENODEF_13
1002
{
1000
HIER
1070
    10
1002
}
1002
{
1000
MANEDIT
1070
     1
1002
}
1002
{
1000
NOSEL
1070
     0
1002
}
1002
{
1000
BEHIND
1070
     0
1002
}
1002
{
1000
OTHER
1070
     0
1002
}
1002
{
1000
REACTOR
1002
}
  0
POINT
  5
5254
330
1F
100
AcDbEntity
  8
0
 60
     1
100
AcDbPoint
 10
-1163.714388869731
 20
-853.6046251893843
 30
0.0
1001
GENIUS_GENOBJ-N-CRS_13
1002
{
1000
OWNER
1000
GEN
1002
}
1001
GENIUS_GENOLIS_13
1002
{
1000
ENT
1005
0
1005
0
1005
0
1005
5242
1002
}
1001
GENIUS_GENOENT_13
1002
{
1000
MYREF
1005
5254
1002
}
1002
{
1000
GRP
1005
0
1002
}
1001
GENIUS_GENODEF_13
1002
{
1000
HIER
1070
    10
1002
}
1002
{
1000
MANEDIT
1070
     1
1002
}
1002
{
1000
NOSEL
1070
     0
1002
}
1002
{
1000
BEHIND
1070
     0
1002
}
1002
{
1000
OTHER
1070
     0
1002
}
1002
{
1000
REACTOR
1002
}
  0
POINT
  5
5255
330
1F
100
AcDbEntity
  8
0
 60
     1
100
AcDbPoint
 10
-1157.355715171894
 20
-862.4802116680205
 30
0.0
1001
GENIUS_GENOBJ-N-CRS_13
1002
{
1000
OWNER
1000
GEN
1002
}
1001
GENIUS_GENOLIS_13
1002
{
1000
ENT
1005
0
1005
0
1005
0
1005
5241
1002
}
1001
GENIUS_GENOENT_13
1002
{
1000
MYREF
1005
5255
1002
}
1002
{
1000
GRP
1005
0
1002
}
1001
GENIUS_GENODEF_13
1002
{
1000
HIER
1070
    10
1002
}
1002
{
1000
MANEDIT
1070
     1
1002
}
1002
{
1000
NOSEL
1070
     0
1002
}
1002
{
1000
BEHIND
1070
     0
1002
}
1002
{
1000
OTHER
1070
     0
1002
}
1002
{
1000
REACTOR
1002
}
  0
ENDSEC
  0
SECTION
  2
OBJECTS
  0
DICTIONARY
  5
C
330
0
100
AcDbDictionary
281
     1
  3
ACAD_COLOR
350
967
  3
ACAD_GROUP
350
D
  3
ACAD_LAYOUT
350
1A
  3
ACAD_MATERIAL
350
966
  3
ACAD_MLINESTYLE
350
17
  3
ACAD_PLOTSETTINGS
350
19
  3
ACAD_PLOTSTYLENAME
350
E
  3
ACAD_TABLESTYLE
350
968
  3
ACDBHEADERROUNDTRIPXREC
350
55F9
  3
AcDbVariableDictionary
350
82
  3
AcmDictionary
350
45
  3
AMG
350
2B
  3
AMGSNAPSETTINGS
350
87
  3
DWGPROPS
350
55F8
  0
DICTIONARY
  5
B9F
330
2
100
AcDbDictionary
280
     1
281
     1
  3
ACAD_LAYERFILTERS
360
4D26
  3
ACAD_LAYERSTATES
360
BA0
  3
ACLYDICTIONARY
360
4D25
  3
AMLAYER_GROUPCOLORS
360
2BD4
  0
DICTIONARY
  5
7D
330
1F
100
AcDbDictionary
280
     1
281
     1
  3
ACAD_SORTENTS
360
2C06
  0
DICTIONARY
  5
967
102
{ACAD_REACTORS
330
C
102
}
330
C
100
AcDbDictionary
281
     1
  0
DICTIONARY
  5
D
102
{ACAD_REACTORS
330
C
102
}
330
C
100
AcDbDictionary
281
     1
  0
DICTIONARY
  5
1A
102
{ACAD_REACTORS
330
C
102
}
330
C
100
AcDbDictionary
281
     1
  3
Layout1
350
1E
  3
Layout2
350
26
  3
Model
350
22
  0
DICTIONARY
  5
966
102
{ACAD_REACTORS
330
C
102
}
330
C
100
AcDbDictionary
281
     1
  0
DICTIONARY
  5
17
102
{ACAD_REACTORS
330
C
102
}
330
C
100
AcDbDictionary
281
     1
  3
Standard
350
18
  0
DICTIONARY
  5
19
102
{ACAD_REACTORS
330
C
102
}
330
C
100
AcDbDictionary
281
     1
  0
ACDBDICTIONARYWDFLT
  5
E
102
{ACAD_REACTORS
330
C
102
}
330
C
100
AcDbDictionary
281
     1
  3
Normal
350
F
100
AcDbDictionaryWithDefault
340
F
  0
DICTIONARY
  5
968
102
{ACAD_REACTORS
330
C
102
}
330
C
100
AcDbDictionary
281
     1
  3
Standard
350
969
  0
DICTIONARY
  5
55F9
102
{ACAD_REACTORS
330
C
102
}
330
C
100
AcDbDictionary
281
     1
  0
DICTIONARY
  5
82
102
{ACAD_REACTORS
330
C
102
}
330
C
100
AcDbDictionary
281
     1
  3
CTABLESTYLE
350
9DB
  3
DIMASSOC
350
85
  3
HIDETEXT
350
84
  3
INDEXCTL
350
83
  3
PROJECTNAME
350
9DC
  0
DICTIONARY
  5
45
102
{ACAD_REACTORS
330
C
102
}
330
C
100
AcDbDictionary
281
     1
  3
AcmStdDictionary
350
4A
  3
AMDTSECTSYM_ARROWCOLOR
350
974
  0
DICTIONARY
  5
2B
102
{ACAD_REACTORS
330
C
102
}
330
C
100
AcDbDictionary
281
     1
  0
DICTIONARY
  5
87
102
{ACAD_REACTORS
330
C
102
}
330
C
100
AcDbDictionary
281
     1
  0
XRECORD
  5
55F8
102
{ACAD_REACTORS
330
C
102
}
330
C
100
AcDbXrecord
280
     1
  1
DWGPROPS COOKIE
  2

  3

  4

  6

  7

  8

  9

300
AmdtFileType=84
301
=
302
=
303
=
304
=
305
=
306
=
307
=
308
=
309
=
 40
0.5588339351851852
 41
2453021.369367211
 42
2454240.349752604
  1

 90
        1
  0
DICTIONARY
  5
4D26
102
{ACAD_REACTORS
330
B9F
102
}
330
B9F
100
AcDbDictionary
281
     1
  0
DICTIONARY
  5
BA0
102
{ACAD_REACTORS
330
B9F
102
}
330
B9F
100
AcDbDictionary
281
     1
  0
DICTIONARY
  5
4D25
102
{ACAD_REACTORS
330
B9F
102
}
330
B9F
100
AcDbDictionary
281
     1
1001
ACAD
1000
<All
  0
DICTIONARY
  5
2BD4
102
{ACAD_REACTORS
330
B9F
102
}
330
B9F
100
AcDbDictionary
280
     1
281
     1
  0
SORTENTSTABLE
  5
2C06
102
{ACAD_REACTORS
330
7D
102
}
330
7D
100
AcDbSortentsTable
330
1F
331
4079
  5
4079
331
4012
  5
4012
331
3E64
  5
3E64
331
402A
  5
402A
331
3E6C
  5
3E6C
331
359C
  5
359C
331
35EB
  5
35EB
331
35A4
  5
35A4
331
353D
  5
353D
331
35F3
  5
35F3
331
35AC
  5
35AC
331
3545
  5
3545
331
4250
  5
4250
331
4089
  5
4089
331
4258
  5
4258
331
3638
  5
3638
331
3640
  5
3640
331
3601
  5
3601
331
3E74
  5
3E74
331
4209
  5
4209
331
3609
  5
3609
331
3648
  5
3648
331
3611
  5
3611
331
3E84
  5
3E84
331
405A
  5
405A
331
3E8C
  5
3E8C
331
35C4
  5
35C4
331
354D
  5
354D
331
3555
  5
3555
331
35D4
  5
35D4
331
3595
  5
3595
331
3E94
  5
3E94
331
4241
  5
4241
331
3621
  5
3621
331
3E55
  5
3E55
331
4072
  5
4072
331
3629
  5
3629
331
3E5D
  5
3E5D
331
4013
  5
4013
331
3EA4
  5
3EA4
331
3E65
  5
3E65
331
402B
  5
402B
331
3E6D
  5
3E6D
331
359D
  5
359D
331
35A5
  5
35A5
331
35F4
  5
35F4
331
35AD
  5
35AD
331
3546
  5
3546
331
35B5
  5
35B5
331
408A
  5
408A
331
409A
  5
409A
331
3639
  5
3639
331
3641
  5
3641
331
3602
  5
3602
331
3E75
  5
3E75
331
420A
  5
420A
331
360A
  5
360A
331
3649
  5
3649
331
3612
  5
3612
331
35C5
  5
35C5
331
35CD
  5
35CD
331
3556
  5
3556
331
35D5
  5
35D5
331
358E
  5
358E
331
35DD
  5
35DD
331
3596
  5
3596
331
361A
  5
361A
331
3E95
  5
3E95
331
4242
  5
4242
331
3E56
  5
3E56
331
362A
  5
362A
331
3E5E
  5
3E5E
331
3E66
  5
3E66
331
402C
  5
402C
331
3E6E
  5
3E6E
331
35A6
  5
35A6
331
35AE
  5
35AE
331
3547
  5
3547
331
35F5
  5
35F5
331
408B
  5
408B
331
425A
  5
425A
331
409B
  5
409B
331
363A
  5
363A
331
403C
  5
403C
331
4262
  5
4262
331
3642
  5
3642
331
3E76
  5
3E76
331
360B
  5
360B
331
364A
  5
364A
331
3E7E
  5
3E7E
331
3613
  5
3613
331
3E86
  5
3E86
331
3E8E
  5
3E8E
331
35C6
  5
35C6
331
35CE
  5
35CE
331
35D6
  5
35D6
331
358F
  5
358F
331
35DE
  5
35DE
331
3597
  5
3597
331
361B
  5
361B
331
3E96
  5
3E96
331
4243
  5
4243
331
3623
  5
3623
331
3E57
  5
3E57
331
4074
  5
4074
331
424B
  5
424B
331
362B
  5
362B
331
3E67
  5
3E67
331
402D
  5
402D
331
3E6F
  5
3E6F
331
35E6
  5
35E6
331
3540
  5
3540
331
35A7
  5
35A7
331
35EE
  5
35EE
331
35AF
  5
35AF
331
35F6
  5
35F6
331
4253
  5
4253
331
363B
  5
363B
331
409C
  5
409C
331
425B
  5
425B
331
35FC
  5
35FC
331
403D
  5
403D
331
4263
  5
4263
331
3643
  5
3643
331
3E77
  5
3E77
331
420C
  5
420C
331
360C
  5
360C
331
3E7F
  5
3E7F
331
3E87
  5
3E87
331
3E8F
  5
3E8F
331
3548
  5
3548
331
35C7
  5
35C7
331
35CF
  5
35CF
331
35D7
  5
35D7
331
3590
  5
3590
331
406D
  5
406D
331
4244
  5
4244
331
3624
  5
3624
331
3E97
  5
3E97
331
4075
  5
4075
331
424C
  5
424C
331
3E60
  5
3E60
331
4016
  5
4016
331
3E68
  5
3E68
331
3598
  5
3598
331
35A8
  5
35A8
331
3541
  5
3541
331
35EF
  5
35EF
331
35B0
  5
35B0
331
35F7
  5
35F7
331
4254
  5
4254
331
363C
  5
363C
331
409D
  5
409D
331
425C
  5
425C
331
35FD
  5
35FD
331
3E70
  5
3E70
331
403E
  5
403E
331
3644
  5
3644
331
3E78
  5
3E78
331
420D
  5
420D
331
3E80
  5
3E80
331
3E88
  5
3E88
331
35C0
  5
35C0
331
3549
  5
3549
331
35D0
  5
35D0
331
3E90
  5
3E90
331
406E
  5
406E
331
3E98
  5
3E98
331
4245
  5
4245
331
3625
  5
3625
331
424D
  5
424D
331
4076
  5
4076
331
4017
  5
4017
331
3E69
  5
3E69
331
3635
  5
3635
331
3599
  5
3599
331
35E8
  5
35E8
331
35A9
  5
35A9
331
3542
  5
3542
331
35F0
  5
35F0
331
35B1
  5
35B1
331
4255
  5
4255
331
3E71
  5
3E71
331
363D
  5
363D
331
425D
  5
425D
331
35FE
  5
35FE
331
403F
  5
403F
331
3E79
  5
3E79
331
3645
  5
3645
331
3E81
  5
3E81
331
4057
  5
4057
331
3E89
  5
3E89
331
35C1
  5
35C1
331
354A
  5
354A
331
35C9
  5
35C9
331
3552
  5
3552
331
35D1
  5
35D1
331
3592
  5
3592
331
3E91
  5
3E91
331
423E
  5
423E
331
3E99
  5
3E99
331
3E5A
  5
3E5A
331
3626
  5
3626
331
406F
  5
406F
331
4077
  5
4077
331
424E
  5
424E
331
3EA1
  5
3EA1
331
3E6A
  5
3E6A
331
3636
  5
3636
331
359A
  5
359A
331
35E1
  5
35E1
331
35E9
  5
35E9
331
35F1
  5
35F1
331
35AA
  5
35AA
331
3543
  5
3543
331
4256
  5
4256
331
3E72
  5
3E72
331
409F
  5
409F
331
425E
  5
425E
331
363E
  5
363E
331
3E7A
  5
3E7A
331
3646
  5
3646
331
3607
  5
3607
331
3E82
  5
3E82
331
360F
  5
360F
331
4058
  5
4058
331
3E8A
  5
3E8A
331
365E
  5
365E
331
35C2
  5
35C2
331
354B
  5
354B
331
35CA
  5
35CA
331
3553
  5
3553
331
35D2
  5
35D2
331
3E92
  5
3E92
331
423F
  5
423F
331
361F
  5
361F
331
4070
  5
4070
331
3E9A
  5
3E9A
331
3E5B
  5
3E5B
331
3627
  5
3627
331
4078
  5
4078
331
424F
  5
424F
331
3E63
  5
3E63
331
3E6B
  5
3E6B
331
3637
  5
3637
331
359B
  5
359B
331
35EA
  5
35EA
331
35F2
  5
35F2
331
35AB
  5
35AB
331
3544
  5
3544
331
4088
  5
4088
331
4257
  5
4257
331
3E73
  5
3E73
331
425F
  5
425F
331
40A0
  5
40A0
331
363F
  5
363F
331
3E7B
  5
3E7B
331
3608
  5
3608
331
3647
  5
3647
331
3E83
  5
3E83
331
4059
  5
4059
331
3E8B
  5
3E8B
331
35C3
  5
35C3
331
354C
  5
354C
331
3554
  5
3554
331
35D3
  5
35D3
331
35DB
  5
35DB
331
4240
  5
4240
331
3620
  5
3620
331
3E93
  5
3E93
331
4071
  5
4071
331
3628
  5
3628
  0
LAYOUT
  5
1E
102
{ACAD_XDICTIONARY
360
55FA
102
}
102
{ACAD_REACTORS
330
1A
102
}
330
1A
100
AcDbPlotSettings
  1

  2
自動 RD 上的 Epson Stylus Photo 750 單色
  4

  6

 40
0.0
 41
0.0
 42
0.0
 43
0.0
 44
0.0
 45
0.0
 46
0.0
 47
0.0
 48
0.0
 49
0.0
140
0.0
141
0.0
142
1.0
143
1.0
 70
   688
 72
     0
 73
     0
 74
     5
  7
單色出圖.ctb
 75
    16
147
1.0
148
0.0
149
0.0
100
AcDbLayout
  1
Layout1
 70
     1
 71
     1
 10
0.0
 20
0.0
 11
420.0
 21
297.0
 12
0.0
 22
0.0
 32
0.0
 14
1.000000000000000E+20
 24
1.000000000000000E+20
 34
1.000000000000000E+20
 15
-1.000000000000000E+20
 25
-1.000000000000000E+20
 35
-1.000000000000000E+20
146
0.0
 13
0.0
 23
0.0
 33
0.0
 16
1.0
 26
0.0
 36
0.0
 17
0.0
 27
1.0
 37
0.0
 76
     0
330
1B
  0
LAYOUT
  5
26
102
{ACAD_XDICTIONARY
360
55FE
102
}
102
{ACAD_REACTORS
330
1A
102
}
330
1A
100
AcDbPlotSettings
  1

  2
自動 RD 上的 Epson Stylus Photo 750 單色
  4

  6

 40
0.0
 41
0.0
 42
0.0
 43
0.0
 44
0.0
 45
0.0
 46
0.0
 47
0.0
 48
0.0
 49
0.0
140
0.0
141
0.0
142
1.0
143
1.0
 70
   688
 72
     0
 73
     0
 74
     5
  7
單色出圖.ctb
 75
    16
147
1.0
148
0.0
149
0.0
100
AcDbLayout
  1
Layout2
 70
     1
 71
     2
 10
0.0
 20
0.0
 11
12.0
 21
9.0
 12
0.0
 22
0.0
 32
0.0
 14
0.0
 24
0.0
 34
0.0
 15
0.0
 25
0.0
 35
0.0
146
0.0
 13
0.0
 23
0.0
 33
0.0
 16
1.0
 26
0.0
 36
0.0
 17
0.0
 27
1.0
 37
0.0
 76
     0
330
23
  0
LAYOUT
  5
22
102
{ACAD_XDICTIONARY
360
55FC
102
}
102
{ACAD_REACTORS
330
1A
102
}
330
1A
100
AcDbPlotSettings
  1

  2
自動 RD 上的 Epson Stylus Photo 750 單色
  4
A4
  6

 40
3.757083177566528
 41
14.7637300491333
 42
3.757080078125
 43
3.757080078125
 44
209.9733276367187
 45
296.9683227539062
 46
7.54
 47
0.0
 48
0.0
 49
0.0
140
0.0
141
0.0
142
1.0
143
1.817317462545654
 70
 11956
 72
     1
 73
     0
 74
     1
  7
單色出圖.ctb
 75
     0
147
0.5502615919395967
148
-125.5654918467224
149
222.8859553785132
100
AcDbLayout
  1
Model
 70
     1
 71
     0
 10
0.0
 20
0.0
 11
12.0
 21
9.0
 12
0.0
 22
0.0
 32
0.0
 14
0.0
 24
0.0
 34
0.0
 15
0.0
 25
0.0
 35
0.0
146
0.0
 13
0.0
 23
0.0
 33
0.0
 16
1.0
 26
0.0
 36
0.0
 17
0.0
 27
1.0
 37
0.0
 76
     0
330
1F
  0
MLINESTYLE
  5
18
102
{ACAD_REACTORS
330
17
102
}
330
17
100
AcDbMlineStyle
  2
STANDARD
 70
     0
  3

 62
   256
 51
90.0
 52
90.0
 71
     2
 49
0.5
 62
   256
  6
BYLAYER
 49
-0.5
 62
   256
  6
BYLAYER
  0
ACDBPLACEHOLDER
  5
F
102
{ACAD_REACTORS
330
E
102
}
330
E
  0
TABLESTYLE
  5
969
102
{ACAD_REACTORS
330
968
102
}
330
968
100
AcDbTableStyle
  3
Standard
 70
     0
 71
     0
 40
1.5
 41
1.5
280
     0
281
     0
  7
STANDARD
140
4.5
170
     2
 62
     0
 63
     7
283
     0
274
    -2
284
     1
 64
     0
275
    -2
285
     1
 65
     0
276
    -2
286
     1
 66
     0
277
    -2
287
     1
 67
     0
278
    -2
288
     1
 68
     0
279
    -2
289
     1
 69
     0
  7
STANDARD
140
6.0
170
     5
 62
     0
 63
     7
283
     0
274
    -2
284
     1
 64
     0
275
    -2
285
     1
 65
     0
276
    -2
286
     1
 66
     0
277
    -2
287
     1
 67
     0
278
    -2
288
     1
 68
     0
279
    -2
289
     1
 69
     0
  7
STANDARD
140
4.5
170
     5
 62
     0
 63
     7
283
     0
274
    -2
284
     1
 64
     0
275
    -2
285
     1
 65
     0
276
    -2
286
     1
 66
     0
277
    -2
287
     1
 67
     0
278
    -2
288
     1
 68
     0
279
    -2
289
     1
 69
     0
  0
DICTIONARYVAR
  5
9DB
102
{ACAD_REACTORS
330
82
102
}
330
82
100
DictionaryVariables
280
     0
  1
STANDARD
  0
DICTIONARYVAR
  5
85
102
{ACAD_REACTORS
330
82
102
}
330
82
100
DictionaryVariables
280
     0
  1
2
  0
DICTIONARYVAR
  5
84
102
{ACAD_REACTORS
330
82
102
}
330
82
100
DictionaryVariables
280
     0
  1
1
  0
DICTIONARYVAR
  5
83
102
{ACAD_REACTORS
330
82
102
}
330
82
100
DictionaryVariables
280
     0
  1
0
  0
DICTIONARYVAR
  5
9DC
102
{ACAD_REACTORS
330
82
102
}
330
82
100
DictionaryVariables
280
     0
  1

  0
DICTIONARY
  5
4A
102
{ACAD_REACTORS
330
45
102
}
330
45
100
AcDbDictionary
281
     1
  0
XRECORD
  5
974
102
{ACAD_REACTORS
330
45
102
}
330
45
100
AcDbXrecord
280
     1
 90
-1023410169
  0
DICTIONARY
  5
55FA
330
1E
100
AcDbDictionary
280
     1
281
     1
  3
ACAD_XREC_ROUNDTRIP
360
55FB
  0
DICTIONARY
  5
55FE
330
26
100
AcDbDictionary
280
     1
281
     1
  3
ACAD_XREC_ROUNDTRIP
360
55FF
  0
DICTIONARY
  5
55FC
330
22
100
AcDbDictionary
280
     1
281
     1
  3
ACAD_XREC_ROUNDTRIP
360
55FD
  0
XRECORD
  5
55FB
102
{ACAD_REACTORS
330
55FA
102
}
330
55FA
100
AcDbXrecord
280
     1
102
SHADEPLOT
 70
     0
102
SHADEPLOTRESLEVEL
 70
     2
102
SHADEPLOTCUSTOMDPI
 70
   300
  0
XRECORD
  5
55FF
102
{ACAD_REACTORS
330
55FE
102
}
330
55FE
100
AcDbXrecord
280
     1
102
SHADEPLOT
 70
     0
102
SHADEPLOTRESLEVEL
 70
     2
102
SHADEPLOTCUSTOMDPI
 70
   300
  0
XRECORD
  5
55FD
102
{ACAD_REACTORS
330
55FC
102
}
330
55FC
100
AcDbXrecord
280
     1
102
SHADEPLOT
 70
     0
102
SHADEPLOTRESLEVEL
 70
     2
102
SHADEPLOTCUSTOMDPI
 70
   300
  0
ENDSEC
  0
EOF
