  0
SECTION
  2
HEADER
  9
$ACADVER
  1
AC1015
  9
$ACADMAINTVER
 70
    20
  9
$DWGCODEPAGE
  3
ANSI_950
  9
$INSBASE
 10
0.0
 20
0.0
 30
0.0
  9
$EXTMIN
 10
126.4293653323084
 20
246.2462589866575
 30
-0.0080625066417497
  9
$EXTMAX
 10
618.2144042723709
 20
649.4883789902846
 30
264.2204388692369
  9
$LIMMIN
 10
0.0
 20
0.0
  9
$LIMMAX
 10
420.0
 20
297.0
  9
$ORTHOMODE
 70
     0
  9
$REGENMODE
 70
     1
  9
$FILLMODE
 70
     1
  9
$QTEXTMODE
 70
     0
  9
$MIRRTEXT
 70
     1
  9
$LTSCALE
 40
1.0
  9
$ATTMODE
 70
     1
  9
$TEXTSIZE
 40
3.0
  9
$TRACEWID
 40
1.0
  9
$TEXTSTYLE
  7
STANDARD
  9
$CLAYER
  8
0
  9
$CELTYPE
  6
ByLayer
  9
$CECOLOR
 62
   256
  9
$CELTSCALE
 40
1.0
  9
$DISPSILH
 70
     0
  9
$DIMSCALE
 40
1.0
  9
$DIMASZ
 40
3.0
  9
$DIMEXO
 40
1.0
  9
$DIMDLI
 40
8.0
  9
$DIMRND
 40
0.0
  9
$DIMDLE
 40
0.0
  9
$DIMEXE
 40
1.5
  9
$DIMTP
 40
0.1
  9
$DIMTM
 40
0.1
  9
$DIMTXT
 40
3.5
  9
$DIMCEN
 40
0.0
  9
$DIMTSZ
 40
0.0
  9
$DIMTOL
 70
     0
  9
$DIMLIM
 70
     0
  9
$DIMTIH
 70
     0
  9
$DIMTOH
 70
     0
  9
$DIMSE1
 70
     0
  9
$DIMSE2
 70
     0
  9
$DIMTAD
 70
     1
  9
$DIMZIN
 70
     8
  9
$DIMBLK
  1

  9
$DIMASO
 70
     1
  9
$DIMSHO
 70
     1
  9
$DIMPOST
  1

  9
$DIMAPOST
  1
"
  9
$DIMALT
 70
     0
  9
$DIMALTD
 70
     2
  9
$DIMALTF
 40
0.0393701
  9
$DIMLFAC
 40
1.0
  9
$DIMTOFL
 70
     1
  9
$DIMTVP
 40
0.0
  9
$DIMTIX
 70
     0
  9
$DIMSOXD
 70
     0
  9
$DIMSAH
 70
     0
  9
$DIMBLK1
  1

  9
$DIMBLK2
  1

  9
$DIMSTYLE
  2
AM_ISO
  9
$DIMCLRD
 70
   256
  9
$DIMCLRE
 70
   256
  9
$DIMCLRT
 70
   256
  9
$DIMTFAC
 40
0.6
  9
$DIMGAP
 40
0.7
  9
$DIMJUST
 70
     0
  9
$DIMSD1
 70
     0
  9
$DIMSD2
 70
     0
  9
$DIMTOLJ
 70
     0
  9
$DIMTZIN
 70
     8
  9
$DIMALTZ
 70
     0
  9
$DIMALTTZ
 70
     0
  9
$DIMUPT
 70
     0
  9
$DIMDEC
 70
     2
  9
$DIMTDEC
 70
     8
  9
$DIMALTU
 70
     2
  9
$DIMALTTD
 70
     2
  9
$DIMTXSTY
  7
STANDARD
  9
$DIMAUNIT
 70
     0
  9
$DIMADEC
 70
     0
  9
$DIMALTRND
 40
0.0
  9
$DIMAZIN
 70
     2
  9
$DIMDSEP
 70
    46
  9
$DIMATFIT
 70
     3
  9
$DIMFRAC
 70
     0
  9
$DIMLDRBLK
  1

  9
$DIMLUNIT
 70
     2
  9
$DIMLWD
 70
    -1
  9
$DIMLWE
 70
    -1
  9
$DIMTMOVE
 70
     0
  9
$LUNITS
 70
     2
  9
$LUPREC
 70
     2
  9
$SKETCHINC
 40
1.0
  9
$FILLETRAD
 40
2.5
  9
$AUNITS
 70
     0
  9
$AUPREC
 70
     0
  9
$MENU
  1
.
  9
$ELEVATION
 40
0.0
  9
$PELEVATION
 40
0.0
  9
$THICKNESS
 40
0.0
  9
$LIMCHECK
 70
     0
  9
$CHAMFERA
 40
2.5
  9
$CHAMFERB
 40
2.5
  9
$CHAMFERC
 40
20.0
  9
$CHAMFERD
 40
0.0
  9
$SKPOLY
 70
     0
  9
$TDCREATE
 40
2454239.676751111
  9
$TDUCREATE
 40
2454239.343417778
  9
$TDUPDATE
 40
2454240.350322801
  9
$TDUUPDATE
 40
2454240.016989468
  9
$TDINDWG
 40
0.0501835648
  9
$TDUSRTIMER
 40
0.0501835648
  9
$USRTIMER
 70
     1
  9
$ANGBASE
 50
0.0
  9
$ANGDIR
 70
     0
  9
$PDMODE
 70
     0
  9
$PDSIZE
 40
0.0
  9
$PLINEWID
 40
0.0
  9
$SPLFRAME
 70
     0
  9
$SPLINETYPE
 70
     6
  9
$SPLINESEGS
 70
     8
  9
$HANDSEED
  5
1E82
  9
$SURFTAB1
 70
     6
  9
$SURFTAB2
 70
     6
  9
$SURFTYPE
 70
     6
  9
$SURFU
 70
     6
  9
$SURFV
 70
     6
  9
$UCSBASE
  2

  9
$UCSNAME
  2

  9
$UCSORG
 10
0.0
 20
0.0
 30
0.0
  9
$UCSXDIR
 10
1.0
 20
0.0
 30
0.0
  9
$UCSYDIR
 10
0.0
 20
1.0
 30
0.0
  9
$UCSORTHOREF
  2

  9
$UCSORTHOVIEW
 70
     0
  9
$UCSORGTOP
 10
0.0
 20
0.0
 30
0.0
  9
$UCSORGBOTTOM
 10
0.0
 20
0.0
 30
0.0
  9
$UCSORGLEFT
 10
0.0
 20
0.0
 30
0.0
  9
$UCSORGRIGHT
 10
0.0
 20
0.0
 30
0.0
  9
$UCSORGFRONT
 10
0.0
 20
0.0
 30
0.0
  9
$UCSORGBACK
 10
0.0
 20
0.0
 30
0.0
  9
$PUCSBASE
  2

  9
$PUCSNAME
  2

  9
$PUCSORG
 10
0.0
 20
0.0
 30
0.0
  9
$PUCSXDIR
 10
1.0
 20
0.0
 30
0.0
  9
$PUCSYDIR
 10
0.0
 20
1.0
 30
0.0
  9
$PUCSORTHOREF
  2

  9
$PUCSORTHOVIEW
 70
     0
  9
$PUCSORGTOP
 10
0.0
 20
0.0
 30
0.0
  9
$PUCSORGBOTTOM
 10
0.0
 20
0.0
 30
0.0
  9
$PUCSORGLEFT
 10
0.0
 20
0.0
 30
0.0
  9
$PUCSORGRIGHT
 10
0.0
 20
0.0
 30
0.0
  9
$PUCSORGFRONT
 10
0.0
 20
0.0
 30
0.0
  9
$PUCSORGBACK
 10
0.0
 20
0.0
 30
0.0
  9
$USERI1
 70
     0
  9
$USERI2
 70
     0
  9
$USERI3
 70
     0
  9
$USERI4
 70
     0
  9
$USERI5
 70
     0
  9
$USERR1
 40
0.0
  9
$USERR2
 40
0.0
  9
$USERR3
 40
0.0
  9
$USERR4
 40
0.0
  9
$USERR5
 40
0.0
  9
$WORLDVIEW
 70
     1
  9
$SHADEDGE
 70
     3
  9
$SHADEDIF
 70
    70
  9
$TILEMODE
 70
     1
  9
$MAXACTVP
 70
    64
  9
$PINSBASE
 10
0.0
 20
0.0
 30
0.0
  9
$PLIMCHECK
 70
     0
  9
$PEXTMIN
 10
1.000000000000000E+20
 20
1.000000000000000E+20
 30
1.000000000000000E+20
  9
$PEXTMAX
 10
-1.000000000000000E+20
 20
-1.000000000000000E+20
 30
-1.000000000000000E+20
  9
$PLIMMIN
 10
0.0
 20
0.0
  9
$PLIMMAX
 10
420.0
 20
297.0
  9
$UNITMODE
 70
     0
  9
$VISRETAIN
 70
     1
  9
$PLINEGEN
 70
     0
  9
$PSLTSCALE
 70
     1
  9
$TREEDEPTH
 70
  3020
  9
$CMLSTYLE
  2
Standard
  9
$CMLJUST
 70
     0
  9
$CMLSCALE
 40
20.0
  9
$PROXYGRAPHICS
 70
     1
  9
$MEASUREMENT
 70
     1
  9
$CELWEIGHT
370
    -1
  9
$ENDCAPS
280
     0
  9
$JOINSTYLE
280
     0
  9
$LWDISPLAY
290
     0
  9
$INSUNITS
 70
     4
  9
$HYPERLINKBASE
  1

  9
$STYLESHEET
  1
彩色出圖.ctb
  9
$XEDIT
290
     1
  9
$CEPSNTYPE
380
     0
  9
$PSTYLEMODE
290
     1
  9
$FINGERPRINTGUID
  2
{E5087B0F-EF08-4B44-AA8F-AF00480807A1}
  9
$VERSIONGUID
  2
{5F01787C-2913-46A8-9C08-945D3547B467}
  9
$EXTNAMES
290
     1
  9
$PSVPSCALE
 40
0.0
  9
$OLESTARTUP
290
     0
  0
ENDSEC
  0
SECTION
  2
CLASSES
  0
CLASS
  1
ACDBDICTIONARYWDFLT
  2
AcDbDictionaryWithDefault
  3
ObjectDBX Classes
 90
        0
280
     0
281
     0
  0
CLASS
  1
ACDBPLACEHOLDER
  2
AcDbPlaceHolder
  3
ObjectDBX Classes
 90
        0
280
     0
281
     0
  0
CLASS
  1
LAYOUT
  2
AcDbLayout
  3
ObjectDBX Classes
 90
        0
280
     0
281
     0
  0
CLASS
  1
ACME_DOCUMENT
  2
AcMeDbDoc
  3
AcMeServices
 90
        0
280
     0
281
     0
  0
CLASS
  1
AMGSETTINGSOBJ
  2
AmgSettingsObj
  3
"AcadM|Product Description: AutoCAD Mechanical 2000|Company: Autodesk"
 90
        0
280
     0
281
     0
  0
CLASS
  1
ACMESCOPE
  2
AcMeScope
  3
AcMeServices
 90
        0
280
     0
281
     0
  0
CLASS
  1
ACMECOMMANDHISTORY
  2
AcMeCommandHistory
  3
AcMeServices
 90
        0
280
     0
281
     0
  0
CLASS
  1
ACIMSYSVARMAN
  2
AcImSysVarManager
  3
AcMeServices
 90
        0
280
     0
281
     0
  0
CLASS
  1
ACIMREALSYSVAR
  2
AcImRealSysVar
  3
AcMeServices
 90
        0
280
     0
281
     0
  0
CLASS
  1
ACIMINTSYSVAR
  2
AcImIntSysVar
  3
AcMeServices
 90
        0
280
     0
281
     0
  0
CLASS
  1
ACMEDRAWINGMAN
  2
AcMeDrawingMan
  3
AcMeServices
 90
        0
280
     0
281
     0
  0
CLASS
  1
ACMEVIEW
  2
AcMeView
  3
AcMeServices
 90
        0
280
     0
281
     0
  0
CLASS
  1
ACDBENTITYCACHE
  2
AcMeEntityCache
  3
AcMeServices
 90
        0
280
     0
281
     0
  0
CLASS
  1
GSMANAGER
  2
AcMeGSManager
  3
AcMeServices
 90
        0
280
     0
281
     0
  0
CLASS
  1
AMDTINTERNALREACTOR
  2
AmdtInternalReactor
  3
AcMeServices
 90
        0
280
     0
281
     0
  0
CLASS
  1
ACMESTATEMGR
  2
AcMeStateMgr
  3
AcMeServices
 90
        0
280
     0
281
     0
  0
CLASS
  1
ACGREFMASTER
  2
AcGrefMaster
  3
AcAttribServices
 90
        0
280
     0
281
     0
  0
CLASS
  1
ACME_DATABASE
  2
AcMeDbDatabase
  3
AcMeServices
 90
        0
280
     0
281
     0
  0
CLASS
  1
ACRFINSADJUSTERMGR
  2
AcRfInsAdjusterMgr
  3
AcMeServices
 90
        0
280
     0
281
     0
  0
CLASS
  1
ACGREFACADMASTER
  2
AcGrefacadMaster
  3
AcGrefServices
 90
        0
280
     0
281
     0
  0
CLASS
  1
AMIMASTER
  2
AmiMaster
  3
AmiServices
 90
        0
280
     0
281
     0
  0
CLASS
  1
ACMDATADICTIONARY
  2
AcmDataDictionary
  3
"AcmSymBB|Product Description: AutoCAD Mechanical 2004 DX|Company: Autodesk"
 90
        0
280
     0
281
     0
  0
CLASS
  1
ACMDATAENTRYBLOCK
  2
AcmDataEntryBlock
  3
"AcmSymBB|Product Description: AutoCAD Mechanical 2004 DX|Company: Autodesk"
 90
        0
280
     0
281
     0
  0
CLASS
  1
ACIMSTRSYSVAR
  2
AcImStrSysVar
  3
AcMeServices
 90
        0
280
     0
281
     0
  0
CLASS
  1
ACMSTANDARDISO
  2
AcmStandardISO
  3
"Amdt_StdImp|Product Description: AutoCAD Mechanical 2004 DX|Company: Autodesk"
 90
        0
280
     0
281
     0
  0
CLASS
  1
AMGOBJPROPCFG
  2
AmgObjPropCfg
  3
"AmgLay|Product Description: AutoCAD Mechanical 2000|Company: Autodesk"
 90
        1
280
     0
281
     0
  0
CLASS
  1
AMDTEDGESTANDARDISO
  2
AmdtEdgeStdISO
  3
"Amdt_StdImp|Product Description: AutoCAD Mechanical 2004 DX|Company: Autodesk"
 90
        0
280
     0
281
     0
  0
CLASS
  1
ACMSURFSTANDARDISO
  2
AcmSurfTextStdISO
  3
"Amdt_StdImp|Product Description: AutoCAD Mechanical 2004 DX|Company: Autodesk"
 90
        0
280
     0
281
     0
  0
CLASS
  1
ACMFCFSTANDARDISO
  2
AcmFCFStdISO
  3
"Amdt_StdImp|Product Description: AutoCAD Mechanical 2004 DX|Company: Autodesk"
 90
        0
280
     0
281
     0
  0
CLASS
  1
ACMWELDSTANDARDISO
  2
AcmWeldingStdISO
  3
"Amdt_StdImp|Product Description: AutoCAD Mechanical 2004 DX|Company: Autodesk"
 90
        0
280
     0
281
     0
  0
CLASS
  1
ACMIDSTANDARDISO
  2
AcmIdStdISO
  3
"Amdt_StdImp|Product Description: AutoCAD Mechanical 2004 DX|Company: Autodesk"
 90
        0
280
     0
281
     0
  0
CLASS
  1
ACMDATUMSTANDARDISO
  2
AcmDatumStdISO
  3
"Amdt_StdImp|Product Description: AutoCAD Mechanical 2004 DX|Company: Autodesk"
 90
        0
280
     0
281
     0
  0
CLASS
  1
ACMBOMSTANDARDISO
  2
AcmBOMStdISO
  3
"Amdt_StdImp|Product Description: AutoCAD Mechanical 2004 DX|Company: Autodesk"
 90
        0
280
     0
281
     0
  0
CLASS
  1
ACMDETAILSTANDARDISO
  2
AmdtDetailSymStdISO
  3
"Amdt_StdImp|Product Description: AutoCAD Mechanical 2004 DX|Company: Autodesk"
 90
        0
280
     0
281
     0
  0
CLASS
  1
ACMSECTIONSTANDARDISO
  2
AmdtSectionSymStdISO
  3
"Amdt_StdImp|Product Description: AutoCAD Mechanical 2004 DX|Company: Autodesk"
 90
        0
280
     0
281
     0
  0
CLASS
  1
ACMCENTERLINESTANDARDISO
  2
AmdtCenterLineStdISO
  3
"Amdt_StdImp|Product Description: AutoCAD Mechanical 2004 DX|Company: Autodesk"
 90
        0
280
     0
281
     0
  0
CLASS
  1
ACMNOTESTANDARDISO
  2
AmdtNoteStdISO
  3
"Amdt_StdImp|Product Description: AutoCAD Mechanical 2004 DX|Company: Autodesk"
 90
        0
280
     0
281
     0
  0
CLASS
  1
ACAMGLAYSTD
  2
AcAmgLayStd
  3
"AcAmgLayStd|Product Description: AutoCAD Mechanical 2000|Company: Autodesk"
 90
        0
280
     0
281
     0
  0
CLASS
  1
ACAMGDIMSTD
  2
AcAmgDimStd
  3
"AcAmgDimStd|Product Description: AutoCAD Mechanical 2000|Company: Autodesk"
 90
        0
280
     0
281
     0
  0
CLASS
  1
ACAMGHOLECHARTSTDISO
  2
AcAmgHoleChartStdISO
  3
ACMSYMBB_MODULE_NAME
 90
        0
280
     0
281
     0
  0
CLASS
  1
ACAMGTITLESTD
  2
AcAmgTitleStd
  3
"TITLEAPP"
 90
        0
280
     0
281
     0
  0
CLASS
  1
LAYER_INDEX
  2
AcDbLayerIndex
  3
ObjectDBX Classes
 90
    32768
280
     0
281
     0
  0
CLASS
  1
IDBUFFER
  2
AcDbIdBuffer
  3
ObjectDBX Classes
 90
    32768
280
     0
281
     0
  0
CLASS
  1
DICTIONARYVAR
  2
AcDbDictionaryVar
  3
ObjectDBX Classes
 90
        0
280
     0
281
     0
  0
CLASS
  1
AM_DRAWING_MGR
  2
AcDmDwgMgr
  3
AcMechDwgViewMgmt
 90
        0
280
     0
281
     0
  0
CLASS
  1
AM_DWG_DOCUMENT
  2
AcDmDwgDocument
  3
AcMechDwgViewMgmt
 90
        0
280
     0
281
     0
  0
CLASS
  1
AM_DWG_SHEET
  2
AcDmSheet
  3
AcMechDwgViewMgmt
 90
        0
280
     0
281
     0
  0
CLASS
  1
AM_VIEWDIMPARMAP
  2
AcDmViewDimParMap
  3
AcMechDwgViewMgmt
 90
        0
280
     0
281
     0
  0
CLASS
  1
AM_DWGMGR_NAME
  2
AcDmDwgMgrName
  3
AcMechDwgViewMgmt
 90
        0
280
     0
281
     0
  0
CLASS
  1
AMDTMENUSTATEMGR
  2
AmdtMenuStateMgr
  3
McadcomServices
 90
        0
280
     0
281
     0
  0
CLASS
  1
AMDTMCOMMENUSTATE
  2
AmdtMcomMenuState
  3
McadcomServices
 90
        0
280
     0
281
     0
  0
CLASS
  1
MAPIAMMOUDLE
  2
MApiAmModule
  3
MApiAmServices
 90
        0
280
     0
281
     0
  0
CLASS
  1
AMDTADMENUSTATE
  2
AmdtAdMenuState
  3
DesignerServices
 90
        0
280
     0
281
     0
  0
CLASS
  1
ADAPPL
  2
AcAdAppl
  3
DesignerServices
 90
        0
280
     0
281
     0
  0
CLASS
  1
DEPMGR
  2
AcAdDepMgr
  3
DesignerServices
 90
        0
280
     0
281
     0
  0
CLASS
  1
PARAMMGR
  2
AcAdParamMgr
  3
DesignerServices
 90
        0
280
     0
281
     0
  0
CLASS
  1
PARAMSCOPE
  2
AcAdParamScope
  3
DesignerServices
 90
        0
280
     0
281
     0
  0
CLASS
  1
NAMEDAPPL
  2
AcAdNamedAppl
  3
DesignerServices
 90
        0
280
     0
281
     0
  0
CLASS
  1
AMDTDMMENUSTATE
  2
AmdtDmMenuState
  3
AcMechDwgViewMgmt
 90
        0
280
     0
281
     0
  0
CLASS
  1
AMDTAMMENUSTATE
  2
AmdtAmMenuState
  3
DesignerAssemblies
 90
        0
280
     0
281
     0
  0
CLASS
  1
ACAMPROJECT
  2
AcAmProject
  3
DesignerAssemblies
 90
        0
280
     0
281
     0
  0
CLASS
  1
ACAMGRCOMPDEF
  2
AcAmGrCompDef
  3
DesignerAssemblies
 90
        0
280
     0
281
     0
  0
CLASS
  1
ACCMCONTEXT
  2
AcCmContext
  3
DesignerAssemblies
 90
        0
280
     0
281
     0
  0
CLASS
  1
ACAMCOMPDEF
  2
AcAmCompDef
  3
DesignerAssemblies
 90
        0
280
     0
281
     0
  0
CLASS
  1
ACAMCOMPDEFMGR
  2
AcAmCompDefMgr
  3
DesignerAssemblies
 90
        0
280
     0
281
     0
  0
CLASS
  1
AMCONTEXTMGR
  2
AcAmContextMgr
  3
DesignerAssemblies
 90
        0
280
     0
281
     0
  0
CLASS
  1
ACAMCONTEXTMODELER
  2
AcAmContextModeler
  3
DesignerAssemblies
 90
        0
280
     0
281
     0
  0
CLASS
  1
ACMTHREADLINESTANDARDISO
  2
AmdtThreadLineStdISO
  3
"Amdt_StdImp|Product Description: AutoCAD Mechanical 2004 DX|Company: Autodesk"
 90
        0
280
     0
281
     0
  0
CLASS
  1
CATALOGSTATE
  2
AcAmCatalogState
  3
DesignerAssemblies
 90
        0
280
     0
281
     0
  0
CLASS
  1
ACAMGRCOMPDEFSET
  2
AcAmGrCompDefSet
  3
DesignerAssemblies
 90
        0
280
     0
281
     0
  0
CLASS
  1
AMDTBROWSERDBTAB
  2
AmdtBrowserDbTab
  3
McadcomServices
 90
        0
280
     0
281
     0
  0
CLASS
  1
CBROWSERAPPOBJECT
  2
CBrowserAppObject
  3
McadcomServices
 90
        0
280
     0
281
     0
  0
CLASS
  1
DM_PLACEHOLDER
  2
AcDmSelsetPlaceholder
  3
AcMechDwgViewMgmt
 90
        0
280
     0
281
     0
  0
CLASS
  1
TABLESTYLE
  2
AcDbTableStyle
  3
ObjectDBX Classes
 90
     2047
280
     0
281
     0
  0
CLASS
  1
VAACXREFPANELOBJECT
  2
VaAcXREFPanelObject
  3
VAAC_ADDIN
 90
    32768
280
     0
281
     0
  0
CLASS
  1
VAACIMAGEINVENTORY
  2
VaAcImageInventory
  3
VAAC_ADDIN
 90
    32768
280
     0
281
     0
  0
CLASS
  1
AMDTNOTETEMPLATEDB
  2
AmdtNoteTemplateDB
  3
AMDT_STDIMP_MODULE_NAME
 90
        0
280
     0
281
     0
  0
CLASS
  1
ACMBOM
  2
AcmBom
  3
"AcmSymBB|Product Description: AutoCAD Mechanical 2004 DX|Company: Autodesk"
 90
    32768
280
     0
281
     0
  0
CLASS
  1
AMDTFORMULAUPDATEDISPATCHER
  2
AmdtFormulaUpdateDispatcher
  3
AcMeServices
 90
    32768
280
     0
281
     0
  0
CLASS
  1
ACMPARTLIST
  2
AcmPartList
  3
"AcmSymBB|Product Description: AutoCAD Mechanical 2004 DX|Company: Autodesk"
 90
    33791
280
     0
281
     1
  0
CLASS
  1
ACAMGFILTERDAT
  2
AcAmgFilterDat
  3
"AcadM|Product Description: AutoCAD Mechanical 2000|Company: Autodesk"
 90
        0
280
     0
281
     0
  0
CLASS
  1
DIMASSOC
  2
AcDbDimAssoc
  3
"AcDbDimAssoc|Product Desc:     AcDim ARX App For Dimension|Company:          Autodesk, Inc.|WEB Address:      www.autodesk.com"
 90
        0
280
     0
281
     0
  0
CLASS
  1
AMDTNOTE
  2
AmdtNote
  3
"AcmSymBB|Product Description: AutoCAD Mechanical 2004 DX|Company: Autodesk"
 90
     1023
280
     0
281
     1
  0
CLASS
  1
SORTENTSTABLE
  2
AcDbSortentsTable
  3
ObjectDBX Classes
 90
        0
280
     0
281
     0
  0
CLASS
  1
STDPART2D
  2
AmgStdPart
  3
"AmgStdPart|Product Description: AutoCAD Mechanical 2000|Company: Autodesk"
 90
    33791
280
     0
281
     1
  0
CLASS
  1
ACAMSTDPCOMPDEF
  2
AcAmStdpCompDef
  3
DesignerAssemblies
 90
    32768
280
     0
281
     0
  0
CLASS
  1
ACRFATTGENMGR
  2
AcRfAttGeneralMgr
  3
AcAttribServices
 90
        0
280
     0
281
     0
  0
CLASS
  1
ACRFOBJATTMGR
  2
AcRfObjAttGroupMgr
  3
AcAttribServices
 90
    32768
280
     0
281
     0
  0
CLASS
  1
ACRFMCADAPIATTHOLDER
  2
AcRfMCADAPIAttHolder
  3
AcAttribServices
 90
    32768
280
     0
281
     0
  0
CLASS
  1
AMDTSYSATTR
  2
AmdtSystemAttribute
  3
AcAttribServices
 90
    32768
280
     0
281
     0
  0
CLASS
  1
ACAMCOMP
  2
AcAmComp
  3
DesignerAssemblies
 90
    32768
280
     0
281
     0
  0
CLASS
  1
AC_AM_STDP_VIEW_DEF
  2
AcAmStdpViewDef
  3
DesignerAssemblies
 90
    32768
280
     0
281
     0
  0
CLASS
  1
AC_AM_MVD_DEP_MGR
  2
AcAmMVDdepMgr
  3
DesignerAssemblies
 90
        0
280
     0
281
     0
  0
CLASS
  1
AC_AM_MASTER_VIEW_DEF
  2
AcAmMasterViewDef
  3
DesignerAssemblies
 90
        0
280
     0
281
     0
  0
CLASS
  1
AC_AM_DIRTY_NODES
  2
AcAmDirtyNodes
  3
DesignerAssemblies
 90
        0
280
     0
281
     0
  0
CLASS
  1
AC_AM_MAPPER_CACHE
  2
AcAmMapperCache
  3
DesignerAssemblies
 90
        0
280
     0
281
     0
  0
CLASS
  1
ACAMMVDBACKUPOBJECT
  2
AcAmMVDBackupObject
  3
DesignerAssemblies
 90
        0
280
     0
281
     0
  0
CLASS
  1
AC_AM_COMP_VIEW_INST
  2
AcAmCompView
  3
DesignerAssemblies
 90
    32768
280
     0
281
     0
  0
CLASS
  1
AC_AM_2D_XREF_MGR
  2
AcAmXrefMgr2d
  3
DesignerAssemblies
 90
        0
280
     0
281
     0
  0
ENDSEC
  0
SECTION
  2
TABLES
  0
TABLE
  2
VPORT
  5
8
330
0
100
AcDbSymbolTable
 70
    10
  0
VPORT
  5
1E79
330
8
100
AcDbSymbolTableRecord
100
AcDbViewportTableRecord
  2
*Active
 70
     0
 10
0.0
 20
0.0
 11
1.0
 21
1.0
 12
372.3218848023397
 22
447.8673189884711
 13
0.0
 23
0.0
 14
2.5
 24
2.5
 15
10.0
 25
10.0
 16
0.0
 26
0.0
 36
1.0
 17
0.0
 27
0.0
 37
0.0
 40
406.5249595151899
 41
1.661684782608695
 42
50.0
 43
0.0
 44
0.0
 50
0.0
 51
0.0
 71
     0
 72
   100
 73
     1
 74
     3
 75
     0
 76
     0
 77
     0
 78
     0
281
     0
 65
     1
110
0.0
120
0.0
130
0.0
111
1.0
121
0.0
131
0.0
112
0.0
122
1.0
132
0.0
 79
     0
146
0.0
  0
ENDTAB
  0
TABLE
  2
LTYPE
  5
5
330
0
100
AcDbSymbolTable
 70
    15
  0
LTYPE
  5
14
330
5
100
AcDbSymbolTableRecord
100
AcDbLinetypeTableRecord
  2
ByBlock
 70
     0
  3

 72
    65
 73
     0
 40
0.0
  0
LTYPE
  5
15
330
5
100
AcDbSymbolTableRecord
100
AcDbLinetypeTableRecord
  2
ByLayer
 70
     0
  3

 72
    65
 73
     0
 40
0.0
  0
LTYPE
  5
16
330
5
100
AcDbSymbolTableRecord
100
AcDbLinetypeTableRecord
  2
Continuous
 70
     0
  3
Solid line
 72
    65
 73
     0
 40
0.0
  0
LTYPE
  5
64
330
5
100
AcDbSymbolTableRecord
100
AcDbLinetypeTableRecord
  2
AM_ISO02W050
 70
     0
  3
__ __ __ __ __ __ __ __ __ __ __ __ __ __ __
 72
    65
 73
     2
 40
7.5
 49
6.0
 74
     0
 49
-1.5
 74
     0
  0
LTYPE
  5
65
330
5
100
AcDbSymbolTableRecord
100
AcDbLinetypeTableRecord
  2
AM_ISO08W050
 70
     0
  3
____ . ____ . ____ . ____ . ____ . ____ . ____
 72
    65
 73
     4
 40
18.0
 49
12.0
 74
     0
 49
-1.5
 74
     0
 49
3.0
 74
     0
 49
-1.5
 74
     0
  0
LTYPE
  5
66
330
5
100
AcDbSymbolTableRecord
100
AcDbLinetypeTableRecord
  2
AM_ISO09W050
 70
     0
  3
_____ . . _____ . . _____ . . ____ .. ____
 72
    65
 73
     6
 40
22.5
 49
12.0
 74
     0
 49
-1.5
 74
     0
 49
3.0
 74
     0
 49
-1.5
 74
     0
 49
3.0
 74
     0
 49
-1.5
 74
     0
  0
LTYPE
  5
67
330
5
100
AcDbSymbolTableRecord
100
AcDbLinetypeTableRecord
  2
Amconstr
 70
     0
  3
_______________________
 72
    65
 73
     2
 40
9999.0
 49
9999.0
 74
     0
 49
0.0
 74
     0
  0
LTYPE
  5
68
330
5
100
AcDbSymbolTableRecord
100
AcDbLinetypeTableRecord
  2
AM_ISO08W050x2
 70
     0
  3
__ . __ . __ . __ . __ . __
 72
    65
 73
     4
 40
9.0
 49
6.0
 74
     0
 49
-0.75
 74
     0
 49
1.5
 74
     0
 49
-0.75
 74
     0
  0
LTYPE
  5
69
330
5
100
AcDbSymbolTableRecord
100
AcDbLinetypeTableRecord
  2
AM_ISO02W050x2
 70
     0
  3
 _ _ _ _ _ _ _ _ _ _ _ _
 72
    65
 73
     2
 40
3.75
 49
3.0
 74
     0
 49
-0.75
 74
     0
  0
LTYPE
  5
6C
330
5
100
AcDbSymbolTableRecord
100
AcDbLinetypeTableRecord
  2
Amzigzag
 70
     0
  3
/\/-/\/-/\/-/\/-/\/-/\/
 72
    65
 73
     2
 40
11.0001
 49
0.0001
 74
     4
 75
   135
340
6B
 46
0.04
 50
0.0
 44
0.0
 45
0.0
 49
-11.0
 74
     0
  0
LTYPE
  5
7A
330
5
100
AcDbSymbolTableRecord
100
AcDbLinetypeTableRecord
  2
ACISOWELD
 70
     0
  3
_ _ _ _ _
 72
    65
 73
     2
 40
2.0
 49
2.0
 74
     0
 49
-1.0
 74
     0
  0
LTYPE
  5
7B
330
5
100
AcDbSymbolTableRecord
100
AcDbLinetypeTableRecord
  2
ACISOTGB
 70
     0
  3
__ . . __ . .
 72
    65
 73
     6
 40
9.0
 49
4.0
 74
     0
 49
-1.0
 74
     0
 49
1.0
 74
     0
 49
-1.0
 74
     0
 49
1.0
 74
     0
 49
-1.0
 74
     0
  0
LTYPE
  5
7C
330
5
100
AcDbSymbolTableRecord
100
AcDbLinetypeTableRecord
  2
ACISOTGL
 70
     0
  3
_ _ _ _ _
 72
    65
 73
     2
 40
3.0
 49
2.0
 74
     0
 49
-1.0
 74
     0
  0
LTYPE
  5
7E
330
5
100
AcDbSymbolTableRecord
100
AcDbLinetypeTableRecord
  2
CENTER
 70
     0
  3
__ . __
 72
    65
 73
     4
 40
7.0
 49
4.0
 74
     0
 49
-1.0
 74
     0
 49
1.0
 74
     0
 49
-1.0
 74
     0
  0
LTYPE
  5
D8
330
5
100
AcDbSymbolTableRecord
100
AcDbLinetypeTableRecord
  2
HIDDEN
 70
     0
  3
Hidden __ __ __ __ __ __ __ __ __ __ __ __ __ _
 72
    65
 73
     2
 40
9.524999999999998
 49
6.349999999999999
 74
     0
 49
-3.174999999999999
 74
     0
  0
LTYPE
  5
D9
330
5
100
AcDbSymbolTableRecord
100
AcDbLinetypeTableRecord
  2
PHANTOM2
 70
     0
  3
Phantom (.5x) ___ _ _ ___ _ _ ___ _ _ ___ _ _
 72
    65
 73
     6
 40
31.75
 49
15.875
 74
     0
 49
-3.174999999999999
 74
     0
 49
3.174999999999999
 74
     0
 49
-3.174999999999999
 74
     0
 49
3.174999999999999
 74
     0
 49
-3.174999999999999
 74
     0
  0
LTYPE
  5
BB0
330
5
100
AcDbSymbolTableRecord
100
AcDbLinetypeTableRecord
  2
PHANTOM
 70
     0
  3
_____ _ _ _____ _ _ _____ _ _ _____ _ _ ____  
 72
    65
 73
     6
 40
15.5
 49
8.0
 74
     0
 49
-1.5
 74
     0
 49
1.5
 74
     0
 49
-1.5
 74
     0
 49
1.5
 74
     0
 49
-1.5
 74
     0
  0
ENDTAB
  0
TABLE
  2
LAYER
  5
2
102
{ACAD_XDICTIONARY
360
3F9
102
}
330
0
100
AcDbSymbolTable
 70
     9
  0
LAYER
  5
10
330
2
100
AcDbSymbolTableRecord
100
AcDbLayerTableRecord
  2
0
 70
     0
 62
     7
  6
Continuous
370
    -3
390
F
  0
LAYER
  5
BB1
330
2
100
AcDbSymbolTableRecord
100
AcDbLayerTableRecord
  2
Center
 70
     0
 62
     2
  6
CENTER
370
     9
390
F
  0
LAYER
  5
BB3
330
2
100
AcDbSymbolTableRecord
100
AcDbLayerTableRecord
  2
Defpoints
 70
     0
 62
     7
  6
Continuous
290
     0
370
    -3
390
F
  0
LAYER
  5
11E1
330
2
100
AcDbSymbolTableRecord
100
AcDbLayerTableRecord
  2
AM_7
 70
     0
 62
     1
  6
CENTER
370
    25
390
F
  0
LAYER
  5
12E5
330
2
100
AcDbSymbolTableRecord
100
AcDbLayerTableRecord
  2
AM_5
 70
     0
 62
     5
  6
Continuous
370
    50
390
F
  0
LAYER
  5
12E7
330
2
100
AcDbSymbolTableRecord
100
AcDbLayerTableRecord
  2
AM_0
 70
     0
 62
     7
  6
Continuous
370
    50
390
F
  0
LAYER
  5
12E8
330
2
100
AcDbSymbolTableRecord
100
AcDbLayerTableRecord
  2
AM_4
 70
     0
 62
     3
  6
Continuous
370
    25
390
F
  0
LAYER
  5
1BE7
330
2
100
AcDbSymbolTableRecord
100
AcDbLayerTableRecord
  2
LOGO
 70
     0
 62
     7
  6
Continuous
370
    -3
390
F
  0
ENDTAB
  0
TABLE
  2
STYLE
  5
3
330
0
100
AcDbSymbolTable
 70
     7
  0
STYLE
  5
11
330
3
100
AcDbSymbolTableRecord
100
AcDbTextStyleTableRecord
  2
STANDARD
 70
     0
 40
0.0
 41
1.0
 50
0.0
 71
     0
 42
3.0
  3
ISOCP.SHX
  4
CHINESET.SHX
  0
STYLE
  5
6B
330
3
100
AcDbSymbolTableRecord
100
AcDbTextStyleTableRecord
  2

 70
     1
 40
0.0
 41
1.0
 50
0.0
 71
     0
 42
2.5
  3
ltypeshp.shx
  4

  0
STYLE
  5
6D
330
3
100
AcDbSymbolTableRecord
100
AcDbTextStyleTableRecord
  2
ACISOTS
 70
     0
 40
1.0
 41
1.0
 50
0.0
 71
     0
 42
1.0
  3
isocp.shx
  4
chineset.shx
  0
STYLE
  5
79
330
3
100
AcDbSymbolTableRecord
100
AcDbTextStyleTableRecord
  2
ACISOGDT
 70
     0
 40
0.0
 41
1.0
 50
0.0
 71
     0
 42
2.5
  3
amgdt.shx
  4
chineset.shx
  0
STYLE
  5
1BE8
330
3
100
AcDbSymbolTableRecord
100
AcDbTextStyleTableRecord
  2
CHINESET
 70
     0
 40
0.0
 41
1.0
 50
0.0
 71
     0
 42
3.0
  3
simplex.shx
  4
CHINESET.SHX
  0
ENDTAB
  0
TABLE
  2
VIEW
  5
6
330
0
100
AcDbSymbolTable
 70
     0
  0
ENDTAB
  0
TABLE
  2
UCS
  5
7
330
0
100
AcDbSymbolTable
 70
     0
  0
ENDTAB
  0
TABLE
  2
APPID
  5
9
330
0
100
AcDbSymbolTable
 70
    27
  0
APPID
  5
12
330
9
100
AcDbSymbolTableRecord
100
AcDbRegAppTableRecord
  2
ACAD
 70
     0
  0
APPID
  5
46
330
9
100
AcDbSymbolTableRecord
100
AcDbRegAppTableRecord
  2
MCAD_NO_VIS
 70
     0
  0
APPID
  5
47
330
9
100
AcDbSymbolTableRecord
100
AcDbRegAppTableRecord
  2
ACAD_TEMP_GRAPHIC
 70
     0
  0
APPID
  5
58
330
9
100
AcDbSymbolTableRecord
100
AcDbRegAppTableRecord
  2
ACATTRIBSERVICES
 70
     0
  0
APPID
  5
EE
330
9
100
AcDbSymbolTableRecord
100
AcDbRegAppTableRecord
  2
AD_DRAW
 70
     0
  0
APPID
  5
10C
330
9
100
AcDbSymbolTableRecord
100
AcDbRegAppTableRecord
  2
DESIGNERASSEMBLIES
 70
     0
  0
APPID
  5
111
330
9
100
AcDbSymbolTableRecord
100
AcDbRegAppTableRecord
  2
ACADM_DIM_EDIT
 70
     0
  0
APPID
  5
112
330
9
100
AcDbSymbolTableRecord
100
AcDbRegAppTableRecord
  2
AMDT_DM_ADJ
 70
     0
  0
APPID
  5
22C
330
9
100
AcDbSymbolTableRecord
100
AcDbRegAppTableRecord
  2
ACAD_DSTYLE_DIMTEXT_FILL
 70
     0
  0
APPID
  5
452
330
9
100
AcDbSymbolTableRecord
100
AcDbRegAppTableRecord
  2
GENIUS_GENOENT_13
 70
     0
  0
APPID
  5
453
330
9
100
AcDbSymbolTableRecord
100
AcDbRegAppTableRecord
  2
GENIUS_GENOBJ-N-CRS_13
 70
     0
  0
APPID
  5
454
330
9
100
AcDbSymbolTableRecord
100
AcDbRegAppTableRecord
  2
GENIUS_GENOLIS_13
 70
     0
  0
APPID
  5
455
330
9
100
AcDbSymbolTableRecord
100
AcDbRegAppTableRecord
  2
GENIUS_GENODEF_13
 70
     0
  0
APPID
  5
456
330
9
100
AcDbSymbolTableRecord
100
AcDbRegAppTableRecord
  2
GENIUS_GENOREF_13
 70
     0
  0
APPID
  5
6F3
330
9
100
AcDbSymbolTableRecord
100
AcDbRegAppTableRecord
  2
ACAD_PSEXT
 70
     0
  0
APPID
  5
808
330
9
100
AcDbSymbolTableRecord
100
AcDbRegAppTableRecord
  2
GENIUS_GENDTOL_13
 70
     0
  0
APPID
  5
11E3
330
9
100
AcDbSymbolTableRecord
100
AcDbRegAppTableRecord
  2
GENIUS_GENOBJ-N-CEN_13
 70
     0
  0
APPID
  5
11E4
330
9
100
AcDbSymbolTableRecord
100
AcDbRegAppTableRecord
  2
GENIUS_GENCEN_19
 70
     0
  0
APPID
  5
1820
330
9
100
AcDbSymbolTableRecord
100
AcDbRegAppTableRecord
  2
GEVID1179476391
 70
     0
  0
APPID
  5
1821
330
9
100
AcDbSymbolTableRecord
100
AcDbRegAppTableRecord
  2
GEVDC
 70
     0
  0
APPID
  5
1822
330
9
100
AcDbSymbolTableRecord
100
AcDbRegAppTableRecord
  2
GEVRADREF
 70
     0
  0
APPID
  5
182B
330
9
100
AcDbSymbolTableRecord
100
AcDbRegAppTableRecord
  2
AMG_2DHIDE
 70
     0
  0
APPID
  5
182C
330
9
100
AcDbSymbolTableRecord
100
AcDbRegAppTableRecord
  2
AMG_2DSTRUCT_BTR
 70
     0
  0
APPID
  5
183D
330
9
100
AcDbSymbolTableRecord
100
AcDbRegAppTableRecord
  2
ACADM_2DVIEW_IGN_NOTIFY
 70
     0
  0
APPID
  5
1853
330
9
100
AcDbSymbolTableRecord
100
AcDbRegAppTableRecord
  2
GEVID1179476392
 70
     0
  0
APPID
  5
1BE9
330
9
100
AcDbSymbolTableRecord
100
AcDbRegAppTableRecord
  2
GENIUS_GENREC_14
 70
     0
  0
APPID
  5
1BEA
330
9
100
AcDbSymbolTableRecord
100
AcDbRegAppTableRecord
  2
GENIUS_GENOBJ-N-REC_13
 70
     0
  0
ENDTAB
  0
TABLE
  2
DIMSTYLE
  5
A
330
0
100
AcDbSymbolTable
 70
    10
100
AcDbDimStyleTable
 71
     3
340
81
340
8B
340
86
  0
DIMSTYLE
105
81
330
A
100
AcDbSymbolTableRecord
100
AcDbDimStyleTableRecord
  2
AM_ISO
 70
     0
  4
"
 41
3.0
 42
1.0
 43
8.0
 44
1.5
 47
0.1
 48
0.1
 73
     0
 74
     0
 77
     1
 78
     8
 79
     2
140
3.5
141
0.0
143
0.0393701
146
0.6
147
0.7
172
     1
176
   256
177
   256
178
   256
271
     2
272
     2
283
     0
284
     8
340
11
371
    -1
372
    -1
  0
DIMSTYLE
105
82
102
{ACAD_REACTORS
330
198C
102
}
330
A
100
AcDbSymbolTableRecord
100
AcDbDimStyleTableRecord
  2
AM_ISO$3
 70
     0
  4
"
 41
3.0
 42
1.0
 43
8.0
 44
1.5
 47
0.1
 48
0.1
 73
     0
 77
     1
 78
     8
 79
     2
140
3.5
141
0.0
143
0.0393701
146
0.6
147
0.7
176
   256
177
   256
178
   256
271
     2
272
     2
283
     0
284
     8
288
     1
289
     0
340
11
371
    -1
372
    -1
  0
DIMSTYLE
105
83
330
A
100
AcDbSymbolTableRecord
100
AcDbDimStyleTableRecord
  2
AM_ISO$4
 70
     0
  4
"
 41
3.0
 42
1.0
 43
8.0
 44
1.5
 47
0.1
 48
0.1
 73
     0
 77
     1
 78
     8
 79
     2
140
3.5
141
0.0
143
0.0393701
146
0.6
147
0.7
176
   256
177
   256
178
   256
271
     2
272
     2
283
     0
284
     8
288
     1
289
     0
340
11
371
    -1
372
    -1
  0
DIMSTYLE
105
84
330
A
100
AcDbSymbolTableRecord
100
AcDbDimStyleTableRecord
  2
AM_ISO$6
 70
     0
  4
"
 41
3.0
 42
1.0
 43
8.0
 44
1.5
 47
0.1
 48
0.1
 73
     0
 74
     0
 78
     8
 79
     2
140
3.5
141
0.0
143
0.0393701
146
0.6
147
0.7
172
     1
176
   256
177
   256
178
   256
271
     2
272
     2
283
     0
284
     8
340
11
371
    -1
372
    -1
  0
DIMSTYLE
105
85
330
A
100
AcDbSymbolTableRecord
100
AcDbDimStyleTableRecord
  2
AM_ISO$7
 70
     0
  4
"
 41
3.0
 42
1.0
 43
8.0
 44
1.5
 47
0.1
 48
0.1
 73
     0
 74
     0
 77
     1
 78
     8
 79
     2
140
5.0
141
0.0
143
0.0393701
146
0.6
147
0.7
172
     1
176
   256
177
   256
178
   256
271
     2
272
     2
283
     0
284
     8
340
11
371
    -1
372
    -1
  0
DIMSTYLE
105
86
330
A
100
AcDbSymbolTableRecord
100
AcDbDimStyleTableRecord
  2
AM_ISO$SF
 70
     0
  4
"
 41
2.5
 42
1.0
 43
10.0
 44
1.0
 47
0.1
 48
0.1
 73
     0
 74
     0
 75
     1
 76
     1
 77
     1
 78
     8
 79
     2
140
3.5
141
0.0
143
0.0393701
146
0.71
147
1.5
172
     1
176
   256
177
   256
178
     2
271
     2
272
     3
274
     4
283
     0
284
     8
340
11
371
    -1
372
    -1
  0
DIMSTYLE
105
8B
330
A
100
AcDbSymbolTableRecord
100
AcDbDimStyleTableRecord
  2
AM_ISO$SH
 70
     0
  4
"
 41
2.5
 42
1.0
 43
10.0
 44
1.0
 47
0.1
 48
0.1
 73
     0
 74
     0
 75
     1
 76
     1
 77
     1
 78
     8
 79
     2
140
3.5
141
0.0
143
0.0393701
144
2.0
146
0.71
147
1.5
172
     1
173
     1
176
   256
177
   256
178
     2
271
     2
272
     3
274
     4
283
     0
284
     8
340
11
343
87
371
    -1
372
    -1
  0
DIMSTYLE
105
40B
102
{ACAD_REACTORS
330
F2E
330
F51
330
ED4
330
E96
330
E99
330
EB6
330
E9C
330
E98
330
E97
330
E32
330
E31
330
E07
330
EF7
330
EF4
330
EEA
330
EE9
330
19D5
330
19FB
330
1A21
102
}
330
A
100
AcDbSymbolTableRecord
100
AcDbDimStyleTableRecord
  2
AM_ISO$0
 70
     0
  4
"
 41
3.0
 42
1.0
 43
8.0
 44
1.5
 47
0.1
 48
0.1
 73
     0
 74
     0
 77
     1
 78
     8
 79
     2
140
3.5
141
0.0
143
0.0393701
146
0.6
147
0.7
172
     1
176
   256
177
   256
178
   256
271
     2
272
     2
283
     0
284
     8
340
11
371
    -1
372
    -1
  0
ENDTAB
  0
TABLE
  2
BLOCK_RECORD
  5
1
330
0
100
AcDbSymbolTable
 70
    37
  0
BLOCK_RECORD
  5
1F
102
{ACAD_XDICTIONARY
360
8F
102
}
330
1
100
AcDbSymbolTableRecord
100
AcDbBlockTableRecord
  2
*Model_Space
340
22
  0
BLOCK_RECORD
  5
1B
330
1
100
AcDbSymbolTableRecord
100
AcDbBlockTableRecord
  2
*Paper_Space
340
1E
  0
BLOCK_RECORD
  5
23
330
1
100
AcDbSymbolTableRecord
100
AcDbBlockTableRecord
  2
*Paper_Space0
340
26
  0
BLOCK_RECORD
  5
87
330
1
100
AcDbSymbolTableRecord
100
AcDbBlockTableRecord
  2
GENAXEH
340
0
  0
BLOCK_RECORD
  5
FAE
330
1
100
AcDbSymbolTableRecord
100
AcDbBlockTableRecord
  2
*D3
340
0
  0
BLOCK_RECORD
  5
FC6
330
1
100
AcDbSymbolTableRecord
100
AcDbBlockTableRecord
  2
*D5
340
0
  0
BLOCK_RECORD
  5
FD4
330
1
100
AcDbSymbolTableRecord
100
AcDbBlockTableRecord
  2
*D6
340
0
  0
BLOCK_RECORD
  5
100F
330
1
100
AcDbSymbolTableRecord
100
AcDbBlockTableRecord
  2
*D7
340
0
  0
BLOCK_RECORD
  5
101B
330
1
100
AcDbSymbolTableRecord
100
AcDbBlockTableRecord
  2
*D8
340
0
  0
BLOCK_RECORD
  5
1027
330
1
100
AcDbSymbolTableRecord
100
AcDbBlockTableRecord
  2
*D9
340
0
  0
BLOCK_RECORD
  5
1033
330
1
100
AcDbSymbolTableRecord
100
AcDbBlockTableRecord
  2
*D10
340
0
  0
BLOCK_RECORD
  5
103E
330
1
100
AcDbSymbolTableRecord
100
AcDbBlockTableRecord
  2
*D11
340
0
  0
BLOCK_RECORD
  5
104A
330
1
100
AcDbSymbolTableRecord
100
AcDbBlockTableRecord
  2
*D12
340
0
  0
BLOCK_RECORD
  5
1056
330
1
100
AcDbSymbolTableRecord
100
AcDbBlockTableRecord
  2
*D13
340
0
  0
BLOCK_RECORD
  5
1062
330
1
100
AcDbSymbolTableRecord
100
AcDbBlockTableRecord
  2
*D14
340
0
  0
BLOCK_RECORD
  5
106E
330
1
100
AcDbSymbolTableRecord
100
AcDbBlockTableRecord
  2
*D15
340
0
  0
BLOCK_RECORD
  5
107A
330
1
100
AcDbSymbolTableRecord
100
AcDbBlockTableRecord
  2
*D16
340
0
  0
BLOCK_RECORD
  5
1094
330
1
100
AcDbSymbolTableRecord
100
AcDbBlockTableRecord
  2
*D17
340
0
  0
BLOCK_RECORD
  5
10A0
330
1
100
AcDbSymbolTableRecord
100
AcDbBlockTableRecord
  2
*D18
340
0
  0
BLOCK_RECORD
  5
10AC
330
1
100
AcDbSymbolTableRecord
100
AcDbBlockTableRecord
  2
*D19
340
0
  0
BLOCK_RECORD
  5
1841
330
1
100
AcDbSymbolTableRecord
100
AcDbBlockTableRecord
  2
*U21
340
0
  0
BLOCK_RECORD
  5
198D
330
1
100
AcDbSymbolTableRecord
100
AcDbBlockTableRecord
  2
*D22
340
0
  0
BLOCK_RECORD
  5
19D6
330
1
100
AcDbSymbolTableRecord
100
AcDbBlockTableRecord
  2
*D23
340
0
  0
BLOCK_RECORD
  5
19FC
330
1
100
AcDbSymbolTableRecord
100
AcDbBlockTableRecord
  2
*D24
340
0
  0
BLOCK_RECORD
  5
1A22
330
1
100
AcDbSymbolTableRecord
100
AcDbBlockTableRecord
  2
*D25
340
0
  0
BLOCK_RECORD
  5
1E3F
330
1
100
AcDbSymbolTableRecord
100
AcDbBlockTableRecord
  2
*S30
340
0
  0
BLOCK_RECORD
  5
1E47
330
1
100
AcDbSymbolTableRecord
100
AcDbBlockTableRecord
  2
*S31
340
0
  0
BLOCK_RECORD
  5
1E4F
330
1
100
AcDbSymbolTableRecord
100
AcDbBlockTableRecord
  2
*S32
340
0
  0
BLOCK_RECORD
  5
1E57
330
1
100
AcDbSymbolTableRecord
100
AcDbBlockTableRecord
  2
*S33
340
0
  0
BLOCK_RECORD
  5
1E5F
330
1
100
AcDbSymbolTableRecord
100
AcDbBlockTableRecord
  2
*S34
340
0
  0
BLOCK_RECORD
  5
1E67
330
1
100
AcDbSymbolTableRecord
100
AcDbBlockTableRecord
  2
*S35
340
0
  0
BLOCK_RECORD
  5
1E6F
330
1
100
AcDbSymbolTableRecord
100
AcDbBlockTableRecord
  2
*S36
340
0
  0
ENDTAB
  0
ENDSEC
  0
SECTION
  2
BLOCKS
  0
BLOCK
  5
20
330
1F
100
AcDbEntity
  8
0
100
AcDbBlockBegin
  2
*Model_Space
 70
     0
 10
0.0
 20
0.0
 30
0.0
  3
*Model_Space
  1

  0
ENDBLK
  5
21
330
1F
100
AcDbEntity
  8
0
100
AcDbBlockEnd
  0
BLOCK
  5
1C
330
1B
100
AcDbEntity
 67
     1
  8
0
100
AcDbBlockBegin
  2
*Paper_Space
 70
     0
 10
0.0
 20
0.0
 30
0.0
  3
*Paper_Space
  1

  0
ENDBLK
  5
1D
330
1B
100
AcDbEntity
 67
     1
  8
0
100
AcDbBlockEnd
  0
BLOCK
  5
24
330
23
100
AcDbEntity
  8
0
100
AcDbBlockBegin
  2
*Paper_Space0
 70
     0
 10
0.0
 20
0.0
 30
0.0
  3
*Paper_Space0
  1

  0
ENDBLK
  5
25
330
23
100
AcDbEntity
  8
0
100
AcDbBlockEnd
  0
BLOCK
  5
89
330
87
100
AcDbEntity
  8
0
100
AcDbBlockBegin
  2
GENAXEH
 70
     0
 10
0.0
 20
0.0
 30
0.0
  3
GENAXEH
  1

  0
LINE
  5
88
330
87
100
AcDbEntity
  8
0
100
AcDbLine
 10
-1.0
 20
0.0
 30
0.0
 11
1.0
 21
0.0
 31
0.0
  0
ENDBLK
  5
8A
330
87
100
AcDbEntity
  8
0
100
AcDbBlockEnd
  0
BLOCK
  5
FB8
330
FAE
100
AcDbEntity
  8
0
100
AcDbBlockBegin
  2
*D3
 70
     1
 10
0.0
 20
0.0
 30
0.0
  3
*D3
  1

  0
LINE
  5
1D23
330
FAE
100
AcDbEntity
  8
AM_5
100
AcDbLine
 10
240.1117972682075
 20
534.780291236998
 30
0.0
 11
240.1117972682075
 21
547.280291236998
 31
0.0
  0
LINE
  5
1D24
330
FAE
100
AcDbEntity
  8
AM_5
100
AcDbLine
 10
230.1117972682075
 20
534.780291236998
 30
0.0
 11
230.1117972682075
 21
547.280291236998
 31
0.0
  0
LINE
  5
1D25
330
FAE
100
AcDbEntity
  8
AM_5
100
AcDbLine
 10
233.1117972682075
 20
545.7802912369979
 30
0.0
 11
237.1117972682075
 21
545.7802912369979
 31
0.0
  0
LINE
  5
1D26
330
FAE
100
AcDbEntity
  8
AM_5
100
AcDbLine
 10
240.1117972682075
 20
545.7802912369979
 30
0.0
 11
256.3055057273816
 21
545.7802912369979
 31
0.0
  0
SOLID
  5
1D27
330
FAE
100
AcDbEntity
  8
AM_5
100
AcDbTrace
 10
233.1117972682075
 20
546.2802912369979
 30
0.0
 11
233.1117972682075
 21
545.2802912369979
 31
0.0
 12
230.1117972682075
 22
545.7802912369979
 32
0.0
 13
230.1117972682075
 23
545.7802912369979
 33
0.0
  0
SOLID
  5
1D28
330
FAE
100
AcDbEntity
  8
AM_5
100
AcDbTrace
 10
237.1117972682075
 20
546.2802912369979
 30
0.0
 11
237.1117972682075
 21
545.2802912369979
 31
0.0
 12
240.1117972682075
 22
545.7802912369979
 32
0.0
 13
240.1117972682075
 23
545.7802912369979
 33
0.0
  0
MTEXT
  5
1D29
330
FAE
100
AcDbEntity
  8
AM_5
100
AcDbMText
 10
250.0495133033324
 20
548.8603961638365
 30
0.0
 40
3.5
 41
0.0
 71
     5
 72
     1
  1
10{\H2.100000;\S-0.005^ -0.025;}
 73
     1
 44
1.0
1001
ACAD
1000
MTEXTBEGIN
1070
    73
1070
     1
1070
    44
1040
1.0
1070
    74
1070
     0
1000
MTEXTEND
  0
POINT
  5
1D2A
330
FAE
100
AcDbEntity
  8
Defpoints
 62
     0
100
AcDbPoint
 10
240.1117972682075
 20
533.7802912369979
 30
0.0
  0
POINT
  5
1D2B
330
FAE
100
AcDbEntity
  8
Defpoints
 62
     0
100
AcDbPoint
 10
230.1117972682075
 20
533.7802912369979
 30
0.0
  0
POINT
  5
1D2C
330
FAE
100
AcDbEntity
  8
Defpoints
 62
     0
100
AcDbPoint
 10
230.1117972682075
 20
545.7802912369979
 30
0.0
  0
ENDBLK
  5
FB9
330
FAE
100
AcDbEntity
  8
0
100
AcDbBlockEnd
  0
BLOCK
  5
FD2
330
FC6
100
AcDbEntity
  8
0
100
AcDbBlockBegin
  2
*D5
 70
     1
 10
0.0
 20
0.0
 30
0.0
  3
*D5
  1

  0
LINE
  5
1D2D
330
FC6
100
AcDbEntity
  8
AM_5
100
AcDbLine
 10
231.1091122682076
 20
528.7802912369979
 30
0.0
 11
216.6117972682075
 21
528.7802912369979
 31
0.0
  0
LINE
  5
1D2E
330
FC6
100
AcDbEntity
  8
AM_5
100
AcDbLine
 10
229.1117972682075
 20
533.7802912369979
 30
0.0
 11
216.6117972682075
 21
533.7802912369979
 31
0.0
  0
LINE
  5
1D2F
330
FC6
100
AcDbEntity
  8
AM_5
100
AcDbLine
 10
218.1117972682075
 20
525.780291236998
 30
0.0
 11
218.1117972682075
 21
522.780291236998
 31
0.0
  0
LINE
  5
1D30
330
FC6
100
AcDbEntity
  8
AM_5
100
AcDbLine
 10
218.1117972682075
 20
536.7802912369979
 30
0.0
 11
218.1117972682075
 21
539.7802912369979
 31
0.0
  0
LINE
  5
1D31
330
FC6
100
AcDbEntity
  8
AM_5
100
AcDbLine
 10
218.1117972682075
 20
528.7802912369979
 30
0.0
 11
218.1117972682075
 21
533.7802912369979
 31
0.0
  0
SOLID
  5
1D32
330
FC6
100
AcDbEntity
  8
AM_5
100
AcDbTrace
 10
217.6117972682075
 20
525.780291236998
 30
0.0
 11
218.6117972682075
 21
525.780291236998
 31
0.0
 12
218.1117972682075
 22
528.7802912369979
 32
0.0
 13
218.1117972682075
 23
528.7802912369979
 33
0.0
  0
SOLID
  5
1D33
330
FC6
100
AcDbEntity
  8
AM_5
100
AcDbTrace
 10
217.6117972682075
 20
536.7802912369979
 30
0.0
 11
218.6117972682075
 21
536.7802912369979
 31
0.0
 12
218.1117972682075
 22
533.7802912369979
 32
0.0
 13
218.1117972682075
 23
533.7802912369979
 33
0.0
  0
MTEXT
  5
1D34
330
FC6
100
AcDbEntity
  8
AM_5
100
AcDbMText
 10
215.6617972682074
 20
531.280291236998
 30
0.0
 40
3.5
 41
0.0
 71
     5
 72
     1
  1
5
 11
0.0000000000000001
 21
1.0
 31
0.0
 73
     1
 44
1.0
1001
ACAD
1000
MTEXTBEGIN
1070
    73
1070
     1
1070
    44
1040
1.0
1070
    74
1070
     0
1000
MTEXTEND
  0
POINT
  5
1D35
330
FC6
100
AcDbEntity
  8
Defpoints
 62
     0
100
AcDbPoint
 10
232.1091122682076
 20
528.7802912369979
 30
0.0
  0
POINT
  5
1D36
330
FC6
100
AcDbEntity
  8
Defpoints
 62
     0
100
AcDbPoint
 10
230.1117972682075
 20
533.7802912369979
 30
0.0
  0
POINT
  5
1D37
330
FC6
100
AcDbEntity
  8
Defpoints
 62
     0
100
AcDbPoint
 10
218.1117972682075
 20
533.7802912369979
 30
0.0
  0
ENDBLK
  5
FD3
330
FC6
100
AcDbEntity
  8
0
100
AcDbBlockEnd
  0
BLOCK
  5
FDD
330
FD4
100
AcDbEntity
  8
0
100
AcDbBlockBegin
  2
*D6
 70
     1
 10
0.0
 20
0.0
 30
0.0
  3
*D6
  1

  0
LINE
  5
1D38
330
FD4
100
AcDbEntity
  8
AM_5
100
AcDbLine
 10
222.3275883773824
 20
528.7802912369979
 30
0.0
 11
216.6117972682075
 21
528.7802912369979
 31
0.0
  0
LINE
  5
1D39
330
FD4
100
AcDbEntity
  8
AM_5
100
AcDbLine
 10
230.7580382682074
 20
519.7802912369979
 30
0.0
 11
216.6117972682075
 21
519.7802912369979
 31
0.0
  0
LINE
  5
1D3A
330
FD4
100
AcDbEntity
  8
AM_5
100
AcDbLine
 10
218.1117972682075
 20
525.780291236998
 30
0.0
 11
218.1117972682075
 21
522.780291236998
 31
0.0
  0
SOLID
  5
1D3B
330
FD4
100
AcDbEntity
  8
AM_5
100
AcDbTrace
 10
217.6117972682075
 20
525.780291236998
 30
0.0
 11
218.6117972682075
 21
525.780291236998
 31
0.0
 12
218.1117972682075
 22
528.7802912369979
 32
0.0
 13
218.1117972682075
 23
528.7802912369979
 33
0.0
  0
SOLID
  5
1D3C
330
FD4
100
AcDbEntity
  8
AM_5
100
AcDbTrace
 10
217.6117972682075
 20
522.780291236998
 30
0.0
 11
218.6117972682075
 21
522.780291236998
 31
0.0
 12
218.1117972682075
 22
519.7802912369979
 32
0.0
 13
218.1117972682075
 23
519.7802912369979
 33
0.0
  0
MTEXT
  5
1D3D
330
FD4
100
AcDbEntity
  8
AM_5
100
AcDbMText
 10
215.6617972682074
 20
524.2802912369979
 30
0.0
 40
3.5
 41
0.0
 71
     5
 72
     1
  1
9
 11
0.0000000000000001
 21
1.0
 31
0.0
 73
     1
 44
1.0
1001
ACAD
1000
MTEXTBEGIN
1070
    73
1070
     1
1070
    44
1040
1.0
1070
    74
1070
     0
1000
MTEXTEND
  0
POINT
  5
1D3E
330
FD4
100
AcDbEntity
  8
Defpoints
 62
     0
100
AcDbPoint
 10
223.3275883773824
 20
528.7802912369979
 30
0.0
  0
POINT
  5
1D3F
330
FD4
100
AcDbEntity
  8
Defpoints
 62
     0
100
AcDbPoint
 10
231.7580382682074
 20
519.7802912369979
 30
0.0
  0
POINT
  5
1D40
330
FD4
100
AcDbEntity
  8
Defpoints
 62
     0
100
AcDbPoint
 10
218.1117972682075
 20
519.7802912369979
 30
0.0
  0
ENDBLK
  5
FDE
330
FD4
100
AcDbEntity
  8
0
100
AcDbBlockEnd
  0
BLOCK
  5
1019
330
100F
100
AcDbEntity
  8
0
100
AcDbBlockBegin
  2
*D7
 70
     1
 10
0.0
 20
0.0
 30
0.0
  3
*D7
  1

  0
LINE
  5
1D41
330
100F
100
AcDbEntity
  8
AM_5
100
AcDbLine
 10
398.6323285651026
 20
416.3206105243916
 30
0.0
 11
398.6323285651026
 21
406.8366759084416
 31
0.0
  0
LINE
  5
1D42
330
100F
100
AcDbEntity
  8
AM_5
100
AcDbLine
 10
312.6323285651026
 20
454.2802912369979
 30
0.0
 11
312.6323285651026
 21
406.8366759084416
 31
0.0
  0
LINE
  5
1D43
330
100F
100
AcDbEntity
  8
AM_5
100
AcDbLine
 10
395.6323285651026
 20
408.3366759084416
 30
0.0
 11
315.6323285651026
 21
408.3366759084416
 31
0.0
  0
SOLID
  5
1D44
330
100F
100
AcDbEntity
  8
AM_5
100
AcDbTrace
 10
395.6323285651026
 20
408.8366759084416
 30
0.0
 11
395.6323285651026
 21
407.8366759084416
 31
0.0
 12
398.6323285651026
 22
408.3366759084416
 32
0.0
 13
398.6323285651026
 23
408.3366759084416
 33
0.0
  0
SOLID
  5
1D45
330
100F
100
AcDbEntity
  8
AM_5
100
AcDbTrace
 10
315.6323285651026
 20
408.8366759084416
 30
0.0
 11
315.6323285651026
 21
407.8366759084416
 31
0.0
 12
312.6323285651026
 22
408.3366759084416
 32
0.0
 13
312.6323285651026
 23
408.3366759084416
 33
0.0
  0
MTEXT
  5
1D46
330
100F
100
AcDbEntity
  8
AM_5
100
AcDbMText
 10
355.6323285651026
 20
410.7866759084416
 30
0.0
 40
3.5
 41
0.0
 71
     5
 72
     1
  1
86
 73
     1
 44
1.0
1001
ACAD
1000
MTEXTBEGIN
1070
    73
1070
     1
1070
    44
1040
1.0
1070
    74
1070
     0
1000
MTEXTEND
  0
POINT
  5
1D47
330
100F
100
AcDbEntity
  8
Defpoints
 62
     0
100
AcDbPoint
 10
398.6323285651026
 20
417.3206105243917
 30
0.0
  0
POINT
  5
1D48
330
100F
100
AcDbEntity
  8
Defpoints
 62
     0
100
AcDbPoint
 10
312.6323285651026
 20
455.280291236998
 30
0.0
  0
POINT
  5
1D49
330
100F
100
AcDbEntity
  8
Defpoints
 62
     0
100
AcDbPoint
 10
312.6323285651026
 20
408.3366759084416
 30
0.0
  0
ENDBLK
  5
101A
330
100F
100
AcDbEntity
  8
0
100
AcDbBlockEnd
  0
BLOCK
  5
1025
330
101B
100
AcDbEntity
  8
0
100
AcDbBlockBegin
  2
*D8
 70
     1
 10
0.0
 20
0.0
 30
0.0
  3
*D8
  1

  0
LINE
  5
1D4A
330
101B
100
AcDbEntity
  8
AM_5
100
AcDbLine
 10
398.6323285651026
 20
424.1425287915506
 30
0.0
 11
398.6323285651026
 21
414.8366759084415
 31
0.0
  0
LINE
  5
1D4B
330
101B
100
AcDbEntity
  8
AM_5
100
AcDbLine
 10
329.6320845651027
 20
451.410418236998
 30
0.0
 11
329.6320845651027
 21
414.8366759084415
 31
0.0
  0
LINE
  5
1D4C
330
101B
100
AcDbEntity
  8
AM_5
100
AcDbLine
 10
395.6323285651026
 20
416.3366759084416
 30
0.0
 11
332.6320845651027
 21
416.3366759084416
 31
0.0
  0
SOLID
  5
1D4D
330
101B
100
AcDbEntity
  8
AM_5
100
AcDbTrace
 10
395.6323285651026
 20
416.8366759084416
 30
0.0
 11
395.6323285651026
 21
415.8366759084416
 31
0.0
 12
398.6323285651026
 22
416.3366759084416
 32
0.0
 13
398.6323285651026
 23
416.3366759084416
 33
0.0
  0
SOLID
  5
1D4E
330
101B
100
AcDbEntity
  8
AM_5
100
AcDbTrace
 10
332.6320845651027
 20
416.8366759084416
 30
0.0
 11
332.6320845651027
 21
415.8366759084416
 31
0.0
 12
329.6320845651027
 22
416.3366759084416
 32
0.0
 13
329.6320845651027
 23
416.3366759084416
 33
0.0
  0
MTEXT
  5
1D4F
330
101B
100
AcDbEntity
  8
AM_5
100
AcDbMText
 10
364.1322065651027
 20
418.7866759084416
 30
0.0
 40
3.5
 41
0.0
 71
     5
 72
     1
  1
69
 73
     1
 44
1.0
1001
ACAD
1000
MTEXTBEGIN
1070
    73
1070
     1
1070
    44
1040
1.0
1070
    74
1070
     0
1000
MTEXTEND
  0
POINT
  5
1D50
330
101B
100
AcDbEntity
  8
Defpoints
 62
     0
100
AcDbPoint
 10
398.6323285651026
 20
425.1425287915505
 30
0.0
  0
POINT
  5
1D51
330
101B
100
AcDbEntity
  8
Defpoints
 62
     0
100
AcDbPoint
 10
329.6320845651027
 20
452.4104182369979
 30
0.0
  0
POINT
  5
1D52
330
101B
100
AcDbEntity
  8
Defpoints
 62
     0
100
AcDbPoint
 10
329.6320845651027
 20
416.3366759084416
 30
0.0
  0
ENDBLK
  5
1026
330
101B
100
AcDbEntity
  8
0
100
AcDbBlockEnd
  0
BLOCK
  5
1031
330
1027
100
AcDbEntity
  8
0
100
AcDbBlockBegin
  2
*D9
 70
     1
 10
0.0
 20
0.0
 30
0.0
  3
*D9
  1

  0
LINE
  5
1D53
330
1027
100
AcDbEntity
  8
AM_5
100
AcDbLine
 10
398.6323285651026
 20
432.5901990285096
 30
0.0
 11
398.6323285651026
 21
422.8366759084416
 31
0.0
  0
LINE
  5
1D54
330
1027
100
AcDbEntity
  8
AM_5
100
AcDbLine
 10
347.6325725651026
 20
456.3623222369979
 30
0.0
 11
347.6325725651026
 21
422.8366759084416
 31
0.0
  0
LINE
  5
1D55
330
1027
100
AcDbEntity
  8
AM_5
100
AcDbLine
 10
395.6323285651026
 20
424.3366759084416
 30
0.0
 11
350.6325725651026
 21
424.3366759084416
 31
0.0
  0
SOLID
  5
1D56
330
1027
100
AcDbEntity
  8
AM_5
100
AcDbTrace
 10
395.6323285651026
 20
424.8366759084416
 30
0.0
 11
395.6323285651026
 21
423.8366759084416
 31
0.0
 12
398.6323285651026
 22
424.3366759084416
 32
0.0
 13
398.6323285651026
 23
424.3366759084416
 33
0.0
  0
SOLID
  5
1D57
330
1027
100
AcDbEntity
  8
AM_5
100
AcDbTrace
 10
350.6325725651026
 20
424.8366759084416
 30
0.0
 11
350.6325725651026
 21
423.8366759084416
 31
0.0
 12
347.6325725651026
 22
424.3366759084416
 32
0.0
 13
347.6325725651026
 23
424.3366759084416
 33
0.0
  0
MTEXT
  5
1D58
330
1027
100
AcDbEntity
  8
AM_5
100
AcDbMText
 10
373.1324505651026
 20
426.7866759084416
 30
0.0
 40
3.5
 41
0.0
 71
     5
 72
     1
  1
51
 73
     1
 44
1.0
1001
ACAD
1000
MTEXTBEGIN
1070
    73
1070
     1
1070
    44
1040
1.0
1070
    74
1070
     0
1000
MTEXTEND
  0
POINT
  5
1D59
330
1027
100
AcDbEntity
  8
Defpoints
 62
     0
100
AcDbPoint
 10
398.6323285651026
 20
433.5901990285097
 30
0.0
  0
POINT
  5
1D5A
330
1027
100
AcDbEntity
  8
Defpoints
 62
     0
100
AcDbPoint
 10
347.6325725651026
 20
457.362322236998
 30
0.0
  0
POINT
  5
1D5B
330
1027
100
AcDbEntity
  8
Defpoints
 62
     0
100
AcDbPoint
 10
347.6325725651026
 20
424.3366759084416
 30
0.0
  0
ENDBLK
  5
1032
330
1027
100
AcDbEntity
  8
0
100
AcDbBlockEnd
  0
BLOCK
  5
103C
330
1033
100
AcDbEntity
  8
0
100
AcDbBlockBegin
  2
*D10
 70
     1
 10
0.0
 20
0.0
 30
0.0
  3
*D10
  1

  0
LINE
  5
1D5C
330
1033
100
AcDbEntity
  8
AM_5
100
AcDbLine
 10
279.7189902100404
 20
460.7802912369979
 30
0.0
 11
279.0519225651026
 21
460.7802912369979
 31
0.0
  0
LINE
  5
1D5D
330
1033
100
AcDbEntity
  8
AM_5
100
AcDbLine
 10
324.6320845651027
 20
423.780169236998
 30
0.0
 11
279.0519225651026
 21
423.780169236998
 31
0.0
  0
LINE
  5
1D5E
330
1033
100
AcDbEntity
  8
AM_5
100
AcDbLine
 10
280.5519225651026
 20
457.7802912369979
 30
0.0
 11
280.5519225651026
 21
426.780169236998
 31
0.0
  0
SOLID
  5
1D5F
330
1033
100
AcDbEntity
  8
AM_5
100
AcDbTrace
 10
280.0519225651026
 20
457.7802912369979
 30
0.0
 11
281.0519225651026
 21
457.7802912369979
 31
0.0
 12
280.5519225651026
 22
460.7802912369979
 32
0.0
 13
280.5519225651026
 23
460.7802912369979
 33
0.0
  0
SOLID
  5
1D60
330
1033
100
AcDbEntity
  8
AM_5
100
AcDbTrace
 10
280.0519225651026
 20
426.780169236998
 30
0.0
 11
281.0519225651026
 21
426.780169236998
 31
0.0
 12
280.5519225651026
 22
423.780169236998
 32
0.0
 13
280.5519225651026
 23
423.780169236998
 33
0.0
  0
MTEXT
  5
1D61
330
1033
100
AcDbEntity
  8
AM_5
100
AcDbMText
 10
278.1019225651025
 20
442.280230236998
 30
0.0
 40
3.5
 41
0.0
 71
     5
 72
     1
  1
37
 11
0.0000000000000001
 21
1.0
 31
0.0
 73
     1
 44
1.0
1001
ACAD
1000
MTEXTBEGIN
1070
    73
1070
     1
1070
    44
1040
1.0
1070
    74
1070
     0
1000
MTEXTEND
  0
POINT
  5
1D62
330
1033
100
AcDbEntity
  8
Defpoints
 62
     0
100
AcDbPoint
 10
280.7189902100404
 20
460.7802912369979
 30
0.0
  0
POINT
  5
1D63
330
1033
100
AcDbEntity
  8
Defpoints
 62
     0
100
AcDbPoint
 10
325.6320845651027
 20
423.780169236998
 30
0.0
  0
POINT
  5
1D64
330
1033
100
AcDbEntity
  8
Defpoints
 62
     0
100
AcDbPoint
 10
280.5519225651026
 20
423.780169236998
 30
0.0
  0
ENDBLK
  5
103D
330
1033
100
AcDbEntity
  8
0
100
AcDbBlockEnd
  0
BLOCK
  5
1048
330
103E
100
AcDbEntity
  8
0
100
AcDbBlockBegin
  2
*D11
 70
     1
 10
0.0
 20
0.0
 30
0.0
  3
*D11
  1

  0
LINE
  5
1D65
330
103E
100
AcDbEntity
  8
AM_5
100
AcDbLine
 10
373.6323285651026
 20
455.8891782369979
 30
0.0
 11
373.6323285651026
 21
430.8366759084416
 31
0.0
  0
LINE
  5
1D66
330
103E
100
AcDbEntity
  8
AM_5
100
AcDbLine
 10
398.6323285651026
 20
453.7802912369979
 30
0.0
 11
398.6323285651026
 21
430.8366759084416
 31
0.0
  0
LINE
  5
1D67
330
103E
100
AcDbEntity
  8
AM_5
100
AcDbLine
 10
376.6323285651026
 20
432.3366759084416
 30
0.0
 11
395.6323285651026
 21
432.3366759084416
 31
0.0
  0
SOLID
  5
1D68
330
103E
100
AcDbEntity
  8
AM_5
100
AcDbTrace
 10
376.6323285651026
 20
432.8366759084416
 30
0.0
 11
376.6323285651026
 21
431.8366759084416
 31
0.0
 12
373.6323285651026
 22
432.3366759084416
 32
0.0
 13
373.6323285651026
 23
432.3366759084416
 33
0.0
  0
SOLID
  5
1D69
330
103E
100
AcDbEntity
  8
AM_5
100
AcDbTrace
 10
395.6323285651026
 20
432.8366759084416
 30
0.0
 11
395.6323285651026
 21
431.8366759084416
 31
0.0
 12
398.6323285651026
 22
432.3366759084416
 32
0.0
 13
398.6323285651026
 23
432.3366759084416
 33
0.0
  0
MTEXT
  5
1D6A
330
103E
100
AcDbEntity
  8
AM_5
100
AcDbMText
 10
386.1323285651026
 20
434.7870203966306
 30
0.0
 40
3.5
 41
0.0
 71
     5
 72
     1
  1
25
 73
     1
 44
1.0
1001
ACAD
1000
MTEXTBEGIN
1070
    73
1070
     1
1070
    44
1040
1.0
1070
    74
1070
     0
1000
MTEXTEND
  0
POINT
  5
1D6B
330
103E
100
AcDbEntity
  8
Defpoints
 62
     0
100
AcDbPoint
 10
373.6323285651026
 20
456.889178236998
 30
0.0
  0
POINT
  5
1D6C
330
103E
100
AcDbEntity
  8
Defpoints
 62
     0
100
AcDbPoint
 10
398.6323285651026
 20
454.780291236998
 30
0.0
  0
POINT
  5
1D6D
330
103E
100
AcDbEntity
  8
Defpoints
 62
     0
100
AcDbPoint
 10
398.6323285651026
 20
432.3366759084416
 30
0.0
  0
ENDBLK
  5
1049
330
103E
100
AcDbEntity
  8
0
100
AcDbBlockEnd
  0
BLOCK
  5
1054
330
104A
100
AcDbEntity
  8
0
100
AcDbBlockBegin
  2
*D12
 70
     1
 10
0.0
 20
0.0
 30
0.0
  3
*D12
  1

  0
LINE
  5
1D6E
330
104A
100
AcDbEntity
  8
AM_5
100
AcDbLine
 10
324.6320845651027
 20
496.780291236998
 30
0.0
 11
279.0519225651026
 21
496.780291236998
 31
0.0
  0
LINE
  5
1D6F
330
104A
100
AcDbEntity
  8
AM_5
100
AcDbLine
 10
324.6320845651027
 20
460.7802912369979
 30
0.0
 11
279.0519225651026
 21
460.7802912369979
 31
0.0
  0
LINE
  5
1D70
330
104A
100
AcDbEntity
  8
AM_5
100
AcDbLine
 10
280.5519225651026
 20
493.780291236998
 30
0.0
 11
280.5519225651026
 21
463.780291236998
 31
0.0
  0
SOLID
  5
1D71
330
104A
100
AcDbEntity
  8
AM_5
100
AcDbTrace
 10
280.0519225651026
 20
493.780291236998
 30
0.0
 11
281.0519225651026
 21
493.780291236998
 31
0.0
 12
280.5519225651026
 22
496.780291236998
 32
0.0
 13
280.5519225651026
 23
496.780291236998
 33
0.0
  0
SOLID
  5
1D72
330
104A
100
AcDbEntity
  8
AM_5
100
AcDbTrace
 10
280.0519225651026
 20
463.780291236998
 30
0.0
 11
281.0519225651026
 21
463.780291236998
 31
0.0
 12
280.5519225651026
 22
460.7802912369979
 32
0.0
 13
280.5519225651026
 23
460.7802912369979
 33
0.0
  0
MTEXT
  5
1D73
330
104A
100
AcDbEntity
  8
AM_5
100
AcDbMText
 10
278.1019225651025
 20
478.780291236998
 30
0.0
 40
3.5
 41
0.0
 71
     5
 72
     1
  1
36
 11
0.0000000000000001
 21
1.0
 31
0.0
 73
     1
 44
1.0
1001
ACAD
1000
MTEXTBEGIN
1070
    73
1070
     1
1070
    44
1040
1.0
1070
    74
1070
     0
1000
MTEXTEND
  0
POINT
  5
1D74
330
104A
100
AcDbEntity
  8
Defpoints
 62
     0
100
AcDbPoint
 10
325.6320845651027
 20
496.780291236998
 30
0.0
  0
POINT
  5
1D75
330
104A
100
AcDbEntity
  8
Defpoints
 62
     0
100
AcDbPoint
 10
325.6320845651027
 20
460.7802912369979
 30
0.0
  0
POINT
  5
1D76
330
104A
100
AcDbEntity
  8
Defpoints
 62
     0
100
AcDbPoint
 10
280.5519225651026
 20
460.7802912369979
 30
0.0
  0
ENDBLK
  5
1055
330
104A
100
AcDbEntity
  8
0
100
AcDbBlockEnd
  0
BLOCK
  5
1060
330
1056
100
AcDbEntity
  8
0
100
AcDbBlockBegin
  2
*D13
 70
     1
 10
0.0
 20
0.0
 30
0.0
  3
*D13
  1

  0
LINE
  5
1D77
330
1056
100
AcDbEntity
  8
AM_5
100
AcDbLine
 10
379.2836955651026
 20
496.780291236998
 30
0.0
 11
412.1323285651026
 21
496.7802912369979
 31
0.0
  0
LINE
  5
1D78
330
1056
100
AcDbEntity
  8
AM_5
100
AcDbLine
 10
379.2836955651026
 20
460.7802912369979
 30
0.0
 11
412.1323285651026
 21
460.7802912369979
 31
0.0
  0
LINE
  5
1D79
330
1056
100
AcDbEntity
  8
AM_5
100
AcDbLine
 10
410.6323285651026
 20
493.7802912369979
 30
0.0
 11
410.6323285651026
 21
463.7802912369979
 31
0.0
  0
SOLID
  5
1D7A
330
1056
100
AcDbEntity
  8
AM_5
100
AcDbTrace
 10
410.1323285651026
 20
493.7802912369979
 30
0.0
 11
411.1323285651026
 21
493.7802912369979
 31
0.0
 12
410.6323285651026
 22
496.7802912369979
 32
0.0
 13
410.6323285651026
 23
496.7802912369979
 33
0.0
  0
SOLID
  5
1D7B
330
1056
100
AcDbEntity
  8
AM_5
100
AcDbTrace
 10
410.1323285651026
 20
463.7802912369979
 30
0.0
 11
411.1323285651026
 21
463.7802912369979
 31
0.0
 12
410.6323285651026
 22
460.7802912369979
 32
0.0
 13
410.6323285651026
 23
460.7802912369979
 33
0.0
  0
MTEXT
  5
1D7C
330
1056
100
AcDbEntity
  8
AM_5
100
AcDbMText
 10
408.1823285651025
 20
478.780291236998
 30
0.0
 40
3.5
 41
0.0
 71
     5
 72
     1
  1
36
 11
0.0000000000000001
 21
1.0
 31
0.0
 73
     1
 44
1.0
1001
ACAD
1000
MTEXTBEGIN
1070
    73
1070
     1
1070
    44
1040
1.0
1070
    74
1070
     0
1000
MTEXTEND
  0
POINT
  5
1D7D
330
1056
100
AcDbEntity
  8
Defpoints
 62
     0
100
AcDbPoint
 10
378.2836955651025
 20
496.780291236998
 30
0.0
  0
POINT
  5
1D7E
330
1056
100
AcDbEntity
  8
Defpoints
 62
     0
100
AcDbPoint
 10
378.2836955651025
 20
460.7802912369979
 30
0.0
  0
POINT
  5
1D7F
330
1056
100
AcDbEntity
  8
Defpoints
 62
     0
100
AcDbPoint
 10
410.6323285651026
 20
460.7802912369979
 30
0.0
  0
ENDBLK
  5
1061
330
1056
100
AcDbEntity
  8
0
100
AcDbBlockEnd
  0
BLOCK
  5
106C
330
1062
100
AcDbEntity
  8
0
100
AcDbBlockBegin
  2
*D14
 70
     1
 10
0.0
 20
0.0
 30
0.0
  3
*D14
  1

  0
LINE
  5
1D80
330
1062
100
AcDbEntity
  8
AM_5
100
AcDbLine
 10
473.1063775529048
 20
453.7802912369979
 30
0.0
 11
473.1063775529048
 21
402.280169236998
 31
0.0
  0
LINE
  5
1D81
330
1062
100
AcDbEntity
  8
AM_5
100
AcDbLine
 10
447.106133552905
 20
453.7802912369979
 30
0.0
 11
447.106133552905
 21
402.280169236998
 31
0.0
  0
LINE
  5
1D82
330
1062
100
AcDbEntity
  8
AM_5
100
AcDbLine
 10
470.1063775529048
 20
403.7801692369979
 30
0.0
 11
450.106133552905
 21
403.7801692369979
 31
0.0
  0
SOLID
  5
1D83
330
1062
100
AcDbEntity
  8
AM_5
100
AcDbTrace
 10
470.1063775529048
 20
404.2801692369979
 30
0.0
 11
470.1063775529048
 21
403.280169236998
 31
0.0
 12
473.1063775529048
 22
403.7801692369979
 32
0.0
 13
473.1063775529048
 23
403.7801692369979
 33
0.0
  0
SOLID
  5
1D84
330
1062
100
AcDbEntity
  8
AM_5
100
AcDbTrace
 10
450.106133552905
 20
404.2801692369979
 30
0.0
 11
450.106133552905
 21
403.280169236998
 31
0.0
 12
447.106133552905
 22
403.7801692369979
 32
0.0
 13
447.106133552905
 23
403.7801692369979
 33
0.0
  0
MTEXT
  5
1D85
330
1062
100
AcDbEntity
  8
AM_5
100
AcDbMText
 10
460.1062555529049
 20
406.2305137251869
 30
0.0
 40
3.5
 41
0.0
 71
     5
 72
     1
  1
26
 73
     1
 44
1.0
1001
ACAD
1000
MTEXTBEGIN
1070
    73
1070
     1
1070
    44
1040
1.0
1070
    74
1070
     0
1000
MTEXTEND
  0
POINT
  5
1D86
330
1062
100
AcDbEntity
  8
Defpoints
 62
     0
100
AcDbPoint
 10
473.1063775529048
 20
454.780291236998
 30
0.0
  0
POINT
  5
1D87
330
1062
100
AcDbEntity
  8
Defpoints
 62
     0
100
AcDbPoint
 10
447.106133552905
 20
454.780291236998
 30
0.0
  0
POINT
  5
1D88
330
1062
100
AcDbEntity
  8
Defpoints
 62
     0
100
AcDbPoint
 10
447.106133552905
 20
403.7801692369979
 30
0.0
  0
ENDBLK
  5
106D
330
1062
100
AcDbEntity
  8
0
100
AcDbBlockEnd
  0
BLOCK
  5
1078
330
106E
100
AcDbEntity
  8
0
100
AcDbBlockBegin
  2
*D15
 70
     1
 10
0.0
 20
0.0
 30
0.0
  3
*D15
  1

  0
LINE
  5
1D89
330
106E
100
AcDbEntity
  8
AM_5
100
AcDbLine
 10
452.106133552905
 20
455.1621272369979
 30
0.0
 11
452.106133552905
 21
410.280169236998
 31
0.0
  0
LINE
  5
1D8A
330
106E
100
AcDbEntity
  8
AM_5
100
AcDbLine
 10
468.1063775529048
 20
493.531512236998
 30
0.0
 11
468.1063775529048
 21
410.280169236998
 31
0.0
  0
LINE
  5
1D8B
330
106E
100
AcDbEntity
  8
AM_5
100
AcDbLine
 10
455.106133552905
 20
411.780169236998
 30
0.0
 11
465.1063775529048
 21
411.780169236998
 31
0.0
  0
SOLID
  5
1D8C
330
106E
100
AcDbEntity
  8
AM_5
100
AcDbTrace
 10
455.106133552905
 20
412.2801692369979
 30
0.0
 11
455.106133552905
 21
411.280169236998
 31
0.0
 12
452.106133552905
 22
411.780169236998
 32
0.0
 13
452.106133552905
 23
411.780169236998
 33
0.0
  0
SOLID
  5
1D8D
330
106E
100
AcDbEntity
  8
AM_5
100
AcDbTrace
 10
465.1063775529048
 20
412.2801692369979
 30
0.0
 11
465.1063775529048
 21
411.280169236998
 31
0.0
 12
468.1063775529048
 22
411.780169236998
 32
0.0
 13
468.1063775529048
 23
411.780169236998
 33
0.0
  0
MTEXT
  5
1D8E
330
106E
100
AcDbEntity
  8
AM_5
100
AcDbMText
 10
460.1062555529049
 20
414.2301692369979
 30
0.0
 40
3.5
 41
0.0
 71
     5
 72
     1
  1
16
 73
     1
 44
1.0
1001
ACAD
1000
MTEXTBEGIN
1070
    73
1070
     1
1070
    44
1040
1.0
1070
    74
1070
     0
1000
MTEXTEND
  0
POINT
  5
1D8F
330
106E
100
AcDbEntity
  8
Defpoints
 62
     0
100
AcDbPoint
 10
452.106133552905
 20
456.162127236998
 30
0.0
  0
POINT
  5
1D90
330
106E
100
AcDbEntity
  8
Defpoints
 62
     0
100
AcDbPoint
 10
468.1063775529048
 20
494.5315122369979
 30
0.0
  0
POINT
  5
1D91
330
106E
100
AcDbEntity
  8
Defpoints
 62
     0
100
AcDbPoint
 10
468.1063775529048
 20
411.780169236998
 30
0.0
  0
ENDBLK
  5
1079
330
106E
100
AcDbEntity
  8
0
100
AcDbBlockEnd
  0
BLOCK
  5
1084
330
107A
100
AcDbEntity
  8
0
100
AcDbBlockBegin
  2
*D16
 70
     1
 10
0.0
 20
0.0
 30
0.0
  3
*D16
  1

  0
LINE
  5
1D92
330
107A
100
AcDbEntity
  8
AM_5
100
AcDbLine
 10
474.1063775529048
 20
502.7802912369979
 30
0.0
 11
495.4906555529048
 21
502.7802912369979
 31
0.0
  0
LINE
  5
1D93
330
107A
100
AcDbEntity
  8
AM_5
100
AcDbLine
 10
474.1063775529048
 20
454.780291236998
 30
0.0
 11
495.4906555529048
 21
454.780291236998
 31
0.0
  0
LINE
  5
1D94
330
107A
100
AcDbEntity
  8
AM_5
100
AcDbLine
 10
493.9906555529048
 20
499.7802912369979
 30
0.0
 11
493.9906555529048
 21
457.7802912369979
 31
0.0
  0
SOLID
  5
1D95
330
107A
100
AcDbEntity
  8
AM_5
100
AcDbTrace
 10
493.4906555529048
 20
499.7802912369979
 30
0.0
 11
494.4906555529049
 21
499.7802912369979
 31
0.0
 12
493.9906555529048
 22
502.7802912369979
 32
0.0
 13
493.9906555529048
 23
502.7802912369979
 33
0.0
  0
SOLID
  5
1D96
330
107A
100
AcDbEntity
  8
AM_5
100
AcDbTrace
 10
493.4906555529048
 20
457.7802912369979
 30
0.0
 11
494.4906555529049
 21
457.7802912369979
 31
0.0
 12
493.9906555529048
 22
454.780291236998
 32
0.0
 13
493.9906555529048
 23
454.780291236998
 33
0.0
  0
MTEXT
  5
1D97
330
107A
100
AcDbEntity
  8
AM_5
100
AcDbMText
 10
491.5406555529048
 20
478.780291236998
 30
0.0
 40
3.5
 41
0.0
 71
     5
 72
     1
  1
48
 11
0.0000000000000001
 21
1.0
 31
0.0
 73
     1
 44
1.0
1001
ACAD
1000
MTEXTBEGIN
1070
    73
1070
     1
1070
    44
1040
1.0
1070
    74
1070
     0
1000
MTEXTEND
  0
POINT
  5
1D98
330
107A
100
AcDbEntity
  8
Defpoints
 62
     0
100
AcDbPoint
 10
473.1063775529048
 20
502.7802912369979
 30
0.0
  0
POINT
  5
1D99
330
107A
100
AcDbEntity
  8
Defpoints
 62
     0
100
AcDbPoint
 10
473.1063775529048
 20
454.780291236998
 30
0.0
  0
POINT
  5
1D9A
330
107A
100
AcDbEntity
  8
Defpoints
 62
     0
100
AcDbPoint
 10
493.9906555529048
 20
454.780291236998
 30
0.0
  0
ENDBLK
  5
1085
330
107A
100
AcDbEntity
  8
0
100
AcDbBlockEnd
  0
BLOCK
  5
109E
330
1094
100
AcDbEntity
  8
0
100
AcDbBlockBegin
  2
*D17
 70
     1
 10
0.0
 20
0.0
 30
0.0
  3
*D17
  1

  0
LINE
  5
1D9B
330
1094
100
AcDbEntity
  8
AM_5
100
AcDbLine
 10
472.306084552905
 20
497.780291236998
 30
0.0
 11
487.4906555529048
 21
497.780291236998
 31
0.0
  0
LINE
  5
1D9C
330
1094
100
AcDbEntity
  8
AM_5
100
AcDbLine
 10
464.106133552905
 20
459.780291236998
 30
0.0
 11
487.4906555529048
 21
459.780291236998
 31
0.0
  0
LINE
  5
1D9D
330
1094
100
AcDbEntity
  8
AM_5
100
AcDbLine
 10
485.9906555529049
 20
494.7802912369979
 30
0.0
 11
485.9906555529049
 21
462.7802912369979
 31
0.0
  0
SOLID
  5
1D9E
330
1094
100
AcDbEntity
  8
AM_5
100
AcDbTrace
 10
485.4906555529048
 20
494.7802912369979
 30
0.0
 11
486.4906555529048
 21
494.7802912369979
 31
0.0
 12
485.9906555529049
 22
497.780291236998
 32
0.0
 13
485.9906555529049
 23
497.780291236998
 33
0.0
  0
SOLID
  5
1D9F
330
1094
100
AcDbEntity
  8
AM_5
100
AcDbTrace
 10
485.4906555529048
 20
462.7802912369979
 30
0.0
 11
486.4906555529048
 21
462.7802912369979
 31
0.0
 12
485.9906555529049
 22
459.780291236998
 32
0.0
 13
485.9906555529049
 23
459.780291236998
 33
0.0
  0
MTEXT
  5
1DA0
330
1094
100
AcDbEntity
  8
AM_5
100
AcDbMText
 10
483.5406555529048
 20
478.780291236998
 30
0.0
 40
3.5
 41
0.0
 71
     5
 72
     1
  1
38
 11
0.0000000000000001
 21
1.0
 31
0.0
 73
     1
 44
1.0
1001
ACAD
1000
MTEXTBEGIN
1070
    73
1070
     1
1070
    44
1040
1.0
1070
    74
1070
     0
1000
MTEXTEND
  0
POINT
  5
1DA1
330
1094
100
AcDbEntity
  8
Defpoints
 62
     0
100
AcDbPoint
 10
471.306084552905
 20
497.780291236998
 30
0.0
  0
POINT
  5
1DA2
330
1094
100
AcDbEntity
  8
Defpoints
 62
     0
100
AcDbPoint
 10
463.106133552905
 20
459.780291236998
 30
0.0
  0
POINT
  5
1DA3
330
1094
100
AcDbEntity
  8
Defpoints
 62
     0
100
AcDbPoint
 10
485.9906555529049
 20
459.780291236998
 30
0.0
  0
ENDBLK
  5
109F
330
1094
100
AcDbEntity
  8
0
100
AcDbBlockEnd
  0
BLOCK
  5
10AA
330
10A0
100
AcDbEntity
  8
0
100
AcDbBlockBegin
  2
*D18
 70
     1
 10
0.0
 20
0.0
 30
0.0
  3
*D18
  1

  0
LINE
  5
1DA4
330
10A0
100
AcDbEntity
  8
AM_5
100
AcDbLine
 10
361.7590375651027
 20
583.7802602369979
 30
0.0
 11
412.1323285651026
 21
583.7802602369979
 31
0.0
  0
LINE
  5
1DA5
330
10A0
100
AcDbEntity
  8
AM_5
100
AcDbLine
 10
363.6323285651026
 20
568.780291236998
 30
0.0
 11
412.1323285651026
 21
568.780291236998
 31
0.0
  0
LINE
  5
1DA6
330
10A0
100
AcDbEntity
  8
AM_5
100
AcDbLine
 10
410.6323285651026
 20
580.7802602369979
 30
0.0
 11
410.6323285651026
 21
571.780291236998
 31
0.0
  0
SOLID
  5
1DA7
330
10A0
100
AcDbEntity
  8
AM_5
100
AcDbTrace
 10
410.1323285651026
 20
580.7802602369979
 30
0.0
 11
411.1323285651026
 21
580.7802602369979
 31
0.0
 12
410.6323285651026
 22
583.7802602369979
 32
0.0
 13
410.6323285651026
 23
583.7802602369979
 33
0.0
  0
SOLID
  5
1DA8
330
10A0
100
AcDbEntity
  8
AM_5
100
AcDbTrace
 10
410.1323285651026
 20
571.780291236998
 30
0.0
 11
411.1323285651026
 21
571.780291236998
 31
0.0
 12
410.6323285651026
 22
568.780291236998
 32
0.0
 13
410.6323285651026
 23
568.780291236998
 33
0.0
  0
MTEXT
  5
1DA9
330
10A0
100
AcDbEntity
  8
AM_5
100
AcDbMText
 10
408.1823285651025
 20
576.280275736998
 30
0.0
 40
3.5
 41
0.0
 71
     5
 72
     1
  1
15
 11
0.0000000000000001
 21
1.0
 31
0.0
 73
     1
 44
1.0
1001
ACAD
1000
MTEXTBEGIN
1070
    73
1070
     1
1070
    44
1040
1.0
1070
    74
1070
     0
1000
MTEXTEND
  0
POINT
  5
1DAA
330
10A0
100
AcDbEntity
  8
Defpoints
 62
     0
100
AcDbPoint
 10
360.7590375651026
 20
583.7802602369979
 30
0.0
  0
POINT
  5
1DAB
330
10A0
100
AcDbEntity
  8
Defpoints
 62
     0
100
AcDbPoint
 10
362.6323285651026
 20
568.780291236998
 30
0.0
  0
POINT
  5
1DAC
330
10A0
100
AcDbEntity
  8
Defpoints
 62
     0
100
AcDbPoint
 10
410.6323285651026
 20
568.780291236998
 30
0.0
  0
ENDBLK
  5
10AB
330
10A0
100
AcDbEntity
  8
0
100
AcDbBlockEnd
  0
BLOCK
  5
10B6
330
10AC
100
AcDbEntity
  8
0
100
AcDbBlockBegin
  2
*D19
 70
     1
 10
0.0
 20
0.0
 30
0.0
  3
*D19
  1

  0
LINE
  5
1DAD
330
10AC
100
AcDbEntity
  8
AM_5
100
AcDbLine
 10
356.6323285651026
 20
588.569811236998
 30
0.0
 11
356.6323285651026
 21
603.2802602369979
 31
0.0
  0
LINE
  5
1DAE
330
10AC
100
AcDbEntity
  8
AM_5
100
AcDbLine
 10
398.6323285651026
 20
590.7802602369979
 30
0.0
 11
398.6323285651026
 21
603.2802602369979
 31
0.0
  0
LINE
  5
1DAF
330
10AC
100
AcDbEntity
  8
AM_5
100
AcDbLine
 10
359.6323285651026
 20
601.7802602369979
 30
0.0
 11
395.6323285651026
 21
601.7802602369979
 31
0.0
  0
SOLID
  5
1DB0
330
10AC
100
AcDbEntity
  8
AM_5
100
AcDbTrace
 10
359.6323285651026
 20
602.2802602369979
 30
0.0
 11
359.6323285651026
 21
601.2802602369979
 31
0.0
 12
356.6323285651026
 22
601.7802602369979
 32
0.0
 13
356.6323285651026
 23
601.7802602369979
 33
0.0
  0
SOLID
  5
1DB1
330
10AC
100
AcDbEntity
  8
AM_5
100
AcDbTrace
 10
395.6323285651026
 20
602.2802602369979
 30
0.0
 11
395.6323285651026
 21
601.2802602369979
 31
0.0
 12
398.6323285651026
 22
601.7802602369979
 32
0.0
 13
398.6323285651026
 23
601.7802602369979
 33
0.0
  0
MTEXT
  5
1DB2
330
10AC
100
AcDbEntity
  8
AM_5
100
AcDbMText
 10
377.6323285651026
 20
604.2306047251869
 30
0.0
 40
3.5
 41
0.0
 71
     5
 72
     1
  1
42
 73
     1
 44
1.0
1001
ACAD
1000
MTEXTBEGIN
1070
    73
1070
     1
1070
    44
1040
1.0
1070
    74
1070
     0
1000
MTEXTEND
  0
POINT
  5
1DB3
330
10AC
100
AcDbEntity
  8
Defpoints
 62
     0
100
AcDbPoint
 10
356.6323285651026
 20
587.569811236998
 30
0.0
  0
POINT
  5
1DB4
330
10AC
100
AcDbEntity
  8
Defpoints
 62
     0
100
AcDbPoint
 10
398.6323285651026
 20
589.7802602369979
 30
0.0
  0
POINT
  5
1DB5
330
10AC
100
AcDbEntity
  8
Defpoints
 62
     0
100
AcDbPoint
 10
398.6323285651026
 20
601.7802602369979
 30
0.0
  0
ENDBLK
  5
10B7
330
10AC
100
AcDbEntity
  8
0
100
AcDbBlockEnd
  0
BLOCK
  5
1842
330
1841
100
AcDbEntity
  8
0
100
AcDbBlockBegin
  2
*U21
 70
     1
 10
0.0
 20
0.0
 30
0.0
  3
*U21
  1

  0
ENDBLK
  5
1843
330
1841
100
AcDbEntity
  8
0
100
AcDbBlockEnd
  0
BLOCK
  5
1996
330
198D
100
AcDbEntity
  8
0
100
AcDbBlockBegin
  2
*D22
 70
     1
 10
0.0
 20
0.0
 30
0.0
  3
*D22
  1

  0
LINE
  5
1DD7
330
198D
100
AcDbEntity
  8
AM_5
100
AcDbLine
 10
376.9155662124266
 20
501.5005929510502
 30
0.0
 11
382.6635492953715
 21
509.7638382842115
 31
0.0
  0
LINE
  5
1DD8
330
198D
100
AcDbEntity
  8
AM_5
100
AcDbLine
 10
382.6635492953715
 20
509.7638382842115
 30
0.0
 11
396.547401994958
 21
509.7638382842115
 31
0.0
  0
SOLID
  5
1DD9
330
198D
100
AcDbEntity
  8
AM_5
100
AcDbTrace
 10
376.5051051938134
 20
501.7861130942958
 30
0.0
 11
377.3260272310399
 21
501.2150728078046
 31
0.0
 12
375.2024453529533
 22
499.0378268393708
 32
0.0
 13
375.2024453529533
 23
499.0378268393708
 33
0.0
  0
MTEXT
  5
1DDA
330
198D
100
AcDbEntity
  8
AM_5
100
AcDbMText
 10
389.9554756451648
 20
512.2141827724004
 30
0.0
 40
3.5
 41
0.0
 71
     5
 72
     1
  1
2-\U+22055.5
 73
     1
 44
1.0
1001
ACAD
1000
MTEXTBEGIN
1070
    73
1070
     1
1070
    44
1040
1.0
1070
    74
1070
     0
1000
MTEXTEND
  0
POINT
  5
1DDB
330
198D
100
AcDbEntity
  8
Defpoints
 62
     0
100
AcDbPoint
 10
375.2024453529533
 20
499.0378268393708
 30
0.0
  0
POINT
  5
1DDC
330
198D
100
AcDbEntity
  8
Defpoints
 62
     0
100
AcDbPoint
 10
372.061723777252
 20
494.5227556346247
 30
0.0
  0
ENDBLK
  5
1997
330
198D
100
AcDbEntity
  8
0
100
AcDbBlockEnd
  0
BLOCK
  5
19E0
330
19D6
100
AcDbEntity
  8
0
100
AcDbBlockBegin
  2
*D23
 70
     1
 10
0.0
 20
0.0
 30
0.0
  3
*D23
  1

  0
LINE
  5
1DBC
330
19D6
100
AcDbEntity
  8
AM_5
100
AcDbLine
 10
395.6882365651027
 20
352.7154747426413
 30
0.0
 11
412.1323295651026
 21
352.7154747426413
 31
0.0
  0
LINE
  5
1DBD
330
19D6
100
AcDbEntity
  8
AM_5
100
AcDbLine
 10
364.4033245651026
 20
364.7154747426413
 30
0.0
 11
412.1323295651026
 21
364.7154747426412
 31
0.0
  0
LINE
  5
1DBE
330
19D6
100
AcDbEntity
  8
AM_5
100
AcDbLine
 10
410.6323295651026
 20
355.7154747426413
 30
0.0
 11
410.6323295651026
 21
361.7154747426412
 31
0.0
  0
SOLID
  5
1DBF
330
19D6
100
AcDbEntity
  8
AM_5
100
AcDbTrace
 10
410.1323295651026
 20
355.7154747426413
 30
0.0
 11
411.1323295651025
 21
355.7154747426413
 31
0.0
 12
410.6323295651026
 22
352.7154747426413
 32
0.0
 13
410.6323295651026
 23
352.7154747426413
 33
0.0
  0
SOLID
  5
1DC0
330
19D6
100
AcDbEntity
  8
AM_5
100
AcDbTrace
 10
410.1323295651026
 20
361.7154747426412
 30
0.0
 11
411.1323295651025
 21
361.7154747426412
 31
0.0
 12
410.6323295651026
 22
364.7154747426412
 32
0.0
 13
410.6323295651026
 23
364.7154747426412
 33
0.0
  0
MTEXT
  5
1DC1
330
19D6
100
AcDbEntity
  8
AM_5
100
AcDbMText
 10
408.1819850769135
 20
358.7154747426414
 30
0.0
 40
3.5
 41
0.0
 71
     5
 72
     1
  1
12
 11
0.0000000000000001
 21
1.0
 31
0.0
 73
     1
 44
1.0
1001
ACAD
1000
MTEXTBEGIN
1070
    73
1070
     1
1070
    44
1040
1.0
1070
    74
1070
     0
1000
MTEXTEND
  0
POINT
  5
1DC2
330
19D6
100
AcDbEntity
  8
Defpoints
 62
     0
100
AcDbPoint
 10
394.6882365651027
 20
352.7154747426413
 30
0.0
  0
POINT
  5
1DC3
330
19D6
100
AcDbEntity
  8
Defpoints
 62
     0
100
AcDbPoint
 10
363.4033245651026
 20
364.7154747426413
 30
0.0
  0
POINT
  5
1DC4
330
19D6
100
AcDbEntity
  8
Defpoints
 62
     0
100
AcDbPoint
 10
410.6323295651026
 20
364.7154747426412
 30
0.0
  0
ENDBLK
  5
19E1
330
19D6
100
AcDbEntity
  8
0
100
AcDbBlockEnd
  0
BLOCK
  5
1A06
330
19FC
100
AcDbEntity
  8
0
100
AcDbBlockBegin
  2
*D24
 70
     1
 10
0.0
 20
0.0
 30
0.0
  3
*D24
  1

  0
LINE
  5
1DC5
330
19FC
100
AcDbEntity
  8
AM_5
100
AcDbLine
 10
398.6323285651026
 20
344.7154747426413
 30
0.0
 11
398.6323285651026
 21
332.2154737426413
 31
0.0
  0
LINE
  5
1DC6
330
19FC
100
AcDbEntity
  8
AM_5
100
AcDbLine
 10
390.6323285651026
 20
347.2643027426413
 30
0.0
 11
390.6323285651026
 21
332.2154737426413
 31
0.0
  0
LINE
  5
1DC7
330
19FC
100
AcDbEntity
  8
AM_5
100
AcDbLine
 10
395.6323285651026
 20
333.7154737426413
 30
0.0
 11
393.6323285651026
 21
333.7154737426413
 31
0.0
  0
SOLID
  5
1DC8
330
19FC
100
AcDbEntity
  8
AM_5
100
AcDbTrace
 10
395.6323285651026
 20
334.2154737426413
 30
0.0
 11
395.6323285651026
 21
333.2154737426413
 31
0.0
 12
398.6323285651026
 22
333.7154737426413
 32
0.0
 13
398.6323285651026
 23
333.7154737426413
 33
0.0
  0
SOLID
  5
1DC9
330
19FC
100
AcDbEntity
  8
AM_5
100
AcDbTrace
 10
393.6323285651026
 20
334.2154737426413
 30
0.0
 11
393.6323285651026
 21
333.2154737426413
 31
0.0
 12
390.6323285651026
 22
333.7154737426413
 32
0.0
 13
390.6323285651026
 23
333.7154737426413
 33
0.0
  0
MTEXT
  5
1DCA
330
19FC
100
AcDbEntity
  8
AM_5
100
AcDbMText
 10
394.6323285651026
 20
336.1654737426413
 30
0.0
 40
3.5
 41
0.0
 71
     5
 72
     1
  1
8
 73
     1
 44
1.0
1001
ACAD
1000
MTEXTBEGIN
1070
    73
1070
     1
1070
    44
1040
1.0
1070
    74
1070
     0
1000
MTEXTEND
  0
POINT
  5
1DCB
330
19FC
100
AcDbEntity
  8
Defpoints
 62
     0
100
AcDbPoint
 10
398.6323285651026
 20
345.7154747426413
 30
0.0
  0
POINT
  5
1DCC
330
19FC
100
AcDbEntity
  8
Defpoints
 62
     0
100
AcDbPoint
 10
390.6323285651026
 20
348.2643027426413
 30
0.0
  0
POINT
  5
1DCD
330
19FC
100
AcDbEntity
  8
Defpoints
 62
     0
100
AcDbPoint
 10
390.6323285651026
 20
333.7154737426413
 30
0.0
  0
ENDBLK
  5
1A07
330
19FC
100
AcDbEntity
  8
0
100
AcDbBlockEnd
  0
BLOCK
  5
1A2C
330
1A22
100
AcDbEntity
  8
0
100
AcDbBlockBegin
  2
*D25
 70
     1
 10
0.0
 20
0.0
 30
0.0
  3
*D25
  1

  0
LINE
  5
1DCE
330
1A22
100
AcDbEntity
  8
AM_5
100
AcDbLine
 10
390.6323285651026
 20
347.2643027426413
 30
0.0
 11
390.6323285651026
 21
332.2154737426412
 31
0.0
  0
LINE
  5
1DCF
330
1A22
100
AcDbEntity
  8
AM_5
100
AcDbLine
 10
358.6323285651026
 20
360.1122027426413
 30
0.0
 11
358.6323285651026
 21
332.2154737426412
 31
0.0
  0
LINE
  5
1DD0
330
1A22
100
AcDbEntity
  8
AM_5
100
AcDbLine
 10
387.6323285651026
 20
333.7154737426412
 30
0.0
 11
361.6323285651026
 21
333.7154737426412
 31
0.0
  0
SOLID
  5
1DD1
330
1A22
100
AcDbEntity
  8
AM_5
100
AcDbTrace
 10
387.6323285651026
 20
334.2154737426412
 30
0.0
 11
387.6323285651026
 21
333.2154737426411
 31
0.0
 12
390.6323285651026
 22
333.7154737426412
 32
0.0
 13
390.6323285651026
 23
333.7154737426412
 33
0.0
  0
SOLID
  5
1DD2
330
1A22
100
AcDbEntity
  8
AM_5
100
AcDbTrace
 10
361.6323285651026
 20
334.2154737426412
 30
0.0
 11
361.6323285651026
 21
333.2154737426411
 31
0.0
 12
358.6323285651026
 22
333.7154737426412
 32
0.0
 13
358.6323285651026
 23
333.7154737426412
 33
0.0
  0
MTEXT
  5
1DD3
330
1A22
100
AcDbEntity
  8
AM_5
100
AcDbMText
 10
374.6323285651026
 20
336.1658182308302
 30
0.0
 40
3.5
 41
0.0
 71
     5
 72
     1
  1
32
 73
     1
 44
1.0
1001
ACAD
1000
MTEXTBEGIN
1070
    73
1070
     1
1070
    44
1040
1.0
1070
    74
1070
     0
1000
MTEXTEND
  0
POINT
  5
1DD4
330
1A22
100
AcDbEntity
  8
Defpoints
 62
     0
100
AcDbPoint
 10
390.6323285651026
 20
348.2643027426413
 30
0.0
  0
POINT
  5
1DD5
330
1A22
100
AcDbEntity
  8
Defpoints
 62
     0
100
AcDbPoint
 10
358.6323285651026
 20
361.1122027426413
 30
0.0
  0
POINT
  5
1DD6
330
1A22
100
AcDbEntity
  8
Defpoints
 62
     0
100
AcDbPoint
 10
358.6323285651026
 20
333.7154737426412
 30
0.0
  0
ENDBLK
  5
1A2D
330
1A22
100
AcDbEntity
  8
0
100
AcDbBlockEnd
  0
BLOCK
  5
1E44
330
1E3F
100
AcDbEntity
  8
0
100
AcDbBlockBegin
  2
*S30
 70
     1
 10
0.0
 20
0.0
 30
0.0
  3
*S30
  1

  0
LINE
  5
1E40
330
1E3F
100
AcDbEntity
  8
AM_5
 62
     5
100
AcDbLine
 10
400.7682277867151
 20
554.264318842437
 30
0.0
 11
370.225438336837
 21
554.264318842437
 31
0.0
  0
LINE
  5
1E41
330
1E3F
100
AcDbEntity
  8
AM_5
 62
     5
100
AcDbLine
 10
370.225438336837
 20
554.264318842437
 30
0.0
 11
360.7977147382135
 21
565.5438589552684
 31
0.0
  0
TRACE
  5
1E42
330
1E3F
100
AcDbEntity
  8
AM_5
 62
     5
370
    35
100
AcDbTrace
 10
361.1512649558597
 20
565.8393651281141
 30
0.0
 11
360.4441645205672
 21
565.2483527824228
 31
0.0
 12
358.5531225004706
 22
568.2293394869916
 32
0.0
 13
358.5531225004706
 23
568.2293394869916
 33
0.0
  0
MTEXT
  5
1E43
330
1E3F
100
AcDbEntity
  8
AM_5
 62
     5
100
AcDbMText
 10
400.7682277867151
 20
560.0749219608356
 30
0.0
 40
3.5
 41
0.0
 71
     7
 72
     5
  1

  7
ACISOTS
 73
     1
 44
1.0
1001
ACAD
1000
MTEXTBEGIN
1070
    73
1070
     1
1070
    44
1040
1.0
1070
    74
1070
     0
1000
MTEXTEND
  0
ENDBLK
  5
1E45
330
1E3F
100
AcDbEntity
  8
0
100
AcDbBlockEnd
  0
BLOCK
  5
1E4C
330
1E47
100
AcDbEntity
  8
0
100
AcDbBlockBegin
  2
*S31
 70
     1
 10
0.0
 20
0.0
 30
0.0
  3
*S31
  1

  0
LINE
  5
1E48
330
1E47
100
AcDbEntity
  8
AM_5
 62
     5
100
AcDbLine
 10
268.9818525072051
 20
521.1560000921654
 30
0.0
 11
247.350814531331
 21
521.1560000921654
 31
0.0
  0
LINE
  5
1E49
330
1E47
100
AcDbEntity
  8
AM_5
 62
     5
100
AcDbLine
 10
247.350814531331
 20
521.1560000921654
 30
0.0
 11
239.762751031646
 21
525.8779281941436
 31
0.0
  0
TRACE
  5
1E4A
330
1E47
100
AcDbEntity
  8
AM_5
 62
     5
370
    35
100
AcDbTrace
 10
240.0062012841839
 20
526.2691488852206
 30
0.0
 11
239.5193007791081
 21
525.4867075030666
 31
0.0
 12
236.7911348451556
 22
527.7271164593531
 32
0.0
 13
236.7911348451556
 23
527.7271164593531
 33
0.0
  0
MTEXT
  5
1E4B
330
1E47
100
AcDbEntity
  8
AM_5
 62
     5
100
AcDbMText
 10
268.9818525072051
 20
527.1931782311326
 30
0.0
 40
3.5
 41
0.0
 71
     7
 72
     5
  1

  7
ACISOTS
 73
     1
 44
1.0
1001
ACAD
1000
MTEXTBEGIN
1070
    73
1070
     1
1070
    44
1040
1.0
1070
    74
1070
     0
1000
MTEXTEND
  0
ENDBLK
  5
1E4D
330
1E47
100
AcDbEntity
  8
0
100
AcDbBlockEnd
  0
BLOCK
  5
1E54
330
1E4F
100
AcDbEntity
  8
0
100
AcDbBlockBegin
  2
*S32
 70
     1
 10
0.0
 20
0.0
 30
0.0
  3
*S32
  1

  0
LINE
  5
1E50
330
1E4F
100
AcDbEntity
  8
AM_5
 62
     5
100
AcDbLine
 10
389.8495316553123
 20
519.8268726614203
 30
0.0
 11
359.3067422054342
 21
519.8268726614203
 31
0.0
  0
LINE
  5
1E51
330
1E4F
100
AcDbEntity
  8
AM_5
 62
     5
100
AcDbLine
 10
359.3067422054342
 20
519.8268726614203
 30
0.0
 11
350.7898726326008
 21
501.4596605768946
 31
0.0
  0
TRACE
  5
1E52
330
1E4F
100
AcDbEntity
  8
AM_5
 62
     5
370
    35
100
AcDbTrace
 10
350.3718441202163
 20
501.653500246264
 30
0.0
 11
351.2079011449852
 21
501.2658209075251
 31
0.0
 12
349.3175141602089
 22
498.2844187705473
 32
0.0
 13
349.3175141602089
 23
498.2844187705473
 33
0.0
  0
MTEXT
  5
1E53
330
1E4F
100
AcDbEntity
  8
AM_5
 62
     5
100
AcDbMText
 10
389.8495316553123
 20
525.637475779819
 30
0.0
 40
3.5
 41
0.0
 71
     7
 72
     5
  1

  7
ACISOTS
 73
     1
 44
1.0
1001
ACAD
1000
MTEXTBEGIN
1070
    73
1070
     1
1070
    44
1040
1.0
1070
    74
1070
     0
1000
MTEXTEND
  0
ENDBLK
  5
1E55
330
1E4F
100
AcDbEntity
  8
0
100
AcDbBlockEnd
  0
BLOCK
  5
1E5C
330
1E57
100
AcDbEntity
  8
0
100
AcDbBlockBegin
  2
*S33
 70
     1
 10
0.0
 20
0.0
 30
0.0
  3
*S33
  1

  0
LINE
  5
1E58
330
1E57
100
AcDbEntity
  8
AM_5
 62
     5
100
AcDbLine
 10
390.2824550875266
 20
383.7401173044232
 30
0.0
 11
372.632364496241
 21
383.7401173044232
 31
0.0
  0
LINE
  5
1E59
330
1E57
100
AcDbEntity
  8
AM_5
 62
     5
100
AcDbLine
 10
372.632364496241
 20
383.7401173044232
 30
0.0
 11
362.2525247282518
 21
369.3127365482632
 31
0.0
  0
TRACE
  5
1E5A
330
1E57
100
AcDbEntity
  8
AM_5
 62
     5
370
    35
100
AcDbTrace
 10
361.8784861202568
 20
369.581840198028
 30
0.0
 11
362.6265633362468
 21
369.0436328984983
 31
0.0
 12
360.2084795646811
 22
366.4716312405909
 32
0.0
 13
360.2084795646811
 23
366.4716312405909
 33
0.0
  0
MTEXT
  5
1E5B
330
1E57
100
AcDbEntity
  8
AM_5
 62
     5
100
AcDbMText
 10
390.2824550875266
 20
392.6574600500524
 30
0.0
 40
3.5
 41
0.0
 71
     7
 72
     5
  1

  7
ACISOTS
 73
     1
 44
1.0
1001
ACAD
1000
MTEXTBEGIN
1070
    73
1070
     1
1070
    44
1040
1.0
1070
    74
1070
     0
1000
MTEXTEND
  0
ENDBLK
  5
1E5D
330
1E57
100
AcDbEntity
  8
0
100
AcDbBlockEnd
  0
BLOCK
  5
1E64
330
1E5F
100
AcDbEntity
  8
0
100
AcDbBlockBegin
  2
*S34
 70
     1
 10
0.0
 20
0.0
 30
0.0
  3
*S34
  1

  0
LINE
  5
1E60
330
1E5F
100
AcDbEntity
  8
AM_5
 62
     5
100
AcDbLine
 10
427.6433216829405
 20
341.2029818927833
 30
0.0
 11
409.9932310916549
 21
341.2029818927833
 31
0.0
  0
LINE
  5
1E61
330
1E5F
100
AcDbEntity
  8
AM_5
 62
     5
100
AcDbLine
 10
409.9932310916549
 20
341.2029818927833
 30
0.0
 11
395.5555974660851
 21
349.4785259378121
 31
0.0
  0
TRACE
  5
1E62
330
1E5F
100
AcDbEntity
  8
AM_5
 62
     5
370
    35
100
AcDbTrace
 10
395.7847416189689
 20
349.8782941353801
 30
0.0
 11
395.3264533132014
 21
349.078757740244
 31
0.0
 12
392.5190565217226
 22
351.219048587251
 32
0.0
 13
392.5190565217226
 23
351.219048587251
 33
0.0
  0
MTEXT
  5
1E63
330
1E5F
100
AcDbEntity
  8
AM_5
 62
     5
100
AcDbMText
 10
427.6433216829405
 20
350.1203246384124
 30
0.0
 40
3.5
 41
0.0
 71
     7
 72
     5
  1

  7
ACISOTS
 73
     1
 44
1.0
1001
ACAD
1000
MTEXTBEGIN
1070
    73
1070
     1
1070
    44
1040
1.0
1070
    74
1070
     0
1000
MTEXTEND
  0
ENDBLK
  5
1E65
330
1E5F
100
AcDbEntity
  8
0
100
AcDbBlockEnd
  0
BLOCK
  5
1E6C
330
1E67
100
AcDbEntity
  8
0
100
AcDbBlockBegin
  2
*S35
 70
     1
 10
0.0
 20
0.0
 30
0.0
  3
*S35
  1

  0
LINE
  5
1E68
330
1E67
100
AcDbEntity
  8
AM_5
 62
     5
100
AcDbLine
 10
513.9315328198343
 20
442.9665911278643
 30
0.0
 11
481.0240876293819
 21
442.9665911278643
 31
0.0
  0
LINE
  5
1E69
330
1E67
100
AcDbEntity
  8
AM_5
 62
     5
100
AcDbLine
 10
481.0240876293819
 20
442.9665911278643
 30
0.0
 11
467.8515446808747
 21
467.5690821695147
 31
0.0
  0
TRACE
  5
1E6A
330
1E67
100
AcDbEntity
  8
AM_5
 62
     5
370
    35
100
AcDbTrace
 10
468.2577669120229
 20
467.7865796488301
 30
0.0
 11
467.4453224497264
 21
467.3515846901993
 31
0.0
 12
466.1994873004864
 22
470.6546463662062
 32
0.0
 13
466.1994873004864
 23
470.6546463662062
 33
0.0
  0
MTEXT
  5
1E6B
330
1E67
100
AcDbEntity
  8
AM_5
 62
     5
100
AcDbMText
 10
513.9315328198343
 20
451.6937942548072
 30
0.0
 40
3.5
 41
0.0
 71
     7
 72
     5
  1

  7
ACISOTS
 73
     1
 44
1.0
1001
ACAD
1000
MTEXTBEGIN
1070
    73
1070
     1
1070
    44
1040
1.0
1070
    74
1070
     0
1000
MTEXTEND
  0
ENDBLK
  5
1E6D
330
1E67
100
AcDbEntity
  8
0
100
AcDbBlockEnd
  0
BLOCK
  5
1E74
330
1E6F
100
AcDbEntity
  8
0
100
AcDbBlockBegin
  2
*S36
 70
     1
 10
0.0
 20
0.0
 30
0.0
  3
*S36
  1

  0
LINE
  5
1E70
330
1E6F
100
AcDbEntity
  8
AM_5
 62
     5
100
AcDbLine
 10
507.3888213623323
 20
511.2002397316216
 30
0.0
 11
476.8460319124542
 21
511.2002397316216
 31
0.0
  0
LINE
  5
1E71
330
1E6F
100
AcDbEntity
  8
AM_5
 62
     5
100
AcDbLine
 10
476.8460319124542
 20
511.2002397316216
 30
0.0
 11
471.6926760586463
 21
502.1884137789572
 31
0.0
  0
TRACE
  5
1E72
330
1E6F
100
AcDbEntity
  8
AM_5
 62
     5
370
    35
100
AcDbTrace
 10
471.2926752855732
 20
502.417151699138
 30
0.0
 11
472.0926768317193
 21
501.9596758587764
 31
0.0
 12
469.9552390529452
 22
499.1501062482387
 32
0.0
 13
469.9552390529452
 23
499.1501062482387
 33
0.0
  0
MTEXT
  5
1E73
330
1E6F
100
AcDbEntity
  8
AM_5
 62
     5
100
AcDbMText
 10
507.3888213623323
 20
517.0108428500204
 30
0.0
 40
3.5
 41
0.0
 71
     7
 72
     5
  1

  7
ACISOTS
 73
     1
 44
1.0
1001
ACAD
1000
MTEXTBEGIN
1070
    73
1070
     1
1070
    44
1040
1.0
1070
    74
1070
     0
1000
MTEXTEND
  0
ENDBLK
  5
1E75
330
1E6F
100
AcDbEntity
  8
0
100
AcDbBlockEnd
  0
ENDSEC
  0
SECTION
  2
ENTITIES
  0
LINE
  5
DB5
330
1F
100
AcDbEntity
  8
AM_7
100
AcDbLine
 10
329.6320845651027
 20
343.9684037426413
 30
0.0
 11
329.6320845651027
 21
373.3233847426413
 31
0.0
  0
LINE
  5
DB6
330
1F
100
AcDbEntity
  8
0
  6
Continuous
 62
     7
100
AcDbLine
 10
314.7321825651027
 20
353.7154747426413
 30
0.0
 11
314.7321825651027
 21
363.7154747426413
 31
0.0
  0
LINE
  5
DB7
330
1F
100
AcDbEntity
  8
0
  6
Continuous
 62
     7
100
AcDbLine
 10
312.6323285651026
 20
371.2154747426413
 30
0.0
 11
312.6323285651026
 21
346.2154747426413
 31
0.0
  0
LINE
  5
DB8
330
1F
100
AcDbEntity
  8
0
  6
Continuous
 62
     7
100
AcDbLine
 10
325.6320845651027
 20
353.7154747426413
 30
0.0
 11
325.6320845651027
 21
363.7154747426413
 31
0.0
  0
LINE
  5
DB9
330
1F
100
AcDbEntity
  8
0
  6
Continuous
 62
     7
100
AcDbLine
 10
333.6323285651026
 20
353.7154747426413
 30
0.0
 11
333.6323285651026
 21
363.7154747426413
 31
0.0
  0
LINE
  5
DBA
330
1F
100
AcDbEntity
  8
0
  6
Continuous
 62
     7
100
AcDbLine
 10
335.1323285651026
 20
353.7154747426413
 30
0.0
 11
335.1323285651026
 21
363.7154747426413
 31
0.0
  0
LINE
  5
DBB
102
{ACAD_REACTORS
330
1A2F
102
}
330
1F
100
AcDbEntity
  8
AM_7
100
AcDbLine
 10
358.6323285651026
 20
369.1673787426413
 30
0.0
 11
358.6323285651026
 21
361.1122027426413
 31
0.0
  0
LINE
  5
DBC
330
1F
100
AcDbEntity
  8
0
  6
Continuous
 62
     7
100
AcDbLine
 10
398.6323285651026
 20
345.7154747426413
 30
0.0
 11
398.6323285651026
 21
371.7154747426413
 31
0.0
  0
LINE
  5
DC6
330
1F
100
AcDbEntity
  8
AM_7
100
AcDbLine
 10
235.1117972682075
 20
535.1819022369979
 30
0.0
 11
235.1117972682075
 21
423.0108822369979
 31
0.0
  0
LINE
  5
DC7
330
1F
100
AcDbEntity
  8
0
  6
Continuous
 62
     7
100
AcDbLine
 10
222.1115532682078
 20
472.4802422369976
 30
0.0
 11
222.1115532682079
 21
470.2802912369977
 31
0.0
  0
ARC
  5
DC8
330
1F
100
AcDbEntity
  8
0
  6
Continuous
 62
     7
100
AcDbCircle
 10
225.1117972682075
 20
468.780291236998
 30
0.0
 40
2.0
100
AcDbArc
 50
228.5903820000026
 51
131.4095799999963
  0
LINE
  5
DC9
330
1F
100
AcDbEntity
  8
0
  6
Continuous
 62
     7
100
AcDbLine
 10
248.1120412682074
 20
472.4802422369979
 30
0.0
 11
248.1120412682074
 21
470.2802912369979
 31
0.0
  0
ARC
  5
DCA
330
1F
100
AcDbEntity
  8
0
  6
Continuous
 62
     7
100
AcDbCircle
 10
245.1117972682075
 20
468.780291236998
 30
0.0
 40
2.0
100
AcDbArc
 50
48.59042000000363
 51
311.4096179999974
  0
LINE
  5
DCE
330
1F
100
AcDbEntity
  8
0
  6
Continuous
 62
     7
100
AcDbLine
 10
240.1117972682075
 20
471.880297236998
 30
0.0
 11
240.1117972682075
 21
423.7801692369979
 31
0.0
  0
LINE
  5
DCF
330
1F
100
AcDbEntity
  8
0
  6
Continuous
 62
     7
100
AcDbLine
 10
230.1117972682073
 20
471.880297236998
 30
0.0
 11
230.1117972682075
 21
423.7801692369979
 31
0.0
  0
LINE
  5
DD6
330
1F
100
AcDbEntity
  8
0
  6
Continuous
 62
     7
100
AcDbLine
 10
240.1117972682075
 20
423.7801692369979
 30
0.0
 11
230.1117972682075
 21
423.7801692369979
 31
0.0
  0
LINE
  5
DD7
330
1F
100
AcDbEntity
  8
AM_7
100
AcDbLine
 10
238.2900202682074
 20
428.7801692369979
 30
0.0
 11
232.1091122682076
 21
428.7801692369979
 31
0.0
  0
LINE
  5
DD9
330
1F
100
AcDbEntity
  8
AM_7
100
AcDbLine
 10
238.1493952682074
 20
437.7801692369979
 30
0.0
 11
231.7580382682074
 21
437.7801692369979
 31
0.0
  0
LINE
  5
DDB
330
1F
100
AcDbEntity
  8
0
  6
Continuous
 62
     7
100
AcDbLine
 10
222.6115532682078
 20
455.280291236998
 30
0.0
 11
222.6115532682078
 21
466.7802912369979
 31
0.0
  0
LINE
  5
DDC
330
1F
100
AcDbEntity
  8
0
  6
Continuous
 62
     7
100
AcDbLine
 10
222.1117972682075
 20
467.280291236998
 30
0.0
 11
222.1117972682075
 21
454.780291236998
 31
0.0
  0
LINE
  5
DDD
330
1F
100
AcDbEntity
  8
0
  6
Continuous
 62
     7
100
AcDbLine
 10
230.1117972682073
 20
455.280291236998
 30
0.0
 11
222.6115532682078
 21
455.280291236998
 31
0.0
  0
LINE
  5
DDE
330
1F
100
AcDbEntity
  8
0
  6
Continuous
 62
     7
100
AcDbLine
 10
230.1117972682073
 20
454.780291236998
 30
0.0
 11
222.1117972682075
 21
454.780291236998
 31
0.0
  0
LINE
  5
DDF
330
1F
100
AcDbEntity
  8
0
  6
Continuous
 62
     7
100
AcDbLine
 10
222.1115532682077
 20
470.2802912369979
 30
0.0
 11
223.7887992682076
 21
470.2802912369979
 31
0.0
  0
LINE
  5
DE0
330
1F
100
AcDbEntity
  8
0
  6
Continuous
 62
     7
100
AcDbLine
 10
222.1115532682077
 20
467.280291236998
 30
0.0
 11
223.7887992682076
 21
467.280291236998
 31
0.0
  0
LINE
  5
DE1
330
1F
100
AcDbEntity
  8
0
100
AcDbLine
 10
225.1117972682075
 20
466.7802912369979
 30
0.0
 11
222.6115532682078
 21
466.7802912369979
 31
0.0
  0
LINE
  5
DE2
330
1F
100
AcDbEntity
  8
0
  6
Continuous
 62
     7
100
AcDbLine
 10
247.6120412682072
 20
455.280291236998
 30
0.0
 11
247.6120412682072
 21
466.7802912369979
 31
0.0
  0
LINE
  5
DE3
330
1F
100
AcDbEntity
  8
0
  6
Continuous
 62
     7
100
AcDbLine
 10
248.1120412682074
 20
467.280291236998
 30
0.0
 11
248.1120412682074
 21
454.780291236998
 31
0.0
  0
LINE
  5
DE4
330
1F
100
AcDbEntity
  8
0
  6
Continuous
 62
     7
100
AcDbLine
 10
247.6120412682072
 20
455.280291236998
 30
0.0
 11
240.1117972682074
 21
455.280291236998
 31
0.0
  0
LINE
  5
DE5
330
1F
100
AcDbEntity
  8
0
  6
Continuous
 62
     7
100
AcDbLine
 10
248.1120412682074
 20
454.780291236998
 30
0.0
 11
240.1117972682074
 21
454.780291236998
 31
0.0
  0
LINE
  5
DE6
330
1F
100
AcDbEntity
  8
0
100
AcDbLine
 10
245.1117972682075
 20
466.7802912369979
 30
0.0
 11
247.6120412682072
 21
466.7802912369979
 31
0.0
  0
LINE
  5
DE7
330
1F
100
AcDbEntity
  8
0
  6
Continuous
 62
     7
100
AcDbLine
 10
248.1120412682074
 20
467.280291236998
 30
0.0
 11
246.4347952682074
 21
467.280291236998
 31
0.0
  0
LINE
  5
DE8
330
1F
100
AcDbEntity
  8
0
  6
Continuous
 62
     7
100
AcDbLine
 10
248.1120412682074
 20
470.2802912369979
 30
0.0
 11
246.4347952682074
 21
470.2802912369979
 31
0.0
  0
DIMENSION
  5
E07
330
1F
100
AcDbEntity
  8
AM_5
100
AcDbDimension
  2
*D3
 10
230.1117972682075
 20
545.7802912369979
 30
0.0
 11
250.0495133033324
 21
545.7802912369979
 31
0.0
 70
   160
  1
<>
 71
     5
 42
10.0
  3
AM_ISO$0
100
AcDbAlignedDimension
 13
240.1117972682075
 23
533.7802912369979
 33
0.0
 14
230.1117972682075
 24
533.7802912369979
 34
0.0
100
AcDbRotatedDimension
1001
GENIUS_GENDTOL_13
1000
TolAcTol
1000

1000

1040
10.0
1001
ACAD
1000
DSTYLE
1002
{
1070
    47
1040
-0.005
1070
    48
1040
0.025
1070
    71
1070
     1
1070
   272
1070
     3
1002
}
  0
LINE
  5
E08
330
1F
100
AcDbEntity
  8
0
  6
Continuous
 62
     7
100
AcDbLine
 10
230.1117972682075
 20
485.6802852369979
 30
0.0
 11
230.1117972682075
 21
533.7802912369979
 31
0.0
  0
LINE
  5
E09
330
1F
100
AcDbEntity
  8
0
  6
Continuous
 62
     7
100
AcDbLine
 10
240.1117972682075
 20
485.6802852369979
 30
0.0
 11
240.1117972682075
 21
533.7802912369979
 31
0.0
  0
ARC
  5
E0A
330
1F
100
AcDbEntity
  8
0
  6
Continuous
 62
     7
100
AcDbCircle
 10
225.1117972682075
 20
488.780291236998
 30
0.0
 40
2.0
100
AcDbArc
 50
228.5904200000036
 51
131.4096179999973
  0
ARC
  5
E0B
330
1F
100
AcDbEntity
  8
0
  6
Continuous
 62
     7
100
AcDbCircle
 10
245.1117972682075
 20
488.780291236998
 30
0.0
 40
2.0
100
AcDbArc
 50
48.59038200000267
 51
311.4095799999964
  0
LINE
  5
E0C
330
1F
100
AcDbEntity
  8
AM_7
100
AcDbLine
 10
248.9963192682073
 20
478.7802912369979
 30
0.0
 11
221.2062802682074
 21
478.7802912369979
 31
0.0
  0
LINE
  5
E0D
330
1F
100
AcDbEntity
  8
0
100
AcDbLine
 10
240.1117972682075
 20
470.8802972369979
 30
0.0
 11
230.1117972682074
 21
470.8802972369979
 31
0.0
  0
LINE
  5
E0E
330
1F
100
AcDbEntity
  8
0
100
AcDbLine
 10
240.1117972682075
 20
471.880297236998
 30
0.0
 11
230.1117972682073
 21
471.880297236998
 31
0.0
  0
LINE
  5
E0F
330
1F
100
AcDbEntity
  8
0
100
AcDbLine
 10
240.1117972682075
 20
486.6802852369979
 30
0.0
 11
230.1117972682074
 21
486.6802852369979
 31
0.0
  0
LINE
  5
E10
330
1F
100
AcDbEntity
  8
0
100
AcDbLine
 10
240.1117972682075
 20
485.6802852369979
 30
0.0
 11
230.1117972682075
 21
485.6802852369979
 31
0.0
  0
LINE
  5
E11
330
1F
100
AcDbEntity
  8
AM_7
100
AcDbLine
 10
224.9118462682075
 20
473.0636851101909
 30
0.0
 11
224.9118462682075
 21
483.4190995731561
 31
0.0
  0
LINE
  5
E12
330
1F
100
AcDbEntity
  8
0
  6
Continuous
 62
     7
100
AcDbLine
 10
222.4118462682075
 20
484.780291236998
 30
0.0
 11
222.4118462682075
 21
472.780291236998
 31
0.0
  0
CIRCLE
  5
E13
330
1F
100
AcDbEntity
  8
0
100
AcDbCircle
 10
224.9118462682075
 20
478.7802912369979
 30
0.0
 40
2.5
  0
LINE
  5
E14
330
1F
100
AcDbEntity
  8
0
  6
Continuous
 62
     7
100
AcDbLine
 10
222.4089462682076
 20
472.7799712369978
 30
0.0
 11
222.1088982682076
 21
472.4799372369978
 31
0.0
  0
LINE
  5
E15
330
1F
100
AcDbEntity
  8
0
100
AcDbLine
 10
225.1117972682075
 20
470.7802912369979
 30
0.0
 11
222.1115532682077
 21
470.7802912369979
 31
0.0
  0
POINT
  5
E16
330
1F
100
AcDbEntity
  8
Center
100
AcDbPoint
 10
235.1115532682074
 20
478.7802912369979
 30
0.0
  0
LINE
  5
E17
330
1F
100
AcDbEntity
  8
0
  6
Continuous
 62
     7
100
AcDbLine
 10
222.4089462682076
 20
484.7806112369982
 30
0.0
 11
222.1088982682076
 21
485.0806452369981
 31
0.0
  0
LINE
  5
E18
330
1F
100
AcDbEntity
  8
0
  6
Continuous
 62
     7
100
AcDbLine
 10
222.1115532682078
 20
485.0803402369982
 30
0.0
 11
222.1115532682079
 21
487.2802912369982
 31
0.0
  0
LINE
  5
E19
330
1F
100
AcDbEntity
  8
0
  6
Continuous
 62
     7
100
AcDbLine
 10
222.1115532682077
 20
487.2802912369979
 30
0.0
 11
223.7887992682076
 21
487.2802912369979
 31
0.0
  0
LINE
  5
E1A
330
1F
100
AcDbEntity
  8
0
100
AcDbLine
 10
225.1117972682075
 20
486.7802912369979
 30
0.0
 11
222.1115532682077
 21
486.7802912369979
 31
0.0
  0
LINE
  5
E1B
330
1F
100
AcDbEntity
  8
AM_7
100
AcDbLine
 10
245.3117482682076
 20
473.0636851101909
 30
0.0
 11
245.3117482682076
 21
483.4190995731561
 31
0.0
  0
LINE
  5
E1C
330
1F
100
AcDbEntity
  8
0
  6
Continuous
 62
     7
100
AcDbLine
 10
247.8119932682075
 20
472.780291236998
 30
0.0
 11
247.8119932682075
 21
484.780291236998
 31
0.0
  0
CIRCLE
  5
E1D
330
1F
100
AcDbEntity
  8
0
100
AcDbCircle
 10
245.3117482682076
 20
478.7802912369979
 30
0.0
 40
2.5
  0
LINE
  5
E1E
330
1F
100
AcDbEntity
  8
0
  6
Continuous
 62
     7
100
AcDbLine
 10
247.8146482682075
 20
472.7799712369979
 30
0.0
 11
248.1146962682076
 21
472.479937236998
 31
0.0
  0
LINE
  5
E1F
330
1F
100
AcDbEntity
  8
0
100
AcDbLine
 10
245.1117972682075
 20
470.7802912369979
 30
0.0
 11
248.1120412682074
 21
470.7802912369979
 31
0.0
  0
LINE
  5
E20
330
1F
100
AcDbEntity
  8
0
  6
Continuous
 62
     7
100
AcDbLine
 10
248.1120412682074
 20
485.080340236998
 30
0.0
 11
248.1120412682074
 21
487.2802912369979
 31
0.0
  0
LINE
  5
E21
330
1F
100
AcDbEntity
  8
0
  6
Continuous
 62
     7
100
AcDbLine
 10
247.8146482682075
 20
484.7806112369979
 30
0.0
 11
248.1146962682076
 21
485.0806452369979
 31
0.0
  0
LINE
  5
E22
330
1F
100
AcDbEntity
  8
0
100
AcDbLine
 10
245.1117972682075
 20
486.7802912369979
 30
0.0
 11
248.1120412682074
 21
486.7802912369979
 31
0.0
  0
LINE
  5
E23
330
1F
100
AcDbEntity
  8
0
  6
Continuous
 62
     7
100
AcDbLine
 10
248.1120412682074
 20
487.2802912369979
 30
0.0
 11
246.4347952682074
 21
487.2802912369979
 31
0.0
  0
LINE
  5
E24
330
1F
100
AcDbEntity
  8
0
  6
Continuous
 62
     7
100
AcDbLine
 10
222.6115532682078
 20
502.2802912369979
 30
0.0
 11
222.6115532682078
 21
490.7802912369979
 31
0.0
  0
LINE
  5
E25
330
1F
100
AcDbEntity
  8
0
  6
Continuous
 62
     7
100
AcDbLine
 10
222.1117972682075
 20
502.7802912369979
 30
0.0
 11
222.1117972682075
 21
490.2802912369979
 31
0.0
  0
LINE
  5
E26
330
1F
100
AcDbEntity
  8
0
  6
Continuous
 62
     7
100
AcDbLine
 10
222.1115532682077
 20
490.2802912369979
 30
0.0
 11
223.7887992682076
 21
490.2802912369979
 31
0.0
  0
LINE
  5
E27
330
1F
100
AcDbEntity
  8
0
100
AcDbLine
 10
225.1117972682075
 20
490.7802912369979
 30
0.0
 11
222.6115532682078
 21
490.7802912369979
 31
0.0
  0
LINE
  5
E28
330
1F
100
AcDbEntity
  8
0
  6
Continuous
 62
     7
100
AcDbLine
 10
230.1117972682074
 20
502.7802912369979
 30
0.0
 11
222.1117972682075
 21
502.7802912369979
 31
0.0
  0
LINE
  5
E29
330
1F
100
AcDbEntity
  8
0
  6
Continuous
 62
     7
100
AcDbLine
 10
230.1117972682076
 20
502.2802912369979
 30
0.0
 11
222.6115532682078
 21
502.2802912369979
 31
0.0
  0
LINE
  5
E2A
330
1F
100
AcDbEntity
  8
0
  6
Continuous
 62
     7
100
AcDbLine
 10
247.6120412682072
 20
502.2802912369979
 30
0.0
 11
247.6120412682072
 21
490.7802912369979
 31
0.0
  0
LINE
  5
E2B
330
1F
100
AcDbEntity
  8
0
  6
Continuous
 62
     7
100
AcDbLine
 10
248.1120412682074
 20
502.7802912369979
 30
0.0
 11
248.1120412682074
 21
490.2802912369979
 31
0.0
  0
LINE
  5
E2C
330
1F
100
AcDbEntity
  8
0
  6
Continuous
 62
     7
100
AcDbLine
 10
248.1120412682074
 20
490.2802912369979
 30
0.0
 11
246.4347952682074
 21
490.2802912369979
 31
0.0
  0
LINE
  5
E2D
330
1F
100
AcDbEntity
  8
0
100
AcDbLine
 10
245.1117972682075
 20
490.7802912369979
 30
0.0
 11
247.6120412682072
 21
490.7802912369979
 31
0.0
  0
LINE
  5
E2E
330
1F
100
AcDbEntity
  8
0
  6
Continuous
 62
     7
100
AcDbLine
 10
248.1120412682074
 20
502.7802912369979
 30
0.0
 11
240.1117972682074
 21
502.7802912369979
 31
0.0
  0
LINE
  5
E2F
330
1F
100
AcDbEntity
  8
0
  6
Continuous
 62
     7
100
AcDbLine
 10
247.6120412682072
 20
502.2802912369979
 30
0.0
 11
240.1117972682076
 21
502.2802912369979
 31
0.0
  0
DIMENSION
  5
E31
330
1F
100
AcDbEntity
  8
AM_5
100
AcDbDimension
  2
*D5
 10
218.1117972682075
 20
533.7802912369979
 30
0.0
 11
215.6617972682074
 21
531.280291236998
 31
0.0
 70
    32
 71
     5
 42
5.0
  3
AM_ISO$0
100
AcDbAlignedDimension
 13
232.1091122682076
 23
528.7802912369979
 33
0.0
 14
230.1117972682075
 24
533.7802912369979
 34
0.0
 50
90.0
100
AcDbRotatedDimension
  0
DIMENSION
  5
E32
330
1F
100
AcDbEntity
  8
AM_5
100
AcDbDimension
  2
*D6
 10
218.1117972682075
 20
519.7802912369979
 30
0.0
 11
215.6617972682074
 21
524.2802912369979
 31
0.0
 70
    32
 71
     5
 42
9.0
  3
AM_ISO$0
100
AcDbAlignedDimension
 13
223.3275883773824
 23
528.7802912369979
 33
0.0
 14
231.7580382682074
 24
519.7802912369979
 34
0.0
 50
90.0
100
AcDbRotatedDimension
  0
LINE
  5
E34
330
1F
100
AcDbEntity
  8
AM_7
100
AcDbLine
 10
238.1493952682074
 20
519.7802912369979
 30
0.0
 11
231.7580382682074
 21
519.7802912369979
 31
0.0
  0
LINE
  5
E36
330
1F
100
AcDbEntity
  8
0
  6
Continuous
 62
     7
100
AcDbLine
 10
240.1117972682075
 20
533.7802912369979
 30
0.0
 11
230.1117972682075
 21
533.7802912369979
 31
0.0
  0
LINE
  5
E37
330
1F
100
AcDbEntity
  8
AM_7
100
AcDbLine
 10
238.2900202682074
 20
528.7802912369979
 30
0.0
 11
232.1091122682076
 21
528.7802912369979
 31
0.0
  0
LINE
  5
E4C
330
1F
100
AcDbEntity
  8
AM_7
100
AcDbLine
 10
401.9738815651026
 20
358.7154897426413
 30
0.0
 11
310.2685585651026
 21
358.7154897426413
 31
0.0
  0
LINE
  5
E4D
102
{ACAD_REACTORS
330
1A09
102
}
330
1F
100
AcDbEntity
  8
0
  6
Continuous
 62
     7
100
AcDbLine
 10
398.6323285651026
 20
345.7154747426413
 30
0.0
 11
315.1323285651026
 21
345.7154747426413
 31
0.0
  0
LINE
  5
E4F
330
1F
100
AcDbEntity
  8
0
  6
Continuous
 62
     7
100
AcDbLine
 10
335.1323285651026
 20
353.7154747426413
 30
0.0
 11
314.7321825651027
 21
353.7154747426413
 31
0.0
  0
LINE
  5
E50
330
1F
100
AcDbEntity
  8
0
  6
Continuous
 62
     7
100
AcDbLine
 10
315.1323285651026
 20
345.7154747426413
 30
0.0
 11
315.1323285651026
 21
353.7154747426413
 31
0.0
  0
LINE
  5
E51
330
1F
100
AcDbEntity
  8
0
  6
Continuous
 62
     7
100
AcDbLine
 10
315.1323285651026
 20
346.2154747426413
 30
0.0
 11
312.6323285651026
 21
346.2154747426413
 31
0.0
  0
LINE
  5
E52
330
1F
100
AcDbEntity
  8
0
  6
Continuous
 62
     7
100
AcDbLine
 10
315.1323285651026
 20
353.4154257426413
 30
0.0
 11
312.6323285651026
 21
353.4154257426413
 31
0.0
  0
LINE
  5
E53
102
{ACAD_REACTORS
330
19E3
102
}
330
1F
100
AcDbEntity
  8
AM_7
100
AcDbLine
 10
394.6882365651027
 20
352.7154747426413
 30
0.0
 11
386.4101605651026
 21
352.7154747426413
 31
0.0
  0
LINE
  5
E5A
102
{ACAD_REACTORS
330
1A09
330
1A2F
102
}
330
1F
100
AcDbEntity
  8
AM_7
100
AcDbLine
 10
390.6323285651026
 20
357.1673937426413
 30
0.0
 11
390.6323285651026
 21
348.2643027426413
 31
0.0
  0
POINT
  5
E5D
330
1F
100
AcDbEntity
  8
0
  6
Continuous
 62
     7
100
AcDbPoint
 10
398.6323285651026
 20
358.7154897426413
 30
0.0
  0
LINE
  5
E8E
330
1F
100
AcDbEntity
  8
0
  6
Continuous
 62
     7
100
AcDbLine
 10
465.106133552905
 20
502.7802912369979
 30
0.0
 11
465.106133552905
 21
533.7802912369979
 31
0.0
  0
LINE
  5
E8F
330
1F
100
AcDbEntity
  8
0
  6
Continuous
 62
     7
100
AcDbLine
 10
455.106133552905
 20
502.7802912369979
 30
0.0
 11
455.106133552905
 21
533.7802912369979
 31
0.0
  0
LINE
  5
E90
330
1F
100
AcDbEntity
  8
AM_7
100
AcDbLine
 10
460.106133552905
 20
535.1819022369979
 30
0.0
 11
460.106133552905
 21
423.0108822369979
 31
0.0
  0
LINE
  5
E91
330
1F
100
AcDbEntity
  8
0
  6
Continuous
 62
     7
100
AcDbLine
 10
333.6320845651027
 20
502.7802912369979
 30
0.0
 11
333.6320845651027
 21
533.7802912369979
 31
0.0
  0
ARC
  5
E93
330
1F
100
AcDbEntity
  8
0
  6
Continuous
 62
     7
100
AcDbCircle
 10
329.6320845651027
 20
496.780291236998
 30
0.0
 40
14.900002
100
AcDbArc
 50
110.2374499999992
 51
156.2539099999983
  0
DIMENSION
  5
E96
330
1F
100
AcDbEntity
  8
AM_5
100
AcDbDimension
  2
*D7
 10
312.6323285651026
 20
408.3366759084416
 30
0.0
 11
355.6323285651026
 21
410.7866759084416
 31
0.0
 70
    32
 71
     5
 42
86.0
  3
AM_ISO$0
100
AcDbAlignedDimension
 13
398.6323285651026
 23
417.3206105243917
 33
0.0
 14
312.6323285651026
 24
455.280291236998
 34
0.0
100
AcDbRotatedDimension
1001
ACAD
1000
DSTYLE
1002
{
1070
   272
1070
     8
1002
}
  0
DIMENSION
  5
E97
330
1F
100
AcDbEntity
  8
AM_5
100
AcDbDimension
  2
*D8
 10
329.6320845651027
 20
416.3366759084416
 30
0.0
 11
364.1322065651027
 21
418.7866759084416
 31
0.0
 70
    32
 71
     5
 42
69.00024399999995
  3
AM_ISO$0
100
AcDbAlignedDimension
 13
398.6323285651026
 23
425.1425287915505
 33
0.0
 14
329.6320845651027
 24
452.4104182369979
 34
0.0
100
AcDbRotatedDimension
  0
DIMENSION
  5
E98
330
1F
100
AcDbEntity
  8
AM_5
100
AcDbDimension
  2
*D9
 10
347.6325725651026
 20
424.3366759084416
 30
0.0
 11
373.1324505651026
 21
426.7866759084416
 31
0.0
 70
    32
 71
     5
 42
50.99975600000004
  3
AM_ISO$0
100
AcDbAlignedDimension
 13
398.6323285651026
 23
433.5901990285097
 33
0.0
 14
347.6325725651026
 24
457.362322236998
 34
0.0
100
AcDbRotatedDimension
  0
DIMENSION
  5
E99
330
1F
100
AcDbEntity
  8
AM_5
100
AcDbDimension
  2
*D10
 10
280.5519225651026
 20
423.780169236998
 30
0.0
 11
278.1019225651025
 21
442.280230236998
 31
0.0
 70
    32
 71
     5
 42
37.00012199999998
  3
AM_ISO$0
100
AcDbAlignedDimension
 13
280.7189902100404
 23
460.7802912369979
 33
0.0
 14
325.6320845651027
 24
423.780169236998
 34
0.0
 50
90.0
100
AcDbRotatedDimension
1001
ACAD
1000
DSTYLE
1002
{
1070
   272
1070
     8
1002
}
  0
LINE
  5
E9A
330
1F
100
AcDbEntity
  8
0
  6
Continuous
 62
     7
100
AcDbLine
 10
333.6320845651027
 20
454.780291236998
 30
0.0
 11
333.6320845651027
 21
423.780169236998
 31
0.0
  0
LINE
  5
E9B
330
1F
100
AcDbEntity
  8
0
  6
Continuous
 62
     7
100
AcDbLine
 10
325.6320845651027
 20
446.4801202369979
 30
0.0
 11
325.6320845651027
 21
423.780169236998
 31
0.0
  0
DIMENSION
  5
E9C
330
1F
100
AcDbEntity
  8
AM_5
100
AcDbDimension
  2
*D11
 10
398.6323285651026
 20
432.3366759084416
 30
0.0
 11
386.1323285651026
 21
434.7870203966306
 31
0.0
 70
    32
 71
     5
 42
25.0
  3
AM_ISO$0
100
AcDbAlignedDimension
 13
373.6323285651026
 23
456.889178236998
 33
0.0
 14
398.6323285651026
 24
454.780291236998
 34
0.0
100
AcDbRotatedDimension
  0
LINE
  5
E9D
330
1F
100
AcDbEntity
  8
0
  6
Continuous
 62
     7
100
AcDbLine
 10
398.6323285651026
 20
371.7154747426413
 30
0.0
 11
315.1323285651026
 21
371.7154747426413
 31
0.0
  0
LINE
  5
E9F
330
1F
100
AcDbEntity
  8
0
  6
Continuous
 62
     7
100
AcDbLine
 10
335.1323285651026
 20
363.7154747426413
 30
0.0
 11
314.7321825651027
 21
363.7154747426413
 31
0.0
  0
LINE
  5
EA0
330
1F
100
AcDbEntity
  8
0
  6
Continuous
 62
     7
100
AcDbLine
 10
315.1323285651026
 20
363.7154747426413
 30
0.0
 11
315.1323285651026
 21
371.7154747426413
 31
0.0
  0
LINE
  5
EA1
330
1F
100
AcDbEntity
  8
0
  6
Continuous
 62
     7
100
AcDbLine
 10
315.1323285651026
 20
364.0155237426413
 30
0.0
 11
312.6323285651026
 21
364.0155237426413
 31
0.0
  0
LINE
  5
EA2
330
1F
100
AcDbEntity
  8
0
  6
Continuous
 62
     7
100
AcDbLine
 10
315.1323285651026
 20
371.2154747426413
 30
0.0
 11
312.6323285651026
 21
371.2154747426413
 31
0.0
  0
LINE
  5
EA7
330
1F
100
AcDbEntity
  8
0
  6
Continuous
 62
     7
100
AcDbLine
 10
325.6320845651027
 20
423.780169236998
 30
0.0
 11
333.6320845651027
 21
423.780169236998
 31
0.0
  0
LINE
  5
EAB
102
{ACAD_REACTORS
330
19E3
102
}
330
1F
100
AcDbEntity
  8
AM_7
100
AcDbLine
 10
363.4033245651026
 20
364.7154747426413
 30
0.0
 11
354.0500535651026
 21
364.7154747426413
 31
0.0
  0
LINE
  5
EAC
330
1F
100
AcDbEntity
  8
0
  6
Continuous
 62
     7
100
AcDbLine
 10
398.6323285651026
 20
502.7802912369979
 30
0.0
 11
315.1323285651026
 21
502.7802912369979
 31
0.0
  0
LINE
  5
EAD
330
1F
100
AcDbEntity
  8
0
  6
Continuous
 62
     7
100
AcDbLine
 10
398.6323285651026
 20
490.2802912369979
 30
0.0
 11
315.1323285651026
 21
490.2802912369979
 31
0.0
  0
LINE
  5
EAE
330
1F
100
AcDbEntity
  8
0
  6
Continuous
 62
     7
100
AcDbLine
 10
398.6323285651026
 20
487.2802912369979
 30
0.0
 11
315.1323285651026
 21
487.2802912369979
 31
0.0
  0
LINE
  5
EAF
330
1F
100
AcDbEntity
  8
0
  6
Continuous
 62
     7
100
AcDbLine
 10
398.6323285651026
 20
454.780291236998
 30
0.0
 11
315.1323285651026
 21
454.780291236998
 31
0.0
  0
LINE
  5
EB0
330
1F
100
AcDbEntity
  8
0
  6
Continuous
 62
     7
100
AcDbLine
 10
398.6323285651026
 20
467.280291236998
 30
0.0
 11
315.1323285651026
 21
467.280291236998
 31
0.0
  0
LINE
  5
EB1
330
1F
100
AcDbEntity
  8
0
  6
Continuous
 62
     7
100
AcDbLine
 10
398.6323285651026
 20
470.2802912369979
 30
0.0
 11
315.1323285651026
 21
470.2802912369979
 31
0.0
  0
LINE
  5
EB2
330
1F
100
AcDbEntity
  8
0
  6
Continuous
 62
     7
100
AcDbLine
 10
315.1323285651026
 20
472.780291236998
 30
0.0
 11
398.6323285651026
 21
472.780291236998
 31
0.0
  0
LINE
  5
EB3
330
1F
100
AcDbEntity
  8
0
  6
Continuous
 62
     7
100
AcDbLine
 10
315.1323285651026
 20
484.780291236998
 30
0.0
 11
398.6323285651026
 21
484.780291236998
 31
0.0
  0
LINE
  5
EB4
330
1F
100
AcDbEntity
  8
0
  6
Continuous
 62
     7
100
AcDbLine
 10
315.1323285651026
 20
472.480242236998
 30
0.0
 11
398.6323285651026
 21
472.480242236998
 31
0.0
  0
LINE
  5
EB5
330
1F
100
AcDbEntity
  8
0
  6
Continuous
 62
     7
100
AcDbLine
 10
315.1323285651026
 20
485.0803402369979
 30
0.0
 11
398.6323285651026
 21
485.0803402369979
 31
0.0
  0
DIMENSION
  5
EB6
330
1F
100
AcDbEntity
  8
AM_5
100
AcDbDimension
  2
*D12
 10
280.5519225651026
 20
460.7802912369979
 30
0.0
 11
278.1019225651025
 21
478.780291236998
 31
0.0
 70
    32
 71
     5
 42
36.0
  3
AM_ISO$0
100
AcDbAlignedDimension
 13
325.6320845651027
 23
496.780291236998
 33
0.0
 14
325.6320845651027
 24
460.7802912369979
 34
0.0
 50
90.0
100
AcDbRotatedDimension
1001
ACAD
1000
DSTYLE
1002
{
1070
   272
1070
     8
1002
}
  0
LINE
  5
EB8
330
1F
100
AcDbEntity
  8
0
  6
Continuous
 62
     7
100
AcDbLine
 10
315.1323285651026
 20
502.7802912369979
 30
0.0
 11
315.1323285651026
 21
454.780291236998
 31
0.0
  0
LINE
  5
EB9
330
1F
100
AcDbEntity
  8
0
  6
Continuous
 62
     7
100
AcDbLine
 10
312.6323285651026
 20
455.280291236998
 30
0.0
 11
312.6323285651026
 21
502.2802912369979
 31
0.0
  0
LINE
  5
EBA
330
1F
100
AcDbEntity
  8
0
  6
PHANTOM
 62
     2
100
AcDbLine
 10
312.6310695651026
 20
457.2240852369979
 30
0.0
 11
293.0386625651026
 21
457.7371322369979
 31
0.0
  0
LINE
  5
EBB
330
1F
100
AcDbEntity
  8
0
  6
PHANTOM
 62
     2
100
AcDbLine
 10
312.6310845651026
 20
465.2268322369979
 30
0.0
 11
293.2480815651027
 21
465.734393236998
 31
0.0
  0
LINE
  5
EBC
330
1F
100
AcDbEntity
  8
AM_7
100
AcDbLine
 10
320.1323205651026
 20
461.0290322369979
 30
0.0
 11
291.1616335651027
 21
461.7876532369979
 31
0.0
  0
LINE
  5
EBD
330
1F
100
AcDbEntity
  8
0
  6
PHANTOM
 62
     2
100
AcDbLine
 10
292.7351655651026
 20
465.2476522369979
 30
0.0
 11
292.5519225651026
 21
458.2500482369979
 31
0.0
  0
ARC
  5
EBE
330
1F
100
AcDbEntity
  8
0
  6
PHANTOM
 62
     2
100
AcDbCircle
 10
294.5918015651026
 20
459.6971762369979
 30
0.0
 40
2.5
100
AcDbArc
 50
215.3698149999977
 51
231.6300370000029
  0
ARC
  5
EBF
330
1F
100
AcDbEntity
  8
0
  6
PHANTOM
 62
     2
100
AcDbCircle
 10
294.6967815651026
 20
463.695803236998
 30
0.0
 40
2.5
100
AcDbArc
 50
125.3698160000039
 51
141.6300379999972
  0
ARC
  5
EC0
330
1F
100
AcDbEntity
  8
0
  6
Continuous
 62
     7
100
AcDbCircle
 10
329.6320845651027
 20
460.7802912369979
 30
0.0
 40
14.900002
100
AcDbArc
 50
203.7461449999989
 51
249.7624949999967
  0
LINE
  5
EC1
330
1F
100
AcDbEntity
  8
0
  6
Continuous
 62
     7
100
AcDbLine
 10
315.1323285651026
 20
455.280291236998
 30
0.0
 11
312.6323285651026
 21
455.280291236998
 31
0.0
  0
ARC
  5
EC2
330
1F
100
AcDbEntity
  8
0
  6
Continuous
 62
     7
100
AcDbCircle
 10
324.1320845651027
 20
445.8617122369979
 30
0.0
 40
1.0
100
AcDbArc
 50
38.20221100000047
 51
69.76256900000234
  0
LINE
  5
EC3
330
1F
100
AcDbEntity
  8
0
  6
Continuous
 62
     7
100
AcDbLine
 10
324.9179735651027
 20
446.4801202369979
 30
0.0
 11
325.6320845651027
 21
446.4801202369979
 31
0.0
  0
LINE
  5
EC4
330
1F
100
AcDbEntity
  8
0
  6
Continuous
 62
     7
100
AcDbLine
 10
315.1323285651026
 20
466.6802852369979
 30
0.0
 11
312.6323285651026
 21
466.6802852369979
 31
0.0
  0
LINE
  5
EC5
330
1F
100
AcDbEntity
  8
0
  6
Continuous
 62
     7
100
AcDbLine
 10
315.1323285651026
 20
470.8802972369979
 30
0.0
 11
312.6323285651026
 21
470.8802972369979
 31
0.0
  0
CIRCLE
  5
EC7
330
1F
100
AcDbEntity
  8
0
  6
Continuous
 62
     7
100
AcDbCircle
 10
329.6320845651027
 20
460.7802912369979
 30
0.0
 40
2.0
  0
LINE
  5
EC8
330
1F
100
AcDbEntity
  8
0
  6
PHANTOM
 62
     2
100
AcDbLine
 10
312.6315735651026
 20
500.3365962369979
 30
0.0
 11
293.0389215651027
 21
499.8235342369979
 31
0.0
  0
LINE
  5
EC9
330
1F
100
AcDbEntity
  8
0
  6
PHANTOM
 62
     2
100
AcDbLine
 10
312.6313445651026
 20
492.3338342369979
 30
0.0
 11
293.2483415651026
 21
491.8262812369979
 31
0.0
  0
LINE
  5
ECA
330
1F
100
AcDbEntity
  8
AM_7
100
AcDbLine
 10
320.1323365651026
 20
496.531603236998
 30
0.0
 11
291.1618925651027
 21
495.7729822369979
 31
0.0
  0
ARC
  5
ECB
330
1F
100
AcDbEntity
  8
0
  6
PHANTOM
 62
     2
100
AcDbCircle
 10
294.6967815651026
 20
493.864794236998
 30
0.0
 40
2.5
100
AcDbArc
 50
218.3699620000027
 51
234.6301839999961
  0
LINE
  5
ECC
330
1F
100
AcDbEntity
  8
0
  6
PHANTOM
 62
     2
100
AcDbLine
 10
292.7354245651027
 20
492.3130212369979
 30
0.0
 11
292.5521815651026
 21
499.310625236998
 31
0.0
  0
ARC
  5
ECD
330
1F
100
AcDbEntity
  8
0
  6
PHANTOM
 62
     2
100
AcDbCircle
 10
294.5918015651026
 20
497.8633902369979
 30
0.0
 40
2.5
100
AcDbArc
 50
128.369962999997
 51
144.6301850000023
  0
LINE
  5
ECE
330
1F
100
AcDbEntity
  8
0
  6
Continuous
 62
     7
100
AcDbLine
 10
315.1323285651026
 20
490.8802972369979
 30
0.0
 11
312.6323285651026
 21
490.8802972369979
 31
0.0
  0
LINE
  5
ECF
330
1F
100
AcDbEntity
  8
0
  6
Continuous
 62
     7
100
AcDbLine
 10
315.1323285651026
 20
486.6802852369979
 30
0.0
 11
312.6323285651026
 21
486.6802852369979
 31
0.0
  0
LINE
  5
ED0
330
1F
100
AcDbEntity
  8
0
  6
Continuous
 62
     7
100
AcDbLine
 10
315.1323285651026
 20
502.2802912369979
 30
0.0
 11
312.6323285651026
 21
502.2802912369979
 31
0.0
  0
CIRCLE
  5
ED2
330
1F
100
AcDbEntity
  8
0
  6
Continuous
 62
     7
100
AcDbCircle
 10
329.6320845651027
 20
496.780291236998
 30
0.0
 40
2.0
  0
DIMENSION
  5
ED4
330
1F
100
AcDbEntity
  8
AM_5
100
AcDbDimension
  2
*D13
 10
410.6323285651026
 20
460.7802912369979
 30
0.0
 11
408.1823285651025
 21
478.780291236998
 31
0.0
 70
    32
 71
     5
 42
36.0
  3
AM_ISO$0
100
AcDbAlignedDimension
 13
378.2836955651025
 23
496.780291236998
 33
0.0
 14
378.2836955651025
 24
460.7802912369979
 34
0.0
 50
90.0
100
AcDbRotatedDimension
1001
ACAD
1000
DSTYLE
1002
{
1070
   272
1070
     8
1002
}
  0
LINE
  5
ED5
330
1F
100
AcDbEntity
  8
0
  6
Continuous
 62
     7
100
AcDbLine
 10
398.6323285651026
 20
502.7802912369979
 30
0.0
 11
398.6323285651026
 21
454.780291236998
 31
0.0
  0
CIRCLE
  5
EDE
330
1F
100
AcDbEntity
  8
0
  6
Continuous
 62
     7
100
AcDbCircle
 10
373.6320845651027
 20
460.7802912369979
 30
0.0
 40
2.75
  0
CIRCLE
  5
EE5
102
{ACAD_REACTORS
330
1999
102
}
330
1F
100
AcDbEntity
  8
0
  6
Continuous
 62
     7
100
AcDbCircle
 10
373.6320845651027
 20
496.780291236998
 30
0.0
 40
2.75
  0
POINT
  5
EE8
330
1F
100
AcDbEntity
  8
0
  6
Continuous
 62
     7
100
AcDbPoint
 10
398.6323285651026
 20
478.7802912369979
 30
0.0
  0
DIMENSION
  5
EE9
330
1F
100
AcDbEntity
  8
AM_5
100
AcDbDimension
  2
*D14
 10
447.106133552905
 20
403.7801692369979
 30
0.0
 11
460.1062555529049
 21
406.2305137251869
 31
0.0
 70
    32
 71
     5
 42
26.00024399999984
  3
AM_ISO$0
100
AcDbAlignedDimension
 13
473.1063775529048
 23
454.780291236998
 33
0.0
 14
447.106133552905
 24
454.780291236998
 34
0.0
100
AcDbRotatedDimension
  0
DIMENSION
  5
EEA
330
1F
100
AcDbEntity
  8
AM_5
100
AcDbDimension
  2
*D15
 10
468.1063775529048
 20
411.780169236998
 30
0.0
 11
460.1062555529049
 21
414.2301692369979
 31
0.0
 70
    32
 71
     5
 42
16.00024399999984
  3
AM_ISO$0
100
AcDbAlignedDimension
 13
452.106133552905
 23
456.162127236998
 33
0.0
 14
468.1063775529048
 24
494.5315122369979
 34
0.0
100
AcDbRotatedDimension
  0
LINE
  5
EEB
330
1F
100
AcDbEntity
  8
0
  6
Continuous
 62
     7
100
AcDbLine
 10
465.106133552905
 20
454.780291236998
 30
0.0
 11
465.106133552905
 21
423.780169236998
 31
0.0
  0
LINE
  5
EEC
330
1F
100
AcDbEntity
  8
0
  6
Continuous
 62
     7
100
AcDbLine
 10
455.106133552905
 20
454.780291236998
 30
0.0
 11
455.106133552905
 21
423.780169236998
 31
0.0
  0
LINE
  5
EF2
330
1F
100
AcDbEntity
  8
0
  6
Continuous
 62
     7
100
AcDbLine
 10
465.106133552905
 20
423.780169236998
 30
0.0
 11
455.106133552905
 21
423.780169236998
 31
0.0
  0
LINE
  5
EF3
330
1F
100
AcDbEntity
  8
AM_7
100
AcDbLine
 10
463.2843565529049
 20
428.7801692369979
 30
0.0
 11
457.103448552905
 21
428.7801692369979
 31
0.0
  0
DIMENSION
  5
EF4
330
1F
100
AcDbEntity
  8
AM_5
100
AcDbDimension
  2
*D16
 10
493.9906555529048
 20
454.780291236998
 30
0.0
 11
491.5406555529048
 21
478.780291236998
 31
0.0
 70
    32
 71
     5
 42
48.0
  3
AM_ISO$0
100
AcDbAlignedDimension
 13
473.1063775529048
 23
502.7802912369979
 33
0.0
 14
473.1063775529048
 24
454.780291236998
 34
0.0
 50
90.0
100
AcDbRotatedDimension
  0
DIMENSION
  5
EF7
330
1F
100
AcDbEntity
  8
AM_5
100
AcDbDimension
  2
*D17
 10
485.9906555529049
 20
459.780291236998
 30
0.0
 11
483.5406555529048
 21
478.780291236998
 31
0.0
 70
    32
 71
     5
 42
38.0
  3
AM_ISO$0
100
AcDbAlignedDimension
 13
471.306084552905
 23
497.780291236998
 33
0.0
 14
463.106133552905
 24
459.780291236998
 34
0.0
 50
90.0
100
AcDbRotatedDimension
  0
CIRCLE
  5
EF8
330
1F
100
AcDbEntity
  8
0
  6
Continuous
 62
     7
100
AcDbCircle
 10
460.1058895529049
 20
478.7802912369979
 30
0.0
 40
10.5
  0
LINE
  5
EF9
330
1F
100
AcDbEntity
  8
0
  6
Continuous
 62
     7
100
AcDbLine
 10
447.4061825529049
 20
484.780291236998
 30
0.0
 11
447.4061825529049
 21
472.780291236998
 31
0.0
  0
LINE
  5
EFA
330
1F
100
AcDbEntity
  8
0
  6
Continuous
 62
     7
100
AcDbLine
 10
472.806329552905
 20
472.780291236998
 30
0.0
 11
472.806329552905
 21
484.780291236998
 31
0.0
  0
LINE
  5
EFB
330
1F
100
AcDbEntity
  8
0
  6
Continuous
 62
     7
100
AcDbLine
 10
473.1063775529048
 20
467.280291236998
 30
0.0
 11
473.1063775529048
 21
454.780291236998
 31
0.0
  0
LINE
  5
EFC
330
1F
100
AcDbEntity
  8
0
  6
Continuous
 62
     7
100
AcDbLine
 10
447.106133552905
 20
467.280291236998
 30
0.0
 11
447.106133552905
 21
454.780291236998
 31
0.0
  0
LINE
  5
EFD
330
1F
100
AcDbEntity
  8
0
  6
Continuous
 62
     7
100
AcDbLine
 10
473.1063775529048
 20
454.780291236998
 30
0.0
 11
447.106133552905
 21
454.780291236998
 31
0.0
  0
LINE
  5
EFE
330
1F
100
AcDbEntity
  8
AM_7
100
AcDbLine
 10
463.1437315529049
 20
437.7801692369979
 30
0.0
 11
456.7523745529049
 21
437.7801692369979
 31
0.0
  0
LINE
  5
F01
330
1F
100
AcDbEntity
  8
AM_7
100
AcDbLine
 10
455.5153135529051
 20
459.780291236998
 30
0.0
 11
448.4794245529049
 21
459.780291236998
 31
0.0
  0
LINE
  5
F02
330
1F
100
AcDbEntity
  8
AM_7
100
AcDbLine
 10
452.106133552905
 20
463.3857602369979
 30
0.0
 11
452.106133552905
 21
456.162127236998
 31
0.0
  0
POINT
  5
F03
330
1F
100
AcDbEntity
  8
0
  6
Continuous
 62
     7
100
AcDbPoint
 10
452.105889552905
 20
468.780291236998
 30
0.0
  0
LINE
  5
F04
330
1F
100
AcDbEntity
  8
0
  6
Continuous
 62
     7
100
AcDbLine
 10
447.106133552905
 20
472.480242236998
 30
0.0
 11
447.106133552905
 21
470.2802912369979
 31
0.0
  0
LINE
  5
F05
330
1F
100
AcDbEntity
  8
0
  6
Continuous
 62
     7
100
AcDbLine
 10
447.409081552905
 20
472.7808562369979
 30
0.0
 11
447.1090325529051
 21
472.4808222369979
 31
0.0
  0
LINE
  5
F06
330
1F
100
AcDbEntity
  8
0
  6
Continuous
 62
     7
100
AcDbLine
 10
447.106133552905
 20
470.2802912369979
 30
0.0
 11
448.7833795529049
 21
470.2802912369979
 31
0.0
  0
LINE
  5
F07
330
1F
100
AcDbEntity
  8
0
  6
Continuous
 62
     7
100
AcDbLine
 10
447.106133552905
 20
467.280291236998
 30
0.0
 11
448.7833795529049
 21
467.280291236998
 31
0.0
  0
ARC
  5
F08
330
1F
100
AcDbEntity
  8
0
  6
Continuous
 62
     7
100
AcDbCircle
 10
450.1058895529049
 20
468.780291236998
 30
0.0
 40
2.0
100
AcDbArc
 50
228.5903778907308
 51
131.4096221092692
  0
LINE
  5
F09
330
1F
100
AcDbEntity
  8
0
  6
Continuous
 62
     7
100
AcDbLine
 10
462.1061335529049
 20
460.280291236998
 30
0.0
 11
462.1061335529049
 21
459.280291236998
 31
0.0
  0
LINE
  5
F0A
330
1F
100
AcDbEntity
  8
0
  6
Continuous
 62
     7
100
AcDbLine
 10
458.1061335529049
 20
460.280291236998
 30
0.0
 11
458.1061335529049
 21
459.280291236998
 31
0.0
  0
ARC
  5
F0B
330
1F
100
AcDbEntity
  8
0
  6
Continuous
 62
     7
100
AcDbCircle
 10
460.1058895529049
 20
459.280291236998
 30
0.0
 40
2.0
100
AcDbArc
 50
180.000036
 51
359.9999819999991
  0
ARC
  5
F0C
330
1F
100
AcDbEntity
  8
0
  6
Continuous
 62
     7
100
AcDbCircle
 10
460.1058895529049
 20
460.280291236998
 30
0.0
 40
2.0
100
AcDbArc
 50
359.9999990000002
 51
179.9999639999999
  0
LINE
  5
F0D
330
1F
100
AcDbEntity
  8
AM_7
100
AcDbLine
 10
463.106133552905
 20
459.780291236998
 30
0.0
 11
457.106133552905
 21
459.780291236998
 31
0.0
  0
LINE
  5
F0E
330
1F
100
AcDbEntity
  8
0
  6
Continuous
 62
     7
100
AcDbLine
 10
473.1063775529048
 20
470.2802912369979
 30
0.0
 11
473.1063775529048
 21
472.480242236998
 31
0.0
  0
ARC
  5
F0F
330
1F
100
AcDbEntity
  8
0
  6
Continuous
 62
     7
100
AcDbCircle
 10
470.106133552905
 20
468.780291236998
 30
0.0
 40
2.0
100
AcDbArc
 50
48.59038200000267
 51
311.4095799999964
  0
LINE
  5
F10
330
1F
100
AcDbEntity
  8
0
  6
Continuous
 62
     7
100
AcDbLine
 10
473.1088495529049
 20
472.4806392369979
 30
0.0
 11
472.8088015529049
 21
472.7806882369979
 31
0.0
  0
LINE
  5
F11
330
1F
100
AcDbEntity
  8
0
  6
Continuous
 62
     7
100
AcDbLine
 10
473.1063775529048
 20
470.2802912369979
 30
0.0
 11
471.4291315529049
 21
470.2802912369979
 31
0.0
  0
LINE
  5
F12
330
1F
100
AcDbEntity
  8
0
  6
Continuous
 62
     7
100
AcDbLine
 10
473.1063775529048
 20
467.280291236998
 30
0.0
 11
471.4291315529049
 21
467.280291236998
 31
0.0
  0
LINE
  5
F13
330
1F
100
AcDbEntity
  8
0
  6
Continuous
 62
     7
100
AcDbLine
 10
473.1063775529048
 20
502.7802912369979
 30
0.0
 11
473.1063775529048
 21
490.2802912369979
 31
0.0
  0
LINE
  5
F14
330
1F
100
AcDbEntity
  8
0
  6
Continuous
 62
     7
100
AcDbLine
 10
447.106133552905
 20
502.7802912369979
 30
0.0
 11
447.106133552905
 21
490.2802912369979
 31
0.0
  0
LINE
  5
F15
330
1F
100
AcDbEntity
  8
AM_7
100
AcDbLine
 10
473.9906555529048
 20
478.7802912369979
 30
0.0
 11
446.2006165529048
 21
478.7802912369979
 31
0.0
  0
POINT
  5
F16
330
1F
100
AcDbEntity
  8
0
  6
Continuous
 62
     7
100
AcDbPoint
 10
452.105889552905
 20
488.780291236998
 30
0.0
  0
LINE
  5
F17
330
1F
100
AcDbEntity
  8
0
  6
Continuous
 62
     7
100
AcDbLine
 10
447.1090325529051
 20
485.080996236998
 30
0.0
 11
447.409081552905
 21
484.780947236998
 31
0.0
  0
LINE
  5
F18
330
1F
100
AcDbEntity
  8
0
  6
Continuous
 62
     7
100
AcDbLine
 10
447.106133552905
 20
490.2802912369979
 30
0.0
 11
448.7833795529049
 21
490.2802912369979
 31
0.0
  0
LINE
  5
F19
330
1F
100
AcDbEntity
  8
0
  6
Continuous
 62
     7
100
AcDbLine
 10
447.106133552905
 20
487.2802912369979
 30
0.0
 11
448.7833795529049
 21
487.2802912369979
 31
0.0
  0
LINE
  5
F1A
330
1F
100
AcDbEntity
  8
0
  6
Continuous
 62
     7
100
AcDbLine
 10
447.106133552905
 20
487.2802912369979
 30
0.0
 11
447.106133552905
 21
485.0803402369979
 31
0.0
  0
ARC
  5
F1B
330
1F
100
AcDbEntity
  8
0
  6
Continuous
 62
     7
100
AcDbCircle
 10
450.1058895529049
 20
488.780291236998
 30
0.0
 40
2.0
100
AcDbArc
 50
224.4264279999987
 51
135.5671250000012
  0
POINT
  5
F1C
330
1F
100
AcDbEntity
  8
AM_7
100
AcDbPoint
 10
460.1058895529049
 20
478.7802912369979
 30
0.0
  0
LINE
  5
F1D
330
1F
100
AcDbEntity
  8
0
  6
Continuous
 62
     7
100
AcDbLine
 10
473.1063775529048
 20
485.0803402369979
 30
0.0
 11
473.1063775529048
 21
487.2802912369979
 31
0.0
  0
ARC
  5
F1E
330
1F
100
AcDbEntity
  8
0
  6
Continuous
 62
     7
100
AcDbCircle
 10
470.106133552905
 20
488.780291236998
 30
0.0
 40
2.0
100
AcDbArc
 50
48.59038200000267
 51
311.4095799999964
  0
LINE
  5
F1F
330
1F
100
AcDbEntity
  8
0
  6
Continuous
 62
     7
100
AcDbLine
 10
472.808984552905
 20
484.7806112369979
 30
0.0
 11
473.109032552905
 21
485.0806452369979
 31
0.0
  0
LINE
  5
F20
330
1F
100
AcDbEntity
  8
0
  6
Continuous
 62
     7
100
AcDbLine
 10
473.1063775529048
 20
490.2802912369979
 30
0.0
 11
471.4291315529049
 21
490.2802912369979
 31
0.0
  0
LINE
  5
F21
330
1F
100
AcDbEntity
  8
0
  6
Continuous
 62
     7
100
AcDbLine
 10
473.1063775529048
 20
487.2802912369979
 30
0.0
 11
471.4291315529049
 21
487.2802912369979
 31
0.0
  0
LINE
  5
F22
330
1F
100
AcDbEntity
  8
0
  6
Continuous
 62
     7
100
AcDbLine
 10
473.1063775529048
 20
502.7802912369979
 30
0.0
 11
447.106133552905
 21
502.7802912369979
 31
0.0
  0
LINE
  5
F23
330
1F
100
AcDbEntity
  8
AM_7
100
AcDbLine
 10
471.306084552905
 20
497.780291236998
 30
0.0
 11
464.7389465529049
 21
497.780291236998
 31
0.0
  0
LINE
  5
F26
330
1F
100
AcDbEntity
  8
AM_7
100
AcDbLine
 10
468.1063775529048
 20
501.0046562369979
 30
0.0
 11
468.1063775529048
 21
494.5315122369979
 31
0.0
  0
DIMENSION
  5
F2E
330
1F
100
AcDbEntity
  8
AM_5
100
AcDbDimension
  2
*D18
 10
410.6323285651026
 20
568.780291236998
 30
0.0
 11
408.1823285651025
 21
576.280275736998
 31
0.0
 70
    32
 71
     5
 42
14.99996899999996
  3
AM_ISO$0
100
AcDbAlignedDimension
 13
360.7590375651026
 23
583.7802602369979
 33
0.0
 14
362.6323285651026
 24
568.780291236998
 34
0.0
 50
90.0
100
AcDbRotatedDimension
1001
ACAD
1000
DSTYLE
1002
{
1070
   272
1070
     8
1002
}
  0
LINE
  5
F2F
330
1F
100
AcDbEntity
  8
0
  6
Continuous
 62
     7
100
AcDbLine
 10
312.6323285651026
 20
589.2802602369979
 30
0.0
 11
312.6323285651026
 21
564.2802602369979
 31
0.0
  0
LINE
  5
F30
330
1F
100
AcDbEntity
  8
0
  6
Continuous
 62
     7
100
AcDbLine
 10
315.1323285651026
 20
581.7802602369979
 30
0.0
 11
315.1323285651026
 21
589.7802602369979
 31
0.0
  0
LINE
  5
F31
330
1F
100
AcDbEntity
  8
AM_7
100
AcDbLine
 10
356.6323285651026
 20
566.057604236998
 30
0.0
 11
356.6323285651026
 21
587.569811236998
 31
0.0
  0
LINE
  5
F32
330
1F
100
AcDbEntity
  8
AM_7
100
AcDbLine
 10
329.6320845651027
 20
562.033190236998
 30
0.0
 11
329.6320845651027
 21
591.3881712369979
 31
0.0
  0
LINE
  5
F35
330
1F
100
AcDbEntity
  8
0
  6
Continuous
 62
     7
100
AcDbLine
 10
398.6323285651026
 20
563.7802602369979
 30
0.0
 11
398.6323285651026
 21
589.7802602369979
 31
0.0
  0
LINE
  5
F36
330
1F
100
AcDbEntity
  8
AM_7
100
AcDbLine
 10
401.9738815651026
 20
576.7802602369979
 30
0.0
 11
312.1865275651027
 21
576.7802602369979
 31
0.0
  0
LINE
  5
F37
330
1F
100
AcDbEntity
  8
0
  6
Continuous
 62
     7
100
AcDbLine
 10
398.6323285651026
 20
563.7802602369979
 30
0.0
 11
315.1323285651026
 21
563.7802602369979
 31
0.0
  0
LINE
  5
F38
330
1F
100
AcDbEntity
  8
0
  6
Continuous
 62
     7
100
AcDbLine
 10
325.6320845651027
 20
511.0803402369979
 30
0.0
 11
325.6320845651027
 21
533.7802912369979
 31
0.0
  0
ARC
  5
F39
330
1F
100
AcDbEntity
  8
0
  6
Continuous
 62
     7
100
AcDbCircle
 10
324.1320845651027
 20
511.6987482369979
 30
0.0
 40
1.0
100
AcDbArc
 50
290.2374309999977
 51
321.7977859999975
  0
LINE
  5
F3A
330
1F
100
AcDbEntity
  8
0
  6
Continuous
 62
     7
100
AcDbLine
 10
324.9179735651027
 20
511.0803402369979
 30
0.0
 11
325.6320845651027
 21
511.0803402369979
 31
0.0
  0
LINE
  5
F3B
330
1F
100
AcDbEntity
  8
0
  6
Continuous
 62
     7
100
AcDbLine
 10
325.6320845651027
 20
533.7802912369979
 30
0.0
 11
333.6320845651027
 21
533.7802912369979
 31
0.0
  0
LINE
  5
F3C
330
1F
100
AcDbEntity
  8
0
  6
Continuous
 62
     7
100
AcDbLine
 10
315.1323285651026
 20
563.7802602369979
 30
0.0
 11
315.1323285651026
 21
571.7802602369979
 31
0.0
  0
LINE
  5
F3D
330
1F
100
AcDbEntity
  8
0
  6
Continuous
 62
     7
100
AcDbLine
 10
315.1323285651026
 20
564.2802602369979
 30
0.0
 11
312.6323285651026
 21
564.2802602369979
 31
0.0
  0
LINE
  5
F3E
330
1F
100
AcDbEntity
  8
0
  6
Continuous
 62
     7
100
AcDbLine
 10
335.1320845651027
 20
581.7802602369979
 30
0.0
 11
314.7321825651027
 21
581.7802602369979
 31
0.0
  0
LINE
  5
F3F
330
1F
100
AcDbEntity
  8
0
  6
Continuous
 62
     7
100
AcDbLine
 10
335.1320845651027
 20
571.7802602369979
 30
0.0
 11
314.7321825651027
 21
571.7802602369979
 31
0.0
  0
LINE
  5
F40
330
1F
100
AcDbEntity
  8
0
  6
Continuous
 62
     7
100
AcDbLine
 10
314.7321825651027
 20
571.7802602369979
 30
0.0
 11
314.7321825651027
 21
581.7802602369979
 31
0.0
  0
LINE
  5
F41
330
1F
100
AcDbEntity
  8
0
  6
Continuous
 62
     7
100
AcDbLine
 10
315.1323285651026
 20
571.480212236998
 30
0.0
 11
312.6323285651026
 21
571.480212236998
 31
0.0
  0
LINE
  5
F42
330
1F
100
AcDbEntity
  8
0
  6
Continuous
 62
     7
100
AcDbLine
 10
315.1323285651026
 20
582.0803092369979
 30
0.0
 11
312.6323285651026
 21
582.0803092369979
 31
0.0
  0
LINE
  5
F43
330
1F
100
AcDbEntity
  8
0
  6
Continuous
 62
     7
100
AcDbLine
 10
335.1320845651027
 20
571.7802602369979
 30
0.0
 11
335.1320845651027
 21
581.7802602369979
 31
0.0
  0
LINE
  5
F44
330
1F
100
AcDbEntity
  8
0
  6
Continuous
 62
     7
100
AcDbLine
 10
333.6323285651026
 20
571.7802602369979
 30
0.0
 11
333.6323285651026
 21
581.7802602369979
 31
0.0
  0
LINE
  5
F45
330
1F
100
AcDbEntity
  8
0
  6
Continuous
 62
     7
100
AcDbLine
 10
325.6320845651027
 20
571.7802602369979
 30
0.0
 11
325.6320845651027
 21
581.7802602369979
 31
0.0
  0
LINE
  5
F4B
330
1F
100
AcDbEntity
  8
AM_7
100
AcDbLine
 10
360.4741255651027
 20
569.7802602369979
 30
0.0
 11
352.2109415651026
 21
569.7802602369979
 31
0.0
  0
POINT
  5
F4E
330
1F
100
AcDbEntity
  8
0
  6
Continuous
 62
     7
100
AcDbPoint
 10
398.6323285651026
 20
576.7802602369979
 30
0.0
  0
LINE
  5
F4F
330
1F
100
AcDbEntity
  8
0
  6
Continuous
 62
     7
100
AcDbLine
 10
398.6323285651026
 20
589.7802602369979
 30
0.0
 11
315.1323285651026
 21
589.7802602369979
 31
0.0
  0
LINE
  5
F50
330
1F
100
AcDbEntity
  8
0
  6
Continuous
 62
     7
100
AcDbLine
 10
315.1323285651026
 20
589.2802602369979
 30
0.0
 11
312.6323285651026
 21
589.2802602369979
 31
0.0
  0
DIMENSION
  5
F51
330
1F
100
AcDbEntity
  8
AM_5
100
AcDbDimension
  2
*D19
 10
398.6323285651026
 20
601.7802602369979
 30
0.0
 11
377.6323285651026
 21
604.2306047251869
 31
0.0
 70
    32
 71
     5
 42
42.0
  3
AM_ISO$0
100
AcDbAlignedDimension
 13
356.6323285651026
 23
587.569811236998
 33
0.0
 14
398.6323285651026
 24
589.7802602369979
 34
0.0
100
AcDbRotatedDimension
1001
ACAD
1000
DSTYLE
1002
{
1070
   272
1070
     8
1002
}
  0
LINE
  5
F55
330
1F
100
AcDbEntity
  8
AM_7
100
AcDbLine
 10
360.7590375651026
 20
583.7802602369979
 30
0.0
 11
351.9260295651027
 21
583.7802602369979
 31
0.0
  0
LINE
  5
F64
330
1F
100
AcDbEntity
  8
AM_7
100
AcDbLine
 10
463.1437315529049
 20
519.7802912369979
 30
0.0
 11
456.7523745529049
 21
519.7802912369979
 31
0.0
  0
LINE
  5
F67
330
1F
100
AcDbEntity
  8
0
  6
Continuous
 62
     7
100
AcDbLine
 10
465.106133552905
 20
533.7802912369979
 30
0.0
 11
455.106133552905
 21
533.7802912369979
 31
0.0
  0
LINE
  5
F68
330
1F
100
AcDbEntity
  8
AM_7
100
AcDbLine
 10
463.2843565529049
 20
528.7802912369979
 30
0.0
 11
457.103448552905
 21
528.7802912369979
 31
0.0
  0
LINE
  5
11E2
330
1F
100
AcDbEntity
  8
AM_7
100
AcDbLine
 10
310.6323285651026
 20
478.7802912369979
 30
0.0
 11
400.6323285651026
 21
478.7802912369979
 31
0.0
1001
GENIUS_GENODEF_13
1002
{
1000
HIER
1070
     0
1002
}
1002
{
1000
MANEDIT
1070
     0
1002
}
1002
{
1000
NOSEL
1070
     0
1002
}
1002
{
1000
BEHIND
1070
     0
1002
}
1002
{
1000
OTHER
1070
     0
1002
}
1002
{
1000
REACTOR
1002
}
1001
GENIUS_GENOBJ-N-CEN_13
1002
{
1000
OWNER
1000
GEN
1002
}
1001
GENIUS_GENCEN_19
1002
{
1040
2.0
1002
}
  0
LINE
  5
17A5
330
1F
100
AcDbEntity
  8
AM_7
  6
AM_ISO08W050x2
100
AcDbLine
 10
329.6320845651027
 20
460.7802912369979
 30
0.0
 11
333.6320845651027
 21
460.7802912369979
 31
0.0
1001
GENIUS_GENOREF_13
1005
17A9
  0
LINE
  5
17A6
330
1F
100
AcDbEntity
  8
AM_7
  6
AM_ISO08W050x2
100
AcDbLine
 10
329.6320845651027
 20
460.7802912369979
 30
0.0
 11
329.6320845651027
 21
464.7802912369979
 31
0.0
1001
GENIUS_GENOREF_13
1005
17A9
  0
LINE
  5
17A7
330
1F
100
AcDbEntity
  8
AM_7
  6
AM_ISO08W050x2
100
AcDbLine
 10
329.6320845651027
 20
460.7802912369979
 30
0.0
 11
325.6320845651027
 21
460.7802912369979
 31
0.0
1001
GENIUS_GENOREF_13
1005
17A9
  0
LINE
  5
17A8
330
1F
100
AcDbEntity
  8
AM_7
  6
AM_ISO08W050x2
100
AcDbLine
 10
329.6320845651027
 20
460.7802912369979
 30
0.0
 11
329.6320845651027
 21
456.7802912369979
 31
0.0
1001
GENIUS_GENOREF_13
1005
17A9
  0
POINT
  5
17A9
330
1F
100
AcDbEntity
  8
0
 60
     1
100
AcDbPoint
 10
0.0
 20
0.0
 30
0.0
1001
GENIUS_GENOENT_13
1002
{
1000
MYREF
1005
17A9
1002
}
1002
{
1000
GRP
1005
0
1002
}
1001
GENIUS_GENODEF_13
1002
{
1000
HIER
1070
    10
1002
}
1002
{
1000
MANEDIT
1070
     0
1002
}
1002
{
1000
NOSEL
1070
     0
1002
}
1002
{
1000
BEHIND
1070
     0
1002
}
1002
{
1000
OTHER
1070
     0
1002
}
1002
{
1000
REACTOR
1002
}
1001
GENIUS_GENOLIS_13
1002
{
1000
ENT
1005
17A8
1005
17A7
1005
17A6
1005
17A5
1002
}
1001
GENIUS_GENOBJ-N-CRS_13
1002
{
1000
OWNER
1000
GEN
1002
}
  0
LINE
  5
17B7
330
1F
100
AcDbEntity
  8
AM_7
  6
AM_ISO08W050x2
100
AcDbLine
 10
347.6323285651026
 20
460.7802912369979
 30
0.0
 11
352.1323285651026
 21
460.7802912369979
 31
0.0
1001
GENIUS_GENOREF_13
1005
17BB
  0
LINE
  5
17B8
330
1F
100
AcDbEntity
  8
AM_7
  6
AM_ISO08W050x2
100
AcDbLine
 10
347.6323285651026
 20
460.7802912369979
 30
0.0
 11
347.6323285651026
 21
465.2802912369979
 31
0.0
1001
GENIUS_GENOREF_13
1005
17BB
  0
LINE
  5
17B9
330
1F
100
AcDbEntity
  8
AM_7
  6
AM_ISO08W050x2
100
AcDbLine
 10
347.6323285651026
 20
460.7802912369979
 30
0.0
 11
343.1323285651026
 21
460.7802912369979
 31
0.0
1001
GENIUS_GENOREF_13
1005
17BB
  0
LINE
  5
17BA
330
1F
100
AcDbEntity
  8
AM_7
  6
AM_ISO08W050x2
100
AcDbLine
 10
347.6323285651026
 20
460.7802912369979
 30
0.0
 11
347.6323285651026
 21
456.280291236998
 31
0.0
1001
GENIUS_GENOREF_13
1005
17BB
  0
POINT
  5
17BB
330
1F
100
AcDbEntity
  8
0
 60
     1
100
AcDbPoint
 10
0.0
 20
0.0
 30
0.0
1001
GENIUS_GENOLIS_13
1002
{
1000
ENT
1005
17BA
1005
17B9
1005
17B8
1005
17B7
1002
}
1001
GENIUS_GENOENT_13
1002
{
1000
MYREF
1005
17BB
1002
}
1002
{
1000
GRP
1005
0
1002
}
1001
GENIUS_GENODEF_13
1002
{
1000
HIER
1070
    10
1002
}
1002
{
1000
MANEDIT
1070
     0
1002
}
1002
{
1000
NOSEL
1070
     0
1002
}
1002
{
1000
BEHIND
1070
     0
1002
}
1002
{
1000
OTHER
1070
     0
1002
}
1002
{
1000
REACTOR
1002
}
1001
GENIUS_GENOBJ-N-CRS_13
1002
{
1000
OWNER
1000
GEN
1002
}
  0
LINE
  5
17C9
330
1F
100
AcDbEntity
  8
AM_7
  6
AM_ISO08W050x2
100
AcDbLine
 10
373.6320845651027
 20
460.7802912369979
 30
0.0
 11
378.3820845651027
 21
460.7802912369979
 31
0.0
1001
GENIUS_GENOREF_13
1005
17CD
  0
LINE
  5
17CA
330
1F
100
AcDbEntity
  8
AM_7
  6
AM_ISO08W050x2
100
AcDbLine
 10
373.6320845651027
 20
460.7802912369979
 30
0.0
 11
373.6320845651027
 21
465.530291236998
 31
0.0
1001
GENIUS_GENOREF_13
1005
17CD
  0
LINE
  5
17CB
330
1F
100
AcDbEntity
  8
AM_7
  6
AM_ISO08W050x2
100
AcDbLine
 10
373.6320845651027
 20
460.7802912369979
 30
0.0
 11
368.8820845651027
 21
460.7802912369979
 31
0.0
1001
GENIUS_GENOREF_13
1005
17CD
  0
LINE
  5
17CC
330
1F
100
AcDbEntity
  8
AM_7
  6
AM_ISO08W050x2
100
AcDbLine
 10
373.6320845651027
 20
460.7802912369979
 30
0.0
 11
373.6320845651027
 21
456.0302912369979
 31
0.0
1001
GENIUS_GENOREF_13
1005
17CD
  0
POINT
  5
17CD
330
1F
100
AcDbEntity
  8
0
 60
     1
100
AcDbPoint
 10
0.0
 20
0.0
 30
0.0
1001
GENIUS_GENOLIS_13
1002
{
1000
ENT
1005
17CC
1005
17CB
1005
17CA
1005
17C9
1002
}
1001
GENIUS_GENOENT_13
1002
{
1000
MYREF
1005
17CD
1002
}
1002
{
1000
GRP
1005
0
1002
}
1001
GENIUS_GENODEF_13
1002
{
1000
HIER
1070
    10
1002
}
1002
{
1000
MANEDIT
1070
     0
1002
}
1002
{
1000
NOSEL
1070
     0
1002
}
1002
{
1000
BEHIND
1070
     0
1002
}
1002
{
1000
OTHER
1070
     0
1002
}
1002
{
1000
REACTOR
1002
}
1001
GENIUS_GENOBJ-N-CRS_13
1002
{
1000
OWNER
1000
GEN
1002
}
  0
LINE
  5
17DB
330
1F
100
AcDbEntity
  8
AM_7
  6
AM_ISO08W050x2
100
AcDbLine
 10
373.6320845651027
 20
496.780291236998
 30
0.0
 11
378.3820845651027
 21
496.780291236998
 31
0.0
1001
GENIUS_GENOREF_13
1005
17DF
  0
LINE
  5
17DC
330
1F
100
AcDbEntity
  8
AM_7
  6
AM_ISO08W050x2
100
AcDbLine
 10
373.6320845651027
 20
496.780291236998
 30
0.0
 11
373.6320845651027
 21
501.5302912369979
 31
0.0
1001
GENIUS_GENOREF_13
1005
17DF
  0
LINE
  5
17DD
330
1F
100
AcDbEntity
  8
AM_7
  6
AM_ISO08W050x2
100
AcDbLine
 10
373.6320845651027
 20
496.780291236998
 30
0.0
 11
368.8820845651027
 21
496.780291236998
 31
0.0
1001
GENIUS_GENOREF_13
1005
17DF
  0
LINE
  5
17DE
330
1F
100
AcDbEntity
  8
AM_7
  6
AM_ISO08W050x2
100
AcDbLine
 10
373.6320845651027
 20
496.780291236998
 30
0.0
 11
373.6320845651027
 21
492.0302912369979
 31
0.0
1001
GENIUS_GENOREF_13
1005
17DF
  0
POINT
  5
17DF
330
1F
100
AcDbEntity
  8
0
 60
     1
100
AcDbPoint
 10
0.0
 20
0.0
 30
0.0
1001
GENIUS_GENODEF_13
1002
{
1000
HIER
1070
    10
1002
}
1002
{
1000
MANEDIT
1070
     0
1002
}
1002
{
1000
NOSEL
1070
     0
1002
}
1002
{
1000
BEHIND
1070
     0
1002
}
1002
{
1000
OTHER
1070
     0
1002
}
1002
{
1000
REACTOR
1002
}
1001
GENIUS_GENOLIS_13
1002
{
1000
ENT
1005
17DE
1005
17DD
1005
17DC
1005
17DB
1002
}
1001
GENIUS_GENOENT_13
1002
{
1000
MYREF
1005
17DF
1002
}
1002
{
1000
GRP
1005
0
1002
}
1001
GENIUS_GENOBJ-N-CRS_13
1002
{
1000
OWNER
1000
GEN
1002
}
  0
LINE
  5
17ED
330
1F
100
AcDbEntity
  8
AM_7
  6
AM_ISO08W050x2
100
AcDbLine
 10
347.6323285651026
 20
496.780291236998
 30
0.0
 11
352.1323285651026
 21
496.780291236998
 31
0.0
1001
GENIUS_GENOREF_13
1005
17F1
  0
LINE
  5
17EE
330
1F
100
AcDbEntity
  8
AM_7
  6
AM_ISO08W050x2
100
AcDbLine
 10
347.6323285651026
 20
496.780291236998
 30
0.0
 11
347.6323285651026
 21
501.280291236998
 31
0.0
1001
GENIUS_GENOREF_13
1005
17F1
  0
LINE
  5
17EF
330
1F
100
AcDbEntity
  8
AM_7
  6
AM_ISO08W050x2
100
AcDbLine
 10
347.6323285651026
 20
496.780291236998
 30
0.0
 11
343.1323285651026
 21
496.780291236998
 31
0.0
1001
GENIUS_GENOREF_13
1005
17F1
  0
LINE
  5
17F0
330
1F
100
AcDbEntity
  8
AM_7
  6
AM_ISO08W050x2
100
AcDbLine
 10
347.6323285651026
 20
496.780291236998
 30
0.0
 11
347.6323285651026
 21
492.280291236998
 31
0.0
1001
GENIUS_GENOREF_13
1005
17F1
  0
POINT
  5
17F1
330
1F
100
AcDbEntity
  8
0
 60
     1
100
AcDbPoint
 10
0.0
 20
0.0
 30
0.0
1001
GENIUS_GENOENT_13
1002
{
1000
MYREF
1005
17F1
1002
}
1002
{
1000
GRP
1005
0
1002
}
1001
GENIUS_GENODEF_13
1002
{
1000
HIER
1070
    10
1002
}
1002
{
1000
MANEDIT
1070
     0
1002
}
1002
{
1000
NOSEL
1070
     0
1002
}
1002
{
1000
BEHIND
1070
     0
1002
}
1002
{
1000
OTHER
1070
     0
1002
}
1002
{
1000
REACTOR
1002
}
1001
GENIUS_GENOLIS_13
1002
{
1000
ENT
1005
17F0
1005
17EF
1005
17EE
1005
17ED
1002
}
1001
GENIUS_GENOBJ-N-CRS_13
1002
{
1000
OWNER
1000
GEN
1002
}
  0
LINE
  5
17FF
330
1F
100
AcDbEntity
  8
AM_7
  6
AM_ISO08W050x2
100
AcDbLine
 10
329.6320845651027
 20
496.780291236998
 30
0.0
 11
333.6320845651027
 21
496.780291236998
 31
0.0
1001
GENIUS_GENOREF_13
1005
1803
  0
LINE
  5
1800
330
1F
100
AcDbEntity
  8
AM_7
  6
AM_ISO08W050x2
100
AcDbLine
 10
329.6320845651027
 20
496.780291236998
 30
0.0
 11
329.6320845651027
 21
500.780291236998
 31
0.0
1001
GENIUS_GENOREF_13
1005
1803
  0
LINE
  5
1801
330
1F
100
AcDbEntity
  8
AM_7
  6
AM_ISO08W050x2
100
AcDbLine
 10
329.6320845651027
 20
496.780291236998
 30
0.0
 11
325.6320845651027
 21
496.780291236998
 31
0.0
1001
GENIUS_GENOREF_13
1005
1803
  0
LINE
  5
1802
330
1F
100
AcDbEntity
  8
AM_7
  6
AM_ISO08W050x2
100
AcDbLine
 10
329.6320845651027
 20
496.780291236998
 30
0.0
 11
329.6320845651027
 21
492.780291236998
 31
0.0
1001
GENIUS_GENOREF_13
1005
1803
  0
POINT
  5
1803
330
1F
100
AcDbEntity
  8
0
 60
     1
100
AcDbPoint
 10
0.0
 20
0.0
 30
0.0
1001
GENIUS_GENOLIS_13
1002
{
1000
ENT
1005
1802
1005
1801
1005
1800
1005
17FF
1002
}
1001
GENIUS_GENOENT_13
1002
{
1000
MYREF
1005
1803
1002
}
1002
{
1000
GRP
1005
0
1002
}
1001
GENIUS_GENOBJ-N-CRS_13
1002
{
1000
OWNER
1000
GEN
1002
}
1001
GENIUS_GENODEF_13
1002
{
1000
HIER
1070
    10
1002
}
1002
{
1000
MANEDIT
1070
     0
1002
}
1002
{
1000
NOSEL
1070
     0
1002
}
1002
{
1000
BEHIND
1070
     0
1002
}
1002
{
1000
OTHER
1070
     0
1002
}
1002
{
1000
REACTOR
1002
}
  0
ARC
  5
1804
330
1F
100
AcDbEntity
  8
AM_4
100
AcDbCircle
 10
356.6323285651026
 20
583.7802602369979
 30
0.0
 40
2.5
100
AcDbArc
 50
260.0000000000014
 51
169.9999999999981
  0
CIRCLE
  5
1805
330
1F
100
AcDbEntity
  8
AM_0
100
AcDbCircle
 10
356.6323285651026
 20
583.7802602369979
 30
0.0
 40
2.066987298107819
  0
ARC
  5
1806
330
1F
100
AcDbEntity
  8
AM_4
100
AcDbCircle
 10
356.6323285651026
 20
569.7802602369979
 30
0.0
 40
2.5
100
AcDbArc
 50
260.0000000000014
 51
169.9999999999981
  0
CIRCLE
  5
1807
330
1F
100
AcDbEntity
  8
AM_0
100
AcDbCircle
 10
356.6323285651026
 20
569.7802602369979
 30
0.0
 40
2.066987298107819
  0
ARC
  5
1808
330
1F
100
AcDbEntity
  8
AM_4
100
AcDbCircle
 10
347.6323285651026
 20
496.780291236998
 30
0.0
 40
2.5
100
AcDbArc
 50
260.0000000000014
 51
169.9999999999981
  0
CIRCLE
  5
1809
330
1F
100
AcDbEntity
  8
AM_0
100
AcDbCircle
 10
347.6323285651026
 20
496.780291236998
 30
0.0
 40
2.066987298107819
  0
ARC
  5
180A
330
1F
100
AcDbEntity
  8
AM_4
100
AcDbCircle
 10
347.6323285651026
 20
460.7802912369979
 30
0.0
 40
2.5
100
AcDbArc
 50
260.0000000000014
 51
169.9999999999981
  0
CIRCLE
  5
180B
330
1F
100
AcDbEntity
  8
AM_0
100
AcDbCircle
 10
347.6323285651026
 20
460.7802912369979
 30
0.0
 40
2.066987298107819
  0
ARC
  5
180C
330
1F
100
AcDbEntity
  8
AM_4
100
AcDbCircle
 10
358.6323285651026
 20
364.7154747426413
 30
0.0
 40
2.5
100
AcDbArc
 50
260.0000000000014
 51
169.9999999999981
  0
CIRCLE
  5
180D
330
1F
100
AcDbEntity
  8
AM_0
100
AcDbCircle
 10
358.6323285651026
 20
364.7154747426413
 30
0.0
 40
2.066987298107819
  0
ARC
  5
180E
330
1F
100
AcDbEntity
  8
AM_4
100
AcDbCircle
 10
390.6323285651026
 20
352.7158482426413
 30
0.0
 40
2.5
100
AcDbArc
 50
260.0000000000014
 51
169.9999999999981
  0
CIRCLE
  5
180F
330
1F
100
AcDbEntity
  8
AM_0
100
AcDbCircle
 10
390.6323285651026
 20
352.7158482426413
 30
0.0
 40
2.066987298107819
  0
ARC
  5
1810
330
1F
100
AcDbEntity
  8
AM_4
100
AcDbCircle
 10
452.106133552905
 20
459.780291236998
 30
0.0
 40
2.5
100
AcDbArc
 50
260.0000000000014
 51
169.9999999999981
  0
CIRCLE
  5
1811
330
1F
100
AcDbEntity
  8
AM_0
100
AcDbCircle
 10
452.106133552905
 20
459.780291236998
 30
0.0
 40
2.066987298107819
  0
ARC
  5
1812
330
1F
100
AcDbEntity
  8
AM_4
100
AcDbCircle
 10
468.1063775529048
 20
497.780291236998
 30
0.0
 40
2.5
100
AcDbArc
 50
260.0000000000014
 51
169.9999999999981
  0
CIRCLE
  5
1813
330
1F
100
AcDbEntity
  8
AM_0
100
AcDbCircle
 10
468.1063775529048
 20
497.780291236998
 30
0.0
 40
2.066987298107819
  0
ARC
  5
1865
330
1F
100
AcDbEntity
  8
AM_4
100
AcDbCircle
 10
235.1117972682075
 20
528.7802912369979
 30
0.0
 40
2.0
100
AcDbArc
 50
260.0
 51
170.0
  0
CIRCLE
  5
1866
330
1F
100
AcDbEntity
  8
AM_0
100
AcDbCircle
 10
235.1117972682075
 20
528.7802912369979
 30
0.0
 40
1.621113885844339
  0
ARC
  5
1867
330
1F
100
AcDbEntity
  8
AM_4
100
AcDbCircle
 10
235.1117972682075
 20
519.7802912369979
 30
0.0
 40
2.0
100
AcDbArc
 50
260.0
 51
170.0
  0
CIRCLE
  5
1868
330
1F
100
AcDbEntity
  8
AM_0
100
AcDbCircle
 10
235.1117972682075
 20
519.7802912369979
 30
0.0
 40
1.621113885844339
  0
ARC
  5
1869
330
1F
100
AcDbEntity
  8
AM_4
100
AcDbCircle
 10
235.1117972682075
 20
437.7801692369979
 30
0.0
 40
2.0
100
AcDbArc
 50
260.0
 51
170.0
  0
CIRCLE
  5
186A
330
1F
100
AcDbEntity
  8
AM_0
100
AcDbCircle
 10
235.1117972682075
 20
437.7801692369979
 30
0.0
 40
1.621113885844339
  0
ARC
  5
186B
330
1F
100
AcDbEntity
  8
AM_4
100
AcDbCircle
 10
235.1117972682075
 20
428.7801692369979
 30
0.0
 40
2.0
100
AcDbArc
 50
260.0
 51
170.0
  0
CIRCLE
  5
186C
330
1F
100
AcDbEntity
  8
AM_0
100
AcDbCircle
 10
235.1117972682075
 20
428.7801692369979
 30
0.0
 40
1.621113885844339
  0
ARC
  5
186D
330
1F
100
AcDbEntity
  8
AM_4
100
AcDbCircle
 10
460.1939025529049
 20
528.7802912369979
 30
0.0
 40
2.0
100
AcDbArc
 50
260.0
 51
170.0
  0
CIRCLE
  5
186E
330
1F
100
AcDbEntity
  8
AM_0
100
AcDbCircle
 10
460.1939025529049
 20
528.7802912369979
 30
0.0
 40
1.621113885844339
  0
ARC
  5
186F
330
1F
100
AcDbEntity
  8
AM_4
100
AcDbCircle
 10
460.106133552905
 20
519.7802912369979
 30
0.0
 40
2.0
100
AcDbArc
 50
260.0
 51
170.0
  0
CIRCLE
  5
1870
330
1F
100
AcDbEntity
  8
AM_0
100
AcDbCircle
 10
460.106133552905
 20
519.7802912369979
 30
0.0
 40
1.621113885844339
  0
ARC
  5
1871
330
1F
100
AcDbEntity
  8
AM_4
100
AcDbCircle
 10
460.106133552905
 20
437.7801692369979
 30
0.0
 40
2.0
100
AcDbArc
 50
260.0
 51
170.0
  0
CIRCLE
  5
1872
330
1F
100
AcDbEntity
  8
AM_0
100
AcDbCircle
 10
460.106133552905
 20
437.7801692369979
 30
0.0
 40
1.621113885844339
  0
ARC
  5
1873
330
1F
100
AcDbEntity
  8
AM_4
100
AcDbCircle
 10
460.106133552905
 20
428.7801692369979
 30
0.0
 40
2.0
100
AcDbArc
 50
260.0
 51
170.0
  0
CIRCLE
  5
1874
330
1F
100
AcDbEntity
  8
AM_0
100
AcDbCircle
 10
460.106133552905
 20
428.7801692369979
 30
0.0
 40
1.621113885844339
  0
TEXT
  5
1954
330
1F
100
AcDbEntity
  8
AM_5
100
AcDbText
 10
371.1350945528691
 20
555.2187842250214
 30
0.0
 40
3.5
  1
2-M5x8depth
100
AcDbText
  0
INSERT
  5
1955
330
1F
100
AcDbEntity
  8
AM_5
100
AcDbBlockReference
  2
*S30
 10
0.0
 20
0.0
 30
0.0
  0
TEXT
  5
1980
330
1F
100
AcDbEntity
  8
AM_5
100
AcDbText
 10
248.2604707473631
 20
522.1104654747498
 30
0.0
 40
3.5
  1
4-M4x0.7
100
AcDbText
  0
INSERT
  5
1981
330
1F
100
AcDbEntity
  8
AM_5
100
AcDbBlockReference
  2
*S31
 10
0.0
 20
0.0
 30
0.0
  0
TEXT
  5
1982
330
1F
100
AcDbEntity
  8
AM_5
100
AcDbText
 10
248.2604707473631
 20
516.6473615873472
 30
0.0
 40
3.5
  1
or 4-%%C4.5
100
AcDbText
  0
TEXT
  5
1985
330
1F
100
AcDbEntity
  8
AM_5
100
AcDbText
 10
360.2163984214663
 20
520.7813380440048
 30
0.0
 40
3.5
  1
4-M5x10depth
100
AcDbText
  0
INSERT
  5
1986
330
1F
100
AcDbEntity
  8
AM_5
100
AcDbBlockReference
  2
*S32
 10
0.0
 20
0.0
 30
0.0
  0
DIMENSION
  5
198C
102
{ACAD_XDICTIONARY
360
1998
102
}
102
{ACAD_REACTORS
330
1999
102
}
330
1F
100
AcDbEntity
  8
AM_5
100
AcDbDimension
  2
*D22
 10
372.061723777252
 20
494.5227556346247
 30
0.0
 11
389.9554756451648
 21
509.7638382842113
 31
0.0
 70
   163
  1
2-<>
 71
     5
 42
5.500000000000227
  3
AM_ISO$3
100
AcDbDiametricDimension
 15
375.2024453529533
 25
499.0378268393708
 35
0.0
 40
0.0
1001
ACAD
1000
DSTYLE
1002
{
1070
    40
1040
1.0
1070
   144
1040
1.0
1070
   272
1070
     8
1002
}
  0
TEXT
  5
19C0
330
1F
100
AcDbEntity
  8
AM_5
100
AcDbText
 10
373.5420207122731
 20
384.6945826870077
 30
0.0
 40
3.5
  1
M5x0.8
100
AcDbText
  0
INSERT
  5
19C1
330
1F
100
AcDbEntity
  8
AM_5
100
AcDbBlockReference
  2
*S33
 10
0.0
 20
0.0
 30
0.0
  0
TEXT
  5
19C2
330
1F
100
AcDbEntity
  8
AM_5
100
AcDbText
 10
373.5402672118732
 20
378.8892734234424
 30
0.0
 40
3.5
  1
(Finger closing port)
100
AcDbText
  0
INSERT
  5
19C3
330
1F
100
AcDbEntity
  8
AM_5
100
AcDbBlockReference
  2
*S34
 10
0.0
 20
0.0
 30
0.0
  0
TEXT
  5
19C4
330
1F
100
AcDbEntity
  8
AM_5
100
AcDbText
 10
411.829185837171
 20
342.5026432231057
 30
0.0
 40
3.5
  1
M5x0.8
100
AcDbText
  0
TEXT
  5
19C5
330
1F
100
AcDbEntity
  8
AM_5
100
AcDbText
 10
411.5786815403383
 20
336.0631432430471
 30
0.0
 40
3.5
  1
(Finger opening port)
100
AcDbText
  0
DIMENSION
  5
19D5
102
{ACAD_XDICTIONARY
360
19E2
102
}
102
{ACAD_REACTORS
330
19E3
102
}
330
1F
100
AcDbEntity
  8
AM_5
100
AcDbDimension
  2
*D23
 10
410.6323295651026
 20
364.7154747426412
 30
0.0
 11
408.1819850769135
 21
358.7154747426414
 31
0.0
 70
    32
 71
     5
 42
11.99999999999994
  3
AM_ISO$0
100
AcDbAlignedDimension
 13
394.6882365651027
 23
352.7154747426413
 33
0.0
 14
363.4033245651026
 24
364.7154747426413
 34
0.0
 50
90.0
100
AcDbRotatedDimension
1001
ACAD
1000
DSTYLE
1002
{
1070
    40
1040
1.0
1070
   144
1040
1.0
1070
   272
1070
     8
1002
}
  0
DIMENSION
  5
19FB
102
{ACAD_XDICTIONARY
360
1A08
102
}
102
{ACAD_REACTORS
330
1A09
102
}
330
1F
100
AcDbEntity
  8
AM_5
100
AcDbDimension
  2
*D24
 10
390.6323285651026
 20
333.7154737426413
 30
0.0
 11
394.6323285651026
 21
336.1654737426413
 31
0.0
 70
    32
 71
     5
 42
8.0
  3
AM_ISO$0
100
AcDbAlignedDimension
 13
398.6323285651026
 23
345.7154747426413
 33
0.0
 14
390.6323285651026
 24
348.2643027426413
 34
0.0
100
AcDbRotatedDimension
1001
ACAD
1000
DSTYLE
1002
{
1070
    40
1040
1.0
1070
   144
1040
1.0
1070
   272
1070
     8
1002
}
  0
DIMENSION
  5
1A21
102
{ACAD_XDICTIONARY
360
1A2E
102
}
102
{ACAD_REACTORS
330
1A2F
102
}
330
1F
100
AcDbEntity
  8
AM_5
100
AcDbDimension
  2
*D25
 10
358.6323285651026
 20
333.7154737426412
 30
0.0
 11
374.6323285651026
 21
336.1658182308302
 31
0.0
 70
    32
 71
     5
 42
32.0
  3
AM_ISO$0
100
AcDbAlignedDimension
 13
390.6323285651026
 23
348.2643027426413
 33
0.0
 14
358.6323285651026
 24
361.1122027426413
 34
0.0
100
AcDbRotatedDimension
1001
ACAD
1000
DSTYLE
1002
{
1070
    40
1040
1.0
1070
   144
1040
1.0
1070
   272
1070
     8
1002
}
  0
TEXT
  5
1A5D
330
1F
100
AcDbEntity
  8
AM_5
100
AcDbText
 10
481.933743845414
 20
443.9210565104487
 30
0.0
 40
3.5
  1
%%c21  x1.5depth
100
AcDbText
  0
INSERT
  5
1A5E
330
1F
100
AcDbEntity
  8
AM_5
100
AcDbBlockReference
  2
*S35
 10
0.0
 20
0.0
 30
0.0
  0
TEXT
  5
1A5F
330
1F
100
AcDbEntity
  8
AM_5
100
AcDbText
 10
489.2139506980264
 20
446.730623045339
 30
0.0
 40
2.449999999999999
  1
H9
100
AcDbText
  0
TEXT
  5
1A61
330
1F
100
AcDbEntity
  8
AM_5
100
AcDbText
 10
477.7556881284863
 20
512.154705114206
 30
0.0
 40
3.5
  1
2-M5x10depth
100
AcDbText
  0
INSERT
  5
1A62
330
1F
100
AcDbEntity
  8
AM_5
100
AcDbBlockReference
  2
*S36
 10
0.0
 20
0.0
 30
0.0
  0
LINE
  5
1B80
330
1F
100
AcDbEntity
  8
0
  6
Continuous
 62
     7
100
AcDbLine
 10
230.1117972682075
 20
511.0803402369979
 30
0.0
 11
240.1117972682075
 21
511.0803402369979
 31
0.0
  0
LINE
  5
1B81
330
1F
100
AcDbEntity
  8
0
  6
Continuous
 62
     7
100
AcDbLine
 10
230.1117972682074
 20
446.4801509575073
 30
0.0
 11
240.1117972682075
 21
446.4801509575073
 31
0.0
  0
TEXT
  5
1C8A
330
1F
100
AcDbEntity
  8
LOGO
 62
     7
100
AcDbText
 10
217.4907382303268
 20
268.92177079576
 30
0.0
 40
5.375221574660632
  1
Order example:
 41
0.8
  7
CHINESET
100
AcDbText
  0
TEXT
  5
1C8B
330
1F
100
AcDbEntity
  8
LOGO
 62
     7
100
AcDbText
 10
218.4550974320949
 20
276.4889698190541
 30
0.0
 40
8.062832361990947
  1
訂購代號：
  7
CHINESET
100
AcDbText
  0
LINE
  5
1C8C
330
1F
100
AcDbEntity
  8
LOGO
 62
     4
100
AcDbLine
 10
215.1551862244334
 20
246.2685572706642
 30
0.0
 11
215.1551862244334
 21
286.5827190806191
 31
0.0
  0
TEXT
  5
1C8D
330
1F
100
AcDbEntity
  8
LOGO
  6
Continuous
100
AcDbText
 10
140.9450583803322
 20
254.188213518855
 30
0.0
 40
6.047124271493212
  1
金器工業股份有限公司
  7
CHINESET
100
AcDbText
  0
TEXT
  5
1C8E
330
1F
100
AcDbEntity
  8
LOGO
  6
Continuous
100
AcDbText
 10
129.8376874581379
 20
248.1399044851175
 30
0.0
 40
4.031416180995473
  1
MINDMAN INDUSTRIAL CO., LTD.
 41
0.85
  7
CHINESET
100
AcDbText
  0
LINE
  5
1C8F
330
1F
100
AcDbEntity
  8
LOGO
 62
     4
100
AcDbLine
 10
215.1551862244334
 20
278.5198867186281
 30
0.0
 11
156.0277489031659
 21
278.5198867186281
 31
0.0
  0
LINE
  5
1C90
330
1F
100
AcDbEntity
  8
LOGO
 62
     4
100
AcDbLine
 10
215.1551862244334
 20
270.4570543566372
 30
0.0
 11
156.0277489031659
 21
270.4570543566372
 31
0.0
  0
LINE
  5
1C91
330
1F
100
AcDbEntity
  8
LOGO
 62
     4
100
AcDbLine
 10
215.1551862244334
 20
262.3942219946466
 30
0.0
 11
126.4640302425327
 21
262.3942219946466
 31
0.0
  0
LINE
  5
1C92
330
1F
100
AcDbEntity
  8
LOGO
 62
     4
100
AcDbLine
 10
156.0277489031659
 20
262.3942219946466
 30
0.0
 11
156.0277489031659
 21
286.5827190806191
 31
0.0
  0
TEXT
  5
1C93
330
1F
100
AcDbEntity
  8
LOGO
100
AcDbText
 10
196.4385615397193
 20
264.4099300851436
 30
0.0
 40
4.031416180995473
  1
mm
  7
CHINESET
 72
     1
 11
201.4298387161899
 21
266.4256381756414
 31
0.0
100
AcDbText
 73
     2
  0
TEXT
  5
1C94
330
1F
100
AcDbEntity
  8
LOGO
100
AcDbText
 10
194.326867349674
 20
280.5355948091257
 30
0.0
 40
4.031416180995473
  1
1 : 1
  7
CHINESET
 72
     1
 11
201.4298387161899
 21
282.5513028996235
 31
0.0
100
AcDbText
 73
     2
  0
LINE
  5
1C95
330
1F
100
AcDbEntity
  8
LOGO
 62
     4
100
AcDbLine
 10
188.27907835113
 20
262.3942219946466
 30
0.0
 11
188.27907835113
 21
286.5827190806191
 31
0.0
  0
TEXT
  5
1C96
330
1F
100
AcDbEntity
  8
LOGO
100
AcDbText
 10
159.3518675131208
 20
280.5375787737817
 30
264.2123751322604
 40
4.031416180995473
  1
比例 Scale:
 41
0.9
  7
CHINESET
 72
     4
 11
172.1534136271479
 21
282.5513028996235
 31
264.2123751322604
100
AcDbText
  0
TEXT
  5
1C97
330
1F
100
AcDbEntity
  8
LOGO
100
AcDbText
 10
159.1197011348403
 20
272.5294707702188
 30
264.2123751322604
 40
4.031416180995473
  1
投影  View:
 41
0.9
  7
CHINESET
 72
     4
 11
172.1534136271479
 21
274.4884705376325
 31
264.2123751322604
100
AcDbText
  0
TEXT
  5
1C98
330
1F
100
AcDbEntity
  8
LOGO
100
AcDbText
 10
159.5138440561072
 20
264.4099300851436
 30
264.2123751322604
 40
4.031416180995473
  1
單位  Unit:
 41
0.9
  7
CHINESET
 72
     4
 11
172.1534136271479
 21
266.4256381756414
 31
264.2123751322604
100
AcDbText
  0
LWPOLYLINE
  5
1C99
330
1F
100
AcDbEntity
  8
LOGO
 62
     4
100
AcDbPolyline
 90
        4
 70
     1
 43
0.0
 10
126.4640302425327
 20
286.5827190806191
 10
618.1955370024033
 20
286.5827190806191
 10
618.1955370024033
 20
649.4685572706633
 10
126.4640302425327
 20
649.4685572706633
1001
GENIUS_GENREC_14
1002
{
1000
PYDIR
1011
126.4640302425327
1021
649.4685572706633
1031
0.0
1002
}
1002
{
1000
PXDIR
1011
618.1955370024033
1021
286.5827190806191
1031
0.0
1002
}
1002
{
1000
PORI
1011
126.4640302425327
1021
286.5827190806191
1031
0.0
1002
}
1002
{
1000
PINS
1011
126.4640302425327
1021
286.5827190806191
1031
0.0
1002
}
1002
{
1000
PINS2
1011
618.1955370024033
1021
649.4685572706633
1031
0.0
1002
}
1002
{
1000
C
1070
     1
1002
}
1001
GENIUS_GENODEF_13
1002
{
1000
HIER
1070
     0
1002
}
1002
{
1000
MANEDIT
1070
     0
1002
}
1002
{
1000
NOSEL
1070
     0
1002
}
1002
{
1000
BEHIND
1070
     0
1002
}
1002
{
1000
OTHER
1070
     0
1002
}
1002
{
1000
REACTOR
1002
}
1001
GENIUS_GENOBJ-N-REC_13
1002
{
1000
OWNER
1000
GEN
1002
}
  0
SOLID
  5
1C9A
330
1F
100
AcDbEntity
  8
LOGO
 62
     5
100
AcDbTrace
 10
130.6466892296239
 20
269.0958775686443
 30
0.0
 11
132.3897678019256
 21
269.0958775686437
 31
0.0
 12
139.6626128794607
 22
285.6250709266794
 32
0.0
 13
141.4056914517633
 23
285.6250709266785
 33
0.0
  0
SOLID
  5
1C9B
330
1F
100
AcDbEntity
  8
LOGO
 62
     5
100
AcDbTrace
 10
133.1110416939145
 20
269.0958775686443
 30
0.0
 11
134.8541202662165
 21
269.0958775686443
 31
0.0
 12
141.4056914517633
 22
284.3027354580359
 32
0.0
 13
139.6626128794607
 23
277.9114473595956
 33
0.0
  0
SOLID
  5
1C9C
330
1F
100
AcDbEntity
  8
LOGO
 62
     2
100
AcDbTrace
 10
132.3897678019256
 20
269.0958775686437
 30
0.0
 11
133.1110416939145
 21
269.0958775686443
 31
0.0
 12
141.4056914517633
 22
285.6250709266785
 32
0.0
 13
142.1269653437514
 23
285.6250709266785
 33
0.0
  0
SOLID
  5
1C9D
330
1F
100
AcDbEntity
  8
LOGO
 62
     5
100
AcDbTrace
 10
127.8521068229977
 20
263.0852618020865
 30
0.0
 11
128.4531683996542
 21
263.0852618020865
 31
0.0
 12
130.1458045824112
 22
266.0905696853652
 32
0.0
 13
130.7468661590658
 23
266.0905696853652
 33
0.0
  0
SOLID
  5
1C9E
330
1F
100
AcDbEntity
  8
LOGO
 62
     5
100
AcDbTrace
 10
130.1458045824112
 20
266.0905696853652
 30
0.0
 11
130.7468661590658
 21
266.0905696853652
 31
0.0
 12
130.1458045824112
 22
263.0852618020865
 32
0.0
 13
130.7468661590658
 23
263.0852618020865
 33
0.0
  0
SOLID
  5
1C9F
330
1F
100
AcDbEntity
  8
LOGO
 62
     5
100
AcDbTrace
 10
130.1458045824112
 20
263.0852618020865
 30
0.0
 11
130.7468661590658
 21
263.0852618020865
 31
0.0
 12
132.4395023418257
 22
266.0905696853652
 32
0.0
 13
133.0405639184812
 23
266.0905696853652
 33
0.0
  0
SOLID
  5
1CA0
330
1F
100
AcDbEntity
  8
LOGO
 62
     5
100
AcDbTrace
 10
132.4395023418257
 20
266.0905696853652
 30
0.0
 11
133.0405639184812
 21
266.0905696853652
 31
0.0
 12
132.4395023418257
 22
263.0852618020865
 32
0.0
 13
133.0405639184812
 23
263.0852618020865
 33
0.0
  0
POLYLINE
  5
1CA1
330
1F
100
AcDbEntity
  8
LOGO
 62
     5
100
AcDb2dPolyline
 66
     1
 10
0.0
 20
0.0
 30
0.0
 40
0.6020248163619907
 41
0.6020248163619907
  0
VERTEX
  5
1CA2
330
1CA1
100
AcDbEntity
  8
LOGO
 62
     5
100
AcDbVertex
100
AcDb2dVertex
 10
152.5868816371216
 20
264.8884465320535
 30
0.0
 42
1.0
  0
VERTEX
  5
1CA3
330
1CA1
100
AcDbEntity
  8
LOGO
 62
     5
100
AcDbVertex
100
AcDb2dVertex
 10
150.7808071880354
 20
264.8884465320535
 30
0.0
 42
1.0
  0
SEQEND
  5
1CA4
330
1CA1
100
AcDbEntity
  8
LOGO
 62
     5
  0
POLYLINE
  5
1CA5
330
1F
100
AcDbEntity
  8
LOGO
 62
     5
100
AcDb2dPolyline
 66
     1
 10
0.0
 20
0.0
 30
0.0
 70
     1
  0
VERTEX
  5
1CA6
330
1CA5
100
AcDbEntity
  8
LOGO
 62
     5
100
AcDbVertex
100
AcDb2dVertex
 10
147.3762765173155
 20
264.5879157437254
 30
0.0
 42
1.000000057330635
  0
VERTEX
  5
1CA7
330
1CA5
100
AcDbEntity
  8
LOGO
 62
     5
100
AcDbVertex
100
AcDb2dVertex
 10
149.1794612472831
 20
264.5879157437254
 30
0.0
 42
1.000000057330635
  0
SEQEND
  5
1CA8
330
1CA5
100
AcDbEntity
  8
LOGO
 62
     5
  0
CIRCLE
  5
1CA9
330
1F
100
AcDbEntity
  8
LOGO
 62
     5
100
AcDbCircle
 10
148.2778688823008
 20
264.5879157437254
 30
0.0
 40
0.9015923649837176
  0
POLYLINE
  5
1CAA
330
1F
100
AcDbEntity
  8
LOGO
 62
     5
100
AcDb2dPolyline
 66
     1
 10
0.0
 20
0.0
 30
0.0
 70
     1
 40
0.6020248163619907
 41
0.6020248163619907
  0
VERTEX
  5
1CAB
330
1CAA
100
AcDbEntity
  8
LOGO
 62
     5
100
AcDbVertex
100
AcDb2dVertex
 10
147.0738192495759
 20
264.5879157437254
 30
0.0
 42
1.0
  0
VERTEX
  5
1CAC
330
1CAA
100
AcDbEntity
  8
LOGO
 62
     5
100
AcDbVertex
100
AcDb2dVertex
 10
149.4819185150237
 20
264.5879157437254
 30
0.0
 42
1.0
  0
SEQEND
  5
1CAD
330
1CAA
100
AcDbEntity
  8
LOGO
 62
     5
  0
LINE
  5
1CAE
330
1F
100
AcDbEntity
  8
LOGO
100
AcDbLine
 10
152.885967565889
 20
263.0852618020865
 30
0.0
 11
152.885967565889
 21
264.8884465320535
 31
0.0
  0
SOLID
  5
1CAF
330
1F
100
AcDbEntity
  8
LOGO
 62
     5
100
AcDbTrace
 10
149.1794011411283
 20
266.0905696853652
 30
0.0
 11
149.7804627177829
 21
266.0905696853652
 31
0.0
 12
149.1794011411283
 22
263.0852618020865
 32
0.0
 13
149.7804627177829
 23
263.0852618020865
 33
0.0
  0
SOLID
  5
1CB0
330
1F
100
AcDbEntity
  8
LOGO
 62
     5
100
AcDbTrace
 10
150.481721259266
 20
263.0852618020865
 30
0.0
 11
151.0827828359223
 21
263.0852618020865
 31
0.0
 12
150.481721259266
 22
266.0905696853652
 32
0.0
 13
151.0827828359223
 23
266.0905696853652
 33
0.0
  0
SOLID
  5
1CB1
330
1F
100
AcDbEntity
  8
LOGO
 62
     5
100
AcDbTrace
 10
152.2849059892344
 20
264.8884465320535
 30
0.0
 11
152.885967565889
 21
264.8884465320535
 31
0.0
 12
152.2849059892344
 22
263.0852618020865
 32
0.0
 13
152.885967565889
 23
263.0852618020865
 33
0.0
  0
SOLID
  5
1CB2
330
1F
100
AcDbEntity
  8
LOGO
 62
     5
100
AcDbTrace
 10
150.4216151016002
 20
284.3027354580359
 30
0.0
 11
148.6785365292994
 21
277.9114473595956
 31
0.0
 12
150.4216151016002
 22
269.0958775686437
 32
0.0
 13
148.6785365292994
 23
269.0958775686437
 33
0.0
  0
SOLID
  5
1CB3
330
1F
100
AcDbEntity
  8
LOGO
 62
     5
100
AcDbTrace
 10
151.1428889935882
 20
269.0958775686437
 30
0.0
 11
152.885967565889
 21
269.0958775686437
 31
0.0
 12
151.1428889935882
 22
285.6250709266785
 32
0.0
 13
152.885967565889
 23
285.6250709266794
 33
0.0
  0
SOLID
  5
1CB4
330
1F
100
AcDbEntity
  8
LOGO
 62
     2
100
AcDbTrace
 10
150.4216151016002
 20
285.6250709266794
 30
0.0
 11
151.1428889935882
 21
285.6250709266785
 31
0.0
 12
150.4216151016002
 22
269.0958775686437
 32
0.0
 13
151.1428889935882
 23
269.0958775686437
 33
0.0
  0
POLYLINE
  5
1CB5
330
1F
100
AcDbEntity
  8
LOGO
 62
     5
100
AcDb2dPolyline
 66
     1
 10
0.0
 20
0.0
 30
0.0
 40
0.6020248163619907
 41
0.6020248163619907
  0
VERTEX
  5
1CB6
330
1CB5
100
AcDbEntity
  8
LOGO
 62
     5
100
AcDbVertex
100
AcDb2dVertex
 10
143.9716256342835
 20
264.8884465320535
 30
0.0
 42
1.0
  0
VERTEX
  5
1CB7
330
1CB5
100
AcDbEntity
  8
LOGO
 62
     5
100
AcDbVertex
100
AcDb2dVertex
 10
142.165551185197
 20
264.8884465320535
 30
0.0
 42
1.0
  0
SEQEND
  5
1CB8
330
1CB5
100
AcDbEntity
  8
LOGO
 62
     5
  0
POLYLINE
  5
1CB9
330
1F
100
AcDbEntity
  8
LOGO
 62
     5
100
AcDb2dPolyline
 66
     1
 10
0.0
 20
0.0
 30
0.0
 40
0.6020248163619907
 41
0.6020248163619907
  0
VERTEX
  5
1CBA
330
1CB9
100
AcDbEntity
  8
LOGO
 62
     5
100
AcDbVertex
100
AcDb2dVertex
 10
145.774810364249
 20
264.8884465320535
 30
0.0
 42
1.0
  0
VERTEX
  5
1CBB
330
1CB9
100
AcDbEntity
  8
LOGO
 62
     5
100
AcDbVertex
100
AcDb2dVertex
 10
143.9687359151637
 20
264.8884465320535
 30
0.0
 42
1.0
  0
SEQEND
  5
1CBC
330
1CB9
100
AcDbEntity
  8
LOGO
 62
     5
  0
POLYLINE
  5
1CBD
330
1F
100
AcDbEntity
  8
LOGO
 62
     5
100
AcDb2dPolyline
 66
     1
 10
0.0
 20
0.0
 30
0.0
 40
0.6020248163619907
 41
0.6020248163619907
  0
VERTEX
  5
1CBE
330
1CBD
100
AcDbEntity
  8
LOGO
 62
     5
100
AcDbVertex
100
AcDb2dVertex
 10
137.1595543614107
 20
264.8884465320535
 30
0.0
 42
1.0
  0
VERTEX
  5
1CBF
330
1CBD
100
AcDbEntity
  8
LOGO
 62
     5
100
AcDbVertex
100
AcDb2dVertex
 10
135.3534799123253
 20
264.8884465320535
 30
0.0
 42
1.0
  0
SEQEND
  5
1CC0
330
1CBD
100
AcDbEntity
  8
LOGO
 62
     5
  0
SOLID
  5
1CC1
330
1F
100
AcDbEntity
  8
LOGO
 62
     5
100
AcDbTrace
 10
135.054393983557
 20
266.0905696853652
 30
0.0
 11
135.6554555602116
 21
266.0905696853652
 31
0.0
 12
135.054393983557
 22
263.0852618020865
 32
0.0
 13
135.6554555602116
 23
263.0852618020865
 33
0.0
  0
SOLID
  5
1CC2
330
1F
100
AcDbEntity
  8
LOGO
 62
     5
100
AcDbTrace
 10
136.8575787135245
 20
264.8884465320535
 30
0.0
 11
137.4586402901811
 21
264.8884465320535
 31
0.0
 12
136.8575787135245
 22
263.0852618020865
 32
0.0
 13
137.4586402901811
 23
263.0852618020865
 33
0.0
  0
POLYLINE
  5
1CC3
330
1F
100
AcDbEntity
  8
LOGO
 62
     5
100
AcDb2dPolyline
 66
     1
 10
0.0
 20
0.0
 30
0.0
 70
     1
 40
0.6020248163619907
 41
0.6020248163619907
  0
VERTEX
  5
1CC4
330
1CC3
100
AcDbEntity
  8
LOGO
 62
     5
100
AcDbVertex
100
AcDb2dVertex
 10
138.4585632467368
 20
264.5879157437254
 30
0.0
 42
1.0
  0
VERTEX
  5
1CC5
330
1CC3
100
AcDbEntity
  8
LOGO
 62
     5
100
AcDbVertex
100
AcDb2dVertex
 10
140.8666625121856
 20
264.5879157437254
 30
0.0
 42
1.0
  0
SEQEND
  5
1CC6
330
1CC3
100
AcDbEntity
  8
LOGO
 62
     5
  0
SOLID
  5
1CC7
330
1F
100
AcDbEntity
  8
LOGO
 62
     5
100
AcDbTrace
 10
140.5641451382882
 20
266.9921620503493
 30
0.0
 11
141.1652067149437
 21
266.9921620503493
 31
0.0
 12
140.5641451382882
 22
263.0852618020865
 32
0.0
 13
141.1652067149437
 23
263.0852618020865
 33
0.0
  0
SOLID
  5
1CC8
330
1F
100
AcDbEntity
  8
LOGO
 62
     5
100
AcDbTrace
 10
141.8664652564296
 20
266.0905696853652
 30
0.0
 11
142.4675268330842
 21
266.0905696853652
 31
0.0
 12
141.8664652564296
 22
263.0852618020865
 32
0.0
 13
142.4675268330842
 23
263.0852618020865
 33
0.0
  0
SOLID
  5
1CC9
330
1F
100
AcDbEntity
  8
LOGO
 62
     5
100
AcDbTrace
 10
143.6696499863951
 20
264.8884465320535
 30
0.0
 11
144.2707115630518
 21
264.8884465320535
 31
0.0
 12
143.6696499863951
 22
263.0852618020865
 32
0.0
 13
144.2707115630518
 23
263.0852618020865
 33
0.0
  0
SOLID
  5
1CCA
330
1F
100
AcDbEntity
  8
LOGO
 62
     5
100
AcDbTrace
 10
145.4728347163627
 20
264.8884465320535
 30
0.0
 11
146.0738962930184
 21
264.8884465320535
 31
0.0
 12
145.4728347163627
 22
263.0852618020856
 32
0.0
 13
146.0738962930184
 23
263.0852618020856
 33
0.0
  0
SOLID
  5
1CCB
330
1F
100
AcDbEntity
  8
LOGO
 62
     5
100
AcDbTrace
 10
133.7520738654165
 20
266.5113127890244
 30
0.0
 11
134.353135442074
 21
266.5113127890244
 31
0.0
 12
133.7520738654165
 22
266.9921620503493
 32
0.0
 13
134.353135442074
 23
266.9921620503493
 33
0.0
  0
SOLID
  5
1CCC
330
1F
100
AcDbEntity
  8
LOGO
 62
     5
100
AcDbTrace
 10
133.7520738654165
 20
266.0905696853652
 30
0.0
 11
134.353135442074
 21
266.0905696853652
 31
0.0
 12
133.7520738654165
 22
263.0852618020856
 32
0.0
 13
134.353135442074
 23
263.0852618020865
 33
0.0
  0
SOLID
  5
1CCD
330
1F
100
AcDbEntity
  8
LOGO
 62
     5
100
AcDbTrace
 10
139.6626128794607
 20
269.0958775686443
 30
0.0
 11
141.4056914517633
 21
269.0958775686443
 31
0.0
 12
139.6626128794607
 22
277.9114473595956
 32
0.0
 13
141.4056914517633
 23
284.3027354580359
 33
0.0
  0
SOLID
  5
1CCE
330
1F
100
AcDbEntity
  8
LOGO
 62
     5
100
AcDbTrace
 10
142.1269653437514
 20
285.6250709266785
 30
0.0
 11
143.8700439160521
 21
285.6250709266794
 31
0.0
 12
142.1269653437514
 22
270.4182130372867
 32
0.0
 13
143.8700439160521
 23
276.809501135727
 33
0.0
  0
SOLID
  5
1CCF
330
1F
100
AcDbEntity
  8
LOGO
 62
     2
100
AcDbTrace
 10
141.4056914517633
 20
285.6250709266785
 30
0.0
 11
142.1269653437514
 21
285.6250709266785
 31
0.0
 12
141.4056914517633
 22
269.0958775686443
 32
0.0
 13
142.1269653437514
 23
269.0958775686443
 33
0.0
  0
SOLID
  5
1CD0
330
1F
100
AcDbEntity
  8
LOGO
 62
     5
100
AcDbTrace
 10
142.1269653437514
 20
270.4182130372867
 30
0.0
 11
143.8700439160521
 21
276.809501135727
 31
0.0
 12
150.4216151016002
 22
285.6250709266794
 32
0.0
 13
148.6785365292994
 23
285.6250709266794
 33
0.0
  0
SOLID
  5
1CD1
330
1F
100
AcDbEntity
  8
LOGO
 62
     5
100
AcDbTrace
 10
142.1269653437514
 20
269.0958775686443
 30
0.0
 11
143.8700439160521
 21
269.0958775686443
 31
0.0
 12
150.4216151016002
 22
284.3027354580359
 32
0.0
 13
148.6785365292994
 23
277.9114473595956
 33
0.0
  0
SOLID
  5
1CD2
330
1F
100
AcDbEntity
  8
LOGO
 62
     2
100
AcDbTrace
 10
141.4056914517633
 20
269.0958775686443
 30
0.0
 11
142.1269653437514
 21
269.0958775686443
 31
0.0
 12
150.4216151016002
 22
285.6250709266794
 32
0.0
 13
151.1428889935882
 23
285.6250709266785
 33
0.0
  0
LWPOLYLINE
  5
1CD3
330
1F
100
AcDbEntity
  8
LOGO
 62
     4
100
AcDbPolyline
 90
        4
 70
     1
 43
0.0
 10
126.4640302425327
 20
286.5827190806191
 10
618.1955370024033
 20
286.5827190806191
 10
618.1955370024033
 20
246.2685572706637
 10
126.4640302425327
 20
246.2685572706637
1001
GENIUS_GENREC_14
1002
{
1000
PYDIR
1011
126.4640302425327
1021
246.2685572706637
1031
0.0
1002
}
1002
{
1000
PXDIR
1011
618.1955370024033
1021
286.5827190806191
1031
0.0
1002
}
1002
{
1000
PORI
1011
126.4640302425327
1021
286.5827190806191
1031
0.0
1002
}
1002
{
1000
PINS
1011
126.4640302425327
1021
286.5827190806191
1031
0.0
1002
}
1002
{
1000
PINS2
1011
618.1955370024033
1021
246.2685572706637
1031
0.0
1002
}
1002
{
1000
C
1070
     1
1002
}
1001
GENIUS_GENOBJ-N-REC_13
1002
{
1000
OWNER
1000
GEN
1002
}
1001
GENIUS_GENODEF_13
1002
{
1000
HIER
1070
     0
1002
}
1002
{
1000
MANEDIT
1070
     0
1002
}
1002
{
1000
NOSEL
1070
     0
1002
}
1002
{
1000
BEHIND
1070
     0
1002
}
1002
{
1000
OTHER
1070
     0
1002
}
1002
{
1000
REACTOR
1002
}
  0
LINE
  5
1CD4
330
1F
100
AcDbEntity
  8
LOGO
 62
     4
100
AcDbLine
 10
297.4816344339976
 20
264.4099300851445
 30
0.0
 11
297.4816344339976
 21
249.6280707548269
 31
0.0
  0
LINE
  5
1CD5
330
1F
100
AcDbEntity
  8
LOGO
 62
     4
100
AcDbLine
 10
270.6055265606942
 20
264.4099300851445
 30
0.0
 11
270.6055265606942
 21
249.6280707548269
 31
0.0
  0
LINE
  5
1CD6
330
1F
100
AcDbEntity
  8
LOGO
 62
     4
100
AcDbLine
 10
297.4816344339976
 20
249.6280707548269
 30
0.0
 11
270.6055265606942
 21
249.6280707548269
 31
0.0
  0
LINE
  5
1CD7
330
1F
100
AcDbEntity
  8
LOGO
 62
     4
100
AcDbLine
 10
302.3021500070469
 20
282.5513028996235
 30
0.0
 11
270.6055265606942
 21
282.5513028996235
 31
0.0
  0
LINE
  5
1CD8
330
1F
100
AcDbEntity
  8
LOGO
 62
     4
100
AcDbLine
 10
302.3021500070469
 20
270.4570543566372
 30
0.0
 11
270.6055265606942
 21
270.4570543566372
 31
0.0
  0
LINE
  5
1CD9
330
1F
100
AcDbEntity
  8
LOGO
 62
     4
100
AcDbLine
 10
270.6055265606942
 20
282.5513028996235
 30
0.0
 11
270.6055265606942
 21
270.4570543566372
 31
0.0
  0
LINE
  5
1CDA
330
1F
100
AcDbEntity
  8
LOGO
 62
     4
100
AcDbLine
 10
302.3021500070469
 20
282.5513028996235
 30
0.0
 11
302.3021500070469
 21
270.4570543566372
 31
0.0
  0
LINE
  5
1CDB
330
1F
100
AcDbEntity
  8
LOGO
 62
     4
100
AcDbLine
 10
285.4458382838706
 20
270.4570543566372
 30
0.0
 11
285.4458382838706
 21
264.4099300851445
 31
0.0
  0
TEXT
  5
1CDC
330
1F
100
AcDbEntity
  8
LOGO
  6
Continuous
100
AcDbText
 10
272.7544851138667
 20
272.981711058196
 30
0.0
 40
7.055999999999998
  1
MCHY
  7
CHINESET
100
AcDbText
  0
LINE
  5
1CDD
330
1F
100
AcDbEntity
  8
LOGO
 62
     4
100
AcDbLine
 10
297.4816344339976
 20
264.4099300851445
 30
0.0
 11
270.6055265606942
 21
264.4099300851445
 31
0.0
  0
TEXT
  5
1CDE
330
1F
100
AcDbEntity
  8
LOGO
  6
Continuous
100
AcDbText
 10
279.2299844887746
 20
251.7144988536404
 30
264.2123751322604
 40
3.023999999999999
  1
Model
 41
0.8
  7
CHINESET
100
AcDbText
  0
TEXT
  5
1CDF
330
1F
100
AcDbEntity
  8
LOGO
100
AcDbText
 10
278.4250939929684
 20
257.3203431351259
 30
264.2123751322604
 40
5.04
  1
型號
  7
CHINESET
100
AcDbText
  0
LINE
  5
1CE0
330
1F
100
AcDbEntity
  8
LOGO
  6
Continuous
100
AcDbLine
 10
303.5878685847543
 20
276.4613388884482
 30
0.0
 11
308.9282474418165
 21
276.4613388884482
 31
0.0
  0
LINE
  5
1CE1
330
1F
100
AcDbEntity
  8
LOGO
 62
     4
100
AcDbLine
 10
327.8567334517502
 20
264.4099300851445
 30
0.0
 11
327.8567334517502
 21
249.6280707548269
 31
0.0
  0
LINE
  5
1CE2
330
1F
100
AcDbEntity
  8
LOGO
 62
     4
100
AcDbLine
 10
300.9806255784468
 20
264.4099300851445
 30
0.0
 11
300.9806255784468
 21
249.6280707548269
 31
0.0
  0
LINE
  5
1CE3
330
1F
100
AcDbEntity
  8
LOGO
 62
     4
100
AcDbLine
 10
327.8567334517502
 20
249.6280707548269
 30
0.0
 11
300.9806255784468
 21
249.6280707548269
 31
0.0
  0
LINE
  5
1CE4
330
1F
100
AcDbEntity
  8
LOGO
 62
     4
100
AcDbLine
 10
326.5261733287129
 20
282.5513028996235
 30
0.0
 11
310.87516893886
 21
282.5513028996235
 31
0.0
  0
LINE
  5
1CE5
330
1F
100
AcDbEntity
  8
LOGO
 62
     4
100
AcDbLine
 10
326.5261733287129
 20
270.4570543566372
 30
0.0
 11
310.87516893886
 21
270.4570543566372
 31
0.0
  0
LINE
  5
1CE6
330
1F
100
AcDbEntity
  8
LOGO
 62
     4
100
AcDbLine
 10
310.87516893886
 20
282.5513028996235
 30
0.0
 11
310.87516893886
 21
270.4570543566372
 31
0.0
  0
LINE
  5
1CE7
330
1F
100
AcDbEntity
  8
LOGO
 62
     4
100
AcDbLine
 10
326.5261733287129
 20
282.5513028996235
 30
0.0
 11
326.5261733287129
 21
270.4570543566372
 31
0.0
  0
LINE
  5
1CE8
330
1F
100
AcDbEntity
  8
LOGO
 62
     4
100
AcDbLine
 10
320.1674039587048
 20
270.4570543566372
 30
0.0
 11
320.1674039587048
 21
264.4099300851445
 31
0.0
  0
TEXT
  5
1CE9
330
1F
100
AcDbEntity
  8
LOGO
  6
Continuous
100
AcDbText
 10
313.0870604883487
 20
272.981711058196
 30
0.0
 40
7.055999999999998
  1
20
  7
CHINESET
100
AcDbText
  0
LINE
  5
1CEA
330
1F
100
AcDbEntity
  8
LOGO
 62
     4
100
AcDbLine
 10
327.8567334517502
 20
264.4099300851445
 30
0.0
 11
300.9806255784468
 21
264.4099300851445
 31
0.0
  0
LINE
  5
1CEB
330
1F
100
AcDbEntity
  8
LOGO
  6
Continuous
100
AcDbLine
 10
351.1757039591379
 20
276.4613388884482
 30
0.0
 11
356.516082816201
 21
276.4613388884482
 31
0.0
  0
LINE
  5
1CEC
330
1F
100
AcDbEntity
  8
LOGO
 62
     4
100
AcDbLine
 10
397.2519312923935
 20
264.4099300851445
 30
0.0
 11
397.2519312923935
 21
249.6280707548269
 31
0.0
  0
LINE
  5
1CED
330
1F
100
AcDbEntity
  8
LOGO
 62
     4
100
AcDbLine
 10
361.4125731709946
 20
264.4099300851445
 30
0.0
 11
361.4125731709946
 21
249.6280707548269
 31
0.0
  0
LINE
  5
1CEE
330
1F
100
AcDbEntity
  8
LOGO
 62
     4
100
AcDbLine
 10
397.2519312923935
 20
249.6280707548269
 30
0.0
 11
361.4125731709946
 21
249.6280707548269
 31
0.0
  0
LINE
  5
1CEF
330
1F
100
AcDbEntity
  8
LOGO
 62
     4
100
AcDbLine
 10
375.540368804849
 20
282.5513028996235
 30
0.0
 11
359.2266392542502
 21
282.5513028996235
 31
0.0
  0
LINE
  5
1CF0
330
1F
100
AcDbEntity
  8
LOGO
 62
     4
100
AcDbLine
 10
375.540368804849
 20
270.4570543566372
 30
0.0
 11
359.2266392542502
 21
270.4570543566372
 31
0.0
  0
LINE
  5
1CF1
330
1F
100
AcDbEntity
  8
LOGO
 62
     4
100
AcDbLine
 10
359.2266392542502
 20
282.5513028996235
 30
0.0
 11
359.2266392542502
 21
270.4570543566372
 31
0.0
  0
LINE
  5
1CF2
330
1F
100
AcDbEntity
  8
LOGO
 62
     4
100
AcDbLine
 10
375.540368804849
 20
282.5513028996235
 30
0.0
 11
375.540368804849
 21
270.4570543566372
 31
0.0
  0
LINE
  5
1CF3
330
1F
100
AcDbEntity
  8
LOGO
 62
     4
100
AcDbLine
 10
368.6555790663543
 20
270.4570543566372
 30
0.0
 11
368.6555790663543
 21
264.4099300851445
 31
0.0
  0
TEXT
  5
1CF4
330
1F
100
AcDbEntity
  8
LOGO
  6
Continuous
100
AcDbText
 10
361.787018430647
 20
272.981711058196
 30
0.0
 40
7.055999999999998
  1
RT
  7
CHINESET
100
AcDbText
  0
LINE
  5
1CF5
330
1F
100
AcDbEntity
  8
LOGO
 62
     4
100
AcDbLine
 10
397.2519312923935
 20
264.4099300851445
 30
0.0
 11
361.4125731709946
 21
264.4099300851445
 31
0.0
  0
TEXT
  5
1CF6
330
1F
100
AcDbEntity
  8
LOGO
  6
Continuous
100
AcDbText
 10
306.6100717221624
 20
251.7144988536404
 30
264.2123751322604
 40
3.023999999999999
  1
Tube I.D.
 41
0.8
  7
CHINESET
100
AcDbText
  0
TEXT
  5
1CF7
330
1F
100
AcDbEntity
  8
LOGO
100
AcDbText
 10
308.5993499227963
 20
257.3203431351259
 30
264.2123751322604
 40
5.04
  1
內徑
  7
CHINESET
100
AcDbText
  0
TEXT
  5
1CF8
330
1F
100
AcDbEntity
  8
LOGO
  6
Continuous
100
AcDbText
 10
363.3100439087
 20
251.7144988536404
 30
264.2123751322604
 40
3.023999999999999
  1
Auto switch type
 41
0.8
  7
CHINESET
100
AcDbText
  0
TEXT
  5
1CF9
330
1F
100
AcDbEntity
  8
LOGO
100
AcDbText
 10
365.2623062436597
 20
257.3203431351259
 30
264.2123751322604
 40
5.04
  1
感應器型式
  7
CHINESET
100
AcDbText
  0
LINE
  5
1CFA
330
1F
100
AcDbEntity
  8
LOGO
 62
     4
100
AcDbLine
 10
400.6064361846262
 20
282.5513028996235
 30
0.0
 11
387.4827249866919
 21
282.5513028996235
 31
0.0
  0
LINE
  5
1CFB
330
1F
100
AcDbEntity
  8
LOGO
 62
     4
100
AcDbLine
 10
400.6064361846262
 20
270.4570543566372
 30
0.0
 11
387.4827249866919
 21
270.4570543566372
 31
0.0
  0
LINE
  5
1CFC
330
1F
100
AcDbEntity
  8
LOGO
 62
     4
100
AcDbLine
 10
387.4827249866919
 20
282.5513028996235
 30
0.0
 11
387.4827249866919
 21
270.4570543566372
 31
0.0
  0
LINE
  5
1CFD
330
1F
100
AcDbEntity
  8
LOGO
 62
     4
100
AcDbLine
 10
400.6064361846262
 20
282.5513028996235
 30
0.0
 11
400.6064361846262
 21
270.4570543566372
 31
0.0
  0
LINE
  5
1CFE
330
1F
100
AcDbEntity
  8
LOGO
 62
     4
100
AcDbLine
 10
451.5897042648673
 20
264.4099300851445
 30
0.0
 11
451.5897042648673
 21
249.6280707548269
 31
0.0
  0
LINE
  5
1CFF
330
1F
100
AcDbEntity
  8
LOGO
 62
     4
100
AcDbLine
 10
400.8505159132007
 20
264.4099300851445
 30
0.0
 11
400.8505159132007
 21
249.6280707548269
 31
0.0
  0
LINE
  5
1D00
330
1F
100
AcDbEntity
  8
LOGO
 62
     4
100
AcDbLine
 10
451.5897042648673
 20
249.6280707548269
 30
0.0
 11
400.8505159132007
 21
249.6280707548269
 31
0.0
  0
LINE
  5
1D01
330
1F
100
AcDbEntity
  8
LOGO
 62
     4
100
AcDbLine
 10
451.5897042648673
 20
264.4099300851445
 30
0.0
 11
400.8505159132007
 21
264.4099300851445
 31
0.0
  0
TEXT
  5
1D02
330
1F
100
AcDbEntity
  8
LOGO
  6
Continuous
100
AcDbText
 10
405.6098981436839
 20
251.7144988536404
 30
264.2123751322604
 40
3.023999999999999
  1
Number of auto switch
 41
0.8
  7
CHINESET
100
AcDbText
  0
TEXT
  5
1D03
330
1F
100
AcDbEntity
  8
LOGO
100
AcDbText
 10
413.6821969284313
 20
257.3203431351259
 30
264.2123751322604
 40
5.04
  1
感應器數量
  7
CHINESET
100
AcDbText
  0
LINE
  5
1D04
330
1F
100
AcDbEntity
  8
LOGO
 62
     4
100
AcDbLine
 10
426.2201100890339
 20
267.4334922208909
 30
0.0
 11
426.2201100890339
 21
264.4099300851445
 31
0.0
  0
TEXT
  5
1D05
330
1F
100
AcDbEntity
  8
LOGO
100
AcDbText
 10
217.0902819763685
 20
248.4132547672096
 30
0.0
 40
4.032
  1
10705166
 41
0.7
  7
CHINESET
 72
     1
 11
226.8342819763685
 21
248.4132547672096
 31
0.0
100
AcDbText
  0
LINE
  5
1D06
330
1F
100
AcDbEntity
  8
LOGO
 62
     4
100
AcDbLine
 10
239.3471862244313
 20
254.331389632656
 30
0.0
 11
239.3471862244334
 21
246.2685572706646
 31
0.0
  0
LINE
  5
1D07
330
1F
100
AcDbEntity
  8
LOGO
 62
     4
100
AcDbLine
 10
239.3471862244313
 20
254.331389632656
 30
0.0
 11
215.1551862244334
 21
254.331389632656
 31
0.0
  0
CIRCLE
  5
1D08
330
1F
100
AcDbEntity
  8
LOGO
  6
Continuous
100
AcDbCircle
 10
195.7437496518079
 20
274.4970937663451
 30
0.0
 40
2.340735123526392
  0
CIRCLE
  5
1D09
330
1F
100
AcDbEntity
  8
LOGO
  6
Continuous
100
AcDbCircle
 10
195.7437496518079
 20
274.4970937663451
 30
0.0
 40
1.371463568829843
  0
LINE
  5
1D0A
330
1F
100
AcDbEntity
  8
LOGO
100
AcDbLine
 10
210.4532007754654
 20
272.1563586428183
 30
0.0
 11
210.4532007754654
 21
276.837828889872
 31
0.0
  0
LINE
  5
1D0B
330
1F
100
AcDbEntity
  8
LOGO
100
AcDbLine
 10
203.1151305278178
 20
273.1256301975155
 30
0.0
 11
203.1151305278178
 21
275.8685573351752
 31
0.0
  0
LINE
  5
1D0C
330
1F
100
AcDbEntity
  8
LOGO
  6
Continuous
100
AcDbLine
 10
203.1151305278178
 20
275.8685573351752
 30
0.0
 11
210.4532007754654
 21
276.837828889872
 31
0.0
  0
LINE
  5
1D0D
330
1F
100
AcDbEntity
  8
LOGO
  6
Continuous
100
AcDbLine
 10
203.1151305278178
 20
273.1256301975155
 30
0.0
 11
210.4532007754654
 21
272.1563586428183
 31
0.0
  0
LINE
  5
1D0E
330
1F
100
AcDbEntity
  8
LOGO
  6
AM_ISO08W050x2
 48
0.3
100
AcDbLine
 10
192.5170112342783
 20
274.4970937663451
 30
0.0
 11
198.9704880693374
 21
274.4970937663451
 31
0.0
1001
GENIUS_GENOREF_13
1005
1D22
  0
LINE
  5
1D0F
330
1F
100
AcDbEntity
  8
LOGO
  6
AM_ISO08W050x2
 48
0.3
100
AcDbLine
 10
195.7437496518079
 20
271.2703553488155
 30
0.0
 11
195.7437496518079
 21
277.7238321838747
 31
0.0
1001
GENIUS_GENOREF_13
1005
1D21
  0
LINE
  5
1D10
330
1F
100
AcDbEntity
  8
LOGO
  6
CENTER
 48
0.5
100
AcDbLine
 10
202.5282888687141
 20
274.4970937663451
 30
0.0
 11
211.1921206948454
 21
274.4970937663451
 31
0.0
1001
GENIUS_GENOREF_13
1005
1D20
  0
TEXT
  5
1D11
330
1F
100
AcDbEntity
  8
LOGO
  6
Continuous
100
AcDbText
 10
329.3963615736832
 20
272.981711058196
 30
0.0
 40
7.055999999999998
  1
D
  7
CHINESET
100
AcDbText
  0
LINE
  5
1D12
330
1F
100
AcDbEntity
  8
LOGO
 62
     4
100
AcDbLine
 10
358.9547924917956
 20
264.4099300851445
 30
0.0
 11
358.9547924917956
 21
249.6280707548269
 31
0.0
  0
LINE
  5
1D13
330
1F
100
AcDbEntity
  8
LOGO
 62
     4
100
AcDbLine
 10
330.7410837372192
 20
264.4099300851445
 30
0.0
 11
330.7410837372192
 21
249.6280707548269
 31
0.0
  0
LINE
  5
1D14
330
1F
100
AcDbEntity
  8
LOGO
 62
     4
100
AcDbLine
 10
358.9547924917956
 20
249.6280707548269
 30
0.0
 11
330.7410837372192
 21
249.6280707548269
 31
0.0
  0
LINE
  5
1D15
330
1F
100
AcDbEntity
  8
LOGO
 62
     4
100
AcDbLine
 10
349.1241838510932
 20
282.5513028996235
 30
0.0
 11
336.2562392562419
 21
282.5513028996235
 31
0.0
  0
LINE
  5
1D16
330
1F
100
AcDbEntity
  8
LOGO
 62
     4
100
AcDbLine
 10
349.1241838510932
 20
270.4570543566372
 30
0.0
 11
336.2562392562419
 21
270.4570543566372
 31
0.0
  0
LINE
  5
1D17
330
1F
100
AcDbEntity
  8
LOGO
 62
     4
100
AcDbLine
 10
336.2562392562419
 20
282.5513028996235
 30
0.0
 11
336.2562392562419
 21
270.4570543566372
 31
0.0
  0
LINE
  5
1D18
330
1F
100
AcDbEntity
  8
LOGO
 62
     4
100
AcDbLine
 10
349.1241838510932
 20
282.5513028996235
 30
0.0
 11
349.1241838510932
 21
270.4570543566372
 31
0.0
  0
LINE
  5
1D19
330
1F
100
AcDbEntity
  8
LOGO
 62
     4
100
AcDbLine
 10
342.6902115536675
 20
270.4570543566372
 30
0.0
 11
342.6902115536675
 21
264.4099300851445
 31
0.0
  0
LINE
  5
1D1A
330
1F
100
AcDbEntity
  8
LOGO
 62
     4
100
AcDbLine
 10
358.9547924917956
 20
264.4099300851445
 30
0.0
 11
330.7410837372192
 21
264.4099300851445
 31
0.0
  0
TEXT
  5
1D1B
330
1F
100
AcDbEntity
  8
LOGO
  6
Continuous
100
AcDbText
 10
333.1784827449454
 20
251.7144988536404
 30
264.2123751322604
 40
3.023999999999999
  1
Finger option
 41
0.8
  7
CHINESET
100
AcDbText
  0
TEXT
  5
1D1C
330
1F
100
AcDbEntity
  8
LOGO
100
AcDbText
 10
333.9409378196048
 20
257.3203431351259
 30
264.2123751322604
 40
5.04
  1
夾爪選配
  7
CHINESET
100
AcDbText
  0
TEXT
  5
1D1D
330
1F
100
AcDbEntity
  8
LOGO
  6
Continuous
100
AcDbText
 10
380.2514536817234
 20
272.981711058196
 30
0.0
 40
7.055999999999998
  1
x
  7
CHINESET
100
AcDbText
  0
LINE
  5
1D1E
330
1F
100
AcDbEntity
  8
LOGO
 62
     4
100
AcDbLine
 10
394.0445805856592
 20
270.4570543566372
 30
0.0
 11
394.0445805856592
 21
267.4334922208909
 31
0.0
  0
LINE
  5
1D1F
330
1F
100
AcDbEntity
  8
LOGO
 62
     4
100
AcDbLine
 10
394.0445805856592
 20
267.4334922208909
 30
0.0
 11
426.2201100890339
 21
267.4334922208909
 31
0.0
  0
POINT
  5
1D20
330
1F
100
AcDbEntity
  8
0
 60
     1
100
AcDbPoint
 10
-1621.77879125466
 20
-624.68042653996
 30
0.0
1001
GENIUS_GENOBJ-N-CRS_13
1002
{
1000
OWNER
1000
GEN
1002
}
1001
GENIUS_GENOLIS_13
1002
{
1000
ENT
1005
0
1005
0
1005
0
1005
1D10
1002
}
1001
GENIUS_GENOENT_13
1002
{
1000
MYREF
1005
1D20
1002
}
1002
{
1000
GRP
1005
0
1002
}
1001
GENIUS_GENODEF_13
1002
{
1000
HIER
1070
    10
1002
}
1002
{
1000
MANEDIT
1070
     1
1002
}
1002
{
1000
NOSEL
1070
     0
1002
}
1002
{
1000
BEHIND
1070
     0
1002
}
1002
{
1000
OTHER
1070
     0
1002
}
1002
{
1000
REACTOR
1002
}
  0
POINT
  5
1D21
330
1F
100
AcDbEntity
  8
0
 60
     1
100
AcDbPoint
 10
-1633.103376477515
 20
-615.8048400613238
 30
0.0
1001
GENIUS_GENOBJ-N-CRS_13
1002
{
1000
OWNER
1000
GEN
1002
}
1001
GENIUS_GENOLIS_13
1002
{
1000
ENT
1005
0
1005
0
1005
0
1005
1D0F
1002
}
1001
GENIUS_GENOENT_13
1002
{
1000
MYREF
1005
1D21
1002
}
1002
{
1000
GRP
1005
0
1002
}
1001
GENIUS_GENODEF_13
1002
{
1000
HIER
1070
    10
1002
}
1002
{
1000
MANEDIT
1070
     1
1002
}
1002
{
1000
NOSEL
1070
     0
1002
}
1002
{
1000
BEHIND
1070
     0
1002
}
1002
{
1000
OTHER
1070
     0
1002
}
1002
{
1000
REACTOR
1002
}
  0
POINT
  5
1D22
330
1F
100
AcDbEntity
  8
0
 60
     1
100
AcDbPoint
 10
-1626.744702779678
 20
-624.68042653996
 30
0.0
1001
GENIUS_GENOBJ-N-CRS_13
1002
{
1000
OWNER
1000
GEN
1002
}
1001
GENIUS_GENOLIS_13
1002
{
1000
ENT
1005
0
1005
0
1005
0
1005
1D0E
1002
}
1001
GENIUS_GENOENT_13
1002
{
1000
MYREF
1005
1D22
1002
}
1002
{
1000
GRP
1005
0
1002
}
1001
GENIUS_GENODEF_13
1002
{
1000
HIER
1070
    10
1002
}
1002
{
1000
MANEDIT
1070
     1
1002
}
1002
{
1000
NOSEL
1070
     0
1002
}
1002
{
1000
BEHIND
1070
     0
1002
}
1002
{
1000
OTHER
1070
     0
1002
}
1002
{
1000
REACTOR
1002
}
  0
ENDSEC
  0
SECTION
  2
OBJECTS
  0
DICTIONARY
  5
C
330
0
100
AcDbDictionary
281
     1
  3
ACAD_COLOR
350
BE
  3
ACAD_GROUP
350
D
  3
ACAD_LAYOUT
350
1A
  3
ACAD_MATERIAL
350
BD
  3
ACAD_MLINESTYLE
350
17
  3
ACAD_PLOTSETTINGS
350
19
  3
ACAD_PLOTSTYLENAME
350
E
  3
ACAD_TABLESTYLE
350
11A
  3
ACDBHEADERROUNDTRIPXREC
350
1E7B
  3
AcDbVariableDictionary
350
94
  3
AcmDictionary
350
5B
  3
AMG
350
41
  3
AMGSNAPSETTINGS
350
1B8
  3
DWGPROPS
350
1E7A
  0
DICTIONARY
  5
3F9
330
2
100
AcDbDictionary
280
     1
281
     1
  3
ACAD_LAYERFILTERS
360
5B7
  3
ACAD_LAYERSTATES
360
12E9
  3
ACLYDICTIONARY
360
5B6
  0
DICTIONARY
  5
8F
330
1F
100
AcDbDictionary
280
     1
281
     1
  3
ACAD_SORTENTS
360
185F
  0
DICTIONARY
  5
1998
330
198C
100
AcDbDictionary
280
     1
281
     1
  3
ACAD_DIMASSOC
360
1999
  0
DICTIONARY
  5
19E2
330
19D5
100
AcDbDictionary
280
     1
281
     1
  3
ACAD_DIMASSOC
360
19E3
  0
DICTIONARY
  5
1A08
330
19FB
100
AcDbDictionary
280
     1
281
     1
  3
ACAD_DIMASSOC
360
1A09
  0
DICTIONARY
  5
1A2E
330
1A21
100
AcDbDictionary
280
     1
281
     1
  3
ACAD_DIMASSOC
360
1A2F
  0
DICTIONARY
  5
BE
102
{ACAD_REACTORS
330
C
102
}
330
C
100
AcDbDictionary
281
     1
  0
DICTIONARY
  5
D
102
{ACAD_REACTORS
330
C
102
}
330
C
100
AcDbDictionary
281
     1
  0
DICTIONARY
  5
1A
102
{ACAD_REACTORS
330
C
102
}
330
C
100
AcDbDictionary
281
     1
  3
Model
350
22
  3
配置1
350
1E
  3
配置2
350
26
  0
DICTIONARY
  5
BD
102
{ACAD_REACTORS
330
C
102
}
330
C
100
AcDbDictionary
281
     1
  0
DICTIONARY
  5
17
102
{ACAD_REACTORS
330
C
102
}
330
C
100
AcDbDictionary
281
     1
  3
Standard
350
18
  0
DICTIONARY
  5
19
102
{ACAD_REACTORS
330
C
102
}
330
C
100
AcDbDictionary
281
     1
  0
ACDBDICTIONARYWDFLT
  5
E
102
{ACAD_REACTORS
330
C
102
}
330
C
100
AcDbDictionary
281
     1
  3
Normal
350
F
100
AcDbDictionaryWithDefault
340
F
  0
DICTIONARY
  5
11A
102
{ACAD_REACTORS
330
C
102
}
330
C
100
AcDbDictionary
281
     1
  3
Standard
350
11B
  0
DICTIONARY
  5
1E7B
102
{ACAD_REACTORS
330
C
102
}
330
C
100
AcDbDictionary
281
     1
  0
DICTIONARY
  5
94
102
{ACAD_REACTORS
330
C
102
}
330
C
100
AcDbDictionary
281
     1
  3
CTABLESTYLE
350
138
  3
DIMASSOC
350
96
  3
INDEXCTL
350
95
  3
PROJECTNAME
350
1E78
  0
DICTIONARY
  5
5B
102
{ACAD_REACTORS
330
C
102
}
330
C
100
AcDbDictionary
281
     1
  3
AcmBOM
350
1B5
  3
AcmStdDictionary
350
61
  3
AMDTSECTSYM_ARROWCOLOR
350
123
  0
DICTIONARY
  5
41
102
{ACAD_REACTORS
330
C
102
}
330
C
100
AcDbDictionary
281
     1
  0
DICTIONARY
  5
1B8
102
{ACAD_REACTORS
330
C
102
}
330
C
100
AcDbDictionary
281
     1
  0
XRECORD
  5
1E7A
102
{ACAD_REACTORS
330
C
102
}
330
C
100
AcDbXrecord
280
     1
  1
DWGPROPS COOKIE
  2

  3

  4

  6

  7

  8

  9

300
AmdtFileType=84
301
=
302
=
303
=
304
=
305
=
306
=
307
=
308
=
309
=
 40
0.0501832060185185
 41
2454239.676751111
 42
2454240.350322801
  1

 90
        1
  0
DICTIONARY
  5
5B7
102
{ACAD_REACTORS
330
3F9
102
}
330
3F9
100
AcDbDictionary
281
     1
  0
DICTIONARY
  5
12E9
102
{ACAD_REACTORS
330
3F9
102
}
330
3F9
100
AcDbDictionary
281
     1
  0
DICTIONARY
  5
5B6
102
{ACAD_REACTORS
330
3F9
102
}
330
3F9
100
AcDbDictionary
281
     1
1001
ACAD
1000
<All
  0
SORTENTSTABLE
  5
185F
102
{ACAD_REACTORS
330
8F
102
}
330
8F
100
AcDbSortentsTable
330
1F
331
EBC
  5
EBC
331
EF3
  5
EF3
331
F32
  5
F32
331
E0E
  5
E0E
331
17ED
  5
17ED
331
EC4
  5
EC4
331
EFB
  5
EFB
331
F3A
  5
F3A
331
E5D
  5
E5D
331
DC7
  5
DC7
331
E16
  5
E16
331
F42
  5
F42
331
17A6
  5
17A6
331
E1E
  5
E1E
331
DCF
  5
DCF
331
ECC
  5
ECC
331
F03
  5
F03
331
ED4
  5
ED4
331
F0B
  5
F0B
331
E26
  5
E26
331
DD7
  5
DD7
331
1805
  5
1805
331
F13
  5
F13
331
E2E
  5
E2E
331
E9D
  5
E9D
331
DDF
  5
DDF
331
180D
  5
180D
331
DE7
  5
DE7
331
E36
  5
E36
331
F1B
  5
F1B
331
F23
  5
F23
331
EAD
  5
EAD
331
EEC
  5
EEC
331
17DE
  5
17DE
331
E07
  5
E07
331
EB5
  5
EB5
331
DB8
  5
DB8
331
E0F
  5
E0F
331
EBD
  5
EBD
331
EF4
  5
EF4
331
EC5
  5
EC5
331
EFC
  5
EFC
331
F3B
  5
F3B
331
E17
  5
E17
331
17EE
  5
17EE
331
DC8
  5
DC8
331
17A7
  5
17A7
331
ECD
  5
ECD
331
F04
  5
F04
331
F43
  5
F43
331
E8E
  5
E8E
331
E1F
  5
E1F
331
ED5
  5
ED5
331
F0C
  5
F0C
331
F4B
  5
F4B
331
E27
  5
E27
331
E96
  5
E96
331
1806
  5
1806
331
17B7
  5
17B7
331
E2F
  5
E2F
331
DE0
  5
DE0
331
F14
  5
F14
331
EE5
  5
EE5
331
F1C
  5
F1C
331
DE8
  5
DE8
331
E37
  5
E37
331
180E
  5
180E
331
E4F
  5
E4F
331
EAE
  5
EAE
331
EB6
  5
EB6
331
E08
  5
E08
331
DB9
  5
DB9
331
EBE
  5
EBE
331
E10
  5
E10
331
17EF
  5
17EF
331
E18
  5
E18
331
DC9
  5
DC9
331
EFD
  5
EFD
331
F3C
  5
F3C
331
F44
  5
F44
331
17A8
  5
17A8
331
E8F
  5
E8F
331
E20
  5
E20
331
ECE
  5
ECE
331
F05
  5
F05
331
F0D
  5
F0D
331
E97
  5
E97
331
17FF
  5
17FF
331
1807
  5
1807
331
E28
  5
E28
331
DD9
  5
DD9
331
17B8
  5
17B8
331
EDE
  5
EDE
331
F15
  5
F15
331
E9F
  5
E9F
331
DE1
  5
DE1
331
F64
  5
F64
331
180F
  5
180F
331
F1D
  5
F1D
331
EA7
  5
EA7
331
EAF
  5
EAF
331
E09
  5
E09
331
DBA
  5
DBA
331
E50
  5
E50
331
F35
  5
F35
331
E11
  5
E11
331
EBF
  5
EBF
331
EC7
  5
EC7
331
EFE
  5
EFE
331
F3D
  5
F3D
331
E19
  5
E19
331
17F0
  5
17F0
331
DCA
  5
DCA
331
ECF
  5
ECF
331
F06
  5
F06
331
F45
  5
F45
331
E21
  5
E21
331
E90
  5
E90
331
1800
  5
1800
331
F0E
  5
F0E
331
E29
  5
E29
331
E98
  5
E98
331
F55
  5
F55
331
17B9
  5
17B9
331
1808
  5
1808
331
EA0
  5
EA0
331
DE2
  5
DE2
331
E31
  5
E31
331
F16
  5
F16
331
17C9
  5
17C9
331
F1E
  5
F1E
331
1810
  5
1810
331
F26
  5
F26
331
11E2
  5
11E2
331
EB0
  5
EB0
331
F2E
  5
F2E
331
EB8
  5
EB8
331
E51
  5
E51
331
E0A
  5
E0A
331
DBB
  5
DBB
331
EC0
  5
EC0
331
EF7
  5
EF7
331
F36
  5
F36
331
E12
  5
E12
331
E1A
  5
E1A
331
EC8
  5
EC8
331
F3E
  5
F3E
331
F07
  5
F07
331
E22
  5
E22
331
E91
  5
E91
331
ED0
  5
ED0
331
F0F
  5
F0F
331
F4E
  5
F4E
331
1801
  5
1801
331
E2A
  5
E2A
331
E99
  5
E99
331
DDB
  5
DDB
331
17BA
  5
17BA
331
1809
  5
1809
331
F17
  5
F17
331
E32
  5
E32
331
EA1
  5
EA1
331
DE3
  5
DE3
331
1811
  5
1811
331
17CA
  5
17CA
331
EE8
  5
EE8
331
F1F
  5
F1F
331
EB1
  5
EB1
331
F2F
  5
F2F
331
EB9
  5
EB9
331
E0B
  5
E0B
331
DBC
  5
DBC
331
E52
  5
E52
331
EF8
  5
EF8
331
F37
  5
F37
331
E5A
  5
E5A
331
E13
  5
E13
331
EC1
  5
EC1
331
EC9
  5
EC9
331
F3F
  5
F3F
331
E1B
  5
E1B
331
F08
  5
F08
331
E23
  5
E23
331
1802
  5
1802
331
F4F
  5
F4F
331
E2B
  5
E2B
331
E9A
  5
E9A
331
DDC
  5
DDC
331
F10
  5
F10
331
F18
  5
F18
331
EA2
  5
EA2
331
DE4
  5
DE4
331
180A
  5
180A
331
17CB
  5
17CB
331
F20
  5
F20
331
EE9
  5
EE9
331
DB5
  5
DB5
331
F67
  5
F67
331
1812
  5
1812
331
EB2
  5
EB2
331
17DB
  5
17DB
331
EBA
  5
EBA
331
F30
  5
F30
331
E53
  5
E53
331
E0C
  5
E0C
331
EC2
  5
EC2
331
EF9
  5
EF9
331
F38
  5
F38
331
E14
  5
E14
331
E1C
  5
E1C
331
ECA
  5
ECA
331
F01
  5
F01
331
F40
  5
F40
331
F09
  5
F09
331
E24
  5
E24
331
E93
  5
E93
331
ED2
  5
ED2
331
F11
  5
F11
331
F50
  5
F50
331
E2C
  5
E2C
331
E9B
  5
E9B
331
DDD
  5
DDD
331
180B
  5
180B
331
DE5
  5
DE5
331
E34
  5
E34
331
F19
  5
F19
331
1813
  5
1813
331
F68
  5
F68
331
F21
  5
F21
331
17CC
  5
17CC
331
EAB
  5
EAB
331
EEA
  5
EEA
331
E4C
  5
E4C
331
DB6
  5
DB6
331
17DC
  5
17DC
331
EB3
  5
EB3
331
F31
  5
F31
331
E0D
  5
E0D
331
EBB
  5
EBB
331
EF2
  5
EF2
331
EC3
  5
EC3
331
EFA
  5
EFA
331
F39
  5
F39
331
E15
  5
E15
331
DC6
  5
DC6
331
ECB
  5
ECB
331
F02
  5
F02
331
F41
  5
F41
331
E1D
  5
E1D
331
DCE
  5
DCE
331
17A5
  5
17A5
331
F0A
  5
F0A
331
DD6
  5
DD6
331
E25
  5
E25
331
1804
  5
1804
331
E2D
  5
E2D
331
E9C
  5
E9C
331
DDE
  5
DDE
331
F12
  5
F12
331
F51
  5
F51
331
F1A
  5
F1A
331
DE6
  5
DE6
331
180C
  5
180C
331
F22
  5
F22
331
EEB
  5
EEB
331
E4D
  5
E4D
331
DB7
  5
DB7
331
EAC
  5
EAC
331
EB4
  5
EB4
331
17DD
  5
17DD
  0
DIMASSOC
  5
1999
102
{ACAD_REACTORS
330
1998
102
}
330
1998
100
AcDbDimAssoc
330
198C
 90
        2
 70
     0
 71
     0
  1
AcDbOsnapPointRef
 72
     3
331
EE5
 73
     2
 91
        0
 40
0.0
 10
0.0
 20
0.0
 30
0.0
 75
     0
  0
DIMASSOC
  5
19E3
102
{ACAD_REACTORS
330
19E2
102
}
330
19E2
100
AcDbDimAssoc
330
19D5
 90
        3
 70
     0
 71
     0
  1
AcDbOsnapPointRef
 72
    13
331
E53
 73
     0
 91
        0
 40
0.0
 10
0.0
 20
0.0
 30
2.000000000000000E+50
 75
     0
  1
AcDbOsnapPointRef
 72
    13
331
EAB
 73
     0
 91
        0
 40
0.0
 10
0.0
 20
0.0
 30
2.000000000000000E+50
 75
     0
  0
DIMASSOC
  5
1A09
102
{ACAD_REACTORS
330
1A08
102
}
330
1A08
100
AcDbDimAssoc
330
19FB
 90
        3
 70
     0
 71
     0
  1
AcDbOsnapPointRef
 72
    13
331
E4D
 73
     0
 91
        0
 40
0.0
 10
0.0
 20
0.0
 30
2.000000000000000E+50
 75
     0
  1
AcDbOsnapPointRef
 72
     1
331
E5A
 73
     0
 91
        0
 40
0.0
 10
0.0
 20
0.0
 30
2.000000000000000E+50
 75
     0
  0
DIMASSOC
  5
1A2F
102
{ACAD_REACTORS
330
1A2E
102
}
330
1A2E
100
AcDbDimAssoc
330
1A21
 90
        3
 70
     0
 71
     0
  1
AcDbOsnapPointRef
 72
     1
331
E5A
 73
     0
 91
        0
 40
0.0
 10
0.0
 20
0.0
 30
2.000000000000000E+50
 75
     0
  1
AcDbOsnapPointRef
 72
     1
331
DBB
 73
     0
 91
        0
 40
0.0
 10
0.0
 20
0.0
 30
2.000000000000000E+50
 75
     0
  0
LAYOUT
  5
22
102
{ACAD_XDICTIONARY
360
1E7E
102
}
102
{ACAD_REACTORS
330
1A
102
}
330
1A
100
AcDbPlotSettings
  1

  2
\\RD\EPSON Stylus C63 Series單色
  4
A4
  6

 40
3.757083177566528
 41
3.757076978683471
 42
3.757080078125
 43
3.757080078125
 44
209.9733276367187
 45
296.9683227539062
 46
0.0
 47
0.0
 48
0.0
 49
0.0
140
0.0
141
0.0
142
1.0
143
0.3405120737814363
 70
 11952
 72
     1
 73
     0
 74
     0
  7
單色出圖.ctb
 75
     0
147
2.936753428137963
148
-2047.07469463503
149
-1261.649717473083
100
AcDbLayout
  1
Model
 70
     1
 71
     0
 10
0.0
 20
0.0
 11
12.0
 21
9.0
 12
0.0
 22
0.0
 32
0.0
 14
0.0
 24
0.0
 34
0.0
 15
0.0
 25
0.0
 35
0.0
146
0.0
 13
0.0
 23
0.0
 33
0.0
 16
1.0
 26
0.0
 36
0.0
 17
0.0
 27
1.0
 37
0.0
 76
     0
330
1F
1001
ACAD_PSEXT
1000
\\RD\EPSON Stylus C63 Series單色
1000
EPSON Stylus C63 Series
1000
\\RD
1000

1070
     0
  0
LAYOUT
  5
1E
102
{ACAD_XDICTIONARY
360
1E7C
102
}
102
{ACAD_REACTORS
330
1A
102
}
330
1A
100
AcDbPlotSettings
  1

  2

  4

  6

 40
0.0
 41
0.0
 42
0.0
 43
0.0
 44
0.0
 45
0.0
 46
0.0
 47
0.0
 48
0.0
 49
0.0
140
0.0
141
0.0
142
1.0
143
1.0
 70
   688
 72
     0
 73
     0
 74
     5
  7
單色出圖.ctb
 75
    16
147
1.0
148
0.0
149
0.0
100
AcDbLayout
  1
配置1
 70
     1
 71
     1
 10
0.0
 20
0.0
 11
420.0
 21
297.0
 12
0.0
 22
0.0
 32
0.0
 14
1.000000000000000E+20
 24
1.000000000000000E+20
 34
1.000000000000000E+20
 15
-1.000000000000000E+20
 25
-1.000000000000000E+20
 35
-1.000000000000000E+20
146
0.0
 13
0.0
 23
0.0
 33
0.0
 16
1.0
 26
0.0
 36
0.0
 17
0.0
 27
1.0
 37
0.0
 76
     0
330
1B
  0
LAYOUT
  5
26
102
{ACAD_XDICTIONARY
360
1E80
102
}
102
{ACAD_REACTORS
330
1A
102
}
330
1A
100
AcDbPlotSettings
  1

  2

  4

  6

 40
0.0
 41
0.0
 42
0.0
 43
0.0
 44
0.0
 45
0.0
 46
0.0
 47
0.0
 48
0.0
 49
0.0
140
0.0
141
0.0
142
1.0
143
1.0
 70
   688
 72
     0
 73
     0
 74
     5
  7
單色出圖.ctb
 75
    16
147
1.0
148
0.0
149
0.0
100
AcDbLayout
  1
配置2
 70
     1
 71
     2
 10
0.0
 20
0.0
 11
12.0
 21
9.0
 12
0.0
 22
0.0
 32
0.0
 14
0.0
 24
0.0
 34
0.0
 15
0.0
 25
0.0
 35
0.0
146
0.0
 13
0.0
 23
0.0
 33
0.0
 16
1.0
 26
0.0
 36
0.0
 17
0.0
 27
1.0
 37
0.0
 76
     0
330
23
  0
MLINESTYLE
  5
18
102
{ACAD_REACTORS
330
17
102
}
330
17
100
AcDbMlineStyle
  2
STANDARD
 70
     0
  3

 62
   256
 51
90.0
 52
90.0
 71
     2
 49
0.5
 62
   256
  6
BYLAYER
 49
-0.5
 62
   256
  6
BYLAYER
  0
ACDBPLACEHOLDER
  5
F
102
{ACAD_REACTORS
330
E
102
}
330
E
  0
TABLESTYLE
  5
11B
102
{ACAD_REACTORS
330
11A
102
}
330
11A
100
AcDbTableStyle
  3
Standard
 70
     0
 71
     0
 40
1.5
 41
1.5
280
     0
281
     0
  7
STANDARD
140
4.5
170
     2
 62
     0
 63
     7
283
     0
274
    -2
284
     1
 64
     0
275
    -2
285
     1
 65
     0
276
    -2
286
     1
 66
     0
277
    -2
287
     1
 67
     0
278
    -2
288
     1
 68
     0
279
    -2
289
     1
 69
     0
  7
STANDARD
140
6.0
170
     5
 62
     0
 63
     7
283
     0
274
    -2
284
     1
 64
     0
275
    -2
285
     1
 65
     0
276
    -2
286
     1
 66
     0
277
    -2
287
     1
 67
     0
278
    -2
288
     1
 68
     0
279
    -2
289
     1
 69
     0
  7
STANDARD
140
4.5
170
     5
 62
     0
 63
     7
283
     0
274
    -2
284
     1
 64
     0
275
    -2
285
     1
 65
     0
276
    -2
286
     1
 66
     0
277
    -2
287
     1
 67
     0
278
    -2
288
     1
 68
     0
279
    -2
289
     1
 69
     0
  0
DICTIONARYVAR
  5
138
102
{ACAD_REACTORS
330
94
102
}
330
94
100
DictionaryVariables
280
     0
  1
STANDARD
  0
DICTIONARYVAR
  5
96
102
{ACAD_REACTORS
330
94
102
}
330
94
100
DictionaryVariables
280
     0
  1
2
  0
DICTIONARYVAR
  5
95
102
{ACAD_REACTORS
330
94
102
}
330
94
100
DictionaryVariables
280
     0
  1
0
  0
DICTIONARYVAR
  5
1E78
102
{ACAD_REACTORS
330
94
102
}
330
94
100
DictionaryVariables
280
     0
  1

  0
DICTIONARY
  5
1B5
102
{ACAD_REACTORS
330
5B
102
}
330
5B
100
AcDbDictionary
281
     1
  0
DICTIONARY
  5
61
102
{ACAD_REACTORS
330
5B
102
}
330
5B
100
AcDbDictionary
281
     1
  0
XRECORD
  5
123
102
{ACAD_REACTORS
330
5B
102
}
330
5B
100
AcDbXrecord
280
     1
 90
-1023410169
  0
DICTIONARY
  5
1E7E
330
22
100
AcDbDictionary
280
     1
281
     1
  3
ACAD_XREC_ROUNDTRIP
360
1E7F
  0
DICTIONARY
  5
1E7C
330
1E
100
AcDbDictionary
280
     1
281
     1
  3
ACAD_XREC_ROUNDTRIP
360
1E7D
  0
DICTIONARY
  5
1E80
330
26
100
AcDbDictionary
280
     1
281
     1
  3
ACAD_XREC_ROUNDTRIP
360
1E81
  0
XRECORD
  5
1E7F
102
{ACAD_REACTORS
330
1E7E
102
}
330
1E7E
100
AcDbXrecord
280
     1
102
SHADEPLOT
 70
     0
102
SHADEPLOTRESLEVEL
 70
     2
102
SHADEPLOTCUSTOMDPI
 70
   300
  0
XRECORD
  5
1E7D
102
{ACAD_REACTORS
330
1E7C
102
}
330
1E7C
100
AcDbXrecord
280
     1
102
SHADEPLOT
 70
     0
102
SHADEPLOTRESLEVEL
 70
     2
102
SHADEPLOTCUSTOMDPI
 70
   300
  0
XRECORD
  5
1E81
102
{ACAD_REACTORS
330
1E80
102
}
330
1E80
100
AcDbXrecord
280
     1
102
SHADEPLOT
 70
     0
102
SHADEPLOTRESLEVEL
 70
     2
102
SHADEPLOTCUSTOMDPI
 70
   300
  0
ENDSEC
  0
EOF
