  0
SECTION
  2
HEADER
  9
$ACADVER
  1
AC1015
  9
$ACADMAINTVER
 70
    20
  9
$DWGCODEPAGE
  3
ANSI_950
  9
$INSBASE
 10
0.0
 20
0.0
 30
0.0
  9
$EXTMIN
 10
-22.90199107859098
 20
31.98491393584232
 30
-0.0177380559177891
  9
$EXTMAX
 10
518.0686967729363
 20
475.5506396107559
 30
290.6513534082232
  9
$LIMMIN
 10
0.0
 20
0.0
  9
$LIMMAX
 10
420.0
 20
297.0
  9
$ORTHOMODE
 70
     1
  9
$REGENMODE
 70
     1
  9
$FILLMODE
 70
     1
  9
$QTEXTMODE
 70
     0
  9
$MIRRTEXT
 70
     1
  9
$LTSCALE
 40
2.0
  9
$ATTMODE
 70
     1
  9
$TEXTSIZE
 40
3.0
  9
$TRACEWID
 40
1.0
  9
$TEXTSTYLE
  7
CHINESET
  9
$CLAYER
  8
0
  9
$CELTYPE
  6
ByLayer
  9
$CECOLOR
 62
   256
  9
$CELTSCALE
 40
1.0
  9
$DISPSILH
 70
     0
  9
$DIMSCALE
 40
1.0
  9
$DIMASZ
 40
3.0
  9
$DIMEXO
 40
1.5
  9
$DIMDLI
 40
10.0
  9
$DIMRND
 40
0.0
  9
$DIMDLE
 40
0.0
  9
$DIMEXE
 40
1.5
  9
$DIMTP
 40
0.1
  9
$DIMTM
 40
0.1
  9
$DIMTXT
 40
3.0
  9
$DIMCEN
 40
0.0
  9
$DIMTSZ
 40
0.0
  9
$DIMTOL
 70
     0
  9
$DIMLIM
 70
     0
  9
$DIMTIH
 70
     0
  9
$DIMTOH
 70
     0
  9
$DIMSE1
 70
     0
  9
$DIMSE2
 70
     0
  9
$DIMTAD
 70
     1
  9
$DIMZIN
 70
     8
  9
$DIMBLK
  1

  9
$DIMASO
 70
     1
  9
$DIMSHO
 70
     1
  9
$DIMPOST
  1

  9
$DIMAPOST
  1
"
  9
$DIMALT
 70
     0
  9
$DIMALTD
 70
     2
  9
$DIMALTF
 40
0.0393701
  9
$DIMLFAC
 40
1.0
  9
$DIMTOFL
 70
     1
  9
$DIMTVP
 40
0.0
  9
$DIMTIX
 70
     0
  9
$DIMSOXD
 70
     0
  9
$DIMSAH
 70
     0
  9
$DIMBLK1
  1

  9
$DIMBLK2
  1

  9
$DIMSTYLE
  2
AM_ISO
  9
$DIMCLRD
 70
   256
  9
$DIMCLRE
 70
   256
  9
$DIMCLRT
 70
   256
  9
$DIMTFAC
 40
0.6
  9
$DIMGAP
 40
1.0
  9
$DIMJUST
 70
     0
  9
$DIMSD1
 70
     0
  9
$DIMSD2
 70
     0
  9
$DIMTOLJ
 70
     0
  9
$DIMTZIN
 70
     8
  9
$DIMALTZ
 70
     0
  9
$DIMALTTZ
 70
     0
  9
$DIMUPT
 70
     0
  9
$DIMDEC
 70
     2
  9
$DIMTDEC
 70
     8
  9
$DIMALTU
 70
     2
  9
$DIMALTTD
 70
     2
  9
$DIMTXSTY
  7
CHINESET
  9
$DIMAUNIT
 70
     0
  9
$DIMADEC
 70
     0
  9
$DIMALTRND
 40
0.0
  9
$DIMAZIN
 70
     2
  9
$DIMDSEP
 70
    46
  9
$DIMATFIT
 70
     3
  9
$DIMFRAC
 70
     0
  9
$DIMLDRBLK
  1

  9
$DIMLUNIT
 70
     2
  9
$DIMLWD
 70
    -1
  9
$DIMLWE
 70
    -1
  9
$DIMTMOVE
 70
     0
  9
$LUNITS
 70
     2
  9
$LUPREC
 70
     2
  9
$SKETCHINC
 40
1.0
  9
$FILLETRAD
 40
2.5
  9
$AUNITS
 70
     0
  9
$AUPREC
 70
     0
  9
$MENU
  1
.
  9
$ELEVATION
 40
0.0
  9
$PELEVATION
 40
0.0
  9
$THICKNESS
 40
0.0
  9
$LIMCHECK
 70
     0
  9
$CHAMFERA
 40
2.5
  9
$CHAMFERB
 40
2.5
  9
$CHAMFERC
 40
20.0
  9
$CHAMFERD
 40
0.0
  9
$SKPOLY
 70
     0
  9
$TDCREATE
 40
2454238.703322292
  9
$TDUCREATE
 40
2454238.369988958
  9
$TDUPDATE
 40
2454240.383078877
  9
$TDUUPDATE
 40
2454240.049745544
  9
$TDINDWG
 40
0.3981188542
  9
$TDUSRTIMER
 40
0.3981186806
  9
$USRTIMER
 70
     1
  9
$ANGBASE
 50
0.0
  9
$ANGDIR
 70
     0
  9
$PDMODE
 70
     0
  9
$PDSIZE
 40
0.0
  9
$PLINEWID
 40
0.0
  9
$SPLFRAME
 70
     0
  9
$SPLINETYPE
 70
     6
  9
$SPLINESEGS
 70
     8
  9
$HANDSEED
  5
1E07
  9
$SURFTAB1
 70
     6
  9
$SURFTAB2
 70
     6
  9
$SURFTYPE
 70
     6
  9
$SURFU
 70
     6
  9
$SURFV
 70
     6
  9
$UCSBASE
  2

  9
$UCSNAME
  2

  9
$UCSORG
 10
0.0
 20
0.0
 30
0.0
  9
$UCSXDIR
 10
1.0
 20
0.0
 30
0.0
  9
$UCSYDIR
 10
0.0
 20
1.0
 30
0.0
  9
$UCSORTHOREF
  2

  9
$UCSORTHOVIEW
 70
     0
  9
$UCSORGTOP
 10
0.0
 20
0.0
 30
0.0
  9
$UCSORGBOTTOM
 10
0.0
 20
0.0
 30
0.0
  9
$UCSORGLEFT
 10
0.0
 20
0.0
 30
0.0
  9
$UCSORGRIGHT
 10
0.0
 20
0.0
 30
0.0
  9
$UCSORGFRONT
 10
0.0
 20
0.0
 30
0.0
  9
$UCSORGBACK
 10
0.0
 20
0.0
 30
0.0
  9
$PUCSBASE
  2

  9
$PUCSNAME
  2

  9
$PUCSORG
 10
0.0
 20
0.0
 30
0.0
  9
$PUCSXDIR
 10
1.0
 20
0.0
 30
0.0
  9
$PUCSYDIR
 10
0.0
 20
1.0
 30
0.0
  9
$PUCSORTHOREF
  2

  9
$PUCSORTHOVIEW
 70
     0
  9
$PUCSORGTOP
 10
0.0
 20
0.0
 30
0.0
  9
$PUCSORGBOTTOM
 10
0.0
 20
0.0
 30
0.0
  9
$PUCSORGLEFT
 10
0.0
 20
0.0
 30
0.0
  9
$PUCSORGRIGHT
 10
0.0
 20
0.0
 30
0.0
  9
$PUCSORGFRONT
 10
0.0
 20
0.0
 30
0.0
  9
$PUCSORGBACK
 10
0.0
 20
0.0
 30
0.0
  9
$USERI1
 70
     0
  9
$USERI2
 70
     0
  9
$USERI3
 70
     0
  9
$USERI4
 70
     0
  9
$USERI5
 70
     0
  9
$USERR1
 40
0.0
  9
$USERR2
 40
0.0
  9
$USERR3
 40
0.0
  9
$USERR4
 40
0.0
  9
$USERR5
 40
0.0
  9
$WORLDVIEW
 70
     1
  9
$SHADEDGE
 70
     3
  9
$SHADEDIF
 70
    70
  9
$TILEMODE
 70
     1
  9
$MAXACTVP
 70
    64
  9
$PINSBASE
 10
0.0
 20
0.0
 30
0.0
  9
$PLIMCHECK
 70
     0
  9
$PEXTMIN
 10
1.000000000000000E+20
 20
1.000000000000000E+20
 30
1.000000000000000E+20
  9
$PEXTMAX
 10
-1.000000000000000E+20
 20
-1.000000000000000E+20
 30
-1.000000000000000E+20
  9
$PLIMMIN
 10
0.0
 20
0.0
  9
$PLIMMAX
 10
420.0
 20
297.0
  9
$UNITMODE
 70
     0
  9
$VISRETAIN
 70
     1
  9
$PLINEGEN
 70
     0
  9
$PSLTSCALE
 70
     1
  9
$TREEDEPTH
 70
  3020
  9
$CMLSTYLE
  2
Standard
  9
$CMLJUST
 70
     0
  9
$CMLSCALE
 40
20.0
  9
$PROXYGRAPHICS
 70
     1
  9
$MEASUREMENT
 70
     1
  9
$CELWEIGHT
370
    -1
  9
$ENDCAPS
280
     0
  9
$JOINSTYLE
280
     0
  9
$LWDISPLAY
290
     0
  9
$INSUNITS
 70
     4
  9
$HYPERLINKBASE
  1

  9
$STYLESHEET
  1
彩色出圖.ctb
  9
$XEDIT
290
     1
  9
$CEPSNTYPE
380
     0
  9
$PSTYLEMODE
290
     1
  9
$FINGERPRINTGUID
  2
{81D53D52-8153-4ABC-A666-3F721B34FCE6}
  9
$VERSIONGUID
  2
{2755D3A5-4A5B-4F65-983D-02E4A206EF99}
  9
$EXTNAMES
290
     1
  9
$PSVPSCALE
 40
0.0
  9
$OLESTARTUP
290
     0
  0
ENDSEC
  0
SECTION
  2
CLASSES
  0
CLASS
  1
ACDBDICTIONARYWDFLT
  2
AcDbDictionaryWithDefault
  3
ObjectDBX Classes
 90
        0
280
     0
281
     0
  0
CLASS
  1
ACDBPLACEHOLDER
  2
AcDbPlaceHolder
  3
ObjectDBX Classes
 90
        0
280
     0
281
     0
  0
CLASS
  1
LAYOUT
  2
AcDbLayout
  3
ObjectDBX Classes
 90
        0
280
     0
281
     0
  0
CLASS
  1
ACME_DOCUMENT
  2
AcMeDbDoc
  3
AcMeServices
 90
        0
280
     0
281
     0
  0
CLASS
  1
AMGSETTINGSOBJ
  2
AmgSettingsObj
  3
"AcadM|Product Description: AutoCAD Mechanical 2000|Company: Autodesk"
 90
        0
280
     0
281
     0
  0
CLASS
  1
ACMESCOPE
  2
AcMeScope
  3
AcMeServices
 90
        0
280
     0
281
     0
  0
CLASS
  1
ACMECOMMANDHISTORY
  2
AcMeCommandHistory
  3
AcMeServices
 90
        0
280
     0
281
     0
  0
CLASS
  1
ACIMSYSVARMAN
  2
AcImSysVarManager
  3
AcMeServices
 90
        0
280
     0
281
     0
  0
CLASS
  1
ACIMREALSYSVAR
  2
AcImRealSysVar
  3
AcMeServices
 90
        0
280
     0
281
     0
  0
CLASS
  1
ACIMINTSYSVAR
  2
AcImIntSysVar
  3
AcMeServices
 90
        0
280
     0
281
     0
  0
CLASS
  1
ACMEDRAWINGMAN
  2
AcMeDrawingMan
  3
AcMeServices
 90
        0
280
     0
281
     0
  0
CLASS
  1
ACMEVIEW
  2
AcMeView
  3
AcMeServices
 90
        0
280
     0
281
     0
  0
CLASS
  1
ACDBENTITYCACHE
  2
AcMeEntityCache
  3
AcMeServices
 90
        0
280
     0
281
     0
  0
CLASS
  1
GSMANAGER
  2
AcMeGSManager
  3
AcMeServices
 90
        0
280
     0
281
     0
  0
CLASS
  1
AMDTINTERNALREACTOR
  2
AmdtInternalReactor
  3
AcMeServices
 90
        0
280
     0
281
     0
  0
CLASS
  1
ACMESTATEMGR
  2
AcMeStateMgr
  3
AcMeServices
 90
        0
280
     0
281
     0
  0
CLASS
  1
ACGREFMASTER
  2
AcGrefMaster
  3
AcAttribServices
 90
        0
280
     0
281
     0
  0
CLASS
  1
ACME_DATABASE
  2
AcMeDbDatabase
  3
AcMeServices
 90
        0
280
     0
281
     0
  0
CLASS
  1
ACRFINSADJUSTERMGR
  2
AcRfInsAdjusterMgr
  3
AcMeServices
 90
        0
280
     0
281
     0
  0
CLASS
  1
ACGREFACADMASTER
  2
AcGrefacadMaster
  3
AcGrefServices
 90
        0
280
     0
281
     0
  0
CLASS
  1
AMIMASTER
  2
AmiMaster
  3
AmiServices
 90
        0
280
     0
281
     0
  0
CLASS
  1
ACMDATADICTIONARY
  2
AcmDataDictionary
  3
"AcmSymBB|Product Description: AutoCAD Mechanical 2004 DX|Company: Autodesk"
 90
        0
280
     0
281
     0
  0
CLASS
  1
ACMDATAENTRYBLOCK
  2
AcmDataEntryBlock
  3
"AcmSymBB|Product Description: AutoCAD Mechanical 2004 DX|Company: Autodesk"
 90
        0
280
     0
281
     0
  0
CLASS
  1
ACIMSTRSYSVAR
  2
AcImStrSysVar
  3
AcMeServices
 90
        0
280
     0
281
     0
  0
CLASS
  1
ACMSTANDARDISO
  2
AcmStandardISO
  3
"Amdt_StdImp|Product Description: AutoCAD Mechanical 2004 DX|Company: Autodesk"
 90
        0
280
     0
281
     0
  0
CLASS
  1
AMGOBJPROPCFG
  2
AmgObjPropCfg
  3
"AmgLay|Product Description: AutoCAD Mechanical 2000|Company: Autodesk"
 90
        1
280
     0
281
     0
  0
CLASS
  1
AMDTEDGESTANDARDISO
  2
AmdtEdgeStdISO
  3
"Amdt_StdImp|Product Description: AutoCAD Mechanical 2004 DX|Company: Autodesk"
 90
        0
280
     0
281
     0
  0
CLASS
  1
ACMSURFSTANDARDISO
  2
AcmSurfTextStdISO
  3
"Amdt_StdImp|Product Description: AutoCAD Mechanical 2004 DX|Company: Autodesk"
 90
        0
280
     0
281
     0
  0
CLASS
  1
ACMFCFSTANDARDISO
  2
AcmFCFStdISO
  3
"Amdt_StdImp|Product Description: AutoCAD Mechanical 2004 DX|Company: Autodesk"
 90
        0
280
     0
281
     0
  0
CLASS
  1
ACMWELDSTANDARDISO
  2
AcmWeldingStdISO
  3
"Amdt_StdImp|Product Description: AutoCAD Mechanical 2004 DX|Company: Autodesk"
 90
        0
280
     0
281
     0
  0
CLASS
  1
ACMIDSTANDARDISO
  2
AcmIdStdISO
  3
"Amdt_StdImp|Product Description: AutoCAD Mechanical 2004 DX|Company: Autodesk"
 90
        0
280
     0
281
     0
  0
CLASS
  1
ACMDATUMSTANDARDISO
  2
AcmDatumStdISO
  3
"Amdt_StdImp|Product Description: AutoCAD Mechanical 2004 DX|Company: Autodesk"
 90
        0
280
     0
281
     0
  0
CLASS
  1
ACMBOMSTANDARDISO
  2
AcmBOMStdISO
  3
"Amdt_StdImp|Product Description: AutoCAD Mechanical 2004 DX|Company: Autodesk"
 90
        0
280
     0
281
     0
  0
CLASS
  1
ACMDETAILSTANDARDISO
  2
AmdtDetailSymStdISO
  3
"Amdt_StdImp|Product Description: AutoCAD Mechanical 2004 DX|Company: Autodesk"
 90
        0
280
     0
281
     0
  0
CLASS
  1
ACMSECTIONSTANDARDISO
  2
AmdtSectionSymStdISO
  3
"Amdt_StdImp|Product Description: AutoCAD Mechanical 2004 DX|Company: Autodesk"
 90
        0
280
     0
281
     0
  0
CLASS
  1
ACMCENTERLINESTANDARDISO
  2
AmdtCenterLineStdISO
  3
"Amdt_StdImp|Product Description: AutoCAD Mechanical 2004 DX|Company: Autodesk"
 90
        0
280
     0
281
     0
  0
CLASS
  1
ACMNOTESTANDARDISO
  2
AmdtNoteStdISO
  3
"Amdt_StdImp|Product Description: AutoCAD Mechanical 2004 DX|Company: Autodesk"
 90
        0
280
     0
281
     0
  0
CLASS
  1
ACAMGLAYSTD
  2
AcAmgLayStd
  3
"AcAmgLayStd|Product Description: AutoCAD Mechanical 2000|Company: Autodesk"
 90
        0
280
     0
281
     0
  0
CLASS
  1
ACAMGDIMSTD
  2
AcAmgDimStd
  3
"AcAmgDimStd|Product Description: AutoCAD Mechanical 2000|Company: Autodesk"
 90
        0
280
     0
281
     0
  0
CLASS
  1
ACAMGHOLECHARTSTDISO
  2
AcAmgHoleChartStdISO
  3
ACMSYMBB_MODULE_NAME
 90
        0
280
     0
281
     0
  0
CLASS
  1
ACAMGTITLESTD
  2
AcAmgTitleStd
  3
"TITLEAPP"
 90
        0
280
     0
281
     0
  0
CLASS
  1
LAYER_INDEX
  2
AcDbLayerIndex
  3
ObjectDBX Classes
 90
    32768
280
     0
281
     0
  0
CLASS
  1
IDBUFFER
  2
AcDbIdBuffer
  3
ObjectDBX Classes
 90
    32768
280
     0
281
     0
  0
CLASS
  1
DICTIONARYVAR
  2
AcDbDictionaryVar
  3
ObjectDBX Classes
 90
        0
280
     0
281
     0
  0
CLASS
  1
AM_DRAWING_MGR
  2
AcDmDwgMgr
  3
AcMechDwgViewMgmt
 90
        0
280
     0
281
     0
  0
CLASS
  1
AM_DWG_DOCUMENT
  2
AcDmDwgDocument
  3
AcMechDwgViewMgmt
 90
        0
280
     0
281
     0
  0
CLASS
  1
AM_DWG_SHEET
  2
AcDmSheet
  3
AcMechDwgViewMgmt
 90
        0
280
     0
281
     0
  0
CLASS
  1
AM_VIEWDIMPARMAP
  2
AcDmViewDimParMap
  3
AcMechDwgViewMgmt
 90
        0
280
     0
281
     0
  0
CLASS
  1
AM_DWGMGR_NAME
  2
AcDmDwgMgrName
  3
AcMechDwgViewMgmt
 90
        0
280
     0
281
     0
  0
CLASS
  1
AMDTMENUSTATEMGR
  2
AmdtMenuStateMgr
  3
McadcomServices
 90
        0
280
     0
281
     0
  0
CLASS
  1
AMDTMCOMMENUSTATE
  2
AmdtMcomMenuState
  3
McadcomServices
 90
        0
280
     0
281
     0
  0
CLASS
  1
MAPIAMMOUDLE
  2
MApiAmModule
  3
MApiAmServices
 90
        0
280
     0
281
     0
  0
CLASS
  1
AMDTADMENUSTATE
  2
AmdtAdMenuState
  3
DesignerServices
 90
        0
280
     0
281
     0
  0
CLASS
  1
ADAPPL
  2
AcAdAppl
  3
DesignerServices
 90
        0
280
     0
281
     0
  0
CLASS
  1
DEPMGR
  2
AcAdDepMgr
  3
DesignerServices
 90
        0
280
     0
281
     0
  0
CLASS
  1
PARAMMGR
  2
AcAdParamMgr
  3
DesignerServices
 90
        0
280
     0
281
     0
  0
CLASS
  1
PARAMSCOPE
  2
AcAdParamScope
  3
DesignerServices
 90
        0
280
     0
281
     0
  0
CLASS
  1
NAMEDAPPL
  2
AcAdNamedAppl
  3
DesignerServices
 90
        0
280
     0
281
     0
  0
CLASS
  1
AMDTDMMENUSTATE
  2
AmdtDmMenuState
  3
AcMechDwgViewMgmt
 90
        0
280
     0
281
     0
  0
CLASS
  1
AMDTAMMENUSTATE
  2
AmdtAmMenuState
  3
DesignerAssemblies
 90
        0
280
     0
281
     0
  0
CLASS
  1
ACAMPROJECT
  2
AcAmProject
  3
DesignerAssemblies
 90
        0
280
     0
281
     0
  0
CLASS
  1
ACAMGRCOMPDEF
  2
AcAmGrCompDef
  3
DesignerAssemblies
 90
        0
280
     0
281
     0
  0
CLASS
  1
ACCMCONTEXT
  2
AcCmContext
  3
DesignerAssemblies
 90
        0
280
     0
281
     0
  0
CLASS
  1
ACAMCOMPDEF
  2
AcAmCompDef
  3
DesignerAssemblies
 90
        0
280
     0
281
     0
  0
CLASS
  1
ACAMCOMPDEFMGR
  2
AcAmCompDefMgr
  3
DesignerAssemblies
 90
        0
280
     0
281
     0
  0
CLASS
  1
AMCONTEXTMGR
  2
AcAmContextMgr
  3
DesignerAssemblies
 90
        0
280
     0
281
     0
  0
CLASS
  1
ACAMCONTEXTMODELER
  2
AcAmContextModeler
  3
DesignerAssemblies
 90
        0
280
     0
281
     0
  0
CLASS
  1
ACMTHREADLINESTANDARDISO
  2
AmdtThreadLineStdISO
  3
"Amdt_StdImp|Product Description: AutoCAD Mechanical 2004 DX|Company: Autodesk"
 90
        0
280
     0
281
     0
  0
CLASS
  1
CATALOGSTATE
  2
AcAmCatalogState
  3
DesignerAssemblies
 90
        0
280
     0
281
     0
  0
CLASS
  1
ACAMGRCOMPDEFSET
  2
AcAmGrCompDefSet
  3
DesignerAssemblies
 90
        0
280
     0
281
     0
  0
CLASS
  1
AMDTBROWSERDBTAB
  2
AmdtBrowserDbTab
  3
McadcomServices
 90
        0
280
     0
281
     0
  0
CLASS
  1
CBROWSERAPPOBJECT
  2
CBrowserAppObject
  3
McadcomServices
 90
        0
280
     0
281
     0
  0
CLASS
  1
DM_PLACEHOLDER
  2
AcDmSelsetPlaceholder
  3
AcMechDwgViewMgmt
 90
        0
280
     0
281
     0
  0
CLASS
  1
TABLESTYLE
  2
AcDbTableStyle
  3
ObjectDBX Classes
 90
     2047
280
     0
281
     0
  0
CLASS
  1
VAACXREFPANELOBJECT
  2
VaAcXREFPanelObject
  3
VAAC_ADDIN
 90
    32768
280
     0
281
     0
  0
CLASS
  1
VAACIMAGEINVENTORY
  2
VaAcImageInventory
  3
VAAC_ADDIN
 90
    32768
280
     0
281
     0
  0
CLASS
  1
AMDTNOTETEMPLATEDB
  2
AmdtNoteTemplateDB
  3
AMDT_STDIMP_MODULE_NAME
 90
        0
280
     0
281
     0
  0
CLASS
  1
ACMBOM
  2
AcmBom
  3
"AcmSymBB|Product Description: AutoCAD Mechanical 2004 DX|Company: Autodesk"
 90
    32768
280
     0
281
     0
  0
CLASS
  1
AMDTFORMULAUPDATEDISPATCHER
  2
AmdtFormulaUpdateDispatcher
  3
AcMeServices
 90
    32768
280
     0
281
     0
  0
CLASS
  1
ACMPARTLIST
  2
AcmPartList
  3
"AcmSymBB|Product Description: AutoCAD Mechanical 2004 DX|Company: Autodesk"
 90
    33791
280
     0
281
     1
  0
CLASS
  1
ACAMGFILTERDAT
  2
AcAmgFilterDat
  3
"AcadM|Product Description: AutoCAD Mechanical 2000|Company: Autodesk"
 90
        0
280
     0
281
     0
  0
CLASS
  1
DIMASSOC
  2
AcDbDimAssoc
  3
"AcDbDimAssoc|Product Desc:     AcDim ARX App For Dimension|Company:          Autodesk, Inc.|WEB Address:      www.autodesk.com"
 90
        0
280
     0
281
     0
  0
CLASS
  1
STDPART2D
  2
AmgStdPart
  3
"AmgStdPart|Product Description: AutoCAD Mechanical 2000|Company: Autodesk"
 90
    33791
280
     0
281
     1
  0
CLASS
  1
ACAMSTDPCOMPDEF
  2
AcAmStdpCompDef
  3
DesignerAssemblies
 90
    32768
280
     0
281
     0
  0
CLASS
  1
ACRFATTGENMGR
  2
AcRfAttGeneralMgr
  3
AcAttribServices
 90
        0
280
     0
281
     0
  0
CLASS
  1
ACRFOBJATTMGR
  2
AcRfObjAttGroupMgr
  3
AcAttribServices
 90
    32768
280
     0
281
     0
  0
CLASS
  1
ACRFMCADAPIATTHOLDER
  2
AcRfMCADAPIAttHolder
  3
AcAttribServices
 90
    32768
280
     0
281
     0
  0
CLASS
  1
AMDTSYSATTR
  2
AmdtSystemAttribute
  3
AcAttribServices
 90
    32768
280
     0
281
     0
  0
CLASS
  1
ACAMCOMP
  2
AcAmComp
  3
DesignerAssemblies
 90
    32768
280
     0
281
     0
  0
CLASS
  1
AC_AM_STDP_VIEW_DEF
  2
AcAmStdpViewDef
  3
DesignerAssemblies
 90
    32768
280
     0
281
     0
  0
CLASS
  1
AC_AM_MVD_DEP_MGR
  2
AcAmMVDdepMgr
  3
DesignerAssemblies
 90
        0
280
     0
281
     0
  0
CLASS
  1
AC_AM_MASTER_VIEW_DEF
  2
AcAmMasterViewDef
  3
DesignerAssemblies
 90
        0
280
     0
281
     0
  0
CLASS
  1
AC_AM_DIRTY_NODES
  2
AcAmDirtyNodes
  3
DesignerAssemblies
 90
        0
280
     0
281
     0
  0
CLASS
  1
AC_AM_MAPPER_CACHE
  2
AcAmMapperCache
  3
DesignerAssemblies
 90
        0
280
     0
281
     0
  0
CLASS
  1
ACAMMVDBACKUPOBJECT
  2
AcAmMVDBackupObject
  3
DesignerAssemblies
 90
        0
280
     0
281
     0
  0
CLASS
  1
AC_AM_COMP_VIEW_INST
  2
AcAmCompView
  3
DesignerAssemblies
 90
    32768
280
     0
281
     0
  0
CLASS
  1
AC_AM_2D_XREF_MGR
  2
AcAmXrefMgr2d
  3
DesignerAssemblies
 90
        0
280
     0
281
     0
  0
CLASS
  1
SORTENTSTABLE
  2
AcDbSortentsTable
  3
ObjectDBX Classes
 90
        0
280
     0
281
     0
  0
CLASS
  1
AMDTNOTE
  2
AmdtNote
  3
"AcmSymBB|Product Description: AutoCAD Mechanical 2004 DX|Company: Autodesk"
 90
     1023
280
     0
281
     1
  0
ENDSEC
  0
SECTION
  2
TABLES
  0
TABLE
  2
VPORT
  5
8
330
0
100
AcDbSymbolTable
 70
     5
  0
VPORT
  5
1DFE
330
8
100
AcDbSymbolTableRecord
100
AcDbViewportTableRecord
  2
*Active
 70
     0
 10
0.0
 20
0.0
 11
1.0
 21
1.0
 12
247.5833528471727
 22
253.7677767732991
 13
0.0
 23
0.0
 14
2.5
 24
2.5
 15
10.0
 25
10.0
 16
0.0
 26
0.0
 36
1.0
 17
0.0
 27
0.0
 37
0.0
 40
447.1768442014393
 41
1.661684782608695
 42
50.0
 43
0.0
 44
0.0
 50
0.0
 51
0.0
 71
     0
 72
   100
 73
     1
 74
     3
 75
     0
 76
     0
 77
     0
 78
     0
281
     0
 65
     1
110
0.0
120
0.0
130
0.0
111
1.0
121
0.0
131
0.0
112
0.0
122
1.0
132
0.0
 79
     0
146
0.0
  0
ENDTAB
  0
TABLE
  2
LTYPE
  5
5
330
0
100
AcDbSymbolTable
 70
    14
  0
LTYPE
  5
14
330
5
100
AcDbSymbolTableRecord
100
AcDbLinetypeTableRecord
  2
ByBlock
 70
     0
  3

 72
    65
 73
     0
 40
0.0
  0
LTYPE
  5
15
330
5
100
AcDbSymbolTableRecord
100
AcDbLinetypeTableRecord
  2
ByLayer
 70
     0
  3

 72
    65
 73
     0
 40
0.0
  0
LTYPE
  5
16
330
5
100
AcDbSymbolTableRecord
100
AcDbLinetypeTableRecord
  2
Continuous
 70
     0
  3
Solid line
 72
    65
 73
     0
 40
0.0
  0
LTYPE
  5
64
330
5
100
AcDbSymbolTableRecord
100
AcDbLinetypeTableRecord
  2
AM_ISO02W050
 70
     0
  3
__ __ __ __ __ __ __ __ __ __ __ __ __ __ __
 72
    65
 73
     2
 40
7.5
 49
6.0
 74
     0
 49
-1.5
 74
     0
  0
LTYPE
  5
65
330
5
100
AcDbSymbolTableRecord
100
AcDbLinetypeTableRecord
  2
AM_ISO08W050
 70
     0
  3
____ . ____ . ____ . ____ . ____ . ____ . ____
 72
    65
 73
     4
 40
18.0
 49
12.0
 74
     0
 49
-1.5
 74
     0
 49
3.0
 74
     0
 49
-1.5
 74
     0
  0
LTYPE
  5
66
330
5
100
AcDbSymbolTableRecord
100
AcDbLinetypeTableRecord
  2
AM_ISO09W050
 70
     0
  3
_____ . . _____ . . _____ . . ____ .. ____
 72
    65
 73
     6
 40
22.5
 49
12.0
 74
     0
 49
-1.5
 74
     0
 49
3.0
 74
     0
 49
-1.5
 74
     0
 49
3.0
 74
     0
 49
-1.5
 74
     0
  0
LTYPE
  5
67
330
5
100
AcDbSymbolTableRecord
100
AcDbLinetypeTableRecord
  2
Amconstr
 70
     0
  3
_______________________
 72
    65
 73
     2
 40
9999.0
 49
9999.0
 74
     0
 49
0.0
 74
     0
  0
LTYPE
  5
68
330
5
100
AcDbSymbolTableRecord
100
AcDbLinetypeTableRecord
  2
AM_ISO08W050x2
 70
     0
  3
__ . __ . __ . __ . __ . __
 72
    65
 73
     4
 40
9.0
 49
6.0
 74
     0
 49
-0.75
 74
     0
 49
1.5
 74
     0
 49
-0.75
 74
     0
  0
LTYPE
  5
69
330
5
100
AcDbSymbolTableRecord
100
AcDbLinetypeTableRecord
  2
AM_ISO02W050x2
 70
     0
  3
 _ _ _ _ _ _ _ _ _ _ _ _
 72
    65
 73
     2
 40
3.75
 49
3.0
 74
     0
 49
-0.75
 74
     0
  0
LTYPE
  5
6C
330
5
100
AcDbSymbolTableRecord
100
AcDbLinetypeTableRecord
  2
Amzigzag
 70
     0
  3
/\/-/\/-/\/-/\/-/\/-/\/
 72
    65
 73
     2
 40
11.0001
 49
0.0001
 74
     4
 75
   135
340
6B
 46
0.04
 50
0.0
 44
0.0
 45
0.0
 49
-11.0
 74
     0
  0
LTYPE
  5
7A
330
5
100
AcDbSymbolTableRecord
100
AcDbLinetypeTableRecord
  2
ACISOWELD
 70
     0
  3
_ _ _ _ _
 72
    65
 73
     2
 40
2.0
 49
2.0
 74
     0
 49
-1.0
 74
     0
  0
LTYPE
  5
7B
330
5
100
AcDbSymbolTableRecord
100
AcDbLinetypeTableRecord
  2
ACISOTGB
 70
     0
  3
__ . . __ . .
 72
    65
 73
     6
 40
9.0
 49
4.0
 74
     0
 49
-1.0
 74
     0
 49
1.0
 74
     0
 49
-1.0
 74
     0
 49
1.0
 74
     0
 49
-1.0
 74
     0
  0
LTYPE
  5
7C
330
5
100
AcDbSymbolTableRecord
100
AcDbLinetypeTableRecord
  2
ACISOTGL
 70
     0
  3
_ _ _ _ _
 72
    65
 73
     2
 40
3.0
 49
2.0
 74
     0
 49
-1.0
 74
     0
  0
LTYPE
  5
7E
330
5
100
AcDbSymbolTableRecord
100
AcDbLinetypeTableRecord
  2
CENTER
 70
     0
  3
__ . __
 72
    65
 73
     4
 40
7.0
 49
4.0
 74
     0
 49
-1.0
 74
     0
 49
1.0
 74
     0
 49
-1.0
 74
     0
  0
LTYPE
  5
D8
330
5
100
AcDbSymbolTableRecord
100
AcDbLinetypeTableRecord
  2
HIDDEN
 70
     0
  3
Hidden __ __ __ __ __ __ __ __ __ __ __ __ __ _
 72
    65
 73
     2
 40
9.524999999999998
 49
6.349999999999999
 74
     0
 49
-3.174999999999999
 74
     0
  0
LTYPE
  5
D9
330
5
100
AcDbSymbolTableRecord
100
AcDbLinetypeTableRecord
  2
PHANTOM2
 70
     0
  3
Phantom (.5x) ___ _ _ ___ _ _ ___ _ _ ___ _ _
 72
    65
 73
     6
 40
31.75
 49
15.875
 74
     0
 49
-3.174999999999999
 74
     0
 49
3.174999999999999
 74
     0
 49
-3.174999999999999
 74
     0
 49
3.174999999999999
 74
     0
 49
-3.174999999999999
 74
     0
  0
ENDTAB
  0
TABLE
  2
LAYER
  5
2
102
{ACAD_XDICTIONARY
360
3F9
102
}
330
0
100
AcDbSymbolTable
 70
     8
  0
LAYER
  5
10
330
2
100
AcDbSymbolTableRecord
100
AcDbLayerTableRecord
  2
0
 70
     0
 62
     7
  6
Continuous
370
    -3
390
F
  0
LAYER
  5
8CB
330
2
100
AcDbSymbolTableRecord
100
AcDbLayerTableRecord
  2
AM_5
 70
     0
 62
     5
  6
Continuous
370
    50
390
F
  0
LAYER
  5
939
330
2
100
AcDbSymbolTableRecord
100
AcDbLayerTableRecord
  2
Defpoints
 70
     0
 62
     7
  6
Continuous
290
     0
370
    -3
390
F
  0
LAYER
  5
D3B
330
2
100
AcDbSymbolTableRecord
100
AcDbLayerTableRecord
  2
Dim
 70
     0
 62
     5
  6
Continuous
370
    13
390
F
  0
LAYER
  5
10E1
330
2
100
AcDbSymbolTableRecord
100
AcDbLayerTableRecord
  2
AM_7
 70
     0
 62
     1
  6
CENTER
370
    25
390
F
  0
LAYER
  5
1267
330
2
100
AcDbSymbolTableRecord
100
AcDbLayerTableRecord
  2
AM_0
 70
     0
 62
     7
  6
Continuous
370
    50
390
F
  0
LAYER
  5
128D
330
2
100
AcDbSymbolTableRecord
100
AcDbLayerTableRecord
  2
AM_4
 70
     0
 62
     3
  6
Continuous
370
    25
390
F
  0
LAYER
  5
1B34
330
2
100
AcDbSymbolTableRecord
100
AcDbLayerTableRecord
  2
LOGO
 70
     0
 62
     7
  6
Continuous
370
    -3
390
F
  0
ENDTAB
  0
TABLE
  2
STYLE
  5
3
330
0
100
AcDbSymbolTable
 70
     7
  0
STYLE
  5
11
330
3
100
AcDbSymbolTableRecord
100
AcDbTextStyleTableRecord
  2
STANDARD
 70
     0
 40
0.0
 41
1.0
 50
0.0
 71
     0
 42
3.0
  3
ISOCP.SHX
  4
CHINESET.SHX
  0
STYLE
  5
6B
330
3
100
AcDbSymbolTableRecord
100
AcDbTextStyleTableRecord
  2

 70
     1
 40
0.0
 41
1.0
 50
0.0
 71
     0
 42
2.5
  3
ltypeshp.shx
  4

  0
STYLE
  5
6D
330
3
100
AcDbSymbolTableRecord
100
AcDbTextStyleTableRecord
  2
ACISOTS
 70
     0
 40
1.0
 41
1.0
 50
0.0
 71
     0
 42
1.0
  3
isocp.shx
  4
chineset.shx
  0
STYLE
  5
79
330
3
100
AcDbSymbolTableRecord
100
AcDbTextStyleTableRecord
  2
ACISOGDT
 70
     0
 40
0.0
 41
1.0
 50
0.0
 71
     0
 42
2.5
  3
amgdt.shx
  4
chineset.shx
  0
STYLE
  5
60C
330
3
100
AcDbSymbolTableRecord
100
AcDbTextStyleTableRecord
  2
CHINESET
 70
     0
 40
0.0
 41
1.0
 50
0.0
 71
     0
 42
3.0
  3
simplex.shx
  4
CHINESET.SHX
  0
STYLE
  5
D3D
330
3
100
AcDbSymbolTableRecord
100
AcDbTextStyleTableRecord
  2
China
 70
     0
 40
0.0
 41
1.0
 50
0.0
 71
     0
 42
1.5
  3
romans.shx
  4
chineset.shx
  0
ENDTAB
  0
TABLE
  2
VIEW
  5
6
330
0
100
AcDbSymbolTable
 70
     0
  0
ENDTAB
  0
TABLE
  2
UCS
  5
7
330
0
100
AcDbSymbolTable
 70
     0
  0
ENDTAB
  0
TABLE
  2
APPID
  5
9
330
0
100
AcDbSymbolTable
 70
    27
  0
APPID
  5
12
330
9
100
AcDbSymbolTableRecord
100
AcDbRegAppTableRecord
  2
ACAD
 70
     0
  0
APPID
  5
46
330
9
100
AcDbSymbolTableRecord
100
AcDbRegAppTableRecord
  2
MCAD_NO_VIS
 70
     0
  0
APPID
  5
47
330
9
100
AcDbSymbolTableRecord
100
AcDbRegAppTableRecord
  2
ACAD_TEMP_GRAPHIC
 70
     0
  0
APPID
  5
58
330
9
100
AcDbSymbolTableRecord
100
AcDbRegAppTableRecord
  2
ACATTRIBSERVICES
 70
     0
  0
APPID
  5
EE
330
9
100
AcDbSymbolTableRecord
100
AcDbRegAppTableRecord
  2
AD_DRAW
 70
     0
  0
APPID
  5
10C
330
9
100
AcDbSymbolTableRecord
100
AcDbRegAppTableRecord
  2
DESIGNERASSEMBLIES
 70
     0
  0
APPID
  5
111
330
9
100
AcDbSymbolTableRecord
100
AcDbRegAppTableRecord
  2
ACADM_DIM_EDIT
 70
     0
  0
APPID
  5
112
330
9
100
AcDbSymbolTableRecord
100
AcDbRegAppTableRecord
  2
AMDT_DM_ADJ
 70
     0
  0
APPID
  5
22C
330
9
100
AcDbSymbolTableRecord
100
AcDbRegAppTableRecord
  2
ACAD_DSTYLE_DIMTEXT_FILL
 70
     0
  0
APPID
  5
452
330
9
100
AcDbSymbolTableRecord
100
AcDbRegAppTableRecord
  2
GENIUS_GENOENT_13
 70
     0
  0
APPID
  5
453
330
9
100
AcDbSymbolTableRecord
100
AcDbRegAppTableRecord
  2
GENIUS_GENOBJ-N-CRS_13
 70
     0
  0
APPID
  5
454
330
9
100
AcDbSymbolTableRecord
100
AcDbRegAppTableRecord
  2
GENIUS_GENOLIS_13
 70
     0
  0
APPID
  5
455
330
9
100
AcDbSymbolTableRecord
100
AcDbRegAppTableRecord
  2
GENIUS_GENODEF_13
 70
     0
  0
APPID
  5
456
330
9
100
AcDbSymbolTableRecord
100
AcDbRegAppTableRecord
  2
GENIUS_GENOREF_13
 70
     0
  0
APPID
  5
6F3
330
9
100
AcDbSymbolTableRecord
100
AcDbRegAppTableRecord
  2
ACAD_PSEXT
 70
     0
  0
APPID
  5
808
330
9
100
AcDbSymbolTableRecord
100
AcDbRegAppTableRecord
  2
GENIUS_GENDTOL_13
 70
     0
  0
APPID
  5
10E3
330
9
100
AcDbSymbolTableRecord
100
AcDbRegAppTableRecord
  2
GENIUS_GENOBJ-N-CEN_13
 70
     0
  0
APPID
  5
10E4
330
9
100
AcDbSymbolTableRecord
100
AcDbRegAppTableRecord
  2
GENIUS_GENCEN_19
 70
     0
  0
APPID
  5
126E
330
9
100
AcDbSymbolTableRecord
100
AcDbRegAppTableRecord
  2
GEVID1179392162
 70
     0
  0
APPID
  5
126F
330
9
100
AcDbSymbolTableRecord
100
AcDbRegAppTableRecord
  2
GEVDC
 70
     0
  0
APPID
  5
1270
330
9
100
AcDbSymbolTableRecord
100
AcDbRegAppTableRecord
  2
GEVRADREF
 70
     0
  0
APPID
  5
1279
330
9
100
AcDbSymbolTableRecord
100
AcDbRegAppTableRecord
  2
AMG_2DHIDE
 70
     0
  0
APPID
  5
127A
330
9
100
AcDbSymbolTableRecord
100
AcDbRegAppTableRecord
  2
AMG_2DSTRUCT_BTR
 70
     0
  0
APPID
  5
128B
330
9
100
AcDbSymbolTableRecord
100
AcDbRegAppTableRecord
  2
ACADM_2DVIEW_IGN_NOTIFY
 70
     0
  0
APPID
  5
12CE
330
9
100
AcDbSymbolTableRecord
100
AcDbRegAppTableRecord
  2
GEVID1179392163
 70
     0
  0
APPID
  5
1B35
330
9
100
AcDbSymbolTableRecord
100
AcDbRegAppTableRecord
  2
GENIUS_GENREC_14
 70
     0
  0
APPID
  5
1B36
330
9
100
AcDbSymbolTableRecord
100
AcDbRegAppTableRecord
  2
GENIUS_GENOBJ-N-REC_13
 70
     0
  0
ENDTAB
  0
TABLE
  2
DIMSTYLE
  5
A
330
0
100
AcDbSymbolTable
 70
     9
100
AcDbDimStyleTable
 71
     3
340
81
340
8B
340
86
  0
DIMSTYLE
105
81
330
A
100
AcDbSymbolTableRecord
100
AcDbDimStyleTableRecord
  2
AM_ISO
 70
     0
  4
"
 41
3.0
 42
1.5
 43
10.0
 44
1.5
 47
0.1
 48
0.1
 73
     0
 74
     0
 77
     1
 78
     8
 79
     2
140
3.0
141
0.0
143
0.0393701
146
0.6
147
1.0
172
     1
176
   256
177
   256
178
   256
271
     2
272
     2
283
     0
284
     8
340
60C
371
    -1
372
    -1
  0
DIMSTYLE
105
82
102
{ACAD_REACTORS
330
1AD3
102
}
330
A
100
AcDbSymbolTableRecord
100
AcDbDimStyleTableRecord
  2
AM_ISO$3
 70
     0
  4
"
 41
3.0
 42
1.5
 43
10.0
 44
1.5
 47
0.1
 48
0.1
 73
     0
 77
     1
 78
     8
 79
     2
140
3.0
141
0.0
143
0.0393701
146
0.6
147
1.0
176
   256
177
   256
178
   256
271
     2
272
     2
283
     0
284
     8
288
     1
289
     0
340
60C
371
    -1
372
    -1
  0
DIMSTYLE
105
83
330
A
100
AcDbSymbolTableRecord
100
AcDbDimStyleTableRecord
  2
AM_ISO$4
 70
     0
  4
"
 41
3.0
 42
1.5
 43
10.0
 44
1.5
 47
0.1
 48
0.1
 73
     0
 77
     1
 78
     8
 79
     2
140
3.0
141
0.0
143
0.0393701
146
0.6
147
1.0
176
   256
177
   256
178
   256
271
     2
272
     2
283
     0
284
     8
288
     1
289
     0
340
60C
371
    -1
372
    -1
  0
DIMSTYLE
105
84
330
A
100
AcDbSymbolTableRecord
100
AcDbDimStyleTableRecord
  2
AM_ISO$6
 70
     0
  4
"
 41
3.0
 42
1.5
 43
10.0
 44
1.5
 47
0.1
 48
0.1
 73
     0
 74
     0
 78
     8
 79
     2
140
3.0
141
0.0
143
0.0393701
146
0.6
147
1.0
172
     1
176
   256
177
   256
178
   256
271
     2
272
     2
283
     0
284
     8
340
60C
371
    -1
372
    -1
  0
DIMSTYLE
105
85
330
A
100
AcDbSymbolTableRecord
100
AcDbDimStyleTableRecord
  2
AM_ISO$7
 70
     0
  4
"
 41
3.0
 42
1.5
 43
10.0
 44
1.5
 47
0.1
 48
0.1
 73
     0
 74
     0
 77
     1
 78
     8
 79
     2
140
5.0
141
0.0
143
0.0393701
146
0.6
147
1.0
172
     1
176
   256
177
   256
178
   256
271
     2
272
     2
283
     0
284
     8
340
60C
371
    -1
372
    -1
  0
DIMSTYLE
105
86
330
A
100
AcDbSymbolTableRecord
100
AcDbDimStyleTableRecord
  2
AM_ISO$SF
 70
     0
  4
"
 41
2.5
 42
1.0
 43
10.0
 44
1.0
 47
0.1
 48
0.1
 73
     0
 74
     0
 75
     1
 76
     1
 77
     1
 78
     8
 79
     2
140
3.5
141
0.0
143
0.0393701
146
0.71
147
1.5
172
     1
176
   256
177
   256
178
     2
271
     2
272
     3
274
     4
283
     0
284
     8
340
11
371
    -1
372
    -1
  0
DIMSTYLE
105
8B
330
A
100
AcDbSymbolTableRecord
100
AcDbDimStyleTableRecord
  2
AM_ISO$SH
 70
     0
  4
"
 41
2.5
 42
1.0
 43
10.0
 44
1.0
 47
0.1
 48
0.1
 73
     0
 74
     0
 75
     1
 76
     1
 77
     1
 78
     8
 79
     2
140
3.5
141
0.0
143
0.0393701
144
2.0
146
0.71
147
1.5
172
     1
173
     1
176
   256
177
   256
178
     2
271
     2
272
     3
274
     4
283
     0
284
     8
340
11
343
87
371
    -1
372
    -1
  0
DIMSTYLE
105
40B
102
{ACAD_REACTORS
330
135F
330
E65
330
EA1
330
EA2
330
E91
330
E90
330
E63
330
E94
330
E6E
330
1189
330
1188
330
ED7
330
E67
330
E66
330
EFC
330
EFB
330
179A
330
17CE
330
1888
330
1935
102
}
330
A
100
AcDbSymbolTableRecord
100
AcDbDimStyleTableRecord
  2
AM_ISO$0
 70
     0
  4
"
 41
3.0
 42
1.5
 43
10.0
 44
1.5
 47
0.1
 48
0.1
 73
     0
 74
     0
 77
     1
 78
     8
 79
     2
140
3.0
141
0.0
143
0.0393701
146
0.6
147
1.0
172
     1
176
   256
177
   256
178
   256
271
     2
272
     2
283
     0
284
     8
340
60C
371
    -1
372
    -1
  0
ENDTAB
  0
TABLE
  2
BLOCK_RECORD
  5
1
330
0
100
AcDbSymbolTable
 70
    34
  0
BLOCK_RECORD
  5
1F
102
{ACAD_XDICTIONARY
360
8F
102
}
330
1
100
AcDbSymbolTableRecord
100
AcDbBlockTableRecord
  2
*Model_Space
340
22
  0
BLOCK_RECORD
  5
1B
330
1
100
AcDbSymbolTableRecord
100
AcDbBlockTableRecord
  2
*Paper_Space
340
1E
  0
BLOCK_RECORD
  5
23
330
1
100
AcDbSymbolTableRecord
100
AcDbBlockTableRecord
  2
*Paper_Space0
340
26
  0
BLOCK_RECORD
  5
87
330
1
100
AcDbSymbolTableRecord
100
AcDbBlockTableRecord
  2
GENAXEH
340
0
  0
BLOCK_RECORD
  5
F7E
330
1
100
AcDbSymbolTableRecord
100
AcDbBlockTableRecord
  2
*D3
340
0
  0
BLOCK_RECORD
  5
F8A
330
1
100
AcDbSymbolTableRecord
100
AcDbBlockTableRecord
  2
*D4
340
0
  0
BLOCK_RECORD
  5
F96
330
1
100
AcDbSymbolTableRecord
100
AcDbBlockTableRecord
  2
*D5
340
0
  0
BLOCK_RECORD
  5
FA2
330
1
100
AcDbSymbolTableRecord
100
AcDbBlockTableRecord
  2
*D6
340
0
  0
BLOCK_RECORD
  5
FAE
330
1
100
AcDbSymbolTableRecord
100
AcDbBlockTableRecord
  2
*D7
340
0
  0
BLOCK_RECORD
  5
FBA
330
1
100
AcDbSymbolTableRecord
100
AcDbBlockTableRecord
  2
*D8
340
0
  0
BLOCK_RECORD
  5
FC6
330
1
100
AcDbSymbolTableRecord
100
AcDbBlockTableRecord
  2
*D9
340
0
  0
BLOCK_RECORD
  5
FD2
330
1
100
AcDbSymbolTableRecord
100
AcDbBlockTableRecord
  2
*D10
340
0
  0
BLOCK_RECORD
  5
FDD
330
1
100
AcDbSymbolTableRecord
100
AcDbBlockTableRecord
  2
*D11
340
0
  0
BLOCK_RECORD
  5
FE9
330
1
100
AcDbSymbolTableRecord
100
AcDbBlockTableRecord
  2
*D12
340
0
  0
BLOCK_RECORD
  5
FF5
330
1
100
AcDbSymbolTableRecord
100
AcDbBlockTableRecord
  2
*D13
340
0
  0
BLOCK_RECORD
  5
101B
330
1
100
AcDbSymbolTableRecord
100
AcDbBlockTableRecord
  2
*D14
340
0
  0
BLOCK_RECORD
  5
1027
330
1
100
AcDbSymbolTableRecord
100
AcDbBlockTableRecord
  2
*D15
340
0
  0
BLOCK_RECORD
  5
11CB
330
1
100
AcDbSymbolTableRecord
100
AcDbBlockTableRecord
  2
*D16
340
0
  0
BLOCK_RECORD
  5
11D9
330
1
100
AcDbSymbolTableRecord
100
AcDbBlockTableRecord
  2
*D17
340
0
  0
BLOCK_RECORD
  5
1290
330
1
100
AcDbSymbolTableRecord
100
AcDbBlockTableRecord
  2
*U19
340
0
  0
BLOCK_RECORD
  5
1360
330
1
100
AcDbSymbolTableRecord
100
AcDbBlockTableRecord
  2
*D20
340
0
  0
BLOCK_RECORD
  5
179B
330
1
100
AcDbSymbolTableRecord
100
AcDbBlockTableRecord
  2
*D21
340
0
  0
BLOCK_RECORD
  5
17CF
330
1
100
AcDbSymbolTableRecord
100
AcDbBlockTableRecord
  2
*D22
340
0
  0
BLOCK_RECORD
  5
1889
330
1
100
AcDbSymbolTableRecord
100
AcDbBlockTableRecord
  2
*D23
340
0
  0
BLOCK_RECORD
  5
1936
330
1
100
AcDbSymbolTableRecord
100
AcDbBlockTableRecord
  2
*D24
340
0
  0
BLOCK_RECORD
  5
1AD4
330
1
100
AcDbSymbolTableRecord
100
AcDbBlockTableRecord
  2
*D25
340
0
  0
BLOCK_RECORD
  5
1DC4
330
1
100
AcDbSymbolTableRecord
100
AcDbBlockTableRecord
  2
*S27
340
0
  0
BLOCK_RECORD
  5
1DCC
330
1
100
AcDbSymbolTableRecord
100
AcDbBlockTableRecord
  2
*S28
340
0
  0
BLOCK_RECORD
  5
1DD4
330
1
100
AcDbSymbolTableRecord
100
AcDbBlockTableRecord
  2
*S29
340
0
  0
BLOCK_RECORD
  5
1DDC
330
1
100
AcDbSymbolTableRecord
100
AcDbBlockTableRecord
  2
*S30
340
0
  0
BLOCK_RECORD
  5
1DE4
330
1
100
AcDbSymbolTableRecord
100
AcDbBlockTableRecord
  2
*S31
340
0
  0
BLOCK_RECORD
  5
1DEC
330
1
100
AcDbSymbolTableRecord
100
AcDbBlockTableRecord
  2
*S32
340
0
  0
BLOCK_RECORD
  5
1DF4
330
1
100
AcDbSymbolTableRecord
100
AcDbBlockTableRecord
  2
*S33
340
0
  0
ENDTAB
  0
ENDSEC
  0
SECTION
  2
BLOCKS
  0
BLOCK
  5
20
330
1F
100
AcDbEntity
  8
0
100
AcDbBlockBegin
  2
*Model_Space
 70
     0
 10
0.0
 20
0.0
 30
0.0
  3
*Model_Space
  1

  0
ENDBLK
  5
21
330
1F
100
AcDbEntity
  8
0
100
AcDbBlockEnd
  0
BLOCK
  5
1C
330
1B
100
AcDbEntity
 67
     1
  8
0
100
AcDbBlockBegin
  2
*Paper_Space
 70
     0
 10
0.0
 20
0.0
 30
0.0
  3
*Paper_Space
  1

  0
ENDBLK
  5
1D
330
1B
100
AcDbEntity
 67
     1
  8
0
100
AcDbBlockEnd
  0
BLOCK
  5
24
330
23
100
AcDbEntity
  8
0
100
AcDbBlockBegin
  2
*Paper_Space0
 70
     0
 10
0.0
 20
0.0
 30
0.0
  3
*Paper_Space0
  1

  0
ENDBLK
  5
25
330
23
100
AcDbEntity
  8
0
100
AcDbBlockEnd
  0
BLOCK
  5
89
330
87
100
AcDbEntity
  8
0
100
AcDbBlockBegin
  2
GENAXEH
 70
     0
 10
0.0
 20
0.0
 30
0.0
  3
GENAXEH
  1

  0
LINE
  5
88
330
87
100
AcDbEntity
  8
0
100
AcDbLine
 10
-1.0
 20
0.0
 30
0.0
 11
1.0
 21
0.0
 31
0.0
  0
ENDBLK
  5
8A
330
87
100
AcDbEntity
  8
0
100
AcDbBlockEnd
  0
BLOCK
  5
F88
330
F7E
100
AcDbEntity
  8
0
100
AcDbBlockBegin
  2
*D3
 70
     1
 10
0.0
 20
0.0
 30
0.0
  3
*D3
  1

  0
LINE
  5
1D39
330
F7E
100
AcDbEntity
  8
AM_5
100
AcDbLine
 10
284.9869726329115
 20
146.2811611425451
 30
0.0
 11
300.7059666329116
 21
146.2811611425451
 31
0.0
  0
LINE
  5
1D3A
330
F7E
100
AcDbEntity
  8
AM_5
100
AcDbLine
 10
243.3285256329114
 20
160.2811611425451
 30
0.0
 11
300.7059666329116
 21
160.2811611425451
 31
0.0
  0
LINE
  5
1D3B
330
F7E
100
AcDbEntity
  8
AM_5
100
AcDbLine
 10
299.2059666329116
 20
149.2811611425451
 30
0.0
 11
299.2059666329116
 21
157.2811611425451
 31
0.0
  0
SOLID
  5
1D3C
330
F7E
100
AcDbEntity
  8
AM_5
100
AcDbTrace
 10
298.7059666329116
 20
149.2811611425451
 30
0.0
 11
299.7059666329116
 21
149.2811611425451
 31
0.0
 12
299.2059666329116
 22
146.2811611425451
 32
0.0
 13
299.2059666329116
 23
146.2811611425451
 33
0.0
  0
SOLID
  5
1D3D
330
F7E
100
AcDbEntity
  8
AM_5
100
AcDbTrace
 10
298.7059666329116
 20
157.2811611425451
 30
0.0
 11
299.7059666329116
 21
157.2811611425451
 31
0.0
 12
299.2059666329116
 22
160.2811611425451
 32
0.0
 13
299.2059666329116
 23
160.2811611425451
 33
0.0
  0
MTEXT
  5
1D3E
330
F7E
100
AcDbEntity
  8
AM_5
100
AcDbMText
 10
296.7059666329115
 20
153.2811611425451
 30
0.0
 40
3.0
 41
0.0
 71
     5
 72
     1
  1
14
  7
CHINESET
 11
0.0000000000000001
 21
1.0
 31
0.0
 73
     1
 44
1.0
1001
ACAD
1000
MTEXTBEGIN
1070
    73
1070
     1
1070
    44
1040
1.0
1070
    74
1070
     0
1000
MTEXTEND
  0
POINT
  5
1D3F
330
F7E
100
AcDbEntity
  8
Defpoints
 62
     0
100
AcDbPoint
 10
283.4869726329115
 20
146.2811611425451
 30
0.0
  0
POINT
  5
1D40
330
F7E
100
AcDbEntity
  8
Defpoints
 62
     0
100
AcDbPoint
 10
241.8285256329115
 20
160.2811611425451
 30
0.0
  0
POINT
  5
1D41
330
F7E
100
AcDbEntity
  8
Defpoints
 62
     0
100
AcDbPoint
 10
299.2059666329116
 20
160.2811611425451
 30
0.0
  0
ENDBLK
  5
F89
330
F7E
100
AcDbEntity
  8
0
100
AcDbBlockEnd
  0
BLOCK
  5
F94
330
F8A
100
AcDbEntity
  8
0
100
AcDbBlockBegin
  2
*D4
 70
     1
 10
0.0
 20
0.0
 30
0.0
  3
*D4
  1

  0
LINE
  5
1C79
330
F8A
100
AcDbEntity
  8
AM_5
100
AcDbLine
 10
264.0059676329116
 20
311.1528306795111
 30
0.0
 11
302.8663509306722
 21
311.1528306795111
 31
0.0
  0
LINE
  5
1C7A
330
F8A
100
AcDbEntity
  8
AM_5
100
AcDbLine
 10
264.0059676329116
 20
269.1525866795111
 30
0.0
 11
302.8663509306722
 21
269.1525866795111
 31
0.0
  0
LINE
  5
1C7B
330
F8A
100
AcDbEntity
  8
AM_5
100
AcDbLine
 10
301.3663509306722
 20
308.1528306795111
 30
0.0
 11
301.3663509306722
 21
272.1525866795111
 31
0.0
  0
SOLID
  5
1C7C
330
F8A
100
AcDbEntity
  8
AM_5
100
AcDbTrace
 10
300.8663509306722
 20
308.1528306795111
 30
0.0
 11
301.8663509306722
 21
308.1528306795111
 31
0.0
 12
301.3663509306722
 22
311.1528306795111
 32
0.0
 13
301.3663509306722
 23
311.1528306795111
 33
0.0
  0
SOLID
  5
1C7D
330
F8A
100
AcDbEntity
  8
AM_5
100
AcDbTrace
 10
300.8663509306722
 20
272.1525866795111
 30
0.0
 11
301.8663509306722
 21
272.1525866795111
 31
0.0
 12
301.3663509306722
 22
269.1525866795111
 32
0.0
 13
301.3663509306722
 23
269.1525866795111
 33
0.0
  0
MTEXT
  5
1C7E
330
F8A
100
AcDbEntity
  8
AM_5
100
AcDbMText
 10
298.8663509306721
 20
290.1527086795112
 30
0.0
 40
3.0
 41
0.0
 71
     5
 72
     1
  1
42
  7
CHINESET
 11
0.0000000000000001
 21
1.0
 31
0.0
 73
     1
 44
1.0
1001
ACAD
1000
MTEXTBEGIN
1070
    73
1070
     1
1070
    44
1040
1.0
1070
    74
1070
     0
1000
MTEXTEND
  0
POINT
  5
1C7F
330
F8A
100
AcDbEntity
  8
Defpoints
 62
     0
100
AcDbPoint
 10
262.5059676329116
 20
311.1528306795111
 30
0.0
  0
POINT
  5
1C80
330
F8A
100
AcDbEntity
  8
Defpoints
 62
     0
100
AcDbPoint
 10
262.5059676329116
 20
269.1525866795111
 30
0.0
  0
POINT
  5
1C81
330
F8A
100
AcDbEntity
  8
Defpoints
 62
     0
100
AcDbPoint
 10
301.3663509306722
 20
269.1525866795111
 30
0.0
  0
ENDBLK
  5
F95
330
F8A
100
AcDbEntity
  8
0
100
AcDbBlockEnd
  0
BLOCK
  5
FA0
330
F96
100
AcDbEntity
  8
0
100
AcDbBlockBegin
  2
*D5
 70
     1
 10
0.0
 20
0.0
 30
0.0
  3
*D5
  1

  0
LINE
  5
1C82
330
F96
100
AcDbEntity
  8
AM_5
100
AcDbLine
 10
243.8158296329115
 20
411.2809500694549
 30
0.0
 11
300.7059666329116
 21
411.2809500694549
 31
0.0
  0
LINE
  5
1C83
330
F96
100
AcDbEntity
  8
AM_5
100
AcDbLine
 10
243.8158296329115
 20
395.280950069455
 30
0.0
 11
300.7059666329116
 21
395.280950069455
 31
0.0
  0
LINE
  5
1C84
330
F96
100
AcDbEntity
  8
AM_5
100
AcDbLine
 10
299.2059666329116
 20
408.2809500694549
 30
0.0
 11
299.2059666329116
 21
398.2809500694549
 31
0.0
  0
SOLID
  5
1C85
330
F96
100
AcDbEntity
  8
AM_5
100
AcDbTrace
 10
298.7059666329116
 20
408.2809500694549
 30
0.0
 11
299.7059666329116
 21
408.2809500694549
 31
0.0
 12
299.2059666329116
 22
411.2809500694549
 32
0.0
 13
299.2059666329116
 23
411.2809500694549
 33
0.0
  0
SOLID
  5
1C86
330
F96
100
AcDbEntity
  8
AM_5
100
AcDbTrace
 10
298.7059666329116
 20
398.2809500694549
 30
0.0
 11
299.7059666329116
 21
398.2809500694549
 31
0.0
 12
299.2059666329116
 22
395.280950069455
 32
0.0
 13
299.2059666329116
 23
395.280950069455
 33
0.0
  0
MTEXT
  5
1C87
330
F96
100
AcDbEntity
  8
AM_5
100
AcDbMText
 10
296.7059666329114
 20
403.280950069455
 30
0.0
 40
3.0
 41
0.0
 71
     5
 72
     1
  1
16
  7
CHINESET
 11
0.0000000000000001
 21
1.0
 31
0.0
 73
     1
 44
1.0
1001
ACAD
1000
MTEXTBEGIN
1070
    73
1070
     1
1070
    44
1040
1.0
1070
    74
1070
     0
1000
MTEXTEND
  0
POINT
  5
1C88
330
F96
100
AcDbEntity
  8
Defpoints
 62
     0
100
AcDbPoint
 10
242.3158296329114
 20
411.2809500694549
 30
0.0
  0
POINT
  5
1C89
330
F96
100
AcDbEntity
  8
Defpoints
 62
     0
100
AcDbPoint
 10
242.3158296329114
 20
395.280950069455
 30
0.0
  0
POINT
  5
1C8A
330
F96
100
AcDbEntity
  8
Defpoints
 62
     0
100
AcDbPoint
 10
299.2059666329116
 20
395.280950069455
 30
0.0
  0
ENDBLK
  5
FA1
330
F96
100
AcDbEntity
  8
0
100
AcDbBlockEnd
  0
BLOCK
  5
FAC
330
FA2
100
AcDbEntity
  8
0
100
AcDbBlockBegin
  2
*D6
 70
     1
 10
0.0
 20
0.0
 30
0.0
  3
*D6
  1

  0
LINE
  5
1C8B
330
FA2
100
AcDbEntity
  8
AM_5
100
AcDbLine
 10
237.2059666329116
 20
418.0896660694548
 30
0.0
 11
237.2059666329116
 21
431.7808280694549
 31
0.0
  0
LINE
  5
1C8C
330
FA2
100
AcDbEntity
  8
AM_5
100
AcDbLine
 10
287.2059666329116
 20
419.7808280694549
 30
0.0
 11
287.2059666329116
 21
431.7808280694549
 31
0.0
  0
LINE
  5
1C8D
330
FA2
100
AcDbEntity
  8
AM_5
100
AcDbLine
 10
240.2059666329115
 20
430.280828069455
 30
0.0
 11
284.2059666329116
 21
430.280828069455
 31
0.0
  0
SOLID
  5
1C8E
330
FA2
100
AcDbEntity
  8
AM_5
100
AcDbTrace
 10
240.2059666329115
 20
430.7808280694549
 30
0.0
 11
240.2059666329115
 21
429.780828069455
 31
0.0
 12
237.2059666329116
 22
430.280828069455
 32
0.0
 13
237.2059666329116
 23
430.280828069455
 33
0.0
  0
SOLID
  5
1C8F
330
FA2
100
AcDbEntity
  8
AM_5
100
AcDbTrace
 10
284.2059666329116
 20
430.7808280694549
 30
0.0
 11
284.2059666329116
 21
429.780828069455
 31
0.0
 12
287.2059666329116
 22
430.280828069455
 32
0.0
 13
287.2059666329116
 23
430.280828069455
 33
0.0
  0
MTEXT
  5
1C90
330
FA2
100
AcDbEntity
  8
AM_5
100
AcDbMText
 10
262.2059666329116
 20
432.7808280694549
 30
0.0
 40
3.0
 41
0.0
 71
     5
 72
     1
  1
50
  7
CHINESET
 73
     1
 44
1.0
1001
ACAD
1000
MTEXTBEGIN
1070
    73
1070
     1
1070
    44
1040
1.0
1070
    74
1070
     0
1000
MTEXTEND
  0
POINT
  5
1C91
330
FA2
100
AcDbEntity
  8
Defpoints
 62
     0
100
AcDbPoint
 10
237.2059666329116
 20
416.5896660694548
 30
0.0
  0
POINT
  5
1C92
330
FA2
100
AcDbEntity
  8
Defpoints
 62
     0
100
AcDbPoint
 10
287.2059666329116
 20
418.2808280694549
 30
0.0
  0
POINT
  5
1C93
330
FA2
100
AcDbEntity
  8
Defpoints
 62
     0
100
AcDbPoint
 10
287.2059666329116
 20
430.280828069455
 30
0.0
  0
ENDBLK
  5
FAD
330
FA2
100
AcDbEntity
  8
0
100
AcDbBlockEnd
  0
BLOCK
  5
FB8
330
FAE
100
AcDbEntity
  8
0
100
AcDbBlockBegin
  2
*D7
 70
     1
 10
0.0
 20
0.0
 30
0.0
  3
*D7
  1

  0
LINE
  5
1C94
330
FAE
100
AcDbEntity
  8
AM_5
100
AcDbLine
 10
193.7171966329116
 20
312.6528306795111
 30
0.0
 11
142.5907966329115
 21
312.6528306795111
 31
0.0
  0
LINE
  5
1C95
330
FAE
100
AcDbEntity
  8
AM_5
100
AcDbLine
 10
196.7059666329115
 20
267.6525866795111
 30
0.0
 11
142.5907966329115
 21
267.6525866795111
 31
0.0
  0
LINE
  5
1C96
330
FAE
100
AcDbEntity
  8
AM_5
100
AcDbLine
 10
144.0907966329115
 20
309.6528306795111
 30
0.0
 11
144.0907966329115
 21
270.6525866795111
 31
0.0
  0
SOLID
  5
1C97
330
FAE
100
AcDbEntity
  8
AM_5
100
AcDbTrace
 10
143.5907966329115
 20
309.6528306795111
 30
0.0
 11
144.5907966329115
 21
309.6528306795111
 31
0.0
 12
144.0907966329115
 22
312.6528306795111
 32
0.0
 13
144.0907966329115
 23
312.6528306795111
 33
0.0
  0
SOLID
  5
1C98
330
FAE
100
AcDbEntity
  8
AM_5
100
AcDbTrace
 10
143.5907966329115
 20
270.6525866795111
 30
0.0
 11
144.5907966329115
 21
270.6525866795111
 31
0.0
 12
144.0907966329115
 22
267.6525866795111
 32
0.0
 13
144.0907966329115
 23
267.6525866795111
 33
0.0
  0
MTEXT
  5
1C99
330
FAE
100
AcDbEntity
  8
AM_5
100
AcDbMText
 10
141.5907966329115
 20
290.1527086795112
 30
0.0
 40
3.0
 41
0.0
 71
     5
 72
     1
  1
45
  7
CHINESET
 11
0.0000000000000001
 21
1.0
 31
0.0
 73
     1
 44
1.0
1001
ACAD
1000
MTEXTBEGIN
1070
    73
1070
     1
1070
    44
1040
1.0
1070
    74
1070
     0
1000
MTEXTEND
  0
POINT
  5
1C9A
330
FAE
100
AcDbEntity
  8
Defpoints
 62
     0
100
AcDbPoint
 10
195.2171966329116
 20
312.6528306795111
 30
0.0
  0
POINT
  5
1C9B
330
FAE
100
AcDbEntity
  8
Defpoints
 62
     0
100
AcDbPoint
 10
198.2059666329115
 20
267.6525866795111
 30
0.0
  0
POINT
  5
1C9C
330
FAE
100
AcDbEntity
  8
Defpoints
 62
     0
100
AcDbPoint
 10
144.0907966329115
 20
267.6525866795111
 30
0.0
  0
ENDBLK
  5
FB9
330
FAE
100
AcDbEntity
  8
0
100
AcDbBlockEnd
  0
BLOCK
  5
FC4
330
FBA
100
AcDbEntity
  8
0
100
AcDbBlockBegin
  2
*D8
 70
     1
 10
0.0
 20
0.0
 30
0.0
  3
*D8
  1

  0
LINE
  5
1C9D
330
FBA
100
AcDbEntity
  8
AM_5
100
AcDbLine
 10
201.2062106329116
 20
261.2861316795111
 30
0.0
 11
201.2062106329116
 21
211.6569938636658
 31
0.0
  0
LINE
  5
1C9E
330
FBA
100
AcDbEntity
  8
AM_5
100
AcDbLine
 10
287.2059666329116
 20
227.9073067055796
 30
0.0
 11
287.2059666329116
 21
211.6569938636658
 31
0.0
  0
LINE
  5
1C9F
330
FBA
100
AcDbEntity
  8
AM_5
100
AcDbLine
 10
204.2062106329116
 20
213.1569938636658
 30
0.0
 11
284.2059666329116
 21
213.1569938636658
 31
0.0
  0
SOLID
  5
1CA0
330
FBA
100
AcDbEntity
  8
AM_5
100
AcDbTrace
 10
204.2062106329116
 20
213.6569938636658
 30
0.0
 11
204.2062106329116
 21
212.6569938636658
 31
0.0
 12
201.2062106329116
 22
213.1569938636658
 32
0.0
 13
201.2062106329116
 23
213.1569938636658
 33
0.0
  0
SOLID
  5
1CA1
330
FBA
100
AcDbEntity
  8
AM_5
100
AcDbTrace
 10
284.2059666329116
 20
213.6569938636658
 30
0.0
 11
284.2059666329116
 21
212.6569938636658
 31
0.0
 12
287.2059666329116
 22
213.1569938636658
 32
0.0
 13
287.2059666329116
 23
213.1569938636658
 33
0.0
  0
MTEXT
  5
1CA2
330
FBA
100
AcDbEntity
  8
AM_5
100
AcDbMText
 10
244.2060886329116
 20
215.6569938636658
 30
0.0
 40
3.0
 41
0.0
 71
     5
 72
     1
  1
86
  7
CHINESET
 73
     1
 44
1.0
1001
ACAD
1000
MTEXTBEGIN
1070
    73
1070
     1
1070
    44
1040
1.0
1070
    74
1070
     0
1000
MTEXTEND
  0
POINT
  5
1CA3
330
FBA
100
AcDbEntity
  8
Defpoints
 62
     0
100
AcDbPoint
 10
201.2062106329116
 20
262.7861316795111
 30
0.0
  0
POINT
  5
1CA4
330
FBA
100
AcDbEntity
  8
Defpoints
 62
     0
100
AcDbPoint
 10
287.2059666329116
 20
229.4073067055796
 30
0.0
  0
POINT
  5
1CA5
330
FBA
100
AcDbEntity
  8
Defpoints
 62
     0
100
AcDbPoint
 10
287.2059666329116
 20
213.1569938636658
 30
0.0
  0
ENDBLK
  5
FC5
330
FBA
100
AcDbEntity
  8
0
100
AcDbBlockEnd
  0
BLOCK
  5
FD0
330
FC6
100
AcDbEntity
  8
0
100
AcDbBlockBegin
  2
*D9
 70
     1
 10
0.0
 20
0.0
 30
0.0
  3
*D9
  1

  0
LINE
  5
1CA6
330
FC6
100
AcDbEntity
  8
AM_5
100
AcDbLine
 10
287.2059666329116
 20
216.9107712086619
 30
0.0
 11
287.2059666329116
 21
201.6569938636658
 31
0.0
  0
LINE
  5
1CA7
330
FC6
100
AcDbEntity
  8
AM_5
100
AcDbLine
 10
180.2062106329116
 20
260.1525866795111
 30
0.0
 11
180.2062106329116
 21
201.6569938636658
 31
0.0
  0
LINE
  5
1CA8
330
FC6
100
AcDbEntity
  8
AM_5
100
AcDbLine
 10
284.2059666329116
 20
203.1569938636658
 30
0.0
 11
183.2062106329116
 21
203.1569938636658
 31
0.0
  0
SOLID
  5
1CA9
330
FC6
100
AcDbEntity
  8
AM_5
100
AcDbTrace
 10
284.2059666329116
 20
203.6569938636658
 30
0.0
 11
284.2059666329116
 21
202.6569938636658
 31
0.0
 12
287.2059666329116
 22
203.1569938636658
 32
0.0
 13
287.2059666329116
 23
203.1569938636658
 33
0.0
  0
SOLID
  5
1CAA
330
FC6
100
AcDbEntity
  8
AM_5
100
AcDbTrace
 10
183.2062106329116
 20
203.6569938636658
 30
0.0
 11
183.2062106329116
 21
202.6569938636658
 31
0.0
 12
180.2062106329116
 22
203.1569938636658
 32
0.0
 13
180.2062106329116
 23
203.1569938636658
 33
0.0
  0
MTEXT
  5
1CAB
330
FC6
100
AcDbEntity
  8
AM_5
100
AcDbMText
 10
233.7060886329116
 20
205.6569938636658
 30
0.0
 40
3.0
 41
0.0
 71
     5
 72
     1
  1
107
  7
CHINESET
 73
     1
 44
1.0
1001
ACAD
1000
MTEXTBEGIN
1070
    73
1070
     1
1070
    44
1040
1.0
1070
    74
1070
     0
1000
MTEXTEND
  0
POINT
  5
1CAC
330
FC6
100
AcDbEntity
  8
Defpoints
 62
     0
100
AcDbPoint
 10
287.2059666329116
 20
218.4107712086619
 30
0.0
  0
POINT
  5
1CAD
330
FC6
100
AcDbEntity
  8
Defpoints
 62
     0
100
AcDbPoint
 10
180.2062106329116
 20
261.6525866795111
 30
0.0
  0
POINT
  5
1CAE
330
FC6
100
AcDbEntity
  8
Defpoints
 62
     0
100
AcDbPoint
 10
180.2062106329116
 20
203.1569938636658
 30
0.0
  0
ENDBLK
  5
FD1
330
FC6
100
AcDbEntity
  8
0
100
AcDbBlockEnd
  0
BLOCK
  5
FDB
330
FD2
100
AcDbEntity
  8
0
100
AcDbBlockBegin
  2
*D10
 70
     1
 10
0.0
 20
0.0
 30
0.0
  3
*D10
  1

  0
LINE
  5
1CAF
330
FD2
100
AcDbEntity
  8
AM_5
100
AcDbLine
 10
142.1526411233532
 20
267.6525866795111
 30
0.0
 11
145.5907966329115
 21
267.6525866795111
 31
0.0
  0
LINE
  5
1CB0
330
FD2
100
AcDbEntity
  8
AM_5
100
AcDbLine
 10
194.7059666329115
 20
222.6524646795111
 30
0.0
 11
142.5907966329115
 21
222.6524646795112
 31
0.0
  0
LINE
  5
1CB1
330
FD2
100
AcDbEntity
  8
AM_5
100
AcDbLine
 10
144.0907966329115
 20
264.6525866795112
 30
0.0
 11
144.0907966329115
 21
225.6524646795111
 31
0.0
  0
SOLID
  5
1CB2
330
FD2
100
AcDbEntity
  8
AM_5
100
AcDbTrace
 10
143.5907966329115
 20
264.6525866795112
 30
0.0
 11
144.5907966329115
 21
264.6525866795112
 31
0.0
 12
144.0907966329115
 22
267.6525866795111
 32
0.0
 13
144.0907966329115
 23
267.6525866795111
 33
0.0
  0
SOLID
  5
1CB3
330
FD2
100
AcDbEntity
  8
AM_5
100
AcDbTrace
 10
143.5907966329115
 20
225.6524646795111
 30
0.0
 11
144.5907966329115
 21
225.6524646795111
 31
0.0
 12
144.0907966329115
 22
222.6524646795112
 32
0.0
 13
144.0907966329115
 23
222.6524646795112
 33
0.0
  0
MTEXT
  5
1CB4
330
FD2
100
AcDbEntity
  8
AM_5
100
AcDbMText
 10
141.5907966329115
 20
245.1525256795112
 30
0.0
 40
3.0
 41
0.0
 71
     5
 72
     1
  1
45
  7
CHINESET
 11
0.0000000000000001
 21
1.0
 31
0.0
 73
     1
 44
1.0
1001
ACAD
1000
MTEXTBEGIN
1070
    73
1070
     1
1070
    44
1040
1.0
1070
    74
1070
     0
1000
MTEXTEND
  0
POINT
  5
1CB5
330
FD2
100
AcDbEntity
  8
Defpoints
 62
     0
100
AcDbPoint
 10
140.6526411233532
 20
267.6525866795111
 30
0.0
  0
POINT
  5
1CB6
330
FD2
100
AcDbEntity
  8
Defpoints
 62
     0
100
AcDbPoint
 10
196.2059666329115
 20
222.6524646795111
 30
0.0
  0
POINT
  5
1CB7
330
FD2
100
AcDbEntity
  8
Defpoints
 62
     0
100
AcDbPoint
 10
144.0907966329115
 20
222.6524646795112
 30
0.0
  0
ENDBLK
  5
FDC
330
FD2
100
AcDbEntity
  8
0
100
AcDbBlockEnd
  0
BLOCK
  5
FE7
330
FDD
100
AcDbEntity
  8
0
100
AcDbBlockBegin
  2
*D11
 70
     1
 10
0.0
 20
0.0
 30
0.0
  3
*D11
  1

  0
LINE
  5
1CB8
330
FDD
100
AcDbEntity
  8
AM_5
100
AcDbLine
 10
257.2059666329116
 20
262.3525856795111
 30
0.0
 11
257.2059666329116
 21
231.6569938636658
 31
0.0
  0
LINE
  5
1CB9
330
FDD
100
AcDbEntity
  8
AM_5
100
AcDbLine
 10
287.2059666329116
 20
259.6523426795111
 30
0.0
 11
287.2059666329116
 21
231.6569938636658
 31
0.0
  0
LINE
  5
1CBA
330
FDD
100
AcDbEntity
  8
AM_5
100
AcDbLine
 10
260.2059666329116
 20
233.1569938636658
 30
0.0
 11
284.2059666329116
 21
233.1569938636658
 31
0.0
  0
SOLID
  5
1CBB
330
FDD
100
AcDbEntity
  8
AM_5
100
AcDbTrace
 10
260.2059666329116
 20
233.6569938636658
 30
0.0
 11
260.2059666329116
 21
232.6569938636658
 31
0.0
 12
257.2059666329116
 22
233.1569938636658
 32
0.0
 13
257.2059666329116
 23
233.1569938636658
 33
0.0
  0
SOLID
  5
1CBC
330
FDD
100
AcDbEntity
  8
AM_5
100
AcDbTrace
 10
284.2059666329116
 20
233.6569938636658
 30
0.0
 11
284.2059666329116
 21
232.6569938636658
 31
0.0
 12
287.2059666329116
 22
233.1569938636658
 32
0.0
 13
287.2059666329116
 23
233.1569938636658
 33
0.0
  0
MTEXT
  5
1CBD
330
FDD
100
AcDbEntity
  8
AM_5
100
AcDbMText
 10
272.2059666329116
 20
235.6569938636658
 30
0.0
 40
3.0
 41
0.0
 71
     5
 72
     1
  1
30
  7
CHINESET
 73
     1
 44
1.0
1001
ACAD
1000
MTEXTBEGIN
1070
    73
1070
     1
1070
    44
1040
1.0
1070
    74
1070
     0
1000
MTEXTEND
  0
POINT
  5
1CBE
330
FDD
100
AcDbEntity
  8
Defpoints
 62
     0
100
AcDbPoint
 10
257.2059666329116
 20
263.8525856795111
 30
0.0
  0
POINT
  5
1CBF
330
FDD
100
AcDbEntity
  8
Defpoints
 62
     0
100
AcDbPoint
 10
287.2059666329116
 20
261.1523426795111
 30
0.0
  0
POINT
  5
1CC0
330
FDD
100
AcDbEntity
  8
Defpoints
 62
     0
100
AcDbPoint
 10
287.2059666329116
 20
233.1569938636658
 30
0.0
  0
ENDBLK
  5
FE8
330
FDD
100
AcDbEntity
  8
0
100
AcDbBlockEnd
  0
BLOCK
  5
FF3
330
FE9
100
AcDbEntity
  8
0
100
AcDbBlockBegin
  2
*D12
 70
     1
 10
0.0
 20
0.0
 30
0.0
  3
*D12
  1

  0
LINE
  5
1CC1
330
FE9
100
AcDbEntity
  8
AM_5
100
AcDbLine
 10
287.2059666329116
 20
235.4312511534871
 30
0.0
 11
287.2059666329116
 21
221.6569938636658
 31
0.0
  0
LINE
  5
1CC2
330
FE9
100
AcDbEntity
  8
AM_5
100
AcDbLine
 10
227.2059666329115
 20
262.2172836795111
 30
0.0
 11
227.2059666329115
 21
221.6569938636658
 31
0.0
  0
LINE
  5
1CC3
330
FE9
100
AcDbEntity
  8
AM_5
100
AcDbLine
 10
284.2059666329116
 20
223.1569938636658
 30
0.0
 11
230.2059666329116
 21
223.1569938636658
 31
0.0
  0
SOLID
  5
1CC4
330
FE9
100
AcDbEntity
  8
AM_5
100
AcDbTrace
 10
284.2059666329116
 20
223.6569938636658
 30
0.0
 11
284.2059666329116
 21
222.6569938636658
 31
0.0
 12
287.2059666329116
 22
223.1569938636658
 32
0.0
 13
287.2059666329116
 23
223.1569938636658
 33
0.0
  0
SOLID
  5
1CC5
330
FE9
100
AcDbEntity
  8
AM_5
100
AcDbTrace
 10
230.2059666329116
 20
223.6569938636658
 30
0.0
 11
230.2059666329116
 21
222.6569938636658
 31
0.0
 12
227.2059666329115
 22
223.1569938636658
 32
0.0
 13
227.2059666329115
 23
223.1569938636658
 33
0.0
  0
MTEXT
  5
1CC6
330
FE9
100
AcDbEntity
  8
AM_5
100
AcDbMText
 10
257.2059666329116
 20
225.6569938636658
 30
0.0
 40
3.0
 41
0.0
 71
     5
 72
     1
  1
60
  7
CHINESET
 73
     1
 44
1.0
1001
ACAD
1000
MTEXTBEGIN
1070
    73
1070
     1
1070
    44
1040
1.0
1070
    74
1070
     0
1000
MTEXTEND
  0
POINT
  5
1CC7
330
FE9
100
AcDbEntity
  8
Defpoints
 62
     0
100
AcDbPoint
 10
287.2059666329116
 20
236.9312511534871
 30
0.0
  0
POINT
  5
1CC8
330
FE9
100
AcDbEntity
  8
Defpoints
 62
     0
100
AcDbPoint
 10
227.2059666329115
 20
263.7172836795111
 30
0.0
  0
POINT
  5
1CC9
330
FE9
100
AcDbEntity
  8
Defpoints
 62
     0
100
AcDbPoint
 10
227.2059666329115
 20
223.1569938636658
 30
0.0
  0
ENDBLK
  5
FF4
330
FE9
100
AcDbEntity
  8
0
100
AcDbBlockEnd
  0
BLOCK
  5
FFF
330
FF5
100
AcDbEntity
  8
0
100
AcDbBlockBegin
  2
*D13
 70
     1
 10
0.0
 20
0.0
 30
0.0
  3
*D13
  1

  0
LINE
  5
1CCA
330
FF5
100
AcDbEntity
  8
AM_5
100
AcDbLine
 10
196.2062106329116
 20
359.1525866795111
 30
0.0
 11
196.2062106329116
 21
371.1525866795111
 31
0.0
  0
LINE
  5
1CCB
330
FF5
100
AcDbEntity
  8
AM_5
100
AcDbLine
 10
206.2059666329115
 20
359.1525866795111
 30
0.0
 11
206.2059666329115
 21
371.1525866795111
 31
0.0
  0
LINE
  5
1CCC
330
FF5
100
AcDbEntity
  8
AM_5
100
AcDbLine
 10
199.2062106329116
 20
369.6525866795111
 30
0.0
 11
203.2059666329116
 21
369.6525866795111
 31
0.0
  0
SOLID
  5
1CCD
330
FF5
100
AcDbEntity
  8
AM_5
100
AcDbTrace
 10
199.2062106329116
 20
370.1525866795111
 30
0.0
 11
199.2062106329116
 21
369.1525866795111
 31
0.0
 12
196.2062106329116
 22
369.6525866795111
 32
0.0
 13
196.2062106329116
 23
369.6525866795111
 33
0.0
  0
SOLID
  5
1CCE
330
FF5
100
AcDbEntity
  8
AM_5
100
AcDbTrace
 10
203.2059666329116
 20
370.1525866795111
 30
0.0
 11
203.2059666329116
 21
369.1525866795111
 31
0.0
 12
206.2059666329115
 22
369.6525866795111
 32
0.0
 13
206.2059666329115
 23
369.6525866795111
 33
0.0
  0
MTEXT
  5
1CCF
330
FF5
100
AcDbEntity
  8
AM_5
100
AcDbMText
 10
201.2060886329116
 20
372.1525866795111
 30
0.0
 40
3.0
 41
0.0
 71
     5
 72
     1
  1
10
  7
CHINESET
 73
     1
 44
1.0
1001
ACAD
1000
MTEXTBEGIN
1070
    73
1070
     1
1070
    44
1040
1.0
1070
    74
1070
     0
1000
MTEXTEND
  0
POINT
  5
1CD0
330
FF5
100
AcDbEntity
  8
Defpoints
 62
     0
100
AcDbPoint
 10
196.2062106329116
 20
357.6525866795111
 30
0.0
  0
POINT
  5
1CD1
330
FF5
100
AcDbEntity
  8
Defpoints
 62
     0
100
AcDbPoint
 10
206.2059666329115
 20
357.6525866795111
 30
0.0
  0
POINT
  5
1CD2
330
FF5
100
AcDbEntity
  8
Defpoints
 62
     0
100
AcDbPoint
 10
206.2059666329115
 20
369.6525866795111
 30
0.0
  0
ENDBLK
  5
1000
330
FF5
100
AcDbEntity
  8
0
100
AcDbBlockEnd
  0
BLOCK
  5
1025
330
101B
100
AcDbEntity
  8
0
100
AcDbBlockBegin
  2
*D14
 70
     1
 10
0.0
 20
0.0
 30
0.0
  3
*D14
  1

  0
LINE
  5
1CD3
330
101B
100
AcDbEntity
  8
AM_5
100
AcDbLine
 10
367.7532490553191
 20
313.1528306795111
 30
0.0
 11
383.0178970553192
 21
313.1528306795111
 31
0.0
  0
LINE
  5
1CD4
330
101B
100
AcDbEntity
  8
AM_5
100
AcDbLine
 10
349.2891380553191
 20
267.1525866795111
 30
0.0
 11
383.0178970553192
 21
267.1525866795111
 31
0.0
  0
LINE
  5
1CD5
330
101B
100
AcDbEntity
  8
AM_5
100
AcDbLine
 10
381.5178970553191
 20
310.1528306795111
 30
0.0
 11
381.5178970553191
 21
270.1525866795111
 31
0.0
  0
SOLID
  5
1CD6
330
101B
100
AcDbEntity
  8
AM_5
100
AcDbTrace
 10
381.0178970553192
 20
310.1528306795111
 30
0.0
 11
382.0178970553192
 21
310.1528306795111
 31
0.0
 12
381.5178970553191
 22
313.1528306795111
 32
0.0
 13
381.5178970553191
 23
313.1528306795111
 33
0.0
  0
SOLID
  5
1CD7
330
101B
100
AcDbEntity
  8
AM_5
100
AcDbTrace
 10
381.0178970553192
 20
270.1525866795111
 30
0.0
 11
382.0178970553192
 21
270.1525866795111
 31
0.0
 12
381.5178970553191
 22
267.1525866795111
 32
0.0
 13
381.5178970553191
 23
267.1525866795111
 33
0.0
  0
MTEXT
  5
1CD8
330
101B
100
AcDbEntity
  8
AM_5
100
AcDbMText
 10
379.0178970553191
 20
290.1527086795112
 30
0.0
 40
3.0
 41
0.0
 71
     5
 72
     1
  1
46
  7
CHINESET
 11
0.0000000000000001
 21
1.0
 31
0.0
 73
     1
 44
1.0
1001
ACAD
1000
MTEXTBEGIN
1070
    73
1070
     1
1070
    44
1040
1.0
1070
    74
1070
     0
1000
MTEXTEND
  0
POINT
  5
1CD9
330
101B
100
AcDbEntity
  8
Defpoints
 62
     0
100
AcDbPoint
 10
366.2532490553191
 20
313.1528306795111
 30
0.0
  0
POINT
  5
1CDA
330
101B
100
AcDbEntity
  8
Defpoints
 62
     0
100
AcDbPoint
 10
347.7891380553191
 20
267.1525866795111
 30
0.0
  0
POINT
  5
1CDB
330
101B
100
AcDbEntity
  8
Defpoints
 62
     0
100
AcDbPoint
 10
381.5178970553191
 20
267.1525866795111
 30
0.0
  0
ENDBLK
  5
1026
330
101B
100
AcDbEntity
  8
0
100
AcDbBlockEnd
  0
BLOCK
  5
1031
330
1027
100
AcDbEntity
  8
0
100
AcDbBlockBegin
  2
*D15
 70
     1
 10
0.0
 20
0.0
 30
0.0
  3
*D15
  1

  0
LINE
  5
1CDC
330
1027
100
AcDbEntity
  8
AM_5
100
AcDbLine
 10
369.309645055319
 20
319.1528306795111
 30
0.0
 11
393.0178970553192
 21
319.1528306795111
 31
0.0
  0
LINE
  5
1CDD
330
1027
100
AcDbEntity
  8
AM_5
100
AcDbLine
 10
369.309645055319
 20
261.1523426795111
 30
0.0
 11
393.0178970553192
 21
261.152342679511
 31
0.0
  0
LINE
  5
1CDE
330
1027
100
AcDbEntity
  8
AM_5
100
AcDbLine
 10
391.5178970553192
 20
316.1528306795111
 30
0.0
 11
391.5178970553192
 21
264.152342679511
 31
0.0
  0
SOLID
  5
1CDF
330
1027
100
AcDbEntity
  8
AM_5
100
AcDbTrace
 10
391.0178970553192
 20
316.1528306795111
 30
0.0
 11
392.0178970553192
 21
316.1528306795111
 31
0.0
 12
391.5178970553192
 22
319.1528306795111
 32
0.0
 13
391.5178970553192
 23
319.1528306795111
 33
0.0
  0
SOLID
  5
1CE0
330
1027
100
AcDbEntity
  8
AM_5
100
AcDbTrace
 10
391.0178970553192
 20
264.152342679511
 30
0.0
 11
392.0178970553192
 21
264.152342679511
 31
0.0
 12
391.5178970553192
 22
261.152342679511
 32
0.0
 13
391.5178970553192
 23
261.152342679511
 33
0.0
  0
MTEXT
  5
1CE1
330
1027
100
AcDbEntity
  8
AM_5
100
AcDbMText
 10
389.0178970553191
 20
290.1525866795111
 30
0.0
 40
3.0
 41
0.0
 71
     5
 72
     1
  1
58
  7
CHINESET
 11
0.0000000000000001
 21
1.0
 31
0.0
 73
     1
 44
1.0
1001
ACAD
1000
MTEXTBEGIN
1070
    73
1070
     1
1070
    44
1040
1.0
1070
    74
1070
     0
1000
MTEXTEND
  0
POINT
  5
1CE2
330
1027
100
AcDbEntity
  8
Defpoints
 62
     0
100
AcDbPoint
 10
367.809645055319
 20
319.1528306795111
 30
0.0
  0
POINT
  5
1CE3
330
1027
100
AcDbEntity
  8
Defpoints
 62
     0
100
AcDbPoint
 10
367.809645055319
 20
261.1523426795111
 30
0.0
  0
POINT
  5
1CE4
330
1027
100
AcDbEntity
  8
Defpoints
 62
     0
100
AcDbPoint
 10
391.5178970553192
 20
261.152342679511
 30
0.0
  0
ENDBLK
  5
1032
330
1027
100
AcDbEntity
  8
0
100
AcDbBlockEnd
  0
BLOCK
  5
11D7
330
11CB
100
AcDbEntity
  8
0
100
AcDbBlockBegin
  2
*D16
 70
     1
 10
0.0
 20
0.0
 30
0.0
  3
*D16
  1

  0
LINE
  5
1CE5
330
11CB
100
AcDbEntity
  8
AM_5
100
AcDbLine
 10
83.42978367916828
 20
357.6525866795111
 30
0.0
 11
71.42978367916827
 21
357.6525866795111
 31
0.0
  0
LINE
  5
1CE6
330
11CB
100
AcDbEntity
  8
AM_5
100
AcDbLine
 10
85.76962767916837
 20
351.6528306795111
 30
0.0
 11
71.42978367916825
 21
351.6528306795111
 31
0.0
  0
LINE
  5
1CE7
330
11CB
100
AcDbEntity
  8
AM_5
100
AcDbLine
 10
72.92978367916827
 20
360.6525866795111
 30
0.0
 11
72.92978367916827
 21
363.6525866795111
 31
0.0
  0
LINE
  5
1CE8
330
11CB
100
AcDbEntity
  8
AM_5
100
AcDbLine
 10
72.92978367916825
 20
348.6528306795111
 30
0.0
 11
72.92978367916825
 21
345.6528306795111
 31
0.0
  0
LINE
  5
1CE9
330
11CB
100
AcDbEntity
  8
AM_5
100
AcDbLine
 10
72.92978367916827
 20
357.6525866795111
 30
0.0
 11
72.92978367916825
 21
351.6528306795111
 31
0.0
  0
SOLID
  5
1CEA
330
11CB
100
AcDbEntity
  8
AM_5
100
AcDbTrace
 10
72.42978367916826
 20
360.6525866795111
 30
0.0
 11
73.42978367916827
 21
360.6525866795111
 31
0.0
 12
72.92978367916827
 22
357.6525866795111
 32
0.0
 13
72.92978367916827
 23
357.6525866795111
 33
0.0
  0
SOLID
  5
1CEB
330
11CB
100
AcDbEntity
  8
AM_5
100
AcDbTrace
 10
72.42978367916825
 20
348.6528306795111
 30
0.0
 11
73.42978367916825
 21
348.6528306795111
 31
0.0
 12
72.92978367916825
 22
351.6528306795111
 32
0.0
 13
72.92978367916825
 23
351.6528306795111
 33
0.0
  0
MTEXT
  5
1CEC
330
11CB
100
AcDbEntity
  8
AM_5
100
AcDbMText
 10
70.42978367916821
 20
354.6527086795111
 30
0.0
 40
3.0
 41
0.0
 71
     5
 72
     1
  1
6
  7
CHINESET
 11
0.0000000000000001
 21
1.0
 31
0.0
 73
     1
 44
1.0
1001
ACAD
1000
MTEXTBEGIN
1070
    73
1070
     1
1070
    44
1040
1.0
1070
    74
1070
     0
1000
MTEXTEND
  0
POINT
  5
1CED
330
11CB
100
AcDbEntity
  8
Defpoints
 62
     0
100
AcDbPoint
 10
84.92978367916828
 20
357.6525866795111
 30
0.0
  0
POINT
  5
1CEE
330
11CB
100
AcDbEntity
  8
Defpoints
 62
     0
100
AcDbPoint
 10
87.26962767916836
 20
351.6528306795111
 30
0.0
  0
POINT
  5
1CEF
330
11CB
100
AcDbEntity
  8
Defpoints
 62
     0
100
AcDbPoint
 10
72.92978367916825
 20
351.6528306795111
 30
0.0
  0
ENDBLK
  5
11D8
330
11CB
100
AcDbEntity
  8
0
100
AcDbBlockEnd
  0
BLOCK
  5
11E2
330
11D9
100
AcDbEntity
  8
0
100
AcDbBlockBegin
  2
*D17
 70
     1
 10
0.0
 20
0.0
 30
0.0
  3
*D17
  1

  0
LINE
  5
1CF0
330
11D9
100
AcDbEntity
  8
AM_5
100
AcDbLine
 10
75.69079586090072
 20
351.6528306795111
 30
0.0
 11
71.42978367916825
 21
351.6528306795111
 31
0.0
  0
LINE
  5
1CF1
330
11D9
100
AcDbEntity
  8
AM_5
100
AcDbLine
 10
85.58994067916831
 20
339.6528306795111
 30
0.0
 11
71.42978367916825
 21
339.6528306795111
 31
0.0
  0
LINE
  5
1CF2
330
11D9
100
AcDbEntity
  8
AM_5
100
AcDbLine
 10
72.92978367916825
 20
348.6528306795111
 30
0.0
 11
72.92978367916825
 21
342.6528306795111
 31
0.0
  0
SOLID
  5
1CF3
330
11D9
100
AcDbEntity
  8
AM_5
100
AcDbTrace
 10
72.42978367916825
 20
348.6528306795111
 30
0.0
 11
73.42978367916825
 21
348.6528306795111
 31
0.0
 12
72.92978367916825
 22
351.6528306795111
 32
0.0
 13
72.92978367916825
 23
351.6528306795111
 33
0.0
  0
SOLID
  5
1CF4
330
11D9
100
AcDbEntity
  8
AM_5
100
AcDbTrace
 10
72.42978367916825
 20
342.6528306795111
 30
0.0
 11
73.42978367916825
 21
342.6528306795111
 31
0.0
 12
72.92978367916825
 22
339.6528306795111
 32
0.0
 13
72.92978367916825
 23
339.6528306795111
 33
0.0
  0
MTEXT
  5
1CF5
330
11D9
100
AcDbEntity
  8
AM_5
100
AcDbMText
 10
70.4297836791682
 20
345.6528306795111
 30
0.0
 40
3.0
 41
0.0
 71
     5
 72
     1
  1
12
  7
CHINESET
 11
0.0000000000000001
 21
1.0
 31
0.0
 73
     1
 44
1.0
1001
ACAD
1000
MTEXTBEGIN
1070
    73
1070
     1
1070
    44
1040
1.0
1070
    74
1070
     0
1000
MTEXTEND
  0
POINT
  5
1CF6
330
11D9
100
AcDbEntity
  8
Defpoints
 62
     0
100
AcDbPoint
 10
77.19079586090072
 20
351.6528306795111
 30
0.0
  0
POINT
  5
1CF7
330
11D9
100
AcDbEntity
  8
Defpoints
 62
     0
100
AcDbPoint
 10
87.08994067916831
 20
339.6528306795111
 30
0.0
  0
POINT
  5
1CF8
330
11D9
100
AcDbEntity
  8
Defpoints
 62
     0
100
AcDbPoint
 10
72.92978367916825
 20
339.6528306795111
 30
0.0
  0
ENDBLK
  5
11E3
330
11D9
100
AcDbEntity
  8
0
100
AcDbBlockEnd
  0
BLOCK
  5
1291
330
1290
100
AcDbEntity
  8
0
100
AcDbBlockBegin
  2
*U19
 70
     1
 10
0.0
 20
0.0
 30
0.0
  3
*U19
  1

  0
ENDBLK
  5
1292
330
1290
100
AcDbEntity
  8
0
100
AcDbBlockEnd
  0
BLOCK
  5
136A
330
1360
100
AcDbEntity
  8
0
100
AcDbBlockBegin
  2
*D20
 70
     1
 10
0.0
 20
0.0
 30
0.0
  3
*D20
  1

  0
LINE
  5
1CF9
330
1360
100
AcDbEntity
  8
AM_5
100
AcDbLine
 10
84.92978367916828
 20
359.1525866795111
 30
0.0
 11
84.92978367916828
 21
367.260753358208
 31
0.0
  0
LINE
  5
1CFA
330
1360
100
AcDbEntity
  8
AM_5
100
AcDbLine
 10
96.92978367916829
 20
359.1525866795111
 30
0.0
 11
96.92978367916829
 21
367.260753358208
 31
0.0
  0
LINE
  5
1CFB
330
1360
100
AcDbEntity
  8
AM_5
100
AcDbLine
 10
87.92978367916829
 20
365.760753358208
 30
0.0
 11
93.92978367916828
 21
365.760753358208
 31
0.0
  0
LINE
  5
1CFC
330
1360
100
AcDbEntity
  8
AM_5
100
AcDbLine
 10
96.92978367916829
 20
365.760753358208
 30
0.0
 11
117.891405464724
 21
365.760753358208
 31
0.0
  0
SOLID
  5
1CFD
330
1360
100
AcDbEntity
  8
AM_5
100
AcDbTrace
 10
87.92978367916829
 20
366.260753358208
 30
0.0
 11
87.92978367916829
 21
365.260753358208
 31
0.0
 12
84.92978367916828
 22
365.760753358208
 32
0.0
 13
84.92978367916828
 23
365.760753358208
 33
0.0
  0
SOLID
  5
1CFE
330
1360
100
AcDbEntity
  8
AM_5
100
AcDbTrace
 10
93.92978367916828
 20
366.260753358208
 30
0.0
 11
93.92978367916828
 21
365.260753358208
 31
0.0
 12
96.92978367916829
 22
365.760753358208
 32
0.0
 13
96.92978367916829
 23
365.760753358208
 33
0.0
  0
MTEXT
  5
1CFF
330
1360
100
AcDbEntity
  8
AM_5
100
AcDbMText
 10
109.6056911790098
 20
368.860753358208
 30
0.0
 40
3.0
 41
0.0
 71
     5
 72
     1
  1
12{\H1.800000;\S-0.005^ -0.025;}
  7
CHINESET
 73
     1
 44
1.0
1001
ACAD
1000
MTEXTBEGIN
1070
    73
1070
     1
1070
    44
1040
1.0
1070
    74
1070
     0
1000
MTEXTEND
  0
POINT
  5
1D00
330
1360
100
AcDbEntity
  8
Defpoints
 62
     0
100
AcDbPoint
 10
84.92978367916828
 20
357.6525866795111
 30
0.0
  0
POINT
  5
1D01
330
1360
100
AcDbEntity
  8
Defpoints
 62
     0
100
AcDbPoint
 10
96.92978367916829
 20
357.6525866795111
 30
0.0
  0
POINT
  5
1D02
330
1360
100
AcDbEntity
  8
Defpoints
 62
     0
100
AcDbPoint
 10
96.92978367916829
 20
365.760753358208
 30
0.0
  0
ENDBLK
  5
136B
330
1360
100
AcDbEntity
  8
0
100
AcDbBlockEnd
  0
BLOCK
  5
17A7
330
179B
100
AcDbEntity
  8
0
100
AcDbBlockBegin
  2
*D21
 70
     1
 10
0.0
 20
0.0
 30
0.0
  3
*D21
  1

  0
LINE
  5
1D42
330
179B
100
AcDbEntity
  8
AM_5
100
AcDbLine
 10
287.2059666329116
 20
136.7811611425451
 30
0.0
 11
287.2059666329116
 21
124.7811611425451
 31
0.0
  0
LINE
  5
1D43
330
179B
100
AcDbEntity
  8
AM_5
100
AcDbLine
 10
279.2059666329115
 20
140.2877531425451
 30
0.0
 11
279.2059666329115
 21
124.7811611425451
 31
0.0
  0
LINE
  5
1D44
330
179B
100
AcDbEntity
  8
AM_5
100
AcDbLine
 10
290.2059666329115
 20
126.2811611425451
 30
0.0
 11
293.2059666329116
 21
126.2811611425451
 31
0.0
  0
LINE
  5
1D45
330
179B
100
AcDbEntity
  8
AM_5
100
AcDbLine
 10
276.2059666329116
 20
126.2811611425451
 30
0.0
 11
273.2059666329115
 21
126.2811611425451
 31
0.0
  0
LINE
  5
1D46
330
179B
100
AcDbEntity
  8
AM_5
100
AcDbLine
 10
287.2059666329116
 20
126.2811611425451
 30
0.0
 11
279.2059666329115
 21
126.2811611425451
 31
0.0
  0
SOLID
  5
1D47
330
179B
100
AcDbEntity
  8
AM_5
100
AcDbTrace
 10
290.2059666329115
 20
126.7811611425451
 30
0.0
 11
290.2059666329115
 21
125.7811611425451
 31
0.0
 12
287.2059666329116
 22
126.2811611425451
 32
0.0
 13
287.2059666329116
 23
126.2811611425451
 33
0.0
  0
SOLID
  5
1D48
330
179B
100
AcDbEntity
  8
AM_5
100
AcDbTrace
 10
276.2059666329116
 20
126.7811611425451
 30
0.0
 11
276.2059666329116
 21
125.7811611425451
 31
0.0
 12
279.2059666329115
 22
126.2811611425451
 32
0.0
 13
279.2059666329115
 23
126.2811611425451
 33
0.0
  0
MTEXT
  5
1D49
330
179B
100
AcDbEntity
  8
AM_5
100
AcDbMText
 10
283.2059666329115
 20
128.7811611425451
 30
0.0
 40
3.0
 41
0.0
 71
     5
 72
     1
  1
8
  7
CHINESET
 73
     1
 44
1.0
1001
ACAD
1000
MTEXTBEGIN
1070
    73
1070
     1
1070
    44
1040
1.0
1070
    74
1070
     0
1000
MTEXTEND
  0
POINT
  5
1D4A
330
179B
100
AcDbEntity
  8
Defpoints
 62
     0
100
AcDbPoint
 10
287.2059666329116
 20
138.2811611425451
 30
0.0
  0
POINT
  5
1D4B
330
179B
100
AcDbEntity
  8
Defpoints
 62
     0
100
AcDbPoint
 10
279.2059666329115
 20
141.7877531425451
 30
0.0
  0
POINT
  5
1D4C
330
179B
100
AcDbEntity
  8
Defpoints
 62
     0
100
AcDbPoint
 10
279.2059666329115
 20
126.2811611425451
 30
0.0
  0
ENDBLK
  5
17A8
330
179B
100
AcDbEntity
  8
0
100
AcDbBlockEnd
  0
BLOCK
  5
17D9
330
17CF
100
AcDbEntity
  8
0
100
AcDbBlockBegin
  2
*D22
 70
     1
 10
0.0
 20
0.0
 30
0.0
  3
*D22
  1

  0
LINE
  5
1D4D
330
17CF
100
AcDbEntity
  8
AM_5
100
AcDbLine
 10
279.2059666329115
 20
140.2877531425451
 30
0.0
 11
279.2059666329115
 21
124.781161142545
 31
0.0
  0
LINE
  5
1D4E
330
17CF
100
AcDbEntity
  8
AM_5
100
AcDbLine
 10
237.2059666329116
 20
155.1183191425451
 30
0.0
 11
237.2059666329116
 21
124.781161142545
 31
0.0
  0
LINE
  5
1D4F
330
17CF
100
AcDbEntity
  8
AM_5
100
AcDbLine
 10
276.2059666329116
 20
126.281161142545
 30
0.0
 11
240.2059666329115
 21
126.281161142545
 31
0.0
  0
SOLID
  5
1D50
330
17CF
100
AcDbEntity
  8
AM_5
100
AcDbTrace
 10
276.2059666329116
 20
126.781161142545
 30
0.0
 11
276.2059666329116
 21
125.781161142545
 31
0.0
 12
279.2059666329115
 22
126.281161142545
 32
0.0
 13
279.2059666329115
 23
126.281161142545
 33
0.0
  0
SOLID
  5
1D51
330
17CF
100
AcDbEntity
  8
AM_5
100
AcDbTrace
 10
240.2059666329115
 20
126.781161142545
 30
0.0
 11
240.2059666329115
 21
125.781161142545
 31
0.0
 12
237.2059666329116
 22
126.281161142545
 32
0.0
 13
237.2059666329116
 23
126.281161142545
 33
0.0
  0
MTEXT
  5
1D52
330
17CF
100
AcDbEntity
  8
AM_5
100
AcDbMText
 10
258.2059666329115
 20
128.781161142545
 30
0.0
 40
3.0
 41
0.0
 71
     5
 72
     1
  1
42
  7
CHINESET
 73
     1
 44
1.0
1001
ACAD
1000
MTEXTBEGIN
1070
    73
1070
     1
1070
    44
1040
1.0
1070
    74
1070
     0
1000
MTEXTEND
  0
POINT
  5
1D53
330
17CF
100
AcDbEntity
  8
Defpoints
 62
     0
100
AcDbPoint
 10
279.2059666329115
 20
141.7877531425451
 30
0.0
  0
POINT
  5
1D54
330
17CF
100
AcDbEntity
  8
Defpoints
 62
     0
100
AcDbPoint
 10
237.2059666329116
 20
156.6183191425451
 30
0.0
  0
POINT
  5
1D55
330
17CF
100
AcDbEntity
  8
Defpoints
 62
     0
100
AcDbPoint
 10
237.2059666329116
 20
126.281161142545
 30
0.0
  0
ENDBLK
  5
17DA
330
17CF
100
AcDbEntity
  8
0
100
AcDbBlockEnd
  0
BLOCK
  5
1893
330
1889
100
AcDbEntity
  8
0
100
AcDbBlockBegin
  2
*D23
 70
     1
 10
0.0
 20
0.0
 30
0.0
  3
*D23
  1

  0
LINE
  5
1D17
330
1889
100
AcDbEntity
  8
AM_5
100
AcDbLine
 10
343.809401055319
 20
261.0598136795111
 30
0.0
 11
343.809401055319
 21
209.1524646795111
 31
0.0
  0
LINE
  5
1D18
330
1889
100
AcDbEntity
  8
AM_5
100
AcDbLine
 10
361.809401055319
 20
307.4084456795111
 30
0.0
 11
361.809401055319
 21
209.1524646795111
 31
0.0
  0
LINE
  5
1D19
330
1889
100
AcDbEntity
  8
AM_5
100
AcDbLine
 10
346.809401055319
 20
210.6524646795111
 30
0.0
 11
358.809401055319
 21
210.6524646795111
 31
0.0
  0
SOLID
  5
1D1A
330
1889
100
AcDbEntity
  8
AM_5
100
AcDbTrace
 10
346.809401055319
 20
211.1524646795111
 30
0.0
 11
346.809401055319
 21
210.1524646795112
 31
0.0
 12
343.809401055319
 22
210.6524646795111
 32
0.0
 13
343.809401055319
 23
210.6524646795111
 33
0.0
  0
SOLID
  5
1D1B
330
1889
100
AcDbEntity
  8
AM_5
100
AcDbTrace
 10
358.809401055319
 20
211.1524646795111
 30
0.0
 11
358.809401055319
 21
210.1524646795112
 31
0.0
 12
361.809401055319
 22
210.6524646795111
 32
0.0
 13
361.809401055319
 23
210.6524646795111
 33
0.0
  0
MTEXT
  5
1D1C
330
1889
100
AcDbEntity
  8
AM_5
100
AcDbMText
 10
352.809401055319
 20
213.1524646795111
 30
0.0
 40
3.0
 41
0.0
 71
     5
 72
     1
  1
18
  7
CHINESET
 73
     1
 44
1.0
1001
ACAD
1000
MTEXTBEGIN
1070
    73
1070
     1
1070
    44
1040
1.0
1070
    74
1070
     0
1000
MTEXTEND
  0
POINT
  5
1D1D
330
1889
100
AcDbEntity
  8
Defpoints
 62
     0
100
AcDbPoint
 10
343.809401055319
 20
262.5598136795111
 30
0.0
  0
POINT
  5
1D1E
330
1889
100
AcDbEntity
  8
Defpoints
 62
     0
100
AcDbPoint
 10
361.809401055319
 20
308.9084456795112
 30
0.0
  0
POINT
  5
1D1F
330
1889
100
AcDbEntity
  8
Defpoints
 62
     0
100
AcDbPoint
 10
361.809401055319
 20
210.6524646795111
 30
0.0
  0
ENDBLK
  5
1894
330
1889
100
AcDbEntity
  8
0
100
AcDbBlockEnd
  0
BLOCK
  5
1940
330
1936
100
AcDbEntity
  8
0
100
AcDbBlockBegin
  2
*D24
 70
     1
 10
0.0
 20
0.0
 30
0.0
  3
*D24
  1

  0
LINE
  5
1D20
330
1936
100
AcDbEntity
  8
AM_5
100
AcDbLine
 10
337.809523055319
 20
259.6523426795111
 30
0.0
 11
337.809523055319
 21
199.1524646795109
 31
0.0
  0
LINE
  5
1D21
330
1936
100
AcDbEntity
  8
AM_5
100
AcDbLine
 10
367.809523055319
 20
259.6523426795111
 30
0.0
 11
367.809523055319
 21
199.1524646795109
 31
0.0
  0
LINE
  5
1D22
330
1936
100
AcDbEntity
  8
AM_5
100
AcDbLine
 10
340.809523055319
 20
200.6524646795109
 30
0.0
 11
364.809523055319
 21
200.6524646795109
 31
0.0
  0
SOLID
  5
1D23
330
1936
100
AcDbEntity
  8
AM_5
100
AcDbTrace
 10
340.809523055319
 20
201.1524646795109
 30
0.0
 11
340.809523055319
 21
200.1524646795109
 31
0.0
 12
337.809523055319
 22
200.6524646795109
 32
0.0
 13
337.809523055319
 23
200.6524646795109
 33
0.0
  0
SOLID
  5
1D24
330
1936
100
AcDbEntity
  8
AM_5
100
AcDbTrace
 10
364.809523055319
 20
201.1524646795109
 30
0.0
 11
364.809523055319
 21
200.1524646795109
 31
0.0
 12
367.809523055319
 22
200.6524646795109
 32
0.0
 13
367.809523055319
 23
200.6524646795109
 33
0.0
  0
MTEXT
  5
1D25
330
1936
100
AcDbEntity
  8
AM_5
100
AcDbMText
 10
352.809523055319
 20
203.1524646795109
 30
0.0
 40
3.0
 41
0.0
 71
     5
 72
     1
  1
30
  7
CHINESET
 73
     1
 44
1.0
1001
ACAD
1000
MTEXTBEGIN
1070
    73
1070
     1
1070
    44
1040
1.0
1070
    74
1070
     0
1000
MTEXTEND
  0
POINT
  5
1D26
330
1936
100
AcDbEntity
  8
Defpoints
 62
     0
100
AcDbPoint
 10
337.809523055319
 20
261.1523426795111
 30
0.0
  0
POINT
  5
1D27
330
1936
100
AcDbEntity
  8
Defpoints
 62
     0
100
AcDbPoint
 10
367.809523055319
 20
261.1523426795111
 30
0.0
  0
POINT
  5
1D28
330
1936
100
AcDbEntity
  8
Defpoints
 62
     0
100
AcDbPoint
 10
367.809523055319
 20
200.6524646795109
 30
0.0
  0
ENDBLK
  5
1941
330
1936
100
AcDbEntity
  8
0
100
AcDbBlockEnd
  0
BLOCK
  5
1ADD
330
1AD4
100
AcDbEntity
  8
0
100
AcDbBlockBegin
  2
*D25
 70
     1
 10
0.0
 20
0.0
 30
0.0
  3
*D25
  1

  0
LINE
  5
1D2F
330
1AD4
100
AcDbEntity
  8
AM_5
100
AcDbLine
 10
260.7325607932553
 20
316.3732840724864
 30
0.0
 11
266.5090295076579
 21
324.9242497715219
 31
0.0
  0
LINE
  5
1D30
330
1AD4
100
AcDbEntity
  8
AM_5
100
AcDbLine
 10
266.5090295076579
 20
324.9242497715219
 30
0.0
 11
282.9376009362293
 21
324.924249771522
 31
0.0
  0
SOLID
  5
1D31
330
1AD4
100
AcDbEntity
  8
AM_5
100
AcDbTrace
 10
260.3182390954001
 20
316.6531724979105
 30
0.0
 11
261.1468824911105
 21
316.0933956470623
 31
0.0
 12
259.0532302407106
 22
313.8873538853553
 32
0.0
 13
259.0532302407106
 23
313.8873538853553
 33
0.0
  0
MTEXT
  5
1D32
330
1AD4
100
AcDbEntity
  8
AM_5
100
AcDbMText
 10
275.2233152219436
 20
327.424249771522
 30
0.0
 40
3.0
 41
0.0
 71
     5
 72
     1
  1
4-\U+22056.6
  7
CHINESET
 73
     1
 44
1.0
1001
ACAD
1000
MTEXTBEGIN
1070
    73
1070
     1
1070
    44
1040
1.0
1070
    74
1070
     0
1000
MTEXTEND
  0
POINT
  5
1D33
330
1AD4
100
AcDbEntity
  8
Defpoints
 62
     0
100
AcDbPoint
 10
259.0532302407106
 20
313.8873538853553
 30
0.0
  0
POINT
  5
1D34
330
1AD4
100
AcDbEntity
  8
Defpoints
 62
     0
100
AcDbPoint
 10
255.3587030251124
 20
308.4183074736669
 30
0.0
  0
ENDBLK
  5
1ADE
330
1AD4
100
AcDbEntity
  8
0
100
AcDbBlockEnd
  0
BLOCK
  5
1DC9
330
1DC4
100
AcDbEntity
  8
0
100
AcDbBlockBegin
  2
*S27
 70
     1
 10
0.0
 20
0.0
 30
0.0
  3
*S27
  1

  0
LINE
  5
1DC5
330
1DC4
100
AcDbEntity
  8
AM_5
 62
     5
100
AcDbLine
 10
291.0320890855569
 20
375.1293623252323
 30
0.0
 11
254.3536373268628
 21
375.1293623252323
 31
0.0
  0
LINE
  5
1DC6
330
1DC4
100
AcDbEntity
  8
AM_5
 62
     5
100
AcDbLine
 10
254.3536373268628
 20
375.1293623252323
 30
0.0
 11
241.5684708372487
 21
390.6858799884684
 31
0.0
  0
TRACE
  5
1DC7
330
1DC4
100
AcDbEntity
  8
AM_5
 62
     5
370
    35
100
AcDbTrace
 10
241.9244564595593
 20
390.9784477435197
 30
0.0
 11
241.2124852149382
 21
390.3933122334171
 31
0.0
 12
239.3461980986517
 22
393.3898592552692
 32
0.0
 13
239.3461980986517
 23
393.3898592552692
 33
0.0
  0
MTEXT
  5
1DC8
330
1DC4
100
AcDbEntity
  8
AM_5
 62
     5
100
AcDbMText
 10
291.0320890855569
 20
379.7342997938547
 30
0.0
 40
3.5
 41
0.0
 71
     9
 72
     5
  1

  7
ACISOTS
210
0.0
220
0.0
230
-1.0
 11
-1.0
 21
0.0
 31
0.0
 73
     1
 44
1.0
1001
ACAD
1000
MTEXTBEGIN
1070
    73
1070
     1
1070
    44
1040
1.0
1070
    74
1070
     0
1000
MTEXTEND
  0
ENDBLK
  5
1DCA
330
1DC4
100
AcDbEntity
  8
0
100
AcDbBlockEnd
  0
BLOCK
  5
1DD1
330
1DCC
100
AcDbEntity
  8
0
100
AcDbBlockBegin
  2
*S28
 70
     1
 10
0.0
 20
0.0
 30
0.0
  3
*S28
  1

  0
LINE
  5
1DCD
330
1DCC
100
AcDbEntity
  8
AM_5
 62
     5
100
AcDbLine
 10
279.0658699973744
 20
334.0613272417879
 30
0.0
 11
244.0145787304107
 21
334.0613272417879
 31
0.0
  0
LINE
  5
1DCE
330
1DCC
100
AcDbEntity
  8
AM_5
 62
     5
100
AcDbLine
 10
244.0145787304107
 20
334.0613272417879
 30
0.0
 11
231.6262180554814
 21
315.7713927392109
 31
0.0
  0
TRACE
  5
1DCF
330
1DCC
100
AcDbEntity
  8
AM_5
 62
     5
370
    35
100
AcDbTrace
 10
231.2447111379704
 20
316.0297996402001
 30
0.0
 11
232.0077249729924
 21
315.5129858382216
 31
0.0
 12
229.6634227657786
 22
312.8735599885642
 32
0.0
 13
229.6634227657786
 23
312.8735599885642
 33
0.0
  0
MTEXT
  5
1DD0
330
1DCC
100
AcDbEntity
  8
AM_5
 62
     5
100
AcDbMText
 10
279.0658699973744
 20
341.0121357240577
 30
0.0
 40
3.5
 41
0.0
 71
     9
 72
     5
  1

  7
ACISOTS
210
0.0
220
0.0
230
-1.0
 11
-1.0
 21
0.0
 31
0.0
 73
     1
 44
1.0
1001
ACAD
1000
MTEXTBEGIN
1070
    73
1070
     1
1070
    44
1040
1.0
1070
    74
1070
     0
1000
MTEXTEND
  0
ENDBLK
  5
1DD2
330
1DCC
100
AcDbEntity
  8
0
100
AcDbBlockEnd
  0
BLOCK
  5
1DD9
330
1DD4
100
AcDbEntity
  8
0
100
AcDbBlockBegin
  2
*S29
 70
     1
 10
0.0
 20
0.0
 30
0.0
  3
*S29
  1

  0
LINE
  5
1DD5
330
1DD4
100
AcDbEntity
  8
AM_5
 62
     5
100
AcDbLine
 10
319.6093057881042
 20
130.3693507199475
 30
0.0
 11
300.2306737719377
 21
130.3693507199475
 31
0.0
  0
LINE
  5
1DD6
330
1DD4
100
AcDbEntity
  8
AM_5
 62
     5
100
AcDbLine
 10
300.2306737719377
 20
130.3693507199475
 30
0.0
 11
283.8466852531478
 21
142.6814770997761
 31
0.0
  0
TRACE
  5
1DD7
330
1DD4
100
AcDbEntity
  8
AM_5
 62
     5
370
    35
100
AcDbTrace
 10
284.1235026602878
 20
143.0498434631862
 30
0.0
 11
283.5698678460079
 21
142.3131107363661
 31
0.0
 12
281.0486649208026
 22
144.7841140679147
 32
0.0
 13
281.0486649208026
 23
144.7841140679147
 33
0.0
  0
MTEXT
  5
1DD8
330
1DD4
100
AcDbEntity
  8
AM_5
 62
     5
100
AcDbMText
 10
319.6093057881042
 20
136.8967622968101
 30
0.0
 40
3.5
 41
0.0
 71
     9
 72
     5
  1

  7
ACISOTS
210
0.0
220
0.0
230
-1.0
 11
-1.0
 21
0.0
 31
0.0
 73
     1
 44
1.0
1001
ACAD
1000
MTEXTBEGIN
1070
    73
1070
     1
1070
    44
1040
1.0
1070
    74
1070
     0
1000
MTEXTEND
  0
ENDBLK
  5
1DDA
330
1DD4
100
AcDbEntity
  8
0
100
AcDbBlockEnd
  0
BLOCK
  5
1DE1
330
1DDC
100
AcDbEntity
  8
0
100
AcDbBlockBegin
  2
*S30
 70
     1
 10
0.0
 20
0.0
 30
0.0
  3
*S30
  1

  0
LINE
  5
1DDD
330
1DDC
100
AcDbEntity
  8
AM_5
 62
     5
100
AcDbLine
 10
269.6425691296913
 20
181.0964806862478
 30
0.0
 11
251.796030172113
 21
181.0964806862478
 31
0.0
  0
LINE
  5
1DDE
330
1DDC
100
AcDbEntity
  8
AM_5
 62
     5
100
AcDbLine
 10
251.796030172113
 20
181.0964806862478
 30
0.0
 11
240.6663378621343
 21
165.1826757125986
 31
0.0
  0
TRACE
  5
1DDF
330
1DDC
100
AcDbEntity
  8
AM_5
 62
     5
370
    35
100
AcDbTrace
 10
240.2887379960654
 20
165.4467590247037
 30
0.0
 11
241.0439377282032
 21
164.9185924004936
 31
0.0
 12
238.6604259491603
 22
162.3145199641448
 32
0.0
 13
238.6604259491603
 23
162.3145199641448
 33
0.0
  0
MTEXT
  5
1DE0
330
1DDC
100
AcDbEntity
  8
AM_5
 62
     5
100
AcDbMText
 10
269.6425691296913
 20
188.3126704916343
 30
0.0
 40
3.5
 41
0.0
 71
     9
 72
     5
  1

  7
ACISOTS
210
0.0
220
0.0
230
-1.0
 11
-1.0
 21
0.0
 31
0.0
 73
     1
 44
1.0
1001
ACAD
1000
MTEXTBEGIN
1070
    73
1070
     1
1070
    44
1040
1.0
1070
    74
1070
     0
1000
MTEXTEND
  0
ENDBLK
  5
1DE2
330
1DDC
100
AcDbEntity
  8
0
100
AcDbBlockEnd
  0
BLOCK
  5
1DE9
330
1DE4
100
AcDbEntity
  8
0
100
AcDbBlockBegin
  2
*S31
 70
     1
 10
0.0
 20
0.0
 30
0.0
  3
*S31
  1

  0
LINE
  5
1DE5
330
1DE4
100
AcDbEntity
  8
AM_5
 62
     5
100
AcDbLine
 10
127.7936444106174
 20
341.8959007667385
 30
0.0
 11
107.7620594031551
 21
341.8959007667385
 31
0.0
  0
LINE
  5
1DE6
330
1DE4
100
AcDbEntity
  8
AM_5
 62
     5
100
AcDbLine
 10
107.7620594031551
 20
341.8959007667385
 30
0.0
 11
95.798707735337
 21
348.3417303812504
 31
0.0
  0
TRACE
  5
1DE7
330
1DE4
100
AcDbEntity
  8
AM_5
 62
     5
370
    35
100
AcDbTrace
 10
96.01727101599971
 20
348.7473801648489
 30
0.0
 11
95.5801444546743
 21
347.9360805976518
 31
0.0
 12
92.71749170949465
 22
350.0018833266419
 32
0.0
 13
92.71749170949465
 23
350.0018833266419
 33
0.0
  0
MTEXT
  5
1DE8
330
1DE4
100
AcDbEntity
  8
AM_5
 62
     5
100
AcDbMText
 10
127.7936444106174
 20
346.6193421453465
 30
0.0
 40
3.5
 41
0.0
 71
     9
 72
     5
  1

  7
ACISOTS
210
0.0
220
0.0
230
-1.0
 11
-1.0
 21
0.0
 31
0.0
 73
     1
 44
1.0
1001
ACAD
1000
MTEXTBEGIN
1070
    73
1070
     1
1070
    44
1040
1.0
1070
    74
1070
     0
1000
MTEXTEND
  0
ENDBLK
  5
1DEA
330
1DE4
100
AcDbEntity
  8
0
100
AcDbBlockEnd
  0
BLOCK
  5
1DF1
330
1DEC
100
AcDbEntity
  8
0
100
AcDbBlockBegin
  2
*S32
 70
     1
 10
0.0
 20
0.0
 30
0.0
  3
*S32
  1

  0
LINE
  5
1DED
330
1DEC
100
AcDbEntity
  8
AM_5
 62
     5
100
AcDbLine
 10
408.2874666908208
 20
328.2149146560324
 30
0.0
 11
371.7928185442338
 21
328.2149146560324
 31
0.0
  0
LINE
  5
1DEE
330
1DEC
100
AcDbEntity
  8
AM_5
 62
     5
100
AcDbLine
 10
371.7928185442338
 20
328.2149146560324
 30
0.0
 11
365.9864932990873
 21
317.9219778808625
 31
0.0
  0
TRACE
  5
1DEF
330
1DEC
100
AcDbEntity
  8
AM_5
 62
     5
370
    35
100
AcDbTrace
 10
365.5851614716668
 20
318.148372268794
 30
0.0
 11
366.3878251265079
 21
317.6955834929309
 31
0.0
 12
364.266857188186
 22
314.8735599885642
 32
0.0
 13
364.266857188186
 23
314.8735599885642
 33
0.0
  0
MTEXT
  5
1DF0
330
1DEC
100
AcDbEntity
  8
AM_5
 62
     5
100
AcDbMText
 10
408.2874666908208
 20
334.1582343938541
 30
0.0
 40
3.5
 41
0.0
 71
     9
 72
     5
  1

  7
ACISOTS
210
0.0
220
0.0
230
-1.0
 11
-1.0
 21
0.0
 31
0.0
 73
     1
 44
1.0
1001
ACAD
1000
MTEXTBEGIN
1070
    73
1070
     1
1070
    44
1040
1.0
1070
    74
1070
     0
1000
MTEXTEND
  0
ENDBLK
  5
1DF2
330
1DEC
100
AcDbEntity
  8
0
100
AcDbBlockEnd
  0
BLOCK
  5
1DF9
330
1DF4
100
AcDbEntity
  8
0
100
AcDbBlockBegin
  2
*S33
 70
     1
 10
0.0
 20
0.0
 30
0.0
  3
*S33
  1

  0
LINE
  5
1DF5
330
1DF4
100
AcDbEntity
  8
AM_5
 62
     5
100
AcDbLine
 10
412.7380900894827
 20
250.5702859528221
 30
0.0
 11
377.4105294988615
 21
250.5702859528221
 31
0.0
  0
LINE
  5
1DF6
330
1DF4
100
AcDbEntity
  8
AM_5
 62
     5
100
AcDbLine
 10
377.4105294988615
 20
250.5702859528221
 30
0.0
 11
360.6935784604075
 21
275.8239858033759
 31
0.0
  0
TRACE
  5
1DF7
330
1DF4
100
AcDbEntity
  8
AM_5
 62
     5
370
    35
100
AcDbTrace
 10
361.077806240176
 20
276.0783294053041
 30
0.0
 11
360.309350680639
 21
275.5696422014477
 31
0.0
 12
358.7616469913964
 22
278.7424855547969
 32
0.0
 13
358.7616469913964
 23
278.7424855547969
 33
0.0
  0
MTEXT
  5
1DF8
330
1DF4
100
AcDbEntity
  8
AM_5
 62
     5
100
AcDbMText
 10
412.7380900894827
 20
257.036035355346
 30
0.0
 40
3.5
 41
0.0
 71
     9
 72
     5
  1

  7
ACISOTS
210
0.0
220
0.0
230
-1.0
 11
-1.0
 21
0.0
 31
0.0
 73
     1
 44
1.0
1001
ACAD
1000
MTEXTBEGIN
1070
    73
1070
     1
1070
    44
1040
1.0
1070
    74
1070
     0
1000
MTEXTEND
  0
ENDBLK
  5
1DFA
330
1DF4
100
AcDbEntity
  8
0
100
AcDbBlockEnd
  0
ENDSEC
  0
SECTION
  2
ENTITIES
  0
DIMENSION
  5
E63
330
1F
100
AcDbEntity
  8
AM_5
100
AcDbDimension
  2
*D3
 10
299.2059666329116
 20
160.2811611425451
 30
0.0
 11
296.7059666329115
 21
153.2811611425451
 31
0.0
 70
    32
 71
     5
 42
14.0
  3
AM_ISO$0
100
AcDbAlignedDimension
 13
283.4869726329115
 23
146.2811611425451
 33
0.0
 14
241.8285256329115
 24
160.2811611425451
 34
0.0
 50
90.0
100
AcDbRotatedDimension
1001
ACAD
1000
DSTYLE
1002
{
1070
    47
1040
-0.005
1070
    48
1040
0.025
1070
   272
1070
     8
1070
   274
1070
     3
1002
}
  0
DIMENSION
  5
E65
330
1F
100
AcDbEntity
  8
AM_5
100
AcDbDimension
  2
*D4
 10
301.3663509306722
 20
269.1525866795111
 30
0.0
 11
298.8663509306721
 21
290.1527086795112
 31
0.0
 70
    32
 71
     5
 42
42.00024400000001
  3
AM_ISO$0
100
AcDbAlignedDimension
 13
262.5059676329116
 23
311.1528306795111
 33
0.0
 14
262.5059676329116
 24
269.1525866795111
 34
0.0
 50
90.0
100
AcDbRotatedDimension
1001
ACAD
1000
DSTYLE
1002
{
1070
    47
1040
-0.005
1070
    48
1040
0.025
1070
   272
1070
     8
1070
   274
1070
     3
1002
}
  0
DIMENSION
  5
E66
330
1F
100
AcDbEntity
  8
AM_5
100
AcDbDimension
  2
*D5
 10
299.2059666329116
 20
395.280950069455
 30
0.0
 11
296.7059666329114
 21
403.280950069455
 31
0.0
 70
    32
 71
     5
 42
15.99999999999994
  3
AM_ISO$0
100
AcDbAlignedDimension
 13
242.3158296329114
 23
411.2809500694549
 33
0.0
 14
242.3158296329114
 24
395.280950069455
 34
0.0
 50
90.0
100
AcDbRotatedDimension
1001
ACAD
1000
DSTYLE
1002
{
1070
    47
1040
-0.005
1070
    48
1040
0.025
1070
   272
1070
     8
1070
   274
1070
     3
1002
}
  0
DIMENSION
  5
E67
330
1F
100
AcDbEntity
  8
AM_5
100
AcDbDimension
  2
*D6
 10
287.2059666329116
 20
430.280828069455
 30
0.0
 11
262.2059666329116
 21
432.7808280694549
 31
0.0
 70
    32
 71
     5
 42
50.0
  3
AM_ISO$0
100
AcDbAlignedDimension
 13
237.2059666329116
 23
416.5896660694548
 33
0.0
 14
287.2059666329116
 24
418.2808280694549
 34
0.0
100
AcDbRotatedDimension
1001
ACAD
1000
DSTYLE
1002
{
1070
    47
1040
-0.005
1070
    48
1040
0.025
1070
   272
1070
     8
1070
   274
1070
     3
1002
}
  0
LINE
  5
E68
330
1F
100
AcDbEntity
  8
0
  6
Continuous
 62
     7
100
AcDbLine
 10
287.2059666329116
 20
319.1528306795111
 30
0.0
 11
287.2059666329116
 21
261.1523426795111
 31
0.0
  0
LINE
  5
E6B
330
1F
100
AcDbEntity
  8
0
  6
Continuous
 62
     7
100
AcDbLine
 10
183.2062106329116
 20
319.1528306795111
 30
0.0
 11
183.2062106329116
 21
261.1523426795111
 31
0.0
  0
LINE
  5
E6D
330
1F
100
AcDbEntity
  8
0
  6
Continuous
 62
     7
100
AcDbLine
 10
180.2062106329116
 20
318.6528306795111
 30
0.0
 11
180.2062106329116
 21
261.6525866795111
 31
0.0
  0
DIMENSION
  5
E6E
330
1F
100
AcDbEntity
  8
AM_5
100
AcDbDimension
  2
*D7
 10
144.0907966329115
 20
267.6525866795111
 30
0.0
 11
141.5907966329115
 21
290.1527086795112
 31
0.0
 70
    32
 71
     5
 42
45.000244
  3
AM_ISO$0
100
AcDbAlignedDimension
 13
195.2171966329116
 23
312.6528306795111
 33
0.0
 14
198.2059666329115
 24
267.6525866795111
 34
0.0
 50
90.0
100
AcDbRotatedDimension
1001
ACAD
1000
DSTYLE
1002
{
1070
    47
1040
-0.005
1070
    48
1040
0.025
1070
   272
1070
     8
1070
   274
1070
     3
1002
}
  0
LINE
  5
E72
330
1F
100
AcDbEntity
  8
0
  6
Continuous
 62
     7
100
AcDbLine
 10
287.2059666329116
 20
138.2811611425451
 30
0.0
 11
183.2062106329116
 21
138.2811611425451
 31
0.0
  0
LINE
  5
E73
330
1F
100
AcDbEntity
  8
AM_7
100
AcDbLine
 10
290.3595306329115
 20
153.2811611425451
 30
0.0
 11
177.4374116329114
 21
153.2811611425451
 31
0.0
  0
LINE
  5
E74
330
1F
100
AcDbEntity
  8
0
  6
Continuous
 62
     7
100
AcDbLine
 10
287.2059666329116
 20
168.2811611425451
 30
0.0
 11
183.2062106329116
 21
168.2811611425451
 31
0.0
  0
LINE
  5
E75
330
1F
100
AcDbEntity
  8
0
  6
Continuous
 62
     7
100
AcDbLine
 10
206.2059666329115
 20
147.2811611425451
 30
0.0
 11
206.2059666329115
 21
159.2811611425451
 31
0.0
  0
LINE
  5
E76
330
1F
100
AcDbEntity
  8
0
  6
Continuous
 62
     7
100
AcDbLine
 10
180.2062106329116
 20
138.7811611425451
 30
0.0
 11
180.2062106329116
 21
167.7811611425451
 31
0.0
  0
LINE
  5
E77
330
1F
100
AcDbEntity
  8
0
  6
Continuous
 62
     7
100
AcDbLine
 10
196.2059666329115
 20
147.2814051425451
 30
0.0
 11
196.2059666329115
 21
159.2814051425451
 31
0.0
  0
LINE
  5
E78
330
1F
100
AcDbEntity
  8
0
  6
Continuous
 62
     7
100
AcDbLine
 10
183.0062596329115
 20
147.2811611425451
 30
0.0
 11
183.0062596329115
 21
159.2809171425451
 31
0.0
  0
LINE
  5
E79
330
1F
100
AcDbEntity
  8
AM_7
100
AcDbLine
 10
201.2062106329116
 20
135.5965911425451
 30
0.0
 11
201.2062106329116
 21
170.1429781425451
 31
0.0
  0
LINE
  5
E7A
330
1F
100
AcDbEntity
  8
0
  6
Continuous
 62
     7
100
AcDbLine
 10
183.2062106329116
 20
138.2811611425451
 30
0.0
 11
183.2062106329116
 21
147.2811611425451
 31
0.0
  0
LINE
  5
E7B
330
1F
100
AcDbEntity
  8
0
  6
Continuous
 62
     7
100
AcDbLine
 10
206.2059666329115
 20
147.2811611425451
 30
0.0
 11
183.0062596329115
 21
147.2811611425451
 31
0.0
  0
LINE
  5
E7C
330
1F
100
AcDbEntity
  8
0
  6
Continuous
 62
     7
100
AcDbLine
 10
183.2062106329116
 20
146.9811121425451
 30
0.0
 11
180.2062106329116
 21
146.9811121425451
 31
0.0
  0
LINE
  5
E7D
330
1F
100
AcDbEntity
  8
0
  6
Continuous
 62
     7
100
AcDbLine
 10
183.2062106329116
 20
138.7811611425451
 30
0.0
 11
180.2062106329116
 21
138.7811611425451
 31
0.0
  0
LINE
  5
E7E
330
1F
100
AcDbEntity
  8
0
  6
Continuous
 62
     7
100
AcDbLine
 10
206.2059666329115
 20
159.2809171425451
 30
0.0
 11
183.0062596329115
 21
159.2809171425451
 31
0.0
  0
LINE
  5
E7F
330
1F
100
AcDbEntity
  8
0
  6
Continuous
 62
     7
100
AcDbLine
 10
183.2062106329116
 20
159.2811611425451
 30
0.0
 11
183.2062106329116
 21
168.2811611425451
 31
0.0
  0
LINE
  5
E80
330
1F
100
AcDbEntity
  8
0
  6
Continuous
 62
     7
100
AcDbLine
 10
183.2062106329116
 20
159.5812101425451
 30
0.0
 11
180.2062106329116
 21
159.5812101425451
 31
0.0
  0
LINE
  5
E81
330
1F
100
AcDbEntity
  8
0
  6
Continuous
 62
     7
100
AcDbLine
 10
183.2062106329116
 20
167.7811611425451
 30
0.0
 11
180.2062106329116
 21
167.7811611425451
 31
0.0
  0
LINE
  5
E83
102
{ACAD_REACTORS
330
17AA
102
}
330
1F
100
AcDbEntity
  8
0
  6
Continuous
 62
     7
100
AcDbLine
 10
287.2059666329116
 20
138.2811611425451
 30
0.0
 11
287.2059666329116
 21
168.2811611425451
 31
0.0
  0
LINE
  5
E84
330
1F
100
AcDbEntity
  8
AM_7
100
AcDbLine
 10
283.4869726329115
 20
146.2811611425451
 30
0.0
 11
274.9958769300601
 21
146.2811611425451
 31
0.0
  0
LINE
  5
E85
102
{ACAD_REACTORS
330
17AA
330
17DC
102
}
330
1F
100
AcDbEntity
  8
AM_7
100
AcDbLine
 10
279.2059666329115
 20
150.9234951425451
 30
0.0
 11
279.2059666329115
 21
141.7877531425451
 31
0.0
  0
POINT
  5
E88
330
1F
100
AcDbEntity
  8
0
  6
Continuous
 62
     7
100
AcDbPoint
 10
287.2059666329116
 20
153.2811611425451
 30
0.0
  0
LINE
  5
E8B
102
{ACAD_REACTORS
330
17DC
102
}
330
1F
100
AcDbEntity
  8
AM_7
100
AcDbLine
 10
237.2059666329116
 20
164.4252041425451
 30
0.0
 11
237.2059666329116
 21
156.6183191425451
 31
0.0
  0
LINE
  5
E8C
330
1F
100
AcDbEntity
  8
AM_7
100
AcDbLine
 10
241.8285256329115
 20
160.2811611425451
 30
0.0
 11
232.1446876329115
 21
160.2811611425451
 31
0.0
  0
LINE
  5
E8E
330
1F
100
AcDbEntity
  8
0
  6
Continuous
 62
     7
100
AcDbLine
 10
287.2059666329116
 20
261.1523426795111
 30
0.0
 11
183.2062106329116
 21
261.1523426795111
 31
0.0
  0
LINE
  5
E8F
330
1F
100
AcDbEntity
  8
0
  6
Continuous
 62
     7
100
AcDbLine
 10
287.2059666329116
 20
276.6525866795111
 30
0.0
 11
183.2062106329116
 21
276.6525866795111
 31
0.0
  0
DIMENSION
  5
E90
330
1F
100
AcDbEntity
  8
AM_5
100
AcDbDimension
  2
*D8
 10
287.2059666329116
 20
213.1569938636658
 30
0.0
 11
244.2060886329116
 21
215.6569938636658
 31
0.0
 70
    32
 71
     5
 42
85.99975599999993
  3
AM_ISO$0
100
AcDbAlignedDimension
 13
201.2062106329116
 23
262.7861316795111
 33
0.0
 14
287.2059666329116
 24
229.4073067055796
 34
0.0
100
AcDbRotatedDimension
1001
ACAD
1000
DSTYLE
1002
{
1070
    47
1040
-0.005
1070
    48
1040
0.025
1070
   272
1070
     8
1070
   274
1070
     3
1002
}
  0
DIMENSION
  5
E91
330
1F
100
AcDbEntity
  8
AM_5
100
AcDbDimension
  2
*D9
 10
180.2062106329116
 20
203.1569938636658
 30
0.0
 11
233.7060886329116
 21
205.6569938636658
 31
0.0
 70
    32
 71
     5
 42
106.9997559999999
  3
AM_ISO$0
100
AcDbAlignedDimension
 13
287.2059666329116
 23
218.4107712086619
 33
0.0
 14
180.2062106329116
 24
261.6525866795111
 34
0.0
100
AcDbRotatedDimension
1001
ACAD
1000
DSTYLE
1002
{
1070
    47
1040
-0.005
1070
    48
1040
0.025
1070
   272
1070
     8
1070
   274
1070
     3
1002
}
  0
LINE
  5
E92
330
1F
100
AcDbEntity
  8
0
  6
Continuous
 62
     7
100
AcDbLine
 10
206.2059666329115
 20
261.1523426795111
 30
0.0
 11
206.2059666329115
 21
222.6524646795111
 31
0.0
  0
LINE
  5
E93
330
1F
100
AcDbEntity
  8
0
  6
Continuous
 62
     7
100
AcDbLine
 10
196.2059666329115
 20
250.1528306795111
 30
0.0
 11
196.2059666329115
 21
222.6524646795111
 31
0.0
  0
DIMENSION
  5
E94
330
1F
100
AcDbEntity
  8
AM_5
100
AcDbDimension
  2
*D10
 10
144.0907966329115
 20
222.6524646795112
 30
0.0
 11
141.5907966329115
 21
245.1525256795112
 31
0.0
 70
    32
 71
     5
 42
45.00012200000003
  3
AM_ISO$0
100
AcDbAlignedDimension
 13
140.6526411233532
 23
267.6525866795111
 33
0.0
 14
196.2059666329115
 24
222.6524646795111
 34
0.0
 50
90.0
100
AcDbRotatedDimension
1001
ACAD
1000
DSTYLE
1002
{
1070
    47
1040
-0.005
1070
    48
1040
0.025
1070
   272
1070
     8
1070
   274
1070
     3
1002
}
  0
LINE
  5
E95
330
1F
100
AcDbEntity
  8
0
  6
Continuous
 62
     7
100
AcDbLine
 10
196.2059666329115
 20
222.6524646795111
 30
0.0
 11
206.2059666329115
 21
222.6524646795111
 31
0.0
  0
LINE
  5
E96
330
1F
100
AcDbEntity
  8
0
  6
ACISOTGB
 62
     2
100
AcDbLine
 10
180.2063096329115
 20
263.2011016795111
 30
0.0
 11
156.0907966329115
 21
263.8325946795111
 31
0.0
  0
LINE
  5
E97
330
1F
100
AcDbEntity
  8
0
  6
ACISOTGB
 62
     2
100
AcDbLine
 10
180.2062036329115
 20
273.2045276795111
 30
0.0
 11
156.3525656329115
 21
273.8291616795111
 31
0.0
  0
LINE
  5
E98
330
1F
100
AcDbEntity
  8
AM_7
100
AcDbLine
 10
207.0382346329117
 20
267.4997086795111
 30
0.0
 11
154.2989876329114
 21
268.8807356795111
 31
0.0
  0
LINE
  5
E99
330
1F
100
AcDbEntity
  8
0
  6
ACISOTGB
 62
     2
100
AcDbLine
 10
156.0907966329115
 20
263.8325946795111
 30
0.0
 11
156.3525656329115
 21
273.8291616795111
 31
0.0
  0
ARC
  5
E9A
330
1F
100
AcDbEntity
  8
0
  6
Continuous
 62
     7
100
AcDbCircle
 10
201.2059666329116
 20
267.6525866795111
 30
0.0
 40
18.199997
100
AcDbArc
 50
200.9256589999959
 51
250.2119759999971
  0
LINE
  5
E9B
330
1F
100
AcDbEntity
  8
0
  6
Continuous
 62
     7
100
AcDbLine
 10
195.5299416329116
 20
250.1528306795111
 30
0.0
 11
196.2059666329115
 21
250.1528306795111
 31
0.0
  0
ARC
  5
E9C
330
1F
100
AcDbEntity
  8
0
  6
Continuous
 62
     7
100
AcDbCircle
 10
194.7059666329115
 20
249.5864246795111
 30
0.0
 40
1.0
100
AcDbArc
 50
34.51063399999724
 51
70.21183099999332
  0
LINE
  5
E9D
330
1F
100
AcDbEntity
  8
0
  6
Continuous
 62
     7
100
AcDbLine
 10
183.2062106329116
 20
261.6525866795111
 30
0.0
 11
180.2062106329116
 21
261.6525866795111
 31
0.0
  0
LINE
  5
E9E
330
1F
100
AcDbEntity
  8
0
  6
Continuous
 62
     7
100
AcDbLine
 10
183.2062106329116
 20
276.0526106795111
 30
0.0
 11
180.2062106329116
 21
276.0526106795111
 31
0.0
  0
CIRCLE
  5
E9F
330
1F
100
AcDbEntity
  8
0
  6
Continuous
 62
     7
100
AcDbCircle
 10
201.2059666329116
 20
267.6525866795111
 30
0.0
 40
3.0
  0
DIMENSION
  5
EA1
330
1F
100
AcDbEntity
  8
AM_5
100
AcDbDimension
  2
*D11
 10
287.2059666329116
 20
233.1569938636658
 30
0.0
 11
272.2059666329116
 21
235.6569938636658
 31
0.0
 70
    32
 71
     5
 42
30.0
  3
AM_ISO$0
100
AcDbAlignedDimension
 13
257.2059666329116
 23
263.8525856795111
 33
0.0
 14
287.2059666329116
 24
261.1523426795111
 34
0.0
100
AcDbRotatedDimension
1001
ACAD
1000
DSTYLE
1002
{
1070
    47
1040
-0.005
1070
    48
1040
0.025
1070
   272
1070
     8
1070
   274
1070
     3
1002
}
  0
DIMENSION
  5
EA2
330
1F
100
AcDbEntity
  8
AM_5
100
AcDbDimension
  2
*D12
 10
227.2059666329115
 20
223.1569938636658
 30
0.0
 11
257.2059666329116
 21
225.6569938636658
 31
0.0
 70
    32
 71
     5
 42
60.0
  3
AM_ISO$0
100
AcDbAlignedDimension
 13
287.2059666329116
 23
236.9312511534871
 33
0.0
 14
227.2059666329115
 24
263.7172836795111
 34
0.0
100
AcDbRotatedDimension
1001
ACAD
1000
DSTYLE
1002
{
1070
    47
1040
-0.005
1070
    48
1040
0.025
1070
   272
1070
     8
1070
   274
1070
     3
1002
}
  0
LINE
  5
EAD
330
1F
100
AcDbEntity
  8
0
  6
Continuous
 62
     7
100
AcDbLine
 10
206.2059666329115
 20
319.1528306795111
 30
0.0
 11
206.2059666329115
 21
357.6525866795111
 31
0.0
  0
LINE
  5
EAE
330
1F
100
AcDbEntity
  8
0
  6
Continuous
 62
     7
100
AcDbLine
 10
196.2062106329116
 20
330.1523426795111
 30
0.0
 11
196.2062106329116
 21
357.6525866795111
 31
0.0
  0
LINE
  5
EAF
330
1F
100
AcDbEntity
  8
0
  6
Continuous
 62
     7
100
AcDbLine
 10
287.2059666329116
 20
319.1528306795111
 30
0.0
 11
183.2062106329116
 21
319.1528306795111
 31
0.0
  0
LINE
  5
EB0
330
1F
100
AcDbEntity
  8
0
  6
Continuous
 62
     7
100
AcDbLine
 10
287.2059666329116
 20
303.6525866795111
 30
0.0
 11
183.2062106329116
 21
303.6525866795111
 31
0.0
  0
LINE
  5
EB1
330
1F
100
AcDbEntity
  8
0
  6
Continuous
 62
     7
100
AcDbLine
 10
287.2059666329116
 20
300.6525866795111
 30
0.0
 11
183.2062106329116
 21
300.6525866795111
 31
0.0
  0
LINE
  5
EB2
330
1F
100
AcDbEntity
  8
AM_7
100
AcDbLine
 10
290.5792576329115
 20
290.1525866795111
 30
0.0
 11
177.4374116329114
 21
290.1525866795111
 31
0.0
  0
LINE
  5
EB3
330
1F
100
AcDbEntity
  8
0
  6
Continuous
 62
     7
100
AcDbLine
 10
183.2062106329116
 20
297.9523916795111
 30
0.0
 11
287.2059666329116
 21
297.9523916795111
 31
0.0
  0
LINE
  5
EB5
330
1F
100
AcDbEntity
  8
0
  6
Continuous
 62
     7
100
AcDbLine
 10
287.2059666329116
 20
279.6525866795111
 30
0.0
 11
183.2062106329116
 21
279.6525866795111
 31
0.0
  0
LINE
  5
EB6
330
1F
100
AcDbEntity
  8
0
  6
Continuous
 62
     7
100
AcDbLine
 10
183.2062106329116
 20
282.3527816795111
 30
0.0
 11
287.2059666329116
 21
282.3527816795111
 31
0.0
  0
LINE
  5
EB7
330
1F
100
AcDbEntity
  8
0
  6
Continuous
 62
     7
100
AcDbLine
 10
183.2062106329116
 20
282.6525866795111
 30
0.0
 11
287.2059666329116
 21
282.6525866795111
 31
0.0
  0
LINE
  5
EB8
330
1F
100
AcDbEntity
  8
0
  6
ACISOTGB
 62
     2
100
AcDbLine
 10
156.0897096329116
 20
316.4731436795111
 30
0.0
 11
156.3514786329116
 21
306.476561679511
 31
0.0
  0
LINE
  5
EB9
330
1F
100
AcDbEntity
  8
0
  6
ACISOTGB
 62
     2
100
AcDbLine
 10
180.2051196329115
 20
307.1011946795111
 30
0.0
 11
156.3514786329116
 21
306.476561679511
 31
0.0
  0
LINE
  5
EBA
330
1F
100
AcDbEntity
  8
AM_7
100
AcDbLine
 10
207.0371586329116
 20
312.8055256795111
 30
0.0
 11
154.2979156329116
 21
311.4244986795111
 31
0.0
  0
LINE
  5
EBB
330
1F
100
AcDbEntity
  8
0
  6
Continuous
 62
     7
100
AcDbLine
 10
183.2062106329116
 20
280.2525626795111
 30
0.0
 11
180.2062106329116
 21
280.2525626795111
 31
0.0
  0
LINE
  5
EBC
330
1F
100
AcDbEntity
  8
0
  6
Continuous
 62
     7
100
AcDbLine
 10
183.2062106329116
 20
300.0526106795111
 30
0.0
 11
180.2062106329116
 21
300.0526106795111
 31
0.0
  0
LINE
  5
EBD
330
1F
100
AcDbEntity
  8
0
  6
Continuous
 62
     7
100
AcDbLine
 10
183.2062106329116
 20
304.2525626795111
 30
0.0
 11
180.2062106329116
 21
304.2525626795111
 31
0.0
  0
CIRCLE
  5
EBE
330
1F
100
AcDbEntity
  8
0
  6
Continuous
 62
     7
100
AcDbCircle
 10
201.2059666329116
 20
312.6528306795111
 30
0.0
 40
3.0
  0
LINE
  5
EC0
330
1F
100
AcDbEntity
  8
0
  6
ACISOTGB
 62
     2
100
AcDbLine
 10
180.2052266329116
 20
317.1046286795111
 30
0.0
 11
156.0897096329116
 21
316.4731436795111
 31
0.0
  0
ARC
  5
EC1
330
1F
100
AcDbEntity
  8
0
  6
Continuous
 62
     7
100
AcDbCircle
 10
201.2059666329116
 20
312.6525866795111
 30
0.0
 40
18.199997
100
AcDbArc
 50
109.7880240000029
 51
159.0743410000041
  0
LINE
  5
EC2
330
1F
100
AcDbEntity
  8
0
  6
Continuous
 62
     7
100
AcDbLine
 10
183.2062106329116
 20
318.6528306795111
 30
0.0
 11
180.2062106329116
 21
318.6528306795111
 31
0.0
  0
LINE
  5
EC3
330
1F
100
AcDbEntity
  8
0
  6
Continuous
 62
     7
100
AcDbLine
 10
195.5301856329116
 20
330.1523426795111
 30
0.0
 11
196.2062106329116
 21
330.1523426795111
 31
0.0
  0
ARC
  5
EC4
330
1F
100
AcDbEntity
  8
0
  6
Continuous
 62
     7
100
AcDbCircle
 10
194.7059666329115
 20
330.7187486795111
 30
0.0
 40
1.0
100
AcDbArc
 50
289.7881690000067
 51
325.4893699999998
  0
POINT
  5
EC9
330
1F
100
AcDbEntity
  8
0
  6
Continuous
 62
     7
100
AcDbPoint
 10
287.2059666329116
 20
290.1525866795111
 30
0.0
  0
LINE
  5
ED2
330
1F
100
AcDbEntity
  8
0
  6
Continuous
 62
     7
100
AcDbLine
 10
287.2059666329116
 20
388.2809500694549
 30
0.0
 11
183.2062106329116
 21
388.2809500694549
 31
0.0
  0
LINE
  5
ED3
330
1F
100
AcDbEntity
  8
AM_7
100
AcDbLine
 10
290.3595306329115
 20
403.2809500694549
 30
0.0
 11
177.4374116329114
 21
403.2809500694549
 31
0.0
  0
LINE
  5
ED4
330
1F
100
AcDbEntity
  8
0
  6
Continuous
 62
     7
100
AcDbLine
 10
287.2059666329116
 20
418.2808280694549
 30
0.0
 11
183.2062106329116
 21
418.2808280694549
 31
0.0
  0
LINE
  5
ED5
330
1F
100
AcDbEntity
  8
AM_7
100
AcDbLine
 10
201.2062106329116
 20
385.7916920694549
 30
0.0
 11
201.2062106329116
 21
420.5232600694549
 31
0.0
  0
LINE
  5
ED6
330
1F
100
AcDbEntity
  8
0
  6
Continuous
 62
     7
100
AcDbLine
 10
183.2062106329116
 20
388.2809500694549
 30
0.0
 11
183.2062106329116
 21
397.280950069455
 31
0.0
  0
DIMENSION
  5
ED7
330
1F
100
AcDbEntity
  8
AM_5
100
AcDbDimension
  2
*D13
 10
206.2059666329115
 20
369.6525866795111
 30
0.0
 11
201.2060886329116
 21
372.1525866795111
 31
0.0
 70
    32
 71
     5
 42
9.999755999999933
  3
AM_ISO$0
100
AcDbAlignedDimension
 13
196.2062106329116
 23
357.6525866795111
 33
0.0
 14
206.2059666329115
 24
357.6525866795111
 34
0.0
100
AcDbRotatedDimension
1001
ACAD
1000
DSTYLE
1002
{
1070
    47
1040
-0.005
1070
    48
1040
0.025
1070
   272
1070
     8
1070
   274
1070
     3
1002
}
  0
LINE
  5
ED8
330
1F
100
AcDbEntity
  8
0
  6
Continuous
 62
     7
100
AcDbLine
 10
196.2062106329116
 20
357.6525866795111
 30
0.0
 11
206.2059666329115
 21
357.6525866795111
 31
0.0
  0
TEXT
  5
ED9
330
1F
100
AcDbEntity
  8
Dim
100
AcDbText
 10
256.1530014409303
 20
376.9416266949688
 30
0.0
 40
3.0
  1
2-M6x10depth
 41
1.012987
  7
China
100
AcDbText
  0
LINE
  5
EDC
330
1F
100
AcDbEntity
  8
0
  6
Continuous
 62
     7
100
AcDbLine
 10
206.2059666329115
 20
397.280950069455
 30
0.0
 11
206.2059666329115
 21
409.2809500694549
 31
0.0
  0
LINE
  5
EDD
330
1F
100
AcDbEntity
  8
0
  6
Continuous
 62
     7
100
AcDbLine
 10
180.2062106329116
 20
388.780950069455
 30
0.0
 11
180.2062106329116
 21
417.780828069455
 31
0.0
  0
LINE
  5
EDE
330
1F
100
AcDbEntity
  8
0
  6
Continuous
 62
     7
100
AcDbLine
 10
183.0062596329115
 20
397.280950069455
 30
0.0
 11
183.0062596329115
 21
409.2807060694549
 31
0.0
  0
LINE
  5
EDF
330
1F
100
AcDbEntity
  8
0
  6
Continuous
 62
     7
100
AcDbLine
 10
196.2059666329115
 20
397.2811940694549
 30
0.0
 11
196.2059666329115
 21
409.281194069455
 31
0.0
  0
LINE
  5
EE0
330
1F
100
AcDbEntity
  8
0
  6
Continuous
 62
     7
100
AcDbLine
 10
206.2059666329115
 20
397.2811940694549
 30
0.0
 11
183.0062596329115
 21
397.2811940694549
 31
0.0
  0
LINE
  5
EE1
330
1F
100
AcDbEntity
  8
0
  6
Continuous
 62
     7
100
AcDbLine
 10
183.2062106329116
 20
396.9809010694549
 30
0.0
 11
180.2062106329116
 21
396.9809010694549
 31
0.0
  0
LINE
  5
EE2
330
1F
100
AcDbEntity
  8
0
  6
Continuous
 62
     7
100
AcDbLine
 10
183.2062106329116
 20
388.780950069455
 30
0.0
 11
180.2062106329116
 21
388.780950069455
 31
0.0
  0
LINE
  5
EE3
330
1F
100
AcDbEntity
  8
0
  6
Continuous
 62
     7
100
AcDbLine
 10
206.2059666329115
 20
409.2809500694549
 30
0.0
 11
183.0062596329115
 21
409.2809500694549
 31
0.0
  0
LINE
  5
EE4
330
1F
100
AcDbEntity
  8
0
  6
Continuous
 62
     7
100
AcDbLine
 10
183.2062106329116
 20
409.2809500694549
 30
0.0
 11
183.2062106329116
 21
418.2808280694549
 31
0.0
  0
LINE
  5
EE5
330
1F
100
AcDbEntity
  8
0
  6
Continuous
 62
     7
100
AcDbLine
 10
183.2062106329116
 20
409.5809990694549
 30
0.0
 11
180.2062106329116
 21
409.5809990694549
 31
0.0
  0
LINE
  5
EE6
330
1F
100
AcDbEntity
  8
0
  6
Continuous
 62
     7
100
AcDbLine
 10
183.2062106329116
 20
417.780828069455
 30
0.0
 11
180.2062106329116
 21
417.780828069455
 31
0.0
  0
LINE
  5
EE7
330
1F
100
AcDbEntity
  8
0
  6
Continuous
 62
     7
100
AcDbLine
 10
287.2059666329116
 20
388.2809500694549
 30
0.0
 11
287.2059666329116
 21
418.2808280694549
 31
0.0
  0
LINE
  5
EE9
330
1F
100
AcDbEntity
  8
AM_7
100
AcDbLine
 10
237.2059666329116
 20
390.5226490694549
 30
0.0
 11
237.2059666329116
 21
416.5896660694548
 31
0.0
  0
LINE
  5
EEC
330
1F
100
AcDbEntity
  8
AM_7
100
AcDbLine
 10
242.3158296329114
 20
395.280950069455
 30
0.0
 11
232.5592376329115
 21
395.280950069455
 31
0.0
  0
LINE
  5
EED
330
1F
100
AcDbEntity
  8
AM_7
100
AcDbLine
 10
242.3158296329114
 20
411.2809500694549
 30
0.0
 11
232.7914156329115
 21
411.2809500694549
 31
0.0
  0
POINT
  5
EF0
330
1F
100
AcDbEntity
  8
0
  6
Continuous
 62
     7
100
AcDbPoint
 10
287.2059666329116
 20
403.2809500694549
 30
0.0
  0
ARC
  5
EF7
330
1F
100
AcDbEntity
  8
0
  6
Continuous
 62
     7
100
AcDbCircle
 10
364.809401055319
 20
278.1525866795111
 30
0.0
 40
2.0
100
AcDbArc
 50
48.59038600000012
 51
311.4096340000028
  0
ARC
  5
EF8
330
1F
100
AcDbEntity
  8
0
  6
Continuous
 62
     7
100
AcDbCircle
 10
340.809401055319
 20
278.1525866795111
 30
0.0
 40
2.0
100
AcDbArc
 50
228.5903778907302
 51
131.4096221092697
  0
LINE
  5
EF9
330
1F
100
AcDbEntity
  8
AM_7
100
AcDbLine
 10
352.809401055319
 20
361.0905746795111
 30
0.0
 11
352.809401055319
 21
220.4307846795111
 31
0.0
  0
DIMENSION
  5
EFB
330
1F
100
AcDbEntity
  8
AM_5
100
AcDbDimension
  2
*D14
 10
381.5178970553191
 20
267.1525866795111
 30
0.0
 11
379.0178970553191
 21
290.1527086795112
 31
0.0
 70
    32
 71
     5
 42
46.00024400000001
  3
AM_ISO$0
100
AcDbAlignedDimension
 13
366.2532490553191
 23
313.1528306795111
 33
0.0
 14
347.7891380553191
 24
267.1525866795111
 34
0.0
 50
90.0
100
AcDbRotatedDimension
1001
ACAD
1000
DSTYLE
1002
{
1070
    47
1040
-0.005
1070
    48
1040
0.025
1070
   272
1070
     8
1070
   274
1070
     3
1002
}
  0
DIMENSION
  5
EFC
330
1F
100
AcDbEntity
  8
AM_5
100
AcDbDimension
  2
*D15
 10
391.5178970553192
 20
261.152342679511
 30
0.0
 11
389.0178970553191
 21
290.1525866795111
 31
0.0
 70
    32
 71
     5
 42
58.00048800000002
  3
AM_ISO$0
100
AcDbAlignedDimension
 13
367.809645055319
 23
319.1528306795111
 33
0.0
 14
367.809645055319
 24
261.1523426795111
 34
0.0
 50
90.0
100
AcDbRotatedDimension
1001
ACAD
1000
DSTYLE
1002
{
1070
    47
1040
-0.005
1070
    48
1040
0.025
1070
   272
1070
     8
1070
   274
1070
     3
1002
}
  0
LINE
  5
F00
330
1F
100
AcDbEntity
  8
AM_7
100
AcDbLine
 10
347.7891380553191
 20
267.1525866795111
 30
0.0
 11
339.212722055319
 21
267.1525866795111
 31
0.0
  0
LINE
  5
F04
330
1F
100
AcDbEntity
  8
0
  6
Continuous
 62
     7
100
AcDbLine
 10
337.809401055319
 20
276.6525866795111
 30
0.0
 11
339.4866470553192
 21
276.6525866795111
 31
0.0
  0
LINE
  5
F06
330
1F
100
AcDbEntity
  8
0
  6
Continuous
 62
     7
100
AcDbLine
 10
358.809401055319
 20
261.1523426795111
 30
0.0
 11
358.809401055319
 21
222.6524646795111
 31
0.0
  0
LINE
  5
F07
330
1F
100
AcDbEntity
  8
0
  6
Continuous
 62
     7
100
AcDbLine
 10
346.809401055319
 20
261.1523426795111
 30
0.0
 11
346.809401055319
 21
222.6524646795111
 31
0.0
  0
LINE
  5
F08
330
1F
100
AcDbEntity
  8
0
  6
Continuous
 62
     7
100
AcDbLine
 10
346.809401055319
 20
222.6524646795111
 30
0.0
 11
358.809401055319
 21
222.6524646795111
 31
0.0
  0
LINE
  5
F0B
330
1F
100
AcDbEntity
  8
AM_7
100
AcDbLine
 10
357.2254170553191
 20
228.6522206795111
 30
0.0
 11
349.149001055319
 21
228.6522206795111
 31
0.0
  0
LINE
  5
F0C
330
1F
100
AcDbEntity
  8
AM_7
100
AcDbLine
 10
356.6868430553189
 20
240.6523426795111
 30
0.0
 11
348.969558055319
 21
240.6523426795111
 31
0.0
  0
LINE
  5
F14
102
{ACAD_REACTORS
330
1896
102
}
330
1F
100
AcDbEntity
  8
AM_7
100
AcDbLine
 10
343.809401055319
 20
271.8134756795111
 30
0.0
 11
343.809401055319
 21
262.5598136795111
 31
0.0
  0
ARC
  5
F15
330
1F
100
AcDbEntity
  8
0
  6
Continuous
 62
     7
100
AcDbCircle
 10
352.809401055319
 20
267.6523426795111
 30
0.0
 40
2.0
100
AcDbArc
 50
359.9999630000002
 51
179.9999639999999
  0
ARC
  5
F16
330
1F
100
AcDbEntity
  8
0
  6
Continuous
 62
     7
100
AcDbCircle
 10
352.809401055319
 20
266.6523426795111
 30
0.0
 40
2.0
100
AcDbArc
 50
179.9999639999999
 51
0.000009999999378
  0
LINE
  5
F17
330
1F
100
AcDbEntity
  8
0
  6
Continuous
 62
     7
100
AcDbLine
 10
350.809401055319
 20
267.6523426795111
 30
0.0
 11
350.809401055319
 21
266.6523426795111
 31
0.0
  0
LINE
  5
F19
330
1F
100
AcDbEntity
  8
0
  6
Continuous
 62
     7
100
AcDbLine
 10
354.809401055319
 20
267.6523426795111
 30
0.0
 11
354.809401055319
 21
266.6523426795111
 31
0.0
  0
POINT
  5
F1A
330
1F
100
AcDbEntity
  8
0
  6
Continuous
 62
     7
100
AcDbPoint
 10
342.809401055319
 20
278.1525866795111
 30
0.0
  0
LINE
  5
F1B
330
1F
100
AcDbEntity
  8
0
  6
Continuous
 62
     7
100
AcDbLine
 10
367.809645055319
 20
276.6525866795111
 30
0.0
 11
366.132155055319
 21
276.6525866795111
 31
0.0
  0
LINE
  5
F21
330
1F
100
AcDbEntity
  8
0
  6
Continuous
 62
     7
100
AcDbLine
 10
358.809401055319
 20
319.1528306795111
 30
0.0
 11
358.809401055319
 21
357.6525866795111
 31
0.0
  0
LINE
  5
F22
330
1F
100
AcDbEntity
  8
0
  6
Continuous
 62
     7
100
AcDbLine
 10
346.809401055319
 20
319.1528306795111
 30
0.0
 11
346.809401055319
 21
357.6525866795111
 31
0.0
  0
LINE
  5
F23
330
1F
100
AcDbEntity
  8
0
  6
Continuous
 62
     7
100
AcDbLine
 10
367.809645055319
 20
319.1528306795111
 30
0.0
 11
337.809401055319
 21
319.1528306795111
 31
0.0
  0
ARC
  5
F24
330
1F
100
AcDbEntity
  8
0
  6
Continuous
 62
     7
100
AcDbCircle
 10
340.809401055319
 20
302.1525866795111
 30
0.0
 40
2.0
100
AcDbArc
 50
228.5903778907302
 51
131.4096221092697
  0
LINE
  5
F25
330
1F
100
AcDbEntity
  8
AM_7
100
AcDbLine
 10
369.5178970553192
 20
290.1525866795111
 30
0.0
 11
336.025222055319
 21
290.1525866795111
 31
0.0
  0
LINE
  5
F28
330
1F
100
AcDbEntity
  8
0
  6
Continuous
 62
     7
100
AcDbLine
 10
338.1094500553189
 20
297.6525866795111
 30
0.0
 11
338.1094500553189
 21
282.6525866795111
 31
0.0
  0
LINE
  5
F29
330
1F
100
AcDbEntity
  8
0
  6
Continuous
 62
     7
100
AcDbLine
 10
338.1086870553189
 20
282.6532576795111
 30
0.0
 11
337.808669055319
 21
282.3532246795111
 31
0.0
  0
LINE
  5
F2A
330
1F
100
AcDbEntity
  8
0
  6
Continuous
 62
     7
100
AcDbLine
 10
337.809401055319
 20
279.6525866795111
 30
0.0
 11
339.4866470553192
 21
279.6525866795111
 31
0.0
  0
LINE
  5
F2B
330
1F
100
AcDbEntity
  8
0
  6
Continuous
 62
     7
100
AcDbLine
 10
337.809401055319
 20
282.3525376795111
 30
0.0
 11
337.809401055319
 21
279.6525866795111
 31
0.0
  0
LINE
  5
F2C
330
1F
100
AcDbEntity
  8
0
  6
Continuous
 62
     7
100
AcDbLine
 10
337.809401055319
 20
300.6525866795111
 30
0.0
 11
339.4866470553192
 21
300.6525866795111
 31
0.0
  0
LINE
  5
F2D
330
1F
100
AcDbEntity
  8
0
  6
Continuous
 62
     7
100
AcDbLine
 10
338.109725055319
 20
297.6527236795111
 30
0.0
 11
337.809645055319
 21
297.9527116795111
 31
0.0
  0
LINE
  5
F2E
330
1F
100
AcDbEntity
  8
0
  6
Continuous
 62
     7
100
AcDbLine
 10
337.809401055319
 20
300.6525866795111
 30
0.0
 11
337.809401055319
 21
297.9523916795111
 31
0.0
  0
LINE
  5
F2F
330
1F
100
AcDbEntity
  8
0
  6
Continuous
 62
     7
100
AcDbLine
 10
337.809401055319
 20
303.6525866795111
 30
0.0
 11
339.4866470553192
 21
303.6525866795111
 31
0.0
  0
LINE
  5
F32
102
{ACAD_REACTORS
330
1896
102
}
330
1F
100
AcDbEntity
  8
AM_7
100
AcDbLine
 10
361.809401055319
 20
317.5978996795111
 30
0.0
 11
361.809401055319
 21
308.9084456795112
 31
0.0
  0
LINE
  5
F35
330
1F
100
AcDbEntity
  8
0
  6
Continuous
 62
     7
100
AcDbLine
 10
367.509597055319
 20
297.6525866795111
 30
0.0
 11
367.509597055319
 21
282.6525866795111
 31
0.0
  0
POINT
  5
F36
330
1F
100
AcDbEntity
  8
0
  6
Continuous
 62
     7
100
AcDbPoint
 10
352.809401055319
 20
290.1525866795111
 30
0.0
  0
LINE
  5
F37
330
1F
100
AcDbEntity
  8
0
  6
Continuous
 62
     7
100
AcDbLine
 10
367.5089560553191
 20
282.6530296795111
 30
0.0
 11
367.808943055319
 21
282.3529346795112
 31
0.0
  0
LINE
  5
F38
330
1F
100
AcDbEntity
  8
0
  6
Continuous
 62
     7
100
AcDbLine
 10
367.809645055319
 20
282.3522936795111
 30
0.0
 11
367.809645055319
 21
279.6525866795111
 31
0.0
  0
LINE
  5
F39
330
1F
100
AcDbEntity
  8
0
  6
Continuous
 62
     7
100
AcDbLine
 10
367.809645055319
 20
279.6525866795111
 30
0.0
 11
366.132155055319
 21
279.6525866795111
 31
0.0
  0
LINE
  5
F3A
330
1F
100
AcDbEntity
  8
AM_7
100
AcDbLine
 10
366.2532490553191
 20
313.1528306795111
 30
0.0
 11
357.1082290553189
 21
313.1528306795111
 31
0.0
  0
POINT
  5
F3B
330
1F
100
AcDbEntity
  8
0
  6
Continuous
 62
     7
100
AcDbPoint
 10
342.809401055319
 20
302.1525866795111
 30
0.0
  0
ARC
  5
F3C
330
1F
100
AcDbEntity
  8
0
  6
Continuous
 62
     7
100
AcDbCircle
 10
364.809401055319
 20
302.1525866795111
 30
0.0
 40
2.0
100
AcDbArc
 50
48.59038600000012
 51
311.4096340000028
  0
LINE
  5
F3D
330
1F
100
AcDbEntity
  8
0
  6
Continuous
 62
     7
100
AcDbLine
 10
367.809645055319
 20
300.6525866795111
 30
0.0
 11
366.132155055319
 21
300.6525866795111
 31
0.0
  0
LINE
  5
F3E
330
1F
100
AcDbEntity
  8
0
  6
Continuous
 62
     7
100
AcDbLine
 10
367.5100540553191
 20
297.6527546795111
 30
0.0
 11
367.810103055319
 21
297.9527876795111
 31
0.0
  0
LINE
  5
F3F
330
1F
100
AcDbEntity
  8
0
  6
Continuous
 62
     7
100
AcDbLine
 10
367.809645055319
 20
300.6525866795111
 30
0.0
 11
367.809645055319
 21
297.9526356795111
 31
0.0
  0
LINE
  5
F40
330
1F
100
AcDbEntity
  8
0
  6
Continuous
 62
     7
100
AcDbLine
 10
367.809645055319
 20
303.6525866795111
 30
0.0
 11
366.132155055319
 21
303.6525866795111
 31
0.0
  0
LINE
  5
F44
330
1F
100
AcDbEntity
  8
AM_7
100
AcDbLine
 10
356.6868430553189
 20
339.6528306795111
 30
0.0
 11
348.969558055319
 21
339.6528306795111
 31
0.0
  0
LINE
  5
F47
330
1F
100
AcDbEntity
  8
AM_7
100
AcDbLine
 10
357.2254170553191
 20
351.6528306795111
 30
0.0
 11
349.1492450553191
 21
351.6528306795111
 31
0.0
  0
LINE
  5
F58
330
1F
100
AcDbEntity
  8
0
  6
Continuous
 62
     7
100
AcDbLine
 10
346.809401055319
 20
357.6525866795111
 30
0.0
 11
358.809401055319
 21
357.6525866795111
 31
0.0
  0
TEXT
  5
F7A
330
1F
100
AcDbEntity
  8
Dim
100
AcDbText
 10
300.5712391895583
 20
126.2880424451996
 30
0.0
 40
3.0
  1
(Finger opening port)
 41
1.012987
  7
China
100
AcDbText
  0
LINE
  5
116E
330
1F
100
AcDbEntity
  8
0
  6
Continuous
 62
     7
100
AcDbLine
 10
84.92978367916805
 20
281.2525626795111
 30
0.0
 11
84.92978367916828
 21
222.6524646795111
 31
0.0
  0
LINE
  5
116F
330
1F
100
AcDbEntity
  8
0
  6
Continuous
 62
     7
100
AcDbLine
 10
96.92978367916829
 20
281.2525626795111
 30
0.0
 11
96.92978367916829
 21
222.6524646795111
 31
0.0
  0
ARC
  5
1170
330
1F
100
AcDbEntity
  8
0
  6
Continuous
 62
     7
100
AcDbCircle
 10
78.92978367916828
 20
278.1525866795111
 30
0.0
 40
2.0
100
AcDbArc
 50
228.590377890731
 51
131.409622109269
  0
ARC
  5
1171
330
1F
100
AcDbEntity
  8
0
  6
Continuous
 62
     7
100
AcDbCircle
 10
102.9297836791682
 20
278.1525866795111
 30
0.0
 40
2.0
100
AcDbArc
 50
48.59038600000012
 51
311.4096340000025
  0
LINE
  5
1172
330
1F
100
AcDbEntity
  8
AM_7
100
AcDbLine
 10
90.92978367916828
 20
361.0905746795111
 30
0.0
 11
90.92978367916828
 21
220.4307846795111
 31
0.0
  0
LINE
  5
1174
330
1F
100
AcDbEntity
  8
0
  6
Continuous
 62
     7
100
AcDbLine
 10
84.92978367916828
 20
222.6524646795111
 30
0.0
 11
96.92978367916829
 21
222.6524646795111
 31
0.0
  0
LINE
  5
1175
330
1F
100
AcDbEntity
  8
AM_7
100
AcDbLine
 10
94.80722567916826
 20
240.6523426795111
 30
0.0
 11
87.08994067916831
 21
240.6523426795111
 31
0.0
  0
LINE
  5
1176
330
1F
100
AcDbEntity
  8
AM_7
100
AcDbLine
 10
95.3457996791684
 20
228.6522206795111
 30
0.0
 11
87.26938367916829
 21
228.6522206795111
 31
0.0
  0
LINE
  5
1178
330
1F
100
AcDbEntity
  8
0
  6
Continuous
 62
     7
100
AcDbLine
 10
76.42978367916828
 20
276.1525866795111
 30
0.0
 11
76.42978367916828
 21
261.6523426795111
 31
0.0
  0
LINE
  5
117B
330
1F
100
AcDbEntity
  8
0
  6
Continuous
 62
     7
100
AcDbLine
 10
84.92978367916805
 20
261.6523426795111
 30
0.0
 11
76.42978367916828
 21
261.6523426795111
 31
0.0
  0
POINT
  5
117C
330
1F
100
AcDbEntity
  8
0
  6
Continuous
 62
     7
100
AcDbPoint
 10
80.92978367916828
 20
278.1525866795111
 30
0.0
  0
LINE
  5
117D
330
1F
100
AcDbEntity
  8
0
100
AcDbLine
 10
78.92978367916828
 20
276.1525866795111
 30
0.0
 11
76.42978367916828
 21
276.1525866795111
 31
0.0
  0
LINE
  5
117E
330
1F
100
AcDbEntity
  8
0
  6
Continuous
 62
     7
100
AcDbLine
 10
75.92978367916828
 20
276.6525866795111
 30
0.0
 11
77.60702967916848
 21
276.6525866795111
 31
0.0
  0
LINE
  5
117F
330
1F
100
AcDbEntity
  8
0
  6
Continuous
 62
     7
100
AcDbLine
 10
105.4300276791683
 20
276.1525866795111
 30
0.0
 11
105.4300276791683
 21
261.6523426795111
 31
0.0
  0
LINE
  5
1182
330
1F
100
AcDbEntity
  8
0
  6
Continuous
 62
     7
100
AcDbLine
 10
105.4300276791683
 20
261.6523426795111
 30
0.0
 11
96.9297836791685
 21
261.6523426795111
 31
0.0
  0
LINE
  5
1183
330
1F
100
AcDbEntity
  8
0
  6
Continuous
 62
     7
100
AcDbLine
 10
105.9300276791683
 20
276.6525866795111
 30
0.0
 11
104.2525376791683
 21
276.6525866795111
 31
0.0
  0
LINE
  5
1184
330
1F
100
AcDbEntity
  8
0
100
AcDbLine
 10
102.9297836791682
 20
276.1525866795111
 30
0.0
 11
105.4300276791683
 21
276.1525866795111
 31
0.0
  0
LINE
  5
1185
330
1F
100
AcDbEntity
  8
0
  6
Continuous
 62
     7
100
AcDbLine
 10
96.9297836791685
 20
299.0526106795111
 30
0.0
 11
96.92978367916829
 21
357.6525866795111
 31
0.0
  0
LINE
  5
1186
330
1F
100
AcDbEntity
  8
0
  6
Continuous
 62
     7
100
AcDbLine
 10
84.92978367916805
 20
299.0526106795111
 30
0.0
 11
84.92978367916828
 21
357.6525866795111
 31
0.0
  0
DIMENSION
  5
1188
330
1F
100
AcDbEntity
  8
AM_5
100
AcDbDimension
  2
*D16
 10
72.92978367916825
 20
351.6528306795111
 30
0.0
 11
70.42978367916821
 21
354.6527086795111
 31
0.0
 70
    32
 71
     5
 42
5.99975599999999
  3
AM_ISO$0
100
AcDbAlignedDimension
 13
84.92978367916828
 23
357.6525866795111
 33
0.0
 14
87.26962767916836
 24
351.6528306795111
 34
0.0
 50
90.0
100
AcDbRotatedDimension
1001
ACAD
1000
DSTYLE
1002
{
1070
    47
1040
-0.005
1070
    48
1040
0.025
1070
   272
1070
     8
1070
   274
1070
     3
1002
}
  0
DIMENSION
  5
1189
330
1F
100
AcDbEntity
  8
AM_5
100
AcDbDimension
  2
*D17
 10
72.92978367916825
 20
339.6528306795111
 30
0.0
 11
70.4297836791682
 21
345.6528306795111
 31
0.0
 70
    32
 71
     5
 42
12.0
  3
AM_ISO$0
100
AcDbAlignedDimension
 13
77.19079586090072
 23
351.6528306795111
 33
0.0
 14
87.08994067916831
 24
339.6528306795111
 34
0.0
 50
90.0
100
AcDbRotatedDimension
1001
ACAD
1000
DSTYLE
1002
{
1070
    47
1040
-0.005
1070
    48
1040
0.025
1070
   272
1070
     8
1070
   274
1070
     3
1002
}
  0
LINE
  5
118B
330
1F
100
AcDbEntity
  8
0
  6
Continuous
 62
     7
100
AcDbLine
 10
105.4300276791683
 20
304.1525866795111
 30
0.0
 11
105.4300276791683
 21
318.6528306795111
 31
0.0
  0
LINE
  5
118D
330
1F
100
AcDbEntity
  8
0
  6
Continuous
 62
     7
100
AcDbLine
 10
76.42978367916828
 20
304.1525866795111
 30
0.0
 11
76.42978367916828
 21
318.6528306795111
 31
0.0
  0
LINE
  5
118F
330
1F
100
AcDbEntity
  8
0
  6
Continuous
 62
     7
100
AcDbLine
 10
76.22983267916822
 20
297.6525866795111
 30
0.0
 11
76.22983267916822
 21
282.6525866795111
 31
0.0
  0
LINE
  5
1190
330
1F
100
AcDbEntity
  8
0
  6
Continuous
 62
     7
100
AcDbLine
 10
105.6299796791683
 20
297.6525866795111
 30
0.0
 11
105.6299796791683
 21
282.6525866795111
 31
0.0
  0
LINE
  5
1191
330
1F
100
AcDbEntity
  8
0
100
AcDbLine
 10
96.92978367916829
 20
281.2525626795111
 30
0.0
 11
84.92978367916805
 21
281.2525626795111
 31
0.0
  0
LINE
  5
1192
330
1F
100
AcDbEntity
  8
0
100
AcDbLine
 10
96.92978367916829
 20
280.2525626795111
 30
0.0
 11
84.92978367916828
 21
280.2525626795111
 31
0.0
  0
LINE
  5
1193
330
1F
100
AcDbEntity
  8
AM_7
100
AcDbLine
 10
107.6382796791685
 20
290.1525866795111
 30
0.0
 11
74.14560467916828
 21
290.1525866795111
 31
0.0
  0
CIRCLE
  5
1194
330
1F
100
AcDbEntity
  8
0
100
AcDbCircle
 10
78.72983267916822
 20
290.1525866795111
 30
0.0
 40
2.5
  0
LINE
  5
1195
330
1F
100
AcDbEntity
  8
AM_7
100
AcDbLine
 10
78.72983267916822
 20
286.6040484732772
 30
0.0
 11
78.72983267916822
 21
293.4788323079335
 31
0.0
  0
LINE
  5
1196
330
1F
100
AcDbEntity
  8
0
  6
Continuous
 62
     7
100
AcDbLine
 10
75.92978367916828
 20
282.3525376795111
 30
0.0
 11
75.92978367916828
 21
279.6525866795111
 31
0.0
  0
LINE
  5
1197
330
1F
100
AcDbEntity
  8
0
100
AcDbLine
 10
78.92978367916828
 20
280.1525866795111
 30
0.0
 11
75.92978367916805
 21
280.1525866795111
 31
0.0
  0
LINE
  5
1198
330
1F
100
AcDbEntity
  8
0
  6
Continuous
 62
     7
100
AcDbLine
 10
75.92978367916828
 20
279.6525866795111
 30
0.0
 11
77.60702967916848
 21
279.6525866795111
 31
0.0
  0
LINE
  5
1199
330
1F
100
AcDbEntity
  8
0
  6
Continuous
 62
     7
100
AcDbLine
 10
76.22906967916822
 20
282.6532576795111
 30
0.0
 11
75.92905167916831
 21
282.3532246795111
 31
0.0
  0
POINT
  5
119A
330
1F
100
AcDbEntity
  8
AM_7
100
AcDbPoint
 10
90.92978367916828
 20
290.1525866795111
 30
0.0
  0
LINE
  5
119B
330
1F
100
AcDbEntity
  8
AM_7
100
AcDbLine
 10
103.1297346791683
 20
286.6040484732772
 30
0.0
 11
103.1297346791683
 21
293.4788323079335
 31
0.0
  0
CIRCLE
  5
119C
330
1F
100
AcDbEntity
  8
0
100
AcDbCircle
 10
103.1297346791683
 20
290.1525866795111
 30
0.0
 40
2.5
  0
LINE
  5
119D
330
1F
100
AcDbEntity
  8
0
  6
Continuous
 62
     7
100
AcDbLine
 10
105.9300276791683
 20
279.6525866795111
 30
0.0
 11
104.2525376791683
 21
279.6525866795111
 31
0.0
  0
LINE
  5
119E
330
1F
100
AcDbEntity
  8
0
100
AcDbLine
 10
102.9297836791682
 20
280.1525866795111
 30
0.0
 11
105.9297836791685
 21
280.1525866795111
 31
0.0
  0
LINE
  5
119F
330
1F
100
AcDbEntity
  8
0
  6
Continuous
 62
     7
100
AcDbLine
 10
105.9300276791683
 20
282.3522936795111
 30
0.0
 11
105.9300276791683
 21
279.6525866795111
 31
0.0
  0
LINE
  5
11A0
330
1F
100
AcDbEntity
  8
0
  6
Continuous
 62
     7
100
AcDbLine
 10
105.6293386791684
 20
282.6530296795111
 30
0.0
 11
105.9293256791683
 21
282.3529346795112
 31
0.0
  0
LINE
  5
11A1
330
1F
100
AcDbEntity
  8
0
100
AcDbLine
 10
96.9297836791685
 20
299.0526106795111
 30
0.0
 11
84.92978367916805
 21
299.0526106795111
 31
0.0
  0
LINE
  5
11A2
330
1F
100
AcDbEntity
  8
0
100
AcDbLine
 10
96.92978367916829
 20
300.0526106795111
 30
0.0
 11
84.92978367916805
 21
300.0526106795111
 31
0.0
  0
LINE
  5
11A3
330
1F
100
AcDbEntity
  8
0
100
AcDbLine
 10
78.92978367916828
 20
304.1525866795111
 30
0.0
 11
76.42978367916828
 21
304.1525866795111
 31
0.0
  0
LINE
  5
11A4
330
1F
100
AcDbEntity
  8
0
  6
Continuous
 62
     7
100
AcDbLine
 10
75.92978367916828
 20
300.6525866795111
 30
0.0
 11
75.92978367916828
 21
297.9523916795111
 31
0.0
  0
LINE
  5
11A5
330
1F
100
AcDbEntity
  8
0
  6
Continuous
 62
     7
100
AcDbLine
 10
76.23010767916833
 20
297.6527236795111
 30
0.0
 11
75.93002767916835
 21
297.9527116795111
 31
0.0
  0
LINE
  5
11A6
330
1F
100
AcDbEntity
  8
0
100
AcDbLine
 10
78.92978367916828
 20
300.1525866795111
 30
0.0
 11
75.92978367916805
 21
300.1525866795111
 31
0.0
  0
LINE
  5
11A7
330
1F
100
AcDbEntity
  8
0
  6
Continuous
 62
     7
100
AcDbLine
 10
75.92978367916828
 20
303.6525866795111
 30
0.0
 11
77.60702967916848
 21
303.6525866795111
 31
0.0
  0
LINE
  5
11A8
330
1F
100
AcDbEntity
  8
0
  6
Continuous
 62
     7
100
AcDbLine
 10
75.92978367916828
 20
300.6525866795111
 30
0.0
 11
77.60702967916848
 21
300.6525866795111
 31
0.0
  0
POINT
  5
11A9
330
1F
100
AcDbEntity
  8
0
  6
Continuous
 62
     7
100
AcDbPoint
 10
80.92978367916828
 20
302.1525866795111
 30
0.0
  0
ARC
  5
11AA
330
1F
100
AcDbEntity
  8
0
  6
Continuous
 62
     7
100
AcDbCircle
 10
78.92978367916828
 20
302.1525866795111
 30
0.0
 40
2.0
100
AcDbArc
 50
228.590377890731
 51
131.409622109269
  0
LINE
  5
11AB
330
1F
100
AcDbEntity
  8
0
  6
Continuous
 62
     7
100
AcDbLine
 10
105.9300276791683
 20
303.6525866795111
 30
0.0
 11
104.2525376791683
 21
303.6525866795111
 31
0.0
  0
LINE
  5
11AC
330
1F
100
AcDbEntity
  8
0
  6
Continuous
 62
     7
100
AcDbLine
 10
105.9300276791683
 20
300.6525866795111
 30
0.0
 11
104.2525376791683
 21
300.6525866795111
 31
0.0
  0
LINE
  5
11AD
330
1F
100
AcDbEntity
  8
0
100
AcDbLine
 10
102.9297836791682
 20
304.1525866795111
 30
0.0
 11
105.4300276791683
 21
304.1525866795111
 31
0.0
  0
LINE
  5
11AE
330
1F
100
AcDbEntity
  8
0
100
AcDbLine
 10
102.9297836791682
 20
300.1525866795111
 30
0.0
 11
105.9297836791685
 21
300.1525866795111
 31
0.0
  0
ARC
  5
11AF
330
1F
100
AcDbEntity
  8
0
  6
Continuous
 62
     7
100
AcDbCircle
 10
102.9297836791682
 20
302.1525866795111
 30
0.0
 40
2.0
100
AcDbArc
 50
48.59038600000012
 51
311.4096340000025
  0
LINE
  5
11B0
330
1F
100
AcDbEntity
  8
0
  6
Continuous
 62
     7
100
AcDbLine
 10
105.9300276791683
 20
300.6525866795111
 30
0.0
 11
105.9300276791683
 21
297.9526356795111
 31
0.0
  0
LINE
  5
11B1
330
1F
100
AcDbEntity
  8
0
  6
Continuous
 62
     7
100
AcDbLine
 10
105.6304366791684
 20
297.6527546795111
 30
0.0
 11
105.9304856791683
 21
297.9527876795111
 31
0.0
  0
LINE
  5
11B2
330
1F
100
AcDbEntity
  8
0
  6
Continuous
 62
     7
100
AcDbLine
 10
105.4300276791683
 20
318.6528306795111
 30
0.0
 11
96.9297836791684
 21
318.6528306795111
 31
0.0
  0
LINE
  5
11B5
330
1F
100
AcDbEntity
  8
AM_7
100
AcDbLine
 10
94.80722567916826
 20
339.6528306795111
 30
0.0
 11
87.08994067916831
 21
339.6528306795111
 31
0.0
  0
LINE
  5
11B9
330
1F
100
AcDbEntity
  8
AM_7
100
AcDbLine
 10
95.3457996791684
 20
351.6528306795111
 30
0.0
 11
87.26962767916836
 21
351.6528306795111
 31
0.0
  0
LINE
  5
11BA
330
1F
100
AcDbEntity
  8
0
  6
Continuous
 62
     7
100
AcDbLine
 10
84.92978367916828
 20
357.6525866795111
 30
0.0
 11
96.92978367916829
 21
357.6525866795111
 31
0.0
  0
ARC
  5
12A2
330
1F
100
AcDbEntity
  8
AM_4
100
AcDbCircle
 10
227.2059666329115
 20
311.1528306795111
 30
0.0
 40
3.0
100
AcDbArc
 50
260.0
 51
170.0
  0
CIRCLE
  5
12A3
330
1F
100
AcDbEntity
  8
AM_0
100
AcDbCircle
 10
227.2059666329115
 20
311.1528306795111
 30
0.0
 40
2.45873412263477
  0
ARC
  5
12A4
330
1F
100
AcDbEntity
  8
AM_4
100
AcDbCircle
 10
227.2059666329115
 20
269.1525866795111
 30
0.0
 40
3.0
100
AcDbArc
 50
260.0
 51
170.0
  0
CIRCLE
  5
12A5
330
1F
100
AcDbEntity
  8
AM_0
100
AcDbCircle
 10
227.2059666329115
 20
269.1525866795111
 30
0.0
 40
2.45873412263477
  0
ARC
  5
12BF
330
1F
100
AcDbEntity
  8
AM_4
100
AcDbCircle
 10
361.809401055319
 20
313.1528306795111
 30
0.0
 40
3.0
100
AcDbArc
 50
260.0
 51
170.0
  0
CIRCLE
  5
12C0
330
1F
100
AcDbEntity
  8
AM_0
100
AcDbCircle
 10
361.809401055319
 20
313.1528306795111
 30
0.0
 40
2.45873412263477
  0
ARC
  5
12C1
330
1F
100
AcDbEntity
  8
AM_4
100
AcDbCircle
 10
343.809401055319
 20
267.1866446795111
 30
0.0
 40
3.0
100
AcDbArc
 50
260.0
 51
170.0
  0
CIRCLE
  5
12C2
330
1F
100
AcDbEntity
  8
AM_0
100
AcDbCircle
 10
343.809401055319
 20
267.1866446795111
 30
0.0
 40
2.45873412263477
  0
ARC
  5
12EB
330
1F
100
AcDbEntity
  8
AM_4
100
AcDbCircle
 10
90.92978367916828
 20
240.6523426795111
 30
0.0
 40
2.5
100
AcDbArc
 50
260.0
 51
170.0
  0
CIRCLE
  5
12EC
330
1F
100
AcDbEntity
  8
AM_0
100
AcDbCircle
 10
90.92978367916828
 20
240.6523426795111
 30
0.0
 40
2.066987298107819
  0
ARC
  5
12ED
330
1F
100
AcDbEntity
  8
AM_4
100
AcDbCircle
 10
90.92978367916828
 20
228.6522206795111
 30
0.0
 40
2.5
100
AcDbArc
 50
260.0
 51
170.0
  0
CIRCLE
  5
12EE
330
1F
100
AcDbEntity
  8
AM_0
100
AcDbCircle
 10
90.92978367916828
 20
228.6522206795111
 30
0.0
 40
2.066987298107819
  0
ARC
  5
12EF
330
1F
100
AcDbEntity
  8
AM_4
100
AcDbCircle
 10
90.92978367916828
 20
351.6528306795111
 30
0.0
 40
2.5
100
AcDbArc
 50
260.0
 51
170.0
  0
CIRCLE
  5
12F0
330
1F
100
AcDbEntity
  8
AM_0
100
AcDbCircle
 10
90.92978367916828
 20
351.6528306795111
 30
0.0
 40
2.066987298107819
  0
ARC
  5
12F1
330
1F
100
AcDbEntity
  8
AM_4
100
AcDbCircle
 10
90.92978367916828
 20
339.6528306795111
 30
0.0
 40
2.5
100
AcDbArc
 50
260.0
 51
170.0
  0
CIRCLE
  5
12F2
330
1F
100
AcDbEntity
  8
AM_0
100
AcDbCircle
 10
90.92978367916828
 20
339.6528306795111
 30
0.0
 40
2.066987298107819
  0
ARC
  5
12F3
330
1F
100
AcDbEntity
  8
AM_4
100
AcDbCircle
 10
237.2059666329116
 20
395.280950069455
 30
0.0
 40
3.0
100
AcDbArc
 50
260.0
 51
170.0
  0
CIRCLE
  5
12F4
330
1F
100
AcDbEntity
  8
AM_0
100
AcDbCircle
 10
237.2059666329116
 20
395.280950069455
 30
0.0
 40
2.45873412263477
  0
ARC
  5
12F5
330
1F
100
AcDbEntity
  8
AM_4
100
AcDbCircle
 10
237.2059666329116
 20
411.2809500694549
 30
0.0
 40
3.0
100
AcDbArc
 50
260.0
 51
170.0
  0
CIRCLE
  5
12F6
330
1F
100
AcDbEntity
  8
AM_0
100
AcDbCircle
 10
237.2059666329116
 20
411.2809500694549
 30
0.0
 40
2.45873412263477
  0
ARC
  5
12F7
330
1F
100
AcDbEntity
  8
AM_4
100
AcDbCircle
 10
237.2059666329116
 20
160.2811611425451
 30
0.0
 40
2.5
100
AcDbArc
 50
260.0
 51
170.0
  0
CIRCLE
  5
12F8
330
1F
100
AcDbEntity
  8
AM_0
100
AcDbCircle
 10
237.2059666329116
 20
160.2811611425451
 30
0.0
 40
2.066987298107819
  0
ARC
  5
12F9
330
1F
100
AcDbEntity
  8
AM_4
100
AcDbCircle
 10
279.2059666329115
 20
146.2811611425451
 30
0.0
 40
2.5
100
AcDbArc
 50
260.0
 51
170.0
  0
CIRCLE
  5
12FA
330
1F
100
AcDbEntity
  8
AM_0
100
AcDbCircle
 10
279.2059666329115
 20
146.2811611425451
 30
0.0
 40
2.066987298107819
  0
ARC
  5
12FB
330
1F
100
AcDbEntity
  8
AM_4
100
AcDbCircle
 10
352.809401055319
 20
351.6528306795111
 30
0.0
 40
2.5
100
AcDbArc
 50
260.0
 51
170.0
  0
CIRCLE
  5
12FC
330
1F
100
AcDbEntity
  8
AM_0
100
AcDbCircle
 10
352.809401055319
 20
351.6528306795111
 30
0.0
 40
2.066987298107819
  0
ARC
  5
12FD
330
1F
100
AcDbEntity
  8
AM_4
100
AcDbCircle
 10
352.809401055319
 20
339.6528306795111
 30
0.0
 40
2.5
100
AcDbArc
 50
260.0
 51
170.0
  0
CIRCLE
  5
12FE
330
1F
100
AcDbEntity
  8
AM_0
100
AcDbCircle
 10
352.809401055319
 20
339.6528306795111
 30
0.0
 40
2.066987298107819
  0
ARC
  5
12FF
330
1F
100
AcDbEntity
  8
AM_4
100
AcDbCircle
 10
352.828200555319
 20
240.6523426795111
 30
0.0
 40
2.5
100
AcDbArc
 50
260.0
 51
170.0
  0
CIRCLE
  5
1300
330
1F
100
AcDbEntity
  8
AM_0
100
AcDbCircle
 10
352.828200555319
 20
240.6523426795111
 30
0.0
 40
2.066987298107819
  0
ARC
  5
1301
330
1F
100
AcDbEntity
  8
AM_4
100
AcDbCircle
 10
352.809401055319
 20
228.6522206795111
 30
0.0
 40
2.5
100
AcDbArc
 50
260.0
 51
170.0
  0
CIRCLE
  5
1302
330
1F
100
AcDbEntity
  8
AM_0
100
AcDbCircle
 10
352.809401055319
 20
228.6522206795111
 30
0.0
 40
2.066987298107819
  0
INSERT
  5
1312
330
1F
100
AcDbEntity
  8
AM_5
100
AcDbBlockReference
  2
*S27
 10
0.0
 20
0.0
 30
0.0
  0
TEXT
  5
1314
330
1F
100
AcDbEntity
  8
Dim
100
AcDbText
 10
245.058911127701
 20
335.1818532459722
 30
0.0
 40
3.0
  1
4-M6x12depth
 41
1.012987
  7
China
100
AcDbText
  0
INSERT
  5
1315
330
1F
100
AcDbEntity
  8
AM_5
100
AcDbBlockReference
  2
*S28
 10
0.0
 20
0.0
 30
0.0
  0
TEXT
  5
131C
330
1F
100
AcDbEntity
  8
Dim
100
AcDbText
 10
301.2750061692281
 20
131.4898767241318
 30
0.0
 40
3.0
  1
M5x0.8
 41
1.012987
  7
China
100
AcDbText
  0
INSERT
  5
131D
330
1F
100
AcDbEntity
  8
AM_5
100
AcDbBlockReference
  2
*S29
 10
0.0
 20
0.0
 30
0.0
  0
TEXT
  5
131F
330
1F
100
AcDbEntity
  8
Dim
100
AcDbText
 10
252.1365955897335
 20
177.0151724114998
 30
0.0
 40
3.0
  1
(Finger closing port)
 41
1.012987
  7
China
100
AcDbText
  0
TEXT
  5
1320
330
1F
100
AcDbEntity
  8
Dim
100
AcDbText
 10
252.8403625694033
 20
182.2170066904321
 30
0.0
 40
3.0
  1
M5x0.8
 41
1.012987
  7
China
100
AcDbText
  0
INSERT
  5
1321
330
1F
100
AcDbEntity
  8
AM_5
100
AcDbBlockReference
  2
*S30
 10
0.0
 20
0.0
 30
0.0
  0
INSERT
  5
1347
330
1F
100
AcDbEntity
  8
AM_5
100
AcDbBlockReference
  2
*S31
 10
0.0
 20
0.0
 30
0.0
  0
TEXT
  5
134B
330
1F
100
AcDbEntity
  8
Dim
100
AcDbText
 10
108.0726298169691
 20
337.829719311563
 30
0.0
 40
3.0
  1
or 4-%%C5.5
 41
1.012987
  7
China
100
AcDbText
  0
TEXT
  5
134E
330
1F
100
AcDbEntity
  8
Dim
100
AcDbText
 10
108.0726298169691
 20
344.1054472177583
 30
0.0
 40
3.0
  1
or 4-M5
 41
1.012987
  7
China
100
AcDbText
  0
DIMENSION
  5
135F
330
1F
100
AcDbEntity
  8
AM_5
100
AcDbDimension
  2
*D20
 10
96.92978367916829
 20
365.760753358208
 30
0.0
 11
109.6056911790098
 21
365.760753358208
 31
0.0
 70
   160
  1
<>
 71
     5
 42
12.0
  3
AM_ISO$0
100
AcDbAlignedDimension
 13
84.92978367916828
 23
357.6525866795111
 33
0.0
 14
96.92978367916829
 24
357.6525866795111
 34
0.0
100
AcDbRotatedDimension
1001
ACAD
1000
DSTYLE
1002
{
1070
    47
1040
-0.005
1070
    48
1040
0.025
1070
    71
1070
     1
1070
   272
1070
     8
1002
}
1001
GENIUS_GENDTOL_13
1000
TolAcTol
1000

1000

1040
12.0
  0
TEXT
  5
13F0
330
1F
100
AcDbEntity
  8
Dim
100
AcDbText
 10
372.8371509415241
 20
329.3354406602167
 30
0.0
 40
3.0
  1
2-M6x12depth
 41
1.012987
  7
China
100
AcDbText
  0
INSERT
  5
13F1
330
1F
100
AcDbEntity
  8
AM_5
100
AcDbBlockReference
  2
*S32
 10
0.0
 20
0.0
 30
0.0
  0
CIRCLE
  5
1417
330
1F
100
AcDbEntity
  8
0
100
AcDbCircle
 10
352.809401055319
 20
290.1525866795111
 30
0.0
 40
13.0
  0
TEXT
  5
1470
330
1F
100
AcDbEntity
  8
Dim
100
AcDbText
 10
378.4548618961518
 20
251.6908119570064
 30
0.0
 40
3.0
  1
%%c26 x1.5depth
 41
1.012987
  7
China
100
AcDbText
  0
INSERT
  5
1471
330
1F
100
AcDbEntity
  8
AM_5
100
AcDbBlockReference
  2
*S33
 10
0.0
 20
0.0
 30
0.0
  0
TEXT
  5
1473
330
1F
100
AcDbEntity
  8
Dim
100
AcDbText
 10
386.7613082658234
 20
254.4378675099724
 30
0.0
 40
2.0
  1
H9
 41
1.012987
  7
China
100
AcDbText
  0
LINE
  5
1771
330
1F
100
AcDbEntity
  8
0
  6
Continuous
 62
     7
100
AcDbLine
 10
84.92978367916817
 20
318.6528306795111
 30
0.0
 11
76.42978367916828
 21
318.6528306795111
 31
0.0
  0
LINE
  5
1783
330
1F
100
AcDbEntity
  8
0
  6
Continuous
 62
     7
100
AcDbLine
 10
84.92978367916817
 20
330.1523426795111
 30
0.0
 11
96.9297836791684
 21
330.1523426795111
 31
0.0
  0
LINE
  5
1784
330
1F
100
AcDbEntity
  8
0
  6
Continuous
 62
     7
100
AcDbLine
 10
84.92978367916817
 20
250.1528306795111
 30
0.0
 11
96.92978367916829
 21
250.1528306795111
 31
0.0
  0
DIMENSION
  5
179A
102
{ACAD_XDICTIONARY
360
17A9
102
}
102
{ACAD_REACTORS
330
17AA
102
}
330
1F
100
AcDbEntity
  8
AM_5
100
AcDbDimension
  2
*D21
 10
279.2059666329115
 20
126.2811611425451
 30
0.0
 11
283.2059666329115
 21
128.7811611425451
 31
0.0
 70
    32
  1
<>
 71
     5
 42
8.0
  3
AM_ISO$0
100
AcDbAlignedDimension
 13
287.2059666329116
 23
138.2811611425451
 33
0.0
 14
279.2059666329115
 24
141.7877531425451
 34
0.0
 50
0.0000000000001018
100
AcDbRotatedDimension
1001
ACAD
1000
DSTYLE
1002
{
1070
   286
1070
     0
1070
   284
1070
     8
1070
    48
1040
0.1
1070
    47
1040
0.1
1070
   272
1070
     3
1070
   274
1070
     3
1002
}
  0
DIMENSION
  5
17CE
102
{ACAD_XDICTIONARY
360
17DB
102
}
102
{ACAD_REACTORS
330
17DC
102
}
330
1F
100
AcDbEntity
  8
AM_5
100
AcDbDimension
  2
*D22
 10
237.2059666329116
 20
126.281161142545
 30
0.0
 11
258.2059666329115
 21
128.781161142545
 31
0.0
 70
    32
  1
<>
 71
     5
 42
42.0
  3
AM_ISO$0
100
AcDbAlignedDimension
 13
279.2059666329115
 23
141.7877531425451
 33
0.0
 14
237.2059666329116
 24
156.6183191425451
 34
0.0
 50
0.0000000000001018
100
AcDbRotatedDimension
1001
ACAD
1000
DSTYLE
1002
{
1070
   286
1070
     0
1070
   284
1070
     8
1070
    48
1040
0.1
1070
    47
1040
0.1
1070
   272
1070
     3
1070
   274
1070
     3
1002
}
  0
DIMENSION
  5
1888
102
{ACAD_XDICTIONARY
360
1895
102
}
102
{ACAD_REACTORS
330
1896
102
}
330
1F
100
AcDbEntity
  8
AM_5
100
AcDbDimension
  2
*D23
 10
361.809401055319
 20
210.6524646795111
 30
0.0
 11
352.809401055319
 21
213.1524646795111
 31
0.0
 70
    32
 71
     5
 42
18.0
  3
AM_ISO$0
100
AcDbAlignedDimension
 13
343.809401055319
 23
262.5598136795111
 33
0.0
 14
361.809401055319
 24
308.9084456795112
 34
0.0
 50
0.0000000000001018
100
AcDbRotatedDimension
1001
ACAD
1000
DSTYLE
1002
{
1070
    40
1040
1.0
1070
   144
1040
1.0
1002
}
  0
LINE
  5
18FB
102
{ACAD_REACTORS
330
1943
102
}
330
1F
100
AcDbEntity
  8
0
100
AcDbLine
 10
367.809523055319
 20
261.1523426795111
 30
0.0
 11
367.8095230553191
 21
276.6525866795111
 31
0.0
  0
LINE
  5
18FD
102
{ACAD_REACTORS
330
1943
102
}
330
1F
100
AcDbEntity
  8
0
100
AcDbLine
 10
337.809523055319
 20
261.1523426795111
 30
0.0
 11
337.809523055319
 21
276.6525866795112
 31
0.0
  0
DIMENSION
  5
1935
102
{ACAD_XDICTIONARY
360
1942
102
}
102
{ACAD_REACTORS
330
1943
102
}
330
1F
100
AcDbEntity
  8
AM_5
100
AcDbDimension
  2
*D24
 10
367.809523055319
 20
200.6524646795109
 30
0.0
 11
352.809523055319
 21
203.1524646795109
 31
0.0
 70
    32
 71
     5
 42
30.0
  3
AM_ISO$0
100
AcDbAlignedDimension
 13
337.809523055319
 23
261.1523426795111
 33
0.0
 14
367.809523055319
 24
261.1523426795111
 34
0.0
 50
0.0000000000001018
100
AcDbRotatedDimension
1001
ACAD
1000
DSTYLE
1002
{
1070
    40
1040
1.0
1070
   144
1040
1.0
1002
}
  0
LINE
  5
1951
330
1F
100
AcDbEntity
  8
0
100
AcDbLine
 10
337.809523055319
 20
261.1523426795111
 30
0.0
 11
367.809523055319
 21
261.1523426795111
 31
0.0
  0
LINE
  5
1952
330
1F
100
AcDbEntity
  8
0
100
AcDbLine
 10
367.8095230553191
 20
303.6525866795111
 30
0.0
 11
367.809523055319
 21
319.1528306795111
 31
0.0
  0
LINE
  5
1953
330
1F
100
AcDbEntity
  8
0
100
AcDbLine
 10
337.809523055319
 20
303.6525866795111
 30
0.0
 11
337.809523055319
 21
319.1528306795111
 31
0.0
  0
LINE
  5
1954
330
1F
100
AcDbEntity
  8
0
100
AcDbLine
 10
337.809523055319
 20
279.6525866795111
 30
0.0
 11
337.8095230553191
 21
282.3540787222086
 31
0.0
  0
LINE
  5
1955
330
1F
100
AcDbEntity
  8
0
100
AcDbLine
 10
367.8095230553191
 20
297.9522077104394
 30
0.0
 11
367.8095230553191
 21
300.6525866795112
 31
0.0
  0
LINE
  5
19A5
330
1F
100
AcDbEntity
  8
0
  6
Continuous
 62
     7
100
AcDbLine
 10
105.8921861791684
 20
319.1528306795111
 30
0.0
 11
96.9297836791684
 21
319.1528306795112
 31
0.0
  0
LINE
  5
19A6
330
1F
100
AcDbEntity
  8
0
100
AcDbLine
 10
105.8920641791684
 20
261.1523426795111
 30
0.0
 11
105.8920641791684
 21
276.6525866795111
 31
0.0
  0
LINE
  5
19A7
330
1F
100
AcDbEntity
  8
0
100
AcDbLine
 10
105.8920641791684
 20
303.6525866795111
 30
0.0
 11
105.8920641791684
 21
319.1528306795111
 31
0.0
  0
LINE
  5
19A8
330
1F
100
AcDbEntity
  8
0
100
AcDbLine
 10
75.89206417916841
 20
261.1523426795111
 30
0.0
 11
75.89206417916841
 21
276.6525866795112
 31
0.0
  0
LINE
  5
19A9
330
1F
100
AcDbEntity
  8
0
100
AcDbLine
 10
75.89206417916841
 20
303.6525866795111
 30
0.0
 11
75.89206417916841
 21
319.1528306795111
 31
0.0
  0
LINE
  5
19AA
330
1F
100
AcDbEntity
  8
0
100
AcDbLine
 10
75.89206417916841
 20
261.1523426795111
 30
0.0
 11
84.9297836791681
 21
261.1523426795111
 31
0.0
  0
LINE
  5
19D2
330
1F
100
AcDbEntity
  8
0
  6
Continuous
 62
     7
100
AcDbLine
 10
84.92978367916817
 20
319.1528306795112
 30
0.0
 11
75.89194217916838
 21
319.1528306795111
 31
0.0
  0
LINE
  5
19D3
330
1F
100
AcDbEntity
  8
0
100
AcDbLine
 10
96.92978367916829
 20
261.1523426795111
 30
0.0
 11
105.8920641791684
 21
261.1523426795111
 31
0.0
  0
LINE
  5
1A28
330
1F
100
AcDbEntity
  8
AM_7
  6
AM_ISO08W050x2
100
AcDbLine
 10
201.2059666329116
 20
312.6528306795111
 30
0.0
 11
206.2059666329115
 21
312.6528306795111
 31
0.0
1001
GENIUS_GENOREF_13
1005
1A2C
  0
LINE
  5
1A29
330
1F
100
AcDbEntity
  8
AM_7
  6
AM_ISO08W050x2
100
AcDbLine
 10
201.2059666329116
 20
312.6528306795111
 30
0.0
 11
201.2059666329116
 21
317.6528306795111
 31
0.0
1001
GENIUS_GENOREF_13
1005
1A2C
  0
LINE
  5
1A2A
330
1F
100
AcDbEntity
  8
AM_7
  6
AM_ISO08W050x2
100
AcDbLine
 10
201.2059666329116
 20
312.6528306795111
 30
0.0
 11
196.2059666329115
 21
312.6528306795111
 31
0.0
1001
GENIUS_GENOREF_13
1005
1A2C
  0
LINE
  5
1A2B
330
1F
100
AcDbEntity
  8
AM_7
  6
AM_ISO08W050x2
100
AcDbLine
 10
201.2059666329116
 20
312.6528306795111
 30
0.0
 11
201.2059666329116
 21
307.6528306795111
 31
0.0
1001
GENIUS_GENOREF_13
1005
1A2C
  0
POINT
  5
1A2C
330
1F
100
AcDbEntity
  8
0
 60
     1
100
AcDbPoint
 10
0.0
 20
0.0
 30
0.0
1001
GENIUS_GENODEF_13
1002
{
1000
HIER
1070
    10
1002
}
1002
{
1000
MANEDIT
1070
     0
1002
}
1002
{
1000
NOSEL
1070
     0
1002
}
1002
{
1000
BEHIND
1070
     0
1002
}
1002
{
1000
OTHER
1070
     0
1002
}
1002
{
1000
REACTOR
1002
}
1001
GENIUS_GENOLIS_13
1002
{
1000
ENT
1005
1A2B
1005
1A2A
1005
1A29
1005
1A28
1002
}
1001
GENIUS_GENOENT_13
1002
{
1000
MYREF
1005
1A2C
1002
}
1002
{
1000
GRP
1005
0
1002
}
1001
GENIUS_GENOBJ-N-CRS_13
1002
{
1000
OWNER
1000
GEN
1002
}
  0
LINE
  5
1A3A
330
1F
100
AcDbEntity
  8
AM_7
  6
AM_ISO08W050x2
100
AcDbLine
 10
201.2059666329116
 20
267.6525866795111
 30
0.0
 11
206.2059666329115
 21
267.6525866795111
 31
0.0
1001
GENIUS_GENOREF_13
1005
1A3E
  0
LINE
  5
1A3B
330
1F
100
AcDbEntity
  8
AM_7
  6
AM_ISO08W050x2
100
AcDbLine
 10
201.2059666329116
 20
267.6525866795111
 30
0.0
 11
201.2059666329116
 21
272.6525866795111
 31
0.0
1001
GENIUS_GENOREF_13
1005
1A3E
  0
LINE
  5
1A3C
330
1F
100
AcDbEntity
  8
AM_7
  6
AM_ISO08W050x2
100
AcDbLine
 10
201.2059666329116
 20
267.6525866795111
 30
0.0
 11
196.2059666329115
 21
267.6525866795111
 31
0.0
1001
GENIUS_GENOREF_13
1005
1A3E
  0
LINE
  5
1A3D
330
1F
100
AcDbEntity
  8
AM_7
  6
AM_ISO08W050x2
100
AcDbLine
 10
201.2059666329116
 20
267.6525866795111
 30
0.0
 11
201.2059666329116
 21
262.6525866795111
 31
0.0
1001
GENIUS_GENOREF_13
1005
1A3E
  0
POINT
  5
1A3E
330
1F
100
AcDbEntity
  8
0
 60
     1
100
AcDbPoint
 10
0.0
 20
0.0
 30
0.0
1001
GENIUS_GENOLIS_13
1002
{
1000
ENT
1005
1A3D
1005
1A3C
1005
1A3B
1005
1A3A
1002
}
1001
GENIUS_GENOENT_13
1002
{
1000
MYREF
1005
1A3E
1002
}
1002
{
1000
GRP
1005
0
1002
}
1001
GENIUS_GENOBJ-N-CRS_13
1002
{
1000
OWNER
1000
GEN
1002
}
1001
GENIUS_GENODEF_13
1002
{
1000
HIER
1070
    10
1002
}
1002
{
1000
MANEDIT
1070
     0
1002
}
1002
{
1000
NOSEL
1070
     0
1002
}
1002
{
1000
BEHIND
1070
     0
1002
}
1002
{
1000
OTHER
1070
     0
1002
}
1002
{
1000
REACTOR
1002
}
  0
LINE
  5
1A4C
330
1F
100
AcDbEntity
  8
AM_7
  6
AM_ISO08W050x2
100
AcDbLine
 10
227.2059666329115
 20
269.1525866795111
 30
0.0
 11
232.2059666329116
 21
269.1525866795111
 31
0.0
1001
GENIUS_GENOREF_13
1005
1A50
  0
LINE
  5
1A4D
330
1F
100
AcDbEntity
  8
AM_7
  6
AM_ISO08W050x2
100
AcDbLine
 10
227.2059666329115
 20
269.1525866795111
 30
0.0
 11
227.2059666329115
 21
274.1525866795111
 31
0.0
1001
GENIUS_GENOREF_13
1005
1A50
  0
LINE
  5
1A4E
330
1F
100
AcDbEntity
  8
AM_7
  6
AM_ISO08W050x2
100
AcDbLine
 10
227.2059666329115
 20
269.1525866795111
 30
0.0
 11
222.2059666329116
 21
269.1525866795111
 31
0.0
1001
GENIUS_GENOREF_13
1005
1A50
  0
LINE
  5
1A4F
330
1F
100
AcDbEntity
  8
AM_7
  6
AM_ISO08W050x2
100
AcDbLine
 10
227.2059666329115
 20
269.1525866795111
 30
0.0
 11
227.2059666329115
 21
264.1525866795111
 31
0.0
1001
GENIUS_GENOREF_13
1005
1A50
  0
POINT
  5
1A50
330
1F
100
AcDbEntity
  8
0
 60
     1
100
AcDbPoint
 10
0.0
 20
0.0
 30
0.0
1001
GENIUS_GENOENT_13
1002
{
1000
MYREF
1005
1A50
1002
}
1002
{
1000
GRP
1005
0
1002
}
1001
GENIUS_GENOLIS_13
1002
{
1000
ENT
1005
1A4F
1005
1A4E
1005
1A4D
1005
1A4C
1002
}
1001
GENIUS_GENOBJ-N-CRS_13
1002
{
1000
OWNER
1000
GEN
1002
}
1001
GENIUS_GENODEF_13
1002
{
1000
HIER
1070
    10
1002
}
1002
{
1000
MANEDIT
1070
     0
1002
}
1002
{
1000
NOSEL
1070
     0
1002
}
1002
{
1000
BEHIND
1070
     0
1002
}
1002
{
1000
OTHER
1070
     0
1002
}
1002
{
1000
REACTOR
1002
}
  0
LINE
  5
1A5E
330
1F
100
AcDbEntity
  8
AM_7
  6
AM_ISO08W050x2
100
AcDbLine
 10
257.2059666329116
 20
269.1525866795111
 30
0.0
 11
262.5059676329116
 21
269.1525866795111
 31
0.0
1001
GENIUS_GENOREF_13
1005
1A62
  0
LINE
  5
1A5F
330
1F
100
AcDbEntity
  8
AM_7
  6
AM_ISO08W050x2
100
AcDbLine
 10
257.2059666329116
 20
269.1525866795111
 30
0.0
 11
257.2059666329116
 21
274.4525876795111
 31
0.0
1001
GENIUS_GENOREF_13
1005
1A62
  0
LINE
  5
1A60
330
1F
100
AcDbEntity
  8
AM_7
  6
AM_ISO08W050x2
100
AcDbLine
 10
257.2059666329116
 20
269.1525866795111
 30
0.0
 11
251.9059656329115
 21
269.1525866795111
 31
0.0
1001
GENIUS_GENOREF_13
1005
1A62
  0
LINE
  5
1A61
330
1F
100
AcDbEntity
  8
AM_7
  6
AM_ISO08W050x2
100
AcDbLine
 10
257.2059666329116
 20
269.1525866795111
 30
0.0
 11
257.2059666329116
 21
263.8525856795111
 31
0.0
1001
GENIUS_GENOREF_13
1005
1A62
  0
POINT
  5
1A62
330
1F
100
AcDbEntity
  8
0
 60
     1
100
AcDbPoint
 10
0.0
 20
0.0
 30
0.0
1001
GENIUS_GENOLIS_13
1002
{
1000
ENT
1005
1A61
1005
1A60
1005
1A5F
1005
1A5E
1002
}
1001
GENIUS_GENOENT_13
1002
{
1000
MYREF
1005
1A62
1002
}
1002
{
1000
GRP
1005
0
1002
}
1001
GENIUS_GENOBJ-N-CRS_13
1002
{
1000
OWNER
1000
GEN
1002
}
1001
GENIUS_GENODEF_13
1002
{
1000
HIER
1070
    10
1002
}
1002
{
1000
MANEDIT
1070
     0
1002
}
1002
{
1000
NOSEL
1070
     0
1002
}
1002
{
1000
BEHIND
1070
     0
1002
}
1002
{
1000
OTHER
1070
     0
1002
}
1002
{
1000
REACTOR
1002
}
  0
LINE
  5
1A70
330
1F
100
AcDbEntity
  8
AM_7
  6
AM_ISO08W050x2
100
AcDbLine
 10
257.2059666329116
 20
311.1528306795111
 30
0.0
 11
262.5059676329116
 21
311.1528306795111
 31
0.0
1001
GENIUS_GENOREF_13
1005
1A74
  0
LINE
  5
1A71
330
1F
100
AcDbEntity
  8
AM_7
  6
AM_ISO08W050x2
100
AcDbLine
 10
257.2059666329116
 20
311.1528306795111
 30
0.0
 11
257.2059666329116
 21
316.4528316795111
 31
0.0
1001
GENIUS_GENOREF_13
1005
1A74
  0
LINE
  5
1A72
330
1F
100
AcDbEntity
  8
AM_7
  6
AM_ISO08W050x2
100
AcDbLine
 10
257.2059666329116
 20
311.1528306795111
 30
0.0
 11
251.9059656329115
 21
311.1528306795111
 31
0.0
1001
GENIUS_GENOREF_13
1005
1A74
  0
LINE
  5
1A73
330
1F
100
AcDbEntity
  8
AM_7
  6
AM_ISO08W050x2
100
AcDbLine
 10
257.2059666329116
 20
311.1528306795111
 30
0.0
 11
257.2059666329116
 21
305.8528296795111
 31
0.0
1001
GENIUS_GENOREF_13
1005
1A74
  0
POINT
  5
1A74
330
1F
100
AcDbEntity
  8
0
 60
     1
100
AcDbPoint
 10
0.0
 20
0.0
 30
0.0
1001
GENIUS_GENOLIS_13
1002
{
1000
ENT
1005
1A73
1005
1A72
1005
1A71
1005
1A70
1002
}
1001
GENIUS_GENODEF_13
1002
{
1000
HIER
1070
    10
1002
}
1002
{
1000
MANEDIT
1070
     0
1002
}
1002
{
1000
NOSEL
1070
     0
1002
}
1002
{
1000
BEHIND
1070
     0
1002
}
1002
{
1000
OTHER
1070
     0
1002
}
1002
{
1000
REACTOR
1002
}
1001
GENIUS_GENOENT_13
1002
{
1000
MYREF
1005
1A74
1002
}
1002
{
1000
GRP
1005
0
1002
}
1001
GENIUS_GENOBJ-N-CRS_13
1002
{
1000
OWNER
1000
GEN
1002
}
  0
LINE
  5
1A82
330
1F
100
AcDbEntity
  8
AM_7
  6
AM_ISO08W050x2
100
AcDbLine
 10
227.2059666329115
 20
311.1528306795111
 30
0.0
 11
232.2059666329116
 21
311.1528306795111
 31
0.0
1001
GENIUS_GENOREF_13
1005
1A86
  0
LINE
  5
1A83
330
1F
100
AcDbEntity
  8
AM_7
  6
AM_ISO08W050x2
100
AcDbLine
 10
227.2059666329115
 20
311.1528306795111
 30
0.0
 11
227.2059666329115
 21
316.1528306795111
 31
0.0
1001
GENIUS_GENOREF_13
1005
1A86
  0
LINE
  5
1A84
330
1F
100
AcDbEntity
  8
AM_7
  6
AM_ISO08W050x2
100
AcDbLine
 10
227.2059666329115
 20
311.1528306795111
 30
0.0
 11
222.2059666329116
 21
311.1528306795111
 31
0.0
1001
GENIUS_GENOREF_13
1005
1A86
  0
LINE
  5
1A85
330
1F
100
AcDbEntity
  8
AM_7
  6
AM_ISO08W050x2
100
AcDbLine
 10
227.2059666329115
 20
311.1528306795111
 30
0.0
 11
227.2059666329115
 21
306.1528306795111
 31
0.0
1001
GENIUS_GENOREF_13
1005
1A86
  0
POINT
  5
1A86
330
1F
100
AcDbEntity
  8
0
 60
     1
100
AcDbPoint
 10
0.0
 20
0.0
 30
0.0
1001
GENIUS_GENOLIS_13
1002
{
1000
ENT
1005
1A85
1005
1A84
1005
1A83
1005
1A82
1002
}
1001
GENIUS_GENOENT_13
1002
{
1000
MYREF
1005
1A86
1002
}
1002
{
1000
GRP
1005
0
1002
}
1001
GENIUS_GENOBJ-N-CRS_13
1002
{
1000
OWNER
1000
GEN
1002
}
1001
GENIUS_GENODEF_13
1002
{
1000
HIER
1070
    10
1002
}
1002
{
1000
MANEDIT
1070
     0
1002
}
1002
{
1000
NOSEL
1070
     0
1002
}
1002
{
1000
BEHIND
1070
     0
1002
}
1002
{
1000
OTHER
1070
     0
1002
}
1002
{
1000
REACTOR
1002
}
  0
CIRCLE
  5
1ACD
102
{ACAD_REACTORS
330
1AE0
102
}
330
1F
100
AcDbEntity
  8
0
100
AcDbCircle
 10
257.2059666329116
 20
311.1528306795111
 30
0.0
 40
3.299999999999999
  0
CIRCLE
  5
1ACE
330
1F
100
AcDbEntity
  8
0
100
AcDbCircle
 10
257.2059666329116
 20
269.1525866795111
 30
0.0
 40
3.299999999999999
  0
DIMENSION
  5
1AD3
102
{ACAD_XDICTIONARY
360
1ADF
102
}
102
{ACAD_REACTORS
330
1AE0
102
}
330
1F
100
AcDbEntity
  8
AM_5
100
AcDbDimension
  2
*D25
 10
255.3587030251124
 20
308.4183074736669
 30
0.0
 11
275.2233152219436
 21
324.924249771522
 31
0.0
 70
   163
  1
4-<>
 71
     5
 42
6.599999999999852
  3
AM_ISO$3
100
AcDbDiametricDimension
 15
259.0532302407106
 25
313.8873538853553
 35
0.0
 40
0.0
1001
ACAD
1000
DSTYLE
1002
{
1070
    40
1040
1.0
1070
   144
1040
1.0
1070
   272
1070
     8
1002
}
  0
TEXT
  5
1BD7
330
1F
100
AcDbEntity
  8
LOGO
 62
     7
100
AcDbText
 10
77.26040039695675
 20
56.92014829510134
 30
0.0
 40
5.912743732126696
  1
Order example:
 41
0.8
  7
CHINESET
100
AcDbText
  0
TEXT
  5
1BD8
330
1F
100
AcDbEntity
  8
LOGO
 62
     7
100
AcDbText
 10
78.32119551890173
 20
65.24406722072479
 30
0.0
 40
8.869115598190044
  1
訂購代號：
  7
CHINESET
100
AcDbText
  0
LINE
  5
1BD9
330
1F
100
AcDbEntity
  8
LOGO
 62
     4
100
AcDbLine
 10
74.69129319047405
 20
32.00161341749589
 30
0.0
 11
74.69129319047405
 21
76.34719140844635
 31
0.0
  0
TEXT
  5
1BDA
330
1F
100
AcDbEntity
  8
LOGO
  6
Continuous
100
AcDbText
 10
-6.939847438037276
 20
40.71323529050579
 30
0.0
 40
6.651836698642535
  1
金器工業股份有限公司
  7
CHINESET
100
AcDbText
  0
TEXT
  5
1BDB
330
1F
100
AcDbEntity
  8
LOGO
  6
Continuous
100
AcDbText
 10
-19.157955452451
 20
34.06009535339456
 30
0.0
 40
4.434557799095022
  1
MINDMAN INDUSTRIAL CO., LTD.
 41
0.85
  7
CHINESET
100
AcDbText
  0
LINE
  5
1BDC
330
1F
100
AcDbEntity
  8
LOGO
 62
     4
100
AcDbLine
 10
74.69129319047405
 20
67.47807581025623
 30
0.0
 11
9.651112137079792
 21
67.47807581025623
 31
0.0
  0
LINE
  5
1BDD
330
1F
100
AcDbEntity
  8
LOGO
 62
     4
100
AcDbLine
 10
74.69129319047405
 20
58.60896021206617
 30
0.0
 11
9.651112137079792
 21
58.60896021206617
 31
0.0
  0
LINE
  5
1BDE
330
1F
100
AcDbEntity
  8
LOGO
 62
     4
100
AcDbLine
 10
74.69129319047405
 20
49.73984461387655
 30
0.0
 11
-22.86897838961664
 21
49.73984461387655
 31
0.0
  0
LINE
  5
1BDF
330
1F
100
AcDbEntity
  8
LOGO
 62
     4
100
AcDbLine
 10
9.651112137079792
 20
49.73984461387655
 30
0.0
 11
9.651112137079792
 21
76.34719140844635
 31
0.0
  0
TEXT
  5
1BE0
330
1F
100
AcDbEntity
  8
LOGO
100
AcDbText
 10
54.10300603728858
 20
51.95712351342329
 30
0.0
 40
4.434557799095022
  1
mm
  7
CHINESET
 72
     1
 11
59.59341093140622
 21
54.17440241297081
 31
0.0
100
AcDbText
 73
     2
  0
TEXT
  5
1BE1
330
1F
100
AcDbEntity
  8
LOGO
100
AcDbText
 10
51.78014242823881
 20
69.6953547098036
 30
0.0
 40
4.434557799095022
  1
1 : 1
  7
CHINESET
 72
     1
 11
59.59341093140622
 21
71.9126336093511
 31
0.0
100
AcDbText
 73
     2
  0
LINE
  5
1BE2
330
1F
100
AcDbEntity
  8
LOGO
 62
     4
100
AcDbLine
 10
45.12757452984039
 20
49.73984461387655
 30
0.0
 11
45.12757452984039
 21
76.34719140844635
 31
0.0
  0
TEXT
  5
1BE3
330
1F
100
AcDbEntity
  8
LOGO
100
AcDbText
 10
13.30764260803023
 20
69.69753707092519
 30
290.6336126454864
 40
4.434557799095022
  1
比例 Scale:
 41
0.9
  7
CHINESET
 72
     4
 11
27.38934333346009
 21
71.9126336093511
 31
290.6336126454864
100
AcDbText
  0
TEXT
  5
1BE4
330
1F
100
AcDbEntity
  8
LOGO
100
AcDbText
 10
13.05225959192163
 20
60.88861826700593
 30
290.6336126454864
 40
4.434557799095022
  1
投影  View:
 41
0.9
  7
CHINESET
 72
     4
 11
27.38934333346009
 21
63.04351801116098
 31
290.6336126454864
100
AcDbText
  0
TEXT
  5
1BE5
330
1F
100
AcDbEntity
  8
LOGO
100
AcDbText
 10
13.4858168053153
 20
51.95712351342329
 30
290.6336126454864
 40
4.434557799095022
  1
單位  Unit:
 41
0.9
  7
CHINESET
 72
     4
 11
27.38934333346009
 21
54.17440241297081
 31
290.6336126454864
100
AcDbText
  0
LWPOLYLINE
  5
1BE6
330
1F
100
AcDbEntity
  8
LOGO
 62
     4
100
AcDbPolyline
 90
        4
 70
     1
 43
0.0
 10
-22.86897838961664
 20
76.34719140844627
 10
518.035679046241
 20
76.34719140844627
 10
518.035679046241
 20
475.521613417495
 10
-22.86897838961664
 20
475.521613417495
1001
GENIUS_GENREC_14
1002
{
1000
PYDIR
1011
-22.86897838961664
1021
475.521613417495
1031
0.0
1002
}
1002
{
1000
PXDIR
1011
518.035679046241
1021
76.34719140844627
1031
0.0
1002
}
1002
{
1000
PORI
1011
-22.86897838961664
1021
76.34719140844627
1031
0.0
1002
}
1002
{
1000
PINS
1011
-22.86897838961664
1021
76.34719140844627
1031
0.0
1002
}
1002
{
1000
PINS2
1011
518.035679046241
1021
475.521613417495
1031
0.0
1002
}
1002
{
1000
C
1070
     1
1002
}
1001
GENIUS_GENODEF_13
1002
{
1000
HIER
1070
     0
1002
}
1002
{
1000
MANEDIT
1070
     0
1002
}
1002
{
1000
NOSEL
1070
     0
1002
}
1002
{
1000
BEHIND
1070
     0
1002
}
1002
{
1000
OTHER
1070
     0
1002
}
1002
{
1000
REACTOR
1002
}
1001
GENIUS_GENOBJ-N-REC_13
1002
{
1000
OWNER
1000
GEN
1002
}
  0
SOLID
  5
1BE7
330
1F
100
AcDbEntity
  8
LOGO
 62
     5
100
AcDbTrace
 10
-18.26805350381633
 20
57.11166574527396
 30
0.0
 11
-16.3506670742845
 21
57.11166574527339
 31
0.0
 12
-8.350537488995911
 22
75.2937784391126
 32
0.0
 13
-6.433151059463028
 23
75.2937784391116
 33
0.0
  0
SOLID
  5
1BE8
330
1F
100
AcDbEntity
  8
LOGO
 62
     5
100
AcDbTrace
 10
-15.55726579309666
 20
57.11166574527396
 30
0.0
 11
-13.63987936356454
 21
57.11166574527396
 31
0.0
 12
-6.433151059463028
 22
73.83920942360484
 32
0.0
 13
-8.350537488995911
 23
66.80879251532047
 33
0.0
  0
SOLID
  5
1BE9
330
1F
100
AcDbEntity
  8
LOGO
 62
     2
100
AcDbTrace
 10
-16.3506670742845
 20
57.11166574527339
 30
0.0
 11
-15.55726579309666
 21
57.11166574527396
 31
0.0
 12
-6.433151059463028
 22
75.2937784391116
 32
0.0
 13
-5.639749778276069
 23
75.2937784391116
 33
0.0
  0
SOLID
  5
1BEA
330
1F
100
AcDbEntity
  8
LOGO
 62
     5
100
AcDbTrace
 10
-21.34209415110516
 20
50.49998840206043
 30
0.0
 11
-20.68092641678299
 21
50.49998840206043
 31
0.0
 12
-18.81902661575032
 22
53.80582707366696
 32
0.0
 13
-18.15785888143025
 23
53.80582707366696
 33
0.0
  0
SOLID
  5
1BEB
330
1F
100
AcDbEntity
  8
LOGO
 62
     5
100
AcDbTrace
 10
-18.81902661575032
 20
53.80582707366696
 30
0.0
 11
-18.15785888143025
 21
53.80582707366696
 31
0.0
 12
-18.81902661575032
 22
50.49998840206043
 32
0.0
 13
-18.15785888143025
 23
50.49998840206043
 33
0.0
  0
SOLID
  5
1BEC
330
1F
100
AcDbEntity
  8
LOGO
 62
     5
100
AcDbTrace
 10
-18.81902661575032
 20
50.49998840206043
 30
0.0
 11
-18.15785888143025
 21
50.49998840206043
 31
0.0
 12
-16.2959590803944
 22
53.80582707366696
 32
0.0
 13
-15.63479134607328
 23
53.80582707366696
 33
0.0
  0
SOLID
  5
1BED
330
1F
100
AcDbEntity
  8
LOGO
 62
     5
100
AcDbTrace
 10
-16.2959590803944
 20
53.80582707366696
 30
0.0
 11
-15.63479134607328
 21
53.80582707366696
 31
0.0
 12
-16.2959590803944
 22
50.49998840206043
 32
0.0
 13
-15.63479134607328
 23
50.49998840206043
 33
0.0
  0
POLYLINE
  5
1BEE
330
1F
100
AcDbEntity
  8
LOGO
 62
     5
100
AcDb2dPolyline
 66
     1
 10
0.0
 20
0.0
 30
0.0
 40
0.6622272979981898
 41
0.6622272979981898
  0
VERTEX
  5
1BEF
330
1BEE
100
AcDbEntity
  8
LOGO
 62
     5
100
AcDbVertex
100
AcDb2dVertex
 10
5.866158144431068
 20
52.48349160502417
 30
0.0
 42
1.0
  0
VERTEX
  5
1BF0
330
1BEE
100
AcDbEntity
  8
LOGO
 62
     5
100
AcDbVertex
100
AcDb2dVertex
 10
3.879476250436255
 20
52.48349160502417
 30
0.0
 42
1.0
  0
SEQEND
  5
1BF1
330
1BEE
100
AcDbEntity
  8
LOGO
 62
     5
  0
POLYLINE
  5
1BF2
330
1F
100
AcDbEntity
  8
LOGO
 62
     5
100
AcDb2dPolyline
 66
     1
 10
0.0
 20
0.0
 30
0.0
 70
     1
  0
VERTEX
  5
1BF3
330
1BF2
100
AcDbEntity
  8
LOGO
 62
     5
100
AcDbVertex
100
AcDb2dVertex
 10
0.1344925126444139
 20
52.15290773786319
 30
0.0
 42
1.000000057330635
  0
VERTEX
  5
1BF4
330
1BF2
100
AcDbEntity
  8
LOGO
 62
     5
100
AcDbVertex
100
AcDb2dVertex
 10
2.11799571560877
 20
52.15290773786319
 30
0.0
 42
1.000000057330635
  0
SEQEND
  5
1BF5
330
1BF2
100
AcDbEntity
  8
LOGO
 62
     5
  0
CIRCLE
  5
1BF6
330
1F
100
AcDbEntity
  8
LOGO
 62
     5
100
AcDbCircle
 10
1.12624411412824
 20
52.15290773786319
 30
0.0
 40
0.9917516014820895
  0
POLYLINE
  5
1BF7
330
1F
100
AcDbEntity
  8
LOGO
 62
     5
100
AcDb2dPolyline
 66
     1
 10
0.0
 20
0.0
 30
0.0
 70
     1
 40
0.6622272979981898
 41
0.6622272979981898
  0
VERTEX
  5
1BF8
330
1BF7
100
AcDbEntity
  8
LOGO
 62
     5
100
AcDbVertex
100
AcDb2dVertex
 10
-0.1982104818691539
 20
52.15290773786319
 30
0.0
 42
1.0
  0
VERTEX
  5
1BF9
330
1BF7
100
AcDbEntity
  8
LOGO
 62
     5
100
AcDbVertex
100
AcDb2dVertex
 10
2.450698710123361
 20
52.15290773786319
 30
0.0
 42
1.0
  0
SEQEND
  5
1BFA
330
1BF7
100
AcDbEntity
  8
LOGO
 62
     5
  0
LINE
  5
1BFB
330
1F
100
AcDbEntity
  8
LOGO
100
AcDbLine
 10
6.195152666075273
 20
50.49998840206043
 30
0.0
 11
6.195152666075273
 21
52.48349160502417
 31
0.0
  0
SOLID
  5
1BFC
330
1F
100
AcDbEntity
  8
LOGO
 62
     5
100
AcDbTrace
 10
2.117929598838486
 20
53.80582707366696
 30
0.0
 11
2.779097333158546
 21
53.80582707366696
 31
0.0
 12
2.117929598838486
 22
50.49998840206043
 32
0.0
 13
2.779097333158546
 23
50.49998840206043
 33
0.0
  0
SOLID
  5
1BFD
330
1F
100
AcDbEntity
  8
LOGO
 62
     5
100
AcDbTrace
 10
3.550481728789947
 20
50.49998840206043
 30
0.0
 11
4.211649463111939
 21
50.49998840206043
 31
0.0
 12
3.550481728789947
 22
53.80582707366696
 32
0.0
 13
4.211649463111939
 23
53.80582707366696
 33
0.0
  0
SOLID
  5
1BFE
330
1F
100
AcDbEntity
  8
LOGO
 62
     5
100
AcDbTrace
 10
5.533984931755213
 20
52.48349160502417
 30
0.0
 11
6.195152666075273
 21
52.48349160502417
 31
0.0
 12
5.533984931755213
 22
50.49998840206043
 32
0.0
 13
6.195152666075273
 23
50.49998840206043
 33
0.0
  0
SOLID
  5
1BFF
330
1F
100
AcDbEntity
  8
LOGO
 62
     5
100
AcDbTrace
 10
3.484364955357563
 20
73.83920942360484
 30
0.0
 11
1.566978525826641
 21
66.80879251532047
 31
0.0
 12
3.484364955357563
 22
57.11166574527339
 32
0.0
 13
1.566978525826641
 23
57.11166574527339
 33
0.0
  0
SOLID
  5
1C00
330
1F
100
AcDbEntity
  8
LOGO
 62
     5
100
AcDbTrace
 10
4.277766236544323
 20
57.11166574527339
 30
0.0
 11
6.195152666075273
 21
57.11166574527339
 31
0.0
 12
4.277766236544323
 22
75.2937784391116
 32
0.0
 13
6.195152666075273
 23
75.2937784391126
 33
0.0
  0
SOLID
  5
1C01
330
1F
100
AcDbEntity
  8
LOGO
 62
     2
100
AcDbTrace
 10
3.484364955357563
 20
75.2937784391126
 30
0.0
 11
4.277766236544323
 21
75.2937784391116
 31
0.0
 12
3.484364955357563
 22
57.11166574527339
 32
0.0
 13
4.277766236544323
 23
57.11166574527339
 33
0.0
  0
POLYLINE
  5
1C02
330
1F
100
AcDbEntity
  8
LOGO
 62
     5
100
AcDb2dPolyline
 66
     1
 10
0.0
 20
0.0
 30
0.0
 40
0.6622272979981898
 41
0.6622272979981898
  0
VERTEX
  5
1C03
330
1C02
100
AcDbEntity
  8
LOGO
 62
     5
100
AcDbVertex
100
AcDb2dVertex
 10
-3.610623458690838
 20
52.48349160502417
 30
0.0
 42
1.0
  0
VERTEX
  5
1C04
330
1C02
100
AcDbEntity
  8
LOGO
 62
     5
100
AcDbVertex
100
AcDb2dVertex
 10
-5.597305352685935
 20
52.48349160502417
 30
0.0
 42
1.0
  0
SEQEND
  5
1C05
330
1C02
100
AcDbEntity
  8
LOGO
 62
     5
  0
POLYLINE
  5
1C06
330
1F
100
AcDbEntity
  8
LOGO
 62
     5
100
AcDb2dPolyline
 66
     1
 10
0.0
 20
0.0
 30
0.0
 40
0.6622272979981898
 41
0.6622272979981898
  0
VERTEX
  5
1C07
330
1C06
100
AcDbEntity
  8
LOGO
 62
     5
100
AcDbVertex
100
AcDb2dVertex
 10
-1.627120255728726
 20
52.48349160502417
 30
0.0
 42
1.0
  0
VERTEX
  5
1C08
330
1C06
100
AcDbEntity
  8
LOGO
 62
     5
100
AcDbVertex
100
AcDb2dVertex
 10
-3.61380214972263
 20
52.48349160502417
 30
0.0
 42
1.0
  0
SEQEND
  5
1C09
330
1C06
100
AcDbEntity
  8
LOGO
 62
     5
  0
POLYLINE
  5
1C0A
330
1F
100
AcDbEntity
  8
LOGO
 62
     5
100
AcDb2dPolyline
 66
     1
 10
0.0
 20
0.0
 30
0.0
 40
0.6622272979981898
 41
0.6622272979981898
  0
VERTEX
  5
1C0B
330
1C0A
100
AcDbEntity
  8
LOGO
 62
     5
100
AcDbVertex
100
AcDb2dVertex
 10
-11.10390185885091
 20
52.48349160502417
 30
0.0
 42
1.0
  0
VERTEX
  5
1C0C
330
1C0A
100
AcDbEntity
  8
LOGO
 62
     5
100
AcDbVertex
100
AcDb2dVertex
 10
-13.09058375284482
 20
52.48349160502417
 30
0.0
 42
1.0
  0
SEQEND
  5
1C0D
330
1C0A
100
AcDbEntity
  8
LOGO
 62
     5
  0
SOLID
  5
1C0E
330
1F
100
AcDbEntity
  8
LOGO
 62
     5
100
AcDbTrace
 10
-13.41957827448991
 20
53.80582707366696
 30
0.0
 11
-12.75841054016985
 21
53.80582707366696
 31
0.0
 12
-13.41957827448991
 22
50.49998840206043
 32
0.0
 13
-12.75841054016985
 23
50.49998840206043
 33
0.0
  0
SOLID
  5
1C0F
330
1F
100
AcDbEntity
  8
LOGO
 62
     5
100
AcDbTrace
 10
-11.43607507152569
 20
52.48349160502417
 30
0.0
 11
-10.77490733720341
 21
52.48349160502417
 31
0.0
 12
-11.43607507152569
 22
50.49998840206043
 32
0.0
 13
-10.77490733720341
 23
50.49998840206043
 33
0.0
  0
POLYLINE
  5
1C10
330
1F
100
AcDbEntity
  8
LOGO
 62
     5
100
AcDb2dPolyline
 66
     1
 10
0.0
 20
0.0
 30
0.0
 70
     1
 40
0.6622272979981898
 41
0.6622272979981898
  0
VERTEX
  5
1C11
330
1C10
100
AcDbEntity
  8
LOGO
 62
     5
100
AcDbVertex
100
AcDb2dVertex
 10
-9.674992084992226
 20
52.15290773786319
 30
0.0
 42
1.0
  0
VERTEX
  5
1C12
330
1C10
100
AcDbEntity
  8
LOGO
 62
     5
100
AcDbVertex
100
AcDb2dVertex
 10
-7.026082892998488
 20
52.15290773786319
 30
0.0
 42
1.0
  0
SEQEND
  5
1C13
330
1C10
100
AcDbEntity
  8
LOGO
 62
     5
  0
SOLID
  5
1C14
330
1F
100
AcDbEntity
  8
LOGO
 62
     5
100
AcDbTrace
 10
-7.358852004285665
 20
54.79757867514956
 30
0.0
 11
-6.697684269964554
 21
54.79757867514956
 31
0.0
 12
-7.358852004285665
 22
50.49998840206043
 32
0.0
 13
-6.697684269964554
 23
50.49998840206043
 33
0.0
  0
SOLID
  5
1C15
330
1F
100
AcDbEntity
  8
LOGO
 62
     5
100
AcDbTrace
 10
-5.92629987433014
 20
53.80582707366696
 30
0.0
 11
-5.265132140010081
 21
53.80582707366696
 31
0.0
 12
-5.92629987433014
 22
50.49998840206043
 32
0.0
 13
-5.265132140010081
 23
50.49998840206043
 33
0.0
  0
SOLID
  5
1C16
330
1F
100
AcDbEntity
  8
LOGO
 62
     5
100
AcDbTrace
 10
-3.942796671368029
 20
52.48349160502417
 30
0.0
 11
-3.281628937045724
 21
52.48349160502417
 31
0.0
 12
-3.942796671368029
 22
50.49998840206043
 32
0.0
 13
-3.281628937045724
 23
50.49998840206043
 33
0.0
  0
SOLID
  5
1C17
330
1F
100
AcDbEntity
  8
LOGO
 62
     5
100
AcDbTrace
 10
-1.959293468403672
 20
52.48349160502417
 30
0.0
 11
-1.298125734082418
 21
52.48349160502417
 31
0.0
 12
-1.959293468403672
 22
50.49998840205944
 32
0.0
 13
-1.298125734082418
 23
50.49998840205944
 33
0.0
  0
SOLID
  5
1C18
330
1F
100
AcDbEntity
  8
LOGO
 62
     5
100
AcDbTrace
 10
-14.85213040444452
 20
54.26864448769208
 30
0.0
 11
-14.19096267012131
 21
54.26864448769208
 31
0.0
 12
-14.85213040444452
 22
54.79757867514956
 32
0.0
 13
-14.19096267012131
 23
54.79757867514956
 33
0.0
  0
SOLID
  5
1C19
330
1F
100
AcDbEntity
  8
LOGO
 62
     5
100
AcDbTrace
 10
-14.85213040444452
 20
53.80582707366696
 30
0.0
 11
-14.19096267012131
 21
53.80582707366696
 31
0.0
 12
-14.85213040444452
 22
50.49998840205944
 32
0.0
 13
-14.19096267012131
 23
50.49998840206043
 33
0.0
  0
SOLID
  5
1C1A
330
1F
100
AcDbEntity
  8
LOGO
 62
     5
100
AcDbTrace
 10
-8.350537488995911
 20
57.11166574527396
 30
0.0
 11
-6.433151059463028
 21
57.11166574527396
 31
0.0
 12
-8.350537488995911
 22
66.80879251532047
 32
0.0
 13
-6.433151059463028
 23
73.83920942360484
 33
0.0
  0
SOLID
  5
1C1B
330
1F
100
AcDbEntity
  8
LOGO
 62
     5
100
AcDbTrace
 10
-5.639749778276069
 20
75.2937784391116
 30
0.0
 11
-3.722363348745346
 21
75.2937784391126
 31
0.0
 12
-5.639749778276069
 22
58.56623476078073
 32
0.0
 13
-3.722363348745346
 23
65.59665166906495
 33
0.0
  0
SOLID
  5
1C1C
330
1F
100
AcDbEntity
  8
LOGO
 62
     2
100
AcDbTrace
 10
-6.433151059463028
 20
75.2937784391116
 30
0.0
 11
-5.639749778276069
 21
75.2937784391116
 31
0.0
 12
-6.433151059463028
 22
57.11166574527396
 32
0.0
 13
-5.639749778276069
 23
57.11166574527396
 33
0.0
  0
SOLID
  5
1C1D
330
1F
100
AcDbEntity
  8
LOGO
 62
     5
100
AcDbTrace
 10
-5.639749778276069
 20
58.56623476078073
 30
0.0
 11
-3.722363348745346
 21
65.59665166906495
 31
0.0
 12
3.484364955357563
 22
75.2937784391126
 32
0.0
 13
1.566978525826641
 23
75.2937784391126
 33
0.0
  0
SOLID
  5
1C1E
330
1F
100
AcDbEntity
  8
LOGO
 62
     5
100
AcDbTrace
 10
-5.639749778276069
 20
57.11166574527396
 30
0.0
 11
-3.722363348745346
 21
57.11166574527396
 31
0.0
 12
3.484364955357563
 22
73.83920942360484
 32
0.0
 13
1.566978525826641
 23
66.80879251532047
 33
0.0
  0
SOLID
  5
1C1F
330
1F
100
AcDbEntity
  8
LOGO
 62
     2
100
AcDbTrace
 10
-6.433151059463028
 20
57.11166574527396
 30
0.0
 11
-5.639749778276069
 21
57.11166574527396
 31
0.0
 12
3.484364955357563
 22
75.2937784391126
 32
0.0
 13
4.277766236544323
 23
75.2937784391116
 33
0.0
  0
LWPOLYLINE
  5
1C20
330
1F
100
AcDbEntity
  8
LOGO
 62
     4
100
AcDbPolyline
 90
        4
 70
     1
 43
0.0
 10
-22.86897838961664
 20
76.34719140844627
 10
518.035679046241
 20
76.34719140844627
 10
518.035679046241
 20
32.00161341749536
 10
-22.86897838961664
 20
32.00161341749536
1001
GENIUS_GENREC_14
1002
{
1000
PYDIR
1011
-22.86897838961664
1021
32.00161341749536
1031
0.0
1002
}
1002
{
1000
PXDIR
1011
518.035679046241
1021
76.34719140844627
1031
0.0
1002
}
1002
{
1000
PORI
1011
-22.86897838961664
1021
76.34719140844627
1031
0.0
1002
}
1002
{
1000
PINS
1011
-22.86897838961664
1021
76.34719140844627
1031
0.0
1002
}
1002
{
1000
PINS2
1011
518.035679046241
1021
32.00161341749536
1031
0.0
1002
}
1002
{
1000
C
1070
     1
1002
}
1001
GENIUS_GENOBJ-N-REC_13
1002
{
1000
OWNER
1000
GEN
1002
}
1001
GENIUS_GENODEF_13
1002
{
1000
HIER
1070
     0
1002
}
1002
{
1000
MANEDIT
1070
     0
1002
}
1002
{
1000
NOSEL
1070
     0
1002
}
1002
{
1000
BEHIND
1070
     0
1002
}
1002
{
1000
OTHER
1070
     0
1002
}
1002
{
1000
REACTOR
1002
}
  0
LINE
  5
1C21
330
1F
100
AcDbEntity
  8
LOGO
 62
     4
100
AcDbLine
 10
165.2503862209947
 20
51.95712351342422
 30
0.0
 11
165.2503862209947
 21
35.69707825007493
 31
0.0
  0
LINE
  5
1C22
330
1F
100
AcDbEntity
  8
LOGO
 62
     4
100
AcDbLine
 10
135.6866675603609
 20
51.95712351342422
 30
0.0
 11
135.6866675603609
 21
35.69707825007493
 31
0.0
  0
LINE
  5
1C23
330
1F
100
AcDbEntity
  8
LOGO
 62
     4
100
AcDbLine
 10
165.2503862209947
 20
35.69707825007493
 30
0.0
 11
135.6866675603609
 21
35.69707825007493
 31
0.0
  0
LINE
  5
1C24
330
1F
100
AcDbEntity
  8
LOGO
 62
     4
100
AcDbLine
 10
170.5529533513489
 20
71.9126336093511
 30
0.0
 11
135.6866675603609
 21
71.9126336093511
 31
0.0
  0
LINE
  5
1C25
330
1F
100
AcDbEntity
  8
LOGO
 62
     4
100
AcDbLine
 10
170.5529533513489
 20
58.60896021206617
 30
0.0
 11
135.6866675603609
 21
58.60896021206617
 31
0.0
  0
LINE
  5
1C26
330
1F
100
AcDbEntity
  8
LOGO
 62
     4
100
AcDbLine
 10
135.6866675603609
 20
71.9126336093511
 30
0.0
 11
135.6866675603609
 21
58.60896021206617
 31
0.0
  0
LINE
  5
1C27
330
1F
100
AcDbEntity
  8
LOGO
 62
     4
100
AcDbLine
 10
170.5529533513489
 20
71.9126336093511
 30
0.0
 11
170.5529533513489
 21
58.60896021206617
 31
0.0
  0
LINE
  5
1C28
330
1F
100
AcDbEntity
  8
LOGO
 62
     4
100
AcDbLine
 10
152.011010455855
 20
58.60896021206617
 30
0.0
 11
152.011010455855
 21
51.95712351342422
 31
0.0
  0
TEXT
  5
1C29
330
1F
100
AcDbEntity
  8
LOGO
  6
Continuous
100
AcDbText
 10
138.0505219688507
 20
61.3860825837809
 30
0.0
 40
7.761599999999998
  1
MCHY
  7
CHINESET
100
AcDbText
  0
LINE
  5
1C2A
330
1F
100
AcDbEntity
  8
LOGO
 62
     4
100
AcDbLine
 10
165.2503862209947
 20
51.95712351342422
 30
0.0
 11
135.6866675603609
 21
51.95712351342422
 31
0.0
  0
TEXT
  5
1C2B
330
1F
100
AcDbEntity
  8
LOGO
  6
Continuous
100
AcDbText
 10
145.1735712812493
 20
37.99214915876971
 30
290.6336126454864
 40
3.3264
  1
Model
 41
0.8
  7
CHINESET
100
AcDbText
  0
TEXT
  5
1C2C
330
1F
100
AcDbEntity
  8
LOGO
100
AcDbText
 10
144.2881917358626
 20
44.15857786840382
 30
290.6336126454864
 40
5.544
  1
型號
  7
CHINESET
100
AcDbText
  0
LINE
  5
1C2D
330
1F
100
AcDbEntity
  8
LOGO
  6
Continuous
100
AcDbLine
 10
171.967243786827
 20
65.21367319705831
 30
0.0
 11
177.8416605295954
 21
65.21367319705831
 31
0.0
  0
LINE
  5
1C2E
330
1F
100
AcDbEntity
  8
LOGO
 62
     4
100
AcDbLine
 10
198.6629951405225
 20
51.95712351342422
 30
0.0
 11
198.6629951405225
 21
35.69707825007493
 31
0.0
  0
LINE
  5
1C2F
330
1F
100
AcDbEntity
  8
LOGO
 62
     4
100
AcDbLine
 10
169.0992764798888
 20
51.95712351342422
 30
0.0
 11
169.0992764798888
 21
35.69707825007493
 31
0.0
  0
LINE
  5
1C30
330
1F
100
AcDbEntity
  8
LOGO
 62
     4
100
AcDbLine
 10
198.6629951405225
 20
35.69707825007493
 30
0.0
 11
169.0992764798888
 21
35.69707825007493
 31
0.0
  0
LINE
  5
1C31
330
1F
100
AcDbEntity
  8
LOGO
 62
     4
100
AcDbLine
 10
197.1993790051815
 20
71.9126336093511
 30
0.0
 11
179.9832741763433
 21
71.9126336093511
 31
0.0
  0
LINE
  5
1C32
330
1F
100
AcDbEntity
  8
LOGO
 62
     4
100
AcDbLine
 10
197.1993790051815
 20
58.60896021206617
 30
0.0
 11
179.9832741763433
 21
58.60896021206617
 31
0.0
  0
LINE
  5
1C33
330
1F
100
AcDbEntity
  8
LOGO
 62
     4
100
AcDbLine
 10
179.9832741763433
 20
71.9126336093511
 30
0.0
 11
179.9832741763433
 21
58.60896021206617
 31
0.0
  0
LINE
  5
1C34
330
1F
100
AcDbEntity
  8
LOGO
 62
     4
100
AcDbLine
 10
197.1993790051815
 20
71.9126336093511
 30
0.0
 11
197.1993790051815
 21
58.60896021206617
 31
0.0
  0
LINE
  5
1C35
330
1F
100
AcDbEntity
  8
LOGO
 62
     4
100
AcDbLine
 10
190.2047326981726
 20
58.60896021206617
 30
0.0
 11
190.2047326981726
 21
51.95712351342422
 31
0.0
  0
TEXT
  5
1C36
330
1F
100
AcDbEntity
  8
LOGO
  6
Continuous
100
AcDbText
 10
182.4163548807809
 20
61.3860825837809
 30
0.0
 40
7.761599999999998
  1
25
  7
CHINESET
100
AcDbText
  0
LINE
  5
1C37
330
1F
100
AcDbEntity
  8
LOGO
 62
     4
100
AcDbLine
 10
198.6629951405225
 20
51.95712351342422
 30
0.0
 11
169.0992764798888
 21
51.95712351342422
 31
0.0
  0
LINE
  5
1C38
330
1F
100
AcDbEntity
  8
LOGO
  6
Continuous
100
AcDbLine
 10
224.313862698649
 20
65.21367319705831
 30
0.0
 11
230.1882794414184
 21
65.21367319705831
 31
0.0
  0
LINE
  5
1C39
330
1F
100
AcDbEntity
  8
LOGO
 62
     4
100
AcDbLine
 10
274.9977127652302
 20
51.95712351342422
 30
0.0
 11
274.9977127652302
 21
35.69707825007493
 31
0.0
  0
LINE
  5
1C3A
330
1F
100
AcDbEntity
  8
LOGO
 62
     4
100
AcDbLine
 10
235.5744188316914
 20
51.95712351342422
 30
0.0
 11
235.5744188316914
 21
35.69707825007493
 31
0.0
  0
LINE
  5
1C3B
330
1F
100
AcDbEntity
  8
LOGO
 62
     4
100
AcDbLine
 10
274.9977127652302
 20
35.69707825007493
 30
0.0
 11
235.5744188316914
 21
35.69707825007493
 31
0.0
  0
LINE
  5
1C3C
330
1F
100
AcDbEntity
  8
LOGO
 62
     4
100
AcDbLine
 10
251.1149940289312
 20
71.9126336093511
 30
0.0
 11
233.1698915232724
 21
71.9126336093511
 31
0.0
  0
LINE
  5
1C3D
330
1F
100
AcDbEntity
  8
LOGO
 62
     4
100
AcDbLine
 10
251.1149940289312
 20
58.60896021206617
 30
0.0
 11
233.1698915232724
 21
58.60896021206617
 31
0.0
  0
LINE
  5
1C3E
330
1F
100
AcDbEntity
  8
LOGO
 62
     4
100
AcDbLine
 10
233.1698915232724
 20
71.9126336093511
 30
0.0
 11
233.1698915232724
 21
58.60896021206617
 31
0.0
  0
LINE
  5
1C3F
330
1F
100
AcDbEntity
  8
LOGO
 62
     4
100
AcDbLine
 10
251.1149940289312
 20
71.9126336093511
 30
0.0
 11
251.1149940289312
 21
58.60896021206617
 31
0.0
  0
LINE
  5
1C40
330
1F
100
AcDbEntity
  8
LOGO
 62
     4
100
AcDbLine
 10
243.5417253165871
 20
58.60896021206617
 30
0.0
 11
243.5417253165871
 21
51.95712351342422
 31
0.0
  0
TEXT
  5
1C41
330
1F
100
AcDbEntity
  8
LOGO
  6
Continuous
100
AcDbText
 10
235.986308617309
 20
61.3860825837809
 30
0.0
 40
7.761599999999998
  1
RT
  7
CHINESET
100
AcDbText
  0
LINE
  5
1C42
330
1F
100
AcDbEntity
  8
LOGO
 62
     4
100
AcDbLine
 10
274.9977127652302
 20
51.95712351342422
 30
0.0
 11
235.5744188316914
 21
51.95712351342422
 31
0.0
  0
TEXT
  5
1C43
330
1F
100
AcDbEntity
  8
LOGO
  6
Continuous
100
AcDbText
 10
175.291667237976
 20
37.99214915876971
 30
290.6336126454864
 40
3.3264
  1
Tube I.D.
 41
0.8
  7
CHINESET
100
AcDbText
  0
TEXT
  5
1C44
330
1F
100
AcDbEntity
  8
LOGO
100
AcDbText
 10
177.4798732586732
 20
44.15857786840382
 30
290.6336126454864
 40
5.544
  1
內徑
  7
CHINESET
100
AcDbText
  0
TEXT
  5
1C45
330
1F
100
AcDbEntity
  8
LOGO
  6
Continuous
100
AcDbText
 10
237.6616366431673
 20
37.99214915876971
 30
290.6336126454864
 40
3.3264
  1
Auto switch type
 41
0.8
  7
CHINESET
100
AcDbText
  0
TEXT
  5
1C46
330
1F
100
AcDbEntity
  8
LOGO
100
AcDbText
 10
239.809125211623
 20
44.15857786840382
 30
290.6336126454864
 40
5.544
  1
感應器型式
  7
CHINESET
100
AcDbText
  0
LINE
  5
1C47
330
1F
100
AcDbEntity
  8
LOGO
 62
     4
100
AcDbLine
 10
278.6876681466862
 20
71.9126336093511
 30
0.0
 11
264.2515858289584
 21
71.9126336093511
 31
0.0
  0
LINE
  5
1C48
330
1F
100
AcDbEntity
  8
LOGO
 62
     4
100
AcDbLine
 10
278.6876681466862
 20
58.60896021206617
 30
0.0
 11
264.2515858289584
 21
58.60896021206617
 31
0.0
  0
LINE
  5
1C49
330
1F
100
AcDbEntity
  8
LOGO
 62
     4
100
AcDbLine
 10
264.2515858289584
 20
71.9126336093511
 30
0.0
 11
264.2515858289584
 21
58.60896021206617
 31
0.0
  0
LINE
  5
1C4A
330
1F
100
AcDbEntity
  8
LOGO
 62
     4
100
AcDbLine
 10
278.6876681466862
 20
71.9126336093511
 30
0.0
 11
278.6876681466862
 21
58.60896021206617
 31
0.0
  0
LINE
  5
1C4B
330
1F
100
AcDbEntity
  8
LOGO
 62
     4
100
AcDbLine
 10
334.7692630349515
 20
51.95712351342422
 30
0.0
 11
334.7692630349515
 21
35.69707825007493
 31
0.0
  0
LINE
  5
1C4C
330
1F
100
AcDbEntity
  8
LOGO
 62
     4
100
AcDbLine
 10
278.9561558481182
 20
51.95712351342422
 30
0.0
 11
278.9561558481182
 21
35.69707825007493
 31
0.0
  0
LINE
  5
1C4D
330
1F
100
AcDbEntity
  8
LOGO
 62
     4
100
AcDbLine
 10
334.7692630349515
 20
35.69707825007493
 30
0.0
 11
278.9561558481182
 21
35.69707825007493
 31
0.0
  0
LINE
  5
1C4E
330
1F
100
AcDbEntity
  8
LOGO
 62
     4
100
AcDbLine
 10
334.7692630349515
 20
51.95712351342422
 30
0.0
 11
278.9561558481182
 21
51.95712351342422
 31
0.0
  0
TEXT
  5
1C4F
330
1F
100
AcDbEntity
  8
LOGO
  6
Continuous
100
AcDbText
 10
284.1914763016497
 20
37.99214915876971
 30
290.6336126454864
 40
3.3264
  1
Number of auto switch
 41
0.8
  7
CHINESET
100
AcDbText
  0
TEXT
  5
1C50
330
1F
100
AcDbEntity
  8
LOGO
100
AcDbText
 10
293.0710049648719
 20
44.15857786840382
 30
290.6336126454864
 40
5.544
  1
感應器數量
  7
CHINESET
100
AcDbText
  0
LINE
  5
1C51
330
1F
100
AcDbEntity
  8
LOGO
 62
     4
100
AcDbLine
 10
306.8627094415347
 20
55.28304186274522
 30
0.0
 11
306.8627094415347
 21
51.95712351342422
 31
0.0
  0
TEXT
  5
1C52
330
1F
100
AcDbEntity
  8
LOGO
100
AcDbText
 10
76.74597851760265
 20
34.36078066369586
 30
0.0
 40
4.4352
  1
10705177
 41
0.7
  7
CHINESET
 72
     1
 11
87.53829851760263
 21
34.36078066369586
 31
0.0
100
AcDbText
  0
LINE
  5
1C53
330
1F
100
AcDbEntity
  8
LOGO
 62
     4
100
AcDbLine
 10
101.3024931904717
 20
40.87072901568691
 30
0.0
 11
101.302493190474
 21
32.00161341749637
 31
0.0
  0
LINE
  5
1C54
330
1F
100
AcDbEntity
  8
LOGO
 62
     4
100
AcDbLine
 10
101.3024931904717
 20
40.87072901568691
 30
0.0
 11
74.69129319047405
 21
40.87072901568691
 31
0.0
  0
CIRCLE
  5
1C55
330
1F
100
AcDbEntity
  8
LOGO
  6
Continuous
100
AcDbCircle
 10
53.33871296058607
 20
63.05300356274486
 30
0.0
 40
2.574808635879032
  0
CIRCLE
  5
1C56
330
1F
100
AcDbEntity
  8
LOGO
  6
Continuous
100
AcDbCircle
 10
53.33871296058607
 20
63.05300356274486
 30
0.0
 40
1.508609925712828
  0
LINE
  5
1C57
330
1F
100
AcDbEntity
  8
LOGO
100
AcDbLine
 10
69.51910919660926
 20
60.47819492686537
 30
0.0
 11
69.51910919660926
 21
65.62781219862444
 31
0.0
  0
LINE
  5
1C58
330
1F
100
AcDbEntity
  8
LOGO
100
AcDbLine
 10
61.44723192419693
 20
61.54439363703239
 30
0.0
 11
61.44723192419693
 21
64.561613488458
 31
0.0
  0
LINE
  5
1C59
330
1F
100
AcDbEntity
  8
LOGO
  6
Continuous
100
AcDbLine
 10
61.44723192419693
 20
64.561613488458
 30
0.0
 11
69.51910919660926
 21
65.62781219862444
 31
0.0
  0
LINE
  5
1C5A
330
1F
100
AcDbEntity
  8
LOGO
  6
Continuous
100
AcDbLine
 10
61.44723192419693
 20
61.54439363703239
 30
0.0
 11
69.51910919660926
 21
60.47819492686537
 31
0.0
  0
LINE
  5
1C5B
330
1F
100
AcDbEntity
  8
LOGO
  6
AM_ISO08W050x2
 48
0.3
100
AcDbLine
 10
49.78930070130343
 20
63.05300356274486
 30
0.0
 11
56.88812521986855
 21
63.05300356274486
 31
0.0
1001
GENIUS_GENOREF_13
1005
1C6F
  0
LINE
  5
1C5C
330
1F
100
AcDbEntity
  8
LOGO
  6
AM_ISO08W050x2
 48
0.3
100
AcDbLine
 10
53.33871296058607
 20
59.50359130346232
 30
0.0
 11
53.33871296058607
 21
66.60241582202741
 31
0.0
1001
GENIUS_GENOREF_13
1005
1C6E
  0
LINE
  5
1C5D
330
1F
100
AcDbEntity
  8
LOGO
  6
CENTER
 48
0.5
100
AcDbLine
 10
60.80170609918289
 20
63.05300356274486
 30
0.0
 11
70.3319211079272
 21
63.05300356274486
 31
0.0
1001
GENIUS_GENOREF_13
1005
1C6D
  0
TEXT
  5
1C5E
330
1F
100
AcDbEntity
  8
LOGO
  6
Continuous
100
AcDbText
 10
200.3565860746488
 20
61.3860825837809
 30
0.0
 40
7.761599999999998
  1
D
  7
CHINESET
100
AcDbText
  0
LINE
  5
1C5F
330
1F
100
AcDbEntity
  8
LOGO
 62
     4
100
AcDbLine
 10
232.8708600845725
 20
51.95712351342422
 30
0.0
 11
232.8708600845725
 21
35.69707825007493
 31
0.0
  0
LINE
  5
1C60
330
1F
100
AcDbEntity
  8
LOGO
 62
     4
100
AcDbLine
 10
201.8357804545385
 20
51.95712351342422
 30
0.0
 11
201.8357804545385
 21
35.69707825007493
 31
0.0
  0
LINE
  5
1C61
330
1F
100
AcDbEntity
  8
LOGO
 62
     4
100
AcDbLine
 10
232.8708600845725
 20
35.69707825007493
 30
0.0
 11
201.8357804545385
 21
35.69707825007493
 31
0.0
  0
LINE
  5
1C62
330
1F
100
AcDbEntity
  8
LOGO
 62
     4
100
AcDbLine
 10
222.0571905797999
 20
71.9126336093511
 30
0.0
 11
207.9024515254634
 21
71.9126336093511
 31
0.0
  0
LINE
  5
1C63
330
1F
100
AcDbEntity
  8
LOGO
 62
     4
100
AcDbLine
 10
222.0571905797999
 20
58.60896021206617
 30
0.0
 11
207.9024515254634
 21
58.60896021206617
 31
0.0
  0
LINE
  5
1C64
330
1F
100
AcDbEntity
  8
LOGO
 62
     4
100
AcDbLine
 10
207.9024515254634
 20
71.9126336093511
 30
0.0
 11
207.9024515254634
 21
58.60896021206617
 31
0.0
  0
LINE
  5
1C65
330
1F
100
AcDbEntity
  8
LOGO
 62
     4
100
AcDbLine
 10
222.0571905797999
 20
71.9126336093511
 30
0.0
 11
222.0571905797999
 21
58.60896021206617
 31
0.0
  0
LINE
  5
1C66
330
1F
100
AcDbEntity
  8
LOGO
 62
     4
100
AcDbLine
 10
214.9798210526316
 20
58.60896021206617
 30
0.0
 11
214.9798210526316
 21
51.95712351342422
 31
0.0
  0
LINE
  5
1C67
330
1F
100
AcDbEntity
  8
LOGO
 62
     4
100
AcDbLine
 10
232.8708600845725
 20
51.95712351342422
 30
0.0
 11
201.8357804545385
 21
51.95712351342422
 31
0.0
  0
TEXT
  5
1C68
330
1F
100
AcDbEntity
  8
LOGO
  6
Continuous
100
AcDbText
 10
204.5169193630373
 20
37.99214915876971
 30
290.6336126454864
 40
3.3264
  1
Finger option
 41
0.8
  7
CHINESET
100
AcDbText
  0
TEXT
  5
1C69
330
1F
100
AcDbEntity
  8
LOGO
100
AcDbText
 10
205.3556199451627
 20
44.15857786840382
 30
290.6336126454864
 40
5.544
  1
夾爪選配
  7
CHINESET
100
AcDbText
  0
TEXT
  5
1C6A
330
1F
100
AcDbEntity
  8
LOGO
  6
Continuous
100
AcDbText
 10
256.2971873934931
 20
61.3860825837809
 30
0.0
 40
7.761599999999998
  1
x
  7
CHINESET
100
AcDbText
  0
LINE
  5
1C6B
330
1F
100
AcDbEntity
  8
LOGO
 62
     4
100
AcDbLine
 10
271.4696269878224
 20
58.60896021206617
 30
0.0
 11
271.4696269878224
 21
55.28304186274522
 31
0.0
  0
LINE
  5
1C6C
330
1F
100
AcDbEntity
  8
LOGO
 62
     4
100
AcDbLine
 10
271.4696269878224
 20
55.28304186274522
 30
0.0
 11
306.8627094415347
 21
55.28304186274522
 31
0.0
  0
POINT
  5
1C6D
330
1F
100
AcDbEntity
  8
0
 60
     1
100
AcDbPoint
 10
-1748.147081436445
 20
-816.6845562587591
 30
0.0
1001
GENIUS_GENOBJ-N-CRS_13
1002
{
1000
OWNER
1000
GEN
1002
}
1001
GENIUS_GENOLIS_13
1002
{
1000
ENT
1005
0
1005
0
1005
0
1005
1C5D
1002
}
1001
GENIUS_GENOENT_13
1002
{
1000
MYREF
1005
1C6D
1002
}
1002
{
1000
GRP
1005
0
1002
}
1001
GENIUS_GENODEF_13
1002
{
1000
HIER
1070
    10
1002
}
1002
{
1000
MANEDIT
1070
     1
1002
}
1002
{
1000
NOSEL
1070
     0
1002
}
1002
{
1000
BEHIND
1070
     0
1002
}
1002
{
1000
OTHER
1070
     0
1002
}
1002
{
1000
REACTOR
1002
}
  0
POINT
  5
1C6E
330
1F
100
AcDbEntity
  8
0
 60
     1
100
AcDbPoint
 10
-1759.471666659299
 20
-807.8089697801228
 30
0.0
1001
GENIUS_GENOBJ-N-CRS_13
1002
{
1000
OWNER
1000
GEN
1002
}
1001
GENIUS_GENOLIS_13
1002
{
1000
ENT
1005
0
1005
0
1005
0
1005
1C5C
1002
}
1001
GENIUS_GENOENT_13
1002
{
1000
MYREF
1005
1C6E
1002
}
1002
{
1000
GRP
1005
0
1002
}
1001
GENIUS_GENODEF_13
1002
{
1000
HIER
1070
    10
1002
}
1002
{
1000
MANEDIT
1070
     1
1002
}
1002
{
1000
NOSEL
1070
     0
1002
}
1002
{
1000
BEHIND
1070
     0
1002
}
1002
{
1000
OTHER
1070
     0
1002
}
1002
{
1000
REACTOR
1002
}
  0
POINT
  5
1C6F
330
1F
100
AcDbEntity
  8
0
 60
     1
100
AcDbPoint
 10
-1753.112992961462
 20
-816.6845562587591
 30
0.0
1001
GENIUS_GENOBJ-N-CRS_13
1002
{
1000
OWNER
1000
GEN
1002
}
1001
GENIUS_GENOLIS_13
1002
{
1000
ENT
1005
0
1005
0
1005
0
1005
1C5B
1002
}
1001
GENIUS_GENOENT_13
1002
{
1000
MYREF
1005
1C6F
1002
}
1002
{
1000
GRP
1005
0
1002
}
1001
GENIUS_GENODEF_13
1002
{
1000
HIER
1070
    10
1002
}
1002
{
1000
MANEDIT
1070
     1
1002
}
1002
{
1000
NOSEL
1070
     0
1002
}
1002
{
1000
BEHIND
1070
     0
1002
}
1002
{
1000
OTHER
1070
     0
1002
}
1002
{
1000
REACTOR
1002
}
  0
ENDSEC
  0
SECTION
  2
OBJECTS
  0
DICTIONARY
  5
C
330
0
100
AcDbDictionary
281
     1
  3
ACAD_COLOR
350
BE
  3
ACAD_GROUP
350
D
  3
ACAD_LAYOUT
350
1A
  3
ACAD_MATERIAL
350
BD
  3
ACAD_MLINESTYLE
350
17
  3
ACAD_PLOTSETTINGS
350
19
  3
ACAD_PLOTSTYLENAME
350
E
  3
ACAD_TABLESTYLE
350
11A
  3
ACDBHEADERROUNDTRIPXREC
350
1E00
  3
AcDbVariableDictionary
350
94
  3
AcmDictionary
350
5B
  3
AMG
350
41
  3
AMGSNAPSETTINGS
350
1B8
  3
DWGPROPS
350
1DFF
  0
DICTIONARY
  5
3F9
330
2
100
AcDbDictionary
280
     1
281
     1
  3
ACAD_LAYERFILTERS
360
5B7
  3
ACAD_LAYERSTATES
360
1B37
  3
ACLYDICTIONARY
360
5B6
  3
AMLAYER_GROUPCOLORS
360
1268
  0
DICTIONARY
  5
8F
330
1F
100
AcDbDictionary
280
     1
281
     1
  3
ACAD_SORTENTS
360
129B
  0
DICTIONARY
  5
17A9
330
179A
100
AcDbDictionary
280
     1
281
     1
  3
ACAD_DIMASSOC
360
17AA
  0
DICTIONARY
  5
17DB
330
17CE
100
AcDbDictionary
280
     1
281
     1
  3
ACAD_DIMASSOC
360
17DC
  0
DICTIONARY
  5
1895
330
1888
100
AcDbDictionary
280
     1
281
     1
  3
ACAD_DIMASSOC
360
1896
  0
DICTIONARY
  5
1942
330
1935
100
AcDbDictionary
280
     1
281
     1
  3
ACAD_DIMASSOC
360
1943
  0
DICTIONARY
  5
1ADF
330
1AD3
100
AcDbDictionary
280
     1
281
     1
  3
ACAD_DIMASSOC
360
1AE0
  0
DICTIONARY
  5
BE
102
{ACAD_REACTORS
330
C
102
}
330
C
100
AcDbDictionary
281
     1
  0
DICTIONARY
  5
D
102
{ACAD_REACTORS
330
C
102
}
330
C
100
AcDbDictionary
281
     1
  0
DICTIONARY
  5
1A
102
{ACAD_REACTORS
330
C
102
}
330
C
100
AcDbDictionary
281
     1
  3
Model
350
22
  3
配置1
350
1E
  3
配置2
350
26
  0
DICTIONARY
  5
BD
102
{ACAD_REACTORS
330
C
102
}
330
C
100
AcDbDictionary
281
     1
  0
DICTIONARY
  5
17
102
{ACAD_REACTORS
330
C
102
}
330
C
100
AcDbDictionary
281
     1
  3
Standard
350
18
  0
DICTIONARY
  5
19
102
{ACAD_REACTORS
330
C
102
}
330
C
100
AcDbDictionary
281
     1
  0
ACDBDICTIONARYWDFLT
  5
E
102
{ACAD_REACTORS
330
C
102
}
330
C
100
AcDbDictionary
281
     1
  3
Normal
350
F
100
AcDbDictionaryWithDefault
340
F
  0
DICTIONARY
  5
11A
102
{ACAD_REACTORS
330
C
102
}
330
C
100
AcDbDictionary
281
     1
  3
Standard
350
11B
  0
DICTIONARY
  5
1E00
102
{ACAD_REACTORS
330
C
102
}
330
C
100
AcDbDictionary
281
     1
  0
DICTIONARY
  5
94
102
{ACAD_REACTORS
330
C
102
}
330
C
100
AcDbDictionary
281
     1
  3
CTABLESTYLE
350
138
  3
DIMASSOC
350
96
  3
INDEXCTL
350
95
  3
PROJECTNAME
350
1DFD
  0
DICTIONARY
  5
5B
102
{ACAD_REACTORS
330
C
102
}
330
C
100
AcDbDictionary
281
     1
  3
AcmBOM
350
1B5
  3
AcmStdDictionary
350
61
  3
AMDTSECTSYM_ARROWCOLOR
350
123
  0
DICTIONARY
  5
41
102
{ACAD_REACTORS
330
C
102
}
330
C
100
AcDbDictionary
281
     1
  0
DICTIONARY
  5
1B8
102
{ACAD_REACTORS
330
C
102
}
330
C
100
AcDbDictionary
281
     1
  0
XRECORD
  5
1DFF
102
{ACAD_REACTORS
330
C
102
}
330
C
100
AcDbXrecord
280
     1
  1
DWGPROPS COOKIE
  2

  3

  4

  6

  7

  8

  9

300
AmdtFileType=84
301
=
302
=
303
=
304
=
305
=
306
=
307
=
308
=
309
=
 40
0.3981184953703703
 41
2454238.703322292
 42
2454240.383078877
  1

 90
        1
  0
DICTIONARY
  5
5B7
102
{ACAD_REACTORS
330
3F9
102
}
330
3F9
100
AcDbDictionary
281
     1
  0
DICTIONARY
  5
1B37
102
{ACAD_REACTORS
330
3F9
102
}
330
3F9
100
AcDbDictionary
281
     1
  0
DICTIONARY
  5
5B6
102
{ACAD_REACTORS
330
3F9
102
}
330
3F9
100
AcDbDictionary
281
     1
1001
ACAD
1000
<All
  0
DICTIONARY
  5
1268
102
{ACAD_REACTORS
330
3F9
102
}
330
3F9
100
AcDbDictionary
280
     1
281
     1
  0
SORTENTSTABLE
  5
129B
102
{ACAD_REACTORS
330
8F
102
}
330
8F
100
AcDbSortentsTable
330
1F
331
12FC
  5
12FE
331
11A7
  5
11A7
331
E8C
  5
E8C
331
12A5
  5
12C0
331
11AF
  5
11AF
331
1170
  5
1170
331
1178
  5
1178
331
1314
  5
131C
331
131C
  5
131F
331
1417
  5
1471
331
19A5
  5
19A5
331
E94
  5
E94
331
ED3
  5
ED3
331
E9C
  5
E9C
331
F1A
  5
F1A
331
E65
  5
E65
331
F22
  5
F22
331
EE3
  5
EE3
331
E6D
  5
E6D
331
1188
  5
1188
331
1190
  5
1190
331
12ED
  5
12EF
331
1198
  5
1198
331
12F5
  5
12F7
331
E75
  5
E75
331
F2A
  5
F2A
331
F32
  5
F32
331
E7D
  5
E7D
331
EBC
  5
EBC
331
F3A
  5
F3A
331
EFB
  5
EFB
331
E85
  5
E85
331
EC4
  5
EC4
331
11A0
  5
11A0
331
12FD
  5
12FF
331
11A8
  5
11A8
331
11B0
  5
11B0
331
1171
  5
1171
331
1315
  5
131D
331
131D
  5
1320
331
1470
  5
1473
331
19A6
  5
19A7
331
E95
  5
E95
331
F0B
  5
F0B
331
ED4
  5
ED4
331
E9D
  5
E9D
331
F1B
  5
F1B
331
E66
  5
E66
331
EDC
  5
EDC
331
F44
  5
F44
331
F23
  5
F23
331
EE4
  5
EE4
331
E6E
  5
E6E
331
EAD
  5
EAD
331
1189
  5
1189
331
1191
  5
1191
331
12EE
  5
12F0
331
1199
  5
1199
331
12F6
  5
12F8
331
F2B
  5
F2B
331
EEC
  5
EEC
331
E76
  5
E76
331
EB5
  5
EB5
331
EBD
  5
EBD
331
E7E
  5
E7E
331
F3B
  5
F3B
331
EFC
  5
EFC
331
11A1
  5
11A1
331
12FE
  5
1300
331
E8E
  5
E8E
331
F04
  5
F04
331
11A9
  5
11A9
331
11B1
  5
11B1
331
1172
  5
1172
331
12BF
  5
12C1
331
19A7
  5
19A8
331
1471
  5
147A
331
1888
  5
1888
331
1771
  5
11B3
331
E96
  5
E96
331
F0C
  5
F0C
331
F14
  5
F14
331
ED5
  5
ED5
331
E9E
  5
E9E
331
1182
  5
1182
331
11B9
  5
12A2
331
E67
  5
E67
331
EDD
  5
EDD
331
F24
  5
F24
331
EE5
  5
EE5
331
EAE
  5
EAE
331
1192
  5
1192
331
119A
  5
119A
331
12EF
  5
12F1
331
134E
  5
13F0
331
12F7
  5
12F9
331
F2C
  5
F2C
331
EED
  5
EED
331
E77
  5
E77
331
EB6
  5
EB6
331
E7F
  5
E7F
331
EBE
  5
EBE
331
11A2
  5
11A2
331
F3C
  5
F3C
331
11AA
  5
11AA
331
12FF
  5
1301
331
E8F
  5
E8F
331
11B2
  5
11B2
331
117B
  5
117B
331
131F
  5
1321
331
19A8
  5
19A9
331
E97
  5
E97
331
ED6
  5
ED6
331
E9F
  5
E9F
331
F15
  5
F15
331
12C0
  5
12C2
331
1183
  5
1183
331
11BA
  5
12A3
331
EDE
  5
EDE
331
E68
  5
E68
331
118B
  5
118B
331
F25
  5
F25
331
EE6
  5
EE6
331
EAF
  5
EAF
331
1193
  5
1193
331
1347
  5
134E
331
12F0
  5
12F2
331
119B
  5
119B
331
135F
  5
13F1
331
179A
  5
179A
331
1951
  5
1955
331
F2D
  5
F2D
331
E78
  5
E78
331
EB7
  5
EB7
331
F35
  5
F35
331
E80
  5
E80
331
12F8
  5
12FA
331
11A3
  5
11A3
331
E88
  5
E88
331
F3D
  5
F3D
331
1300
  5
1302
331
11AB
  5
11AB
331
F06
  5
F06
331
1174
  5
1174
331
117C
  5
117C
331
19A9
  5
19AA
331
1473
  5
1770
331
1783
  5
1783
331
E90
  5
E90
331
E98
  5
E98
331
F16
  5
F16
331
ED7
  5
ED7
331
12C1
  5
12EB
331
F47
  5
F47
331
1184
  5
1184
331
1320
  5
1347
331
EDF
  5
EDF
331
EE7
  5
EE7
331
1194
  5
1194
331
12F1
  5
12F3
331
119C
  5
119C
331
1952
  5
1935
331
EB0
  5
EB0
331
F2E
  5
F2E
331
E79
  5
E79
331
EB8
  5
EB8
331
F36
  5
F36
331
EF7
  5
EF7
331
E81
  5
E81
331
EC0
  5
EC0
331
12F9
  5
12FB
331
11A4
  5
11A4
331
F3E
  5
F3E
331
12A2
  5
12A4
331
11AC
  5
11AC
331
1301
  5
130B
331
F07
  5
F07
331
1175
  5
1175
331
13F0
  5
1417
331
117D
  5
117D
331
19AA
  5
19D2
331
19D2
  5
19A6
331
18FB
  5
18FB
331
1784
  5
1784
331
E91
  5
E91
331
E99
  5
E99
331
F40
  5
F40
331
F17
  5
F17
331
EA1
  5
EA1
331
ED8
  5
ED8
331
12C2
  5
12EC
331
F58
  5
F58
331
1185
  5
1185
331
1321
  5
134B
331
EE0
  5
EE0
331
118D
  5
118D
331
1195
  5
1195
331
12F2
  5
12F4
331
119D
  5
119D
331
1953
  5
1953
331
E72
  5
E72
331
EB1
  5
EB1
331
F2F
  5
F2F
331
EF0
  5
EF0
331
EB9
  5
EB9
331
E7A
  5
E7A
331
F37
  5
F37
331
EF8
  5
EF8
331
EC1
  5
EC1
331
12FA
  5
12FC
331
11A5
  5
11A5
331
F3F
  5
F3F
331
F00
  5
F00
331
12A3
  5
12A5
331
11AD
  5
11AD
331
116E
  5
116E
331
1302
  5
1312
331
11B5
  5
11BA
331
1176
  5
1176
331
1312
  5
1315
331
13F1
  5
1470
331
117E
  5
117E
331
19D3
  5
19D3
331
F08
  5
F08
331
E92
  5
E92
331
EC9
  5
EC9
331
E9A
  5
E9A
331
ED9
  5
ED9
331
E63
  5
E63
331
EA2
  5
EA2
331
1186
  5
1186
331
EE1
  5
EE1
331
E6B
  5
E6B
331
12EB
  5
12ED
331
1196
  5
1196
331
12F3
  5
12F5
331
119E
  5
119E
331
1954
  5
1952
331
F28
  5
F28
331
EB2
  5
EB2
331
E73
  5
E73
331
EE9
  5
EE9
331
E7B
  5
E7B
331
EBA
  5
EBA
331
F38
  5
F38
331
EF9
  5
EF9
331
E83
  5
E83
331
EC2
  5
EC2
331
12FB
  5
12FD
331
11A6
  5
11A6
331
E8B
  5
E8B
331
12A4
  5
12BF
331
11AE
  5
11AE
331
116F
  5
116F
331
117F
  5
117F
331
18FD
  5
1951
331
E93
  5
E93
331
ED2
  5
ED2
331
E9B
  5
E9B
331
F19
  5
F19
331
F21
  5
F21
331
EE2
  5
EE2
331
118F
  5
118F
331
F7A
  5
F7A
331
12EC
  5
12EE
331
1197
  5
1197
331
134B
  5
135F
331
12F4
  5
12F6
331
119F
  5
119F
331
1935
  5
1954
331
1955
  5
18FD
331
17CE
  5
17CE
331
F29
  5
F29
331
E74
  5
E74
331
EB3
  5
EB3
331
EBB
  5
EBB
331
E7C
  5
E7C
331
EC3
  5
EC3
331
E84
  5
E84
331
F39
  5
F39
  0
DIMASSOC
  5
17AA
102
{ACAD_REACTORS
330
17A9
102
}
330
17A9
100
AcDbDimAssoc
330
179A
 90
        3
 70
     0
 71
     0
  1
AcDbOsnapPointRef
 72
    13
331
E83
 73
     0
 91
        0
 40
0.0
 10
0.0
 20
0.0
 30
2.000000000000000E+50
 75
     0
  1
AcDbOsnapPointRef
 72
     1
331
E85
 73
     0
 91
        0
 40
0.0
 10
0.0
 20
0.0
 30
2.000000000000000E+50
 75
     0
  0
DIMASSOC
  5
17DC
102
{ACAD_REACTORS
330
17DB
102
}
330
17DB
100
AcDbDimAssoc
330
17CE
 90
        3
 70
     0
 71
     0
  1
AcDbOsnapPointRef
 72
     1
331
E85
 73
     0
 91
        0
 40
0.0
 10
0.0
 20
0.0
 30
2.000000000000000E+50
 75
     0
  1
AcDbOsnapPointRef
 72
     1
331
E8B
 73
     0
 91
        0
 40
0.0
 10
0.0
 20
0.0
 30
2.000000000000000E+50
 75
     0
  0
DIMASSOC
  5
1896
102
{ACAD_REACTORS
330
1895
102
}
330
1895
100
AcDbDimAssoc
330
1888
 90
        3
 70
     0
 71
     0
  1
AcDbOsnapPointRef
 72
     1
331
F14
 73
     0
 91
        0
 40
0.0
 10
0.0
 20
0.0
 30
2.000000000000000E+50
 75
     0
  1
AcDbOsnapPointRef
 72
     1
331
F32
 73
     0
 91
        0
 40
0.0
 10
0.0
 20
0.0
 30
2.000000000000000E+50
 75
     0
  0
DIMASSOC
  5
1943
102
{ACAD_REACTORS
330
1942
102
}
330
1942
100
AcDbDimAssoc
330
1935
 90
        3
 70
     0
 71
     0
  1
AcDbOsnapPointRef
 72
    13
331
18FD
 73
     0
 91
        0
 40
0.0
 10
0.0
 20
0.0
 30
2.000000000000000E+50
 75
     0
  1
AcDbOsnapPointRef
 72
    13
331
18FB
 73
     0
 91
        0
 40
0.0
 10
0.0
 20
0.0
 30
2.000000000000000E+50
 75
     0
  0
DIMASSOC
  5
1AE0
102
{ACAD_REACTORS
330
1ADF
102
}
330
1ADF
100
AcDbDimAssoc
330
1AD3
 90
        2
 70
     0
 71
     0
  1
AcDbOsnapPointRef
 72
     3
331
1ACD
 73
     2
 91
        0
 40
0.0
 10
0.0
 20
0.0
 30
0.0
 75
     0
  0
LAYOUT
  5
22
102
{ACAD_XDICTIONARY
360
1E03
102
}
102
{ACAD_REACTORS
330
1A
102
}
330
1A
100
AcDbPlotSettings
  1

  2
\\RD\EPSON Stylus C63 Series單色
  4
A4
  6

 40
3.757083177566528
 41
3.757076978683471
 42
3.757080078125
 43
3.757080078125
 44
209.9733276367187
 45
296.9683227539062
 46
0.0
 47
0.0
 48
0.0
 49
0.0
140
0.0
141
0.0
142
1.0
143
0.3405120737814363
 70
 11952
 72
     1
 73
     0
 74
     0
  7
單色出圖.ctb
 75
     0
147
2.936753428137963
148
-2047.07469463503
149
-1261.649717473083
100
AcDbLayout
  1
Model
 70
     1
 71
     0
 10
0.0
 20
0.0
 11
12.0
 21
9.0
 12
0.0
 22
0.0
 32
0.0
 14
0.0
 24
0.0
 34
0.0
 15
0.0
 25
0.0
 35
0.0
146
0.0
 13
0.0
 23
0.0
 33
0.0
 16
1.0
 26
0.0
 36
0.0
 17
0.0
 27
1.0
 37
0.0
 76
     0
330
1F
1001
ACAD_PSEXT
1000
\\RD\EPSON Stylus C63 Series單色
1000
EPSON Stylus C63 Series
1000
\\RD
1000

1070
     0
  0
LAYOUT
  5
1E
102
{ACAD_XDICTIONARY
360
1E01
102
}
102
{ACAD_REACTORS
330
1A
102
}
330
1A
100
AcDbPlotSettings
  1

  2

  4

  6

 40
0.0
 41
0.0
 42
0.0
 43
0.0
 44
0.0
 45
0.0
 46
0.0
 47
0.0
 48
0.0
 49
0.0
140
0.0
141
0.0
142
1.0
143
1.0
 70
   688
 72
     0
 73
     0
 74
     5
  7
單色出圖.ctb
 75
    16
147
1.0
148
0.0
149
0.0
100
AcDbLayout
  1
配置1
 70
     1
 71
     1
 10
0.0
 20
0.0
 11
420.0
 21
297.0
 12
0.0
 22
0.0
 32
0.0
 14
1.000000000000000E+20
 24
1.000000000000000E+20
 34
1.000000000000000E+20
 15
-1.000000000000000E+20
 25
-1.000000000000000E+20
 35
-1.000000000000000E+20
146
0.0
 13
0.0
 23
0.0
 33
0.0
 16
1.0
 26
0.0
 36
0.0
 17
0.0
 27
1.0
 37
0.0
 76
     0
330
1B
  0
LAYOUT
  5
26
102
{ACAD_XDICTIONARY
360
1E05
102
}
102
{ACAD_REACTORS
330
1A
102
}
330
1A
100
AcDbPlotSettings
  1

  2

  4

  6

 40
0.0
 41
0.0
 42
0.0
 43
0.0
 44
0.0
 45
0.0
 46
0.0
 47
0.0
 48
0.0
 49
0.0
140
0.0
141
0.0
142
1.0
143
1.0
 70
   688
 72
     0
 73
     0
 74
     5
  7
單色出圖.ctb
 75
    16
147
1.0
148
0.0
149
0.0
100
AcDbLayout
  1
配置2
 70
     1
 71
     2
 10
0.0
 20
0.0
 11
12.0
 21
9.0
 12
0.0
 22
0.0
 32
0.0
 14
0.0
 24
0.0
 34
0.0
 15
0.0
 25
0.0
 35
0.0
146
0.0
 13
0.0
 23
0.0
 33
0.0
 16
1.0
 26
0.0
 36
0.0
 17
0.0
 27
1.0
 37
0.0
 76
     0
330
23
  0
MLINESTYLE
  5
18
102
{ACAD_REACTORS
330
17
102
}
330
17
100
AcDbMlineStyle
  2
STANDARD
 70
     0
  3

 62
   256
 51
90.0
 52
90.0
 71
     2
 49
0.5
 62
   256
  6
BYLAYER
 49
-0.5
 62
   256
  6
BYLAYER
  0
ACDBPLACEHOLDER
  5
F
102
{ACAD_REACTORS
330
E
102
}
330
E
  0
TABLESTYLE
  5
11B
102
{ACAD_REACTORS
330
11A
102
}
330
11A
100
AcDbTableStyle
  3
Standard
 70
     0
 71
     0
 40
1.5
 41
1.5
280
     0
281
     0
  7
STANDARD
140
4.5
170
     2
 62
     0
 63
     7
283
     0
274
    -2
284
     1
 64
     0
275
    -2
285
     1
 65
     0
276
    -2
286
     1
 66
     0
277
    -2
287
     1
 67
     0
278
    -2
288
     1
 68
     0
279
    -2
289
     1
 69
     0
  7
STANDARD
140
6.0
170
     5
 62
     0
 63
     7
283
     0
274
    -2
284
     1
 64
     0
275
    -2
285
     1
 65
     0
276
    -2
286
     1
 66
     0
277
    -2
287
     1
 67
     0
278
    -2
288
     1
 68
     0
279
    -2
289
     1
 69
     0
  7
STANDARD
140
4.5
170
     5
 62
     0
 63
     7
283
     0
274
    -2
284
     1
 64
     0
275
    -2
285
     1
 65
     0
276
    -2
286
     1
 66
     0
277
    -2
287
     1
 67
     0
278
    -2
288
     1
 68
     0
279
    -2
289
     1
 69
     0
  0
DICTIONARYVAR
  5
138
102
{ACAD_REACTORS
330
94
102
}
330
94
100
DictionaryVariables
280
     0
  1
STANDARD
  0
DICTIONARYVAR
  5
96
102
{ACAD_REACTORS
330
94
102
}
330
94
100
DictionaryVariables
280
     0
  1
2
  0
DICTIONARYVAR
  5
95
102
{ACAD_REACTORS
330
94
102
}
330
94
100
DictionaryVariables
280
     0
  1
0
  0
DICTIONARYVAR
  5
1DFD
102
{ACAD_REACTORS
330
94
102
}
330
94
100
DictionaryVariables
280
     0
  1

  0
DICTIONARY
  5
1B5
102
{ACAD_REACTORS
330
5B
102
}
330
5B
100
AcDbDictionary
281
     1
  0
DICTIONARY
  5
61
102
{ACAD_REACTORS
330
5B
102
}
330
5B
100
AcDbDictionary
281
     1
  0
XRECORD
  5
123
102
{ACAD_REACTORS
330
5B
102
}
330
5B
100
AcDbXrecord
280
     1
 90
-1023410169
  0
DICTIONARY
  5
1E03
330
22
100
AcDbDictionary
280
     1
281
     1
  3
ACAD_XREC_ROUNDTRIP
360
1E04
  0
DICTIONARY
  5
1E01
330
1E
100
AcDbDictionary
280
     1
281
     1
  3
ACAD_XREC_ROUNDTRIP
360
1E02
  0
DICTIONARY
  5
1E05
330
26
100
AcDbDictionary
280
     1
281
     1
  3
ACAD_XREC_ROUNDTRIP
360
1E06
  0
XRECORD
  5
1E04
102
{ACAD_REACTORS
330
1E03
102
}
330
1E03
100
AcDbXrecord
280
     1
102
SHADEPLOT
 70
     0
102
SHADEPLOTRESLEVEL
 70
     2
102
SHADEPLOTCUSTOMDPI
 70
   300
  0
XRECORD
  5
1E02
102
{ACAD_REACTORS
330
1E01
102
}
330
1E01
100
AcDbXrecord
280
     1
102
SHADEPLOT
 70
     0
102
SHADEPLOTRESLEVEL
 70
     2
102
SHADEPLOTCUSTOMDPI
 70
   300
  0
XRECORD
  5
1E06
102
{ACAD_REACTORS
330
1E05
102
}
330
1E05
100
AcDbXrecord
280
     1
102
SHADEPLOT
 70
     0
102
SHADEPLOTRESLEVEL
 70
     2
102
SHADEPLOTCUSTOMDPI
 70
   300
  0
ENDSEC
  0
EOF
