  0
SECTION
  2
HEADER
  9
$ACADVER
  1
AC1015
  9
$ACADMAINTVER
 70
    20
  9
$DWGCODEPAGE
  3
ANSI_950
  9
$INSBASE
 10
0.0
 20
0.0
 30
0.0
  9
$EXTMIN
 10
62.68429215557978
 20
1.582193554452601
 30
-0.0027127987605127
  9
$EXTMAX
 10
271.6319302497059
 20
239.4592466191092
 30
177.9135780035657
  9
$LIMMIN
 10
0.0
 20
0.0
  9
$LIMMAX
 10
12.0
 20
9.0
  9
$ORTHOMODE
 70
     1
  9
$REGENMODE
 70
     1
  9
$FILLMODE
 70
     1
  9
$QTEXTMODE
 70
     0
  9
$MIRRTEXT
 70
     1
  9
$LTSCALE
 40
3.0
  9
$ATTMODE
 70
     1
  9
$TEXTSIZE
 40
3.0
  9
$TRACEWID
 40
0.05
  9
$TEXTSTYLE
  7
CHINESET
  9
$CLAYER
  8
DIM
  9
$CELTYPE
  6
ByLayer
  9
$CECOLOR
 62
   256
  9
$CELTSCALE
 40
1.0
  9
$DISPSILH
 70
     0
  9
$DIMSCALE
 40
1.0
  9
$DIMASZ
 40
2.299999999999999
  9
$DIMEXO
 40
1.5
  9
$DIMDLI
 40
2.0
  9
$DIMRND
 40
0.0
  9
$DIMDLE
 40
0.0
  9
$DIMEXE
 40
1.5
  9
$DIMTP
 40
0.0
  9
$DIMTM
 40
0.0
  9
$DIMTXT
 40
2.0
  9
$DIMCEN
 40
-3.0
  9
$DIMTSZ
 40
0.0
  9
$DIMTOL
 70
     0
  9
$DIMLIM
 70
     0
  9
$DIMTIH
 70
     0
  9
$DIMTOH
 70
     0
  9
$DIMSE1
 70
     0
  9
$DIMSE2
 70
     0
  9
$DIMTAD
 70
     1
  9
$DIMZIN
 70
     8
  9
$DIMBLK
  1

  9
$DIMASO
 70
     1
  9
$DIMSHO
 70
     1
  9
$DIMPOST
  1

  9
$DIMAPOST
  1

  9
$DIMALT
 70
     0
  9
$DIMALTD
 70
     2
  9
$DIMALTF
 40
25.4
  9
$DIMLFAC
 40
1.0
  9
$DIMTOFL
 70
     1
  9
$DIMTVP
 40
0.0
  9
$DIMTIX
 70
     0
  9
$DIMSOXD
 70
     0
  9
$DIMSAH
 70
     0
  9
$DIMBLK1
  1

  9
$DIMBLK2
  1

  9
$DIMSTYLE
  2
ISO-25-1
  9
$DIMCLRD
 70
   256
  9
$DIMCLRE
 70
   256
  9
$DIMCLRT
 70
   256
  9
$DIMTFAC
 40
0.7
  9
$DIMGAP
 40
1.0
  9
$DIMJUST
 70
     0
  9
$DIMSD1
 70
     0
  9
$DIMSD2
 70
     0
  9
$DIMTOLJ
 70
     1
  9
$DIMTZIN
 70
     8
  9
$DIMALTZ
 70
     0
  9
$DIMALTTZ
 70
     0
  9
$DIMUPT
 70
     0
  9
$DIMDEC
 70
     2
  9
$DIMTDEC
 70
     8
  9
$DIMALTU
 70
     2
  9
$DIMALTTD
 70
     2
  9
$DIMTXSTY
  7
CHINESET
  9
$DIMAUNIT
 70
     0
  9
$DIMADEC
 70
     0
  9
$DIMALTRND
 40
0.0
  9
$DIMAZIN
 70
     2
  9
$DIMDSEP
 70
    46
  9
$DIMATFIT
 70
     0
  9
$DIMFRAC
 70
     0
  9
$DIMLDRBLK
  1

  9
$DIMLUNIT
 70
     2
  9
$DIMLWD
 70
    -1
  9
$DIMLWE
 70
    -1
  9
$DIMTMOVE
 70
     0
  9
$LUNITS
 70
     2
  9
$LUPREC
 70
     2
  9
$SKETCHINC
 40
0.1
  9
$FILLETRAD
 40
0.5
  9
$AUNITS
 70
     0
  9
$AUPREC
 70
     0
  9
$MENU
  1
.
  9
$ELEVATION
 40
0.0
  9
$PELEVATION
 40
0.0
  9
$THICKNESS
 40
0.0
  9
$LIMCHECK
 70
     0
  9
$CHAMFERA
 40
0.5
  9
$CHAMFERB
 40
0.5
  9
$CHAMFERC
 40
1.0
  9
$CHAMFERD
 40
0.0
  9
$SKPOLY
 70
     0
  9
$TDCREATE
 40
2452019.631085301
  9
$TDUCREATE
 40
2452019.297751968
  9
$TDUPDATE
 40
2453983.673592118
  9
$TDUUPDATE
 40
2453983.340258785
  9
$TDINDWG
 40
0.4946203704
  9
$TDUSRTIMER
 40
0.4946203704
  9
$USRTIMER
 70
     1
  9
$ANGBASE
 50
0.0
  9
$ANGDIR
 70
     0
  9
$PDMODE
 70
     0
  9
$PDSIZE
 40
0.0
  9
$PLINEWID
 40
0.0
  9
$SPLFRAME
 70
     0
  9
$SPLINETYPE
 70
     6
  9
$SPLINESEGS
 70
     8
  9
$HANDSEED
  5
4F48
  9
$SURFTAB1
 70
     6
  9
$SURFTAB2
 70
     6
  9
$SURFTYPE
 70
     6
  9
$SURFU
 70
     6
  9
$SURFV
 70
     6
  9
$UCSBASE
  2

  9
$UCSNAME
  2

  9
$UCSORG
 10
0.0
 20
0.0
 30
0.0
  9
$UCSXDIR
 10
1.0
 20
0.0
 30
0.0
  9
$UCSYDIR
 10
0.0
 20
1.0
 30
0.0
  9
$UCSORTHOREF
  2

  9
$UCSORTHOVIEW
 70
     0
  9
$UCSORGTOP
 10
0.0
 20
0.0
 30
0.0
  9
$UCSORGBOTTOM
 10
0.0
 20
0.0
 30
0.0
  9
$UCSORGLEFT
 10
0.0
 20
0.0
 30
0.0
  9
$UCSORGRIGHT
 10
0.0
 20
0.0
 30
0.0
  9
$UCSORGFRONT
 10
0.0
 20
0.0
 30
0.0
  9
$UCSORGBACK
 10
0.0
 20
0.0
 30
0.0
  9
$PUCSBASE
  2

  9
$PUCSNAME
  2

  9
$PUCSORG
 10
0.0
 20
0.0
 30
0.0
  9
$PUCSXDIR
 10
1.0
 20
0.0
 30
0.0
  9
$PUCSYDIR
 10
0.0
 20
1.0
 30
0.0
  9
$PUCSORTHOREF
  2

  9
$PUCSORTHOVIEW
 70
     0
  9
$PUCSORGTOP
 10
0.0
 20
0.0
 30
0.0
  9
$PUCSORGBOTTOM
 10
0.0
 20
0.0
 30
0.0
  9
$PUCSORGLEFT
 10
0.0
 20
0.0
 30
0.0
  9
$PUCSORGRIGHT
 10
0.0
 20
0.0
 30
0.0
  9
$PUCSORGFRONT
 10
0.0
 20
0.0
 30
0.0
  9
$PUCSORGBACK
 10
0.0
 20
0.0
 30
0.0
  9
$USERI1
 70
     0
  9
$USERI2
 70
     0
  9
$USERI3
 70
     0
  9
$USERI4
 70
     0
  9
$USERI5
 70
     0
  9
$USERR1
 40
0.0
  9
$USERR2
 40
0.0
  9
$USERR3
 40
0.0
  9
$USERR4
 40
0.0
  9
$USERR5
 40
0.0
  9
$WORLDVIEW
 70
     1
  9
$SHADEDGE
 70
     3
  9
$SHADEDIF
 70
    70
  9
$TILEMODE
 70
     1
  9
$MAXACTVP
 70
    48
  9
$PINSBASE
 10
0.0
 20
0.0
 30
0.0
  9
$PLIMCHECK
 70
     0
  9
$PEXTMIN
 10
25.69999999999999
 20
19.5
 30
0.0
  9
$PEXTMAX
 10
889.7497293978833
 20
276.0522775560587
 30
0.0
  9
$PLIMMIN
 10
0.0
 20
0.0
  9
$PLIMMAX
 10
12.0
 20
9.0
  9
$UNITMODE
 70
     0
  9
$VISRETAIN
 70
     1
  9
$PLINEGEN
 70
     0
  9
$PSLTSCALE
 70
     1
  9
$TREEDEPTH
 70
  3020
  9
$CMLSTYLE
  2
Standard
  9
$CMLJUST
 70
     0
  9
$CMLSCALE
 40
1.0
  9
$PROXYGRAPHICS
 70
     1
  9
$MEASUREMENT
 70
     1
  9
$CELWEIGHT
370
    -1
  9
$ENDCAPS
280
     0
  9
$JOINSTYLE
280
     0
  9
$LWDISPLAY
290
     0
  9
$INSUNITS
 70
     1
  9
$HYPERLINKBASE
  1

  9
$STYLESHEET
  1
彩色出圖.ctb
  9
$XEDIT
290
     1
  9
$CEPSNTYPE
380
     0
  9
$PSTYLEMODE
290
     1
  9
$FINGERPRINTGUID
  2
{FDEAD576-A652-11D2-9A35-0060089B3A3F}
  9
$VERSIONGUID
  2
{882B636F-CC8F-47AB-BD80-7BED2C92280F}
  9
$EXTNAMES
290
     1
  9
$PSVPSCALE
 40
0.0
  9
$OLESTARTUP
290
     0
  0
ENDSEC
  0
SECTION
  2
CLASSES
  0
CLASS
  1
ACDBDICTIONARYWDFLT
  2
AcDbDictionaryWithDefault
  3
ObjectDBX Classes
 90
        0
280
     0
281
     0
  0
CLASS
  1
ACDBPLACEHOLDER
  2
AcDbPlaceHolder
  3
ObjectDBX Classes
 90
        0
280
     0
281
     0
  0
CLASS
  1
LAYOUT
  2
AcDbLayout
  3
ObjectDBX Classes
 90
        0
280
     0
281
     0
  0
CLASS
  1
DICTIONARYVAR
  2
AcDbDictionaryVar
  3
ObjectDBX Classes
 90
        0
280
     0
281
     0
  0
CLASS
  1
ACME_DOCUMENT
  2
AcMeDbDoc
  3
AcMeServices
 90
        0
280
     0
281
     0
  0
CLASS
  1
AMGSETTINGSOBJ
  2
AmgSettingsObj
  3
"AcadM|Product Description: AutoCAD Mechanical 2000|Company: Autodesk"
 90
        0
280
     0
281
     0
  0
CLASS
  1
ACMESCOPE
  2
AcMeScope
  3
AcMeServices
 90
        0
280
     0
281
     0
  0
CLASS
  1
ACMECOMMANDHISTORY
  2
AcMeCommandHistory
  3
AcMeServices
 90
        0
280
     0
281
     0
  0
CLASS
  1
ACIMSYSVARMAN
  2
AcImSysVarManager
  3
AcMeServices
 90
        0
280
     0
281
     0
  0
CLASS
  1
ACIMREALSYSVAR
  2
AcImRealSysVar
  3
AcMeServices
 90
        0
280
     0
281
     0
  0
CLASS
  1
ACIMINTSYSVAR
  2
AcImIntSysVar
  3
AcMeServices
 90
        0
280
     0
281
     0
  0
CLASS
  1
ACMEDRAWINGMAN
  2
AcMeDrawingMan
  3
AcMeServices
 90
        0
280
     0
281
     0
  0
CLASS
  1
ACMEVIEW
  2
AcMeView
  3
AcMeServices
 90
        0
280
     0
281
     0
  0
CLASS
  1
ACDBENTITYCACHE
  2
AcMeEntityCache
  3
AcMeServices
 90
        0
280
     0
281
     0
  0
CLASS
  1
GSMANAGER
  2
AcMeGSManager
  3
AcMeServices
 90
        0
280
     0
281
     0
  0
CLASS
  1
AMDTINTERNALREACTOR
  2
AmdtInternalReactor
  3
AcMeServices
 90
        0
280
     0
281
     0
  0
CLASS
  1
ACMESTATEMGR
  2
AcMeStateMgr
  3
AcMeServices
 90
        0
280
     0
281
     0
  0
CLASS
  1
ACGREFMASTER
  2
AcGrefMaster
  3
AcAttribServices
 90
        0
280
     0
281
     0
  0
CLASS
  1
ACME_DATABASE
  2
AcMeDbDatabase
  3
AcMeServices
 90
        0
280
     0
281
     0
  0
CLASS
  1
ACRFINSADJUSTERMGR
  2
AcRfInsAdjusterMgr
  3
AcMeServices
 90
        0
280
     0
281
     0
  0
CLASS
  1
ACGREFACADMASTER
  2
AcGrefacadMaster
  3
AcGrefServices
 90
        0
280
     0
281
     0
  0
CLASS
  1
AMIMASTER
  2
AmiMaster
  3
AmiServices
 90
        0
280
     0
281
     0
  0
CLASS
  1
ACMDATADICTIONARY
  2
AcmDataDictionary
  3
"AcmSymBB|Product Description: AutoCAD Mechanical 2004 DX|Company: Autodesk"
 90
        0
280
     0
281
     0
  0
CLASS
  1
ACMDATAENTRYBLOCK
  2
AcmDataEntryBlock
  3
"AcmSymBB|Product Description: AutoCAD Mechanical 2004 DX|Company: Autodesk"
 90
    32768
280
     0
281
     0
  0
CLASS
  1
ACIMSTRSYSVAR
  2
AcImStrSysVar
  3
AcMeServices
 90
        0
280
     0
281
     0
  0
CLASS
  1
ACMSTANDARDISO
  2
AcmStandardISO
  3
"Amdt_StdImp|Product Description: AutoCAD Mechanical 2004 DX|Company: Autodesk"
 90
        0
280
     0
281
     0
  0
CLASS
  1
AMGOBJPROPCFG
  2
AmgObjPropCfg
  3
"AmgLay|Product Description: AutoCAD Mechanical 2000|Company: Autodesk"
 90
        1
280
     0
281
     0
  0
CLASS
  1
AMDTEDGESTANDARDISO
  2
AmdtEdgeStdISO
  3
"Amdt_StdImp|Product Description: AutoCAD Mechanical 2004 DX|Company: Autodesk"
 90
    32768
280
     0
281
     0
  0
CLASS
  1
ACMSURFSTANDARDISO
  2
AcmSurfTextStdISO
  3
"Amdt_StdImp|Product Description: AutoCAD Mechanical 2004 DX|Company: Autodesk"
 90
        0
280
     0
281
     0
  0
CLASS
  1
ACMFCFSTANDARDISO
  2
AcmFCFStdISO
  3
"Amdt_StdImp|Product Description: AutoCAD Mechanical 2004 DX|Company: Autodesk"
 90
        0
280
     0
281
     0
  0
CLASS
  1
ACMWELDSTANDARDISO
  2
AcmWeldingStdISO
  3
"Amdt_StdImp|Product Description: AutoCAD Mechanical 2004 DX|Company: Autodesk"
 90
        0
280
     0
281
     0
  0
CLASS
  1
ACMIDSTANDARDISO
  2
AcmIdStdISO
  3
"Amdt_StdImp|Product Description: AutoCAD Mechanical 2004 DX|Company: Autodesk"
 90
        0
280
     0
281
     0
  0
CLASS
  1
ACMDATUMSTANDARDISO
  2
AcmDatumStdISO
  3
"Amdt_StdImp|Product Description: AutoCAD Mechanical 2004 DX|Company: Autodesk"
 90
        0
280
     0
281
     0
  0
CLASS
  1
ACMBOMSTANDARDISO
  2
AcmBOMStdISO
  3
"Amdt_StdImp|Product Description: AutoCAD Mechanical 2004 DX|Company: Autodesk"
 90
        0
280
     0
281
     0
  0
CLASS
  1
ACMDETAILSTANDARDISO
  2
AmdtDetailSymStdISO
  3
"Amdt_StdImp|Product Description: AutoCAD Mechanical 2004 DX|Company: Autodesk"
 90
        0
280
     0
281
     0
  0
CLASS
  1
ACMSECTIONSTANDARDISO
  2
AmdtSectionSymStdISO
  3
"Amdt_StdImp|Product Description: AutoCAD Mechanical 2004 DX|Company: Autodesk"
 90
        0
280
     0
281
     0
  0
CLASS
  1
ACMCENTERLINESTANDARDISO
  2
AmdtCenterLineStdISO
  3
"Amdt_StdImp|Product Description: AutoCAD Mechanical 2004 DX|Company: Autodesk"
 90
        0
280
     0
281
     0
  0
CLASS
  1
ACMNOTESTANDARDISO
  2
AmdtNoteStdISO
  3
"Amdt_StdImp|Product Description: AutoCAD Mechanical 2004 DX|Company: Autodesk"
 90
        0
280
     0
281
     0
  0
CLASS
  1
ACAMGLAYSTD
  2
AcAmgLayStd
  3
"AcAmgLayStd|Product Description: AutoCAD Mechanical 2000|Company: Autodesk"
 90
        0
280
     0
281
     0
  0
CLASS
  1
ACAMGDIMSTD
  2
AcAmgDimStd
  3
"AcAmgDimStd|Product Description: AutoCAD Mechanical 2000|Company: Autodesk"
 90
        0
280
     0
281
     0
  0
CLASS
  1
ACAMGHOLECHARTSTDISO
  2
AcAmgHoleChartStdISO
  3
ACMSYMBB_MODULE_NAME
 90
        0
280
     0
281
     0
  0
CLASS
  1
ACAMGTITLESTD
  2
AcAmgTitleStd
  3
"TITLEAPP"
 90
        0
280
     0
281
     0
  0
CLASS
  1
ACAMGFILTERDAT
  2
AcAmgFilterDat
  3
"AcadM|Product Description: AutoCAD Mechanical 2000|Company: Autodesk"
 90
    32768
280
     0
281
     0
  0
CLASS
  1
LAYER_INDEX
  2
AcDbLayerIndex
  3
ObjectDBX Classes
 90
        0
280
     0
281
     0
  0
CLASS
  1
IDBUFFER
  2
AcDbIdBuffer
  3
ObjectDBX Classes
 90
        0
280
     0
281
     0
  0
CLASS
  1
AMDTNOTE
  2
AmdtNote
  3
"AcmSymBB|Product Description: AutoCAD Mechanical 2004 DX|Company: Autodesk"
 90
    33791
280
     0
281
     1
  0
CLASS
  1
AMDTFORMULAUPDATEDISPATCHER
  2
AmdtFormulaUpdateDispatcher
  3
AcMeServices
 90
    32768
280
     0
281
     0
  0
CLASS
  1
TABLESTYLE
  2
AcDbTableStyle
  3
ObjectDBX Classes
 90
     2047
280
     0
281
     0
  0
CLASS
  1
SORTENTSTABLE
  2
AcDbSortentsTable
  3
ObjectDBX Classes
 90
        0
280
     0
281
     0
  0
CLASS
  1
DIMASSOC
  2
AcDbDimAssoc
  3
"AcDbDimAssoc|Product Desc:     AcDim ARX App For Dimension|Company:          Autodesk, Inc.|WEB Address:      www.autodesk.com"
 90
        0
280
     0
281
     0
  0
CLASS
  1
AM_DRAWING_MGR
  2
AcDmDwgMgr
  3
AcMechDwgViewMgmt
 90
        0
280
     0
281
     0
  0
CLASS
  1
AM_DWG_DOCUMENT
  2
AcDmDwgDocument
  3
AcMechDwgViewMgmt
 90
        0
280
     0
281
     0
  0
CLASS
  1
AM_DWG_SHEET
  2
AcDmSheet
  3
AcMechDwgViewMgmt
 90
        0
280
     0
281
     0
  0
CLASS
  1
AM_VIEWDIMPARMAP
  2
AcDmViewDimParMap
  3
AcMechDwgViewMgmt
 90
        0
280
     0
281
     0
  0
CLASS
  1
AM_DWGMGR_NAME
  2
AcDmDwgMgrName
  3
AcMechDwgViewMgmt
 90
        0
280
     0
281
     0
  0
CLASS
  1
AMDTMENUSTATEMGR
  2
AmdtMenuStateMgr
  3
McadcomServices
 90
        0
280
     0
281
     0
  0
CLASS
  1
AMDTMCOMMENUSTATE
  2
AmdtMcomMenuState
  3
McadcomServices
 90
        0
280
     0
281
     0
  0
CLASS
  1
MAPIAMMOUDLE
  2
MApiAmModule
  3
MApiAmServices
 90
        0
280
     0
281
     0
  0
CLASS
  1
AMDTADMENUSTATE
  2
AmdtAdMenuState
  3
DesignerServices
 90
        0
280
     0
281
     0
  0
CLASS
  1
ADAPPL
  2
AcAdAppl
  3
DesignerServices
 90
        0
280
     0
281
     0
  0
CLASS
  1
DEPMGR
  2
AcAdDepMgr
  3
DesignerServices
 90
        0
280
     0
281
     0
  0
CLASS
  1
PARAMMGR
  2
AcAdParamMgr
  3
DesignerServices
 90
        0
280
     0
281
     0
  0
CLASS
  1
PARAMSCOPE
  2
AcAdParamScope
  3
DesignerServices
 90
        0
280
     0
281
     0
  0
CLASS
  1
NAMEDAPPL
  2
AcAdNamedAppl
  3
DesignerServices
 90
        0
280
     0
281
     0
  0
CLASS
  1
AMDTDMMENUSTATE
  2
AmdtDmMenuState
  3
AcMechDwgViewMgmt
 90
        0
280
     0
281
     0
  0
CLASS
  1
AMDTAMMENUSTATE
  2
AmdtAmMenuState
  3
DesignerAssemblies
 90
        0
280
     0
281
     0
  0
CLASS
  1
ACAMPROJECT
  2
AcAmProject
  3
DesignerAssemblies
 90
        0
280
     0
281
     0
  0
CLASS
  1
ACAMGRCOMPDEF
  2
AcAmGrCompDef
  3
DesignerAssemblies
 90
        0
280
     0
281
     0
  0
CLASS
  1
ACCMCONTEXT
  2
AcCmContext
  3
DesignerAssemblies
 90
        0
280
     0
281
     0
  0
CLASS
  1
ACAMCOMPDEF
  2
AcAmCompDef
  3
DesignerAssemblies
 90
        0
280
     0
281
     0
  0
CLASS
  1
ACAMCOMPDEFMGR
  2
AcAmCompDefMgr
  3
DesignerAssemblies
 90
        0
280
     0
281
     0
  0
CLASS
  1
AMCONTEXTMGR
  2
AcAmContextMgr
  3
DesignerAssemblies
 90
        0
280
     0
281
     0
  0
CLASS
  1
ACAMCONTEXTMODELER
  2
AcAmContextModeler
  3
DesignerAssemblies
 90
        0
280
     0
281
     0
  0
CLASS
  1
CATALOGSTATE
  2
AcAmCatalogState
  3
DesignerAssemblies
 90
        0
280
     0
281
     0
  0
CLASS
  1
ACAMGRCOMPDEFSET
  2
AcAmGrCompDefSet
  3
DesignerAssemblies
 90
        0
280
     0
281
     0
  0
CLASS
  1
AMDTBROWSERDBTAB
  2
AmdtBrowserDbTab
  3
McadcomServices
 90
        0
280
     0
281
     0
  0
CLASS
  1
CBROWSERAPPOBJECT
  2
CBrowserAppObject
  3
McadcomServices
 90
        0
280
     0
281
     0
  0
CLASS
  1
DM_PLACEHOLDER
  2
AcDmSelsetPlaceholder
  3
AcMechDwgViewMgmt
 90
        0
280
     0
281
     0
  0
CLASS
  1
AMDTEDGESTANDARDISO13715
  2
AmdtEdgeStdISO13715
  3
"Amdt_StdImp|Product Description: AutoCAD Mechanical 2004 DX|Company: Autodesk"
 90
        0
280
     0
281
     0
  0
CLASS
  1
ACMTHREADLINESTANDARDISO
  2
AmdtThreadLineStdISO
  3
"Amdt_StdImp|Product Description: AutoCAD Mechanical 2004 DX|Company: Autodesk"
 90
        0
280
     0
281
     0
  0
CLASS
  1
AMDTNOTETEMPLATEDB
  2
AmdtNoteTemplateDB
  3
AMDT_STDIMP_MODULE_NAME
 90
        0
280
     0
281
     0
  0
ENDSEC
  0
SECTION
  2
TABLES
  0
TABLE
  2
VPORT
  5
8
330
0
100
AcDbSymbolTable
 70
     4
  0
VPORT
  5
4F3F
330
8
100
AcDbSymbolTableRecord
100
AcDbViewportTableRecord
  2
*Active
 70
     0
 10
0.0
 20
0.0
 11
1.0
 21
1.0
 12
167.1633718023279
 22
120.5261767026336
 13
0.0
 23
0.0
 14
0.5
 24
0.5
 15
0.5
 25
0.5
 16
0.0
 26
0.0
 36
1.0
 17
0.0
 27
0.0
 37
0.0
 40
239.7955164991033
 41
1.609210526315789
 42
50.0
 43
0.0
 44
0.0
 50
0.0
 51
0.0
 71
     0
 72
   100
 73
     1
 74
     3
 75
     0
 76
     0
 77
     0
 78
     0
281
     0
 65
     1
110
0.0
120
0.0
130
0.0
111
1.0
121
0.0
131
0.0
112
0.0
122
1.0
132
0.0
 79
     0
146
0.0
  0
ENDTAB
  0
TABLE
  2
LTYPE
  5
5
330
0
100
AcDbSymbolTable
 70
    14
  0
LTYPE
  5
14
330
5
100
AcDbSymbolTableRecord
100
AcDbLinetypeTableRecord
  2
ByBlock
 70
     0
  3

 72
    65
 73
     0
 40
0.0
  0
LTYPE
  5
15
330
5
100
AcDbSymbolTableRecord
100
AcDbLinetypeTableRecord
  2
ByLayer
 70
     0
  3

 72
    65
 73
     0
 40
0.0
  0
LTYPE
  5
16
330
5
100
AcDbSymbolTableRecord
100
AcDbLinetypeTableRecord
  2
Continuous
 70
     0
  3
Solid line
 72
    65
 73
     0
 40
0.0
  0
LTYPE
  5
4F
330
5
100
AcDbSymbolTableRecord
100
AcDbLinetypeTableRecord
  2
CENTER
 70
     0
  3
Center ____ _ ____ _ ____ _ ____ _ ____ _ ____
 72
    65
 73
     4
 40
2.0
 49
1.25
 74
     0
 49
-0.25
 74
     0
 49
0.25
 74
     0
 49
-0.25
 74
     0
  0
LTYPE
  5
21B9
330
5
100
AcDbSymbolTableRecord
100
AcDbLinetypeTableRecord
  2
AM_ISO02W050
 70
     0
  3
__ __ __ __ __ __ __ __ __ __ __ __ __ __ __
 72
    65
 73
     2
 40
7.5
 49
6.0
 74
     0
 49
-1.5
 74
     0
  0
LTYPE
  5
21BA
330
5
100
AcDbSymbolTableRecord
100
AcDbLinetypeTableRecord
  2
AM_ISO08W050
 70
     0
  3
____ . ____ . ____ . ____ . ____ . ____ . ____
 72
    65
 73
     4
 40
18.0
 49
12.0
 74
     0
 49
-1.5
 74
     0
 49
3.0
 74
     0
 49
-1.5
 74
     0
  0
LTYPE
  5
21BB
330
5
100
AcDbSymbolTableRecord
100
AcDbLinetypeTableRecord
  2
AM_ISO09W050
 70
     0
  3
_____ . . _____ . . _____ . . ____ .. ____
 72
    65
 73
     6
 40
22.5
 49
12.0
 74
     0
 49
-1.5
 74
     0
 49
3.0
 74
     0
 49
-1.5
 74
     0
 49
3.0
 74
     0
 49
-1.5
 74
     0
  0
LTYPE
  5
21BC
330
5
100
AcDbSymbolTableRecord
100
AcDbLinetypeTableRecord
  2
Amconstr
 70
     0
  3
_______________________
 72
    65
 73
     2
 40
9999.0
 49
9999.0
 74
     0
 49
0.0
 74
     0
  0
LTYPE
  5
21BD
330
5
100
AcDbSymbolTableRecord
100
AcDbLinetypeTableRecord
  2
AM_ISO08W050x2
 70
     0
  3
__ . __ . __ . __ . __ . __
 72
    65
 73
     4
 40
9.0
 49
6.0
 74
     0
 49
-0.75
 74
     0
 49
1.5
 74
     0
 49
-0.75
 74
     0
  0
LTYPE
  5
21BE
330
5
100
AcDbSymbolTableRecord
100
AcDbLinetypeTableRecord
  2
AM_ISO02W050x2
 70
     0
  3
 _ _ _ _ _ _ _ _ _ _ _ _
 72
    65
 73
     2
 40
3.75
 49
3.0
 74
     0
 49
-0.75
 74
     0
  0
LTYPE
  5
21C1
330
5
100
AcDbSymbolTableRecord
100
AcDbLinetypeTableRecord
  2
Amzigzag
 70
     0
  3
/\/-/\/-/\/-/\/-/\/-/\/
 72
    65
 73
     2
 40
11.0001
 49
0.0001
 74
     4
 75
   135
340
21C0
 46
0.04
 50
0.0
 44
0.0
 45
0.0
 49
-11.0
 74
     0
  0
LTYPE
  5
21CF
330
5
100
AcDbSymbolTableRecord
100
AcDbLinetypeTableRecord
  2
ACISOWELD
 70
     0
  3
_ _ _ _ _
 72
    65
 73
     2
 40
2.0
 49
2.0
 74
     0
 49
-1.0
 74
     0
  0
LTYPE
  5
21D0
330
5
100
AcDbSymbolTableRecord
100
AcDbLinetypeTableRecord
  2
ACISOTGB
 70
     0
  3
__ . . __ . .
 72
    65
 73
     6
 40
9.0
 49
4.0
 74
     0
 49
-1.0
 74
     0
 49
1.0
 74
     0
 49
-1.0
 74
     0
 49
1.0
 74
     0
 49
-1.0
 74
     0
  0
LTYPE
  5
21D1
330
5
100
AcDbSymbolTableRecord
100
AcDbLinetypeTableRecord
  2
ACISOTGL
 70
     0
  3
_ _ _ _ _
 72
    65
 73
     2
 40
3.0
 49
2.0
 74
     0
 49
-1.0
 74
     0
  0
LTYPE
  5
3214
330
5
100
AcDbSymbolTableRecord
100
AcDbLinetypeTableRecord
  2
HIDDEN
 70
     0
  3
__ __ __ __ __ __ __ __ __ __ __ __ __ __ __ __
 72
    65
 73
     2
 40
0.375
 49
0.25
 74
     0
 49
-0.125
 74
     0
  0
LTYPE
  5
3215
330
5
100
AcDbSymbolTableRecord
100
AcDbLinetypeTableRecord
  2
PHANTOM2
 70
     0
  3
___ _ _ ___ _ _ ___ _ _ ___ _ _ ___ _ _ ___ _ _
 72
    65
 73
     6
 40
1.25
 49
0.625
 74
     0
 49
-0.125
 74
     0
 49
0.125
 74
     0
 49
-0.125
 74
     0
 49
0.125
 74
     0
 49
-0.125
 74
     0
  0
ENDTAB
  0
TABLE
  2
LAYER
  5
2
102
{ACAD_XDICTIONARY
360
22BF
102
}
330
0
100
AcDbSymbolTable
 70
    10
  0
LAYER
  5
10
330
2
100
AcDbSymbolTableRecord
100
AcDbLayerTableRecord
  2
0
 70
     0
 62
     7
  6
Continuous
370
    -3
390
F
  0
LAYER
  5
48
330
2
100
AcDbSymbolTableRecord
100
AcDbLayerTableRecord
  2
DIM
 70
     0
 62
     5
  6
Continuous
370
    -3
390
F
  0
LAYER
  5
57
330
2
100
AcDbSymbolTableRecord
100
AcDbLayerTableRecord
  2
A3-S
 70
     0
 62
     5
  6
Continuous
370
    -3
390
F
  0
LAYER
  5
1543
330
2
100
AcDbSymbolTableRecord
100
AcDbLayerTableRecord
  2
CENTER
 70
     0
 62
     1
  6
CENTER
370
    15
390
F
  0
LAYER
  5
1545
330
2
100
AcDbSymbolTableRecord
100
AcDbLayerTableRecord
  2
LOGO
 70
     0
 62
     7
  6
Continuous
370
    -3
390
F
  0
LAYER
  5
1A52
330
2
100
AcDbSymbolTableRecord
100
AcDbLayerTableRecord
  2
Defpoints
 70
     0
 62
     7
  6
Continuous
290
     0
370
    -3
390
F
  0
LAYER
  5
22BC
330
2
100
AcDbSymbolTableRecord
100
AcDbLayerTableRecord
  2
PLINE
 70
     0
 62
     7
  6
Continuous
370
    -3
390
F
  0
LAYER
  5
22BD
330
2
100
AcDbSymbolTableRecord
100
AcDbLayerTableRecord
  2
BORDER
 70
     0
 62
     7
  6
Continuous
370
    -3
390
F
  0
LAYER
  5
4ED2
330
2
100
AcDbSymbolTableRecord
100
AcDbLayerTableRecord
  2
AM_7
 70
     0
 62
     4
  6
AM_ISO08W050
370
    25
390
F
  0
LAYER
  5
4ED3
330
2
100
AcDbSymbolTableRecord
100
AcDbLayerTableRecord
  2
AM_5
 70
     0
 62
     3
  6
Continuous
370
    25
390
F
  0
ENDTAB
  0
TABLE
  2
STYLE
  5
3
330
0
100
AcDbSymbolTable
 70
     8
  0
STYLE
  5
11
330
3
100
AcDbSymbolTableRecord
100
AcDbTextStyleTableRecord
  2
Standard
 70
     0
 40
3.0
 41
1.0
 50
0.0
 71
     0
 42
3.0
  3
KAIU.TTF
  4

1001
ACAD
1000
DFKai-SB
1071
    34865
  0
STYLE
  5
5A
330
3
100
AcDbSymbolTableRecord
100
AcDbTextStyleTableRecord
  2
RUBONK
 70
     0
 40
0.0
 41
1.0
 50
0.0
 71
     0
 42
3.5
  3
cn1.shx
  4
rubonk.shx
  0
STYLE
  5
5C
330
3
100
AcDbSymbolTableRecord
100
AcDbTextStyleTableRecord
  2
CHINESET
 70
     0
 40
2.0
 41
1.0
 50
0.0
 71
     0
 42
3.0
  3
simplex.shx
  4
CHINESET.shx
  0
STYLE
  5
21C0
330
3
100
AcDbSymbolTableRecord
100
AcDbTextStyleTableRecord
  2

 70
     1
 40
0.0
 41
1.0
 50
0.0
 71
     0
 42
4.5
  3
ltypeshp.shx
  4

  0
STYLE
  5
21C2
330
3
100
AcDbSymbolTableRecord
100
AcDbTextStyleTableRecord
  2
ACISOTS
 70
     0
 40
1.0
 41
1.0
 50
0.0
 71
     0
 42
4.5
  3
isocp.shx
  4
chineset.shx
  0
STYLE
  5
21CE
330
3
100
AcDbSymbolTableRecord
100
AcDbTextStyleTableRecord
  2
ACISOGDT
 70
     0
 40
0.0
 41
1.0
 50
0.0
 71
     0
 42
4.5
  3
amgdt.shx
  4

  0
STYLE
  5
321B
330
3
100
AcDbSymbolTableRecord
100
AcDbTextStyleTableRecord
  2
dayus
 70
     0
 40
2.0
 41
1.0
 50
0.0
 71
     0
 42
6.0
  3
simplex.shx
  4
dayus.shx
  0
ENDTAB
  0
TABLE
  2
VIEW
  5
6
330
0
100
AcDbSymbolTable
 70
     0
  0
ENDTAB
  0
TABLE
  2
UCS
  5
7
330
0
100
AcDbSymbolTable
 70
     0
  0
ENDTAB
  0
TABLE
  2
APPID
  5
9
330
0
100
AcDbSymbolTable
 70
    22
  0
APPID
  5
12
330
9
100
AcDbSymbolTableRecord
100
AcDbRegAppTableRecord
  2
ACAD
 70
     0
  0
APPID
  5
5F
330
9
100
AcDbSymbolTableRecord
100
AcDbRegAppTableRecord
  2
AD_DRAW
 70
     0
  0
APPID
  5
60
330
9
100
AcDbSymbolTableRecord
100
AcDbRegAppTableRecord
  2
DESIGNERASSEMBLIES
 70
     0
  0
APPID
  5
61
330
9
100
AcDbSymbolTableRecord
100
AcDbRegAppTableRecord
  2
MCAD_NO_VIS
 70
     0
  0
APPID
  5
62
330
9
100
AcDbSymbolTableRecord
100
AcDbRegAppTableRecord
  2
ASURF_PCURVE_APPNAME
 70
     0
  0
APPID
  5
11A1
330
9
100
AcDbSymbolTableRecord
100
AcDbRegAppTableRecord
  2
CONTENTBLOCKICON
 70
     0
  0
APPID
  5
219C
330
9
100
AcDbSymbolTableRecord
100
AcDbRegAppTableRecord
  2
ACAD_TEMP_GRAPHIC
 70
     0
  0
APPID
  5
21AD
330
9
100
AcDbSymbolTableRecord
100
AcDbRegAppTableRecord
  2
ACATTRIBSERVICES
 70
     0
  0
APPID
  5
22BE
330
9
100
AcDbSymbolTableRecord
100
AcDbRegAppTableRecord
  2
ACAD_PSEXT
 70
     0
  0
APPID
  5
2552
330
9
100
AcDbSymbolTableRecord
100
AcDbRegAppTableRecord
  2
ACAD_DSTYLE_DIMTEXT_FILL
 70
     0
  0
APPID
  5
34AB
330
9
100
AcDbSymbolTableRecord
100
AcDbRegAppTableRecord
  2
GENIUS_GENDTOL_13
 70
     0
  0
APPID
  5
494B
330
9
100
AcDbSymbolTableRecord
100
AcDbRegAppTableRecord
  2
ACADM_DIM_EDIT
 70
     0
  0
APPID
  5
494C
330
9
100
AcDbSymbolTableRecord
100
AcDbRegAppTableRecord
  2
AMDT_DM_ADJ
 70
     0
  0
APPID
  5
496E
330
9
100
AcDbSymbolTableRecord
100
AcDbRegAppTableRecord
  2
GENIUS_GENOENT_13
 70
     0
  0
APPID
  5
496F
330
9
100
AcDbSymbolTableRecord
100
AcDbRegAppTableRecord
  2
GENIUS_GENOBJ-N-CRS_13
 70
     0
  0
APPID
  5
4970
330
9
100
AcDbSymbolTableRecord
100
AcDbRegAppTableRecord
  2
GENIUS_GENOLIS_13
 70
     0
  0
APPID
  5
4971
330
9
100
AcDbSymbolTableRecord
100
AcDbRegAppTableRecord
  2
GENIUS_GENODEF_13
 70
     0
  0
APPID
  5
4972
330
9
100
AcDbSymbolTableRecord
100
AcDbRegAppTableRecord
  2
GENIUS_GENOREF_13
 70
     0
  0
APPID
  5
4973
330
9
100
AcDbSymbolTableRecord
100
AcDbRegAppTableRecord
  2
GENIUS_GENREC_14
 70
     0
  0
APPID
  5
4974
330
9
100
AcDbSymbolTableRecord
100
AcDbRegAppTableRecord
  2
GENIUS_GENOBJ-N-REC_13
 70
     0
  0
APPID
  5
4ED4
330
9
100
AcDbSymbolTableRecord
100
AcDbRegAppTableRecord
  2
GENIUS_GENOBJ-N-CEN_13
 70
     0
  0
APPID
  5
4ED5
330
9
100
AcDbSymbolTableRecord
100
AcDbRegAppTableRecord
  2
GENIUS_GENCEN_19
 70
     0
  0
ENDTAB
  0
TABLE
  2
DIMSTYLE
  5
A
330
0
100
AcDbSymbolTable
 70
    11
100
AcDbDimStyleTable
 71
     1
340
1A4
  0
DIMSTYLE
105
1A4
330
A
100
AcDbSymbolTableRecord
100
AcDbDimStyleTableRecord
  2
ISO-25-1
 70
     0
 41
3.0
 42
3.0
 43
2.0
 44
2.0
 73
     0
 74
     0
 77
     1
 78
     8
 79
     2
140
3.0
141
-3.0
146
0.7
147
1.0
172
     1
176
   256
177
   256
178
   256
271
     2
272
     2
284
     8
289
     0
340
5C
371
    -1
372
    -1
  0
DIMSTYLE
105
21D5
330
A
100
AcDbSymbolTableRecord
100
AcDbDimStyleTableRecord
  2
AM_ISO
 70
     0
  4
"
 41
2.5
 42
1.0
 43
10.0
 44
1.0
 47
0.1
 48
0.1
 73
     0
 74
     0
 77
     1
 78
     8
 79
     2
140
3.5
141
0.0
143
0.0393701
146
0.71
147
1.5
172
     1
176
   256
177
   256
178
     2
271
     2
272
     3
274
     4
283
     0
284
     8
340
11
371
    -1
372
    -1
  0
DIMSTYLE
105
21D6
330
A
100
AcDbSymbolTableRecord
100
AcDbDimStyleTableRecord
  2
AM_ISO$3
 70
     0
  4
"
 41
2.5
 42
1.0
 43
10.0
 44
1.0
 47
0.1
 48
0.1
 73
     0
 77
     1
 78
     8
 79
     2
140
3.5
141
0.0
143
0.0393701
146
0.71
147
1.5
176
   256
177
   256
178
     2
271
     2
272
     3
274
     4
283
     0
284
     8
288
     1
289
     0
340
11
371
    -1
372
    -1
  0
DIMSTYLE
105
21D7
330
A
100
AcDbSymbolTableRecord
100
AcDbDimStyleTableRecord
  2
AM_ISO$4
 70
     0
  4
"
 41
2.5
 42
1.0
 43
10.0
 44
1.0
 47
0.1
 48
0.1
 73
     0
 77
     1
 78
     8
 79
     2
140
3.5
141
0.0
143
0.0393701
146
0.71
147
1.5
176
   256
177
   256
178
     2
271
     2
272
     3
274
     4
283
     0
284
     8
288
     1
289
     0
340
11
371
    -1
372
    -1
  0
DIMSTYLE
105
21D8
330
A
100
AcDbSymbolTableRecord
100
AcDbDimStyleTableRecord
  2
AM_ISO$6
 70
     0
  4
"
 41
2.5
 42
1.0
 43
10.0
 44
1.0
 47
0.1
 48
0.1
 73
     0
 74
     0
 78
     8
 79
     2
140
3.5
141
0.0
143
0.0393701
146
0.71
147
1.5
172
     1
176
   256
177
   256
178
     2
271
     2
272
     3
274
     4
283
     0
284
     8
340
11
371
    -1
372
    -1
  0
DIMSTYLE
105
21D9
330
A
100
AcDbSymbolTableRecord
100
AcDbDimStyleTableRecord
  2
AM_ISO$7
 70
     0
  4
"
 41
2.5
 42
1.0
 43
10.0
 44
1.0
 47
0.1
 48
0.1
 73
     0
 74
     0
 77
     1
 78
     8
 79
     2
140
5.0
141
0.0
143
0.0393701
146
0.71
147
1.5
172
     1
176
   256
177
   256
178
     2
271
     2
272
     3
274
     4
283
     0
284
     8
340
11
371
    -1
372
    -1
  0
DIMSTYLE
105
21DA
330
A
100
AcDbSymbolTableRecord
100
AcDbDimStyleTableRecord
  2
AM_ISO$SF
 70
     0
  4
"
 41
2.5
 42
1.0
 43
10.0
 44
1.0
 47
0.1
 48
0.1
 73
     0
 74
     0
 75
     1
 76
     1
 77
     1
 78
     8
 79
     2
140
3.5
141
0.0
143
0.0393701
146
0.71
147
1.5
172
     1
176
   256
177
   256
178
     2
271
     2
272
     3
274
     4
283
     0
284
     8
340
11
371
    -1
372
    -1
  0
DIMSTYLE
105
21DF
330
A
100
AcDbSymbolTableRecord
100
AcDbDimStyleTableRecord
  2
AM_ISO$SH
 70
     0
  4
"
 41
2.5
 42
1.0
 43
10.0
 44
1.0
 47
0.1
 48
0.1
 73
     0
 74
     0
 75
     1
 76
     1
 77
     1
 78
     8
 79
     2
140
3.5
141
0.0
143
0.0393701
144
2.0
146
0.71
147
1.5
172
     1
173
     1
176
   256
177
   256
178
     2
271
     2
272
     3
274
     4
283
     0
284
     8
340
11
341
21DB
343
21DB
371
    -1
372
    -1
  0
DIMSTYLE
105
321E
102
{ACAD_REACTORS
330
4460
330
4463
330
4466
330
4469
330
446C
330
446F
330
4475
330
4478
330
447B
330
447E
330
4481
330
4484
330
448D
330
4490
330
4493
330
4496
330
4499
330
4515
330
4518
330
451B
330
451E
330
4521
330
4524
330
4527
330
452A
330
452D
330
4530
330
4533
330
4534
330
4535
330
4536
330
4539
330
48AE
330
48B1
330
48CC
330
48CF
330
4472
102
}
330
A
100
AcDbSymbolTableRecord
100
AcDbDimStyleTableRecord
  2
AM_ANSI
 70
     0
  4
"
 41
2.5
 42
1.0
 43
10.0
 44
1.0
 47
0.1
 48
0.1
 78
     8
 79
     2
140
3.5
141
0.0
143
0.0393701
146
0.71
147
1.5
176
   256
177
   256
178
     2
271
     2
272
     3
274
     4
284
     8
340
11
371
    -1
372
    -1
  0
DIMSTYLE
105
3221
330
A
100
AcDbSymbolTableRecord
100
AcDbDimStyleTableRecord
  2
AM_ANSI$7
 70
     0
  4
"
 41
2.5
 42
1.0
 43
10.0
 44
1.0
 47
0.1
 48
0.1
 78
     8
 79
     2
140
5.0
141
0.0
143
0.0393701
146
0.71
147
1.5
176
   256
177
   256
178
     2
271
     2
272
     3
274
     4
284
     8
340
11
371
    -1
372
    -1
  0
ENDTAB
  0
TABLE
  2
BLOCK_RECORD
  5
1
330
0
100
AcDbSymbolTable
 70
    43
  0
BLOCK_RECORD
  5
1F
102
{ACAD_XDICTIONARY
360
20FA
102
}
330
1
100
AcDbSymbolTableRecord
100
AcDbBlockTableRecord
  2
*Model_Space
340
22
  0
BLOCK_RECORD
  5
1B
102
{ACAD_XDICTIONARY
360
20FC
102
}
330
1
100
AcDbSymbolTableRecord
100
AcDbBlockTableRecord
  2
*Paper_Space
340
1E
  0
BLOCK_RECORD
  5
23
102
{ACAD_XDICTIONARY
360
20FE
102
}
330
1
100
AcDbSymbolTableRecord
100
AcDbBlockTableRecord
  2
*Paper_Space0
340
26
  0
BLOCK_RECORD
  5
21DB
330
1
100
AcDbSymbolTableRecord
100
AcDbBlockTableRecord
  2
GENAXEH
340
0
  0
BLOCK_RECORD
  5
4540
330
1
100
AcDbSymbolTableRecord
100
AcDbBlockTableRecord
  2
*D2
340
0
  0
BLOCK_RECORD
  5
454E
330
1
100
AcDbSymbolTableRecord
100
AcDbBlockTableRecord
  2
*D3
340
0
  0
BLOCK_RECORD
  5
455C
330
1
100
AcDbSymbolTableRecord
100
AcDbBlockTableRecord
  2
*D4
340
0
  0
BLOCK_RECORD
  5
4568
330
1
100
AcDbSymbolTableRecord
100
AcDbBlockTableRecord
  2
*D5
340
0
  0
BLOCK_RECORD
  5
4574
330
1
100
AcDbSymbolTableRecord
100
AcDbBlockTableRecord
  2
*D6
340
0
  0
BLOCK_RECORD
  5
4580
330
1
100
AcDbSymbolTableRecord
100
AcDbBlockTableRecord
  2
*D7
340
0
  0
BLOCK_RECORD
  5
458C
330
1
100
AcDbSymbolTableRecord
100
AcDbBlockTableRecord
  2
*D8
340
0
  0
BLOCK_RECORD
  5
459A
330
1
100
AcDbSymbolTableRecord
100
AcDbBlockTableRecord
  2
*D9
340
0
  0
BLOCK_RECORD
  5
45A6
330
1
100
AcDbSymbolTableRecord
100
AcDbBlockTableRecord
  2
*D10
340
0
  0
BLOCK_RECORD
  5
45B2
330
1
100
AcDbSymbolTableRecord
100
AcDbBlockTableRecord
  2
*D11
340
0
  0
BLOCK_RECORD
  5
45BE
330
1
100
AcDbSymbolTableRecord
100
AcDbBlockTableRecord
  2
*D12
340
0
  0
BLOCK_RECORD
  5
45CA
330
1
100
AcDbSymbolTableRecord
100
AcDbBlockTableRecord
  2
*D13
340
0
  0
BLOCK_RECORD
  5
45D6
330
1
100
AcDbSymbolTableRecord
100
AcDbBlockTableRecord
  2
*D14
340
0
  0
BLOCK_RECORD
  5
45E4
330
1
100
AcDbSymbolTableRecord
100
AcDbBlockTableRecord
  2
*D15
340
0
  0
BLOCK_RECORD
  5
45F2
330
1
100
AcDbSymbolTableRecord
100
AcDbBlockTableRecord
  2
*D16
340
0
  0
BLOCK_RECORD
  5
4600
330
1
100
AcDbSymbolTableRecord
100
AcDbBlockTableRecord
  2
*D17
340
0
  0
BLOCK_RECORD
  5
460E
330
1
100
AcDbSymbolTableRecord
100
AcDbBlockTableRecord
  2
*D18
340
0
  0
BLOCK_RECORD
  5
461B
330
1
100
AcDbSymbolTableRecord
100
AcDbBlockTableRecord
  2
*D19
340
0
  0
BLOCK_RECORD
  5
4629
330
1
100
AcDbSymbolTableRecord
100
AcDbBlockTableRecord
  2
*D20
340
0
  0
BLOCK_RECORD
  5
4635
330
1
100
AcDbSymbolTableRecord
100
AcDbBlockTableRecord
  2
*D21
340
0
  0
BLOCK_RECORD
  5
4641
330
1
100
AcDbSymbolTableRecord
100
AcDbBlockTableRecord
  2
*D22
340
0
  0
BLOCK_RECORD
  5
464D
330
1
100
AcDbSymbolTableRecord
100
AcDbBlockTableRecord
  2
*D23
340
0
  0
BLOCK_RECORD
  5
4659
330
1
100
AcDbSymbolTableRecord
100
AcDbBlockTableRecord
  2
*D24
340
0
  0
BLOCK_RECORD
  5
4667
330
1
100
AcDbSymbolTableRecord
100
AcDbBlockTableRecord
  2
*D25
340
0
  0
BLOCK_RECORD
  5
4675
330
1
100
AcDbSymbolTableRecord
100
AcDbBlockTableRecord
  2
*D26
340
0
  0
BLOCK_RECORD
  5
4681
330
1
100
AcDbSymbolTableRecord
100
AcDbBlockTableRecord
  2
*D27
340
0
  0
BLOCK_RECORD
  5
468D
330
1
100
AcDbSymbolTableRecord
100
AcDbBlockTableRecord
  2
*D28
340
0
  0
BLOCK_RECORD
  5
4699
330
1
100
AcDbSymbolTableRecord
100
AcDbBlockTableRecord
  2
*D29
340
0
  0
BLOCK_RECORD
  5
46A5
330
1
100
AcDbSymbolTableRecord
100
AcDbBlockTableRecord
  2
*D30
340
0
  0
BLOCK_RECORD
  5
46B3
330
1
100
AcDbSymbolTableRecord
100
AcDbBlockTableRecord
  2
*D31
340
0
  0
BLOCK_RECORD
  5
46C1
330
1
100
AcDbSymbolTableRecord
100
AcDbBlockTableRecord
  2
*D32
340
0
  0
BLOCK_RECORD
  5
46F6
330
1
100
AcDbSymbolTableRecord
100
AcDbBlockTableRecord
  2
*D33
340
0
  0
BLOCK_RECORD
  5
4702
330
1
100
AcDbSymbolTableRecord
100
AcDbBlockTableRecord
  2
*D34
340
0
  0
BLOCK_RECORD
  5
48B4
330
1
100
AcDbSymbolTableRecord
100
AcDbBlockTableRecord
  2
*D35
340
0
  0
BLOCK_RECORD
  5
48C0
330
1
100
AcDbSymbolTableRecord
100
AcDbBlockTableRecord
  2
*D36
340
0
  0
BLOCK_RECORD
  5
48D2
330
1
100
AcDbSymbolTableRecord
100
AcDbBlockTableRecord
  2
*D37
340
0
  0
BLOCK_RECORD
  5
48DE
330
1
100
AcDbSymbolTableRecord
100
AcDbBlockTableRecord
  2
*D38
340
0
  0
BLOCK_RECORD
  5
4CC3
102
{ACAD_XDICTIONARY
360
4CC4
102
}
330
1
100
AcDbSymbolTableRecord
100
AcDbBlockTableRecord
  2
A$C5ECF147B
340
0
102
{BLKREFS
331
4DE9
331
4E6F
331
4E70
331
4E7F
331
4E8D
331
4E8E
102
}
  0
BLOCK_RECORD
  5
4EC9
102
{ACAD_XDICTIONARY
360
4ECA
102
}
330
1
100
AcDbSymbolTableRecord
100
AcDbBlockTableRecord
  2
A$C1F6E6265
340
0
102
{BLKREFS
331
4EDE
331
4EE1
102
}
  0
ENDTAB
  0
ENDSEC
  0
SECTION
  2
BLOCKS
  0
BLOCK
  5
20
330
1F
100
AcDbEntity
  8
0
100
AcDbBlockBegin
  2
*Model_Space
 70
     0
 10
0.0
 20
0.0
 30
0.0
  3
*Model_Space
  1

  0
ENDBLK
  5
21
330
1F
100
AcDbEntity
  8
0
100
AcDbBlockEnd
  0
BLOCK
  5
1C
330
1B
100
AcDbEntity
 67
     1
  8
0
100
AcDbBlockBegin
  2
*Paper_Space
 70
     0
 10
0.0
 20
0.0
 30
0.0
  3
*Paper_Space
  1

  0
ENDBLK
  5
1D
330
1B
100
AcDbEntity
 67
     1
  8
0
100
AcDbBlockEnd
  0
BLOCK
  5
24
330
23
100
AcDbEntity
  8
0
100
AcDbBlockBegin
  2
*Paper_Space0
 70
     0
 10
0.0
 20
0.0
 30
0.0
  3
*Paper_Space0
  1

  0
ENDBLK
  5
25
330
23
100
AcDbEntity
  8
0
100
AcDbBlockEnd
  0
BLOCK
  5
21DD
330
21DB
100
AcDbEntity
  8
0
100
AcDbBlockBegin
  2
GENAXEH
 70
     0
 10
0.0
 20
0.0
 30
0.0
  3
GENAXEH
  1

  0
LINE
  5
21DC
330
21DB
100
AcDbEntity
  8
0
100
AcDbLine
 10
-1.0
 20
0.0
 30
0.0
 11
1.0
 21
0.0
 31
0.0
  0
ENDBLK
  5
21DE
330
21DB
100
AcDbEntity
  8
0
100
AcDbBlockEnd
  0
BLOCK
  5
454C
330
4540
100
AcDbEntity
  8
0
100
AcDbBlockBegin
  2
*D2
 70
     1
 10
0.0
 20
0.0
 30
0.0
  3
*D2
  1

  0
LINE
  5
4799
330
4540
100
AcDbEntity
  8
DIM
100
AcDbLine
 10
103.1589685741097
 20
69.0536897298006
 30
0.0
 11
97.34964628617621
 21
69.0536897298006
 31
0.0
  0
LINE
  5
479A
330
4540
100
AcDbEntity
  8
DIM
100
AcDbLine
 10
108.3494431540749
 20
75.05368972980057
 30
0.0
 11
97.34964628617621
 21
75.05368972980057
 31
0.0
  0
LINE
  5
479B
330
4540
100
AcDbEntity
  8
DIM
100
AcDbLine
 10
98.84964628617622
 20
67.0536897298006
 30
0.0
 11
98.84964628617622
 21
65.05368972980059
 31
0.0
  0
LINE
  5
479C
330
4540
100
AcDbEntity
  8
DIM
100
AcDbLine
 10
98.84964628617622
 20
77.05368972980057
 30
0.0
 11
98.84964628617622
 21
79.05368972980056
 31
0.0
  0
LINE
  5
479D
330
4540
100
AcDbEntity
  8
DIM
100
AcDbLine
 10
98.84964628617622
 20
69.0536897298006
 30
0.0
 11
98.84964628617622
 21
75.05368972980057
 31
0.0
  0
SOLID
  5
479E
330
4540
100
AcDbEntity
  8
DIM
100
AcDbTrace
 10
98.51631295284288
 20
67.0536897298006
 30
0.0
 11
99.18297961950955
 21
67.0536897298006
 31
0.0
 12
98.84964628617622
 22
69.0536897298006
 32
0.0
 13
98.84964628617622
 23
69.0536897298006
 33
0.0
  0
SOLID
  5
479F
330
4540
100
AcDbEntity
  8
DIM
100
AcDbTrace
 10
98.51631295284288
 20
77.05368972980057
 30
0.0
 11
99.18297961950955
 21
77.05368972980057
 31
0.0
 12
98.84964628617622
 22
75.05368972980057
 32
0.0
 13
98.84964628617622
 23
75.05368972980057
 33
0.0
  0
MTEXT
  5
47A0
330
4540
100
AcDbEntity
  8
DIM
100
AcDbMText
 10
96.8496462861762
 20
72.0536897298006
 30
0.0
 40
2.0
 41
0.0
 71
     5
 72
     1
  1
\A1;6
  7
dayus
 11
0.0000000000000001
 21
1.0
 31
0.0
 73
     1
 44
1.0
1001
ACAD
1000
MTEXTBEGIN
1070
    73
1070
     1
1070
    44
1040
1.0
1070
    74
1070
     0
1000
MTEXTEND
  0
POINT
  5
47A1
330
4540
100
AcDbEntity
  8
Defpoints
 62
     0
100
AcDbPoint
 10
104.6589685741097
 20
69.0536897298006
 30
0.0
  0
POINT
  5
47A2
330
4540
100
AcDbEntity
  8
Defpoints
 62
     0
100
AcDbPoint
 10
109.8494431540749
 20
75.05368972980057
 30
0.0
  0
POINT
  5
47A3
330
4540
100
AcDbEntity
  8
Defpoints
 62
     0
100
AcDbPoint
 10
98.84964628617622
 20
75.05368972980057
 30
0.0
  0
ENDBLK
  5
454D
330
4540
100
AcDbEntity
  8
0
100
AcDbBlockEnd
  0
BLOCK
  5
455A
330
454E
100
AcDbEntity
  8
0
100
AcDbBlockBegin
  2
*D3
 70
     1
 10
0.0
 20
0.0
 30
0.0
  3
*D3
  1

  0
LINE
  5
47A4
330
454E
100
AcDbEntity
  8
DIM
100
AcDbLine
 10
190.7058684842149
 20
72.42451842318754
 30
0.0
 11
190.7058684842149
 21
87.72964401845259
 31
0.0
  0
LINE
  5
47A5
330
454E
100
AcDbEntity
  8
DIM
100
AcDbLine
 10
195.7058684842148
 20
72.42451842318768
 30
0.0
 11
195.7058684842148
 21
87.72964401845259
 31
0.0
  0
LINE
  5
47A6
330
454E
100
AcDbEntity
  8
DIM
100
AcDbLine
 10
188.7058684842149
 20
86.22964401845258
 30
0.0
 11
186.7058684842149
 21
86.22964401845258
 31
0.0
  0
LINE
  5
47A7
330
454E
100
AcDbEntity
  8
DIM
100
AcDbLine
 10
197.7058684842148
 20
86.22964401845258
 30
0.0
 11
199.7058684842148
 21
86.22964401845258
 31
0.0
  0
LINE
  5
47A8
330
454E
100
AcDbEntity
  8
DIM
100
AcDbLine
 10
190.7058684842149
 20
86.22964401845258
 30
0.0
 11
195.7058684842148
 21
86.22964401845258
 31
0.0
  0
SOLID
  5
47A9
330
454E
100
AcDbEntity
  8
DIM
100
AcDbTrace
 10
188.7058684842149
 20
86.56297735178592
 30
0.0
 11
188.7058684842149
 21
85.89631068511925
 31
0.0
 12
190.7058684842149
 22
86.22964401845258
 32
0.0
 13
190.7058684842149
 23
86.22964401845258
 33
0.0
  0
SOLID
  5
47AA
330
454E
100
AcDbEntity
  8
DIM
100
AcDbTrace
 10
197.7058684842148
 20
86.56297735178592
 30
0.0
 11
197.7058684842148
 21
85.89631068511925
 31
0.0
 12
195.7058684842148
 22
86.22964401845258
 32
0.0
 13
195.7058684842148
 23
86.22964401845258
 33
0.0
  0
MTEXT
  5
47AB
330
454E
100
AcDbEntity
  8
DIM
100
AcDbMText
 10
193.2058684842148
 20
88.22964401845259
 30
0.0
 40
2.0
 41
0.0
 71
     5
 72
     1
  1
\A1;5
  7
dayus
 73
     1
 44
1.0
1001
ACAD
1000
MTEXTBEGIN
1070
    73
1070
     1
1070
    44
1040
1.0
1070
    74
1070
     0
1000
MTEXTEND
  0
POINT
  5
47AC
330
454E
100
AcDbEntity
  8
Defpoints
 62
     0
100
AcDbPoint
 10
190.7058684842149
 20
70.92451842318753
 30
0.0
  0
POINT
  5
47AD
330
454E
100
AcDbEntity
  8
Defpoints
 62
     0
100
AcDbPoint
 10
195.7058684842148
 20
70.92451842318768
 30
0.0
  0
POINT
  5
47AE
330
454E
100
AcDbEntity
  8
Defpoints
 62
     0
100
AcDbPoint
 10
195.7058684842148
 20
86.22964401845258
 30
0.0
  0
ENDBLK
  5
455B
330
454E
100
AcDbEntity
  8
0
100
AcDbBlockEnd
  0
BLOCK
  5
4566
330
455C
100
AcDbEntity
  8
0
100
AcDbBlockBegin
  2
*D4
 70
     1
 10
0.0
 20
0.0
 30
0.0
  3
*D4
  1

  0
LINE
  5
47AF
330
455C
100
AcDbEntity
  8
DIM
100
AcDbLine
 10
185.0558684842152
 20
66.59420616824452
 30
0.0
 11
185.0558684842152
 21
93.22179676857421
 31
0.0
  0
LINE
  5
47B0
330
455C
100
AcDbEntity
  8
DIM
100
AcDbLine
 10
201.3558684842152
 20
82.2036897298005
 30
0.0
 11
201.3558684842152
 21
93.22179676857421
 31
0.0
  0
LINE
  5
47B1
330
455C
100
AcDbEntity
  8
DIM
100
AcDbLine
 10
187.0558684842151
 20
91.72179676857421
 30
0.0
 11
199.3558684842151
 21
91.72179676857421
 31
0.0
  0
SOLID
  5
47B2
330
455C
100
AcDbEntity
  8
DIM
100
AcDbTrace
 10
187.0558684842151
 20
92.05513010190754
 30
0.0
 11
187.0558684842151
 21
91.38846343524088
 31
0.0
 12
185.0558684842152
 22
91.72179676857421
 32
0.0
 13
185.0558684842152
 23
91.72179676857421
 33
0.0
  0
SOLID
  5
47B3
330
455C
100
AcDbEntity
  8
DIM
100
AcDbTrace
 10
199.3558684842151
 20
92.05513010190754
 30
0.0
 11
199.3558684842151
 21
91.38846343524088
 31
0.0
 12
201.3558684842152
 22
91.72179676857421
 32
0.0
 13
201.3558684842152
 23
91.72179676857421
 33
0.0
  0
MTEXT
  5
47B4
330
455C
100
AcDbEntity
  8
DIM
100
AcDbMText
 10
193.2058684842152
 20
93.7217967685742
 30
0.0
 40
2.0
 41
0.0
 71
     5
 72
     1
  1
\A1;□16.3
  7
dayus
 73
     1
 44
1.0
1001
ACAD
1000
MTEXTBEGIN
1070
    73
1070
     1
1070
    44
1040
1.0
1070
    74
1070
     0
1000
MTEXTEND
  0
POINT
  5
47B5
330
455C
100
AcDbEntity
  8
Defpoints
 62
     0
100
AcDbPoint
 10
185.0558684842152
 20
65.09420616824453
 30
0.0
  0
POINT
  5
47B6
330
455C
100
AcDbEntity
  8
Defpoints
 62
     0
100
AcDbPoint
 10
201.3558684842152
 20
80.7036897298005
 30
0.0
  0
POINT
  5
47B7
330
455C
100
AcDbEntity
  8
Defpoints
 62
     0
100
AcDbPoint
 10
201.3558684842152
 20
91.72179676857421
 30
0.0
  0
ENDBLK
  5
4567
330
455C
100
AcDbEntity
  8
0
100
AcDbBlockEnd
  0
BLOCK
  5
4572
330
4568
100
AcDbEntity
  8
0
100
AcDbBlockBegin
  2
*D5
 70
     1
 10
0.0
 20
0.0
 30
0.0
  3
*D5
  1

  0
LINE
  5
47B8
330
4568
100
AcDbEntity
  8
DIM
100
AcDbLine
 10
180.705868484215
 20
80.54118190751967
 30
0.0
 11
180.705868484215
 21
98.45387318660012
 31
0.0
  0
LINE
  5
47B9
330
4568
100
AcDbEntity
  8
DIM
100
AcDbLine
 10
205.7058684842151
 20
80.54118190751962
 30
0.0
 11
205.7058684842151
 21
98.45387318660012
 31
0.0
  0
LINE
  5
47BA
330
4568
100
AcDbEntity
  8
DIM
100
AcDbLine
 10
182.705868484215
 20
96.95387318660012
 30
0.0
 11
203.7058684842151
 21
96.95387318660012
 31
0.0
  0
SOLID
  5
47BB
330
4568
100
AcDbEntity
  8
DIM
100
AcDbTrace
 10
182.705868484215
 20
97.28720651993345
 30
0.0
 11
182.705868484215
 21
96.62053985326679
 31
0.0
 12
180.705868484215
 22
96.95387318660012
 32
0.0
 13
180.705868484215
 23
96.95387318660012
 33
0.0
  0
SOLID
  5
47BC
330
4568
100
AcDbEntity
  8
DIM
100
AcDbTrace
 10
203.7058684842151
 20
97.28720651993345
 30
0.0
 11
203.7058684842151
 21
96.62053985326679
 31
0.0
 12
205.7058684842151
 22
96.95387318660012
 32
0.0
 13
205.7058684842151
 23
96.95387318660012
 33
0.0
  0
MTEXT
  5
47BD
330
4568
100
AcDbEntity
  8
DIM
100
AcDbMText
 10
193.205868484215
 20
98.95387318660013
 30
0.0
 40
2.0
 41
0.0
 71
     5
 72
     1
  1
\A1;□25
  7
dayus
 73
     1
 44
1.0
1001
ACAD
1000
MTEXTBEGIN
1070
    73
1070
     1
1070
    44
1040
1.0
1070
    74
1070
     0
1000
MTEXTEND
  0
POINT
  5
47BE
330
4568
100
AcDbEntity
  8
Defpoints
 62
     0
100
AcDbPoint
 10
180.705868484215
 20
79.04118190751967
 30
0.0
  0
POINT
  5
47BF
330
4568
100
AcDbEntity
  8
Defpoints
 62
     0
100
AcDbPoint
 10
205.7058684842151
 20
79.04118190751963
 30
0.0
  0
POINT
  5
47C0
330
4568
100
AcDbEntity
  8
Defpoints
 62
     0
100
AcDbPoint
 10
205.7058684842151
 20
96.95387318660012
 30
0.0
  0
ENDBLK
  5
4573
330
4568
100
AcDbEntity
  8
0
100
AcDbBlockEnd
  0
BLOCK
  5
457E
330
4574
100
AcDbEntity
  8
0
100
AcDbBlockBegin
  2
*D6
 70
     1
 10
0.0
 20
0.0
 30
0.0
  3
*D6
  1

  0
LINE
  5
4BA5
330
4574
100
AcDbEntity
  8
DIM
100
AcDbLine
 10
106.3494431540752
 20
187.5680595357136
 30
0.0
 11
106.3494431540752
 21
192.2440138243656
 31
0.0
  0
LINE
  5
4BA6
330
4574
100
AcDbEntity
  8
DIM
100
AcDbLine
 10
112.8494431540751
 20
184.0680595357136
 30
0.0
 11
112.8494431540751
 21
192.2440138243656
 31
0.0
  0
LINE
  5
4BA7
330
4574
100
AcDbEntity
  8
DIM
100
AcDbLine
 10
108.3494431540752
 20
190.7440138243656
 30
0.0
 11
110.8494431540751
 21
190.7440138243656
 31
0.0
  0
SOLID
  5
4BA8
330
4574
100
AcDbEntity
  8
DIM
100
AcDbTrace
 10
108.3494431540752
 20
191.0773471576989
 30
0.0
 11
108.3494431540752
 21
190.4106804910322
 31
0.0
 12
106.3494431540752
 22
190.7440138243656
 32
0.0
 13
106.3494431540752
 23
190.7440138243656
 33
0.0
  0
SOLID
  5
4BA9
330
4574
100
AcDbEntity
  8
DIM
100
AcDbTrace
 10
110.8494431540751
 20
191.0773471576989
 30
0.0
 11
110.8494431540751
 21
190.4106804910322
 31
0.0
 12
112.8494431540751
 22
190.7440138243656
 32
0.0
 13
112.8494431540751
 23
190.7440138243656
 33
0.0
  0
MTEXT
  5
4BAA
330
4574
100
AcDbEntity
  8
DIM
100
AcDbMText
 10
109.5994431540751
 20
192.7440138243656
 30
0.0
 40
2.0
 41
0.0
 71
     5
 72
     1
  1
\A1;6.5
  7
dayus
 73
     1
 44
1.0
1001
ACAD
1000
MTEXTBEGIN
1070
    73
1070
     1
1070
    44
1040
1.0
1070
    74
1070
     0
1000
MTEXTEND
  0
POINT
  5
4BAB
330
4574
100
AcDbEntity
  8
Defpoints
 62
     0
100
AcDbPoint
 10
106.3494431540752
 20
186.0680595357136
 30
0.0
  0
POINT
  5
4BAC
330
4574
100
AcDbEntity
  8
Defpoints
 62
     0
100
AcDbPoint
 10
112.8494431540751
 20
182.5680595357136
 30
0.0
  0
POINT
  5
4BAD
330
4574
100
AcDbEntity
  8
Defpoints
 62
     0
100
AcDbPoint
 10
112.8494431540751
 20
190.7440138243656
 30
0.0
  0
ENDBLK
  5
457F
330
4574
100
AcDbEntity
  8
0
100
AcDbBlockEnd
  0
BLOCK
  5
458A
330
4580
100
AcDbEntity
  8
0
100
AcDbBlockBegin
  2
*D7
 70
     1
 10
0.0
 20
0.0
 30
0.0
  3
*D7
  1

  0
LINE
  5
4BC2
330
4580
100
AcDbEntity
  8
DIM
100
AcDbLine
 10
121.8494431540751
 20
184.0680595357136
 30
0.0
 11
121.8494431540751
 21
192.2440138243656
 31
0.0
  0
LINE
  5
4BC3
330
4580
100
AcDbEntity
  8
DIM
100
AcDbLine
 10
128.3494431540751
 20
187.5680595357136
 30
0.0
 11
128.3494431540751
 21
192.2440138243656
 31
0.0
  0
LINE
  5
4BC4
330
4580
100
AcDbEntity
  8
DIM
100
AcDbLine
 10
123.8494431540751
 20
190.7440138243656
 30
0.0
 11
126.3494431540751
 21
190.7440138243656
 31
0.0
  0
SOLID
  5
4BC5
330
4580
100
AcDbEntity
  8
DIM
100
AcDbTrace
 10
123.8494431540751
 20
191.0773471576989
 30
0.0
 11
123.8494431540751
 21
190.4106804910322
 31
0.0
 12
121.8494431540751
 22
190.7440138243656
 32
0.0
 13
121.8494431540751
 23
190.7440138243656
 33
0.0
  0
SOLID
  5
4BC6
330
4580
100
AcDbEntity
  8
DIM
100
AcDbTrace
 10
126.3494431540751
 20
191.0773471576989
 30
0.0
 11
126.3494431540751
 21
190.4106804910322
 31
0.0
 12
128.3494431540751
 22
190.7440138243656
 32
0.0
 13
128.3494431540751
 23
190.7440138243656
 33
0.0
  0
MTEXT
  5
4BC7
330
4580
100
AcDbEntity
  8
DIM
100
AcDbMText
 10
125.0994431540751
 20
192.7440138243656
 30
0.0
 40
2.0
 41
0.0
 71
     5
 72
     1
  1
\A1;6.5
  7
dayus
 73
     1
 44
1.0
1001
ACAD
1000
MTEXTBEGIN
1070
    73
1070
     1
1070
    44
1040
1.0
1070
    74
1070
     0
1000
MTEXTEND
  0
POINT
  5
4BC8
330
4580
100
AcDbEntity
  8
Defpoints
 62
     0
100
AcDbPoint
 10
121.8494431540751
 20
182.5680595357136
 30
0.0
  0
POINT
  5
4BC9
330
4580
100
AcDbEntity
  8
Defpoints
 62
     0
100
AcDbPoint
 10
128.3494431540751
 20
186.0680595357136
 30
0.0
  0
POINT
  5
4BCA
330
4580
100
AcDbEntity
  8
Defpoints
 62
     0
100
AcDbPoint
 10
128.3494431540751
 20
190.7440138243656
 30
0.0
  0
ENDBLK
  5
458B
330
4580
100
AcDbEntity
  8
0
100
AcDbBlockEnd
  0
BLOCK
  5
4598
330
458C
100
AcDbEntity
  8
0
100
AcDbBlockBegin
  2
*D8
 70
     1
 10
0.0
 20
0.0
 30
0.0
  3
*D8
  1

  0
LINE
  5
4B72
330
458C
100
AcDbEntity
  8
DIM
100
AcDbLine
 10
138.3494431540752
 20
178.8465426753317
 30
0.0
 11
138.3494431540752
 21
183.4707233289044
 31
0.0
  0
LINE
  5
4B73
330
458C
100
AcDbEntity
  8
DIM
100
AcDbLine
 10
142.3494431540752
 20
178.846542675331
 30
0.0
 11
142.3494431540752
 21
183.4707233289044
 31
0.0
  0
LINE
  5
4B74
330
458C
100
AcDbEntity
  8
DIM
100
AcDbLine
 10
136.3494431540752
 20
181.9707233289044
 30
0.0
 11
134.3494431540752
 21
181.9707233289044
 31
0.0
  0
LINE
  5
4B75
330
458C
100
AcDbEntity
  8
DIM
100
AcDbLine
 10
144.3494431540752
 20
181.9707233289044
 30
0.0
 11
146.3494431540752
 21
181.9707233289044
 31
0.0
  0
LINE
  5
4B76
330
458C
100
AcDbEntity
  8
DIM
100
AcDbLine
 10
138.3494431540752
 20
181.9707233289044
 30
0.0
 11
142.3494431540752
 21
181.9707233289044
 31
0.0
  0
SOLID
  5
4B77
330
458C
100
AcDbEntity
  8
DIM
100
AcDbTrace
 10
136.3494431540752
 20
182.3040566622378
 30
0.0
 11
136.3494431540752
 21
181.6373899955711
 31
0.0
 12
138.3494431540752
 22
181.9707233289044
 32
0.0
 13
138.3494431540752
 23
181.9707233289044
 33
0.0
  0
SOLID
  5
4B78
330
458C
100
AcDbEntity
  8
DIM
100
AcDbTrace
 10
144.3494431540752
 20
182.3040566622378
 30
0.0
 11
144.3494431540752
 21
181.6373899955711
 31
0.0
 12
142.3494431540752
 22
181.9707233289044
 32
0.0
 13
142.3494431540752
 23
181.9707233289044
 33
0.0
  0
MTEXT
  5
4B79
330
458C
100
AcDbEntity
  8
DIM
100
AcDbMText
 10
140.3494431540752
 20
183.9707233289044
 30
0.0
 40
2.0
 41
0.0
 71
     5
 72
     1
  1
\A1;4
  7
dayus
 73
     1
 44
1.0
1001
ACAD
1000
MTEXTBEGIN
1070
    73
1070
     1
1070
    44
1040
1.0
1070
    74
1070
     0
1000
MTEXTEND
  0
POINT
  5
4B7A
330
458C
100
AcDbEntity
  8
Defpoints
 62
     0
100
AcDbPoint
 10
138.3494431540752
 20
177.3465426753317
 30
0.0
  0
POINT
  5
4B7B
330
458C
100
AcDbEntity
  8
Defpoints
 62
     0
100
AcDbPoint
 10
142.3494431540752
 20
177.346542675331
 30
0.0
  0
POINT
  5
4B7C
330
458C
100
AcDbEntity
  8
Defpoints
 62
     0
100
AcDbPoint
 10
142.3494431540752
 20
181.9707233289044
 30
0.0
  0
ENDBLK
  5
4599
330
458C
100
AcDbEntity
  8
0
100
AcDbBlockEnd
  0
BLOCK
  5
45A4
330
459A
100
AcDbEntity
  8
0
100
AcDbBlockBegin
  2
*D9
 70
     1
 10
0.0
 20
0.0
 30
0.0
  3
*D9
  1

  0
LINE
  5
4B69
330
459A
100
AcDbEntity
  8
DIM
100
AcDbLine
 10
135.3494431540751
 20
177.5680595357136
 30
0.0
 11
135.3494431540751
 21
187.7361504711222
 31
0.0
  0
LINE
  5
4B6A
330
459A
100
AcDbEntity
  8
DIM
100
AcDbLine
 10
145.3494431540751
 20
177.0680595357136
 30
0.0
 11
145.3494431540751
 21
187.7361504711222
 31
0.0
  0
LINE
  5
4B6B
330
459A
100
AcDbEntity
  8
DIM
100
AcDbLine
 10
137.3494431540751
 20
186.2361504711222
 30
0.0
 11
143.3494431540751
 21
186.2361504711222
 31
0.0
  0
SOLID
  5
4B6C
330
459A
100
AcDbEntity
  8
DIM
100
AcDbTrace
 10
137.3494431540751
 20
186.5694838044556
 30
0.0
 11
137.3494431540751
 21
185.9028171377889
 31
0.0
 12
135.3494431540751
 22
186.2361504711222
 32
0.0
 13
135.3494431540751
 23
186.2361504711222
 33
0.0
  0
SOLID
  5
4B6D
330
459A
100
AcDbEntity
  8
DIM
100
AcDbTrace
 10
143.3494431540751
 20
186.5694838044556
 30
0.0
 11
143.3494431540751
 21
185.9028171377889
 31
0.0
 12
145.3494431540751
 22
186.2361504711222
 32
0.0
 13
145.3494431540751
 23
186.2361504711222
 33
0.0
  0
MTEXT
  5
4B6E
330
459A
100
AcDbEntity
  8
DIM
100
AcDbMText
 10
140.3494431540751
 20
188.2361504711222
 30
0.0
 40
2.0
 41
0.0
 71
     5
 72
     1
  1
\A1;10
  7
dayus
 73
     1
 44
1.0
1001
ACAD
1000
MTEXTBEGIN
1070
    73
1070
     1
1070
    44
1040
1.0
1070
    74
1070
     0
1000
MTEXTEND
  0
POINT
  5
4B6F
330
459A
100
AcDbEntity
  8
Defpoints
 62
     0
100
AcDbPoint
 10
135.3494431540751
 20
176.0680595357136
 30
0.0
  0
POINT
  5
4B70
330
459A
100
AcDbEntity
  8
Defpoints
 62
     0
100
AcDbPoint
 10
145.3494431540751
 20
175.5680595357136
 30
0.0
  0
POINT
  5
4B71
330
459A
100
AcDbEntity
  8
Defpoints
 62
     0
100
AcDbPoint
 10
145.3494431540751
 20
186.2361504711222
 30
0.0
  0
ENDBLK
  5
45A5
330
459A
100
AcDbEntity
  8
0
100
AcDbBlockEnd
  0
BLOCK
  5
45B0
330
45A6
100
AcDbEntity
  8
0
100
AcDbBlockBegin
  2
*D10
 70
     1
 10
0.0
 20
0.0
 30
0.0
  3
*D10
  1

  0
LINE
  5
4B60
330
45A6
100
AcDbEntity
  8
DIM
100
AcDbLine
 10
133.3494431540751
 20
177.5680595357136
 30
0.0
 11
133.3494431540751
 21
192.2440138243656
 31
0.0
  0
LINE
  5
4B61
330
45A6
100
AcDbEntity
  8
DIM
100
AcDbLine
 10
145.3494431540751
 20
177.0680595357136
 30
0.0
 11
145.3494431540751
 21
192.2440138243656
 31
0.0
  0
LINE
  5
4B62
330
45A6
100
AcDbEntity
  8
DIM
100
AcDbLine
 10
135.3494431540751
 20
190.7440138243656
 30
0.0
 11
143.3494431540751
 21
190.7440138243656
 31
0.0
  0
SOLID
  5
4B63
330
45A6
100
AcDbEntity
  8
DIM
100
AcDbTrace
 10
135.3494431540751
 20
191.0773471576989
 30
0.0
 11
135.3494431540751
 21
190.4106804910322
 31
0.0
 12
133.3494431540751
 22
190.7440138243656
 32
0.0
 13
133.3494431540751
 23
190.7440138243656
 33
0.0
  0
SOLID
  5
4B64
330
45A6
100
AcDbEntity
  8
DIM
100
AcDbTrace
 10
143.3494431540751
 20
191.0773471576989
 30
0.0
 11
143.3494431540751
 21
190.4106804910322
 31
0.0
 12
145.3494431540751
 22
190.7440138243656
 32
0.0
 13
145.3494431540751
 23
190.7440138243656
 33
0.0
  0
MTEXT
  5
4B65
330
45A6
100
AcDbEntity
  8
DIM
100
AcDbMText
 10
139.3494431540751
 20
192.7440138243656
 30
0.0
 40
2.0
 41
0.0
 71
     5
 72
     1
  1
\A1;12
  7
dayus
 73
     1
 44
1.0
1001
ACAD
1000
MTEXTBEGIN
1070
    73
1070
     1
1070
    44
1040
1.0
1070
    74
1070
     0
1000
MTEXTEND
  0
POINT
  5
4B66
330
45A6
100
AcDbEntity
  8
Defpoints
 62
     0
100
AcDbPoint
 10
133.3494431540751
 20
176.0680595357136
 30
0.0
  0
POINT
  5
4B67
330
45A6
100
AcDbEntity
  8
Defpoints
 62
     0
100
AcDbPoint
 10
145.3494431540751
 20
175.5680595357136
 30
0.0
  0
POINT
  5
4B68
330
45A6
100
AcDbEntity
  8
Defpoints
 62
     0
100
AcDbPoint
 10
145.3494431540751
 20
190.7440138243656
 30
0.0
  0
ENDBLK
  5
45B1
330
45A6
100
AcDbEntity
  8
0
100
AcDbBlockEnd
  0
BLOCK
  5
45BC
330
45B2
100
AcDbEntity
  8
0
100
AcDbBlockBegin
  2
*D11
 70
     1
 10
0.0
 20
0.0
 30
0.0
  3
*D11
  1

  0
LINE
  5
4B57
330
45B2
100
AcDbEntity
  8
DIM
100
AcDbLine
 10
128.3494431540751
 20
187.5680595357136
 30
0.0
 11
128.3494431540751
 21
202.9682429925131
 31
0.0
  0
LINE
  5
4B58
330
45B2
100
AcDbEntity
  8
DIM
100
AcDbLine
 10
145.3494431540751
 20
177.0680595357136
 30
0.0
 11
145.3494431540751
 21
202.9682429925131
 31
0.0
  0
LINE
  5
4B59
330
45B2
100
AcDbEntity
  8
DIM
100
AcDbLine
 10
130.3494431540751
 20
201.4682429925131
 30
0.0
 11
143.3494431540751
 21
201.4682429925131
 31
0.0
  0
SOLID
  5
4B5A
330
45B2
100
AcDbEntity
  8
DIM
100
AcDbTrace
 10
130.3494431540751
 20
201.8015763258464
 30
0.0
 11
130.3494431540751
 21
201.1349096591798
 31
0.0
 12
128.3494431540751
 22
201.4682429925131
 32
0.0
 13
128.3494431540751
 23
201.4682429925131
 33
0.0
  0
SOLID
  5
4B5B
330
45B2
100
AcDbEntity
  8
DIM
100
AcDbTrace
 10
143.3494431540751
 20
201.8015763258464
 30
0.0
 11
143.3494431540751
 21
201.1349096591798
 31
0.0
 12
145.3494431540751
 22
201.4682429925131
 32
0.0
 13
145.3494431540751
 23
201.4682429925131
 33
0.0
  0
MTEXT
  5
4B5C
330
45B2
100
AcDbEntity
  8
DIM
100
AcDbMText
 10
136.8494431540751
 20
203.4682429925131
 30
0.0
 40
2.0
 41
0.0
 71
     5
 72
     1
  1
\A1;17
  7
dayus
 73
     1
 44
1.0
1001
ACAD
1000
MTEXTBEGIN
1070
    73
1070
     1
1070
    44
1040
1.0
1070
    74
1070
     0
1000
MTEXTEND
  0
POINT
  5
4B5D
330
45B2
100
AcDbEntity
  8
Defpoints
 62
     0
100
AcDbPoint
 10
128.3494431540751
 20
186.0680595357136
 30
0.0
  0
POINT
  5
4B5E
330
45B2
100
AcDbEntity
  8
Defpoints
 62
     0
100
AcDbPoint
 10
145.3494431540751
 20
175.5680595357136
 30
0.0
  0
POINT
  5
4B5F
330
45B2
100
AcDbEntity
  8
Defpoints
 62
     0
100
AcDbPoint
 10
145.3494431540751
 20
201.4682429925131
 30
0.0
  0
ENDBLK
  5
45BD
330
45B2
100
AcDbEntity
  8
0
100
AcDbBlockEnd
  0
BLOCK
  5
45C8
330
45BE
100
AcDbEntity
  8
0
100
AcDbBlockBegin
  2
*D12
 70
     1
 10
0.0
 20
0.0
 30
0.0
  3
*D12
  1

  0
LINE
  5
4D6D
330
45BE
100
AcDbEntity
  8
DIM
100
AcDbLine
 10
106.3494431540752
 20
187.5680595357136
 30
0.0
 11
106.3494431540752
 21
202.9682429925131
 31
0.0
  0
LINE
  5
4D6E
330
45BE
100
AcDbEntity
  8
DIM
100
AcDbLine
 10
128.3494431540751
 20
187.5680595357136
 30
0.0
 11
128.3494431540751
 21
202.9682429925131
 31
0.0
  0
LINE
  5
4D6F
330
45BE
100
AcDbEntity
  8
DIM
100
AcDbLine
 10
108.3494431540752
 20
201.4682429925131
 30
0.0
 11
126.3494431540751
 21
201.4682429925131
 31
0.0
  0
SOLID
  5
4D70
330
45BE
100
AcDbEntity
  8
DIM
100
AcDbTrace
 10
108.3494431540752
 20
201.8015763258464
 30
0.0
 11
108.3494431540752
 21
201.1349096591798
 31
0.0
 12
106.3494431540752
 22
201.4682429925131
 32
0.0
 13
106.3494431540752
 23
201.4682429925131
 33
0.0
  0
SOLID
  5
4D71
330
45BE
100
AcDbEntity
  8
DIM
100
AcDbTrace
 10
126.3494431540751
 20
201.8015763258464
 30
0.0
 11
126.3494431540751
 21
201.1349096591798
 31
0.0
 12
128.3494431540751
 22
201.4682429925131
 32
0.0
 13
128.3494431540751
 23
201.4682429925131
 33
0.0
  0
MTEXT
  5
4D72
330
45BE
100
AcDbEntity
  8
DIM
100
AcDbMText
 10
117.3494431540752
 20
203.4682429925131
 30
0.0
 40
2.0
 41
0.0
 71
     5
 72
     1
  1
\A1;17+stroke=S
  7
dayus
 73
     1
 44
1.0
1001
ACAD
1000
MTEXTBEGIN
1070
    73
1070
     1
1070
    44
1040
1.0
1070
    74
1070
     0
1000
MTEXTEND
  0
POINT
  5
4D73
330
45BE
100
AcDbEntity
  8
Defpoints
 62
     0
100
AcDbPoint
 10
106.3494431540752
 20
186.0680595357136
 30
0.0
  0
POINT
  5
4D74
330
45BE
100
AcDbEntity
  8
Defpoints
 62
     0
100
AcDbPoint
 10
128.3494431540751
 20
186.0680595357136
 30
0.0
  0
POINT
  5
4D75
330
45BE
100
AcDbEntity
  8
Defpoints
 62
     0
100
AcDbPoint
 10
128.3494431540751
 20
201.4682429925131
 30
0.0
  0
ENDBLK
  5
45C9
330
45BE
100
AcDbEntity
  8
0
100
AcDbBlockEnd
  0
BLOCK
  5
45D4
330
45CA
100
AcDbEntity
  8
0
100
AcDbBlockBegin
  2
*D13
 70
     1
 10
0.0
 20
0.0
 30
0.0
  3
*D13
  1

  0
LINE
  5
4D4D
330
45CA
100
AcDbEntity
  8
DIM
100
AcDbLine
 10
106.3494431540752
 20
187.5680595357136
 30
0.0
 11
106.3494431540752
 21
208.6245691044681
 31
0.0
  0
LINE
  5
4D4E
330
45CA
100
AcDbEntity
  8
DIM
100
AcDbLine
 10
145.3494431540751
 20
177.0680595357136
 30
0.0
 11
145.3494431540751
 21
208.6245691044681
 31
0.0
  0
LINE
  5
4D4F
330
45CA
100
AcDbEntity
  8
DIM
100
AcDbLine
 10
108.3494431540752
 20
207.1245691044682
 30
0.0
 11
143.3494431540751
 21
207.1245691044682
 31
0.0
  0
SOLID
  5
4D50
330
45CA
100
AcDbEntity
  8
DIM
100
AcDbTrace
 10
108.3494431540752
 20
207.4579024378015
 30
0.0
 11
108.3494431540752
 21
206.7912357711348
 31
0.0
 12
106.3494431540752
 22
207.1245691044682
 32
0.0
 13
106.3494431540752
 23
207.1245691044682
 33
0.0
  0
SOLID
  5
4D51
330
45CA
100
AcDbEntity
  8
DIM
100
AcDbTrace
 10
143.3494431540751
 20
207.4579024378015
 30
0.0
 11
143.3494431540751
 21
206.7912357711348
 31
0.0
 12
145.3494431540751
 22
207.1245691044682
 32
0.0
 13
145.3494431540751
 23
207.1245691044682
 33
0.0
  0
MTEXT
  5
4D52
330
45CA
100
AcDbEntity
  8
DIM
100
AcDbMText
 10
125.8494431540752
 20
209.1245691044682
 30
0.0
 40
2.0
 41
0.0
 71
     5
 72
     1
  1
\A1;34+stroke=ZZ
  7
dayus
 73
     1
 44
1.0
1001
ACAD
1000
MTEXTBEGIN
1070
    73
1070
     1
1070
    44
1040
1.0
1070
    74
1070
     0
1000
MTEXTEND
  0
POINT
  5
4D53
330
45CA
100
AcDbEntity
  8
Defpoints
 62
     0
100
AcDbPoint
 10
106.3494431540752
 20
186.0680595357136
 30
0.0
  0
POINT
  5
4D54
330
45CA
100
AcDbEntity
  8
Defpoints
 62
     0
100
AcDbPoint
 10
145.3494431540751
 20
175.5680595357136
 30
0.0
  0
POINT
  5
4D55
330
45CA
100
AcDbEntity
  8
Defpoints
 62
     0
100
AcDbPoint
 10
145.3494431540751
 20
207.1245691044682
 30
0.0
  0
ENDBLK
  5
45D5
330
45CA
100
AcDbEntity
  8
0
100
AcDbBlockEnd
  0
BLOCK
  5
45E2
330
45D6
100
AcDbEntity
  8
0
100
AcDbBlockBegin
  2
*D14
 70
     1
 10
0.0
 20
0.0
 30
0.0
  3
*D14
  1

  0
LINE
  5
4BAE
330
45D6
100
AcDbEntity
  8
DIM
100
AcDbLine
 10
128.3494431540751
 20
187.5680595357136
 30
0.0
 11
128.3494431540751
 21
197.7361665744872
 31
0.0
  0
LINE
  5
4BAF
330
45D6
100
AcDbEntity
  8
DIM
100
AcDbLine
 10
129.349443154075
 20
180.5680595357136
 30
0.0
 11
129.349443154075
 21
197.7361665744872
 31
0.0
  0
LINE
  5
4BB0
330
45D6
100
AcDbEntity
  8
DIM
100
AcDbLine
 10
126.3494431540751
 20
196.2361665744872
 30
0.0
 11
124.3494431540751
 21
196.2361665744872
 31
0.0
  0
LINE
  5
4BB1
330
45D6
100
AcDbEntity
  8
DIM
100
AcDbLine
 10
131.349443154075
 20
196.2361665744872
 30
0.0
 11
135.8256336302655
 21
196.2361665744872
 31
0.0
  0
LINE
  5
4BB2
330
45D6
100
AcDbEntity
  8
DIM
100
AcDbLine
 10
128.3494431540751
 20
196.2361665744872
 30
0.0
 11
129.349443154075
 21
196.2361665744872
 31
0.0
  0
SOLID
  5
4BB3
330
45D6
100
AcDbEntity
  8
DIM
100
AcDbTrace
 10
126.3494431540751
 20
196.5694999078205
 30
0.0
 11
126.3494431540751
 21
195.9028332411538
 31
0.0
 12
128.3494431540751
 22
196.2361665744872
 32
0.0
 13
128.3494431540751
 23
196.2361665744872
 33
0.0
  0
SOLID
  5
4BB4
330
45D6
100
AcDbEntity
  8
DIM
100
AcDbTrace
 10
131.349443154075
 20
196.5694999078205
 30
0.0
 11
131.349443154075
 21
195.9028332411538
 31
0.0
 12
129.349443154075
 22
196.2361665744872
 32
0.0
 13
129.349443154075
 23
196.2361665744872
 33
0.0
  0
MTEXT
  5
4BB5
330
45D6
100
AcDbEntity
  8
DIM
100
AcDbMText
 10
134.5875383921702
 20
198.2361665744872
 30
0.0
 40
2.0
 41
0.0
 71
     5
 72
     1
  1
\A1;1
  7
dayus
 73
     1
 44
1.0
1001
ACAD
1000
MTEXTBEGIN
1070
    73
1070
     1
1070
    44
1040
1.0
1070
    74
1070
     0
1000
MTEXTEND
  0
POINT
  5
4BB6
330
45D6
100
AcDbEntity
  8
Defpoints
 62
     0
100
AcDbPoint
 10
128.3494431540751
 20
186.0680595357136
 30
0.0
  0
POINT
  5
4BB7
330
45D6
100
AcDbEntity
  8
Defpoints
 62
     0
100
AcDbPoint
 10
129.349443154075
 20
179.0680595357136
 30
0.0
  0
POINT
  5
4BB8
330
45D6
100
AcDbEntity
  8
Defpoints
 62
     0
100
AcDbPoint
 10
129.349443154075
 20
196.2361665744872
 30
0.0
  0
ENDBLK
  5
45E3
330
45D6
100
AcDbEntity
  8
0
100
AcDbBlockEnd
  0
BLOCK
  5
45F0
330
45E4
100
AcDbEntity
  8
0
100
AcDbBlockBegin
  2
*D15
 70
     1
 10
0.0
 20
0.0
 30
0.0
  3
*D15
  1

  0
LINE
  5
4B7D
330
45E4
100
AcDbEntity
  8
DIM
100
AcDbLine
 10
102.4220086615958
 20
173.5680595357136
 30
0.0
 11
97.34964628617644
 21
173.5680595357136
 31
0.0
  0
LINE
  5
4B7E
330
45E4
100
AcDbEntity
  8
DIM
100
AcDbLine
 10
108.3494431540751
 20
179.5680595357136
 30
0.0
 11
97.34964628617644
 21
179.5680595357136
 31
0.0
  0
LINE
  5
4B7F
330
45E4
100
AcDbEntity
  8
DIM
100
AcDbLine
 10
98.84964628617645
 20
171.5680595357136
 30
0.0
 11
98.84964628617645
 21
169.5680595357136
 31
0.0
  0
LINE
  5
4B80
330
45E4
100
AcDbEntity
  8
DIM
100
AcDbLine
 10
98.84964628617645
 20
181.5680595357136
 30
0.0
 11
98.84964628617645
 21
183.5680595357136
 31
0.0
  0
LINE
  5
4B81
330
45E4
100
AcDbEntity
  8
DIM
100
AcDbLine
 10
98.84964628617645
 20
173.5680595357136
 30
0.0
 11
98.84964628617645
 21
179.5680595357136
 31
0.0
  0
SOLID
  5
4B82
330
45E4
100
AcDbEntity
  8
DIM
100
AcDbTrace
 10
98.51631295284311
 20
171.5680595357136
 30
0.0
 11
99.18297961950976
 21
171.5680595357136
 31
0.0
 12
98.84964628617645
 22
173.5680595357136
 32
0.0
 13
98.84964628617645
 23
173.5680595357136
 33
0.0
  0
SOLID
  5
4B83
330
45E4
100
AcDbEntity
  8
DIM
100
AcDbTrace
 10
98.51631295284311
 20
181.5680595357136
 30
0.0
 11
99.18297961950976
 21
181.5680595357136
 31
0.0
 12
98.84964628617645
 22
179.5680595357136
 32
0.0
 13
98.84964628617645
 23
179.5680595357136
 33
0.0
  0
MTEXT
  5
4B84
330
45E4
100
AcDbEntity
  8
DIM
100
AcDbMText
 10
96.84964628617642
 20
176.5680595357136
 30
0.0
 40
2.0
 41
0.0
 71
     5
 72
     1
  1
\A1;6
  7
dayus
 11
0.0000000000000001
 21
1.0
 31
0.0
 73
     1
 44
1.0
1001
ACAD
1000
MTEXTBEGIN
1070
    73
1070
     1
1070
    44
1040
1.0
1070
    74
1070
     0
1000
MTEXTEND
  0
POINT
  5
4B85
330
45E4
100
AcDbEntity
  8
Defpoints
 62
     0
100
AcDbPoint
 10
103.9220086615958
 20
173.5680595357136
 30
0.0
  0
POINT
  5
4B86
330
45E4
100
AcDbEntity
  8
Defpoints
 62
     0
100
AcDbPoint
 10
109.8494431540751
 20
179.5680595357136
 30
0.0
  0
POINT
  5
4B87
330
45E4
100
AcDbEntity
  8
Defpoints
 62
     0
100
AcDbPoint
 10
98.84964628617645
 20
179.5680595357136
 30
0.0
  0
ENDBLK
  5
45F1
330
45E4
100
AcDbEntity
  8
0
100
AcDbBlockEnd
  0
BLOCK
  5
45FE
330
45F2
100
AcDbEntity
  8
0
100
AcDbBlockBegin
  2
*D16
 70
     1
 10
0.0
 20
0.0
 30
0.0
  3
*D16
  1

  0
LINE
  5
4B88
330
45F2
100
AcDbEntity
  8
DIM
100
AcDbLine
 10
130.3494431540752
 20
170.4097471405357
 30
0.0
 11
130.3494431540752
 21
157.8140046935662
 31
0.0
  0
LINE
  5
4B89
330
45F2
100
AcDbEntity
  8
DIM
100
AcDbLine
 10
133.3494431540751
 20
169.5680595357135
 30
0.0
 11
133.3494431540751
 21
157.8140046935662
 31
0.0
  0
LINE
  5
4B8A
330
45F2
100
AcDbEntity
  8
DIM
100
AcDbLine
 10
128.3494431540752
 20
159.3140046935662
 30
0.0
 11
126.3494431540752
 21
159.3140046935662
 31
0.0
  0
LINE
  5
4B8B
330
45F2
100
AcDbEntity
  8
DIM
100
AcDbLine
 10
135.3494431540751
 20
159.3140046935662
 30
0.0
 11
137.3494431540751
 21
159.3140046935662
 31
0.0
  0
LINE
  5
4B8C
330
45F2
100
AcDbEntity
  8
DIM
100
AcDbLine
 10
130.3494431540752
 20
159.3140046935662
 30
0.0
 11
133.3494431540751
 21
159.3140046935662
 31
0.0
  0
SOLID
  5
4B8D
330
45F2
100
AcDbEntity
  8
DIM
100
AcDbTrace
 10
128.3494431540752
 20
159.6473380268995
 30
0.0
 11
128.3494431540752
 21
158.9806713602328
 31
0.0
 12
130.3494431540752
 22
159.3140046935662
 32
0.0
 13
130.3494431540752
 23
159.3140046935662
 33
0.0
  0
SOLID
  5
4B8E
330
45F2
100
AcDbEntity
  8
DIM
100
AcDbTrace
 10
135.3494431540751
 20
159.6473380268995
 30
0.0
 11
135.3494431540751
 21
158.9806713602328
 31
0.0
 12
133.3494431540751
 22
159.3140046935662
 32
0.0
 13
133.3494431540751
 23
159.3140046935662
 33
0.0
  0
MTEXT
  5
4B8F
330
45F2
100
AcDbEntity
  8
DIM
100
AcDbMText
 10
131.8494431540752
 20
161.3140046935662
 30
0.0
 40
2.0
 41
0.0
 71
     5
 72
     1
  1
\A1;3
  7
dayus
 73
     1
 44
1.0
1001
ACAD
1000
MTEXTBEGIN
1070
    73
1070
     1
1070
    44
1040
1.0
1070
    74
1070
     0
1000
MTEXTEND
  0
POINT
  5
4B90
330
45F2
100
AcDbEntity
  8
Defpoints
 62
     0
100
AcDbPoint
 10
130.3494431540752
 20
171.9097471405357
 30
0.0
  0
POINT
  5
4B91
330
45F2
100
AcDbEntity
  8
Defpoints
 62
     0
100
AcDbPoint
 10
133.3494431540751
 20
171.0680595357135
 30
0.0
  0
POINT
  5
4B92
330
45F2
100
AcDbEntity
  8
Defpoints
 62
     0
100
AcDbPoint
 10
133.3494431540751
 20
159.3140046935662
 30
0.0
  0
ENDBLK
  5
45FF
330
45F2
100
AcDbEntity
  8
0
100
AcDbBlockEnd
  0
BLOCK
  5
460C
330
4600
100
AcDbEntity
  8
0
100
AcDbBlockBegin
  2
*D17
 70
     1
 10
0.0
 20
0.0
 30
0.0
  3
*D17
  1

  0
LINE
  5
4B43
330
4600
100
AcDbEntity
  8
DIM
100
AcDbLine
 10
131.3494431540751
 20
170.5680595357136
 30
0.0
 11
153.7799444573179
 21
170.5680595357136
 31
0.0
  0
LINE
  5
4B44
330
4600
100
AcDbEntity
  8
DIM
100
AcDbLine
 10
131.349443154075
 20
176.5680595357136
 30
0.0
 11
153.7799444573179
 21
176.5680595357136
 31
0.0
  0
LINE
  5
4B45
330
4600
100
AcDbEntity
  8
DIM
100
AcDbLine
 10
152.279944457318
 20
168.5680595357136
 30
0.0
 11
152.279944457318
 21
166.5680595357136
 31
0.0
  0
LINE
  5
4B46
330
4600
100
AcDbEntity
  8
DIM
100
AcDbLine
 10
152.279944457318
 20
178.5680595357136
 30
0.0
 11
152.279944457318
 21
180.5680595357136
 31
0.0
  0
LINE
  5
4B47
330
4600
100
AcDbEntity
  8
DIM
100
AcDbLine
 10
152.279944457318
 20
170.5680595357136
 30
0.0
 11
152.279944457318
 21
176.5680595357136
 31
0.0
  0
SOLID
  5
4B48
330
4600
100
AcDbEntity
  8
DIM
100
AcDbTrace
 10
151.9466111239846
 20
168.5680595357136
 30
0.0
 11
152.6132777906513
 21
168.5680595357136
 31
0.0
 12
152.279944457318
 22
170.5680595357136
 32
0.0
 13
152.279944457318
 23
170.5680595357136
 33
0.0
  0
SOLID
  5
4B49
330
4600
100
AcDbEntity
  8
DIM
100
AcDbTrace
 10
151.9466111239846
 20
178.5680595357136
 30
0.0
 11
152.6132777906513
 21
178.5680595357136
 31
0.0
 12
152.279944457318
 22
176.5680595357136
 32
0.0
 13
152.279944457318
 23
176.5680595357136
 33
0.0
  0
MTEXT
  5
4B4A
330
4600
100
AcDbEntity
  8
DIM
100
AcDbMText
 10
150.2799444573179
 20
173.5680595357136
 30
0.0
 40
2.0
 41
0.0
 71
     5
 72
     1
  1
\A1;%%c6
  7
dayus
 11
0.0000000000000001
 21
1.0
 31
0.0
 73
     1
 44
1.0
1001
ACAD
1000
MTEXTBEGIN
1070
    73
1070
     1
1070
    44
1040
1.0
1070
    74
1070
     0
1000
MTEXTEND
  0
POINT
  5
4B4B
330
4600
100
AcDbEntity
  8
Defpoints
 62
     0
100
AcDbPoint
 10
129.8494431540751
 20
170.5680595357136
 30
0.0
  0
POINT
  5
4B4C
330
4600
100
AcDbEntity
  8
Defpoints
 62
     0
100
AcDbPoint
 10
129.849443154075
 20
176.5680595357136
 30
0.0
  0
POINT
  5
4B4D
330
4600
100
AcDbEntity
  8
Defpoints
 62
     0
100
AcDbPoint
 10
152.279944457318
 20
176.5680595357136
 30
0.0
  0
ENDBLK
  5
460D
330
4600
100
AcDbEntity
  8
0
100
AcDbBlockEnd
  0
BLOCK
  5
4619
330
460E
100
AcDbEntity
  8
0
100
AcDbBlockBegin
  2
*D18
 70
     1
 10
0.0
 20
0.0
 30
0.0
  3
*D18
  1

  0
LINE
  5
4B39
330
460E
100
AcDbEntity
  8
DIM
100
AcDbLine
 10
130.8494431540751
 20
168.0680595357136
 30
0.0
 11
159.978928264978
 21
168.0680595357136
 31
0.0
  0
LINE
  5
4B3A
330
460E
100
AcDbEntity
  8
DIM
100
AcDbLine
 10
130.849443154075
 20
179.0680595357136
 30
0.0
 11
159.978928264978
 21
179.0680595357136
 31
0.0
  0
LINE
  5
4B3B
330
460E
100
AcDbEntity
  8
DIM
100
AcDbLine
 10
158.478928264978
 20
170.0680595357136
 30
0.0
 11
158.478928264978
 21
177.0680595357136
 31
0.0
  0
LINE
  5
4B3C
330
460E
100
AcDbEntity
  8
DIM
100
AcDbLine
 10
158.478928264978
 20
179.0680595357136
 30
0.0
 11
158.4789282649781
 21
194.0109166785708
 31
0.0
  0
SOLID
  5
4B3D
330
460E
100
AcDbEntity
  8
DIM
100
AcDbTrace
 10
158.1455949316447
 20
170.0680595357136
 30
0.0
 11
158.8122615983114
 21
170.0680595357136
 31
0.0
 12
158.478928264978
 22
168.0680595357136
 32
0.0
 13
158.478928264978
 23
168.0680595357136
 33
0.0
  0
SOLID
  5
4B3E
330
460E
100
AcDbEntity
  8
DIM
100
AcDbTrace
 10
158.1455949316447
 20
177.0680595357136
 30
0.0
 11
158.8122615983114
 21
177.0680595357136
 31
0.0
 12
158.478928264978
 22
179.0680595357136
 32
0.0
 13
158.478928264978
 23
179.0680595357136
 33
0.0
  0
MTEXT
  5
4B3F
330
460E
100
AcDbEntity
  8
DIM
100
AcDbMText
 10
155.8222615983114
 20
187.5394881071422
 30
0.0
 40
2.0
 41
0.0
 71
     5
 72
     1
  1
\A1;%%c11{}{\H0.71x;\C3;\S 0^ -0.05;}
  7
dayus
 11
0.0000000000000001
 21
1.0
 31
0.0
 73
     1
 44
1.0
1001
ACAD
1000
MTEXTBEGIN
1070
    73
1070
     1
1070
    44
1040
1.0
1070
    74
1070
     0
1000
MTEXTEND
  0
POINT
  5
4B40
330
460E
100
AcDbEntity
  8
Defpoints
 62
     0
100
AcDbPoint
 10
129.3494431540751
 20
168.0680595357136
 30
0.0
  0
POINT
  5
4B41
330
460E
100
AcDbEntity
  8
Defpoints
 62
     0
100
AcDbPoint
 10
129.349443154075
 20
179.0680595357136
 30
0.0
  0
POINT
  5
4B42
330
460E
100
AcDbEntity
  8
Defpoints
 62
     0
100
AcDbPoint
 10
158.478928264978
 20
179.0680595357136
 30
0.0
  0
ENDBLK
  5
461A
330
460E
100
AcDbEntity
  8
0
100
AcDbBlockEnd
  0
BLOCK
  5
4627
330
461B
100
AcDbEntity
  8
0
100
AcDbBlockBegin
  2
*D19
 70
     1
 10
0.0
 20
0.0
 30
0.0
  3
*D19
  1

  0
LINE
  5
4C01
330
461B
100
AcDbEntity
  8
DIM
100
AcDbLine
 10
190.7058684842148
 20
176.9388882291005
 30
0.0
 11
190.7058684842148
 21
192.2440138243656
 31
0.0
  0
LINE
  5
4C02
330
461B
100
AcDbEntity
  8
DIM
100
AcDbLine
 10
195.7058684842147
 20
176.9388882291007
 30
0.0
 11
195.7058684842147
 21
192.2440138243656
 31
0.0
  0
LINE
  5
4C03
330
461B
100
AcDbEntity
  8
DIM
100
AcDbLine
 10
188.7058684842148
 20
190.7440138243656
 30
0.0
 11
186.7058684842148
 21
190.7440138243656
 31
0.0
  0
LINE
  5
4C04
330
461B
100
AcDbEntity
  8
DIM
100
AcDbLine
 10
197.7058684842147
 20
190.7440138243656
 30
0.0
 11
199.7058684842147
 21
190.7440138243656
 31
0.0
  0
LINE
  5
4C05
330
461B
100
AcDbEntity
  8
DIM
100
AcDbLine
 10
190.7058684842148
 20
190.7440138243656
 30
0.0
 11
195.7058684842147
 21
190.7440138243656
 31
0.0
  0
SOLID
  5
4C06
330
461B
100
AcDbEntity
  8
DIM
100
AcDbTrace
 10
188.7058684842148
 20
191.0773471576989
 30
0.0
 11
188.7058684842148
 21
190.4106804910322
 31
0.0
 12
190.7058684842148
 22
190.7440138243656
 32
0.0
 13
190.7058684842148
 23
190.7440138243656
 33
0.0
  0
SOLID
  5
4C07
330
461B
100
AcDbEntity
  8
DIM
100
AcDbTrace
 10
197.7058684842147
 20
191.0773471576989
 30
0.0
 11
197.7058684842147
 21
190.4106804910322
 31
0.0
 12
195.7058684842147
 22
190.7440138243656
 32
0.0
 13
195.7058684842147
 23
190.7440138243656
 33
0.0
  0
MTEXT
  5
4C08
330
461B
100
AcDbEntity
  8
DIM
100
AcDbMText
 10
193.2058684842147
 20
192.7440138243656
 30
0.0
 40
2.0
 41
0.0
 71
     5
 72
     1
  1
\A1;□5
  7
dayus
 73
     1
 44
1.0
1001
ACAD
1000
MTEXTBEGIN
1070
    73
1070
     1
1070
    44
1040
1.0
1070
    74
1070
     0
1000
MTEXTEND
  0
POINT
  5
4C09
330
461B
100
AcDbEntity
  8
Defpoints
 62
     0
100
AcDbPoint
 10
190.7058684842148
 20
175.4388882291005
 30
0.0
  0
POINT
  5
4C0A
330
461B
100
AcDbEntity
  8
Defpoints
 62
     0
100
AcDbPoint
 10
195.7058684842147
 20
175.4388882291007
 30
0.0
  0
POINT
  5
4C0B
330
461B
100
AcDbEntity
  8
Defpoints
 62
     0
100
AcDbPoint
 10
195.7058684842147
 20
190.7440138243656
 30
0.0
  0
ENDBLK
  5
4628
330
461B
100
AcDbEntity
  8
0
100
AcDbBlockEnd
  0
BLOCK
  5
4633
330
4629
100
AcDbEntity
  8
0
100
AcDbBlockBegin
  2
*D20
 70
     1
 10
0.0
 20
0.0
 30
0.0
  3
*D20
  1

  0
LINE
  5
4BF8
330
4629
100
AcDbEntity
  8
DIM
100
AcDbLine
 10
185.055868484215
 20
171.1085759741575
 30
0.0
 11
185.055868484215
 21
197.7361665744872
 31
0.0
  0
LINE
  5
4BF9
330
4629
100
AcDbEntity
  8
DIM
100
AcDbLine
 10
201.355868484215
 20
186.7180595357135
 30
0.0
 11
201.355868484215
 21
197.7361665744872
 31
0.0
  0
LINE
  5
4BFA
330
4629
100
AcDbEntity
  8
DIM
100
AcDbLine
 10
187.055868484215
 20
196.2361665744872
 30
0.0
 11
199.355868484215
 21
196.2361665744872
 31
0.0
  0
SOLID
  5
4BFB
330
4629
100
AcDbEntity
  8
DIM
100
AcDbTrace
 10
187.055868484215
 20
196.5694999078205
 30
0.0
 11
187.055868484215
 21
195.9028332411538
 31
0.0
 12
185.055868484215
 22
196.2361665744872
 32
0.0
 13
185.055868484215
 23
196.2361665744872
 33
0.0
  0
SOLID
  5
4BFC
330
4629
100
AcDbEntity
  8
DIM
100
AcDbTrace
 10
199.355868484215
 20
196.5694999078205
 30
0.0
 11
199.355868484215
 21
195.9028332411538
 31
0.0
 12
201.355868484215
 22
196.2361665744872
 32
0.0
 13
201.355868484215
 23
196.2361665744872
 33
0.0
  0
MTEXT
  5
4BFD
330
4629
100
AcDbEntity
  8
DIM
100
AcDbMText
 10
193.205868484215
 20
198.2361665744872
 30
0.0
 40
2.0
 41
0.0
 71
     5
 72
     1
  1
\A1;□16.3
  7
dayus
 73
     1
 44
1.0
1001
ACAD
1000
MTEXTBEGIN
1070
    73
1070
     1
1070
    44
1040
1.0
1070
    74
1070
     0
1000
MTEXTEND
  0
POINT
  5
4BFE
330
4629
100
AcDbEntity
  8
Defpoints
 62
     0
100
AcDbPoint
 10
185.055868484215
 20
169.6085759741575
 30
0.0
  0
POINT
  5
4BFF
330
4629
100
AcDbEntity
  8
Defpoints
 62
     0
100
AcDbPoint
 10
201.355868484215
 20
185.2180595357135
 30
0.0
  0
POINT
  5
4C00
330
4629
100
AcDbEntity
  8
Defpoints
 62
     0
100
AcDbPoint
 10
201.355868484215
 20
196.2361665744872
 30
0.0
  0
ENDBLK
  5
4634
330
4629
100
AcDbEntity
  8
0
100
AcDbBlockEnd
  0
BLOCK
  5
463F
330
4635
100
AcDbEntity
  8
0
100
AcDbBlockBegin
  2
*D21
 70
     1
 10
0.0
 20
0.0
 30
0.0
  3
*D21
  1

  0
LINE
  5
4BCB
330
4635
100
AcDbEntity
  8
DIM
100
AcDbLine
 10
180.7058684842149
 20
185.0555517134326
 30
0.0
 11
180.7058684842149
 21
202.9682429925131
 31
0.0
  0
LINE
  5
4BCC
330
4635
100
AcDbEntity
  8
DIM
100
AcDbLine
 10
205.7058684842149
 20
185.0555517134326
 30
0.0
 11
205.7058684842149
 21
202.9682429925131
 31
0.0
  0
LINE
  5
4BCD
330
4635
100
AcDbEntity
  8
DIM
100
AcDbLine
 10
182.7058684842149
 20
201.4682429925131
 30
0.0
 11
203.7058684842149
 21
201.4682429925131
 31
0.0
  0
SOLID
  5
4BCE
330
4635
100
AcDbEntity
  8
DIM
100
AcDbTrace
 10
182.7058684842149
 20
201.8015763258464
 30
0.0
 11
182.7058684842149
 21
201.1349096591798
 31
0.0
 12
180.7058684842149
 22
201.4682429925131
 32
0.0
 13
180.7058684842149
 23
201.4682429925131
 33
0.0
  0
SOLID
  5
4BCF
330
4635
100
AcDbEntity
  8
DIM
100
AcDbTrace
 10
203.7058684842149
 20
201.8015763258464
 30
0.0
 11
203.7058684842149
 21
201.1349096591798
 31
0.0
 12
205.7058684842149
 22
201.4682429925131
 32
0.0
 13
205.7058684842149
 23
201.4682429925131
 33
0.0
  0
MTEXT
  5
4BD0
330
4635
100
AcDbEntity
  8
DIM
100
AcDbMText
 10
193.2058684842149
 20
203.4682429925131
 30
0.0
 40
2.0
 41
0.0
 71
     5
 72
     1
  1
\A1;□25
  7
dayus
 73
     1
 44
1.0
1001
ACAD
1000
MTEXTBEGIN
1070
    73
1070
     1
1070
    44
1040
1.0
1070
    74
1070
     0
1000
MTEXTEND
  0
POINT
  5
4BD1
330
4635
100
AcDbEntity
  8
Defpoints
 62
     0
100
AcDbPoint
 10
180.7058684842149
 20
183.5555517134326
 30
0.0
  0
POINT
  5
4BD2
330
4635
100
AcDbEntity
  8
Defpoints
 62
     0
100
AcDbPoint
 10
205.7058684842149
 20
183.5555517134326
 30
0.0
  0
POINT
  5
4BD3
330
4635
100
AcDbEntity
  8
Defpoints
 62
     0
100
AcDbPoint
 10
205.7058684842149
 20
201.4682429925131
 30
0.0
  0
ENDBLK
  5
4640
330
4635
100
AcDbEntity
  8
0
100
AcDbBlockEnd
  0
BLOCK
  5
464B
330
4641
100
AcDbEntity
  8
0
100
AcDbBlockBegin
  2
*D22
 70
     1
 10
0.0
 20
0.0
 30
0.0
  3
*D22
  1

  0
LINE
  5
4BEF
330
4641
100
AcDbEntity
  8
DIM
100
AcDbLine
 10
186.1165286559949
 20
164.3573993639333
 30
0.0
 11
201.1305976016537
 21
149.3433304182748
 31
0.0
  0
LINE
  5
4BF0
330
4641
100
AcDbEntity
  8
DIM
100
AcDbLine
 10
202.4165286559948
 20
180.6573993639337
 30
0.0
 11
217.4305976016537
 21
165.6433304182751
 31
0.0
  0
LINE
  5
4BF1
330
4641
100
AcDbEntity
  8
DIM
100
AcDbLine
 10
201.484150992247
 20
151.8182041524277
 30
0.0
 11
214.9557238675008
 21
165.2897770276818
 31
0.0
  0
SOLID
  5
4BF2
330
4641
100
AcDbEntity
  8
DIM
100
AcDbTrace
 10
201.2484487318515
 20
152.0539064128232
 30
0.0
 11
201.7198532526425
 21
151.5825018920322
 31
0.0
 12
200.069937429874
 22
150.4039905900546
 32
0.0
 13
200.069937429874
 23
150.4039905900546
 33
0.0
  0
SOLID
  5
4BF3
330
4641
100
AcDbEntity
  8
DIM
100
AcDbTrace
 10
214.7200216071052
 20
165.5254792880773
 30
0.0
 11
215.1914261278963
 21
165.0540747672863
 31
0.0
 12
216.3699374298739
 22
166.7039905900549
 32
0.0
 13
216.3699374298739
 23
166.7039905900549
 33
0.0
  0
MTEXT
  5
4BF4
330
4641
100
AcDbEntity
  8
DIM
100
AcDbMText
 10
206.8057238675008
 20
159.9682041524279
 30
0.0
 40
2.0
 41
0.0
 71
     5
 72
     1
  1
\A1;23
  7
dayus
 11
0.7071067811865401
 21
0.707106781186555
 31
0.0
 73
     1
 44
1.0
1001
ACAD
1000
MTEXTBEGIN
1070
    73
1070
     1
1070
    44
1040
1.0
1070
    74
1070
     0
1000
MTEXTEND
  0
POINT
  5
4BF5
330
4641
100
AcDbEntity
  8
Defpoints
 62
     0
100
AcDbPoint
 10
185.055868484215
 20
165.4180595357131
 30
0.0
  0
POINT
  5
4BF6
330
4641
100
AcDbEntity
  8
Defpoints
 62
     0
100
AcDbPoint
 10
201.355868484215
 20
181.7180595357134
 30
0.0
  0
POINT
  5
4BF7
330
4641
100
AcDbEntity
  8
Defpoints
 62
     0
100
AcDbPoint
 10
216.3699374298739
 20
166.7039905900549
 30
0.0
  0
ENDBLK
  5
464C
330
4641
100
AcDbEntity
  8
0
100
AcDbBlockEnd
  0
BLOCK
  5
4657
330
464D
100
AcDbEntity
  8
0
100
AcDbBlockBegin
  2
*D23
 70
     1
 10
0.0
 20
0.0
 30
0.0
  3
*D23
  1

  0
LINE
  5
4BE6
330
464D
100
AcDbEntity
  8
DIM
100
AcDbLine
 10
184.2790364782756
 20
160.0073993639337
 30
0.0
 11
201.7946714801087
 21
142.4917643621006
 31
0.0
  0
LINE
  5
4BE7
330
464D
100
AcDbEntity
  8
DIM
100
AcDbLine
 10
206.7665286559948
 20
182.4948915416528
 30
0.0
 11
224.2821636578278
 21
164.9792565398197
 31
0.0
  0
LINE
  5
4BE8
330
464D
100
AcDbEntity
  8
DIM
100
AcDbLine
 10
202.148224870702
 20
144.9666380962536
 30
0.0
 11
221.8072899236749
 21
164.6257031492264
 31
0.0
  0
SOLID
  5
4BE9
330
464D
100
AcDbEntity
  8
DIM
100
AcDbTrace
 10
201.9125226103064
 20
145.2023403566491
 30
0.0
 11
202.3839271310975
 21
144.730935835858
 31
0.0
 12
200.7340113083289
 22
143.5524245338804
 32
0.0
 13
200.7340113083289
 23
143.5524245338804
 33
0.0
  0
SOLID
  5
4BEA
330
464D
100
AcDbEntity
  8
DIM
100
AcDbTrace
 10
221.5715876632794
 20
164.861405409622
 30
0.0
 11
222.0429921840704
 21
164.390000888831
 31
0.0
 12
223.221503486048
 22
166.0399167115995
 32
0.0
 13
223.221503486048
 23
166.0399167115995
 33
0.0
  0
MTEXT
  5
4BEB
330
464D
100
AcDbEntity
  8
DIM
100
AcDbMText
 10
210.5635438348154
 20
156.2103841851131
 30
0.0
 40
2.0
 41
0.0
 71
     5
 72
     1
  1
\A1;32
  7
dayus
 11
0.7071067811865485
 21
0.7071067811865467
 31
0.0
 73
     1
 44
1.0
1001
ACAD
1000
MTEXTBEGIN
1070
    73
1070
     1
1070
    44
1040
1.0
1070
    74
1070
     0
1000
MTEXTEND
  0
POINT
  5
4BEC
330
464D
100
AcDbEntity
  8
Defpoints
 62
     0
100
AcDbPoint
 10
183.2183763064958
 20
161.0680595357136
 30
0.0
  0
POINT
  5
4BED
330
464D
100
AcDbEntity
  8
Defpoints
 62
     0
100
AcDbPoint
 10
205.7058684842149
 20
183.5555517134326
 30
0.0
  0
POINT
  5
4BEE
330
464D
100
AcDbEntity
  8
Defpoints
 62
     0
100
AcDbPoint
 10
223.221503486048
 20
166.0399167115995
 30
0.0
  0
ENDBLK
  5
4658
330
464D
100
AcDbEntity
  8
0
100
AcDbBlockEnd
  0
BLOCK
  5
4665
330
4659
100
AcDbEntity
  8
0
100
AcDbBlockBegin
  2
*D24
 70
     1
 10
0.0
 20
0.0
 30
0.0
  3
*D24
  1

  0
LINE
  5
4751
330
4659
100
AcDbEntity
  8
DIM
100
AcDbLine
 10
128.3494431540751
 20
83.0536897298006
 30
0.0
 11
128.3494431540751
 21
87.72964401845257
 31
0.0
  0
LINE
  5
4752
330
4659
100
AcDbEntity
  8
DIM
100
AcDbLine
 10
129.3494431540751
 20
76.05368972980059
 30
0.0
 11
129.3494431540751
 21
87.72964401845257
 31
0.0
  0
LINE
  5
4753
330
4659
100
AcDbEntity
  8
DIM
100
AcDbLine
 10
126.3494431540751
 20
86.22964401845257
 30
0.0
 11
124.3494431540751
 21
86.22964401845257
 31
0.0
  0
LINE
  5
4754
330
4659
100
AcDbEntity
  8
DIM
100
AcDbLine
 10
131.3494431540751
 20
86.22964401845257
 30
0.0
 11
133.3494431540751
 21
86.22964401845257
 31
0.0
  0
MTEXT
  5
4755
330
4659
100
AcDbEntity
  8
DIM
100
AcDbMText
 10
131.2108374410202
 20
88.42264330980725
 30
0.0
 40
2.0
 41
0.0
 71
     5
 72
     1
  1
\A1;1
  7
dayus
 73
     1
 44
1.0
1001
ACAD
1000
MTEXTBEGIN
1070
    73
1070
     1
1070
    44
1040
1.0
1070
    74
1070
     0
1000
MTEXTEND
  0
LINE
  5
4756
330
4659
100
AcDbEntity
  8
DIM
100
AcDbLine
 10
128.3494431540751
 20
86.22964401845257
 30
0.0
 11
129.3494431540751
 21
86.22964401845257
 31
0.0
  0
SOLID
  5
4757
330
4659
100
AcDbEntity
  8
DIM
100
AcDbTrace
 10
126.3494431540751
 20
86.5629773517859
 30
0.0
 11
126.3494431540751
 21
85.89631068511925
 31
0.0
 12
128.3494431540751
 22
86.22964401845257
 32
0.0
 13
128.3494431540751
 23
86.22964401845257
 33
0.0
  0
SOLID
  5
4758
330
4659
100
AcDbEntity
  8
DIM
100
AcDbTrace
 10
131.3494431540751
 20
86.5629773517859
 30
0.0
 11
131.3494431540751
 21
85.89631068511925
 31
0.0
 12
129.3494431540751
 22
86.22964401845257
 32
0.0
 13
129.3494431540751
 23
86.22964401845257
 33
0.0
  0
POINT
  5
4759
330
4659
100
AcDbEntity
  8
Defpoints
 62
     0
100
AcDbPoint
 10
128.3494431540751
 20
81.5536897298006
 30
0.0
  0
POINT
  5
475A
330
4659
100
AcDbEntity
  8
Defpoints
 62
     0
100
AcDbPoint
 10
129.3494431540751
 20
74.5536897298006
 30
0.0
  0
POINT
  5
475B
330
4659
100
AcDbEntity
  8
Defpoints
 62
     0
100
AcDbPoint
 10
129.3494431540751
 20
86.22964401845257
 30
0.0
  0
ENDBLK
  5
4666
330
4659
100
AcDbEntity
  8
0
100
AcDbBlockEnd
  0
BLOCK
  5
4673
330
4667
100
AcDbEntity
  8
0
100
AcDbBlockBegin
  2
*D25
 70
     1
 10
0.0
 20
0.0
 30
0.0
  3
*D25
  1

  0
LINE
  5
475C
330
4667
100
AcDbEntity
  8
DIM
100
AcDbLine
 10
128.3494431540751
 20
83.0536897298006
 30
0.0
 11
128.3494431540751
 21
93.7370777114463
 31
0.0
  0
LINE
  5
475D
330
4667
100
AcDbEntity
  8
DIM
100
AcDbLine
 10
133.3494431540751
 20
73.05368972980059
 30
0.0
 11
133.3494431540751
 21
93.7370777114463
 31
0.0
  0
LINE
  5
475E
330
4667
100
AcDbEntity
  8
DIM
100
AcDbLine
 10
126.3494431540751
 20
92.2370777114463
 30
0.0
 11
124.3494431540751
 21
92.2370777114463
 31
0.0
  0
LINE
  5
475F
330
4667
100
AcDbEntity
  8
DIM
100
AcDbLine
 10
135.3494431540751
 20
92.2370777114463
 30
0.0
 11
137.3494431540751
 21
92.2370777114463
 31
0.0
  0
LINE
  5
4760
330
4667
100
AcDbEntity
  8
DIM
100
AcDbLine
 10
128.3494431540751
 20
92.2370777114463
 30
0.0
 11
133.3494431540751
 21
92.2370777114463
 31
0.0
  0
SOLID
  5
4761
330
4667
100
AcDbEntity
  8
DIM
100
AcDbTrace
 10
126.3494431540751
 20
92.57041104477963
 30
0.0
 11
126.3494431540751
 21
91.90374437811298
 31
0.0
 12
128.3494431540751
 22
92.2370777114463
 32
0.0
 13
128.3494431540751
 23
92.2370777114463
 33
0.0
  0
SOLID
  5
4762
330
4667
100
AcDbEntity
  8
DIM
100
AcDbTrace
 10
135.3494431540751
 20
92.57041104477963
 30
0.0
 11
135.3494431540751
 21
91.90374437811298
 31
0.0
 12
133.3494431540751
 22
92.2370777114463
 32
0.0
 13
133.3494431540751
 23
92.2370777114463
 33
0.0
  0
MTEXT
  5
4763
330
4667
100
AcDbEntity
  8
DIM
100
AcDbMText
 10
130.8494431540751
 20
94.23707771144631
 30
0.0
 40
2.0
 41
0.0
 71
     5
 72
     1
  1
\A1;5
  7
dayus
 73
     1
 44
1.0
1001
ACAD
1000
MTEXTBEGIN
1070
    73
1070
     1
1070
    44
1040
1.0
1070
    74
1070
     0
1000
MTEXTEND
  0
POINT
  5
4764
330
4667
100
AcDbEntity
  8
Defpoints
 62
     0
100
AcDbPoint
 10
128.3494431540751
 20
81.5536897298006
 30
0.0
  0
POINT
  5
4765
330
4667
100
AcDbEntity
  8
Defpoints
 62
     0
100
AcDbPoint
 10
133.3494431540751
 20
71.5536897298006
 30
0.0
  0
POINT
  5
4766
330
4667
100
AcDbEntity
  8
Defpoints
 62
     0
100
AcDbPoint
 10
133.3494431540751
 20
92.2370777114463
 30
0.0
  0
ENDBLK
  5
4674
330
4667
100
AcDbEntity
  8
0
100
AcDbBlockEnd
  0
BLOCK
  5
467F
330
4675
100
AcDbEntity
  8
0
100
AcDbBlockBegin
  2
*D26
 70
     1
 10
0.0
 20
0.0
 30
0.0
  3
*D26
  1

  0
LINE
  5
4B9C
330
4675
100
AcDbEntity
  8
DIM
100
AcDbLine
 10
106.3494431540752
 20
187.5680595357136
 30
0.0
 11
106.3494431540752
 21
192.2440138243656
 31
0.0
  0
LINE
  5
4B9D
330
4675
100
AcDbEntity
  8
DIM
100
AcDbLine
 10
112.8494431540751
 20
184.0680595357136
 30
0.0
 11
112.8494431540751
 21
192.2440138243656
 31
0.0
  0
LINE
  5
4B9E
330
4675
100
AcDbEntity
  8
DIM
100
AcDbLine
 10
108.3494431540752
 20
190.7440138243656
 30
0.0
 11
110.8494431540751
 21
190.7440138243656
 31
0.0
  0
SOLID
  5
4B9F
330
4675
100
AcDbEntity
  8
DIM
100
AcDbTrace
 10
108.3494431540752
 20
191.0773471576989
 30
0.0
 11
108.3494431540752
 21
190.4106804910322
 31
0.0
 12
106.3494431540752
 22
190.7440138243656
 32
0.0
 13
106.3494431540752
 23
190.7440138243656
 33
0.0
  0
SOLID
  5
4BA0
330
4675
100
AcDbEntity
  8
DIM
100
AcDbTrace
 10
110.8494431540751
 20
191.0773471576989
 30
0.0
 11
110.8494431540751
 21
190.4106804910322
 31
0.0
 12
112.8494431540751
 22
190.7440138243656
 32
0.0
 13
112.8494431540751
 23
190.7440138243656
 33
0.0
  0
MTEXT
  5
4BA1
330
4675
100
AcDbEntity
  8
DIM
100
AcDbMText
 10
109.5994431540751
 20
192.7440138243656
 30
0.0
 40
2.0
 41
0.0
 71
     5
 72
     1
  1
\A1;6.5
  7
dayus
 73
     1
 44
1.0
1001
ACAD
1000
MTEXTBEGIN
1070
    73
1070
     1
1070
    44
1040
1.0
1070
    74
1070
     0
1000
MTEXTEND
  0
POINT
  5
4BA2
330
4675
100
AcDbEntity
  8
Defpoints
 62
     0
100
AcDbPoint
 10
106.3494431540752
 20
186.0680595357136
 30
0.0
  0
POINT
  5
4BA3
330
4675
100
AcDbEntity
  8
Defpoints
 62
     0
100
AcDbPoint
 10
112.8494431540751
 20
182.5680595357136
 30
0.0
  0
POINT
  5
4BA4
330
4675
100
AcDbEntity
  8
Defpoints
 62
     0
100
AcDbPoint
 10
112.8494431540751
 20
190.7440138243656
 30
0.0
  0
ENDBLK
  5
4680
330
4675
100
AcDbEntity
  8
0
100
AcDbBlockEnd
  0
BLOCK
  5
468B
330
4681
100
AcDbEntity
  8
0
100
AcDbBlockBegin
  2
*D27
 70
     1
 10
0.0
 20
0.0
 30
0.0
  3
*D27
  1

  0
LINE
  5
4BB9
330
4681
100
AcDbEntity
  8
DIM
100
AcDbLine
 10
121.8494431540751
 20
184.0680595357136
 30
0.0
 11
121.8494431540751
 21
192.2440138243656
 31
0.0
  0
LINE
  5
4BBA
330
4681
100
AcDbEntity
  8
DIM
100
AcDbLine
 10
128.3494431540751
 20
187.5680595357136
 30
0.0
 11
128.3494431540751
 21
192.2440138243656
 31
0.0
  0
LINE
  5
4BBB
330
4681
100
AcDbEntity
  8
DIM
100
AcDbLine
 10
123.8494431540751
 20
190.7440138243656
 30
0.0
 11
126.3494431540751
 21
190.7440138243656
 31
0.0
  0
SOLID
  5
4BBC
330
4681
100
AcDbEntity
  8
DIM
100
AcDbTrace
 10
123.8494431540751
 20
191.0773471576989
 30
0.0
 11
123.8494431540751
 21
190.4106804910322
 31
0.0
 12
121.8494431540751
 22
190.7440138243656
 32
0.0
 13
121.8494431540751
 23
190.7440138243656
 33
0.0
  0
SOLID
  5
4BBD
330
4681
100
AcDbEntity
  8
DIM
100
AcDbTrace
 10
126.3494431540751
 20
191.0773471576989
 30
0.0
 11
126.3494431540751
 21
190.4106804910322
 31
0.0
 12
128.3494431540751
 22
190.7440138243656
 32
0.0
 13
128.3494431540751
 23
190.7440138243656
 33
0.0
  0
MTEXT
  5
4BBE
330
4681
100
AcDbEntity
  8
DIM
100
AcDbMText
 10
125.0994431540751
 20
192.7440138243656
 30
0.0
 40
2.0
 41
0.0
 71
     5
 72
     1
  1
\A1;6.5
  7
dayus
 73
     1
 44
1.0
1001
ACAD
1000
MTEXTBEGIN
1070
    73
1070
     1
1070
    44
1040
1.0
1070
    74
1070
     0
1000
MTEXTEND
  0
POINT
  5
4BBF
330
4681
100
AcDbEntity
  8
Defpoints
 62
     0
100
AcDbPoint
 10
121.8494431540751
 20
182.5680595357136
 30
0.0
  0
POINT
  5
4BC0
330
4681
100
AcDbEntity
  8
Defpoints
 62
     0
100
AcDbPoint
 10
128.3494431540751
 20
186.0680595357136
 30
0.0
  0
POINT
  5
4BC1
330
4681
100
AcDbEntity
  8
Defpoints
 62
     0
100
AcDbPoint
 10
128.3494431540751
 20
190.7440138243656
 30
0.0
  0
ENDBLK
  5
468C
330
4681
100
AcDbEntity
  8
0
100
AcDbBlockEnd
  0
BLOCK
  5
4697
330
468D
100
AcDbEntity
  8
0
100
AcDbBlockBegin
  2
*D28
 70
     1
 10
0.0
 20
0.0
 30
0.0
  3
*D28
  1

  0
LINE
  5
4DA6
330
468D
100
AcDbEntity
  8
DIM
100
AcDbLine
 10
106.349443154075
 20
83.0536897298006
 30
0.0
 11
106.349443154075
 21
93.7370777114463
 31
0.0
  0
LINE
  5
4DA7
330
468D
100
AcDbEntity
  8
DIM
100
AcDbLine
 10
128.3494431540751
 20
83.0536897298006
 30
0.0
 11
128.3494431540751
 21
93.7370777114463
 31
0.0
  0
LINE
  5
4DA8
330
468D
100
AcDbEntity
  8
DIM
100
AcDbLine
 10
108.349443154075
 20
92.2370777114463
 30
0.0
 11
126.3494431540751
 21
92.2370777114463
 31
0.0
  0
SOLID
  5
4DA9
330
468D
100
AcDbEntity
  8
DIM
100
AcDbTrace
 10
108.349443154075
 20
92.57041104477963
 30
0.0
 11
108.349443154075
 21
91.90374437811298
 31
0.0
 12
106.349443154075
 22
92.2370777114463
 32
0.0
 13
106.349443154075
 23
92.2370777114463
 33
0.0
  0
SOLID
  5
4DAA
330
468D
100
AcDbEntity
  8
DIM
100
AcDbTrace
 10
126.3494431540751
 20
92.57041104477963
 30
0.0
 11
126.3494431540751
 21
91.90374437811298
 31
0.0
 12
128.3494431540751
 22
92.2370777114463
 32
0.0
 13
128.3494431540751
 23
92.2370777114463
 33
0.0
  0
MTEXT
  5
4DAB
330
468D
100
AcDbEntity
  8
DIM
100
AcDbMText
 10
117.349443154075
 20
94.23707771144631
 30
0.0
 40
2.0
 41
0.0
 71
     5
 72
     1
  1
\A1;17+stroke=S
  7
dayus
 73
     1
 44
1.0
1001
ACAD
1000
MTEXTBEGIN
1070
    73
1070
     1
1070
    44
1040
1.0
1070
    74
1070
     0
1000
MTEXTEND
  0
POINT
  5
4DAC
330
468D
100
AcDbEntity
  8
Defpoints
 62
     0
100
AcDbPoint
 10
106.349443154075
 20
81.5536897298006
 30
0.0
  0
POINT
  5
4DAD
330
468D
100
AcDbEntity
  8
Defpoints
 62
     0
100
AcDbPoint
 10
128.3494431540751
 20
81.5536897298006
 30
0.0
  0
POINT
  5
4DAE
330
468D
100
AcDbEntity
  8
Defpoints
 62
     0
100
AcDbPoint
 10
128.3494431540751
 20
92.2370777114463
 30
0.0
  0
ENDBLK
  5
4698
330
468D
100
AcDbEntity
  8
0
100
AcDbBlockEnd
  0
BLOCK
  5
46A3
330
4699
100
AcDbEntity
  8
0
100
AcDbBlockBegin
  2
*D29
 70
     1
 10
0.0
 20
0.0
 30
0.0
  3
*D29
  1

  0
LINE
  5
4DB0
330
4699
100
AcDbEntity
  8
DIM
100
AcDbLine
 10
133.3494431540751
 20
73.05368972980059
 30
0.0
 11
133.3494431540751
 21
99.76843273918836
 31
0.0
  0
LINE
  5
4DB1
330
4699
100
AcDbEntity
  8
DIM
100
AcDbLine
 10
106.349443154075
 20
83.0536897298006
 30
0.0
 11
106.349443154075
 21
99.76843273918836
 31
0.0
  0
LINE
  5
4DB2
330
4699
100
AcDbEntity
  8
DIM
100
AcDbLine
 10
131.3494431540751
 20
98.26843273918836
 30
0.0
 11
108.349443154075
 21
98.26843273918836
 31
0.0
  0
SOLID
  5
4DB3
330
4699
100
AcDbEntity
  8
DIM
100
AcDbTrace
 10
131.3494431540751
 20
98.60176607252169
 30
0.0
 11
131.3494431540751
 21
97.93509940585503
 31
0.0
 12
133.3494431540751
 22
98.26843273918836
 32
0.0
 13
133.3494431540751
 23
98.26843273918836
 33
0.0
  0
SOLID
  5
4DB4
330
4699
100
AcDbEntity
  8
DIM
100
AcDbTrace
 10
108.349443154075
 20
98.60176607252169
 30
0.0
 11
108.349443154075
 21
97.93509940585503
 31
0.0
 12
106.349443154075
 22
98.26843273918836
 32
0.0
 13
106.349443154075
 23
98.26843273918836
 33
0.0
  0
MTEXT
  5
4DB5
330
4699
100
AcDbEntity
  8
DIM
100
AcDbMText
 10
119.849443154075
 20
100.2684327391883
 30
0.0
 40
2.0
 41
0.0
 71
     5
 72
     1
  1
\A1;22+stroke=ZZ
  7
dayus
 73
     1
 44
1.0
1001
ACAD
1000
MTEXTBEGIN
1070
    73
1070
     1
1070
    44
1040
1.0
1070
    74
1070
     0
1000
MTEXTEND
  0
POINT
  5
4DB6
330
4699
100
AcDbEntity
  8
Defpoints
 62
     0
100
AcDbPoint
 10
133.3494431540751
 20
71.5536897298006
 30
0.0
  0
POINT
  5
4DB7
330
4699
100
AcDbEntity
  8
Defpoints
 62
     0
100
AcDbPoint
 10
106.349443154075
 20
81.5536897298006
 30
0.0
  0
POINT
  5
4DB8
330
4699
100
AcDbEntity
  8
Defpoints
 62
     0
100
AcDbPoint
 10
106.349443154075
 20
98.26843273918836
 30
0.0
  0
ENDBLK
  5
46A4
330
4699
100
AcDbEntity
  8
0
100
AcDbBlockEnd
  0
BLOCK
  5
46B1
330
46A5
100
AcDbEntity
  8
0
100
AcDbBlockBegin
  2
*D30
 70
     1
 10
0.0
 20
0.0
 30
0.0
  3
*D30
  1

  0
LINE
  5
4779
330
46A5
100
AcDbEntity
  8
DIM
100
AcDbLine
 10
130.3494431540751
 20
65.68286103641359
 30
0.0
 11
130.3494431540751
 21
53.25459017119126
 31
0.0
  0
LINE
  5
477A
330
46A5
100
AcDbEntity
  8
DIM
100
AcDbLine
 10
133.3494431540751
 20
65.05368972980059
 30
0.0
 11
133.3494431540751
 21
53.25459017119126
 31
0.0
  0
LINE
  5
477B
330
46A5
100
AcDbEntity
  8
DIM
100
AcDbLine
 10
128.3494431540751
 20
54.75459017119125
 30
0.0
 11
126.3494431540751
 21
54.75459017119125
 31
0.0
  0
LINE
  5
477C
330
46A5
100
AcDbEntity
  8
DIM
100
AcDbLine
 10
135.3494431540751
 20
54.75459017119125
 30
0.0
 11
137.3494431540751
 21
54.75459017119125
 31
0.0
  0
LINE
  5
477D
330
46A5
100
AcDbEntity
  8
DIM
100
AcDbLine
 10
130.3494431540751
 20
54.75459017119125
 30
0.0
 11
133.3494431540751
 21
54.75459017119125
 31
0.0
  0
SOLID
  5
477E
330
46A5
100
AcDbEntity
  8
DIM
100
AcDbTrace
 10
128.3494431540751
 20
55.08792350452459
 30
0.0
 11
128.3494431540751
 21
54.42125683785792
 31
0.0
 12
130.3494431540751
 22
54.75459017119125
 32
0.0
 13
130.3494431540751
 23
54.75459017119125
 33
0.0
  0
SOLID
  5
477F
330
46A5
100
AcDbEntity
  8
DIM
100
AcDbTrace
 10
135.3494431540751
 20
55.08792350452459
 30
0.0
 11
135.3494431540751
 21
54.42125683785792
 31
0.0
 12
133.3494431540751
 22
54.75459017119125
 32
0.0
 13
133.3494431540751
 23
54.75459017119125
 33
0.0
  0
MTEXT
  5
4780
330
46A5
100
AcDbEntity
  8
DIM
100
AcDbMText
 10
131.8494431540751
 20
56.75459017119125
 30
0.0
 40
2.0
 41
0.0
 71
     5
 72
     1
  1
\A1;3
  7
dayus
 73
     1
 44
1.0
1001
ACAD
1000
MTEXTBEGIN
1070
    73
1070
     1
1070
    44
1040
1.0
1070
    74
1070
     0
1000
MTEXTEND
  0
POINT
  5
4781
330
46A5
100
AcDbEntity
  8
Defpoints
 62
     0
100
AcDbPoint
 10
130.3494431540751
 20
67.18286103641358
 30
0.0
  0
POINT
  5
4782
330
46A5
100
AcDbEntity
  8
Defpoints
 62
     0
100
AcDbPoint
 10
133.3494431540751
 20
66.5536897298006
 30
0.0
  0
POINT
  5
4783
330
46A5
100
AcDbEntity
  8
Defpoints
 62
     0
100
AcDbPoint
 10
133.3494431540751
 20
54.75459017119125
 30
0.0
  0
ENDBLK
  5
46B2
330
46A5
100
AcDbEntity
  8
0
100
AcDbBlockEnd
  0
BLOCK
  5
46BF
330
46B3
100
AcDbEntity
  8
0
100
AcDbBlockBegin
  2
*D31
 70
     1
 10
0.0
 20
0.0
 30
0.0
  3
*D31
  1

  0
LINE
  5
4784
330
46B3
100
AcDbEntity
  8
DIM
100
AcDbLine
 10
133.9834177502906
 20
66.05368972980059
 30
0.0
 11
142.8115355086537
 21
66.05368972980059
 31
0.0
  0
LINE
  5
4785
330
46B3
100
AcDbEntity
  8
DIM
100
AcDbLine
 10
133.9834177502908
 20
72.05368972980048
 30
0.0
 11
142.8115355086537
 21
72.05368972980048
 31
0.0
  0
LINE
  5
4786
330
46B3
100
AcDbEntity
  8
DIM
100
AcDbLine
 10
141.3115355086538
 20
64.0536897298006
 30
0.0
 11
141.3115355086537
 21
62.0536897298006
 31
0.0
  0
LINE
  5
4787
330
46B3
100
AcDbEntity
  8
DIM
100
AcDbLine
 10
141.3115355086538
 20
74.05368972980048
 30
0.0
 11
141.3115355086538
 21
76.05368972980048
 31
0.0
  0
LINE
  5
4788
330
46B3
100
AcDbEntity
  8
DIM
100
AcDbLine
 10
141.3115355086538
 20
66.05368972980059
 30
0.0
 11
141.3115355086538
 21
72.05368972980048
 31
0.0
  0
SOLID
  5
4789
330
46B3
100
AcDbEntity
  8
DIM
100
AcDbTrace
 10
140.9782021753204
 20
64.0536897298006
 30
0.0
 11
141.6448688419871
 21
64.0536897298006
 31
0.0
 12
141.3115355086538
 22
66.05368972980059
 32
0.0
 13
141.3115355086538
 23
66.05368972980059
 33
0.0
  0
SOLID
  5
478A
330
46B3
100
AcDbEntity
  8
DIM
100
AcDbTrace
 10
140.9782021753204
 20
74.05368972980048
 30
0.0
 11
141.6448688419871
 21
74.05368972980048
 31
0.0
 12
141.3115355086538
 22
72.05368972980048
 32
0.0
 13
141.3115355086538
 23
72.05368972980048
 33
0.0
  0
MTEXT
  5
478B
330
46B3
100
AcDbEntity
  8
DIM
100
AcDbMText
 10
139.3115355086537
 20
69.05368972980055
 30
0.0
 40
2.0
 41
0.0
 71
     5
 72
     1
  1
\A1;%%c6
  7
dayus
 11
0.0000000000000001
 21
1.0
 31
0.0
 73
     1
 44
1.0
1001
ACAD
1000
MTEXTBEGIN
1070
    73
1070
     1
1070
    44
1040
1.0
1070
    74
1070
     0
1000
MTEXTEND
  0
POINT
  5
478C
330
46B3
100
AcDbEntity
  8
Defpoints
 62
     0
100
AcDbPoint
 10
132.4834177502905
 20
66.05368972980059
 30
0.0
  0
POINT
  5
478D
330
46B3
100
AcDbEntity
  8
Defpoints
 62
     0
100
AcDbPoint
 10
132.4834177502908
 20
72.05368972980048
 30
0.0
  0
POINT
  5
478E
330
46B3
100
AcDbEntity
  8
Defpoints
 62
     0
100
AcDbPoint
 10
141.3115355086538
 20
72.05368972980048
 30
0.0
  0
ENDBLK
  5
46C0
330
46B3
100
AcDbEntity
  8
0
100
AcDbBlockEnd
  0
BLOCK
  5
46CC
330
46C1
100
AcDbEntity
  8
0
100
AcDbBlockBegin
  2
*D32
 70
     1
 10
0.0
 20
0.0
 30
0.0
  3
*D32
  1

  0
LINE
  5
478F
330
46C1
100
AcDbEntity
  8
DIM
100
AcDbLine
 10
130.8494431540751
 20
63.55368972980054
 30
0.0
 11
149.5901867295932
 21
63.55368972980053
 31
0.0
  0
LINE
  5
4790
330
46C1
100
AcDbEntity
  8
DIM
100
AcDbLine
 10
130.8494431540751
 20
74.5536897298006
 30
0.0
 11
149.5901867295933
 21
74.5536897298006
 31
0.0
  0
LINE
  5
4791
330
46C1
100
AcDbEntity
  8
DIM
100
AcDbLine
 10
148.0901867295933
 20
65.55368972980054
 30
0.0
 11
148.0901867295933
 21
72.55368972980059
 31
0.0
  0
LINE
  5
4792
330
46C1
100
AcDbEntity
  8
DIM
100
AcDbLine
 10
148.0901867295933
 20
74.5536897298006
 30
0.0
 11
148.0901867295933
 21
89.49654687265773
 31
0.0
  0
SOLID
  5
4793
330
46C1
100
AcDbEntity
  8
DIM
100
AcDbTrace
 10
147.7568533962599
 20
65.55368972980054
 30
0.0
 11
148.4235200629266
 21
65.55368972980054
 31
0.0
 12
148.0901867295933
 22
63.55368972980053
 32
0.0
 13
148.0901867295933
 23
63.55368972980053
 33
0.0
  0
SOLID
  5
4794
330
46C1
100
AcDbEntity
  8
DIM
100
AcDbTrace
 10
147.7568533962599
 20
72.55368972980059
 30
0.0
 11
148.4235200629266
 21
72.55368972980059
 31
0.0
 12
148.0901867295933
 22
74.5536897298006
 32
0.0
 13
148.0901867295933
 23
74.5536897298006
 33
0.0
  0
MTEXT
  5
4795
330
46C1
100
AcDbEntity
  8
DIM
100
AcDbMText
 10
145.4335200629266
 20
83.02511830122918
 30
0.0
 40
2.0
 41
0.0
 71
     5
 72
     1
  1
\A1;%%c11{}{\H0.71x;\C3;\S 0^ -0.05;}
  7
dayus
 11
0.0000000000000001
 21
1.0
 31
0.0
 73
     1
 44
1.0
1001
ACAD
1000
MTEXTBEGIN
1070
    73
1070
     1
1070
    44
1040
1.0
1070
    74
1070
     0
1000
MTEXTEND
  0
POINT
  5
4796
330
46C1
100
AcDbEntity
  8
Defpoints
 62
     0
100
AcDbPoint
 10
129.3494431540751
 20
63.55368972980054
 30
0.0
  0
POINT
  5
4797
330
46C1
100
AcDbEntity
  8
Defpoints
 62
     0
100
AcDbPoint
 10
129.3494431540751
 20
74.5536897298006
 30
0.0
  0
POINT
  5
4798
330
46C1
100
AcDbEntity
  8
Defpoints
 62
     0
100
AcDbPoint
 10
148.0901867295933
 20
74.5536897298006
 30
0.0
  0
ENDBLK
  5
46CD
330
46C1
100
AcDbEntity
  8
0
100
AcDbBlockEnd
  0
BLOCK
  5
4700
330
46F6
100
AcDbEntity
  8
0
100
AcDbBlockBegin
  2
*D33
 70
     1
 10
0.0
 20
0.0
 30
0.0
  3
*D33
  1

  0
LINE
  5
4BDD
330
46F6
100
AcDbEntity
  8
DIM
100
AcDbLine
 10
186.1165286559949
 20
164.3573993639333
 30
0.0
 11
201.1305976016537
 21
149.3433304182748
 31
0.0
  0
LINE
  5
4BDE
330
46F6
100
AcDbEntity
  8
DIM
100
AcDbLine
 10
202.4165286559948
 20
180.6573993639337
 30
0.0
 11
217.4305976016537
 21
165.6433304182751
 31
0.0
  0
LINE
  5
4BDF
330
46F6
100
AcDbEntity
  8
DIM
100
AcDbLine
 10
201.484150992247
 20
151.8182041524277
 30
0.0
 11
214.9557238675007
 21
165.2897770276818
 31
0.0
  0
SOLID
  5
4BE0
330
46F6
100
AcDbEntity
  8
DIM
100
AcDbTrace
 10
201.2484487318514
 20
152.0539064128233
 30
0.0
 11
201.7198532526425
 21
151.5825018920322
 31
0.0
 12
200.0699374298739
 22
150.4039905900546
 32
0.0
 13
200.0699374298739
 23
150.4039905900546
 33
0.0
  0
SOLID
  5
4BE1
330
46F6
100
AcDbEntity
  8
DIM
100
AcDbTrace
 10
214.7200216071052
 20
165.5254792880773
 30
0.0
 11
215.1914261278963
 21
165.0540747672863
 31
0.0
 12
216.3699374298738
 22
166.7039905900549
 32
0.0
 13
216.3699374298738
 23
166.7039905900549
 33
0.0
  0
MTEXT
  5
4BE2
330
46F6
100
AcDbEntity
  8
DIM
100
AcDbMText
 10
206.8057238675007
 20
159.9682041524279
 30
0.0
 40
2.0
 41
0.0
 71
     5
 72
     1
  1
\A1;23
  7
dayus
 11
0.7071067811865401
 21
0.707106781186555
 31
0.0
 73
     1
 44
1.0
1001
ACAD
1000
MTEXTBEGIN
1070
    73
1070
     1
1070
    44
1040
1.0
1070
    74
1070
     0
1000
MTEXTEND
  0
POINT
  5
4BE3
330
46F6
100
AcDbEntity
  8
Defpoints
 62
     0
100
AcDbPoint
 10
185.055868484215
 20
165.4180595357131
 30
0.0
  0
POINT
  5
4BE4
330
46F6
100
AcDbEntity
  8
Defpoints
 62
     0
100
AcDbPoint
 10
201.355868484215
 20
181.7180595357134
 30
0.0
  0
POINT
  5
4BE5
330
46F6
100
AcDbEntity
  8
Defpoints
 62
     0
100
AcDbPoint
 10
216.3699374298738
 20
166.7039905900549
 30
0.0
  0
ENDBLK
  5
4701
330
46F6
100
AcDbEntity
  8
0
100
AcDbBlockEnd
  0
BLOCK
  5
470C
330
4702
100
AcDbEntity
  8
0
100
AcDbBlockBegin
  2
*D34
 70
     1
 10
0.0
 20
0.0
 30
0.0
  3
*D34
  1

  0
LINE
  5
4BD4
330
4702
100
AcDbEntity
  8
DIM
100
AcDbLine
 10
184.2790364782756
 20
160.0073993639337
 30
0.0
 11
201.7946714801086
 21
142.4917643621007
 31
0.0
  0
LINE
  5
4BD5
330
4702
100
AcDbEntity
  8
DIM
100
AcDbLine
 10
206.7665286559948
 20
182.4948915416528
 30
0.0
 11
224.2821636578277
 21
164.9792565398198
 31
0.0
  0
LINE
  5
4BD6
330
4702
100
AcDbEntity
  8
DIM
100
AcDbLine
 10
202.1482248707019
 20
144.9666380962536
 30
0.0
 11
221.8072899236748
 21
164.6257031492265
 31
0.0
  0
SOLID
  5
4BD7
330
4702
100
AcDbEntity
  8
DIM
100
AcDbTrace
 10
201.9125226103064
 20
145.2023403566492
 30
0.0
 11
202.3839271310974
 21
144.7309358358581
 31
0.0
 12
200.7340113083288
 22
143.5524245338805
 32
0.0
 13
200.7340113083288
 23
143.5524245338805
 33
0.0
  0
SOLID
  5
4BD8
330
4702
100
AcDbEntity
  8
DIM
100
AcDbTrace
 10
221.5715876632793
 20
164.8614054096221
 30
0.0
 11
222.0429921840703
 21
164.390000888831
 31
0.0
 12
223.2215034860479
 22
166.0399167115996
 32
0.0
 13
223.2215034860479
 23
166.0399167115996
 33
0.0
  0
MTEXT
  5
4BD9
330
4702
100
AcDbEntity
  8
DIM
100
AcDbMText
 10
210.5635438348153
 20
156.2103841851132
 30
0.0
 40
2.0
 41
0.0
 71
     5
 72
     1
  1
\A1;32
  7
dayus
 11
0.7071067811865485
 21
0.7071067811865467
 31
0.0
 73
     1
 44
1.0
1001
ACAD
1000
MTEXTBEGIN
1070
    73
1070
     1
1070
    44
1040
1.0
1070
    74
1070
     0
1000
MTEXTEND
  0
POINT
  5
4BDA
330
4702
100
AcDbEntity
  8
Defpoints
 62
     0
100
AcDbPoint
 10
183.2183763064958
 20
161.0680595357136
 30
0.0
  0
POINT
  5
4BDB
330
4702
100
AcDbEntity
  8
Defpoints
 62
     0
100
AcDbPoint
 10
205.7058684842149
 20
183.5555517134326
 30
0.0
  0
POINT
  5
4BDC
330
4702
100
AcDbEntity
  8
Defpoints
 62
     0
100
AcDbPoint
 10
223.2215034860479
 20
166.0399167115996
 30
0.0
  0
ENDBLK
  5
470D
330
4702
100
AcDbEntity
  8
0
100
AcDbBlockEnd
  0
BLOCK
  5
48BE
330
48B4
100
AcDbEntity
  8
0
100
AcDbBlockBegin
  2
*D35
 70
     1
 10
0.0
 20
0.0
 30
0.0
  3
*D35
  1

  0
LINE
  5
48B5
330
48B4
100
AcDbEntity
  8
DIM
100
AcDbLine
 10
186.116528655995
 20
59.84302955802039
 30
0.0
 11
201.1305976016538
 21
44.82896061236188
 31
0.0
  0
LINE
  5
48B6
330
48B4
100
AcDbEntity
  8
DIM
100
AcDbLine
 10
202.4165286559949
 20
76.14302955802066
 30
0.0
 11
217.4305976016537
 21
61.12896061236215
 31
0.0
  0
LINE
  5
48B7
330
48B4
100
AcDbEntity
  8
DIM
100
AcDbLine
 10
201.4841509922471
 20
47.3038343465148
 30
0.0
 11
214.9557238675009
 21
60.77540722176886
 31
0.0
  0
SOLID
  5
48B8
330
48B4
100
AcDbEntity
  8
DIM
100
AcDbTrace
 10
201.2484487318515
 20
47.53953660691031
 30
0.0
 11
201.7198532526426
 21
47.06813208611928
 31
0.0
 12
200.069937429874
 22
45.88962078414169
 32
0.0
 13
200.069937429874
 23
45.88962078414169
 33
0.0
  0
SOLID
  5
48B9
330
48B4
100
AcDbEntity
  8
DIM
100
AcDbTrace
 10
214.7200216071053
 20
61.01110948216437
 30
0.0
 11
215.1914261278964
 21
60.53970496137335
 31
0.0
 12
216.3699374298739
 22
62.18962078414197
 32
0.0
 13
216.3699374298739
 23
62.18962078414197
 33
0.0
  0
MTEXT
  5
48BA
330
48B4
100
AcDbEntity
  8
DIM
100
AcDbMText
 10
206.8057238675008
 20
55.45383434651492
 30
0.0
 40
2.0
 41
0.0
 71
     5
 72
     1
  1
\A1;23
  7
dayus
 11
0.7071067811865401
 21
0.707106781186555
 31
0.0
 73
     1
 44
1.0
1001
ACAD
1000
MTEXTBEGIN
1070
    73
1070
     1
1070
    44
1040
1.0
1070
    74
1070
     0
1000
MTEXTEND
  0
POINT
  5
48BB
330
48B4
100
AcDbEntity
  8
Defpoints
 62
     0
100
AcDbPoint
 10
185.0558684842151
 20
60.9036897298002
 30
0.0
  0
POINT
  5
48BC
330
48B4
100
AcDbEntity
  8
Defpoints
 62
     0
100
AcDbPoint
 10
201.3558684842151
 20
77.20368972980047
 30
0.0
  0
POINT
  5
48BD
330
48B4
100
AcDbEntity
  8
Defpoints
 62
     0
100
AcDbPoint
 10
216.3699374298739
 20
62.18962078414197
 30
0.0
  0
ENDBLK
  5
48BF
330
48B4
100
AcDbEntity
  8
0
100
AcDbBlockEnd
  0
BLOCK
  5
48CA
330
48C0
100
AcDbEntity
  8
0
100
AcDbBlockBegin
  2
*D36
 70
     1
 10
0.0
 20
0.0
 30
0.0
  3
*D36
  1

  0
LINE
  5
48C1
330
48C0
100
AcDbEntity
  8
DIM
100
AcDbLine
 10
184.2790364782757
 20
55.49302955802076
 30
0.0
 11
201.7946714801087
 21
37.97739455618775
 31
0.0
  0
LINE
  5
48C2
330
48C0
100
AcDbEntity
  8
DIM
100
AcDbLine
 10
206.7665286559949
 20
77.98052173573982
 30
0.0
 11
224.2821636578278
 21
60.46488673390681
 31
0.0
  0
LINE
  5
48C3
330
48C0
100
AcDbEntity
  8
DIM
100
AcDbLine
 10
202.148224870702
 20
40.45226829034065
 30
0.0
 11
221.8072899236749
 21
60.11133334331351
 31
0.0
  0
SOLID
  5
48C4
330
48C0
100
AcDbEntity
  8
DIM
100
AcDbTrace
 10
201.9125226103065
 20
40.68797055073616
 30
0.0
 11
202.3839271310975
 21
40.21656602994513
 31
0.0
 12
200.7340113083289
 22
39.03805472796756
 32
0.0
 13
200.7340113083289
 23
39.03805472796756
 33
0.0
  0
SOLID
  5
48C5
330
48C0
100
AcDbEntity
  8
DIM
100
AcDbTrace
 10
221.5715876632794
 20
60.34703560370903
 30
0.0
 11
222.0429921840704
 21
59.87563108291801
 31
0.0
 12
223.221503486048
 22
61.52554690568662
 32
0.0
 13
223.221503486048
 23
61.52554690568662
 33
0.0
  0
MTEXT
  5
48C6
330
48C0
100
AcDbEntity
  8
DIM
100
AcDbMText
 10
210.5635438348154
 20
51.69601437920022
 30
0.0
 40
2.0
 41
0.0
 71
     5
 72
     1
  1
\A1;32
  7
dayus
 11
0.7071067811865485
 21
0.7071067811865467
 31
0.0
 73
     1
 44
1.0
1001
ACAD
1000
MTEXTBEGIN
1070
    73
1070
     1
1070
    44
1040
1.0
1070
    74
1070
     0
1000
MTEXTEND
  0
POINT
  5
48C7
330
48C0
100
AcDbEntity
  8
Defpoints
 62
     0
100
AcDbPoint
 10
183.2183763064959
 20
56.55368972980059
 30
0.0
  0
POINT
  5
48C8
330
48C0
100
AcDbEntity
  8
Defpoints
 62
     0
100
AcDbPoint
 10
205.7058684842151
 20
79.04118190751964
 30
0.0
  0
POINT
  5
48C9
330
48C0
100
AcDbEntity
  8
Defpoints
 62
     0
100
AcDbPoint
 10
223.221503486048
 20
61.52554690568662
 30
0.0
  0
ENDBLK
  5
48CB
330
48C0
100
AcDbEntity
  8
0
100
AcDbBlockEnd
  0
BLOCK
  5
48DC
330
48D2
100
AcDbEntity
  8
0
100
AcDbBlockBegin
  2
*D37
 70
     1
 10
0.0
 20
0.0
 30
0.0
  3
*D37
  1

  0
LINE
  5
48D3
330
48D2
100
AcDbEntity
  8
DIM
100
AcDbLine
 10
106.3494431540752
 20
83.05368972980062
 30
0.0
 11
106.3494431540752
 21
87.72964401845261
 31
0.0
  0
LINE
  5
48D4
330
48D2
100
AcDbEntity
  8
DIM
100
AcDbLine
 10
112.8494431540751
 20
79.5536897298006
 30
0.0
 11
112.8494431540751
 21
87.72964401845261
 31
0.0
  0
LINE
  5
48D5
330
48D2
100
AcDbEntity
  8
DIM
100
AcDbLine
 10
108.3494431540752
 20
86.2296440184526
 30
0.0
 11
110.8494431540751
 21
86.2296440184526
 31
0.0
  0
SOLID
  5
48D6
330
48D2
100
AcDbEntity
  8
DIM
100
AcDbTrace
 10
108.3494431540752
 20
86.56297735178593
 30
0.0
 11
108.3494431540752
 21
85.89631068511927
 31
0.0
 12
106.3494431540752
 22
86.2296440184526
 32
0.0
 13
106.3494431540752
 23
86.2296440184526
 33
0.0
  0
SOLID
  5
48D7
330
48D2
100
AcDbEntity
  8
DIM
100
AcDbTrace
 10
110.8494431540751
 20
86.56297735178593
 30
0.0
 11
110.8494431540751
 21
85.89631068511927
 31
0.0
 12
112.8494431540751
 22
86.2296440184526
 32
0.0
 13
112.8494431540751
 23
86.2296440184526
 33
0.0
  0
MTEXT
  5
48D8
330
48D2
100
AcDbEntity
  8
DIM
100
AcDbMText
 10
109.5994431540751
 20
88.22964401845259
 30
0.0
 40
2.0
 41
0.0
 71
     5
 72
     1
  1
\A1;6.5
  7
dayus
 73
     1
 44
1.0
1001
ACAD
1000
MTEXTBEGIN
1070
    73
1070
     1
1070
    44
1040
1.0
1070
    74
1070
     0
1000
MTEXTEND
  0
POINT
  5
48D9
330
48D2
100
AcDbEntity
  8
Defpoints
 62
     0
100
AcDbPoint
 10
106.3494431540752
 20
81.55368972980062
 30
0.0
  0
POINT
  5
48DA
330
48D2
100
AcDbEntity
  8
Defpoints
 62
     0
100
AcDbPoint
 10
112.8494431540751
 20
78.05368972980059
 30
0.0
  0
POINT
  5
48DB
330
48D2
100
AcDbEntity
  8
Defpoints
 62
     0
100
AcDbPoint
 10
112.8494431540751
 20
86.2296440184526
 30
0.0
  0
ENDBLK
  5
48DD
330
48D2
100
AcDbEntity
  8
0
100
AcDbBlockEnd
  0
BLOCK
  5
48E8
330
48DE
100
AcDbEntity
  8
0
100
AcDbBlockBegin
  2
*D38
 70
     1
 10
0.0
 20
0.0
 30
0.0
  3
*D38
  1

  0
LINE
  5
48DF
330
48DE
100
AcDbEntity
  8
DIM
100
AcDbLine
 10
121.8494431540751
 20
79.5536897298006
 30
0.0
 11
121.8494431540751
 21
87.72964401845261
 31
0.0
  0
LINE
  5
48E0
330
48DE
100
AcDbEntity
  8
DIM
100
AcDbLine
 10
128.3494431540751
 20
83.0536897298006
 30
0.0
 11
128.3494431540751
 21
87.72964401845261
 31
0.0
  0
LINE
  5
48E1
330
48DE
100
AcDbEntity
  8
DIM
100
AcDbLine
 10
123.8494431540751
 20
86.2296440184526
 30
0.0
 11
126.3494431540751
 21
86.2296440184526
 31
0.0
  0
SOLID
  5
48E2
330
48DE
100
AcDbEntity
  8
DIM
100
AcDbTrace
 10
123.8494431540751
 20
86.56297735178593
 30
0.0
 11
123.8494431540751
 21
85.89631068511927
 31
0.0
 12
121.8494431540751
 22
86.2296440184526
 32
0.0
 13
121.8494431540751
 23
86.2296440184526
 33
0.0
  0
SOLID
  5
48E3
330
48DE
100
AcDbEntity
  8
DIM
100
AcDbTrace
 10
126.3494431540751
 20
86.56297735178593
 30
0.0
 11
126.3494431540751
 21
85.89631068511927
 31
0.0
 12
128.3494431540751
 22
86.2296440184526
 32
0.0
 13
128.3494431540751
 23
86.2296440184526
 33
0.0
  0
MTEXT
  5
48E4
330
48DE
100
AcDbEntity
  8
DIM
100
AcDbMText
 10
125.0994431540751
 20
88.22964401845259
 30
0.0
 40
2.0
 41
0.0
 71
     5
 72
     1
  1
\A1;6.5
  7
dayus
 73
     1
 44
1.0
1001
ACAD
1000
MTEXTBEGIN
1070
    73
1070
     1
1070
    44
1040
1.0
1070
    74
1070
     0
1000
MTEXTEND
  0
POINT
  5
48E5
330
48DE
100
AcDbEntity
  8
Defpoints
 62
     0
100
AcDbPoint
 10
121.8494431540751
 20
78.05368972980059
 30
0.0
  0
POINT
  5
48E6
330
48DE
100
AcDbEntity
  8
Defpoints
 62
     0
100
AcDbPoint
 10
128.3494431540751
 20
81.5536897298006
 30
0.0
  0
POINT
  5
48E7
330
48DE
100
AcDbEntity
  8
Defpoints
 62
     0
100
AcDbPoint
 10
128.3494431540751
 20
86.2296440184526
 30
0.0
  0
ENDBLK
  5
48E9
330
48DE
100
AcDbEntity
  8
0
100
AcDbBlockEnd
  0
BLOCK
  5
4CC5
330
4CC3
100
AcDbEntity
  8
0
100
AcDbBlockBegin
  2
A$C5ECF147B
 70
     0
 10
0.0
 20
0.0
 30
0.0
  3
A$C5ECF147B
  1

  0
CIRCLE
  5
4CC6
330
4CC3
100
AcDbEntity
  8
0
100
AcDbCircle
 10
-3.079240456948355
 20
2.061381943681453
 30
0.0
 40
1.25
  0
CIRCLE
  5
4CC7
330
4CC3
100
AcDbEntity
  8
0
100
AcDbCircle
 10
-3.079240456948355
 20
2.061381943681453
 30
0.0
 40
0.75
  0
ENDBLK
  5
4CC8
330
4CC3
100
AcDbEntity
  8
0
100
AcDbBlockEnd
  0
BLOCK
  5
4ECC
330
4EC9
100
AcDbEntity
  8
0
100
AcDbBlockBegin
  2
A$C1F6E6265
 70
     0
 10
0.0
 20
0.0
 30
0.0
  3
A$C1F6E6265
  1

  0
LINE
  5
4ECD
330
4EC9
100
AcDbEntity
  8
AM_5
 62
     5
100
AcDbLine
 10
12.57846733029419
 20
0.460783587398737
 30
0.0
 11
7.091423997858555
 21
0.460783587398737
 31
0.0
  0
LINE
  5
4ECE
330
4EC9
100
AcDbEntity
  8
AM_5
 62
     5
100
AcDbLine
 10
7.091423997858555
 20
0.460783587398737
 30
0.0
 11
3.50000046420655
 21
0.460783587398737
 31
0.0
  0
TRACE
  5
4ECF
330
4EC9
100
AcDbEntity
  8
AM_5
 62
     5
370
    35
100
AcDbTrace
 10
3.50000046420655
 20
0.9215673268987245
 30
0.0
 11
3.50000046420655
 21
-0.0000001521012507
 31
0.0
 12
0.0000004642065505
 22
0.460783587398737
 32
0.0
 13
0.0000004642065505
 23
0.460783587398737
 33
0.0
  0
MTEXT
  5
4ED0
330
4EC9
100
AcDbEntity
  8
AM_5
 62
     5
100
AcDbMText
 10
6.603782167567317
 20
1.421084835219261
 30
0.0
 40
2.449999999999999
 41
0.0
 71
     7
 72
     5
  1
SL
  7
ACISOTS
 73
     1
 44
1.0
1001
ACAD
1000
MTEXTBEGIN
1070
    73
1070
     1
1070
    44
1040
1.0
1070
    74
1070
     0
1000
MTEXTEND
  0
ENDBLK
  5
4ED1
330
4EC9
100
AcDbEntity
  8
0
100
AcDbBlockEnd
  0
ENDSEC
  0
SECTION
  2
ENTITIES
  0
TEXT
  5
82
330
1F
100
AcDbEntity
  8
A3-S
 62
     5
100
AcDbText
 10
-2002.927221967571
 20
62.23202368211355
 30
0.0
 40
26.6
  1

  7
RUBONK
100
AcDbText
  0
MTEXT
  5
A9
330
1F
100
AcDbEntity
  8
0
100
AcDbMText
 10
-112.8858816556399
 20
179.1757813154577
 30
0.0
 40
3.0
 41
0.0
 71
     4
 72
     5
  1

 73
     1
 44
1.0
1001
ACAD
1000
MTEXTBEGIN
1070
    73
1070
     1
1070
    44
1040
1.0
1070
    74
1070
     0
1000
MTEXTEND
  0
MTEXT
  5
AA
330
1F
100
AcDbEntity
  8
0
100
AcDbMText
 10
-176.2667196970539
 20
189.9084924046809
 30
0.0
 40
1.799999999999999
 41
0.0
 71
     9
 72
     5
  1

 73
     1
 44
1.0
1001
ACAD
1000
MTEXTBEGIN
1070
    73
1070
     1
1070
    44
1040
1.0
1070
    74
1070
     0
1000
MTEXTEND
  0
MTEXT
  5
AB
330
1F
100
AcDbEntity
  8
0
100
AcDbMText
 10
82.64233389287733
 20
174.944592339129
 30
0.0
 40
3.0
 41
0.0
 71
     4
 72
     5
  1

 73
     1
 44
1.0
1001
ACAD
1000
MTEXTBEGIN
1070
    73
1070
     1
1070
    44
1040
1.0
1070
    74
1070
     0
1000
MTEXTEND
  0
MTEXT
  5
AC
330
1F
100
AcDbEntity
  8
0
100
AcDbMText
 10
19.26149585146331
 20
185.6773034283523
 30
0.0
 40
1.799999999999999
 41
0.0
 71
     9
 72
     5
  1

 73
     1
 44
1.0
1001
ACAD
1000
MTEXTBEGIN
1070
    73
1070
     1
1070
    44
1040
1.0
1070
    74
1070
     0
1000
MTEXTEND
  0
MTEXT
  5
B1
330
1F
100
AcDbEntity
  8
0
100
AcDbMText
 10
-211.0828086697475
 20
93.72900974557683
 30
0.0
 40
3.0
 41
59.51
 71
     1
 72
     5
  1

  7
CHINESET
 73
     1
 44
1.0
1001
ACAD
1000
MTEXTBEGIN
1070
    73
1070
     1
1070
    44
1040
1.0
1070
    74
1070
     0
1000
MTEXTEND
  0
MTEXT
  5
B2
330
1F
100
AcDbEntity
  8
0
100
AcDbMText
 10
-179.9099428209695
 20
86.93407807798587
 30
0.0
 40
3.0
 41
38.26
 71
     1
 72
     5
  1

  7
CHINESET
 73
     1
 44
1.0
1001
ACAD
1000
MTEXTBEGIN
1070
    73
1070
     1
1070
    44
1040
1.0
1070
    74
1070
     0
1000
MTEXTEND
  0
MTEXT
  5
10B3
330
1F
100
AcDbEntity
  8
0
100
AcDbMText
 10
81.67014302795905
 20
125.5492500028813
 30
0.0
 40
3.0
 41
0.0
 71
     7
 72
     5
  1

  7
CHINESET
 73
     1
 44
1.0
1001
ACAD
1000
MTEXTBEGIN
1070
    73
1070
     1
1070
    44
1040
1.0
1070
    74
1070
     0
1000
MTEXTEND
  0
LINE
  5
17B4
330
1F
100
AcDbEntity
  8
0
 62
     4
100
AcDbLine
 10
271.6277841472795
 20
28.72928384389752
 30
0.0
 11
271.6277841472795
 21
239.455591590179
 31
0.0
  0
LINE
  5
17B5
330
1F
100
AcDbEntity
  8
0
 62
     4
100
AcDbLine
 10
62.69244167992496
 20
28.72928384389749
 30
0.0
 11
62.69244167992496
 21
239.455591590179
 31
0.0
  0
TEXT
  5
17BD
330
1F
100
AcDbEntity
  8
LOGO
  6
Continuous
 62
     7
100
AcDbText
 10
188.763273840967
 20
19.51875941423931
 30
0.0
 40
4.751249999999999
  1
11/12
  7
CHINESET
 72
     1
 11
198.265773840967
 21
21.89438441423931
 31
0.0
100
AcDbText
 73
     2
  0
TEXT
  5
17BE
330
1F
100
AcDbEntity
  8
LOGO
100
AcDbText
 10
191.0449568214604
 20
9.029616736504758
 30
0.0
 40
3.393749999999999
  1
作動型式
  7
CHINESET
 72
     4
 11
197.7971052589604
 21
10.63964380343389
 31
0.0
100
AcDbText
  0
LINE
  5
17BF
330
1F
100
AcDbEntity
  8
0
 62
     4
100
AcDbLine
 10
271.6277841472795
 20
132.5160938956515
 30
0.0
 11
62.69244167992496
 21
132.5160938956515
 31
0.0
  0
TEXT
  5
17C3
330
1F
100
AcDbEntity
  8
LOGO
  6
Continuous
100
AcDbText
 10
190.8156766875319
 20
5.438483793317992
 30
0.0
 40
2.036249999999999
  1
Acting type
 41
0.8
  7
CHINESET
 72
     4
 11
197.7971052589604
 21
6.117233793317993
 31
0.0
100
AcDbText
  0
LINE
  5
17C4
330
1F
100
AcDbEntity
  8
LOGO
 62
     4
100
AcDbLine
 10
208.486193907819
 20
17.87549981961933
 30
0.0
 11
187.8227472685385
 21
17.87549981961933
 31
0.0
  0
LINE
  5
17C5
330
1F
100
AcDbEntity
  8
LOGO
 62
     4
100
AcDbLine
 10
208.486193907819
 20
13.80533081051503
 30
0.0
 11
187.8227472685385
 21
13.80533081051503
 31
0.0
  0
LINE
  5
17C6
330
1F
100
AcDbEntity
  8
LOGO
 62
     4
100
AcDbLine
 10
208.486193907819
 20
3.856028788260044
 30
0.0
 11
187.8227472685385
 21
3.856028788260022
 31
0.0
  0
LINE
  5
17C7
330
1F
100
AcDbEntity
  8
LOGO
 62
     4
100
AcDbLine
 10
208.486193907819
 20
26.015837837828
 30
0.0
 11
187.8227472685385
 21
26.01583783782795
 31
0.0
  0
LINE
  5
1802
330
1F
100
AcDbEntity
  8
LOGO
 62
     4
100
AcDbLine
 10
179.6091033829782
 20
13.80533081051503
 30
0.0
 11
161.5194633425146
 21
13.80533081051503
 31
0.0
  0
TEXT
  5
1803
330
1F
100
AcDbEntity
  8
LOGO
  6
Continuous
 62
     7
100
AcDbText
 10
161.8536583627463
 20
19.57004382872364
 30
0.0
 40
4.751249999999999
  1
MCJA
  7
CHINESET
 72
     1
 11
170.5642833627463
 21
21.94566882872365
 31
0.0
100
AcDbText
 73
     2
  0
LINE
  5
1804
330
1F
100
AcDbEntity
  8
LOGO
 62
     4
100
AcDbLine
 10
179.6091033829782
 20
3.856028788260044
 30
0.0
 11
161.5194633425146
 21
3.856028788260022
 31
0.0
  0
TEXT
  5
1805
330
1F
100
AcDbEntity
  8
LOGO
  6
Continuous
100
AcDbText
 10
167.4614262198891
 20
5.099108793317993
 30
0.0
 40
2.036249999999999
  1
Model
 41
0.8
  7
CHINESET
 72
     4
 11
170.5642833627463
 21
6.117233793317993
 31
0.0
100
AcDbText
  0
TEXT
  5
1806
330
1F
100
AcDbEntity
  8
LOGO
100
AcDbText
 10
167.1705333627463
 20
9.029616736504758
 30
0.0
 40
3.393749999999999
  1
型式
  7
CHINESET
 72
     4
 11
170.5642833627463
 21
10.63964380343389
 31
0.0
100
AcDbText
  0
LINE
  5
1807
330
1F
100
AcDbEntity
  8
LOGO
 62
     4
100
AcDbLine
 10
181.4180673870245
 20
17.87549981961933
 30
0.0
 11
159.7104993384682
 21
17.87549981961933
 31
0.0
  0
LINE
  5
1808
330
1F
100
AcDbEntity
  8
LOGO
 62
     4
100
AcDbLine
 10
181.4180673870245
 20
26.01583783782795
 30
0.0
 11
159.7104993384682
 21
26.01583783782795
 31
0.0
  0
LINE
  5
1809
330
1F
100
AcDbEntity
  8
LOGO
 62
     4
100
AcDbLine
 10
170.5642833627463
 20
17.87549981961933
 30
0.0
 11
170.5642833627463
 21
13.80533081051503
 31
0.0
  0
LINE
  5
180A
330
1F
100
AcDbEntity
  8
LOGO
 62
     4
100
AcDbLine
 10
161.5194633425146
 20
13.80533081051503
 30
0.0
 11
161.5194633425146
 21
3.856028788260022
 31
0.0
  0
LINE
  5
180B
330
1F
100
AcDbEntity
  8
LOGO
 62
     4
100
AcDbLine
 10
159.7104993384682
 20
26.01583783782795
 30
0.0
 11
159.7104993384682
 21
17.87549981961933
 31
0.0
  0
LINE
  5
180C
330
1F
100
AcDbEntity
  8
LOGO
 62
     4
100
AcDbLine
 10
179.6091033829782
 20
13.80533081051503
 30
0.0
 11
179.6091033829782
 21
3.856028788260044
 31
0.0
  0
LINE
  5
180D
330
1F
100
AcDbEntity
  8
LOGO
 62
     4
100
AcDbLine
 10
187.8227472685385
 20
13.80533081051503
 30
0.0
 11
187.8227472685385
 21
3.856028788260044
 31
0.0
  0
LINE
  5
180E
330
1F
100
AcDbEntity
  8
LOGO
  6
Continuous
 62
     7
100
AcDbLine
 10
182.820525290538
 20
21.91683446498565
 30
0.0
 11
186.415001531643
 21
21.91683446498565
 31
0.0
  0
LINE
  5
180F
330
1F
100
AcDbEntity
  8
LOGO
 62
     4
100
AcDbLine
 10
181.4180673870246
 20
26.01583783782795
 30
0.0
 11
181.4180673870246
 21
17.87549981961933
 31
0.0
  0
LINE
  5
1810
330
1F
100
AcDbEntity
  8
LOGO
 62
     4
100
AcDbLine
 10
187.8227472685385
 20
26.01583783782795
 30
0.0
 11
187.8227472685385
 21
17.87549981961933
 31
0.0
  0
LINE
  5
1868
330
1F
100
AcDbEntity
  8
LOGO
 62
     4
100
AcDbLine
 10
250.8846170471848
 20
26.01583783782795
 30
0.0
 11
235.8173776395517
 21
26.01583783782795
 31
0.0
  0
LINE
  5
1869
330
1F
100
AcDbEntity
  8
LOGO
 62
     4
100
AcDbLine
 10
250.8846170471848
 20
17.87549981961933
 30
0.0
 11
235.8173776395517
 21
17.87549981961933
 31
0.0
  0
LINE
  5
186A
330
1F
100
AcDbEntity
  8
LOGO
 62
     4
100
AcDbLine
 10
249.9801350451616
 20
13.80533081051503
 30
0.0
 11
236.7218596415749
 21
13.80533081051503
 31
0.0
  0
LINE
  5
186B
330
1F
100
AcDbEntity
  8
LOGO
 62
     4
100
AcDbLine
 10
249.9801350451616
 20
3.856028788260044
 30
0.0
 11
236.7218596415749
 21
3.856028788260022
 31
0.0
  0
LINE
  5
186C
330
1F
100
AcDbEntity
  8
LOGO
 62
     4
100
AcDbLine
 10
229.4126977580378
 20
17.87549981961938
 30
0.0
 11
214.8908737893329
 21
17.87549981961938
 31
0.0
  0
LINE
  5
186D
330
1F
100
AcDbEntity
  8
LOGO
 62
     4
100
AcDbLine
 10
229.4126977580378
 20
13.80533081051507
 30
0.0
 11
214.8908737893329
 21
13.80533081051507
 31
0.0
  0
LINE
  5
186E
330
1F
100
AcDbEntity
  8
LOGO
 62
     4
100
AcDbLine
 10
229.4126977580378
 20
26.01583783782806
 30
0.0
 11
214.8908737893329
 21
26.015837837828
 31
0.0
  0
TEXT
  5
186F
330
1F
100
AcDbEntity
  8
LOGO
  6
Continuous
 62
     7
100
AcDbText
 10
219.1801274911184
 20
19.51875941423936
 30
0.0
 40
4.751249999999999
  1
12
  7
CHINESET
 72
     1
 11
222.5738774911184
 21
21.89438441423936
 31
0.0
100
AcDbText
 73
     2
  0
LINE
  5
1870
330
1F
100
AcDbEntity
  8
LOGO
 62
     4
100
AcDbLine
 10
229.4126977580378
 20
3.856028788260097
 30
0.0
 11
214.8908737893329
 21
3.856028788260065
 31
0.0
  0
TEXT
  5
1871
330
1F
100
AcDbEntity
  8
LOGO
  6
Continuous
100
AcDbText
 10
219.630714345114
 20
5.099108793318025
 30
0.0
 40
2.036249999999999
  1
Bore
 41
0.8
  7
CHINESET
 72
     4
 11
222.1517857736854
 21
6.117233793318025
 31
0.0
100
AcDbText
  0
TEXT
  5
1872
330
1F
100
AcDbEntity
  8
LOGO
100
AcDbText
 10
218.5459263986854
 20
8.942768803433922
 30
0.0
 40
3.393749999999999
  1
內徑
  7
CHINESET
 72
     4
 11
222.1517857736854
 21
10.63964380343392
 31
0.0
100
AcDbText
  0
LINE
  5
1873
330
1F
100
AcDbEntity
  8
LOGO
 62
     4
100
AcDbLine
 10
222.1517855651259
 20
17.87549981961938
 30
0.0
 11
222.1517855651259
 21
13.80533081051507
 31
0.0
  0
LINE
  5
1874
330
1F
100
AcDbEntity
  8
LOGO
 62
     4
100
AcDbLine
 10
197.7971052589604
 20
17.87549981961933
 30
0.0
 11
197.7971052589604
 21
13.80533081051503
 31
0.0
  0
LINE
  5
1875
330
1F
100
AcDbEntity
  8
LOGO
 62
     4
100
AcDbLine
 10
208.486193907819
 20
13.80533081051503
 30
0.0
 11
208.486193907819
 21
3.856028788260065
 31
0.0
  0
LINE
  5
1876
330
1F
100
AcDbEntity
  8
LOGO
 62
     4
100
AcDbLine
 10
214.8908737893329
 20
13.80533081051507
 30
0.0
 11
214.8908737893329
 21
3.856028788260097
 31
0.0
  0
LINE
  5
1877
330
1F
100
AcDbEntity
  8
LOGO
 62
     4
100
AcDbLine
 10
208.486193907819
 20
26.015837837828
 30
0.0
 11
208.486193907819
 21
17.87549981961933
 31
0.0
  0
LINE
  5
1878
330
1F
100
AcDbEntity
  8
LOGO
 62
     4
100
AcDbLine
 10
214.8908737893329
 20
26.015837837828
 30
0.0
 11
214.8908737893329
 21
17.87549981961938
 31
0.0
  0
LINE
  5
1879
330
1F
100
AcDbEntity
  8
LOGO
  6
Continuous
 62
     7
100
AcDbLine
 10
209.8886518113324
 20
21.9168344649857
 30
0.0
 11
213.4831280524375
 21
21.9168344649857
 31
0.0
  0
LINE
  5
187A
330
1F
100
AcDbEntity
  8
LOGO
 62
     4
100
AcDbLine
 10
243.5425584188317
 20
17.87549981961933
 30
0.0
 11
243.5425584188317
 21
13.80533081051503
 31
0.0
  0
LINE
  5
187B
330
1F
100
AcDbEntity
  8
LOGO
 62
     4
100
AcDbLine
 10
229.4126977580378
 20
13.80533081051507
 30
0.0
 11
229.4126977580378
 21
3.856028788260118
 31
0.0
  0
LINE
  5
187C
330
1F
100
AcDbEntity
  8
LOGO
 62
     4
100
AcDbLine
 10
236.7218596415749
 20
13.80533081051503
 30
0.0
 11
236.7218596415749
 21
3.856028788260022
 31
0.0
  0
TEXT
  5
187D
330
1F
100
AcDbEntity
  8
LOGO
  6
Continuous
100
AcDbText
 10
239.6663544862254
 20
5.099108793317972
 30
0.0
 40
2.036249999999999
  1
Stroke
 41
0.8
  7
CHINESET
 72
     4
 11
243.3509973433683
 21
6.117233793317971
 31
0.0
100
AcDbText
  0
TEXT
  5
187E
330
1F
100
AcDbEntity
  8
LOGO
100
AcDbText
 10
239.9572473433682
 20
8.942768803433866
 30
0.0
 40
3.393749999999999
  1
行程
  7
CHINESET
 72
     4
 11
243.3509973433683
 21
10.63964380343386
 31
0.0
100
AcDbText
  0
LINE
  5
187F
330
1F
100
AcDbEntity
  8
LOGO
 62
     4
100
AcDbLine
 10
229.4126977580378
 20
26.01583783782806
 30
0.0
 11
229.4126977580378
 21
17.87549981961938
 31
0.0
  0
LINE
  5
1880
330
1F
100
AcDbEntity
  8
LOGO
  6
Continuous
 62
     7
100
AcDbLine
 10
230.8151556615513
 20
21.91683446498576
 30
0.0
 11
234.4096319026564
 21
21.91683446498576
 31
0.0
  0
LINE
  5
1881
330
1F
100
AcDbEntity
  8
LOGO
 62
     4
100
AcDbLine
 10
235.8173776395517
 20
26.01583783782795
 30
0.0
 11
235.8173776395517
 21
17.87549981961933
 31
0.0
  0
TEXT
  5
1882
330
1F
100
AcDbEntity
  8
LOGO
  6
Continuous
 62
     7
100
AcDbText
 10
242.6418390608013
 20
19.51875941423931
 30
0.0
 40
4.751249999999999
  1
*
  7
CHINESET
 72
     1
 11
243.7730890608013
 21
21.89438441423931
 31
0.0
100
AcDbText
 73
     2
  0
LINE
  5
1883
330
1F
100
AcDbEntity
  8
LOGO
 62
     4
100
AcDbLine
 10
258.7093430063145
 20
17.87549981961933
 30
0.0
 11
258.7093430063145
 21
13.80533081051503
 31
0.0
  0
LINE
  5
1885
330
1F
100
AcDbEntity
  8
LOGO
 62
     4
100
AcDbLine
 10
265.7128328187066
 20
3.856028788260044
 30
0.0
 11
252.0802053045212
 21
3.856028788260022
 31
0.0
  0
LINE
  5
1886
330
1F
100
AcDbEntity
  8
LOGO
 62
     4
100
AcDbLine
 10
265.7128328187066
 20
13.80533081051503
 30
0.0
 11
252.0802053045212
 21
13.80533081051503
 31
0.0
  0
TEXT
  5
1887
330
1F
100
AcDbEntity
  8
LOGO
  6
Continuous
100
AcDbText
 10
254.5592715777431
 20
5.438483793317971
 30
0.0
 40
2.036249999999999
  1
Magnet
 41
0.8
  7
CHINESET
 72
     4
 11
258.7093430063145
 21
6.117233793317971
 31
0.0
100
AcDbText
  0
TEXT
  5
1888
330
1F
100
AcDbEntity
  8
LOGO
100
AcDbText
 10
253.6187180063145
 20
8.978120365933866
 30
0.0
 40
3.393749999999999
  1
附磁石
  7
CHINESET
 72
     4
 11
258.7093430063145
 21
10.63964380343386
 31
0.0
100
AcDbText
  0
LINE
  5
1889
330
1F
100
AcDbEntity
  8
LOGO
 62
     4
100
AcDbLine
 10
252.0802053045212
 20
13.80533081051503
 30
0.0
 11
252.0802053045212
 21
3.856028788260022
 31
0.0
  0
LINE
  5
188A
330
1F
100
AcDbEntity
  8
LOGO
 62
     4
100
AcDbLine
 10
249.9801350451616
 20
13.80533081051503
 30
0.0
 11
249.9801350451616
 21
3.818513322472515
 31
0.0
  0
LINE
  5
188B
330
1F
100
AcDbEntity
  8
LOGO
 62
     4
100
AcDbLine
 10
265.7128328187066
 20
13.80533081051503
 30
0.0
 11
265.7128328187066
 21
3.818513322472515
 31
0.0
  0
TEXT
  5
188C
330
1F
100
AcDbEntity
  8
LOGO
  6
Continuous
 62
     7
100
AcDbText
 10
254.040809932307
 20
19.51875941423931
 30
0.0
 40
4.751249999999999
  1
(M)
  7
CHINESET
 72
     1
 11
259.131434932307
 21
21.89438441423931
 31
0.0
100
AcDbText
 73
     2
  0
LINE
  5
188D
330
1F
100
AcDbEntity
  8
LOGO
 62
     4
100
AcDbLine
 10
265.0261512046449
 20
17.87549981961933
 30
0.0
 11
252.7668869185828
 21
17.87549981961933
 31
0.0
  0
LINE
  5
188E
330
1F
100
AcDbEntity
  8
LOGO
 62
     4
100
AcDbLine
 10
265.0261512046449
 20
26.015837837828
 30
0.0
 11
252.7668869185828
 21
26.01583783782795
 31
0.0
  0
LINE
  5
188F
330
1F
100
AcDbEntity
  8
LOGO
 62
     4
100
AcDbLine
 10
252.7668869185828
 20
26.01583783782795
 30
0.0
 11
252.7668869185828
 21
17.87549981961933
 31
0.0
  0
LINE
  5
1890
330
1F
100
AcDbEntity
  8
LOGO
 62
     4
100
AcDbLine
 10
250.8846170471848
 20
26.01583783782795
 30
0.0
 11
250.8846170471848
 21
17.87549981961933
 31
0.0
  0
LINE
  5
1891
330
1F
100
AcDbEntity
  8
LOGO
 62
     4
100
AcDbLine
 10
265.0261512046447
 20
26.015837837828
 30
0.0
 11
265.0261512046449
 21
17.87549981961933
 31
0.0
  0
LINE
  5
18E7
330
1F
100
AcDbEntity
  8
0
 62
     4
100
AcDbLine
 10
271.6277841472795
 20
239.455591590179
 30
0.0
 11
62.69244167992496
 21
239.455591590179
 31
0.0
  0
TEXT
  5
18EA
330
1F
100
AcDbEntity
  8
0
100
AcDbText
 10
67.57660227018504
 20
230.0104762664763
 30
0.0
 40
4.0
  1
11 type
  7
CHINESET
100
AcDbText
  0
LINE
  5
43C7
102
{ACAD_REACTORS
330
447D
102
}
330
1F
100
AcDbEntity
  8
CENTER
100
AcDbLine
 10
103.9220086615958
 20
173.5680595357136
 30
0.0
 11
146.8707571482584
 21
173.5680595357136
 31
0.0
  0
LINE
  5
43C8
330
1F
100
AcDbEntity
  8
0
100
AcDbLine
 10
128.3494431540751
 20
161.0680595357136
 30
0.0
 11
128.3494431540751
 21
173.5680595357136
 31
0.0
  0
LINE
  5
43C9
102
{ACAD_REACTORS
330
4462
330
4477
330
451D
330
4474
102
}
330
1F
100
AcDbEntity
  8
0
100
AcDbLine
 10
106.3494431540751
 20
161.0680595357136
 30
0.0
 11
106.3494431540752
 21
186.0680595357136
 31
0.0
  0
LINE
  5
43CA
330
1F
100
AcDbEntity
  8
0
100
AcDbLine
 10
128.3494431540751
 20
186.0680595357136
 30
0.0
 11
106.3494431540752
 21
186.0680595357136
 31
0.0
  0
LINE
  5
43CB
102
{ACAD_REACTORS
330
4465
330
4471
330
447A
330
4520
330
4474
102
}
330
1F
100
AcDbEntity
  8
0
100
AcDbLine
 10
128.3494431540751
 20
173.5680595357136
 30
0.0
 11
128.3494431540751
 21
186.0680595357136
 31
0.0
  0
LINE
  5
43CC
330
1F
100
AcDbEntity
  8
0
100
AcDbLine
 10
128.3494431540751
 20
174.7680595357136
 30
0.0
 11
128.3494431540751
 21
180.5680595357136
 31
0.0
  0
LINE
  5
43CD
330
1F
100
AcDbEntity
  8
0
100
AcDbLine
 10
128.3494431540751
 20
161.0680595357135
 30
0.0
 11
106.3494431540751
 21
161.0680595357135
 31
0.0
  0
LINE
  5
43CE
330
1F
100
AcDbEntity
  8
0
100
AcDbLine
 10
186.5058684842149
 20
185.6680595357135
 30
0.0
 11
186.0558684842149
 21
185.1680595357135
 31
0.0
  0
LINE
  5
43CF
330
1F
100
AcDbEntity
  8
0
100
AcDbLine
 10
189.905868484215
 20
185.6680595357135
 30
0.0
 11
190.355868484215
 21
185.1680595357135
 31
0.0
  0
LINE
  5
43D0
330
1F
100
AcDbEntity
  8
0
100
AcDbLine
 10
193.2058684842149
 20
185.6680595357135
 30
0.0
 11
192.7558684842149
 21
185.1680595357135
 31
0.0
  0
LINE
  5
43D1
330
1F
100
AcDbEntity
  8
0
100
AcDbLine
 10
196.6058684842149
 20
185.6680595357135
 30
0.0
 11
197.0558684842149
 21
185.1680595357135
 31
0.0
  0
ARC
  5
43D2
102
{ACAD_REACTORS
330
4495
330
449B
330
453B
102
}
330
1F
100
AcDbEntity
  8
0
100
AcDbCircle
 10
193.2058684842149
 20
173.5680595357136
 30
0.0
 40
16.0
100
AcDbArc
 50
38.62483287305301
 51
51.375167126947
  0
LINE
  5
43D3
330
1F
100
AcDbEntity
  8
CENTER
100
AcDbLine
 10
193.2058684842149
 20
161.1864569825552
 30
0.0
 11
193.2058684842149
 21
186.8608992630195
 31
0.0
  0
ARC
  5
43D4
102
{ACAD_REACTORS
330
4495
102
}
330
1F
100
AcDbEntity
  8
0
100
AcDbCircle
 10
193.2058684842149
 20
173.5680595357136
 30
0.0
 40
16.0
100
AcDbArc
 50
128.624832873053
 51
141.375167126947
  0
ARC
  5
43D5
330
1F
100
AcDbEntity
  8
0
 62
     3
100
AcDbCircle
 10
185.055868484215
 20
165.4180595357132
 30
0.0
 40
2.55
100
AcDbArc
 50
161.6413017677714
 51
104.3551892088735
  0
LINE
  5
43D6
330
1F
100
AcDbEntity
  8
CENTER
 48
0.5
100
AcDbLine
 10
181.5558684842151
 20
165.4180595357132
 30
0.0
 11
188.555868484215
 21
165.4180595357132
 31
0.0
  0
LINE
  5
43D7
102
{ACAD_REACTORS
330
449B
330
453B
102
}
330
1F
100
AcDbEntity
  8
0
100
AcDbLine
 10
190.1558684842149
 20
161.0680595357136
 30
0.0
 11
183.2183763064958
 21
161.0680595357136
 31
0.0
  0
ARC
  5
43D8
330
1F
100
AcDbEntity
  8
0
100
AcDbCircle
 10
187.7558684842149
 20
183.0680595357136
 30
0.0
 40
1.7
100
AcDbArc
 50
180.0
 51
270.0
  0
CIRCLE
  5
43D9
330
1F
100
AcDbEntity
  8
0
100
AcDbCircle
 10
185.055868484215
 20
165.4180595357132
 30
0.0
 40
3.25
  0
CIRCLE
  5
43DA
102
{ACAD_REACTORS
330
4498
330
4538
102
}
330
1F
100
AcDbEntity
  8
0
100
AcDbCircle
 10
185.055868484215
 20
165.4180595357132
 30
0.0
 40
2.149999999999999
  0
ARC
  5
43DB
330
1F
100
AcDbEntity
  8
0
 62
     3
100
AcDbCircle
 10
201.355868484215
 20
181.7180595357135
 30
0.0
 40
2.55
100
AcDbArc
 50
158.7383725079112
 51
102.0419433502654
  0
ARC
  5
43DC
330
1F
100
AcDbEntity
  8
0
100
AcDbCircle
 10
193.2058684842149
 20
173.5680595357136
 30
0.0
 40
16.0
100
AcDbArc
 50
308.624832873053
 51
321.375167126947
  0
LINE
  5
43DD
330
1F
100
AcDbEntity
  8
0
100
AcDbLine
 10
203.9558684842147
 20
167.5680595357135
 30
0.0
 11
202.7558684842149
 21
167.5680595357135
 31
0.0
  0
LINE
  5
43DE
330
1F
100
AcDbEntity
  8
0
100
AcDbLine
 10
205.655868484215
 20
176.5680595357135
 30
0.0
 11
202.7558684842149
 21
176.5680595357135
 31
0.0
  0
LINE
  5
43DF
330
1F
100
AcDbEntity
  8
CENTER
 48
0.5
100
AcDbLine
 10
197.855868484215
 20
181.7180595357135
 30
0.0
 11
204.855868484215
 21
181.7180595357135
 31
0.0
  0
CIRCLE
  5
43E0
330
1F
100
AcDbEntity
  8
0
100
AcDbCircle
 10
201.355868484215
 20
181.7180595357135
 30
0.0
 40
3.25
  0
LINE
  5
43E1
330
1F
100
AcDbEntity
  8
0
100
AcDbLine
 10
205.7058684842149
 20
163.5805673579944
 30
0.0
 11
205.7058684842149
 21
169.2180595357134
 31
0.0
  0
LINE
  5
43E2
330
1F
100
AcDbEntity
  8
0
100
AcDbLine
 10
204.0058684842147
 20
167.6180595357135
 30
0.0
 11
204.0058684842147
 21
169.2180595357134
 31
0.0
  0
ARC
  5
43E3
330
1F
100
AcDbEntity
  8
0
100
AcDbCircle
 10
203.9558684842147
 20
167.6180595357135
 30
0.0
 40
0.05
100
AcDbArc
 50
270.0
 51
0.0
  0
ARC
  5
43E4
330
1F
100
AcDbEntity
  8
0
100
AcDbCircle
 10
204.0558684842146
 20
169.2180595357134
 30
0.0
 40
0.05
100
AcDbArc
 50
90.0
 51
180.0
  0
ARC
  5
43E5
330
1F
100
AcDbEntity
  8
0
100
AcDbCircle
 10
205.655868484215
 20
169.2180595357134
 30
0.0
 40
0.05
100
AcDbArc
 50
0.0
 51
90.0
  0
LINE
  5
43E6
330
1F
100
AcDbEntity
  8
0
100
AcDbLine
 10
205.655868484215
 20
169.2680595357133
 30
0.0
 11
204.0558684842146
 21
169.2680595357133
 31
0.0
  0
LINE
  5
43E7
102
{ACAD_REACTORS
330
4495
330
449B
330
453B
102
}
330
1F
100
AcDbEntity
  8
0
100
AcDbLine
 10
205.7058684842149
 20
183.5555517134327
 30
0.0
 11
205.7058684842149
 21
176.6180595357133
 31
0.0
  0
ARC
  5
43E8
330
1F
100
AcDbEntity
  8
0
100
AcDbCircle
 10
205.655868484215
 20
176.6180595357136
 30
0.0
 40
0.05
100
AcDbArc
 50
270.0
 51
0.0
  0
CIRCLE
  5
43E9
330
1F
100
AcDbEntity
  8
0
100
AcDbCircle
 10
193.2058684842148
 20
173.5680595357136
 30
0.0
 40
5.476300158445113
  0
CIRCLE
  5
43EA
330
1F
100
AcDbEntity
  8
0
100
AcDbCircle
 10
193.2058684842148
 20
173.5680595357136
 30
0.0
 40
3.122498999199225
  0
ARC
  5
43EB
330
1F
100
AcDbEntity
  8
0
100
AcDbCircle
 10
193.2058684842148
 20
173.5680595357136
 30
0.0
 40
5.85
100
AcDbArc
 50
105.0000000000011
 51
74.99999999999883
  0
LINE
  5
43EC
330
1F
100
AcDbEntity
  8
0
100
AcDbLine
 10
202.7058684842149
 20
167.6180595357135
 30
0.0
 11
202.7058684842149
 21
176.5180595357135
 31
0.0
  0
CIRCLE
  5
43ED
330
1F
100
AcDbEntity
  8
0
100
AcDbCircle
 10
193.2058684842148
 20
173.5680595357136
 30
0.0
 40
7.000000000000023
  0
LINE
  5
43EE
330
1F
100
AcDbEntity
  8
0
100
AcDbLine
 10
195.7058684842148
 20
175.4388882291006
 30
0.0
 11
195.7058684842149
 21
171.6972308423266
 31
0.0
  0
LINE
  5
43EF
330
1F
100
AcDbEntity
  8
0
100
AcDbLine
 10
199.155868484215
 20
164.0680595357135
 30
0.0
 11
190.2558684842151
 21
164.0680595357135
 31
0.0
  0
LINE
  5
43F0
330
1F
100
AcDbEntity
  8
0
100
AcDbLine
 10
203.193360661934
 20
161.0680595357136
 30
0.0
 11
197.555868484215
 21
161.0680595357136
 31
0.0
  0
LINE
  5
43F1
330
1F
100
AcDbEntity
  8
0
100
AcDbLine
 10
199.155868484215
 20
162.7680595357138
 30
0.0
 11
197.555868484215
 21
162.7680595357138
 31
0.0
  0
LINE
  5
43F2
330
1F
100
AcDbEntity
  8
0
100
AcDbLine
 10
199.2058684842149
 20
162.8180595357139
 30
0.0
 11
199.2058684842149
 21
164.0180595357136
 31
0.0
  0
ARC
  5
43F3
330
1F
100
AcDbEntity
  8
0
100
AcDbCircle
 10
199.155868484215
 20
162.8180595357139
 30
0.0
 40
0.05
100
AcDbArc
 50
270.0
 51
0.0
  0
ARC
  5
43F4
330
1F
100
AcDbEntity
  8
0
100
AcDbCircle
 10
199.155868484215
 20
164.0180595357136
 30
0.0
 40
0.05
100
AcDbArc
 50
0.0
 51
90.0
  0
LINE
  5
43F5
330
1F
100
AcDbEntity
  8
0
100
AcDbLine
 10
197.5058684842151
 20
161.1180595357136
 30
0.0
 11
197.5058684842151
 21
162.7180595357138
 31
0.0
  0
ARC
  5
43F6
330
1F
100
AcDbEntity
  8
0
100
AcDbCircle
 10
197.555868484215
 20
161.1180595357136
 30
0.0
 40
0.05
100
AcDbArc
 50
180.0
 51
270.0
  0
ARC
  5
43F7
330
1F
100
AcDbEntity
  8
0
100
AcDbCircle
 10
197.555868484215
 20
162.7180595357139
 30
0.0
 40
0.05
100
AcDbArc
 50
90.0
 51
180.0
  0
LINE
  5
43F8
330
1F
100
AcDbEntity
  8
0
100
AcDbLine
 10
194.7199598980646
 20
179.2187256195046
 30
0.0
 11
195.0176017999326
 21
180.3295403197371
 31
0.0
  0
ARC
  5
43F9
330
1F
100
AcDbEntity
  8
0
100
AcDbCircle
 10
202.7558684842149
 20
167.6180595357135
 30
0.0
 40
0.05
100
AcDbArc
 50
180.0
 51
270.0
  0
ARC
  5
43FA
330
1F
100
AcDbEntity
  8
0
100
AcDbCircle
 10
190.2558684842151
 20
164.0180595357136
 30
0.0
 40
0.05
100
AcDbArc
 50
90.0
 51
180.0
  0
LINE
  5
43FB
330
1F
100
AcDbEntity
  8
0
100
AcDbLine
 10
190.205868484215
 20
161.1180595357136
 30
0.0
 11
190.205868484215
 21
164.0180595357136
 31
0.0
  0
ARC
  5
43FC
330
1F
100
AcDbEntity
  8
0
100
AcDbCircle
 10
190.155868484215
 20
161.1180595357136
 30
0.0
 40
0.05
100
AcDbArc
 50
270.0
 51
0.0
  0
LINE
  5
43FD
330
1F
100
AcDbEntity
  8
0
100
AcDbLine
 10
195.3558684842149
 20
181.3680595357134
 30
0.0
 11
194.4558684842149
 21
181.3680595357134
 31
0.0
  0
LINE
  5
43FE
102
{ACAD_REACTORS
330
4492
102
}
330
1F
100
AcDbEntity
  8
CENTER
 48
0.5
100
AcDbLine
 10
201.355868484215
 20
178.2180595357135
 30
0.0
 11
201.355868484215
 21
185.2180595357135
 31
0.0
  0
LINE
  5
43FF
330
1F
100
AcDbEntity
  8
0
100
AcDbLine
 10
191.691777070365
 20
179.2187256195046
 30
0.0
 11
191.3941351684972
 21
180.3295403197371
 31
0.0
  0
ARC
  5
4400
330
1F
100
AcDbEntity
  8
0
100
AcDbCircle
 10
202.7558684842149
 20
176.5180595357135
 30
0.0
 40
0.05
100
AcDbArc
 50
90.0
 51
180.0
  0
CIRCLE
  5
4401
102
{ACAD_REACTORS
330
4498
330
4538
102
}
330
1F
100
AcDbEntity
  8
0
100
AcDbCircle
 10
201.355868484215
 20
181.7180595357135
 30
0.0
 40
2.149999999999999
  0
ARC
  5
4402
330
1F
100
AcDbEntity
  8
0
100
AcDbCircle
 10
195.3558684842149
 20
183.0680595357134
 30
0.0
 40
1.7
100
AcDbArc
 50
270.0
 51
0.0
  0
LINE
  5
4403
330
1F
100
AcDbEntity
  8
0
100
AcDbLine
 10
197.0558684842149
 20
185.1680595357135
 30
0.0
 11
197.0558684842149
 21
183.0680595357134
 31
0.0
  0
ARC
  5
4404
330
1F
100
AcDbEntity
  8
0
100
AcDbCircle
 10
188.655868484215
 20
183.0680595357136
 30
0.0
 40
1.7
100
AcDbArc
 50
270.0
 51
0.0
  0
ARC
  5
4405
330
1F
100
AcDbEntity
  8
0
100
AcDbCircle
 10
194.4558684842149
 20
183.0680595357134
 30
0.0
 40
1.7
100
AcDbArc
 50
180.0
 51
270.0
  0
LINE
  5
4406
330
1F
100
AcDbEntity
  8
0
100
AcDbLine
 10
192.7558684842149
 20
183.0680595357134
 30
0.0
 11
192.7558684842149
 21
185.1680595357135
 31
0.0
  0
LINE
  5
4407
330
1F
100
AcDbEntity
  8
0
100
AcDbLine
 10
190.355868484215
 20
185.1680595357135
 30
0.0
 11
190.355868484215
 21
183.0680595357136
 31
0.0
  0
LINE
  5
4408
330
1F
100
AcDbEntity
  8
0
100
AcDbLine
 10
186.0558684842149
 20
183.0680595357136
 30
0.0
 11
186.0558684842149
 21
185.1680595357135
 31
0.0
  0
LINE
  5
4409
102
{ACAD_REACTORS
330
4495
102
}
330
1F
100
AcDbEntity
  8
0
100
AcDbLine
 10
180.7058684842149
 20
163.5805673579945
 30
0.0
 11
180.7058684842149
 21
183.5555517134327
 31
0.0
  0
LINE
  5
440A
102
{ACAD_REACTORS
330
4492
102
}
330
1F
100
AcDbEntity
  8
CENTER
 48
0.5
100
AcDbLine
 10
185.055868484215
 20
161.41479373771
 30
0.0
 11
185.055868484215
 21
169.6085759741575
 31
0.0
  0
ARC
  5
440B
330
1F
100
AcDbEntity
  8
0
100
AcDbCircle
 10
193.2058684842149
 20
173.5680595357136
 30
0.0
 40
16.0
100
AcDbArc
 50
218.624832873053
 51
231.375167126947
  0
LINE
  5
440C
330
1F
100
AcDbEntity
  8
0
100
AcDbLine
 10
186.5058684842149
 20
186.0680595357136
 30
0.0
 11
183.2183763064958
 21
186.0680595357136
 31
0.0
  0
LINE
  5
440D
330
1F
100
AcDbEntity
  8
0
100
AcDbLine
 10
203.1933606619345
 20
186.0680595357132
 30
0.0
 11
196.6058684842149
 21
186.0680595357134
 31
0.0
  0
LINE
  5
440E
330
1F
100
AcDbEntity
  8
0
100
AcDbLine
 10
196.6058684842149
 20
186.0680595357134
 30
0.0
 11
196.6058684842149
 21
185.6680595357135
 31
0.0
  0
LINE
  5
440F
330
1F
100
AcDbEntity
  8
0
100
AcDbLine
 10
193.2058684842149
 20
186.0680595357134
 30
0.0
 11
189.905868484215
 21
186.0680595357136
 31
0.0
  0
LINE
  5
4410
330
1F
100
AcDbEntity
  8
0
100
AcDbLine
 10
193.2058684842149
 20
185.6680595357134
 30
0.0
 11
193.2058684842149
 21
186.0680595357134
 31
0.0
  0
LINE
  5
4411
330
1F
100
AcDbEntity
  8
0
100
AcDbLine
 10
189.905868484215
 20
186.0680595357136
 30
0.0
 11
189.905868484215
 21
185.6680595357135
 31
0.0
  0
LINE
  5
4412
330
1F
100
AcDbEntity
  8
0
100
AcDbLine
 10
186.5058684842149
 20
185.6680595357135
 30
0.0
 11
186.5058684842149
 21
186.0680595357136
 31
0.0
  0
CIRCLE
  5
4414
330
1F
100
AcDbEntity
  8
0
100
AcDbCircle
 10
121.8494431540751
 20
179.5680595357136
 30
0.0
 40
2.1
  0
LINE
  5
4415
330
1F
100
AcDbEntity
  8
CENTER
 48
0.5
100
AcDbLine
 10
124.8494431540751
 20
179.5680595357136
 30
0.0
 11
118.8494431540751
 21
179.5680595357136
 31
0.0
  0
LINE
  5
4416
102
{ACAD_REACTORS
330
4465
330
4520
102
}
330
1F
100
AcDbEntity
  8
CENTER
 48
0.5
100
AcDbLine
 10
121.8494431540751
 20
182.5680595357136
 30
0.0
 11
121.8494431540751
 21
176.5680595357136
 31
0.0
  0
LINE
  5
4417
102
{ACAD_REACTORS
330
4462
330
451D
102
}
330
1F
100
AcDbEntity
  8
CENTER
 48
0.5
100
AcDbLine
 10
112.8494431540751
 20
182.5680595357136
 30
0.0
 11
112.8494431540751
 21
176.5680595357136
 31
0.0
  0
ARC
  5
4418
330
1F
100
AcDbEntity
  8
0
 62
     3
100
AcDbCircle
 10
112.8494431540751
 20
179.5680595357136
 30
0.0
 40
2.5
100
AcDbArc
 50
252.224476441966
 51
194.4594585336841
  0
LINE
  5
4419
102
{ACAD_REACTORS
330
447D
102
}
330
1F
100
AcDbEntity
  8
CENTER
 48
0.5
100
AcDbLine
 10
109.8494431540751
 20
179.5680595357136
 30
0.0
 11
115.8494431540751
 21
179.5680595357136
 31
0.0
  0
CIRCLE
  5
441A
330
1F
100
AcDbEntity
  8
0
100
AcDbCircle
 10
112.8494431540751
 20
179.5680595357136
 30
0.0
 40
2.1
  0
CIRCLE
  5
441B
330
1F
100
AcDbEntity
  8
0
100
AcDbCircle
 10
193.2058684842148
 20
173.5680595357136
 30
0.0
 40
2.5
  0
LINE
  5
441C
330
1F
100
AcDbEntity
  8
0
100
AcDbLine
 10
191.3350397908278
 20
176.0680595357136
 30
0.0
 11
195.0766971776018
 21
176.0680595357136
 31
0.0
  0
LINE
  5
441D
102
{ACAD_REACTORS
330
448F
102
}
330
1F
100
AcDbEntity
  8
0
100
AcDbLine
 10
190.7058684842148
 20
171.6972308423265
 30
0.0
 11
190.7058684842148
 21
175.4388882291005
 31
0.0
  0
LINE
  5
441E
330
1F
100
AcDbEntity
  8
0
100
AcDbLine
 10
195.0766971776019
 20
171.0680595357136
 30
0.0
 11
191.3350397908279
 21
171.0680595357135
 31
0.0
  0
LINE
  5
441F
330
1F
100
AcDbEntity
  8
0
100
AcDbLine
 10
129.3494431540751
 20
168.0680595357136
 30
0.0
 11
129.349443154075
 21
179.0680595357136
 31
0.0
  0
LINE
  5
4420
102
{ACAD_REACTORS
330
4486
102
}
330
1F
100
AcDbEntity
  8
0
100
AcDbLine
 10
128.3494431540752
 20
168.0680595357136
 30
0.0
 11
129.3494431540751
 21
168.0680595357136
 31
0.0
  0
LINE
  5
4421
102
{ACAD_REACTORS
330
447A
330
4486
102
}
330
1F
100
AcDbEntity
  8
0
100
AcDbLine
 10
128.3494431540752
 20
179.0680595357136
 30
0.0
 11
129.349443154075
 21
179.0680595357136
 31
0.0
  0
LINE
  5
4422
330
1F
100
AcDbEntity
  8
0
100
AcDbLine
 10
187.7558684842149
 20
181.3680595357136
 30
0.0
 11
188.655868484215
 21
181.3680595357136
 31
0.0
  0
LINE
  5
4423
330
1F
100
AcDbEntity
  8
CENTER
100
AcDbLine
 10
207.2522835677179
 20
173.5680595357136
 30
0.0
 11
179.4383340413089
 21
173.5680595357136
 31
0.0
  0
ARC
  5
4424
330
1F
100
AcDbEntity
  8
0
100
AcDbCircle
 10
187.3722375394257
 20
179.4016904805025
 30
0.0
 40
0.749999999999996
100
AcDbArc
 50
44.99999999999971
 51
224.9999999999997
  0
LINE
  5
4425
330
1F
100
AcDbEntity
  8
0
100
AcDbLine
 10
187.9025676253157
 20
179.9320205663925
 30
0.0
 11
188.8149436488474
 21
179.0196445428609
 31
0.0
  0
LINE
  5
4426
330
1F
100
AcDbEntity
  8
0
100
AcDbLine
 10
186.8419074535359
 20
178.8713603946127
 30
0.0
 11
187.7542834770675
 21
177.958984371081
 31
0.0
  0
ARC
  5
4427
330
1F
100
AcDbEntity
  8
0
100
AcDbCircle
 10
199.0394994290037
 20
167.7344285909246
 30
0.0
 40
0.749999999999996
100
AcDbArc
 50
224.9999999999997
 51
44.99999999999971
  0
LINE
  5
4428
330
1F
100
AcDbEntity
  8
0
100
AcDbLine
 10
199.5698295148938
 20
168.2647586768144
 30
0.0
 11
198.6574534913621
 21
169.1771347003462
 31
0.0
  0
LINE
  5
4429
330
1F
100
AcDbEntity
  8
0
100
AcDbLine
 10
198.5091693431139
 20
167.2040985050346
 30
0.0
 11
197.5967933195823
 21
168.1164745285663
 31
0.0
  0
LINE
  5
442A
330
1F
100
AcDbEntity
  8
0
100
AcDbLine
 10
133.3494431540751
 20
176.0680595357136
 30
0.0
 11
138.3494431540752
 21
176.0680595357136
 31
0.0
  0
LINE
  5
442B
330
1F
100
AcDbEntity
  8
0
100
AcDbLine
 10
142.3494431540752
 20
176.0680595357135
 30
0.0
 11
144.8494431540751
 21
176.0680595357136
 31
0.0
  0
LINE
  5
442C
330
1F
100
AcDbEntity
  8
0
100
AcDbLine
 10
133.3494431540751
 20
171.0680595357136
 30
0.0
 11
138.3494431540752
 21
171.0680595357136
 31
0.0
  0
LINE
  5
442D
102
{ACAD_REACTORS
330
4489
102
}
330
1F
100
AcDbEntity
  8
0
100
AcDbLine
 10
142.3494431540752
 20
171.0680595357135
 30
0.0
 11
144.8494431540751
 21
171.0680595357136
 31
0.0
  0
LINE
  5
442E
330
1F
100
AcDbEntity
  8
0
100
AcDbLine
 10
145.3494431540751
 20
171.5680595357136
 30
0.0
 11
144.8494431540751
 21
171.0680595357136
 31
0.0
  0
LINE
  5
442F
330
1F
100
AcDbEntity
  8
0
100
AcDbLine
 10
145.3494431540751
 20
175.5680595357136
 30
0.0
 11
144.8494431540751
 21
176.0680595357136
 31
0.0
  0
LINE
  5
4430
330
1F
100
AcDbEntity
  8
0
100
AcDbLine
 10
130.3494431540751
 20
175.2263719308913
 30
0.0
 11
130.3494431540751
 21
171.9097471405359
 31
0.0
  0
SPLINE
  5
4431
330
1F
100
AcDbEntity
  8
0
100
AcDbSpline
210
0.0
220
0.0
230
1.0
 70
    12
 71
     2
 72
     6
 73
     3
 74
     0
 42
0.0000000001
 43
0.0000000001
 40
1.905337496355303
 40
1.905337496355303
 40
1.905337496355303
 40
3.810674992710606
 40
3.810674992710606
 40
3.810674992710606
 10
133.3494431540751
 20
173.5680595357136
 30
0.0
 41
1.0
 10
133.3494431540746
 20
172.8142811742692
 30
0.0
 41
1.048808848170144
 10
132.4834177502905
 20
171.9097471405359
 30
0.0
 41
1.0
  0
SPLINE
  5
4432
330
1F
100
AcDbEntity
  8
0
100
AcDbSpline
210
0.0
220
0.0
230
1.0
 70
    12
 71
     2
 72
     6
 73
     3
 74
     0
 42
0.0000000001
 43
0.0000000001
 40
0.0
 40
0.0
 40
0.0
 40
1.905337496355303
 40
1.905337496355303
 40
1.905337496355303
 10
132.4834177502905
 20
175.2263719308913
 30
0.0
 41
1.0
 10
133.3494431540746
 20
174.3218378971578
 30
0.0
 41
1.048808848170144
 10
133.3494431540751
 20
173.5680595357136
 30
0.0
 41
1.0
  0
LINE
  5
4433
330
1F
100
AcDbEntity
  8
0
100
AcDbLine
 10
130.3494431540751
 20
171.9097471405359
 30
0.0
 11
132.4834177502905
 21
171.9097471405359
 31
0.0
  0
LINE
  5
4434
330
1F
100
AcDbEntity
  8
0
100
AcDbLine
 10
132.4834177502905
 20
175.2263719308913
 30
0.0
 11
130.3494431540751
 21
175.2263719308913
 31
0.0
  0
LINE
  5
4435
330
1F
100
AcDbEntity
  8
0
100
AcDbLine
 10
132.4834177502905
 20
175.2263719308913
 30
0.0
 11
132.4834177502905
 21
176.0680595357136
 31
0.0
  0
LINE
  5
4436
330
1F
100
AcDbEntity
  8
0
100
AcDbLine
 10
132.4834177502905
 20
171.0680595357136
 30
0.0
 11
132.4834177502905
 21
171.9097471405359
 31
0.0
  0
LINE
  5
4437
102
{ACAD_REACTORS
330
446E
102
}
330
1F
100
AcDbEntity
  8
0
100
AcDbLine
 10
133.3494431540751
 20
176.0680595357136
 30
0.0
 11
133.3494431540751
 21
173.5680595357136
 31
0.0
  0
LINE
  5
4438
330
1F
100
AcDbEntity
  8
0
100
AcDbLine
 10
133.3494431540751
 20
173.5680595357136
 30
0.0
 11
133.3494431540751
 21
171.0680595357136
 31
0.0
  0
LINE
  5
4439
330
1F
100
AcDbEntity
  8
0
100
AcDbLine
 10
144.8494431540751
 20
176.0680595357136
 30
0.0
 11
144.8494431540751
 21
171.0680595357136
 31
0.0
  0
LINE
  5
443A
102
{ACAD_REACTORS
330
446B
330
446E
330
4471
330
4477
102
}
330
1F
100
AcDbEntity
  8
0
100
AcDbLine
 10
145.3494431540751
 20
171.5680595357136
 30
0.0
 11
145.3494431540751
 21
175.5680595357136
 31
0.0
  0
LINE
  5
443B
102
{ACAD_REACTORS
330
446B
102
}
330
1F
100
AcDbEntity
  8
0
100
AcDbLine
 10
135.3494431540751
 20
171.0680595357136
 30
0.0
 11
135.3494431540751
 21
176.0680595357136
 31
0.0
  0
LINE
  5
443C
330
1F
100
AcDbEntity
  8
0
 62
     3
100
AcDbLine
 10
135.3494431540751
 20
171.4680595357135
 30
0.0
 11
138.3494431540751
 21
171.4680595357135
 31
0.0
  0
LINE
  5
443D
330
1F
100
AcDbEntity
  8
0
 62
     3
100
AcDbLine
 10
142.3494431540752
 20
171.4680595357135
 30
0.0
 11
145.2494431540751
 21
171.4680595357135
 31
0.0
  0
LINE
  5
443E
330
1F
100
AcDbEntity
  8
0
 62
     3
100
AcDbLine
 10
135.3494431540751
 20
175.6680595357135
 30
0.0
 11
138.3494431540753
 21
175.6680595357136
 31
0.0
  0
LINE
  5
443F
330
1F
100
AcDbEntity
  8
0
 62
     3
100
AcDbLine
 10
142.3494431540752
 20
175.6680595357135
 30
0.0
 11
145.2494431540751
 21
175.6680595357136
 31
0.0
  0
LINE
  5
4440
330
1F
100
AcDbEntity
  8
0
 62
     3
100
AcDbLine
 10
135.3972698794954
 20
171.4878700140266
 30
0.0
 11
134.9774594011824
 21
171.0680595357136
 31
0.0
  0
LINE
  5
4441
330
1F
100
AcDbEntity
  8
0
 62
     3
100
AcDbLine
 10
135.3972698794954
 20
175.6482490574005
 30
0.0
 11
134.9774594011824
 21
176.0680595357135
 31
0.0
  0
LINE
  5
4442
102
{ACAD_REACTORS
330
4480
102
}
330
1F
100
AcDbEntity
  8
0
100
AcDbLine
 10
133.3494431540751
 20
171.0680595357136
 30
0.0
 11
130.3494431540751
 21
171.0680595357136
 31
0.0
  0
LINE
  5
4443
330
1F
100
AcDbEntity
  8
0
100
AcDbLine
 10
130.3494431540751
 20
171.0680595357136
 30
0.0
 11
129.8494431540751
 21
170.5680595357136
 31
0.0
  0
LINE
  5
4444
330
1F
100
AcDbEntity
  8
0
100
AcDbLine
 10
133.349443154075
 20
176.0680595357136
 30
0.0
 11
130.349443154075
 21
176.0680595357136
 31
0.0
  0
LINE
  5
4445
330
1F
100
AcDbEntity
  8
0
100
AcDbLine
 10
130.349443154075
 20
176.0680595357136
 30
0.0
 11
129.849443154075
 21
176.5680595357136
 31
0.0
  0
ARC
  5
4446
102
{ACAD_REACTORS
330
4480
102
}
330
1F
100
AcDbEntity
  8
0
100
AcDbCircle
 10
132.8494431540749
 20
173.5680595357136
 30
0.0
 40
2.999999999999793
100
AcDbArc
 50
146.4426902380728
 51
213.5573097619271
  0
LINE
  5
4447
102
{ACAD_REACTORS
330
4483
102
}
330
1F
100
AcDbEntity
  8
0
100
AcDbLine
 10
129.8494431540751
 20
170.5680595357136
 30
0.0
 11
129.349443154075
 21
170.5680595357136
 31
0.0
  0
LINE
  5
4448
102
{ACAD_REACTORS
330
4483
102
}
330
1F
100
AcDbEntity
  8
0
100
AcDbLine
 10
129.849443154075
 20
176.5680595357136
 30
0.0
 11
129.349443154075
 21
176.5680595357136
 31
0.0
  0
ARC
  5
4449
330
1F
100
AcDbEntity
  8
0
100
AcDbCircle
 10
193.2058684842148
 20
173.5680595357136
 30
0.0
 40
2.100000000000022
100
AcDbArc
 50
161.7137375044077
 51
68.90638392333288
  0
LINE
  5
444A
330
1F
100
AcDbEntity
  8
0
100
AcDbLine
 10
141.8494431540752
 20
175.877460612472
 30
0.0
 11
138.8494431540752
 21
175.877460612472
 31
0.0
  0
LINE
  5
444B
330
1F
100
AcDbEntity
  8
0
100
AcDbLine
 10
141.9974068047476
 20
178.1868616892305
 30
0.0
 11
138.7014795034023
 21
178.1868616892304
 31
0.0
  0
LINE
  5
444C
102
{ACAD_REACTORS
330
4468
102
}
330
1F
100
AcDbEntity
  8
0
100
AcDbLine
 10
142.3494431540752
 20
177.346542675331
 30
0.0
 11
142.3494431540752
 21
173.5680595357136
 31
0.0
  0
ARC
  5
444D
330
1F
100
AcDbEntity
  8
0
100
AcDbCircle
 10
136.7661098207419
 20
173.5680595357136
 30
0.0
 40
5.58333333333315
100
AcDbArc
 50
0.0
 51
24.4326976794519
  0
LINE
  5
444E
330
1F
100
AcDbEntity
  8
0
100
AcDbLine
 10
141.9974068047476
 20
178.1868616892305
 30
0.0
 11
142.349443154075
 21
177.3465426753313
 31
0.0
  0
ARC
  5
444F
330
1F
100
AcDbEntity
  8
0
100
AcDbCircle
 10
140.7661098207417
 20
177.0321611508513
 30
0.0
 40
1.583333333333354
100
AcDbArc
 50
313.1735511072626
 51
46.82644889273726
  0
LINE
  5
4450
102
{ACAD_REACTORS
330
4468
102
}
330
1F
100
AcDbEntity
  8
0
100
AcDbLine
 10
138.3494431540752
 20
177.3465426753315
 30
0.0
 11
138.3494431540752
 21
173.5680595357136
 31
0.0
  0
ARC
  5
4451
330
1F
100
AcDbEntity
  8
0
100
AcDbCircle
 10
143.9327764874085
 20
173.5680595357135
 30
0.0
 40
5.583333333333253
100
AcDbArc
 50
155.5673023205481
 51
180.0
  0
LINE
  5
4452
102
{ACAD_REACTORS
330
4468
102
}
330
1F
100
AcDbEntity
  8
0
100
AcDbLine
 10
138.7014795034023
 20
178.1868616892305
 30
0.0
 11
138.349443154075
 21
177.3465426753312
 31
0.0
  0
ARC
  5
4453
330
1F
100
AcDbEntity
  8
0
100
AcDbCircle
 10
139.9327764874085
 20
177.0321611508513
 30
0.0
 40
1.583333333333354
100
AcDbArc
 50
133.1735511072627
 51
226.8264488927374
  0
LINE
  5
4454
330
1F
100
AcDbEntity
  8
0
100
AcDbLine
 10
141.8494431540752
 20
171.2586584589551
 30
0.0
 11
138.8494431540752
 21
171.2586584589551
 31
0.0
  0
LINE
  5
4455
330
1F
100
AcDbEntity
  8
0
100
AcDbLine
 10
141.9974068047476
 20
168.9492573821966
 30
0.0
 11
138.7014795034023
 21
168.9492573821967
 31
0.0
  0
LINE
  5
4456
330
1F
100
AcDbEntity
  8
0
100
AcDbLine
 10
142.3494431540752
 20
169.7895763960961
 30
0.0
 11
142.3494431540752
 21
173.5680595357136
 31
0.0
  0
ARC
  5
4457
330
1F
100
AcDbEntity
  8
0
100
AcDbCircle
 10
136.7661098207419
 20
173.5680595357136
 30
0.0
 40
5.58333333333315
100
AcDbArc
 50
335.5673023205481
 51
0.0
  0
LINE
  5
4458
330
1F
100
AcDbEntity
  8
0
100
AcDbLine
 10
141.9974068047476
 20
168.9492573821966
 30
0.0
 11
142.349443154075
 21
169.7895763960958
 31
0.0
  0
ARC
  5
4459
330
1F
100
AcDbEntity
  8
0
100
AcDbCircle
 10
140.7661098207417
 20
170.1039579205759
 30
0.0
 40
1.583333333333354
100
AcDbArc
 50
313.1735511072626
 51
46.82644889273726
  0
LINE
  5
445A
330
1F
100
AcDbEntity
  8
0
100
AcDbLine
 10
138.3494431540752
 20
169.7895763960956
 30
0.0
 11
138.3494431540752
 21
173.5680595357136
 31
0.0
  0
ARC
  5
445B
330
1F
100
AcDbEntity
  8
0
100
AcDbCircle
 10
143.9327764874085
 20
173.5680595357136
 30
0.0
 40
5.583333333333253
100
AcDbArc
 50
180.0
 51
204.4326976794519
  0
LINE
  5
445C
330
1F
100
AcDbEntity
  8
0
100
AcDbLine
 10
138.7014795034023
 20
168.9492573821966
 30
0.0
 11
138.349443154075
 21
169.789576396096
 31
0.0
  0
ARC
  5
445D
330
1F
100
AcDbEntity
  8
0
100
AcDbCircle
 10
139.9327764874085
 20
170.1039579205759
 30
0.0
 40
1.583333333333354
100
AcDbArc
 50
133.1735511072627
 51
226.8264488927374
  0
LINE
  5
445E
330
1F
100
AcDbEntity
  8
0
100
AcDbLine
 10
128.3494431540751
 20
183.5555517134327
 30
0.0
 11
106.3494431540752
 21
183.5555517134327
 31
0.0
  0
LINE
  5
445F
330
1F
100
AcDbEntity
  8
0
100
AcDbLine
 10
128.3494431540751
 20
163.5805673579945
 30
0.0
 11
106.3494431540751
 21
163.5805673579945
 31
0.0
  0
DIMENSION
  5
4460
102
{ACAD_XDICTIONARY
360
4461
102
}
102
{ACAD_REACTORS
330
4462
102
}
330
1F
100
AcDbEntity
  8
DIM
100
AcDbDimension
  2
*D6
 10
112.8494431540751
 20
190.7440138243656
 30
0.0
 11
109.5994431540751
 21
192.7440138243656
 31
0.0
 70
    32
 71
     5
 42
6.499999999999886
  3
AM_ANSI
100
AcDbAlignedDimension
 13
106.3494431540752
 23
186.0680595357136
 33
0.0
 14
112.8494431540751
 24
182.5680595357136
 34
0.0
100
AcDbRotatedDimension
1001
ACAD
1000
DSTYLE
1002
{
1070
    41
1040
2.0
1070
    42
1040
1.5
1070
    43
1040
8.0
1070
    44
1040
1.5
1070
    73
1070
     0
1070
    74
1070
     0
1070
    77
1070
     3
1070
   140
1040
2.0
1070
   141
1040
3.0
1070
   146
1040
0.6
1070
   147
1040
1.0
1070
   172
1070
     1
1070
   178
1070
   256
1070
   272
1070
     2
1070
   274
1070
     2
1070
   340
1005
321B
1002
}
  0
DIMENSION
  5
4463
102
{ACAD_XDICTIONARY
360
4464
102
}
102
{ACAD_REACTORS
330
4465
102
}
330
1F
100
AcDbEntity
  8
DIM
100
AcDbDimension
  2
*D7
 10
128.3494431540751
 20
190.7440138243656
 30
0.0
 11
125.0994431540751
 21
192.7440138243656
 31
0.0
 70
    32
 71
     5
 42
6.5
  3
AM_ANSI
100
AcDbAlignedDimension
 13
121.8494431540751
 23
182.5680595357136
 33
0.0
 14
128.3494431540751
 24
186.0680595357136
 34
0.0
100
AcDbRotatedDimension
1001
ACAD
1000
DSTYLE
1002
{
1070
    41
1040
2.0
1070
    42
1040
1.5
1070
    43
1040
8.0
1070
    44
1040
1.5
1070
    73
1070
     0
1070
    74
1070
     0
1070
    77
1070
     3
1070
   140
1040
2.0
1070
   141
1040
3.0
1070
   146
1040
0.6
1070
   147
1040
1.0
1070
   172
1070
     1
1070
   178
1070
   256
1070
   272
1070
     2
1070
   274
1070
     2
1070
   340
1005
321B
1002
}
  0
DIMENSION
  5
4466
102
{ACAD_XDICTIONARY
360
4467
102
}
102
{ACAD_REACTORS
330
4468
102
}
330
1F
100
AcDbEntity
  8
DIM
100
AcDbDimension
  2
*D8
 10
142.3494431540752
 20
181.9707233289044
 30
0.0
 11
140.3494431540752
 21
183.9707233289044
 31
0.0
 70
    32
 71
     5
 42
4.0
  3
AM_ANSI
100
AcDbAlignedDimension
 13
138.3494431540752
 23
177.3465426753317
 33
0.0
 14
142.3494431540752
 24
177.346542675331
 34
0.0
100
AcDbRotatedDimension
1001
ACAD
1000
DSTYLE
1002
{
1070
    41
1040
2.0
1070
    42
1040
1.5
1070
    43
1040
8.0
1070
    44
1040
1.5
1070
    73
1070
     0
1070
    74
1070
     0
1070
    77
1070
     3
1070
   140
1040
2.0
1070
   141
1040
3.0
1070
   146
1040
0.6
1070
   147
1040
1.0
1070
   172
1070
     1
1070
   178
1070
   256
1070
   272
1070
     2
1070
   274
1070
     2
1070
   340
1005
321B
1002
}
  0
DIMENSION
  5
4469
102
{ACAD_XDICTIONARY
360
446A
102
}
102
{ACAD_REACTORS
330
446B
102
}
330
1F
100
AcDbEntity
  8
DIM
100
AcDbDimension
  2
*D9
 10
145.3494431540751
 20
186.2361504711222
 30
0.0
 11
140.3494431540751
 21
188.2361504711222
 31
0.0
 70
    32
 71
     5
 42
10.0
  3
AM_ANSI
100
AcDbAlignedDimension
 13
135.3494431540751
 23
176.0680595357136
 33
0.0
 14
145.3494431540751
 24
175.5680595357136
 34
0.0
100
AcDbRotatedDimension
1001
ACAD
1000
DSTYLE
1002
{
1070
    41
1040
2.0
1070
    42
1040
1.5
1070
    43
1040
8.0
1070
    44
1040
1.5
1070
    73
1070
     0
1070
    74
1070
     0
1070
    77
1070
     3
1070
   140
1040
2.0
1070
   141
1040
3.0
1070
   146
1040
0.6
1070
   147
1040
1.0
1070
   172
1070
     1
1070
   178
1070
   256
1070
   272
1070
     2
1070
   274
1070
     2
1070
   340
1005
321B
1002
}
  0
DIMENSION
  5
446C
102
{ACAD_XDICTIONARY
360
446D
102
}
102
{ACAD_REACTORS
330
446E
102
}
330
1F
100
AcDbEntity
  8
DIM
100
AcDbDimension
  2
*D10
 10
145.3494431540751
 20
190.7440138243656
 30
0.0
 11
139.3494431540751
 21
192.7440138243656
 31
0.0
 70
    32
 71
     5
 42
12.0
  3
AM_ANSI
100
AcDbAlignedDimension
 13
133.3494431540751
 23
176.0680595357136
 33
0.0
 14
145.3494431540751
 24
175.5680595357136
 34
0.0
100
AcDbRotatedDimension
1001
ACAD
1000
DSTYLE
1002
{
1070
    41
1040
2.0
1070
    42
1040
1.5
1070
    43
1040
8.0
1070
    44
1040
1.5
1070
    73
1070
     0
1070
    74
1070
     0
1070
    77
1070
     3
1070
   140
1040
2.0
1070
   141
1040
3.0
1070
   146
1040
0.6
1070
   147
1040
1.0
1070
   172
1070
     1
1070
   178
1070
   256
1070
   272
1070
     2
1070
   274
1070
     2
1070
   340
1005
321B
1002
}
  0
DIMENSION
  5
446F
102
{ACAD_XDICTIONARY
360
4470
102
}
102
{ACAD_REACTORS
330
4471
102
}
330
1F
100
AcDbEntity
  8
DIM
100
AcDbDimension
  2
*D11
 10
145.3494431540751
 20
201.4682429925131
 30
0.0
 11
136.8494431540751
 21
203.4682429925131
 31
0.0
 70
    32
 71
     5
 42
17.0
  3
AM_ANSI
100
AcDbAlignedDimension
 13
128.3494431540751
 23
186.0680595357136
 33
0.0
 14
145.3494431540751
 24
175.5680595357136
 34
0.0
100
AcDbRotatedDimension
1001
ACAD
1000
DSTYLE
1002
{
1070
    41
1040
2.0
1070
    42
1040
1.5
1070
    43
1040
8.0
1070
    44
1040
1.5
1070
    73
1070
     0
1070
    74
1070
     0
1070
    77
1070
     3
1070
   140
1040
2.0
1070
   141
1040
3.0
1070
   146
1040
0.6
1070
   147
1040
1.0
1070
   172
1070
     1
1070
   178
1070
   256
1070
   272
1070
     2
1070
   274
1070
     2
1070
   340
1005
321B
1002
}
  0
DIMENSION
  5
4472
102
{ACAD_XDICTIONARY
360
4473
102
}
102
{ACAD_REACTORS
330
4474
102
}
330
1F
100
AcDbEntity
  8
DIM
100
AcDbDimension
  2
*D12
 10
128.3494431540751
 20
201.4682429925131
 30
0.0
 11
117.3494431540752
 21
203.4682429925131
 31
0.0
 70
    32
  1
17+stroke=S
 71
     5
 42
21.99999999999989
  3
AM_ANSI
100
AcDbAlignedDimension
 13
106.3494431540752
 23
186.0680595357136
 33
0.0
 14
128.3494431540751
 24
186.0680595357136
 34
0.0
100
AcDbRotatedDimension
1001
ACAD
1000
DSTYLE
1002
{
1070
    41
1040
2.0
1070
    42
1040
1.5
1070
    43
1040
8.0
1070
    44
1040
1.5
1070
    73
1070
     0
1070
    74
1070
     0
1070
    77
1070
     3
1070
   140
1040
2.0
1070
   141
1040
3.0
1070
   146
1040
0.6
1070
   147
1040
1.0
1070
   172
1070
     1
1070
   178
1070
   256
1070
   272
1070
     2
1070
   274
1070
     2
1070
   340
1005
321B
1002
}
  0
DIMENSION
  5
4475
102
{ACAD_XDICTIONARY
360
4476
102
}
102
{ACAD_REACTORS
330
4477
102
}
330
1F
100
AcDbEntity
  8
DIM
100
AcDbDimension
  2
*D13
 10
145.3494431540751
 20
207.1245691044682
 30
0.0
 11
125.8494431540752
 21
209.1245691044682
 31
0.0
 70
    32
  1
34+stroke=ZZ
 71
     5
 42
38.99999999999989
  3
AM_ANSI
100
AcDbAlignedDimension
 13
106.3494431540752
 23
186.0680595357136
 33
0.0
 14
145.3494431540751
 24
175.5680595357136
 34
0.0
100
AcDbRotatedDimension
1001
ACAD
1000
DSTYLE
1002
{
1070
    41
1040
2.0
1070
    42
1040
1.5
1070
    43
1040
8.0
1070
    44
1040
1.5
1070
    73
1070
     0
1070
    74
1070
     0
1070
    77
1070
     3
1070
   140
1040
2.0
1070
   141
1040
3.0
1070
   146
1040
0.6
1070
   147
1040
1.0
1070
   172
1070
     1
1070
   178
1070
   256
1070
   272
1070
     2
1070
   274
1070
     2
1070
   340
1005
321B
1002
}
  0
DIMENSION
  5
4478
102
{ACAD_XDICTIONARY
360
4479
102
}
102
{ACAD_REACTORS
330
447A
102
}
330
1F
100
AcDbEntity
  8
DIM
100
AcDbDimension
  2
*D14
 10
129.349443154075
 20
196.2361665744872
 30
0.0
 11
134.5875383921702
 21
198.2361665744872
 31
0.0
 70
    32
 71
     5
 42
0.9999999999998863
  3
AM_ANSI
100
AcDbAlignedDimension
 13
128.3494431540751
 23
186.0680595357136
 33
0.0
 14
129.349443154075
 24
179.0680595357136
 34
0.0
100
AcDbRotatedDimension
1001
ACAD
1000
DSTYLE
1002
{
1070
    41
1040
2.0
1070
    42
1040
1.5
1070
    43
1040
8.0
1070
    44
1040
1.5
1070
    73
1070
     0
1070
    74
1070
     0
1070
    77
1070
     3
1070
   140
1040
2.0
1070
   141
1040
3.0
1070
   146
1040
0.6
1070
   147
1040
1.0
1070
   172
1070
     1
1070
   178
1070
   256
1070
   272
1070
     2
1070
   274
1070
     2
1070
   340
1005
321B
1002
}
  0
DIMENSION
  5
447B
102
{ACAD_XDICTIONARY
360
447C
102
}
102
{ACAD_REACTORS
330
447D
102
}
330
1F
100
AcDbEntity
  8
DIM
100
AcDbDimension
  2
*D15
 10
98.84964628617645
 20
179.5680595357136
 30
0.0
 11
96.84964628617642
 21
176.5680595357136
 31
0.0
 70
    32
 71
     5
 42
6.0
  3
AM_ANSI
100
AcDbAlignedDimension
 13
103.9220086615958
 23
173.5680595357136
 33
0.0
 14
109.8494431540751
 24
179.5680595357136
 34
0.0
 50
90.0
100
AcDbRotatedDimension
1001
ACAD
1000
DSTYLE
1002
{
1070
    41
1040
2.0
1070
    42
1040
1.5
1070
    43
1040
8.0
1070
    44
1040
1.5
1070
    73
1070
     0
1070
    74
1070
     0
1070
    77
1070
     3
1070
   140
1040
2.0
1070
   141
1040
3.0
1070
   146
1040
0.6
1070
   147
1040
1.0
1070
   172
1070
     1
1070
   178
1070
   256
1070
   272
1070
     2
1070
   274
1070
     2
1070
   340
1005
321B
1002
}
  0
DIMENSION
  5
447E
102
{ACAD_XDICTIONARY
360
447F
102
}
102
{ACAD_REACTORS
330
4480
102
}
330
1F
100
AcDbEntity
  8
DIM
100
AcDbDimension
  2
*D16
 10
133.3494431540751
 20
159.3140046935662
 30
0.0
 11
131.8494431540752
 21
159.3140046935662
 31
0.0
 70
   160
 71
     5
 42
2.999999999999886
  3
AM_ANSI
100
AcDbAlignedDimension
 13
130.3494431540752
 23
171.9097471405357
 33
0.0
 14
133.3494431540751
 24
171.0680595357135
 34
0.0
100
AcDbRotatedDimension
1001
ACAD
1000
DSTYLE
1002
{
1070
    41
1040
2.0
1070
    42
1040
1.5
1070
    43
1040
8.0
1070
    44
1040
1.5
1070
    73
1070
     0
1070
    74
1070
     0
1070
    77
1070
     3
1070
   140
1040
2.0
1070
   141
1040
3.0
1070
   146
1040
0.6
1070
   147
1040
1.0
1070
   172
1070
     1
1070
   178
1070
   256
1070
   272
1070
     2
1070
   274
1070
     2
1070
   340
1005
321B
1002
}
  0
DIMENSION
  5
4481
102
{ACAD_XDICTIONARY
360
4482
102
}
102
{ACAD_REACTORS
330
4483
102
}
330
1F
100
AcDbEntity
  8
DIM
100
AcDbDimension
  2
*D17
 10
152.279944457318
 20
176.5680595357136
 30
0.0
 11
150.2799444573179
 21
173.5680595357136
 31
0.0
 70
    32
  1
%%c<>
 71
     5
 42
6.0
  3
AM_ANSI
100
AcDbAlignedDimension
 13
129.8494431540751
 23
170.5680595357136
 33
0.0
 14
129.849443154075
 24
176.5680595357136
 34
0.0
 50
90.0
100
AcDbRotatedDimension
1001
ACAD
1000
DSTYLE
1002
{
1070
    41
1040
2.0
1070
    42
1040
1.5
1070
    43
1040
8.0
1070
    44
1040
1.5
1070
    73
1070
     0
1070
    74
1070
     0
1070
    77
1070
     3
1070
   140
1040
2.0
1070
   141
1040
3.0
1070
   146
1040
0.6
1070
   147
1040
1.0
1070
   172
1070
     1
1070
   178
1070
   256
1070
   272
1070
     2
1070
   274
1070
     2
1070
   340
1005
321B
1002
}
  0
DIMENSION
  5
4484
102
{ACAD_XDICTIONARY
360
4485
102
}
102
{ACAD_REACTORS
330
4486
102
}
330
1F
100
AcDbEntity
  8
DIM
100
AcDbDimension
  2
*D18
 10
158.478928264978
 20
179.0680595357136
 30
0.0
 11
158.478928264978
 21
187.5394881071422
 31
0.0
 70
   160
  1
%%c<>{}{\H0.71x;\C3;\S 0^ -0.05;}
 71
     5
 42
11.0
  3
AM_ANSI
100
AcDbAlignedDimension
 13
129.3494431540751
 23
168.0680595357136
 33
0.0
 14
129.349443154075
 24
179.0680595357136
 34
0.0
 50
90.0
100
AcDbRotatedDimension
1001
GENIUS_GENDTOL_13
1000
TolSmNrm
1000

1000
{\H0.71x;$2\S$+$P^ $-$M;}
1040
11.0
1001
ACAD
1000
DSTYLE
1002
{
1070
   286
1070
     0
1070
   284
1070
     8
1070
    41
1040
2.0
1070
    42
1040
1.5
1070
    43
1040
8.0
1070
    44
1040
1.5
1070
    47
1040
0.0
1070
    48
1040
0.05
1070
    73
1070
     0
1070
    74
1070
     0
1070
    77
1070
     3
1070
   140
1040
2.0
1070
   141
1040
3.0
1070
   146
1040
0.6
1070
   147
1040
1.0
1070
   172
1070
     1
1070
   178
1070
   256
1070
   272
1070
     2
1070
   274
1070
     2
1070
   340
1005
321B
1002
}
  0
LEADER
  5
4487
102
{ACAD_XDICTIONARY
360
4488
102
}
102
{ACAD_REACTORS
330
4489
102
}
330
1F
100
AcDbEntity
  8
DIM
100
AcDbLeader
  3
AM_ANSI$7
 73
     0
 74
     0
 75
     1
 40
2.0
 41
9.904761904761899
 76
     3
 10
143.5994431540752
 20
171.0680595357135
 30
0.0
 10
149.2754959679858
 20
161.6529810182607
 30
0.0
 10
151.2754959679858
 20
161.6529810182607
 30
0.0
340
448A
213
0.8150760156128171
223
0.3869799573012926
233
0.0
1001
ACAD
1000
DSTYLE
1002
{
1070
    41
1040
2.0
1070
    42
1040
1.5
1070
    43
1040
8.0
1070
    44
1040
1.5
1070
    73
1070
     0
1070
    74
1070
     0
1070
    77
1070
     3
1070
   140
1040
2.0
1070
   141
1040
3.0
1070
   146
1040
0.6
1070
   147
1040
1.0
1070
   172
1070
     1
1070
   178
1070
   256
1070
   272
1070
     2
1070
   274
1070
     2
1070
   340
1005
321B
1002
}
  0
MTEXT
  5
448A
102
{ACAD_REACTORS
330
4487
102
}
330
1F
100
AcDbEntity
  8
DIM
100
AcDbMText
 10
151.460419952373
 20
164.2660010609594
 30
0.0
 40
2.0
 41
0.0
 71
     1
 72
     1
  1
M5*0.8
  7
dayus
 73
     1
 44
1.0
1001
ACAD
1000
MTEXTBEGIN
1070
    73
1070
     1
1070
    44
1040
1.0
1070
    74
1070
     0
1000
MTEXTEND
  0
LEADER
  5
448B
330
1F
100
AcDbEntity
  8
DIM
100
AcDbLeader
  3
AM_ANSI$7
 73
     0
 74
     0
 75
     1
 40
2.0
 41
1.333333333333333
 76
     3
 10
140.3397436195051
 20
169.797201624857
 30
0.0
 10
147.3845698951442
 20
154.9240451488679
 30
0.0
 10
149.3845698951442
 20
154.9240451488679
 30
0.0
340
448C
213
1.28621199348413
223
0.2860289400440479
233
0.0
1001
ACAD
1000
DSTYLE
1002
{
1070
    41
1040
2.0
1070
    42
1040
1.5
1070
    43
1040
8.0
1070
    44
1040
1.5
1070
    73
1070
     0
1070
    74
1070
     0
1070
    77
1070
     3
1070
   140
1040
2.0
1070
   141
1040
3.0
1070
   146
1040
0.6
1070
   147
1040
1.0
1070
   172
1070
     1
1070
   178
1070
   256
1070
   272
1070
     2
1070
   274
1070
     2
1070
   340
1005
321B
1002
}
  0
MTEXT
  5
448C
102
{ACAD_REACTORS
330
448B
102
}
330
1F
100
AcDbEntity
  8
DIM
100
AcDbMText
 10
149.0983579016601
 20
157.6380162088238
 30
0.0
 40
2.0
 41
0.0
 71
     1
 72
     1
  1
8
  7
dayus
 73
     1
 44
1.0
1001
ACAD
1000
MTEXTBEGIN
1070
    73
1070
     1
1070
    44
1040
1.0
1070
    74
1070
     0
1000
MTEXTEND
  0
DIMENSION
  5
448D
102
{ACAD_XDICTIONARY
360
448E
102
}
102
{ACAD_REACTORS
330
448F
102
}
330
1F
100
AcDbEntity
  8
DIM
100
AcDbDimension
  2
*D19
 10
195.7058684842147
 20
190.7440138243656
 30
0.0
 11
193.2058684842147
 21
190.7440138243656
 31
0.0
 70
   160
  1
□<>
 71
     5
 42
4.999999999999886
  3
AM_ANSI
100
AcDbAlignedDimension
 13
190.7058684842148
 23
175.4388882291005
 33
0.0
 14
195.7058684842147
 24
175.4388882291007
 34
0.0
100
AcDbRotatedDimension
1001
ACAD
1000
DSTYLE
1002
{
1070
    41
1040
2.0
1070
    42
1040
1.5
1070
    43
1040
8.0
1070
    44
1040
1.5
1070
    73
1070
     0
1070
    74
1070
     0
1070
    77
1070
     3
1070
   140
1040
2.0
1070
   141
1040
3.0
1070
   146
1040
0.6
1070
   147
1040
1.0
1070
   172
1070
     1
1070
   178
1070
   256
1070
   272
1070
     2
1070
   274
1070
     2
1070
   340
1005
321B
1002
}
  0
DIMENSION
  5
4490
102
{ACAD_XDICTIONARY
360
4491
102
}
102
{ACAD_REACTORS
330
4492
102
}
330
1F
100
AcDbEntity
  8
DIM
100
AcDbDimension
  2
*D20
 10
201.355868484215
 20
196.2361665744872
 30
0.0
 11
193.205868484215
 21
198.2361665744872
 31
0.0
 70
    32
  1
□<>
 71
     5
 42
16.29999999999995
  3
AM_ANSI
100
AcDbAlignedDimension
 13
185.055868484215
 23
169.6085759741575
 33
0.0
 14
201.355868484215
 24
185.2180595357135
 34
0.0
100
AcDbRotatedDimension
1001
ACAD
1000
DSTYLE
1002
{
1070
    41
1040
2.0
1070
    42
1040
1.5
1070
    43
1040
8.0
1070
    44
1040
1.5
1070
    73
1070
     0
1070
    74
1070
     0
1070
    77
1070
     3
1070
   140
1040
2.0
1070
   141
1040
3.0
1070
   146
1040
0.6
1070
   147
1040
1.0
1070
   172
1070
     1
1070
   178
1070
   256
1070
   272
1070
     2
1070
   274
1070
     2
1070
   340
1005
321B
1002
}
  0
DIMENSION
  5
4493
102
{ACAD_XDICTIONARY
360
4494
102
}
102
{ACAD_REACTORS
330
4495
102
}
330
1F
100
AcDbEntity
  8
DIM
100
AcDbDimension
  2
*D21
 10
205.7058684842149
 20
201.4682429925131
 30
0.0
 11
193.2058684842149
 21
203.4682429925131
 31
0.0
 70
    32
  1
□<>
 71
     5
 42
25.0
  3
AM_ANSI
100
AcDbAlignedDimension
 13
180.7058684842149
 23
183.5555517134326
 33
0.0
 14
205.7058684842149
 24
183.5555517134326
 34
0.0
100
AcDbRotatedDimension
1001
ACAD
1000
DSTYLE
1002
{
1070
    41
1040
2.0
1070
    42
1040
1.5
1070
    43
1040
8.0
1070
    44
1040
1.5
1070
    73
1070
     0
1070
    74
1070
     0
1070
    77
1070
     3
1070
   140
1040
2.0
1070
   141
1040
3.0
1070
   146
1040
0.6
1070
   147
1040
1.0
1070
   172
1070
     1
1070
   178
1070
   256
1070
   272
1070
     2
1070
   274
1070
     2
1070
   340
1005
321B
1002
}
  0
DIMENSION
  5
4496
102
{ACAD_XDICTIONARY
360
4497
102
}
102
{ACAD_REACTORS
330
4498
102
}
330
1F
100
AcDbEntity
  8
DIM
100
AcDbDimension
  2
*D22
 10
216.3699374298739
 20
166.7039905900549
 30
0.0
 11
206.8057238675008
 21
159.9682041524279
 31
0.0
 70
    33
 71
     5
 42
23.05168106668162
  3
AM_ANSI
100
AcDbAlignedDimension
 13
185.055868484215
 23
165.4180595357132
 33
0.0
 14
201.355868484215
 24
181.7180595357135
 34
0.0
1001
ACAD
1000
DSTYLE
1002
{
1070
    41
1040
2.0
1070
    42
1040
1.5
1070
    43
1040
8.0
1070
    44
1040
1.5
1070
    73
1070
     0
1070
    74
1070
     0
1070
    77
1070
     3
1070
   140
1040
2.0
1070
   141
1040
3.0
1070
   146
1040
0.6
1070
   147
1040
1.0
1070
   172
1070
     1
1070
   178
1070
   256
1070
   271
1070
     0
1070
   272
1070
     2
1070
   274
1070
     2
1070
   340
1005
321B
1002
}
  0
DIMENSION
  5
4499
102
{ACAD_XDICTIONARY
360
449A
102
}
102
{ACAD_REACTORS
330
449B
102
}
330
1F
100
AcDbEntity
  8
DIM
100
AcDbDimension
  2
*D23
 10
223.221503486048
 20
166.0399167115995
 30
0.0
 11
210.5635438348154
 21
156.2103841851131
 31
0.0
 70
    33
 71
     5
 42
31.80211642148925
  3
AM_ANSI
100
AcDbAlignedDimension
 13
183.2183763064958
 23
161.0680595357136
 33
0.0
 14
205.7058684842149
 24
183.5555517134326
 34
0.0
1001
ACAD
1000
DSTYLE
1002
{
1070
    41
1040
2.0
1070
    42
1040
1.5
1070
    43
1040
8.0
1070
    44
1040
1.5
1070
    73
1070
     0
1070
    74
1070
     0
1070
    77
1070
     3
1070
   140
1040
2.0
1070
   141
1040
3.0
1070
   146
1040
0.6
1070
   147
1040
1.0
1070
   172
1070
     1
1070
   178
1070
   256
1070
   271
1070
     0
1070
   272
1070
     2
1070
   274
1070
     2
1070
   340
1005
321B
1002
}
  0
LEADER
  5
449C
330
1F
100
AcDbEntity
  8
DIM
100
AcDbLeader
  3
AM_ANSI$7
 73
     0
 75
     1
 40
2.0
 41
14.28571428571428
 76
     3
 10
110.6947631552961
 20
180.8358742315038
 30
0.0
 10
103.3710156764029
 20
186.8987285364957
 30
0.0
 10
101.3710156764029
 20
186.8987285364957
 30
0.0
340
449D
213
-1.486619241154016
223
0.4032735171140303
233
0.0
1001
ACAD
1000
DSTYLE
1002
{
1070
    41
1040
2.0
1070
    42
1040
1.5
1070
    43
1040
8.0
1070
    44
1040
1.5
1070
    73
1070
     0
1070
    74
1070
     0
1070
    77
1070
     2
1070
   140
1040
2.0
1070
   141
1040
3.0
1070
   146
1040
0.6
1070
   147
1040
1.0
1070
   172
1070
     1
1070
   178
1070
   256
1070
   272
1070
     2
1070
   274
1070
     2
1070
   340
1005
321B
1002
}
  0
MTEXT
  5
449D
102
{ACAD_REACTORS
330
449C
102
}
330
1F
100
AcDbEntity
  8
DIM
100
AcDbMText
 10
101.8576349175569
 20
187.4954550193817
 30
0.0
 40
2.0
 41
0.0
 71
     9
 72
     1
  1
2-M5*0.8
  7
dayus
 73
     1
 44
1.0
1001
ACAD
1000
MTEXTBEGIN
1070
    73
1070
     1
1070
    44
1040
1.0
1070
    74
1070
     0
1000
MTEXTEND
  0
LEADER
  5
449E
330
1F
100
AcDbEntity
  8
DIM
100
AcDbLeader
  3
AM_ANSI$7
 73
     0
 74
     0
 75
     1
 40
8.666666666666666
 41
26.28571428571428
 76
     3
 10
203.9302196814622
 20
183.7017973997549
 30
0.0
 10
212.9996902642257
 20
190.6905300253095
 30
0.0
 10
214.9996902642257
 20
190.6905300253095
 30
0.0
340
449F
213
-0.1905629376930165
223
0.2179465301056638
233
0.0
1001
ACAD
1000
DSTYLE
1002
{
1070
    41
1040
2.0
1070
    42
1040
1.5
1070
    43
1040
8.0
1070
    44
1040
1.5
1070
    73
1070
     0
1070
    74
1070
     0
1070
    77
1070
     3
1070
   140
1040
2.0
1070
   141
1040
3.0
1070
   146
1040
0.6
1070
   147
1040
1.0
1070
   172
1070
     1
1070
   178
1070
   256
1070
   272
1070
     2
1070
   274
1070
     2
1070
   340
1005
321B
1002
}
  0
MTEXT
  5
449F
102
{ACAD_REACTORS
330
449E
102
}
330
1F
100
AcDbEntity
  8
DIM
100
AcDbMText
 10
216.1902532019187
 20
200.1392501618706
 30
0.0
 40
2.0
 41
0.0
 71
     1
 72
     1
  1
%%C6.5*4.5 depth\PM5*0.8*7.5 depth\P%%C4.3 thru
  7
dayus
 73
     1
 44
1.0
1001
ACAD
1000
MTEXTBEGIN
1070
    73
1070
     1
1070
    44
1040
1.0
1070
    74
1070
     0
1000
MTEXTEND
  0
LINE
  5
44A0
330
1F
100
AcDbEntity
  8
CENTER
100
AcDbLine
 10
104.6589685741097
 20
69.0536897298006
 30
0.0
 11
134.5920485128256
 21
69.0536897298006
 31
0.0
  0
LINE
  5
44A1
330
1F
100
AcDbEntity
  8
0
100
AcDbLine
 10
132.4834177502905
 20
66.05368972980059
 30
0.0
 11
129.3494431540751
 21
66.05368972980059
 31
0.0
  0
LINE
  5
44A2
330
1F
100
AcDbEntity
  8
0
100
AcDbLine
 10
186.5058684842151
 20
81.15368972980048
 30
0.0
 11
186.055868484215
 21
80.65368972980049
 31
0.0
  0
LINE
  5
44A3
330
1F
100
AcDbEntity
  8
0
100
AcDbLine
 10
189.905868484215
 20
81.15368972980048
 30
0.0
 11
190.355868484215
 21
80.65368972980049
 31
0.0
  0
LINE
  5
44A4
330
1F
100
AcDbEntity
  8
0
100
AcDbLine
 10
193.2058684842149
 20
81.15368972980048
 30
0.0
 11
192.755868484215
 21
80.65368972980049
 31
0.0
  0
LINE
  5
44A5
330
1F
100
AcDbEntity
  8
0
100
AcDbLine
 10
196.605868484215
 20
81.15368972980048
 30
0.0
 11
197.0558684842151
 21
80.65368972980049
 31
0.0
  0
ARC
  5
44A6
330
1F
100
AcDbEntity
  8
PLINE
100
AcDbCircle
 10
193.2058684842149
 20
69.05368972980058
 30
0.0
 40
16.0
100
AcDbArc
 50
38.62483287305301
 51
51.375167126947
  0
LINE
  5
44A7
330
1F
100
AcDbEntity
  8
CENTER
100
AcDbLine
 10
193.2058684842149
 20
56.67208717664222
 30
0.0
 11
193.2058684842149
 21
82.34652945710651
 31
0.0
  0
ARC
  5
44A8
330
1F
100
AcDbEntity
  8
PLINE
100
AcDbCircle
 10
193.2058684842149
 20
69.05368972980058
 30
0.0
 40
16.0
100
AcDbArc
 50
128.624832873053
 51
141.375167126947
  0
ARC
  5
44A9
330
1F
100
AcDbEntity
  8
0
 62
     3
100
AcDbCircle
 10
185.055868484215
 20
60.9036897298002
 30
0.0
 40
2.55
100
AcDbArc
 50
161.6413017677718
 51
104.3551892088735
  0
LINE
  5
44AA
330
1F
100
AcDbEntity
  8
PLINE
100
AcDbLine
 10
190.1558684842152
 20
56.55368972980058
 30
0.0
 11
183.2183763064958
 21
56.55368972980058
 31
0.0
  0
ARC
  5
44AB
330
1F
100
AcDbEntity
  8
0
100
AcDbCircle
 10
187.755868484215
 20
78.55368972980058
 30
0.0
 40
1.7
100
AcDbArc
 50
180.0
 51
270.0
  0
CIRCLE
  5
44AC
330
1F
100
AcDbEntity
  8
PLINE
100
AcDbCircle
 10
185.055868484215
 20
60.9036897298002
 30
0.0
 40
3.25
  0
CIRCLE
  5
44AD
330
1F
100
AcDbEntity
  8
PLINE
100
AcDbCircle
 10
185.055868484215
 20
60.9036897298002
 30
0.0
 40
2.149999999999999
  0
LINE
  5
44AE
102
{ACAD_REACTORS
330
451A
330
4526
102
}
330
1F
100
AcDbEntity
  8
0
100
AcDbLine
 10
133.3494431540751
 20
71.5536897298006
 30
0.0
 11
133.3494431540751
 21
66.5536897298006
 31
0.0
  0
LINE
  5
44AF
330
1F
100
AcDbEntity
  8
0
100
AcDbLine
 10
131.8494431540751
 20
69.0536897298006
 30
0.0
 11
133.3494431540751
 21
70.92451842318749
 31
0.0
  0
LINE
  5
44B0
330
1F
100
AcDbEntity
  8
0
100
AcDbLine
 10
130.3494431540751
 20
70.92451842318761
 30
0.0
 11
133.3494431540751
 21
70.92451842318749
 31
0.0
  0
LINE
  5
44B1
330
1F
100
AcDbEntity
  8
0
100
AcDbLine
 10
130.3494431540751
 20
70.92451842318761
 30
0.0
 11
131.8494431540751
 21
69.0536897298006
 31
0.0
  0
ARC
  5
44B2
330
1F
100
AcDbEntity
  8
0
100
AcDbCircle
 10
131.5994431540751
 20
69.0536897298006
 30
0.0
 40
2.250000000000033
100
AcDbArc
 50
123.7489885958877
 51
180.0
  0
LINE
  5
44B3
330
1F
100
AcDbEntity
  8
0
100
AcDbLine
 10
130.3494431540751
 20
69.0536897298006
 30
0.0
 11
130.3494431540751
 21
70.92451842318761
 31
0.0
  0
ARC
  5
44B4
330
1F
100
AcDbEntity
  8
0
 62
     3
100
AcDbCircle
 10
201.3558684842152
 20
77.2036897298005
 30
0.0
 40
2.55
100
AcDbArc
 50
158.7383725079108
 51
102.0419433502588
  0
ARC
  5
44B5
330
1F
100
AcDbEntity
  8
PLINE
100
AcDbCircle
 10
193.2058684842149
 20
69.05368972980058
 30
0.0
 40
16.0
100
AcDbArc
 50
308.624832873053
 51
321.375167126947
  0
LINE
  5
44B6
330
1F
100
AcDbEntity
  8
PLINE
100
AcDbLine
 10
203.9558684842147
 20
63.05368972980052
 30
0.0
 11
202.7558684842151
 21
63.05368972980052
 31
0.0
  0
LINE
  5
44B7
330
1F
100
AcDbEntity
  8
PLINE
100
AcDbLine
 10
205.655868484215
 20
72.05368972980046
 30
0.0
 11
202.755868484215
 21
72.05368972980046
 31
0.0
  0
CIRCLE
  5
44B8
330
1F
100
AcDbEntity
  8
PLINE
100
AcDbCircle
 10
201.3558684842152
 20
77.2036897298005
 30
0.0
 40
3.25
  0
LINE
  5
44B9
330
1F
100
AcDbEntity
  8
PLINE
100
AcDbLine
 10
205.7058684842149
 20
59.06619755208142
 30
0.0
 11
205.7058684842149
 21
64.70368972980039
 31
0.0
  0
LINE
  5
44BA
330
1F
100
AcDbEntity
  8
PLINE
100
AcDbLine
 10
204.0058684842147
 20
63.10368972980048
 30
0.0
 11
204.0058684842147
 21
64.70368972980039
 31
0.0
  0
ARC
  5
44BB
330
1F
100
AcDbEntity
  8
PLINE
100
AcDbCircle
 10
203.9558684842147
 20
63.10368972980054
 30
0.0
 40
0.05
100
AcDbArc
 50
270.0
 51
0.0
  0
ARC
  5
44BC
330
1F
100
AcDbEntity
  8
PLINE
100
AcDbCircle
 10
204.0558684842149
 20
64.70368972980044
 30
0.0
 40
0.05
100
AcDbArc
 50
90.0
 51
180.0
  0
ARC
  5
44BD
330
1F
100
AcDbEntity
  8
PLINE
100
AcDbCircle
 10
205.655868484215
 20
64.70368972980039
 30
0.0
 40
0.05
100
AcDbArc
 50
0.0
 51
90.0
  0
LINE
  5
44BE
330
1F
100
AcDbEntity
  8
PLINE
100
AcDbLine
 10
205.655868484215
 20
64.75368972980034
 30
0.0
 11
204.0558684842149
 21
64.75368972980034
 31
0.0
  0
LINE
  5
44BF
330
1F
100
AcDbEntity
  8
PLINE
100
AcDbLine
 10
205.7058684842149
 20
79.04118190751969
 30
0.0
 11
205.7058684842149
 21
72.10368972980031
 31
0.0
  0
ARC
  5
44C0
330
1F
100
AcDbEntity
  8
PLINE
100
AcDbCircle
 10
205.655868484215
 20
72.10368972980059
 30
0.0
 40
0.05
100
AcDbArc
 50
270.0
 51
0.0
  0
CIRCLE
  5
44C1
330
1F
100
AcDbEntity
  8
0
100
AcDbCircle
 10
193.2058684842149
 20
69.05368972980058
 30
0.0
 40
5.476300158445113
  0
CIRCLE
  5
44C2
330
1F
100
AcDbEntity
  8
0
100
AcDbCircle
 10
193.2058684842149
 20
69.05368972980058
 30
0.0
 40
1.346291201783626
  0
ARC
  5
44C3
330
1F
100
AcDbEntity
  8
0
 62
     5
100
AcDbCircle
 10
193.2058684842149
 20
69.05368972980058
 30
0.0
 40
1.520690632574583
100
AcDbArc
 50
348.3080301849322
 51
290.454752647763
  0
ARC
  5
44C4
330
1F
100
AcDbEntity
  8
0
100
AcDbCircle
 10
193.2058684842149
 20
69.05368972980058
 30
0.0
 40
5.85
100
AcDbArc
 50
104.9999999999944
 51
74.99999999999883
  0
LINE
  5
44C5
330
1F
100
AcDbEntity
  8
PLINE
100
AcDbLine
 10
202.7058684842149
 20
63.10368972980048
 30
0.0
 11
202.7058684842149
 21
72.00368972980051
 31
0.0
  0
CIRCLE
  5
44C6
330
1F
100
AcDbEntity
  8
0
100
AcDbCircle
 10
193.2058684842149
 20
69.05368972980058
 30
0.0
 40
7.000000000000023
  0
LINE
  5
44C7
330
1F
100
AcDbEntity
  8
PLINE
100
AcDbLine
 10
199.155868484215
 20
59.55368972980052
 30
0.0
 11
190.2558684842151
 21
59.55368972980052
 31
0.0
  0
LINE
  5
44C8
330
1F
100
AcDbEntity
  8
PLINE
100
AcDbLine
 10
203.193360661934
 20
56.55368972980058
 30
0.0
 11
197.5558684842152
 21
56.55368972980058
 31
0.0
  0
LINE
  5
44C9
330
1F
100
AcDbEntity
  8
PLINE
100
AcDbLine
 10
199.155868484215
 20
58.25368972980079
 30
0.0
 11
197.5558684842152
 21
58.25368972980079
 31
0.0
  0
LINE
  5
44CA
330
1F
100
AcDbEntity
  8
PLINE
100
AcDbLine
 10
199.205868484215
 20
58.30368972980092
 30
0.0
 11
199.205868484215
 21
59.50368972980057
 31
0.0
  0
ARC
  5
44CB
330
1F
100
AcDbEntity
  8
PLINE
100
AcDbCircle
 10
199.155868484215
 20
58.30368972980092
 30
0.0
 40
0.05
100
AcDbArc
 50
270.0
 51
0.0
  0
ARC
  5
44CC
330
1F
100
AcDbEntity
  8
PLINE
100
AcDbCircle
 10
199.155868484215
 20
59.50368972980062
 30
0.0
 40
0.05
100
AcDbArc
 50
0.0
 51
90.0
  0
LINE
  5
44CD
330
1F
100
AcDbEntity
  8
PLINE
100
AcDbLine
 10
197.5058684842151
 20
56.60368972980065
 30
0.0
 11
197.5058684842151
 21
58.20368972980084
 31
0.0
  0
ARC
  5
44CE
330
1F
100
AcDbEntity
  8
PLINE
100
AcDbCircle
 10
197.5558684842152
 20
56.60368972980065
 30
0.0
 40
0.05
100
AcDbArc
 50
180.0
 51
270.0
  0
ARC
  5
44CF
330
1F
100
AcDbEntity
  8
PLINE
100
AcDbCircle
 10
197.5558684842152
 20
58.2036897298009
 30
0.0
 40
0.05
100
AcDbArc
 50
90.0
 51
180.0
  0
LINE
  5
44D0
330
1F
100
AcDbEntity
  8
0
100
AcDbLine
 10
194.7199598980647
 20
74.70435581359165
 30
0.0
 11
195.0176017999326
 21
75.81517051382412
 31
0.0
  0
ARC
  5
44D1
330
1F
100
AcDbEntity
  8
PLINE
100
AcDbCircle
 10
202.7558684842151
 20
63.10368972980054
 30
0.0
 40
0.05
100
AcDbArc
 50
180.0
 51
270.0
  0
ARC
  5
44D2
330
1F
100
AcDbEntity
  8
PLINE
100
AcDbCircle
 10
190.2558684842151
 20
59.50368972980062
 30
0.0
 40
0.05
100
AcDbArc
 50
90.0
 51
180.0
  0
LINE
  5
44D3
330
1F
100
AcDbEntity
  8
PLINE
100
AcDbLine
 10
190.2058684842151
 20
56.60368972980065
 30
0.0
 11
190.2058684842151
 21
59.50368972980057
 31
0.0
  0
ARC
  5
44D4
330
1F
100
AcDbEntity
  8
PLINE
100
AcDbCircle
 10
190.1558684842152
 20
56.60368972980065
 30
0.0
 40
0.05
100
AcDbArc
 50
270.0
 51
0.0
  0
LINE
  5
44D5
330
1F
100
AcDbEntity
  8
0
100
AcDbLine
 10
195.355868484215
 20
76.85368972980042
 30
0.0
 11
194.4558684842149
 21
76.85368972980042
 31
0.0
  0
LINE
  5
44D6
330
1F
100
AcDbEntity
  8
0
100
AcDbLine
 10
191.6917770703651
 20
74.70435581359165
 30
0.0
 11
191.3941351684972
 21
75.81517051382412
 31
0.0
  0
ARC
  5
44D7
330
1F
100
AcDbEntity
  8
PLINE
100
AcDbCircle
 10
202.755868484215
 20
72.00368972980051
 30
0.0
 40
0.05
100
AcDbArc
 50
90.0
 51
180.0
  0
CIRCLE
  5
44D8
330
1F
100
AcDbEntity
  8
PLINE
100
AcDbCircle
 10
201.3558684842152
 20
77.2036897298005
 30
0.0
 40
2.149999999999999
  0
ARC
  5
44D9
330
1F
100
AcDbEntity
  8
0
100
AcDbCircle
 10
195.355868484215
 20
78.55368972980041
 30
0.0
 40
1.7
100
AcDbArc
 50
270.0
 51
0.0
  0
LINE
  5
44DA
330
1F
100
AcDbEntity
  8
0
100
AcDbLine
 10
197.0558684842151
 20
80.65368972980049
 30
0.0
 11
197.0558684842151
 21
78.55368972980041
 31
0.0
  0
ARC
  5
44DB
330
1F
100
AcDbEntity
  8
0
100
AcDbCircle
 10
188.655868484215
 20
78.55368972980058
 30
0.0
 40
1.7
100
AcDbArc
 50
270.0
 51
0.0
  0
ARC
  5
44DC
330
1F
100
AcDbEntity
  8
0
100
AcDbCircle
 10
194.4558684842149
 20
78.55368972980041
 30
0.0
 40
1.7
100
AcDbArc
 50
180.0
 51
270.0
  0
LINE
  5
44DD
330
1F
100
AcDbEntity
  8
0
100
AcDbLine
 10
192.755868484215
 20
78.55368972980041
 30
0.0
 11
192.755868484215
 21
80.65368972980049
 31
0.0
  0
LINE
  5
44DE
330
1F
100
AcDbEntity
  8
0
100
AcDbLine
 10
190.355868484215
 20
80.65368972980049
 30
0.0
 11
190.355868484215
 21
78.55368972980058
 31
0.0
  0
LINE
  5
44DF
330
1F
100
AcDbEntity
  8
0
100
AcDbLine
 10
186.055868484215
 20
78.55368972980058
 30
0.0
 11
186.055868484215
 21
80.65368972980049
 31
0.0
  0
LINE
  5
44E0
330
1F
100
AcDbEntity
  8
PLINE
100
AcDbLine
 10
180.7058684842149
 20
59.06619755208147
 30
0.0
 11
180.7058684842149
 21
79.04118190751969
 31
0.0
  0
ARC
  5
44E1
330
1F
100
AcDbEntity
  8
PLINE
100
AcDbCircle
 10
193.2058684842149
 20
69.05368972980058
 30
0.0
 40
16.0
100
AcDbArc
 50
218.624832873053
 51
231.375167126947
  0
LINE
  5
44E2
330
1F
100
AcDbEntity
  8
PLINE
100
AcDbLine
 10
186.5058684842151
 20
81.55368972980058
 30
0.0
 11
183.2183763064958
 21
81.55368972980058
 31
0.0
  0
LINE
  5
44E3
330
1F
100
AcDbEntity
  8
PLINE
100
AcDbLine
 10
203.1933606619345
 20
81.55368972980024
 30
0.0
 11
196.605868484215
 21
81.5536897298004
 31
0.0
  0
LINE
  5
44E4
330
1F
100
AcDbEntity
  8
0
100
AcDbLine
 10
196.605868484215
 20
81.5536897298004
 30
0.0
 11
196.605868484215
 21
81.15368972980048
 31
0.0
  0
LINE
  5
44E5
330
1F
100
AcDbEntity
  8
PLINE
100
AcDbLine
 10
193.2058684842149
 20
81.55368972980047
 30
0.0
 11
189.9058684842151
 21
81.55368972980058
 31
0.0
  0
LINE
  5
44E6
330
1F
100
AcDbEntity
  8
0
100
AcDbLine
 10
193.2058684842149
 20
81.15368972980038
 30
0.0
 11
193.2058684842149
 21
81.55368972980047
 31
0.0
  0
LINE
  5
44E7
330
1F
100
AcDbEntity
  8
0
100
AcDbLine
 10
189.9058684842151
 20
81.55368972980058
 30
0.0
 11
189.905868484215
 21
81.15368972980048
 31
0.0
  0
LINE
  5
44E8
330
1F
100
AcDbEntity
  8
0
100
AcDbLine
 10
186.5058684842151
 20
81.15368972980048
 30
0.0
 11
186.5058684842151
 21
81.55368972980058
 31
0.0
  0
LINE
  5
44E9
330
1F
100
AcDbEntity
  8
0
100
AcDbLine
 10
131.8494431540751
 20
69.0536897298006
 30
0.0
 11
133.3494431540751
 21
67.18286103641358
 31
0.0
  0
LINE
  5
44EA
330
1F
100
AcDbEntity
  8
0
100
AcDbLine
 10
130.3494431540751
 20
67.18286103641358
 30
0.0
 11
133.3494431540751
 21
67.18286103641358
 31
0.0
  0
LINE
  5
44EB
330
1F
100
AcDbEntity
  8
0
100
AcDbLine
 10
130.3494431540751
 20
69.0536897298006
 30
0.0
 11
130.3494431540751
 21
67.18286103641358
 31
0.0
  0
ARC
  5
44EC
330
1F
100
AcDbEntity
  8
0
100
AcDbCircle
 10
131.5994431540751
 20
69.0536897298006
 30
0.0
 40
2.250000000000033
100
AcDbArc
 50
180.0
 51
236.2510114041123
  0
LINE
  5
44ED
102
{ACAD_REACTORS
330
4529
102
}
330
1F
100
AcDbEntity
  8
0
100
AcDbLine
 10
130.3494431540751
 20
67.18286103641358
 30
0.0
 11
131.8494431540751
 21
69.0536897298006
 31
0.0
  0
LINE
  5
44EE
330
1F
100
AcDbEntity
  8
0
100
AcDbLine
 10
132.4834177502905
 20
72.05368972980048
 30
0.0
 11
129.3494431540751
 21
72.05368972980048
 31
0.0
  0
LINE
  5
44EF
330
1F
100
AcDbEntity
  8
0
100
AcDbLine
 10
132.4834177502905
 20
67.18286103641358
 30
0.0
 11
132.4834177502905
 21
66.05368972980059
 31
0.0
  0
LINE
  5
44F0
330
1F
100
AcDbEntity
  8
0
100
AcDbLine
 10
128.3494431540751
 20
63.55368972980048
 30
0.0
 11
129.3494431540751
 21
63.55368972980054
 31
0.0
  0
LINE
  5
44F1
330
1F
100
AcDbEntity
  8
0
100
AcDbLine
 10
128.3494431540751
 20
74.55368972980053
 30
0.0
 11
129.3494431540751
 21
74.5536897298006
 31
0.0
  0
LINE
  5
44F2
102
{ACAD_REACTORS
330
4517
330
452F
102
}
330
1F
100
AcDbEntity
  8
0
100
AcDbLine
 10
129.3494431540751
 20
63.55368972980054
 30
0.0
 11
129.3494431540751
 21
74.5536897298006
 31
0.0
  0
LINE
  5
44F3
102
{ACAD_REACTORS
330
4529
330
452C
102
}
330
1F
100
AcDbEntity
  8
0
100
AcDbLine
 10
132.4834177502905
 20
66.05368972980059
 30
0.0
 11
133.3494431540751
 21
66.5536897298006
 31
0.0
  0
LINE
  5
44F4
330
1F
100
AcDbEntity
  8
0
100
AcDbLine
 10
132.4834177502908
 20
72.05368972980048
 30
0.0
 11
133.3494431540751
 21
71.55368972980048
 31
0.0
  0
LINE
  5
44F5
102
{ACAD_REACTORS
330
452C
102
}
330
1F
100
AcDbEntity
  8
0
100
AcDbLine
 10
132.4834177502908
 20
72.05368972980048
 30
0.0
 11
132.4834177502905
 21
70.92451842318749
 31
0.0
  0
LINE
  5
44F6
330
1F
100
AcDbEntity
  8
BORDER
100
AcDbLine
 10
187.755868484215
 20
76.85368972980059
 30
0.0
 11
188.655868484215
 21
76.85368972980059
 31
0.0
  0
CIRCLE
  5
44F7
330
1F
100
AcDbEntity
  8
0
100
AcDbCircle
 10
193.2058684842149
 20
69.05368972980058
 30
0.0
 40
3.122498999199225
  0
LINE
  5
44F8
330
1F
100
AcDbEntity
  8
0
100
AcDbLine
 10
195.7058684842149
 20
70.92451842318765
 30
0.0
 11
195.705868484215
 21
67.18286103641363
 31
0.0
  0
LINE
  5
44F9
330
1F
100
AcDbEntity
  8
0
100
AcDbLine
 10
190.7058684842149
 20
67.18286103641351
 30
0.0
 11
190.7058684842149
 21
70.92451842318753
 31
0.0
  0
LINE
  5
44FA
330
1F
100
AcDbEntity
  8
CENTER
 48
0.5
100
AcDbLine
 10
181.5558684842151
 20
60.9036897298002
 30
0.0
 11
188.555868484215
 21
60.9036897298002
 31
0.0
  0
LINE
  5
44FB
330
1F
100
AcDbEntity
  8
CENTER
 48
0.5
100
AcDbLine
 10
185.055868484215
 20
56.90042393179699
 30
0.0
 11
185.055868484215
 21
65.09420616824453
 31
0.0
  0
LINE
  5
44FC
330
1F
100
AcDbEntity
  8
CENTER
 48
0.5
100
AcDbLine
 10
197.8558684842151
 20
77.2036897298005
 30
0.0
 11
204.8558684842151
 21
77.2036897298005
 31
0.0
  0
LINE
  5
44FD
330
1F
100
AcDbEntity
  8
CENTER
 48
0.5
100
AcDbLine
 10
201.3558684842152
 20
73.20042393179729
 30
0.0
 11
201.3558684842152
 21
81.39420616824482
 31
0.0
  0
LINE
  5
44FE
330
1F
100
AcDbEntity
  8
CENTER
 48
0.7
100
AcDbLine
 10
207.252283567718
 20
69.05368972980058
 30
0.0
 11
179.4383340413091
 21
69.05368972980058
 31
0.0
  0
LINE
  5
44FF
330
1F
100
AcDbEntity
  8
0
100
AcDbLine
 10
106.3494431540752
 20
56.5536897298006
 30
0.0
 11
106.349443154075
 21
81.55368972980058
 31
0.0
  0
LINE
  5
4500
330
1F
100
AcDbEntity
  8
0
100
AcDbLine
 10
128.3494431540751
 20
56.5536897298006
 30
0.0
 11
128.3494431540751
 21
69.0536897298006
 31
0.0
  0
LINE
  5
4501
102
{ACAD_REACTORS
330
4523
330
4526
102
}
330
1F
100
AcDbEntity
  8
0
100
AcDbLine
 10
128.3494431540751
 20
81.5536897298006
 30
0.0
 11
106.349443154075
 21
81.5536897298006
 31
0.0
  0
LINE
  5
4502
102
{ACAD_REACTORS
330
4517
330
451A
330
4523
102
}
330
1F
100
AcDbEntity
  8
0
100
AcDbLine
 10
128.3494431540751
 20
69.0536897298006
 30
0.0
 11
128.3494431540751
 21
81.5536897298006
 31
0.0
  0
LINE
  5
4503
330
1F
100
AcDbEntity
  8
0
100
AcDbLine
 10
128.3494431540751
 20
56.55368972980054
 30
0.0
 11
106.3494431540752
 21
56.55368972980057
 31
0.0
  0
CIRCLE
  5
4505
330
1F
100
AcDbEntity
  8
0
100
AcDbCircle
 10
121.8494431540751
 20
75.05368972980059
 30
0.0
 40
2.1
  0
LINE
  5
4506
330
1F
100
AcDbEntity
  8
CENTER
 48
0.5
100
AcDbLine
 10
124.8494431540751
 20
75.05368972980059
 30
0.0
 11
118.8494431540751
 21
75.05368972980059
 31
0.0
  0
LINE
  5
4507
330
1F
100
AcDbEntity
  8
CENTER
 48
0.5
100
AcDbLine
 10
121.8494431540751
 20
78.05368972980059
 30
0.0
 11
121.8494431540751
 21
72.0536897298006
 31
0.0
  0
LINE
  5
4508
330
1F
100
AcDbEntity
  8
CENTER
 48
0.5
100
AcDbLine
 10
112.8494431540751
 20
78.05368972980058
 30
0.0
 11
112.8494431540751
 21
72.0536897298006
 31
0.0
  0
ARC
  5
4509
330
1F
100
AcDbEntity
  8
0
 62
     3
100
AcDbCircle
 10
112.8494431540751
 20
75.05368972980059
 30
0.0
 40
2.5
100
AcDbArc
 50
252.224476441966
 51
194.4594585336837
  0
LINE
  5
450A
330
1F
100
AcDbEntity
  8
CENTER
 48
0.5
100
AcDbLine
 10
109.8494431540751
 20
75.05368972980059
 30
0.0
 11
115.8494431540751
 21
75.05368972980059
 31
0.0
  0
CIRCLE
  5
450B
330
1F
100
AcDbEntity
  8
0
100
AcDbCircle
 10
112.8494431540751
 20
75.05368972980059
 30
0.0
 40
2.1
  0
CIRCLE
  5
450C
330
1F
100
AcDbEntity
  8
0
100
AcDbCircle
 10
193.2058684842149
 20
69.05368972980058
 30
0.0
 40
2.5
  0
ARC
  5
450D
330
1F
100
AcDbEntity
  8
0
100
AcDbCircle
 10
187.3722375394258
 20
74.88732067458956
 30
0.0
 40
0.749999999999996
100
AcDbArc
 50
44.99999999999971
 51
224.9999999999996
  0
LINE
  5
450E
330
1F
100
AcDbEntity
  8
0
100
AcDbLine
 10
187.9025676253158
 20
75.41765076047956
 30
0.0
 11
188.8149436488475
 21
74.50527473694787
 31
0.0
  0
LINE
  5
450F
330
1F
100
AcDbEntity
  8
0
100
AcDbLine
 10
186.841907453536
 20
74.35699058869968
 30
0.0
 11
187.7542834770676
 21
73.44461456516798
 31
0.0
  0
ARC
  5
4510
330
1F
100
AcDbEntity
  8
0
100
AcDbCircle
 10
199.0394994290038
 20
63.2200587850116
 30
0.0
 40
0.749999999999996
100
AcDbArc
 50
224.9999999999996
 51
44.99999999999971
  0
LINE
  5
4511
330
1F
100
AcDbEntity
  8
0
100
AcDbLine
 10
199.5698295148939
 20
63.75038887090138
 30
0.0
 11
198.6574534913622
 21
64.66276489443318
 31
0.0
  0
LINE
  5
4512
330
1F
100
AcDbEntity
  8
0
100
AcDbLine
 10
198.509169343114
 20
62.6897286991216
 30
0.0
 11
197.5967933195824
 21
63.60210472265329
 31
0.0
  0
LINE
  5
4513
330
1F
100
AcDbEntity
  8
0
100
AcDbLine
 10
128.3494431540752
 20
79.04118190751971
 30
0.0
 11
106.3494431540753
 21
79.04118190751971
 31
0.0
  0
LINE
  5
4514
330
1F
100
AcDbEntity
  8
0
100
AcDbLine
 10
128.3494431540752
 20
59.06619755208151
 30
0.0
 11
106.3494431540752
 21
59.06619755208153
 31
0.0
  0
DIMENSION
  5
4515
102
{ACAD_XDICTIONARY
360
4516
102
}
102
{ACAD_REACTORS
330
4517
102
}
330
1F
100
AcDbEntity
  8
DIM
100
AcDbDimension
  2
*D24
 10
129.3494431540751
 20
86.22964401845257
 30
0.0
 11
131.2108374410202
 21
88.42264330980725
 31
0.0
 70
   160
 71
     5
  3
AM_ANSI
100
AcDbAlignedDimension
 13
128.3494431540751
 23
81.5536897298006
 33
0.0
 14
129.3494431540751
 24
74.5536897298006
 34
0.0
100
AcDbRotatedDimension
1001
ACAD
1000
DSTYLE
1002
{
1070
   279
1070
     2
1070
    41
1040
2.0
1070
    42
1040
1.5
1070
    43
1040
8.0
1070
    44
1040
1.5
1070
    73
1070
     0
1070
    74
1070
     0
1070
    77
1070
     3
1070
   140
1040
2.0
1070
   141
1040
3.0
1070
   146
1040
0.6
1070
   147
1040
1.0
1070
   172
1070
     1
1070
   178
1070
   256
1070
   272
1070
     2
1070
   274
1070
     2
1070
   340
1005
321B
1002
}
  0
DIMENSION
  5
4518
102
{ACAD_XDICTIONARY
360
4519
102
}
102
{ACAD_REACTORS
330
451A
102
}
330
1F
100
AcDbEntity
  8
DIM
100
AcDbDimension
  2
*D25
 10
133.3494431540751
 20
92.2370777114463
 30
0.0
 11
130.8494431540751
 21
94.23707771144631
 31
0.0
 70
    32
 71
     5
 42
5.0
  3
AM_ANSI
100
AcDbAlignedDimension
 13
128.3494431540751
 23
81.5536897298006
 33
0.0
 14
133.3494431540751
 24
71.5536897298006
 34
0.0
100
AcDbRotatedDimension
1001
ACAD
1000
DSTYLE
1002
{
1070
    41
1040
2.0
1070
    42
1040
1.5
1070
    43
1040
8.0
1070
    44
1040
1.5
1070
    73
1070
     0
1070
    74
1070
     0
1070
    77
1070
     3
1070
   140
1040
2.0
1070
   141
1040
3.0
1070
   146
1040
0.6
1070
   147
1040
1.0
1070
   172
1070
     1
1070
   178
1070
   256
1070
   272
1070
     2
1070
   274
1070
     2
1070
   340
1005
321B
1002
}
  0
DIMENSION
  5
451B
102
{ACAD_XDICTIONARY
360
451C
102
}
102
{ACAD_REACTORS
330
451D
102
}
330
1F
100
AcDbEntity
  8
DIM
100
AcDbDimension
  2
*D26
 10
112.8494431540751
 20
190.7440138243656
 30
0.0
 11
109.5994431540751
 21
192.7440138243656
 31
0.0
 70
    32
 71
     5
 42
6.499999999999886
  3
AM_ANSI
100
AcDbAlignedDimension
 13
106.3494431540752
 23
186.0680595357136
 33
0.0
 14
112.8494431540751
 24
182.5680595357136
 34
0.0
100
AcDbRotatedDimension
1001
ACAD
1000
DSTYLE
1002
{
1070
    41
1040
2.0
1070
    42
1040
1.5
1070
    43
1040
8.0
1070
    44
1040
1.5
1070
    73
1070
     0
1070
    74
1070
     0
1070
    77
1070
     3
1070
   140
1040
2.0
1070
   141
1040
3.0
1070
   146
1040
0.6
1070
   147
1040
1.0
1070
   172
1070
     1
1070
   178
1070
   256
1070
   272
1070
     2
1070
   274
1070
     2
1070
   340
1005
321B
1002
}
  0
DIMENSION
  5
451E
102
{ACAD_XDICTIONARY
360
451F
102
}
102
{ACAD_REACTORS
330
4520
102
}
330
1F
100
AcDbEntity
  8
DIM
100
AcDbDimension
  2
*D27
 10
128.3494431540751
 20
190.7440138243656
 30
0.0
 11
125.0994431540751
 21
192.7440138243656
 31
0.0
 70
    32
 71
     5
 42
6.5
  3
AM_ANSI
100
AcDbAlignedDimension
 13
121.8494431540751
 23
182.5680595357136
 33
0.0
 14
128.3494431540751
 24
186.0680595357136
 34
0.0
100
AcDbRotatedDimension
1001
ACAD
1000
DSTYLE
1002
{
1070
    41
1040
2.0
1070
    42
1040
1.5
1070
    43
1040
8.0
1070
    44
1040
1.5
1070
    73
1070
     0
1070
    74
1070
     0
1070
    77
1070
     3
1070
   140
1040
2.0
1070
   141
1040
3.0
1070
   146
1040
0.6
1070
   147
1040
1.0
1070
   172
1070
     1
1070
   178
1070
   256
1070
   272
1070
     2
1070
   274
1070
     2
1070
   340
1005
321B
1002
}
  0
DIMENSION
  5
4521
102
{ACAD_XDICTIONARY
360
4522
102
}
102
{ACAD_REACTORS
330
4523
102
}
330
1F
100
AcDbEntity
  8
DIM
100
AcDbDimension
  2
*D28
 10
128.3494431540751
 20
92.2370777114463
 30
0.0
 11
117.349443154075
 21
94.23707771144631
 31
0.0
 70
    32
  1
17+stroke=S
 71
     5
 42
22.00000000000011
  3
AM_ANSI
100
AcDbAlignedDimension
 13
106.349443154075
 23
81.5536897298006
 33
0.0
 14
128.3494431540751
 24
81.5536897298006
 34
0.0
100
AcDbRotatedDimension
1001
ACAD
1000
DSTYLE
1002
{
1070
    41
1040
2.0
1070
    42
1040
1.5
1070
    43
1040
8.0
1070
    44
1040
1.5
1070
    73
1070
     0
1070
    74
1070
     0
1070
    77
1070
     3
1070
   140
1040
2.0
1070
   141
1040
3.0
1070
   146
1040
0.6
1070
   147
1040
1.0
1070
   172
1070
     1
1070
   178
1070
   256
1070
   272
1070
     2
1070
   274
1070
     2
1070
   340
1005
321B
1002
}
  0
DIMENSION
  5
4524
102
{ACAD_XDICTIONARY
360
4525
102
}
102
{ACAD_REACTORS
330
4526
102
}
330
1F
100
AcDbEntity
  8
DIM
100
AcDbDimension
  2
*D29
 10
106.349443154075
 20
98.26843273918836
 30
0.0
 11
119.849443154075
 21
100.2684327391883
 31
0.0
 70
    32
  1
22+stroke=ZZ
 71
     5
 42
27.00000000000012
  3
AM_ANSI
100
AcDbAlignedDimension
 13
133.3494431540751
 23
71.5536897298006
 33
0.0
 14
106.349443154075
 24
81.5536897298006
 34
0.0
100
AcDbRotatedDimension
1001
ACAD
1000
DSTYLE
1002
{
1070
    41
1040
2.0
1070
    42
1040
1.5
1070
    43
1040
8.0
1070
    44
1040
1.5
1070
    73
1070
     0
1070
    74
1070
     0
1070
    77
1070
     3
1070
   140
1040
2.0
1070
   141
1040
3.0
1070
   146
1040
0.6
1070
   147
1040
1.0
1070
   172
1070
     1
1070
   178
1070
   256
1070
   272
1070
     2
1070
   274
1070
     2
1070
   340
1005
321B
1002
}
  0
DIMENSION
  5
4527
102
{ACAD_XDICTIONARY
360
4528
102
}
102
{ACAD_REACTORS
330
4529
102
}
330
1F
100
AcDbEntity
  8
DIM
100
AcDbDimension
  2
*D30
 10
133.3494431540751
 20
54.75459017119125
 30
0.0
 11
131.8494431540751
 21
54.75459017119125
 31
0.0
 70
   160
 71
     5
 42
3.0
  3
AM_ANSI
100
AcDbAlignedDimension
 13
130.3494431540751
 23
67.18286103641358
 33
0.0
 14
133.3494431540751
 24
66.5536897298006
 34
0.0
100
AcDbRotatedDimension
1001
ACAD
1000
DSTYLE
1002
{
1070
    41
1040
2.0
1070
    42
1040
1.5
1070
    43
1040
8.0
1070
    44
1040
1.5
1070
    73
1070
     0
1070
    74
1070
     0
1070
    77
1070
     3
1070
   140
1040
2.0
1070
   141
1040
3.0
1070
   146
1040
0.6
1070
   147
1040
1.0
1070
   172
1070
     1
1070
   178
1070
   256
1070
   272
1070
     2
1070
   274
1070
     2
1070
   340
1005
321B
1002
}
  0
DIMENSION
  5
452A
102
{ACAD_XDICTIONARY
360
452B
102
}
102
{ACAD_REACTORS
330
452C
102
}
330
1F
100
AcDbEntity
  8
DIM
100
AcDbDimension
  2
*D31
 10
141.3115355086538
 20
72.05368972980048
 30
0.0
 11
139.3115355086537
 21
69.05368972980055
 31
0.0
 70
    32
  1
%%c<>
 71
     5
 42
5.999999999999886
  3
AM_ANSI
100
AcDbAlignedDimension
 13
132.4834177502905
 23
66.05368972980059
 33
0.0
 14
132.4834177502908
 24
72.05368972980048
 34
0.0
 50
90.0
100
AcDbRotatedDimension
1001
ACAD
1000
DSTYLE
1002
{
1070
    41
1040
2.0
1070
    42
1040
1.5
1070
    43
1040
8.0
1070
    44
1040
1.5
1070
    73
1070
     0
1070
    74
1070
     0
1070
    77
1070
     3
1070
   140
1040
2.0
1070
   141
1040
3.0
1070
   146
1040
0.6
1070
   147
1040
1.0
1070
   172
1070
     1
1070
   178
1070
   256
1070
   272
1070
     2
1070
   274
1070
     2
1070
   340
1005
321B
1002
}
  0
DIMENSION
  5
452D
102
{ACAD_XDICTIONARY
360
452E
102
}
102
{ACAD_REACTORS
330
452F
102
}
330
1F
100
AcDbEntity
  8
DIM
100
AcDbDimension
  2
*D32
 10
148.0901867295933
 20
74.5536897298006
 30
0.0
 11
145.4335200629266
 21
83.02511830122918
 31
0.0
 70
    32
  1
%%c<>{}{\H0.71x;\C3;\S 0^ -0.05;}
 71
     5
 42
11.00000000000005
  3
AM_ANSI
100
AcDbAlignedDimension
 13
129.3494431540751
 23
63.55368972980054
 33
0.0
 14
129.3494431540751
 24
74.5536897298006
 34
0.0
 50
90.0
100
AcDbRotatedDimension
1001
GENIUS_GENDTOL_13
1000
TolSmNrm
1000

1000
{\H0.71x;$2\S$+$P^ $-$M;}
1040
11.0
1001
ACAD
1000
DSTYLE
1002
{
1070
   286
1070
     0
1070
   284
1070
     8
1070
    41
1040
2.0
1070
    42
1040
1.5
1070
    43
1040
8.0
1070
    44
1040
1.5
1070
    47
1040
0.0
1070
    48
1040
0.05
1070
    73
1070
     0
1070
    74
1070
     0
1070
    77
1070
     3
1070
   140
1040
2.0
1070
   141
1040
3.0
1070
   146
1040
0.6
1070
   147
1040
1.0
1070
   172
1070
     1
1070
   178
1070
   256
1070
   272
1070
     2
1070
   274
1070
     2
1070
   340
1005
321B
1002
}
  0
DIMENSION
  5
4530
330
1F
100
AcDbEntity
  8
DIM
100
AcDbDimension
  2
*D2
 10
98.84964628617622
 20
75.05368972980057
 30
0.0
 11
96.8496462861762
 21
72.0536897298006
 31
0.0
 70
    32
 71
     5
 42
5.999999999999971
  3
AM_ANSI
100
AcDbAlignedDimension
 13
104.6589685741097
 23
69.0536897298006
 33
0.0
 14
109.8494431540749
 24
75.05368972980057
 34
0.0
 50
90.0
100
AcDbRotatedDimension
1001
ACAD
1000
DSTYLE
1002
{
1070
    41
1040
2.0
1070
    42
1040
1.5
1070
    43
1040
8.0
1070
    44
1040
1.5
1070
    73
1070
     0
1070
    74
1070
     0
1070
    77
1070
     3
1070
   140
1040
2.0
1070
   141
1040
3.0
1070
   146
1040
0.6
1070
   147
1040
1.0
1070
   172
1070
     1
1070
   178
1070
   256
1070
   272
1070
     2
1070
   274
1070
     2
1070
   340
1005
321B
1002
}
  0
LEADER
  5
4531
330
1F
100
AcDbEntity
  8
DIM
100
AcDbLeader
  3
AM_ANSI$7
 73
     0
 75
     1
 40
2.0
 41
14.28571428571428
 76
     3
 10
110.6947631552959
 20
76.32150442559082
 30
0.0
 10
103.3710156764027
 20
82.38435873058273
 30
0.0
 10
101.3710156764027
 20
82.38435873058273
 30
0.0
340
4532
213
-1.486619241154016
223
0.4032735171140303
233
0.0
1001
ACAD
1000
DSTYLE
1002
{
1070
    41
1040
2.0
1070
    42
1040
1.5
1070
    43
1040
8.0
1070
    44
1040
1.5
1070
    73
1070
     0
1070
    74
1070
     0
1070
    77
1070
     2
1070
   140
1040
2.0
1070
   141
1040
3.0
1070
   146
1040
0.6
1070
   147
1040
1.0
1070
   172
1070
     1
1070
   178
1070
   256
1070
   272
1070
     2
1070
   274
1070
     2
1070
   340
1005
321B
1002
}
  0
MTEXT
  5
4532
102
{ACAD_REACTORS
330
4531
102
}
330
1F
100
AcDbEntity
  8
DIM
100
AcDbMText
 10
101.8576349175567
 20
82.9810852134687
 30
0.0
 40
2.0
 41
0.0
 71
     9
 72
     1
  1
2-M5*0.8
  7
dayus
 73
     1
 44
1.0
1001
ACAD
1000
MTEXTBEGIN
1070
    73
1070
     1
1070
    44
1040
1.0
1070
    74
1070
     0
1000
MTEXTEND
  0
DIMENSION
  5
4533
330
1F
100
AcDbEntity
  8
DIM
100
AcDbDimension
  2
*D3
 10
195.7058684842148
 20
86.22964401845258
 30
0.0
 11
193.2058684842148
 21
86.22964401845258
 31
0.0
 70
   160
  1
<>
 71
     5
 42
4.999999999999886
  3
AM_ANSI
100
AcDbAlignedDimension
 13
190.7058684842149
 23
70.92451842318753
 33
0.0
 14
195.7058684842148
 24
70.92451842318768
 34
0.0
100
AcDbRotatedDimension
1001
ACAD
1000
DSTYLE
1002
{
1070
    41
1040
2.0
1070
    42
1040
1.5
1070
    43
1040
8.0
1070
    44
1040
1.5
1070
    73
1070
     0
1070
    74
1070
     0
1070
    77
1070
     3
1070
   140
1040
2.0
1070
   141
1040
3.0
1070
   146
1040
0.6
1070
   147
1040
1.0
1070
   172
1070
     1
1070
   178
1070
   256
1070
   272
1070
     2
1070
   274
1070
     2
1070
   340
1005
321B
1002
}
  0
DIMENSION
  5
4534
330
1F
100
AcDbEntity
  8
DIM
100
AcDbDimension
  2
*D4
 10
201.3558684842152
 20
91.72179676857421
 30
0.0
 11
193.2058684842152
 21
93.7217967685742
 31
0.0
 70
    32
  1
□<>
 71
     5
 42
16.29999999999995
  3
AM_ANSI
100
AcDbAlignedDimension
 13
185.0558684842152
 23
65.09420616824453
 33
0.0
 14
201.3558684842152
 24
80.7036897298005
 34
0.0
100
AcDbRotatedDimension
1001
ACAD
1000
DSTYLE
1002
{
1070
    41
1040
2.0
1070
    42
1040
1.5
1070
    43
1040
8.0
1070
    44
1040
1.5
1070
    73
1070
     0
1070
    74
1070
     0
1070
    77
1070
     3
1070
   140
1040
2.0
1070
   141
1040
3.0
1070
   146
1040
0.6
1070
   147
1040
1.0
1070
   172
1070
     1
1070
   178
1070
   256
1070
   272
1070
     2
1070
   274
1070
     2
1070
   340
1005
321B
1002
}
  0
DIMENSION
  5
4535
330
1F
100
AcDbEntity
  8
DIM
100
AcDbDimension
  2
*D5
 10
205.7058684842151
 20
96.95387318660012
 30
0.0
 11
193.205868484215
 21
98.95387318660013
 31
0.0
 70
    32
  1
□<>
 71
     5
 42
25.0
  3
AM_ANSI
100
AcDbAlignedDimension
 13
180.705868484215
 23
79.04118190751967
 33
0.0
 14
205.7058684842151
 24
79.04118190751963
 34
0.0
100
AcDbRotatedDimension
1001
ACAD
1000
DSTYLE
1002
{
1070
    41
1040
2.0
1070
    42
1040
1.5
1070
    43
1040
8.0
1070
    44
1040
1.5
1070
    73
1070
     0
1070
    74
1070
     0
1070
    77
1070
     3
1070
   140
1040
2.0
1070
   141
1040
3.0
1070
   146
1040
0.6
1070
   147
1040
1.0
1070
   172
1070
     1
1070
   178
1070
   256
1070
   272
1070
     2
1070
   274
1070
     2
1070
   340
1005
321B
1002
}
  0
DIMENSION
  5
4536
102
{ACAD_XDICTIONARY
360
4537
102
}
102
{ACAD_REACTORS
330
4538
102
}
330
1F
100
AcDbEntity
  8
DIM
100
AcDbDimension
  2
*D33
 10
216.3699374298738
 20
166.7039905900549
 30
0.0
 11
206.8057238675007
 21
159.9682041524279
 31
0.0
 70
    33
 71
     5
 42
23.05168106668162
  3
AM_ANSI
100
AcDbAlignedDimension
 13
185.055868484215
 23
165.4180595357132
 33
0.0
 14
201.355868484215
 24
181.7180595357135
 34
0.0
1001
ACAD
1000
DSTYLE
1002
{
1070
    41
1040
2.0
1070
    42
1040
1.5
1070
    43
1040
8.0
1070
    44
1040
1.5
1070
    73
1070
     0
1070
    74
1070
     0
1070
    77
1070
     3
1070
   140
1040
2.0
1070
   141
1040
3.0
1070
   146
1040
0.6
1070
   147
1040
1.0
1070
   172
1070
     1
1070
   178
1070
   256
1070
   271
1070
     0
1070
   272
1070
     2
1070
   274
1070
     2
1070
   340
1005
321B
1002
}
  0
DIMENSION
  5
4539
102
{ACAD_XDICTIONARY
360
453A
102
}
102
{ACAD_REACTORS
330
453B
102
}
330
1F
100
AcDbEntity
  8
DIM
100
AcDbDimension
  2
*D34
 10
223.2215034860479
 20
166.0399167115996
 30
0.0
 11
210.5635438348153
 21
156.2103841851132
 31
0.0
 70
    33
 71
     5
 42
31.80211642148925
  3
AM_ANSI
100
AcDbAlignedDimension
 13
183.2183763064958
 23
161.0680595357136
 33
0.0
 14
205.7058684842149
 24
183.5555517134326
 34
0.0
1001
ACAD
1000
DSTYLE
1002
{
1070
    41
1040
2.0
1070
    42
1040
1.5
1070
    43
1040
8.0
1070
    44
1040
1.5
1070
    73
1070
     0
1070
    74
1070
     0
1070
    77
1070
     3
1070
   140
1040
2.0
1070
   141
1040
3.0
1070
   146
1040
0.6
1070
   147
1040
1.0
1070
   172
1070
     1
1070
   178
1070
   256
1070
   271
1070
     0
1070
   272
1070
     2
1070
   274
1070
     2
1070
   340
1005
321B
1002
}
  0
LEADER
  5
453C
330
1F
100
AcDbEntity
  8
DIM
100
AcDbLeader
  3
AM_ANSI$7
 73
     0
 74
     0
 75
     1
 40
8.666666666666666
 41
26.28571428571428
 76
     3
 10
203.9302196814623
 20
79.18742759384191
 30
0.0
 10
212.9996902642258
 20
86.17616021939655
 30
0.0
 10
214.9996902642258
 20
86.17616021939655
 30
0.0
340
453D
213
-0.1905629376930165
223
0.2179465301056638
233
0.0
1001
ACAD
1000
DSTYLE
1002
{
1070
    41
1040
2.0
1070
    42
1040
1.5
1070
    43
1040
8.0
1070
    44
1040
1.5
1070
    73
1070
     0
1070
    74
1070
     0
1070
    77
1070
     3
1070
   140
1040
2.0
1070
   141
1040
3.0
1070
   146
1040
0.6
1070
   147
1040
1.0
1070
   172
1070
     1
1070
   178
1070
   256
1070
   272
1070
     2
1070
   274
1070
     2
1070
   340
1005
321B
1002
}
  0
MTEXT
  5
453D
102
{ACAD_REACTORS
330
453C
102
}
330
1F
100
AcDbEntity
  8
DIM
100
AcDbMText
 10
216.1902532019188
 20
95.62488035595755
 30
0.0
 40
2.0
 41
0.0
 71
     1
 72
     1
  1
%%C6.5*4.5 depth\PM5*0.8*7.5 depth\P%%C4.3 thru
  7
dayus
 73
     1
 44
1.0
1001
ACAD
1000
MTEXTBEGIN
1070
    73
1070
     1
1070
    44
1040
1.0
1070
    74
1070
     0
1000
MTEXTEND
  0
LEADER
  5
453E
330
1F
100
AcDbEntity
  8
DIM
100
AcDbLeader
  3
AM_ANSI$7
 73
     0
 75
     1
 40
2.666666666666666
 41
23.42857142857143
 76
     3
 10
191.8511682139581
 20
69.74454946792852
 30
0.0
 10
179.9630609232693
 20
75.80715598687852
 30
0.0
 10
177.9630609232693
 20
75.80715598687852
 30
0.0
340
453F
213
-1.014088096863588
223
0.509559582378472
233
0.0
1001
ACAD
1000
DSTYLE
1002
{
1070
    41
1040
2.0
1070
    42
1040
1.5
1070
    43
1040
8.0
1070
    44
1040
1.5
1070
    73
1070
     0
1070
    74
1070
     0
1070
    77
1070
     3
1070
   140
1040
2.0
1070
   141
1040
3.0
1070
   146
1040
0.6
1070
   147
1040
1.0
1070
   172
1070
     1
1070
   178
1070
   256
1070
   272
1070
     2
1070
   274
1070
     2
1070
   340
1005
321B
1002
}
  0
MTEXT
  5
453F
102
{ACAD_REACTORS
330
453E
102
}
330
1F
100
AcDbEntity
  8
DIM
100
AcDbMText
 10
177.9771490201329
 20
76.29759640450005
 30
0.0
 40
2.0
 41
0.0
 71
     9
 72
     1
  1
M3*0.5*6 depth
  7
dayus
 73
     1
 44
1.0
1001
ACAD
1000
MTEXTBEGIN
1070
    73
1070
     1
1070
    44
1040
1.0
1070
    74
1070
     0
1000
MTEXTEND
  0
DIMENSION
  5
48AE
102
{ACAD_XDICTIONARY
360
48AF
102
}
102
{ACAD_REACTORS
330
48B0
102
}
330
1F
100
AcDbEntity
  8
DIM
100
AcDbDimension
  2
*D35
 10
216.3699374298739
 20
62.18962078414197
 30
0.0
 11
206.8057238675008
 21
55.45383434651492
 31
0.0
 70
    33
 71
     5
 42
23.0516810666816
  3
AM_ANSI
100
AcDbAlignedDimension
 13
185.0558684842152
 23
60.9036897298002
 33
0.0
 14
201.3558684842152
 24
77.2036897298005
 34
0.0
1001
ACAD
1000
DSTYLE
1002
{
1070
    41
1040
2.0
1070
    42
1040
1.5
1070
    43
1040
8.0
1070
    44
1040
1.5
1070
    73
1070
     0
1070
    74
1070
     0
1070
    77
1070
     3
1070
   140
1040
2.0
1070
   141
1040
3.0
1070
   146
1040
0.6
1070
   147
1040
1.0
1070
   172
1070
     1
1070
   178
1070
   256
1070
   271
1070
     0
1070
   272
1070
     2
1070
   274
1070
     2
1070
   340
1005
321B
1002
}
  0
DIMENSION
  5
48B1
102
{ACAD_XDICTIONARY
360
48B2
102
}
102
{ACAD_REACTORS
330
48B3
102
}
330
1F
100
AcDbEntity
  8
DIM
100
AcDbDimension
  2
*D36
 10
223.221503486048
 20
61.52554690568662
 30
0.0
 11
210.5635438348154
 21
51.69601437920022
 31
0.0
 70
    33
 71
     5
 42
31.80211642148922
  3
AM_ANSI
100
AcDbAlignedDimension
 13
183.2183763064959
 23
56.55368972980058
 33
0.0
 14
205.7058684842151
 24
79.04118190751963
 34
0.0
1001
ACAD
1000
DSTYLE
1002
{
1070
    41
1040
2.0
1070
    42
1040
1.5
1070
    43
1040
8.0
1070
    44
1040
1.5
1070
    73
1070
     0
1070
    74
1070
     0
1070
    77
1070
     3
1070
   140
1040
2.0
1070
   141
1040
3.0
1070
   146
1040
0.6
1070
   147
1040
1.0
1070
   172
1070
     1
1070
   178
1070
   256
1070
   271
1070
     0
1070
   272
1070
     2
1070
   274
1070
     2
1070
   340
1005
321B
1002
}
  0
DIMENSION
  5
48CC
102
{ACAD_XDICTIONARY
360
48CD
102
}
102
{ACAD_REACTORS
330
48CE
102
}
330
1F
100
AcDbEntity
  8
DIM
100
AcDbDimension
  2
*D37
 10
112.8494431540751
 20
86.2296440184526
 30
0.0
 11
109.5994431540751
 21
88.22964401845259
 31
0.0
 70
    32
 71
     5
 42
6.499999999999886
  3
AM_ANSI
100
AcDbAlignedDimension
 13
106.3494431540752
 23
81.55368972980062
 33
0.0
 14
112.8494431540751
 24
78.05368972980059
 34
0.0
100
AcDbRotatedDimension
1001
ACAD
1000
DSTYLE
1002
{
1070
    41
1040
2.0
1070
    42
1040
1.5
1070
    43
1040
8.0
1070
    44
1040
1.5
1070
    73
1070
     0
1070
    74
1070
     0
1070
    77
1070
     3
1070
   140
1040
2.0
1070
   141
1040
3.0
1070
   146
1040
0.6
1070
   147
1040
1.0
1070
   172
1070
     1
1070
   178
1070
   256
1070
   272
1070
     2
1070
   274
1070
     2
1070
   340
1005
321B
1002
}
  0
DIMENSION
  5
48CF
102
{ACAD_XDICTIONARY
360
48D0
102
}
102
{ACAD_REACTORS
330
48D1
102
}
330
1F
100
AcDbEntity
  8
DIM
100
AcDbDimension
  2
*D38
 10
128.3494431540751
 20
86.2296440184526
 30
0.0
 11
125.0994431540751
 21
88.22964401845259
 31
0.0
 70
    32
 71
     5
 42
6.5
  3
AM_ANSI
100
AcDbAlignedDimension
 13
121.8494431540751
 23
78.05368972980059
 33
0.0
 14
128.3494431540751
 24
81.5536897298006
 34
0.0
100
AcDbRotatedDimension
1001
ACAD
1000
DSTYLE
1002
{
1070
    41
1040
2.0
1070
    42
1040
1.5
1070
    43
1040
8.0
1070
    44
1040
1.5
1070
    73
1070
     0
1070
    74
1070
     0
1070
    77
1070
     3
1070
   140
1040
2.0
1070
   141
1040
3.0
1070
   146
1040
0.6
1070
   147
1040
1.0
1070
   172
1070
     1
1070
   178
1070
   256
1070
   272
1070
     2
1070
   274
1070
     2
1070
   340
1005
321B
1002
}
  0
LWPOLYLINE
  5
4AAA
330
1F
100
AcDbEntity
  8
LOGO
 62
     4
100
AcDbPolyline
 90
        4
 70
     1
 43
0.0
 10
62.69244167992496
 20
28.72928384389749
 10
271.6277841472795
 20
28.72928384389752
 10
271.6277841472795
 20
1.583215065616498
 10
62.69244167992496
 20
1.58321506561647
1001
GENIUS_GENREC_14
1002
{
1000
PYDIR
1011
62.69244167992496
1021
1.58321506561647
1031
0.0
1002
}
1002
{
1000
PXDIR
1011
271.6277841472795
1021
28.72928384389752
1031
0.0
1002
}
1002
{
1000
PORI
1011
62.69244167992496
1021
28.72928384389749
1031
0.0
1002
}
1002
{
1000
PINS
1011
62.69244167992496
1021
28.72928384389749
1031
0.0
1002
}
1002
{
1000
PINS2
1011
271.6277841472795
1021
1.583215065616498
1031
0.0
1002
}
1002
{
1000
C
1070
     1
1002
}
1001
GENIUS_GENOBJ-N-REC_13
1002
{
1000
OWNER
1000
GEN
1002
}
1001
GENIUS_GENODEF_13
1002
{
1000
HIER
1070
     0
1002
}
1002
{
1000
MANEDIT
1070
     0
1002
}
1002
{
1000
NOSEL
1070
     0
1002
}
1002
{
1000
BEHIND
1070
     0
1002
}
1002
{
1000
OTHER
1070
     0
1002
}
1002
{
1000
REACTOR
1002
}
  0
TEXT
  5
4AAB
330
1F
100
AcDbEntity
  8
LOGO
 62
     7
100
AcDbText
 10
123.9864675199202
 20
16.83705304196485
 30
0.0
 40
3.619475837104071
  1
Order example:
 41
0.8
  7
CHINESET
100
AcDbText
  0
TEXT
  5
4AAC
330
1F
100
AcDbEntity
  8
LOGO
 62
     7
100
AcDbText
 10
124.6358314169442
 20
21.93252559857278
 30
0.0
 40
5.429213755656108
  1
訂購代號：
  7
CHINESET
100
AcDbText
  0
LINE
  5
4AAD
330
1F
100
AcDbEntity
  8
LOGO
 62
     4
100
AcDbLine
 10
122.4137929921422
 20
1.58321506561678
 30
0.0
 11
122.4137929921422
 21
28.72928384389749
 31
0.0
  0
TEXT
  5
4AAE
330
1F
100
AcDbEntity
  8
LOGO
  6
Continuous
100
AcDbText
 10
72.44343160902349
 20
6.916019310120308
 30
0.0
 40
4.071910316742081
  1
金器工業股份有限公司
  7
CHINESET
100
AcDbText
  0
TEXT
  5
4AAF
330
1F
100
AcDbEntity
  8
LOGO
  6
Continuous
100
AcDbText
 10
64.96413794489711
 20
2.843311218206281
 30
0.0
 40
2.714606877828054
  1
MINDMAN INDUSTRIAL CO., LTD.
 41
0.85
  7
CHINESET
100
AcDbText
  0
LINE
  5
4AB0
330
1F
100
AcDbEntity
  8
LOGO
 62
     4
100
AcDbLine
 10
122.4137929921422
 20
23.30007008824135
 30
0.0
 11
82.59955878399717
 21
23.30007008824135
 31
0.0
  0
LINE
  5
4AB1
330
1F
100
AcDbEntity
  8
LOGO
 62
     4
100
AcDbLine
 10
122.4137929921422
 20
17.8708563325852
 30
0.0
 11
82.59955878399717
 21
17.8708563325852
 31
0.0
  0
LINE
  5
4AB2
330
1F
100
AcDbEntity
  8
LOGO
 62
     4
100
AcDbLine
 10
122.4137929921422
 20
12.44164257692937
 30
0.0
 11
62.69244167992496
 21
12.44164257692937
 31
0.0
  0
LINE
  5
4AB3
330
1F
100
AcDbEntity
  8
LOGO
 62
     4
100
AcDbLine
 10
82.59955878399717
 20
12.44164257692937
 30
0.0
 11
82.59955878399717
 21
28.72928384389749
 31
0.0
  0
TEXT
  5
4AB4
330
1F
100
AcDbEntity
  8
LOGO
100
AcDbText
 10
109.8107086620335
 20
13.79894601584295
 30
0.0
 40
2.714606877828054
  1
mm
  7
CHINESET
 72
     1
 11
113.171650510773
 21
15.15624945475698
 31
0.0
100
AcDbText
 73
     2
  0
TEXT
  5
4AB5
330
1F
100
AcDbEntity
  8
LOGO
100
AcDbText
 10
108.3887717260283
 20
24.65737352715524
 30
0.0
 40
2.714606877828054
  1
1 : 1
  7
CHINESET
 72
     1
 11
113.171650510773
 21
26.01467696606927
 31
0.0
100
AcDbText
 73
     2
  0
LINE
  5
4AB6
330
1F
100
AcDbEntity
  8
LOGO
 62
     4
100
AcDbLine
 10
104.3164138066217
 20
12.44164257692937
 30
0.0
 11
104.3164138066217
 21
28.72928384389749
 31
0.0
  0
CIRCLE
  5
4AB7
330
1F
100
AcDbEntity
  8
LOGO
  6
Continuous
100
AcDbCircle
 10
109.3428479785812
 20
20.59126977439003
 30
0.0
 40
1.576164647910257
  0
CIRCLE
  5
4AB8
330
1F
100
AcDbEntity
  8
LOGO
  6
Continuous
100
AcDbCircle
 10
109.3428479785812
 20
20.59126977439003
 30
0.0
 40
0.9234929537135482
  0
LINE
  5
4AB9
330
1F
100
AcDbEntity
  8
LOGO
100
AcDbLine
 10
119.2476495164607
 20
19.01510512647947
 30
0.0
 11
119.2476495164607
 21
22.16743442230059
 31
0.0
  0
LINE
  5
4ABA
330
1F
100
AcDbEntity
  8
LOGO
100
AcDbLine
 10
114.3064638214302
 20
19.66777682067665
 30
0.0
 11
114.3064638214302
 21
21.51476272810373
 31
0.0
  0
LINE
  5
4ABB
330
1F
100
AcDbEntity
  8
LOGO
  6
Continuous
100
AcDbLine
 10
114.3064638214302
 20
21.51476272810373
 30
0.0
 11
119.2476495164607
 21
22.16743442230059
 31
0.0
  0
LINE
  5
4ABC
330
1F
100
AcDbEntity
  8
LOGO
  6
Continuous
100
AcDbLine
 10
114.3064638214302
 20
19.66777682067665
 30
0.0
 11
119.2476495164607
 21
19.01510512647947
 31
0.0
  0
TEXT
  5
4ABD
330
1F
100
AcDbEntity
  8
LOGO
100
AcDbText
 10
84.83789758013493
 20
24.65870945573685
 30
177.9108627192676
 40
2.714606877828054
  1
比例 Scale:
 41
0.9
  7
CHINESET
 72
     4
 11
93.45798629530946
 21
26.01467696606927
 31
177.9108627192676
100
AcDbText
  0
TEXT
  5
4ABE
330
1F
100
AcDbEntity
  8
LOGO
100
AcDbText
 10
84.68156530904574
 20
19.26634506345673
 30
177.9108627192676
 40
2.714606877828054
  1
投影  View:
 41
0.9
  7
CHINESET
 72
     4
 11
93.45798629530946
 21
20.58546321041312
 31
177.9108627192676
100
AcDbText
  0
TEXT
  5
4ABF
330
1F
100
AcDbEntity
  8
LOGO
100
AcDbText
 10
84.94696660647624
 20
13.79894601584295
 30
177.9108627192676
 40
2.714606877828054
  1
單位  Unit:
 41
0.9
  7
CHINESET
 72
     4
 11
93.45798629530946
 21
15.15624945475698
 31
177.9108627192676
100
AcDbText
  0
SOLID
  5
4AC0
330
1F
100
AcDbEntity
  8
LOGO
 62
     5
100
AcDbTrace
 10
65.5088898817981
 20
16.95429011745602
 30
0.0
 11
66.68261466448649
 21
16.95429011745571
 31
0.0
 12
71.57988013708257
 22
28.08443891881156
 32
0.0
 13
72.75360491977153
 23
28.08443891881095
 33
0.0
  0
SOLID
  5
4AC1
330
1F
100
AcDbEntity
  8
LOGO
 62
     5
100
AcDbTrace
 10
67.16829388491049
 20
16.95429011745602
 30
0.0
 11
68.34201866759883
 21
16.95429011745602
 31
0.0
 12
72.75360491977153
 22
27.19402701470268
 32
0.0
 13
71.57988013708257
 23
22.89036947817854
 33
0.0
  0
SOLID
  5
4AC2
330
1F
100
AcDbEntity
  8
LOGO
 62
     2
100
AcDbTrace
 10
66.68261466448649
 20
16.95429011745571
 30
0.0
 11
67.16829388491049
 21
16.95429011745602
 31
0.0
 12
72.75360491977153
 22
28.08443891881095
 32
0.0
 13
73.23928414019497
 23
28.08443891881095
 33
0.0
  0
SOLID
  5
4AC3
330
1F
100
AcDbEntity
  8
LOGO
 62
     5
100
AcDbTrace
 10
63.62712122257443
 20
12.90696328059982
 30
0.0
 11
64.03185390626049
 21
12.90696328059982
 31
0.0
 12
65.17161264539379
 22
14.93062669902776
 32
0.0
 13
65.57634532907861
 23
14.93062669902776
 33
0.0
  0
SOLID
  5
4AC4
330
1F
100
AcDbEntity
  8
LOGO
 62
     5
100
AcDbTrace
 10
65.17161264539379
 20
14.93062669902776
 30
0.0
 11
65.57634532907861
 21
14.93062669902776
 31
0.0
 12
65.17161264539379
 22
12.90696328059982
 32
0.0
 13
65.57634532907861
 23
12.90696328059982
 33
0.0
  0
SOLID
  5
4AC5
330
1F
100
AcDbEntity
  8
LOGO
 62
     5
100
AcDbTrace
 10
65.17161264539379
 20
12.90696328059982
 30
0.0
 11
65.57634532907861
 21
12.90696328059982
 31
0.0
 12
66.71610406821378
 22
14.93062669902776
 32
0.0
 13
67.12083675189922
 23
14.93062669902776
 33
0.0
  0
SOLID
  5
4AC6
330
1F
100
AcDbEntity
  8
LOGO
 62
     5
100
AcDbTrace
 10
66.71610406821378
 20
14.93062669902776
 30
0.0
 11
67.12083675189922
 21
14.93062669902776
 31
0.0
 12
66.71610406821378
 22
12.90696328059982
 32
0.0
 13
67.12083675189922
 23
12.90696328059982
 33
0.0
  0
POLYLINE
  5
4AC7
330
1F
100
AcDbEntity
  8
LOGO
 62
     5
100
AcDb2dPolyline
 66
     1
 10
0.0
 20
0.0
 30
0.0
 40
0.4053812937556561
 41
0.4053812937556561
  0
VERTEX
  5
4AC8
330
4AC7
100
AcDbEntity
  8
LOGO
 62
     5
100
AcDbVertex
100
AcDb2dVertex
 10
80.28260575143013
 20
14.12116133165652
 30
0.0
 42
1.0
  0
VERTEX
  5
4AC9
330
4AC7
100
AcDbEntity
  8
LOGO
 62
     5
100
AcDbVertex
100
AcDb2dVertex
 10
79.06646187016292
 20
14.12116133165652
 30
0.0
 42
1.0
  0
SEQEND
  5
4ACA
330
4AC7
100
AcDbEntity
  8
LOGO
 62
     5
  0
POLYLINE
  5
4ACB
330
1F
100
AcDbEntity
  8
LOGO
 62
     5
100
AcDb2dPolyline
 66
     1
 10
0.0
 20
0.0
 30
0.0
 70
     1
  0
VERTEX
  5
4ACC
330
4ACB
100
AcDbEntity
  8
LOGO
 62
     5
100
AcDbVertex
100
AcDb2dVertex
 10
76.77397655989415
 20
13.91879498981348
 30
0.0
 42
1.000000057330635
  0
VERTEX
  5
4ACD
330
4ACB
100
AcDbEntity
  8
LOGO
 62
     5
100
AcDbVertex
100
AcDb2dVertex
 10
77.98817461095115
 20
13.91879498981348
 30
0.0
 42
1.000000057330635
  0
SEQEND
  5
4ACE
330
4ACB
100
AcDbEntity
  8
LOGO
 62
     5
  0
CIRCLE
  5
4ACF
330
1F
100
AcDbEntity
  8
LOGO
 62
     5
100
AcDbCircle
 10
77.38107558542356
 20
13.91879498981348
 30
0.0
 40
0.6070990255284707
  0
POLYLINE
  5
4AD0
330
1F
100
AcDbEntity
  8
LOGO
 62
     5
100
AcDb2dPolyline
 66
     1
 10
0.0
 20
0.0
 30
0.0
 70
     1
 40
0.4053812937556561
 41
0.4053812937556561
  0
VERTEX
  5
4AD1
330
4AD0
100
AcDbEntity
  8
LOGO
 62
     5
100
AcDbVertex
100
AcDb2dVertex
 10
76.57031299791168
 20
13.91879498981348
 30
0.0
 42
1.0
  0
VERTEX
  5
4AD2
330
4AD0
100
AcDbEntity
  8
LOGO
 62
     5
100
AcDbVertex
100
AcDb2dVertex
 10
78.19183817293424
 20
13.91879498981348
 30
0.0
 42
1.0
  0
SEQEND
  5
4AD3
330
4AD0
100
AcDbEntity
  8
LOGO
 62
     5
  0
LINE
  5
4AD4
330
1F
100
AcDbEntity
  8
LOGO
100
AcDbLine
 10
80.48399917816714
 20
12.90696328059982
 30
0.0
 11
80.48399917816714
 21
14.12116133165652
 31
0.0
  0
SOLID
  5
4AD5
330
1F
100
AcDbEntity
  8
LOGO
 62
     5
100
AcDbTrace
 10
77.9881341376846
 20
14.93062669902776
 30
0.0
 11
78.39286682136941
 21
14.93062669902776
 31
0.0
 12
77.9881341376846
 22
12.90696328059982
 32
0.0
 13
78.39286682136941
 23
12.90696328059982
 33
0.0
  0
SOLID
  5
4AD6
330
1F
100
AcDbEntity
  8
LOGO
 62
     5
100
AcDbTrace
 10
78.86506844342466
 20
12.90696328059982
 30
0.0
 11
79.26980112711072
 21
12.90696328059982
 31
0.0
 12
78.86506844342466
 22
14.93062669902776
 32
0.0
 13
79.26980112711072
 23
14.93062669902776
 33
0.0
  0
SOLID
  5
4AD7
330
1F
100
AcDbEntity
  8
LOGO
 62
     5
100
AcDbTrace
 10
80.07926649448227
 20
14.12116133165652
 30
0.0
 11
80.48399917816714
 21
14.12116133165652
 31
0.0
 12
80.07926649448227
 22
12.90696328059982
 32
0.0
 13
80.48399917816714
 23
12.90696328059982
 33
0.0
  0
SOLID
  5
4AD8
330
1F
100
AcDbEntity
  8
LOGO
 62
     5
100
AcDbTrace
 10
78.824595175056
 20
27.19402701470268
 30
0.0
 11
77.65087039236823
 21
22.89036947817854
 31
0.0
 12
78.824595175056
 22
16.95429011745571
 32
0.0
 13
77.65087039236823
 23
16.95429011745571
 33
0.0
  0
SOLID
  5
4AD9
330
1F
100
AcDbEntity
  8
LOGO
 62
     5
100
AcDbTrace
 10
79.31027439547938
 20
16.95429011745571
 30
0.0
 11
80.48399917816714
 21
16.95429011745571
 31
0.0
 12
79.31027439547938
 22
28.08443891881095
 32
0.0
 13
80.48399917816714
 23
28.08443891881156
 33
0.0
  0
SOLID
  5
4ADA
330
1F
100
AcDbEntity
  8
LOGO
 62
     2
100
AcDbTrace
 10
78.824595175056
 20
28.08443891881156
 30
0.0
 11
79.31027439547938
 21
28.08443891881095
 31
0.0
 12
78.824595175056
 22
16.95429011745571
 32
0.0
 13
79.31027439547938
 23
16.95429011745571
 33
0.0
  0
POLYLINE
  5
4ADB
330
1F
100
AcDbEntity
  8
LOGO
 62
     5
100
AcDb2dPolyline
 66
     1
 10
0.0
 20
0.0
 30
0.0
 40
0.4053812937556561
 41
0.4053812937556561
  0
VERTEX
  5
4ADC
330
4ADB
100
AcDbEntity
  8
LOGO
 62
     5
100
AcDbVertex
100
AcDb2dVertex
 10
74.4814103030904
 20
14.12116133165652
 30
0.0
 42
1.0
  0
VERTEX
  5
4ADD
330
4ADB
100
AcDbEntity
  8
LOGO
 62
     5
100
AcDbVertex
100
AcDb2dVertex
 10
73.26526642182312
 20
14.12116133165652
 30
0.0
 42
1.0
  0
SEQEND
  5
4ADE
330
4ADB
100
AcDbEntity
  8
LOGO
 62
     5
  0
POLYLINE
  5
4ADF
330
1F
100
AcDbEntity
  8
LOGO
 62
     5
100
AcDb2dPolyline
 66
     1
 10
0.0
 20
0.0
 30
0.0
 40
0.4053812937556561
 41
0.4053812937556561
  0
VERTEX
  5
4AE0
330
4ADF
100
AcDbEntity
  8
LOGO
 62
     5
100
AcDbVertex
100
AcDb2dVertex
 10
75.69560835414614
 20
14.12116133165652
 30
0.0
 42
1.0
  0
VERTEX
  5
4AE1
330
4ADF
100
AcDbEntity
  8
LOGO
 62
     5
100
AcDbVertex
100
AcDb2dVertex
 10
74.47946447287955
 20
14.12116133165652
 30
0.0
 42
1.0
  0
SEQEND
  5
4AE2
330
4ADF
100
AcDbEntity
  8
LOGO
 62
     5
  0
POLYLINE
  5
4AE3
330
1F
100
AcDbEntity
  8
LOGO
 62
     5
100
AcDb2dPolyline
 66
     1
 10
0.0
 20
0.0
 30
0.0
 40
0.4053812937556561
 41
0.4053812937556561
  0
VERTEX
  5
4AE4
330
4AE3
100
AcDbEntity
  8
LOGO
 62
     5
100
AcDbVertex
100
AcDb2dVertex
 10
69.8944129058064
 20
14.12116133165652
 30
0.0
 42
1.0
  0
VERTEX
  5
4AE5
330
4AE3
100
AcDbEntity
  8
LOGO
 62
     5
100
AcDbVertex
100
AcDb2dVertex
 10
68.67826902453981
 20
14.12116133165652
 30
0.0
 42
1.0
  0
SEQEND
  5
4AE6
330
4AE3
100
AcDbEntity
  8
LOGO
 62
     5
  0
SOLID
  5
4AE7
330
1F
100
AcDbEntity
  8
LOGO
 62
     5
100
AcDbTrace
 10
68.47687559780218
 20
14.93062669902776
 30
0.0
 11
68.88160828148705
 21
14.93062669902776
 31
0.0
 12
68.47687559780218
 22
12.90696328059982
 32
0.0
 13
68.88160828148705
 23
12.90696328059982
 33
0.0
  0
SOLID
  5
4AE8
330
1F
100
AcDbEntity
  8
LOGO
 62
     5
100
AcDbTrace
 10
69.69107364885918
 20
14.12116133165652
 30
0.0
 11
70.09580633254529
 21
14.12116133165652
 31
0.0
 12
69.69107364885918
 22
12.90696328059982
 32
0.0
 13
70.09580633254529
 23
12.90696328059982
 33
0.0
  0
POLYLINE
  5
4AE9
330
1F
100
AcDbEntity
  8
LOGO
 62
     5
100
AcDb2dPolyline
 66
     1
 10
0.0
 20
0.0
 30
0.0
 70
     1
 40
0.4053812937556561
 41
0.4053812937556561
  0
VERTEX
  5
4AEA
330
4AE9
100
AcDbEntity
  8
LOGO
 62
     5
100
AcDbVertex
100
AcDb2dVertex
 10
70.76911754957132
 20
13.91879498981348
 30
0.0
 42
1.0
  0
VERTEX
  5
4AEB
330
4AE9
100
AcDbEntity
  8
LOGO
 62
     5
100
AcDbVertex
100
AcDb2dVertex
 10
72.39064272459444
 20
13.91879498981348
 30
0.0
 42
1.0
  0
SEQEND
  5
4AEC
330
4AE9
100
AcDbEntity
  8
LOGO
 62
     5
  0
SOLID
  5
4AED
330
1F
100
AcDbEntity
  8
LOGO
 62
     5
100
AcDbTrace
 10
72.1869386893436
 20
15.53772572455658
 30
0.0
 11
72.59167137302904
 21
15.53772572455658
 31
0.0
 12
72.1869386893436
 22
12.90696328059982
 32
0.0
 13
72.59167137302904
 23
12.90696328059982
 33
0.0
  0
SOLID
  5
4AEE
330
1F
100
AcDbEntity
  8
LOGO
 62
     5
100
AcDbTrace
 10
73.06387299508611
 20
14.93062669902776
 30
0.0
 11
73.46860567877098
 21
14.93062669902776
 31
0.0
 12
73.06387299508611
 22
12.90696328059982
 32
0.0
 13
73.46860567877098
 23
12.90696328059982
 33
0.0
  0
SOLID
  5
4AEF
330
1F
100
AcDbEntity
  8
LOGO
 62
     5
100
AcDbTrace
 10
74.27807104614192
 20
14.12116133165652
 30
0.0
 11
74.68280372982798
 21
14.12116133165652
 31
0.0
 12
74.27807104614192
 22
12.90696328059982
 32
0.0
 13
74.68280372982798
 23
12.90696328059982
 33
0.0
  0
SOLID
  5
4AF0
330
1F
100
AcDbEntity
  8
LOGO
 62
     5
100
AcDbTrace
 10
75.49226909719891
 20
14.12116133165652
 30
0.0
 11
75.89700178088441
 21
14.12116133165652
 31
0.0
 12
75.49226909719891
 22
12.9069632805992
 32
0.0
 13
75.89700178088441
 23
12.9069632805992
 33
0.0
  0
SOLID
  5
4AF1
330
1F
100
AcDbEntity
  8
LOGO
 62
     5
100
AcDbTrace
 10
67.59994129206024
 20
15.21393957760784
 30
0.0
 11
68.00467397574692
 21
15.21393957760784
 31
0.0
 12
67.59994129206024
 22
15.53772572455658
 32
0.0
 13
68.00467397574692
 23
15.53772572455658
 33
0.0
  0
SOLID
  5
4AF2
330
1F
100
AcDbEntity
  8
LOGO
 62
     5
100
AcDbTrace
 10
67.59994129206024
 20
14.93062669902776
 30
0.0
 11
68.00467397574692
 21
14.93062669902776
 31
0.0
 12
67.59994129206024
 22
12.9069632805992
 32
0.0
 13
68.00467397574692
 23
12.90696328059982
 33
0.0
  0
SOLID
  5
4AF3
330
1F
100
AcDbEntity
  8
LOGO
 62
     5
100
AcDbTrace
 10
71.57988013708257
 20
16.95429011745602
 30
0.0
 11
72.75360491977153
 21
16.95429011745602
 31
0.0
 12
71.57988013708257
 22
22.89036947817854
 32
0.0
 13
72.75360491977153
 23
27.19402701470268
 33
0.0
  0
SOLID
  5
4AF4
330
1F
100
AcDbEntity
  8
LOGO
 62
     5
100
AcDbTrace
 10
73.23928414019497
 20
28.08443891881095
 30
0.0
 11
74.41300892288268
 21
28.08443891881156
 31
0.0
 12
73.23928414019497
 22
17.84470202156429
 32
0.0
 13
74.41300892288268
 23
22.14835955808842
 33
0.0
  0
SOLID
  5
4AF5
330
1F
100
AcDbEntity
  8
LOGO
 62
     2
100
AcDbTrace
 10
72.75360491977153
 20
28.08443891881095
 30
0.0
 11
73.23928414019497
 21
28.08443891881095
 31
0.0
 12
72.75360491977153
 22
16.95429011745602
 32
0.0
 13
73.23928414019497
 23
16.95429011745602
 33
0.0
  0
SOLID
  5
4AF6
330
1F
100
AcDbEntity
  8
LOGO
 62
     5
100
AcDbTrace
 10
73.23928414019497
 20
17.84470202156429
 30
0.0
 11
74.41300892288268
 21
22.14835955808842
 31
0.0
 12
78.824595175056
 22
28.08443891881156
 32
0.0
 13
77.65087039236823
 23
28.08443891881156
 33
0.0
  0
SOLID
  5
4AF7
330
1F
100
AcDbEntity
  8
LOGO
 62
     5
100
AcDbTrace
 10
73.23928414019497
 20
16.95429011745602
 30
0.0
 11
74.41300892288268
 21
16.95429011745602
 31
0.0
 12
78.824595175056
 22
27.19402701470268
 32
0.0
 13
77.65087039236823
 23
22.89036947817854
 33
0.0
  0
SOLID
  5
4AF8
330
1F
100
AcDbEntity
  8
LOGO
 62
     2
100
AcDbTrace
 10
72.75360491977153
 20
16.95429011745602
 30
0.0
 11
73.23928414019497
 21
16.95429011745602
 31
0.0
 12
78.824595175056
 22
28.08443891881156
 32
0.0
 13
79.31027439547938
 23
28.08443891881095
 33
0.0
  0
TEXT
  5
4AF9
330
1F
100
AcDbEntity
  8
LOGO
100
AcDbText
 10
123.8978150572473
 20
3.027375210240013
 30
0.0
 40
2.714999999999999
  1
10607261
 41
0.7
  7
CHINESET
 72
     1
 11
130.2780650572473
 21
3.027375210240013
 31
0.0
100
AcDbText
  0
LINE
  5
4AFA
330
1F
100
AcDbEntity
  8
LOGO
 62
     4
100
AcDbLine
 10
138.7037929921409
 20
7.012428821273537
 30
0.0
 11
138.7037929921422
 21
1.583215065617089
 31
0.0
  0
LINE
  5
4AFB
330
1F
100
AcDbEntity
  8
LOGO
 62
     4
100
AcDbLine
 10
138.7037929921409
 20
7.012428821273537
 30
0.0
 11
122.4137929921422
 21
7.012428821273537
 31
0.0
  0
LINE
  5
4AFC
330
1F
100
AcDbEntity
  8
LOGO
  6
AM_ISO08W050x2
 48
0.3
100
AcDbLine
 10
107.1700814102298
 20
20.59126977439003
 30
0.0
 11
111.5156145469325
 21
20.59126977439003
 31
0.0
1001
GENIUS_GENOREF_13
1005
4B01
  0
LINE
  5
4AFD
330
1F
100
AcDbEntity
  8
LOGO
  6
AM_ISO08W050x2
 48
0.3
100
AcDbLine
 10
109.3428479785812
 20
18.41850320603862
 30
0.0
 11
109.3428479785812
 21
22.76403634274144
 31
0.0
1001
GENIUS_GENOREF_13
1005
4B00
  0
LINE
  5
4AFE
330
1F
100
AcDbEntity
  8
LOGO
  6
CENTER
 48
0.5
100
AcDbLine
 10
113.9113063054415
 20
20.59126977439003
 30
0.0
 11
119.7452109205075
 21
20.59126977439003
 31
0.0
1001
GENIUS_GENOREF_13
1005
4AFF
  0
POINT
  5
4AFF
330
1F
100
AcDbEntity
  8
0
 60
     1
100
AcDbPoint
 10
-2009.648718060057
 20
-923.2504260121269
 30
0.0
1001
GENIUS_GENOBJ-N-CRS_13
1002
{
1000
OWNER
1000
GEN
1002
}
1001
GENIUS_GENOLIS_13
1002
{
1000
ENT
1005
0
1005
0
1005
0
1005
4AFE
1002
}
1001
GENIUS_GENOENT_13
1002
{
1000
MYREF
1005
4AFF
1002
}
1002
{
1000
GRP
1005
0
1002
}
1001
GENIUS_GENODEF_13
1002
{
1000
HIER
1070
    10
1002
}
1002
{
1000
MANEDIT
1070
     1
1002
}
1002
{
1000
NOSEL
1070
     0
1002
}
1002
{
1000
BEHIND
1070
     0
1002
}
1002
{
1000
OTHER
1070
     0
1002
}
1002
{
1000
REACTOR
1002
}
  0
POINT
  5
4B00
330
1F
100
AcDbEntity
  8
0
 60
     1
100
AcDbPoint
 10
-2020.973303282913
 20
-914.3748395334906
 30
0.0
1001
GENIUS_GENOBJ-N-CRS_13
1002
{
1000
OWNER
1000
GEN
1002
}
1001
GENIUS_GENOLIS_13
1002
{
1000
ENT
1005
0
1005
0
1005
0
1005
4AFD
1002
}
1001
GENIUS_GENOENT_13
1002
{
1000
MYREF
1005
4B00
1002
}
1002
{
1000
GRP
1005
0
1002
}
1001
GENIUS_GENODEF_13
1002
{
1000
HIER
1070
    10
1002
}
1002
{
1000
MANEDIT
1070
     1
1002
}
1002
{
1000
NOSEL
1070
     0
1002
}
1002
{
1000
BEHIND
1070
     0
1002
}
1002
{
1000
OTHER
1070
     0
1002
}
1002
{
1000
REACTOR
1002
}
  0
POINT
  5
4B01
330
1F
100
AcDbEntity
  8
0
 60
     1
100
AcDbPoint
 10
-2014.614629585075
 20
-923.2504260121269
 30
0.0
1001
GENIUS_GENOBJ-N-CRS_13
1002
{
1000
OWNER
1000
GEN
1002
}
1001
GENIUS_GENOLIS_13
1002
{
1000
ENT
1005
0
1005
0
1005
0
1005
4AFC
1002
}
1001
GENIUS_GENOENT_13
1002
{
1000
MYREF
1005
4B01
1002
}
1002
{
1000
GRP
1005
0
1002
}
1001
GENIUS_GENODEF_13
1002
{
1000
HIER
1070
    10
1002
}
1002
{
1000
MANEDIT
1070
     1
1002
}
1002
{
1000
NOSEL
1070
     0
1002
}
1002
{
1000
BEHIND
1070
     0
1002
}
1002
{
1000
OTHER
1070
     0
1002
}
1002
{
1000
REACTOR
1002
}
  0
ARC
  5
4CBF
330
1F
100
AcDbEntity
  8
0
 62
     3
100
AcDbCircle
 10
121.8494431540751
 20
75.05368972980059
 30
0.0
 40
2.5
100
AcDbArc
 50
252.224476441966
 51
194.4594585336837
  0
ARC
  5
4CC0
330
1F
100
AcDbEntity
  8
0
 62
     3
100
AcDbCircle
 10
121.8494431540751
 20
179.5680595357136
 30
0.0
 40
2.5
100
AcDbArc
 50
252.224476441966
 51
194.4594585336841
  0
TEXT
  5
4DB9
330
1F
100
AcDbEntity
  8
0
100
AcDbText
 10
67.57660227018504
 20
123.0709785719489
 30
0.0
 40
4.0
  1
12 type
  7
CHINESET
100
AcDbText
  0
LINE
  5
4DDB
330
1F
100
AcDbEntity
  8
0
100
AcDbLine
 10
167.0138466146531
 20
122.7799929338972
 30
0.0
 11
167.013846614652
 21
114.3799929338977
 31
0.0
  0
LINE
  5
4DDC
330
1F
100
AcDbEntity
  8
0
100
AcDbLine
 10
187.7034139252828
 20
119.9799929338975
 30
0.0
 11
187.7034139252828
 21
114.3799929338975
 31
0.0
  0
LINE
  5
4DDE
330
1F
100
AcDbEntity
  8
0
100
AcDbLine
 10
177.1010264687869
 20
122.7799929338972
 30
0.0
 11
177.1010264687874
 21
114.3799929338977
 31
0.0
  0
LINE
  5
4DDF
330
1F
100
AcDbEntity
  8
0
100
AcDbLine
 10
167.0138466146533
 20
114.3799929338975
 30
0.0
 11
219.5105762947691
 21
114.3799929338975
 31
0.0
  0
LINE
  5
4DE0
330
1F
100
AcDbEntity
  8
0
100
AcDbLine
 10
167.0138466146533
 20
117.1799929338975
 30
0.0
 11
219.510576294769
 21
117.1799929338975
 31
0.0
  0
TEXT
  5
4DE1
330
1F
100
AcDbEntity
  8
0
100
AcDbText
 10
171.62919812381
 20
114.8559523658846
 30
0.0
 40
1.7579435360256
  1
5
 41
0.8
  7
CHINESET
 72
     4
 11
172.0979830667501
 21
115.7349241338974
 31
0.0
100
AcDbText
  0
TEXT
  5
4DE2
330
1F
100
AcDbEntity
  8
0
100
AcDbText
 10
169.4369799366585
 20
117.8574037823092
 30
0.0
 40
1.399999999999999
  1
Stroke
 41
0.8
  7
CHINESET
100
AcDbText
  0
TEXT
  5
4DE3
330
1F
100
AcDbEntity
  8
0
100
AcDbText
 10
180.7568964345067
 20
114.8704577570176
 30
0.0
 40
1.75
  1
22
 41
0.8
  7
CHINESET
100
AcDbText
  0
LINE
  5
4DE5
330
1F
100
AcDbEntity
  8
0
100
AcDbLine
 10
167.0138466146531
 20
122.7799929338973
 30
0.0
 11
219.5105762947687
 21
122.7799929338973
 31
0.0
  0
INSERT
  5
4DE9
330
1F
100
AcDbEntity
  8
0
100
AcDbBlockReference
  2
A$C5ECF147B
 10
166.6382212705443
 20
114.6256190454358
 30
0.0
 41
0.56
 42
0.56
 43
0.56
  0
LINE
  5
4DEC
330
1F
100
AcDbEntity
  8
0
100
AcDbLine
 10
167.0138466146532
 20
119.9799929338974
 30
0.0
 11
219.5105762947688
 21
119.9799929338974
 31
0.0
  0
TEXT
  5
4E5D
330
1F
100
AcDbEntity
  8
0
100
AcDbText
 10
181.4389083686298
 20
117.6704577570176
 30
0.0
 40
1.75
  1
S
 41
0.8
  7
CHINESET
100
AcDbText
  0
LINE
  5
4E60
330
1F
100
AcDbEntity
  8
0
100
AcDbLine
 10
198.3058013817782
 20
122.7799929338973
 30
0.0
 11
198.3058013817783
 21
114.3799929338973
 31
0.0
  0
TEXT
  5
4E61
330
1F
100
AcDbEntity
  8
0
100
AcDbText
 10
191.9871542757799
 20
114.8704577570174
 30
0.0
 40
1.75
  1
27
 41
0.8
  7
CHINESET
100
AcDbText
  0
TEXT
  5
4E63
330
1F
100
AcDbEntity
  8
0
100
AcDbText
 10
192.0412958251254
 20
117.6704577570176
 30
0.0
 40
1.75
  1
ZZ
 41
0.8
  7
CHINESET
100
AcDbText
  0
LINE
  5
4E65
330
1F
100
AcDbEntity
  8
0
100
AcDbLine
 10
208.9081888382736
 20
119.9799929338975
 30
0.0
 11
208.9081888382737
 21
114.3799929338975
 31
0.0
  0
TEXT
  5
4E66
330
1F
100
AcDbEntity
  8
0
100
AcDbText
 10
201.9616713474976
 20
114.8704577570176
 30
0.0
 40
1.75
  1
32
 41
0.8
  7
CHINESET
100
AcDbText
  0
TEXT
  5
4E67
330
1F
100
AcDbEntity
  8
0
100
AcDbText
 10
202.6436832816207
 20
117.6704577570176
 30
0.0
 40
1.75
  1
S
 41
0.8
  7
CHINESET
100
AcDbText
  0
TEXT
  5
4E68
330
1F
100
AcDbEntity
  8
0
100
AcDbText
 10
202.1769462851802
 20
120.4831533264821
 30
0.0
 40
1.75
  1
With magnet
 41
0.8
  7
CHINESET
100
AcDbText
  0
TEXT
  5
4E69
330
1F
100
AcDbEntity
  8
0
100
AcDbText
 10
213.1919291887708
 20
114.8704577570174
 30
0.0
 40
1.75
  1
37
 41
0.8
  7
CHINESET
100
AcDbText
  0
TEXT
  5
4E6A
330
1F
100
AcDbEntity
  8
0
100
AcDbText
 10
213.2460707381163
 20
117.6704577570176
 30
0.0
 40
1.75
  1
ZZ
 41
0.8
  7
CHINESET
100
AcDbText
  0
LINE
  5
4E6B
330
1F
100
AcDbEntity
  8
0
100
AcDbLine
 10
219.510576294769
 20
122.7799929338973
 30
0.0
 11
219.5105762947691
 21
114.3799929338973
 31
0.0
  0
INSERT
  5
4E6F
330
1F
100
AcDbEntity
  8
0
100
AcDbBlockReference
  2
A$C5ECF147B
 10
179.9651012180594
 20
114.6256190454358
 30
0.0
 41
0.56
 42
0.56
 43
0.56
  0
INSERT
  5
4E70
330
1F
100
AcDbEntity
  8
0
100
AcDbBlockReference
  2
A$C5ECF147B
 10
190.5674886745548
 20
114.6256190454357
 30
0.0
 41
0.56
 42
0.56
 43
0.56
  0
LINE
  5
4E76
330
1F
100
AcDbEntity
  8
0
100
AcDbLine
 10
167.0138466146531
 20
229.7194906284246
 30
0.0
 11
167.013846614652
 21
221.3194906284251
 31
0.0
  0
LINE
  5
4E77
330
1F
100
AcDbEntity
  8
0
100
AcDbLine
 10
187.7034139252828
 20
226.919490628425
 30
0.0
 11
187.7034139252828
 21
221.3194906284249
 31
0.0
  0
LINE
  5
4E78
330
1F
100
AcDbEntity
  8
0
100
AcDbLine
 10
177.1010264687869
 20
229.7194906284246
 30
0.0
 11
177.1010264687874
 21
221.3194906284251
 31
0.0
  0
LINE
  5
4E79
330
1F
100
AcDbEntity
  8
0
100
AcDbLine
 10
167.0138466146533
 20
221.3194906284249
 30
0.0
 11
219.5105762947691
 21
221.3194906284249
 31
0.0
  0
LINE
  5
4E7A
330
1F
100
AcDbEntity
  8
0
100
AcDbLine
 10
167.0138466146533
 20
224.1194906284249
 30
0.0
 11
219.510576294769
 21
224.1194906284249
 31
0.0
  0
TEXT
  5
4E7B
330
1F
100
AcDbEntity
  8
0
100
AcDbText
 10
171.62919812381
 20
221.7954500604121
 30
0.0
 40
1.7579435360256
  1
5
 41
0.8
  7
CHINESET
 72
     4
 11
172.0979830667501
 21
222.6744218284249
 31
0.0
100
AcDbText
  0
TEXT
  5
4E7C
330
1F
100
AcDbEntity
  8
0
100
AcDbText
 10
169.4369799366585
 20
224.7969014768366
 30
0.0
 40
1.399999999999999
  1
Stroke
 41
0.8
  7
CHINESET
100
AcDbText
  0
TEXT
  5
4E7D
330
1F
100
AcDbEntity
  8
0
100
AcDbText
 10
180.7568964345067
 20
221.809955451545
 30
0.0
 40
1.75
  1
22
 41
0.8
  7
CHINESET
100
AcDbText
  0
LINE
  5
4E7E
330
1F
100
AcDbEntity
  8
0
100
AcDbLine
 10
167.0138466146531
 20
229.7194906284247
 30
0.0
 11
219.5105762947687
 21
229.7194906284247
 31
0.0
  0
INSERT
  5
4E7F
330
1F
100
AcDbEntity
  8
0
100
AcDbBlockReference
  2
A$C5ECF147B
 10
166.6382212705443
 20
221.5651167399633
 30
0.0
 41
0.56
 42
0.56
 43
0.56
  0
LINE
  5
4E80
330
1F
100
AcDbEntity
  8
0
100
AcDbLine
 10
167.0138466146532
 20
226.9194906284249
 30
0.0
 11
219.5105762947688
 21
226.9194906284249
 31
0.0
  0
TEXT
  5
4E81
330
1F
100
AcDbEntity
  8
0
100
AcDbText
 10
181.4389083686298
 20
224.6099554515451
 30
0.0
 40
1.75
  1
S
 41
0.8
  7
CHINESET
100
AcDbText
  0
TEXT
  5
4E82
330
1F
100
AcDbEntity
  8
0
100
AcDbText
 10
179.5042849259925
 20
227.4226510210095
 30
0.0
 40
1.75
  1
Without magnet
 41
0.8
  7
CHINESET
100
AcDbText
  0
LINE
  5
4E83
330
1F
100
AcDbEntity
  8
0
100
AcDbLine
 10
198.3058013817782
 20
229.7194906284247
 30
0.0
 11
198.3058013817783
 21
221.3194906284248
 31
0.0
  0
TEXT
  5
4E84
330
1F
100
AcDbEntity
  8
0
100
AcDbText
 10
191.9871542757799
 20
221.8099554515449
 30
0.0
 40
1.75
  1
39
 41
0.8
  7
CHINESET
100
AcDbText
  0
TEXT
  5
4E85
330
1F
100
AcDbEntity
  8
0
100
AcDbText
 10
192.0412958251254
 20
224.6099554515451
 30
0.0
 40
1.75
  1
ZZ
 41
0.8
  7
CHINESET
100
AcDbText
  0
LINE
  5
4E86
330
1F
100
AcDbEntity
  8
0
100
AcDbLine
 10
208.9081888382736
 20
226.919490628425
 30
0.0
 11
208.9081888382737
 21
221.3194906284249
 31
0.0
  0
TEXT
  5
4E87
330
1F
100
AcDbEntity
  8
0
100
AcDbText
 10
201.9616713474976
 20
221.809955451545
 30
0.0
 40
1.75
  1
32
 41
0.8
  7
CHINESET
100
AcDbText
  0
TEXT
  5
4E88
330
1F
100
AcDbEntity
  8
0
100
AcDbText
 10
202.6436832816207
 20
224.6099554515451
 30
0.0
 40
1.75
  1
S
 41
0.8
  7
CHINESET
100
AcDbText
  0
TEXT
  5
4E89
330
1F
100
AcDbEntity
  8
0
100
AcDbText
 10
202.1769462851802
 20
227.4226510210095
 30
0.0
 40
1.75
  1
With magnet
 41
0.8
  7
CHINESET
100
AcDbText
  0
TEXT
  5
4E8A
330
1F
100
AcDbEntity
  8
0
100
AcDbText
 10
213.1919291887708
 20
221.8099554515449
 30
0.0
 40
1.75
  1
49
 41
0.8
  7
CHINESET
100
AcDbText
  0
TEXT
  5
4E8B
330
1F
100
AcDbEntity
  8
0
100
AcDbText
 10
213.2460707381163
 20
224.6099554515451
 30
0.0
 40
1.75
  1
ZZ
 41
0.8
  7
CHINESET
100
AcDbText
  0
LINE
  5
4E8C
330
1F
100
AcDbEntity
  8
0
100
AcDbLine
 10
219.510576294769
 20
229.7194906284247
 30
0.0
 11
219.5105762947691
 21
221.3194906284248
 31
0.0
  0
INSERT
  5
4E8D
330
1F
100
AcDbEntity
  8
0
100
AcDbBlockReference
  2
A$C5ECF147B
 10
179.9651012180594
 20
221.5651167399633
 30
0.0
 41
0.56
 42
0.56
 43
0.56
  0
INSERT
  5
4E8E
330
1F
100
AcDbEntity
  8
0
100
AcDbBlockReference
  2
A$C5ECF147B
 10
190.5674886745548
 20
221.5651167399631
 30
0.0
 41
0.56
 42
0.56
 43
0.56
  0
TEXT
  5
4E94
330
1F
100
AcDbEntity
  8
0
100
AcDbText
 10
179.5042849259925
 20
120.4831533264821
 30
0.0
 40
1.75
  1
Without magnet
 41
0.8
  7
CHINESET
100
AcDbText
  0
LINE
  5
4EDD
330
1F
100
AcDbEntity
  8
AM_7
  6
ACISOTGB
 62
     2
100
AcDbLine
 10
117.3494431540751
 20
190.4119041492575
 30
0.0
 11
117.3494431540751
 21
148.9532056874265
 31
0.0
1001
GENIUS_GENOBJ-N-CEN_13
1002
{
1000
OWNER
1000
GEN
1002
}
1001
GENIUS_GENODEF_13
1002
{
1000
HIER
1070
     0
1002
}
1002
{
1000
MANEDIT
1070
     0
1002
}
1002
{
1000
NOSEL
1070
     0
1002
}
1002
{
1000
BEHIND
1070
     0
1002
}
1002
{
1000
OTHER
1070
     0
1002
}
1002
{
1000
REACTOR
1002
}
1001
GENIUS_GENCEN_19
1002
{
1040
3.0
1002
}
  0
INSERT
  5
4EDE
330
1F
100
AcDbEntity
  8
0
100
AcDbBlockReference
  2
A$C1F6E6265
 10
117.3494426898685
 20
150.1190249986844
 30
0.0
  0
LINE
  5
4EE0
330
1F
100
AcDbEntity
  8
AM_7
  6
ACISOTGB
 62
     2
100
AcDbLine
 10
117.3494431540751
 20
85.89753434334452
 30
0.0
 11
117.3494431540751
 21
44.43883588151353
 31
0.0
1001
GENIUS_GENOBJ-N-CEN_13
1002
{
1000
OWNER
1000
GEN
1002
}
1001
GENIUS_GENODEF_13
1002
{
1000
HIER
1070
     0
1002
}
1002
{
1000
MANEDIT
1070
     0
1002
}
1002
{
1000
NOSEL
1070
     0
1002
}
1002
{
1000
BEHIND
1070
     0
1002
}
1002
{
1000
OTHER
1070
     0
1002
}
1002
{
1000
REACTOR
1002
}
1001
GENIUS_GENCEN_19
1002
{
1040
3.0
1002
}
  0
INSERT
  5
4EE1
330
1F
100
AcDbEntity
  8
0
100
AcDbBlockReference
  2
A$C1F6E6265
 10
117.3494426898685
 20
45.60465519277133
 30
0.0
  0
ENDSEC
  0
SECTION
  2
OBJECTS
  0
DICTIONARY
  5
C
330
0
100
AcDbDictionary
281
     1
  3
ACAD_COLOR
350
22A3
  3
ACAD_GROUP
350
D
  3
ACAD_LAYOUT
350
1A
  3
ACAD_MATERIAL
350
22A2
  3
ACAD_MLINESTYLE
350
17
  3
ACAD_PLOTSETTINGS
350
19
  3
ACAD_PLOTSTYLENAME
350
E
  3
ACAD_TABLESTYLE
350
22A4
  3
AcadDim
350
10B1
  3
ACDBHEADERROUNDTRIPXREC
350
4F41
  3
AcDbVariableDictionary
350
1488
  3
AcmDictionary
350
21B0
  3
AMG
350
2197
  3
AMGSNAPSETTINGS
350
21E3
  3
DWGPROPS
350
4F40
  0
DICTIONARY
  5
22BF
330
2
100
AcDbDictionary
280
     1
281
     1
  3
ACAD_LAYERSTATES
360
22C0
  0
DICTIONARY
  5
20FA
330
1F
100
AcDbDictionary
280
     1
281
     1
  3
ACAD_INDEX
360
4EE8
  3
ACAD_LAYOUTSELFREF
360
2287
  3
ACAD_SORTENTS
360
244F
  0
DICTIONARY
  5
20FC
330
1B
100
AcDbDictionary
280
     1
281
     1
  3
ACAD_LAYOUTSELFREF
360
2286
  0
DICTIONARY
  5
20FE
330
23
100
AcDbDictionary
280
     1
281
     1
  3
ACAD_LAYOUTSELFREF
360
2288
  0
DICTIONARY
  5
4CC4
330
4CC3
100
AcDbDictionary
280
     1
281
     1
  0
DICTIONARY
  5
4ECA
330
4EC9
100
AcDbDictionary
280
     1
281
     1
  3
ACAD_SORTENTS
360
4ECB
  0
DICTIONARY
  5
4461
330
4460
100
AcDbDictionary
280
     1
281
     1
  3
ACAD_DIMASSOC
360
4462
  0
DICTIONARY
  5
4464
330
4463
100
AcDbDictionary
280
     1
281
     1
  3
ACAD_DIMASSOC
360
4465
  0
DICTIONARY
  5
4467
330
4466
100
AcDbDictionary
280
     1
281
     1
  3
ACAD_DIMASSOC
360
4468
  0
DICTIONARY
  5
446A
330
4469
100
AcDbDictionary
280
     1
281
     1
  3
ACAD_DIMASSOC
360
446B
  0
DICTIONARY
  5
446D
330
446C
100
AcDbDictionary
280
     1
281
     1
  3
ACAD_DIMASSOC
360
446E
  0
DICTIONARY
  5
4470
330
446F
100
AcDbDictionary
280
     1
281
     1
  3
ACAD_DIMASSOC
360
4471
  0
DICTIONARY
  5
4473
330
4472
100
AcDbDictionary
280
     1
281
     1
  3
ACAD_DIMASSOC
360
4474
  0
DICTIONARY
  5
4476
330
4475
100
AcDbDictionary
280
     1
281
     1
  3
ACAD_DIMASSOC
360
4477
  0
DICTIONARY
  5
4479
330
4478
100
AcDbDictionary
280
     1
281
     1
  3
ACAD_DIMASSOC
360
447A
  0
DICTIONARY
  5
447C
330
447B
100
AcDbDictionary
280
     1
281
     1
  3
ACAD_DIMASSOC
360
447D
  0
DICTIONARY
  5
447F
330
447E
100
AcDbDictionary
280
     1
281
     1
  3
ACAD_DIMASSOC
360
4480
  0
DICTIONARY
  5
4482
330
4481
100
AcDbDictionary
280
     1
281
     1
  3
ACAD_DIMASSOC
360
4483
  0
DICTIONARY
  5
4485
330
4484
100
AcDbDictionary
280
     1
281
     1
  3
ACAD_DIMASSOC
360
4486
  0
DICTIONARY
  5
4488
330
4487
100
AcDbDictionary
280
     1
281
     1
  3
ACAD_DIMASSOC
360
4489
  0
DICTIONARY
  5
448E
330
448D
100
AcDbDictionary
280
     1
281
     1
  3
ACAD_DIMASSOC
360
448F
  0
DICTIONARY
  5
4491
330
4490
100
AcDbDictionary
280
     1
281
     1
  3
ACAD_DIMASSOC
360
4492
  0
DICTIONARY
  5
4494
330
4493
100
AcDbDictionary
280
     1
281
     1
  3
ACAD_DIMASSOC
360
4495
  0
DICTIONARY
  5
4497
330
4496
100
AcDbDictionary
280
     1
281
     1
  3
ACAD_DIMASSOC
360
4498
  0
DICTIONARY
  5
449A
330
4499
100
AcDbDictionary
280
     1
281
     1
  3
ACAD_DIMASSOC
360
449B
  0
DICTIONARY
  5
4516
330
4515
100
AcDbDictionary
280
     1
281
     1
  3
ACAD_DIMASSOC
360
4517
  0
DICTIONARY
  5
4519
330
4518
100
AcDbDictionary
280
     1
281
     1
  3
ACAD_DIMASSOC
360
451A
  0
DICTIONARY
  5
451C
330
451B
100
AcDbDictionary
280
     1
281
     1
  3
ACAD_DIMASSOC
360
451D
  0
DICTIONARY
  5
451F
330
451E
100
AcDbDictionary
280
     1
281
     1
  3
ACAD_DIMASSOC
360
4520
  0
DICTIONARY
  5
4522
330
4521
100
AcDbDictionary
280
     1
281
     1
  3
ACAD_DIMASSOC
360
4523
  0
DICTIONARY
  5
4525
330
4524
100
AcDbDictionary
280
     1
281
     1
  3
ACAD_DIMASSOC
360
4526
  0
DICTIONARY
  5
4528
330
4527
100
AcDbDictionary
280
     1
281
     1
  3
ACAD_DIMASSOC
360
4529
  0
DICTIONARY
  5
452B
330
452A
100
AcDbDictionary
280
     1
281
     1
  3
ACAD_DIMASSOC
360
452C
  0
DICTIONARY
  5
452E
330
452D
100
AcDbDictionary
280
     1
281
     1
  3
ACAD_DIMASSOC
360
452F
  0
DICTIONARY
  5
4537
330
4536
100
AcDbDictionary
280
     1
281
     1
  3
ACAD_DIMASSOC
360
4538
  0
DICTIONARY
  5
453A
330
4539
100
AcDbDictionary
280
     1
281
     1
  3
ACAD_DIMASSOC
360
453B
  0
DICTIONARY
  5
48AF
330
48AE
100
AcDbDictionary
280
     1
281
     1
  3
ACAD_DIMASSOC
360
48B0
  0
DICTIONARY
  5
48B2
330
48B1
100
AcDbDictionary
280
     1
281
     1
  3
ACAD_DIMASSOC
360
48B3
  0
DICTIONARY
  5
48CD
330
48CC
100
AcDbDictionary
280
     1
281
     1
  3
ACAD_DIMASSOC
360
48CE
  0
DICTIONARY
  5
48D0
330
48CF
100
AcDbDictionary
280
     1
281
     1
  3
ACAD_DIMASSOC
360
48D1
  0
DICTIONARY
  5
22A3
102
{ACAD_REACTORS
330
C
102
}
330
C
100
AcDbDictionary
281
     1
  0
DICTIONARY
  5
D
102
{ACAD_REACTORS
330
C
102
}
330
C
100
AcDbDictionary
281
     1
  0
DICTIONARY
  5
1A
102
{ACAD_REACTORS
330
C
102
}
330
C
100
AcDbDictionary
281
     1
  3
Layout1
350
1E
  3
Layout2
350
26
  3
Model
350
22
  0
DICTIONARY
  5
22A2
102
{ACAD_REACTORS
330
C
102
}
330
C
100
AcDbDictionary
281
     1
  0
DICTIONARY
  5
17
102
{ACAD_REACTORS
330
C
102
}
330
C
100
AcDbDictionary
281
     1
  3
Standard
350
18
  0
DICTIONARY
  5
19
102
{ACAD_REACTORS
330
C
102
}
330
C
100
AcDbDictionary
281
     1
  0
ACDBDICTIONARYWDFLT
  5
E
102
{ACAD_REACTORS
330
C
102
}
330
C
100
AcDbDictionary
281
     1
  3
Normal
350
F
100
AcDbDictionaryWithDefault
340
F
1001
ACAD
1000
TREAT_AS_HARD
1070
     0
  0
DICTIONARY
  5
22A4
102
{ACAD_REACTORS
330
C
102
}
330
C
100
AcDbDictionary
281
     1
  3
Standard
350
22A5
  0
XRECORD
  5
10B1
102
{ACAD_REACTORS
330
C
102
}
330
C
100
AcDbXrecord
280
     1
 90
   990106
  3

 60
     0
 61
     0
 62
     1
 63
     3
 64
     1
 65
     0
 66
     0
 67
     3
 68
     1
 69
     0
 70
     0
 71
     0
 72
     0
 40
0.0
170
     2
340
0
  0
DICTIONARY
  5
4F41
102
{ACAD_REACTORS
330
C
102
}
330
C
100
AcDbDictionary
281
     1
  0
DICTIONARY
  5
1488
102
{ACAD_REACTORS
330
C
102
}
330
C
100
AcDbDictionary
281
     1
  3
CTABLESTYLE
350
2461
  3
DIMASSOC
350
2238
  3
INDEXCTL
350
2237
  3
PROJECTNAME
350
4C40
  3
SORTENTS
350
1489
  0
DICTIONARY
  5
21B0
102
{ACAD_REACTORS
330
C
102
}
330
C
100
AcDbDictionary
281
     1
  3
AcmStdDictionary
350
21B6
  3
AMDTSECTSYM_ARROWCOLOR
350
4961
  0
DICTIONARY
  5
2197
102
{ACAD_REACTORS
330
C
102
}
330
C
100
AcDbDictionary
281
     1
  0
DICTIONARY
  5
21E3
102
{ACAD_REACTORS
330
C
102
}
330
C
100
AcDbDictionary
281
     1
  0
XRECORD
  5
4F40
102
{ACAD_REACTORS
330
C
102
}
330
C
100
AcDbXrecord
280
     1
  1
DWGPROPS COOKIE
  2

  3

  4

  6

  7

  8

  9

300
AmdtFileType=84
301
=
302
=
303
=
304
=
305
=
306
=
307
=
308
=
309
=
 40
0.4946192824074075
 41
2452019.631085301
 42
2453983.673592118
  1

 90
        1
  0
DICTIONARY
  5
22C0
102
{ACAD_REACTORS
330
22BF
102
}
330
22BF
100
AcDbDictionary
281
     1
  0
DICTIONARY
  5
4EE8
102
{ACAD_REACTORS
330
20FA
102
}
330
20FA
100
AcDbDictionary
281
     1
  3
*A1
350
4EE9
  0
XRECORD
  5
2287
102
{ACAD_REACTORS
330
20FA
102
}
330
20FA
100
AcDbXrecord
280
     1
340
1F
  0
SORTENTSTABLE
  5
244F
102
{ACAD_REACTORS
330
20FA
102
}
330
20FA
100
AcDbSortentsTable
330
1F
331
180E
  5
180E
331
1883
  5
1883
331
1870
  5
1870
331
17C3
  5
17C3
331
187F
  5
187F
331
180A
  5
180A
331
1891
  5
1891
331
186C
  5
186C
331
187B
  5
187B
331
1806
  5
1806
331
188D
  5
188D
331
1868
  5
1868
331
B2
  5
B2
331
1889
  5
1889
331
1877
  5
1877
331
1802
  5
1802
331
18EA
  5
18EA
331
1873
  5
1873
331
17C6
  5
17C6
331
1886
  5
1886
331
17B4
  5
17B4
331
AA
  5
AA
331
1882
  5
1882
331
180D
  5
180D
331
186F
  5
186F
331
82
  5
82
331
187E
  5
187E
331
17BF
  5
17BF
331
1809
  5
1809
331
1890
  5
1890
331
186B
  5
186B
331
10B3
  5
10B3
331
B1
  5
B1
331
18E7
  5
18E7
331
187A
  5
187A
331
1805
  5
1805
331
188C
  5
188C
331
1888
  5
1888
331
1876
  5
1876
331
A9
  5
A9
331
1885
  5
1885
331
1810
  5
1810
331
1872
  5
1872
331
17C5
  5
17C5
331
1881
  5
1881
331
180C
  5
180C
331
186E
  5
186E
331
1808
  5
1808
331
187D
  5
187D
331
17BE
  5
17BE
331
188F
  5
188F
331
186A
  5
186A
331
188B
  5
188B
331
1879
  5
1879
331
1804
  5
1804
331
AC
  5
AC
331
1875
  5
1875
331
180F
  5
180F
331
1871
  5
1871
331
17C4
  5
17C4
331
1880
  5
1880
331
180B
  5
180B
331
186D
  5
186D
331
1807
  5
1807
331
187C
  5
187C
331
17BD
  5
17BD
331
188E
  5
188E
331
1869
  5
1869
331
188A
  5
188A
331
1878
  5
1878
331
1803
  5
1803
331
AB
  5
AB
331
1887
  5
1887
331
17B5
  5
17B5
331
1874
  5
1874
331
17C7
  5
17C7
  0
XRECORD
  5
2286
102
{ACAD_REACTORS
330
20FC
102
}
330
20FC
100
AcDbXrecord
280
     1
340
1B
  0
XRECORD
  5
2288
102
{ACAD_REACTORS
330
20FE
102
}
330
20FE
100
AcDbXrecord
280
     1
340
23
  0
SORTENTSTABLE
  5
4ECB
102
{ACAD_REACTORS
330
4ECA
102
}
330
4ECA
100
AcDbSortentsTable
330
4EC9
  0
DIMASSOC
  5
4462
102
{ACAD_REACTORS
330
4461
102
}
330
4461
100
AcDbDimAssoc
330
4460
 90
        3
 70
     0
 71
     0
  1
AcDbOsnapPointRef
 72
     1
331
43C9
 73
     2
 91
        0
 40
1.0
 10
0.0
 20
0.0
 30
2.000000000000000E+50
 75
     0
  1
AcDbOsnapPointRef
 72
    13
331
4417
 73
     2
 91
        0
 40
0.0
 10
0.0
 20
0.0
 30
2.000000000000000E+50
 75
     0
  0
DIMASSOC
  5
4465
102
{ACAD_REACTORS
330
4464
102
}
330
4464
100
AcDbDimAssoc
330
4463
 90
        3
 70
     0
 71
     0
  1
AcDbOsnapPointRef
 72
    13
331
4416
 73
     2
 91
        0
 40
0.0
 10
0.0
 20
0.0
 30
2.000000000000000E+50
 75
     0
  1
AcDbOsnapPointRef
 72
     1
331
43CB
 73
     2
 91
        0
 40
1.0
 10
0.0
 20
0.0
 30
2.000000000000000E+50
 75
     0
  0
DIMASSOC
  5
4468
102
{ACAD_REACTORS
330
4467
102
}
330
4467
100
AcDbDimAssoc
330
4466
 90
        3
 70
     0
 71
     0
  1
AcDbOsnapPointRef
 72
     6
331
4452
 73
     2
 91
        0
 40
0.9999999999993566
 10
0.0
 20
0.0
 30
0.0
332
4450
 74
     2
 92
        0
 75
     0
  1
AcDbOsnapPointRef
 72
    13
331
444C
 73
     2
 91
        0
 40
0.0
 10
0.0
 20
0.0
 30
2.000000000000000E+50
 75
     0
  0
DIMASSOC
  5
446B
102
{ACAD_REACTORS
330
446A
102
}
330
446A
100
AcDbDimAssoc
330
4469
 90
        3
 70
     0
 71
     0
  1
AcDbOsnapPointRef
 72
     1
331
443B
 73
     2
 91
        0
 40
1.0
 10
0.0
 20
0.0
 30
2.000000000000000E+50
 75
     0
  1
AcDbOsnapPointRef
 72
     1
331
443A
 73
     2
 91
        0
 40
1.0
 10
0.0
 20
0.0
 30
2.000000000000000E+50
 75
     0
  0
DIMASSOC
  5
446E
102
{ACAD_REACTORS
330
446D
102
}
330
446D
100
AcDbDimAssoc
330
446C
 90
        3
 70
     0
 71
     0
  1
AcDbOsnapPointRef
 72
    13
331
4437
 73
     2
 91
        0
 40
0.0
 10
0.0
 20
0.0
 30
2.000000000000000E+50
 75
     0
  1
AcDbOsnapPointRef
 72
     1
331
443A
 73
     2
 91
        0
 40
1.0
 10
0.0
 20
0.0
 30
2.000000000000000E+50
 75
     0
  0
DIMASSOC
  5
4471
102
{ACAD_REACTORS
330
4470
102
}
330
4470
100
AcDbDimAssoc
330
446F
 90
        3
 70
     0
 71
     0
  1
AcDbOsnapPointRef
 72
     1
331
43CB
 73
     2
 91
        0
 40
1.0
 10
0.0
 20
0.0
 30
2.000000000000000E+50
 75
     0
  1
AcDbOsnapPointRef
 72
     1
331
443A
 73
     2
 91
        0
 40
1.0
 10
0.0
 20
0.0
 30
2.000000000000000E+50
 75
     0
  0
DIMASSOC
  5
4474
102
{ACAD_REACTORS
330
4473
102
}
330
4473
100
AcDbDimAssoc
330
4472
 90
        3
 70
     0
 71
     0
  1
AcDbOsnapPointRef
 72
     1
331
43C9
 73
     2
 91
        0
 40
1.0
 10
0.0
 20
0.0
 30
2.000000000000000E+50
 75
     0
  1
AcDbOsnapPointRef
 72
     1
331
43CB
 73
     2
 91
        0
 40
1.0
 10
0.0
 20
0.0
 30
2.000000000000000E+50
 75
     0
  0
DIMASSOC
  5
4477
102
{ACAD_REACTORS
330
4476
102
}
330
4476
100
AcDbDimAssoc
330
4475
 90
        3
 70
     0
 71
     0
  1
AcDbOsnapPointRef
 72
     1
331
43C9
 73
     2
 91
        0
 40
1.0
 10
0.0
 20
0.0
 30
2.000000000000000E+50
 75
     0
  1
AcDbOsnapPointRef
 72
     1
331
443A
 73
     2
 91
        0
 40
1.0
 10
0.0
 20
0.0
 30
2.000000000000000E+50
 75
     0
  0
DIMASSOC
  5
447A
102
{ACAD_REACTORS
330
4479
102
}
330
4479
100
AcDbDimAssoc
330
4478
 90
        3
 70
     0
 71
     0
  1
AcDbOsnapPointRef
 72
     1
331
43CB
 73
     2
 91
        0
 40
1.0
 10
0.0
 20
0.0
 30
2.000000000000000E+50
 75
     0
  1
AcDbOsnapPointRef
 72
     1
331
4421
 73
     2
 91
        0
 40
1.0
 10
0.0
 20
0.0
 30
2.000000000000000E+50
 75
     0
  0
DIMASSOC
  5
447D
102
{ACAD_REACTORS
330
447C
102
}
330
447C
100
AcDbDimAssoc
330
447B
 90
        3
 70
     0
 71
     0
  1
AcDbOsnapPointRef
 72
    13
331
43C7
 73
     2
 91
        0
 40
0.0
 10
0.0
 20
0.0
 30
2.000000000000000E+50
 75
     0
  1
AcDbOsnapPointRef
 72
    13
331
4419
 73
     2
 91
        0
 40
0.0
 10
0.0
 20
0.0
 30
2.000000000000000E+50
 75
     0
  0
DIMASSOC
  5
4480
102
{ACAD_REACTORS
330
447F
102
}
330
447F
100
AcDbDimAssoc
330
447E
 90
        3
 70
     0
 71
     0
  1
AcDbOsnapPointRef
 72
     1
331
4446
 73
     2
 91
        0
 40
3.727278197047031
 10
0.0
 20
0.0
 30
2.000000000000000E+50
 75
     0
  1
AcDbOsnapPointRef
 72
    13
331
4442
 73
     2
 91
        0
 40
0.0
 10
0.0
 20
0.0
 30
2.000000000000000E+50
 75
     0
  0
DIMASSOC
  5
4483
102
{ACAD_REACTORS
330
4482
102
}
330
4482
100
AcDbDimAssoc
330
4481
 90
        3
 70
     0
 71
     0
  1
AcDbOsnapPointRef
 72
    13
331
4447
 73
     2
 91
        0
 40
0.0
 10
0.0
 20
0.0
 30
2.000000000000000E+50
 75
     0
  1
AcDbOsnapPointRef
 72
    13
331
4448
 73
     2
 91
        0
 40
0.0
 10
0.0
 20
0.0
 30
2.000000000000000E+50
 75
     0
  0
DIMASSOC
  5
4486
102
{ACAD_REACTORS
330
4485
102
}
330
4485
100
AcDbDimAssoc
330
4484
 90
        3
 70
     0
 71
     0
  1
AcDbOsnapPointRef
 72
     1
331
4420
 73
     2
 91
        0
 40
1.0
 10
0.0
 20
0.0
 30
2.000000000000000E+50
 75
     0
  1
AcDbOsnapPointRef
 72
     1
331
4421
 73
     2
 91
        0
 40
1.0
 10
0.0
 20
0.0
 30
2.000000000000000E+50
 75
     0
  0
DIMASSOC
  5
4489
102
{ACAD_REACTORS
330
4488
102
}
330
4488
100
AcDbDimAssoc
330
4487
 90
        1
 70
     0
 71
     0
  1
AcDbOsnapPointRef
 72
     2
331
442D
 73
     2
 91
        0
 40
0.5000000000000228
 10
0.0
 20
0.0
 30
0.0
 75
     0
  0
DIMASSOC
  5
448F
102
{ACAD_REACTORS
330
448E
102
}
330
448E
100
AcDbDimAssoc
330
448D
 90
        1
 70
     0
 71
     0
  1
AcDbOsnapPointRef
 72
     1
331
441D
 73
     2
 91
        0
 40
0.9999999999999998
 10
0.0
 20
0.0
 30
2.000000000000000E+50
 75
     0
  0
DIMASSOC
  5
4492
102
{ACAD_REACTORS
330
4491
102
}
330
4491
100
AcDbDimAssoc
330
4490
 90
        3
 70
     0
 71
     0
  1
AcDbOsnapPointRef
 72
     1
331
440A
 73
     2
 91
        0
 40
1.0
 10
0.0
 20
0.0
 30
2.000000000000000E+50
 75
     0
  1
AcDbOsnapPointRef
 72
     1
331
43FE
 73
     2
 91
        0
 40
1.0
 10
0.0
 20
0.0
 30
2.000000000000000E+50
 75
     0
  0
DIMASSOC
  5
4495
102
{ACAD_REACTORS
330
4494
102
}
330
4494
100
AcDbDimAssoc
330
4493
 90
        3
 70
     0
 71
     0
  1
AcDbOsnapPointRef
 72
     6
331
4409
 73
     2
 91
        0
 40
0.9999999999999994
 10
0.0
 20
0.0
 30
0.0
332
43D4
 74
     2
 92
        0
 75
     0
  1
AcDbOsnapPointRef
 72
     6
331
43E7
 73
     2
 91
        0
 40
0.0000000000000082
 10
0.0
 20
0.0
 30
0.0
332
43D2
 74
     2
 92
        0
 75
     0
  0
DIMASSOC
  5
4498
102
{ACAD_REACTORS
330
4497
102
}
330
4497
100
AcDbDimAssoc
330
4496
 90
        3
 70
     0
 71
     0
  1
AcDbOsnapPointRef
 72
     3
331
43DA
 73
     2
 91
        0
 40
0.0
 10
0.0
 20
0.0
 30
0.0
 75
     0
  1
AcDbOsnapPointRef
 72
     3
331
4401
 73
     2
 91
        0
 40
0.0
 10
0.0
 20
0.0
 30
0.0
 75
     0
  0
DIMASSOC
  5
449B
102
{ACAD_REACTORS
330
449A
102
}
330
449A
100
AcDbDimAssoc
330
4499
 90
        3
 70
     0
 71
     0
  1
AcDbOsnapPointRef
 72
     1
331
43D7
 73
     2
 91
        0
 40
0.9999999999999998
 10
0.0
 20
0.0
 30
2.000000000000000E+50
 75
     0
  1
AcDbOsnapPointRef
 72
     6
331
43E7
 73
     2
 91
        0
 40
0.0000000000000082
 10
0.0
 20
0.0
 30
0.0
332
43D2
 74
     2
 92
        0
 75
     0
  0
DIMASSOC
  5
4517
102
{ACAD_REACTORS
330
4516
102
}
330
4516
100
AcDbDimAssoc
330
4515
 90
        3
 70
     0
 71
     0
  1
AcDbOsnapPointRef
 72
     1
331
4502
 73
     2
 91
        0
 40
1.0
 10
0.0
 20
0.0
 30
2.000000000000000E+50
 75
     0
  1
AcDbOsnapPointRef
 72
     1
331
44F2
 73
     2
 91
        0
 40
1.0
 10
0.0
 20
0.0
 30
2.000000000000000E+50
 75
     0
  0
DIMASSOC
  5
451A
102
{ACAD_REACTORS
330
4519
102
}
330
4519
100
AcDbDimAssoc
330
4518
 90
        3
 70
     0
 71
     0
  1
AcDbOsnapPointRef
 72
     1
331
4502
 73
     2
 91
        0
 40
1.0
 10
0.0
 20
0.0
 30
2.000000000000000E+50
 75
     0
  1
AcDbOsnapPointRef
 72
    13
331
44AE
 73
     2
 91
        0
 40
0.0
 10
0.0
 20
0.0
 30
2.000000000000000E+50
 75
     0
  0
DIMASSOC
  5
451D
102
{ACAD_REACTORS
330
451C
102
}
330
451C
100
AcDbDimAssoc
330
451B
 90
        3
 70
     0
 71
     0
  1
AcDbOsnapPointRef
 72
     1
331
43C9
 73
     2
 91
        0
 40
1.0
 10
0.0
 20
0.0
 30
2.000000000000000E+50
 75
     0
  1
AcDbOsnapPointRef
 72
    13
331
4417
 73
     2
 91
        0
 40
0.0
 10
0.0
 20
0.0
 30
2.000000000000000E+50
 75
     0
  0
DIMASSOC
  5
4520
102
{ACAD_REACTORS
330
451F
102
}
330
451F
100
AcDbDimAssoc
330
451E
 90
        3
 70
     0
 71
     0
  1
AcDbOsnapPointRef
 72
    13
331
4416
 73
     2
 91
        0
 40
0.0
 10
0.0
 20
0.0
 30
2.000000000000000E+50
 75
     0
  1
AcDbOsnapPointRef
 72
     1
331
43CB
 73
     2
 91
        0
 40
1.0
 10
0.0
 20
0.0
 30
2.000000000000000E+50
 75
     0
  0
DIMASSOC
  5
4523
102
{ACAD_REACTORS
330
4522
102
}
330
4522
100
AcDbDimAssoc
330
4521
 90
        3
 70
     0
 71
     0
  1
AcDbOsnapPointRef
 72
     1
331
4501
 73
     2
 91
        0
 40
1.0
 10
0.0
 20
0.0
 30
2.000000000000000E+50
 75
     0
  1
AcDbOsnapPointRef
 72
     1
331
4502
 73
     2
 91
        0
 40
1.0
 10
0.0
 20
0.0
 30
2.000000000000000E+50
 75
     0
  0
DIMASSOC
  5
4526
102
{ACAD_REACTORS
330
4525
102
}
330
4525
100
AcDbDimAssoc
330
4524
 90
        3
 70
     0
 71
     0
  1
AcDbOsnapPointRef
 72
    13
331
44AE
 73
     2
 91
        0
 40
0.0
 10
0.0
 20
0.0
 30
2.000000000000000E+50
 75
     0
  1
AcDbOsnapPointRef
 72
     1
331
4501
 73
     2
 91
        0
 40
1.0
 10
0.0
 20
0.0
 30
2.000000000000000E+50
 75
     0
  0
DIMASSOC
  5
4529
102
{ACAD_REACTORS
330
4528
102
}
330
4528
100
AcDbDimAssoc
330
4527
 90
        3
 70
     0
 71
     0
  1
AcDbOsnapPointRef
 72
    13
331
44ED
 73
     2
 91
        0
 40
0.0
 10
0.0
 20
0.0
 30
2.000000000000000E+50
 75
     0
  1
AcDbOsnapPointRef
 72
     1
331
44F3
 73
     2
 91
        0
 40
1.0
 10
0.0
 20
0.0
 30
2.000000000000000E+50
 75
     0
  0
DIMASSOC
  5
452C
102
{ACAD_REACTORS
330
452B
102
}
330
452B
100
AcDbDimAssoc
330
452A
 90
        3
 70
     0
 71
     0
  1
AcDbOsnapPointRef
 72
    13
331
44F3
 73
     2
 91
        0
 40
0.0
 10
0.0
 20
0.0
 30
2.000000000000000E+50
 75
     0
  1
AcDbOsnapPointRef
 72
    13
331
44F5
 73
     2
 91
        0
 40
0.0
 10
0.0
 20
0.0
 30
2.000000000000000E+50
 75
     0
  0
DIMASSOC
  5
452F
102
{ACAD_REACTORS
330
452E
102
}
330
452E
100
AcDbDimAssoc
330
452D
 90
        3
 70
     0
 71
     0
  1
AcDbOsnapPointRef
 72
    13
331
44F2
 73
     2
 91
        0
 40
0.0
 10
0.0
 20
0.0
 30
2.000000000000000E+50
 75
     0
  1
AcDbOsnapPointRef
 72
     1
331
44F2
 73
     2
 91
        0
 40
1.0
 10
0.0
 20
0.0
 30
2.000000000000000E+50
 75
     0
  0
DIMASSOC
  5
4538
102
{ACAD_REACTORS
330
4537
102
}
330
4537
100
AcDbDimAssoc
330
4536
 90
        3
 70
     0
 71
     0
  1
AcDbOsnapPointRef
 72
     3
331
43DA
 73
     2
 91
        0
 40
0.0
 10
0.0
 20
0.0
 30
0.0
 75
     0
  1
AcDbOsnapPointRef
 72
     3
331
4401
 73
     2
 91
        0
 40
0.0
 10
0.0
 20
0.0
 30
0.0
 75
     0
  0
DIMASSOC
  5
453B
102
{ACAD_REACTORS
330
453A
102
}
330
453A
100
AcDbDimAssoc
330
4539
 90
        3
 70
     0
 71
     0
  1
AcDbOsnapPointRef
 72
     1
331
43D7
 73
     2
 91
        0
 40
0.9999999999999998
 10
0.0
 20
0.0
 30
2.000000000000000E+50
 75
     0
  1
AcDbOsnapPointRef
 72
     6
331
43E7
 73
     2
 91
        0
 40
0.0000000000000082
 10
0.0
 20
0.0
 30
0.0
332
43D2
 74
     2
 92
        0
 75
     0
  0
DIMASSOC
  5
48B0
102
{ACAD_REACTORS
330
48AF
102
}
330
48AF
100
AcDbDimAssoc
330
48AE
 90
        3
 70
     0
 71
     0
  1
AcDbOsnapPointRef
 72
     3
331
43DA
 73
     2
 91
        0
 40
0.0
 10
0.0
 20
0.0
 30
0.0
 75
     0
  1
AcDbOsnapPointRef
 72
     3
331
4401
 73
     2
 91
        0
 40
0.0
 10
0.0
 20
0.0
 30
0.0
 75
     0
  0
DIMASSOC
  5
48B3
102
{ACAD_REACTORS
330
48B2
102
}
330
48B2
100
AcDbDimAssoc
330
48B1
 90
        3
 70
     0
 71
     0
  1
AcDbOsnapPointRef
 72
     1
331
43D7
 73
     2
 91
        0
 40
0.9999999999999998
 10
0.0
 20
0.0
 30
2.000000000000000E+50
 75
     0
  1
AcDbOsnapPointRef
 72
     6
331
43E7
 73
     2
 91
        0
 40
0.0000000000000082
 10
0.0
 20
0.0
 30
0.0
332
43D2
 74
     2
 92
        0
 75
     0
  0
DIMASSOC
  5
48CE
102
{ACAD_REACTORS
330
48CD
102
}
330
48CD
100
AcDbDimAssoc
330
48CC
 90
        3
 70
     0
 71
     0
  1
AcDbOsnapPointRef
 72
     1
331
43C9
 73
     2
 91
        0
 40
1.0
 10
0.0
 20
0.0
 30
2.000000000000000E+50
 75
     0
  1
AcDbOsnapPointRef
 72
    13
331
4417
 73
     2
 91
        0
 40
0.0
 10
0.0
 20
0.0
 30
2.000000000000000E+50
 75
     0
  0
DIMASSOC
  5
48D1
102
{ACAD_REACTORS
330
48D0
102
}
330
48D0
100
AcDbDimAssoc
330
48CF
 90
        3
 70
     0
 71
     0
  1
AcDbOsnapPointRef
 72
    13
331
4416
 73
     2
 91
        0
 40
0.0
 10
0.0
 20
0.0
 30
2.000000000000000E+50
 75
     0
  1
AcDbOsnapPointRef
 72
     1
331
43CB
 73
     2
 91
        0
 40
1.0
 10
0.0
 20
0.0
 30
2.000000000000000E+50
 75
     0
  0
LAYOUT
  5
1E
102
{ACAD_XDICTIONARY
360
4F42
102
}
102
{ACAD_REACTORS
330
1A
102
}
330
1A
100
AcDbPlotSettings
  1

  2

  4

  6

 40
0.0
 41
0.0
 42
0.0
 43
0.0
 44
0.0
 45
0.0
 46
0.0
 47
0.0
 48
0.0
 49
0.0
140
0.0
141
0.0
142
1.0
143
1.0
 70
   688
 72
     0
 73
     0
 74
     5
  7
彩色出圖.ctb
 75
    16
147
1.0
148
0.0
149
0.0
100
AcDbLayout
  1
Layout1
 70
     1
 71
     1
 10
0.0
 20
0.0
 11
12.0
 21
9.0
 12
0.0
 22
0.0
 32
0.0
 14
25.69999999999999
 24
19.5
 34
0.0
 15
889.7497293978833
 25
276.0522775560587
 35
0.0
146
0.0
 13
0.0
 23
0.0
 33
0.0
 16
1.0
 26
0.0
 36
0.0
 17
0.0
 27
1.0
 37
0.0
 76
     0
330
1B
  0
LAYOUT
  5
26
102
{ACAD_XDICTIONARY
360
4F46
102
}
102
{ACAD_REACTORS
330
1A
102
}
330
1A
100
AcDbPlotSettings
  1

  2

  4

  6

 40
0.0
 41
0.0
 42
0.0
 43
0.0
 44
0.0
 45
0.0
 46
0.0
 47
0.0
 48
0.0
 49
0.0
140
0.0
141
0.0
142
1.0
143
1.0
 70
   688
 72
     0
 73
     0
 74
     5
  7
彩色出圖.ctb
 75
    16
147
1.0
148
0.0
149
0.0
100
AcDbLayout
  1
Layout2
 70
     1
 71
     2
 10
0.0
 20
0.0
 11
12.0
 21
9.0
 12
0.0
 22
0.0
 32
0.0
 14
0.0
 24
0.0
 34
0.0
 15
0.0
 25
0.0
 35
0.0
146
0.0
 13
0.0
 23
0.0
 33
0.0
 16
1.0
 26
0.0
 36
0.0
 17
0.0
 27
1.0
 37
0.0
 76
     0
330
23
  0
LAYOUT
  5
22
102
{ACAD_XDICTIONARY
360
4F44
102
}
102
{ACAD_REACTORS
330
1A
102
}
330
1A
100
AcDbPlotSettings
  1

  2
DWF Classic.pc3
  4
ISO_expand_A4_(297.00_x_210.00_MM)
  6

 40
5.793749809265136
 41
10.79374980926513
 42
5.79376220703125
 43
10.79374694824219
 44
297.0
 45
210.0
 46
28.84
 47
0.0
 48
0.0
 49
0.0
140
0.0
141
0.0
142
1.0
143
1.120755785371924
 70
 11956
 72
     1
 73
     1
 74
     1
  7
彩色出圖.ctb
 75
     0
147
0.8922550416888086
148
-60.47975723452577
149
-7.729884834014001
100
AcDbLayout
  1
Model
 70
     1
 71
     0
 10
0.0
 20
0.0
 11
12.0
 21
9.0
 12
0.0
 22
0.0
 32
0.0
 14
0.0
 24
0.0
 34
0.0
 15
0.0
 25
0.0
 35
0.0
146
0.0
 13
0.0
 23
0.0
 33
0.0
 16
1.0
 26
0.0
 36
0.0
 17
0.0
 27
1.0
 37
0.0
 76
     0
330
1F
  0
MLINESTYLE
  5
18
102
{ACAD_REACTORS
330
17
102
}
330
17
100
AcDbMlineStyle
  2
STANDARD
 70
     0
  3

 62
   256
 51
90.0
 52
90.0
 71
     2
 49
0.5
 62
   256
  6
BYLAYER
 49
-0.5
 62
   256
  6
BYLAYER
  0
ACDBPLACEHOLDER
  5
F
102
{ACAD_REACTORS
330
E
102
}
330
E
  0
TABLESTYLE
  5
22A5
102
{ACAD_REACTORS
330
22A4
102
}
330
22A4
100
AcDbTableStyle
  3
Standard
 70
     0
 71
     0
 40
1.5
 41
1.5
280
     0
281
     0
  7
Standard
140
4.5
170
     2
 62
     0
 63
     7
283
     0
274
    -2
284
     1
 64
     0
275
    -2
285
     1
 65
     0
276
    -2
286
     1
 66
     0
277
    -2
287
     1
 67
     0
278
    -2
288
     1
 68
     0
279
    -2
289
     1
 69
     0
  7
Standard
140
6.0
170
     5
 62
     0
 63
     7
283
     0
274
    -2
284
     1
 64
     0
275
    -2
285
     1
 65
     0
276
    -2
286
     1
 66
     0
277
    -2
287
     1
 67
     0
278
    -2
288
     1
 68
     0
279
    -2
289
     1
 69
     0
  7
Standard
140
4.5
170
     5
 62
     0
 63
     7
283
     0
274
    -2
284
     1
 64
     0
275
    -2
285
     1
 65
     0
276
    -2
286
     1
 66
     0
277
    -2
287
     1
 67
     0
278
    -2
288
     1
 68
     0
279
    -2
289
     1
 69
     0
  0
DICTIONARYVAR
  5
2461
102
{ACAD_REACTORS
330
1488
102
}
330
1488
100
DictionaryVariables
280
     0
  1
STANDARD
  0
DICTIONARYVAR
  5
2238
102
{ACAD_REACTORS
330
1488
102
}
330
1488
100
DictionaryVariables
280
     0
  1
1
  0
DICTIONARYVAR
  5
2237
102
{ACAD_REACTORS
330
1488
102
}
330
1488
100
DictionaryVariables
280
     0
  1
1
  0
DICTIONARYVAR
  5
4C40
102
{ACAD_REACTORS
330
1488
102
}
330
1488
100
DictionaryVariables
280
     0
  1

  0
DICTIONARYVAR
  5
1489
102
{ACAD_REACTORS
330
1488
102
}
330
1488
100
DictionaryVariables
280
     0
  1
96
  0
DICTIONARY
  5
21B6
102
{ACAD_REACTORS
330
21B0
102
}
330
21B0
100
AcDbDictionary
281
     1
  0
XRECORD
  5
4961
102
{ACAD_REACTORS
330
21B0
102
}
330
21B0
100
AcDbXrecord
280
     1
 90
-1023410169
  0
LAYER_INDEX
  5
4EE9
102
{ACAD_REACTORS
330
4EE8
102
}
330
4EE8
100
AcDbIndex
 40
2453983.673592118
100
AcDbLayerIndex
  8
0
360
4EEA
 90
      277
  8
DIM
360
4EEB
 90
       51
  8
A3-S
360
4EEC
 90
        1
  8
CENTER
360
4EED
 90
       22
  8
LOGO
360
4EEE
 90
      127
  8
Defpoints
360
4EEF
 90
        0
  8
PLINE
360
4EF0
 90
       38
  8
BORDER
360
4EF1
 90
        1
  8
AM_7
360
4EF2
 90
        2
  8
AM_5
360
4EF3
 90
        0
  0
DICTIONARY
  5
4F42
330
1E
100
AcDbDictionary
280
     1
281
     1
  3
ACAD_XREC_ROUNDTRIP
360
4F43
  0
DICTIONARY
  5
4F46
330
26
100
AcDbDictionary
280
     1
281
     1
  3
ACAD_XREC_ROUNDTRIP
360
4F47
  0
DICTIONARY
  5
4F44
330
22
100
AcDbDictionary
280
     1
281
     1
  3
ACAD_XREC_ROUNDTRIP
360
4F45
  0
IDBUFFER
  5
4EEA
330
0
100
AcDbIdBuffer
330
4E65
330
4E66
330
4E67
330
4E68
330
4E69
330
4E6A
330
4E6B
330
4E6F
330
4E70
330
4E76
330
4E77
330
4E78
330
4E79
330
4E7A
330
4E7B
330
4E7C
330
4E7D
330
4E7E
330
4E7F
330
4E80
330
4E81
330
4E82
330
4E83
330
4E84
330
4E85
330
4E86
330
4E87
330
4E88
330
4E89
330
4E8A
330
4E8B
330
4E8C
330
4E8D
330
4E8E
330
4E94
330
4EDE
330
4EE1
330
A9
330
AA
330
AB
330
AC
330
B1
330
B2
330
10B3
330
17B4
330
17B5
330
17BF
330
18E7
330
18EA
330
43C8
330
43C9
330
43CA
330
43CB
330
43CC
330
43CD
330
43CE
330
43CF
330
43D0
330
43D1
330
43D2
330
43D4
330
43D5
330
43D7
330
43D8
330
43D9
330
43DA
330
43DB
330
43DC
330
43DD
330
43DE
330
43E0
330
43E1
330
43E2
330
43E3
330
43E4
330
43E5
330
43E6
330
43E7
330
43E8
330
43E9
330
43EA
330
43EB
330
43EC
330
43ED
330
43EE
330
43EF
330
43F0
330
43F1
330
43F2
330
43F3
330
43F4
330
43F5
330
43F6
330
43F7
330
43F8
330
43F9
330
43FA
330
43FB
330
43FC
330
43FD
330
43FF
330
4400
330
4401
330
4402
330
4403
330
4404
330
4405
330
4406
330
4407
330
4408
330
4409
330
440B
330
440C
330
440D
330
440E
330
440F
330
4410
330
4411
330
4412
330
4414
330
4418
330
441A
330
441B
330
441C
330
441D
330
441E
330
441F
330
4420
330
4421
330
4422
330
4424
330
4425
330
4426
330
4427
330
4428
330
4429
330
442A
330
442B
330
442C
330
442D
330
442E
330
442F
330
4430
330
4431
330
4432
330
4433
330
4434
330
4435
330
4436
330
4437
330
4438
330
4439
330
443A
330
443B
330
443C
330
443D
330
443E
330
443F
330
4440
330
4441
330
4442
330
4443
330
4444
330
4445
330
4446
330
4447
330
4448
330
4449
330
444A
330
444B
330
444C
330
444D
330
444E
330
444F
330
4450
330
4451
330
4452
330
4453
330
4454
330
4455
330
4456
330
4457
330
4458
330
4459
330
445A
330
445B
330
445C
330
445D
330
445E
330
445F
330
44A1
330
44A2
330
44A3
330
44A4
330
44A5
330
44A9
330
44AB
330
44AE
330
44AF
330
44B0
330
44B1
330
44B2
330
44B3
330
44B4
330
44C1
330
44C2
330
44C3
330
44C4
330
44C6
330
44D0
330
44D5
330
44D6
330
44D9
330
44DA
330
44DB
330
44DC
330
44DD
330
44DE
330
44DF
330
44E4
330
44E6
330
44E7
330
44E8
330
44E9
330
44EA
330
44EB
330
44EC
330
44ED
330
44EE
330
44EF
330
44F0
330
44F1
330
44F2
330
44F3
330
44F4
330
44F5
330
44F7
330
44F8
330
44F9
330
44FF
330
4500
330
4501
330
4502
330
4503
330
4505
330
4509
330
450B
330
450C
330
450D
330
450E
330
450F
330
4510
330
4511
330
4512
330
4513
330
4514
330
4AFF
330
4B00
330
4B01
330
4CBF
330
4CC0
330
4DB9
330
4DDB
330
4DDC
330
4DDE
330
4DDF
330
4DE0
330
4DE1
330
4DE2
330
4DE3
330
4DE5
330
4DE9
330
4DEC
330
4E5D
330
4E60
330
4E61
330
4E63
  0
IDBUFFER
  5
4EEB
330
0
100
AcDbIdBuffer
330
48B1
330
48CC
330
48CF
330
4460
330
4463
330
4466
330
4469
330
446C
330
446F
330
4472
330
4475
330
4478
330
447B
330
447E
330
4481
330
4484
330
4487
330
448A
330
448B
330
448C
330
448D
330
4490
330
4493
330
4496
330
4499
330
449C
330
449D
330
449E
330
449F
330
4515
330
4518
330
451B
330
451E
330
4521
330
4524
330
4527
330
452A
330
452D
330
4530
330
4531
330
4532
330
4533
330
4534
330
4535
330
4536
330
4539
330
453C
330
453D
330
453E
330
453F
330
48AE
  0
IDBUFFER
  5
4EEC
330
0
100
AcDbIdBuffer
330
82
  0
IDBUFFER
  5
4EED
330
0
100
AcDbIdBuffer
330
44FD
330
44FE
330
4506
330
4507
330
4508
330
450A
330
43C7
330
43D3
330
43D6
330
43DF
330
43FE
330
440A
330
4415
330
4416
330
4417
330
4419
330
4423
330
44A0
330
44A7
330
44FA
330
44FB
330
44FC
  0
IDBUFFER
  5
4EEE
330
0
100
AcDbIdBuffer
330
4AF0
330
4AF1
330
4AF2
330
4AF3
330
4AF4
330
4AF5
330
4AF6
330
4AF7
330
4AF8
330
4AF9
330
4AFA
330
4AFB
330
4AFC
330
4AFD
330
4AFE
330
17BD
330
17BE
330
17C3
330
17C4
330
17C5
330
17C6
330
17C7
330
1802
330
1803
330
1804
330
1805
330
1806
330
1807
330
1808
330
1809
330
180A
330
180B
330
180C
330
180D
330
180E
330
180F
330
1810
330
1868
330
1869
330
186A
330
186B
330
186C
330
186D
330
186E
330
186F
330
1870
330
1871
330
1872
330
1873
330
1874
330
1875
330
1876
330
1877
330
1878
330
1879
330
187A
330
187B
330
187C
330
187D
330
187E
330
187F
330
1880
330
1881
330
1882
330
1883
330
1885
330
1886
330
1887
330
1888
330
1889
330
188A
330
188B
330
188C
330
188D
330
188E
330
188F
330
1890
330
1891
330
4AAA
330
4AAB
330
4AAC
330
4AAD
330
4AAE
330
4AAF
330
4AB0
330
4AB1
330
4AB2
330
4AB3
330
4AB4
330
4AB5
330
4AB6
330
4AB7
330
4AB8
330
4AB9
330
4ABA
330
4ABB
330
4ABC
330
4ABD
330
4ABE
330
4ABF
330
4AC0
330
4AC1
330
4AC2
330
4AC3
330
4AC4
330
4AC5
330
4AC6
330
4AC7
330
4ACB
330
4ACF
330
4AD0
330
4AD4
330
4AD5
330
4AD6
330
4AD7
330
4AD8
330
4AD9
330
4ADA
330
4ADB
330
4ADF
330
4AE3
330
4AE7
330
4AE8
330
4AE9
330
4AED
330
4AEE
330
4AEF
  0
IDBUFFER
  5
4EEF
330
0
100
AcDbIdBuffer
  0
IDBUFFER
  5
4EF0
330
0
100
AcDbIdBuffer
330
44C0
330
44C5
330
44C7
330
44C8
330
44C9
330
44CA
330
44CB
330
44CC
330
44CD
330
44CE
330
44CF
330
44D1
330
44D2
330
44D3
330
44D4
330
44D7
330
44D8
330
44E0
330
44E1
330
44E2
330
44E3
330
44E5
330
44A6
330
44A8
330
44AA
330
44AC
330
44AD
330
44B5
330
44B6
330
44B7
330
44B8
330
44B9
330
44BA
330
44BB
330
44BC
330
44BD
330
44BE
330
44BF
  0
IDBUFFER
  5
4EF1
330
0
100
AcDbIdBuffer
330
44F6
  0
IDBUFFER
  5
4EF2
330
0
100
AcDbIdBuffer
330
4EDD
330
4EE0
  0
IDBUFFER
  5
4EF3
330
0
100
AcDbIdBuffer
  0
XRECORD
  5
4F43
102
{ACAD_REACTORS
330
4F42
102
}
330
4F42
100
AcDbXrecord
280
     1
102
SHADEPLOT
 70
     0
102
SHADEPLOTRESLEVEL
 70
     2
102
SHADEPLOTCUSTOMDPI
 70
   300
  0
XRECORD
  5
4F47
102
{ACAD_REACTORS
330
4F46
102
}
330
4F46
100
AcDbXrecord
280
     1
102
SHADEPLOT
 70
     0
102
SHADEPLOTRESLEVEL
 70
     2
102
SHADEPLOTCUSTOMDPI
 70
   300
  0
XRECORD
  5
4F45
102
{ACAD_REACTORS
330
4F44
102
}
330
4F44
100
AcDbXrecord
280
     1
102
SHADEPLOT
 70
     0
102
SHADEPLOTRESLEVEL
 70
     2
102
SHADEPLOTCUSTOMDPI
 70
   300
  0
ENDSEC
  0
EOF
