  0
SECTION
  2
HEADER
  9
$ACADVER
  1
AC1015
  9
$ACADMAINTVER
 70
    20
  9
$DWGCODEPAGE
  3
ANSI_950
  9
$INSBASE
 10
0.0
 20
0.0
 30
0.0
  9
$EXTMIN
 10
44.73874666021311
 20
5.433496617748801
 30
-0.00588890924098
  9
$EXTMAX
 10
282.9381394246269
 20
252.9122607650691
 30
192.9883909895592
  9
$LIMMIN
 10
0.0
 20
0.0
  9
$LIMMAX
 10
12.0
 20
9.0
  9
$ORTHOMODE
 70
     1
  9
$REGENMODE
 70
     1
  9
$FILLMODE
 70
     1
  9
$QTEXTMODE
 70
     0
  9
$MIRRTEXT
 70
     1
  9
$LTSCALE
 40
3.0
  9
$ATTMODE
 70
     1
  9
$TEXTSIZE
 40
4.5
  9
$TRACEWID
 40
0.05
  9
$TEXTSTYLE
  7
CHINESET
  9
$CLAYER
  8
0
  9
$CELTYPE
  6
ByLayer
  9
$CECOLOR
 62
   256
  9
$CELTSCALE
 40
1.0
  9
$DISPSILH
 70
     0
  9
$DIMSCALE
 40
1.0
  9
$DIMASZ
 40
3.0
  9
$DIMEXO
 40
3.0
  9
$DIMDLI
 40
2.0
  9
$DIMRND
 40
0.0
  9
$DIMDLE
 40
0.0
  9
$DIMEXE
 40
2.0
  9
$DIMTP
 40
0.0
  9
$DIMTM
 40
0.0
  9
$DIMTXT
 40
3.0
  9
$DIMCEN
 40
-3.0
  9
$DIMTSZ
 40
0.0
  9
$DIMTOL
 70
     0
  9
$DIMLIM
 70
     0
  9
$DIMTIH
 70
     0
  9
$DIMTOH
 70
     0
  9
$DIMSE1
 70
     0
  9
$DIMSE2
 70
     0
  9
$DIMTAD
 70
     1
  9
$DIMZIN
 70
     8
  9
$DIMBLK
  1

  9
$DIMASO
 70
     1
  9
$DIMSHO
 70
     1
  9
$DIMPOST
  1

  9
$DIMAPOST
  1

  9
$DIMALT
 70
     0
  9
$DIMALTD
 70
     2
  9
$DIMALTF
 40
25.4
  9
$DIMLFAC
 40
1.0
  9
$DIMTOFL
 70
     1
  9
$DIMTVP
 40
0.0
  9
$DIMTIX
 70
     0
  9
$DIMSOXD
 70
     0
  9
$DIMSAH
 70
     0
  9
$DIMBLK1
  1

  9
$DIMBLK2
  1

  9
$DIMSTYLE
  2
ISO-25-1
  9
$DIMCLRD
 70
   256
  9
$DIMCLRE
 70
   256
  9
$DIMCLRT
 70
   256
  9
$DIMTFAC
 40
0.7
  9
$DIMGAP
 40
1.0
  9
$DIMJUST
 70
     0
  9
$DIMSD1
 70
     0
  9
$DIMSD2
 70
     0
  9
$DIMTOLJ
 70
     1
  9
$DIMTZIN
 70
     8
  9
$DIMALTZ
 70
     0
  9
$DIMALTTZ
 70
     0
  9
$DIMUPT
 70
     0
  9
$DIMDEC
 70
     2
  9
$DIMTDEC
 70
     8
  9
$DIMALTU
 70
     2
  9
$DIMALTTD
 70
     2
  9
$DIMTXSTY
  7
CHINESET
  9
$DIMAUNIT
 70
     0
  9
$DIMADEC
 70
     0
  9
$DIMALTRND
 40
0.0
  9
$DIMAZIN
 70
     2
  9
$DIMDSEP
 70
    46
  9
$DIMATFIT
 70
     0
  9
$DIMFRAC
 70
     0
  9
$DIMLDRBLK
  1

  9
$DIMLUNIT
 70
     2
  9
$DIMLWD
 70
    -1
  9
$DIMLWE
 70
    -1
  9
$DIMTMOVE
 70
     0
  9
$LUNITS
 70
     2
  9
$LUPREC
 70
     2
  9
$SKETCHINC
 40
0.1
  9
$FILLETRAD
 40
0.5
  9
$AUNITS
 70
     0
  9
$AUPREC
 70
     0
  9
$MENU
  1
.
  9
$ELEVATION
 40
0.0
  9
$PELEVATION
 40
0.0
  9
$THICKNESS
 40
0.0
  9
$LIMCHECK
 70
     0
  9
$CHAMFERA
 40
0.5
  9
$CHAMFERB
 40
0.5
  9
$CHAMFERC
 40
1.0
  9
$CHAMFERD
 40
0.0
  9
$SKPOLY
 70
     0
  9
$TDCREATE
 40
2452019.631085301
  9
$TDUCREATE
 40
2452019.297751968
  9
$TDUPDATE
 40
2453983.673956516
  9
$TDUUPDATE
 40
2453983.340623183
  9
$TDINDWG
 40
0.2570310648
  9
$TDUSRTIMER
 40
0.2570310648
  9
$USRTIMER
 70
     1
  9
$ANGBASE
 50
0.0
  9
$ANGDIR
 70
     0
  9
$PDMODE
 70
     0
  9
$PDSIZE
 40
0.0
  9
$PLINEWID
 40
0.0
  9
$SPLFRAME
 70
     0
  9
$SPLINETYPE
 70
     6
  9
$SPLINESEGS
 70
     8
  9
$HANDSEED
  5
3E30
  9
$SURFTAB1
 70
     6
  9
$SURFTAB2
 70
     6
  9
$SURFTYPE
 70
     6
  9
$SURFU
 70
     6
  9
$SURFV
 70
     6
  9
$UCSBASE
  2

  9
$UCSNAME
  2

  9
$UCSORG
 10
0.0
 20
0.0
 30
0.0
  9
$UCSXDIR
 10
1.0
 20
0.0
 30
0.0
  9
$UCSYDIR
 10
0.0
 20
1.0
 30
0.0
  9
$UCSORTHOREF
  2

  9
$UCSORTHOVIEW
 70
     0
  9
$UCSORGTOP
 10
0.0
 20
0.0
 30
0.0
  9
$UCSORGBOTTOM
 10
0.0
 20
0.0
 30
0.0
  9
$UCSORGLEFT
 10
0.0
 20
0.0
 30
0.0
  9
$UCSORGRIGHT
 10
0.0
 20
0.0
 30
0.0
  9
$UCSORGFRONT
 10
0.0
 20
0.0
 30
0.0
  9
$UCSORGBACK
 10
0.0
 20
0.0
 30
0.0
  9
$PUCSBASE
  2

  9
$PUCSNAME
  2

  9
$PUCSORG
 10
0.0
 20
0.0
 30
0.0
  9
$PUCSXDIR
 10
1.0
 20
0.0
 30
0.0
  9
$PUCSYDIR
 10
0.0
 20
1.0
 30
0.0
  9
$PUCSORTHOREF
  2

  9
$PUCSORTHOVIEW
 70
     0
  9
$PUCSORGTOP
 10
0.0
 20
0.0
 30
0.0
  9
$PUCSORGBOTTOM
 10
0.0
 20
0.0
 30
0.0
  9
$PUCSORGLEFT
 10
0.0
 20
0.0
 30
0.0
  9
$PUCSORGRIGHT
 10
0.0
 20
0.0
 30
0.0
  9
$PUCSORGFRONT
 10
0.0
 20
0.0
 30
0.0
  9
$PUCSORGBACK
 10
0.0
 20
0.0
 30
0.0
  9
$USERI1
 70
     0
  9
$USERI2
 70
     0
  9
$USERI3
 70
     0
  9
$USERI4
 70
     0
  9
$USERI5
 70
     0
  9
$USERR1
 40
0.0
  9
$USERR2
 40
0.0
  9
$USERR3
 40
0.0
  9
$USERR4
 40
0.0
  9
$USERR5
 40
0.0
  9
$WORLDVIEW
 70
     1
  9
$SHADEDGE
 70
     3
  9
$SHADEDIF
 70
    70
  9
$TILEMODE
 70
     1
  9
$MAXACTVP
 70
    48
  9
$PINSBASE
 10
0.0
 20
0.0
 30
0.0
  9
$PLIMCHECK
 70
     0
  9
$PEXTMIN
 10
1.000000000000000E+20
 20
1.000000000000000E+20
 30
1.000000000000000E+20
  9
$PEXTMAX
 10
-1.000000000000000E+20
 20
-1.000000000000000E+20
 30
-1.000000000000000E+20
  9
$PLIMMIN
 10
0.0
 20
0.0
  9
$PLIMMAX
 10
12.0
 20
9.0
  9
$UNITMODE
 70
     0
  9
$VISRETAIN
 70
     1
  9
$PLINEGEN
 70
     0
  9
$PSLTSCALE
 70
     1
  9
$TREEDEPTH
 70
  3020
  9
$CMLSTYLE
  2
Standard
  9
$CMLJUST
 70
     0
  9
$CMLSCALE
 40
1.0
  9
$PROXYGRAPHICS
 70
     1
  9
$MEASUREMENT
 70
     1
  9
$CELWEIGHT
370
    -1
  9
$ENDCAPS
280
     0
  9
$JOINSTYLE
280
     0
  9
$LWDISPLAY
290
     0
  9
$INSUNITS
 70
     1
  9
$HYPERLINKBASE
  1

  9
$STYLESHEET
  1
彩色出圖.ctb
  9
$XEDIT
290
     1
  9
$CEPSNTYPE
380
     0
  9
$PSTYLEMODE
290
     1
  9
$FINGERPRINTGUID
  2
{FDEAD576-A652-11D2-9A35-0060089B3A3F}
  9
$VERSIONGUID
  2
{38798D5A-91FE-4E70-A1AB-68F133C55DF2}
  9
$EXTNAMES
290
     1
  9
$PSVPSCALE
 40
0.0
  9
$OLESTARTUP
290
     0
  0
ENDSEC
  0
SECTION
  2
CLASSES
  0
CLASS
  1
ACDBDICTIONARYWDFLT
  2
AcDbDictionaryWithDefault
  3
ObjectDBX Classes
 90
        0
280
     0
281
     0
  0
CLASS
  1
ACDBPLACEHOLDER
  2
AcDbPlaceHolder
  3
ObjectDBX Classes
 90
        0
280
     0
281
     0
  0
CLASS
  1
LAYOUT
  2
AcDbLayout
  3
ObjectDBX Classes
 90
        0
280
     0
281
     0
  0
CLASS
  1
DICTIONARYVAR
  2
AcDbDictionaryVar
  3
ObjectDBX Classes
 90
        0
280
     0
281
     0
  0
CLASS
  1
ACME_DOCUMENT
  2
AcMeDbDoc
  3
AcMeServices
 90
        0
280
     0
281
     0
  0
CLASS
  1
AMGSETTINGSOBJ
  2
AmgSettingsObj
  3
"AcadM|Product Description: AutoCAD Mechanical 2000|Company: Autodesk"
 90
        0
280
     0
281
     0
  0
CLASS
  1
ACMESCOPE
  2
AcMeScope
  3
AcMeServices
 90
        0
280
     0
281
     0
  0
CLASS
  1
ACMECOMMANDHISTORY
  2
AcMeCommandHistory
  3
AcMeServices
 90
        0
280
     0
281
     0
  0
CLASS
  1
ACIMSYSVARMAN
  2
AcImSysVarManager
  3
AcMeServices
 90
        0
280
     0
281
     0
  0
CLASS
  1
ACIMREALSYSVAR
  2
AcImRealSysVar
  3
AcMeServices
 90
        0
280
     0
281
     0
  0
CLASS
  1
ACIMINTSYSVAR
  2
AcImIntSysVar
  3
AcMeServices
 90
        0
280
     0
281
     0
  0
CLASS
  1
ACMEDRAWINGMAN
  2
AcMeDrawingMan
  3
AcMeServices
 90
        0
280
     0
281
     0
  0
CLASS
  1
ACMEVIEW
  2
AcMeView
  3
AcMeServices
 90
        0
280
     0
281
     0
  0
CLASS
  1
ACDBENTITYCACHE
  2
AcMeEntityCache
  3
AcMeServices
 90
        0
280
     0
281
     0
  0
CLASS
  1
GSMANAGER
  2
AcMeGSManager
  3
AcMeServices
 90
        0
280
     0
281
     0
  0
CLASS
  1
AMDTINTERNALREACTOR
  2
AmdtInternalReactor
  3
AcMeServices
 90
        0
280
     0
281
     0
  0
CLASS
  1
ACMESTATEMGR
  2
AcMeStateMgr
  3
AcMeServices
 90
        0
280
     0
281
     0
  0
CLASS
  1
ACGREFMASTER
  2
AcGrefMaster
  3
AcAttribServices
 90
        0
280
     0
281
     0
  0
CLASS
  1
ACME_DATABASE
  2
AcMeDbDatabase
  3
AcMeServices
 90
        0
280
     0
281
     0
  0
CLASS
  1
ACRFINSADJUSTERMGR
  2
AcRfInsAdjusterMgr
  3
AcMeServices
 90
        0
280
     0
281
     0
  0
CLASS
  1
ACGREFACADMASTER
  2
AcGrefacadMaster
  3
AcGrefServices
 90
        0
280
     0
281
     0
  0
CLASS
  1
AMIMASTER
  2
AmiMaster
  3
AmiServices
 90
        0
280
     0
281
     0
  0
CLASS
  1
ACMDATADICTIONARY
  2
AcmDataDictionary
  3
"AcmSymBB|Product Description: AutoCAD Mechanical 2004 DX|Company: Autodesk"
 90
        0
280
     0
281
     0
  0
CLASS
  1
ACMDATAENTRYBLOCK
  2
AcmDataEntryBlock
  3
"AcmSymBB|Product Description: AutoCAD Mechanical 2004 DX|Company: Autodesk"
 90
    32768
280
     0
281
     0
  0
CLASS
  1
ACIMSTRSYSVAR
  2
AcImStrSysVar
  3
AcMeServices
 90
        0
280
     0
281
     0
  0
CLASS
  1
ACMSTANDARDISO
  2
AcmStandardISO
  3
"Amdt_StdImp|Product Description: AutoCAD Mechanical 2004 DX|Company: Autodesk"
 90
        0
280
     0
281
     0
  0
CLASS
  1
AMGOBJPROPCFG
  2
AmgObjPropCfg
  3
"AmgLay|Product Description: AutoCAD Mechanical 2000|Company: Autodesk"
 90
        1
280
     0
281
     0
  0
CLASS
  1
AMDTEDGESTANDARDISO
  2
AmdtEdgeStdISO
  3
"Amdt_StdImp|Product Description: AutoCAD Mechanical 2004 DX|Company: Autodesk"
 90
    32768
280
     0
281
     0
  0
CLASS
  1
ACMSURFSTANDARDISO
  2
AcmSurfTextStdISO
  3
"Amdt_StdImp|Product Description: AutoCAD Mechanical 2004 DX|Company: Autodesk"
 90
        0
280
     0
281
     0
  0
CLASS
  1
ACMFCFSTANDARDISO
  2
AcmFCFStdISO
  3
"Amdt_StdImp|Product Description: AutoCAD Mechanical 2004 DX|Company: Autodesk"
 90
        0
280
     0
281
     0
  0
CLASS
  1
ACMWELDSTANDARDISO
  2
AcmWeldingStdISO
  3
"Amdt_StdImp|Product Description: AutoCAD Mechanical 2004 DX|Company: Autodesk"
 90
        0
280
     0
281
     0
  0
CLASS
  1
ACMIDSTANDARDISO
  2
AcmIdStdISO
  3
"Amdt_StdImp|Product Description: AutoCAD Mechanical 2004 DX|Company: Autodesk"
 90
        0
280
     0
281
     0
  0
CLASS
  1
ACMDATUMSTANDARDISO
  2
AcmDatumStdISO
  3
"Amdt_StdImp|Product Description: AutoCAD Mechanical 2004 DX|Company: Autodesk"
 90
        0
280
     0
281
     0
  0
CLASS
  1
ACMBOMSTANDARDISO
  2
AcmBOMStdISO
  3
"Amdt_StdImp|Product Description: AutoCAD Mechanical 2004 DX|Company: Autodesk"
 90
        0
280
     0
281
     0
  0
CLASS
  1
ACMDETAILSTANDARDISO
  2
AmdtDetailSymStdISO
  3
"Amdt_StdImp|Product Description: AutoCAD Mechanical 2004 DX|Company: Autodesk"
 90
        0
280
     0
281
     0
  0
CLASS
  1
ACMSECTIONSTANDARDISO
  2
AmdtSectionSymStdISO
  3
"Amdt_StdImp|Product Description: AutoCAD Mechanical 2004 DX|Company: Autodesk"
 90
        0
280
     0
281
     0
  0
CLASS
  1
ACMCENTERLINESTANDARDISO
  2
AmdtCenterLineStdISO
  3
"Amdt_StdImp|Product Description: AutoCAD Mechanical 2004 DX|Company: Autodesk"
 90
        0
280
     0
281
     0
  0
CLASS
  1
ACMNOTESTANDARDISO
  2
AmdtNoteStdISO
  3
"Amdt_StdImp|Product Description: AutoCAD Mechanical 2004 DX|Company: Autodesk"
 90
        0
280
     0
281
     0
  0
CLASS
  1
ACAMGLAYSTD
  2
AcAmgLayStd
  3
"AcAmgLayStd|Product Description: AutoCAD Mechanical 2000|Company: Autodesk"
 90
        0
280
     0
281
     0
  0
CLASS
  1
ACAMGDIMSTD
  2
AcAmgDimStd
  3
"AcAmgDimStd|Product Description: AutoCAD Mechanical 2000|Company: Autodesk"
 90
        0
280
     0
281
     0
  0
CLASS
  1
ACAMGHOLECHARTSTDISO
  2
AcAmgHoleChartStdISO
  3
ACMSYMBB_MODULE_NAME
 90
        0
280
     0
281
     0
  0
CLASS
  1
ACAMGTITLESTD
  2
AcAmgTitleStd
  3
"TITLEAPP"
 90
        0
280
     0
281
     0
  0
CLASS
  1
ACAMGFILTERDAT
  2
AcAmgFilterDat
  3
"AcadM|Product Description: AutoCAD Mechanical 2000|Company: Autodesk"
 90
    32768
280
     0
281
     0
  0
CLASS
  1
LAYER_INDEX
  2
AcDbLayerIndex
  3
ObjectDBX Classes
 90
        0
280
     0
281
     0
  0
CLASS
  1
IDBUFFER
  2
AcDbIdBuffer
  3
ObjectDBX Classes
 90
        0
280
     0
281
     0
  0
CLASS
  1
TABLESTYLE
  2
AcDbTableStyle
  3
ObjectDBX Classes
 90
     2047
280
     0
281
     0
  0
CLASS
  1
DIMASSOC
  2
AcDbDimAssoc
  3
"AcDbDimAssoc|Product Desc:     AcDim ARX App For Dimension|Company:          Autodesk, Inc.|WEB Address:      www.autodesk.com"
 90
        0
280
     0
281
     0
  0
CLASS
  1
SORTENTSTABLE
  2
AcDbSortentsTable
  3
ObjectDBX Classes
 90
        0
280
     0
281
     0
  0
CLASS
  1
AM_DRAWING_MGR
  2
AcDmDwgMgr
  3
AcMechDwgViewMgmt
 90
        0
280
     0
281
     0
  0
CLASS
  1
AM_DWG_DOCUMENT
  2
AcDmDwgDocument
  3
AcMechDwgViewMgmt
 90
        0
280
     0
281
     0
  0
CLASS
  1
AM_DWG_SHEET
  2
AcDmSheet
  3
AcMechDwgViewMgmt
 90
        0
280
     0
281
     0
  0
CLASS
  1
AM_VIEWDIMPARMAP
  2
AcDmViewDimParMap
  3
AcMechDwgViewMgmt
 90
        0
280
     0
281
     0
  0
CLASS
  1
AM_DWGMGR_NAME
  2
AcDmDwgMgrName
  3
AcMechDwgViewMgmt
 90
        0
280
     0
281
     0
  0
CLASS
  1
AMDTMENUSTATEMGR
  2
AmdtMenuStateMgr
  3
McadcomServices
 90
        0
280
     0
281
     0
  0
CLASS
  1
AMDTMCOMMENUSTATE
  2
AmdtMcomMenuState
  3
McadcomServices
 90
        0
280
     0
281
     0
  0
CLASS
  1
MAPIAMMOUDLE
  2
MApiAmModule
  3
MApiAmServices
 90
        0
280
     0
281
     0
  0
CLASS
  1
AMDTADMENUSTATE
  2
AmdtAdMenuState
  3
DesignerServices
 90
        0
280
     0
281
     0
  0
CLASS
  1
ADAPPL
  2
AcAdAppl
  3
DesignerServices
 90
        0
280
     0
281
     0
  0
CLASS
  1
DEPMGR
  2
AcAdDepMgr
  3
DesignerServices
 90
        0
280
     0
281
     0
  0
CLASS
  1
PARAMMGR
  2
AcAdParamMgr
  3
DesignerServices
 90
        0
280
     0
281
     0
  0
CLASS
  1
PARAMSCOPE
  2
AcAdParamScope
  3
DesignerServices
 90
        0
280
     0
281
     0
  0
CLASS
  1
NAMEDAPPL
  2
AcAdNamedAppl
  3
DesignerServices
 90
        0
280
     0
281
     0
  0
CLASS
  1
AMDTDMMENUSTATE
  2
AmdtDmMenuState
  3
AcMechDwgViewMgmt
 90
        0
280
     0
281
     0
  0
CLASS
  1
AMDTAMMENUSTATE
  2
AmdtAmMenuState
  3
DesignerAssemblies
 90
        0
280
     0
281
     0
  0
CLASS
  1
ACAMPROJECT
  2
AcAmProject
  3
DesignerAssemblies
 90
        0
280
     0
281
     0
  0
CLASS
  1
ACAMGRCOMPDEF
  2
AcAmGrCompDef
  3
DesignerAssemblies
 90
        0
280
     0
281
     0
  0
CLASS
  1
ACCMCONTEXT
  2
AcCmContext
  3
DesignerAssemblies
 90
        0
280
     0
281
     0
  0
CLASS
  1
ACAMCOMPDEF
  2
AcAmCompDef
  3
DesignerAssemblies
 90
        0
280
     0
281
     0
  0
CLASS
  1
ACAMCOMPDEFMGR
  2
AcAmCompDefMgr
  3
DesignerAssemblies
 90
        0
280
     0
281
     0
  0
CLASS
  1
AMCONTEXTMGR
  2
AcAmContextMgr
  3
DesignerAssemblies
 90
        0
280
     0
281
     0
  0
CLASS
  1
ACAMCONTEXTMODELER
  2
AcAmContextModeler
  3
DesignerAssemblies
 90
        0
280
     0
281
     0
  0
CLASS
  1
CATALOGSTATE
  2
AcAmCatalogState
  3
DesignerAssemblies
 90
        0
280
     0
281
     0
  0
CLASS
  1
ACAMGRCOMPDEFSET
  2
AcAmGrCompDefSet
  3
DesignerAssemblies
 90
        0
280
     0
281
     0
  0
CLASS
  1
AMDTBROWSERDBTAB
  2
AmdtBrowserDbTab
  3
McadcomServices
 90
        0
280
     0
281
     0
  0
CLASS
  1
CBROWSERAPPOBJECT
  2
CBrowserAppObject
  3
McadcomServices
 90
        0
280
     0
281
     0
  0
CLASS
  1
DM_PLACEHOLDER
  2
AcDmSelsetPlaceholder
  3
AcMechDwgViewMgmt
 90
        0
280
     0
281
     0
  0
CLASS
  1
AMDTEDGESTANDARDISO13715
  2
AmdtEdgeStdISO13715
  3
"Amdt_StdImp|Product Description: AutoCAD Mechanical 2004 DX|Company: Autodesk"
 90
        0
280
     0
281
     0
  0
CLASS
  1
ACMTHREADLINESTANDARDISO
  2
AmdtThreadLineStdISO
  3
"Amdt_StdImp|Product Description: AutoCAD Mechanical 2004 DX|Company: Autodesk"
 90
        0
280
     0
281
     0
  0
CLASS
  1
AMDTNOTETEMPLATEDB
  2
AmdtNoteTemplateDB
  3
AMDT_STDIMP_MODULE_NAME
 90
        0
280
     0
281
     0
  0
ENDSEC
  0
SECTION
  2
TABLES
  0
TABLE
  2
VPORT
  5
8
330
0
100
AcDbSymbolTable
 70
     3
  0
VPORT
  5
3E27
330
8
100
AcDbSymbolTableRecord
100
AcDbViewportTableRecord
  2
*Active
 70
     0
 10
0.0
 20
0.0
 11
1.0
 21
1.0
 12
163.83844304242
 22
129.1728786914089
 13
0.0
 23
0.0
 14
0.5
 24
0.5
 15
0.5
 25
0.5
 16
0.0
 26
0.0
 36
1.0
 17
0.0
 27
0.0
 37
0.0
 40
249.544535445972
 41
1.609210526315789
 42
50.0
 43
0.0
 44
0.0
 50
0.0
 51
0.0
 71
     0
 72
   100
 73
     1
 74
     3
 75
     0
 76
     0
 77
     0
 78
     0
281
     0
 65
     1
110
0.0
120
0.0
130
0.0
111
1.0
121
0.0
131
0.0
112
0.0
122
1.0
132
0.0
 79
     0
146
0.0
  0
ENDTAB
  0
TABLE
  2
LTYPE
  5
5
330
0
100
AcDbSymbolTable
 70
    14
  0
LTYPE
  5
14
330
5
100
AcDbSymbolTableRecord
100
AcDbLinetypeTableRecord
  2
ByBlock
 70
     0
  3

 72
    65
 73
     0
 40
0.0
  0
LTYPE
  5
15
330
5
100
AcDbSymbolTableRecord
100
AcDbLinetypeTableRecord
  2
ByLayer
 70
     0
  3

 72
    65
 73
     0
 40
0.0
  0
LTYPE
  5
16
330
5
100
AcDbSymbolTableRecord
100
AcDbLinetypeTableRecord
  2
Continuous
 70
     0
  3
Solid line
 72
    65
 73
     0
 40
0.0
  0
LTYPE
  5
4F
330
5
100
AcDbSymbolTableRecord
100
AcDbLinetypeTableRecord
  2
CENTER
 70
     0
  3
Center ____ _ ____ _ ____ _ ____ _ ____ _ ____
 72
    65
 73
     4
 40
2.0
 49
1.25
 74
     0
 49
-0.25
 74
     0
 49
0.25
 74
     0
 49
-0.25
 74
     0
  0
LTYPE
  5
22D7
330
5
100
AcDbSymbolTableRecord
100
AcDbLinetypeTableRecord
  2
AM_ISO02W050
 70
     0
  3
__ __ __ __ __ __ __ __ __ __ __ __ __ __ __
 72
    65
 73
     2
 40
7.5
 49
6.0
 74
     0
 49
-1.5
 74
     0
  0
LTYPE
  5
22D8
330
5
100
AcDbSymbolTableRecord
100
AcDbLinetypeTableRecord
  2
AM_ISO08W050
 70
     0
  3
____ . ____ . ____ . ____ . ____ . ____ . ____
 72
    65
 73
     4
 40
18.0
 49
12.0
 74
     0
 49
-1.5
 74
     0
 49
3.0
 74
     0
 49
-1.5
 74
     0
  0
LTYPE
  5
22D9
330
5
100
AcDbSymbolTableRecord
100
AcDbLinetypeTableRecord
  2
AM_ISO09W050
 70
     0
  3
_____ . . _____ . . _____ . . ____ .. ____
 72
    65
 73
     6
 40
22.5
 49
12.0
 74
     0
 49
-1.5
 74
     0
 49
3.0
 74
     0
 49
-1.5
 74
     0
 49
3.0
 74
     0
 49
-1.5
 74
     0
  0
LTYPE
  5
22DA
330
5
100
AcDbSymbolTableRecord
100
AcDbLinetypeTableRecord
  2
Amconstr
 70
     0
  3
_______________________
 72
    65
 73
     2
 40
9999.0
 49
9999.0
 74
     0
 49
0.0
 74
     0
  0
LTYPE
  5
22DB
330
5
100
AcDbSymbolTableRecord
100
AcDbLinetypeTableRecord
  2
AM_ISO08W050x2
 70
     0
  3
__ . __ . __ . __ . __ . __
 72
    65
 73
     4
 40
9.0
 49
6.0
 74
     0
 49
-0.75
 74
     0
 49
1.5
 74
     0
 49
-0.75
 74
     0
  0
LTYPE
  5
22DC
330
5
100
AcDbSymbolTableRecord
100
AcDbLinetypeTableRecord
  2
AM_ISO02W050x2
 70
     0
  3
 _ _ _ _ _ _ _ _ _ _ _ _
 72
    65
 73
     2
 40
3.75
 49
3.0
 74
     0
 49
-0.75
 74
     0
  0
LTYPE
  5
22DF
330
5
100
AcDbSymbolTableRecord
100
AcDbLinetypeTableRecord
  2
Amzigzag
 70
     0
  3
/\/-/\/-/\/-/\/-/\/-/\/
 72
    65
 73
     2
 40
11.0001
 49
0.0001
 74
     4
 75
   135
340
22DE
 46
0.04
 50
0.0
 44
0.0
 45
0.0
 49
-11.0
 74
     0
  0
LTYPE
  5
22ED
330
5
100
AcDbSymbolTableRecord
100
AcDbLinetypeTableRecord
  2
ACISOWELD
 70
     0
  3
_ _ _ _ _
 72
    65
 73
     2
 40
2.0
 49
2.0
 74
     0
 49
-1.0
 74
     0
  0
LTYPE
  5
22EE
330
5
100
AcDbSymbolTableRecord
100
AcDbLinetypeTableRecord
  2
ACISOTGB
 70
     0
  3
__ . . __ . .
 72
    65
 73
     6
 40
9.0
 49
4.0
 74
     0
 49
-1.0
 74
     0
 49
1.0
 74
     0
 49
-1.0
 74
     0
 49
1.0
 74
     0
 49
-1.0
 74
     0
  0
LTYPE
  5
22EF
330
5
100
AcDbSymbolTableRecord
100
AcDbLinetypeTableRecord
  2
ACISOTGL
 70
     0
  3
_ _ _ _ _
 72
    65
 73
     2
 40
3.0
 49
2.0
 74
     0
 49
-1.0
 74
     0
  0
LTYPE
  5
2521
330
5
100
AcDbSymbolTableRecord
100
AcDbLinetypeTableRecord
  2
HIDDEN
 70
     0
  3
__ __ __ __ __ __ __ __ __ __ __ __ __ __ __ __
 72
    65
 73
     2
 40
0.375
 49
0.25
 74
     0
 49
-0.125
 74
     0
  0
LTYPE
  5
2522
330
5
100
AcDbSymbolTableRecord
100
AcDbLinetypeTableRecord
  2
PHANTOM2
 70
     0
  3
___ _ _ ___ _ _ ___ _ _ ___ _ _ ___ _ _ ___ _ _
 72
    65
 73
     6
 40
1.25
 49
0.625
 74
     0
 49
-0.125
 74
     0
 49
0.125
 74
     0
 49
-0.125
 74
     0
 49
0.125
 74
     0
 49
-0.125
 74
     0
  0
ENDTAB
  0
TABLE
  2
LAYER
  5
2
102
{ACAD_XDICTIONARY
360
2536
102
}
330
0
100
AcDbSymbolTable
 70
     8
  0
LAYER
  5
10
330
2
100
AcDbSymbolTableRecord
100
AcDbLayerTableRecord
  2
0
 70
     0
 62
     7
  6
Continuous
370
    -3
390
F
  0
LAYER
  5
48
330
2
100
AcDbSymbolTableRecord
100
AcDbLayerTableRecord
  2
DIM
 70
     0
 62
     5
  6
Continuous
370
    -3
390
F
  0
LAYER
  5
4A
330
2
100
AcDbSymbolTableRecord
100
AcDbLayerTableRecord
  2
CENTER
 70
     0
 62
     1
  6
CENTER
370
    -3
390
F
  0
LAYER
  5
1545
330
2
100
AcDbSymbolTableRecord
100
AcDbLayerTableRecord
  2
LOGO
 70
     0
 62
     7
  6
Continuous
370
    -3
390
F
  0
LAYER
  5
1A52
330
2
100
AcDbSymbolTableRecord
100
AcDbLayerTableRecord
  2
Defpoints
 70
     0
 62
     7
  6
Continuous
290
     0
370
    -3
390
F
  0
LAYER
  5
2528
330
2
100
AcDbSymbolTableRecord
100
AcDbLayerTableRecord
  2
AM_VIS
 70
     0
 62
     7
  6
Continuous
370
    30
390
F
  0
LAYER
  5
3DB0
330
2
100
AcDbSymbolTableRecord
100
AcDbLayerTableRecord
  2
AM_7
 70
     0
 62
     4
  6
AM_ISO08W050
370
    25
390
F
  0
LAYER
  5
3DB1
330
2
100
AcDbSymbolTableRecord
100
AcDbLayerTableRecord
  2
AM_5
 70
     0
 62
     3
  6
Continuous
370
    25
390
F
  0
ENDTAB
  0
TABLE
  2
STYLE
  5
3
330
0
100
AcDbSymbolTable
 70
     7
  0
STYLE
  5
11
330
3
100
AcDbSymbolTableRecord
100
AcDbTextStyleTableRecord
  2
Standard
 70
     0
 40
3.0
 41
1.0
 50
0.0
 71
     0
 42
3.0
  3
KAIU.TTF
  4

1001
ACAD
1000
DFKai-SB
1071
    34865
  0
STYLE
  5
5C
330
3
100
AcDbSymbolTableRecord
100
AcDbTextStyleTableRecord
  2
CHINESET
 70
     0
 40
3.0
 41
1.0
 50
0.0
 71
     0
 42
4.5
  3
simplex.shx
  4
CHINESET.shx
  0
STYLE
  5
22DE
330
3
100
AcDbSymbolTableRecord
100
AcDbTextStyleTableRecord
  2

 70
     1
 40
0.0
 41
1.0
 50
0.0
 71
     0
 42
4.5
  3
ltypeshp.shx
  4

  0
STYLE
  5
22E0
330
3
100
AcDbSymbolTableRecord
100
AcDbTextStyleTableRecord
  2
ACISOTS
 70
     0
 40
1.0
 41
1.0
 50
0.0
 71
     0
 42
4.5
  3
isocp.shx
  4
chineset.shx
  0
STYLE
  5
22EC
330
3
100
AcDbSymbolTableRecord
100
AcDbTextStyleTableRecord
  2
ACISOGDT
 70
     0
 40
0.0
 41
1.0
 50
0.0
 71
     0
 42
4.5
  3
amgdt.shx
  4

  0
STYLE
  5
2529
330
3
100
AcDbSymbolTableRecord
100
AcDbTextStyleTableRecord
  2
dayus
 70
     0
 40
2.0
 41
1.0
 50
0.0
 71
     0
 42
6.0
  3
simplex.shx
  4
dayus.shx
  0
ENDTAB
  0
TABLE
  2
VIEW
  5
6
330
0
100
AcDbSymbolTable
 70
     0
  0
ENDTAB
  0
TABLE
  2
UCS
  5
7
330
0
100
AcDbSymbolTable
 70
     0
  0
ENDTAB
  0
TABLE
  2
APPID
  5
9
330
0
100
AcDbSymbolTable
 70
    23
  0
APPID
  5
12
330
9
100
AcDbSymbolTableRecord
100
AcDbRegAppTableRecord
  2
ACAD
 70
     0
  0
APPID
  5
5F
330
9
100
AcDbSymbolTableRecord
100
AcDbRegAppTableRecord
  2
AD_DRAW
 70
     0
  0
APPID
  5
60
330
9
100
AcDbSymbolTableRecord
100
AcDbRegAppTableRecord
  2
DESIGNERASSEMBLIES
 70
     0
  0
APPID
  5
61
330
9
100
AcDbSymbolTableRecord
100
AcDbRegAppTableRecord
  2
MCAD_NO_VIS
 70
     0
  0
APPID
  5
62
330
9
100
AcDbSymbolTableRecord
100
AcDbRegAppTableRecord
  2
ASURF_PCURVE_APPNAME
 70
     0
  0
APPID
  5
11A1
330
9
100
AcDbSymbolTableRecord
100
AcDbRegAppTableRecord
  2
CONTENTBLOCKICON
 70
     0
  0
APPID
  5
22BA
330
9
100
AcDbSymbolTableRecord
100
AcDbRegAppTableRecord
  2
ACAD_TEMP_GRAPHIC
 70
     0
  0
APPID
  5
22CB
330
9
100
AcDbSymbolTableRecord
100
AcDbRegAppTableRecord
  2
ACATTRIBSERVICES
 70
     0
  0
APPID
  5
2532
330
9
100
AcDbSymbolTableRecord
100
AcDbRegAppTableRecord
  2
GENIUS_GENDTOL_13
 70
     0
  0
APPID
  5
2533
330
9
100
AcDbSymbolTableRecord
100
AcDbRegAppTableRecord
  2
GENIUS_GENODEF_13
 70
     0
  0
APPID
  5
2534
330
9
100
AcDbSymbolTableRecord
100
AcDbRegAppTableRecord
  2
GENIUS_GENFIL_13
 70
     0
  0
APPID
  5
2535
330
9
100
AcDbSymbolTableRecord
100
AcDbRegAppTableRecord
  2
GENIUS_GENOBJ-N-CHA_13
 70
     0
  0
APPID
  5
38E1
330
9
100
AcDbSymbolTableRecord
100
AcDbRegAppTableRecord
  2
ACADM_DIM_EDIT
 70
     0
  0
APPID
  5
38E2
330
9
100
AcDbSymbolTableRecord
100
AcDbRegAppTableRecord
  2
AMDT_DM_ADJ
 70
     0
  0
APPID
  5
3904
330
9
100
AcDbSymbolTableRecord
100
AcDbRegAppTableRecord
  2
GENIUS_GENOENT_13
 70
     0
  0
APPID
  5
3905
330
9
100
AcDbSymbolTableRecord
100
AcDbRegAppTableRecord
  2
GENIUS_GENOBJ-N-CRS_13
 70
     0
  0
APPID
  5
3906
330
9
100
AcDbSymbolTableRecord
100
AcDbRegAppTableRecord
  2
GENIUS_GENOLIS_13
 70
     0
  0
APPID
  5
3907
330
9
100
AcDbSymbolTableRecord
100
AcDbRegAppTableRecord
  2
GENIUS_GENOREF_13
 70
     0
  0
APPID
  5
3908
330
9
100
AcDbSymbolTableRecord
100
AcDbRegAppTableRecord
  2
ACAD_PSEXT
 70
     0
  0
APPID
  5
3909
330
9
100
AcDbSymbolTableRecord
100
AcDbRegAppTableRecord
  2
GENIUS_GENREC_14
 70
     0
  0
APPID
  5
390A
330
9
100
AcDbSymbolTableRecord
100
AcDbRegAppTableRecord
  2
GENIUS_GENOBJ-N-REC_13
 70
     0
  0
APPID
  5
3DB2
330
9
100
AcDbSymbolTableRecord
100
AcDbRegAppTableRecord
  2
GENIUS_GENOBJ-N-CEN_13
 70
     0
  0
APPID
  5
3DB3
330
9
100
AcDbSymbolTableRecord
100
AcDbRegAppTableRecord
  2
GENIUS_GENCEN_19
 70
     0
  0
ENDTAB
  0
TABLE
  2
DIMSTYLE
  5
A
330
0
100
AcDbSymbolTable
 70
    11
100
AcDbDimStyleTable
 71
     1
340
1A4
  0
DIMSTYLE
105
1A4
330
A
100
AcDbSymbolTableRecord
100
AcDbDimStyleTableRecord
  2
ISO-25-1
 70
     0
 41
3.0
 42
3.0
 43
2.0
 44
2.0
 73
     0
 74
     0
 77
     1
 78
     8
 79
     2
140
3.0
141
-3.0
146
0.7
147
1.0
172
     1
176
   256
177
   256
178
   256
271
     2
272
     2
284
     8
289
     0
340
5C
371
    -1
372
    -1
  0
DIMSTYLE
105
22F3
330
A
100
AcDbSymbolTableRecord
100
AcDbDimStyleTableRecord
  2
AM_ISO
 70
     0
  4
"
 41
2.5
 42
1.0
 43
10.0
 44
1.0
 47
0.1
 48
0.1
 73
     0
 74
     0
 77
     1
 78
     8
 79
     2
140
3.5
141
0.0
143
0.0393701
146
0.71
147
1.5
172
     1
176
   256
177
   256
178
     2
271
     2
272
     3
274
     4
283
     0
284
     8
340
11
371
    -1
372
    -1
  0
DIMSTYLE
105
22F4
330
A
100
AcDbSymbolTableRecord
100
AcDbDimStyleTableRecord
  2
AM_ISO$3
 70
     0
  4
"
 41
2.5
 42
1.0
 43
10.0
 44
1.0
 47
0.1
 48
0.1
 73
     0
 77
     1
 78
     8
 79
     2
140
3.5
141
0.0
143
0.0393701
146
0.71
147
1.5
176
   256
177
   256
178
     2
271
     2
272
     3
274
     4
283
     0
284
     8
288
     1
289
     0
340
11
371
    -1
372
    -1
  0
DIMSTYLE
105
22F5
330
A
100
AcDbSymbolTableRecord
100
AcDbDimStyleTableRecord
  2
AM_ISO$4
 70
     0
  4
"
 41
2.5
 42
1.0
 43
10.0
 44
1.0
 47
0.1
 48
0.1
 73
     0
 77
     1
 78
     8
 79
     2
140
3.5
141
0.0
143
0.0393701
146
0.71
147
1.5
176
   256
177
   256
178
     2
271
     2
272
     3
274
     4
283
     0
284
     8
288
     1
289
     0
340
11
371
    -1
372
    -1
  0
DIMSTYLE
105
22F6
330
A
100
AcDbSymbolTableRecord
100
AcDbDimStyleTableRecord
  2
AM_ISO$6
 70
     0
  4
"
 41
2.5
 42
1.0
 43
10.0
 44
1.0
 47
0.1
 48
0.1
 73
     0
 74
     0
 78
     8
 79
     2
140
3.5
141
0.0
143
0.0393701
146
0.71
147
1.5
172
     1
176
   256
177
   256
178
     2
271
     2
272
     3
274
     4
283
     0
284
     8
340
11
371
    -1
372
    -1
  0
DIMSTYLE
105
22F7
330
A
100
AcDbSymbolTableRecord
100
AcDbDimStyleTableRecord
  2
AM_ISO$7
 70
     0
  4
"
 41
2.5
 42
1.0
 43
10.0
 44
1.0
 47
0.1
 48
0.1
 73
     0
 74
     0
 77
     1
 78
     8
 79
     2
140
5.0
141
0.0
143
0.0393701
146
0.71
147
1.5
172
     1
176
   256
177
   256
178
     2
271
     2
272
     3
274
     4
283
     0
284
     8
340
11
371
    -1
372
    -1
  0
DIMSTYLE
105
22F8
330
A
100
AcDbSymbolTableRecord
100
AcDbDimStyleTableRecord
  2
AM_ISO$SF
 70
     0
  4
"
 41
2.5
 42
1.0
 43
10.0
 44
1.0
 47
0.1
 48
0.1
 73
     0
 74
     0
 75
     1
 76
     1
 77
     1
 78
     8
 79
     2
140
3.5
141
0.0
143
0.0393701
146
0.71
147
1.5
172
     1
176
   256
177
   256
178
     2
271
     2
272
     3
274
     4
283
     0
284
     8
340
11
371
    -1
372
    -1
  0
DIMSTYLE
105
22FD
330
A
100
AcDbSymbolTableRecord
100
AcDbDimStyleTableRecord
  2
AM_ISO$SH
 70
     0
  4
"
 41
2.5
 42
1.0
 43
10.0
 44
1.0
 47
0.1
 48
0.1
 73
     0
 74
     0
 75
     1
 76
     1
 77
     1
 78
     8
 79
     2
140
3.5
141
0.0
143
0.0393701
144
2.0
146
0.71
147
1.5
172
     1
173
     1
176
   256
177
   256
178
     2
271
     2
272
     3
274
     4
283
     0
284
     8
340
11
341
22F9
343
22F9
371
    -1
372
    -1
  0
DIMSTYLE
105
252C
102
{ACAD_REACTORS
330
2E16
330
2E19
330
2E1C
330
2E1F
330
2E22
330
2E25
330
2E2A
330
2E2D
330
2E30
330
2E33
330
2E36
330
2E3D
330
2E40
330
2E45
330
2E48
330
2E4B
330
2E4E
330
2E51
330
2E7B
330
2E80
330
2E83
330
2E86
330
2E89
330
2E8C
330
36BE
330
36C1
330
36CE
330
36D1
330
36D4
330
36D7
330
36DA
330
36DD
330
36E0
330
36E3
330
36E6
330
36E7
330
36E8
330
36E9
330
36EA
102
}
330
A
100
AcDbSymbolTableRecord
100
AcDbDimStyleTableRecord
  2
AM_ANSI
 70
     0
  4
"
 41
2.5
 42
1.0
 43
10.0
 44
1.0
 47
0.1
 48
0.1
 78
     8
 79
     2
140
3.5
141
0.0
143
0.0393701
146
0.71
147
1.5
176
   256
177
   256
178
     2
271
     2
272
     3
274
     4
284
     8
340
11
371
    -1
372
    -1
  0
DIMSTYLE
105
252F
330
A
100
AcDbSymbolTableRecord
100
AcDbDimStyleTableRecord
  2
AM_ANSI$7
 70
     0
  4
"
 41
2.5
 42
1.0
 43
10.0
 44
1.0
 47
0.1
 48
0.1
 78
     8
 79
     2
140
5.0
141
0.0
143
0.0393701
146
0.71
147
1.5
176
   256
177
   256
178
     2
271
     2
272
     3
274
     4
284
     8
340
11
371
    -1
372
    -1
  0
ENDTAB
  0
TABLE
  2
BLOCK_RECORD
  5
1
330
0
100
AcDbSymbolTable
 70
    45
  0
BLOCK_RECORD
  5
1F
102
{ACAD_XDICTIONARY
360
221C
102
}
330
1
100
AcDbSymbolTableRecord
100
AcDbBlockTableRecord
  2
*Model_Space
340
22
  0
BLOCK_RECORD
  5
1B
102
{ACAD_XDICTIONARY
360
221E
102
}
330
1
100
AcDbSymbolTableRecord
100
AcDbBlockTableRecord
  2
*Paper_Space
340
1E
  0
BLOCK_RECORD
  5
23
102
{ACAD_XDICTIONARY
360
2220
102
}
330
1
100
AcDbSymbolTableRecord
100
AcDbBlockTableRecord
  2
*Paper_Space0
340
26
  0
BLOCK_RECORD
  5
22F9
330
1
100
AcDbSymbolTableRecord
100
AcDbBlockTableRecord
  2
GENAXEH
340
0
  0
BLOCK_RECORD
  5
2E93
330
1
100
AcDbSymbolTableRecord
100
AcDbBlockTableRecord
  2
*D2
340
0
  0
BLOCK_RECORD
  5
2EA1
330
1
100
AcDbSymbolTableRecord
100
AcDbBlockTableRecord
  2
*D3
340
0
  0
BLOCK_RECORD
  5
2EAD
330
1
100
AcDbSymbolTableRecord
100
AcDbBlockTableRecord
  2
*D4
340
0
  0
BLOCK_RECORD
  5
2EB9
330
1
100
AcDbSymbolTableRecord
100
AcDbBlockTableRecord
  2
*D5
340
0
  0
BLOCK_RECORD
  5
2EC5
330
1
100
AcDbSymbolTableRecord
100
AcDbBlockTableRecord
  2
*D6
340
0
  0
BLOCK_RECORD
  5
2ED1
330
1
100
AcDbSymbolTableRecord
100
AcDbBlockTableRecord
  2
*D7
340
0
  0
BLOCK_RECORD
  5
2EDD
330
1
100
AcDbSymbolTableRecord
100
AcDbBlockTableRecord
  2
*D8
340
0
  0
BLOCK_RECORD
  5
2EEB
330
1
100
AcDbSymbolTableRecord
100
AcDbBlockTableRecord
  2
*D9
340
0
  0
BLOCK_RECORD
  5
2EF7
330
1
100
AcDbSymbolTableRecord
100
AcDbBlockTableRecord
  2
*D10
340
0
  0
BLOCK_RECORD
  5
2F03
330
1
100
AcDbSymbolTableRecord
100
AcDbBlockTableRecord
  2
*D11
340
0
  0
BLOCK_RECORD
  5
2F11
330
1
100
AcDbSymbolTableRecord
100
AcDbBlockTableRecord
  2
*D12
340
0
  0
BLOCK_RECORD
  5
2F1E
330
1
100
AcDbSymbolTableRecord
100
AcDbBlockTableRecord
  2
*D13
340
0
  0
BLOCK_RECORD
  5
2F2C
330
1
100
AcDbSymbolTableRecord
100
AcDbBlockTableRecord
  2
*D14
340
0
  0
BLOCK_RECORD
  5
2F38
330
1
100
AcDbSymbolTableRecord
100
AcDbBlockTableRecord
  2
*D15
340
0
  0
BLOCK_RECORD
  5
2F46
330
1
100
AcDbSymbolTableRecord
100
AcDbBlockTableRecord
  2
*D16
340
0
  0
BLOCK_RECORD
  5
2F52
330
1
100
AcDbSymbolTableRecord
100
AcDbBlockTableRecord
  2
*D17
340
0
  0
BLOCK_RECORD
  5
2F5E
330
1
100
AcDbSymbolTableRecord
100
AcDbBlockTableRecord
  2
*D18
340
0
  0
BLOCK_RECORD
  5
2F6A
330
1
100
AcDbSymbolTableRecord
100
AcDbBlockTableRecord
  2
*D19
340
0
  0
BLOCK_RECORD
  5
2FE9
330
1
100
AcDbSymbolTableRecord
100
AcDbBlockTableRecord
  2
*D20
340
0
  0
BLOCK_RECORD
  5
2FF5
330
1
100
AcDbSymbolTableRecord
100
AcDbBlockTableRecord
  2
*D21
340
0
  0
BLOCK_RECORD
  5
3003
330
1
100
AcDbSymbolTableRecord
100
AcDbBlockTableRecord
  2
*D22
340
0
  0
BLOCK_RECORD
  5
300F
330
1
100
AcDbSymbolTableRecord
100
AcDbBlockTableRecord
  2
*D23
340
0
  0
BLOCK_RECORD
  5
301B
330
1
100
AcDbSymbolTableRecord
100
AcDbBlockTableRecord
  2
*D24
340
0
  0
BLOCK_RECORD
  5
3027
330
1
100
AcDbSymbolTableRecord
100
AcDbBlockTableRecord
  2
*D25
340
0
  0
BLOCK_RECORD
  5
36EF
330
1
100
AcDbSymbolTableRecord
100
AcDbBlockTableRecord
  2
*D26
340
0
  0
BLOCK_RECORD
  5
36FB
330
1
100
AcDbSymbolTableRecord
100
AcDbBlockTableRecord
  2
*D27
340
0
  0
BLOCK_RECORD
  5
3709
330
1
100
AcDbSymbolTableRecord
100
AcDbBlockTableRecord
  2
*D28
340
0
  0
BLOCK_RECORD
  5
3715
330
1
100
AcDbSymbolTableRecord
100
AcDbBlockTableRecord
  2
*D29
340
0
  0
BLOCK_RECORD
  5
3721
330
1
100
AcDbSymbolTableRecord
100
AcDbBlockTableRecord
  2
*D30
340
0
  0
BLOCK_RECORD
  5
372D
330
1
100
AcDbSymbolTableRecord
100
AcDbBlockTableRecord
  2
*D31
340
0
  0
BLOCK_RECORD
  5
3739
330
1
100
AcDbSymbolTableRecord
100
AcDbBlockTableRecord
  2
*D32
340
0
  0
BLOCK_RECORD
  5
3747
330
1
100
AcDbSymbolTableRecord
100
AcDbBlockTableRecord
  2
*D33
340
0
  0
BLOCK_RECORD
  5
3755
330
1
100
AcDbSymbolTableRecord
100
AcDbBlockTableRecord
  2
*D34
340
0
  0
BLOCK_RECORD
  5
3761
330
1
100
AcDbSymbolTableRecord
100
AcDbBlockTableRecord
  2
*D35
340
0
  0
BLOCK_RECORD
  5
376D
330
1
100
AcDbSymbolTableRecord
100
AcDbBlockTableRecord
  2
*D36
340
0
  0
BLOCK_RECORD
  5
3779
330
1
100
AcDbSymbolTableRecord
100
AcDbBlockTableRecord
  2
*D37
340
0
  0
BLOCK_RECORD
  5
3785
330
1
100
AcDbSymbolTableRecord
100
AcDbBlockTableRecord
  2
*D38
340
0
  0
BLOCK_RECORD
  5
3791
330
1
100
AcDbSymbolTableRecord
100
AcDbBlockTableRecord
  2
*D39
340
0
  0
BLOCK_RECORD
  5
379E
330
1
100
AcDbSymbolTableRecord
100
AcDbBlockTableRecord
  2
*D40
340
0
  0
BLOCK_RECORD
  5
3CBF
102
{ACAD_XDICTIONARY
360
3CC0
102
}
330
1
100
AcDbSymbolTableRecord
100
AcDbBlockTableRecord
  2
A$C5ECF147B
340
0
102
{BLKREFS
331
3CEF
331
3CFD
331
3CFE
331
3D69
331
3D77
331
3D78
102
}
  0
BLOCK_RECORD
  5
3DA7
102
{ACAD_XDICTIONARY
360
3DA8
102
}
330
1
100
AcDbSymbolTableRecord
100
AcDbBlockTableRecord
  2
A$C1F6E6265
340
0
102
{BLKREFS
331
3DBD
331
3DC0
102
}
  0
ENDTAB
  0
ENDSEC
  0
SECTION
  2
BLOCKS
  0
BLOCK
  5
20
330
1F
100
AcDbEntity
  8
0
100
AcDbBlockBegin
  2
*Model_Space
 70
     0
 10
0.0
 20
0.0
 30
0.0
  3
*Model_Space
  1

  0
ENDBLK
  5
21
330
1F
100
AcDbEntity
  8
0
100
AcDbBlockEnd
  0
BLOCK
  5
1C
330
1B
100
AcDbEntity
 67
     1
  8
0
100
AcDbBlockBegin
  2
*Paper_Space
 70
     0
 10
0.0
 20
0.0
 30
0.0
  3
*Paper_Space
  1

  0
ENDBLK
  5
1D
330
1B
100
AcDbEntity
 67
     1
  8
0
100
AcDbBlockEnd
  0
BLOCK
  5
24
330
23
100
AcDbEntity
  8
0
100
AcDbBlockBegin
  2
*Paper_Space0
 70
     0
 10
0.0
 20
0.0
 30
0.0
  3
*Paper_Space0
  1

  0
ENDBLK
  5
25
330
23
100
AcDbEntity
  8
0
100
AcDbBlockEnd
  0
BLOCK
  5
22FB
330
22F9
100
AcDbEntity
  8
0
100
AcDbBlockBegin
  2
GENAXEH
 70
     0
 10
0.0
 20
0.0
 30
0.0
  3
GENAXEH
  1

  0
LINE
  5
22FA
330
22F9
100
AcDbEntity
  8
0
100
AcDbLine
 10
-1.0
 20
0.0
 30
0.0
 11
1.0
 21
0.0
 31
0.0
  0
ENDBLK
  5
22FC
330
22F9
100
AcDbEntity
  8
0
100
AcDbBlockEnd
  0
BLOCK
  5
2E9F
330
2E93
100
AcDbEntity
  8
0
100
AcDbBlockBegin
  2
*D2
 70
     1
 10
0.0
 20
0.0
 30
0.0
  3
*D2
  1

  0
LINE
  5
3AB9
330
2E93
100
AcDbEntity
  8
DIM
100
AcDbLine
 10
126.3994156332907
 20
190.4759256662856
 30
0.0
 11
126.3994156332907
 21
196.242567777861
 31
0.0
  0
LINE
  5
3ABA
330
2E93
100
AcDbEntity
  8
DIM
100
AcDbLine
 10
130.3994156332907
 20
190.4759256662849
 30
0.0
 11
130.3994156332907
 21
196.242567777861
 31
0.0
  0
LINE
  5
3ABB
330
2E93
100
AcDbEntity
  8
DIM
100
AcDbLine
 10
124.3994156332907
 20
194.742567777861
 30
0.0
 11
122.3994156332907
 21
194.742567777861
 31
0.0
  0
LINE
  5
3ABC
330
2E93
100
AcDbEntity
  8
DIM
100
AcDbLine
 10
132.3994156332907
 20
194.742567777861
 30
0.0
 11
134.3994156332907
 21
194.742567777861
 31
0.0
  0
LINE
  5
3ABD
330
2E93
100
AcDbEntity
  8
DIM
100
AcDbLine
 10
126.3994156332907
 20
194.742567777861
 30
0.0
 11
130.3994156332907
 21
194.742567777861
 31
0.0
  0
SOLID
  5
3ABE
330
2E93
100
AcDbEntity
  8
DIM
100
AcDbTrace
 10
124.3994156332907
 20
195.0759011111944
 30
0.0
 11
124.3994156332907
 21
194.4092344445277
 31
0.0
 12
126.3994156332907
 22
194.742567777861
 32
0.0
 13
126.3994156332907
 23
194.742567777861
 33
0.0
  0
SOLID
  5
3ABF
330
2E93
100
AcDbEntity
  8
DIM
100
AcDbTrace
 10
132.3994156332907
 20
195.0759011111944
 30
0.0
 11
132.3994156332907
 21
194.4092344445277
 31
0.0
 12
130.3994156332907
 22
194.742567777861
 32
0.0
 13
130.3994156332907
 23
194.742567777861
 33
0.0
  0
MTEXT
  5
3AC0
330
2E93
100
AcDbEntity
  8
DIM
100
AcDbMText
 10
128.3994156332907
 20
196.742567777861
 30
0.0
 40
2.0
 41
0.0
 71
     5
 72
     1
  1
\A1;4
  7
dayus
 73
     1
 44
1.0
1001
ACAD
1000
MTEXTBEGIN
1070
    73
1070
     1
1070
    44
1040
1.0
1070
    74
1070
     0
1000
MTEXTEND
  0
POINT
  5
3AC1
330
2E93
100
AcDbEntity
  8
Defpoints
 62
     0
100
AcDbPoint
 10
126.3994156332907
 20
188.9759256662856
 30
0.0
  0
POINT
  5
3AC2
330
2E93
100
AcDbEntity
  8
Defpoints
 62
     0
100
AcDbPoint
 10
130.3994156332907
 20
188.9759256662849
 30
0.0
  0
POINT
  5
3AC3
330
2E93
100
AcDbEntity
  8
Defpoints
 62
     0
100
AcDbPoint
 10
130.3994156332907
 20
194.742567777861
 30
0.0
  0
ENDBLK
  5
2EA0
330
2E93
100
AcDbEntity
  8
0
100
AcDbBlockEnd
  0
BLOCK
  5
2EAB
330
2EA1
100
AcDbEntity
  8
0
100
AcDbBlockBegin
  2
*D3
 70
     1
 10
0.0
 20
0.0
 30
0.0
  3
*D3
  1

  0
LINE
  5
3AC4
330
2EA1
100
AcDbEntity
  8
DIM
100
AcDbLine
 10
123.3994156332907
 20
189.1974425266675
 30
0.0
 11
123.3994156332907
 21
200.7098671454807
 31
0.0
  0
LINE
  5
3AC5
330
2EA1
100
AcDbEntity
  8
DIM
100
AcDbLine
 10
133.3994156332907
 20
188.6974425266675
 30
0.0
 11
133.3994156332907
 21
200.7098671454807
 31
0.0
  0
LINE
  5
3AC6
330
2EA1
100
AcDbEntity
  8
DIM
100
AcDbLine
 10
125.3994156332907
 20
199.2098671454806
 30
0.0
 11
131.3994156332907
 21
199.2098671454806
 31
0.0
  0
SOLID
  5
3AC7
330
2EA1
100
AcDbEntity
  8
DIM
100
AcDbTrace
 10
125.3994156332907
 20
199.543200478814
 30
0.0
 11
125.3994156332907
 21
198.8765338121473
 31
0.0
 12
123.3994156332907
 22
199.2098671454806
 32
0.0
 13
123.3994156332907
 23
199.2098671454806
 33
0.0
  0
SOLID
  5
3AC8
330
2EA1
100
AcDbEntity
  8
DIM
100
AcDbTrace
 10
131.3994156332907
 20
199.543200478814
 30
0.0
 11
131.3994156332907
 21
198.8765338121473
 31
0.0
 12
133.3994156332907
 22
199.2098671454806
 32
0.0
 13
133.3994156332907
 23
199.2098671454806
 33
0.0
  0
MTEXT
  5
3AC9
330
2EA1
100
AcDbEntity
  8
DIM
100
AcDbMText
 10
128.3994156332907
 20
201.2098671454807
 30
0.0
 40
2.0
 41
0.0
 71
     5
 72
     1
  1
\A1;10
  7
dayus
 73
     1
 44
1.0
1001
ACAD
1000
MTEXTBEGIN
1070
    73
1070
     1
1070
    44
1040
1.0
1070
    74
1070
     0
1000
MTEXTEND
  0
POINT
  5
3ACA
330
2EA1
100
AcDbEntity
  8
Defpoints
 62
     0
100
AcDbPoint
 10
123.3994156332907
 20
187.6974425266675
 30
0.0
  0
POINT
  5
3ACB
330
2EA1
100
AcDbEntity
  8
Defpoints
 62
     0
100
AcDbPoint
 10
133.3994156332907
 20
187.1974425266675
 30
0.0
  0
POINT
  5
3ACC
330
2EA1
100
AcDbEntity
  8
Defpoints
 62
     0
100
AcDbPoint
 10
133.3994156332907
 20
199.2098671454806
 30
0.0
  0
ENDBLK
  5
2EAC
330
2EA1
100
AcDbEntity
  8
0
100
AcDbBlockEnd
  0
BLOCK
  5
2EB7
330
2EAD
100
AcDbEntity
  8
0
100
AcDbBlockBegin
  2
*D4
 70
     1
 10
0.0
 20
0.0
 30
0.0
  3
*D4
  1

  0
LINE
  5
3ACD
330
2EAD
100
AcDbEntity
  8
DIM
100
AcDbLine
 10
121.3994156332907
 20
189.1974425266675
 30
0.0
 11
121.3994156332907
 21
205.6242095504882
 31
0.0
  0
LINE
  5
3ACE
330
2EAD
100
AcDbEntity
  8
DIM
100
AcDbLine
 10
133.3994156332907
 20
188.6974425266675
 30
0.0
 11
133.3994156332907
 21
205.6242095504882
 31
0.0
  0
LINE
  5
3ACF
330
2EAD
100
AcDbEntity
  8
DIM
100
AcDbLine
 10
123.3994156332907
 20
204.1242095504883
 30
0.0
 11
131.3994156332907
 21
204.1242095504883
 31
0.0
  0
SOLID
  5
3AD0
330
2EAD
100
AcDbEntity
  8
DIM
100
AcDbTrace
 10
123.3994156332907
 20
204.4575428838216
 30
0.0
 11
123.3994156332907
 21
203.7908762171549
 31
0.0
 12
121.3994156332907
 22
204.1242095504883
 32
0.0
 13
121.3994156332907
 23
204.1242095504883
 33
0.0
  0
SOLID
  5
3AD1
330
2EAD
100
AcDbEntity
  8
DIM
100
AcDbTrace
 10
131.3994156332907
 20
204.4575428838216
 30
0.0
 11
131.3994156332907
 21
203.7908762171549
 31
0.0
 12
133.3994156332907
 22
204.1242095504883
 32
0.0
 13
133.3994156332907
 23
204.1242095504883
 33
0.0
  0
MTEXT
  5
3AD2
330
2EAD
100
AcDbEntity
  8
DIM
100
AcDbMText
 10
127.3994156332907
 20
206.1242095504883
 30
0.0
 40
2.0
 41
0.0
 71
     5
 72
     1
  1
\A1;12
  7
dayus
 73
     1
 44
1.0
1001
ACAD
1000
MTEXTBEGIN
1070
    73
1070
     1
1070
    44
1040
1.0
1070
    74
1070
     0
1000
MTEXTEND
  0
POINT
  5
3AD3
330
2EAD
100
AcDbEntity
  8
Defpoints
 62
     0
100
AcDbPoint
 10
121.3994156332907
 20
187.6974425266675
 30
0.0
  0
POINT
  5
3AD4
330
2EAD
100
AcDbEntity
  8
Defpoints
 62
     0
100
AcDbPoint
 10
133.3994156332907
 20
187.1974425266675
 30
0.0
  0
POINT
  5
3AD5
330
2EAD
100
AcDbEntity
  8
Defpoints
 62
     0
100
AcDbPoint
 10
133.3994156332907
 20
204.1242095504883
 30
0.0
  0
ENDBLK
  5
2EB8
330
2EAD
100
AcDbEntity
  8
0
100
AcDbBlockEnd
  0
BLOCK
  5
2EC3
330
2EB9
100
AcDbEntity
  8
0
100
AcDbBlockBegin
  2
*D5
 70
     1
 10
0.0
 20
0.0
 30
0.0
  3
*D5
  1

  0
LINE
  5
3AD6
330
2EB9
100
AcDbEntity
  8
DIM
100
AcDbLine
 10
115.8994156332907
 20
201.1974425266675
 30
0.0
 11
115.8994156332907
 21
215.8904349420809
 31
0.0
  0
LINE
  5
3AD7
330
2EB9
100
AcDbEntity
  8
DIM
100
AcDbLine
 10
133.3994156332907
 20
188.6974425266675
 30
0.0
 11
133.3994156332907
 21
215.8904349420809
 31
0.0
  0
LINE
  5
3AD8
330
2EB9
100
AcDbEntity
  8
DIM
100
AcDbLine
 10
117.8994156332907
 20
214.3904349420809
 30
0.0
 11
131.3994156332907
 21
214.3904349420809
 31
0.0
  0
SOLID
  5
3AD9
330
2EB9
100
AcDbEntity
  8
DIM
100
AcDbTrace
 10
117.8994156332907
 20
214.7237682754143
 30
0.0
 11
117.8994156332907
 21
214.0571016087476
 31
0.0
 12
115.8994156332907
 22
214.3904349420809
 32
0.0
 13
115.8994156332907
 23
214.3904349420809
 33
0.0
  0
SOLID
  5
3ADA
330
2EB9
100
AcDbEntity
  8
DIM
100
AcDbTrace
 10
131.3994156332907
 20
214.7237682754143
 30
0.0
 11
131.3994156332907
 21
214.0571016087476
 31
0.0
 12
133.3994156332907
 22
214.3904349420809
 32
0.0
 13
133.3994156332907
 23
214.3904349420809
 33
0.0
  0
MTEXT
  5
3ADB
330
2EB9
100
AcDbEntity
  8
DIM
100
AcDbMText
 10
124.6494156332907
 20
216.3904349420809
 30
0.0
 40
2.0
 41
0.0
 71
     5
 72
     1
  1
\A1;17.5
  7
dayus
 73
     1
 44
1.0
1001
ACAD
1000
MTEXTBEGIN
1070
    73
1070
     1
1070
    44
1040
1.0
1070
    74
1070
     0
1000
MTEXTEND
  0
POINT
  5
3ADC
330
2EB9
100
AcDbEntity
  8
Defpoints
 62
     0
100
AcDbPoint
 10
115.8994156332907
 20
199.6974425266675
 30
0.0
  0
POINT
  5
3ADD
330
2EB9
100
AcDbEntity
  8
Defpoints
 62
     0
100
AcDbPoint
 10
133.3994156332907
 20
187.1974425266675
 30
0.0
  0
POINT
  5
3ADE
330
2EB9
100
AcDbEntity
  8
Defpoints
 62
     0
100
AcDbPoint
 10
133.3994156332907
 20
214.3904349420809
 30
0.0
  0
ENDBLK
  5
2EC4
330
2EB9
100
AcDbEntity
  8
0
100
AcDbBlockEnd
  0
BLOCK
  5
2ECF
330
2EC5
100
AcDbEntity
  8
0
100
AcDbBlockBegin
  2
*D6
 70
     1
 10
0.0
 20
0.0
 30
0.0
  3
*D6
  1

  0
LINE
  5
3ADF
330
2EC5
100
AcDbEntity
  8
DIM
100
AcDbLine
 10
92.39941563329074
 20
201.1974425266675
 30
0.0
 11
92.39941563329074
 21
205.6242095504882
 31
0.0
  0
LINE
  5
3AE0
330
2EC5
100
AcDbEntity
  8
DIM
100
AcDbLine
 10
99.39941563329075
 20
196.2363314155564
 30
0.0
 11
99.39941563329075
 21
205.6242095504882
 31
0.0
  0
LINE
  5
3AE1
330
2EC5
100
AcDbEntity
  8
DIM
100
AcDbLine
 10
94.39941563329075
 20
204.1242095504883
 30
0.0
 11
97.39941563329075
 21
204.1242095504883
 31
0.0
  0
SOLID
  5
3AE2
330
2EC5
100
AcDbEntity
  8
DIM
100
AcDbTrace
 10
94.39941563329075
 20
204.4575428838216
 30
0.0
 11
94.39941563329075
 21
203.7908762171549
 31
0.0
 12
92.39941563329074
 22
204.1242095504883
 32
0.0
 13
92.39941563329074
 23
204.1242095504883
 33
0.0
  0
SOLID
  5
3AE3
330
2EC5
100
AcDbEntity
  8
DIM
100
AcDbTrace
 10
97.39941563329075
 20
204.4575428838216
 30
0.0
 11
97.39941563329075
 21
203.7908762171549
 31
0.0
 12
99.39941563329075
 22
204.1242095504883
 32
0.0
 13
99.39941563329075
 23
204.1242095504883
 33
0.0
  0
MTEXT
  5
3AE4
330
2EC5
100
AcDbEntity
  8
DIM
100
AcDbMText
 10
95.89941563329075
 20
206.1242095504883
 30
0.0
 40
2.0
 41
0.0
 71
     5
 72
     1
  1
\A1;7
  7
dayus
 73
     1
 44
1.0
1001
ACAD
1000
MTEXTBEGIN
1070
    73
1070
     1
1070
    44
1040
1.0
1070
    74
1070
     0
1000
MTEXTEND
  0
POINT
  5
3AE5
330
2EC5
100
AcDbEntity
  8
Defpoints
 62
     0
100
AcDbPoint
 10
92.39941563329074
 20
199.6974425266675
 30
0.0
  0
POINT
  5
3AE6
330
2EC5
100
AcDbEntity
  8
Defpoints
 62
     0
100
AcDbPoint
 10
99.39941563329075
 20
194.7363314155564
 30
0.0
  0
POINT
  5
3AE7
330
2EC5
100
AcDbEntity
  8
Defpoints
 62
     0
100
AcDbPoint
 10
99.39941563329075
 20
204.1242095504883
 30
0.0
  0
ENDBLK
  5
2ED0
330
2EC5
100
AcDbEntity
  8
0
100
AcDbBlockEnd
  0
BLOCK
  5
2EDB
330
2ED1
100
AcDbEntity
  8
0
100
AcDbBlockBegin
  2
*D7
 70
     1
 10
0.0
 20
0.0
 30
0.0
  3
*D7
  1

  0
LINE
  5
3AE8
330
2ED1
100
AcDbEntity
  8
DIM
100
AcDbLine
 10
108.8994156332907
 20
196.2363314155564
 30
0.0
 11
108.8994156332907
 21
205.6242095504882
 31
0.0
  0
LINE
  5
3AE9
330
2ED1
100
AcDbEntity
  8
DIM
100
AcDbLine
 10
115.8994156332907
 20
201.1974425266675
 30
0.0
 11
115.8994156332907
 21
205.6242095504882
 31
0.0
  0
LINE
  5
3AEA
330
2ED1
100
AcDbEntity
  8
DIM
100
AcDbLine
 10
110.8994156332907
 20
204.1242095504883
 30
0.0
 11
113.8994156332907
 21
204.1242095504883
 31
0.0
  0
SOLID
  5
3AEB
330
2ED1
100
AcDbEntity
  8
DIM
100
AcDbTrace
 10
110.8994156332907
 20
204.4575428838216
 30
0.0
 11
110.8994156332907
 21
203.7908762171549
 31
0.0
 12
108.8994156332907
 22
204.1242095504883
 32
0.0
 13
108.8994156332907
 23
204.1242095504883
 33
0.0
  0
SOLID
  5
3AEC
330
2ED1
100
AcDbEntity
  8
DIM
100
AcDbTrace
 10
113.8994156332907
 20
204.4575428838216
 30
0.0
 11
113.8994156332907
 21
203.7908762171549
 31
0.0
 12
115.8994156332907
 22
204.1242095504883
 32
0.0
 13
115.8994156332907
 23
204.1242095504883
 33
0.0
  0
MTEXT
  5
3AED
330
2ED1
100
AcDbEntity
  8
DIM
100
AcDbMText
 10
112.3994156332907
 20
206.1242095504883
 30
0.0
 40
2.0
 41
0.0
 71
     5
 72
     1
  1
\A1;7
  7
dayus
 73
     1
 44
1.0
1001
ACAD
1000
MTEXTBEGIN
1070
    73
1070
     1
1070
    44
1040
1.0
1070
    74
1070
     0
1000
MTEXTEND
  0
POINT
  5
3AEE
330
2ED1
100
AcDbEntity
  8
Defpoints
 62
     0
100
AcDbPoint
 10
108.8994156332907
 20
194.7363314155564
 30
0.0
  0
POINT
  5
3AEF
330
2ED1
100
AcDbEntity
  8
Defpoints
 62
     0
100
AcDbPoint
 10
115.8994156332907
 20
199.6974425266675
 30
0.0
  0
POINT
  5
3AF0
330
2ED1
100
AcDbEntity
  8
Defpoints
 62
     0
100
AcDbPoint
 10
115.8994156332907
 20
204.1242095504883
 30
0.0
  0
ENDBLK
  5
2EDC
330
2ED1
100
AcDbEntity
  8
0
100
AcDbBlockEnd
  0
BLOCK
  5
2EE9
330
2EDD
100
AcDbEntity
  8
0
100
AcDbBlockBegin
  2
*D8
 70
     1
 10
0.0
 20
0.0
 30
0.0
  3
*D8
  1

  0
LINE
  5
3AF1
330
2EDD
100
AcDbEntity
  8
DIM
100
AcDbLine
 10
115.8994156332907
 20
201.1974425266675
 30
0.0
 11
115.8994156332907
 21
210.5211061299824
 31
0.0
  0
LINE
  5
3AF2
330
2EDD
100
AcDbEntity
  8
DIM
100
AcDbLine
 10
117.3994156332909
 20
191.8974425266675
 30
0.0
 11
117.3994156332909
 21
210.5211061299824
 31
0.0
  0
LINE
  5
3AF3
330
2EDD
100
AcDbEntity
  8
DIM
100
AcDbLine
 10
113.8994156332907
 20
209.0211061299824
 30
0.0
 11
111.8994156332907
 21
209.0211061299824
 31
0.0
  0
LINE
  5
3AF4
330
2EDD
100
AcDbEntity
  8
DIM
100
AcDbLine
 10
119.3994156332909
 20
209.0211061299824
 30
0.0
 11
127.2089394428148
 21
209.0211061299824
 31
0.0
  0
LINE
  5
3AF5
330
2EDD
100
AcDbEntity
  8
DIM
100
AcDbLine
 10
115.8994156332907
 20
209.0211061299824
 30
0.0
 11
117.3994156332909
 21
209.0211061299824
 31
0.0
  0
SOLID
  5
3AF6
330
2EDD
100
AcDbEntity
  8
DIM
100
AcDbTrace
 10
113.8994156332907
 20
209.3544394633158
 30
0.0
 11
113.8994156332907
 21
208.6877727966491
 31
0.0
 12
115.8994156332907
 22
209.0211061299824
 32
0.0
 13
115.8994156332907
 23
209.0211061299824
 33
0.0
  0
SOLID
  5
3AF7
330
2EDD
100
AcDbEntity
  8
DIM
100
AcDbTrace
 10
119.3994156332909
 20
209.3544394633158
 30
0.0
 11
119.3994156332909
 21
208.6877727966491
 31
0.0
 12
117.3994156332909
 22
209.0211061299824
 32
0.0
 13
117.3994156332909
 23
209.0211061299824
 33
0.0
  0
MTEXT
  5
3AF8
330
2EDD
100
AcDbEntity
  8
DIM
100
AcDbMText
 10
124.3041775380528
 20
211.0211061299824
 30
0.0
 40
2.0
 41
0.0
 71
     5
 72
     1
  1
\A1;1.5
  7
dayus
 73
     1
 44
1.0
1001
ACAD
1000
MTEXTBEGIN
1070
    73
1070
     1
1070
    44
1040
1.0
1070
    74
1070
     0
1000
MTEXTEND
  0
POINT
  5
3AF9
330
2EDD
100
AcDbEntity
  8
Defpoints
 62
     0
100
AcDbPoint
 10
115.8994156332907
 20
199.6974425266675
 30
0.0
  0
POINT
  5
3AFA
330
2EDD
100
AcDbEntity
  8
Defpoints
 62
     0
100
AcDbPoint
 10
117.3994156332909
 20
190.3974425266675
 30
0.0
  0
POINT
  5
3AFB
330
2EDD
100
AcDbEntity
  8
Defpoints
 62
     0
100
AcDbPoint
 10
117.3994156332909
 20
209.0211061299824
 30
0.0
  0
ENDBLK
  5
2EEA
330
2EDD
100
AcDbEntity
  8
0
100
AcDbBlockEnd
  0
BLOCK
  5
2EF5
330
2EEB
100
AcDbEntity
  8
0
100
AcDbBlockBegin
  2
*D9
 70
     1
 10
0.0
 20
0.0
 30
0.0
  3
*D9
  1

  0
LINE
  5
3D1E
330
2EEB
100
AcDbEntity
  8
DIM
100
AcDbLine
 10
92.39941563329074
 20
201.1974425266675
 30
0.0
 11
92.39941563329074
 21
215.8904349420809
 31
0.0
  0
LINE
  5
3D1F
330
2EEB
100
AcDbEntity
  8
DIM
100
AcDbLine
 10
115.8994156332907
 20
201.1974425266675
 30
0.0
 11
115.8994156332907
 21
215.8904349420809
 31
0.0
  0
LINE
  5
3D20
330
2EEB
100
AcDbEntity
  8
DIM
100
AcDbLine
 10
94.39941563329075
 20
214.3904349420809
 30
0.0
 11
113.8994156332907
 21
214.3904349420809
 31
0.0
  0
SOLID
  5
3D21
330
2EEB
100
AcDbEntity
  8
DIM
100
AcDbTrace
 10
94.39941563329075
 20
214.7237682754143
 30
0.0
 11
94.39941563329075
 21
214.0571016087476
 31
0.0
 12
92.39941563329074
 22
214.3904349420809
 32
0.0
 13
92.39941563329074
 23
214.3904349420809
 33
0.0
  0
SOLID
  5
3D22
330
2EEB
100
AcDbEntity
  8
DIM
100
AcDbTrace
 10
113.8994156332907
 20
214.7237682754143
 30
0.0
 11
113.8994156332907
 21
214.0571016087476
 31
0.0
 12
115.8994156332907
 22
214.3904349420809
 32
0.0
 13
115.8994156332907
 23
214.3904349420809
 33
0.0
  0
MTEXT
  5
3D23
330
2EEB
100
AcDbEntity
  8
DIM
100
AcDbMText
 10
104.1494156332907
 20
216.3904349420809
 30
0.0
 40
2.0
 41
0.0
 71
     5
 72
     1
  1
\A1;18.5+stroke=S
  7
dayus
 73
     1
 44
1.0
1001
ACAD
1000
MTEXTBEGIN
1070
    73
1070
     1
1070
    44
1040
1.0
1070
    74
1070
     0
1000
MTEXTEND
  0
POINT
  5
3D24
330
2EEB
100
AcDbEntity
  8
Defpoints
 62
     0
100
AcDbPoint
 10
92.39941563329074
 20
199.6974425266675
 30
0.0
  0
POINT
  5
3D25
330
2EEB
100
AcDbEntity
  8
Defpoints
 62
     0
100
AcDbPoint
 10
115.8994156332907
 20
199.6974425266675
 30
0.0
  0
POINT
  5
3D26
330
2EEB
100
AcDbEntity
  8
Defpoints
 62
     0
100
AcDbPoint
 10
115.8994156332907
 20
214.3904349420809
 30
0.0
  0
ENDBLK
  5
2EF6
330
2EEB
100
AcDbEntity
  8
0
100
AcDbBlockEnd
  0
BLOCK
  5
2F01
330
2EF7
100
AcDbEntity
  8
0
100
AcDbBlockBegin
  2
*D10
 70
     1
 10
0.0
 20
0.0
 30
0.0
  3
*D10
  1

  0
LINE
  5
3D32
330
2EF7
100
AcDbEntity
  8
DIM
100
AcDbLine
 10
92.39941563329063
 20
201.1974425266675
 30
0.0
 11
92.39941563329063
 21
221.8163162106114
 31
0.0
  0
LINE
  5
3D33
330
2EF7
100
AcDbEntity
  8
DIM
100
AcDbLine
 10
133.3994156332907
 20
188.6974425266675
 30
0.0
 11
133.3994156332907
 21
221.8163162106114
 31
0.0
  0
LINE
  5
3D34
330
2EF7
100
AcDbEntity
  8
DIM
100
AcDbLine
 10
94.39941563329062
 20
220.3163162106114
 30
0.0
 11
131.3994156332907
 21
220.3163162106114
 31
0.0
  0
SOLID
  5
3D35
330
2EF7
100
AcDbEntity
  8
DIM
100
AcDbTrace
 10
94.39941563329062
 20
220.6496495439448
 30
0.0
 11
94.39941563329062
 21
219.9829828772781
 31
0.0
 12
92.39941563329063
 22
220.3163162106114
 32
0.0
 13
92.39941563329063
 23
220.3163162106114
 33
0.0
  0
SOLID
  5
3D36
330
2EF7
100
AcDbEntity
  8
DIM
100
AcDbTrace
 10
131.3994156332907
 20
220.6496495439448
 30
0.0
 11
131.3994156332907
 21
219.9829828772781
 31
0.0
 12
133.3994156332907
 22
220.3163162106114
 32
0.0
 13
133.3994156332907
 23
220.3163162106114
 33
0.0
  0
MTEXT
  5
3D37
330
2EF7
100
AcDbEntity
  8
DIM
100
AcDbMText
 10
112.8994156332907
 20
222.3163162106114
 30
0.0
 40
2.0
 41
0.0
 71
     5
 72
     1
  1
\A1;36+stroke=ZZ
  7
dayus
 73
     1
 44
1.0
1001
ACAD
1000
MTEXTBEGIN
1070
    73
1070
     1
1070
    44
1040
1.0
1070
    74
1070
     0
1000
MTEXTEND
  0
POINT
  5
3D38
330
2EF7
100
AcDbEntity
  8
Defpoints
 62
     0
100
AcDbPoint
 10
92.39941563329063
 20
199.6974425266674
 30
0.0
  0
POINT
  5
3D39
330
2EF7
100
AcDbEntity
  8
Defpoints
 62
     0
100
AcDbPoint
 10
133.3994156332907
 20
187.1974425266675
 30
0.0
  0
POINT
  5
3D3A
330
2EF7
100
AcDbEntity
  8
Defpoints
 62
     0
100
AcDbPoint
 10
133.3994156332907
 20
220.3163162106114
 30
0.0
  0
ENDBLK
  5
2F02
330
2EF7
100
AcDbEntity
  8
0
100
AcDbBlockEnd
  0
BLOCK
  5
2F0F
330
2F03
100
AcDbEntity
  8
0
100
AcDbBlockBegin
  2
*D11
 70
     1
 10
0.0
 20
0.0
 30
0.0
  3
*D11
  1

  0
LINE
  5
3B0E
330
2F03
100
AcDbEntity
  8
DIM
100
AcDbLine
 10
119.3994156332907
 20
188.1974425266675
 30
0.0
 11
143.3877739789591
 21
188.1974425266675
 31
0.0
  0
LINE
  5
3B0F
330
2F03
100
AcDbEntity
  8
DIM
100
AcDbLine
 10
119.3994156332907
 20
182.1974425266675
 30
0.0
 11
143.3877739789591
 21
182.1974425266675
 31
0.0
  0
LINE
  5
3B10
330
2F03
100
AcDbEntity
  8
DIM
100
AcDbLine
 10
141.8877739789591
 20
190.1974425266675
 30
0.0
 11
141.8877739789592
 21
192.1974425266675
 31
0.0
  0
LINE
  5
3B11
330
2F03
100
AcDbEntity
  8
DIM
100
AcDbLine
 10
141.8877739789591
 20
180.1974425266675
 30
0.0
 11
141.8877739789591
 21
178.1974425266675
 31
0.0
  0
LINE
  5
3B12
330
2F03
100
AcDbEntity
  8
DIM
100
AcDbLine
 10
141.8877739789591
 20
188.1974425266675
 30
0.0
 11
141.8877739789591
 21
182.1974425266675
 31
0.0
  0
SOLID
  5
3B13
330
2F03
100
AcDbEntity
  8
DIM
100
AcDbTrace
 10
141.5544406456258
 20
190.1974425266675
 30
0.0
 11
142.2211073122925
 21
190.1974425266675
 31
0.0
 12
141.8877739789591
 22
188.1974425266675
 32
0.0
 13
141.8877739789591
 23
188.1974425266675
 33
0.0
  0
SOLID
  5
3B14
330
2F03
100
AcDbEntity
  8
DIM
100
AcDbTrace
 10
141.5544406456258
 20
180.1974425266675
 30
0.0
 11
142.2211073122925
 21
180.1974425266675
 31
0.0
 12
141.8877739789591
 22
182.1974425266675
 32
0.0
 13
141.8877739789591
 23
182.1974425266675
 33
0.0
  0
MTEXT
  5
3B15
330
2F03
100
AcDbEntity
  8
DIM
100
AcDbMText
 10
139.8877739789591
 20
185.1974425266675
 30
0.0
 40
2.0
 41
0.0
 71
     5
 72
     1
  1
\A1;%%c6
  7
dayus
 11
0.0000000000000001
 21
1.0
 31
0.0
 73
     1
 44
1.0
1001
ACAD
1000
MTEXTBEGIN
1070
    73
1070
     1
1070
    44
1040
1.0
1070
    74
1070
     0
1000
MTEXTEND
  0
POINT
  5
3B16
330
2F03
100
AcDbEntity
  8
Defpoints
 62
     0
100
AcDbPoint
 10
117.8994156332907
 20
188.1974425266675
 30
0.0
  0
POINT
  5
3B17
330
2F03
100
AcDbEntity
  8
Defpoints
 62
     0
100
AcDbPoint
 10
117.8994156332907
 20
182.1974425266675
 30
0.0
  0
POINT
  5
3B18
330
2F03
100
AcDbEntity
  8
Defpoints
 62
     0
100
AcDbPoint
 10
141.8877739789591
 20
182.1974425266675
 30
0.0
  0
ENDBLK
  5
2F10
330
2F03
100
AcDbEntity
  8
0
100
AcDbBlockEnd
  0
BLOCK
  5
2F1C
330
2F11
100
AcDbEntity
  8
0
100
AcDbBlockBegin
  2
*D12
 70
     1
 10
0.0
 20
0.0
 30
0.0
  3
*D12
  1

  0
LINE
  5
3B19
330
2F11
100
AcDbEntity
  8
DIM
100
AcDbLine
 10
118.5994156332908
 20
179.6974425266675
 30
0.0
 11
148.8062386309478
 21
179.6974425266675
 31
0.0
  0
LINE
  5
3B1A
330
2F11
100
AcDbEntity
  8
DIM
100
AcDbLine
 10
118.599415633291
 20
190.6974425266675
 30
0.0
 11
148.8062386309478
 21
190.6974425266675
 31
0.0
  0
LINE
  5
3B1B
330
2F11
100
AcDbEntity
  8
DIM
100
AcDbLine
 10
147.3062386309478
 20
181.6974425266675
 30
0.0
 11
147.3062386309478
 21
188.6974425266675
 31
0.0
  0
LINE
  5
3B1C
330
2F11
100
AcDbEntity
  8
DIM
100
AcDbLine
 10
147.3062386309478
 20
190.6974425266675
 30
0.0
 11
147.3062386309478
 21
205.6402996695247
 31
0.0
  0
SOLID
  5
3B1D
330
2F11
100
AcDbEntity
  8
DIM
100
AcDbTrace
 10
146.9729052976144
 20
181.6974425266675
 30
0.0
 11
147.6395719642811
 21
181.6974425266675
 31
0.0
 12
147.3062386309478
 22
179.6974425266675
 32
0.0
 13
147.3062386309478
 23
179.6974425266675
 33
0.0
  0
SOLID
  5
3B1E
330
2F11
100
AcDbEntity
  8
DIM
100
AcDbTrace
 10
146.9729052976144
 20
188.6974425266675
 30
0.0
 11
147.6395719642811
 21
188.6974425266675
 31
0.0
 12
147.3062386309478
 22
190.6974425266675
 32
0.0
 13
147.3062386309478
 23
190.6974425266675
 33
0.0
  0
MTEXT
  5
3B1F
330
2F11
100
AcDbEntity
  8
DIM
100
AcDbMText
 10
144.6495719642811
 20
199.1688710980961
 30
0.0
 40
2.0
 41
0.0
 71
     5
 72
     1
  1
\A1;%%c11{}{\H0.71x;\C3;\S 0^ -0.05;}
  7
dayus
 11
0.0000000000000001
 21
1.0
 31
0.0
 73
     1
 44
1.0
1001
ACAD
1000
MTEXTBEGIN
1070
    73
1070
     1
1070
    44
1040
1.0
1070
    74
1070
     0
1000
MTEXTEND
  0
POINT
  5
3B20
330
2F11
100
AcDbEntity
  8
Defpoints
 62
     0
100
AcDbPoint
 10
117.0994156332908
 20
179.6974425266675
 30
0.0
  0
POINT
  5
3B21
330
2F11
100
AcDbEntity
  8
Defpoints
 62
     0
100
AcDbPoint
 10
117.099415633291
 20
190.6974425266675
 30
0.0
  0
POINT
  5
3B22
330
2F11
100
AcDbEntity
  8
Defpoints
 62
     0
100
AcDbPoint
 10
147.3062386309478
 20
190.6974425266675
 30
0.0
  0
ENDBLK
  5
2F1D
330
2F11
100
AcDbEntity
  8
0
100
AcDbBlockEnd
  0
BLOCK
  5
2F2A
330
2F1E
100
AcDbEntity
  8
0
100
AcDbBlockBegin
  2
*D13
 70
     1
 10
0.0
 20
0.0
 30
0.0
  3
*D13
  1

  0
LINE
  5
3B23
330
2F1E
100
AcDbEntity
  8
DIM
100
AcDbLine
 10
118.3994156332908
 20
182.0391301314896
 30
0.0
 11
118.3994156332908
 21
172.4012651799732
 31
0.0
  0
LINE
  5
3B24
330
2F1E
100
AcDbEntity
  8
DIM
100
AcDbLine
 10
121.3994156332907
 20
181.1974425266673
 30
0.0
 11
121.3994156332907
 21
172.4012651799732
 31
0.0
  0
LINE
  5
3B25
330
2F1E
100
AcDbEntity
  8
DIM
100
AcDbLine
 10
116.3994156332908
 20
173.9012651799732
 30
0.0
 11
114.3994156332908
 21
173.9012651799732
 31
0.0
  0
LINE
  5
3B26
330
2F1E
100
AcDbEntity
  8
DIM
100
AcDbLine
 10
123.3994156332907
 20
173.9012651799732
 30
0.0
 11
125.3994156332907
 21
173.9012651799732
 31
0.0
  0
LINE
  5
3B27
330
2F1E
100
AcDbEntity
  8
DIM
100
AcDbLine
 10
118.3994156332908
 20
173.9012651799732
 30
0.0
 11
121.3994156332907
 21
173.9012651799732
 31
0.0
  0
SOLID
  5
3B28
330
2F1E
100
AcDbEntity
  8
DIM
100
AcDbTrace
 10
116.3994156332908
 20
174.2345985133065
 30
0.0
 11
116.3994156332908
 21
173.5679318466398
 31
0.0
 12
118.3994156332908
 22
173.9012651799732
 32
0.0
 13
118.3994156332908
 23
173.9012651799732
 33
0.0
  0
SOLID
  5
3B29
330
2F1E
100
AcDbEntity
  8
DIM
100
AcDbTrace
 10
123.3994156332907
 20
174.2345985133065
 30
0.0
 11
123.3994156332907
 21
173.5679318466398
 31
0.0
 12
121.3994156332907
 22
173.9012651799732
 32
0.0
 13
121.3994156332907
 23
173.9012651799732
 33
0.0
  0
MTEXT
  5
3B2A
330
2F1E
100
AcDbEntity
  8
DIM
100
AcDbMText
 10
119.8994156332908
 20
175.9012651799732
 30
0.0
 40
2.0
 41
0.0
 71
     5
 72
     1
  1
\A1;3
  7
dayus
 73
     1
 44
1.0
1001
ACAD
1000
MTEXTBEGIN
1070
    73
1070
     1
1070
    44
1040
1.0
1070
    74
1070
     0
1000
MTEXTEND
  0
POINT
  5
3B2B
330
2F1E
100
AcDbEntity
  8
Defpoints
 62
     0
100
AcDbPoint
 10
118.3994156332908
 20
183.5391301314896
 30
0.0
  0
POINT
  5
3B2C
330
2F1E
100
AcDbEntity
  8
Defpoints
 62
     0
100
AcDbPoint
 10
121.3994156332907
 20
182.6974425266673
 30
0.0
  0
POINT
  5
3B2D
330
2F1E
100
AcDbEntity
  8
Defpoints
 62
     0
100
AcDbPoint
 10
121.3994156332907
 20
173.9012651799732
 30
0.0
  0
ENDBLK
  5
2F2B
330
2F1E
100
AcDbEntity
  8
0
100
AcDbBlockEnd
  0
BLOCK
  5
2F36
330
2F2C
100
AcDbEntity
  8
0
100
AcDbBlockBegin
  2
*D14
 70
     1
 10
0.0
 20
0.0
 30
0.0
  3
*D14
  1

  0
LINE
  5
3B2E
330
2F2C
100
AcDbEntity
  8
DIM
100
AcDbLine
 10
88.94328921211144
 20
185.1974425266675
 30
0.0
 11
81.90617995823691
 21
185.1974425266675
 31
0.0
  0
LINE
  5
3B2F
330
2F2C
100
AcDbEntity
  8
DIM
100
AcDbLine
 10
94.14069044109174
 20
191.6974425266676
 30
0.0
 11
81.90617995823691
 21
191.6974425266676
 31
0.0
  0
LINE
  5
3B30
330
2F2C
100
AcDbEntity
  8
DIM
100
AcDbLine
 10
83.40617995823691
 20
187.1974425266675
 30
0.0
 11
83.40617995823691
 21
189.6974425266676
 31
0.0
  0
SOLID
  5
3B31
330
2F2C
100
AcDbEntity
  8
DIM
100
AcDbTrace
 10
83.07284662490358
 20
187.1974425266675
 30
0.0
 11
83.73951329157025
 21
187.1974425266675
 31
0.0
 12
83.40617995823691
 22
185.1974425266675
 32
0.0
 13
83.40617995823691
 23
185.1974425266675
 33
0.0
  0
SOLID
  5
3B32
330
2F2C
100
AcDbEntity
  8
DIM
100
AcDbTrace
 10
83.07284662490358
 20
189.6974425266676
 30
0.0
 11
83.73951329157025
 21
189.6974425266676
 31
0.0
 12
83.40617995823691
 22
191.6974425266676
 32
0.0
 13
83.40617995823691
 23
191.6974425266676
 33
0.0
  0
MTEXT
  5
3B33
330
2F2C
100
AcDbEntity
  8
DIM
100
AcDbMText
 10
81.40617995823689
 20
188.4474425266676
 30
0.0
 40
2.0
 41
0.0
 71
     5
 72
     1
  1
\A1;6.5
  7
dayus
 11
0.0000000000000001
 21
1.0
 31
0.0
 73
     1
 44
1.0
1001
ACAD
1000
MTEXTBEGIN
1070
    73
1070
     1
1070
    44
1040
1.0
1070
    74
1070
     0
1000
MTEXTEND
  0
POINT
  5
3B34
330
2F2C
100
AcDbEntity
  8
Defpoints
 62
     0
100
AcDbPoint
 10
90.44328921211144
 20
185.1974425266675
 30
0.0
  0
POINT
  5
3B35
330
2F2C
100
AcDbEntity
  8
Defpoints
 62
     0
100
AcDbPoint
 10
95.64069044109174
 20
191.6974425266676
 30
0.0
  0
POINT
  5
3B36
330
2F2C
100
AcDbEntity
  8
Defpoints
 62
     0
100
AcDbPoint
 10
83.40617995823691
 20
191.6974425266676
 30
0.0
  0
ENDBLK
  5
2F37
330
2F2C
100
AcDbEntity
  8
0
100
AcDbBlockEnd
  0
BLOCK
  5
2F44
330
2F38
100
AcDbEntity
  8
0
100
AcDbBlockBegin
  2
*D15
 70
     1
 10
0.0
 20
0.0
 30
0.0
  3
*D15
  1

  0
LINE
  5
3B37
330
2F38
100
AcDbEntity
  8
DIM
100
AcDbLine
 10
184.3770105196234
 20
188.3557549218454
 30
0.0
 11
184.3770105196234
 21
205.6242095504882
 31
0.0
  0
LINE
  5
3B38
330
2F38
100
AcDbEntity
  8
DIM
100
AcDbLine
 10
189.3770105196234
 20
188.355754921845
 30
0.0
 11
189.3770105196234
 21
205.6242095504882
 31
0.0
  0
LINE
  5
3B39
330
2F38
100
AcDbEntity
  8
DIM
100
AcDbLine
 10
182.3770105196234
 20
204.1242095504882
 30
0.0
 11
180.3770105196234
 21
204.1242095504882
 31
0.0
  0
LINE
  5
3B3A
330
2F38
100
AcDbEntity
  8
DIM
100
AcDbLine
 10
191.3770105196234
 20
204.1242095504882
 30
0.0
 11
193.3770105196234
 21
204.1242095504882
 31
0.0
  0
LINE
  5
3B3B
330
2F38
100
AcDbEntity
  8
DIM
100
AcDbLine
 10
184.3770105196234
 20
204.1242095504882
 30
0.0
 11
189.3770105196234
 21
204.1242095504882
 31
0.0
  0
SOLID
  5
3B3C
330
2F38
100
AcDbEntity
  8
DIM
100
AcDbTrace
 10
182.3770105196234
 20
204.4575428838215
 30
0.0
 11
182.3770105196234
 21
203.7908762171548
 31
0.0
 12
184.3770105196234
 22
204.1242095504882
 32
0.0
 13
184.3770105196234
 23
204.1242095504882
 33
0.0
  0
SOLID
  5
3B3D
330
2F38
100
AcDbEntity
  8
DIM
100
AcDbTrace
 10
191.3770105196234
 20
204.4575428838215
 30
0.0
 11
191.3770105196234
 21
203.7908762171548
 31
0.0
 12
189.3770105196234
 22
204.1242095504882
 32
0.0
 13
189.3770105196234
 23
204.1242095504882
 33
0.0
  0
MTEXT
  5
3B3E
330
2F38
100
AcDbEntity
  8
DIM
100
AcDbMText
 10
186.8770105196234
 20
206.1242095504882
 30
0.0
 40
2.0
 41
0.0
 71
     5
 72
     1
  1
\A1;□5
  7
dayus
 73
     1
 44
1.0
1001
ACAD
1000
MTEXTBEGIN
1070
    73
1070
     1
1070
    44
1040
1.0
1070
    74
1070
     0
1000
MTEXTEND
  0
POINT
  5
3B3F
330
2F38
100
AcDbEntity
  8
Defpoints
 62
     0
100
AcDbPoint
 10
184.3770105196234
 20
186.8557549218454
 30
0.0
  0
POINT
  5
3B40
330
2F38
100
AcDbEntity
  8
Defpoints
 62
     0
100
AcDbPoint
 10
189.3770105196234
 20
186.855754921845
 30
0.0
  0
POINT
  5
3B41
330
2F38
100
AcDbEntity
  8
Defpoints
 62
     0
100
AcDbPoint
 10
189.3770105196234
 20
204.1242095504882
 30
0.0
  0
ENDBLK
  5
2F45
330
2F38
100
AcDbEntity
  8
0
100
AcDbBlockEnd
  0
BLOCK
  5
2F50
330
2F46
100
AcDbEntity
  8
0
100
AcDbBlockBegin
  2
*D16
 70
     1
 10
0.0
 20
0.0
 30
0.0
  3
*D16
  1

  0
LINE
  5
3B42
330
2F46
100
AcDbEntity
  8
DIM
100
AcDbLine
 10
176.9770105196234
 20
181.6190084530303
 30
0.0
 11
176.9770105196234
 21
210.5211061299824
 31
0.0
  0
LINE
  5
3B43
330
2F46
100
AcDbEntity
  8
DIM
100
AcDbLine
 10
196.7770105196235
 20
201.4190084530304
 30
0.0
 11
196.7770105196235
 21
210.5211061299824
 31
0.0
  0
LINE
  5
3B44
330
2F46
100
AcDbEntity
  8
DIM
100
AcDbLine
 10
178.9770105196234
 20
209.0211061299824
 30
0.0
 11
194.7770105196235
 21
209.0211061299824
 31
0.0
  0
SOLID
  5
3B45
330
2F46
100
AcDbEntity
  8
DIM
100
AcDbTrace
 10
178.9770105196234
 20
209.3544394633158
 30
0.0
 11
178.9770105196234
 21
208.6877727966491
 31
0.0
 12
176.9770105196234
 22
209.0211061299824
 32
0.0
 13
176.9770105196234
 23
209.0211061299824
 33
0.0
  0
SOLID
  5
3B46
330
2F46
100
AcDbEntity
  8
DIM
100
AcDbTrace
 10
194.7770105196235
 20
209.3544394633158
 30
0.0
 11
194.7770105196235
 21
208.6877727966491
 31
0.0
 12
196.7770105196235
 22
209.0211061299824
 32
0.0
 13
196.7770105196235
 23
209.0211061299824
 33
0.0
  0
MTEXT
  5
3B47
330
2F46
100
AcDbEntity
  8
DIM
100
AcDbMText
 10
186.8770105196234
 20
211.0211061299824
 30
0.0
 40
2.0
 41
0.0
 71
     5
 72
     1
  1
\A1;□19.8
  7
dayus
 73
     1
 44
1.0
1001
ACAD
1000
MTEXTBEGIN
1070
    73
1070
     1
1070
    44
1040
1.0
1070
    74
1070
     0
1000
MTEXTEND
  0
POINT
  5
3B48
330
2F46
100
AcDbEntity
  8
Defpoints
 62
     0
100
AcDbPoint
 10
176.9770105196234
 20
180.1190084530303
 30
0.0
  0
POINT
  5
3B49
330
2F46
100
AcDbEntity
  8
Defpoints
 62
     0
100
AcDbPoint
 10
196.7770105196235
 20
199.9190084530304
 30
0.0
  0
POINT
  5
3B4A
330
2F46
100
AcDbEntity
  8
Defpoints
 62
     0
100
AcDbPoint
 10
196.7770105196235
 20
209.0211061299824
 30
0.0
  0
ENDBLK
  5
2F51
330
2F46
100
AcDbEntity
  8
0
100
AcDbBlockEnd
  0
BLOCK
  5
2F5C
330
2F52
100
AcDbEntity
  8
0
100
AcDbBlockBegin
  2
*D17
 70
     1
 10
0.0
 20
0.0
 30
0.0
  3
*D17
  1

  0
LINE
  5
3B4B
330
2F52
100
AcDbEntity
  8
DIM
100
AcDbLine
 10
172.3770105196227
 20
198.9754716844755
 30
0.0
 11
172.3770105196227
 21
215.8904349420807
 31
0.0
  0
LINE
  5
3B4C
330
2F52
100
AcDbEntity
  8
DIM
100
AcDbLine
 10
201.3770105196237
 20
198.9754716844755
 30
0.0
 11
201.3770105196237
 21
215.8904349420807
 31
0.0
  0
LINE
  5
3B4D
330
2F52
100
AcDbEntity
  8
DIM
100
AcDbLine
 10
174.3770105196227
 20
214.3904349420807
 30
0.0
 11
199.3770105196236
 21
214.3904349420807
 31
0.0
  0
SOLID
  5
3B4E
330
2F52
100
AcDbEntity
  8
DIM
100
AcDbTrace
 10
174.3770105196227
 20
214.7237682754141
 30
0.0
 11
174.3770105196227
 21
214.0571016087474
 31
0.0
 12
172.3770105196227
 22
214.3904349420807
 32
0.0
 13
172.3770105196227
 23
214.3904349420807
 33
0.0
  0
SOLID
  5
3B4F
330
2F52
100
AcDbEntity
  8
DIM
100
AcDbTrace
 10
199.3770105196236
 20
214.7237682754141
 30
0.0
 11
199.3770105196236
 21
214.0571016087474
 31
0.0
 12
201.3770105196237
 22
214.3904349420807
 32
0.0
 13
201.3770105196237
 23
214.3904349420807
 33
0.0
  0
MTEXT
  5
3B50
330
2F52
100
AcDbEntity
  8
DIM
100
AcDbMText
 10
186.8770105196231
 20
216.3904349420807
 30
0.0
 40
2.0
 41
0.0
 71
     5
 72
     1
  1
\A1;□29
  7
dayus
 73
     1
 44
1.0
1001
ACAD
1000
MTEXTBEGIN
1070
    73
1070
     1
1070
    44
1040
1.0
1070
    74
1070
     0
1000
MTEXTEND
  0
POINT
  5
3B51
330
2F52
100
AcDbEntity
  8
Defpoints
 62
     0
100
AcDbPoint
 10
172.3770105196227
 20
197.4754716844755
 30
0.0
  0
POINT
  5
3B52
330
2F52
100
AcDbEntity
  8
Defpoints
 62
     0
100
AcDbPoint
 10
201.3770105196237
 20
197.4754716844755
 30
0.0
  0
POINT
  5
3B53
330
2F52
100
AcDbEntity
  8
Defpoints
 62
     0
100
AcDbPoint
 10
201.3770105196237
 20
214.3904349420807
 30
0.0
  0
ENDBLK
  5
2F5D
330
2F52
100
AcDbEntity
  8
0
100
AcDbBlockEnd
  0
BLOCK
  5
2F68
330
2F5E
100
AcDbEntity
  8
0
100
AcDbBlockBegin
  2
*D18
 70
     1
 10
0.0
 20
0.0
 30
0.0
  3
*D18
  1

  0
LINE
  5
3B54
330
2F5E
100
AcDbEntity
  8
DIM
100
AcDbLine
 10
178.0376706914031
 20
174.2367823548876
 30
0.0
 11
196.0706359676624
 21
156.2038170786283
 31
0.0
  0
LINE
  5
3B55
330
2F5E
100
AcDbEntity
  8
DIM
100
AcDbLine
 10
197.8376706914031
 20
194.0367823548877
 30
0.0
 11
215.8706359676624
 21
176.0038170786284
 31
0.0
  0
LINE
  5
3B56
330
2F5E
100
AcDbEntity
  8
DIM
100
AcDbLine
 10
196.4241893582557
 20
158.6786908127812
 30
0.0
 11
213.3957622335096
 21
175.6502636880351
 31
0.0
  0
SOLID
  5
3B57
330
2F5E
100
AcDbEntity
  8
DIM
100
AcDbTrace
 10
196.1884870978601
 20
158.9143930731768
 30
0.0
 11
196.6598916186512
 21
158.4429885523857
 31
0.0
 12
195.0099757958826
 22
157.2644772504081
 32
0.0
 13
195.0099757958826
 23
157.2644772504081
 33
0.0
  0
SOLID
  5
3B58
330
2F5E
100
AcDbEntity
  8
DIM
100
AcDbTrace
 10
213.160059973114
 20
175.8859659484307
 30
0.0
 11
213.6314644939051
 21
175.4145614276396
 31
0.0
 12
214.8099757958826
 22
177.0644772504082
 32
0.0
 13
214.8099757958826
 23
177.0644772504082
 33
0.0
  0
MTEXT
  5
3B59
330
2F5E
100
AcDbEntity
  8
DIM
100
AcDbMText
 10
203.4957622335095
 20
168.5786908127813
 30
0.0
 40
2.0
 41
0.0
 71
     5
 72
     1
  1
\A1;28
  7
dayus
 11
0.7071067811865466
 21
0.7071067811865487
 31
0.0
 73
     1
 44
1.0
1001
ACAD
1000
MTEXTBEGIN
1070
    73
1070
     1
1070
    44
1040
1.0
1070
    74
1070
     0
1000
MTEXTEND
  0
POINT
  5
3B5A
330
2F5E
100
AcDbEntity
  8
Defpoints
 62
     0
100
AcDbPoint
 10
176.9770105196232
 20
175.2974425266674
 30
0.0
  0
POINT
  5
3B5B
330
2F5E
100
AcDbEntity
  8
Defpoints
 62
     0
100
AcDbPoint
 10
196.7770105196233
 20
195.0974425266675
 30
0.0
  0
POINT
  5
3B5C
330
2F5E
100
AcDbEntity
  8
Defpoints
 62
     0
100
AcDbPoint
 10
214.8099757958826
 20
177.0644772504082
 30
0.0
  0
ENDBLK
  5
2F69
330
2F5E
100
AcDbEntity
  8
0
100
AcDbBlockEnd
  0
BLOCK
  5
2F74
330
2F6A
100
AcDbEntity
  8
0
100
AcDbBlockBegin
  2
*D19
 70
     1
 10
0.0
 20
0.0
 30
0.0
  3
*D19
  1

  0
LINE
  5
3B5D
330
2F6A
100
AcDbEntity
  8
DIM
100
AcDbLine
 10
175.6596415335948
 20
169.6367823548873
 30
0.0
 11
196.828565553729
 21
148.4678583347525
 31
0.0
  0
LINE
  5
3B5E
330
2F6A
100
AcDbEntity
  8
DIM
100
AcDbLine
 10
202.4376706914039
 20
196.4148115126956
 30
0.0
 11
223.6065947115381
 21
175.2458874925608
 31
0.0
  0
LINE
  5
3B5F
330
2F6A
100
AcDbEntity
  8
DIM
100
AcDbLine
 10
197.1821189443224
 20
150.9427320689054
 30
0.0
 11
221.1317209773852
 21
174.8923341019676
 31
0.0
  0
SOLID
  5
3B60
330
2F6A
100
AcDbEntity
  8
DIM
100
AcDbTrace
 10
196.9464166839269
 20
151.1784343293009
 30
0.0
 11
197.4178212047179
 21
150.7070298085099
 31
0.0
 12
195.7679053819493
 22
149.5285185065323
 32
0.0
 13
195.7679053819493
 23
149.5285185065323
 33
0.0
  0
SOLID
  5
3B61
330
2F6A
100
AcDbEntity
  8
DIM
100
AcDbTrace
 10
220.8960187169897
 20
175.1280363623631
 30
0.0
 11
221.3674232377807
 21
174.656631841572
 31
0.0
 12
222.5459345397583
 22
176.3065476643406
 32
0.0
 13
222.5459345397583
 23
176.3065476643406
 33
0.0
  0
MTEXT
  5
3B62
330
2F6A
100
AcDbEntity
  8
DIM
100
AcDbMText
 10
207.7427063984807
 20
164.3317466478096
 30
0.0
 40
2.0
 41
0.0
 71
     5
 72
     1
  1
\A1;38
  7
dayus
 11
0.7071067811865573
 21
0.7071067811865378
 31
0.0
 73
     1
 44
1.0
1001
ACAD
1000
MTEXTBEGIN
1070
    73
1070
     1
1070
    44
1040
1.0
1070
    74
1070
     0
1000
MTEXTEND
  0
POINT
  5
3B63
330
2F6A
100
AcDbEntity
  8
Defpoints
 62
     0
100
AcDbPoint
 10
174.598981361815
 20
170.6974425266672
 30
0.0
  0
POINT
  5
3B64
330
2F6A
100
AcDbEntity
  8
Defpoints
 62
     0
100
AcDbPoint
 10
201.3770105196241
 20
197.4754716844755
 30
0.0
  0
POINT
  5
3B65
330
2F6A
100
AcDbEntity
  8
Defpoints
 62
     0
100
AcDbPoint
 10
222.5459345397583
 20
176.3065476643406
 30
0.0
  0
ENDBLK
  5
2F75
330
2F6A
100
AcDbEntity
  8
0
100
AcDbBlockEnd
  0
BLOCK
  5
2FF3
330
2FE9
100
AcDbEntity
  8
0
100
AcDbBlockBegin
  2
*D20
 70
     1
 10
0.0
 20
0.0
 30
0.0
  3
*D20
  1

  0
LINE
  5
3B66
330
2FE9
100
AcDbEntity
  8
DIM
100
AcDbLine
 10
88.94328921211144
 20
185.1974425266675
 30
0.0
 11
81.90617995823691
 21
185.1974425266675
 31
0.0
  0
LINE
  5
3B67
330
2FE9
100
AcDbEntity
  8
DIM
100
AcDbLine
 10
94.14069044109174
 20
191.6974425266676
 30
0.0
 11
81.90617995823691
 21
191.6974425266676
 31
0.0
  0
LINE
  5
3B68
330
2FE9
100
AcDbEntity
  8
DIM
100
AcDbLine
 10
83.40617995823691
 20
187.1974425266675
 30
0.0
 11
83.40617995823691
 21
189.6974425266676
 31
0.0
  0
SOLID
  5
3B69
330
2FE9
100
AcDbEntity
  8
DIM
100
AcDbTrace
 10
83.07284662490358
 20
187.1974425266675
 30
0.0
 11
83.73951329157025
 21
187.1974425266675
 31
0.0
 12
83.40617995823691
 22
185.1974425266675
 32
0.0
 13
83.40617995823691
 23
185.1974425266675
 33
0.0
  0
SOLID
  5
3B6A
330
2FE9
100
AcDbEntity
  8
DIM
100
AcDbTrace
 10
83.07284662490358
 20
189.6974425266676
 30
0.0
 11
83.73951329157025
 21
189.6974425266676
 31
0.0
 12
83.40617995823691
 22
191.6974425266676
 32
0.0
 13
83.40617995823691
 23
191.6974425266676
 33
0.0
  0
MTEXT
  5
3B6B
330
2FE9
100
AcDbEntity
  8
DIM
100
AcDbMText
 10
81.40617995823689
 20
188.4474425266676
 30
0.0
 40
2.0
 41
0.0
 71
     5
 72
     1
  1
\A1;6.5
  7
dayus
 11
0.0000000000000001
 21
1.0
 31
0.0
 73
     1
 44
1.0
1001
ACAD
1000
MTEXTBEGIN
1070
    73
1070
     1
1070
    44
1040
1.0
1070
    74
1070
     0
1000
MTEXTEND
  0
POINT
  5
3B6C
330
2FE9
100
AcDbEntity
  8
Defpoints
 62
     0
100
AcDbPoint
 10
90.44328921211144
 20
185.1974425266675
 30
0.0
  0
POINT
  5
3B6D
330
2FE9
100
AcDbEntity
  8
Defpoints
 62
     0
100
AcDbPoint
 10
95.64069044109174
 20
191.6974425266676
 30
0.0
  0
POINT
  5
3B6E
330
2FE9
100
AcDbEntity
  8
Defpoints
 62
     0
100
AcDbPoint
 10
83.40617995823691
 20
191.6974425266676
 30
0.0
  0
ENDBLK
  5
2FF4
330
2FE9
100
AcDbEntity
  8
0
100
AcDbBlockEnd
  0
BLOCK
  5
3001
330
2FF5
100
AcDbEntity
  8
0
100
AcDbBlockBegin
  2
*D21
 70
     1
 10
0.0
 20
0.0
 30
0.0
  3
*D21
  1

  0
LINE
  5
3B6F
330
2FF5
100
AcDbEntity
  8
DIM
100
AcDbLine
 10
184.3770105196234
 20
188.3557549218454
 30
0.0
 11
184.3770105196234
 21
205.6242095504882
 31
0.0
  0
LINE
  5
3B70
330
2FF5
100
AcDbEntity
  8
DIM
100
AcDbLine
 10
189.3770105196234
 20
188.355754921845
 30
0.0
 11
189.3770105196234
 21
205.6242095504882
 31
0.0
  0
LINE
  5
3B71
330
2FF5
100
AcDbEntity
  8
DIM
100
AcDbLine
 10
182.3770105196234
 20
204.1242095504882
 30
0.0
 11
180.3770105196234
 21
204.1242095504882
 31
0.0
  0
LINE
  5
3B72
330
2FF5
100
AcDbEntity
  8
DIM
100
AcDbLine
 10
191.3770105196234
 20
204.1242095504882
 30
0.0
 11
193.3770105196234
 21
204.1242095504882
 31
0.0
  0
LINE
  5
3B73
330
2FF5
100
AcDbEntity
  8
DIM
100
AcDbLine
 10
184.3770105196234
 20
204.1242095504882
 30
0.0
 11
189.3770105196234
 21
204.1242095504882
 31
0.0
  0
SOLID
  5
3B74
330
2FF5
100
AcDbEntity
  8
DIM
100
AcDbTrace
 10
182.3770105196234
 20
204.4575428838215
 30
0.0
 11
182.3770105196234
 21
203.7908762171548
 31
0.0
 12
184.3770105196234
 22
204.1242095504882
 32
0.0
 13
184.3770105196234
 23
204.1242095504882
 33
0.0
  0
SOLID
  5
3B75
330
2FF5
100
AcDbEntity
  8
DIM
100
AcDbTrace
 10
191.3770105196234
 20
204.4575428838215
 30
0.0
 11
191.3770105196234
 21
203.7908762171548
 31
0.0
 12
189.3770105196234
 22
204.1242095504882
 32
0.0
 13
189.3770105196234
 23
204.1242095504882
 33
0.0
  0
MTEXT
  5
3B76
330
2FF5
100
AcDbEntity
  8
DIM
100
AcDbMText
 10
186.8770105196234
 20
206.1242095504882
 30
0.0
 40
2.0
 41
0.0
 71
     5
 72
     1
  1
\A1;□5
  7
dayus
 73
     1
 44
1.0
1001
ACAD
1000
MTEXTBEGIN
1070
    73
1070
     1
1070
    44
1040
1.0
1070
    74
1070
     0
1000
MTEXTEND
  0
POINT
  5
3B77
330
2FF5
100
AcDbEntity
  8
Defpoints
 62
     0
100
AcDbPoint
 10
184.3770105196234
 20
186.8557549218454
 30
0.0
  0
POINT
  5
3B78
330
2FF5
100
AcDbEntity
  8
Defpoints
 62
     0
100
AcDbPoint
 10
189.3770105196234
 20
186.855754921845
 30
0.0
  0
POINT
  5
3B79
330
2FF5
100
AcDbEntity
  8
Defpoints
 62
     0
100
AcDbPoint
 10
189.3770105196234
 20
204.1242095504882
 30
0.0
  0
ENDBLK
  5
3002
330
2FF5
100
AcDbEntity
  8
0
100
AcDbBlockEnd
  0
BLOCK
  5
300D
330
3003
100
AcDbEntity
  8
0
100
AcDbBlockBegin
  2
*D22
 70
     1
 10
0.0
 20
0.0
 30
0.0
  3
*D22
  1

  0
LINE
  5
3B7A
330
3003
100
AcDbEntity
  8
DIM
100
AcDbLine
 10
176.9770105196234
 20
181.6190084530303
 30
0.0
 11
176.9770105196234
 21
210.5211061299824
 31
0.0
  0
LINE
  5
3B7B
330
3003
100
AcDbEntity
  8
DIM
100
AcDbLine
 10
196.7770105196235
 20
201.4190084530304
 30
0.0
 11
196.7770105196235
 21
210.5211061299824
 31
0.0
  0
LINE
  5
3B7C
330
3003
100
AcDbEntity
  8
DIM
100
AcDbLine
 10
178.9770105196234
 20
209.0211061299824
 30
0.0
 11
194.7770105196235
 21
209.0211061299824
 31
0.0
  0
SOLID
  5
3B7D
330
3003
100
AcDbEntity
  8
DIM
100
AcDbTrace
 10
178.9770105196234
 20
209.3544394633158
 30
0.0
 11
178.9770105196234
 21
208.6877727966491
 31
0.0
 12
176.9770105196234
 22
209.0211061299824
 32
0.0
 13
176.9770105196234
 23
209.0211061299824
 33
0.0
  0
SOLID
  5
3B7E
330
3003
100
AcDbEntity
  8
DIM
100
AcDbTrace
 10
194.7770105196235
 20
209.3544394633158
 30
0.0
 11
194.7770105196235
 21
208.6877727966491
 31
0.0
 12
196.7770105196235
 22
209.0211061299824
 32
0.0
 13
196.7770105196235
 23
209.0211061299824
 33
0.0
  0
MTEXT
  5
3B7F
330
3003
100
AcDbEntity
  8
DIM
100
AcDbMText
 10
186.8770105196234
 20
211.0211061299824
 30
0.0
 40
2.0
 41
0.0
 71
     5
 72
     1
  1
\A1;□19.8
  7
dayus
 73
     1
 44
1.0
1001
ACAD
1000
MTEXTBEGIN
1070
    73
1070
     1
1070
    44
1040
1.0
1070
    74
1070
     0
1000
MTEXTEND
  0
POINT
  5
3B80
330
3003
100
AcDbEntity
  8
Defpoints
 62
     0
100
AcDbPoint
 10
176.9770105196234
 20
180.1190084530303
 30
0.0
  0
POINT
  5
3B81
330
3003
100
AcDbEntity
  8
Defpoints
 62
     0
100
AcDbPoint
 10
196.7770105196235
 20
199.9190084530304
 30
0.0
  0
POINT
  5
3B82
330
3003
100
AcDbEntity
  8
Defpoints
 62
     0
100
AcDbPoint
 10
196.7770105196235
 20
209.0211061299824
 30
0.0
  0
ENDBLK
  5
300E
330
3003
100
AcDbEntity
  8
0
100
AcDbBlockEnd
  0
BLOCK
  5
3019
330
300F
100
AcDbEntity
  8
0
100
AcDbBlockBegin
  2
*D23
 70
     1
 10
0.0
 20
0.0
 30
0.0
  3
*D23
  1

  0
LINE
  5
3B83
330
300F
100
AcDbEntity
  8
DIM
100
AcDbLine
 10
172.3770105196227
 20
198.9754716844755
 30
0.0
 11
172.3770105196227
 21
215.8904349420807
 31
0.0
  0
LINE
  5
3B84
330
300F
100
AcDbEntity
  8
DIM
100
AcDbLine
 10
201.3770105196237
 20
198.9754716844756
 30
0.0
 11
201.3770105196237
 21
215.8904349420807
 31
0.0
  0
LINE
  5
3B85
330
300F
100
AcDbEntity
  8
DIM
100
AcDbLine
 10
174.3770105196227
 20
214.3904349420807
 30
0.0
 11
199.3770105196236
 21
214.3904349420807
 31
0.0
  0
SOLID
  5
3B86
330
300F
100
AcDbEntity
  8
DIM
100
AcDbTrace
 10
174.3770105196227
 20
214.7237682754141
 30
0.0
 11
174.3770105196227
 21
214.0571016087474
 31
0.0
 12
172.3770105196227
 22
214.3904349420807
 32
0.0
 13
172.3770105196227
 23
214.3904349420807
 33
0.0
  0
SOLID
  5
3B87
330
300F
100
AcDbEntity
  8
DIM
100
AcDbTrace
 10
199.3770105196236
 20
214.7237682754141
 30
0.0
 11
199.3770105196236
 21
214.0571016087474
 31
0.0
 12
201.3770105196237
 22
214.3904349420807
 32
0.0
 13
201.3770105196237
 23
214.3904349420807
 33
0.0
  0
MTEXT
  5
3B88
330
300F
100
AcDbEntity
  8
DIM
100
AcDbMText
 10
186.8770105196231
 20
216.3904349420807
 30
0.0
 40
2.0
 41
0.0
 71
     5
 72
     1
  1
\A1;□29
  7
dayus
 73
     1
 44
1.0
1001
ACAD
1000
MTEXTBEGIN
1070
    73
1070
     1
1070
    44
1040
1.0
1070
    74
1070
     0
1000
MTEXTEND
  0
POINT
  5
3B89
330
300F
100
AcDbEntity
  8
Defpoints
 62
     0
100
AcDbPoint
 10
172.3770105196227
 20
197.4754716844755
 30
0.0
  0
POINT
  5
3B8A
330
300F
100
AcDbEntity
  8
Defpoints
 62
     0
100
AcDbPoint
 10
201.3770105196237
 20
197.4754716844756
 30
0.0
  0
POINT
  5
3B8B
330
300F
100
AcDbEntity
  8
Defpoints
 62
     0
100
AcDbPoint
 10
201.3770105196237
 20
214.3904349420807
 30
0.0
  0
ENDBLK
  5
301A
330
300F
100
AcDbEntity
  8
0
100
AcDbBlockEnd
  0
BLOCK
  5
3025
330
301B
100
AcDbEntity
  8
0
100
AcDbBlockBegin
  2
*D24
 70
     1
 10
0.0
 20
0.0
 30
0.0
  3
*D24
  1

  0
LINE
  5
3B8C
330
301B
100
AcDbEntity
  8
DIM
100
AcDbLine
 10
178.0376706914031
 20
174.2367823548876
 30
0.0
 11
196.0706359676624
 21
156.2038170786283
 31
0.0
  0
LINE
  5
3B8D
330
301B
100
AcDbEntity
  8
DIM
100
AcDbLine
 10
197.8376706914031
 20
194.0367823548877
 30
0.0
 11
215.8706359676624
 21
176.0038170786284
 31
0.0
  0
LINE
  5
3B8E
330
301B
100
AcDbEntity
  8
DIM
100
AcDbLine
 10
196.4241893582557
 20
158.6786908127812
 30
0.0
 11
213.3957622335096
 21
175.6502636880351
 31
0.0
  0
SOLID
  5
3B8F
330
301B
100
AcDbEntity
  8
DIM
100
AcDbTrace
 10
196.1884870978601
 20
158.9143930731768
 30
0.0
 11
196.6598916186512
 21
158.4429885523857
 31
0.0
 12
195.0099757958826
 22
157.2644772504081
 32
0.0
 13
195.0099757958826
 23
157.2644772504081
 33
0.0
  0
SOLID
  5
3B90
330
301B
100
AcDbEntity
  8
DIM
100
AcDbTrace
 10
213.160059973114
 20
175.8859659484307
 30
0.0
 11
213.6314644939051
 21
175.4145614276396
 31
0.0
 12
214.8099757958826
 22
177.0644772504082
 32
0.0
 13
214.8099757958826
 23
177.0644772504082
 33
0.0
  0
MTEXT
  5
3B91
330
301B
100
AcDbEntity
  8
DIM
100
AcDbMText
 10
203.4957622335095
 20
168.5786908127813
 30
0.0
 40
2.0
 41
0.0
 71
     5
 72
     1
  1
\A1;28
  7
dayus
 11
0.7071067811865466
 21
0.7071067811865487
 31
0.0
 73
     1
 44
1.0
1001
ACAD
1000
MTEXTBEGIN
1070
    73
1070
     1
1070
    44
1040
1.0
1070
    74
1070
     0
1000
MTEXTEND
  0
POINT
  5
3B92
330
301B
100
AcDbEntity
  8
Defpoints
 62
     0
100
AcDbPoint
 10
176.9770105196232
 20
175.2974425266674
 30
0.0
  0
POINT
  5
3B93
330
301B
100
AcDbEntity
  8
Defpoints
 62
     0
100
AcDbPoint
 10
196.7770105196233
 20
195.0974425266675
 30
0.0
  0
POINT
  5
3B94
330
301B
100
AcDbEntity
  8
Defpoints
 62
     0
100
AcDbPoint
 10
214.8099757958826
 20
177.0644772504082
 30
0.0
  0
ENDBLK
  5
3026
330
301B
100
AcDbEntity
  8
0
100
AcDbBlockEnd
  0
BLOCK
  5
3031
330
3027
100
AcDbEntity
  8
0
100
AcDbBlockBegin
  2
*D25
 70
     1
 10
0.0
 20
0.0
 30
0.0
  3
*D25
  1

  0
LINE
  5
3B95
330
3027
100
AcDbEntity
  8
DIM
100
AcDbLine
 10
175.6596415335948
 20
169.6367823548873
 30
0.0
 11
196.828565553729
 21
148.4678583347526
 31
0.0
  0
LINE
  5
3B96
330
3027
100
AcDbEntity
  8
DIM
100
AcDbLine
 10
202.4376706914039
 20
196.4148115126957
 30
0.0
 11
223.606594711538
 21
175.245887492561
 31
0.0
  0
LINE
  5
3B97
330
3027
100
AcDbEntity
  8
DIM
100
AcDbLine
 10
197.1821189443223
 20
150.9427320689056
 30
0.0
 11
221.1317209773851
 21
174.8923341019677
 31
0.0
  0
SOLID
  5
3B98
330
3027
100
AcDbEntity
  8
DIM
100
AcDbTrace
 10
196.9464166839268
 20
151.178434329301
 30
0.0
 11
197.4178212047178
 21
150.70702980851
 31
0.0
 12
195.7679053819492
 22
149.5285185065324
 32
0.0
 13
195.7679053819492
 23
149.5285185065324
 33
0.0
  0
SOLID
  5
3B99
330
3027
100
AcDbEntity
  8
DIM
100
AcDbTrace
 10
220.8960187169896
 20
175.1280363623632
 30
0.0
 11
221.3674232377806
 21
174.6566318415722
 31
0.0
 12
222.5459345397582
 22
176.3065476643408
 32
0.0
 13
222.5459345397582
 23
176.3065476643408
 33
0.0
  0
MTEXT
  5
3B9A
330
3027
100
AcDbEntity
  8
DIM
100
AcDbMText
 10
207.7427063984806
 20
164.3317466478097
 30
0.0
 40
2.0
 41
0.0
 71
     5
 72
     1
  1
\A1;38
  7
dayus
 11
0.7071067811865569
 21
0.7071067811865382
 31
0.0
 73
     1
 44
1.0
1001
ACAD
1000
MTEXTBEGIN
1070
    73
1070
     1
1070
    44
1040
1.0
1070
    74
1070
     0
1000
MTEXTEND
  0
POINT
  5
3B9B
330
3027
100
AcDbEntity
  8
Defpoints
 62
     0
100
AcDbPoint
 10
174.598981361815
 20
170.6974425266672
 30
0.0
  0
POINT
  5
3B9C
330
3027
100
AcDbEntity
  8
Defpoints
 62
     0
100
AcDbPoint
 10
201.3770105196241
 20
197.4754716844755
 30
0.0
  0
POINT
  5
3B9D
330
3027
100
AcDbEntity
  8
Defpoints
 62
     0
100
AcDbPoint
 10
222.5459345397582
 20
176.3065476643408
 30
0.0
  0
ENDBLK
  5
3032
330
3027
100
AcDbEntity
  8
0
100
AcDbBlockEnd
  0
BLOCK
  5
36F9
330
36EF
100
AcDbEntity
  8
0
100
AcDbBlockBegin
  2
*D26
 70
     1
 10
0.0
 20
0.0
 30
0.0
  3
*D26
  1

  0
LINE
  5
3BF6
330
36EF
100
AcDbEntity
  8
DIM
100
AcDbLine
 10
88.94328921211144
 20
79.93608146227121
 30
0.0
 11
81.90617995823691
 21
79.93608146227121
 31
0.0
  0
LINE
  5
3BF7
330
36EF
100
AcDbEntity
  8
DIM
100
AcDbLine
 10
94.14069044109174
 20
86.43608146227125
 30
0.0
 11
81.90617995823691
 21
86.43608146227125
 31
0.0
  0
LINE
  5
3BF8
330
36EF
100
AcDbEntity
  8
DIM
100
AcDbLine
 10
83.40617995823691
 20
81.9360814622712
 30
0.0
 11
83.40617995823691
 21
84.43608146227125
 31
0.0
  0
SOLID
  5
3BF9
330
36EF
100
AcDbEntity
  8
DIM
100
AcDbTrace
 10
83.07284662490358
 20
81.9360814622712
 30
0.0
 11
83.73951329157025
 21
81.9360814622712
 31
0.0
 12
83.40617995823691
 22
79.93608146227121
 32
0.0
 13
83.40617995823691
 23
79.93608146227121
 33
0.0
  0
SOLID
  5
3BFA
330
36EF
100
AcDbEntity
  8
DIM
100
AcDbTrace
 10
83.07284662490358
 20
84.43608146227125
 30
0.0
 11
83.73951329157025
 21
84.43608146227125
 31
0.0
 12
83.40617995823691
 22
86.43608146227125
 32
0.0
 13
83.40617995823691
 23
86.43608146227125
 33
0.0
  0
MTEXT
  5
3BFB
330
36EF
100
AcDbEntity
  8
DIM
100
AcDbMText
 10
81.4061799582369
 20
83.18608146227123
 30
0.0
 40
2.0
 41
0.0
 71
     5
 72
     1
  1
\A1;6.5
  7
dayus
 11
0.0000000000000001
 21
1.0
 31
0.0
 73
     1
 44
1.0
1001
ACAD
1000
MTEXTBEGIN
1070
    73
1070
     1
1070
    44
1040
1.0
1070
    74
1070
     0
1000
MTEXTEND
  0
POINT
  5
3BFC
330
36EF
100
AcDbEntity
  8
Defpoints
 62
     0
100
AcDbPoint
 10
90.44328921211144
 20
79.93608146227121
 30
0.0
  0
POINT
  5
3BFD
330
36EF
100
AcDbEntity
  8
Defpoints
 62
     0
100
AcDbPoint
 10
95.64069044109174
 20
86.43608146227125
 30
0.0
  0
POINT
  5
3BFE
330
36EF
100
AcDbEntity
  8
Defpoints
 62
     0
100
AcDbPoint
 10
83.40617995823691
 20
86.43608146227125
 30
0.0
  0
ENDBLK
  5
36FA
330
36EF
100
AcDbEntity
  8
0
100
AcDbBlockEnd
  0
BLOCK
  5
3707
330
36FB
100
AcDbEntity
  8
0
100
AcDbBlockBegin
  2
*D27
 70
     1
 10
0.0
 20
0.0
 30
0.0
  3
*D27
  1

  0
LINE
  5
3BFF
330
36FB
100
AcDbEntity
  8
DIM
100
AcDbLine
 10
184.3770105196234
 20
83.09439385744916
 30
0.0
 11
184.3770105196234
 21
100.3628484860919
 31
0.0
  0
LINE
  5
3C00
330
36FB
100
AcDbEntity
  8
DIM
100
AcDbLine
 10
189.3770105196234
 20
83.09439385744875
 30
0.0
 11
189.3770105196234
 21
100.3628484860919
 31
0.0
  0
LINE
  5
3C01
330
36FB
100
AcDbEntity
  8
DIM
100
AcDbLine
 10
182.3770105196234
 20
98.86284848609193
 30
0.0
 11
180.3770105196234
 21
98.86284848609193
 31
0.0
  0
LINE
  5
3C02
330
36FB
100
AcDbEntity
  8
DIM
100
AcDbLine
 10
191.3770105196234
 20
98.86284848609193
 30
0.0
 11
193.3770105196234
 21
98.86284848609193
 31
0.0
  0
LINE
  5
3C03
330
36FB
100
AcDbEntity
  8
DIM
100
AcDbLine
 10
184.3770105196234
 20
98.86284848609193
 30
0.0
 11
189.3770105196234
 21
98.86284848609193
 31
0.0
  0
SOLID
  5
3C04
330
36FB
100
AcDbEntity
  8
DIM
100
AcDbTrace
 10
182.3770105196234
 20
99.19618181942526
 30
0.0
 11
182.3770105196234
 21
98.52951515275861
 31
0.0
 12
184.3770105196234
 22
98.86284848609193
 32
0.0
 13
184.3770105196234
 23
98.86284848609193
 33
0.0
  0
SOLID
  5
3C05
330
36FB
100
AcDbEntity
  8
DIM
100
AcDbTrace
 10
191.3770105196234
 20
99.19618181942526
 30
0.0
 11
191.3770105196234
 21
98.52951515275861
 31
0.0
 12
189.3770105196234
 22
98.86284848609193
 32
0.0
 13
189.3770105196234
 23
98.86284848609193
 33
0.0
  0
MTEXT
  5
3C06
330
36FB
100
AcDbEntity
  8
DIM
100
AcDbMText
 10
186.8770105196234
 20
100.8628484860919
 30
0.0
 40
2.0
 41
0.0
 71
     5
 72
     1
  1
\A1;5
  7
dayus
 73
     1
 44
1.0
1001
ACAD
1000
MTEXTBEGIN
1070
    73
1070
     1
1070
    44
1040
1.0
1070
    74
1070
     0
1000
MTEXTEND
  0
POINT
  5
3C07
330
36FB
100
AcDbEntity
  8
Defpoints
 62
     0
100
AcDbPoint
 10
184.3770105196234
 20
81.59439385744915
 30
0.0
  0
POINT
  5
3C08
330
36FB
100
AcDbEntity
  8
Defpoints
 62
     0
100
AcDbPoint
 10
189.3770105196234
 20
81.59439385744875
 30
0.0
  0
POINT
  5
3C09
330
36FB
100
AcDbEntity
  8
Defpoints
 62
     0
100
AcDbPoint
 10
189.3770105196234
 20
98.86284848609193
 30
0.0
  0
ENDBLK
  5
3708
330
36FB
100
AcDbEntity
  8
0
100
AcDbBlockEnd
  0
BLOCK
  5
3713
330
3709
100
AcDbEntity
  8
0
100
AcDbBlockBegin
  2
*D28
 70
     1
 10
0.0
 20
0.0
 30
0.0
  3
*D28
  1

  0
LINE
  5
3C0A
330
3709
100
AcDbEntity
  8
DIM
100
AcDbLine
 10
176.9770105196234
 20
76.357647388634
 30
0.0
 11
176.9770105196234
 21
105.2597450655861
 31
0.0
  0
LINE
  5
3C0B
330
3709
100
AcDbEntity
  8
DIM
100
AcDbLine
 10
196.7770105196235
 20
96.15764738863408
 30
0.0
 11
196.7770105196235
 21
105.2597450655861
 31
0.0
  0
LINE
  5
3C0C
330
3709
100
AcDbEntity
  8
DIM
100
AcDbLine
 10
178.9770105196234
 20
103.7597450655861
 30
0.0
 11
194.7770105196235
 21
103.7597450655861
 31
0.0
  0
SOLID
  5
3C0D
330
3709
100
AcDbEntity
  8
DIM
100
AcDbTrace
 10
178.9770105196234
 20
104.0930783989194
 30
0.0
 11
178.9770105196234
 21
103.4264117322528
 31
0.0
 12
176.9770105196234
 22
103.7597450655861
 32
0.0
 13
176.9770105196234
 23
103.7597450655861
 33
0.0
  0
SOLID
  5
3C0E
330
3709
100
AcDbEntity
  8
DIM
100
AcDbTrace
 10
194.7770105196235
 20
104.0930783989194
 30
0.0
 11
194.7770105196235
 21
103.4264117322528
 31
0.0
 12
196.7770105196235
 22
103.7597450655861
 32
0.0
 13
196.7770105196235
 23
103.7597450655861
 33
0.0
  0
MTEXT
  5
3C0F
330
3709
100
AcDbEntity
  8
DIM
100
AcDbMText
 10
186.8770105196234
 20
105.7597450655861
 30
0.0
 40
2.0
 41
0.0
 71
     5
 72
     1
  1
\A1;□19.8
  7
dayus
 73
     1
 44
1.0
1001
ACAD
1000
MTEXTBEGIN
1070
    73
1070
     1
1070
    44
1040
1.0
1070
    74
1070
     0
1000
MTEXTEND
  0
POINT
  5
3C10
330
3709
100
AcDbEntity
  8
Defpoints
 62
     0
100
AcDbPoint
 10
176.9770105196234
 20
74.85764738863401
 30
0.0
  0
POINT
  5
3C11
330
3709
100
AcDbEntity
  8
Defpoints
 62
     0
100
AcDbPoint
 10
196.7770105196235
 20
94.65764738863407
 30
0.0
  0
POINT
  5
3C12
330
3709
100
AcDbEntity
  8
Defpoints
 62
     0
100
AcDbPoint
 10
196.7770105196235
 20
103.7597450655861
 30
0.0
  0
ENDBLK
  5
3714
330
3709
100
AcDbEntity
  8
0
100
AcDbBlockEnd
  0
BLOCK
  5
371F
330
3715
100
AcDbEntity
  8
0
100
AcDbBlockBegin
  2
*D29
 70
     1
 10
0.0
 20
0.0
 30
0.0
  3
*D29
  1

  0
LINE
  5
3C13
330
3715
100
AcDbEntity
  8
DIM
100
AcDbLine
 10
172.3770105196228
 20
93.71411062007945
 30
0.0
 11
172.3770105196228
 21
110.6290738776846
 31
0.0
  0
LINE
  5
3C14
330
3715
100
AcDbEntity
  8
DIM
100
AcDbLine
 10
201.3770105196238
 20
93.71411062007947
 30
0.0
 11
201.3770105196238
 21
110.6290738776846
 31
0.0
  0
LINE
  5
3C15
330
3715
100
AcDbEntity
  8
DIM
100
AcDbLine
 10
174.3770105196228
 20
109.1290738776846
 30
0.0
 11
199.3770105196237
 21
109.1290738776846
 31
0.0
  0
SOLID
  5
3C16
330
3715
100
AcDbEntity
  8
DIM
100
AcDbTrace
 10
174.3770105196228
 20
109.4624072110179
 30
0.0
 11
174.3770105196228
 21
108.7957405443513
 31
0.0
 12
172.3770105196228
 22
109.1290738776846
 32
0.0
 13
172.3770105196228
 23
109.1290738776846
 33
0.0
  0
SOLID
  5
3C17
330
3715
100
AcDbEntity
  8
DIM
100
AcDbTrace
 10
199.3770105196237
 20
109.4624072110179
 30
0.0
 11
199.3770105196237
 21
108.7957405443513
 31
0.0
 12
201.3770105196238
 22
109.1290738776846
 32
0.0
 13
201.3770105196238
 23
109.1290738776846
 33
0.0
  0
MTEXT
  5
3C18
330
3715
100
AcDbEntity
  8
DIM
100
AcDbMText
 10
186.8770105196233
 20
111.1290738776846
 30
0.0
 40
2.0
 41
0.0
 71
     5
 72
     1
  1
\A1;□29
  7
dayus
 73
     1
 44
1.0
1001
ACAD
1000
MTEXTBEGIN
1070
    73
1070
     1
1070
    44
1040
1.0
1070
    74
1070
     0
1000
MTEXTEND
  0
POINT
  5
3C19
330
3715
100
AcDbEntity
  8
Defpoints
 62
     0
100
AcDbPoint
 10
172.3770105196228
 20
92.21411062007945
 30
0.0
  0
POINT
  5
3C1A
330
3715
100
AcDbEntity
  8
Defpoints
 62
     0
100
AcDbPoint
 10
201.3770105196238
 20
92.21411062007947
 30
0.0
  0
POINT
  5
3C1B
330
3715
100
AcDbEntity
  8
Defpoints
 62
     0
100
AcDbPoint
 10
201.3770105196238
 20
109.1290738776846
 30
0.0
  0
ENDBLK
  5
3720
330
3715
100
AcDbEntity
  8
0
100
AcDbBlockEnd
  0
BLOCK
  5
372B
330
3721
100
AcDbEntity
  8
0
100
AcDbBlockBegin
  2
*D30
 70
     1
 10
0.0
 20
0.0
 30
0.0
  3
*D30
  1

  0
LINE
  5
3C1C
330
3721
100
AcDbEntity
  8
DIM
100
AcDbLine
 10
178.037670691403
 20
68.97542129049137
 30
0.0
 11
196.0706359676622
 21
50.94245601423212
 31
0.0
  0
LINE
  5
3C1D
330
3721
100
AcDbEntity
  8
DIM
100
AcDbLine
 10
197.8376706914031
 20
88.77542129049141
 30
0.0
 11
215.8706359676624
 21
70.74245601423218
 31
0.0
  0
LINE
  5
3C1E
330
3721
100
AcDbEntity
  8
DIM
100
AcDbLine
 10
196.4241893582555
 20
53.41732974838503
 30
0.0
 11
213.3957622335094
 21
70.38890262363889
 31
0.0
  0
SOLID
  5
3C1F
330
3721
100
AcDbEntity
  8
DIM
100
AcDbTrace
 10
196.18848709786
 20
53.65303200878054
 30
0.0
 11
196.659891618651
 21
53.18162748798951
 31
0.0
 12
195.0099757958824
 22
52.00311618601194
 32
0.0
 13
195.0099757958824
 23
52.00311618601194
 33
0.0
  0
SOLID
  5
3C20
330
3721
100
AcDbEntity
  8
DIM
100
AcDbTrace
 10
213.1600599731139
 20
70.6246048840344
 30
0.0
 11
213.6314644939049
 21
70.15320036324337
 31
0.0
 12
214.8099757958825
 22
71.80311618601199
 32
0.0
 13
214.8099757958825
 23
71.80311618601199
 33
0.0
  0
MTEXT
  5
3C21
330
3721
100
AcDbEntity
  8
DIM
100
AcDbMText
 10
203.4957622335094
 20
63.31732974838505
 30
0.0
 40
2.0
 41
0.0
 71
     5
 72
     1
  1
\A1;28
  7
dayus
 11
0.7071067811865476
 21
0.7071067811865475
 31
0.0
 73
     1
 44
1.0
1001
ACAD
1000
MTEXTBEGIN
1070
    73
1070
     1
1070
    44
1040
1.0
1070
    74
1070
     0
1000
MTEXTEND
  0
POINT
  5
3C22
330
3721
100
AcDbEntity
  8
Defpoints
 62
     0
100
AcDbPoint
 10
176.9770105196232
 20
70.03608146227119
 30
0.0
  0
POINT
  5
3C23
330
3721
100
AcDbEntity
  8
Defpoints
 62
     0
100
AcDbPoint
 10
196.7770105196232
 20
89.83608146227124
 30
0.0
  0
POINT
  5
3C24
330
3721
100
AcDbEntity
  8
Defpoints
 62
     0
100
AcDbPoint
 10
214.8099757958825
 20
71.80311618601199
 30
0.0
  0
ENDBLK
  5
372C
330
3721
100
AcDbEntity
  8
0
100
AcDbBlockEnd
  0
BLOCK
  5
3737
330
372D
100
AcDbEntity
  8
0
100
AcDbBlockBegin
  2
*D31
 70
     1
 10
0.0
 20
0.0
 30
0.0
  3
*D31
  1

  0
LINE
  5
3C25
330
372D
100
AcDbEntity
  8
DIM
100
AcDbLine
 10
175.6596415335945
 20
64.37542129049129
 30
0.0
 11
196.8285655537286
 21
43.20649727035669
 31
0.0
  0
LINE
  5
3C26
330
372D
100
AcDbEntity
  8
DIM
100
AcDbLine
 10
202.4376706914035
 20
91.15345044829963
 30
0.0
 11
223.6065947115376
 21
69.98452642816502
 31
0.0
  0
LINE
  5
3C27
330
372D
100
AcDbEntity
  8
DIM
100
AcDbLine
 10
197.1821189443219
 20
45.6813710045096
 30
0.0
 11
221.1317209773847
 21
69.63097303757177
 31
0.0
  0
SOLID
  5
3C28
330
372D
100
AcDbEntity
  8
DIM
100
AcDbTrace
 10
196.9464166839264
 20
45.91707326490511
 30
0.0
 11
197.4178212047174
 21
45.44566874411408
 31
0.0
 12
195.7679053819488
 22
44.26715744213652
 32
0.0
 13
195.7679053819488
 23
44.26715744213652
 33
0.0
  0
SOLID
  5
3C29
330
372D
100
AcDbEntity
  8
DIM
100
AcDbTrace
 10
220.8960187169892
 20
69.86667529796729
 30
0.0
 11
221.3674232377802
 21
69.39527077717627
 31
0.0
 12
222.5459345397578
 22
71.04518659994486
 32
0.0
 13
222.5459345397578
 23
71.04518659994486
 33
0.0
  0
MTEXT
  5
3C2A
330
372D
100
AcDbEntity
  8
DIM
100
AcDbMText
 10
207.7427063984802
 20
59.07038558341381
 30
0.0
 40
2.0
 41
0.0
 71
     5
 72
     1
  1
\A1;38
  7
dayus
 11
0.7071067811865563
 21
0.707106781186539
 31
0.0
 73
     1
 44
1.0
1001
ACAD
1000
MTEXTBEGIN
1070
    73
1070
     1
1070
    44
1040
1.0
1070
    74
1070
     0
1000
MTEXTEND
  0
POINT
  5
3C2B
330
372D
100
AcDbEntity
  8
Defpoints
 62
     0
100
AcDbPoint
 10
174.5989813618147
 20
65.43608146227112
 30
0.0
  0
POINT
  5
3C2C
330
372D
100
AcDbEntity
  8
Defpoints
 62
     0
100
AcDbPoint
 10
201.3770105196237
 20
92.21411062007947
 30
0.0
  0
POINT
  5
3C2D
330
372D
100
AcDbEntity
  8
Defpoints
 62
     0
100
AcDbPoint
 10
222.5459345397578
 20
71.04518659994486
 30
0.0
  0
ENDBLK
  5
3738
330
372D
100
AcDbEntity
  8
0
100
AcDbBlockEnd
  0
BLOCK
  5
3745
330
3739
100
AcDbEntity
  8
0
100
AcDbBlockBegin
  2
*D32
 70
     1
 10
0.0
 20
0.0
 30
0.0
  3
*D32
  1

  0
LINE
  5
3B9E
330
3739
100
AcDbEntity
  8
DIM
100
AcDbLine
 10
115.8994156332907
 20
95.93608146227118
 30
0.0
 11
115.8994156332907
 21
101.0363059225681
 31
0.0
  0
LINE
  5
3B9F
330
3739
100
AcDbEntity
  8
DIM
100
AcDbLine
 10
117.3994156332907
 20
86.63608146227121
 30
0.0
 11
117.3994156332907
 21
101.0363059225681
 31
0.0
  0
LINE
  5
3BA0
330
3739
100
AcDbEntity
  8
DIM
100
AcDbLine
 10
113.8994156332907
 20
99.53630592256809
 30
0.0
 11
111.8994156332907
 21
99.53630592256809
 31
0.0
  0
LINE
  5
3BA1
330
3739
100
AcDbEntity
  8
DIM
100
AcDbLine
 10
119.3994156332907
 20
99.53630592256809
 30
0.0
 11
127.2089394428145
 21
99.53630592256809
 31
0.0
  0
LINE
  5
3BA2
330
3739
100
AcDbEntity
  8
DIM
100
AcDbLine
 10
115.8994156332907
 20
99.53630592256809
 30
0.0
 11
117.3994156332907
 21
99.53630592256809
 31
0.0
  0
SOLID
  5
3BA3
330
3739
100
AcDbEntity
  8
DIM
100
AcDbTrace
 10
113.8994156332907
 20
99.86963925590142
 30
0.0
 11
113.8994156332907
 21
99.20297258923476
 31
0.0
 12
115.8994156332907
 22
99.53630592256809
 32
0.0
 13
115.8994156332907
 23
99.53630592256809
 33
0.0
  0
SOLID
  5
3BA4
330
3739
100
AcDbEntity
  8
DIM
100
AcDbTrace
 10
119.3994156332907
 20
99.86963925590142
 30
0.0
 11
119.3994156332907
 21
99.20297258923476
 31
0.0
 12
117.3994156332907
 22
99.53630592256809
 32
0.0
 13
117.3994156332907
 23
99.53630592256809
 33
0.0
  0
MTEXT
  5
3BA5
330
3739
100
AcDbEntity
  8
DIM
100
AcDbMText
 10
124.3041775380526
 20
101.5363059225681
 30
0.0
 40
2.0
 41
0.0
 71
     5
 72
     1
  1
\A1;1.5
  7
dayus
 73
     1
 44
1.0
1001
ACAD
1000
MTEXTBEGIN
1070
    73
1070
     1
1070
    44
1040
1.0
1070
    74
1070
     0
1000
MTEXTEND
  0
POINT
  5
3BA6
330
3739
100
AcDbEntity
  8
Defpoints
 62
     0
100
AcDbPoint
 10
115.8994156332907
 20
94.43608146227118
 30
0.0
  0
POINT
  5
3BA7
330
3739
100
AcDbEntity
  8
Defpoints
 62
     0
100
AcDbPoint
 10
117.3994156332907
 20
85.1360814622712
 30
0.0
  0
POINT
  5
3BA8
330
3739
100
AcDbEntity
  8
Defpoints
 62
     0
100
AcDbPoint
 10
117.3994156332907
 20
99.53630592256809
 30
0.0
  0
ENDBLK
  5
3746
330
3739
100
AcDbEntity
  8
0
100
AcDbBlockEnd
  0
BLOCK
  5
3753
330
3747
100
AcDbEntity
  8
0
100
AcDbBlockBegin
  2
*D33
 70
     1
 10
0.0
 20
0.0
 30
0.0
  3
*D33
  1

  0
LINE
  5
3BA9
330
3747
100
AcDbEntity
  8
DIM
100
AcDbLine
 10
115.8994156332907
 20
95.93608146227118
 30
0.0
 11
115.8994156332907
 21
106.7241431266751
 31
0.0
  0
LINE
  5
3BAA
330
3747
100
AcDbEntity
  8
DIM
100
AcDbLine
 10
121.3994156332907
 20
83.93608146227121
 30
0.0
 11
121.3994156332907
 21
106.7241431266751
 31
0.0
  0
LINE
  5
3BAB
330
3747
100
AcDbEntity
  8
DIM
100
AcDbLine
 10
113.8994156332907
 20
105.2241431266751
 30
0.0
 11
111.8994156332907
 21
105.2241431266751
 31
0.0
  0
LINE
  5
3BAC
330
3747
100
AcDbEntity
  8
DIM
100
AcDbLine
 10
123.3994156332907
 20
105.2241431266751
 30
0.0
 11
131.5898918237669
 21
105.2241431266751
 31
0.0
  0
LINE
  5
3BAD
330
3747
100
AcDbEntity
  8
DIM
100
AcDbLine
 10
115.8994156332907
 20
105.2241431266751
 30
0.0
 11
121.3994156332907
 21
105.2241431266751
 31
0.0
  0
SOLID
  5
3BAE
330
3747
100
AcDbEntity
  8
DIM
100
AcDbTrace
 10
113.8994156332907
 20
105.5574764600084
 30
0.0
 11
113.8994156332907
 21
104.8908097933418
 31
0.0
 12
115.8994156332907
 22
105.2241431266751
 32
0.0
 13
115.8994156332907
 23
105.2241431266751
 33
0.0
  0
SOLID
  5
3BAF
330
3747
100
AcDbEntity
  8
DIM
100
AcDbTrace
 10
123.3994156332907
 20
105.5574764600084
 30
0.0
 11
123.3994156332907
 21
104.8908097933418
 31
0.0
 12
121.3994156332907
 22
105.2241431266751
 32
0.0
 13
121.3994156332907
 23
105.2241431266751
 33
0.0
  0
MTEXT
  5
3BB0
330
3747
100
AcDbEntity
  8
DIM
100
AcDbMText
 10
128.4946537285288
 20
107.2241431266751
 30
0.0
 40
2.0
 41
0.0
 71
     5
 72
     1
  1
\A1;5.5
  7
dayus
 73
     1
 44
1.0
1001
ACAD
1000
MTEXTBEGIN
1070
    73
1070
     1
1070
    44
1040
1.0
1070
    74
1070
     0
1000
MTEXTEND
  0
POINT
  5
3BB1
330
3747
100
AcDbEntity
  8
Defpoints
 62
     0
100
AcDbPoint
 10
115.8994156332907
 20
94.43608146227118
 30
0.0
  0
POINT
  5
3BB2
330
3747
100
AcDbEntity
  8
Defpoints
 62
     0
100
AcDbPoint
 10
121.3994156332907
 20
82.43608146227121
 30
0.0
  0
POINT
  5
3BB3
330
3747
100
AcDbEntity
  8
Defpoints
 62
     0
100
AcDbPoint
 10
121.3994156332907
 20
105.2241431266751
 30
0.0
  0
ENDBLK
  5
3754
330
3747
100
AcDbEntity
  8
0
100
AcDbBlockEnd
  0
BLOCK
  5
375F
330
3755
100
AcDbEntity
  8
0
100
AcDbBlockBegin
  2
*D34
 70
     1
 10
0.0
 20
0.0
 30
0.0
  3
*D34
  1

  0
LINE
  5
3BB4
330
3755
100
AcDbEntity
  8
DIM
100
AcDbLine
 10
92.39941563329074
 20
95.93608146227118
 30
0.0
 11
92.39941563329074
 21
101.0363059225681
 31
0.0
  0
LINE
  5
3BB5
330
3755
100
AcDbEntity
  8
DIM
100
AcDbLine
 10
99.39941563329075
 20
91.6948066544702
 30
0.0
 11
99.39941563329075
 21
101.0363059225681
 31
0.0
  0
LINE
  5
3BB6
330
3755
100
AcDbEntity
  8
DIM
100
AcDbLine
 10
94.39941563329075
 20
99.53630592256809
 30
0.0
 11
97.39941563329075
 21
99.53630592256809
 31
0.0
  0
SOLID
  5
3BB7
330
3755
100
AcDbEntity
  8
DIM
100
AcDbTrace
 10
94.39941563329075
 20
99.86963925590142
 30
0.0
 11
94.39941563329075
 21
99.20297258923476
 31
0.0
 12
92.39941563329074
 22
99.53630592256809
 32
0.0
 13
92.39941563329074
 23
99.53630592256809
 33
0.0
  0
SOLID
  5
3BB8
330
3755
100
AcDbEntity
  8
DIM
100
AcDbTrace
 10
97.39941563329075
 20
99.86963925590142
 30
0.0
 11
97.39941563329075
 21
99.20297258923476
 31
0.0
 12
99.39941563329075
 22
99.53630592256809
 32
0.0
 13
99.39941563329075
 23
99.53630592256809
 33
0.0
  0
MTEXT
  5
3BB9
330
3755
100
AcDbEntity
  8
DIM
100
AcDbMText
 10
95.89941563329075
 20
101.5363059225681
 30
0.0
 40
2.0
 41
0.0
 71
     5
 72
     1
  1
\A1;7
  7
dayus
 73
     1
 44
1.0
1001
ACAD
1000
MTEXTBEGIN
1070
    73
1070
     1
1070
    44
1040
1.0
1070
    74
1070
     0
1000
MTEXTEND
  0
POINT
  5
3BBA
330
3755
100
AcDbEntity
  8
Defpoints
 62
     0
100
AcDbPoint
 10
92.39941563329074
 20
94.43608146227118
 30
0.0
  0
POINT
  5
3BBB
330
3755
100
AcDbEntity
  8
Defpoints
 62
     0
100
AcDbPoint
 10
99.39941563329075
 20
90.19480665447019
 30
0.0
  0
POINT
  5
3BBC
330
3755
100
AcDbEntity
  8
Defpoints
 62
     0
100
AcDbPoint
 10
99.39941563329075
 20
99.53630592256809
 30
0.0
  0
ENDBLK
  5
3760
330
3755
100
AcDbEntity
  8
0
100
AcDbBlockEnd
  0
BLOCK
  5
376B
330
3761
100
AcDbEntity
  8
0
100
AcDbBlockBegin
  2
*D35
 70
     1
 10
0.0
 20
0.0
 30
0.0
  3
*D35
  1

  0
LINE
  5
3BBD
330
3761
100
AcDbEntity
  8
DIM
100
AcDbLine
 10
108.8994156332907
 20
91.6948066544702
 30
0.0
 11
108.8994156332907
 21
101.0363059225681
 31
0.0
  0
LINE
  5
3BBE
330
3761
100
AcDbEntity
  8
DIM
100
AcDbLine
 10
115.8994156332907
 20
95.93608146227118
 30
0.0
 11
115.8994156332907
 21
101.0363059225681
 31
0.0
  0
LINE
  5
3BBF
330
3761
100
AcDbEntity
  8
DIM
100
AcDbLine
 10
110.8994156332907
 20
99.53630592256809
 30
0.0
 11
113.8994156332907
 21
99.53630592256809
 31
0.0
  0
SOLID
  5
3BC0
330
3761
100
AcDbEntity
  8
DIM
100
AcDbTrace
 10
110.8994156332907
 20
99.86963925590142
 30
0.0
 11
110.8994156332907
 21
99.20297258923476
 31
0.0
 12
108.8994156332907
 22
99.53630592256809
 32
0.0
 13
108.8994156332907
 23
99.53630592256809
 33
0.0
  0
SOLID
  5
3BC1
330
3761
100
AcDbEntity
  8
DIM
100
AcDbTrace
 10
113.8994156332907
 20
99.86963925590142
 30
0.0
 11
113.8994156332907
 21
99.20297258923476
 31
0.0
 12
115.8994156332907
 22
99.53630592256809
 32
0.0
 13
115.8994156332907
 23
99.53630592256809
 33
0.0
  0
MTEXT
  5
3BC2
330
3761
100
AcDbEntity
  8
DIM
100
AcDbMText
 10
112.3994156332907
 20
101.5363059225681
 30
0.0
 40
2.0
 41
0.0
 71
     5
 72
     1
  1
\A1;7
  7
dayus
 73
     1
 44
1.0
1001
ACAD
1000
MTEXTBEGIN
1070
    73
1070
     1
1070
    44
1040
1.0
1070
    74
1070
     0
1000
MTEXTEND
  0
POINT
  5
3BC3
330
3761
100
AcDbEntity
  8
Defpoints
 62
     0
100
AcDbPoint
 10
108.8994156332907
 20
90.19480665447019
 30
0.0
  0
POINT
  5
3BC4
330
3761
100
AcDbEntity
  8
Defpoints
 62
     0
100
AcDbPoint
 10
115.8994156332907
 20
94.43608146227118
 30
0.0
  0
POINT
  5
3BC5
330
3761
100
AcDbEntity
  8
Defpoints
 62
     0
100
AcDbPoint
 10
115.8994156332907
 20
99.53630592256809
 30
0.0
  0
ENDBLK
  5
376C
330
3761
100
AcDbEntity
  8
0
100
AcDbBlockEnd
  0
BLOCK
  5
3777
330
376D
100
AcDbEntity
  8
0
100
AcDbBlockBegin
  2
*D36
 70
     1
 10
0.0
 20
0.0
 30
0.0
  3
*D36
  1

  0
LINE
  5
3D50
330
376D
100
AcDbEntity
  8
DIM
100
AcDbLine
 10
92.39941563329063
 20
95.93608146227117
 30
0.0
 11
92.39941563329063
 21
106.7241431266751
 31
0.0
  0
LINE
  5
3D51
330
376D
100
AcDbEntity
  8
DIM
100
AcDbLine
 10
115.8994156332907
 20
95.93608146227118
 30
0.0
 11
115.8994156332907
 21
106.7241431266751
 31
0.0
  0
LINE
  5
3D52
330
376D
100
AcDbEntity
  8
DIM
100
AcDbLine
 10
94.39941563329062
 20
105.2241431266751
 30
0.0
 11
113.8994156332907
 21
105.2241431266751
 31
0.0
  0
SOLID
  5
3D53
330
376D
100
AcDbEntity
  8
DIM
100
AcDbTrace
 10
94.39941563329062
 20
105.5574764600084
 30
0.0
 11
94.39941563329062
 21
104.8908097933418
 31
0.0
 12
92.39941563329063
 22
105.2241431266751
 32
0.0
 13
92.39941563329063
 23
105.2241431266751
 33
0.0
  0
SOLID
  5
3D54
330
376D
100
AcDbEntity
  8
DIM
100
AcDbTrace
 10
113.8994156332907
 20
105.5574764600084
 30
0.0
 11
113.8994156332907
 21
104.8908097933418
 31
0.0
 12
115.8994156332907
 22
105.2241431266751
 32
0.0
 13
115.8994156332907
 23
105.2241431266751
 33
0.0
  0
MTEXT
  5
3D55
330
376D
100
AcDbEntity
  8
DIM
100
AcDbMText
 10
104.1494156332907
 20
107.2241431266751
 30
0.0
 40
2.0
 41
0.0
 71
     5
 72
     1
  1
\A1;18.5+stroke=S
  7
dayus
 73
     1
 44
1.0
1001
ACAD
1000
MTEXTBEGIN
1070
    73
1070
     1
1070
    44
1040
1.0
1070
    74
1070
     0
1000
MTEXTEND
  0
POINT
  5
3D56
330
376D
100
AcDbEntity
  8
Defpoints
 62
     0
100
AcDbPoint
 10
92.39941563329063
 20
94.43608146227116
 30
0.0
  0
POINT
  5
3D57
330
376D
100
AcDbEntity
  8
Defpoints
 62
     0
100
AcDbPoint
 10
115.8994156332907
 20
94.43608146227118
 30
0.0
  0
POINT
  5
3D58
330
376D
100
AcDbEntity
  8
Defpoints
 62
     0
100
AcDbPoint
 10
115.8994156332907
 20
105.2241431266751
 30
0.0
  0
ENDBLK
  5
3778
330
376D
100
AcDbEntity
  8
0
100
AcDbBlockEnd
  0
BLOCK
  5
3783
330
3779
100
AcDbEntity
  8
0
100
AcDbBlockBegin
  2
*D37
 70
     1
 10
0.0
 20
0.0
 30
0.0
  3
*D37
  1

  0
LINE
  5
3D47
330
3779
100
AcDbEntity
  8
DIM
100
AcDbLine
 10
121.3994156332907
 20
83.93608146227121
 30
0.0
 11
121.3994156332907
 21
112.4325644035125
 31
0.0
  0
LINE
  5
3D48
330
3779
100
AcDbEntity
  8
DIM
100
AcDbLine
 10
92.39941563329074
 20
95.93608146227118
 30
0.0
 11
92.39941563329074
 21
112.4325644035125
 31
0.0
  0
LINE
  5
3D49
330
3779
100
AcDbEntity
  8
DIM
100
AcDbLine
 10
119.3994156332907
 20
110.9325644035125
 30
0.0
 11
94.39941563329075
 21
110.9325644035125
 31
0.0
  0
SOLID
  5
3D4A
330
3779
100
AcDbEntity
  8
DIM
100
AcDbTrace
 10
119.3994156332907
 20
111.2658977368458
 30
0.0
 11
119.3994156332907
 21
110.5992310701792
 31
0.0
 12
121.3994156332907
 22
110.9325644035125
 32
0.0
 13
121.3994156332907
 23
110.9325644035125
 33
0.0
  0
SOLID
  5
3D4B
330
3779
100
AcDbEntity
  8
DIM
100
AcDbTrace
 10
94.39941563329075
 20
111.2658977368458
 30
0.0
 11
94.39941563329075
 21
110.5992310701792
 31
0.0
 12
92.39941563329074
 22
110.9325644035125
 32
0.0
 13
92.39941563329074
 23
110.9325644035125
 33
0.0
  0
MTEXT
  5
3D4C
330
3779
100
AcDbEntity
  8
DIM
100
AcDbMText
 10
106.8994156332907
 20
112.9325644035125
 30
0.0
 40
2.0
 41
0.0
 71
     5
 72
     1
  1
\A1;24+stroke=ZZ
  7
dayus
 73
     1
 44
1.0
1001
ACAD
1000
MTEXTBEGIN
1070
    73
1070
     1
1070
    44
1040
1.0
1070
    74
1070
     0
1000
MTEXTEND
  0
POINT
  5
3D4D
330
3779
100
AcDbEntity
  8
Defpoints
 62
     0
100
AcDbPoint
 10
121.3994156332907
 20
82.43608146227121
 30
0.0
  0
POINT
  5
3D4E
330
3779
100
AcDbEntity
  8
Defpoints
 62
     0
100
AcDbPoint
 10
92.39941563329074
 20
94.43608146227118
 30
0.0
  0
POINT
  5
3D4F
330
3779
100
AcDbEntity
  8
Defpoints
 62
     0
100
AcDbPoint
 10
92.39941563329074
 20
110.9325644035125
 30
0.0
  0
ENDBLK
  5
3784
330
3779
100
AcDbEntity
  8
0
100
AcDbBlockEnd
  0
BLOCK
  5
378F
330
3785
100
AcDbEntity
  8
0
100
AcDbBlockBegin
  2
*D38
 70
     1
 10
0.0
 20
0.0
 30
0.0
  3
*D38
  1

  0
LINE
  5
3BD8
330
3785
100
AcDbEntity
  8
DIM
100
AcDbLine
 10
122.0333902295065
 20
76.93608146227126
 30
0.0
 11
129.8335242996882
 21
76.93608146227126
 31
0.0
  0
LINE
  5
3BD9
330
3785
100
AcDbEntity
  8
DIM
100
AcDbLine
 10
122.0333902295063
 20
82.93608146227127
 30
0.0
 11
129.8335242996882
 21
82.93608146227127
 31
0.0
  0
LINE
  5
3BDA
330
3785
100
AcDbEntity
  8
DIM
100
AcDbLine
 10
128.3335242996882
 20
78.93608146227126
 30
0.0
 11
128.3335242996882
 21
80.93608146227127
 31
0.0
  0
SOLID
  5
3BDB
330
3785
100
AcDbEntity
  8
DIM
100
AcDbTrace
 10
128.0001909663549
 20
78.93608146227126
 30
0.0
 11
128.6668576330216
 21
78.93608146227126
 31
0.0
 12
128.3335242996882
 22
76.93608146227126
 32
0.0
 13
128.3335242996882
 23
76.93608146227126
 33
0.0
  0
SOLID
  5
3BDC
330
3785
100
AcDbEntity
  8
DIM
100
AcDbTrace
 10
128.0001909663549
 20
80.93608146227127
 30
0.0
 11
128.6668576330216
 21
80.93608146227127
 31
0.0
 12
128.3335242996882
 22
82.93608146227127
 32
0.0
 13
128.3335242996882
 23
82.93608146227127
 33
0.0
  0
MTEXT
  5
3BDD
330
3785
100
AcDbEntity
  8
DIM
100
AcDbMText
 10
126.3335242996882
 20
79.93608146227128
 30
0.0
 40
2.0
 41
0.0
 71
     5
 72
     1
  1
\A1;%%c6
  7
dayus
 11
0.0000000000000001
 21
1.0
 31
0.0
 73
     1
 44
1.0
1001
ACAD
1000
MTEXTBEGIN
1070
    73
1070
     1
1070
    44
1040
1.0
1070
    74
1070
     0
1000
MTEXTEND
  0
POINT
  5
3BDE
330
3785
100
AcDbEntity
  8
Defpoints
 62
     0
100
AcDbPoint
 10
120.5333902295065
 20
76.93608146227126
 30
0.0
  0
POINT
  5
3BDF
330
3785
100
AcDbEntity
  8
Defpoints
 62
     0
100
AcDbPoint
 10
120.5333902295063
 20
82.93608146227127
 30
0.0
  0
POINT
  5
3BE0
330
3785
100
AcDbEntity
  8
Defpoints
 62
     0
100
AcDbPoint
 10
128.3335242996882
 20
82.93608146227127
 30
0.0
  0
ENDBLK
  5
3790
330
3785
100
AcDbEntity
  8
0
100
AcDbBlockEnd
  0
BLOCK
  5
379C
330
3791
100
AcDbEntity
  8
0
100
AcDbBlockBegin
  2
*D39
 70
     1
 10
0.0
 20
0.0
 30
0.0
  3
*D39
  1

  0
LINE
  5
3BE1
330
3791
100
AcDbEntity
  8
DIM
100
AcDbLine
 10
118.5994156332907
 20
74.4360814622712
 30
0.0
 11
135.5533597408083
 21
74.4360814622712
 31
0.0
  0
LINE
  5
3BE2
330
3791
100
AcDbEntity
  8
DIM
100
AcDbLine
 10
118.5994156332908
 20
85.4360814622712
 30
0.0
 11
135.5533597408083
 21
85.4360814622712
 31
0.0
  0
LINE
  5
3BE3
330
3791
100
AcDbEntity
  8
DIM
100
AcDbLine
 10
134.0533597408082
 20
76.4360814622712
 30
0.0
 11
134.0533597408082
 21
83.4360814622712
 31
0.0
  0
LINE
  5
3BE4
330
3791
100
AcDbEntity
  8
DIM
100
AcDbLine
 10
134.0533597408082
 20
85.4360814622712
 30
0.0
 11
134.0533597408082
 21
100.3789386051283
 31
0.0
  0
SOLID
  5
3BE5
330
3791
100
AcDbEntity
  8
DIM
100
AcDbTrace
 10
133.7200264074749
 20
76.4360814622712
 30
0.0
 11
134.3866930741416
 21
76.4360814622712
 31
0.0
 12
134.0533597408082
 22
74.4360814622712
 32
0.0
 13
134.0533597408082
 23
74.4360814622712
 33
0.0
  0
SOLID
  5
3BE6
330
3791
100
AcDbEntity
  8
DIM
100
AcDbTrace
 10
133.7200264074749
 20
83.4360814622712
 30
0.0
 11
134.3866930741416
 21
83.4360814622712
 31
0.0
 12
134.0533597408082
 22
85.4360814622712
 32
0.0
 13
134.0533597408082
 23
85.4360814622712
 33
0.0
  0
MTEXT
  5
3BE7
330
3791
100
AcDbEntity
  8
DIM
100
AcDbMText
 10
131.3966930741416
 20
93.90751003369979
 30
0.0
 40
2.0
 41
0.0
 71
     5
 72
     1
  1
\A1;%%c11{}{\H0.71x;\C3;\S 0^ -0.05;}
  7
dayus
 11
0.0000000000000001
 21
1.0
 31
0.0
 73
     1
 44
1.0
1001
ACAD
1000
MTEXTBEGIN
1070
    73
1070
     1
1070
    44
1040
1.0
1070
    74
1070
     0
1000
MTEXTEND
  0
POINT
  5
3BE8
330
3791
100
AcDbEntity
  8
Defpoints
 62
     0
100
AcDbPoint
 10
117.0994156332906
 20
74.4360814622712
 30
0.0
  0
POINT
  5
3BE9
330
3791
100
AcDbEntity
  8
Defpoints
 62
     0
100
AcDbPoint
 10
117.0994156332908
 20
85.4360814622712
 30
0.0
  0
POINT
  5
3BEA
330
3791
100
AcDbEntity
  8
Defpoints
 62
     0
100
AcDbPoint
 10
134.0533597408082
 20
85.4360814622712
 30
0.0
  0
ENDBLK
  5
379D
330
3791
100
AcDbEntity
  8
0
100
AcDbBlockEnd
  0
BLOCK
  5
37AA
330
379E
100
AcDbEntity
  8
0
100
AcDbBlockBegin
  2
*D40
 70
     1
 10
0.0
 20
0.0
 30
0.0
  3
*D40
  1

  0
LINE
  5
3BEB
330
379E
100
AcDbEntity
  8
DIM
100
AcDbLine
 10
118.3994156332908
 20
76.29033015120661
 30
0.0
 11
118.3994156332908
 21
66.55447749437906
 31
0.0
  0
LINE
  5
3BEC
330
379E
100
AcDbEntity
  8
DIM
100
AcDbLine
 10
121.3994156332907
 20
75.93608146227123
 30
0.0
 11
121.3994156332907
 21
66.55447749437906
 31
0.0
  0
LINE
  5
3BED
330
379E
100
AcDbEntity
  8
DIM
100
AcDbLine
 10
116.3994156332908
 20
68.05447749437906
 30
0.0
 11
114.3994156332908
 21
68.05447749437906
 31
0.0
  0
LINE
  5
3BEE
330
379E
100
AcDbEntity
  8
DIM
100
AcDbLine
 10
123.3994156332907
 20
68.05447749437906
 30
0.0
 11
128.7327489666241
 21
68.05447749437906
 31
0.0
  0
LINE
  5
3BEF
330
379E
100
AcDbEntity
  8
DIM
100
AcDbLine
 10
118.3994156332908
 20
68.05447749437906
 30
0.0
 11
121.3994156332907
 21
68.05447749437906
 31
0.0
  0
SOLID
  5
3BF0
330
379E
100
AcDbEntity
  8
DIM
100
AcDbTrace
 10
116.3994156332908
 20
68.38781082771238
 30
0.0
 11
116.3994156332908
 21
67.72114416104573
 31
0.0
 12
118.3994156332908
 22
68.05447749437906
 32
0.0
 13
118.3994156332908
 23
68.05447749437906
 33
0.0
  0
SOLID
  5
3BF1
330
379E
100
AcDbEntity
  8
DIM
100
AcDbTrace
 10
123.3994156332907
 20
68.38781082771238
 30
0.0
 11
123.3994156332907
 21
67.72114416104573
 31
0.0
 12
121.3994156332907
 22
68.05447749437906
 32
0.0
 13
121.3994156332907
 23
68.05447749437906
 33
0.0
  0
MTEXT
  5
3BF2
330
379E
100
AcDbEntity
  8
DIM
100
AcDbMText
 10
127.0660822999574
 20
70.05447749437905
 30
0.0
 40
2.0
 41
0.0
 71
     5
 72
     1
  1
\A1;3
  7
dayus
 73
     1
 44
1.0
1001
ACAD
1000
MTEXTBEGIN
1070
    73
1070
     1
1070
    44
1040
1.0
1070
    74
1070
     0
1000
MTEXTEND
  0
POINT
  5
3BF3
330
379E
100
AcDbEntity
  8
Defpoints
 62
     0
100
AcDbPoint
 10
118.3994156332908
 20
77.79033015120662
 30
0.0
  0
POINT
  5
3BF4
330
379E
100
AcDbEntity
  8
Defpoints
 62
     0
100
AcDbPoint
 10
121.3994156332907
 20
77.43608146227123
 30
0.0
  0
POINT
  5
3BF5
330
379E
100
AcDbEntity
  8
Defpoints
 62
     0
100
AcDbPoint
 10
121.3994156332907
 20
68.05447749437906
 30
0.0
  0
ENDBLK
  5
37AB
330
379E
100
AcDbEntity
  8
0
100
AcDbBlockEnd
  0
BLOCK
  5
3CC1
330
3CBF
100
AcDbEntity
  8
0
100
AcDbBlockBegin
  2
A$C5ECF147B
 70
     0
 10
0.0
 20
0.0
 30
0.0
  3
A$C5ECF147B
  1

  0
CIRCLE
  5
3CC2
330
3CBF
100
AcDbEntity
  8
0
100
AcDbCircle
 10
-3.079240456948355
 20
2.061381943681453
 30
0.0
 40
1.25
  0
CIRCLE
  5
3CC3
330
3CBF
100
AcDbEntity
  8
0
100
AcDbCircle
 10
-3.079240456948355
 20
2.061381943681453
 30
0.0
 40
0.75
  0
ENDBLK
  5
3CC4
330
3CBF
100
AcDbEntity
  8
0
100
AcDbBlockEnd
  0
BLOCK
  5
3DAA
330
3DA7
100
AcDbEntity
  8
0
100
AcDbBlockBegin
  2
A$C1F6E6265
 70
     0
 10
0.0
 20
0.0
 30
0.0
  3
A$C1F6E6265
  1

  0
LINE
  5
3DAB
330
3DA7
100
AcDbEntity
  8
AM_5
 62
     5
100
AcDbLine
 10
12.57846733029419
 20
0.460783587398737
 30
0.0
 11
7.091423997858555
 21
0.460783587398737
 31
0.0
  0
LINE
  5
3DAC
330
3DA7
100
AcDbEntity
  8
AM_5
 62
     5
100
AcDbLine
 10
7.091423997858555
 20
0.460783587398737
 30
0.0
 11
3.50000046420655
 21
0.460783587398737
 31
0.0
  0
TRACE
  5
3DAD
330
3DA7
100
AcDbEntity
  8
AM_5
 62
     5
370
    35
100
AcDbTrace
 10
3.50000046420655
 20
0.9215673268987245
 30
0.0
 11
3.50000046420655
 21
-0.0000001521012507
 31
0.0
 12
0.0000004642065505
 22
0.460783587398737
 32
0.0
 13
0.0000004642065505
 23
0.460783587398737
 33
0.0
  0
MTEXT
  5
3DAE
330
3DA7
100
AcDbEntity
  8
AM_5
 62
     5
100
AcDbMText
 10
6.603782167567317
 20
1.421084835219261
 30
0.0
 40
2.449999999999999
 41
0.0
 71
     7
 72
     5
  1
SL
  7
ACISOTS
 73
     1
 44
1.0
1001
ACAD
1000
MTEXTBEGIN
1070
    73
1070
     1
1070
    44
1040
1.0
1070
    74
1070
     0
1000
MTEXTEND
  0
ENDBLK
  5
3DAF
330
3DA7
100
AcDbEntity
  8
0
100
AcDbBlockEnd
  0
ENDSEC
  0
SECTION
  2
ENTITIES
  0
MTEXT
  5
A9
330
1F
100
AcDbEntity
  8
0
100
AcDbMText
 10
-112.8858816556399
 20
179.1757813154577
 30
0.0
 40
3.0
 41
0.0
 71
     4
 72
     5
  1

 73
     1
 44
1.0
1001
ACAD
1000
MTEXTBEGIN
1070
    73
1070
     1
1070
    44
1040
1.0
1070
    74
1070
     0
1000
MTEXTEND
  0
MTEXT
  5
AA
330
1F
100
AcDbEntity
  8
0
100
AcDbMText
 10
-176.2667196970539
 20
189.9084924046809
 30
0.0
 40
1.799999999999999
 41
0.0
 71
     9
 72
     5
  1

 73
     1
 44
1.0
1001
ACAD
1000
MTEXTBEGIN
1070
    73
1070
     1
1070
    44
1040
1.0
1070
    74
1070
     0
1000
MTEXTEND
  0
MTEXT
  5
AB
330
1F
100
AcDbEntity
  8
0
100
AcDbMText
 10
82.64233389287733
 20
174.944592339129
 30
0.0
 40
3.0
 41
0.0
 71
     4
 72
     5
  1

 73
     1
 44
1.0
1001
ACAD
1000
MTEXTBEGIN
1070
    73
1070
     1
1070
    44
1040
1.0
1070
    74
1070
     0
1000
MTEXTEND
  0
MTEXT
  5
AC
330
1F
100
AcDbEntity
  8
0
100
AcDbMText
 10
19.26149585146331
 20
185.6773034283523
 30
0.0
 40
1.799999999999999
 41
0.0
 71
     9
 72
     5
  1

 73
     1
 44
1.0
1001
ACAD
1000
MTEXTBEGIN
1070
    73
1070
     1
1070
    44
1040
1.0
1070
    74
1070
     0
1000
MTEXTEND
  0
MTEXT
  5
B1
330
1F
100
AcDbEntity
  8
0
100
AcDbMText
 10
-211.0828086697475
 20
93.72900974557683
 30
0.0
 40
3.0
 41
59.51
 71
     1
 72
     5
  1

  7
CHINESET
 73
     1
 44
1.0
1001
ACAD
1000
MTEXTBEGIN
1070
    73
1070
     1
1070
    44
1040
1.0
1070
    74
1070
     0
1000
MTEXTEND
  0
MTEXT
  5
B2
330
1F
100
AcDbEntity
  8
0
100
AcDbMText
 10
-179.9099428209695
 20
86.93407807798587
 30
0.0
 40
3.0
 41
38.26
 71
     1
 72
     5
  1

  7
CHINESET
 73
     1
 44
1.0
1001
ACAD
1000
MTEXTBEGIN
1070
    73
1070
     1
1070
    44
1040
1.0
1070
    74
1070
     0
1000
MTEXTEND
  0
MTEXT
  5
10B3
330
1F
100
AcDbEntity
  8
0
100
AcDbMText
 10
81.67014302795905
 20
125.5492500028813
 30
0.0
 40
3.0
 41
0.0
 71
     7
 72
     5
  1

  7
CHINESET
 73
     1
 44
1.0
1001
ACAD
1000
MTEXTBEGIN
1070
    73
1070
     1
1070
    44
1040
1.0
1070
    74
1070
     0
1000
MTEXTEND
  0
LINE
  5
17B4
330
1F
100
AcDbEntity
  8
0
 62
     4
100
AcDbLine
 10
282.9295044426146
 20
34.8799803659976
 30
0.0
 11
282.9295044426146
 21
252.9045421420978
 31
0.0
  0
LINE
  5
17B5
330
1F
100
AcDbEntity
  8
0
 62
     4
100
AcDbLine
 10
44.75749749364945
 20
34.87998036599757
 30
0.0
 11
44.75749749364945
 21
252.9045421420978
 31
0.0
  0
TEXT
  5
17BD
330
1F
100
AcDbEntity
  8
LOGO
  6
Continuous
 62
     7
100
AcDbText
 10
181.8418057805367
 20
24.8815003156334
 30
0.0
 40
5.153749999999999
  1
11/12
  7
CHINESET
 72
     1
 11
192.1493057805367
 21
27.45837531563341
 31
0.0
100
AcDbText
 73
     2
  0
TEXT
  5
17BE
330
1F
100
AcDbEntity
  8
LOGO
100
AcDbText
 10
184.1353493221039
 20
13.49111152161264
 30
0.0
 40
3.681249999999999
  1
作動型式
  7
CHINESET
 72
     4
 11
191.4595029679372
 21
15.23753130507721
 31
0.0
100
AcDbText
  0
LINE
  5
17BF
330
1F
100
AcDbEntity
  8
0
 62
     4
100
AcDbLine
 10
282.9295044426146
 20
140.6251224753167
 30
0.0
 11
44.75749749364945
 21
140.6251224753167
 31
0.0
  0
TEXT
  5
17C3
330
1F
100
AcDbEntity
  8
LOGO
  6
Continuous
100
AcDbText
 10
183.8866458250801
 20
9.590669039847126
 30
0.0
 40
2.208749999999999
  1
Acting type
 41
0.8
  7
CHINESET
 72
     4
 11
191.4595029679372
 21
10.32691903984712
 31
0.0
100
AcDbText
  0
LINE
  5
17C4
330
1F
100
AcDbEntity
  8
LOGO
 62
     4
100
AcDbLine
 10
203.8421114770214
 20
23.09451092944536
 30
0.0
 11
180.6289492198247
 21
23.09451092944536
 31
0.0
  0
LINE
  5
17C5
330
1F
100
AcDbEntity
  8
LOGO
 62
     4
100
AcDbLine
 10
203.8421114770214
 20
18.67495989073828
 30
0.0
 11
180.6289492198247
 21
18.67495989073828
 31
0.0
  0
LINE
  5
17C6
330
1F
100
AcDbEntity
  8
LOGO
 62
     4
100
AcDbLine
 10
203.8421114770214
 20
7.871612907232083
 30
0.0
 11
180.6289492198247
 21
7.871612907232059
 31
0.0
  0
LINE
  5
17C7
330
1F
100
AcDbEntity
  8
LOGO
 62
     4
100
AcDbLine
 10
203.8421114770214
 20
31.93361300685957
 30
0.0
 11
180.6289492198247
 21
31.93361300685951
 31
0.0
  0
LINE
  5
1802
330
1F
100
AcDbEntity
  8
LOGO
 62
     4
100
AcDbLine
 10
171.7102487224254
 20
18.67495989073828
 30
0.0
 11
152.0677996615051
 21
18.67495989073828
 31
0.0
  0
TEXT
  5
1803
330
1F
100
AcDbEntity
  8
LOGO
  6
Continuous
 62
     7
100
AcDbText
 10
152.4404825252985
 20
24.93718696815244
 30
0.0
 40
5.153749999999999
  1
MCJA
  7
CHINESET
 72
     1
 11
161.8890241919652
 21
27.51406196815244
 31
0.0
100
AcDbText
 73
     2
  0
LINE
  5
1804
330
1F
100
AcDbEntity
  8
LOGO
 62
     4
100
AcDbLine
 10
171.7102487224254
 20
7.871612907232083
 30
0.0
 11
152.0677996615051
 21
7.871612907232059
 31
0.0
  0
TEXT
  5
1805
330
1F
100
AcDbEntity
  8
LOGO
  6
Continuous
100
AcDbText
 10
158.5233099062509
 20
9.222544039847127
 30
0.0
 40
2.208749999999999
  1
Model
 41
0.8
  7
CHINESET
 72
     4
 11
161.8890241919652
 21
10.32691903984712
 31
0.0
100
AcDbText
  0
TEXT
  5
1806
330
1F
100
AcDbEntity
  8
LOGO
100
AcDbText
 10
158.2077741919652
 20
13.49111152161264
 30
0.0
 40
3.681249999999999
  1
型式
  7
CHINESET
 72
     4
 11
161.8890241919652
 21
15.23753130507721
 31
0.0
100
AcDbText
  0
LINE
  5
1807
330
1F
100
AcDbEntity
  8
LOGO
 62
     4
100
AcDbLine
 10
173.6744936285174
 20
23.09451092944536
 30
0.0
 11
150.103554755413
 21
23.09451092944536
 31
0.0
  0
LINE
  5
1808
330
1F
100
AcDbEntity
  8
LOGO
 62
     4
100
AcDbLine
 10
173.6744936285174
 20
31.93361300685951
 30
0.0
 11
150.103554755413
 21
31.93361300685951
 31
0.0
  0
LINE
  5
1809
330
1F
100
AcDbEntity
  8
LOGO
 62
     4
100
AcDbLine
 10
161.8890241919652
 20
23.09451092944536
 30
0.0
 11
161.8890241919652
 21
18.67495989073828
 31
0.0
  0
LINE
  5
180A
330
1F
100
AcDbEntity
  8
LOGO
 62
     4
100
AcDbLine
 10
152.0677996615051
 20
18.67495989073828
 30
0.0
 11
152.0677996615051
 21
7.871612907232059
 31
0.0
  0
LINE
  5
180B
330
1F
100
AcDbEntity
  8
LOGO
 62
     4
100
AcDbLine
 10
150.103554755413
 20
31.93361300685951
 30
0.0
 11
150.103554755413
 21
23.09451092944536
 31
0.0
  0
LINE
  5
180C
330
1F
100
AcDbEntity
  8
LOGO
 62
     4
100
AcDbLine
 10
171.7102487224254
 20
18.67495989073828
 30
0.0
 11
171.7102487224254
 21
7.871612907232083
 31
0.0
  0
LINE
  5
180D
330
1F
100
AcDbEntity
  8
LOGO
 62
     4
100
AcDbLine
 10
180.6289492198247
 20
18.67495989073828
 30
0.0
 11
180.6289492198247
 21
7.871612907232083
 31
0.0
  0
LINE
  5
180E
330
1F
100
AcDbEntity
  8
LOGO
  6
Continuous
 62
     7
100
AcDbLine
 10
175.1973380780603
 20
27.48275247168591
 30
0.0
 11
179.1003630309429
 21
27.48275247168591
 31
0.0
  0
LINE
  5
180F
330
1F
100
AcDbEntity
  8
LOGO
 62
     4
100
AcDbLine
 10
173.6744936285175
 20
31.93361300685951
 30
0.0
 11
173.6744936285175
 21
23.09451092944536
 31
0.0
  0
LINE
  5
1810
330
1F
100
AcDbEntity
  8
LOGO
 62
     4
100
AcDbLine
 10
180.6289492198247
 20
31.93361300685951
 30
0.0
 11
180.6289492198247
 21
23.09451092944536
 31
0.0
  0
TEXT
  5
1811
330
1F
100
AcDbEntity
  8
0
100
AcDbText
 10
49.11067294136524
 20
133.1914855496133
 30
0.0
 40
4.0
  1
12 type
  7
CHINESET
100
AcDbText
  0
LINE
  5
1868
330
1F
100
AcDbEntity
  8
LOGO
 62
     4
100
AcDbLine
 10
249.8800019444647
 20
31.93361300685951
 30
0.0
 11
233.5193954375847
 21
31.93361300685951
 31
0.0
  0
LINE
  5
1869
330
1F
100
AcDbEntity
  8
LOGO
 62
     4
100
AcDbLine
 10
249.8800019444647
 20
23.09451092944536
 30
0.0
 11
233.5193954375847
 21
23.09451092944536
 31
0.0
  0
LINE
  5
186A
330
1F
100
AcDbEntity
  8
LOGO
 62
     4
100
AcDbLine
 10
248.8978794914186
 20
18.67495989073828
 30
0.0
 11
234.5015178906307
 21
18.67495989073828
 31
0.0
  0
LINE
  5
186B
330
1F
100
AcDbEntity
  8
LOGO
 62
     4
100
AcDbLine
 10
248.8978794914186
 20
7.871612907232083
 30
0.0
 11
234.5015178906307
 21
7.871612907232059
 31
0.0
  0
LINE
  5
186C
330
1F
100
AcDbEntity
  8
LOGO
 62
     4
100
AcDbLine
 10
226.5649398462774
 20
23.09451092944541
 30
0.0
 11
210.7965670683286
 21
23.09451092944541
 31
0.0
  0
LINE
  5
186D
330
1F
100
AcDbEntity
  8
LOGO
 62
     4
100
AcDbLine
 10
226.5649398462774
 20
18.67495989073833
 30
0.0
 11
210.7965670683286
 21
18.67495989073833
 31
0.0
  0
LINE
  5
186E
330
1F
100
AcDbEntity
  8
LOGO
 62
     4
100
AcDbLine
 10
226.5649398462774
 20
31.93361300685963
 30
0.0
 11
210.7965670683286
 21
31.93361300685957
 31
0.0
  0
TEXT
  5
186F
330
1F
100
AcDbEntity
  8
LOGO
  6
Continuous
 62
     7
100
AcDbText
 10
215.5805357285461
 20
24.88150031563346
 30
0.0
 40
5.153749999999999
  1
16
  7
CHINESET
 72
     1
 11
219.1390773952127
 21
27.45837531563346
 31
0.0
100
AcDbText
 73
     2
  0
LINE
  5
1870
330
1F
100
AcDbEntity
  8
LOGO
 62
     4
100
AcDbLine
 10
226.5649398462774
 20
7.87161290723214
 30
0.0
 11
210.7965670683286
 21
7.871612907232105
 31
0.0
  0
TEXT
  5
1871
330
1F
100
AcDbEntity
  8
LOGO
  6
Continuous
100
AcDbText
 10
215.9461106001602
 20
9.222544039847162
 30
0.0
 40
2.208749999999999
  1
Bore
 41
0.8
  7
CHINESET
 72
     4
 11
218.6807534573031
 21
10.32691903984716
 31
0.0
100
AcDbText
  0
TEXT
  5
1872
330
1F
100
AcDbEntity
  8
LOGO
100
AcDbText
 10
214.7694253323031
 20
13.39690630507725
 30
0.0
 40
3.681249999999999
  1
內徑
  7
CHINESET
 72
     4
 11
218.6807534573031
 21
15.23753130507724
 31
0.0
100
AcDbText
  0
LINE
  5
1873
330
1F
100
AcDbEntity
  8
LOGO
 62
     4
100
AcDbLine
 10
218.6807532308409
 20
23.09451092944541
 30
0.0
 11
218.6807532308409
 21
18.67495989073833
 31
0.0
  0
LINE
  5
1874
330
1F
100
AcDbEntity
  8
LOGO
 62
     4
100
AcDbLine
 10
191.4595029679372
 20
23.09451092944536
 30
0.0
 11
191.4595029679372
 21
18.67495989073828
 31
0.0
  0
LINE
  5
1875
330
1F
100
AcDbEntity
  8
LOGO
 62
     4
100
AcDbLine
 10
203.8421114770214
 20
18.67495989073828
 30
0.0
 11
203.8421114770214
 21
7.871612907232105
 31
0.0
  0
LINE
  5
1876
330
1F
100
AcDbEntity
  8
LOGO
 62
     4
100
AcDbLine
 10
210.7965670683286
 20
18.67495989073833
 30
0.0
 11
210.7965670683286
 21
7.87161290723214
 31
0.0
  0
LINE
  5
1877
330
1F
100
AcDbEntity
  8
LOGO
 62
     4
100
AcDbLine
 10
203.8421114770214
 20
31.93361300685957
 30
0.0
 11
203.8421114770214
 21
23.09451092944536
 31
0.0
  0
LINE
  5
1878
330
1F
100
AcDbEntity
  8
LOGO
 62
     4
100
AcDbLine
 10
210.7965670683286
 20
31.93361300685957
 30
0.0
 11
210.7965670683286
 21
23.09451092944541
 31
0.0
  0
LINE
  5
1879
330
1F
100
AcDbEntity
  8
LOGO
  6
Continuous
 62
     7
100
AcDbLine
 10
205.3649559265642
 20
27.48275247168597
 30
0.0
 11
209.2679808794469
 21
27.48275247168597
 31
0.0
  0
LINE
  5
187A
330
1F
100
AcDbEntity
  8
LOGO
 62
     4
100
AcDbLine
 10
241.9077033090507
 20
23.09451092944536
 30
0.0
 11
241.9077033090507
 21
18.67495989073828
 31
0.0
  0
LINE
  5
187B
330
1F
100
AcDbEntity
  8
LOGO
 62
     4
100
AcDbLine
 10
226.5649398462774
 20
18.67495989073833
 30
0.0
 11
226.5649398462774
 21
7.871612907232165
 31
0.0
  0
LINE
  5
187C
330
1F
100
AcDbEntity
  8
LOGO
 62
     4
100
AcDbLine
 10
234.5015178906307
 20
18.67495989073828
 30
0.0
 11
234.5015178906307
 21
7.871612907232059
 31
0.0
  0
TEXT
  5
187D
330
1F
100
AcDbEntity
  8
LOGO
  6
Continuous
100
AcDbText
 10
237.702912976739
 20
9.222544039847102
 30
0.0
 40
2.208749999999999
  1
Stroke
 41
0.8
  7
CHINESET
 72
     4
 11
241.6996986910247
 21
10.3269190398471
 31
0.0
100
AcDbText
  0
TEXT
  5
187E
330
1F
100
AcDbEntity
  8
LOGO
100
AcDbText
 10
238.0184486910247
 20
13.39690630507719
 30
0.0
 40
3.681249999999999
  1
行程
  7
CHINESET
 72
     4
 11
241.6996986910247
 21
15.23753130507718
 31
0.0
100
AcDbText
  0
LINE
  5
187F
330
1F
100
AcDbEntity
  8
LOGO
 62
     4
100
AcDbLine
 10
226.5649398462774
 20
31.93361300685963
 30
0.0
 11
226.5649398462774
 21
23.09451092944541
 31
0.0
  0
LINE
  5
1880
330
1F
100
AcDbEntity
  8
LOGO
  6
Continuous
 62
     7
100
AcDbLine
 10
228.0877842958203
 20
27.48275247168603
 30
0.0
 11
231.990809248703
 21
27.48275247168603
 31
0.0
  0
LINE
  5
1881
330
1F
100
AcDbEntity
  8
LOGO
 62
     4
100
AcDbLine
 10
233.5193954375847
 20
31.93361300685951
 30
0.0
 11
233.5193954375847
 21
23.09451092944536
 31
0.0
  0
TEXT
  5
1882
330
1F
100
AcDbEntity
  8
LOGO
  6
Continuous
 62
     7
100
AcDbText
 10
240.9309392956011
 20
24.88150031563341
 30
0.0
 40
5.153749999999999
  1
*
  7
CHINESET
 72
     1
 11
242.1580226289345
 21
27.45837531563341
 31
0.0
100
AcDbText
 73
     2
  0
LINE
  5
1883
330
1F
100
AcDbEntity
  8
LOGO
 62
     4
100
AcDbLine
 10
258.3763999227589
 20
23.09451092944536
 30
0.0
 11
258.3763999227589
 21
18.67495989073828
 31
0.0
  0
LINE
  5
1885
330
1F
100
AcDbEntity
  8
LOGO
 62
     4
100
AcDbLine
 10
265.574580723153
 20
7.871612907232083
 30
0.0
 11
251.178219122365
 21
7.871612907232059
 31
0.0
  0
LINE
  5
1886
330
1F
100
AcDbEntity
  8
LOGO
 62
     4
100
AcDbLine
 10
265.574580723153
 20
18.67495989073828
 30
0.0
 11
251.178219122365
 21
18.67495989073828
 31
0.0
  0
TEXT
  5
1887
330
1F
100
AcDbEntity
  8
LOGO
  6
Continuous
100
AcDbText
 10
253.2436856370447
 20
9.222544039847102
 30
0.0
 40
2.208749999999999
  1
MAGNET
 41
0.8
  7
CHINESET
 72
     4
 11
258.3763999227589
 21
10.3269190398471
 31
0.0
100
AcDbText
  0
TEXT
  5
1888
330
1F
100
AcDbEntity
  8
LOGO
100
AcDbText
 10
252.8545249227589
 20
13.43525265924385
 30
0.0
 40
3.681249999999999
  1
附磁石
  7
CHINESET
 72
     4
 11
258.3763999227589
 21
15.23753130507718
 31
0.0
100
AcDbText
  0
LINE
  5
1889
330
1F
100
AcDbEntity
  8
LOGO
 62
     4
100
AcDbLine
 10
251.178219122365
 20
18.67495989073828
 30
0.0
 11
251.178219122365
 21
7.871612907232059
 31
0.0
  0
LINE
  5
188A
330
1F
100
AcDbEntity
  8
LOGO
 62
     4
100
AcDbLine
 10
248.8978794914186
 20
18.67495989073828
 30
0.0
 11
248.8978794914186
 21
7.830877125642182
 31
0.0
  0
LINE
  5
188B
330
1F
100
AcDbEntity
  8
LOGO
 62
     4
100
AcDbLine
 10
265.574580723153
 20
18.67495989073828
 30
0.0
 11
265.574580723153
 21
7.830877125642182
 31
0.0
  0
TEXT
  5
188C
330
1F
100
AcDbEntity
  8
LOGO
  6
Continuous
 62
     7
100
AcDbText
 10
253.3128490871308
 20
24.88150031563341
 30
0.0
 40
5.153749999999999
  1
(M)
  7
CHINESET
 72
     1
 11
258.8347240871308
 21
27.45837531563341
 31
0.0
100
AcDbText
 73
     2
  0
LINE
  5
188D
330
1F
100
AcDbEntity
  8
LOGO
 62
     4
100
AcDbLine
 10
265.7405585907038
 20
23.09451092944536
 30
0.0
 11
251.9238452705419
 21
23.09451092944536
 31
0.0
  0
LINE
  5
188E
330
1F
100
AcDbEntity
  8
LOGO
 62
     4
100
AcDbLine
 10
265.7405585907038
 20
31.93361300685957
 30
0.0
 11
251.9238452705419
 21
31.93361300685951
 31
0.0
  0
LINE
  5
188F
330
1F
100
AcDbEntity
  8
LOGO
 62
     4
100
AcDbLine
 10
251.9238452705419
 20
31.93361300685951
 30
0.0
 11
251.9238452705419
 21
23.09451092944536
 31
0.0
  0
LINE
  5
1890
330
1F
100
AcDbEntity
  8
LOGO
 62
     4
100
AcDbLine
 10
249.8800019444647
 20
31.93361300685951
 30
0.0
 11
249.8800019444647
 21
23.09451092944536
 31
0.0
  0
LINE
  5
1891
330
1F
100
AcDbEntity
  8
LOGO
 62
     4
100
AcDbLine
 10
265.7405585907037
 20
31.93361300685957
 30
0.0
 11
265.7405585907038
 21
23.09451092944536
 31
0.0
  0
LINE
  5
18E7
330
1F
100
AcDbEntity
  8
0
 62
     4
100
AcDbLine
 10
282.9295044426146
 20
252.9045421420978
 30
0.0
 11
44.75749749364945
 21
252.9045421420979
 31
0.0
  0
TEXT
  5
18EA
330
1F
100
AcDbEntity
  8
0
100
AcDbText
 10
49.54913670363566
 20
243.9891617955228
 30
0.0
 40
4.0
  1
11 type
  7
CHINESET
100
AcDbText
  0
LINE
  5
2D7E
330
1F
100
AcDbEntity
  8
0
100
AcDbLine
 10
121.3994156332907
 20
182.6974425266675
 30
0.0
 11
126.3994156332907
 21
182.6974425266675
 31
0.0
  0
LINE
  5
2D7F
330
1F
100
AcDbEntity
  8
0
100
AcDbLine
 10
130.3994156332907
 20
182.6974425266675
 30
0.0
 11
132.8994156332907
 21
182.6974425266675
 31
0.0
  0
LINE
  5
2D80
330
1F
100
AcDbEntity
  8
0
100
AcDbLine
 10
121.3994156332907
 20
187.6974425266675
 30
0.0
 11
126.3994156332907
 21
187.6974425266675
 31
0.0
  0
LINE
  5
2D81
330
1F
100
AcDbEntity
  8
0
100
AcDbLine
 10
130.3994156332907
 20
187.6974425266675
 30
0.0
 11
132.8994156332907
 21
187.6974425266675
 31
0.0
  0
LINE
  5
2D82
330
1F
100
AcDbEntity
  8
0
100
AcDbLine
 10
133.3994156332907
 20
187.1974425266675
 30
0.0
 11
132.8994156332907
 21
187.6974425266675
 31
0.0
  0
LINE
  5
2D83
330
1F
100
AcDbEntity
  8
0
100
AcDbLine
 10
133.3994156332907
 20
183.1974425266675
 30
0.0
 11
132.8994156332907
 21
182.6974425266675
 31
0.0
  0
LINE
  5
2D84
330
1F
100
AcDbEntity
  8
0
100
AcDbLine
 10
118.3994156332907
 20
183.5391301314898
 30
0.0
 11
118.3994156332907
 21
186.8557549218452
 31
0.0
  0
SPLINE
  5
2D85
330
1F
100
AcDbEntity
  8
0
100
AcDbSpline
210
0.0
220
0.0
230
1.0
 70
    12
 71
     2
 72
     6
 73
     3
 74
     0
 42
0.0000000001
 43
0.0000000001
 40
1.905337496355303
 40
1.905337496355303
 40
1.905337496355303
 40
3.810674992710606
 40
3.810674992710606
 40
3.810674992710606
 10
121.3994156332907
 20
185.1974425266675
 30
0.0
 41
1.0
 10
121.3994156332906
 20
185.9512208881118
 30
0.0
 41
1.048808848170144
 10
120.5333902295063
 20
186.8557549218452
 30
0.0
 41
1.0
  0
SPLINE
  5
2D86
330
1F
100
AcDbEntity
  8
0
100
AcDbSpline
210
0.0
220
0.0
230
1.0
 70
    12
 71
     2
 72
     6
 73
     3
 74
     0
 42
0.0000000001
 43
0.0000000001
 40
0.0
 40
0.0
 40
0.0
 40
1.905337496355303
 40
1.905337496355303
 40
1.905337496355303
 10
120.5333902295063
 20
183.5391301314898
 30
0.0
 41
1.0
 10
121.3994156332906
 20
184.4436641652229
 30
0.0
 41
1.048808848170144
 10
121.3994156332907
 20
185.1974425266675
 30
0.0
 41
1.0
  0
LINE
  5
2D87
330
1F
100
AcDbEntity
  8
0
100
AcDbLine
 10
118.3994156332907
 20
186.8557549218452
 30
0.0
 11
120.5333902295063
 21
186.8557549218452
 31
0.0
  0
LINE
  5
2D88
330
1F
100
AcDbEntity
  8
0
100
AcDbLine
 10
120.5333902295063
 20
183.5391301314898
 30
0.0
 11
118.3994156332907
 21
183.5391301314898
 31
0.0
  0
LINE
  5
2D89
330
1F
100
AcDbEntity
  8
0
100
AcDbLine
 10
120.5333902295063
 20
183.5391301314898
 30
0.0
 11
120.5333902295063
 21
182.6974425266674
 31
0.0
  0
LINE
  5
2D8A
330
1F
100
AcDbEntity
  8
0
100
AcDbLine
 10
120.5333902295063
 20
187.6974425266675
 30
0.0
 11
120.5333902295063
 21
186.8557549218452
 31
0.0
  0
LINE
  5
2D8B
330
1F
100
AcDbEntity
  8
0
100
AcDbLine
 10
121.3994156332907
 20
182.6974425266675
 30
0.0
 11
121.3994156332907
 21
185.1974425266675
 31
0.0
  0
LINE
  5
2D8C
330
1F
100
AcDbEntity
  8
0
100
AcDbLine
 10
121.3994156332907
 20
185.1974425266675
 30
0.0
 11
121.3994156332907
 21
187.6974425266675
 31
0.0
  0
LINE
  5
2D8D
330
1F
100
AcDbEntity
  8
0
100
AcDbLine
 10
132.8994156332907
 20
182.6974425266675
 30
0.0
 11
132.8994156332907
 21
187.6974425266675
 31
0.0
  0
LINE
  5
2D8E
102
{ACAD_REACTORS
330
2E1B
330
2E1E
330
2E21
330
2E32
102
}
330
1F
100
AcDbEntity
  8
0
100
AcDbLine
 10
133.3994156332907
 20
187.1974425266675
 30
0.0
 11
133.3994156332907
 21
183.1974425266675
 31
0.0
  0
LINE
  5
2D8F
102
{ACAD_REACTORS
330
2E1B
102
}
330
1F
100
AcDbEntity
  8
0
100
AcDbLine
 10
123.3994156332907
 20
187.6974425266675
 30
0.0
 11
123.3994156332907
 21
182.6974425266675
 31
0.0
  0
LINE
  5
2D90
330
1F
100
AcDbEntity
  8
0
 62
     3
100
AcDbLine
 10
123.3994156332907
 20
187.2974425266675
 30
0.0
 11
126.3994156332906
 21
187.2974425266675
 31
0.0
  0
LINE
  5
2D91
330
1F
100
AcDbEntity
  8
0
 62
     3
100
AcDbLine
 10
130.3994156332907
 20
187.2974425266675
 30
0.0
 11
133.2994156332907
 21
187.2974425266675
 31
0.0
  0
LINE
  5
2D92
330
1F
100
AcDbEntity
  8
0
 62
     3
100
AcDbLine
 10
123.3994156332907
 20
183.0974425266675
 30
0.0
 11
126.3994156332906
 21
183.0974425266674
 31
0.0
  0
LINE
  5
2D93
330
1F
100
AcDbEntity
  8
0
 62
     3
100
AcDbLine
 10
130.3994156332907
 20
183.0974425266674
 30
0.0
 11
133.2994156332907
 21
183.0974425266674
 31
0.0
  0
LINE
  5
2D94
330
1F
100
AcDbEntity
  8
0
 62
     3
100
AcDbLine
 10
123.4472423587112
 20
187.2776320483545
 30
0.0
 11
123.0274318803981
 21
187.6974425266675
 31
0.0
  0
LINE
  5
2D95
330
1F
100
AcDbEntity
  8
0
 62
     3
100
AcDbLine
 10
123.4472423587112
 20
183.1172530049805
 30
0.0
 11
123.027431880398
 21
182.6974425266675
 31
0.0
  0
LINE
  5
2D96
102
{ACAD_REACTORS
330
2E1E
102
}
330
1F
100
AcDbEntity
  8
0
100
AcDbLine
 10
121.3994156332907
 20
187.6974425266675
 30
0.0
 11
118.3994156332907
 21
187.6974425266675
 31
0.0
  0
LINE
  5
2D97
330
1F
100
AcDbEntity
  8
0
100
AcDbLine
 10
118.3994156332907
 20
187.6974425266675
 30
0.0
 11
117.8994156332907
 21
188.1974425266675
 31
0.0
  0
LINE
  5
2D98
102
{ACAD_REACTORS
330
2E3F
102
}
330
1F
100
AcDbEntity
  8
0
100
AcDbLine
 10
121.3994156332907
 20
182.6974425266674
 30
0.0
 11
118.3994156332907
 21
182.6974425266675
 31
0.0
  0
LINE
  5
2D99
330
1F
100
AcDbEntity
  8
0
100
AcDbLine
 10
118.3994156332907
 20
182.6974425266675
 30
0.0
 11
117.8994156332907
 21
182.1974425266675
 31
0.0
  0
ARC
  5
2D9A
102
{ACAD_REACTORS
330
2E3F
102
}
330
1F
100
AcDbEntity
  8
0
100
AcDbCircle
 10
120.8994156332905
 20
185.1974425266675
 30
0.0
 40
2.999999999999793
100
AcDbArc
 50
146.4426902380732
 51
213.5573097619268
  0
LINE
  5
2DA6
102
{ACAD_REACTORS
330
2E42
330
2E7D
102
}
330
1F
100
AcDbEntity
  8
CENTER
100
AcDbLine
 10
134.868052862562
 20
185.1974425266675
 30
0.0
 11
90.44328921211144
 21
185.1974425266675
 31
0.0
  0
LINE
  5
2DA7
102
{ACAD_REACTORS
330
2E21
330
2E27
330
2E2C
330
2E2F
102
}
330
1F
100
AcDbEntity
  8
0
100
AcDbLine
 10
115.8994156332907
 20
199.6974425266675
 30
0.0
 11
115.8994156332907
 21
170.6974425266675
 31
0.0
  0
LINE
  5
2DA8
102
{ACAD_REACTORS
330
2E24
330
2E2F
102
}
330
1F
100
AcDbEntity
  8
0
100
AcDbLine
 10
92.39941563329074
 20
199.6974425266675
 30
0.0
 11
92.39941563329074
 21
170.6974425266675
 31
0.0
  0
LINE
  5
2DA9
330
1F
100
AcDbEntity
  8
0
100
AcDbLine
 10
172.3770105196233
 20
172.9194133688587
 30
0.0
 11
172.3770105196233
 21
197.4754716844761
 31
0.0
  0
LINE
  5
2DAA
330
1F
100
AcDbEntity
  8
0
100
AcDbLine
 10
201.3770105196233
 20
180.8974425266674
 30
0.0
 11
201.3770105196233
 21
172.9194133688587
 31
0.0
  0
CIRCLE
  5
2DAB
330
1F
100
AcDbEntity
  8
0
100
AcDbCircle
 10
186.8770105196233
 20
185.1974425266675
 30
0.0
 40
8.5
  0
LINE
  5
2DAC
330
1F
100
AcDbEntity
  8
0
100
AcDbLine
 10
198.3770105196233
 20
179.1974425266675
 30
0.0
 11
198.3770105196233
 21
188.1974425266675
 31
0.0
  0
LINE
  5
2DAD
330
1F
100
AcDbEntity
  8
0
100
AcDbLine
 10
199.6770105196232
 20
180.8974425266674
 30
0.0
 11
199.6770105196232
 21
179.1974425266675
 31
0.0
  0
LINE
  5
2DAE
330
1F
100
AcDbEntity
  8
0
100
AcDbLine
 10
192.8770105196233
 20
172.3974425266675
 30
0.0
 11
191.1770105196232
 21
172.3974425266675
 31
0.0
  0
LINE
  5
2DAF
330
1F
100
AcDbEntity
  8
0
100
AcDbLine
 10
183.8770105196233
 20
173.6974425266675
 30
0.0
 11
192.8770105196233
 21
173.6974425266675
 31
0.0
  0
LINE
  5
2DB0
330
1F
100
AcDbEntity
  8
0
100
AcDbLine
 10
199.155039677432
 20
170.6974425266675
 30
0.0
 11
191.1770105196232
 21
170.6974425266675
 31
0.0
  0
ARC
  5
2DB1
330
1F
100
AcDbEntity
  8
0
100
AcDbCircle
 10
186.8770105196233
 20
185.1974425266675
 30
0.0
 40
19.00000000000001
100
AcDbArc
 50
310.2566125763499
 51
319.7433874236512
  0
LINE
  5
2DB2
330
1F
100
AcDbEntity
  8
0
100
AcDbLine
 10
192.8770105196233
 20
173.6974425266675
 30
0.0
 11
192.8770105196233
 21
172.3974425266675
 31
0.0
  0
LINE
  5
2DB3
330
1F
100
AcDbEntity
  8
0
100
AcDbLine
 10
199.6770105196232
 20
179.1974425266675
 30
0.0
 11
198.3770105196233
 21
179.1974425266675
 31
0.0
  0
LINE
  5
2DB4
330
1F
100
AcDbEntity
  8
0
100
AcDbLine
 10
183.8770105196233
 20
170.6974425266675
 30
0.0
 11
174.5989813618146
 21
170.6974425266675
 31
0.0
  0
LINE
  5
2DB5
330
1F
100
AcDbEntity
  8
0
100
AcDbLine
 10
183.8770105196233
 20
170.6974425266675
 30
0.0
 11
183.8770105196233
 21
173.6974425266675
 31
0.0
  0
LINE
  5
2DB6
330
1F
100
AcDbEntity
  8
0
100
AcDbLine
 10
191.1770105196232
 20
172.3974425266675
 30
0.0
 11
191.1770105196232
 21
170.6974425266675
 31
0.0
  0
ARC
  5
2DB7
102
{ACAD_REACTORS
330
2E53
330
2E8E
102
}
330
1F
100
AcDbEntity
  8
0
100
AcDbCircle
 10
186.8770105196233
 20
185.1974425266675
 30
0.0
 40
19.00000000000001
100
AcDbArc
 50
220.2566125763488
 51
229.7433874236501
  0
ARC
  5
2DB8
330
1F
100
AcDbEntity
  8
0
 62
     3
100
AcDbCircle
 10
176.9770105196232
 20
175.2974425266675
 30
0.0
 40
2.5
100
AcDbArc
 50
256.73546156759
 51
191.4505177280278
  0
CIRCLE
  5
2DB9
330
1F
100
AcDbEntity
  8
0
100
AcDbCircle
 10
176.9770105196232
 20
175.2974425266675
 30
0.0
 40
3.25
  0
CIRCLE
  5
2DBA
330
1F
100
AcDbEntity
  8
0
100
AcDbCircle
 10
176.9770105196232
 20
175.2974425266675
 30
0.0
 40
2.05
  0
LINE
  5
2DBB
102
{ACAD_REACTORS
330
2E4A
330
2E50
330
2E85
330
2E8B
102
}
330
1F
100
AcDbEntity
  8
CENTER
 48
0.5
100
AcDbLine
 10
176.9770105196234
 20
180.1190084530303
 30
0.0
 11
176.9770105196231
 21
170.4758766003046
 31
0.0
  0
LINE
  5
2DBC
330
1F
100
AcDbEntity
  8
CENTER
 48
0.5
100
AcDbLine
 10
172.1554445932603
 20
175.2974425266674
 30
0.0
 11
181.798576445986
 21
175.2974425266674
 31
0.0
  0
ARC
  5
2DBD
330
1F
100
AcDbEntity
  8
0
100
AcDbCircle
 10
190.8270105196233
 20
196.0974425266675
 30
0.0
 40
1.7
100
AcDbArc
 50
270.0
 51
0.0
  0
LINE
  5
2DBE
330
1F
100
AcDbEntity
  8
0
100
AcDbLine
 10
192.5270105196234
 20
196.0974425266675
 30
0.0
 11
192.5270105196234
 21
198.1974425266675
 31
0.0
  0
LINE
  5
2DBF
330
1F
100
AcDbEntity
  8
0
100
AcDbLine
 10
201.3770105196233
 20
197.4754716844761
 30
0.0
 11
201.3770105196233
 21
188.1974425266675
 31
0.0
  0
ARC
  5
2DC0
330
1F
100
AcDbEntity
  8
0
 62
     3
100
AcDbCircle
 10
196.7770105196233
 20
195.0974425266675
 30
0.0
 40
2.5
100
AcDbArc
 50
257.4686954257529
 51
195.0112856375039
  0
CIRCLE
  5
2DC1
330
1F
100
AcDbEntity
  8
0
100
AcDbCircle
 10
196.7770105196233
 20
195.0974425266675
 30
0.0
 40
3.25
  0
CIRCLE
  5
2DC2
102
{ACAD_REACTORS
330
2E50
330
2E8B
102
}
330
1F
100
AcDbEntity
  8
0
100
AcDbCircle
 10
196.7770105196233
 20
195.0974425266675
 30
0.0
 40
2.05
  0
LINE
  5
2DC3
330
1F
100
AcDbEntity
  8
0
100
AcDbLine
 10
201.3770105196233
 20
180.8974425266674
 30
0.0
 11
199.6770105196232
 21
180.8974425266674
 31
0.0
  0
LINE
  5
2DC4
330
1F
100
AcDbEntity
  8
0
100
AcDbLine
 10
198.3770105196233
 20
188.1974425266675
 30
0.0
 11
201.3770105196233
 21
188.1974425266675
 31
0.0
  0
LINE
  5
2DC5
330
1F
100
AcDbEntity
  8
0
100
AcDbLine
 10
192.0770105196233
 20
199.6974425266675
 30
0.0
 11
199.155039677432
 21
199.6974425266675
 31
0.0
  0
ARC
  5
2DC6
102
{ACAD_REACTORS
330
2E4D
330
2E53
330
2E88
330
2E8E
102
}
330
1F
100
AcDbEntity
  8
0
100
AcDbCircle
 10
186.8770105196233
 20
185.1974425266675
 30
0.0
 40
19.00000000000001
100
AcDbArc
 50
40.2566125763488
 51
49.74338742365009
  0
LINE
  5
2DC7
330
1F
100
AcDbEntity
  8
0
100
AcDbLine
 10
192.5270105196234
 20
198.1974425266675
 30
0.0
 11
192.0770105196233
 21
198.6974425266675
 31
0.0
  0
LINE
  5
2DC8
330
1F
100
AcDbEntity
  8
0
100
AcDbLine
 10
192.0770105196233
 20
198.6974425266675
 30
0.0
 11
192.0770105196233
 21
199.6974425266675
 31
0.0
  0
LINE
  5
2DC9
330
1F
100
AcDbEntity
  8
0
100
AcDbLine
 10
181.2270105196233
 20
198.1974425266675
 30
0.0
 11
181.2270105196233
 21
196.0974425266675
 31
0.0
  0
LINE
  5
2DCA
330
1F
100
AcDbEntity
  8
0
100
AcDbLine
 10
188.2270105196233
 20
198.1974425266675
 30
0.0
 11
188.2270105196233
 21
196.0974425266675
 31
0.0
  0
LINE
  5
2DCB
330
1F
100
AcDbEntity
  8
0
100
AcDbLine
 10
185.5270105196234
 20
196.0974425266675
 30
0.0
 11
185.5270105196234
 21
198.1974425266675
 31
0.0
  0
LINE
  5
2DCC
330
1F
100
AcDbEntity
  8
CENTER
100
AcDbLine
 10
186.8770105196233
 20
201.9080809610073
 30
0.0
 11
186.8770105196233
 21
168.4868040923278
 31
0.0
  0
LINE
  5
2DCD
330
1F
100
AcDbEntity
  8
CENTER
100
AcDbLine
 10
170.1663720852835
 20
185.1974425266675
 30
0.0
 11
203.5876489539631
 21
185.1974425266675
 31
0.0
  0
LINE
  5
2DCE
330
1F
100
AcDbEntity
  8
0
100
AcDbLine
 10
185.2186981244456
 20
182.6974425266675
 30
0.0
 11
188.5353229148009
 21
182.6974425266675
 31
0.0
  0
LINE
  5
2DCF
330
1F
100
AcDbEntity
  8
0
100
AcDbLine
 10
185.2186981244455
 20
187.6974425266675
 30
0.0
 11
188.535322914801
 21
187.6974425266675
 31
0.0
  0
ARC
  5
2DD0
330
1F
100
AcDbEntity
  8
0
100
AcDbCircle
 10
189.9270105196232
 20
196.0974425266675
 30
0.0
 40
1.7
100
AcDbArc
 50
180.0
 51
270.0
  0
LINE
  5
2DD1
330
1F
100
AcDbEntity
  8
0
100
AcDbLine
 10
189.9270105196232
 20
194.3974425266674
 30
0.0
 11
190.8270105196233
 21
194.3974425266674
 31
0.0
  0
LINE
  5
2DD2
330
1F
100
AcDbEntity
  8
0
100
AcDbLine
 10
182.9270105196232
 20
194.3974425266674
 30
0.0
 11
183.8270105196233
 21
194.3974425266674
 31
0.0
  0
ARC
  5
2DD3
330
1F
100
AcDbEntity
  8
0
100
AcDbCircle
 10
183.8270105196233
 20
196.0974425266675
 30
0.0
 40
1.7
100
AcDbArc
 50
270.0
 51
0.0
  0
ARC
  5
2DD4
330
1F
100
AcDbEntity
  8
0
100
AcDbCircle
 10
182.9270105196232
 20
196.0974425266675
 30
0.0
 40
1.7
100
AcDbArc
 50
180.0
 51
270.0
  0
LINE
  5
2DD5
330
1F
100
AcDbEntity
  8
0
100
AcDbLine
 10
174.5989813618146
 20
199.6974425266675
 30
0.0
 11
181.6770105196232
 21
199.6974425266675
 31
0.0
  0
LINE
  5
2DD6
330
1F
100
AcDbEntity
  8
0
100
AcDbLine
 10
185.0770105196233
 20
199.6974425266675
 30
0.0
 11
188.6770105196232
 21
199.6974425266675
 31
0.0
  0
LINE
  5
2DD7
330
1F
100
AcDbEntity
  8
0
100
AcDbLine
 10
188.6770105196232
 20
198.6974425266675
 30
0.0
 11
188.2270105196233
 21
198.1974425266675
 31
0.0
  0
LINE
  5
2DD8
330
1F
100
AcDbEntity
  8
0
100
AcDbLine
 10
188.6770105196232
 20
199.6974425266675
 30
0.0
 11
188.6770105196232
 21
198.6974425266675
 31
0.0
  0
LINE
  5
2DD9
330
1F
100
AcDbEntity
  8
0
100
AcDbLine
 10
185.5270105196234
 20
198.1974425266675
 30
0.0
 11
185.0770105196233
 21
198.6974425266675
 31
0.0
  0
LINE
  5
2DDA
330
1F
100
AcDbEntity
  8
0
100
AcDbLine
 10
185.0770105196233
 20
198.6974425266675
 30
0.0
 11
185.0770105196233
 21
199.6974425266675
 31
0.0
  0
LINE
  5
2DDB
330
1F
100
AcDbEntity
  8
0
100
AcDbLine
 10
181.6770105196232
 20
198.6974425266675
 30
0.0
 11
181.2270105196233
 21
198.1974425266675
 31
0.0
  0
LINE
  5
2DDC
330
1F
100
AcDbEntity
  8
0
100
AcDbLine
 10
181.6770105196232
 20
199.6974425266675
 30
0.0
 11
181.6770105196232
 21
198.6974425266675
 31
0.0
  0
ARC
  5
2DDD
102
{ACAD_REACTORS
330
2E4D
330
2E88
102
}
330
1F
100
AcDbEntity
  8
0
100
AcDbCircle
 10
186.8770105196233
 20
185.1974425266675
 30
0.0
 40
19.00000000000001
100
AcDbArc
 50
130.2566125763499
 51
139.7433874236512
  0
LINE
  5
2DDE
330
1F
100
AcDbEntity
  8
0
100
AcDbLine
 10
115.8994156332907
 20
190.6974425266675
 30
0.0
 11
117.099415633291
 21
190.6974425266675
 31
0.0
  0
LINE
  5
2DDF
330
1F
100
AcDbEntity
  8
0
100
AcDbLine
 10
117.3994156332909
 20
190.3974425266675
 30
0.0
 11
117.3994156332907
 21
179.9974425266675
 31
0.0
  0
LINE
  5
2DE0
102
{ACAD_REACTORS
330
2E2C
330
2E38
102
}
330
1F
100
AcDbEntity
  8
0
100
AcDbLine
 10
117.099415633291
 20
190.6974425266675
 30
0.0
 11
117.3994156332909
 21
190.3974425266675
 31
0.0
1001
GENIUS_GENFIL_13
1070
     0
1040
0.3
1040
0.3
1040
1.0
1040
0.0
1002
{
1002
}
1001
GENIUS_GENOBJ-N-CHA_13
1002
{
1000
OWNER
1000
GEN
1002
}
1001
GENIUS_GENODEF_13
1002
{
1000
HIER
1070
     0
1002
}
1002
{
1000
MANEDIT
1070
     0
1002
}
1002
{
1000
NOSEL
1070
     0
1002
}
1002
{
1000
BEHIND
1070
     0
1002
}
1002
{
1000
OTHER
1070
     0
1002
}
1002
{
1000
REACTOR
1002
}
  0
LINE
  5
2DE1
330
1F
100
AcDbEntity
  8
0
100
AcDbLine
 10
117.0994156332908
 20
179.6974425266675
 30
0.0
 11
117.3994156332907
 21
179.9974425266675
 31
0.0
1001
GENIUS_GENFIL_13
1070
     0
1040
0.3
1040
0.3
1040
1.0
1040
0.0
1002
{
1002
}
1001
GENIUS_GENOBJ-N-CHA_13
1002
{
1000
OWNER
1000
GEN
1002
}
1001
GENIUS_GENODEF_13
1002
{
1000
HIER
1070
     0
1002
}
1002
{
1000
MANEDIT
1070
     0
1002
}
1002
{
1000
NOSEL
1070
     0
1002
}
1002
{
1000
BEHIND
1070
     0
1002
}
1002
{
1000
OTHER
1070
     0
1002
}
1002
{
1000
REACTOR
1002
}
  0
CIRCLE
  5
2DE2
330
1F
100
AcDbEntity
  8
0
100
AcDbCircle
 10
186.8770105196233
 20
185.1974425266675
 30
0.0
 40
5.5
  0
CIRCLE
  5
2DE3
102
{ACAD_REACTORS
330
2E47
330
2E82
102
}
330
1F
100
AcDbEntity
  8
0
100
AcDbCircle
 10
186.8770105196233
 20
185.1974425266675
 30
0.0
 40
3.0
  0
LINE
  5
2DE4
102
{ACAD_REACTORS
330
2E47
330
2E82
102
}
330
1F
100
AcDbEntity
  8
0
100
AcDbLine
 10
189.3770105196234
 20
183.5391301314898
 30
0.0
 11
189.3770105196234
 21
186.8557549218453
 31
0.0
  0
LINE
  5
2DE5
102
{ACAD_REACTORS
330
2E47
330
2E82
102
}
330
1F
100
AcDbEntity
  8
0
100
AcDbLine
 10
184.3770105196234
 20
183.5391301314898
 30
0.0
 11
184.3770105196234
 21
186.8557549218453
 31
0.0
  0
ARC
  5
2DE6
330
1F
100
AcDbEntity
  8
0
100
AcDbCircle
 10
186.8770105196233
 20
185.1974425266675
 30
0.0
 40
7.15
100
AcDbArc
 50
15.00000000000119
 51
344.9999999999988
  0
ARC
  5
2DE7
330
1F
100
AcDbEntity
  8
0
100
AcDbCircle
 10
194.1456399585324
 20
181.5111952991039
 30
0.0
 40
0.45
100
AcDbArc
 50
13.02059531969255
 51
293.1961939070912
  0
LINE
  5
2DE8
330
1F
100
AcDbEntity
  8
0
100
AcDbLine
 10
193.7833801775902
 20
183.3468863541845
 30
0.0
 11
195.0873800430803
 21
182.9974806432961
 31
0.0
  0
ARC
  5
2DEB
330
1F
100
AcDbEntity
  8
0
100
AcDbCircle
 10
194.1456399585324
 20
188.8836897542312
 30
0.0
 40
0.45
100
AcDbArc
 50
66.80380609290875
 51
346.9794046803015
  0
LINE
  5
2DEC
330
1F
100
AcDbEntity
  8
0
100
AcDbLine
 10
193.7833801775901
 20
187.0479986991505
 30
0.0
 11
195.0873800430803
 21
187.3974044100389
 31
0.0
  0
LINE
  5
2DEF
330
1F
100
AcDbEntity
  8
0
100
AcDbLine
 10
115.8994156332907
 20
170.6974425266675
 30
0.0
 11
92.39941563329063
 21
170.6974425266675
 31
0.0
  0
LINE
  5
2DF0
330
1F
100
AcDbEntity
  8
0
100
AcDbLine
 10
115.8994156332907
 20
197.4754716844762
 30
0.0
 11
92.39941563329063
 21
197.4754716844762
 31
0.0
  0
LINE
  5
2DF1
102
{ACAD_REACTORS
330
2E32
102
}
330
1F
100
AcDbEntity
  8
0
100
AcDbLine
 10
92.39941563329063
 20
199.6974425266674
 30
0.0
 11
115.8994156332907
 21
199.6974425266675
 31
0.0
  0
ARC
  5
2DF2
330
1F
100
AcDbEntity
  8
0
 62
     3
100
AcDbCircle
 10
108.8994156332907
 20
191.6974425266675
 30
0.0
 40
2.5
100
AcDbArc
 50
341.6222882370726
 51
285.6717783160901
  0
CIRCLE
  5
2DF3
330
1F
100
AcDbEntity
  8
0
100
AcDbCircle
 10
108.8994156332907
 20
191.6974425266675
 30
0.0
 40
2.15
  0
ARC
  5
2DF5
330
1F
100
AcDbEntity
  8
0
 62
     3
100
AcDbCircle
 10
99.39941563329075
 20
191.6974425266675
 30
0.0
 40
2.5
100
AcDbArc
 50
340.7850885035962
 51
286.3311095769963
  0
CIRCLE
  5
2DF6
330
1F
100
AcDbEntity
  8
0
100
AcDbCircle
 10
99.39941563329075
 20
191.6974425266675
 30
0.0
 40
2.15
  0
LINE
  5
2DF7
330
1F
100
AcDbEntity
  8
CENTER
 48
0.35
100
AcDbLine
 10
99.39941563329075
 20
195.4561677188665
 30
0.0
 11
99.39941563329075
 21
187.9387173344685
 31
0.0
  0
LINE
  5
2DF9
102
{ACAD_REACTORS
330
2E42
330
2E7D
102
}
330
1F
100
AcDbEntity
  8
CENTER
 48
0.35
100
AcDbLine
 10
103.1581408254897
 20
191.6974425266675
 30
0.0
 11
95.64069044109174
 21
191.6974425266676
 31
0.0
  0
LINE
  5
2DFA
330
1F
100
AcDbEntity
  8
0
100
AcDbLine
 10
115.8994156332907
 20
172.9194133688588
 30
0.0
 11
92.39941563329063
 21
172.9194133688588
 31
0.0
  0
LINE
  5
2DFB
102
{ACAD_REACTORS
330
2E38
102
}
330
1F
100
AcDbEntity
  8
0
100
AcDbLine
 10
115.8994156332908
 20
179.6974425266675
 30
0.0
 11
117.0994156332908
 21
179.6974425266675
 31
0.0
  0
LINE
  5
2DFC
102
{ACAD_REACTORS
330
2E4A
330
2E85
102
}
330
1F
100
AcDbEntity
  8
CENTER
 48
0.5
100
AcDbLine
 10
196.7770105196235
 20
199.9190084530304
 30
0.0
 11
196.7770105196231
 21
190.2758766003047
 31
0.0
  0
LINE
  5
2DFD
330
1F
100
AcDbEntity
  8
CENTER
 48
0.5
100
AcDbLine
 10
191.9554445932604
 20
195.0974425266675
 30
0.0
 11
201.5985764459861
 21
195.0974425266675
 31
0.0
  0
LINE
  5
2DFE
102
{ACAD_REACTORS
330
2E35
102
}
330
1F
100
AcDbEntity
  8
0
100
AcDbLine
 10
117.8994156332907
 20
188.1974425266675
 30
0.0
 11
117.3994156332907
 21
188.1974425266675
 31
0.0
  0
LINE
  5
2DFF
102
{ACAD_REACTORS
330
2E35
102
}
330
1F
100
AcDbEntity
  8
0
100
AcDbLine
 10
117.8994156332907
 20
182.1974425266675
 30
0.0
 11
117.3994156332906
 21
182.1974425266675
 31
0.0
  0
ARC
  5
2E00
330
1F
100
AcDbEntity
  8
0
 62
     3
100
AcDbCircle
 10
186.8770105196233
 20
185.1974425266675
 30
0.0
 40
2.099999999999965
100
AcDbArc
 50
335.5554857036504
 51
240.7147437689546
  0
CIRCLE
  5
2E01
330
1F
100
AcDbEntity
  8
0
100
AcDbCircle
 10
186.8770105196233
 20
185.1974425266675
 30
0.0
 40
2.499999999999943
  0
LINE
  5
2E02
330
1F
100
AcDbEntity
  8
0
100
AcDbLine
 10
129.8994156332907
 20
187.5068436034259
 30
0.0
 11
126.8994156332907
 21
187.5068436034259
 31
0.0
  0
LINE
  5
2E03
330
1F
100
AcDbEntity
  8
0
100
AcDbLine
 10
130.0473792839631
 20
189.8162446801844
 30
0.0
 11
126.7514519826179
 21
189.8162446801843
 31
0.0
  0
LINE
  5
2E04
102
{ACAD_REACTORS
330
2E18
102
}
330
1F
100
AcDbEntity
  8
0
100
AcDbLine
 10
130.3994156332907
 20
188.9759256662849
 30
0.0
 11
130.3994156332907
 21
185.1974425266674
 31
0.0
  0
ARC
  5
2E05
330
1F
100
AcDbEntity
  8
0
100
AcDbCircle
 10
124.8160822999575
 20
185.1974425266674
 30
0.0
 40
5.58333333333315
100
AcDbArc
 50
0.0
 51
24.4326976794519
  0
LINE
  5
2E06
330
1F
100
AcDbEntity
  8
0
100
AcDbLine
 10
130.0473792839631
 20
189.8162446801844
 30
0.0
 11
130.3994156332905
 21
188.9759256662852
 31
0.0
  0
ARC
  5
2E07
330
1F
100
AcDbEntity
  8
0
100
AcDbCircle
 10
128.8160822999572
 20
188.6615441418051
 30
0.0
 40
1.583333333333354
100
AcDbArc
 50
313.1735511072627
 51
46.82644889273726
  0
LINE
  5
2E08
102
{ACAD_REACTORS
330
2E18
102
}
330
1F
100
AcDbEntity
  8
0
100
AcDbLine
 10
126.3994156332907
 20
188.9759256662854
 30
0.0
 11
126.3994156332907
 21
185.1974425266674
 31
0.0
  0
ARC
  5
2E09
330
1F
100
AcDbEntity
  8
0
100
AcDbCircle
 10
131.982748966624
 20
185.1974425266674
 30
0.0
 40
5.583333333333253
100
AcDbArc
 50
155.5673023205481
 51
180.0
  0
LINE
  5
2E0A
102
{ACAD_REACTORS
330
2E18
102
}
330
1F
100
AcDbEntity
  8
0
100
AcDbLine
 10
126.7514519826179
 20
189.8162446801844
 30
0.0
 11
126.3994156332905
 21
188.975925666285
 31
0.0
  0
ARC
  5
2E0B
330
1F
100
AcDbEntity
  8
0
100
AcDbCircle
 10
127.982748966624
 20
188.6615441418051
 30
0.0
 40
1.583333333333354
100
AcDbArc
 50
133.1735511072627
 51
226.8264488927373
  0
LINE
  5
2E0C
330
1F
100
AcDbEntity
  8
0
100
AcDbLine
 10
129.8994156332907
 20
182.888041449909
 30
0.0
 11
126.8994156332907
 21
182.888041449909
 31
0.0
  0
LINE
  5
2E0D
330
1F
100
AcDbEntity
  8
0
100
AcDbLine
 10
130.0473792839631
 20
180.5786403731505
 30
0.0
 11
126.7514519826179
 21
180.5786403731506
 31
0.0
  0
LINE
  5
2E0E
330
1F
100
AcDbEntity
  8
0
100
AcDbLine
 10
130.3994156332907
 20
181.41895938705
 30
0.0
 11
130.3994156332907
 21
185.1974425266674
 31
0.0
  0
ARC
  5
2E0F
330
1F
100
AcDbEntity
  8
0
100
AcDbCircle
 10
124.8160822999575
 20
185.1974425266674
 30
0.0
 40
5.58333333333315
100
AcDbArc
 50
335.5673023205481
 51
0.0
  0
LINE
  5
2E10
330
1F
100
AcDbEntity
  8
0
100
AcDbLine
 10
130.0473792839631
 20
180.5786403731504
 30
0.0
 11
130.3994156332905
 21
181.4189593870497
 31
0.0
  0
ARC
  5
2E11
330
1F
100
AcDbEntity
  8
0
100
AcDbCircle
 10
128.8160822999572
 20
181.7333409115297
 30
0.0
 40
1.583333333333354
100
AcDbArc
 50
313.1735511072627
 51
46.82644889273726
  0
LINE
  5
2E12
330
1F
100
AcDbEntity
  8
0
100
AcDbLine
 10
126.3994156332907
 20
181.4189593870495
 30
0.0
 11
126.3994156332907
 21
185.1974425266674
 31
0.0
  0
ARC
  5
2E13
330
1F
100
AcDbEntity
  8
0
100
AcDbCircle
 10
131.982748966624
 20
185.1974425266675
 30
0.0
 40
5.583333333333253
100
AcDbArc
 50
180.0
 51
204.4326976794519
  0
LINE
  5
2E14
330
1F
100
AcDbEntity
  8
0
100
AcDbLine
 10
126.7514519826179
 20
180.5786403731504
 30
0.0
 11
126.3994156332905
 21
181.4189593870498
 31
0.0
  0
ARC
  5
2E15
330
1F
100
AcDbEntity
  8
0
100
AcDbCircle
 10
127.982748966624
 20
181.7333409115297
 30
0.0
 40
1.583333333333354
100
AcDbArc
 50
133.1735511072627
 51
226.8264488927373
  0
DIMENSION
  5
2E16
102
{ACAD_XDICTIONARY
360
2E17
102
}
102
{ACAD_REACTORS
330
2E18
102
}
330
1F
100
AcDbEntity
  8
DIM
100
AcDbDimension
  2
*D2
 10
130.3994156332907
 20
194.742567777861
 30
0.0
 11
128.3994156332907
 21
196.742567777861
 31
0.0
 70
    32
 71
     5
 42
4.0
  3
AM_ANSI
100
AcDbAlignedDimension
 13
126.3994156332907
 23
188.9759256662856
 33
0.0
 14
130.3994156332907
 24
188.9759256662849
 34
0.0
100
AcDbRotatedDimension
1001
ACAD
1000
DSTYLE
1002
{
1070
    41
1040
2.0
1070
    42
1040
1.5
1070
    43
1040
8.0
1070
    44
1040
1.5
1070
    73
1070
     0
1070
    74
1070
     0
1070
    77
1070
     3
1070
   140
1040
2.0
1070
   141
1040
3.0
1070
   146
1040
0.6
1070
   147
1040
1.0
1070
   172
1070
     1
1070
   178
1070
   256
1070
   272
1070
     8
1070
   274
1070
     2
1070
   340
1005
2529
1002
}
  0
DIMENSION
  5
2E19
102
{ACAD_XDICTIONARY
360
2E1A
102
}
102
{ACAD_REACTORS
330
2E1B
102
}
330
1F
100
AcDbEntity
  8
DIM
100
AcDbDimension
  2
*D3
 10
133.3994156332907
 20
199.2098671454806
 30
0.0
 11
128.3994156332907
 21
201.2098671454807
 31
0.0
 70
    32
 71
     5
 42
10.0
  3
AM_ANSI
100
AcDbAlignedDimension
 13
123.3994156332907
 23
187.6974425266675
 33
0.0
 14
133.3994156332907
 24
187.1974425266675
 34
0.0
100
AcDbRotatedDimension
1001
ACAD
1000
DSTYLE
1002
{
1070
    41
1040
2.0
1070
    42
1040
1.5
1070
    43
1040
8.0
1070
    44
1040
1.5
1070
    73
1070
     0
1070
    74
1070
     0
1070
    77
1070
     3
1070
   140
1040
2.0
1070
   141
1040
3.0
1070
   146
1040
0.6
1070
   147
1040
1.0
1070
   172
1070
     1
1070
   178
1070
   256
1070
   272
1070
     8
1070
   274
1070
     2
1070
   340
1005
2529
1002
}
  0
DIMENSION
  5
2E1C
102
{ACAD_XDICTIONARY
360
2E1D
102
}
102
{ACAD_REACTORS
330
2E1E
102
}
330
1F
100
AcDbEntity
  8
DIM
100
AcDbDimension
  2
*D4
 10
133.3994156332907
 20
204.1242095504883
 30
0.0
 11
127.3994156332907
 21
206.1242095504883
 31
0.0
 70
    32
 71
     5
 42
12.0
  3
AM_ANSI
100
AcDbAlignedDimension
 13
121.3994156332907
 23
187.6974425266675
 33
0.0
 14
133.3994156332907
 24
187.1974425266675
 34
0.0
100
AcDbRotatedDimension
1001
ACAD
1000
DSTYLE
1002
{
1070
    41
1040
2.0
1070
    42
1040
1.5
1070
    43
1040
8.0
1070
    44
1040
1.5
1070
    73
1070
     0
1070
    74
1070
     0
1070
    77
1070
     3
1070
   140
1040
2.0
1070
   141
1040
3.0
1070
   146
1040
0.6
1070
   147
1040
1.0
1070
   172
1070
     1
1070
   178
1070
   256
1070
   272
1070
     8
1070
   274
1070
     2
1070
   340
1005
2529
1002
}
  0
DIMENSION
  5
2E1F
102
{ACAD_XDICTIONARY
360
2E20
102
}
102
{ACAD_REACTORS
330
2E21
102
}
330
1F
100
AcDbEntity
  8
DIM
100
AcDbDimension
  2
*D5
 10
133.3994156332907
 20
214.3904349420809
 30
0.0
 11
124.6494156332907
 21
216.3904349420809
 31
0.0
 70
    32
 71
     5
 42
17.5
  3
AM_ANSI
100
AcDbAlignedDimension
 13
115.8994156332907
 23
199.6974425266675
 33
0.0
 14
133.3994156332907
 24
187.1974425266675
 34
0.0
100
AcDbRotatedDimension
1001
ACAD
1000
DSTYLE
1002
{
1070
    41
1040
2.0
1070
    42
1040
1.5
1070
    43
1040
8.0
1070
    44
1040
1.5
1070
    73
1070
     0
1070
    74
1070
     0
1070
    77
1070
     3
1070
   140
1040
2.0
1070
   141
1040
3.0
1070
   146
1040
0.6
1070
   147
1040
1.0
1070
   172
1070
     1
1070
   178
1070
   256
1070
   272
1070
     8
1070
   274
1070
     2
1070
   340
1005
2529
1002
}
  0
DIMENSION
  5
2E22
102
{ACAD_XDICTIONARY
360
2E23
102
}
102
{ACAD_REACTORS
330
2E24
102
}
330
1F
100
AcDbEntity
  8
DIM
100
AcDbDimension
  2
*D6
 10
99.39941563329075
 20
204.1242095504883
 30
0.0
 11
95.89941563329075
 21
206.1242095504883
 31
0.0
 70
    32
 71
     5
 42
7.0
  3
AM_ANSI
100
AcDbAlignedDimension
 13
92.39941563329074
 23
199.6974425266675
 33
0.0
 14
99.39941563329075
 24
194.7363314155564
 34
0.0
100
AcDbRotatedDimension
1001
ACAD
1000
DSTYLE
1002
{
1070
    41
1040
2.0
1070
    42
1040
1.5
1070
    43
1040
8.0
1070
    44
1040
1.5
1070
    73
1070
     0
1070
    74
1070
     0
1070
    77
1070
     3
1070
   140
1040
2.0
1070
   141
1040
3.0
1070
   146
1040
0.6
1070
   147
1040
1.0
1070
   172
1070
     1
1070
   178
1070
   256
1070
   272
1070
     8
1070
   274
1070
     2
1070
   340
1005
2529
1002
}
  0
DIMENSION
  5
2E25
102
{ACAD_XDICTIONARY
360
2E26
102
}
102
{ACAD_REACTORS
330
2E27
102
}
330
1F
100
AcDbEntity
  8
DIM
100
AcDbDimension
  2
*D7
 10
115.8994156332907
 20
204.1242095504883
 30
0.0
 11
112.3994156332907
 21
206.1242095504883
 31
0.0
 70
    32
 71
     5
 42
7.0
  3
AM_ANSI
100
AcDbAlignedDimension
 13
108.8994156332907
 23
194.7363314155564
 33
0.0
 14
115.8994156332907
 24
199.6974425266675
 34
0.0
100
AcDbRotatedDimension
1001
ACAD
1000
DSTYLE
1002
{
1070
    41
1040
2.0
1070
    42
1040
1.5
1070
    43
1040
8.0
1070
    44
1040
1.5
1070
    73
1070
     0
1070
    74
1070
     0
1070
    77
1070
     3
1070
   140
1040
2.0
1070
   141
1040
3.0
1070
   146
1040
0.6
1070
   147
1040
1.0
1070
   172
1070
     1
1070
   178
1070
   256
1070
   272
1070
     8
1070
   274
1070
     2
1070
   340
1005
2529
1002
}
  0
LINE
  5
2E28
330
1F
100
AcDbEntity
  8
CENTER
 48
0.35
100
AcDbLine
 10
108.8994156332907
 20
195.4561677188665
 30
0.0
 11
108.8994156332907
 21
187.9387173344685
 31
0.0
  0
LINE
  5
2E29
330
1F
100
AcDbEntity
  8
CENTER
 48
0.35
100
AcDbLine
 10
112.6581408254897
 20
191.6974425266675
 30
0.0
 11
105.1406904410917
 21
191.6974425266676
 31
0.0
  0
DIMENSION
  5
2E2A
102
{ACAD_XDICTIONARY
360
2E2B
102
}
102
{ACAD_REACTORS
330
2E2C
102
}
330
1F
100
AcDbEntity
  8
DIM
100
AcDbDimension
  2
*D8
 10
117.3994156332909
 20
209.0211061299824
 30
0.0
 11
124.3041775380528
 21
211.0211061299824
 31
0.0
 70
    32
 71
     5
 42
1.500000000000227
  3
AM_ANSI
100
AcDbAlignedDimension
 13
115.8994156332907
 23
199.6974425266675
 33
0.0
 14
117.3994156332909
 24
190.3974425266675
 34
0.0
100
AcDbRotatedDimension
1001
ACAD
1000
DSTYLE
1002
{
1070
    41
1040
2.0
1070
    42
1040
1.5
1070
    43
1040
8.0
1070
    44
1040
1.5
1070
    73
1070
     0
1070
    74
1070
     0
1070
    77
1070
     3
1070
   140
1040
2.0
1070
   141
1040
3.0
1070
   146
1040
0.6
1070
   147
1040
1.0
1070
   172
1070
     1
1070
   178
1070
   256
1070
   272
1070
     8
1070
   274
1070
     2
1070
   340
1005
2529
1002
}
  0
DIMENSION
  5
2E2D
102
{ACAD_XDICTIONARY
360
2E2E
102
}
102
{ACAD_REACTORS
330
2E2F
102
}
330
1F
100
AcDbEntity
  8
DIM
100
AcDbDimension
  2
*D9
 10
115.8994156332907
 20
214.3904349420809
 30
0.0
 11
104.1494156332907
 21
214.3904349420809
 31
0.0
 70
   160
  1
18.5+stroke=S
 71
     5
 42
23.5
  3
AM_ANSI
100
AcDbAlignedDimension
 13
92.39941563329074
 23
199.6974425266675
 33
0.0
 14
115.8994156332907
 24
199.6974425266675
 34
0.0
100
AcDbRotatedDimension
1001
ACAD
1000
DSTYLE
1002
{
1070
    41
1040
2.0
1070
    42
1040
1.5
1070
    43
1040
8.0
1070
    44
1040
1.5
1070
    73
1070
     0
1070
    74
1070
     0
1070
    77
1070
     3
1070
   140
1040
2.0
1070
   141
1040
3.0
1070
   146
1040
0.6
1070
   147
1040
1.0
1070
   172
1070
     1
1070
   178
1070
   256
1070
   272
1070
     8
1070
   274
1070
     2
1070
   340
1005
2529
1002
}
  0
DIMENSION
  5
2E30
102
{ACAD_XDICTIONARY
360
2E31
102
}
102
{ACAD_REACTORS
330
2E32
102
}
330
1F
100
AcDbEntity
  8
DIM
100
AcDbDimension
  2
*D10
 10
133.3994156332907
 20
220.3163162106114
 30
0.0
 11
112.8994156332907
 21
222.3163162106114
 31
0.0
 70
    32
  1
36+stroke=ZZ
 71
     5
 42
41.00000000000011
  3
AM_ANSI
100
AcDbAlignedDimension
 13
92.39941563329063
 23
199.6974425266674
 33
0.0
 14
133.3994156332907
 24
187.1974425266675
 34
0.0
100
AcDbRotatedDimension
1001
ACAD
1000
DSTYLE
1002
{
1070
    41
1040
2.0
1070
    42
1040
1.5
1070
    43
1040
8.0
1070
    44
1040
1.5
1070
    73
1070
     0
1070
    74
1070
     0
1070
    77
1070
     3
1070
   140
1040
2.0
1070
   141
1040
3.0
1070
   146
1040
0.6
1070
   147
1040
1.0
1070
   172
1070
     1
1070
   178
1070
   256
1070
   272
1070
     8
1070
   274
1070
     2
1070
   340
1005
2529
1002
}
  0
DIMENSION
  5
2E33
102
{ACAD_XDICTIONARY
360
2E34
102
}
102
{ACAD_REACTORS
330
2E35
102
}
330
1F
100
AcDbEntity
  8
DIM
100
AcDbDimension
  2
*D11
 10
141.8877739789591
 20
182.1974425266675
 30
0.0
 11
139.8877739789591
 21
185.1974425266675
 31
0.0
 70
    32
  1
%%c<>
 71
     5
 42
6.0
  3
AM_ANSI
100
AcDbAlignedDimension
 13
117.8994156332907
 23
188.1974425266675
 33
0.0
 14
117.8994156332907
 24
182.1974425266675
 34
0.0
 50
90.0
100
AcDbRotatedDimension
1001
ACAD
1000
DSTYLE
1002
{
1070
    41
1040
2.0
1070
    42
1040
1.5
1070
    43
1040
8.0
1070
    44
1040
1.5
1070
    73
1070
     0
1070
    74
1070
     0
1070
    77
1070
     3
1070
   140
1040
2.0
1070
   141
1040
3.0
1070
   146
1040
0.6
1070
   147
1040
1.0
1070
   172
1070
     1
1070
   178
1070
   256
1070
   272
1070
     8
1070
   274
1070
     2
1070
   340
1005
2529
1002
}
  0
DIMENSION
  5
2E36
102
{ACAD_XDICTIONARY
360
2E37
102
}
102
{ACAD_REACTORS
330
2E38
102
}
330
1F
100
AcDbEntity
  8
DIM
100
AcDbDimension
  2
*D12
 10
147.3062386309478
 20
190.6974425266675
 30
0.0
 11
144.6495719642811
 21
199.1688710980961
 31
0.0
 70
    32
  1
%%c<>{}{\H0.71x;\C3;\S 0^ -0.05;}
 71
     5
 42
11.0
  3
AM_ANSI
100
AcDbAlignedDimension
 13
117.0994156332908
 23
179.6974425266675
 33
0.0
 14
117.099415633291
 24
190.6974425266675
 34
0.0
 50
90.0
100
AcDbRotatedDimension
1001
GENIUS_GENDTOL_13
1000
TolSmNrm
1000

1000
{\H0.71x;$2\S$+$P^ $-$M;}
1040
11.0
1001
ACAD
1000
DSTYLE
1002
{
1070
   286
1070
     0
1070
   284
1070
     8
1070
    41
1040
2.0
1070
    42
1040
1.5
1070
    43
1040
8.0
1070
    44
1040
1.5
1070
    47
1040
0.0
1070
    48
1040
0.05
1070
    73
1070
     0
1070
    74
1070
     0
1070
    77
1070
     3
1070
   140
1040
2.0
1070
   141
1040
3.0
1070
   146
1040
0.6
1070
   147
1040
1.0
1070
   172
1070
     1
1070
   178
1070
   256
1070
   272
1070
     8
1070
   274
1070
     2
1070
   340
1005
2529
1002
}
  0
LEADER
  5
2E39
330
1F
100
AcDbEntity
  8
DIM
100
AcDbLeader
  3
AM_ANSI$7
 73
     0
 74
     0
 75
     1
 40
2.0
 41
9.904761904761899
 76
     3
 10
131.6494156332908
 20
182.6974425266675
 30
0.0
 10
137.3254684472014
 20
173.2823640092146
 30
0.0
 10
139.3254684472014
 20
173.2823640092146
 30
0.0
340
2E3A
213
0.8150760156128171
223
0.3869799573012926
233
0.0
1001
ACAD
1000
DSTYLE
1002
{
1070
    41
1040
2.0
1070
    42
1040
1.5
1070
    43
1040
8.0
1070
    44
1040
1.5
1070
    73
1070
     0
1070
    74
1070
     0
1070
    77
1070
     3
1070
   140
1040
2.0
1070
   141
1040
3.0
1070
   146
1040
0.6
1070
   147
1040
1.0
1070
   172
1070
     1
1070
   178
1070
   256
1070
   272
1070
     2
1070
   274
1070
     2
1070
   340
1005
2529
1002
}
  0
MTEXT
  5
2E3A
102
{ACAD_REACTORS
330
2E39
102
}
330
1F
100
AcDbEntity
  8
DIM
100
AcDbMText
 10
139.5103924315886
 20
175.8953840519133
 30
0.0
 40
2.0
 41
0.0
 71
     1
 72
     1
  1
M5*0.8
  7
dayus
 73
     1
 44
1.0
1001
ACAD
1000
MTEXTBEGIN
1070
    73
1070
     1
1070
    44
1040
1.0
1070
    74
1070
     0
1000
MTEXTEND
  0
LEADER
  5
2E3B
330
1F
100
AcDbEntity
  8
DIM
100
AcDbLeader
  3
AM_ANSI$7
 73
     0
 74
     0
 75
     1
 40
2.0
 41
1.333333333333333
 76
     3
 10
128.3897160987207
 20
181.4265846158109
 30
0.0
 10
135.4345423743598
 20
166.5534281398218
 30
0.0
 10
137.4345423743598
 20
166.5534281398218
 30
0.0
340
2E3C
213
1.28621199348413
223
0.2860289400440479
233
0.0
1001
ACAD
1000
DSTYLE
1002
{
1070
    41
1040
2.0
1070
    42
1040
1.5
1070
    43
1040
8.0
1070
    44
1040
1.5
1070
    73
1070
     0
1070
    74
1070
     0
1070
    77
1070
     3
1070
   140
1040
2.0
1070
   141
1040
3.0
1070
   146
1040
0.6
1070
   147
1040
1.0
1070
   172
1070
     1
1070
   178
1070
   256
1070
   272
1070
     2
1070
   274
1070
     2
1070
   340
1005
2529
1002
}
  0
MTEXT
  5
2E3C
102
{ACAD_REACTORS
330
2E3B
102
}
330
1F
100
AcDbEntity
  8
DIM
100
AcDbMText
 10
137.1483303808757
 20
169.2673991997778
 30
0.0
 40
2.0
 41
0.0
 71
     1
 72
     1
  1
8
  7
dayus
 73
     1
 44
1.0
1001
ACAD
1000
MTEXTBEGIN
1070
    73
1070
     1
1070
    44
1040
1.0
1070
    74
1070
     0
1000
MTEXTEND
  0
DIMENSION
  5
2E3D
102
{ACAD_XDICTIONARY
360
2E3E
102
}
102
{ACAD_REACTORS
330
2E3F
102
}
330
1F
100
AcDbEntity
  8
DIM
100
AcDbDimension
  2
*D13
 10
121.3994156332907
 20
173.9012651799732
 30
0.0
 11
119.8994156332908
 21
173.9012651799732
 31
0.0
 70
   160
 71
     5
 42
2.999999999999886
  3
AM_ANSI
100
AcDbAlignedDimension
 13
118.3994156332908
 23
183.5391301314896
 33
0.0
 14
121.3994156332907
 24
182.6974425266673
 34
0.0
100
AcDbRotatedDimension
1001
ACAD
1000
DSTYLE
1002
{
1070
    41
1040
2.0
1070
    42
1040
1.5
1070
    43
1040
8.0
1070
    44
1040
1.5
1070
    73
1070
     0
1070
    74
1070
     0
1070
    77
1070
     3
1070
   140
1040
2.0
1070
   141
1040
3.0
1070
   146
1040
0.6
1070
   147
1040
1.0
1070
   172
1070
     1
1070
   178
1070
   256
1070
   272
1070
     8
1070
   274
1070
     2
1070
   340
1005
2529
1002
}
  0
DIMENSION
  5
2E40
102
{ACAD_XDICTIONARY
360
2E41
102
}
102
{ACAD_REACTORS
330
2E42
102
}
330
1F
100
AcDbEntity
  8
DIM
100
AcDbDimension
  2
*D14
 10
83.40617995823691
 20
191.6974425266676
 30
0.0
 11
81.40617995823689
 21
188.4474425266676
 31
0.0
 70
    32
 71
     5
 42
6.500000000000056
  3
AM_ANSI
100
AcDbAlignedDimension
 13
90.44328921211144
 23
185.1974425266675
 33
0.0
 14
95.64069044109174
 24
191.6974425266676
 34
0.0
 50
90.0
100
AcDbRotatedDimension
1001
ACAD
1000
DSTYLE
1002
{
1070
    41
1040
2.0
1070
    42
1040
1.5
1070
    43
1040
8.0
1070
    44
1040
1.5
1070
    73
1070
     0
1070
    74
1070
     0
1070
    77
1070
     3
1070
   140
1040
2.0
1070
   141
1040
3.0
1070
   146
1040
0.6
1070
   147
1040
1.0
1070
   172
1070
     1
1070
   178
1070
   256
1070
   272
1070
     8
1070
   274
1070
     2
1070
   340
1005
2529
1002
}
  0
LEADER
  5
2E43
330
1F
100
AcDbEntity
  8
DIM
100
AcDbLeader
  3
AM_ANSI$7
 73
     0
 75
     1
 40
2.0
 41
14.28571428571428
 76
     3
 10
97.24473563451176
 20
192.9652572224578
 30
0.0
 10
89.92098815561854
 20
199.0281115274497
 30
0.0
 10
87.92098815561855
 20
199.0281115274497
 30
0.0
340
2E44
213
-1.486619241154016
223
0.4032735171140303
233
0.0
1001
ACAD
1000
DSTYLE
1002
{
1070
    41
1040
2.0
1070
    42
1040
1.5
1070
    43
1040
8.0
1070
    44
1040
1.5
1070
    73
1070
     0
1070
    74
1070
     0
1070
    77
1070
     2
1070
   140
1040
2.0
1070
   141
1040
3.0
1070
   146
1040
0.6
1070
   147
1040
1.0
1070
   172
1070
     1
1070
   178
1070
   256
1070
   272
1070
     2
1070
   274
1070
     2
1070
   340
1005
2529
1002
}
  0
MTEXT
  5
2E44
102
{ACAD_REACTORS
330
2E43
102
}
330
1F
100
AcDbEntity
  8
DIM
100
AcDbMText
 10
88.40760739677255
 20
199.6248380103356
 30
0.0
 40
2.0
 41
0.0
 71
     9
 72
     1
  1
2-M5*0.8
  7
dayus
 73
     1
 44
1.0
1001
ACAD
1000
MTEXTBEGIN
1070
    73
1070
     1
1070
    44
1040
1.0
1070
    74
1070
     0
1000
MTEXTEND
  0
DIMENSION
  5
2E45
102
{ACAD_XDICTIONARY
360
2E46
102
}
102
{ACAD_REACTORS
330
2E47
102
}
330
1F
100
AcDbEntity
  8
DIM
100
AcDbDimension
  2
*D15
 10
189.3770105196234
 20
204.1242095504882
 30
0.0
 11
186.8770105196234
 21
204.1242095504882
 31
0.0
 70
   160
  1
□<>
 71
     5
 42
5.0
  3
AM_ANSI
100
AcDbAlignedDimension
 13
184.3770105196234
 23
186.8557549218454
 33
0.0
 14
189.3770105196234
 24
186.855754921845
 34
0.0
100
AcDbRotatedDimension
1001
ACAD
1000
DSTYLE
1002
{
1070
    41
1040
2.0
1070
    42
1040
1.5
1070
    43
1040
8.0
1070
    44
1040
1.5
1070
    73
1070
     0
1070
    74
1070
     0
1070
    77
1070
     3
1070
   140
1040
2.0
1070
   141
1040
3.0
1070
   146
1040
0.6
1070
   147
1040
1.0
1070
   172
1070
     1
1070
   178
1070
   256
1070
   272
1070
     8
1070
   274
1070
     2
1070
   340
1005
2529
1002
}
  0
DIMENSION
  5
2E48
102
{ACAD_XDICTIONARY
360
2E49
102
}
102
{ACAD_REACTORS
330
2E4A
102
}
330
1F
100
AcDbEntity
  8
DIM
100
AcDbDimension
  2
*D16
 10
196.7770105196235
 20
209.0211061299824
 30
0.0
 11
186.8770105196234
 21
211.0211061299824
 31
0.0
 70
    32
  1
□<>
 71
     5
 42
19.80000000000007
  3
AM_ANSI
100
AcDbAlignedDimension
 13
176.9770105196234
 23
180.1190084530303
 33
0.0
 14
196.7770105196235
 24
199.9190084530304
 34
0.0
100
AcDbRotatedDimension
1001
ACAD
1000
DSTYLE
1002
{
1070
    41
1040
2.0
1070
    42
1040
1.5
1070
    43
1040
8.0
1070
    44
1040
1.5
1070
    73
1070
     0
1070
    74
1070
     0
1070
    77
1070
     3
1070
   140
1040
2.0
1070
   141
1040
3.0
1070
   146
1040
0.6
1070
   147
1040
1.0
1070
   172
1070
     1
1070
   178
1070
   256
1070
   272
1070
     8
1070
   274
1070
     2
1070
   340
1005
2529
1002
}
  0
DIMENSION
  5
2E4B
102
{ACAD_XDICTIONARY
360
2E4C
102
}
102
{ACAD_REACTORS
330
2E4D
102
}
330
1F
100
AcDbEntity
  8
DIM
100
AcDbDimension
  2
*D17
 10
201.3770105196237
 20
214.3904349420807
 30
0.0
 11
186.8770105196231
 21
216.3904349420807
 31
0.0
 70
    32
  1
□<>
 71
     5
 42
29.00000000000097
  3
AM_ANSI
100
AcDbAlignedDimension
 13
172.3770105196227
 23
197.4754716844755
 33
0.0
 14
201.3770105196237
 24
197.4754716844755
 34
0.0
100
AcDbRotatedDimension
1001
ACAD
1000
DSTYLE
1002
{
1070
    41
1040
2.0
1070
    42
1040
1.5
1070
    43
1040
8.0
1070
    44
1040
1.5
1070
    73
1070
     0
1070
    74
1070
     0
1070
    77
1070
     3
1070
   140
1040
2.0
1070
   141
1040
3.0
1070
   146
1040
0.6
1070
   147
1040
1.0
1070
   172
1070
     1
1070
   178
1070
   256
1070
   272
1070
     8
1070
   274
1070
     2
1070
   340
1005
2529
1002
}
  0
DIMENSION
  5
2E4E
102
{ACAD_XDICTIONARY
360
2E4F
102
}
102
{ACAD_REACTORS
330
2E50
102
}
330
1F
100
AcDbEntity
  8
DIM
100
AcDbDimension
  2
*D18
 10
214.8099757958826
 20
177.0644772504082
 30
0.0
 11
203.4957622335095
 21
168.5786908127813
 31
0.0
 70
    33
 71
     5
 42
28.00142853498736
  3
AM_ANSI
100
AcDbAlignedDimension
 13
176.9770105196232
 23
175.2974425266675
 33
0.0
 14
196.7770105196233
 24
195.0974425266675
 34
0.0
1001
ACAD
1000
DSTYLE
1002
{
1070
    41
1040
2.0
1070
    42
1040
1.5
1070
    43
1040
8.0
1070
    44
1040
1.5
1070
    73
1070
     0
1070
    74
1070
     0
1070
    77
1070
     3
1070
   140
1040
2.0
1070
   141
1040
3.0
1070
   146
1040
0.6
1070
   147
1040
1.0
1070
   172
1070
     1
1070
   178
1070
   256
1070
   272
1070
     8
1070
   274
1070
     2
1070
   340
1005
2529
1002
}
  0
DIMENSION
  5
2E51
102
{ACAD_XDICTIONARY
360
2E52
102
}
102
{ACAD_REACTORS
330
2E53
102
}
330
1F
100
AcDbEntity
  8
DIM
100
AcDbDimension
  2
*D19
 10
222.5459345397583
 20
176.3065476643406
 30
0.0
 11
207.7427063984807
 21
164.3317466478096
 31
0.0
 70
    33
 71
     5
 42
37.86985200859522
  3
AM_ANSI
100
AcDbAlignedDimension
 13
174.598981361815
 23
170.6974425266672
 33
0.0
 14
201.3770105196241
 24
197.4754716844755
 34
0.0
1001
ACAD
1000
DSTYLE
1002
{
1070
    41
1040
2.0
1070
    42
1040
1.5
1070
    43
1040
8.0
1070
    44
1040
1.5
1070
    73
1070
     0
1070
    74
1070
     0
1070
    77
1070
     3
1070
   140
1040
2.0
1070
   141
1040
3.0
1070
   146
1040
0.6
1070
   147
1040
1.0
1070
   172
1070
     1
1070
   178
1070
   256
1070
   271
1070
     0
1070
   272
1070
     8
1070
   274
1070
     2
1070
   340
1005
2529
1002
}
  0
LEADER
  5
2E54
330
1F
100
AcDbEntity
  8
DIM
100
AcDbLeader
  3
AM_ANSI$7
 73
     0
 74
     0
 75
     1
 40
8.666666666666666
 41
26.28571428571428
 76
     3
 10
199.3513617168705
 20
197.0811803907089
 30
0.0
 10
208.4208322996339
 20
204.0699130162636
 30
0.0
 10
210.4208322996339
 20
204.0699130162636
 30
0.0
340
2E55
213
-0.1905629376930165
223
0.2179465301056638
233
0.0
1001
ACAD
1000
DSTYLE
1002
{
1070
    41
1040
2.0
1070
    42
1040
1.5
1070
    43
1040
8.0
1070
    44
1040
1.5
1070
    73
1070
     0
1070
    74
1070
     0
1070
    77
1070
     3
1070
   140
1040
2.0
1070
   141
1040
3.0
1070
   146
1040
0.6
1070
   147
1040
1.0
1070
   172
1070
     1
1070
   178
1070
   256
1070
   272
1070
     2
1070
   274
1070
     2
1070
   340
1005
2529
1002
}
  0
MTEXT
  5
2E55
102
{ACAD_REACTORS
330
2E54
102
}
330
1F
100
AcDbEntity
  8
DIM
100
AcDbMText
 10
211.6113952373269
 20
213.5186331528246
 30
0.0
 40
2.0
 41
0.0
 71
     1
 72
     1
  1
%%C6.5*4.5 depth\PM5*0.8*7.5 depth\P%%C4.3 thru
  7
dayus
 73
     1
 44
1.0
1001
ACAD
1000
MTEXTBEGIN
1070
    73
1070
     1
1070
    44
1040
1.0
1070
    74
1070
     0
1000
MTEXTEND
  0
DIMENSION
  5
2E7B
102
{ACAD_XDICTIONARY
360
2E7C
102
}
102
{ACAD_REACTORS
330
2E7D
102
}
330
1F
100
AcDbEntity
  8
DIM
100
AcDbDimension
  2
*D20
 10
83.40617995823691
 20
191.6974425266676
 30
0.0
 11
81.40617995823689
 21
188.4474425266676
 31
0.0
 70
    32
 71
     5
 42
6.500000000000056
  3
AM_ANSI
100
AcDbAlignedDimension
 13
90.44328921211144
 23
185.1974425266675
 33
0.0
 14
95.64069044109174
 24
191.6974425266676
 34
0.0
 50
90.0
100
AcDbRotatedDimension
1001
ACAD
1000
DSTYLE
1002
{
1070
    41
1040
2.0
1070
    42
1040
1.5
1070
    43
1040
8.0
1070
    44
1040
1.5
1070
    73
1070
     0
1070
    74
1070
     0
1070
    77
1070
     3
1070
   140
1040
2.0
1070
   141
1040
3.0
1070
   146
1040
0.6
1070
   147
1040
1.0
1070
   172
1070
     1
1070
   178
1070
   256
1070
   272
1070
     8
1070
   274
1070
     2
1070
   340
1005
2529
1002
}
  0
DIMENSION
  5
2E80
102
{ACAD_XDICTIONARY
360
2E81
102
}
102
{ACAD_REACTORS
330
2E82
102
}
330
1F
100
AcDbEntity
  8
DIM
100
AcDbDimension
  2
*D21
 10
189.3770105196234
 20
204.1242095504882
 30
0.0
 11
186.8770105196234
 21
204.1242095504882
 31
0.0
 70
   160
  1
□<>
 71
     5
 42
5.0
  3
AM_ANSI
100
AcDbAlignedDimension
 13
184.3770105196234
 23
186.8557549218454
 33
0.0
 14
189.3770105196234
 24
186.855754921845
 34
0.0
100
AcDbRotatedDimension
1001
ACAD
1000
DSTYLE
1002
{
1070
    41
1040
2.0
1070
    42
1040
1.5
1070
    43
1040
8.0
1070
    44
1040
1.5
1070
    73
1070
     0
1070
    74
1070
     0
1070
    77
1070
     3
1070
   140
1040
2.0
1070
   141
1040
3.0
1070
   146
1040
0.6
1070
   147
1040
1.0
1070
   172
1070
     1
1070
   178
1070
   256
1070
   272
1070
     8
1070
   274
1070
     2
1070
   340
1005
2529
1002
}
  0
DIMENSION
  5
2E83
102
{ACAD_XDICTIONARY
360
2E84
102
}
102
{ACAD_REACTORS
330
2E85
102
}
330
1F
100
AcDbEntity
  8
DIM
100
AcDbDimension
  2
*D22
 10
196.7770105196235
 20
209.0211061299824
 30
0.0
 11
186.8770105196234
 21
211.0211061299824
 31
0.0
 70
    32
  1
□<>
 71
     5
 42
19.80000000000007
  3
AM_ANSI
100
AcDbAlignedDimension
 13
176.9770105196234
 23
180.1190084530303
 33
0.0
 14
196.7770105196235
 24
199.9190084530304
 34
0.0
100
AcDbRotatedDimension
1001
ACAD
1000
DSTYLE
1002
{
1070
    41
1040
2.0
1070
    42
1040
1.5
1070
    43
1040
8.0
1070
    44
1040
1.5
1070
    73
1070
     0
1070
    74
1070
     0
1070
    77
1070
     3
1070
   140
1040
2.0
1070
   141
1040
3.0
1070
   146
1040
0.6
1070
   147
1040
1.0
1070
   172
1070
     1
1070
   178
1070
   256
1070
   272
1070
     8
1070
   274
1070
     2
1070
   340
1005
2529
1002
}
  0
DIMENSION
  5
2E86
102
{ACAD_XDICTIONARY
360
2E87
102
}
102
{ACAD_REACTORS
330
2E88
102
}
330
1F
100
AcDbEntity
  8
DIM
100
AcDbDimension
  2
*D23
 10
201.3770105196237
 20
214.3904349420807
 30
0.0
 11
186.8770105196231
 21
216.3904349420807
 31
0.0
 70
    32
  1
□<>
 71
     5
 42
29.00000000000097
  3
AM_ANSI
100
AcDbAlignedDimension
 13
172.3770105196227
 23
197.4754716844755
 33
0.0
 14
201.3770105196237
 24
197.4754716844756
 34
0.0
100
AcDbRotatedDimension
1001
ACAD
1000
DSTYLE
1002
{
1070
    41
1040
2.0
1070
    42
1040
1.5
1070
    43
1040
8.0
1070
    44
1040
1.5
1070
    73
1070
     0
1070
    74
1070
     0
1070
    77
1070
     3
1070
   140
1040
2.0
1070
   141
1040
3.0
1070
   146
1040
0.6
1070
   147
1040
1.0
1070
   172
1070
     1
1070
   178
1070
   256
1070
   272
1070
     8
1070
   274
1070
     2
1070
   340
1005
2529
1002
}
  0
DIMENSION
  5
2E89
102
{ACAD_XDICTIONARY
360
2E8A
102
}
102
{ACAD_REACTORS
330
2E8B
102
}
330
1F
100
AcDbEntity
  8
DIM
100
AcDbDimension
  2
*D24
 10
214.8099757958826
 20
177.0644772504082
 30
0.0
 11
203.4957622335095
 21
168.5786908127813
 31
0.0
 70
    33
 71
     5
 42
28.00142853498736
  3
AM_ANSI
100
AcDbAlignedDimension
 13
176.9770105196232
 23
175.2974425266675
 33
0.0
 14
196.7770105196233
 24
195.0974425266675
 34
0.0
1001
ACAD
1000
DSTYLE
1002
{
1070
    41
1040
2.0
1070
    42
1040
1.5
1070
    43
1040
8.0
1070
    44
1040
1.5
1070
    73
1070
     0
1070
    74
1070
     0
1070
    77
1070
     3
1070
   140
1040
2.0
1070
   141
1040
3.0
1070
   146
1040
0.6
1070
   147
1040
1.0
1070
   172
1070
     1
1070
   178
1070
   256
1070
   272
1070
     8
1070
   274
1070
     2
1070
   340
1005
2529
1002
}
  0
DIMENSION
  5
2E8C
102
{ACAD_XDICTIONARY
360
2E8D
102
}
102
{ACAD_REACTORS
330
2E8E
102
}
330
1F
100
AcDbEntity
  8
DIM
100
AcDbDimension
  2
*D25
 10
222.5459345397582
 20
176.3065476643408
 30
0.0
 11
207.7427063984806
 21
164.3317466478097
 31
0.0
 70
    33
 71
     5
 42
37.86985200859522
  3
AM_ANSI
100
AcDbAlignedDimension
 13
174.598981361815
 23
170.6974425266672
 33
0.0
 14
201.3770105196241
 24
197.4754716844755
 34
0.0
1001
ACAD
1000
DSTYLE
1002
{
1070
    41
1040
2.0
1070
    42
1040
1.5
1070
    43
1040
8.0
1070
    44
1040
1.5
1070
    73
1070
     0
1070
    74
1070
     0
1070
    77
1070
     3
1070
   140
1040
2.0
1070
   141
1040
3.0
1070
   146
1040
0.6
1070
   147
1040
1.0
1070
   172
1070
     1
1070
   178
1070
   256
1070
   271
1070
     0
1070
   272
1070
     8
1070
   274
1070
     2
1070
   340
1005
2529
1002
}
  0
LINE
  5
365F
330
1F
100
AcDbEntity
  8
CENTER
100
AcDbLine
 10
122.86053080103
 20
79.93608146227121
 30
0.0
 11
90.44328921211144
 21
79.93608146227121
 31
0.0
  0
LINE
  5
3660
102
{ACAD_REACTORS
330
36C0
330
36C3
330
36D3
330
36D6
102
}
330
1F
100
AcDbEntity
  8
0
100
AcDbLine
 10
115.8994156332907
 20
94.43608146227118
 30
0.0
 11
115.8994156332907
 21
65.4360814622712
 31
0.0
  0
LINE
  5
3661
102
{ACAD_REACTORS
330
36D0
330
36D9
102
}
330
1F
100
AcDbEntity
  8
0
100
AcDbLine
 10
92.39941563329074
 20
94.43608146227118
 30
0.0
 11
92.39941563329074
 21
65.4360814622712
 31
0.0
  0
LINE
  5
3662
330
1F
100
AcDbEntity
  8
0
100
AcDbLine
 10
172.3770105196233
 20
67.65805230446244
 30
0.0
 11
172.3770105196233
 21
92.21411062007986
 31
0.0
  0
LINE
  5
3663
330
1F
100
AcDbEntity
  8
0
100
AcDbLine
 10
201.3770105196233
 20
75.63608146227114
 30
0.0
 11
201.3770105196233
 21
67.65805230446244
 31
0.0
  0
CIRCLE
  5
3664
330
1F
100
AcDbEntity
  8
0
100
AcDbCircle
 10
186.8770105196233
 20
79.93608146227126
 30
0.0
 40
8.5
  0
LINE
  5
3665
330
1F
100
AcDbEntity
  8
0
100
AcDbLine
 10
198.3770105196233
 20
73.9360814622712
 30
0.0
 11
198.3770105196233
 21
82.9360814622712
 31
0.0
  0
LINE
  5
3666
330
1F
100
AcDbEntity
  8
0
100
AcDbLine
 10
199.6770105196232
 20
75.63608146227114
 30
0.0
 11
199.6770105196232
 21
73.9360814622712
 31
0.0
  0
LINE
  5
3667
330
1F
100
AcDbEntity
  8
0
100
AcDbLine
 10
192.8770105196233
 20
67.13608146227125
 30
0.0
 11
191.1770105196232
 21
67.13608146227125
 31
0.0
  0
LINE
  5
3668
330
1F
100
AcDbEntity
  8
0
100
AcDbLine
 10
183.8770105196233
 20
68.4360814622712
 30
0.0
 11
192.8770105196233
 21
68.4360814622712
 31
0.0
  0
LINE
  5
3669
330
1F
100
AcDbEntity
  8
0
100
AcDbLine
 10
199.155039677432
 20
65.4360814622712
 30
0.0
 11
191.1770105196232
 21
65.4360814622712
 31
0.0
  0
ARC
  5
366A
330
1F
100
AcDbEntity
  8
0
100
AcDbCircle
 10
186.8770105196233
 20
79.93608146227126
 30
0.0
 40
19.00000000000001
100
AcDbArc
 50
310.2566125763499
 51
319.7433874236512
  0
LINE
  5
366B
330
1F
100
AcDbEntity
  8
0
100
AcDbLine
 10
192.8770105196233
 20
68.4360814622712
 30
0.0
 11
192.8770105196233
 21
67.13608146227125
 31
0.0
  0
LINE
  5
366C
330
1F
100
AcDbEntity
  8
0
100
AcDbLine
 10
199.6770105196232
 20
73.9360814622712
 30
0.0
 11
198.3770105196233
 21
73.9360814622712
 31
0.0
  0
LINE
  5
366D
330
1F
100
AcDbEntity
  8
0
100
AcDbLine
 10
183.8770105196233
 20
65.4360814622712
 30
0.0
 11
174.5989813618146
 21
65.4360814622712
 31
0.0
  0
LINE
  5
366E
330
1F
100
AcDbEntity
  8
0
100
AcDbLine
 10
183.8770105196233
 20
65.4360814622712
 30
0.0
 11
183.8770105196233
 21
68.4360814622712
 31
0.0
  0
LINE
  5
366F
330
1F
100
AcDbEntity
  8
0
100
AcDbLine
 10
191.1770105196232
 20
67.13608146227125
 30
0.0
 11
191.1770105196232
 21
65.4360814622712
 31
0.0
  0
ARC
  5
3670
330
1F
100
AcDbEntity
  8
0
100
AcDbCircle
 10
186.8770105196233
 20
79.93608146227126
 30
0.0
 40
19.00000000000001
100
AcDbArc
 50
220.2566125763488
 51
229.7433874236501
  0
ARC
  5
3671
330
1F
100
AcDbEntity
  8
0
 62
     3
100
AcDbCircle
 10
176.9770105196232
 20
70.03608146227117
 30
0.0
 40
2.5
100
AcDbArc
 50
256.73546156759
 51
191.4505177280278
  0
CIRCLE
  5
3672
330
1F
100
AcDbEntity
  8
0
100
AcDbCircle
 10
176.9770105196232
 20
70.03608146227117
 30
0.0
 40
3.25
  0
CIRCLE
  5
3673
330
1F
100
AcDbEntity
  8
0
100
AcDbCircle
 10
176.9770105196232
 20
70.03608146227117
 30
0.0
 40
2.05
  0
LINE
  5
3674
330
1F
100
AcDbEntity
  8
CENTER
 48
0.5
100
AcDbLine
 10
176.9770105196234
 20
74.85764738863401
 30
0.0
 11
176.9770105196231
 21
65.21451553590833
 31
0.0
  0
LINE
  5
3675
330
1F
100
AcDbEntity
  8
CENTER
 48
0.5
100
AcDbLine
 10
172.1554445932603
 20
70.03608146227112
 30
0.0
 11
181.798576445986
 21
70.03608146227112
 31
0.0
  0
ARC
  5
3676
330
1F
100
AcDbEntity
  8
0
100
AcDbCircle
 10
190.8270105196233
 20
90.83608146227124
 30
0.0
 40
1.7
100
AcDbArc
 50
270.0
 51
0.0
  0
LINE
  5
3677
330
1F
100
AcDbEntity
  8
0
100
AcDbLine
 10
192.5270105196234
 20
90.83608146227119
 30
0.0
 11
192.5270105196234
 21
92.9360814622712
 31
0.0
  0
LINE
  5
3678
330
1F
100
AcDbEntity
  8
0
100
AcDbLine
 10
201.3770105196233
 20
92.21411062007986
 30
0.0
 11
201.3770105196233
 21
82.9360814622712
 31
0.0
  0
ARC
  5
3679
330
1F
100
AcDbEntity
  8
0
 62
     3
100
AcDbCircle
 10
196.7770105196233
 20
89.83608146227124
 30
0.0
 40
2.5
100
AcDbArc
 50
257.4686954257529
 51
195.0112856375039
  0
CIRCLE
  5
367A
330
1F
100
AcDbEntity
  8
0
100
AcDbCircle
 10
196.7770105196233
 20
89.83608146227124
 30
0.0
 40
3.25
  0
CIRCLE
  5
367B
330
1F
100
AcDbEntity
  8
0
100
AcDbCircle
 10
196.7770105196233
 20
89.83608146227124
 30
0.0
 40
2.05
  0
LINE
  5
367C
330
1F
100
AcDbEntity
  8
0
100
AcDbLine
 10
201.3770105196233
 20
75.63608146227114
 30
0.0
 11
199.6770105196232
 21
75.63608146227114
 31
0.0
  0
LINE
  5
367D
330
1F
100
AcDbEntity
  8
0
100
AcDbLine
 10
198.3770105196233
 20
82.9360814622712
 30
0.0
 11
201.3770105196233
 21
82.9360814622712
 31
0.0
  0
LINE
  5
367E
330
1F
100
AcDbEntity
  8
0
100
AcDbLine
 10
192.0770105196233
 20
94.4360814622712
 30
0.0
 11
199.155039677432
 21
94.4360814622712
 31
0.0
  0
ARC
  5
367F
330
1F
100
AcDbEntity
  8
0
100
AcDbCircle
 10
186.8770105196233
 20
79.93608146227126
 30
0.0
 40
19.00000000000001
100
AcDbArc
 50
40.2566125763488
 51
49.74338742365009
  0
LINE
  5
3680
330
1F
100
AcDbEntity
  8
0
100
AcDbLine
 10
192.5270105196234
 20
92.9360814622712
 30
0.0
 11
192.0770105196233
 21
93.4360814622712
 31
0.0
  0
LINE
  5
3681
330
1F
100
AcDbEntity
  8
0
100
AcDbLine
 10
192.0770105196233
 20
93.4360814622712
 30
0.0
 11
192.0770105196233
 21
94.4360814622712
 31
0.0
  0
LINE
  5
3682
330
1F
100
AcDbEntity
  8
0
100
AcDbLine
 10
181.2270105196233
 20
92.9360814622712
 30
0.0
 11
181.2270105196233
 21
90.83608146227119
 31
0.0
  0
LINE
  5
3683
330
1F
100
AcDbEntity
  8
0
100
AcDbLine
 10
188.2270105196233
 20
92.9360814622712
 30
0.0
 11
188.2270105196233
 21
90.83608146227119
 31
0.0
  0
LINE
  5
3684
330
1F
100
AcDbEntity
  8
0
100
AcDbLine
 10
185.5270105196234
 20
90.83608146227119
 30
0.0
 11
185.5270105196234
 21
92.9360814622712
 31
0.0
  0
LINE
  5
3685
330
1F
100
AcDbEntity
  8
CENTER
100
AcDbLine
 10
186.8770105196233
 20
96.64671989661105
 30
0.0
 11
186.8770105196233
 21
63.22544302793147
 31
0.0
  0
LINE
  5
3686
330
1F
100
AcDbEntity
  8
CENTER
100
AcDbLine
 10
170.1663720852835
 20
79.93608146227121
 30
0.0
 11
203.5876489539631
 21
79.93608146227119
 31
0.0
  0
ARC
  5
3687
330
1F
100
AcDbEntity
  8
0
100
AcDbCircle
 10
189.9270105196232
 20
90.83608146227124
 30
0.0
 40
1.7
100
AcDbArc
 50
180.0
 51
270.0
  0
LINE
  5
3688
330
1F
100
AcDbEntity
  8
0
100
AcDbLine
 10
189.9270105196232
 20
89.13608146227113
 30
0.0
 11
190.8270105196233
 21
89.13608146227113
 31
0.0
  0
LINE
  5
3689
330
1F
100
AcDbEntity
  8
0
100
AcDbLine
 10
182.9270105196232
 20
89.13608146227113
 30
0.0
 11
183.8270105196233
 21
89.13608146227113
 31
0.0
  0
ARC
  5
368A
330
1F
100
AcDbEntity
  8
0
100
AcDbCircle
 10
183.8270105196233
 20
90.83608146227124
 30
0.0
 40
1.7
100
AcDbArc
 50
270.0
 51
0.0
  0
ARC
  5
368B
330
1F
100
AcDbEntity
  8
0
100
AcDbCircle
 10
182.9270105196232
 20
90.83608146227124
 30
0.0
 40
1.7
100
AcDbArc
 50
180.0
 51
270.0
  0
LINE
  5
368C
330
1F
100
AcDbEntity
  8
0
100
AcDbLine
 10
174.5989813618146
 20
94.4360814622712
 30
0.0
 11
181.6770105196232
 21
94.4360814622712
 31
0.0
  0
LINE
  5
368D
330
1F
100
AcDbEntity
  8
0
100
AcDbLine
 10
185.0770105196233
 20
94.4360814622712
 30
0.0
 11
188.6770105196232
 21
94.4360814622712
 31
0.0
  0
LINE
  5
368E
330
1F
100
AcDbEntity
  8
0
100
AcDbLine
 10
188.6770105196232
 20
93.4360814622712
 30
0.0
 11
188.2270105196233
 21
92.9360814622712
 31
0.0
  0
LINE
  5
368F
330
1F
100
AcDbEntity
  8
0
100
AcDbLine
 10
188.6770105196232
 20
94.4360814622712
 30
0.0
 11
188.6770105196232
 21
93.4360814622712
 31
0.0
  0
LINE
  5
3690
330
1F
100
AcDbEntity
  8
0
100
AcDbLine
 10
185.5270105196234
 20
92.9360814622712
 30
0.0
 11
185.0770105196233
 21
93.4360814622712
 31
0.0
  0
LINE
  5
3691
330
1F
100
AcDbEntity
  8
0
100
AcDbLine
 10
185.0770105196233
 20
93.4360814622712
 30
0.0
 11
185.0770105196233
 21
94.4360814622712
 31
0.0
  0
LINE
  5
3692
330
1F
100
AcDbEntity
  8
0
100
AcDbLine
 10
181.6770105196232
 20
93.4360814622712
 30
0.0
 11
181.2270105196233
 21
92.9360814622712
 31
0.0
  0
LINE
  5
3693
330
1F
100
AcDbEntity
  8
0
100
AcDbLine
 10
181.6770105196232
 20
94.4360814622712
 30
0.0
 11
181.6770105196232
 21
93.4360814622712
 31
0.0
  0
ARC
  5
3694
330
1F
100
AcDbEntity
  8
0
100
AcDbCircle
 10
186.8770105196233
 20
79.93608146227126
 30
0.0
 40
19.00000000000001
100
AcDbArc
 50
130.2566125763499
 51
139.7433874236512
  0
LINE
  5
3695
330
1F
100
AcDbEntity
  8
0
100
AcDbLine
 10
115.8994156332907
 20
85.4360814622712
 30
0.0
 11
117.0994156332908
 21
85.4360814622712
 31
0.0
  0
LINE
  5
3696
330
1F
100
AcDbEntity
  8
AM_VIS
100
AcDbLine
 10
117.3994156332907
 20
82.9360814622712
 30
0.0
 11
120.5333902295065
 21
82.93608146227114
 31
0.0
  0
SPLINE
  5
3697
330
1F
100
AcDbEntity
  8
AM_VIS
100
AcDbSpline
210
0.0
220
0.0
230
1.0
 70
    12
 71
     2
 72
     6
 73
     3
 74
     0
 42
0.0000000001
 43
0.0000000001
 40
0.0
 40
0.0
 40
0.0
 40
1.209131458961293
 40
1.209131458961293
 40
1.209131458961293
 10
120.5333902295063
 20
82.0818327733358
 30
0.0
 41
1.0
 10
121.04845687378
 20
81.63224574755838
 30
0.0
 41
1.006377000071649
 10
121.3994156332907
 20
81.7388571000032
 30
0.0
 41
1.0
  0
ARC
  5
3698
330
1F
100
AcDbEntity
  8
0
100
AcDbCircle
 10
120.2401657354383
 20
79.91808042110637
 30
0.0
 40
2.840807135363946
100
AcDbArc
 50
130.3885190286482
 51
179.636937483378
  0
LINE
  5
3699
102
{ACAD_REACTORS
330
36E2
102
}
330
1F
100
AcDbEntity
  8
0
100
AcDbLine
 10
118.3994156332907
 20
82.0818327733358
 30
0.0
 11
118.3994156332908
 21
77.79033015120662
 31
0.0
  0
LINE
  5
369A
330
1F
100
AcDbEntity
  8
AM_VIS
100
AcDbLine
 10
120.5333902295063
 20
82.0818327733358
 30
0.0
 11
118.3994156332907
 21
82.0818327733358
 31
0.0
  0
LINE
  5
369B
102
{ACAD_REACTORS
330
36DC
102
}
330
1F
100
AcDbEntity
  8
AM_VIS
100
AcDbLine
 10
120.5333902295063
 20
82.0818327733358
 30
0.0
 11
120.5333902295063
 21
82.93608146227127
 31
0.0
  0
LINE
  5
369C
102
{ACAD_REACTORS
330
36C3
330
36D9
102
}
330
1F
100
AcDbEntity
  8
AM_VIS
100
AcDbLine
 10
121.3994156332907
 20
82.43608146227121
 30
0.0
 11
121.3994156332907
 21
81.7388571000032
 31
0.0
  0
LINE
  5
369D
102
{ACAD_REACTORS
330
36E2
102
}
330
1F
100
AcDbEntity
  8
AM_VIS
100
AcDbLine
 10
121.3994156332907
 20
77.43608146227123
 30
0.0
 11
121.3994156332907
 21
81.7388571000032
 31
0.0
  0
LINE
  5
369E
330
1F
100
AcDbEntity
  8
0
100
AcDbLine
 10
117.3994156332907
 20
85.1360814622712
 30
0.0
 11
117.3994156332906
 21
74.73608146227121
 31
0.0
  0
LINE
  5
369F
102
{ACAD_REACTORS
330
36C0
330
36DF
102
}
330
1F
100
AcDbEntity
  8
0
100
AcDbLine
 10
117.0994156332908
 20
85.4360814622712
 30
0.0
 11
117.3994156332907
 21
85.1360814622712
 31
0.0
1001
GENIUS_GENFIL_13
1070
     0
1040
0.3
1040
0.3
1040
1.0
1040
0.0
1002
{
1002
}
1001
GENIUS_GENODEF_13
1002
{
1000
HIER
1070
     0
1002
}
1002
{
1000
MANEDIT
1070
     0
1002
}
1002
{
1000
NOSEL
1070
     0
1002
}
1002
{
1000
BEHIND
1070
     0
1002
}
1002
{
1000
OTHER
1070
     0
1002
}
1002
{
1000
REACTOR
1002
}
1001
GENIUS_GENOBJ-N-CHA_13
1002
{
1000
OWNER
1000
GEN
1002
}
  0
CIRCLE
  5
36A0
330
1F
100
AcDbEntity
  8
0
100
AcDbCircle
 10
186.8770105196233
 20
79.93608146227126
 30
0.0
 40
5.5
  0
CIRCLE
  5
36A1
330
1F
100
AcDbEntity
  8
0
100
AcDbCircle
 10
186.8770105196233
 20
79.93608146227126
 30
0.0
 40
3.0
  0
LINE
  5
36A2
330
1F
100
AcDbEntity
  8
0
100
AcDbLine
 10
189.3770105196234
 20
78.27776906709352
 30
0.0
 11
189.3770105196234
 21
81.59439385744901
 31
0.0
  0
LINE
  5
36A3
330
1F
100
AcDbEntity
  8
0
100
AcDbLine
 10
184.3770105196234
 20
78.27776906709352
 30
0.0
 11
184.3770105196234
 21
81.59439385744901
 31
0.0
  0
ARC
  5
36A4
330
1F
100
AcDbEntity
  8
0
 62
     3
100
AcDbCircle
 10
186.8770105196233
 20
79.93608146227126
 30
0.0
 40
1.5
100
AcDbArc
 50
250.9436041109555
 51
202.804451686261
  0
CIRCLE
  5
36A5
330
1F
100
AcDbEntity
  8
0
100
AcDbCircle
 10
186.8770105196233
 20
79.93608146227126
 30
0.0
 40
1.25
  0
LINE
  5
36A6
102
{ACAD_REACTORS
330
36DC
102
}
330
1F
100
AcDbEntity
  8
AM_VIS
100
AcDbLine
 10
121.3994156332906
 20
82.43608146227126
 30
0.0
 11
120.5333902295065
 21
82.93608146227114
 31
0.0
  0
ARC
  5
36A7
330
1F
100
AcDbEntity
  8
0
100
AcDbCircle
 10
186.8770105196233
 20
79.93608146227126
 30
0.0
 40
7.15
100
AcDbArc
 50
15.00000000000119
 51
344.9999999999988
  0
ARC
  5
36A8
330
1F
100
AcDbEntity
  8
0
100
AcDbCircle
 10
194.1456399585324
 20
76.24983423470763
 30
0.0
 40
0.45
100
AcDbArc
 50
13.02059531969255
 51
293.1961939070912
  0
LINE
  5
36A9
330
1F
100
AcDbEntity
  8
0
100
AcDbLine
 10
193.7833801775902
 20
78.08552528978816
 30
0.0
 11
195.0873800430803
 21
77.73611957889977
 31
0.0
  0
ARC
  5
36AC
330
1F
100
AcDbEntity
  8
0
100
AcDbCircle
 10
194.1456399585324
 20
83.62232868983488
 30
0.0
 40
0.45
100
AcDbArc
 50
66.80380609290875
 51
346.9794046803015
  0
LINE
  5
36AD
330
1F
100
AcDbEntity
  8
0
100
AcDbLine
 10
193.7833801775901
 20
81.78663763475425
 30
0.0
 11
195.0873800430803
 21
82.13604334564264
 31
0.0
  0
LINE
  5
36B0
330
1F
100
AcDbEntity
  8
0
100
AcDbLine
 10
115.8994156332907
 20
65.4360814622712
 30
0.0
 11
92.39941563329063
 21
65.43608146227119
 31
0.0
  0
LINE
  5
36B1
330
1F
100
AcDbEntity
  8
0
100
AcDbLine
 10
115.8994156332907
 20
92.21411062007991
 30
0.0
 11
92.39941563329063
 21
92.21411062007991
 31
0.0
  0
LINE
  5
36B2
102
{ACAD_REACTORS
330
36D6
102
}
330
1F
100
AcDbEntity
  8
0
100
AcDbLine
 10
92.39941563329063
 20
94.43608146227116
 30
0.0
 11
115.8994156332907
 21
94.43608146227118
 31
0.0
  0
LINE
  5
36B3
330
1F
100
AcDbEntity
  8
0
100
AcDbLine
 10
115.8994156332907
 20
67.6580523044625
 30
0.0
 11
92.39941563329063
 21
67.65805230446249
 31
0.0
  0
LINE
  5
36B4
330
1F
100
AcDbEntity
  8
0
100
AcDbLine
 10
115.8994156332908
 20
74.43608146227119
 30
0.0
 11
117.0994156332906
 21
74.4360814622712
 31
0.0
  0
LINE
  5
36B5
102
{ACAD_REACTORS
330
36DF
102
}
330
1F
100
AcDbEntity
  8
0
100
AcDbLine
 10
117.3994156332906
 20
74.73608146227121
 30
0.0
 11
117.0994156332906
 21
74.4360814622712
 31
0.0
1001
GENIUS_GENFIL_13
1070
     0
1040
0.3
1040
0.3
1040
1.0
1040
0.0
1002
{
1002
}
1001
GENIUS_GENOBJ-N-CHA_13
1002
{
1000
OWNER
1000
GEN
1002
}
1001
GENIUS_GENODEF_13
1002
{
1000
HIER
1070
     0
1002
}
1002
{
1000
MANEDIT
1070
     0
1002
}
1002
{
1000
NOSEL
1070
     0
1002
}
1002
{
1000
BEHIND
1070
     0
1002
}
1002
{
1000
OTHER
1070
     0
1002
}
1002
{
1000
REACTOR
1002
}
  0
LINE
  5
36B6
330
1F
100
AcDbEntity
  8
AM_VIS
100
AcDbLine
 10
117.3994156332906
 20
76.9360814622712
 30
0.0
 11
120.5333902295065
 21
76.93608146227126
 31
0.0
  0
SPLINE
  5
36B7
330
1F
100
AcDbEntity
  8
AM_VIS
100
AcDbSpline
210
0.0
220
0.0
230
1.0
 70
    12
 71
     2
 72
     6
 73
     3
 74
     0
 42
0.0000000001
 43
0.0000000001
 40
0.0
 40
0.0
 40
0.0
 40
1.209131458961293
 40
1.209131458961293
 40
1.209131458961293
 10
120.5333902295063
 20
77.7903301512066
 30
0.0
 41
1.0
 10
121.04845687378
 20
78.23991717698409
 30
0.0
 41
1.006377000071649
 10
121.3994156332907
 20
78.13330582453921
 30
0.0
 41
1.0
  0
ARC
  5
36B8
330
1F
100
AcDbEntity
  8
0
100
AcDbCircle
 10
120.2401657354383
 20
79.95408250343604
 30
0.0
 40
2.840807135363946
100
AcDbArc
 50
180.3630625166219
 51
229.6114809713517
  0
LINE
  5
36B9
330
1F
100
AcDbEntity
  8
AM_VIS
100
AcDbLine
 10
120.5333902295063
 20
77.7903301512066
 30
0.0
 11
118.3994156332907
 21
77.7903301512066
 31
0.0
  0
LINE
  5
36BA
330
1F
100
AcDbEntity
  8
AM_VIS
100
AcDbLine
 10
120.5333902295063
 20
77.7903301512066
 30
0.0
 11
120.5333902295063
 21
76.93608146227115
 31
0.0
  0
LINE
  5
36BB
102
{ACAD_REACTORS
330
36DC
102
}
330
1F
100
AcDbEntity
  8
AM_VIS
100
AcDbLine
 10
121.3994156332906
 20
77.43608146227114
 30
0.0
 11
120.5333902295065
 21
76.93608146227126
 31
0.0
  0
LINE
  5
36BC
330
1F
100
AcDbEntity
  8
CENTER
 48
0.5
100
AcDbLine
 10
196.7770105196235
 20
94.65764738863407
 30
0.0
 11
196.7770105196231
 21
85.0145155359084
 31
0.0
  0
LINE
  5
36BD
330
1F
100
AcDbEntity
  8
CENTER
 48
0.5
100
AcDbLine
 10
191.9554445932604
 20
89.83608146227117
 30
0.0
 11
201.5985764459861
 21
89.83608146227119
 31
0.0
  0
DIMENSION
  5
36BE
102
{ACAD_XDICTIONARY
360
36BF
102
}
102
{ACAD_REACTORS
330
36C0
102
}
330
1F
100
AcDbEntity
  8
DIM
100
AcDbDimension
  2
*D32
 10
117.3994156332907
 20
99.53630592256809
 30
0.0
 11
124.3041775380526
 21
101.5363059225681
 31
0.0
 70
    32
 71
     5
 42
1.5
  3
AM_ANSI
100
AcDbAlignedDimension
 13
115.8994156332907
 23
94.43608146227118
 33
0.0
 14
117.3994156332907
 24
85.1360814622712
 34
0.0
100
AcDbRotatedDimension
1001
ACAD
1000
DSTYLE
1002
{
1070
    41
1040
2.0
1070
    42
1040
1.5
1070
    43
1040
8.0
1070
    44
1040
1.5
1070
    73
1070
     0
1070
    74
1070
     0
1070
    77
1070
     3
1070
   140
1040
2.0
1070
   141
1040
3.0
1070
   146
1040
0.6
1070
   147
1040
1.0
1070
   172
1070
     1
1070
   178
1070
   256
1070
   272
1070
     8
1070
   274
1070
     2
1070
   340
1005
2529
1002
}
  0
DIMENSION
  5
36C1
102
{ACAD_XDICTIONARY
360
36C2
102
}
102
{ACAD_REACTORS
330
36C3
102
}
330
1F
100
AcDbEntity
  8
DIM
100
AcDbDimension
  2
*D33
 10
121.3994156332907
 20
105.2241431266751
 30
0.0
 11
128.4946537285288
 21
107.2241431266751
 31
0.0
 70
    32
 71
     5
 42
5.5
  3
AM_ANSI
100
AcDbAlignedDimension
 13
115.8994156332907
 23
94.43608146227118
 33
0.0
 14
121.3994156332907
 24
82.43608146227121
 34
0.0
100
AcDbRotatedDimension
1001
ACAD
1000
DSTYLE
1002
{
1070
    41
1040
2.0
1070
    42
1040
1.5
1070
    43
1040
8.0
1070
    44
1040
1.5
1070
    73
1070
     0
1070
    74
1070
     0
1070
    77
1070
     3
1070
   140
1040
2.0
1070
   141
1040
3.0
1070
   146
1040
0.6
1070
   147
1040
1.0
1070
   172
1070
     1
1070
   178
1070
   256
1070
   272
1070
     8
1070
   274
1070
     2
1070
   340
1005
2529
1002
}
  0
ARC
  5
36C4
330
1F
100
AcDbEntity
  8
0
 62
     3
100
AcDbCircle
 10
108.8994156332907
 20
86.43608146227121
 30
0.0
 40
2.5
100
AcDbArc
 50
341.6222882370726
 51
285.6717783160901
  0
CIRCLE
  5
36C5
330
1F
100
AcDbEntity
  8
0
100
AcDbCircle
 10
108.8994156332907
 20
86.43608146227121
 30
0.0
 40
2.15
  0
ARC
  5
36C7
330
1F
100
AcDbEntity
  8
0
 62
     3
100
AcDbCircle
 10
99.39941563329075
 20
86.43608146227121
 30
0.0
 40
2.5
100
AcDbArc
 50
340.7850885035962
 51
286.3311095769963
  0
CIRCLE
  5
36C8
330
1F
100
AcDbEntity
  8
0
100
AcDbCircle
 10
99.39941563329075
 20
86.43608146227121
 30
0.0
 40
2.15
  0
LINE
  5
36C9
102
{ACAD_REACTORS
330
36D0
102
}
330
1F
100
AcDbEntity
  8
CENTER
 48
0.35
100
AcDbLine
 10
99.39941563329075
 20
90.19480665447019
 30
0.0
 11
99.39941563329075
 21
82.67735627007221
 31
0.0
  0
LINE
  5
36CB
330
1F
100
AcDbEntity
  8
CENTER
 48
0.35
100
AcDbLine
 10
103.1581408254897
 20
86.43608146227123
 30
0.0
 11
95.64069044109174
 21
86.43608146227125
 31
0.0
  0
LINE
  5
36CC
102
{ACAD_REACTORS
330
36D3
102
}
330
1F
100
AcDbEntity
  8
CENTER
 48
0.35
100
AcDbLine
 10
108.8994156332907
 20
90.19480665447019
 30
0.0
 11
108.8994156332907
 21
82.67735627007221
 31
0.0
  0
LINE
  5
36CD
330
1F
100
AcDbEntity
  8
CENTER
 48
0.35
100
AcDbLine
 10
112.6581408254897
 20
86.43608146227123
 30
0.0
 11
105.1406904410917
 21
86.43608146227125
 31
0.0
  0
DIMENSION
  5
36CE
102
{ACAD_XDICTIONARY
360
36CF
102
}
102
{ACAD_REACTORS
330
36D0
102
}
330
1F
100
AcDbEntity
  8
DIM
100
AcDbDimension
  2
*D34
 10
99.39941563329075
 20
99.53630592256809
 30
0.0
 11
95.89941563329075
 21
101.5363059225681
 31
0.0
 70
    32
 71
     5
 42
7.0
  3
AM_ANSI
100
AcDbAlignedDimension
 13
92.39941563329074
 23
94.43608146227118
 33
0.0
 14
99.39941563329075
 24
90.19480665447019
 34
0.0
100
AcDbRotatedDimension
1001
ACAD
1000
DSTYLE
1002
{
1070
    41
1040
2.0
1070
    42
1040
1.5
1070
    43
1040
8.0
1070
    44
1040
1.5
1070
    73
1070
     0
1070
    74
1070
     0
1070
    77
1070
     3
1070
   140
1040
2.0
1070
   141
1040
3.0
1070
   146
1040
0.6
1070
   147
1040
1.0
1070
   172
1070
     1
1070
   178
1070
   256
1070
   272
1070
     8
1070
   274
1070
     2
1070
   340
1005
2529
1002
}
  0
DIMENSION
  5
36D1
102
{ACAD_XDICTIONARY
360
36D2
102
}
102
{ACAD_REACTORS
330
36D3
102
}
330
1F
100
AcDbEntity
  8
DIM
100
AcDbDimension
  2
*D35
 10
115.8994156332907
 20
99.53630592256809
 30
0.0
 11
112.3994156332907
 21
101.5363059225681
 31
0.0
 70
    32
 71
     5
 42
7.0
  3
AM_ANSI
100
AcDbAlignedDimension
 13
108.8994156332907
 23
90.19480665447019
 33
0.0
 14
115.8994156332907
 24
94.43608146227118
 34
0.0
100
AcDbRotatedDimension
1001
ACAD
1000
DSTYLE
1002
{
1070
    41
1040
2.0
1070
    42
1040
1.5
1070
    43
1040
8.0
1070
    44
1040
1.5
1070
    73
1070
     0
1070
    74
1070
     0
1070
    77
1070
     3
1070
   140
1040
2.0
1070
   141
1040
3.0
1070
   146
1040
0.6
1070
   147
1040
1.0
1070
   172
1070
     1
1070
   178
1070
   256
1070
   272
1070
     8
1070
   274
1070
     2
1070
   340
1005
2529
1002
}
  0
DIMENSION
  5
36D4
102
{ACAD_XDICTIONARY
360
36D5
102
}
102
{ACAD_REACTORS
330
36D6
102
}
330
1F
100
AcDbEntity
  8
DIM
100
AcDbDimension
  2
*D36
 10
115.8994156332907
 20
105.2241431266751
 30
0.0
 11
104.1494156332907
 21
105.2241431266751
 31
0.0
 70
   160
  1
18.5+stroke=S
 71
     5
 42
23.50000000000012
  3
AM_ANSI
100
AcDbAlignedDimension
 13
92.39941563329063
 23
94.43608146227116
 33
0.0
 14
115.8994156332907
 24
94.43608146227118
 34
0.0
100
AcDbRotatedDimension
1001
ACAD
1000
DSTYLE
1002
{
1070
    41
1040
2.0
1070
    42
1040
1.5
1070
    43
1040
8.0
1070
    44
1040
1.5
1070
    73
1070
     0
1070
    74
1070
     0
1070
    77
1070
     3
1070
   140
1040
2.0
1070
   141
1040
3.0
1070
   146
1040
0.6
1070
   147
1040
1.0
1070
   172
1070
     1
1070
   178
1070
   256
1070
   272
1070
     8
1070
   274
1070
     2
1070
   340
1005
2529
1002
}
  0
DIMENSION
  5
36D7
102
{ACAD_XDICTIONARY
360
36D8
102
}
102
{ACAD_REACTORS
330
36D9
102
}
330
1F
100
AcDbEntity
  8
DIM
100
AcDbDimension
  2
*D37
 10
92.39941563329074
 20
110.9325644035125
 30
0.0
 11
106.8994156332907
 21
112.9325644035125
 31
0.0
 70
    32
  1
24+stroke=ZZ
 71
     5
 42
29.0
  3
AM_ANSI
100
AcDbAlignedDimension
 13
121.3994156332907
 23
82.43608146227121
 33
0.0
 14
92.39941563329074
 24
94.43608146227118
 34
0.0
100
AcDbRotatedDimension
1001
ACAD
1000
DSTYLE
1002
{
1070
    41
1040
2.0
1070
    42
1040
1.5
1070
    43
1040
8.0
1070
    44
1040
1.5
1070
    73
1070
     0
1070
    74
1070
     0
1070
    77
1070
     3
1070
   140
1040
2.0
1070
   141
1040
3.0
1070
   146
1040
0.6
1070
   147
1040
1.0
1070
   172
1070
     1
1070
   178
1070
   256
1070
   272
1070
     8
1070
   274
1070
     2
1070
   340
1005
2529
1002
}
  0
DIMENSION
  5
36DA
102
{ACAD_XDICTIONARY
360
36DB
102
}
102
{ACAD_REACTORS
330
36DC
102
}
330
1F
100
AcDbEntity
  8
DIM
100
AcDbDimension
  2
*D38
 10
128.3335242996882
 20
82.93608146227127
 30
0.0
 11
126.3335242996882
 21
79.93608146227128
 31
0.0
 70
    32
  1
%%c<>
 71
     5
 42
6.000000000000014
  3
AM_ANSI
100
AcDbAlignedDimension
 13
120.5333902295065
 23
76.93608146227126
 33
0.0
 14
120.5333902295063
 24
82.93608146227127
 34
0.0
 50
90.0
100
AcDbRotatedDimension
1001
ACAD
1000
DSTYLE
1002
{
1070
    41
1040
2.0
1070
    42
1040
1.5
1070
    43
1040
8.0
1070
    44
1040
1.5
1070
    73
1070
     0
1070
    74
1070
     0
1070
    77
1070
     3
1070
   140
1040
2.0
1070
   141
1040
3.0
1070
   146
1040
0.6
1070
   147
1040
1.0
1070
   172
1070
     1
1070
   178
1070
   256
1070
   272
1070
     8
1070
   274
1070
     2
1070
   340
1005
2529
1002
}
  0
DIMENSION
  5
36DD
102
{ACAD_XDICTIONARY
360
36DE
102
}
102
{ACAD_REACTORS
330
36DF
102
}
330
1F
100
AcDbEntity
  8
DIM
100
AcDbDimension
  2
*D39
 10
134.0533597408082
 20
85.4360814622712
 30
0.0
 11
131.3966930741416
 21
93.90751003369979
 31
0.0
 70
    32
  1
%%c<>{}{\H0.71x;\C3;\S 0^ -0.05;}
 71
     5
 42
11.0
  3
AM_ANSI
100
AcDbAlignedDimension
 13
117.0994156332906
 23
74.4360814622712
 33
0.0
 14
117.0994156332908
 24
85.4360814622712
 34
0.0
 50
90.0
100
AcDbRotatedDimension
1001
GENIUS_GENDTOL_13
1000
TolSmNrm
1000

1000
{\H0.71x;$2\S$+$P^ $-$M;}
1040
11.0
1001
ACAD
1000
DSTYLE
1002
{
1070
   286
1070
     0
1070
   284
1070
     8
1070
    41
1040
2.0
1070
    42
1040
1.5
1070
    43
1040
8.0
1070
    44
1040
1.5
1070
    47
1040
0.0
1070
    48
1040
0.05
1070
    73
1070
     0
1070
    74
1070
     0
1070
    77
1070
     3
1070
   140
1040
2.0
1070
   141
1040
3.0
1070
   146
1040
0.6
1070
   147
1040
1.0
1070
   172
1070
     1
1070
   178
1070
   256
1070
   272
1070
     8
1070
   274
1070
     2
1070
   340
1005
2529
1002
}
  0
DIMENSION
  5
36E0
102
{ACAD_XDICTIONARY
360
36E1
102
}
102
{ACAD_REACTORS
330
36E2
102
}
330
1F
100
AcDbEntity
  8
DIM
100
AcDbDimension
  2
*D40
 10
121.3994156332907
 20
68.05447749437906
 30
0.0
 11
127.0660822999574
 21
70.05447749437905
 31
0.0
 70
    32
 71
     5
 42
2.999999999999886
  3
AM_ANSI
100
AcDbAlignedDimension
 13
118.3994156332908
 23
77.79033015120662
 33
0.0
 14
121.3994156332907
 24
77.43608146227123
 34
0.0
100
AcDbRotatedDimension
1001
ACAD
1000
DSTYLE
1002
{
1070
    41
1040
2.0
1070
    42
1040
1.5
1070
    43
1040
8.0
1070
    44
1040
1.5
1070
    73
1070
     0
1070
    74
1070
     0
1070
    77
1070
     3
1070
   140
1040
2.0
1070
   141
1040
3.0
1070
   146
1040
0.6
1070
   147
1040
1.0
1070
   172
1070
     1
1070
   178
1070
   256
1070
   272
1070
     8
1070
   274
1070
     2
1070
   340
1005
2529
1002
}
  0
DIMENSION
  5
36E3
330
1F
100
AcDbEntity
  8
DIM
100
AcDbDimension
  2
*D26
 10
83.40617995823691
 20
86.43608146227125
 30
0.0
 11
81.4061799582369
 21
83.18608146227123
 31
0.0
 70
    32
 71
     5
 42
6.500000000000042
  3
AM_ANSI
100
AcDbAlignedDimension
 13
90.44328921211144
 23
79.93608146227121
 33
0.0
 14
95.64069044109174
 24
86.43608146227125
 34
0.0
 50
90.0
100
AcDbRotatedDimension
1001
ACAD
1000
DSTYLE
1002
{
1070
    41
1040
2.0
1070
    42
1040
1.5
1070
    43
1040
8.0
1070
    44
1040
1.5
1070
    73
1070
     0
1070
    74
1070
     0
1070
    77
1070
     3
1070
   140
1040
2.0
1070
   141
1040
3.0
1070
   146
1040
0.6
1070
   147
1040
1.0
1070
   172
1070
     1
1070
   178
1070
   256
1070
   272
1070
     8
1070
   274
1070
     2
1070
   340
1005
2529
1002
}
  0
LEADER
  5
36E4
330
1F
100
AcDbEntity
  8
DIM
100
AcDbLeader
  3
AM_ANSI$7
 73
     0
 75
     1
 40
2.0
 41
14.28571428571428
 76
     3
 10
97.24473563451176
 20
87.70389615806145
 30
0.0
 10
89.92098815561854
 20
93.76675046305336
 30
0.0
 10
87.92098815561855
 20
93.76675046305336
 30
0.0
340
36E5
213
-1.486619241154016
223
0.4032735171140303
233
0.0
1001
ACAD
1000
DSTYLE
1002
{
1070
    41
1040
2.0
1070
    42
1040
1.5
1070
    43
1040
8.0
1070
    44
1040
1.5
1070
    73
1070
     0
1070
    74
1070
     0
1070
    77
1070
     2
1070
   140
1040
2.0
1070
   141
1040
3.0
1070
   146
1040
0.6
1070
   147
1040
1.0
1070
   172
1070
     1
1070
   178
1070
   256
1070
   272
1070
     2
1070
   274
1070
     2
1070
   340
1005
2529
1002
}
  0
MTEXT
  5
36E5
102
{ACAD_REACTORS
330
36E4
102
}
330
1F
100
AcDbEntity
  8
DIM
100
AcDbMText
 10
88.40760739677255
 20
94.36347694593933
 30
0.0
 40
2.0
 41
0.0
 71
     9
 72
     1
  1
2-M5*0.8
  7
dayus
 73
     1
 44
1.0
1001
ACAD
1000
MTEXTBEGIN
1070
    73
1070
     1
1070
    44
1040
1.0
1070
    74
1070
     0
1000
MTEXTEND
  0
DIMENSION
  5
36E6
330
1F
100
AcDbEntity
  8
DIM
100
AcDbDimension
  2
*D27
 10
189.3770105196234
 20
98.86284848609193
 30
0.0
 11
186.8770105196234
 21
98.86284848609193
 31
0.0
 70
   160
  1
<>
 71
     5
 42
5.0
  3
AM_ANSI
100
AcDbAlignedDimension
 13
184.3770105196234
 23
81.59439385744915
 33
0.0
 14
189.3770105196234
 24
81.59439385744875
 34
0.0
100
AcDbRotatedDimension
1001
ACAD
1000
DSTYLE
1002
{
1070
    41
1040
2.0
1070
    42
1040
1.5
1070
    43
1040
8.0
1070
    44
1040
1.5
1070
    73
1070
     0
1070
    74
1070
     0
1070
    77
1070
     3
1070
   140
1040
2.0
1070
   141
1040
3.0
1070
   146
1040
0.6
1070
   147
1040
1.0
1070
   172
1070
     1
1070
   178
1070
   256
1070
   272
1070
     8
1070
   274
1070
     2
1070
   340
1005
2529
1002
}
  0
DIMENSION
  5
36E7
330
1F
100
AcDbEntity
  8
DIM
100
AcDbDimension
  2
*D28
 10
196.7770105196235
 20
103.7597450655861
 30
0.0
 11
186.8770105196234
 21
105.7597450655861
 31
0.0
 70
    32
  1
□<>
 71
     5
 42
19.80000000000007
  3
AM_ANSI
100
AcDbAlignedDimension
 13
176.9770105196234
 23
74.85764738863401
 33
0.0
 14
196.7770105196235
 24
94.65764738863407
 34
0.0
100
AcDbRotatedDimension
1001
ACAD
1000
DSTYLE
1002
{
1070
    41
1040
2.0
1070
    42
1040
1.5
1070
    43
1040
8.0
1070
    44
1040
1.5
1070
    73
1070
     0
1070
    74
1070
     0
1070
    77
1070
     3
1070
   140
1040
2.0
1070
   141
1040
3.0
1070
   146
1040
0.6
1070
   147
1040
1.0
1070
   172
1070
     1
1070
   178
1070
   256
1070
   272
1070
     8
1070
   274
1070
     2
1070
   340
1005
2529
1002
}
  0
DIMENSION
  5
36E8
330
1F
100
AcDbEntity
  8
DIM
100
AcDbDimension
  2
*D29
 10
201.3770105196238
 20
109.1290738776846
 30
0.0
 11
186.8770105196233
 21
111.1290738776846
 31
0.0
 70
    32
  1
□<>
 71
     5
 42
29.00000000000091
  3
AM_ANSI
100
AcDbAlignedDimension
 13
172.3770105196228
 23
92.21411062007945
 33
0.0
 14
201.3770105196238
 24
92.21411062007947
 34
0.0
100
AcDbRotatedDimension
1001
ACAD
1000
DSTYLE
1002
{
1070
    41
1040
2.0
1070
    42
1040
1.5
1070
    43
1040
8.0
1070
    44
1040
1.5
1070
    73
1070
     0
1070
    74
1070
     0
1070
    77
1070
     3
1070
   140
1040
2.0
1070
   141
1040
3.0
1070
   146
1040
0.6
1070
   147
1040
1.0
1070
   172
1070
     1
1070
   178
1070
   256
1070
   272
1070
     8
1070
   274
1070
     2
1070
   340
1005
2529
1002
}
  0
DIMENSION
  5
36E9
330
1F
100
AcDbEntity
  8
DIM
100
AcDbDimension
  2
*D30
 10
214.8099757958825
 20
71.80311618601199
 30
0.0
 11
203.4957622335094
 21
63.31732974838505
 31
0.0
 70
    33
 71
     5
 42
28.00142853498736
  3
AM_ANSI
100
AcDbAlignedDimension
 13
176.9770105196232
 23
70.03608146227117
 33
0.0
 14
196.7770105196233
 24
89.83608146227124
 34
0.0
1001
ACAD
1000
DSTYLE
1002
{
1070
    41
1040
2.0
1070
    42
1040
1.5
1070
    43
1040
8.0
1070
    44
1040
1.5
1070
    73
1070
     0
1070
    74
1070
     0
1070
    77
1070
     3
1070
   140
1040
2.0
1070
   141
1040
3.0
1070
   146
1040
0.6
1070
   147
1040
1.0
1070
   172
1070
     1
1070
   178
1070
   256
1070
   272
1070
     8
1070
   274
1070
     2
1070
   340
1005
2529
1002
}
  0
DIMENSION
  5
36EA
330
1F
100
AcDbEntity
  8
DIM
100
AcDbDimension
  2
*D31
 10
222.5459345397578
 20
71.04518659994486
 30
0.0
 11
207.7427063984802
 21
59.07038558341381
 31
0.0
 70
    33
 71
     5
 42
37.86985200859519
  3
AM_ANSI
100
AcDbAlignedDimension
 13
174.5989813618147
 23
65.43608146227113
 33
0.0
 14
201.3770105196238
 24
92.21411062007947
 34
0.0
1001
ACAD
1000
DSTYLE
1002
{
1070
    41
1040
2.0
1070
    42
1040
1.5
1070
    43
1040
8.0
1070
    44
1040
1.5
1070
    73
1070
     0
1070
    74
1070
     0
1070
    77
1070
     3
1070
   140
1040
2.0
1070
   141
1040
3.0
1070
   146
1040
0.6
1070
   147
1040
1.0
1070
   172
1070
     1
1070
   178
1070
   256
1070
   271
1070
     0
1070
   272
1070
     8
1070
   274
1070
     2
1070
   340
1005
2529
1002
}
  0
LEADER
  5
36ED
330
1F
100
AcDbEntity
  8
DIM
100
AcDbLeader
  3
AM_ANSI$7
 73
     0
 75
     1
 40
2.666666666666666
 41
23.42857142857143
 76
     3
 10
185.5223102493665
 20
80.62694120039919
 30
0.0
 10
171.5256601879195
 20
88.14816666377504
 30
0.0
 10
169.5256601879195
 20
88.14816666377504
 30
0.0
340
36EE
213
-1.014088096863588
223
0.509559582378472
233
0.0
1001
ACAD
1000
DSTYLE
1002
{
1070
    41
1040
2.0
1070
    42
1040
1.5
1070
    43
1040
8.0
1070
    44
1040
1.5
1070
    73
1070
     0
1070
    74
1070
     0
1070
    77
1070
     3
1070
   140
1040
2.0
1070
   141
1040
3.0
1070
   146
1040
0.6
1070
   147
1040
1.0
1070
   172
1070
     1
1070
   178
1070
   256
1070
   272
1070
     2
1070
   274
1070
     2
1070
   340
1005
2529
1002
}
  0
MTEXT
  5
36EE
102
{ACAD_REACTORS
330
36ED
102
}
330
1F
100
AcDbEntity
  8
DIM
100
AcDbMText
 10
169.5397482847831
 20
88.63860708139657
 30
0.0
 40
2.0
 41
0.0
 71
     9
 72
     1
  1
M3*0.5*6 depth
  7
dayus
 73
     1
 44
1.0
1001
ACAD
1000
MTEXTBEGIN
1070
    73
1070
     1
1070
    44
1040
1.0
1070
    74
1070
     0
1000
MTEXTEND
  0
TEXT
  5
3A3E
330
1F
100
AcDbEntity
  8
LOGO
 62
     7
100
AcDbText
 10
111.244019076996
 20
21.9803045974187
 30
0.0
 40
3.92609809954751
  1
Order example:
 41
0.8
  7
CHINESET
100
AcDbText
  0
TEXT
  5
3A3F
330
1F
100
AcDbEntity
  8
LOGO
 62
     7
100
AcDbText
 10
111.9483935435653
 20
27.50743781259747
 30
0.0
 40
5.889147149321265
  1
訂購代號：
  7
CHINESET
100
AcDbText
  0
LINE
  5
3A40
330
1F
100
AcDbEntity
  8
LOGO
 62
     4
100
AcDbLine
 10
109.5381161361834
 20
5.434244619391051
 30
0.0
 11
109.5381161361834
 21
34.87998036599757
 31
0.0
  0
TEXT
  5
3A41
330
1F
100
AcDbEntity
  8
LOGO
  6
Continuous
100
AcDbText
 10
55.33453813497363
 20
11.21881496932213
 30
0.0
 40
4.416860361990949
  1
金器工業股份有限公司
  7
CHINESET
100
AcDbText
  0
TEXT
  5
3A42
330
1F
100
AcDbEntity
  8
LOGO
  6
Continuous
100
AcDbText
 10
47.221639482726
 20
6.801089248995499
 30
0.0
 40
2.944573574660632
  1
MINDMAN INDUSTRIAL CO., LTD.
 41
0.85
  7
CHINESET
100
AcDbText
  0
LINE
  5
3A43
330
1F
100
AcDbEntity
  8
LOGO
 62
     4
100
AcDbLine
 10
109.5381161361834
 20
28.99083321667627
 30
0.0
 11
66.35103704116056
 21
28.99083321667627
 31
0.0
  0
LINE
  5
3A44
330
1F
100
AcDbEntity
  8
LOGO
 62
     4
100
AcDbLine
 10
109.5381161361834
 20
23.10168606735496
 30
0.0
 11
66.35103704116056
 21
23.10168606735496
 31
0.0
  0
LINE
  5
3A45
330
1F
100
AcDbEntity
  8
LOGO
 62
     4
100
AcDbLine
 10
109.5381161361834
 20
17.21253891803399
 30
0.0
 11
44.75749749364945
 21
17.21253891803399
 31
0.0
  0
LINE
  5
3A46
330
1F
100
AcDbEntity
  8
LOGO
 62
     4
100
AcDbLine
 10
66.35103704116056
 20
17.21253891803399
 30
0.0
 11
66.35103704116056
 21
34.87998036599757
 31
0.0
  0
TEXT
  5
3A47
330
1F
100
AcDbEntity
  8
LOGO
100
AcDbText
 10
95.86736720352408
 20
18.68482570536382
 30
0.0
 40
2.944573574660632
  1
mm
  7
CHINESET
 72
     1
 11
99.51302972453248
 21
20.15711249269414
 31
0.0
100
AcDbText
 73
     2
  0
TEXT
  5
3A48
330
1F
100
AcDbEntity
  8
LOGO
100
AcDbText
 10
94.324971521559
 20
30.46312000400643
 30
0.0
 40
2.944573574660632
  1
1 : 1
  7
CHINESET
 72
     1
 11
99.51302972453248
 21
31.93540679133675
 31
0.0
100
AcDbText
 73
     2
  0
LINE
  5
3A49
330
1F
100
AcDbEntity
  8
LOGO
 62
     4
100
AcDbLine
 10
89.90762563844578
 20
17.21253891803399
 30
0.0
 11
89.90762563844578
 21
34.87998036599757
 31
0.0
  0
CIRCLE
  5
3A4A
330
1F
100
AcDbEntity
  8
LOGO
  6
Continuous
100
AcDbCircle
 10
95.35987191337046
 20
26.05255810643976
 30
0.0
 40
1.709688724897129
  0
CIRCLE
  5
3A4B
330
1F
100
AcDbEntity
  8
LOGO
  6
Continuous
100
AcDbCircle
 10
95.35987191337046
 20
26.05255810643976
 30
0.0
 40
1.001726242610091
  0
LINE
  5
3A4C
330
1F
100
AcDbEntity
  8
LOGO
100
AcDbLine
 10
106.1037542445142
 20
24.3428693815423
 30
0.0
 11
106.1037542445142
 21
27.76224683133721
 31
0.0
  0
LINE
  5
3A4D
330
1F
100
AcDbEntity
  8
LOGO
100
AcDbLine
 10
100.7439782327776
 20
25.05083186382984
 30
0.0
 11
100.7439782327776
 21
27.05428434905
 31
0.0
  0
LINE
  5
3A4E
330
1F
100
AcDbEntity
  8
LOGO
  6
Continuous
100
AcDbLine
 10
100.7439782327776
 20
27.05428434905
 30
0.0
 11
106.1037542445142
 21
27.76224683133721
 31
0.0
  0
LINE
  5
3A4F
330
1F
100
AcDbEntity
  8
LOGO
  6
Continuous
100
AcDbLine
 10
100.7439782327776
 20
25.05083186382984
 30
0.0
 11
106.1037542445142
 21
24.3428693815423
 31
0.0
  0
TEXT
  5
3A50
330
1F
100
AcDbEntity
  8
LOGO
100
AcDbText
 10
68.77899569848127
 20
30.46456910517507
 30
192.9825011816733
 40
2.944573574660632
  1
比例 Scale:
 41
0.9
  7
CHINESET
 72
     4
 11
78.12933133980317
 21
31.93540679133675
 31
192.9825011816733
100
AcDbText
  0
TEXT
  5
3A51
330
1F
100
AcDbEntity
  8
LOGO
100
AcDbText
 10
68.60941980958338
 20
24.61539299642187
 30
192.9825011816733
 40
2.944573574660632
  1
投影  View:
 41
0.9
  7
CHINESET
 72
     4
 11
78.12933133980317
 21
26.04625964201545
 31
192.9825011816733
100
AcDbText
  0
TEXT
  5
3A52
330
1F
100
AcDbEntity
  8
LOGO
100
AcDbText
 10
68.89730445817744
 20
18.68482570536382
 30
192.9825011816733
 40
2.944573574660632
  1
單位  Unit:
 41
0.9
  7
CHINESET
 72
     4
 11
78.12933133980317
 21
20.15711249269414
 31
192.9825011816733
100
AcDbText
  0
SOLID
  5
3A53
330
1F
100
AcDbEntity
  8
LOGO
 62
     5
100
AcDbTrace
 10
47.81253983417116
 20
22.10747335886308
 30
0.0
 11
49.0856961822438
 21
22.10747335886274
 31
0.0
 12
54.39783128971914
 22
34.18050769403512
 32
0.0
 13
55.67098763779239
 23
34.18050769403445
 33
0.0
  0
SOLID
  5
3A54
330
1F
100
AcDbEntity
  8
LOGO
 62
     5
100
AcDbTrace
 10
49.61251949868904
 20
22.10747335886308
 30
0.0
 11
50.88567584676161
 21
22.10747335886308
 31
0.0
 12
55.67098763779239
 22
33.21466494722087
 32
0.0
 13
54.39783128971914
 23
28.5464250042877
 33
0.0
  0
SOLID
  5
3A55
330
1F
100
AcDbEntity
  8
LOGO
 62
     2
100
AcDbTrace
 10
49.0856961822438
 20
22.10747335886274
 30
0.0
 11
49.61251949868904
 21
22.10747335886308
 31
0.0
 12
55.67098763779239
 22
34.18050769403445
 32
0.0
 13
56.19781095423696
 23
34.18050769403445
 33
0.0
  0
SOLID
  5
3A56
330
1F
100
AcDbEntity
  8
LOGO
 62
     5
100
AcDbTrace
 10
45.77135799202977
 20
17.71727905516455
 30
0.0
 11
46.21037742240014
 21
17.71727905516455
 31
0.0
 12
47.4466903088633
 22
19.91237620701365
 32
0.0
 13
47.8857097392323
 23
19.91237620701365
 33
0.0
  0
SOLID
  5
3A57
330
1F
100
AcDbEntity
  8
LOGO
 62
     5
100
AcDbTrace
 10
47.4466903088633
 20
19.91237620701365
 30
0.0
 11
47.8857097392323
 21
19.91237620701365
 31
0.0
 12
47.4466903088633
 22
17.71727905516455
 32
0.0
 13
47.8857097392323
 23
17.71727905516455
 33
0.0
  0
SOLID
  5
3A58
330
1F
100
AcDbEntity
  8
LOGO
 62
     5
100
AcDbTrace
 10
47.4466903088633
 20
17.71727905516455
 30
0.0
 11
47.8857097392323
 21
17.71727905516455
 31
0.0
 12
49.12202262569753
 22
19.91237620701365
 32
0.0
 13
49.5610420560672
 23
19.91237620701365
 33
0.0
  0
SOLID
  5
3A59
330
1F
100
AcDbEntity
  8
LOGO
 62
     5
100
AcDbTrace
 10
49.12202262569753
 20
19.91237620701365
 30
0.0
 11
49.5610420560672
 21
19.91237620701365
 31
0.0
 12
49.12202262569753
 22
17.71727905516455
 32
0.0
 13
49.5610420560672
 23
17.71727905516455
 33
0.0
  0
POLYLINE
  5
3A5A
330
1F
100
AcDbEntity
  8
LOGO
 62
     5
100
AcDb2dPolyline
 66
     1
 10
0.0
 20
0.0
 30
0.0
 40
0.4397229871493212
 41
0.4397229871493212
  0
VERTEX
  5
3A5B
330
3A5A
100
AcDbEntity
  8
LOGO
 62
     5
100
AcDbVertex
100
AcDb2dVertex
 10
63.83780437784196
 20
19.03433734627394
 30
0.0
 42
1.0
  0
VERTEX
  5
3A5C
330
3A5A
100
AcDbEntity
  8
LOGO
 62
     5
100
AcDbVertex
100
AcDb2dVertex
 10
62.51863541639375
 20
19.03433734627394
 30
0.0
 42
1.0
  0
SEQEND
  5
3A5D
330
3A5A
100
AcDbEntity
  8
LOGO
 62
     5
  0
POLYLINE
  5
3A5E
330
1F
100
AcDbEntity
  8
LOGO
 62
     5
100
AcDb2dPolyline
 66
     1
 10
0.0
 20
0.0
 30
0.0
 70
     1
  0
VERTEX
  5
3A5F
330
3A5E
100
AcDbEntity
  8
LOGO
 62
     5
100
AcDbVertex
100
AcDb2dVertex
 10
60.03194324742816
 20
18.81482763108876
 30
0.0
 42
1.000000057330635
  0
VERTEX
  5
3A60
330
3A5E
100
AcDbEntity
  8
LOGO
 62
     5
100
AcDbVertex
100
AcDb2dVertex
 10
61.34900153853789
 20
18.81482763108876
 30
0.0
 42
1.000000057330635
  0
SEQEND
  5
3A61
330
3A5E
100
AcDbEntity
  8
LOGO
 62
     5
  0
CIRCLE
  5
3A62
330
1F
100
AcDbEntity
  8
LOGO
 62
     5
100
AcDbCircle
 10
60.69047239298402
 20
18.81482763108876
 30
0.0
 40
0.6585291455548236
  0
POLYLINE
  5
3A63
330
1F
100
AcDbEntity
  8
LOGO
 62
     5
100
AcDb2dPolyline
 66
     1
 10
0.0
 20
0.0
 30
0.0
 70
     1
 40
0.4397229871493212
 41
0.4397229871493212
  0
VERTEX
  5
3A64
330
3A63
100
AcDbEntity
  8
LOGO
 62
     5
100
AcDbVertex
100
AcDb2dVertex
 10
59.81102641868478
 20
18.81482763108876
 30
0.0
 42
1.0
  0
VERTEX
  5
3A65
330
3A63
100
AcDbEntity
  8
LOGO
 62
     5
100
AcDbVertex
100
AcDb2dVertex
 10
61.56991836728195
 20
18.81482763108876
 30
0.0
 42
1.0
  0
SEQEND
  5
3A66
330
3A63
100
AcDbEntity
  8
LOGO
 62
     5
  0
LINE
  5
3A67
330
1F
100
AcDbEntity
  8
LOGO
100
AcDbLine
 10
64.05625875785688
 20
17.71727905516455
 30
0.0
 11
64.05625875785688
 21
19.03433734627394
 31
0.0
  0
SOLID
  5
3A68
330
1F
100
AcDbEntity
  8
LOGO
 62
     5
100
AcDbTrace
 10
61.34895763659682
 20
19.91237620701365
 30
0.0
 11
61.78797706696582
 21
19.91237620701365
 31
0.0
 12
61.34895763659682
 22
17.71727905516455
 32
0.0
 13
61.78797706696582
 23
17.71727905516455
 33
0.0
  0
SOLID
  5
3A69
330
1F
100
AcDbEntity
  8
LOGO
 62
     5
100
AcDbTrace
 10
62.30018103637746
 20
17.71727905516455
 30
0.0
 11
62.73920046674783
 21
17.71727905516455
 31
0.0
 12
62.30018103637746
 22
19.91237620701365
 32
0.0
 13
62.73920046674783
 23
19.91237620701365
 33
0.0
  0
SOLID
  5
3A6A
330
1F
100
AcDbEntity
  8
LOGO
 62
     5
100
AcDbTrace
 10
63.61723932748788
 20
19.03433734627394
 30
0.0
 11
64.05625875785688
 21
19.03433734627394
 31
0.0
 12
63.61723932748788
 22
17.71727905516455
 32
0.0
 13
64.05625875785688
 23
17.71727905516455
 33
0.0
  0
SOLID
  5
3A6B
330
1F
100
AcDbEntity
  8
LOGO
 62
     5
100
AcDbTrace
 10
62.25627909334036
 20
33.21466494722087
 30
0.0
 11
60.98312274526842
 21
28.5464250042877
 31
0.0
 12
62.25627909334036
 22
22.10747335886274
 32
0.0
 13
60.98312274526842
 23
22.10747335886274
 33
0.0
  0
SOLID
  5
3A6C
330
1F
100
AcDbEntity
  8
LOGO
 62
     5
100
AcDbTrace
 10
62.78310240978493
 20
22.10747335886274
 30
0.0
 11
64.05625875785688
 21
22.10747335886274
 31
0.0
 12
62.78310240978493
 22
34.18050769403445
 32
0.0
 13
64.05625875785688
 23
34.18050769403512
 33
0.0
  0
SOLID
  5
3A6D
330
1F
100
AcDbEntity
  8
LOGO
 62
     2
100
AcDbTrace
 10
62.25627909334036
 20
34.18050769403512
 30
0.0
 11
62.78310240978493
 21
34.18050769403445
 31
0.0
 12
62.25627909334036
 22
22.10747335886274
 32
0.0
 13
62.78310240978493
 23
22.10747335886274
 33
0.0
  0
POLYLINE
  5
3A6E
330
1F
100
AcDbEntity
  8
LOGO
 62
     5
100
AcDb2dPolyline
 66
     1
 10
0.0
 20
0.0
 30
0.0
 40
0.4397229871493212
 41
0.4397229871493212
  0
VERTEX
  5
3A6F
330
3A6E
100
AcDbEntity
  8
LOGO
 62
     5
100
AcDbVertex
100
AcDb2dVertex
 10
57.54516327457839
 20
19.03433734627394
 30
0.0
 42
1.0
  0
VERTEX
  5
3A70
330
3A6E
100
AcDbEntity
  8
LOGO
 62
     5
100
AcDbVertex
100
AcDb2dVertex
 10
56.22599431313017
 20
19.03433734627394
 30
0.0
 42
1.0
  0
SEQEND
  5
3A71
330
3A6E
100
AcDbEntity
  8
LOGO
 62
     5
  0
POLYLINE
  5
3A72
330
1F
100
AcDbEntity
  8
LOGO
 62
     5
100
AcDb2dPolyline
 66
     1
 10
0.0
 20
0.0
 30
0.0
 40
0.4397229871493212
 41
0.4397229871493212
  0
VERTEX
  5
3A73
330
3A72
100
AcDbEntity
  8
LOGO
 62
     5
100
AcDbVertex
100
AcDb2dVertex
 10
58.86222156568681
 20
19.03433734627394
 30
0.0
 42
1.0
  0
VERTEX
  5
3A74
330
3A72
100
AcDbEntity
  8
LOGO
 62
     5
100
AcDbVertex
100
AcDb2dVertex
 10
57.54305260423922
 20
19.03433734627394
 30
0.0
 42
1.0
  0
SEQEND
  5
3A75
330
3A72
100
AcDbEntity
  8
LOGO
 62
     5
  0
POLYLINE
  5
3A76
330
1F
100
AcDbEntity
  8
LOGO
 62
     5
100
AcDb2dPolyline
 66
     1
 10
0.0
 20
0.0
 30
0.0
 40
0.4397229871493212
 41
0.4397229871493212
  0
VERTEX
  5
3A77
330
3A76
100
AcDbEntity
  8
LOGO
 62
     5
100
AcDbVertex
100
AcDb2dVertex
 10
52.56958046242323
 20
19.03433734627394
 30
0.0
 42
1.0
  0
VERTEX
  5
3A78
330
3A76
100
AcDbEntity
  8
LOGO
 62
     5
100
AcDbVertex
100
AcDb2dVertex
 10
51.25041150097565
 20
19.03433734627394
 30
0.0
 42
1.0
  0
SEQEND
  5
3A79
330
3A76
100
AcDbEntity
  8
LOGO
 62
     5
  0
SOLID
  5
3A7A
330
1F
100
AcDbEntity
  8
LOGO
 62
     5
100
AcDbTrace
 10
51.0319571209601
 20
19.91237620701365
 30
0.0
 11
51.4709765513291
 21
19.91237620701365
 31
0.0
 12
51.0319571209601
 22
17.71727905516455
 32
0.0
 13
51.4709765513291
 23
17.71727905516455
 33
0.0
  0
SOLID
  5
3A7B
330
1F
100
AcDbEntity
  8
LOGO
 62
     5
100
AcDbTrace
 10
52.34901541206983
 20
19.03433734627394
 30
0.0
 11
52.78803484244014
 21
19.03433734627394
 31
0.0
 12
52.34901541206983
 22
17.71727905516455
 32
0.0
 13
52.78803484244014
 23
17.71727905516455
 33
0.0
  0
POLYLINE
  5
3A7C
330
1F
100
AcDbEntity
  8
LOGO
 62
     5
100
AcDb2dPolyline
 66
     1
 10
0.0
 20
0.0
 30
0.0
 70
     1
 40
0.4397229871493212
 41
0.4397229871493212
  0
VERTEX
  5
3A7D
330
3A7C
100
AcDbEntity
  8
LOGO
 62
     5
100
AcDbVertex
100
AcDb2dVertex
 10
53.51838531542052
 20
18.81482763108876
 30
0.0
 42
1.0
  0
VERTEX
  5
3A7E
330
3A7C
100
AcDbEntity
  8
LOGO
 62
     5
100
AcDbVertex
100
AcDb2dVertex
 10
55.27727726401838
 20
18.81482763108876
 30
0.0
 42
1.0
  0
SEQEND
  5
3A7F
330
3A7C
100
AcDbEntity
  8
LOGO
 62
     5
  0
SOLID
  5
3A80
330
1F
100
AcDbEntity
  8
LOGO
 62
     5
100
AcDbTrace
 10
55.05631653333188
 20
20.57090535256884
 30
0.0
 11
55.49533596370157
 21
20.57090535256884
 31
0.0
 12
55.05631653333188
 22
17.71727905516455
 32
0.0
 13
55.49533596370157
 23
17.71727905516455
 33
0.0
  0
SOLID
  5
3A81
330
1F
100
AcDbEntity
  8
LOGO
 62
     5
100
AcDbTrace
 10
56.00753993311525
 20
19.91237620701365
 30
0.0
 11
56.44655936348425
 21
19.91237620701365
 31
0.0
 12
56.00753993311525
 22
17.71727905516455
 32
0.0
 13
56.44655936348425
 23
17.71727905516455
 33
0.0
  0
SOLID
  5
3A82
330
1F
100
AcDbEntity
  8
LOGO
 62
     5
100
AcDbTrace
 10
57.32459822422362
 20
19.03433734627394
 30
0.0
 11
57.76361765459398
 21
19.03433734627394
 31
0.0
 12
57.32459822422362
 22
17.71727905516455
 32
0.0
 13
57.76361765459398
 23
17.71727905516455
 33
0.0
  0
SOLID
  5
3A83
330
1F
100
AcDbEntity
  8
LOGO
 62
     5
100
AcDbTrace
 10
58.64165651533335
 20
19.03433734627394
 30
0.0
 11
59.08067594570304
 21
19.03433734627394
 31
0.0
 12
58.64165651533335
 22
17.71727905516388
 32
0.0
 13
59.08067594570304
 23
17.71727905516388
 33
0.0
  0
SOLID
  5
3A84
330
1F
100
AcDbEntity
  8
LOGO
 62
     5
100
AcDbTrace
 10
50.08073372117741
 20
20.2196898082727
 30
0.0
 11
50.5197531515484
 21
20.2196898082727
 31
0.0
 12
50.08073372117741
 22
20.57090535256884
 32
0.0
 13
50.5197531515484
 23
20.57090535256884
 33
0.0
  0
SOLID
  5
3A85
330
1F
100
AcDbEntity
  8
LOGO
 62
     5
100
AcDbTrace
 10
50.08073372117741
 20
19.91237620701365
 30
0.0
 11
50.5197531515484
 21
19.91237620701365
 31
0.0
 12
50.08073372117741
 22
17.71727905516388
 32
0.0
 13
50.5197531515484
 23
17.71727905516455
 33
0.0
  0
SOLID
  5
3A86
330
1F
100
AcDbEntity
  8
LOGO
 62
     5
100
AcDbTrace
 10
54.39783128971914
 20
22.10747335886308
 30
0.0
 11
55.67098763779239
 21
22.10747335886308
 31
0.0
 12
54.39783128971914
 22
28.5464250042877
 32
0.0
 13
55.67098763779239
 23
33.21466494722087
 33
0.0
  0
SOLID
  5
3A87
330
1F
100
AcDbEntity
  8
LOGO
 62
     5
100
AcDbTrace
 10
56.19781095423696
 20
34.18050769403445
 30
0.0
 11
57.4709673023089
 21
34.18050769403512
 31
0.0
 12
56.19781095423696
 22
23.07331610567665
 32
0.0
 13
57.4709673023089
 23
27.74155604860983
 33
0.0
  0
SOLID
  5
3A88
330
1F
100
AcDbEntity
  8
LOGO
 62
     2
100
AcDbTrace
 10
55.67098763779239
 20
34.18050769403445
 30
0.0
 11
56.19781095423696
 21
34.18050769403445
 31
0.0
 12
55.67098763779239
 22
22.10747335886308
 32
0.0
 13
56.19781095423696
 23
22.10747335886308
 33
0.0
  0
SOLID
  5
3A89
330
1F
100
AcDbEntity
  8
LOGO
 62
     5
100
AcDbTrace
 10
56.19781095423696
 20
23.07331610567665
 30
0.0
 11
57.4709673023089
 21
27.74155604860983
 31
0.0
 12
62.25627909334036
 22
34.18050769403512
 32
0.0
 13
60.98312274526842
 23
34.18050769403512
 33
0.0
  0
SOLID
  5
3A8A
330
1F
100
AcDbEntity
  8
LOGO
 62
     5
100
AcDbTrace
 10
56.19781095423696
 20
22.10747335886308
 30
0.0
 11
57.4709673023089
 21
22.10747335886308
 31
0.0
 12
62.25627909334036
 22
33.21466494722087
 32
0.0
 13
60.98312274526842
 23
28.5464250042877
 33
0.0
  0
SOLID
  5
3A8B
330
1F
100
AcDbEntity
  8
LOGO
 62
     2
100
AcDbTrace
 10
55.67098763779239
 20
22.10747335886308
 30
0.0
 11
56.19781095423696
 21
22.10747335886308
 31
0.0
 12
62.25627909334036
 22
34.18050769403512
 32
0.0
 13
62.78310240978493
 23
34.18050769403445
 33
0.0
  0
TEXT
  5
3A8C
330
1F
100
AcDbEntity
  8
LOGO
100
AcDbText
 10
110.7061064609476
 20
7.000746139065238
 30
0.0
 40
2.944999999999999
  1
10607262
 41
0.7
  7
CHINESET
 72
     1
 11
118.0686064609476
 21
7.000746139065238
 31
0.0
100
AcDbText
  0
LINE
  5
3A8D
330
1F
100
AcDbEntity
  8
LOGO
 62
     4
100
AcDbLine
 10
127.2081161361821
 20
11.32339176871302
 30
0.0
 11
127.2081161361834
 21
5.434244619391385
 31
0.0
  0
LINE
  5
3A8E
330
1F
100
AcDbEntity
  8
LOGO
 62
     4
100
AcDbLine
 10
127.2081161361821
 20
11.32339176871302
 30
0.0
 11
109.5381161361834
 21
11.32339176871302
 31
0.0
  0
LINE
  5
3A8F
330
1F
100
AcDbEntity
  8
LOGO
  6
AM_ISO08W050x2
 48
0.3
100
AcDbLine
 10
93.00304040552703
 20
26.05255810643976
 30
0.0
 11
97.71670342121389
 21
26.05255810643976
 31
0.0
1001
GENIUS_GENOREF_13
1005
3A94
  0
LINE
  5
3A90
330
1F
100
AcDbEntity
  8
LOGO
  6
AM_ISO08W050x2
 48
0.3
100
AcDbLine
 10
95.35987191337046
 20
23.69572659859633
 30
0.0
 11
95.35987191337046
 21
28.40938961428318
 31
0.0
1001
GENIUS_GENOREF_13
1005
3A93
  0
LINE
  5
3A91
330
1F
100
AcDbEntity
  8
LOGO
  6
CENTER
 48
0.5
100
AcDbLine
 10
100.3153451261158
 20
26.05255810643976
 30
0.0
 11
106.6434663384066
 21
26.05255810643976
 31
0.0
1001
GENIUS_GENOREF_13
1005
3A92
  0
POINT
  5
3A92
330
1F
100
AcDbEntity
  8
0
 60
     1
100
AcDbPoint
 10
-2027.583662246334
 20
-923.250426012127
 30
0.0
1001
GENIUS_GENOBJ-N-CRS_13
1002
{
1000
OWNER
1000
GEN
1002
}
1001
GENIUS_GENOLIS_13
1002
{
1000
ENT
1005
0
1005
0
1005
0
1005
3A91
1002
}
1001
GENIUS_GENOENT_13
1002
{
1000
MYREF
1005
3A92
1002
}
1002
{
1000
GRP
1005
0
1002
}
1001
GENIUS_GENODEF_13
1002
{
1000
HIER
1070
    10
1002
}
1002
{
1000
MANEDIT
1070
     1
1002
}
1002
{
1000
NOSEL
1070
     0
1002
}
1002
{
1000
BEHIND
1070
     0
1002
}
1002
{
1000
OTHER
1070
     0
1002
}
1002
{
1000
REACTOR
1002
}
  0
POINT
  5
3A93
330
1F
100
AcDbEntity
  8
0
 60
     1
100
AcDbPoint
 10
-2038.908247469188
 20
-914.3748395334908
 30
0.0
1001
GENIUS_GENOBJ-N-CRS_13
1002
{
1000
OWNER
1000
GEN
1002
}
1001
GENIUS_GENOLIS_13
1002
{
1000
ENT
1005
0
1005
0
1005
0
1005
3A90
1002
}
1001
GENIUS_GENOENT_13
1002
{
1000
MYREF
1005
3A93
1002
}
1002
{
1000
GRP
1005
0
1002
}
1001
GENIUS_GENODEF_13
1002
{
1000
HIER
1070
    10
1002
}
1002
{
1000
MANEDIT
1070
     1
1002
}
1002
{
1000
NOSEL
1070
     0
1002
}
1002
{
1000
BEHIND
1070
     0
1002
}
1002
{
1000
OTHER
1070
     0
1002
}
1002
{
1000
REACTOR
1002
}
  0
POINT
  5
3A94
330
1F
100
AcDbEntity
  8
0
 60
     1
100
AcDbPoint
 10
-2032.549573771351
 20
-923.250426012127
 30
0.0
1001
GENIUS_GENOBJ-N-CRS_13
1002
{
1000
OWNER
1000
GEN
1002
}
1001
GENIUS_GENOLIS_13
1002
{
1000
ENT
1005
0
1005
0
1005
0
1005
3A8F
1002
}
1001
GENIUS_GENOENT_13
1002
{
1000
MYREF
1005
3A94
1002
}
1002
{
1000
GRP
1005
0
1002
}
1001
GENIUS_GENODEF_13
1002
{
1000
HIER
1070
    10
1002
}
1002
{
1000
MANEDIT
1070
     1
1002
}
1002
{
1000
NOSEL
1070
     0
1002
}
1002
{
1000
BEHIND
1070
     0
1002
}
1002
{
1000
OTHER
1070
     0
1002
}
1002
{
1000
REACTOR
1002
}
  0
LWPOLYLINE
  5
3A95
330
1F
100
AcDbEntity
  8
LOGO
 62
     4
100
AcDbPolyline
 90
        4
 70
     1
 43
0.0
 10
44.75749749364945
 20
34.87998036599757
 10
282.9295044426146
 20
34.8799803659976
 10
282.9295044426146
 20
5.434244619390744
 10
44.75749749364945
 20
5.434244619390716
1001
GENIUS_GENREC_14
1002
{
1000
PYDIR
1011
44.75749749364945
1021
5.434244619390716
1031
0.0
1002
}
1002
{
1000
PXDIR
1011
282.9295044426146
1021
34.8799803659976
1031
0.0
1002
}
1002
{
1000
PORI
1011
44.75749749364945
1021
34.87998036599757
1031
0.0
1002
}
1002
{
1000
PINS
1011
44.75749749364945
1021
34.87998036599757
1031
0.0
1002
}
1002
{
1000
PINS2
1011
282.9295044426146
1021
5.434244619390744
1031
0.0
1002
}
1002
{
1000
C
1070
     1
1002
}
1001
GENIUS_GENOBJ-N-REC_13
1002
{
1000
OWNER
1000
GEN
1002
}
1001
GENIUS_GENODEF_13
1002
{
1000
HIER
1070
     0
1002
}
1002
{
1000
MANEDIT
1070
     0
1002
}
1002
{
1000
NOSEL
1070
     0
1002
}
1002
{
1000
BEHIND
1070
     0
1002
}
1002
{
1000
OTHER
1070
     0
1002
}
1002
{
1000
REACTOR
1002
}
  0
LINE
  5
3CE6
330
1F
100
AcDbEntity
  8
0
100
AcDbLine
 10
189.8153314709833
 20
244.7933099105717
 30
0.0
 11
189.815331470982
 21
234.7133099105723
 31
0.0
  0
LINE
  5
3CE7
330
1F
100
AcDbEntity
  8
0
100
AcDbLine
 10
214.642812243739
 20
241.4333099105721
 30
0.0
 11
214.642812243739
 21
234.7133099105721
 31
0.0
  0
LINE
  5
3CE8
330
1F
100
AcDbEntity
  8
0
100
AcDbLine
 10
201.9199472959439
 20
244.7933099105717
 30
0.0
 11
201.9199472959445
 21
234.7133099105723
 31
0.0
  0
LINE
  5
3CE9
330
1F
100
AcDbEntity
  8
0
100
AcDbLine
 10
189.8153314709835
 20
234.7133099105721
 30
0.0
 11
252.8114070871225
 21
234.7133099105721
 31
0.0
  0
LINE
  5
3CEA
330
1F
100
AcDbEntity
  8
0
100
AcDbLine
 10
189.8153314709835
 20
238.0733099105721
 30
0.0
 11
252.8114070871223
 21
238.0733099105721
 31
0.0
  0
TEXT
  5
3CEB
330
1F
100
AcDbEntity
  8
0
100
AcDbText
 10
195.3537532819716
 20
235.2844612289567
 30
0.0
 40
2.10953224323072
  1
5
 41
0.8
  7
CHINESET
 72
     4
 11
195.9162952134997
 21
236.339227350572
 31
0.0
100
AcDbText
  0
TEXT
  5
3CEC
330
1F
100
AcDbEntity
  8
0
100
AcDbText
 10
192.7230914573898
 20
238.8862029286662
 30
0.0
 40
1.679999999999999
  1
Stroke
 41
0.8
  7
CHINESET
100
AcDbText
  0
TEXT
  5
3CED
330
1F
100
AcDbEntity
  8
0
100
AcDbText
 10
206.3069912548077
 20
235.3018676983162
 30
0.0
 40
2.1
  1
23.5
 41
0.8
  7
CHINESET
100
AcDbText
  0
LINE
  5
3CEE
330
1F
100
AcDbEntity
  8
0
100
AcDbLine
 10
189.8153314709833
 20
244.7933099105719
 30
0.0
 11
252.8114070871219
 21
244.7933099105719
 31
0.0
  0
INSERT
  5
3CEF
330
1F
100
AcDbEntity
  8
0
100
AcDbBlockReference
  2
A$C5ECF147B
 10
189.3645810580528
 20
235.0080612444181
 30
0.0
 41
0.6720000000000028
 42
0.6720000000000028
 43
0.6719999999999999
  0
LINE
  5
3CF0
330
1F
100
AcDbEntity
  8
0
100
AcDbLine
 10
189.8153314709835
 20
241.4333099105721
 30
0.0
 11
252.8114070871222
 21
241.4333099105721
 31
0.0
  0
TEXT
  5
3CF1
330
1F
100
AcDbEntity
  8
0
100
AcDbText
 10
207.1254055757555
 20
238.6618676983163
 30
0.0
 40
2.1
  1
S
 41
0.8
  7
CHINESET
100
AcDbText
  0
TEXT
  5
3CF2
330
1F
100
AcDbEntity
  8
0
100
AcDbText
 10
204.8038574445907
 20
242.0371023816736
 30
0.0
 40
2.1
  1
Without magnet
 41
0.8
  7
CHINESET
100
AcDbText
  0
LINE
  5
3CF3
330
1F
100
AcDbEntity
  8
0
100
AcDbLine
 10
227.3656771915334
 20
244.7933099105719
 30
0.0
 11
227.3656771915335
 21
234.7133099105719
 31
0.0
  0
TEXT
  5
3CF4
330
1F
100
AcDbEntity
  8
0
100
AcDbText
 10
219.7833006643356
 20
235.301867698316
 30
0.0
 40
2.1
  1
41
 41
0.8
  7
CHINESET
100
AcDbText
  0
TEXT
  5
3CF5
330
1F
100
AcDbEntity
  8
0
100
AcDbText
 10
219.8482705235501
 20
238.6618676983163
 30
0.0
 40
2.1
  1
ZZ
 41
0.8
  7
CHINESET
100
AcDbText
  0
LINE
  5
3CF6
330
1F
100
AcDbEntity
  8
0
100
AcDbLine
 10
240.088542139328
 20
241.4333099105721
 30
0.0
 11
240.088542139328
 21
234.7133099105721
 31
0.0
  0
TEXT
  5
3CF7
330
1F
100
AcDbEntity
  8
0
100
AcDbText
 10
231.7527211503967
 20
235.3018676983162
 30
0.0
 40
2.1
  1
33.5
 41
0.8
  7
CHINESET
100
AcDbText
  0
TEXT
  5
3CF8
330
1F
100
AcDbEntity
  8
0
100
AcDbText
 10
232.5711354713444
 20
238.6618676983163
 30
0.0
 40
2.1
  1
S
 41
0.8
  7
CHINESET
100
AcDbText
  0
TEXT
  5
3CF9
330
1F
100
AcDbEntity
  8
0
100
AcDbText
 10
232.0110510756158
 20
242.0371023816736
 30
0.0
 40
2.1
  1
With magnet
 41
0.8
  7
CHINESET
100
AcDbText
  0
TEXT
  5
3CFA
330
1F
100
AcDbEntity
  8
0
100
AcDbText
 10
245.2290305599246
 20
235.301867698316
 30
0.0
 40
2.1
  1
51
 41
0.8
  7
CHINESET
100
AcDbText
  0
TEXT
  5
3CFB
330
1F
100
AcDbEntity
  8
0
100
AcDbText
 10
245.2940004191391
 20
238.6618676983163
 30
0.0
 40
2.1
  1
ZZ
 41
0.8
  7
CHINESET
100
AcDbText
  0
LINE
  5
3CFC
330
1F
100
AcDbEntity
  8
0
100
AcDbLine
 10
252.8114070871224
 20
244.7933099105719
 30
0.0
 11
252.8114070871225
 21
234.7133099105719
 31
0.0
  0
INSERT
  5
3CFD
330
1F
100
AcDbEntity
  8
0
100
AcDbBlockReference
  2
A$C5ECF147B
 10
205.3568369950709
 20
235.0080612444181
 30
0.0
 41
0.6720000000000028
 42
0.6720000000000028
 43
0.6719999999999999
  0
INSERT
  5
3CFE
330
1F
100
AcDbEntity
  8
0
100
AcDbBlockReference
  2
A$C5ECF147B
 10
218.0797019428654
 20
235.0080612444179
 30
0.0
 41
0.6720000000000028
 42
0.6720000000000028
 43
0.6719999999999999
  0
LEADER
  5
3D5A
330
1F
100
AcDbEntity
  8
DIM
100
AcDbLeader
  3
AM_ANSI$7
 73
     0
 74
     0
 75
     1
 40
8.666666666666666
 41
26.28571428571428
 76
     3
 10
199.3513617168705
 20
91.81981932631265
 30
0.0
 10
208.4208322996339
 20
98.80855195186729
 30
0.0
 10
210.4208322996339
 20
98.80855195186729
 30
0.0
340
3D5B
213
-0.1905629376930165
223
0.2179465301056638
233
0.0
1001
ACAD
1000
DSTYLE
1002
{
1070
    41
1040
2.0
1070
    42
1040
1.5
1070
    43
1040
8.0
1070
    44
1040
1.5
1070
    73
1070
     0
1070
    74
1070
     0
1070
    77
1070
     3
1070
   140
1040
2.0
1070
   141
1040
3.0
1070
   146
1040
0.6
1070
   147
1040
1.0
1070
   172
1070
     1
1070
   178
1070
   256
1070
   272
1070
     2
1070
   274
1070
     2
1070
   340
1005
2529
1002
}
  0
MTEXT
  5
3D5B
102
{ACAD_REACTORS
330
3D5A
102
}
330
1F
100
AcDbEntity
  8
DIM
100
AcDbMText
 10
211.6113952373269
 20
108.2572720884283
 30
0.0
 40
2.0
 41
0.0
 71
     1
 72
     1
  1
%%C6.5*4.5 depth\PM5*0.8*7.5 depth\P%%C4.3 thru
  7
dayus
 73
     1
 44
1.0
1001
ACAD
1000
MTEXTBEGIN
1070
    73
1070
     1
1070
    44
1040
1.0
1070
    74
1070
     0
1000
MTEXTEND
  0
LINE
  5
3D60
330
1F
100
AcDbEntity
  8
0
100
AcDbLine
 10
189.8153314709833
 20
132.5138902437906
 30
0.0
 11
189.815331470982
 21
122.4338902437911
 31
0.0
  0
LINE
  5
3D61
330
1F
100
AcDbEntity
  8
0
100
AcDbLine
 10
214.642812243739
 20
129.153890243791
 30
0.0
 11
214.642812243739
 21
122.4338902437909
 31
0.0
  0
LINE
  5
3D62
330
1F
100
AcDbEntity
  8
0
100
AcDbLine
 10
201.9199472959439
 20
132.5138902437906
 30
0.0
 11
201.9199472959445
 21
122.4338902437911
 31
0.0
  0
LINE
  5
3D63
330
1F
100
AcDbEntity
  8
0
100
AcDbLine
 10
189.8153314709835
 20
122.4338902437909
 30
0.0
 11
252.8114070871225
 21
122.4338902437909
 31
0.0
  0
LINE
  5
3D64
330
1F
100
AcDbEntity
  8
0
100
AcDbLine
 10
189.8153314709835
 20
125.7938902437909
 30
0.0
 11
252.8114070871223
 21
125.7938902437909
 31
0.0
  0
TEXT
  5
3D65
330
1F
100
AcDbEntity
  8
0
100
AcDbText
 10
195.3537532819716
 20
123.0050415621755
 30
0.0
 40
2.10953224323072
  1
5
 41
0.8
  7
CHINESET
 72
     4
 11
195.9162952134997
 21
124.0598076837909
 31
0.0
100
AcDbText
  0
TEXT
  5
3D66
330
1F
100
AcDbEntity
  8
0
100
AcDbText
 10
192.7230914573898
 20
126.606783261885
 30
0.0
 40
1.679999999999999
  1
Stroke
 41
0.8
  7
CHINESET
100
AcDbText
  0
TEXT
  5
3D67
330
1F
100
AcDbEntity
  8
0
100
AcDbText
 10
206.3069912548077
 20
123.022448031535
 30
0.0
 40
2.1
  1
23.5
 41
0.8
  7
CHINESET
100
AcDbText
  0
LINE
  5
3D68
330
1F
100
AcDbEntity
  8
0
100
AcDbLine
 10
189.8153314709833
 20
132.5138902437907
 30
0.0
 11
252.8114070871219
 21
132.5138902437907
 31
0.0
  0
INSERT
  5
3D69
330
1F
100
AcDbEntity
  8
0
100
AcDbBlockReference
  2
A$C5ECF147B
 10
189.3645810580528
 20
122.728641577637
 30
0.0
 41
0.6720000000000028
 42
0.6720000000000028
 43
0.6719999999999999
  0
LINE
  5
3D6A
330
1F
100
AcDbEntity
  8
0
100
AcDbLine
 10
189.8153314709835
 20
129.1538902437909
 30
0.0
 11
252.8114070871222
 21
129.1538902437909
 31
0.0
  0
TEXT
  5
3D6B
330
1F
100
AcDbEntity
  8
0
100
AcDbText
 10
207.1254055757555
 20
126.3824480315351
 30
0.0
 40
2.1
  1
S
 41
0.8
  7
CHINESET
100
AcDbText
  0
TEXT
  5
3D6C
330
1F
100
AcDbEntity
  8
0
100
AcDbText
 10
204.8038574445907
 20
129.7576827148924
 30
0.0
 40
2.1
  1
Without magnet
 41
0.8
  7
CHINESET
100
AcDbText
  0
LINE
  5
3D6D
330
1F
100
AcDbEntity
  8
0
100
AcDbLine
 10
227.3656771915334
 20
132.5138902437907
 30
0.0
 11
227.3656771915335
 21
122.4338902437907
 31
0.0
  0
TEXT
  5
3D6E
330
1F
100
AcDbEntity
  8
0
100
AcDbText
 10
219.7833006643356
 20
123.0224480315348
 30
0.0
 40
2.1
  1
29
 41
0.8
  7
CHINESET
100
AcDbText
  0
TEXT
  5
3D6F
330
1F
100
AcDbEntity
  8
0
100
AcDbText
 10
219.8482705235501
 20
126.3824480315351
 30
0.0
 40
2.1
  1
ZZ
 41
0.8
  7
CHINESET
100
AcDbText
  0
LINE
  5
3D70
330
1F
100
AcDbEntity
  8
0
100
AcDbLine
 10
240.088542139328
 20
129.153890243791
 30
0.0
 11
240.088542139328
 21
122.4338902437909
 31
0.0
  0
TEXT
  5
3D71
330
1F
100
AcDbEntity
  8
0
100
AcDbText
 10
231.7527211503967
 20
123.022448031535
 30
0.0
 40
2.1
  1
33.5
 41
0.8
  7
CHINESET
100
AcDbText
  0
TEXT
  5
3D72
330
1F
100
AcDbEntity
  8
0
100
AcDbText
 10
232.5711354713444
 20
126.3824480315351
 30
0.0
 40
2.1
  1
S
 41
0.8
  7
CHINESET
100
AcDbText
  0
TEXT
  5
3D73
330
1F
100
AcDbEntity
  8
0
100
AcDbText
 10
232.0110510756158
 20
129.7576827148924
 30
0.0
 40
2.1
  1
With magnet
 41
0.8
  7
CHINESET
100
AcDbText
  0
TEXT
  5
3D74
330
1F
100
AcDbEntity
  8
0
100
AcDbText
 10
245.2290305599246
 20
123.0224480315348
 30
0.0
 40
2.1
  1
39
 41
0.8
  7
CHINESET
100
AcDbText
  0
TEXT
  5
3D75
330
1F
100
AcDbEntity
  8
0
100
AcDbText
 10
245.2940004191391
 20
126.3824480315351
 30
0.0
 40
2.1
  1
ZZ
 41
0.8
  7
CHINESET
100
AcDbText
  0
LINE
  5
3D76
330
1F
100
AcDbEntity
  8
0
100
AcDbLine
 10
252.8114070871224
 20
132.5138902437907
 30
0.0
 11
252.8114070871225
 21
122.4338902437907
 31
0.0
  0
INSERT
  5
3D77
330
1F
100
AcDbEntity
  8
0
100
AcDbBlockReference
  2
A$C5ECF147B
 10
205.3568369950709
 20
122.728641577637
 30
0.0
 41
0.6720000000000028
 42
0.6720000000000028
 43
0.6719999999999999
  0
INSERT
  5
3D78
330
1F
100
AcDbEntity
  8
0
100
AcDbBlockReference
  2
A$C5ECF147B
 10
218.0797019428654
 20
122.7286415776367
 30
0.0
 41
0.6720000000000028
 42
0.6720000000000028
 43
0.6719999999999999
  0
LINE
  5
3DBC
330
1F
100
AcDbEntity
  8
AM_7
  6
ACISOTGB
 62
     2
100
AcDbLine
 10
104.1494156332907
 20
203.9261040151238
 30
0.0
 11
104.1494156332907
 21
162.4674055532928
 31
0.0
1001
GENIUS_GENOBJ-N-CEN_13
1002
{
1000
OWNER
1000
GEN
1002
}
1001
GENIUS_GENODEF_13
1002
{
1000
HIER
1070
     0
1002
}
1002
{
1000
MANEDIT
1070
     0
1002
}
1002
{
1000
NOSEL
1070
     0
1002
}
1002
{
1000
BEHIND
1070
     0
1002
}
1002
{
1000
OTHER
1070
     0
1002
}
1002
{
1000
REACTOR
1002
}
1001
GENIUS_GENCEN_19
1002
{
1040
3.0
1002
}
  0
INSERT
  5
3DBD
330
1F
100
AcDbEntity
  8
0
100
AcDbBlockReference
  2
A$C1F6E6265
 10
104.1494151690841
 20
163.6332248645506
 30
0.0
  0
LINE
  5
3DBF
330
1F
100
AcDbEntity
  8
AM_7
  6
ACISOTGB
 62
     2
100
AcDbLine
 10
104.1494156332907
 20
98.66474295072752
 30
0.0
 11
104.1494156332907
 21
57.20604448889654
 31
0.0
1001
GENIUS_GENOBJ-N-CEN_13
1002
{
1000
OWNER
1000
GEN
1002
}
1001
GENIUS_GENODEF_13
1002
{
1000
HIER
1070
     0
1002
}
1002
{
1000
MANEDIT
1070
     0
1002
}
1002
{
1000
NOSEL
1070
     0
1002
}
1002
{
1000
BEHIND
1070
     0
1002
}
1002
{
1000
OTHER
1070
     0
1002
}
1002
{
1000
REACTOR
1002
}
1001
GENIUS_GENCEN_19
1002
{
1040
3.0
1002
}
  0
INSERT
  5
3DC0
330
1F
100
AcDbEntity
  8
0
100
AcDbBlockReference
  2
A$C1F6E6265
 10
104.1494151690841
 20
58.37186380015433
 30
0.0
  0
ENDSEC
  0
SECTION
  2
OBJECTS
  0
DICTIONARY
  5
C
330
0
100
AcDbDictionary
281
     1
  3
ACAD_COLOR
350
2378
  3
ACAD_GROUP
350
D
  3
ACAD_LAYOUT
350
1A
  3
ACAD_MATERIAL
350
2377
  3
ACAD_MLINESTYLE
350
17
  3
ACAD_PLOTSETTINGS
350
19
  3
ACAD_PLOTSTYLENAME
350
E
  3
ACAD_TABLESTYLE
350
2379
  3
AcadDim
350
1E82
  3
ACDBHEADERROUNDTRIPXREC
350
3E29
  3
AcDbVariableDictionary
350
1488
  3
AcmDictionary
350
22CE
  3
AMG
350
22B5
  3
AMGSNAPSETTINGS
350
2301
  3
DWGPROPS
350
3E28
  0
DICTIONARY
  5
2536
330
2
100
AcDbDictionary
280
     1
281
     1
  3
ACAD_LAYERSTATES
360
2537
  0
DICTIONARY
  5
221C
330
1F
100
AcDbDictionary
280
     1
281
     1
  3
ACAD_INDEX
360
3D7F
  3
ACAD_LAYOUTSELFREF
360
235E
  0
DICTIONARY
  5
221E
330
1B
100
AcDbDictionary
280
     1
281
     1
  3
ACAD_LAYOUTSELFREF
360
235D
  0
DICTIONARY
  5
2220
330
23
100
AcDbDictionary
280
     1
281
     1
  3
ACAD_LAYOUTSELFREF
360
235F
  0
DICTIONARY
  5
3CC0
330
3CBF
100
AcDbDictionary
280
     1
281
     1
  0
DICTIONARY
  5
3DA8
330
3DA7
100
AcDbDictionary
280
     1
281
     1
  3
ACAD_SORTENTS
360
3DA9
  0
DICTIONARY
  5
2E17
330
2E16
100
AcDbDictionary
280
     1
281
     1
  3
ACAD_DIMASSOC
360
2E18
  0
DICTIONARY
  5
2E1A
330
2E19
100
AcDbDictionary
280
     1
281
     1
  3
ACAD_DIMASSOC
360
2E1B
  0
DICTIONARY
  5
2E1D
330
2E1C
100
AcDbDictionary
280
     1
281
     1
  3
ACAD_DIMASSOC
360
2E1E
  0
DICTIONARY
  5
2E20
330
2E1F
100
AcDbDictionary
280
     1
281
     1
  3
ACAD_DIMASSOC
360
2E21
  0
DICTIONARY
  5
2E23
330
2E22
100
AcDbDictionary
280
     1
281
     1
  3
ACAD_DIMASSOC
360
2E24
  0
DICTIONARY
  5
2E26
330
2E25
100
AcDbDictionary
280
     1
281
     1
  3
ACAD_DIMASSOC
360
2E27
  0
DICTIONARY
  5
2E2B
330
2E2A
100
AcDbDictionary
280
     1
281
     1
  3
ACAD_DIMASSOC
360
2E2C
  0
DICTIONARY
  5
2E2E
330
2E2D
100
AcDbDictionary
280
     1
281
     1
  3
ACAD_DIMASSOC
360
2E2F
  0
DICTIONARY
  5
2E31
330
2E30
100
AcDbDictionary
280
     1
281
     1
  3
ACAD_DIMASSOC
360
2E32
  0
DICTIONARY
  5
2E34
330
2E33
100
AcDbDictionary
280
     1
281
     1
  3
ACAD_DIMASSOC
360
2E35
  0
DICTIONARY
  5
2E37
330
2E36
100
AcDbDictionary
280
     1
281
     1
  3
ACAD_DIMASSOC
360
2E38
  0
DICTIONARY
  5
2E3E
330
2E3D
100
AcDbDictionary
280
     1
281
     1
  3
ACAD_DIMASSOC
360
2E3F
  0
DICTIONARY
  5
2E41
330
2E40
100
AcDbDictionary
280
     1
281
     1
  3
ACAD_DIMASSOC
360
2E42
  0
DICTIONARY
  5
2E46
330
2E45
100
AcDbDictionary
280
     1
281
     1
  3
ACAD_DIMASSOC
360
2E47
  0
DICTIONARY
  5
2E49
330
2E48
100
AcDbDictionary
280
     1
281
     1
  3
ACAD_DIMASSOC
360
2E4A
  0
DICTIONARY
  5
2E4C
330
2E4B
100
AcDbDictionary
280
     1
281
     1
  3
ACAD_DIMASSOC
360
2E4D
  0
DICTIONARY
  5
2E4F
330
2E4E
100
AcDbDictionary
280
     1
281
     1
  3
ACAD_DIMASSOC
360
2E50
  0
DICTIONARY
  5
2E52
330
2E51
100
AcDbDictionary
280
     1
281
     1
  3
ACAD_DIMASSOC
360
2E53
  0
DICTIONARY
  5
2E7C
330
2E7B
100
AcDbDictionary
280
     1
281
     1
  3
ACAD_DIMASSOC
360
2E7D
  0
DICTIONARY
  5
2E81
330
2E80
100
AcDbDictionary
280
     1
281
     1
  3
ACAD_DIMASSOC
360
2E82
  0
DICTIONARY
  5
2E84
330
2E83
100
AcDbDictionary
280
     1
281
     1
  3
ACAD_DIMASSOC
360
2E85
  0
DICTIONARY
  5
2E87
330
2E86
100
AcDbDictionary
280
     1
281
     1
  3
ACAD_DIMASSOC
360
2E88
  0
DICTIONARY
  5
2E8A
330
2E89
100
AcDbDictionary
280
     1
281
     1
  3
ACAD_DIMASSOC
360
2E8B
  0
DICTIONARY
  5
2E8D
330
2E8C
100
AcDbDictionary
280
     1
281
     1
  3
ACAD_DIMASSOC
360
2E8E
  0
DICTIONARY
  5
36BF
330
36BE
100
AcDbDictionary
280
     1
281
     1
  3
ACAD_DIMASSOC
360
36C0
  0
DICTIONARY
  5
36C2
330
36C1
100
AcDbDictionary
280
     1
281
     1
  3
ACAD_DIMASSOC
360
36C3
  0
DICTIONARY
  5
36CF
330
36CE
100
AcDbDictionary
280
     1
281
     1
  3
ACAD_DIMASSOC
360
36D0
  0
DICTIONARY
  5
36D2
330
36D1
100
AcDbDictionary
280
     1
281
     1
  3
ACAD_DIMASSOC
360
36D3
  0
DICTIONARY
  5
36D5
330
36D4
100
AcDbDictionary
280
     1
281
     1
  3
ACAD_DIMASSOC
360
36D6
  0
DICTIONARY
  5
36D8
330
36D7
100
AcDbDictionary
280
     1
281
     1
  3
ACAD_DIMASSOC
360
36D9
  0
DICTIONARY
  5
36DB
330
36DA
100
AcDbDictionary
280
     1
281
     1
  3
ACAD_DIMASSOC
360
36DC
  0
DICTIONARY
  5
36DE
330
36DD
100
AcDbDictionary
280
     1
281
     1
  3
ACAD_DIMASSOC
360
36DF
  0
DICTIONARY
  5
36E1
330
36E0
100
AcDbDictionary
280
     1
281
     1
  3
ACAD_DIMASSOC
360
36E2
  0
DICTIONARY
  5
2378
102
{ACAD_REACTORS
330
C
102
}
330
C
100
AcDbDictionary
281
     1
  0
DICTIONARY
  5
D
102
{ACAD_REACTORS
330
C
102
}
330
C
100
AcDbDictionary
281
     1
  0
DICTIONARY
  5
1A
102
{ACAD_REACTORS
330
C
102
}
330
C
100
AcDbDictionary
281
     1
  3
Layout1
350
1E
  3
Layout2
350
26
  3
Model
350
22
  0
DICTIONARY
  5
2377
102
{ACAD_REACTORS
330
C
102
}
330
C
100
AcDbDictionary
281
     1
  0
DICTIONARY
  5
17
102
{ACAD_REACTORS
330
C
102
}
330
C
100
AcDbDictionary
281
     1
  3
Standard
350
18
  0
DICTIONARY
  5
19
102
{ACAD_REACTORS
330
C
102
}
330
C
100
AcDbDictionary
281
     1
  0
ACDBDICTIONARYWDFLT
  5
E
102
{ACAD_REACTORS
330
C
102
}
330
C
100
AcDbDictionary
281
     1
  3
Normal
350
F
100
AcDbDictionaryWithDefault
340
F
1001
ACAD
1000
TREAT_AS_HARD
1070
     0
  0
DICTIONARY
  5
2379
102
{ACAD_REACTORS
330
C
102
}
330
C
100
AcDbDictionary
281
     1
  3
Standard
350
237A
  0
XRECORD
  5
1E82
102
{ACAD_REACTORS
330
C
102
}
330
C
100
AcDbXrecord
280
     1
 90
   990106
  3

 60
     0
 61
     0
 62
     4
 63
     4
 64
     1
 65
     0
 66
     0
 67
     3
 68
     1
 69
     0
 70
     0
 71
     0
 72
     0
 40
0.0
170
     2
340
0
  0
DICTIONARY
  5
3E29
102
{ACAD_REACTORS
330
C
102
}
330
C
100
AcDbDictionary
281
     1
  0
DICTIONARY
  5
1488
102
{ACAD_REACTORS
330
C
102
}
330
C
100
AcDbDictionary
281
     1
  3
CTABLESTYLE
350
3147
  3
DIMASSOC
350
2317
  3
INDEXCTL
350
2316
  3
PROJECTNAME
350
3C41
  3
SORTENTS
350
1489
  0
DICTIONARY
  5
22CE
102
{ACAD_REACTORS
330
C
102
}
330
C
100
AcDbDictionary
281
     1
  3
AcmStdDictionary
350
22D4
  3
AMDTSECTSYM_ARROWCOLOR
350
38F7
  0
DICTIONARY
  5
22B5
102
{ACAD_REACTORS
330
C
102
}
330
C
100
AcDbDictionary
281
     1
  0
DICTIONARY
  5
2301
102
{ACAD_REACTORS
330
C
102
}
330
C
100
AcDbDictionary
281
     1
  0
XRECORD
  5
3E28
102
{ACAD_REACTORS
330
C
102
}
330
C
100
AcDbXrecord
280
     1
  1
DWGPROPS COOKIE
  2

  3

  4

  6

  7

  8

  9

300
AmdtFileType=84
301
=
302
=
303
=
304
=
305
=
306
=
307
=
308
=
309
=
 40
0.257030162037037
 41
2452019.631085301
 42
2453983.673956516
  1

 90
        1
  0
DICTIONARY
  5
2537
102
{ACAD_REACTORS
330
2536
102
}
330
2536
100
AcDbDictionary
281
     1
  0
DICTIONARY
  5
3D7F
102
{ACAD_REACTORS
330
221C
102
}
330
221C
100
AcDbDictionary
281
     1
  3
*A1
350
3D80
  0
XRECORD
  5
235E
102
{ACAD_REACTORS
330
221C
102
}
330
221C
100
AcDbXrecord
280
     1
340
1F
  0
XRECORD
  5
235D
102
{ACAD_REACTORS
330
221E
102
}
330
221E
100
AcDbXrecord
280
     1
340
1B
  0
XRECORD
  5
235F
102
{ACAD_REACTORS
330
2220
102
}
330
2220
100
AcDbXrecord
280
     1
340
23
  0
SORTENTSTABLE
  5
3DA9
102
{ACAD_REACTORS
330
3DA8
102
}
330
3DA8
100
AcDbSortentsTable
330
3DA7
  0
DIMASSOC
  5
2E18
102
{ACAD_REACTORS
330
2E17
102
}
330
2E17
100
AcDbDimAssoc
330
2E16
 90
        3
 70
     0
 71
     0
  1
AcDbOsnapPointRef
 72
     6
331
2E0A
 73
     2
 91
        0
 40
0.9999999999993566
 10
0.0
 20
0.0
 30
0.0
332
2E08
 74
     2
 92
        0
 75
     0
  1
AcDbOsnapPointRef
 72
    13
331
2E04
 73
     2
 91
        0
 40
0.0
 10
0.0
 20
0.0
 30
2.000000000000000E+50
 75
     0
  0
DIMASSOC
  5
2E1B
102
{ACAD_REACTORS
330
2E1A
102
}
330
2E1A
100
AcDbDimAssoc
330
2E19
 90
        3
 70
     0
 71
     0
  1
AcDbOsnapPointRef
 72
    13
331
2D8F
 73
     2
 91
        0
 40
0.0
 10
0.0
 20
0.0
 30
2.000000000000000E+50
 75
     0
  1
AcDbOsnapPointRef
 72
    13
331
2D8E
 73
     2
 91
        0
 40
0.0
 10
0.0
 20
0.0
 30
2.000000000000000E+50
 75
     0
  0
DIMASSOC
  5
2E1E
102
{ACAD_REACTORS
330
2E1D
102
}
330
2E1D
100
AcDbDimAssoc
330
2E1C
 90
        3
 70
     0
 71
     0
  1
AcDbOsnapPointRef
 72
    13
331
2D96
 73
     2
 91
        0
 40
0.0
 10
0.0
 20
0.0
 30
2.000000000000000E+50
 75
     0
  1
AcDbOsnapPointRef
 72
    13
331
2D8E
 73
     2
 91
        0
 40
0.0
 10
0.0
 20
0.0
 30
2.000000000000000E+50
 75
     0
  0
DIMASSOC
  5
2E21
102
{ACAD_REACTORS
330
2E20
102
}
330
2E20
100
AcDbDimAssoc
330
2E1F
 90
        3
 70
     0
 71
     0
  1
AcDbOsnapPointRef
 72
    13
331
2DA7
 73
     2
 91
        0
 40
0.0
 10
0.0
 20
0.0
 30
2.000000000000000E+50
 75
     0
  1
AcDbOsnapPointRef
 72
    13
331
2D8E
 73
     2
 91
        0
 40
0.0
 10
0.0
 20
0.0
 30
2.000000000000000E+50
 75
     0
  0
DIMASSOC
  5
2E24
102
{ACAD_REACTORS
330
2E23
102
}
330
2E23
100
AcDbDimAssoc
330
2E22
 90
        1
 70
     0
 71
     0
  1
AcDbOsnapPointRef
 72
    13
331
2DA8
 73
     2
 91
        0
 40
0.0
 10
0.0
 20
0.0
 30
2.000000000000000E+50
 75
     0
  0
DIMASSOC
  5
2E27
102
{ACAD_REACTORS
330
2E26
102
}
330
2E26
100
AcDbDimAssoc
330
2E25
 90
        2
 70
     0
 71
     0
  1
AcDbOsnapPointRef
 72
    13
331
2DA7
 73
     2
 91
        0
 40
0.0
 10
0.0
 20
0.0
 30
2.000000000000000E+50
 75
     0
  0
DIMASSOC
  5
2E2C
102
{ACAD_REACTORS
330
2E2B
102
}
330
2E2B
100
AcDbDimAssoc
330
2E2A
 90
        3
 70
     0
 71
     0
  1
AcDbOsnapPointRef
 72
    13
331
2DA7
 73
     2
 91
        0
 40
0.0
 10
0.0
 20
0.0
 30
2.000000000000000E+50
 75
     0
  1
AcDbOsnapPointRef
 72
     1
331
2DE0
 73
     2
 91
        0
 40
0.9999999999999998
 10
0.0
 20
0.0
 30
2.000000000000000E+50
 75
     0
  0
DIMASSOC
  5
2E2F
102
{ACAD_REACTORS
330
2E2E
102
}
330
2E2E
100
AcDbDimAssoc
330
2E2D
 90
        3
 70
     0
 71
     0
  1
AcDbOsnapPointRef
 72
    13
331
2DA8
 73
     2
 91
        0
 40
0.0
 10
0.0
 20
0.0
 30
2.000000000000000E+50
 75
     0
  1
AcDbOsnapPointRef
 72
    13
331
2DA7
 73
     2
 91
        0
 40
0.0
 10
0.0
 20
0.0
 30
2.000000000000000E+50
 75
     0
  0
DIMASSOC
  5
2E32
102
{ACAD_REACTORS
330
2E31
102
}
330
2E31
100
AcDbDimAssoc
330
2E30
 90
        3
 70
     0
 71
     0
  1
AcDbOsnapPointRef
 72
    13
331
2DF1
 73
     2
 91
        0
 40
0.0
 10
0.0
 20
0.0
 30
2.000000000000000E+50
 75
     0
  1
AcDbOsnapPointRef
 72
    13
331
2D8E
 73
     2
 91
        0
 40
0.0
 10
0.0
 20
0.0
 30
2.000000000000000E+50
 75
     0
  0
DIMASSOC
  5
2E35
102
{ACAD_REACTORS
330
2E34
102
}
330
2E34
100
AcDbDimAssoc
330
2E33
 90
        3
 70
     0
 71
     0
  1
AcDbOsnapPointRef
 72
    13
331
2DFE
 73
     2
 91
        0
 40
0.0
 10
0.0
 20
0.0
 30
2.000000000000000E+50
 75
     0
  1
AcDbOsnapPointRef
 72
    13
331
2DFF
 73
     2
 91
        0
 40
0.0
 10
0.0
 20
0.0
 30
2.000000000000000E+50
 75
     0
  0
DIMASSOC
  5
2E38
102
{ACAD_REACTORS
330
2E37
102
}
330
2E37
100
AcDbDimAssoc
330
2E36
 90
        3
 70
     0
 71
     0
  1
AcDbOsnapPointRef
 72
     1
331
2DFB
 73
     2
 91
        0
 40
1.0
 10
0.0
 20
0.0
 30
2.000000000000000E+50
 75
     0
  1
AcDbOsnapPointRef
 72
    13
331
2DE0
 73
     2
 91
        0
 40
0.0
 10
0.0
 20
0.0
 30
2.000000000000000E+50
 75
     0
  0
DIMASSOC
  5
2E3F
102
{ACAD_REACTORS
330
2E3E
102
}
330
2E3E
100
AcDbDimAssoc
330
2E3D
 90
        3
 70
     0
 71
     0
  1
AcDbOsnapPointRef
 72
     1
331
2D9A
 73
     2
 91
        0
 40
3.727278197047023
 10
0.0
 20
0.0
 30
2.000000000000000E+50
 75
     0
  1
AcDbOsnapPointRef
 72
    13
331
2D98
 73
     2
 91
        0
 40
0.0
 10
0.0
 20
0.0
 30
2.000000000000000E+50
 75
     0
  0
DIMASSOC
  5
2E42
102
{ACAD_REACTORS
330
2E41
102
}
330
2E41
100
AcDbDimAssoc
330
2E40
 90
        3
 70
     0
 71
     0
  1
AcDbOsnapPointRef
 72
     1
331
2DA6
 73
     2
 91
        0
 40
1.0
 10
0.0
 20
0.0
 30
2.000000000000000E+50
 75
     0
  1
AcDbOsnapPointRef
 72
     1
331
2DF9
 73
     2
 91
        0
 40
1.0
 10
0.0
 20
0.0
 30
2.000000000000000E+50
 75
     0
  0
DIMASSOC
  5
2E47
102
{ACAD_REACTORS
330
2E46
102
}
330
2E46
100
AcDbDimAssoc
330
2E45
 90
        3
 70
     0
 71
     0
  1
AcDbOsnapPointRef
 72
     6
331
2DE5
 73
     2
 91
        0
 40
1.0
 10
0.0
 20
0.0
 30
0.0
332
2DE3
 74
     2
 92
        0
 75
     0
  1
AcDbOsnapPointRef
 72
     6
331
2DE4
 73
     2
 91
        0
 40
0.999999999999923
 10
0.0
 20
0.0
 30
0.0
332
2DE3
 74
     2
 92
        0
 75
     0
  0
DIMASSOC
  5
2E4A
102
{ACAD_REACTORS
330
2E49
102
}
330
2E49
100
AcDbDimAssoc
330
2E48
 90
        3
 70
     0
 71
     0
  1
AcDbOsnapPointRef
 72
    13
331
2DBB
 73
     2
 91
        0
 40
0.0
 10
0.0
 20
0.0
 30
2.000000000000000E+50
 75
     0
  1
AcDbOsnapPointRef
 72
    13
331
2DFC
 73
     2
 91
        0
 40
0.0
 10
0.0
 20
0.0
 30
2.000000000000000E+50
 75
     0
  0
DIMASSOC
  5
2E4D
102
{ACAD_REACTORS
330
2E4C
102
}
330
2E4C
100
AcDbDimAssoc
330
2E4B
 90
        3
 70
     0
 71
     0
  1
AcDbOsnapPointRef
 72
     1
331
2DDD
 73
     2
 91
        0
 40
2.438982218432736
 10
0.0
 20
0.0
 30
2.000000000000000E+50
 75
     0
  1
AcDbOsnapPointRef
 72
    13
331
2DC6
 73
     2
 91
        0
 40
0.7026104351570579
 10
0.0
 20
0.0
 30
2.000000000000000E+50
 75
     0
  0
DIMASSOC
  5
2E50
102
{ACAD_REACTORS
330
2E4F
102
}
330
2E4F
100
AcDbDimAssoc
330
2E4E
 90
        3
 70
     0
 71
     0
  1
AcDbOsnapPointRef
 72
     2
331
2DBB
 73
     2
 91
        0
 40
0.5
 10
0.0
 20
0.0
 30
0.0
 75
     0
  1
AcDbOsnapPointRef
 72
     3
331
2DC2
 73
     2
 91
        0
 40
0.0
 10
0.0
 20
0.0
 30
0.0
 75
     0
  0
DIMASSOC
  5
2E53
102
{ACAD_REACTORS
330
2E52
102
}
330
2E52
100
AcDbDimAssoc
330
2E51
 90
        3
 70
     0
 71
     0
  1
AcDbOsnapPointRef
 72
     1
331
2DB7
 73
     2
 91
        0
 40
4.009778545227607
 10
0.0
 20
0.0
 30
2.000000000000000E+50
 75
     0
  1
AcDbOsnapPointRef
 72
    13
331
2DC6
 73
     2
 91
        0
 40
0.7026104351570579
 10
0.0
 20
0.0
 30
2.000000000000000E+50
 75
     0
  0
DIMASSOC
  5
2E7D
102
{ACAD_REACTORS
330
2E7C
102
}
330
2E7C
100
AcDbDimAssoc
330
2E7B
 90
        3
 70
     0
 71
     0
  1
AcDbOsnapPointRef
 72
     1
331
2DA6
 73
     2
 91
        0
 40
1.0
 10
0.0
 20
0.0
 30
2.000000000000000E+50
 75
     0
  1
AcDbOsnapPointRef
 72
     1
331
2DF9
 73
     2
 91
        0
 40
1.0
 10
0.0
 20
0.0
 30
2.000000000000000E+50
 75
     0
  0
DIMASSOC
  5
2E82
102
{ACAD_REACTORS
330
2E81
102
}
330
2E81
100
AcDbDimAssoc
330
2E80
 90
        3
 70
     0
 71
     0
  1
AcDbOsnapPointRef
 72
     6
331
2DE5
 73
     2
 91
        0
 40
1.0
 10
0.0
 20
0.0
 30
0.0
332
2DE3
 74
     2
 92
        0
 75
     0
  1
AcDbOsnapPointRef
 72
     6
331
2DE4
 73
     2
 91
        0
 40
0.999999999999923
 10
0.0
 20
0.0
 30
0.0
332
2DE3
 74
     2
 92
        0
 75
     0
  0
DIMASSOC
  5
2E85
102
{ACAD_REACTORS
330
2E84
102
}
330
2E84
100
AcDbDimAssoc
330
2E83
 90
        3
 70
     0
 71
     0
  1
AcDbOsnapPointRef
 72
    13
331
2DBB
 73
     2
 91
        0
 40
0.0
 10
0.0
 20
0.0
 30
2.000000000000000E+50
 75
     0
  1
AcDbOsnapPointRef
 72
    13
331
2DFC
 73
     2
 91
        0
 40
0.0
 10
0.0
 20
0.0
 30
2.000000000000000E+50
 75
     0
  0
DIMASSOC
  5
2E88
102
{ACAD_REACTORS
330
2E87
102
}
330
2E87
100
AcDbDimAssoc
330
2E86
 90
        3
 70
     0
 71
     0
  1
AcDbOsnapPointRef
 72
     1
331
2DDD
 73
     2
 91
        0
 40
2.438982218432736
 10
0.0
 20
0.0
 30
2.000000000000000E+50
 75
     0
  1
AcDbOsnapPointRef
 72
    13
331
2DC6
 73
     2
 91
        0
 40
0.7026104351570579
 10
0.0
 20
0.0
 30
2.000000000000000E+50
 75
     0
  0
DIMASSOC
  5
2E8B
102
{ACAD_REACTORS
330
2E8A
102
}
330
2E8A
100
AcDbDimAssoc
330
2E89
 90
        3
 70
     0
 71
     0
  1
AcDbOsnapPointRef
 72
     2
331
2DBB
 73
     2
 91
        0
 40
0.5
 10
0.0
 20
0.0
 30
0.0
 75
     0
  1
AcDbOsnapPointRef
 72
     3
331
2DC2
 73
     2
 91
        0
 40
0.0
 10
0.0
 20
0.0
 30
0.0
 75
     0
  0
DIMASSOC
  5
2E8E
102
{ACAD_REACTORS
330
2E8D
102
}
330
2E8D
100
AcDbDimAssoc
330
2E8C
 90
        3
 70
     0
 71
     0
  1
AcDbOsnapPointRef
 72
     1
331
2DB7
 73
     2
 91
        0
 40
4.009778545227607
 10
0.0
 20
0.0
 30
2.000000000000000E+50
 75
     0
  1
AcDbOsnapPointRef
 72
    13
331
2DC6
 73
     2
 91
        0
 40
0.7026104351570579
 10
0.0
 20
0.0
 30
2.000000000000000E+50
 75
     0
  0
DIMASSOC
  5
36C0
102
{ACAD_REACTORS
330
36BF
102
}
330
36BF
100
AcDbDimAssoc
330
36BE
 90
        3
 70
     0
 71
     0
  1
AcDbOsnapPointRef
 72
    13
331
3660
 73
     2
 91
        0
 40
0.0
 10
0.0
 20
0.0
 30
2.000000000000000E+50
 75
     0
  1
AcDbOsnapPointRef
 72
     1
331
369F
 73
     2
 91
        0
 40
1.0
 10
0.0
 20
0.0
 30
2.000000000000000E+50
 75
     0
  0
DIMASSOC
  5
36C3
102
{ACAD_REACTORS
330
36C2
102
}
330
36C2
100
AcDbDimAssoc
330
36C1
 90
        3
 70
     0
 71
     0
  1
AcDbOsnapPointRef
 72
    13
331
3660
 73
     2
 91
        0
 40
0.0
 10
0.0
 20
0.0
 30
2.000000000000000E+50
 75
     0
  1
AcDbOsnapPointRef
 72
    13
331
369C
 73
     2
 91
        0
 40
0.0
 10
0.0
 20
0.0
 30
2.000000000000000E+50
 75
     0
  0
DIMASSOC
  5
36D0
102
{ACAD_REACTORS
330
36CF
102
}
330
36CF
100
AcDbDimAssoc
330
36CE
 90
        3
 70
     0
 71
     0
  1
AcDbOsnapPointRef
 72
    13
331
3661
 73
     2
 91
        0
 40
0.0
 10
0.0
 20
0.0
 30
2.000000000000000E+50
 75
     0
  1
AcDbOsnapPointRef
 72
    13
331
36C9
 73
     2
 91
        0
 40
0.0
 10
0.0
 20
0.0
 30
2.000000000000000E+50
 75
     0
  0
DIMASSOC
  5
36D3
102
{ACAD_REACTORS
330
36D2
102
}
330
36D2
100
AcDbDimAssoc
330
36D1
 90
        3
 70
     0
 71
     0
  1
AcDbOsnapPointRef
 72
    13
331
36CC
 73
     2
 91
        0
 40
0.0
 10
0.0
 20
0.0
 30
2.000000000000000E+50
 75
     0
  1
AcDbOsnapPointRef
 72
    13
331
3660
 73
     2
 91
        0
 40
0.0
 10
0.0
 20
0.0
 30
2.000000000000000E+50
 75
     0
  0
DIMASSOC
  5
36D6
102
{ACAD_REACTORS
330
36D5
102
}
330
36D5
100
AcDbDimAssoc
330
36D4
 90
        3
 70
     0
 71
     0
  1
AcDbOsnapPointRef
 72
    13
331
36B2
 73
     2
 91
        0
 40
0.0
 10
0.0
 20
0.0
 30
2.000000000000000E+50
 75
     0
  1
AcDbOsnapPointRef
 72
    13
331
3660
 73
     2
 91
        0
 40
0.0
 10
0.0
 20
0.0
 30
2.000000000000000E+50
 75
     0
  0
DIMASSOC
  5
36D9
102
{ACAD_REACTORS
330
36D8
102
}
330
36D8
100
AcDbDimAssoc
330
36D7
 90
        3
 70
     0
 71
     0
  1
AcDbOsnapPointRef
 72
    13
331
369C
 73
     2
 91
        0
 40
0.0
 10
0.0
 20
0.0
 30
2.000000000000000E+50
 75
     0
  1
AcDbOsnapPointRef
 72
    13
331
3661
 73
     2
 91
        0
 40
0.0
 10
0.0
 20
0.0
 30
2.000000000000000E+50
 75
     0
  0
DIMASSOC
  5
36DC
102
{ACAD_REACTORS
330
36DB
102
}
330
36DB
100
AcDbDimAssoc
330
36DA
 90
        3
 70
     0
 71
     0
  1
AcDbOsnapPointRef
 72
     1
331
36BB
 73
     2
 91
        0
 40
1.0
 10
0.0
 20
0.0
 30
2.000000000000000E+50
 75
     0
  1
AcDbOsnapPointRef
 72
     6
331
36A6
 73
     2
 91
        0
 40
1.0
 10
0.0
 20
0.0
 30
0.0
332
369B
 74
     2
 92
        0
 75
     0
  0
DIMASSOC
  5
36DF
102
{ACAD_REACTORS
330
36DE
102
}
330
36DE
100
AcDbDimAssoc
330
36DD
 90
        3
 70
     0
 71
     0
  1
AcDbOsnapPointRef
 72
     1
331
36B5
 73
     2
 91
        0
 40
1.0
 10
0.0
 20
0.0
 30
2.000000000000000E+50
 75
     0
  1
AcDbOsnapPointRef
 72
    13
331
369F
 73
     2
 91
        0
 40
0.0
 10
0.0
 20
0.0
 30
2.000000000000000E+50
 75
     0
  0
DIMASSOC
  5
36E2
102
{ACAD_REACTORS
330
36E1
102
}
330
36E1
100
AcDbDimAssoc
330
36E0
 90
        3
 70
     0
 71
     0
  1
AcDbOsnapPointRef
 72
     1
331
3699
 73
     2
 91
        0
 40
1.0
 10
0.0
 20
0.0
 30
2.000000000000000E+50
 75
     0
  1
AcDbOsnapPointRef
 72
    13
331
369D
 73
     2
 91
        0
 40
0.0
 10
0.0
 20
0.0
 30
2.000000000000000E+50
 75
     0
  0
LAYOUT
  5
1E
102
{ACAD_XDICTIONARY
360
3E2A
102
}
102
{ACAD_REACTORS
330
1A
102
}
330
1A
100
AcDbPlotSettings
  1

  2

  4

  6

 40
0.0
 41
0.0
 42
0.0
 43
0.0
 44
0.0
 45
0.0
 46
0.0
 47
0.0
 48
0.0
 49
0.0
140
0.0
141
0.0
142
1.0
143
1.0
 70
   688
 72
     0
 73
     0
 74
     5
  7

 75
    16
147
1.0
148
0.0
149
0.0
100
AcDbLayout
  1
Layout1
 70
     1
 71
     1
 10
0.0
 20
0.0
 11
12.0
 21
9.0
 12
0.0
 22
0.0
 32
0.0
 14
1.000000000000000E+20
 24
1.000000000000000E+20
 34
1.000000000000000E+20
 15
-1.000000000000000E+20
 25
-1.000000000000000E+20
 35
-1.000000000000000E+20
146
0.0
 13
0.0
 23
0.0
 33
0.0
 16
1.0
 26
0.0
 36
0.0
 17
0.0
 27
1.0
 37
0.0
 76
     0
330
1B
  0
LAYOUT
  5
26
102
{ACAD_XDICTIONARY
360
3E2E
102
}
102
{ACAD_REACTORS
330
1A
102
}
330
1A
100
AcDbPlotSettings
  1

  2

  4

  6

 40
0.0
 41
0.0
 42
0.0
 43
0.0
 44
0.0
 45
0.0
 46
0.0
 47
0.0
 48
0.0
 49
0.0
140
0.0
141
0.0
142
1.0
143
1.0
 70
   688
 72
     0
 73
     0
 74
     5
  7

 75
    16
147
1.0
148
0.0
149
0.0
100
AcDbLayout
  1
Layout2
 70
     1
 71
     2
 10
0.0
 20
0.0
 11
12.0
 21
9.0
 12
0.0
 22
0.0
 32
0.0
 14
0.0
 24
0.0
 34
0.0
 15
0.0
 25
0.0
 35
0.0
146
0.0
 13
0.0
 23
0.0
 33
0.0
 16
1.0
 26
0.0
 36
0.0
 17
0.0
 27
1.0
 37
0.0
 76
     0
330
23
  0
LAYOUT
  5
22
102
{ACAD_XDICTIONARY
360
3E2C
102
}
102
{ACAD_REACTORS
330
1A
102
}
330
1A
100
AcDbPlotSettings
  1

  2
DWF Classic.pc3
  4
ISO_A3_(420.00_x_297.00_MM)
  6

 40
5.793749809265136
 41
17.79375076293945
 42
5.79376220703125
 43
17.79376220703125
 44
420.0
 45
297.0
 46
45.09
 47
0.0
 48
0.0
 49
0.0
140
0.0
141
0.0
142
1.0
143
0.8696478183868778
 70
 11956
 72
     1
 73
     1
 74
     1
  7

 75
     0
147
1.149890770559183
148
-44.30344425781095
149
-5.398850640587738
100
AcDbLayout
  1
Model
 70
     1
 71
     0
 10
0.0
 20
0.0
 11
12.0
 21
9.0
 12
0.0
 22
0.0
 32
0.0
 14
0.0
 24
0.0
 34
0.0
 15
0.0
 25
0.0
 35
0.0
146
0.0
 13
0.0
 23
0.0
 33
0.0
 16
1.0
 26
0.0
 36
0.0
 17
0.0
 27
1.0
 37
0.0
 76
     0
330
1F
  0
MLINESTYLE
  5
18
102
{ACAD_REACTORS
330
17
102
}
330
17
100
AcDbMlineStyle
  2
STANDARD
 70
     0
  3

 62
   256
 51
90.0
 52
90.0
 71
     2
 49
0.5
 62
   256
  6
BYLAYER
 49
-0.5
 62
   256
  6
BYLAYER
  0
ACDBPLACEHOLDER
  5
F
102
{ACAD_REACTORS
330
E
102
}
330
E
  0
TABLESTYLE
  5
237A
102
{ACAD_REACTORS
330
2379
102
}
330
2379
100
AcDbTableStyle
  3
Standard
 70
     0
 71
     0
 40
1.5
 41
1.5
280
     0
281
     0
  7
Standard
140
4.5
170
     2
 62
     0
 63
     7
283
     0
274
    -2
284
     1
 64
     0
275
    -2
285
     1
 65
     0
276
    -2
286
     1
 66
     0
277
    -2
287
     1
 67
     0
278
    -2
288
     1
 68
     0
279
    -2
289
     1
 69
     0
  7
Standard
140
6.0
170
     5
 62
     0
 63
     7
283
     0
274
    -2
284
     1
 64
     0
275
    -2
285
     1
 65
     0
276
    -2
286
     1
 66
     0
277
    -2
287
     1
 67
     0
278
    -2
288
     1
 68
     0
279
    -2
289
     1
 69
     0
  7
Standard
140
4.5
170
     5
 62
     0
 63
     7
283
     0
274
    -2
284
     1
 64
     0
275
    -2
285
     1
 65
     0
276
    -2
286
     1
 66
     0
277
    -2
287
     1
 67
     0
278
    -2
288
     1
 68
     0
279
    -2
289
     1
 69
     0
  0
DICTIONARYVAR
  5
3147
102
{ACAD_REACTORS
330
1488
102
}
330
1488
100
DictionaryVariables
280
     0
  1
STANDARD
  0
DICTIONARYVAR
  5
2317
102
{ACAD_REACTORS
330
1488
102
}
330
1488
100
DictionaryVariables
280
     0
  1
1
  0
DICTIONARYVAR
  5
2316
102
{ACAD_REACTORS
330
1488
102
}
330
1488
100
DictionaryVariables
280
     0
  1
1
  0
DICTIONARYVAR
  5
3C41
102
{ACAD_REACTORS
330
1488
102
}
330
1488
100
DictionaryVariables
280
     0
  1

  0
DICTIONARYVAR
  5
1489
102
{ACAD_REACTORS
330
1488
102
}
330
1488
100
DictionaryVariables
280
     0
  1
96
  0
DICTIONARY
  5
22D4
102
{ACAD_REACTORS
330
22CE
102
}
330
22CE
100
AcDbDictionary
281
     1
  0
XRECORD
  5
38F7
102
{ACAD_REACTORS
330
22CE
102
}
330
22CE
100
AcDbXrecord
280
     1
 90
-1023410169
  0
LAYER_INDEX
  5
3D80
102
{ACAD_REACTORS
330
3D7F
102
}
330
3D7F
100
AcDbIndex
 40
2453983.673956516
100
AcDbLayerIndex
  8
0
360
3D81
 90
      270
  8
DIM
360
3D82
 90
       53
  8
CENTER
360
3D83
 90
       22
  8
LOGO
360
3D84
 90
      127
  8
Defpoints
360
3D85
 90
        0
  8
AM_VIS
360
3D86
 90
       12
  8
AM_7
360
3DC2
 90
        2
  8
AM_5
360
3DC3
 90
        0
  0
DICTIONARY
  5
3E2A
330
1E
100
AcDbDictionary
280
     1
281
     1
  3
ACAD_XREC_ROUNDTRIP
360
3E2B
  0
DICTIONARY
  5
3E2E
330
26
100
AcDbDictionary
280
     1
281
     1
  3
ACAD_XREC_ROUNDTRIP
360
3E2F
  0
DICTIONARY
  5
3E2C
330
22
100
AcDbDictionary
280
     1
281
     1
  3
ACAD_XREC_ROUNDTRIP
360
3E2D
  0
IDBUFFER
  5
3D81
330
0
100
AcDbIdBuffer
330
3DBD
330
3DC0
330
3CFC
330
3CFD
330
3CFE
330
3D60
330
3D61
330
3D62
330
3D63
330
3D64
330
3D65
330
3D66
330
3D67
330
3D68
330
3D69
330
3D6A
330
3D6B
330
3D6C
330
3D6D
330
3D6E
330
3D6F
330
3D70
330
3D71
330
3D72
330
3D73
330
3D74
330
3D75
330
3D76
330
3D77
330
3D78
330
A9
330
AA
330
AB
330
AC
330
B1
330
B2
330
10B3
330
17B4
330
17B5
330
17BF
330
1811
330
18E7
330
18EA
330
2D7E
330
2D7F
330
2D80
330
2D81
330
2D82
330
2D83
330
2D84
330
2D85
330
2D86
330
2D87
330
2D88
330
2D89
330
2D8A
330
2D8B
330
2D8C
330
2D8D
330
2D8E
330
2D8F
330
2D90
330
2D91
330
2D92
330
2D93
330
2D94
330
2D95
330
2D96
330
2D97
330
2D98
330
2D99
330
2D9A
330
2DA7
330
2DA8
330
2DA9
330
2DAA
330
2DAB
330
2DAC
330
2DAD
330
2DAE
330
2DAF
330
2DB0
330
2DB1
330
2DB2
330
2DB3
330
2DB4
330
2DB5
330
2DB6
330
2DB7
330
2DB8
330
2DB9
330
2DBA
330
2DBD
330
2DBE
330
2DBF
330
2DC0
330
2DC1
330
2DC2
330
2DC3
330
2DC4
330
2DC5
330
2DC6
330
2DC7
330
2DC8
330
2DC9
330
2DCA
330
2DCB
330
2DCE
330
2DCF
330
2DD0
330
2DD1
330
2DD2
330
2DD3
330
2DD4
330
2DD5
330
2DD6
330
2DD7
330
2DD8
330
2DD9
330
2DDA
330
2DDB
330
2DDC
330
2DDD
330
2DDE
330
2DDF
330
2DE0
330
2DE1
330
2DE2
330
2DE3
330
2DE4
330
2DE5
330
2DE6
330
2DE7
330
2DE8
330
2DEB
330
2DEC
330
2DEF
330
2DF0
330
2DF1
330
2DF2
330
2DF3
330
2DF5
330
2DF6
330
2DFA
330
2DFB
330
2DFE
330
2DFF
330
2E00
330
2E01
330
2E02
330
2E03
330
2E04
330
2E05
330
2E06
330
2E07
330
2E08
330
2E09
330
2E0A
330
2E0B
330
2E0C
330
2E0D
330
2E0E
330
2E0F
330
2E10
330
2E11
330
2E12
330
2E13
330
2E14
330
2E15
330
3660
330
3661
330
3662
330
3663
330
3664
330
3665
330
3666
330
3667
330
3668
330
3669
330
366A
330
366B
330
366C
330
366D
330
366E
330
366F
330
3670
330
3671
330
3672
330
3673
330
3676
330
3677
330
3678
330
3679
330
367A
330
367B
330
367C
330
367D
330
367E
330
367F
330
3680
330
3681
330
3682
330
3683
330
3684
330
3687
330
3688
330
3689
330
368A
330
368B
330
368C
330
368D
330
368E
330
368F
330
3690
330
3691
330
3692
330
3693
330
3694
330
3695
330
3698
330
3699
330
369E
330
369F
330
36A0
330
36A1
330
36A2
330
36A3
330
36A4
330
36A5
330
36A7
330
36A8
330
36A9
330
36AC
330
36AD
330
36B0
330
36B1
330
36B2
330
36B3
330
36B4
330
36B5
330
36B8
330
36C4
330
36C5
330
36C7
330
36C8
330
3A92
330
3A93
330
3A94
330
3CE6
330
3CE7
330
3CE8
330
3CE9
330
3CEA
330
3CEB
330
3CEC
330
3CED
330
3CEE
330
3CEF
330
3CF0
330
3CF1
330
3CF2
330
3CF3
330
3CF4
330
3CF5
330
3CF6
330
3CF7
330
3CF8
330
3CF9
330
3CFA
330
3CFB
  0
IDBUFFER
  5
3D82
330
0
100
AcDbIdBuffer
330
36EA
330
36ED
330
36EE
330
3D5A
330
3D5B
330
2E16
330
2E19
330
2E1C
330
2E1F
330
2E22
330
2E25
330
2E2A
330
2E2D
330
2E30
330
2E33
330
2E36
330
2E39
330
2E3A
330
2E3B
330
2E3C
330
2E3D
330
2E40
330
2E43
330
2E44
330
2E45
330
2E48
330
2E4B
330
2E4E
330
2E51
330
2E54
330
2E55
330
2E7B
330
2E80
330
2E83
330
2E86
330
2E89
330
2E8C
330
36BE
330
36C1
330
36CE
330
36D1
330
36D4
330
36D7
330
36DA
330
36DD
330
36E0
330
36E3
330
36E4
330
36E5
330
36E6
330
36E7
330
36E8
330
36E9
  0
IDBUFFER
  5
3D83
330
0
100
AcDbIdBuffer
330
36BC
330
36BD
330
36C9
330
36CB
330
36CC
330
36CD
330
2DA6
330
2DBB
330
2DBC
330
2DCC
330
2DCD
330
2DF7
330
2DF9
330
2DFC
330
2DFD
330
2E28
330
2E29
330
365F
330
3674
330
3675
330
3685
330
3686
  0
IDBUFFER
  5
3D84
330
0
100
AcDbIdBuffer
330
3A84
330
3A85
330
3A86
330
3A87
330
3A88
330
3A89
330
3A8A
330
3A8B
330
3A8C
330
3A8D
330
3A8E
330
3A8F
330
3A90
330
3A91
330
3A95
330
17BD
330
17BE
330
17C3
330
17C4
330
17C5
330
17C6
330
17C7
330
1802
330
1803
330
1804
330
1805
330
1806
330
1807
330
1808
330
1809
330
180A
330
180B
330
180C
330
180D
330
180E
330
180F
330
1810
330
1868
330
1869
330
186A
330
186B
330
186C
330
186D
330
186E
330
186F
330
1870
330
1871
330
1872
330
1873
330
1874
330
1875
330
1876
330
1877
330
1878
330
1879
330
187A
330
187B
330
187C
330
187D
330
187E
330
187F
330
1880
330
1881
330
1882
330
1883
330
1885
330
1886
330
1887
330
1888
330
1889
330
188A
330
188B
330
188C
330
188D
330
188E
330
188F
330
1890
330
1891
330
3A3E
330
3A3F
330
3A40
330
3A41
330
3A42
330
3A43
330
3A44
330
3A45
330
3A46
330
3A47
330
3A48
330
3A49
330
3A4A
330
3A4B
330
3A4C
330
3A4D
330
3A4E
330
3A4F
330
3A50
330
3A51
330
3A52
330
3A53
330
3A54
330
3A55
330
3A56
330
3A57
330
3A58
330
3A59
330
3A5A
330
3A5E
330
3A62
330
3A63
330
3A67
330
3A68
330
3A69
330
3A6A
330
3A6B
330
3A6C
330
3A6D
330
3A6E
330
3A72
330
3A76
330
3A7A
330
3A7B
330
3A7C
330
3A80
330
3A81
330
3A82
330
3A83
  0
IDBUFFER
  5
3D85
330
0
100
AcDbIdBuffer
  0
IDBUFFER
  5
3D86
330
0
100
AcDbIdBuffer
330
3696
330
3697
330
369A
330
369B
330
369C
330
369D
330
36A6
330
36B6
330
36B7
330
36B9
330
36BA
330
36BB
  0
IDBUFFER
  5
3DC2
330
0
100
AcDbIdBuffer
330
3DBC
330
3DBF
  0
IDBUFFER
  5
3DC3
330
0
100
AcDbIdBuffer
  0
XRECORD
  5
3E2B
102
{ACAD_REACTORS
330
3E2A
102
}
330
3E2A
100
AcDbXrecord
280
     1
102
SHADEPLOT
 70
     0
102
SHADEPLOTRESLEVEL
 70
     2
102
SHADEPLOTCUSTOMDPI
 70
   300
  0
XRECORD
  5
3E2F
102
{ACAD_REACTORS
330
3E2E
102
}
330
3E2E
100
AcDbXrecord
280
     1
102
SHADEPLOT
 70
     0
102
SHADEPLOTRESLEVEL
 70
     2
102
SHADEPLOTCUSTOMDPI
 70
   300
  0
XRECORD
  5
3E2D
102
{ACAD_REACTORS
330
3E2C
102
}
330
3E2C
100
AcDbXrecord
280
     1
102
SHADEPLOT
 70
     0
102
SHADEPLOTRESLEVEL
 70
     2
102
SHADEPLOTCUSTOMDPI
 70
   300
  0
ENDSEC
  0
EOF
