  0
SECTION
  2
HEADER
  9
$ACADVER
  1
AC1015
  9
$ACADMAINTVER
 70
    20
  9
$DWGCODEPAGE
  3
ANSI_950
  9
$INSBASE
 10
0.0
 20
0.0
 30
0.0
  9
$EXTMIN
 10
-15.49941157972785
 20
34.74113623196456
 30
-0.0077755597907867
  9
$EXTMAX
 10
314.9315817643215
 20
363.5421576798506
 30
254.8167600553144
  9
$LIMMIN
 10
0.0
 20
0.0
  9
$LIMMAX
 10
12.0
 20
9.0
  9
$ORTHOMODE
 70
     1
  9
$REGENMODE
 70
     1
  9
$FILLMODE
 70
     1
  9
$QTEXTMODE
 70
     0
  9
$MIRRTEXT
 70
     1
  9
$LTSCALE
 40
5.0
  9
$ATTMODE
 70
     1
  9
$TEXTSIZE
 40
4.5
  9
$TRACEWID
 40
0.05
  9
$TEXTSTYLE
  7
CHINESET
  9
$CLAYER
  8
0
  9
$CELTYPE
  6
ByLayer
  9
$CECOLOR
 62
   256
  9
$CELTSCALE
 40
1.0
  9
$DISPSILH
 70
     0
  9
$DIMSCALE
 40
1.0
  9
$DIMASZ
 40
3.0
  9
$DIMEXO
 40
3.0
  9
$DIMDLI
 40
2.0
  9
$DIMRND
 40
0.0
  9
$DIMDLE
 40
0.0
  9
$DIMEXE
 40
2.0
  9
$DIMTP
 40
0.0
  9
$DIMTM
 40
0.0
  9
$DIMTXT
 40
3.0
  9
$DIMCEN
 40
-3.0
  9
$DIMTSZ
 40
0.0
  9
$DIMTOL
 70
     0
  9
$DIMLIM
 70
     0
  9
$DIMTIH
 70
     0
  9
$DIMTOH
 70
     0
  9
$DIMSE1
 70
     0
  9
$DIMSE2
 70
     0
  9
$DIMTAD
 70
     1
  9
$DIMZIN
 70
     8
  9
$DIMBLK
  1

  9
$DIMASO
 70
     1
  9
$DIMSHO
 70
     1
  9
$DIMPOST
  1

  9
$DIMAPOST
  1

  9
$DIMALT
 70
     0
  9
$DIMALTD
 70
     2
  9
$DIMALTF
 40
25.4
  9
$DIMLFAC
 40
1.0
  9
$DIMTOFL
 70
     1
  9
$DIMTVP
 40
0.0
  9
$DIMTIX
 70
     0
  9
$DIMSOXD
 70
     0
  9
$DIMSAH
 70
     0
  9
$DIMBLK1
  1

  9
$DIMBLK2
  1

  9
$DIMSTYLE
  2
ISO-25-1
  9
$DIMCLRD
 70
   256
  9
$DIMCLRE
 70
   256
  9
$DIMCLRT
 70
   256
  9
$DIMTFAC
 40
0.7
  9
$DIMGAP
 40
1.0
  9
$DIMJUST
 70
     0
  9
$DIMSD1
 70
     0
  9
$DIMSD2
 70
     0
  9
$DIMTOLJ
 70
     1
  9
$DIMTZIN
 70
     8
  9
$DIMALTZ
 70
     0
  9
$DIMALTTZ
 70
     0
  9
$DIMUPT
 70
     0
  9
$DIMDEC
 70
     2
  9
$DIMTDEC
 70
     8
  9
$DIMALTU
 70
     2
  9
$DIMALTTD
 70
     2
  9
$DIMTXSTY
  7
CHINESET
  9
$DIMAUNIT
 70
     0
  9
$DIMADEC
 70
     0
  9
$DIMALTRND
 40
0.0
  9
$DIMAZIN
 70
     2
  9
$DIMDSEP
 70
    46
  9
$DIMATFIT
 70
     0
  9
$DIMFRAC
 70
     0
  9
$DIMLDRBLK
  1

  9
$DIMLUNIT
 70
     2
  9
$DIMLWD
 70
    -1
  9
$DIMLWE
 70
    -1
  9
$DIMTMOVE
 70
     0
  9
$LUNITS
 70
     2
  9
$LUPREC
 70
     2
  9
$SKETCHINC
 40
0.1
  9
$FILLETRAD
 40
0.5
  9
$AUNITS
 70
     0
  9
$AUPREC
 70
     0
  9
$MENU
  1
.
  9
$ELEVATION
 40
0.0
  9
$PELEVATION
 40
0.0
  9
$THICKNESS
 40
0.0
  9
$LIMCHECK
 70
     0
  9
$CHAMFERA
 40
1.199999999999999
  9
$CHAMFERB
 40
1.199999999999999
  9
$CHAMFERC
 40
1.0
  9
$CHAMFERD
 40
0.0
  9
$SKPOLY
 70
     0
  9
$TDCREATE
 40
2452019.631085301
  9
$TDUCREATE
 40
2452019.297751968
  9
$TDUPDATE
 40
2454308.388215232
  9
$TDUUPDATE
 40
2454308.054881898
  9
$TDINDWG
 40
0.3684418056
  9
$TDUSRTIMER
 40
0.3684418056
  9
$USRTIMER
 70
     1
  9
$ANGBASE
 50
0.0
  9
$ANGDIR
 70
     0
  9
$PDMODE
 70
     0
  9
$PDSIZE
 40
0.0
  9
$PLINEWID
 40
0.0
  9
$SPLFRAME
 70
     0
  9
$SPLINETYPE
 70
     6
  9
$SPLINESEGS
 70
     8
  9
$HANDSEED
  5
5338
  9
$SURFTAB1
 70
     6
  9
$SURFTAB2
 70
     6
  9
$SURFTYPE
 70
     6
  9
$SURFU
 70
     6
  9
$SURFV
 70
     6
  9
$UCSBASE
  2

  9
$UCSNAME
  2

  9
$UCSORG
 10
0.0
 20
0.0
 30
0.0
  9
$UCSXDIR
 10
1.0
 20
0.0
 30
0.0
  9
$UCSYDIR
 10
0.0
 20
1.0
 30
0.0
  9
$UCSORTHOREF
  2

  9
$UCSORTHOVIEW
 70
     0
  9
$UCSORGTOP
 10
0.0
 20
0.0
 30
0.0
  9
$UCSORGBOTTOM
 10
0.0
 20
0.0
 30
0.0
  9
$UCSORGLEFT
 10
0.0
 20
0.0
 30
0.0
  9
$UCSORGRIGHT
 10
0.0
 20
0.0
 30
0.0
  9
$UCSORGFRONT
 10
0.0
 20
0.0
 30
0.0
  9
$UCSORGBACK
 10
0.0
 20
0.0
 30
0.0
  9
$PUCSBASE
  2

  9
$PUCSNAME
  2

  9
$PUCSORG
 10
0.0
 20
0.0
 30
0.0
  9
$PUCSXDIR
 10
1.0
 20
0.0
 30
0.0
  9
$PUCSYDIR
 10
0.0
 20
1.0
 30
0.0
  9
$PUCSORTHOREF
  2

  9
$PUCSORTHOVIEW
 70
     0
  9
$PUCSORGTOP
 10
0.0
 20
0.0
 30
0.0
  9
$PUCSORGBOTTOM
 10
0.0
 20
0.0
 30
0.0
  9
$PUCSORGLEFT
 10
0.0
 20
0.0
 30
0.0
  9
$PUCSORGRIGHT
 10
0.0
 20
0.0
 30
0.0
  9
$PUCSORGFRONT
 10
0.0
 20
0.0
 30
0.0
  9
$PUCSORGBACK
 10
0.0
 20
0.0
 30
0.0
  9
$USERI1
 70
     0
  9
$USERI2
 70
     0
  9
$USERI3
 70
     0
  9
$USERI4
 70
     0
  9
$USERI5
 70
     0
  9
$USERR1
 40
0.0
  9
$USERR2
 40
0.0
  9
$USERR3
 40
0.0
  9
$USERR4
 40
0.0
  9
$USERR5
 40
0.0
  9
$WORLDVIEW
 70
     1
  9
$SHADEDGE
 70
     3
  9
$SHADEDIF
 70
    70
  9
$TILEMODE
 70
     1
  9
$MAXACTVP
 70
    48
  9
$PINSBASE
 10
0.0
 20
0.0
 30
0.0
  9
$PLIMCHECK
 70
     0
  9
$PEXTMIN
 10
1.000000000000000E+20
 20
1.000000000000000E+20
 30
1.000000000000000E+20
  9
$PEXTMAX
 10
-1.000000000000000E+20
 20
-1.000000000000000E+20
 30
-1.000000000000000E+20
  9
$PLIMMIN
 10
0.0
 20
0.0
  9
$PLIMMAX
 10
12.0
 20
9.0
  9
$UNITMODE
 70
     0
  9
$VISRETAIN
 70
     1
  9
$PLINEGEN
 70
     0
  9
$PSLTSCALE
 70
     1
  9
$TREEDEPTH
 70
  3020
  9
$CMLSTYLE
  2
Standard
  9
$CMLJUST
 70
     0
  9
$CMLSCALE
 40
1.0
  9
$PROXYGRAPHICS
 70
     1
  9
$MEASUREMENT
 70
     1
  9
$CELWEIGHT
370
    -1
  9
$ENDCAPS
280
     0
  9
$JOINSTYLE
280
     0
  9
$LWDISPLAY
290
     0
  9
$INSUNITS
 70
     1
  9
$HYPERLINKBASE
  1

  9
$STYLESHEET
  1
彩色出圖.ctb
  9
$XEDIT
290
     1
  9
$CEPSNTYPE
380
     0
  9
$PSTYLEMODE
290
     1
  9
$FINGERPRINTGUID
  2
{FDEAD576-A652-11D2-9A35-0060089B3A3F}
  9
$VERSIONGUID
  2
{96EFBE2C-9822-4115-AD82-F91443B8BEBE}
  9
$EXTNAMES
290
     1
  9
$PSVPSCALE
 40
0.0
  9
$OLESTARTUP
290
     0
  0
ENDSEC
  0
SECTION
  2
CLASSES
  0
CLASS
  1
ACDBDICTIONARYWDFLT
  2
AcDbDictionaryWithDefault
  3
ObjectDBX Classes
 90
        0
280
     0
281
     0
  0
CLASS
  1
ACDBPLACEHOLDER
  2
AcDbPlaceHolder
  3
ObjectDBX Classes
 90
        0
280
     0
281
     0
  0
CLASS
  1
LAYOUT
  2
AcDbLayout
  3
ObjectDBX Classes
 90
        0
280
     0
281
     0
  0
CLASS
  1
DICTIONARYVAR
  2
AcDbDictionaryVar
  3
ObjectDBX Classes
 90
        0
280
     0
281
     0
  0
CLASS
  1
ACME_DOCUMENT
  2
AcMeDbDoc
  3
AcMeServices
 90
        0
280
     0
281
     0
  0
CLASS
  1
AMGSETTINGSOBJ
  2
AmgSettingsObj
  3
"AcadM|Product Description: AutoCAD Mechanical 2000|Company: Autodesk"
 90
        0
280
     0
281
     0
  0
CLASS
  1
ACMESCOPE
  2
AcMeScope
  3
AcMeServices
 90
        0
280
     0
281
     0
  0
CLASS
  1
ACMECOMMANDHISTORY
  2
AcMeCommandHistory
  3
AcMeServices
 90
        0
280
     0
281
     0
  0
CLASS
  1
ACIMSYSVARMAN
  2
AcImSysVarManager
  3
AcMeServices
 90
        0
280
     0
281
     0
  0
CLASS
  1
ACIMREALSYSVAR
  2
AcImRealSysVar
  3
AcMeServices
 90
        0
280
     0
281
     0
  0
CLASS
  1
ACIMINTSYSVAR
  2
AcImIntSysVar
  3
AcMeServices
 90
        0
280
     0
281
     0
  0
CLASS
  1
ACMEDRAWINGMAN
  2
AcMeDrawingMan
  3
AcMeServices
 90
        0
280
     0
281
     0
  0
CLASS
  1
ACMEVIEW
  2
AcMeView
  3
AcMeServices
 90
        0
280
     0
281
     0
  0
CLASS
  1
ACDBENTITYCACHE
  2
AcMeEntityCache
  3
AcMeServices
 90
        0
280
     0
281
     0
  0
CLASS
  1
GSMANAGER
  2
AcMeGSManager
  3
AcMeServices
 90
        0
280
     0
281
     0
  0
CLASS
  1
AMDTINTERNALREACTOR
  2
AmdtInternalReactor
  3
AcMeServices
 90
        0
280
     0
281
     0
  0
CLASS
  1
ACMESTATEMGR
  2
AcMeStateMgr
  3
AcMeServices
 90
        0
280
     0
281
     0
  0
CLASS
  1
ACGREFMASTER
  2
AcGrefMaster
  3
AcAttribServices
 90
        0
280
     0
281
     0
  0
CLASS
  1
ACME_DATABASE
  2
AcMeDbDatabase
  3
AcMeServices
 90
        0
280
     0
281
     0
  0
CLASS
  1
ACRFINSADJUSTERMGR
  2
AcRfInsAdjusterMgr
  3
AcMeServices
 90
        0
280
     0
281
     0
  0
CLASS
  1
ACGREFACADMASTER
  2
AcGrefacadMaster
  3
AcGrefServices
 90
        0
280
     0
281
     0
  0
CLASS
  1
AMIMASTER
  2
AmiMaster
  3
AmiServices
 90
        0
280
     0
281
     0
  0
CLASS
  1
ACMDATADICTIONARY
  2
AcmDataDictionary
  3
"AcmSymBB|Product Description: AutoCAD Mechanical 2004 DX|Company: Autodesk"
 90
        0
280
     0
281
     0
  0
CLASS
  1
ACMDATAENTRYBLOCK
  2
AcmDataEntryBlock
  3
"AcmSymBB|Product Description: AutoCAD Mechanical 2004 DX|Company: Autodesk"
 90
    32768
280
     0
281
     0
  0
CLASS
  1
ACIMSTRSYSVAR
  2
AcImStrSysVar
  3
AcMeServices
 90
        0
280
     0
281
     0
  0
CLASS
  1
ACMSTANDARDISO
  2
AcmStandardISO
  3
"Amdt_StdImp|Product Description: AutoCAD Mechanical 2004 DX|Company: Autodesk"
 90
        0
280
     0
281
     0
  0
CLASS
  1
AMGOBJPROPCFG
  2
AmgObjPropCfg
  3
"AmgLay|Product Description: AutoCAD Mechanical 2000|Company: Autodesk"
 90
        1
280
     0
281
     0
  0
CLASS
  1
AMDTEDGESTANDARDISO
  2
AmdtEdgeStdISO
  3
"Amdt_StdImp|Product Description: AutoCAD Mechanical 2004 DX|Company: Autodesk"
 90
    32768
280
     0
281
     0
  0
CLASS
  1
ACMSURFSTANDARDISO
  2
AcmSurfTextStdISO
  3
"Amdt_StdImp|Product Description: AutoCAD Mechanical 2004 DX|Company: Autodesk"
 90
        0
280
     0
281
     0
  0
CLASS
  1
ACMFCFSTANDARDISO
  2
AcmFCFStdISO
  3
"Amdt_StdImp|Product Description: AutoCAD Mechanical 2004 DX|Company: Autodesk"
 90
        0
280
     0
281
     0
  0
CLASS
  1
ACMWELDSTANDARDISO
  2
AcmWeldingStdISO
  3
"Amdt_StdImp|Product Description: AutoCAD Mechanical 2004 DX|Company: Autodesk"
 90
        0
280
     0
281
     0
  0
CLASS
  1
ACMIDSTANDARDISO
  2
AcmIdStdISO
  3
"Amdt_StdImp|Product Description: AutoCAD Mechanical 2004 DX|Company: Autodesk"
 90
        0
280
     0
281
     0
  0
CLASS
  1
ACMDATUMSTANDARDISO
  2
AcmDatumStdISO
  3
"Amdt_StdImp|Product Description: AutoCAD Mechanical 2004 DX|Company: Autodesk"
 90
        0
280
     0
281
     0
  0
CLASS
  1
ACMBOMSTANDARDISO
  2
AcmBOMStdISO
  3
"Amdt_StdImp|Product Description: AutoCAD Mechanical 2004 DX|Company: Autodesk"
 90
        0
280
     0
281
     0
  0
CLASS
  1
ACMDETAILSTANDARDISO
  2
AmdtDetailSymStdISO
  3
"Amdt_StdImp|Product Description: AutoCAD Mechanical 2004 DX|Company: Autodesk"
 90
        0
280
     0
281
     0
  0
CLASS
  1
ACMSECTIONSTANDARDISO
  2
AmdtSectionSymStdISO
  3
"Amdt_StdImp|Product Description: AutoCAD Mechanical 2004 DX|Company: Autodesk"
 90
        0
280
     0
281
     0
  0
CLASS
  1
ACMCENTERLINESTANDARDISO
  2
AmdtCenterLineStdISO
  3
"Amdt_StdImp|Product Description: AutoCAD Mechanical 2004 DX|Company: Autodesk"
 90
        0
280
     0
281
     0
  0
CLASS
  1
ACMNOTESTANDARDISO
  2
AmdtNoteStdISO
  3
"Amdt_StdImp|Product Description: AutoCAD Mechanical 2004 DX|Company: Autodesk"
 90
        0
280
     0
281
     0
  0
CLASS
  1
ACAMGLAYSTD
  2
AcAmgLayStd
  3
"AcAmgLayStd|Product Description: AutoCAD Mechanical 2000|Company: Autodesk"
 90
        0
280
     0
281
     0
  0
CLASS
  1
ACAMGDIMSTD
  2
AcAmgDimStd
  3
"AcAmgDimStd|Product Description: AutoCAD Mechanical 2000|Company: Autodesk"
 90
        0
280
     0
281
     0
  0
CLASS
  1
ACAMGHOLECHARTSTDISO
  2
AcAmgHoleChartStdISO
  3
ACMSYMBB_MODULE_NAME
 90
        0
280
     0
281
     0
  0
CLASS
  1
ACAMGTITLESTD
  2
AcAmgTitleStd
  3
"TITLEAPP"
 90
        0
280
     0
281
     0
  0
CLASS
  1
ACAMGFILTERDAT
  2
AcAmgFilterDat
  3
"AcadM|Product Description: AutoCAD Mechanical 2000|Company: Autodesk"
 90
    32768
280
     0
281
     0
  0
CLASS
  1
LAYER_INDEX
  2
AcDbLayerIndex
  3
ObjectDBX Classes
 90
        0
280
     0
281
     0
  0
CLASS
  1
IDBUFFER
  2
AcDbIdBuffer
  3
ObjectDBX Classes
 90
        0
280
     0
281
     0
  0
CLASS
  1
TABLESTYLE
  2
AcDbTableStyle
  3
ObjectDBX Classes
 90
     2047
280
     0
281
     0
  0
CLASS
  1
DIMASSOC
  2
AcDbDimAssoc
  3
"AcDbDimAssoc|Product Desc:     AcDim ARX App For Dimension|Company:          Autodesk, Inc.|WEB Address:      www.autodesk.com"
 90
        0
280
     0
281
     0
  0
CLASS
  1
SORTENTSTABLE
  2
AcDbSortentsTable
  3
ObjectDBX Classes
 90
        0
280
     0
281
     0
  0
CLASS
  1
AM_DRAWING_MGR
  2
AcDmDwgMgr
  3
AcMechDwgViewMgmt
 90
        0
280
     0
281
     0
  0
CLASS
  1
AM_DWG_DOCUMENT
  2
AcDmDwgDocument
  3
AcMechDwgViewMgmt
 90
        0
280
     0
281
     0
  0
CLASS
  1
AM_DWG_SHEET
  2
AcDmSheet
  3
AcMechDwgViewMgmt
 90
        0
280
     0
281
     0
  0
CLASS
  1
AM_VIEWDIMPARMAP
  2
AcDmViewDimParMap
  3
AcMechDwgViewMgmt
 90
        0
280
     0
281
     0
  0
CLASS
  1
AM_DWGMGR_NAME
  2
AcDmDwgMgrName
  3
AcMechDwgViewMgmt
 90
        0
280
     0
281
     0
  0
CLASS
  1
AMDTMENUSTATEMGR
  2
AmdtMenuStateMgr
  3
McadcomServices
 90
        0
280
     0
281
     0
  0
CLASS
  1
AMDTMCOMMENUSTATE
  2
AmdtMcomMenuState
  3
McadcomServices
 90
        0
280
     0
281
     0
  0
CLASS
  1
MAPIAMMOUDLE
  2
MApiAmModule
  3
MApiAmServices
 90
        0
280
     0
281
     0
  0
CLASS
  1
AMDTADMENUSTATE
  2
AmdtAdMenuState
  3
DesignerServices
 90
        0
280
     0
281
     0
  0
CLASS
  1
ADAPPL
  2
AcAdAppl
  3
DesignerServices
 90
        0
280
     0
281
     0
  0
CLASS
  1
DEPMGR
  2
AcAdDepMgr
  3
DesignerServices
 90
        0
280
     0
281
     0
  0
CLASS
  1
PARAMMGR
  2
AcAdParamMgr
  3
DesignerServices
 90
        0
280
     0
281
     0
  0
CLASS
  1
PARAMSCOPE
  2
AcAdParamScope
  3
DesignerServices
 90
        0
280
     0
281
     0
  0
CLASS
  1
NAMEDAPPL
  2
AcAdNamedAppl
  3
DesignerServices
 90
        0
280
     0
281
     0
  0
CLASS
  1
AMDTDMMENUSTATE
  2
AmdtDmMenuState
  3
AcMechDwgViewMgmt
 90
        0
280
     0
281
     0
  0
CLASS
  1
AMDTAMMENUSTATE
  2
AmdtAmMenuState
  3
DesignerAssemblies
 90
        0
280
     0
281
     0
  0
CLASS
  1
ACAMPROJECT
  2
AcAmProject
  3
DesignerAssemblies
 90
        0
280
     0
281
     0
  0
CLASS
  1
ACAMGRCOMPDEF
  2
AcAmGrCompDef
  3
DesignerAssemblies
 90
        0
280
     0
281
     0
  0
CLASS
  1
ACCMCONTEXT
  2
AcCmContext
  3
DesignerAssemblies
 90
        0
280
     0
281
     0
  0
CLASS
  1
ACAMCOMPDEF
  2
AcAmCompDef
  3
DesignerAssemblies
 90
        0
280
     0
281
     0
  0
CLASS
  1
ACAMCOMPDEFMGR
  2
AcAmCompDefMgr
  3
DesignerAssemblies
 90
        0
280
     0
281
     0
  0
CLASS
  1
AMCONTEXTMGR
  2
AcAmContextMgr
  3
DesignerAssemblies
 90
        0
280
     0
281
     0
  0
CLASS
  1
ACAMCONTEXTMODELER
  2
AcAmContextModeler
  3
DesignerAssemblies
 90
        0
280
     0
281
     0
  0
CLASS
  1
CATALOGSTATE
  2
AcAmCatalogState
  3
DesignerAssemblies
 90
        0
280
     0
281
     0
  0
CLASS
  1
ACAMGRCOMPDEFSET
  2
AcAmGrCompDefSet
  3
DesignerAssemblies
 90
        0
280
     0
281
     0
  0
CLASS
  1
AMDTBROWSERDBTAB
  2
AmdtBrowserDbTab
  3
McadcomServices
 90
        0
280
     0
281
     0
  0
CLASS
  1
CBROWSERAPPOBJECT
  2
CBrowserAppObject
  3
McadcomServices
 90
        0
280
     0
281
     0
  0
CLASS
  1
DM_PLACEHOLDER
  2
AcDmSelsetPlaceholder
  3
AcMechDwgViewMgmt
 90
        0
280
     0
281
     0
  0
CLASS
  1
AMDTEDGESTANDARDISO13715
  2
AmdtEdgeStdISO13715
  3
"Amdt_StdImp|Product Description: AutoCAD Mechanical 2004 DX|Company: Autodesk"
 90
        0
280
     0
281
     0
  0
CLASS
  1
ACMTHREADLINESTANDARDISO
  2
AmdtThreadLineStdISO
  3
"Amdt_StdImp|Product Description: AutoCAD Mechanical 2004 DX|Company: Autodesk"
 90
        0
280
     0
281
     0
  0
CLASS
  1
AMDTNOTETEMPLATEDB
  2
AmdtNoteTemplateDB
  3
AMDT_STDIMP_MODULE_NAME
 90
        0
280
     0
281
     0
  0
CLASS
  1
ACMSTANDARDANSI
  2
AcmStandardANSI
  3
"Amdt_StdImp|Product Description: AutoCAD Mechanical 2004 DX|Company: Autodesk"
 90
        0
280
     0
281
     0
  0
CLASS
  1
ACMSURFSTANDARDANSI
  2
AcmSurfTextStdANSI
  3
"Amdt_StdImp|Product Description: AutoCAD Mechanical 2004 DX|Company: Autodesk"
 90
        0
280
     0
281
     0
  0
CLASS
  1
ACMFCFSTANDARDANSI
  2
AcmFCFStdANSI
  3
"Amdt_StdImp|Product Description: AutoCAD Mechanical 2004 DX|Company: Autodesk"
 90
        0
280
     0
281
     0
  0
CLASS
  1
ACMWELDSTANDARDANSI
  2
AcmWeldingStdANSI
  3
"Amdt_StdImp|Product Description: AutoCAD Mechanical 2004 DX|Company: Autodesk"
 90
        0
280
     0
281
     0
  0
CLASS
  1
ACMIDSTANDARDANSI
  2
AcmIdStdANSI
  3
"Amdt_StdImp|Product Description: AutoCAD Mechanical 2004 DX|Company: Autodesk"
 90
        0
280
     0
281
     0
  0
CLASS
  1
ACMDATUMSTANDARDANSI
  2
AcmDatumStdANSI
  3
"Amdt_StdImp|Product Description: AutoCAD Mechanical 2004 DX|Company: Autodesk"
 90
        0
280
     0
281
     0
  0
CLASS
  1
ACMBOMSTANDARDANSI
  2
AcmBOMStdANSI
  3
"Amdt_StdImp|Product Description: AutoCAD Mechanical 2004 DX|Company: Autodesk"
 90
        0
280
     0
281
     0
  0
CLASS
  1
ACMDETAILSTANDARDANSI
  2
AmdtDetailSymStdANSI
  3
"Amdt_StdImp|Product Description: AutoCAD Mechanical 2004 DX|Company: Autodesk"
 90
        0
280
     0
281
     0
  0
CLASS
  1
ACMSECTIONSTANDARDANSI
  2
AmdtSectionSymStdANSI
  3
"Amdt_StdImp|Product Description: AutoCAD Mechanical 2004 DX|Company: Autodesk"
 90
        0
280
     0
281
     0
  0
CLASS
  1
ACMCENTERLINESTANDARDANSI
  2
AmdtCenterLineStdANSI
  3
"Amdt_StdImp|Product Description: AutoCAD Mechanical 2004 DX|Company: Autodesk"
 90
        0
280
     0
281
     0
  0
CLASS
  1
ACMTHREADLINESTANDARDANSI
  2
AmdtThreadLineStdANSI
  3
"Amdt_StdImp|Product Description: AutoCAD Mechanical 2004 DX|Company: Autodesk"
 90
        0
280
     0
281
     0
  0
CLASS
  1
ACMNOTESTANDARDANSI
  2
AmdtNoteStdANSI
  3
"Amdt_StdImp|Product Description: AutoCAD Mechanical 2004 DX|Company: Autodesk"
 90
        0
280
     0
281
     0
  0
CLASS
  1
ACAMGHOLECHARTSTDANSI
  2
AcAmgHoleChartStdANSI
  3
ACMSYMBB_MODULE_NAME
 90
        0
280
     0
281
     0
  0
CLASS
  1
ACDBLINERES
  2
AcDbLineRes
  3
AcGrefServices
 90
    32768
280
     0
281
     0
  0
CLASS
  1
AMDTNOTE
  2
AmdtNote
  3
"AcmSymBB|Product Description: AutoCAD Mechanical 2004 DX|Company: Autodesk"
 90
    33791
280
     0
281
     1
  0
CLASS
  1
AMDTFORMULAUPDATEDISPATCHER
  2
AmdtFormulaUpdateDispatcher
  3
AcMeServices
 90
    32768
280
     0
281
     0
  0
CLASS
  1
ACRFATTGENMGR
  2
AcRfAttGeneralMgr
  3
AcAttribServices
 90
        0
280
     0
281
     0
  0
ENDSEC
  0
SECTION
  2
TABLES
  0
TABLE
  2
VPORT
  5
8
330
0
100
AcDbSymbolTable
 70
     8
  0
VPORT
  5
532F
330
8
100
AcDbSymbolTableRecord
100
AcDbViewportTableRecord
  2
*Active
 70
     0
 10
0.0
 20
0.0
 11
1.0
 21
1.0
 12
149.7160850922968
 22
199.1416469559075
 13
0.0
 23
0.0
 14
0.5
 24
0.5
 15
0.5
 25
0.5
 16
0.0
 26
0.0
 36
1.0
 17
0.0
 27
0.0
 37
0.0
 40
331.4778275926449
 41
1.661684782608695
 42
50.0
 43
0.0
 44
0.0
 50
0.0
 51
0.0
 71
     0
 72
   100
 73
     1
 74
     3
 75
     0
 76
     0
 77
     0
 78
     0
281
     0
 65
     1
110
0.0
120
0.0
130
0.0
111
1.0
121
0.0
131
0.0
112
0.0
122
1.0
132
0.0
 79
     0
146
0.0
  0
ENDTAB
  0
TABLE
  2
LTYPE
  5
5
330
0
100
AcDbSymbolTable
 70
    19
  0
LTYPE
  5
14
330
5
100
AcDbSymbolTableRecord
100
AcDbLinetypeTableRecord
  2
ByBlock
 70
     0
  3

 72
    65
 73
     0
 40
0.0
  0
LTYPE
  5
15
330
5
100
AcDbSymbolTableRecord
100
AcDbLinetypeTableRecord
  2
ByLayer
 70
     0
  3

 72
    65
 73
     0
 40
0.0
  0
LTYPE
  5
16
330
5
100
AcDbSymbolTableRecord
100
AcDbLinetypeTableRecord
  2
Continuous
 70
     0
  3
Solid line
 72
    65
 73
     0
 40
0.0
  0
LTYPE
  5
4F
330
5
100
AcDbSymbolTableRecord
100
AcDbLinetypeTableRecord
  2
CENTER
 70
     0
  3
Center ____ _ ____ _ ____ _ ____ _ ____ _ ____
 72
    65
 73
     4
 40
2.0
 49
1.25
 74
     0
 49
-0.25
 74
     0
 49
0.25
 74
     0
 49
-0.25
 74
     0
  0
LTYPE
  5
3DDE
330
5
100
AcDbSymbolTableRecord
100
AcDbLinetypeTableRecord
  2
AM_ISO02W050
 70
     0
  3
__ __ __ __ __ __ __ __ __ __ __ __ __ __ __
 72
    65
 73
     2
 40
7.5
 49
6.0
 74
     0
 49
-1.5
 74
     0
  0
LTYPE
  5
3DDF
330
5
100
AcDbSymbolTableRecord
100
AcDbLinetypeTableRecord
  2
AM_ISO08W050
 70
     0
  3
____ . ____ . ____ . ____ . ____ . ____ . ____
 72
    65
 73
     4
 40
18.0
 49
12.0
 74
     0
 49
-1.5
 74
     0
 49
3.0
 74
     0
 49
-1.5
 74
     0
  0
LTYPE
  5
3DE0
330
5
100
AcDbSymbolTableRecord
100
AcDbLinetypeTableRecord
  2
AM_ISO09W050
 70
     0
  3
_____ . . _____ . . _____ . . ____ .. ____
 72
    65
 73
     6
 40
22.5
 49
12.0
 74
     0
 49
-1.5
 74
     0
 49
3.0
 74
     0
 49
-1.5
 74
     0
 49
3.0
 74
     0
 49
-1.5
 74
     0
  0
LTYPE
  5
3DE1
330
5
100
AcDbSymbolTableRecord
100
AcDbLinetypeTableRecord
  2
Amconstr
 70
     0
  3
_______________________
 72
    65
 73
     2
 40
9999.0
 49
9999.0
 74
     0
 49
0.0
 74
     0
  0
LTYPE
  5
3DE2
330
5
100
AcDbSymbolTableRecord
100
AcDbLinetypeTableRecord
  2
AM_ISO08W050x2
 70
     0
  3
__ . __ . __ . __ . __ . __
 72
    65
 73
     4
 40
9.0
 49
6.0
 74
     0
 49
-0.75
 74
     0
 49
1.5
 74
     0
 49
-0.75
 74
     0
  0
LTYPE
  5
3DE3
330
5
100
AcDbSymbolTableRecord
100
AcDbLinetypeTableRecord
  2
AM_ISO02W050x2
 70
     0
  3
 _ _ _ _ _ _ _ _ _ _ _ _
 72
    65
 73
     2
 40
3.75
 49
3.0
 74
     0
 49
-0.75
 74
     0
  0
LTYPE
  5
3DE6
330
5
100
AcDbSymbolTableRecord
100
AcDbLinetypeTableRecord
  2
Amzigzag
 70
     0
  3
/\/-/\/-/\/-/\/-/\/-/\/
 72
    65
 73
     2
 40
11.0001
 49
0.0001
 74
     4
 75
   135
340
3DE5
 46
0.04
 50
0.0
 44
0.0
 45
0.0
 49
-11.0
 74
     0
  0
LTYPE
  5
3DF4
330
5
100
AcDbSymbolTableRecord
100
AcDbLinetypeTableRecord
  2
ACISOWELD
 70
     0
  3
_ _ _ _ _
 72
    65
 73
     2
 40
2.0
 49
2.0
 74
     0
 49
-1.0
 74
     0
  0
LTYPE
  5
3DF5
330
5
100
AcDbSymbolTableRecord
100
AcDbLinetypeTableRecord
  2
ACISOTGB
 70
     0
  3
__ . . __ . .
 72
    65
 73
     6
 40
9.0
 49
4.0
 74
     0
 49
-1.0
 74
     0
 49
1.0
 74
     0
 49
-1.0
 74
     0
 49
1.0
 74
     0
 49
-1.0
 74
     0
  0
LTYPE
  5
3DF6
330
5
100
AcDbSymbolTableRecord
100
AcDbLinetypeTableRecord
  2
ACISOTGL
 70
     0
  3
_ _ _ _ _
 72
    65
 73
     2
 40
3.0
 49
2.0
 74
     0
 49
-1.0
 74
     0
  0
LTYPE
  5
3FFC
330
5
100
AcDbSymbolTableRecord
100
AcDbLinetypeTableRecord
  2
HIDDEN
 70
     0
  3
__ __ __ __ __ __ __ __ __ __ __ __ __ __ __ __
 72
    65
 73
     2
 40
0.375
 49
0.25
 74
     0
 49
-0.125
 74
     0
  0
LTYPE
  5
3FFD
330
5
100
AcDbSymbolTableRecord
100
AcDbLinetypeTableRecord
  2
PHANTOM2
 70
     0
  3
___ _ _ ___ _ _ ___ _ _ ___ _ _ ___ _ _ ___ _ _
 72
    65
 73
     6
 40
1.25
 49
0.625
 74
     0
 49
-0.125
 74
     0
 49
0.125
 74
     0
 49
-0.125
 74
     0
 49
0.125
 74
     0
 49
-0.125
 74
     0
  0
LTYPE
  5
5255
330
5
100
AcDbSymbolTableRecord
100
AcDbLinetypeTableRecord
  2
CENTER2
 70
     0
  3
Center (.5x) ___ _ ___ _ ___ _ ___ _ ___ _ ___
 72
    65
 73
     4
 40
1.125
 49
0.75
 74
     0
 49
-0.125
 74
     0
 49
0.125
 74
     0
 49
-0.125
 74
     0
  0
LTYPE
  5
5256
330
5
100
AcDbSymbolTableRecord
100
AcDbLinetypeTableRecord
  2
HIDDEN2
 70
     0
  3
Hidden (.5x) _ _ _ _ _ _ _ _ _ _ _ _ _ _ _ _ _
 72
    65
 73
     2
 40
0.1875
 49
0.125
 74
     0
 49
-0.0625
 74
     0
  0
LTYPE
  5
5257
330
5
100
AcDbSymbolTableRecord
100
AcDbLinetypeTableRecord
  2
Amzigzag2
 70
     0
  3
/\/-/\/-/\/-/\/-/\/-/\/
 72
    65
 73
     2
 40
0.4401
 49
0.0001
 74
     4
 75
   135
340
3DE5
 46
0.0016
 50
0.0
 44
0.0
 45
0.0
 49
-0.4400000000000001
 74
     0
  0
LTYPE
  5
5258
330
5
100
AcDbSymbolTableRecord
100
AcDbLinetypeTableRecord
  2
ACANSTGB
 70
     0
  3
__ . . __ . .
 72
    65
 73
     6
 40
0.35433070866
 49
0.15748031496
 74
     0
 49
-0.03937007874
 74
     0
 49
0.03937007874
 74
     0
 49
-0.03937007874
 74
     0
 49
0.03937007874
 74
     0
 49
-0.03937007874
 74
     0
  0
LTYPE
  5
5259
330
5
100
AcDbSymbolTableRecord
100
AcDbLinetypeTableRecord
  2
ACANSTGL
 70
     0
  3
_ _ _ _ _
 72
    65
 73
     2
 40
0.11811023622
 49
0.07874015748
 74
     0
 49
-0.03937007874
 74
     0
  0
ENDTAB
  0
TABLE
  2
LAYER
  5
2
102
{ACAD_XDICTIONARY
360
400D
102
}
330
0
100
AcDbSymbolTable
 70
     8
  0
LAYER
  5
10
330
2
100
AcDbSymbolTableRecord
100
AcDbLayerTableRecord
  2
0
 70
     0
 62
     7
  6
Continuous
370
    -3
390
F
  0
LAYER
  5
48
330
2
100
AcDbSymbolTableRecord
100
AcDbLayerTableRecord
  2
DIM
 70
     0
 62
     5
  6
Continuous
370
    -3
390
F
  0
LAYER
  5
4A
330
2
100
AcDbSymbolTableRecord
100
AcDbLayerTableRecord
  2
CENTER
 70
     0
 62
     1
  6
CENTER
370
    -3
390
F
  0
LAYER
  5
1545
330
2
100
AcDbSymbolTableRecord
100
AcDbLayerTableRecord
  2
LOGO
 70
     0
 62
     7
  6
Continuous
370
    -3
390
F
  0
LAYER
  5
1A52
330
2
100
AcDbSymbolTableRecord
100
AcDbLayerTableRecord
  2
Defpoints
 70
     0
 62
     7
  6
Continuous
290
     0
370
    -3
390
F
  0
LAYER
  5
522E
330
2
100
AcDbSymbolTableRecord
100
AcDbLayerTableRecord
  2
AM_CL
 70
     0
 62
     1
  6
Amconstr
370
    25
390
F
  0
LAYER
  5
523F
330
2
100
AcDbSymbolTableRecord
100
AcDbLayerTableRecord
  2
AM_7
 70
     0
 62
     4
  6
AM_ISO08W050
370
    25
390
F
  0
LAYER
  5
5280
330
2
100
AcDbSymbolTableRecord
100
AcDbLayerTableRecord
  2
AM_5
 70
     0
 62
     3
  6
Continuous
370
    25
390
F
  0
ENDTAB
  0
TABLE
  2
STYLE
  5
3
330
0
100
AcDbSymbolTable
 70
    10
  0
STYLE
  5
11
330
3
100
AcDbSymbolTableRecord
100
AcDbTextStyleTableRecord
  2
Standard
 70
     0
 40
3.0
 41
1.0
 50
0.0
 71
     0
 42
3.0
  3
KAIU.TTF
  4

1001
ACAD
1000
DFKai-SB
1071
    34865
  0
STYLE
  5
5C
330
3
100
AcDbSymbolTableRecord
100
AcDbTextStyleTableRecord
  2
CHINESET
 70
     0
 40
3.0
 41
1.0
 50
0.0
 71
     0
 42
4.5
  3
simplex.shx
  4
CHINESET.shx
  0
STYLE
  5
3DE5
330
3
100
AcDbSymbolTableRecord
100
AcDbTextStyleTableRecord
  2

 70
     1
 40
0.0
 41
1.0
 50
0.0
 71
     0
 42
4.5
  3
ltypeshp.shx
  4

  0
STYLE
  5
3DE7
330
3
100
AcDbSymbolTableRecord
100
AcDbTextStyleTableRecord
  2
ACISOTS
 70
     0
 40
1.0
 41
1.0
 50
0.0
 71
     0
 42
4.5
  3
isocp.shx
  4
chineset.shx
  0
STYLE
  5
3DF3
330
3
100
AcDbSymbolTableRecord
100
AcDbTextStyleTableRecord
  2
ACISOGDT
 70
     0
 40
0.0
 41
1.0
 50
0.0
 71
     0
 42
4.5
  3
amgdt.shx
  4

  0
STYLE
  5
4003
330
3
100
AcDbSymbolTableRecord
100
AcDbTextStyleTableRecord
  2
dayus
 70
     0
 40
2.5
 41
1.0
 50
0.0
 71
     0
 42
6.0
  3
simplex.shx
  4
dayus.shx
  0
STYLE
  5
525A
330
3
100
AcDbSymbolTableRecord
100
AcDbTextStyleTableRecord
  2
AAA
 70
     0
 40
0.0
 41
1.0
 50
0.0
 71
     0
 42
3.2
  3
TXT
  4

  0
STYLE
  5
525B
330
3
100
AcDbSymbolTableRecord
100
AcDbTextStyleTableRecord
  2
ACANSTS
 70
     0
 40
1.0
 41
1.0
 50
0.0
 71
     0
 42
0.2
  3
romans.shx
  4
chineset.shx
  0
STYLE
  5
525C
330
3
100
AcDbSymbolTableRecord
100
AcDbTextStyleTableRecord
  2
ACANSGDT
 70
     0
 40
0.0
 41
1.0
 50
0.0
 71
     0
 42
0.2
  3
amgdtans.shx
  4

  0
ENDTAB
  0
TABLE
  2
VIEW
  5
6
330
0
100
AcDbSymbolTable
 70
     0
  0
ENDTAB
  0
TABLE
  2
UCS
  5
7
330
0
100
AcDbSymbolTable
 70
     0
  0
ENDTAB
  0
TABLE
  2
APPID
  5
9
330
0
100
AcDbSymbolTable
 70
    22
  0
APPID
  5
12
330
9
100
AcDbSymbolTableRecord
100
AcDbRegAppTableRecord
  2
ACAD
 70
     0
  0
APPID
  5
5F
330
9
100
AcDbSymbolTableRecord
100
AcDbRegAppTableRecord
  2
AD_DRAW
 70
     0
  0
APPID
  5
60
330
9
100
AcDbSymbolTableRecord
100
AcDbRegAppTableRecord
  2
DESIGNERASSEMBLIES
 70
     0
  0
APPID
  5
61
330
9
100
AcDbSymbolTableRecord
100
AcDbRegAppTableRecord
  2
MCAD_NO_VIS
 70
     0
  0
APPID
  5
62
330
9
100
AcDbSymbolTableRecord
100
AcDbRegAppTableRecord
  2
ASURF_PCURVE_APPNAME
 70
     0
  0
APPID
  5
11A1
330
9
100
AcDbSymbolTableRecord
100
AcDbRegAppTableRecord
  2
CONTENTBLOCKICON
 70
     0
  0
APPID
  5
31CE
330
9
100
AcDbSymbolTableRecord
100
AcDbRegAppTableRecord
  2
GENIUS_GENODEF_13
 70
     0
  0
APPID
  5
31CF
330
9
100
AcDbSymbolTableRecord
100
AcDbRegAppTableRecord
  2
GENIUS_GENOBJ-N-FIL_13
 70
     0
  0
APPID
  5
3DC1
330
9
100
AcDbSymbolTableRecord
100
AcDbRegAppTableRecord
  2
ACAD_TEMP_GRAPHIC
 70
     0
  0
APPID
  5
3DD2
330
9
100
AcDbSymbolTableRecord
100
AcDbRegAppTableRecord
  2
ACATTRIBSERVICES
 70
     0
  0
APPID
  5
400C
330
9
100
AcDbSymbolTableRecord
100
AcDbRegAppTableRecord
  2
GENIUS_GENDTOL_13
 70
     0
  0
APPID
  5
4B0F
330
9
100
AcDbSymbolTableRecord
100
AcDbRegAppTableRecord
  2
ACADM_DIM_EDIT
 70
     0
  0
APPID
  5
4B10
330
9
100
AcDbSymbolTableRecord
100
AcDbRegAppTableRecord
  2
AMDT_DM_ADJ
 70
     0
  0
APPID
  5
4B32
330
9
100
AcDbSymbolTableRecord
100
AcDbRegAppTableRecord
  2
GENIUS_GENOENT_13
 70
     0
  0
APPID
  5
4B33
330
9
100
AcDbSymbolTableRecord
100
AcDbRegAppTableRecord
  2
GENIUS_GENOBJ-N-CRS_13
 70
     0
  0
APPID
  5
4B34
330
9
100
AcDbSymbolTableRecord
100
AcDbRegAppTableRecord
  2
GENIUS_GENOLIS_13
 70
     0
  0
APPID
  5
4B35
330
9
100
AcDbSymbolTableRecord
100
AcDbRegAppTableRecord
  2
GENIUS_GENOREF_13
 70
     0
  0
APPID
  5
4B36
330
9
100
AcDbSymbolTableRecord
100
AcDbRegAppTableRecord
  2
ACAD_PSEXT
 70
     0
  0
APPID
  5
4B37
330
9
100
AcDbSymbolTableRecord
100
AcDbRegAppTableRecord
  2
GENIUS_GENREC_14
 70
     0
  0
APPID
  5
4B38
330
9
100
AcDbSymbolTableRecord
100
AcDbRegAppTableRecord
  2
GENIUS_GENOBJ-N-REC_13
 70
     0
  0
APPID
  5
5241
330
9
100
AcDbSymbolTableRecord
100
AcDbRegAppTableRecord
  2
GENIUS_GENOBJ-N-CEN_13
 70
     0
  0
APPID
  5
5242
330
9
100
AcDbSymbolTableRecord
100
AcDbRegAppTableRecord
  2
GENIUS_GENCEN_19
 70
     0
  0
ENDTAB
  0
TABLE
  2
DIMSTYLE
  5
A
330
0
100
AcDbSymbolTable
 70
    16
100
AcDbDimStyleTable
 71
     1
340
1A4
  0
DIMSTYLE
105
1A4
330
A
100
AcDbSymbolTableRecord
100
AcDbDimStyleTableRecord
  2
ISO-25-1
 70
     0
 41
3.0
 42
3.0
 43
2.0
 44
2.0
 73
     0
 74
     0
 77
     1
 78
     8
 79
     2
140
3.0
141
-3.0
146
0.7
147
1.0
172
     1
176
   256
177
   256
178
   256
271
     2
272
     2
284
     8
289
     0
340
5C
371
    -1
372
    -1
  0
DIMSTYLE
105
3DFA
330
A
100
AcDbSymbolTableRecord
100
AcDbDimStyleTableRecord
  2
AM_ISO
 70
     0
  4
"
 41
2.5
 42
1.0
 43
10.0
 44
1.0
 47
0.1
 48
0.1
 73
     0
 74
     0
 77
     1
 78
     8
 79
     2
140
3.5
141
0.0
143
0.0393701
146
0.71
147
1.5
172
     1
176
   256
177
   256
178
     2
271
     2
272
     3
274
     4
283
     0
284
     8
340
11
371
    -1
372
    -1
  0
DIMSTYLE
105
3DFB
330
A
100
AcDbSymbolTableRecord
100
AcDbDimStyleTableRecord
  2
AM_ISO$3
 70
     0
  4
"
 41
2.5
 42
1.0
 43
10.0
 44
1.0
 47
0.1
 48
0.1
 73
     0
 77
     1
 78
     8
 79
     2
140
3.5
141
0.0
143
0.0393701
146
0.71
147
1.5
176
   256
177
   256
178
     2
271
     2
272
     3
274
     4
283
     0
284
     8
288
     1
289
     0
340
11
371
    -1
372
    -1
  0
DIMSTYLE
105
3DFC
330
A
100
AcDbSymbolTableRecord
100
AcDbDimStyleTableRecord
  2
AM_ISO$4
 70
     0
  4
"
 41
2.5
 42
1.0
 43
10.0
 44
1.0
 47
0.1
 48
0.1
 73
     0
 77
     1
 78
     8
 79
     2
140
3.5
141
0.0
143
0.0393701
146
0.71
147
1.5
176
   256
177
   256
178
     2
271
     2
272
     3
274
     4
283
     0
284
     8
288
     1
289
     0
340
11
371
    -1
372
    -1
  0
DIMSTYLE
105
3DFD
330
A
100
AcDbSymbolTableRecord
100
AcDbDimStyleTableRecord
  2
AM_ISO$6
 70
     0
  4
"
 41
2.5
 42
1.0
 43
10.0
 44
1.0
 47
0.1
 48
0.1
 73
     0
 74
     0
 78
     8
 79
     2
140
3.5
141
0.0
143
0.0393701
146
0.71
147
1.5
172
     1
176
   256
177
   256
178
     2
271
     2
272
     3
274
     4
283
     0
284
     8
340
11
371
    -1
372
    -1
  0
DIMSTYLE
105
3DFE
330
A
100
AcDbSymbolTableRecord
100
AcDbDimStyleTableRecord
  2
AM_ISO$7
 70
     0
  4
"
 41
2.5
 42
1.0
 43
10.0
 44
1.0
 47
0.1
 48
0.1
 73
     0
 74
     0
 77
     1
 78
     8
 79
     2
140
5.0
141
0.0
143
0.0393701
146
0.71
147
1.5
172
     1
176
   256
177
   256
178
     2
271
     2
272
     3
274
     4
283
     0
284
     8
340
11
371
    -1
372
    -1
  0
DIMSTYLE
105
3DFF
330
A
100
AcDbSymbolTableRecord
100
AcDbDimStyleTableRecord
  2
AM_ISO$SF
 70
     0
  4
"
 41
2.5
 42
1.0
 43
10.0
 44
1.0
 47
0.1
 48
0.1
 73
     0
 74
     0
 75
     1
 76
     1
 77
     1
 78
     8
 79
     2
140
3.5
141
0.0
143
0.0393701
146
0.71
147
1.5
172
     1
176
   256
177
   256
178
     2
271
     2
272
     3
274
     4
283
     0
284
     8
340
11
371
    -1
372
    -1
  0
DIMSTYLE
105
3E04
330
A
100
AcDbSymbolTableRecord
100
AcDbDimStyleTableRecord
  2
AM_ISO$SH
 70
     0
  4
"
 41
2.5
 42
1.0
 43
10.0
 44
1.0
 47
0.1
 48
0.1
 73
     0
 74
     0
 75
     1
 76
     1
 77
     1
 78
     8
 79
     2
140
3.5
141
0.0
143
0.0393701
144
2.0
146
0.71
147
1.5
172
     1
173
     1
176
   256
177
   256
178
     2
271
     2
272
     3
274
     4
283
     0
284
     8
340
11
341
3E00
343
3E00
371
    -1
372
    -1
  0
DIMSTYLE
105
4006
102
{ACAD_REACTORS
330
4340
330
4343
330
4346
330
4349
330
434C
330
434F
330
4358
330
435B
330
435E
330
4365
330
436A
330
436D
330
4370
330
4373
330
4376
330
437B
330
437E
330
4381
330
4384
330
438D
330
4390
330
4393
330
4398
330
4399
330
439A
330
439B
330
439C
330
4A72
330
4A75
330
4A90
330
4A93
102
}
330
A
100
AcDbSymbolTableRecord
100
AcDbDimStyleTableRecord
  2
AM_ANSI
 70
     0
  4
"
 41
2.5
 42
1.0
 43
10.0
 44
1.0
 47
0.1
 48
0.1
 78
     8
 79
     2
140
3.5
141
0.0
143
0.0393701
146
0.71
147
1.5
176
   256
177
   256
178
     2
271
     2
272
     3
274
     4
284
     8
340
11
371
    -1
372
    -1
  0
DIMSTYLE
105
4009
330
A
100
AcDbSymbolTableRecord
100
AcDbDimStyleTableRecord
  2
AM_ANSI$7
 70
     0
  4
"
 41
2.5
 42
1.0
 43
10.0
 44
1.0
 47
0.1
 48
0.1
 78
     8
 79
     2
140
5.0
141
0.0
143
0.0393701
146
0.71
147
1.5
176
   256
177
   256
178
     2
271
     2
272
     3
274
     4
284
     8
340
11
371
    -1
372
    -1
  0
DIMSTYLE
105
525D
330
A
100
AcDbSymbolTableRecord
100
AcDbDimStyleTableRecord
  2
Standard
 70
     0
340
11
  0
DIMSTYLE
105
525E
330
A
100
AcDbSymbolTableRecord
100
AcDbDimStyleTableRecord
  2
AM_ANSI$3
 70
     0
  4
mm
 41
0.1
 42
0.05
 43
0.5
 44
0.1
 47
0.1
 48
0.1
 78
     7
 79
     2
140
0.12
141
0.0
146
0.71
147
0.06
176
   256
177
   256
178
     2
274
     4
284
     7
288
     1
289
     0
340
11
371
    -1
372
    -1
  0
DIMSTYLE
105
525F
330
A
100
AcDbSymbolTableRecord
100
AcDbDimStyleTableRecord
  2
AM_ANSI$4
 70
     0
  4
mm
 41
0.1
 42
0.05
 43
0.5
 44
0.1
 47
0.1
 48
0.1
 78
     7
 79
     2
140
0.12
141
0.0
146
0.71
147
0.06
176
   256
177
   256
178
     2
274
     4
284
     7
288
     1
289
     0
340
11
371
    -1
372
    -1
  0
DIMSTYLE
105
5260
330
A
100
AcDbSymbolTableRecord
100
AcDbDimStyleTableRecord
  2
AM_ANSI$SF
 70
     0
  4
mm
 41
0.1
 42
0.05
 43
0.5
 44
0.1
 47
0.1
 48
0.1
 75
     1
 76
     1
 78
     7
 79
     2
140
0.12
141
0.0
146
0.71
147
0.06
176
   256
177
   256
178
     2
274
     4
284
     7
340
11
371
    -1
372
    -1
  0
DIMSTYLE
105
5261
330
A
100
AcDbSymbolTableRecord
100
AcDbDimStyleTableRecord
  2
AM_ANSI$SH
 70
     0
  4
mm
 41
0.1
 42
0.05
 43
0.5
 44
0.1
 47
0.1
 48
0.1
 75
     1
 76
     1
 78
     7
 79
     2
140
0.12
141
0.0
146
0.71
147
0.06
173
     1
176
   256
177
   256
178
     2
274
     4
284
     7
340
11
343
3E00
371
    -1
372
    -1
  0
ENDTAB
  0
TABLE
  2
BLOCK_RECORD
  5
1
330
0
100
AcDbSymbolTable
 70
    37
  0
BLOCK_RECORD
  5
1F
102
{ACAD_XDICTIONARY
360
3D23
102
}
330
1
100
AcDbSymbolTableRecord
100
AcDbBlockTableRecord
  2
*Model_Space
340
22
  0
BLOCK_RECORD
  5
1B
102
{ACAD_XDICTIONARY
360
3D25
102
}
330
1
100
AcDbSymbolTableRecord
100
AcDbBlockTableRecord
  2
*Paper_Space
340
1E
  0
BLOCK_RECORD
  5
23
102
{ACAD_XDICTIONARY
360
3D27
102
}
330
1
100
AcDbSymbolTableRecord
100
AcDbBlockTableRecord
  2
*Paper_Space0
340
26
  0
BLOCK_RECORD
  5
3E00
330
1
100
AcDbSymbolTableRecord
100
AcDbBlockTableRecord
  2
GENAXEH
340
0
  0
BLOCK_RECORD
  5
43A1
330
1
100
AcDbSymbolTableRecord
100
AcDbBlockTableRecord
  2
*D2
340
0
  0
BLOCK_RECORD
  5
43AD
330
1
100
AcDbSymbolTableRecord
100
AcDbBlockTableRecord
  2
*D3
340
0
  0
BLOCK_RECORD
  5
43B9
330
1
100
AcDbSymbolTableRecord
100
AcDbBlockTableRecord
  2
*D4
340
0
  0
BLOCK_RECORD
  5
43C5
330
1
100
AcDbSymbolTableRecord
100
AcDbBlockTableRecord
  2
*D5
340
0
  0
BLOCK_RECORD
  5
43D1
330
1
100
AcDbSymbolTableRecord
100
AcDbBlockTableRecord
  2
*D6
340
0
  0
BLOCK_RECORD
  5
43DD
330
1
100
AcDbSymbolTableRecord
100
AcDbBlockTableRecord
  2
*D7
340
0
  0
BLOCK_RECORD
  5
43E9
330
1
100
AcDbSymbolTableRecord
100
AcDbBlockTableRecord
  2
*D8
340
0
  0
BLOCK_RECORD
  5
43F5
330
1
100
AcDbSymbolTableRecord
100
AcDbBlockTableRecord
  2
*D9
340
0
  0
BLOCK_RECORD
  5
4401
330
1
100
AcDbSymbolTableRecord
100
AcDbBlockTableRecord
  2
*D10
340
0
  0
BLOCK_RECORD
  5
440F
330
1
100
AcDbSymbolTableRecord
100
AcDbBlockTableRecord
  2
*D11
340
0
  0
BLOCK_RECORD
  5
441B
330
1
100
AcDbSymbolTableRecord
100
AcDbBlockTableRecord
  2
*D12
340
0
  0
BLOCK_RECORD
  5
443F
330
1
100
AcDbSymbolTableRecord
100
AcDbBlockTableRecord
  2
*D13
340
0
  0
BLOCK_RECORD
  5
444B
330
1
100
AcDbSymbolTableRecord
100
AcDbBlockTableRecord
  2
*D14
340
0
  0
BLOCK_RECORD
  5
4457
330
1
100
AcDbSymbolTableRecord
100
AcDbBlockTableRecord
  2
*D15
340
0
  0
BLOCK_RECORD
  5
4463
330
1
100
AcDbSymbolTableRecord
100
AcDbBlockTableRecord
  2
*D16
340
0
  0
BLOCK_RECORD
  5
4471
330
1
100
AcDbSymbolTableRecord
100
AcDbBlockTableRecord
  2
*D17
340
0
  0
BLOCK_RECORD
  5
447D
330
1
100
AcDbSymbolTableRecord
100
AcDbBlockTableRecord
  2
*D18
340
0
  0
BLOCK_RECORD
  5
4489
330
1
100
AcDbSymbolTableRecord
100
AcDbBlockTableRecord
  2
*D19
340
0
  0
BLOCK_RECORD
  5
4495
330
1
100
AcDbSymbolTableRecord
100
AcDbBlockTableRecord
  2
*D20
340
0
  0
BLOCK_RECORD
  5
44A1
330
1
100
AcDbSymbolTableRecord
100
AcDbBlockTableRecord
  2
*D21
340
0
  0
BLOCK_RECORD
  5
44AD
330
1
100
AcDbSymbolTableRecord
100
AcDbBlockTableRecord
  2
*D22
340
0
  0
BLOCK_RECORD
  5
44B9
330
1
100
AcDbSymbolTableRecord
100
AcDbBlockTableRecord
  2
*D23
340
0
  0
BLOCK_RECORD
  5
44C7
330
1
100
AcDbSymbolTableRecord
100
AcDbBlockTableRecord
  2
*D24
340
0
  0
BLOCK_RECORD
  5
44D3
330
1
100
AcDbSymbolTableRecord
100
AcDbBlockTableRecord
  2
*D25
340
0
  0
BLOCK_RECORD
  5
44F7
330
1
100
AcDbSymbolTableRecord
100
AcDbBlockTableRecord
  2
*D26
340
0
  0
BLOCK_RECORD
  5
4503
330
1
100
AcDbSymbolTableRecord
100
AcDbBlockTableRecord
  2
*D27
340
0
  0
BLOCK_RECORD
  5
450F
330
1
100
AcDbSymbolTableRecord
100
AcDbBlockTableRecord
  2
*D28
340
0
  0
BLOCK_RECORD
  5
4A78
330
1
100
AcDbSymbolTableRecord
100
AcDbBlockTableRecord
  2
*D29
340
0
  0
BLOCK_RECORD
  5
4A84
330
1
100
AcDbSymbolTableRecord
100
AcDbBlockTableRecord
  2
*D30
340
0
  0
BLOCK_RECORD
  5
4A96
330
1
100
AcDbSymbolTableRecord
100
AcDbBlockTableRecord
  2
*D31
340
0
  0
BLOCK_RECORD
  5
4AA2
330
1
100
AcDbSymbolTableRecord
100
AcDbBlockTableRecord
  2
*D32
340
0
  0
BLOCK_RECORD
  5
4F6A
102
{ACAD_XDICTIONARY
360
4F6B
102
}
330
1
100
AcDbSymbolTableRecord
100
AcDbBlockTableRecord
  2
A$C5ECF147B
340
0
102
{BLKREFS
331
4F97
331
4FA5
331
4FA6
331
50F5
331
5103
331
5104
102
}
  0
BLOCK_RECORD
  5
528B
102
{ACAD_XDICTIONARY
360
5290
102
}
330
1
100
AcDbSymbolTableRecord
100
AcDbBlockTableRecord
  2
A$C1F6E6265
340
0
102
{BLKREFS
331
5294
331
5296
102
}
  0
ENDTAB
  0
ENDSEC
  0
SECTION
  2
BLOCKS
  0
BLOCK
  5
20
330
1F
100
AcDbEntity
  8
0
100
AcDbBlockBegin
  2
*Model_Space
 70
     0
 10
0.0
 20
0.0
 30
0.0
  3
*Model_Space
  1

  0
ENDBLK
  5
21
330
1F
100
AcDbEntity
  8
0
100
AcDbBlockEnd
  0
BLOCK
  5
1C
330
1B
100
AcDbEntity
 67
     1
  8
0
100
AcDbBlockBegin
  2
*Paper_Space
 70
     0
 10
0.0
 20
0.0
 30
0.0
  3
*Paper_Space
  1

  0
ENDBLK
  5
1D
330
1B
100
AcDbEntity
 67
     1
  8
0
100
AcDbBlockEnd
  0
BLOCK
  5
24
330
23
100
AcDbEntity
  8
0
100
AcDbBlockBegin
  2
*Paper_Space0
 70
     0
 10
0.0
 20
0.0
 30
0.0
  3
*Paper_Space0
  1

  0
ENDBLK
  5
25
330
23
100
AcDbEntity
  8
0
100
AcDbBlockEnd
  0
BLOCK
  5
3E02
330
3E00
100
AcDbEntity
  8
0
100
AcDbBlockBegin
  2
GENAXEH
 70
     0
 10
0.0
 20
0.0
 30
0.0
  3
GENAXEH
  1

  0
LINE
  5
3E01
330
3E00
100
AcDbEntity
  8
0
100
AcDbLine
 10
-1.0
 20
0.0
 30
0.0
 11
1.0
 21
0.0
 31
0.0
  0
ENDBLK
  5
3E03
330
3E00
100
AcDbEntity
  8
0
100
AcDbBlockEnd
  0
BLOCK
  5
43AB
330
43A1
100
AcDbEntity
  8
0
100
AcDbBlockBegin
  2
*D2
 70
     1
 10
0.0
 20
0.0
 30
0.0
  3
*D2
  1

  0
LINE
  5
51D7
330
43A1
100
AcDbEntity
  8
DIM
100
AcDbLine
 10
183.2072828809678
 20
148.6071068190502
 30
0.0
 11
183.2072828809678
 21
156.8120585829396
 31
0.0
  0
LINE
  5
51D8
330
43A1
100
AcDbEntity
  8
DIM
100
AcDbLine
 10
223.2072828809678
 20
148.6053387551761
 30
0.0
 11
223.2072828809678
 21
156.8120585829396
 31
0.0
  0
LINE
  5
51D9
330
43A1
100
AcDbEntity
  8
DIM
100
AcDbLine
 10
185.7072828809678
 20
155.3120585829397
 30
0.0
 11
220.7072828809678
 21
155.3120585829397
 31
0.0
  0
SOLID
  5
51DA
330
43A1
100
AcDbEntity
  8
DIM
100
AcDbTrace
 10
185.7072828809678
 20
155.7287252496063
 30
0.0
 11
185.7072828809678
 21
154.895391916273
 31
0.0
 12
183.2072828809678
 22
155.3120585829397
 32
0.0
 13
183.2072828809678
 23
155.3120585829397
 33
0.0
  0
SOLID
  5
51DB
330
43A1
100
AcDbEntity
  8
DIM
100
AcDbTrace
 10
220.7072828809678
 20
155.7287252496063
 30
0.0
 11
220.7072828809678
 21
154.895391916273
 31
0.0
 12
223.2072828809678
 22
155.3120585829397
 32
0.0
 13
223.2072828809678
 23
155.3120585829397
 33
0.0
  0
MTEXT
  5
51DC
330
43A1
100
AcDbEntity
  8
DIM
100
AcDbMText
 10
203.2072828809678
 20
157.5620585829397
 30
0.0
 40
2.5
 41
0.0
 71
     5
 72
     1
  1
\A1;□40
  7
dayus
 73
     1
 44
1.0
1001
ACAD
1000
MTEXTBEGIN
1070
    73
1070
     1
1070
    44
1040
1.0
1070
    74
1070
     0
1000
MTEXTEND
  0
POINT
  5
51DD
330
43A1
100
AcDbEntity
  8
Defpoints
 62
     0
100
AcDbPoint
 10
183.2072828809678
 20
147.1071068190502
 30
0.0
  0
POINT
  5
51DE
330
43A1
100
AcDbEntity
  8
Defpoints
 62
     0
100
AcDbPoint
 10
223.2072828809678
 20
147.1053387551761
 30
0.0
  0
POINT
  5
51DF
330
43A1
100
AcDbEntity
  8
Defpoints
 62
     0
100
AcDbPoint
 10
223.2072828809678
 20
155.3120585829397
 30
0.0
  0
ENDBLK
  5
43AC
330
43A1
100
AcDbEntity
  8
0
100
AcDbBlockEnd
  0
BLOCK
  5
43B7
330
43AD
100
AcDbEntity
  8
0
100
AcDbBlockBegin
  2
*D3
 70
     1
 10
0.0
 20
0.0
 30
0.0
  3
*D3
  1

  0
LINE
  5
51E0
330
43AD
100
AcDbEntity
  8
DIM
100
AcDbLine
 10
177.2055146607774
 20
144.8698393121667
 30
0.0
 11
177.2055146607774
 21
163.7001589948945
 31
0.0
  0
LINE
  5
51E1
330
43AD
100
AcDbEntity
  8
DIM
100
AcDbLine
 10
229.2055146607775
 20
144.8698393121668
 30
0.0
 11
229.2055146607775
 21
163.7001589948945
 31
0.0
  0
LINE
  5
51E2
330
43AD
100
AcDbEntity
  8
DIM
100
AcDbLine
 10
179.7055146607774
 20
162.2001589948945
 30
0.0
 11
226.7055146607774
 21
162.2001589948945
 31
0.0
  0
SOLID
  5
51E3
330
43AD
100
AcDbEntity
  8
DIM
100
AcDbTrace
 10
179.7055146607774
 20
162.6168256615611
 30
0.0
 11
179.7055146607774
 21
161.7834923282278
 31
0.0
 12
177.2055146607774
 22
162.2001589948945
 32
0.0
 13
177.2055146607774
 23
162.2001589948945
 33
0.0
  0
SOLID
  5
51E4
330
43AD
100
AcDbEntity
  8
DIM
100
AcDbTrace
 10
226.7055146607774
 20
162.6168256615611
 30
0.0
 11
226.7055146607774
 21
161.7834923282278
 31
0.0
 12
229.2055146607775
 22
162.2001589948945
 32
0.0
 13
229.2055146607775
 23
162.2001589948945
 33
0.0
  0
MTEXT
  5
51E5
330
43AD
100
AcDbEntity
  8
DIM
100
AcDbMText
 10
203.2055146607774
 20
164.4501589948945
 30
0.0
 40
2.5
 41
0.0
 71
     5
 72
     1
  1
\A1;□52
  7
dayus
 73
     1
 44
1.0
1001
ACAD
1000
MTEXTBEGIN
1070
    73
1070
     1
1070
    44
1040
1.0
1070
    74
1070
     0
1000
MTEXTEND
  0
POINT
  5
51E6
330
43AD
100
AcDbEntity
  8
Defpoints
 62
     0
100
AcDbPoint
 10
177.2055146607774
 20
143.3698393121667
 30
0.0
  0
POINT
  5
51E7
330
43AD
100
AcDbEntity
  8
Defpoints
 62
     0
100
AcDbPoint
 10
229.2055146607775
 20
143.3698393121668
 30
0.0
  0
POINT
  5
51E8
330
43AD
100
AcDbEntity
  8
Defpoints
 62
     0
100
AcDbPoint
 10
229.2055146607775
 20
162.2001589948945
 30
0.0
  0
ENDBLK
  5
43B8
330
43AD
100
AcDbEntity
  8
0
100
AcDbBlockEnd
  0
BLOCK
  5
43C3
330
43B9
100
AcDbEntity
  8
0
100
AcDbBlockBegin
  2
*D4
 70
     1
 10
0.0
 20
0.0
 30
0.0
  3
*D4
  1

  0
LINE
  5
51E9
330
43B9
100
AcDbEntity
  8
DIM
100
AcDbLine
 10
172.7055146607774
 20
128.4689370560843
 30
0.0
 11
172.7055146607774
 21
170.0513725952897
 31
0.0
  0
LINE
  5
51EA
330
43B9
100
AcDbEntity
  8
DIM
100
AcDbLine
 10
229.2055146607775
 20
144.869839312167
 30
0.0
 11
229.2055146607775
 21
170.0513725952897
 31
0.0
  0
LINE
  5
51EB
330
43B9
100
AcDbEntity
  8
DIM
100
AcDbLine
 10
175.2055146607774
 20
168.5513725952897
 30
0.0
 11
226.7055146607774
 21
168.5513725952897
 31
0.0
  0
SOLID
  5
51EC
330
43B9
100
AcDbEntity
  8
DIM
100
AcDbTrace
 10
175.2055146607774
 20
168.9680392619564
 30
0.0
 11
175.2055146607774
 21
168.134705928623
 31
0.0
 12
172.7055146607774
 22
168.5513725952897
 32
0.0
 13
172.7055146607774
 23
168.5513725952897
 33
0.0
  0
SOLID
  5
51ED
330
43B9
100
AcDbEntity
  8
DIM
100
AcDbTrace
 10
226.7055146607774
 20
168.9680392619564
 30
0.0
 11
226.7055146607774
 21
168.134705928623
 31
0.0
 12
229.2055146607775
 22
168.5513725952897
 32
0.0
 13
229.2055146607775
 23
168.5513725952897
 33
0.0
  0
MTEXT
  5
51EE
330
43B9
100
AcDbEntity
  8
DIM
100
AcDbMText
 10
200.9555146607775
 20
170.8013725952897
 30
0.0
 40
2.5
 41
0.0
 71
     5
 72
     1
  1
\A1;56.5
  7
dayus
 73
     1
 44
1.0
1001
ACAD
1000
MTEXTBEGIN
1070
    73
1070
     1
1070
    44
1040
1.0
1070
    74
1070
     0
1000
MTEXTEND
  0
POINT
  5
51EF
330
43B9
100
AcDbEntity
  8
Defpoints
 62
     0
100
AcDbPoint
 10
172.7055146607774
 20
126.9689370560843
 30
0.0
  0
POINT
  5
51F0
330
43B9
100
AcDbEntity
  8
Defpoints
 62
     0
100
AcDbPoint
 10
229.2055146607775
 20
143.369839312167
 30
0.0
  0
POINT
  5
51F1
330
43B9
100
AcDbEntity
  8
Defpoints
 62
     0
100
AcDbPoint
 10
229.2055146607775
 20
168.5513725952897
 30
0.0
  0
ENDBLK
  5
43C4
330
43B9
100
AcDbEntity
  8
0
100
AcDbBlockEnd
  0
BLOCK
  5
43CF
330
43C5
100
AcDbEntity
  8
0
100
AcDbBlockBegin
  2
*D5
 70
     1
 10
0.0
 20
0.0
 30
0.0
  3
*D5
  1

  0
LINE
  5
51F2
330
43C5
100
AcDbEntity
  8
DIM
100
AcDbLine
 10
196.2055146607777
 20
114.7589558887147
 30
0.0
 11
196.2055146607777
 21
81.91649092507006
 31
0.0
  0
LINE
  5
51F3
330
43C5
100
AcDbEntity
  8
DIM
100
AcDbLine
 10
210.2055146607777
 20
114.7589558887151
 30
0.0
 11
210.2055146607777
 21
81.91649092507006
 31
0.0
  0
LINE
  5
51F4
330
43C5
100
AcDbEntity
  8
DIM
100
AcDbLine
 10
198.7055146607777
 20
83.41649092507006
 30
0.0
 11
207.7055146607777
 21
83.41649092507006
 31
0.0
  0
SOLID
  5
51F5
330
43C5
100
AcDbEntity
  8
DIM
100
AcDbTrace
 10
198.7055146607777
 20
83.83315759173674
 30
0.0
 11
198.7055146607777
 21
82.99982425840338
 31
0.0
 12
196.2055146607777
 22
83.41649092507006
 32
0.0
 13
196.2055146607777
 23
83.41649092507006
 33
0.0
  0
SOLID
  5
51F6
330
43C5
100
AcDbEntity
  8
DIM
100
AcDbTrace
 10
207.7055146607777
 20
83.83315759173674
 30
0.0
 11
207.7055146607777
 21
82.99982425840338
 31
0.0
 12
210.2055146607777
 22
83.41649092507006
 32
0.0
 13
210.2055146607777
 23
83.41649092507006
 33
0.0
  0
MTEXT
  5
51F7
330
43C5
100
AcDbEntity
  8
DIM
100
AcDbMText
 10
203.2055146607777
 20
85.66649092507006
 30
0.0
 40
2.5
 41
0.0
 71
     5
 72
     1
  1
\A1;□14
  7
dayus
 73
     1
 44
1.0
1001
ACAD
1000
MTEXTBEGIN
1070
    73
1070
     1
1070
    44
1040
1.0
1070
    74
1070
     0
1000
MTEXTEND
  0
POINT
  5
51F8
330
43C5
100
AcDbEntity
  8
Defpoints
 62
     0
100
AcDbPoint
 10
196.2055146607777
 20
116.2589558887147
 30
0.0
  0
POINT
  5
51F9
330
43C5
100
AcDbEntity
  8
Defpoints
 62
     0
100
AcDbPoint
 10
210.2055146607777
 20
116.2589558887151
 30
0.0
  0
POINT
  5
51FA
330
43C5
100
AcDbEntity
  8
Defpoints
 62
     0
100
AcDbPoint
 10
210.2055146607777
 20
83.41649092507006
 30
0.0
  0
ENDBLK
  5
43D0
330
43C5
100
AcDbEntity
  8
0
100
AcDbBlockEnd
  0
BLOCK
  5
43DB
330
43D1
100
AcDbEntity
  8
0
100
AcDbBlockBegin
  2
*D6
 70
     1
 10
0.0
 20
0.0
 30
0.0
  3
*D6
  1

  0
LINE
  5
51FB
330
43D1
100
AcDbEntity
  8
DIM
100
AcDbLine
 10
171.2567334003938
 20
127.1025938425137
 30
0.0
 11
163.3277946108394
 21
127.1025938425137
 31
0.0
  0
LINE
  5
51FC
330
43D1
100
AcDbEntity
  8
DIM
100
AcDbLine
 10
171.2567334003936
 20
113.1612846273308
 30
0.0
 11
163.3277946108394
 21
113.1612846273308
 31
0.0
  0
LINE
  5
51FD
330
43D1
100
AcDbEntity
  8
DIM
100
AcDbLine
 10
164.8277946108394
 20
124.6025938425137
 30
0.0
 11
164.8277946108394
 21
115.6612846273308
 31
0.0
  0
SOLID
  5
51FE
330
43D1
100
AcDbEntity
  8
DIM
100
AcDbTrace
 10
164.4111279441727
 20
124.6025938425137
 30
0.0
 11
165.244461277506
 21
124.6025938425137
 31
0.0
 12
164.8277946108394
 22
127.1025938425137
 32
0.0
 13
164.8277946108394
 23
127.1025938425137
 33
0.0
  0
SOLID
  5
51FF
330
43D1
100
AcDbEntity
  8
DIM
100
AcDbTrace
 10
164.4111279441727
 20
115.6612846273308
 30
0.0
 11
165.244461277506
 21
115.6612846273308
 31
0.0
 12
164.8277946108394
 22
113.1612846273308
 32
0.0
 13
164.8277946108394
 23
113.1612846273308
 33
0.0
  0
MTEXT
  5
5200
330
43D1
100
AcDbEntity
  8
DIM
100
AcDbMText
 10
162.5777946108394
 20
120.1319392349223
 30
0.0
 40
2.5
 41
0.0
 71
     5
 72
     1
  1
\A1;14
  7
dayus
 11
0.0000000000000001
 21
1.0
 31
0.0
 73
     1
 44
1.0
1001
ACAD
1000
MTEXTBEGIN
1070
    73
1070
     1
1070
    44
1040
1.0
1070
    74
1070
     0
1000
MTEXTEND
  0
POINT
  5
5201
330
43D1
100
AcDbEntity
  8
Defpoints
 62
     0
100
AcDbPoint
 10
172.7567334003938
 20
127.1025938425137
 30
0.0
  0
POINT
  5
5202
330
43D1
100
AcDbEntity
  8
Defpoints
 62
     0
100
AcDbPoint
 10
172.7567334003936
 20
113.1612846273308
 30
0.0
  0
POINT
  5
5203
330
43D1
100
AcDbEntity
  8
Defpoints
 62
     0
100
AcDbPoint
 10
164.8277946108394
 20
113.1612846273308
 30
0.0
  0
ENDBLK
  5
43DC
330
43D1
100
AcDbEntity
  8
0
100
AcDbBlockEnd
  0
BLOCK
  5
43E7
330
43DD
100
AcDbEntity
  8
0
100
AcDbBlockBegin
  2
*D7
 70
     1
 10
0.0
 20
0.0
 30
0.0
  3
*D7
  1

  0
LINE
  5
5109
330
43DD
100
AcDbEntity
  8
DIM
100
AcDbLine
 10
107.9307948778298
 20
281.1974783631871
 30
0.0
 11
107.9307948778298
 21
290.1853558805836
 31
0.0
  0
LINE
  5
510A
330
43DD
100
AcDbEntity
  8
DIM
100
AcDbLine
 10
115.93079487783
 20
281.1974783631871
 30
0.0
 11
115.93079487783
 21
290.1853558805836
 31
0.0
  0
LINE
  5
510B
330
43DD
100
AcDbEntity
  8
DIM
100
AcDbLine
 10
110.4307948778298
 20
288.6853558805836
 30
0.0
 11
113.43079487783
 21
288.6853558805836
 31
0.0
  0
SOLID
  5
510C
330
43DD
100
AcDbEntity
  8
DIM
100
AcDbTrace
 10
110.4307948778298
 20
289.1020225472503
 30
0.0
 11
110.4307948778298
 21
288.2686892139169
 31
0.0
 12
107.9307948778298
 22
288.6853558805836
 32
0.0
 13
107.9307948778298
 23
288.6853558805836
 33
0.0
  0
SOLID
  5
510D
330
43DD
100
AcDbEntity
  8
DIM
100
AcDbTrace
 10
113.43079487783
 20
289.1020225472503
 30
0.0
 11
113.43079487783
 21
288.2686892139169
 31
0.0
 12
115.93079487783
 22
288.6853558805836
 32
0.0
 13
115.93079487783
 23
288.6853558805836
 33
0.0
  0
MTEXT
  5
510E
330
43DD
100
AcDbEntity
  8
DIM
100
AcDbMText
 10
111.9307948778299
 20
290.9353558805836
 30
0.0
 40
2.5
 41
0.0
 71
     5
 72
     1
  1
\A1;8
  7
dayus
 73
     1
 44
1.0
1001
ACAD
1000
MTEXTBEGIN
1070
    73
1070
     1
1070
    44
1040
1.0
1070
    74
1070
     0
1000
MTEXTEND
  0
POINT
  5
510F
330
43DD
100
AcDbEntity
  8
Defpoints
 62
     0
100
AcDbPoint
 10
107.9307948778298
 20
279.6974783631871
 30
0.0
  0
POINT
  5
5110
330
43DD
100
AcDbEntity
  8
Defpoints
 62
     0
100
AcDbPoint
 10
115.93079487783
 20
279.6974783631871
 30
0.0
  0
POINT
  5
5111
330
43DD
100
AcDbEntity
  8
Defpoints
 62
     0
100
AcDbPoint
 10
115.93079487783
 20
288.6853558805836
 30
0.0
  0
ENDBLK
  5
43E8
330
43DD
100
AcDbEntity
  8
0
100
AcDbBlockEnd
  0
BLOCK
  5
43F3
330
43E9
100
AcDbEntity
  8
0
100
AcDbBlockBegin
  2
*D8
 70
     1
 10
0.0
 20
0.0
 30
0.0
  3
*D8
  1

  0
LINE
  5
5112
330
43E9
100
AcDbEntity
  8
DIM
100
AcDbLine
 10
100.9942122995739
 20
278.6711989215582
 30
0.0
 11
100.9942122995739
 21
296.4793897013717
 31
0.0
  0
LINE
  5
5113
330
43E9
100
AcDbEntity
  8
DIM
100
AcDbLine
 10
125.9942122995739
 20
277.4711989215582
 30
0.0
 11
125.9942122995739
 21
296.4793897013717
 31
0.0
  0
LINE
  5
5114
330
43E9
100
AcDbEntity
  8
DIM
100
AcDbLine
 10
103.494212299574
 20
294.9793897013717
 30
0.0
 11
123.494212299574
 21
294.9793897013717
 31
0.0
  0
SOLID
  5
5115
330
43E9
100
AcDbEntity
  8
DIM
100
AcDbTrace
 10
103.494212299574
 20
295.3960563680384
 30
0.0
 11
103.494212299574
 21
294.562723034705
 31
0.0
 12
100.9942122995739
 22
294.9793897013717
 32
0.0
 13
100.9942122995739
 23
294.9793897013717
 33
0.0
  0
SOLID
  5
5116
330
43E9
100
AcDbEntity
  8
DIM
100
AcDbTrace
 10
123.494212299574
 20
295.3960563680384
 30
0.0
 11
123.494212299574
 21
294.562723034705
 31
0.0
 12
125.9942122995739
 22
294.9793897013717
 32
0.0
 13
125.9942122995739
 23
294.9793897013717
 33
0.0
  0
MTEXT
  5
5117
330
43E9
100
AcDbEntity
  8
DIM
100
AcDbMText
 10
113.4942122995739
 20
297.2293897013717
 30
0.0
 40
2.5
 41
0.0
 71
     5
 72
     1
  1
\A1;25
  7
dayus
 73
     1
 44
1.0
1001
ACAD
1000
MTEXTBEGIN
1070
    73
1070
     1
1070
    44
1040
1.0
1070
    74
1070
     0
1000
MTEXTEND
  0
POINT
  5
5118
330
43E9
100
AcDbEntity
  8
Defpoints
 62
     0
100
AcDbPoint
 10
100.9942122995739
 20
277.1711989215583
 30
0.0
  0
POINT
  5
5119
330
43E9
100
AcDbEntity
  8
Defpoints
 62
     0
100
AcDbPoint
 10
125.9942122995739
 20
275.9711989215582
 30
0.0
  0
POINT
  5
511A
330
43E9
100
AcDbEntity
  8
Defpoints
 62
     0
100
AcDbPoint
 10
125.9942122995739
 20
294.9793897013717
 30
0.0
  0
ENDBLK
  5
43F4
330
43E9
100
AcDbEntity
  8
0
100
AcDbBlockEnd
  0
BLOCK
  5
43FF
330
43F5
100
AcDbEntity
  8
0
100
AcDbBlockBegin
  2
*D9
 70
     1
 10
0.0
 20
0.0
 30
0.0
  3
*D9
  1

  0
LINE
  5
511B
330
43F5
100
AcDbEntity
  8
DIM
100
AcDbLine
 10
97.99421229957397
 20
278.6711989215582
 30
0.0
 11
97.99421229957397
 21
302.8714929871663
 31
0.0
  0
LINE
  5
511C
330
43F5
100
AcDbEntity
  8
DIM
100
AcDbLine
 10
125.9942122995739
 20
277.4711989215583
 30
0.0
 11
125.9942122995739
 21
302.8714929871663
 31
0.0
  0
LINE
  5
511D
330
43F5
100
AcDbEntity
  8
DIM
100
AcDbLine
 10
100.494212299574
 20
301.3714929871663
 30
0.0
 11
123.494212299574
 21
301.3714929871663
 31
0.0
  0
SOLID
  5
511E
330
43F5
100
AcDbEntity
  8
DIM
100
AcDbTrace
 10
100.494212299574
 20
301.788159653833
 30
0.0
 11
100.494212299574
 21
300.9548263204996
 31
0.0
 12
97.99421229957397
 22
301.3714929871663
 32
0.0
 13
97.99421229957397
 23
301.3714929871663
 33
0.0
  0
SOLID
  5
511F
330
43F5
100
AcDbEntity
  8
DIM
100
AcDbTrace
 10
123.494212299574
 20
301.788159653833
 30
0.0
 11
123.494212299574
 21
300.9548263204996
 31
0.0
 12
125.9942122995739
 22
301.3714929871663
 32
0.0
 13
125.9942122995739
 23
301.3714929871663
 33
0.0
  0
MTEXT
  5
5120
330
43F5
100
AcDbEntity
  8
DIM
100
AcDbMText
 10
111.994212299574
 20
303.6214929871663
 30
0.0
 40
2.5
 41
0.0
 71
     5
 72
     1
  1
\A1;28
  7
dayus
 73
     1
 44
1.0
1001
ACAD
1000
MTEXTBEGIN
1070
    73
1070
     1
1070
    44
1040
1.0
1070
    74
1070
     0
1000
MTEXTEND
  0
POINT
  5
5121
330
43F5
100
AcDbEntity
  8
Defpoints
 62
     0
100
AcDbPoint
 10
97.99421229957397
 20
277.1711989215583
 30
0.0
  0
POINT
  5
5122
330
43F5
100
AcDbEntity
  8
Defpoints
 62
     0
100
AcDbPoint
 10
125.9942122995739
 20
275.9711989215583
 30
0.0
  0
POINT
  5
5123
330
43F5
100
AcDbEntity
  8
Defpoints
 62
     0
100
AcDbPoint
 10
125.9942122995739
 20
301.3714929871663
 30
0.0
  0
ENDBLK
  5
4400
330
43F5
100
AcDbEntity
  8
0
100
AcDbBlockEnd
  0
BLOCK
  5
440D
330
4401
100
AcDbEntity
  8
0
100
AcDbBlockBegin
  2
*D10
 70
     1
 10
0.0
 20
0.0
 30
0.0
  3
*D10
  1

  0
LINE
  5
5124
330
4401
100
AcDbEntity
  8
DIM
100
AcDbLine
 10
90.99421229957398
 20
297.6711989215581
 30
0.0
 11
90.99421229957398
 21
306.8513182695755
 31
0.0
  0
LINE
  5
5125
330
4401
100
AcDbEntity
  8
DIM
100
AcDbLine
 10
93.99421229957397
 20
284.6711989215582
 30
0.0
 11
93.99421229957397
 21
306.8513182695755
 31
0.0
  0
LINE
  5
5126
330
4401
100
AcDbEntity
  8
DIM
100
AcDbLine
 10
88.49421229957398
 20
305.3513182695756
 30
0.0
 11
85.99421229957398
 21
305.3513182695756
 31
0.0
  0
LINE
  5
5127
330
4401
100
AcDbEntity
  8
DIM
100
AcDbLine
 10
96.49421229957397
 20
305.3513182695756
 30
0.0
 11
98.99421229957397
 21
305.3513182695756
 31
0.0
  0
LINE
  5
5128
330
4401
100
AcDbEntity
  8
DIM
100
AcDbLine
 10
90.99421229957398
 20
305.3513182695756
 30
0.0
 11
93.99421229957397
 21
305.3513182695756
 31
0.0
  0
SOLID
  5
5129
330
4401
100
AcDbEntity
  8
DIM
100
AcDbTrace
 10
88.49421229957398
 20
305.7679849362422
 30
0.0
 11
88.49421229957398
 21
304.9346516029089
 31
0.0
 12
90.99421229957398
 22
305.3513182695756
 32
0.0
 13
90.99421229957398
 23
305.3513182695756
 33
0.0
  0
SOLID
  5
512A
330
4401
100
AcDbEntity
  8
DIM
100
AcDbTrace
 10
96.49421229957397
 20
305.7679849362422
 30
0.0
 11
96.49421229957397
 21
304.9346516029089
 31
0.0
 12
93.99421229957397
 22
305.3513182695756
 32
0.0
 13
93.99421229957397
 23
305.3513182695756
 33
0.0
  0
MTEXT
  5
512B
330
4401
100
AcDbEntity
  8
DIM
100
AcDbMText
 10
92.49421229957397
 20
307.6013182695755
 30
0.0
 40
2.5
 41
0.0
 71
     5
 72
     1
  1
\A1;3
  7
dayus
 73
     1
 44
1.0
1001
ACAD
1000
MTEXTBEGIN
1070
    73
1070
     1
1070
    44
1040
1.0
1070
    74
1070
     0
1000
MTEXTEND
  0
POINT
  5
512C
330
4401
100
AcDbEntity
  8
Defpoints
 62
     0
100
AcDbPoint
 10
90.99421229957398
 20
296.1711989215581
 30
0.0
  0
POINT
  5
512D
330
4401
100
AcDbEntity
  8
Defpoints
 62
     0
100
AcDbPoint
 10
93.99421229957397
 20
283.1711989215583
 30
0.0
  0
POINT
  5
512E
330
4401
100
AcDbEntity
  8
Defpoints
 62
     0
100
AcDbPoint
 10
93.99421229957397
 20
305.3513182695756
 30
0.0
  0
ENDBLK
  5
440E
330
4401
100
AcDbEntity
  8
0
100
AcDbBlockEnd
  0
BLOCK
  5
4419
330
440F
100
AcDbEntity
  8
0
100
AcDbBlockBegin
  2
*D11
 70
     1
 10
0.0
 20
0.0
 30
0.0
  3
*D11
  1

  0
LINE
  5
512F
330
440F
100
AcDbEntity
  8
DIM
100
AcDbLine
 10
59.99421229957397
 20
297.671198921558
 30
0.0
 11
59.99421229957397
 21
306.8513182695755
 31
0.0
  0
LINE
  5
5130
330
440F
100
AcDbEntity
  8
DIM
100
AcDbLine
 10
69.99421229957397
 20
275.8070882193275
 30
0.0
 11
69.99421229957397
 21
306.8513182695755
 31
0.0
  0
LINE
  5
5131
330
440F
100
AcDbEntity
  8
DIM
100
AcDbLine
 10
62.49421229957397
 20
305.3513182695756
 30
0.0
 11
67.49421229957397
 21
305.3513182695756
 31
0.0
  0
SOLID
  5
5132
330
440F
100
AcDbEntity
  8
DIM
100
AcDbTrace
 10
62.49421229957397
 20
305.7679849362422
 30
0.0
 11
62.49421229957397
 21
304.9346516029089
 31
0.0
 12
59.99421229957397
 22
305.3513182695756
 32
0.0
 13
59.99421229957397
 23
305.3513182695756
 33
0.0
  0
SOLID
  5
5133
330
440F
100
AcDbEntity
  8
DIM
100
AcDbTrace
 10
67.49421229957397
 20
305.7679849362422
 30
0.0
 11
67.49421229957397
 21
304.9346516029089
 31
0.0
 12
69.99421229957397
 22
305.3513182695756
 32
0.0
 13
69.99421229957397
 23
305.3513182695756
 33
0.0
  0
MTEXT
  5
5134
330
440F
100
AcDbEntity
  8
DIM
100
AcDbMText
 10
64.99421229957397
 20
307.6013182695755
 30
0.0
 40
2.5
 41
0.0
 71
     5
 72
     1
  1
\A1;10
  7
dayus
 73
     1
 44
1.0
1001
ACAD
1000
MTEXTBEGIN
1070
    73
1070
     1
1070
    44
1040
1.0
1070
    74
1070
     0
1000
MTEXTEND
  0
POINT
  5
5135
330
440F
100
AcDbEntity
  8
Defpoints
 62
     0
100
AcDbPoint
 10
59.99421229957397
 20
296.171198921558
 30
0.0
  0
POINT
  5
5136
330
440F
100
AcDbEntity
  8
Defpoints
 62
     0
100
AcDbPoint
 10
69.99421229957397
 20
274.3070882193275
 30
0.0
  0
POINT
  5
5137
330
440F
100
AcDbEntity
  8
Defpoints
 62
     0
100
AcDbPoint
 10
69.99421229957397
 20
305.3513182695756
 30
0.0
  0
ENDBLK
  5
441A
330
440F
100
AcDbEntity
  8
0
100
AcDbBlockEnd
  0
BLOCK
  5
4425
330
441B
100
AcDbEntity
  8
0
100
AcDbBlockBegin
  2
*D12
 70
     1
 10
0.0
 20
0.0
 30
0.0
  3
*D12
  1

  0
LINE
  5
5138
330
441B
100
AcDbEntity
  8
DIM
100
AcDbLine
 10
80.99421229957398
 20
275.8070882193275
 30
0.0
 11
80.99421229957398
 21
306.8513182695755
 31
0.0
  0
LINE
  5
5139
330
441B
100
AcDbEntity
  8
DIM
100
AcDbLine
 10
90.99421229957375
 20
297.6711989215581
 30
0.0
 11
90.99421229957375
 21
306.8513182695755
 31
0.0
  0
LINE
  5
513A
330
441B
100
AcDbEntity
  8
DIM
100
AcDbLine
 10
83.49421229957398
 20
305.3513182695756
 30
0.0
 11
88.49421229957375
 21
305.3513182695756
 31
0.0
  0
SOLID
  5
513B
330
441B
100
AcDbEntity
  8
DIM
100
AcDbTrace
 10
83.49421229957398
 20
305.7679849362422
 30
0.0
 11
83.49421229957398
 21
304.9346516029089
 31
0.0
 12
80.99421229957398
 22
305.3513182695756
 32
0.0
 13
80.99421229957398
 23
305.3513182695756
 33
0.0
  0
SOLID
  5
513C
330
441B
100
AcDbEntity
  8
DIM
100
AcDbTrace
 10
88.49421229957375
 20
305.7679849362422
 30
0.0
 11
88.49421229957375
 21
304.9346516029089
 31
0.0
 12
90.99421229957375
 22
305.3513182695756
 32
0.0
 13
90.99421229957375
 23
305.3513182695756
 33
0.0
  0
MTEXT
  5
513D
330
441B
100
AcDbEntity
  8
DIM
100
AcDbMText
 10
85.99421229957386
 20
307.6013182695755
 30
0.0
 40
2.5
 41
0.0
 71
     5
 72
     1
  1
\A1;10
  7
dayus
 73
     1
 44
1.0
1001
ACAD
1000
MTEXTBEGIN
1070
    73
1070
     1
1070
    44
1040
1.0
1070
    74
1070
     0
1000
MTEXTEND
  0
POINT
  5
513E
330
441B
100
AcDbEntity
  8
Defpoints
 62
     0
100
AcDbPoint
 10
80.99421229957398
 20
274.3070882193275
 30
0.0
  0
POINT
  5
513F
330
441B
100
AcDbEntity
  8
Defpoints
 62
     0
100
AcDbPoint
 10
90.99421229957375
 20
296.1711989215581
 30
0.0
  0
POINT
  5
5140
330
441B
100
AcDbEntity
  8
Defpoints
 62
     0
100
AcDbPoint
 10
90.99421229957375
 20
305.3513182695756
 30
0.0
  0
ENDBLK
  5
4426
330
441B
100
AcDbEntity
  8
0
100
AcDbBlockEnd
  0
BLOCK
  5
4449
330
443F
100
AcDbEntity
  8
0
100
AcDbBlockBegin
  2
*D13
 70
     1
 10
0.0
 20
0.0
 30
0.0
  3
*D13
  1

  0
LINE
  5
5141
330
443F
100
AcDbEntity
  8
DIM
100
AcDbLine
 10
90.99421229957398
 20
297.6711989215581
 30
0.0
 11
90.99421229957398
 21
313.7394186815304
 31
0.0
  0
LINE
  5
5142
330
443F
100
AcDbEntity
  8
DIM
100
AcDbLine
 10
125.9942122995739
 20
277.4711989215583
 30
0.0
 11
125.9942122995739
 21
313.7394186815304
 31
0.0
  0
LINE
  5
5143
330
443F
100
AcDbEntity
  8
DIM
100
AcDbLine
 10
93.49421229957398
 20
312.2394186815304
 30
0.0
 11
123.494212299574
 21
312.2394186815304
 31
0.0
  0
SOLID
  5
5144
330
443F
100
AcDbEntity
  8
DIM
100
AcDbTrace
 10
93.49421229957398
 20
312.656085348197
 30
0.0
 11
93.49421229957398
 21
311.8227520148637
 31
0.0
 12
90.99421229957398
 22
312.2394186815304
 32
0.0
 13
90.99421229957398
 23
312.2394186815304
 33
0.0
  0
SOLID
  5
5145
330
443F
100
AcDbEntity
  8
DIM
100
AcDbTrace
 10
123.494212299574
 20
312.656085348197
 30
0.0
 11
123.494212299574
 21
311.8227520148637
 31
0.0
 12
125.9942122995739
 22
312.2394186815304
 32
0.0
 13
125.9942122995739
 23
312.2394186815304
 33
0.0
  0
MTEXT
  5
5146
330
443F
100
AcDbEntity
  8
DIM
100
AcDbMText
 10
108.4942122995739
 20
314.4894186815303
 30
0.0
 40
2.5
 41
0.0
 71
     5
 72
     1
  1
\A1;35
  7
dayus
 73
     1
 44
1.0
1001
ACAD
1000
MTEXTBEGIN
1070
    73
1070
     1
1070
    44
1040
1.0
1070
    74
1070
     0
1000
MTEXTEND
  0
POINT
  5
5147
330
443F
100
AcDbEntity
  8
Defpoints
 62
     0
100
AcDbPoint
 10
90.99421229957398
 20
296.1711989215581
 30
0.0
  0
POINT
  5
5148
330
443F
100
AcDbEntity
  8
Defpoints
 62
     0
100
AcDbPoint
 10
125.9942122995739
 20
275.9711989215583
 30
0.0
  0
POINT
  5
5149
330
443F
100
AcDbEntity
  8
Defpoints
 62
     0
100
AcDbPoint
 10
125.9942122995739
 20
312.2394186815304
 30
0.0
  0
ENDBLK
  5
444A
330
443F
100
AcDbEntity
  8
0
100
AcDbBlockEnd
  0
BLOCK
  5
4455
330
444B
100
AcDbEntity
  8
0
100
AcDbBlockBegin
  2
*D14
 70
     1
 10
0.0
 20
0.0
 30
0.0
  3
*D14
  1

  0
LINE
  5
514A
330
444B
100
AcDbEntity
  8
DIM
100
AcDbLine
 10
95.49421229957374
 20
262.1711989215583
 30
0.0
 11
139.1200013873965
 21
262.1711989215582
 31
0.0
  0
LINE
  5
514B
330
444B
100
AcDbEntity
  8
DIM
100
AcDbLine
 10
95.49421229957397
 20
278.171198921558
 30
0.0
 11
139.1200013873965
 21
278.1711989215579
 31
0.0
  0
LINE
  5
514C
330
444B
100
AcDbEntity
  8
DIM
100
AcDbLine
 10
137.6200013873965
 20
264.6711989215582
 30
0.0
 11
137.6200013873965
 21
275.6711989215579
 31
0.0
  0
SOLID
  5
514D
330
444B
100
AcDbEntity
  8
DIM
100
AcDbTrace
 10
137.2033347207299
 20
264.6711989215582
 30
0.0
 11
138.0366680540632
 21
264.6711989215582
 31
0.0
 12
137.6200013873965
 22
262.1711989215582
 32
0.0
 13
137.6200013873965
 23
262.1711989215582
 33
0.0
  0
SOLID
  5
514E
330
444B
100
AcDbEntity
  8
DIM
100
AcDbTrace
 10
137.2033347207299
 20
275.6711989215579
 30
0.0
 11
138.0366680540632
 21
275.6711989215579
 31
0.0
 12
137.6200013873965
 22
278.1711989215579
 32
0.0
 13
137.6200013873965
 23
278.1711989215579
 33
0.0
  0
MTEXT
  5
514F
330
444B
100
AcDbEntity
  8
DIM
100
AcDbMText
 10
135.3700013873965
 20
270.1711989215581
 30
0.0
 40
2.5
 41
0.0
 71
     5
 72
     1
  1
\A1;%%c16
  7
dayus
 11
0.0000000000000001
 21
1.0
 31
0.0
 73
     1
 44
1.0
1001
ACAD
1000
MTEXTBEGIN
1070
    73
1070
     1
1070
    44
1040
1.0
1070
    74
1070
     0
1000
MTEXTEND
  0
POINT
  5
5150
330
444B
100
AcDbEntity
  8
Defpoints
 62
     0
100
AcDbPoint
 10
93.99421229957374
 20
262.1711989215583
 30
0.0
  0
POINT
  5
5151
330
444B
100
AcDbEntity
  8
Defpoints
 62
     0
100
AcDbPoint
 10
93.99421229957397
 20
278.171198921558
 30
0.0
  0
POINT
  5
5152
330
444B
100
AcDbEntity
  8
Defpoints
 62
     0
100
AcDbPoint
 10
137.6200013873965
 20
278.1711989215579
 30
0.0
  0
ENDBLK
  5
4456
330
444B
100
AcDbEntity
  8
0
100
AcDbBlockEnd
  0
BLOCK
  5
4461
330
4457
100
AcDbEntity
  8
0
100
AcDbBlockBegin
  2
*D15
 70
     1
 10
0.0
 20
0.0
 30
0.0
  3
*D15
  1

  0
LINE
  5
5153
330
4457
100
AcDbEntity
  8
DIM
100
AcDbLine
 10
94.49421229957398
 20
256.1711989215583
 30
0.0
 11
148.4152234825135
 21
256.1711989215582
 31
0.0
  0
LINE
  5
5154
330
4457
100
AcDbEntity
  8
DIM
100
AcDbLine
 10
94.49421229957398
 20
284.1711989215582
 30
0.0
 11
148.4152234825135
 21
284.1711989215582
 31
0.0
  0
LINE
  5
5155
330
4457
100
AcDbEntity
  8
DIM
100
AcDbLine
 10
146.9152234825135
 20
258.6711989215582
 30
0.0
 11
146.9152234825135
 21
281.6711989215582
 31
0.0
  0
SOLID
  5
5156
330
4457
100
AcDbEntity
  8
DIM
100
AcDbTrace
 10
146.4985568158468
 20
258.6711989215582
 30
0.0
 11
147.3318901491802
 21
258.6711989215582
 31
0.0
 12
146.9152234825135
 22
256.1711989215582
 32
0.0
 13
146.9152234825135
 23
256.1711989215582
 33
0.0
  0
SOLID
  5
5157
330
4457
100
AcDbEntity
  8
DIM
100
AcDbTrace
 10
146.4985568158468
 20
281.6711989215582
 30
0.0
 11
147.3318901491802
 21
281.6711989215582
 31
0.0
 12
146.9152234825135
 22
284.1711989215582
 32
0.0
 13
146.9152234825135
 23
284.1711989215582
 33
0.0
  0
MTEXT
  5
5158
330
4457
100
AcDbEntity
  8
DIM
100
AcDbMText
 10
143.8443901491801
 20
270.1711989215582
 30
0.0
 40
2.5
 41
0.0
 71
     5
 72
     1
  1
\A1;%%c28{}{\H0.71x;\C3;\S 0^ -0.05;}
  7
dayus
 11
0.0000000000000001
 21
1.0
 31
0.0
 73
     1
 44
1.0
1001
ACAD
1000
MTEXTBEGIN
1070
    73
1070
     1
1070
    44
1040
1.0
1070
    74
1070
     0
1000
MTEXTEND
  0
POINT
  5
5159
330
4457
100
AcDbEntity
  8
Defpoints
 62
     0
100
AcDbPoint
 10
92.99421229957397
 20
256.1711989215583
 30
0.0
  0
POINT
  5
515A
330
4457
100
AcDbEntity
  8
Defpoints
 62
     0
100
AcDbPoint
 10
92.99421229957397
 20
284.1711989215582
 30
0.0
  0
POINT
  5
515B
330
4457
100
AcDbEntity
  8
Defpoints
 62
     0
100
AcDbPoint
 10
146.9152234825135
 20
284.1711989215582
 30
0.0
  0
ENDBLK
  5
4462
330
4457
100
AcDbEntity
  8
0
100
AcDbBlockEnd
  0
BLOCK
  5
446F
330
4463
100
AcDbEntity
  8
0
100
AcDbBlockBegin
  2
*D16
 70
     1
 10
0.0
 20
0.0
 30
0.0
  3
*D16
  1

  0
LINE
  5
515C
330
4463
100
AcDbEntity
  8
DIM
100
AcDbLine
 10
94.99421229957375
 20
264.7982155753509
 30
0.0
 11
94.99421229957375
 21
247.5942076924097
 31
0.0
  0
LINE
  5
515D
330
4463
100
AcDbEntity
  8
DIM
100
AcDbLine
 10
97.99421229957397
 20
261.6711989215582
 30
0.0
 11
97.99421229957397
 21
247.5942076924097
 31
0.0
  0
LINE
  5
515E
330
4463
100
AcDbEntity
  8
DIM
100
AcDbLine
 10
92.49421229957375
 20
249.0942076924097
 30
0.0
 11
89.99421229957375
 21
249.0942076924097
 31
0.0
  0
LINE
  5
515F
330
4463
100
AcDbEntity
  8
DIM
100
AcDbLine
 10
100.494212299574
 20
249.0942076924097
 30
0.0
 11
102.9942122995739
 21
249.0942076924097
 31
0.0
  0
LINE
  5
5160
330
4463
100
AcDbEntity
  8
DIM
100
AcDbLine
 10
94.99421229957375
 20
249.0942076924097
 30
0.0
 11
97.99421229957397
 21
249.0942076924097
 31
0.0
  0
SOLID
  5
5161
330
4463
100
AcDbEntity
  8
DIM
100
AcDbTrace
 10
92.49421229957375
 20
249.5108743590763
 30
0.0
 11
92.49421229957375
 21
248.677541025743
 31
0.0
 12
94.99421229957375
 22
249.0942076924097
 32
0.0
 13
94.99421229957375
 23
249.0942076924097
 33
0.0
  0
SOLID
  5
5162
330
4463
100
AcDbEntity
  8
DIM
100
AcDbTrace
 10
100.494212299574
 20
249.5108743590763
 30
0.0
 11
100.494212299574
 21
248.677541025743
 31
0.0
 12
97.99421229957397
 22
249.0942076924097
 32
0.0
 13
97.99421229957397
 23
249.0942076924097
 33
0.0
  0
MTEXT
  5
5163
330
4463
100
AcDbEntity
  8
DIM
100
AcDbMText
 10
96.49421229957386
 20
251.3442076924097
 30
0.0
 40
2.5
 41
0.0
 71
     5
 72
     1
  1
\A1;3
  7
dayus
 73
     1
 44
1.0
1001
ACAD
1000
MTEXTBEGIN
1070
    73
1070
     1
1070
    44
1040
1.0
1070
    74
1070
     0
1000
MTEXTEND
  0
POINT
  5
5164
330
4463
100
AcDbEntity
  8
Defpoints
 62
     0
100
AcDbPoint
 10
94.99421229957375
 20
266.2982155753509
 30
0.0
  0
POINT
  5
5165
330
4463
100
AcDbEntity
  8
Defpoints
 62
     0
100
AcDbPoint
 10
97.99421229957397
 20
263.1711989215582
 30
0.0
  0
POINT
  5
5166
330
4463
100
AcDbEntity
  8
Defpoints
 62
     0
100
AcDbPoint
 10
97.99421229957397
 20
249.0942076924097
 30
0.0
  0
ENDBLK
  5
4470
330
4463
100
AcDbEntity
  8
0
100
AcDbBlockEnd
  0
BLOCK
  5
447B
330
4471
100
AcDbEntity
  8
0
100
AcDbBlockBegin
  2
*D17
 70
     1
 10
0.0
 20
0.0
 30
0.0
  3
*D17
  1

  0
LINE
  5
5167
330
4471
100
AcDbEntity
  8
DIM
100
AcDbLine
 10
183.2072828809678
 20
298.6463665056861
 30
0.0
 11
183.2072828809678
 21
306.8513182695755
 31
0.0
  0
LINE
  5
5168
330
4471
100
AcDbEntity
  8
DIM
100
AcDbLine
 10
223.2072828809678
 20
298.644598441812
 30
0.0
 11
223.2072828809678
 21
306.8513182695755
 31
0.0
  0
LINE
  5
5169
330
4471
100
AcDbEntity
  8
DIM
100
AcDbLine
 10
185.7072828809678
 20
305.3513182695756
 30
0.0
 11
220.7072828809678
 21
305.3513182695756
 31
0.0
  0
SOLID
  5
516A
330
4471
100
AcDbEntity
  8
DIM
100
AcDbTrace
 10
185.7072828809678
 20
305.7679849362422
 30
0.0
 11
185.7072828809678
 21
304.9346516029089
 31
0.0
 12
183.2072828809678
 22
305.3513182695756
 32
0.0
 13
183.2072828809678
 23
305.3513182695756
 33
0.0
  0
SOLID
  5
516B
330
4471
100
AcDbEntity
  8
DIM
100
AcDbTrace
 10
220.7072828809678
 20
305.7679849362422
 30
0.0
 11
220.7072828809678
 21
304.9346516029089
 31
0.0
 12
223.2072828809678
 22
305.3513182695756
 32
0.0
 13
223.2072828809678
 23
305.3513182695756
 33
0.0
  0
MTEXT
  5
516C
330
4471
100
AcDbEntity
  8
DIM
100
AcDbMText
 10
203.2072828809678
 20
307.6013182695755
 30
0.0
 40
2.5
 41
0.0
 71
     5
 72
     1
  1
\A1;□40
  7
dayus
 73
     1
 44
1.0
1001
ACAD
1000
MTEXTBEGIN
1070
    73
1070
     1
1070
    44
1040
1.0
1070
    74
1070
     0
1000
MTEXTEND
  0
POINT
  5
516D
330
4471
100
AcDbEntity
  8
Defpoints
 62
     0
100
AcDbPoint
 10
183.2072828809678
 20
297.1463665056861
 30
0.0
  0
POINT
  5
516E
330
4471
100
AcDbEntity
  8
Defpoints
 62
     0
100
AcDbPoint
 10
223.2072828809678
 20
297.144598441812
 30
0.0
  0
POINT
  5
516F
330
4471
100
AcDbEntity
  8
Defpoints
 62
     0
100
AcDbPoint
 10
223.2072828809678
 20
305.3513182695756
 30
0.0
  0
ENDBLK
  5
447C
330
4471
100
AcDbEntity
  8
0
100
AcDbBlockEnd
  0
BLOCK
  5
4487
330
447D
100
AcDbEntity
  8
0
100
AcDbBlockBegin
  2
*D18
 70
     1
 10
0.0
 20
0.0
 30
0.0
  3
*D18
  1

  0
LINE
  5
5170
330
447D
100
AcDbEntity
  8
DIM
100
AcDbLine
 10
177.2055146607774
 20
294.9090989988026
 30
0.0
 11
177.2055146607774
 21
313.7394186815304
 31
0.0
  0
LINE
  5
5171
330
447D
100
AcDbEntity
  8
DIM
100
AcDbLine
 10
229.2055146607775
 20
294.9090989988027
 30
0.0
 11
229.2055146607775
 21
313.7394186815304
 31
0.0
  0
LINE
  5
5172
330
447D
100
AcDbEntity
  8
DIM
100
AcDbLine
 10
179.7055146607774
 20
312.2394186815304
 30
0.0
 11
226.7055146607774
 21
312.2394186815304
 31
0.0
  0
SOLID
  5
5173
330
447D
100
AcDbEntity
  8
DIM
100
AcDbTrace
 10
179.7055146607774
 20
312.656085348197
 30
0.0
 11
179.7055146607774
 21
311.8227520148637
 31
0.0
 12
177.2055146607774
 22
312.2394186815304
 32
0.0
 13
177.2055146607774
 23
312.2394186815304
 33
0.0
  0
SOLID
  5
5174
330
447D
100
AcDbEntity
  8
DIM
100
AcDbTrace
 10
226.7055146607774
 20
312.656085348197
 30
0.0
 11
226.7055146607774
 21
311.8227520148637
 31
0.0
 12
229.2055146607775
 22
312.2394186815304
 32
0.0
 13
229.2055146607775
 23
312.2394186815304
 33
0.0
  0
MTEXT
  5
5175
330
447D
100
AcDbEntity
  8
DIM
100
AcDbMText
 10
203.2055146607774
 20
314.4894186815303
 30
0.0
 40
2.5
 41
0.0
 71
     5
 72
     1
  1
\A1;□52
  7
dayus
 73
     1
 44
1.0
1001
ACAD
1000
MTEXTBEGIN
1070
    73
1070
     1
1070
    44
1040
1.0
1070
    74
1070
     0
1000
MTEXTEND
  0
POINT
  5
5176
330
447D
100
AcDbEntity
  8
Defpoints
 62
     0
100
AcDbPoint
 10
177.2055146607774
 20
293.4090989988026
 30
0.0
  0
POINT
  5
5177
330
447D
100
AcDbEntity
  8
Defpoints
 62
     0
100
AcDbPoint
 10
229.2055146607775
 20
293.4090989988027
 30
0.0
  0
POINT
  5
5178
330
447D
100
AcDbEntity
  8
Defpoints
 62
     0
100
AcDbPoint
 10
229.2055146607775
 20
312.2394186815304
 30
0.0
  0
ENDBLK
  5
4488
330
447D
100
AcDbEntity
  8
0
100
AcDbBlockEnd
  0
BLOCK
  5
4493
330
4489
100
AcDbEntity
  8
0
100
AcDbBlockBegin
  2
*D19
 70
     1
 10
0.0
 20
0.0
 30
0.0
  3
*D19
  1

  0
LINE
  5
5179
330
4489
100
AcDbEntity
  8
DIM
100
AcDbLine
 10
172.7055146607774
 20
278.5081967427202
 30
0.0
 11
172.7055146607774
 21
320.0906322819256
 31
0.0
  0
LINE
  5
517A
330
4489
100
AcDbEntity
  8
DIM
100
AcDbLine
 10
229.2055146607775
 20
294.9090989988028
 30
0.0
 11
229.2055146607775
 21
320.0906322819256
 31
0.0
  0
LINE
  5
517B
330
4489
100
AcDbEntity
  8
DIM
100
AcDbLine
 10
175.2055146607774
 20
318.5906322819256
 30
0.0
 11
226.7055146607774
 21
318.5906322819256
 31
0.0
  0
SOLID
  5
517C
330
4489
100
AcDbEntity
  8
DIM
100
AcDbTrace
 10
175.2055146607774
 20
319.0072989485923
 30
0.0
 11
175.2055146607774
 21
318.1739656152589
 31
0.0
 12
172.7055146607774
 22
318.5906322819256
 32
0.0
 13
172.7055146607774
 23
318.5906322819256
 33
0.0
  0
SOLID
  5
517D
330
4489
100
AcDbEntity
  8
DIM
100
AcDbTrace
 10
226.7055146607774
 20
319.0072989485923
 30
0.0
 11
226.7055146607774
 21
318.1739656152589
 31
0.0
 12
229.2055146607775
 22
318.5906322819256
 32
0.0
 13
229.2055146607775
 23
318.5906322819256
 33
0.0
  0
MTEXT
  5
517E
330
4489
100
AcDbEntity
  8
DIM
100
AcDbMText
 10
200.9555146607775
 20
320.8406322819256
 30
0.0
 40
2.5
 41
0.0
 71
     5
 72
     1
  1
\A1;56.5
  7
dayus
 73
     1
 44
1.0
1001
ACAD
1000
MTEXTBEGIN
1070
    73
1070
     1
1070
    44
1040
1.0
1070
    74
1070
     0
1000
MTEXTEND
  0
POINT
  5
517F
330
4489
100
AcDbEntity
  8
Defpoints
 62
     0
100
AcDbPoint
 10
172.7055146607774
 20
277.0081967427202
 30
0.0
  0
POINT
  5
5180
330
4489
100
AcDbEntity
  8
Defpoints
 62
     0
100
AcDbPoint
 10
229.2055146607775
 20
293.4090989988028
 30
0.0
  0
POINT
  5
5181
330
4489
100
AcDbEntity
  8
Defpoints
 62
     0
100
AcDbPoint
 10
229.2055146607775
 20
318.5906322819256
 30
0.0
  0
ENDBLK
  5
4494
330
4489
100
AcDbEntity
  8
0
100
AcDbBlockEnd
  0
BLOCK
  5
449F
330
4495
100
AcDbEntity
  8
0
100
AcDbBlockBegin
  2
*D20
 70
     1
 10
0.0
 20
0.0
 30
0.0
  3
*D20
  1

  0
LINE
  5
5182
330
4495
100
AcDbEntity
  8
DIM
100
AcDbLine
 10
196.2055146607774
 20
264.7982155753508
 30
0.0
 11
196.2055146607774
 21
231.9557506117062
 31
0.0
  0
LINE
  5
5183
330
4495
100
AcDbEntity
  8
DIM
100
AcDbLine
 10
210.2055146607774
 20
264.7982155753513
 30
0.0
 11
210.2055146607774
 21
231.9557506117062
 31
0.0
  0
LINE
  5
5184
330
4495
100
AcDbEntity
  8
DIM
100
AcDbLine
 10
198.7055146607774
 20
233.4557506117061
 30
0.0
 11
207.7055146607774
 21
233.4557506117061
 31
0.0
  0
SOLID
  5
5185
330
4495
100
AcDbEntity
  8
DIM
100
AcDbTrace
 10
198.7055146607774
 20
233.8724172783728
 30
0.0
 11
198.7055146607774
 21
233.0390839450395
 31
0.0
 12
196.2055146607774
 22
233.4557506117061
 32
0.0
 13
196.2055146607774
 23
233.4557506117061
 33
0.0
  0
SOLID
  5
5186
330
4495
100
AcDbEntity
  8
DIM
100
AcDbTrace
 10
207.7055146607774
 20
233.8724172783728
 30
0.0
 11
207.7055146607774
 21
233.0390839450395
 31
0.0
 12
210.2055146607774
 22
233.4557506117061
 32
0.0
 13
210.2055146607774
 23
233.4557506117061
 33
0.0
  0
MTEXT
  5
5187
330
4495
100
AcDbEntity
  8
DIM
100
AcDbMText
 10
203.2055146607774
 20
235.7057506117062
 30
0.0
 40
2.5
 41
0.0
 71
     5
 72
     1
  1
\A1;□14
  7
dayus
 73
     1
 44
1.0
1001
ACAD
1000
MTEXTBEGIN
1070
    73
1070
     1
1070
    44
1040
1.0
1070
    74
1070
     0
1000
MTEXTEND
  0
POINT
  5
5188
330
4495
100
AcDbEntity
  8
Defpoints
 62
     0
100
AcDbPoint
 10
196.2055146607774
 20
266.2982155753508
 30
0.0
  0
POINT
  5
5189
330
4495
100
AcDbEntity
  8
Defpoints
 62
     0
100
AcDbPoint
 10
210.2055146607774
 20
266.2982155753513
 30
0.0
  0
POINT
  5
518A
330
4495
100
AcDbEntity
  8
Defpoints
 62
     0
100
AcDbPoint
 10
210.2055146607774
 20
233.4557506117061
 30
0.0
  0
ENDBLK
  5
44A0
330
4495
100
AcDbEntity
  8
0
100
AcDbBlockEnd
  0
BLOCK
  5
44AB
330
44A1
100
AcDbEntity
  8
0
100
AcDbBlockBegin
  2
*D21
 70
     1
 10
0.0
 20
0.0
 30
0.0
  3
*D21
  1

  0
LINE
  5
518B
330
44A1
100
AcDbEntity
  8
DIM
100
AcDbLine
 10
171.2567334003937
 20
277.1418535291496
 30
0.0
 11
163.3277946108393
 21
277.1418535291496
 31
0.0
  0
LINE
  5
518C
330
44A1
100
AcDbEntity
  8
DIM
100
AcDbLine
 10
171.2567334003935
 20
263.2005443139667
 30
0.0
 11
163.3277946108393
 21
263.2005443139667
 31
0.0
  0
LINE
  5
518D
330
44A1
100
AcDbEntity
  8
DIM
100
AcDbLine
 10
164.8277946108393
 20
274.6418535291496
 30
0.0
 11
164.8277946108393
 21
265.7005443139667
 31
0.0
  0
SOLID
  5
518E
330
44A1
100
AcDbEntity
  8
DIM
100
AcDbTrace
 10
164.4111279441727
 20
274.6418535291496
 30
0.0
 11
165.244461277506
 21
274.6418535291496
 31
0.0
 12
164.8277946108393
 22
277.1418535291496
 32
0.0
 13
164.8277946108393
 23
277.1418535291496
 33
0.0
  0
SOLID
  5
518F
330
44A1
100
AcDbEntity
  8
DIM
100
AcDbTrace
 10
164.4111279441727
 20
265.7005443139667
 30
0.0
 11
165.244461277506
 21
265.7005443139667
 31
0.0
 12
164.8277946108393
 22
263.2005443139667
 32
0.0
 13
164.8277946108393
 23
263.2005443139667
 33
0.0
  0
MTEXT
  5
5190
330
44A1
100
AcDbEntity
  8
DIM
100
AcDbMText
 10
162.5777946108393
 20
270.1711989215582
 30
0.0
 40
2.5
 41
0.0
 71
     5
 72
     1
  1
\A1;14
  7
dayus
 11
0.0000000000000001
 21
1.0
 31
0.0
 73
     1
 44
1.0
1001
ACAD
1000
MTEXTBEGIN
1070
    73
1070
     1
1070
    44
1040
1.0
1070
    74
1070
     0
1000
MTEXTEND
  0
POINT
  5
5191
330
44A1
100
AcDbEntity
  8
Defpoints
 62
     0
100
AcDbPoint
 10
172.7567334003937
 20
277.1418535291496
 30
0.0
  0
POINT
  5
5192
330
44A1
100
AcDbEntity
  8
Defpoints
 62
     0
100
AcDbPoint
 10
172.7567334003935
 20
263.2005443139667
 30
0.0
  0
POINT
  5
5193
330
44A1
100
AcDbEntity
  8
Defpoints
 62
     0
100
AcDbPoint
 10
164.8277946108393
 20
263.2005443139667
 30
0.0
  0
ENDBLK
  5
44AC
330
44A1
100
AcDbEntity
  8
0
100
AcDbBlockEnd
  0
BLOCK
  5
44B7
330
44AD
100
AcDbEntity
  8
0
100
AcDbBlockBegin
  2
*D22
 70
     1
 10
0.0
 20
0.0
 30
0.0
  3
*D22
  1

  0
LINE
  5
5194
330
44AD
100
AcDbEntity
  8
DIM
100
AcDbLine
 10
90.99421229957375
 20
147.6319392349221
 30
0.0
 11
90.99421229957375
 21
160.5629359226049
 31
0.0
  0
LINE
  5
5195
330
44AD
100
AcDbEntity
  8
DIM
100
AcDbLine
 10
97.99421229957397
 20
128.6319392349222
 30
0.0
 11
97.99421229957397
 21
160.5629359226049
 31
0.0
  0
LINE
  5
5196
330
44AD
100
AcDbEntity
  8
DIM
100
AcDbLine
 10
93.49421229957375
 20
159.0629359226049
 30
0.0
 11
95.49421229957397
 21
159.0629359226049
 31
0.0
  0
SOLID
  5
5197
330
44AD
100
AcDbEntity
  8
DIM
100
AcDbTrace
 10
93.49421229957375
 20
159.4796025892716
 30
0.0
 11
93.49421229957375
 21
158.6462692559383
 31
0.0
 12
90.99421229957375
 22
159.0629359226049
 32
0.0
 13
90.99421229957375
 23
159.0629359226049
 33
0.0
  0
SOLID
  5
5198
330
44AD
100
AcDbEntity
  8
DIM
100
AcDbTrace
 10
95.49421229957397
 20
159.4796025892716
 30
0.0
 11
95.49421229957397
 21
158.6462692559383
 31
0.0
 12
97.99421229957397
 22
159.0629359226049
 32
0.0
 13
97.99421229957397
 23
159.0629359226049
 33
0.0
  0
MTEXT
  5
5199
330
44AD
100
AcDbEntity
  8
DIM
100
AcDbMText
 10
94.49421229957385
 20
161.3129359226049
 30
0.0
 40
2.5
 41
0.0
 71
     5
 72
     1
  1
\A1;7
  7
dayus
 73
     1
 44
1.0
1001
ACAD
1000
MTEXTBEGIN
1070
    73
1070
     1
1070
    44
1040
1.0
1070
    74
1070
     0
1000
MTEXTEND
  0
POINT
  5
519A
330
44AD
100
AcDbEntity
  8
Defpoints
 62
     0
100
AcDbPoint
 10
90.99421229957375
 20
146.131939234922
 30
0.0
  0
POINT
  5
519B
330
44AD
100
AcDbEntity
  8
Defpoints
 62
     0
100
AcDbPoint
 10
97.99421229957397
 20
127.1319392349222
 30
0.0
  0
POINT
  5
519C
330
44AD
100
AcDbEntity
  8
Defpoints
 62
     0
100
AcDbPoint
 10
97.99421229957397
 20
159.0629359226049
 30
0.0
  0
ENDBLK
  5
44B8
330
44AD
100
AcDbEntity
  8
0
100
AcDbBlockEnd
  0
BLOCK
  5
44C5
330
44B9
100
AcDbEntity
  8
0
100
AcDbBlockBegin
  2
*D23
 70
     1
 10
0.0
 20
0.0
 30
0.0
  3
*D23
  1

  0
LINE
  5
519D
330
44B9
100
AcDbEntity
  8
DIM
100
AcDbLine
 10
90.99421229957398
 20
147.6319392349221
 30
0.0
 11
90.99421229957398
 21
154.3201142074426
 31
0.0
  0
LINE
  5
519E
330
44B9
100
AcDbEntity
  8
DIM
100
AcDbLine
 10
93.99421229957397
 20
134.6319392349222
 30
0.0
 11
93.99421229957397
 21
154.3201142074426
 31
0.0
  0
LINE
  5
519F
330
44B9
100
AcDbEntity
  8
DIM
100
AcDbLine
 10
88.49421229957398
 20
152.8201142074426
 30
0.0
 11
85.99421229957398
 21
152.8201142074426
 31
0.0
  0
LINE
  5
51A0
330
44B9
100
AcDbEntity
  8
DIM
100
AcDbLine
 10
96.49421229957397
 20
152.8201142074426
 30
0.0
 11
98.99421229957397
 21
152.8201142074426
 31
0.0
  0
LINE
  5
51A1
330
44B9
100
AcDbEntity
  8
DIM
100
AcDbLine
 10
90.99421229957398
 20
152.8201142074426
 30
0.0
 11
93.99421229957397
 21
152.8201142074426
 31
0.0
  0
SOLID
  5
51A2
330
44B9
100
AcDbEntity
  8
DIM
100
AcDbTrace
 10
88.49421229957398
 20
153.2367808741092
 30
0.0
 11
88.49421229957398
 21
152.4034475407759
 31
0.0
 12
90.99421229957398
 22
152.8201142074426
 32
0.0
 13
90.99421229957398
 23
152.8201142074426
 33
0.0
  0
SOLID
  5
51A3
330
44B9
100
AcDbEntity
  8
DIM
100
AcDbTrace
 10
96.49421229957397
 20
153.2367808741092
 30
0.0
 11
96.49421229957397
 21
152.4034475407759
 31
0.0
 12
93.99421229957397
 22
152.8201142074426
 32
0.0
 13
93.99421229957397
 23
152.8201142074426
 33
0.0
  0
MTEXT
  5
51A4
330
44B9
100
AcDbEntity
  8
DIM
100
AcDbMText
 10
92.49421229957397
 20
155.0701142074426
 30
0.0
 40
2.5
 41
0.0
 71
     5
 72
     1
  1
\A1;3
  7
dayus
 73
     1
 44
1.0
1001
ACAD
1000
MTEXTBEGIN
1070
    73
1070
     1
1070
    44
1040
1.0
1070
    74
1070
     0
1000
MTEXTEND
  0
POINT
  5
51A5
330
44B9
100
AcDbEntity
  8
Defpoints
 62
     0
100
AcDbPoint
 10
90.99421229957398
 20
146.131939234922
 30
0.0
  0
POINT
  5
51A6
330
44B9
100
AcDbEntity
  8
Defpoints
 62
     0
100
AcDbPoint
 10
93.99421229957397
 20
133.1319392349222
 30
0.0
  0
POINT
  5
51A7
330
44B9
100
AcDbEntity
  8
Defpoints
 62
     0
100
AcDbPoint
 10
93.99421229957397
 20
152.8201142074426
 30
0.0
  0
ENDBLK
  5
44C6
330
44B9
100
AcDbEntity
  8
0
100
AcDbBlockEnd
  0
BLOCK
  5
44D1
330
44C7
100
AcDbEntity
  8
0
100
AcDbBlockBegin
  2
*D24
 70
     1
 10
0.0
 20
0.0
 30
0.0
  3
*D24
  1

  0
LINE
  5
51A8
330
44C7
100
AcDbEntity
  8
DIM
100
AcDbLine
 10
59.99421229957397
 20
147.631939234922
 30
0.0
 11
59.99421229957397
 21
154.3201142074426
 31
0.0
  0
LINE
  5
51A9
330
44C7
100
AcDbEntity
  8
DIM
100
AcDbLine
 10
69.99421229957397
 20
125.7678285326915
 30
0.0
 11
69.99421229957397
 21
154.3201142074426
 31
0.0
  0
LINE
  5
51AA
330
44C7
100
AcDbEntity
  8
DIM
100
AcDbLine
 10
62.49421229957397
 20
152.8201142074426
 30
0.0
 11
67.49421229957397
 21
152.8201142074426
 31
0.0
  0
SOLID
  5
51AB
330
44C7
100
AcDbEntity
  8
DIM
100
AcDbTrace
 10
62.49421229957397
 20
153.2367808741092
 30
0.0
 11
62.49421229957397
 21
152.4034475407759
 31
0.0
 12
59.99421229957397
 22
152.8201142074426
 32
0.0
 13
59.99421229957397
 23
152.8201142074426
 33
0.0
  0
SOLID
  5
51AC
330
44C7
100
AcDbEntity
  8
DIM
100
AcDbTrace
 10
67.49421229957397
 20
153.2367808741092
 30
0.0
 11
67.49421229957397
 21
152.4034475407759
 31
0.0
 12
69.99421229957397
 22
152.8201142074426
 32
0.0
 13
69.99421229957397
 23
152.8201142074426
 33
0.0
  0
MTEXT
  5
51AD
330
44C7
100
AcDbEntity
  8
DIM
100
AcDbMText
 10
64.99421229957397
 20
155.0701142074426
 30
0.0
 40
2.5
 41
0.0
 71
     5
 72
     1
  1
\A1;10
  7
dayus
 73
     1
 44
1.0
1001
ACAD
1000
MTEXTBEGIN
1070
    73
1070
     1
1070
    44
1040
1.0
1070
    74
1070
     0
1000
MTEXTEND
  0
POINT
  5
51AE
330
44C7
100
AcDbEntity
  8
Defpoints
 62
     0
100
AcDbPoint
 10
59.99421229957397
 20
146.131939234922
 30
0.0
  0
POINT
  5
51AF
330
44C7
100
AcDbEntity
  8
Defpoints
 62
     0
100
AcDbPoint
 10
69.99421229957397
 20
124.2678285326915
 30
0.0
  0
POINT
  5
51B0
330
44C7
100
AcDbEntity
  8
Defpoints
 62
     0
100
AcDbPoint
 10
69.99421229957397
 20
152.8201142074426
 30
0.0
  0
ENDBLK
  5
44D2
330
44C7
100
AcDbEntity
  8
0
100
AcDbBlockEnd
  0
BLOCK
  5
44DD
330
44D3
100
AcDbEntity
  8
0
100
AcDbBlockBegin
  2
*D25
 70
     1
 10
0.0
 20
0.0
 30
0.0
  3
*D25
  1

  0
LINE
  5
51B1
330
44D3
100
AcDbEntity
  8
DIM
100
AcDbLine
 10
80.99421229957398
 20
125.7678285326915
 30
0.0
 11
80.99421229957398
 21
154.3201142074426
 31
0.0
  0
LINE
  5
51B2
330
44D3
100
AcDbEntity
  8
DIM
100
AcDbLine
 10
90.99421229957375
 20
147.6319392349221
 30
0.0
 11
90.99421229957375
 21
154.3201142074426
 31
0.0
  0
LINE
  5
51B3
330
44D3
100
AcDbEntity
  8
DIM
100
AcDbLine
 10
83.49421229957398
 20
152.8201142074426
 30
0.0
 11
88.49421229957375
 21
152.8201142074426
 31
0.0
  0
SOLID
  5
51B4
330
44D3
100
AcDbEntity
  8
DIM
100
AcDbTrace
 10
83.49421229957398
 20
153.2367808741092
 30
0.0
 11
83.49421229957398
 21
152.4034475407759
 31
0.0
 12
80.99421229957398
 22
152.8201142074426
 32
0.0
 13
80.99421229957398
 23
152.8201142074426
 33
0.0
  0
SOLID
  5
51B5
330
44D3
100
AcDbEntity
  8
DIM
100
AcDbTrace
 10
88.49421229957375
 20
153.2367808741092
 30
0.0
 11
88.49421229957375
 21
152.4034475407759
 31
0.0
 12
90.99421229957375
 22
152.8201142074426
 32
0.0
 13
90.99421229957375
 23
152.8201142074426
 33
0.0
  0
MTEXT
  5
51B6
330
44D3
100
AcDbEntity
  8
DIM
100
AcDbMText
 10
85.99421229957386
 20
155.0701142074426
 30
0.0
 40
2.5
 41
0.0
 71
     5
 72
     1
  1
\A1;10
  7
dayus
 73
     1
 44
1.0
1001
ACAD
1000
MTEXTBEGIN
1070
    73
1070
     1
1070
    44
1040
1.0
1070
    74
1070
     0
1000
MTEXTEND
  0
POINT
  5
51B7
330
44D3
100
AcDbEntity
  8
Defpoints
 62
     0
100
AcDbPoint
 10
80.99421229957398
 20
124.2678285326915
 30
0.0
  0
POINT
  5
51B8
330
44D3
100
AcDbEntity
  8
Defpoints
 62
     0
100
AcDbPoint
 10
90.99421229957375
 20
146.131939234922
 30
0.0
  0
POINT
  5
51B9
330
44D3
100
AcDbEntity
  8
Defpoints
 62
     0
100
AcDbPoint
 10
90.99421229957375
 20
152.8201142074426
 30
0.0
  0
ENDBLK
  5
44DE
330
44D3
100
AcDbEntity
  8
0
100
AcDbBlockEnd
  0
BLOCK
  5
4501
330
44F7
100
AcDbEntity
  8
0
100
AcDbBlockBegin
  2
*D26
 70
     1
 10
0.0
 20
0.0
 30
0.0
  3
*D26
  1

  0
LINE
  5
51BA
330
44F7
100
AcDbEntity
  8
DIM
100
AcDbLine
 10
95.49421229957397
 20
112.1319392349223
 30
0.0
 11
110.3217869639224
 21
112.1319392349223
 31
0.0
  0
LINE
  5
51BB
330
44F7
100
AcDbEntity
  8
DIM
100
AcDbLine
 10
95.49421229957397
 20
128.1319392349222
 30
0.0
 11
110.3217869639224
 21
128.1319392349222
 31
0.0
  0
LINE
  5
51BC
330
44F7
100
AcDbEntity
  8
DIM
100
AcDbLine
 10
108.8217869639225
 20
114.6319392349223
 30
0.0
 11
108.8217869639225
 21
125.6319392349222
 31
0.0
  0
SOLID
  5
51BD
330
44F7
100
AcDbEntity
  8
DIM
100
AcDbTrace
 10
108.4051202972558
 20
114.6319392349223
 30
0.0
 11
109.2384536305891
 21
114.6319392349223
 31
0.0
 12
108.8217869639225
 22
112.1319392349223
 32
0.0
 13
108.8217869639225
 23
112.1319392349223
 33
0.0
  0
SOLID
  5
51BE
330
44F7
100
AcDbEntity
  8
DIM
100
AcDbTrace
 10
108.4051202972558
 20
125.6319392349222
 30
0.0
 11
109.2384536305891
 21
125.6319392349222
 31
0.0
 12
108.8217869639225
 22
128.1319392349222
 32
0.0
 13
108.8217869639225
 23
128.1319392349222
 33
0.0
  0
MTEXT
  5
51BF
330
44F7
100
AcDbEntity
  8
DIM
100
AcDbMText
 10
106.5717869639224
 20
120.1319392349222
 30
0.0
 40
2.5
 41
0.0
 71
     5
 72
     1
  1
\A1;%%c16
  7
dayus
 11
0.0000000000000001
 21
1.0
 31
0.0
 73
     1
 44
1.0
1001
ACAD
1000
MTEXTBEGIN
1070
    73
1070
     1
1070
    44
1040
1.0
1070
    74
1070
     0
1000
MTEXTEND
  0
POINT
  5
51C0
330
44F7
100
AcDbEntity
  8
Defpoints
 62
     0
100
AcDbPoint
 10
93.99421229957397
 20
112.1319392349223
 30
0.0
  0
POINT
  5
51C1
330
44F7
100
AcDbEntity
  8
Defpoints
 62
     0
100
AcDbPoint
 10
93.99421229957397
 20
128.1319392349222
 30
0.0
  0
POINT
  5
51C2
330
44F7
100
AcDbEntity
  8
Defpoints
 62
     0
100
AcDbPoint
 10
108.8217869639225
 20
128.1319392349222
 30
0.0
  0
ENDBLK
  5
4502
330
44F7
100
AcDbEntity
  8
0
100
AcDbBlockEnd
  0
BLOCK
  5
450D
330
4503
100
AcDbEntity
  8
0
100
AcDbBlockBegin
  2
*D27
 70
     1
 10
0.0
 20
0.0
 30
0.0
  3
*D27
  1

  0
LINE
  5
51C3
330
4503
100
AcDbEntity
  8
DIM
100
AcDbLine
 10
94.49421229957398
 20
134.1319392349222
 30
0.0
 11
120.0537608780075
 21
134.1319392349222
 31
0.0
  0
LINE
  5
51C4
330
4503
100
AcDbEntity
  8
DIM
100
AcDbLine
 10
94.49421229957398
 20
106.1319392349222
 30
0.0
 11
120.0537608780075
 21
106.1319392349222
 31
0.0
  0
LINE
  5
51C5
330
4503
100
AcDbEntity
  8
DIM
100
AcDbLine
 10
118.5537608780075
 20
131.6319392349222
 30
0.0
 11
118.5537608780075
 21
108.6319392349222
 31
0.0
  0
SOLID
  5
51C6
330
4503
100
AcDbEntity
  8
DIM
100
AcDbTrace
 10
118.1370942113409
 20
131.6319392349222
 30
0.0
 11
118.9704275446742
 21
131.6319392349222
 31
0.0
 12
118.5537608780075
 22
134.1319392349222
 32
0.0
 13
118.5537608780075
 23
134.1319392349222
 33
0.0
  0
SOLID
  5
51C7
330
4503
100
AcDbEntity
  8
DIM
100
AcDbTrace
 10
118.1370942113409
 20
108.6319392349222
 30
0.0
 11
118.9704275446742
 21
108.6319392349222
 31
0.0
 12
118.5537608780075
 22
106.1319392349222
 32
0.0
 13
118.5537608780075
 23
106.1319392349222
 33
0.0
  0
MTEXT
  5
51C8
330
4503
100
AcDbEntity
  8
DIM
100
AcDbMText
 10
115.4829275446742
 20
120.1319392349222
 30
0.0
 40
2.5
 41
0.0
 71
     5
 72
     1
  1
\A1;%%c28{}{\H0.71x;\C3;\S 0^ -0.05;}
  7
dayus
 11
0.0000000000000001
 21
1.0
 31
0.0
 73
     1
 44
1.0
1001
ACAD
1000
MTEXTBEGIN
1070
    73
1070
     1
1070
    44
1040
1.0
1070
    74
1070
     0
1000
MTEXTEND
  0
POINT
  5
51C9
330
4503
100
AcDbEntity
  8
Defpoints
 62
     0
100
AcDbPoint
 10
92.99421229957397
 20
134.1319392349222
 30
0.0
  0
POINT
  5
51CA
330
4503
100
AcDbEntity
  8
Defpoints
 62
     0
100
AcDbPoint
 10
92.99421229957397
 20
106.1319392349222
 30
0.0
  0
POINT
  5
51CB
330
4503
100
AcDbEntity
  8
Defpoints
 62
     0
100
AcDbPoint
 10
118.5537608780075
 20
106.1319392349222
 30
0.0
  0
ENDBLK
  5
450E
330
4503
100
AcDbEntity
  8
0
100
AcDbBlockEnd
  0
BLOCK
  5
451B
330
450F
100
AcDbEntity
  8
0
100
AcDbBlockBegin
  2
*D28
 70
     1
 10
0.0
 20
0.0
 30
0.0
  3
*D28
  1

  0
LINE
  5
51CC
330
450F
100
AcDbEntity
  8
DIM
100
AcDbLine
 10
94.99421229957375
 20
114.7589558887149
 30
0.0
 11
94.99421229957375
 21
97.03800788845613
 31
0.0
  0
LINE
  5
51CD
330
450F
100
AcDbEntity
  8
DIM
100
AcDbLine
 10
97.99421229957397
 20
111.6319392349223
 30
0.0
 11
97.99421229957397
 21
97.03800788845613
 31
0.0
  0
LINE
  5
51CE
330
450F
100
AcDbEntity
  8
DIM
100
AcDbLine
 10
92.49421229957375
 20
98.53800788845614
 30
0.0
 11
89.99421229957375
 21
98.53800788845614
 31
0.0
  0
LINE
  5
51CF
330
450F
100
AcDbEntity
  8
DIM
100
AcDbLine
 10
100.494212299574
 20
98.53800788845614
 30
0.0
 11
102.9942122995739
 21
98.53800788845614
 31
0.0
  0
LINE
  5
51D0
330
450F
100
AcDbEntity
  8
DIM
100
AcDbLine
 10
94.99421229957375
 20
98.53800788845614
 30
0.0
 11
97.99421229957397
 21
98.53800788845614
 31
0.0
  0
SOLID
  5
51D1
330
450F
100
AcDbEntity
  8
DIM
100
AcDbTrace
 10
92.49421229957375
 20
98.95467455512282
 30
0.0
 11
92.49421229957375
 21
98.12134122178946
 31
0.0
 12
94.99421229957375
 22
98.53800788845614
 32
0.0
 13
94.99421229957375
 23
98.53800788845614
 33
0.0
  0
SOLID
  5
51D2
330
450F
100
AcDbEntity
  8
DIM
100
AcDbTrace
 10
100.494212299574
 20
98.95467455512282
 30
0.0
 11
100.494212299574
 21
98.12134122178946
 31
0.0
 12
97.99421229957397
 22
98.53800788845614
 32
0.0
 13
97.99421229957397
 23
98.53800788845614
 33
0.0
  0
MTEXT
  5
51D3
330
450F
100
AcDbEntity
  8
DIM
100
AcDbMText
 10
96.49421229957386
 20
100.7880078884561
 30
0.0
 40
2.5
 41
0.0
 71
     5
 72
     1
  1
\A1;3
  7
dayus
 73
     1
 44
1.0
1001
ACAD
1000
MTEXTBEGIN
1070
    73
1070
     1
1070
    44
1040
1.0
1070
    74
1070
     0
1000
MTEXTEND
  0
POINT
  5
51D4
330
450F
100
AcDbEntity
  8
Defpoints
 62
     0
100
AcDbPoint
 10
94.99421229957375
 20
116.2589558887149
 30
0.0
  0
POINT
  5
51D5
330
450F
100
AcDbEntity
  8
Defpoints
 62
     0
100
AcDbPoint
 10
97.99421229957397
 20
113.1319392349223
 30
0.0
  0
POINT
  5
51D6
330
450F
100
AcDbEntity
  8
Defpoints
 62
     0
100
AcDbPoint
 10
97.99421229957397
 20
98.53800788845614
 30
0.0
  0
ENDBLK
  5
451C
330
450F
100
AcDbEntity
  8
0
100
AcDbBlockEnd
  0
BLOCK
  5
4A82
330
4A78
100
AcDbEntity
  8
0
100
AcDbBlockBegin
  2
*D29
 70
     1
 10
0.0
 20
0.0
 30
0.0
  3
*D29
  1

  0
LINE
  5
5204
330
4A78
100
AcDbEntity
  8
DIM
100
AcDbLine
 10
59.99421229957397
 20
297.671198921558
 30
0.0
 11
59.99421229957397
 21
313.7394186815304
 31
0.0
  0
LINE
  5
5205
330
4A78
100
AcDbEntity
  8
DIM
100
AcDbLine
 10
90.99421229957352
 20
297.6711989215581
 30
0.0
 11
90.99421229957352
 21
313.7394186815304
 31
0.0
  0
LINE
  5
5206
330
4A78
100
AcDbEntity
  8
DIM
100
AcDbLine
 10
62.49421229957397
 20
312.2394186815304
 30
0.0
 11
88.49421229957352
 21
312.2394186815304
 31
0.0
  0
SOLID
  5
5207
330
4A78
100
AcDbEntity
  8
DIM
100
AcDbTrace
 10
62.49421229957397
 20
312.656085348197
 30
0.0
 11
62.49421229957397
 21
311.8227520148637
 31
0.0
 12
59.99421229957397
 22
312.2394186815304
 32
0.0
 13
59.99421229957397
 23
312.2394186815304
 33
0.0
  0
SOLID
  5
5208
330
4A78
100
AcDbEntity
  8
DIM
100
AcDbTrace
 10
88.49421229957352
 20
312.656085348197
 30
0.0
 11
88.49421229957352
 21
311.8227520148637
 31
0.0
 12
90.99421229957352
 22
312.2394186815304
 32
0.0
 13
90.99421229957352
 23
312.2394186815304
 33
0.0
  0
MTEXT
  5
5209
330
4A78
100
AcDbEntity
  8
DIM
100
AcDbMText
 10
75.49421229957374
 20
314.4894186815303
 30
0.0
 40
2.5
 41
0.0
 71
     5
 72
     1
  1
\A1;26+stroke=S
  7
dayus
 73
     1
 44
1.0
1001
ACAD
1000
MTEXTBEGIN
1070
    73
1070
     1
1070
    44
1040
1.0
1070
    74
1070
     0
1000
MTEXTEND
  0
POINT
  5
520A
330
4A78
100
AcDbEntity
  8
Defpoints
 62
     0
100
AcDbPoint
 10
59.99421229957397
 20
296.171198921558
 30
0.0
  0
POINT
  5
520B
330
4A78
100
AcDbEntity
  8
Defpoints
 62
     0
100
AcDbPoint
 10
90.99421229957352
 20
296.1711989215581
 30
0.0
  0
POINT
  5
520C
330
4A78
100
AcDbEntity
  8
Defpoints
 62
     0
100
AcDbPoint
 10
90.99421229957352
 20
312.2394186815304
 30
0.0
  0
ENDBLK
  5
4A83
330
4A78
100
AcDbEntity
  8
0
100
AcDbBlockEnd
  0
BLOCK
  5
4A8E
330
4A84
100
AcDbEntity
  8
0
100
AcDbBlockBegin
  2
*D30
 70
     1
 10
0.0
 20
0.0
 30
0.0
  3
*D30
  1

  0
LINE
  5
520D
330
4A84
100
AcDbEntity
  8
DIM
100
AcDbLine
 10
59.99421229957397
 20
297.671198921558
 30
0.0
 11
59.99421229957397
 21
320.0906322819256
 31
0.0
  0
LINE
  5
520E
330
4A84
100
AcDbEntity
  8
DIM
100
AcDbLine
 10
125.9942122995737
 20
277.4711989215583
 30
0.0
 11
125.9942122995737
 21
320.0906322819256
 31
0.0
  0
LINE
  5
520F
330
4A84
100
AcDbEntity
  8
DIM
100
AcDbLine
 10
62.49421229957397
 20
318.5906322819256
 30
0.0
 11
123.4942122995737
 21
318.5906322819256
 31
0.0
  0
SOLID
  5
5210
330
4A84
100
AcDbEntity
  8
DIM
100
AcDbTrace
 10
62.49421229957397
 20
319.0072989485923
 30
0.0
 11
62.49421229957397
 21
318.1739656152589
 31
0.0
 12
59.99421229957397
 22
318.5906322819256
 32
0.0
 13
59.99421229957397
 23
318.5906322819256
 33
0.0
  0
SOLID
  5
5211
330
4A84
100
AcDbEntity
  8
DIM
100
AcDbTrace
 10
123.4942122995737
 20
319.0072989485923
 30
0.0
 11
123.4942122995737
 21
318.1739656152589
 31
0.0
 12
125.9942122995737
 22
318.5906322819256
 32
0.0
 13
125.9942122995737
 23
318.5906322819256
 33
0.0
  0
MTEXT
  5
5212
330
4A84
100
AcDbEntity
  8
DIM
100
AcDbMText
 10
92.99421229957387
 20
320.8406322819256
 30
0.0
 40
2.5
 41
0.0
 71
     5
 72
     1
  1
\A1;61+stroke=ZZ
  7
dayus
 73
     1
 44
1.0
1001
ACAD
1000
MTEXTBEGIN
1070
    73
1070
     1
1070
    44
1040
1.0
1070
    74
1070
     0
1000
MTEXTEND
  0
POINT
  5
5213
330
4A84
100
AcDbEntity
  8
Defpoints
 62
     0
100
AcDbPoint
 10
59.99421229957397
 20
296.171198921558
 30
0.0
  0
POINT
  5
5214
330
4A84
100
AcDbEntity
  8
Defpoints
 62
     0
100
AcDbPoint
 10
125.9942122995737
 20
275.9711989215583
 30
0.0
  0
POINT
  5
5215
330
4A84
100
AcDbEntity
  8
Defpoints
 62
     0
100
AcDbPoint
 10
125.9942122995737
 20
318.5906322819256
 30
0.0
  0
ENDBLK
  5
4A8F
330
4A84
100
AcDbEntity
  8
0
100
AcDbBlockEnd
  0
BLOCK
  5
4AA0
330
4A96
100
AcDbEntity
  8
0
100
AcDbBlockBegin
  2
*D31
 70
     1
 10
0.0
 20
0.0
 30
0.0
  3
*D31
  1

  0
LINE
  5
5216
330
4A96
100
AcDbEntity
  8
DIM
100
AcDbLine
 10
59.99421229957397
 20
147.631939234922
 30
0.0
 11
59.99421229957397
 21
160.5629359226049
 31
0.0
  0
LINE
  5
5217
330
4A96
100
AcDbEntity
  8
DIM
100
AcDbLine
 10
90.99421229957398
 20
147.6319392349221
 30
0.0
 11
90.99421229957398
 21
160.5629359226049
 31
0.0
  0
LINE
  5
5218
330
4A96
100
AcDbEntity
  8
DIM
100
AcDbLine
 10
62.49421229957397
 20
159.0629359226049
 30
0.0
 11
88.49421229957398
 21
159.0629359226049
 31
0.0
  0
SOLID
  5
5219
330
4A96
100
AcDbEntity
  8
DIM
100
AcDbTrace
 10
62.49421229957397
 20
159.4796025892716
 30
0.0
 11
62.49421229957397
 21
158.6462692559383
 31
0.0
 12
59.99421229957397
 22
159.0629359226049
 32
0.0
 13
59.99421229957397
 23
159.0629359226049
 33
0.0
  0
SOLID
  5
521A
330
4A96
100
AcDbEntity
  8
DIM
100
AcDbTrace
 10
88.49421229957398
 20
159.4796025892716
 30
0.0
 11
88.49421229957398
 21
158.6462692559383
 31
0.0
 12
90.99421229957398
 22
159.0629359226049
 32
0.0
 13
90.99421229957398
 23
159.0629359226049
 33
0.0
  0
MTEXT
  5
521B
330
4A96
100
AcDbEntity
  8
DIM
100
AcDbMText
 10
75.49421229957397
 20
161.3129359226049
 30
0.0
 40
2.5
 41
0.0
 71
     5
 72
     1
  1
\A1;26+stroke=S
  7
dayus
 73
     1
 44
1.0
1001
ACAD
1000
MTEXTBEGIN
1070
    73
1070
     1
1070
    44
1040
1.0
1070
    74
1070
     0
1000
MTEXTEND
  0
POINT
  5
521C
330
4A96
100
AcDbEntity
  8
Defpoints
 62
     0
100
AcDbPoint
 10
59.99421229957397
 20
146.131939234922
 30
0.0
  0
POINT
  5
521D
330
4A96
100
AcDbEntity
  8
Defpoints
 62
     0
100
AcDbPoint
 10
90.99421229957398
 20
146.131939234922
 30
0.0
  0
POINT
  5
521E
330
4A96
100
AcDbEntity
  8
Defpoints
 62
     0
100
AcDbPoint
 10
90.99421229957398
 20
159.0629359226049
 30
0.0
  0
ENDBLK
  5
4AA1
330
4A96
100
AcDbEntity
  8
0
100
AcDbBlockEnd
  0
BLOCK
  5
4AAC
330
4AA2
100
AcDbEntity
  8
0
100
AcDbBlockBegin
  2
*D32
 70
     1
 10
0.0
 20
0.0
 30
0.0
  3
*D32
  1

  0
LINE
  5
521F
330
4AA2
100
AcDbEntity
  8
DIM
100
AcDbLine
 10
59.9942122995742
 20
147.631939234922
 30
0.0
 11
59.9942122995742
 21
167.9631516334447
 31
0.0
  0
LINE
  5
5220
330
4AA2
100
AcDbEntity
  8
DIM
100
AcDbLine
 10
97.99421229957397
 20
128.6319392349222
 30
0.0
 11
97.99421229957397
 21
167.9631516334447
 31
0.0
  0
LINE
  5
5221
330
4AA2
100
AcDbEntity
  8
DIM
100
AcDbLine
 10
62.4942122995742
 20
166.4631516334447
 30
0.0
 11
95.49421229957397
 21
166.4631516334447
 31
0.0
  0
SOLID
  5
5222
330
4AA2
100
AcDbEntity
  8
DIM
100
AcDbTrace
 10
62.4942122995742
 20
166.8798183001114
 30
0.0
 11
62.4942122995742
 21
166.046484966778
 31
0.0
 12
59.9942122995742
 22
166.4631516334447
 32
0.0
 13
59.9942122995742
 23
166.4631516334447
 33
0.0
  0
SOLID
  5
5223
330
4AA2
100
AcDbEntity
  8
DIM
100
AcDbTrace
 10
95.49421229957397
 20
166.8798183001114
 30
0.0
 11
95.49421229957397
 21
166.046484966778
 31
0.0
 12
97.99421229957397
 22
166.4631516334447
 32
0.0
 13
97.99421229957397
 23
166.4631516334447
 33
0.0
  0
MTEXT
  5
5224
330
4AA2
100
AcDbEntity
  8
DIM
100
AcDbMText
 10
78.99421229957408
 20
168.7131516334447
 30
0.0
 40
2.5
 41
0.0
 71
     5
 72
     1
  1
\A1;33+stroke=ZZ
  7
dayus
 73
     1
 44
1.0
1001
ACAD
1000
MTEXTBEGIN
1070
    73
1070
     1
1070
    44
1040
1.0
1070
    74
1070
     0
1000
MTEXTEND
  0
POINT
  5
5225
330
4AA2
100
AcDbEntity
  8
Defpoints
 62
     0
100
AcDbPoint
 10
59.9942122995742
 20
146.131939234922
 30
0.0
  0
POINT
  5
5226
330
4AA2
100
AcDbEntity
  8
Defpoints
 62
     0
100
AcDbPoint
 10
97.99421229957397
 20
127.1319392349222
 30
0.0
  0
POINT
  5
5227
330
4AA2
100
AcDbEntity
  8
Defpoints
 62
     0
100
AcDbPoint
 10
97.99421229957397
 20
166.4631516334447
 30
0.0
  0
ENDBLK
  5
4AAD
330
4AA2
100
AcDbEntity
  8
0
100
AcDbBlockEnd
  0
BLOCK
  5
4F6C
330
4F6A
100
AcDbEntity
  8
0
100
AcDbBlockBegin
  2
A$C5ECF147B
 70
     0
 10
0.0
 20
0.0
 30
0.0
  3
A$C5ECF147B
  1

  0
CIRCLE
  5
4F6D
330
4F6A
100
AcDbEntity
  8
0
100
AcDbCircle
 10
-3.079240456948355
 20
2.061381943681453
 30
0.0
 40
1.25
  0
CIRCLE
  5
4F6E
330
4F6A
100
AcDbEntity
  8
0
100
AcDbCircle
 10
-3.079240456948355
 20
2.061381943681453
 30
0.0
 40
0.75
  0
ENDBLK
  5
4F6F
330
4F6A
100
AcDbEntity
  8
0
100
AcDbBlockEnd
  0
BLOCK
  5
5292
330
528B
100
AcDbEntity
  8
0
100
AcDbBlockBegin
  2
A$C1F6E6265
 70
     0
 10
0.0
 20
0.0
 30
0.0
  3
A$C1F6E6265
  1

  0
LINE
  5
528C
330
528B
100
AcDbEntity
  8
AM_5
 62
     5
100
AcDbLine
 10
12.57846733029419
 20
0.460783587398737
 30
0.0
 11
7.091423997858555
 21
0.460783587398737
 31
0.0
  0
LINE
  5
528D
330
528B
100
AcDbEntity
  8
AM_5
 62
     5
100
AcDbLine
 10
7.091423997858555
 20
0.460783587398737
 30
0.0
 11
3.50000046420655
 21
0.460783587398737
 31
0.0
  0
TRACE
  5
528E
330
528B
100
AcDbEntity
  8
AM_5
 62
     5
370
    35
100
AcDbTrace
 10
3.50000046420655
 20
0.9215673268987245
 30
0.0
 11
3.50000046420655
 21
-0.0000001521012507
 31
0.0
 12
0.0000004642065505
 22
0.460783587398737
 32
0.0
 13
0.0000004642065505
 23
0.460783587398737
 33
0.0
  0
MTEXT
  5
528F
330
528B
100
AcDbEntity
  8
AM_5
 62
     5
100
AcDbMText
 10
6.603782167567317
 20
1.421084835219261
 30
0.0
 40
2.449999999999999
 41
0.0
 71
     7
 72
     5
  1
SL
  7
ACISOTS
 73
     1
 44
1.0
1001
ACAD
1000
MTEXTBEGIN
1070
    73
1070
     1
1070
    44
1040
1.0
1070
    74
1070
     0
1000
MTEXTEND
  0
ENDBLK
  5
5293
330
528B
100
AcDbEntity
  8
0
100
AcDbBlockEnd
  0
ENDSEC
  0
SECTION
  2
ENTITIES
  0
MTEXT
  5
A9
330
1F
100
AcDbEntity
  8
0
100
AcDbMText
 10
-112.8858816556399
 20
179.1757813154577
 30
0.0
 40
3.0
 41
0.0
 71
     4
 72
     5
  1

 73
     1
 44
1.0
1001
ACAD
1000
MTEXTBEGIN
1070
    73
1070
     1
1070
    44
1040
1.0
1070
    74
1070
     0
1000
MTEXTEND
  0
MTEXT
  5
AA
330
1F
100
AcDbEntity
  8
0
100
AcDbMText
 10
-176.2667196970539
 20
189.9084924046809
 30
0.0
 40
1.799999999999999
 41
0.0
 71
     9
 72
     5
  1

 73
     1
 44
1.0
1001
ACAD
1000
MTEXTBEGIN
1070
    73
1070
     1
1070
    44
1040
1.0
1070
    74
1070
     0
1000
MTEXTEND
  0
MTEXT
  5
AB
330
1F
100
AcDbEntity
  8
0
100
AcDbMText
 10
82.64233389287733
 20
174.944592339129
 30
0.0
 40
3.0
 41
0.0
 71
     4
 72
     5
  1

 73
     1
 44
1.0
1001
ACAD
1000
MTEXTBEGIN
1070
    73
1070
     1
1070
    44
1040
1.0
1070
    74
1070
     0
1000
MTEXTEND
  0
MTEXT
  5
AC
330
1F
100
AcDbEntity
  8
0
100
AcDbMText
 10
19.26149585146331
 20
185.6773034283523
 30
0.0
 40
1.799999999999999
 41
0.0
 71
     9
 72
     5
  1

 73
     1
 44
1.0
1001
ACAD
1000
MTEXTBEGIN
1070
    73
1070
     1
1070
    44
1040
1.0
1070
    74
1070
     0
1000
MTEXTEND
  0
MTEXT
  5
B1
330
1F
100
AcDbEntity
  8
0
100
AcDbMText
 10
-211.0828086697475
 20
93.72900974557683
 30
0.0
 40
3.0
 41
59.51
 71
     1
 72
     5
  1

  7
CHINESET
 73
     1
 44
1.0
1001
ACAD
1000
MTEXTBEGIN
1070
    73
1070
     1
1070
    44
1040
1.0
1070
    74
1070
     0
1000
MTEXTEND
  0
MTEXT
  5
B2
330
1F
100
AcDbEntity
  8
0
100
AcDbMText
 10
-179.9099428209695
 20
86.93407807798587
 30
0.0
 40
3.0
 41
38.26
 71
     1
 72
     5
  1

  7
CHINESET
 73
     1
 44
1.0
1001
ACAD
1000
MTEXTBEGIN
1070
    73
1070
     1
1070
    44
1040
1.0
1070
    74
1070
     0
1000
MTEXTEND
  0
MTEXT
  5
10B3
330
1F
100
AcDbEntity
  8
0
100
AcDbMText
 10
81.67014302795905
 20
125.5492500028813
 30
0.0
 40
3.0
 41
0.0
 71
     7
 72
     5
  1

  7
CHINESET
 73
     1
 44
1.0
1001
ACAD
1000
MTEXTBEGIN
1070
    73
1070
     1
1070
    44
1040
1.0
1070
    74
1070
     0
1000
MTEXTEND
  0
LINE
  5
17B4
330
1F
100
AcDbEntity
  8
0
 62
     4
100
AcDbLine
 10
314.9214976567959
 20
73.63425484441359
 30
0.0
 11
314.9214976567959
 21
363.5310627458177
 31
0.0
  0
LINE
  5
17B5
330
1F
100
AcDbEntity
  8
0
 62
     4
100
AcDbLine
 10
-15.48932901079763
 20
73.63425484441356
 30
0.0
 11
-15.48932901079763
 21
363.5310627458177
 31
0.0
  0
TEXT
  5
17BD
330
1F
100
AcDbEntity
  8
LOGO
  6
Continuous
 62
     7
100
AcDbText
 10
164.9594802425685
 20
60.44054895692834
 30
0.0
 40
6.804875
  1
11/12
  7
CHINESET
 72
     1
 11
178.5692302425685
 21
63.84298645692834
 31
0.0
100
AcDbText
 73
     2
  0
TEXT
  5
17BE
330
1F
100
AcDbEntity
  8
LOGO
100
AcDbText
 10
168.3829180702677
 20
45.41419134880618
 30
0.0
 40
4.860625
  1
作動型式
  7
CHINESET
 72
     4
 11
178.053536559851
 21
47.72011777597154
 31
0.0
100
AcDbText
  0
LINE
  5
17BF
330
1F
100
AcDbEntity
  8
0
 62
     4
100
AcDbLine
 10
314.9214976567959
 20
216.1807817456062
 30
0.0
 11
-15.48932901079763
 21
216.1807817456063
 31
0.0
  0
TEXT
  5
17C3
330
1F
100
AcDbEntity
  8
LOGO
  6
Continuous
100
AcDbText
 10
168.054536559851
 20
40.26945850886108
 30
0.0
 40
2.916375
  1
Acting type
 41
0.8
  7
CHINESET
 72
     4
 11
178.053536559851
 21
41.24158350886108
 31
0.0
100
AcDbText
  0
LINE
  5
17C4
330
1F
100
AcDbEntity
  8
LOGO
 62
     4
100
AcDbLine
 10
194.5499980655695
 20
58.08577260334837
 30
0.0
 11
163.7648674898566
 21
58.08577260334837
 31
0.0
  0
LINE
  5
17C5
330
1F
100
AcDbEntity
  8
LOGO
 62
     4
100
AcDbLine
 10
194.5499980655695
 20
52.25509176294892
 30
0.0
 11
163.7648674898566
 21
52.25509176294892
 31
0.0
  0
LINE
  5
17C6
330
1F
100
AcDbEntity
  8
LOGO
 62
     4
100
AcDbLine
 10
194.5499980655695
 20
38.00231637530581
 30
0.0
 11
163.7648674898566
 21
38.00231637530578
 31
0.0
  0
LINE
  5
17C7
330
1F
100
AcDbEntity
  8
LOGO
 62
     4
100
AcDbLine
 10
194.5499980655695
 20
69.74713428414736
 30
0.0
 11
163.7648674898566
 21
69.74713428414725
 31
0.0
  0
LINE
  5
1802
330
1F
100
AcDbEntity
  8
LOGO
 62
     4
100
AcDbLine
 10
151.9984922051262
 20
52.25509176294892
 30
0.0
 11
126.0843551366843
 21
52.25509176294892
 31
0.0
  0
TEXT
  5
1803
330
1F
100
AcDbEntity
  8
LOGO
  6
Continuous
 62
     7
100
AcDbText
 10
126.5658195042385
 20
60.51401594374783
 30
0.0
 40
6.804875
  1
MCJA
  7
CHINESET
 72
     1
 11
139.0414236709052
 21
63.91645344374783
 31
0.0
100
AcDbText
 73
     2
  0
LINE
  5
1804
330
1F
100
AcDbEntity
  8
LOGO
 62
     4
100
AcDbLine
 10
151.9984922051262
 20
38.00231637530581
 30
0.0
 11
126.0843551366843
 21
38.00231637530578
 31
0.0
  0
TEXT
  5
1805
330
1F
100
AcDbEntity
  8
LOGO
  6
Continuous
100
AcDbText
 10
134.5974236709052
 20
39.78339600886108
 30
0.0
 40
2.916375
  1
Model
 41
0.8
  7
CHINESET
 72
     4
 11
139.0414236709052
 21
41.24158350886108
 31
0.0
100
AcDbText
  0
TEXT
  5
1806
330
1F
100
AcDbEntity
  8
LOGO
100
AcDbText
 10
134.1807986709052
 20
45.41419134880618
 30
0.0
 40
4.860625
  1
型式
  7
CHINESET
 72
     4
 11
139.0414236709052
 21
47.72011777597154
 31
0.0
100
AcDbText
  0
LINE
  5
1807
330
1F
100
AcDbEntity
  8
LOGO
 62
     4
100
AcDbLine
 10
154.5899059119704
 20
58.08577260334837
 30
0.0
 11
123.4929414298401
 21
58.08577260334837
 31
0.0
  0
LINE
  5
1808
330
1F
100
AcDbEntity
  8
LOGO
 62
     4
100
AcDbLine
 10
154.5899059119704
 20
69.74713428414725
 30
0.0
 11
123.4929414298401
 21
69.74713428414725
 31
0.0
  0
LINE
  5
1809
330
1F
100
AcDbEntity
  8
LOGO
 62
     4
100
AcDbLine
 10
139.0414236709052
 20
58.08577260334837
 30
0.0
 11
139.0414236709052
 21
52.25509176294892
 31
0.0
  0
LINE
  5
180A
330
1F
100
AcDbEntity
  8
LOGO
 62
     4
100
AcDbLine
 10
126.0843551366843
 20
52.25509176294892
 30
0.0
 11
126.0843551366843
 21
38.00231637530578
 31
0.0
  0
LINE
  5
180B
330
1F
100
AcDbEntity
  8
LOGO
 62
     4
100
AcDbLine
 10
123.4929414298401
 20
69.74713428414725
 30
0.0
 11
123.4929414298401
 21
58.08577260334837
 31
0.0
  0
LINE
  5
180C
330
1F
100
AcDbEntity
  8
LOGO
 62
     4
100
AcDbLine
 10
151.9984922051262
 20
52.25509176294892
 30
0.0
 11
151.9984922051262
 21
38.00231637530581
 31
0.0
  0
LINE
  5
180D
330
1F
100
AcDbEntity
  8
LOGO
 62
     4
100
AcDbLine
 10
163.7648674898566
 20
52.25509176294892
 30
0.0
 11
163.7648674898566
 21
38.00231637530581
 31
0.0
  0
LINE
  5
180E
330
1F
100
AcDbEntity
  8
LOGO
  6
Continuous
 62
     7
100
AcDbLine
 10
156.598983276864
 20
63.87514705774364
 30
0.0
 11
161.7482150909243
 21
63.87514705774364
 31
0.0
  0
LINE
  5
180F
330
1F
100
AcDbEntity
  8
LOGO
 62
     4
100
AcDbLine
 10
154.5899059119705
 20
69.74713428414725
 30
0.0
 11
154.5899059119705
 21
58.08577260334837
 31
0.0
  0
LINE
  5
1810
330
1F
100
AcDbEntity
  8
LOGO
 62
     4
100
AcDbLine
 10
163.7648674898566
 20
69.74713428414725
 30
0.0
 11
163.7648674898566
 21
58.08577260334837
 31
0.0
  0
LINE
  5
1868
330
1F
100
AcDbEntity
  8
LOGO
 62
     4
100
AcDbLine
 10
255.2874448175045
 20
69.74713428414725
 30
0.0
 11
233.7030182407981
 21
69.74713428414725
 31
0.0
  0
LINE
  5
1869
330
1F
100
AcDbEntity
  8
LOGO
 62
     4
100
AcDbLine
 10
255.2874448175045
 20
58.08577260334837
 30
0.0
 11
233.7030182407981
 21
58.08577260334837
 31
0.0
  0
LINE
  5
186A
330
1F
100
AcDbEntity
  8
LOGO
 62
     4
100
AcDbLine
 10
253.9917379640824
 20
52.25509176294892
 30
0.0
 11
234.9987250942201
 21
52.25509176294892
 31
0.0
  0
LINE
  5
186B
330
1F
100
AcDbEntity
  8
LOGO
 62
     4
100
AcDbLine
 10
253.9917379640824
 20
38.00231637530581
 30
0.0
 11
234.9987250942201
 21
38.00231637530578
 31
0.0
  0
LINE
  5
186C
330
1F
100
AcDbEntity
  8
LOGO
 62
     4
100
AcDbLine
 10
224.5280566629119
 20
58.08577260334843
 30
0.0
 11
203.7249596434556
 21
58.08577260334843
 31
0.0
  0
LINE
  5
186D
330
1F
100
AcDbEntity
  8
LOGO
 62
     4
100
AcDbLine
 10
224.5280566629119
 20
52.25509176294898
 30
0.0
 11
203.7249596434556
 21
52.25509176294898
 31
0.0
  0
LINE
  5
186E
330
1F
100
AcDbEntity
  8
LOGO
 62
     4
100
AcDbLine
 10
224.5280566629119
 20
69.74713428414742
 30
0.0
 11
203.7249596434556
 21
69.74713428414736
 31
0.0
  0
TEXT
  5
186F
330
1F
100
AcDbEntity
  8
LOGO
  6
Continuous
 62
     7
100
AcDbText
 10
209.222463184989
 20
60.44054895692843
 30
0.0
 40
6.804875
  1
40
  7
CHINESET
 72
     1
 11
214.7311715183224
 21
63.84298645692843
 31
0.0
100
AcDbText
 73
     2
  0
LINE
  5
1870
330
1F
100
AcDbEntity
  8
LOGO
 62
     4
100
AcDbLine
 10
224.5280566629119
 20
38.0023163753059
 30
0.0
 11
203.7249596434556
 21
38.00231637530584
 31
0.0
  0
TEXT
  5
1871
330
1F
100
AcDbEntity
  8
LOGO
  6
Continuous
100
AcDbText
 10
210.5157581531838
 20
39.78339600886111
 30
0.0
 40
2.916375
  1
Bore
 41
0.8
  7
CHINESET
 72
     4
 11
214.1265081531838
 21
41.24158350886111
 31
0.0
100
AcDbText
  0
TEXT
  5
1872
330
1F
100
AcDbEntity
  8
LOGO
100
AcDbText
 10
208.9620940906839
 20
45.2898052759716
 30
0.0
 40
4.860625
  1
內徑
  7
CHINESET
 72
     4
 11
214.1265081531838
 21
47.72011777597159
 31
0.0
100
AcDbText
  0
LINE
  5
1873
330
1F
100
AcDbEntity
  8
LOGO
 62
     4
100
AcDbLine
 10
214.1265078544139
 20
58.08577260334843
 30
0.0
 11
214.1265078544139
 21
52.25509176294898
 31
0.0
  0
LINE
  5
1874
330
1F
100
AcDbEntity
  8
LOGO
 62
     4
100
AcDbLine
 10
178.053536559851
 20
58.08577260334837
 30
0.0
 11
178.053536559851
 21
52.25509176294892
 31
0.0
  0
LINE
  5
1875
330
1F
100
AcDbEntity
  8
LOGO
 62
     4
100
AcDbLine
 10
194.5499980655695
 20
52.25509176294892
 30
0.0
 11
194.5499980655695
 21
38.00231637530584
 31
0.0
  0
LINE
  5
1876
330
1F
100
AcDbEntity
  8
LOGO
 62
     4
100
AcDbLine
 10
203.7249596434556
 20
52.25509176294898
 30
0.0
 11
203.7249596434556
 21
38.0023163753059
 31
0.0
  0
LINE
  5
1877
330
1F
100
AcDbEntity
  8
LOGO
 62
     4
100
AcDbLine
 10
194.5499980655695
 20
69.74713428414736
 30
0.0
 11
194.5499980655695
 21
58.08577260334837
 31
0.0
  0
LINE
  5
1878
330
1F
100
AcDbEntity
  8
LOGO
 62
     4
100
AcDbLine
 10
203.7249596434556
 20
69.74713428414736
 30
0.0
 11
203.7249596434556
 21
58.08577260334843
 31
0.0
  0
LINE
  5
1879
330
1F
100
AcDbEntity
  8
LOGO
  6
Continuous
 62
     7
100
AcDbLine
 10
196.559075430463
 20
63.87514705774373
 30
0.0
 11
201.7083072445234
 21
63.87514705774373
 31
0.0
  0
LINE
  5
187A
330
1F
100
AcDbEntity
  8
LOGO
 62
     4
100
AcDbLine
 10
244.7696504758762
 20
58.08577260334837
 30
0.0
 11
244.7696504758762
 21
52.25509176294892
 31
0.0
  0
LINE
  5
187B
330
1F
100
AcDbEntity
  8
LOGO
 62
     4
100
AcDbLine
 10
224.5280566629119
 20
52.25509176294898
 30
0.0
 11
224.5280566629119
 21
38.0023163753059
 31
0.0
  0
LINE
  5
187C
330
1F
100
AcDbEntity
  8
LOGO
 62
     4
100
AcDbLine
 10
234.9987250942201
 20
52.25509176294892
 30
0.0
 11
234.9987250942201
 21
38.00231637530578
 31
0.0
  0
TEXT
  5
187D
330
1F
100
AcDbEntity
  8
LOGO
  6
Continuous
100
AcDbText
 10
239.2179815291513
 20
39.783396008861
 30
0.0
 40
2.916375
  1
Stroke
 41
0.8
  7
CHINESET
 72
     4
 11
244.4952315291513
 21
41.241583508861
 31
0.0
100
AcDbText
  0
TEXT
  5
187E
330
1F
100
AcDbEntity
  8
LOGO
100
AcDbText
 10
239.6346065291513
 20
45.28980527597155
 30
0.0
 40
4.860625
  1
行程
  7
CHINESET
 72
     4
 11
244.4952315291513
 21
47.72011777597154
 31
0.0
100
AcDbText
  0
LINE
  5
187F
330
1F
100
AcDbEntity
  8
LOGO
 62
     4
100
AcDbLine
 10
224.5280566629119
 20
69.74713428414742
 30
0.0
 11
224.5280566629119
 21
58.08577260334843
 31
0.0
  0
LINE
  5
1880
330
1F
100
AcDbEntity
  8
LOGO
  6
Continuous
 62
     7
100
AcDbLine
 10
226.5371340278055
 20
63.87514705774382
 30
0.0
 11
231.6863658418659
 21
63.87514705774382
 31
0.0
  0
LINE
  5
1881
330
1F
100
AcDbEntity
  8
LOGO
 62
     4
100
AcDbLine
 10
233.7030182407981
 20
69.74713428414725
 30
0.0
 11
233.7030182407981
 21
58.08577260334837
 31
0.0
  0
TEXT
  5
1882
330
1F
100
AcDbEntity
  8
LOGO
  6
Continuous
 62
     7
100
AcDbText
 10
243.4796865609566
 20
60.44054895692834
 30
0.0
 40
6.804875
  1
*
  7
CHINESET
 72
     1
 11
245.09989489429
 21
63.84298645692834
 31
0.0
100
AcDbText
 73
     2
  0
LINE
  5
1883
330
1F
100
AcDbEntity
  8
LOGO
 62
     4
100
AcDbLine
 10
266.4966795272233
 20
58.08577260334837
 30
0.0
 11
266.4966795272233
 21
52.25509176294892
 31
0.0
  0
LINE
  5
1885
330
1F
100
AcDbEntity
  8
LOGO
 62
     4
100
AcDbLine
 10
275.9931859621544
 20
38.00231637530581
 30
0.0
 11
257.0001730922921
 21
38.00231637530578
 31
0.0
  0
LINE
  5
1886
330
1F
100
AcDbEntity
  8
LOGO
 62
     4
100
AcDbLine
 10
275.9931859621544
 20
52.25509176294892
 30
0.0
 11
257.0001730922921
 21
52.25509176294892
 31
0.0
  0
TEXT
  5
1887
330
1F
100
AcDbEntity
  8
LOGO
  6
Continuous
100
AcDbText
 10
260.5528295272232
 20
40.26945850886099
 30
0.0
 40
2.916375
  1
Magnet
 41
0.8
  7
CHINESET
 72
     4
 11
266.4966795272233
 21
41.241583508861
 31
0.0
100
AcDbText
  0
TEXT
  5
1888
330
1F
100
AcDbEntity
  8
LOGO
100
AcDbText
 10
259.2057420272233
 20
45.34043678638821
 30
0.0
 40
4.860625
  1
附磁石
  7
CHINESET
 72
     4
 11
266.4966795272233
 21
47.72011777597154
 31
0.0
100
AcDbText
  0
LINE
  5
1889
330
1F
100
AcDbEntity
  8
LOGO
 62
     4
100
AcDbLine
 10
257.0001730922921
 20
52.25509176294892
 30
0.0
 11
257.0001730922921
 21
38.00231637530578
 31
0.0
  0
LINE
  5
188A
330
1F
100
AcDbEntity
  8
LOGO
 62
     4
100
AcDbLine
 10
253.9917379640824
 20
52.25509176294892
 30
0.0
 11
253.9917379640824
 21
37.9485739613921
 31
0.0
  0
LINE
  5
188B
330
1F
100
AcDbEntity
  8
LOGO
 62
     4
100
AcDbLine
 10
275.9931859621544
 20
52.25509176294892
 30
0.0
 11
275.9931859621544
 21
37.9485739613921
 31
0.0
  0
TEXT
  5
188C
330
1F
100
AcDbEntity
  8
LOGO
  6
Continuous
 62
     7
100
AcDbText
 10
259.8104056911317
 20
60.44054895692834
 30
0.0
 40
6.804875
  1
(M)
  7
CHINESET
 72
     1
 11
267.1013431911317
 21
63.84298645692834
 31
0.0
100
AcDbText
 73
     2
  0
LINE
  5
188D
330
1F
100
AcDbEntity
  8
LOGO
 62
     4
100
AcDbLine
 10
275.0094869261663
 20
58.08577260334837
 30
0.0
 11
257.9838721282801
 21
58.08577260334837
 31
0.0
  0
LINE
  5
188E
330
1F
100
AcDbEntity
  8
LOGO
 62
     4
100
AcDbLine
 10
275.0094869261663
 20
69.74713428414736
 30
0.0
 11
257.9838721282801
 21
69.74713428414725
 31
0.0
  0
LINE
  5
188F
330
1F
100
AcDbEntity
  8
LOGO
 62
     4
100
AcDbLine
 10
257.9838721282801
 20
69.74713428414725
 30
0.0
 11
257.9838721282801
 21
58.08577260334837
 31
0.0
  0
LINE
  5
1890
330
1F
100
AcDbEntity
  8
LOGO
 62
     4
100
AcDbLine
 10
255.2874448175045
 20
69.74713428414725
 30
0.0
 11
255.2874448175045
 21
58.08577260334837
 31
0.0
  0
LINE
  5
1891
330
1F
100
AcDbEntity
  8
LOGO
 62
     4
100
AcDbLine
 10
275.0094869261662
 20
69.74713428414736
 30
0.0
 11
275.0094869261663
 21
58.08577260334837
 31
0.0
  0
LINE
  5
18E7
330
1F
100
AcDbEntity
  8
0
 62
     4
100
AcDbLine
 10
314.9214976567959
 20
363.5310627458177
 30
0.0
 11
-15.48932901079763
 21
363.5310627458177
 31
0.0
  0
TEXT
  5
18EA
330
1F
100
AcDbEntity
  8
0
100
AcDbText
 10
-8.383230530107766
 20
351.0669189555061
 30
0.0
 40
6.0
  1
11 type
  7
CHINESET
100
AcDbText
  0
LINE
  5
41DC
330
1F
100
AcDbEntity
  8
0
100
AcDbLine
 10
90.99421229957398
 20
94.13193923492167
 30
0.0
 11
90.99421229957398
 21
120.1319392349221
 31
0.0
  0
LINE
  5
41DD
330
1F
100
AcDbEntity
  8
CENTER
100
AcDbLine
 10
57.28028355304036
 20
120.1319392349221
 30
0.0
 11
99.24296139487365
 21
120.1319392349222
 31
0.0
  0
LINE
  5
41DE
102
{ACAD_REACTORS
330
4380
102
}
330
1F
100
AcDbEntity
  8
0
100
AcDbLine
 10
90.99421229957398
 20
120.1319392349222
 30
0.0
 11
90.99421229957398
 21
146.131939234922
 31
0.0
  0
LINE
  5
41DF
330
1F
100
AcDbEntity
  8
0
100
AcDbLine
 10
93.99421229957397
 20
120.1319392349222
 30
0.0
 11
93.99421229957397
 21
107.1319392349222
 31
0.0
  0
LINE
  5
41E0
330
1F
100
AcDbEntity
  8
0
100
AcDbLine
 10
96.26216149200514
 20
120.1319392349223
 30
0.0
 11
97.99421229957397
 21
116.2589558887147
 31
0.0
  0
LINE
  5
41E1
330
1F
100
AcDbEntity
  8
0
100
AcDbLine
 10
97.99421229957397
 20
113.1319392349222
 30
0.0
 11
97.99421229957397
 21
127.1319392349222
 31
0.0
  0
ARC
  5
41E2
102
{ACAD_REACTORS
330
4395
102
}
330
1F
100
AcDbEntity
  8
0
100
AcDbCircle
 10
101.9942122995739
 20
120.1319392349222
 30
0.0
 40
8.000000000000158
100
AcDbArc
 50
180.0
 51
208.9550243718603
  0
LINE
  5
41E3
102
{ACAD_REACTORS
330
4395
102
}
330
1F
100
AcDbEntity
  8
0
100
AcDbLine
 10
94.99421229957375
 20
116.2589558887148
 30
0.0
 11
94.99421229957375
 21
120.1319392349222
 31
0.0
  0
LINE
  5
41E4
330
1F
100
AcDbEntity
  8
0
100
AcDbLine
 10
94.99421229957397
 20
116.2589558887145
 30
0.0
 11
96.26216149200514
 21
120.1319392349223
 31
0.0
  0
LINE
  5
41E5
330
1F
100
AcDbEntity
  8
0
100
AcDbLine
 10
90.99421229957398
 20
99.13193923492167
 30
0.0
 11
90.99421229957398
 21
120.1319392349221
 31
0.0
  0
LINE
  5
41E6
102
{ACAD_REACTORS
330
4395
102
}
330
1F
100
AcDbEntity
  8
0
100
AcDbLine
 10
94.99421229957397
 20
113.1319392349222
 30
0.0
 11
97.99421229957397
 21
113.1319392349222
 31
0.0
  0
LINE
  5
41E7
330
1F
100
AcDbEntity
  8
0
100
AcDbLine
 10
97.99421229957397
 20
116.2589558887147
 30
0.0
 11
94.99421229957397
 21
116.2589558887145
 31
0.0
  0
LINE
  5
41E8
330
1F
100
AcDbEntity
  8
0
100
AcDbLine
 10
92.99421229957397
 20
106.1319392349222
 30
0.0
 11
90.99421229957419
 21
106.1319392349222
 31
0.0
  0
ARC
  5
41E9
102
{ACAD_REACTORS
330
4392
102
}
330
1F
100
AcDbEntity
  8
0
100
AcDbCircle
 10
92.99421229957397
 20
107.1319392349222
 30
0.0
 40
1.0
100
AcDbArc
 50
270.0
 51
0.0
  0
LINE
  5
41EA
330
1F
100
AcDbEntity
  8
0
100
AcDbLine
 10
96.49421229957397
 20
113.1319392349222
 30
0.0
 11
96.49421229957397
 21
116.2589558887146
 31
0.0
  0
LINE
  5
41EB
330
1F
100
AcDbEntity
  8
0
100
AcDbLine
 10
92.99421229957397
 20
134.1319392349222
 30
0.0
 11
90.99421229957419
 21
134.1319392349222
 31
0.0
  0
LINE
  5
41EC
102
{ACAD_REACTORS
330
437D
102
}
330
1F
100
AcDbEntity
  8
0
100
AcDbLine
 10
94.99421229957397
 20
127.1319392349222
 30
0.0
 11
97.99421229957397
 21
127.1319392349222
 31
0.0
  0
ARC
  5
41ED
102
{ACAD_REACTORS
330
4392
102
}
330
1F
100
AcDbEntity
  8
0
100
AcDbCircle
 10
92.99421229957397
 20
133.1319392349222
 30
0.0
 40
1.0
100
AcDbArc
 50
0.0
 51
90.0
  0
LINE
  5
41EE
102
{ACAD_REACTORS
330
4380
102
}
330
1F
100
AcDbEntity
  8
0
100
AcDbLine
 10
93.99421229957397
 20
120.1319392349222
 30
0.0
 11
93.99421229957397
 21
133.1319392349222
 31
0.0
  0
LINE
  5
41EF
330
1F
100
AcDbEntity
  8
0
100
AcDbLine
 10
207.0784980069845
 20
113.1319392349221
 30
0.0
 11
199.3325313145703
 21
113.1319392349221
 31
0.0
  0
ARC
  5
41F0
330
1F
100
AcDbEntity
  8
0
 62
     3
100
AcDbCircle
 10
203.2055146607774
 20
120.1319392349222
 30
0.0
 40
4.0
100
AcDbArc
 50
250.6108941022052
 51
202.2500566532826
  0
LINE
  5
41F1
330
1F
100
AcDbEntity
  8
0
100
AcDbLine
 10
199.3325313145703
 20
127.1319392349223
 30
0.0
 11
207.0784980069845
 21
127.1319392349223
 31
0.0
  0
CIRCLE
  5
41F2
330
1F
100
AcDbEntity
  8
0
100
AcDbCircle
 10
203.2055146607774
 20
120.1319392349222
 30
0.0
 40
7.999999999999957
  0
CIRCLE
  5
41F3
330
1F
100
AcDbEntity
  8
0
100
AcDbCircle
 10
203.2055146607774
 20
120.1319392349222
 30
0.0
 40
6.999999999999843
  0
LINE
  5
41F4
330
1F
100
AcDbEntity
  8
0
100
AcDbLine
 10
210.2055146607777
 20
124.0049225811293
 30
0.0
 11
210.2055146607777
 21
116.2589558887151
 31
0.0
  0
CIRCLE
  5
41F5
330
1F
100
AcDbEntity
  8
0
100
AcDbCircle
 10
203.2055146607774
 20
120.1319392349222
 30
0.0
 40
3.375
  0
LINE
  5
41F6
330
1F
100
AcDbEntity
  8
0
100
AcDbLine
 10
196.2055146607772
 20
116.2589558887151
 30
0.0
 11
196.2055146607772
 21
124.0049225811293
 31
0.0
  0
LINE
  5
41F7
330
1F
100
AcDbEntity
  8
0
100
AcDbLine
 10
96.49421229957397
 20
127.1319392349222
 30
0.0
 11
96.49421229957397
 21
124.0049225811298
 31
0.0
  0
LINE
  5
41F8
330
1F
100
AcDbEntity
  8
0
100
AcDbLine
 10
97.99421229957397
 20
124.0049225811298
 30
0.0
 11
94.99421229957397
 21
124.0049225811299
 31
0.0
  0
LINE
  5
41F9
330
1F
100
AcDbEntity
  8
0
100
AcDbLine
 10
96.26216149200514
 20
120.1319392349221
 30
0.0
 11
97.99421229957397
 21
124.0049225811298
 31
0.0
  0
ARC
  5
41FA
330
1F
100
AcDbEntity
  8
0
100
AcDbCircle
 10
101.9942122995739
 20
120.1319392349222
 30
0.0
 40
8.000000000000158
100
AcDbArc
 50
151.0449756281393
 51
180.0
  0
LINE
  5
41FB
330
1F
100
AcDbEntity
  8
0
100
AcDbLine
 10
94.99421229957397
 20
124.0049225811299
 30
0.0
 11
96.26216149200514
 21
120.1319392349221
 31
0.0
  0
LINE
  5
41FC
330
1F
100
AcDbEntity
  8
0
100
AcDbLine
 10
94.99421229957375
 20
124.0049225811296
 30
0.0
 11
94.99421229957375
 21
120.1319392349222
 31
0.0
  0
LINE
  5
41FD
330
1F
100
AcDbEntity
  8
0
100
AcDbLine
 10
90.99421229957398
 20
244.1711989215577
 30
0.0
 11
90.99421229957398
 21
270.1711989215581
 31
0.0
  0
LINE
  5
41FE
102
{ACAD_REACTORS
330
434E
102
}
330
1F
100
AcDbEntity
  8
0
100
AcDbLine
 10
59.99421229957397
 20
244.1711989215577
 30
0.0
 11
59.99421229957397
 21
296.171198921558
 31
0.0
  0
LINE
  5
41FF
330
1F
100
AcDbEntity
  8
0
100
AcDbLine
 10
92.99421229957397
 20
284.1711989215582
 30
0.0
 11
90.99421229957398
 21
284.1711989215582
 31
0.0
  0
LINE
  5
4200
330
1F
100
AcDbEntity
  8
0
100
AcDbLine
 10
92.99421229957397
 20
256.1711989215583
 30
0.0
 11
90.99421229957419
 21
256.1711989215583
 31
0.0
  0
LINE
  5
4201
330
1F
100
AcDbEntity
  8
CENTER
 48
1.5
100
AcDbLine
 10
57.39343078251796
 20
270.1711989215581
 30
0.0
 11
130.4726568445296
 21
270.1711989215582
 31
0.0
  0
LINE
  5
4202
102
{ACAD_REACTORS
330
434B
330
435A
102
}
330
1F
100
AcDbEntity
  8
0
100
AcDbLine
 10
90.99421229957398
 20
270.1711989215582
 30
0.0
 11
90.99421229957398
 21
296.1711989215581
 31
0.0
  0
ARC
  5
4203
330
1F
100
AcDbEntity
  8
0
 62
     3
100
AcDbCircle
 10
80.99421229957398
 20
270.1711989215581
 30
0.0
 40
2.5
100
AcDbArc
 50
168.880627278952
 51
104.2247044161056
  0
CIRCLE
  5
4204
330
1F
100
AcDbEntity
  8
0
100
AcDbCircle
 10
80.99421229957398
 20
270.1711989215581
 30
0.0
 40
2.1
  0
ARC
  5
4205
330
1F
100
AcDbEntity
  8
0
 62
     3
100
AcDbCircle
 10
69.99421229957397
 20
270.1711989215581
 30
0.0
 40
2.5
100
AcDbArc
 50
168.880627278952
 51
104.2247044161056
  0
LINE
  5
4206
102
{ACAD_REACTORS
330
434E
102
}
330
1F
100
AcDbEntity
  8
CENTER
 48
0.5
100
AcDbLine
 10
69.99421229957397
 20
265.9652401429533
 30
0.0
 11
69.99421229957397
 21
274.3070882193275
 31
0.0
  0
CIRCLE
  5
4207
330
1F
100
AcDbEntity
  8
0
100
AcDbCircle
 10
69.99421229957397
 20
270.1711989215581
 30
0.0
 40
2.1
  0
LINE
  5
4208
102
{ACAD_REACTORS
330
4351
102
}
330
1F
100
AcDbEntity
  8
CENTER
 48
0.5
100
AcDbLine
 10
80.99421229957398
 20
265.9652401429533
 30
0.0
 11
80.99421229957398
 21
274.3070882193275
 31
0.0
  0
LINE
  5
4209
330
1F
100
AcDbEntity
  8
0
100
AcDbLine
 10
90.99421229957398
 20
249.1711989215577
 30
0.0
 11
90.99421229957398
 21
270.1711989215581
 31
0.0
  0
LINE
  5
420A
102
{ACAD_REACTORS
330
435D
102
}
330
1F
100
AcDbEntity
  8
0
100
AcDbLine
 10
93.99421229957397
 20
270.1711989215582
 30
0.0
 11
93.99421229957397
 21
283.1711989215583
 31
0.0
  0
LINE
  5
420B
330
1F
100
AcDbEntity
  8
0
100
AcDbLine
 10
93.99421229957397
 20
270.1711989215582
 30
0.0
 11
93.99421229957397
 21
257.1711989215582
 31
0.0
  0
LINE
  5
420C
330
1F
100
AcDbEntity
  8
0
100
AcDbLine
 10
96.49421229957397
 20
263.1711989215582
 30
0.0
 11
96.49421229957397
 21
266.2982155753506
 31
0.0
  0
LINE
  5
420D
102
{ACAD_REACTORS
330
4348
330
4367
102
}
330
1F
100
AcDbEntity
  8
0
100
AcDbLine
 10
97.99421229957397
 20
263.1711989215582
 30
0.0
 11
97.99421229957397
 21
277.1711989215583
 31
0.0
  0
LINE
  5
420E
102
{ACAD_REACTORS
330
4367
102
}
330
1F
100
AcDbEntity
  8
0
100
AcDbLine
 10
94.99421229957375
 20
263.1711989215582
 30
0.0
 11
107.9307948778298
 21
263.1711989215583
 31
0.0
  0
ARC
  5
420F
102
{ACAD_REACTORS
330
4360
102
}
330
1F
100
AcDbEntity
  8
0
100
AcDbCircle
 10
92.99421229957397
 20
257.1711989215582
 30
0.0
 40
1.0
100
AcDbArc
 50
270.0
 51
0.0
  0
LINE
  5
4210
102
{ACAD_REACTORS
330
4345
102
}
330
1F
100
AcDbEntity
  8
0
100
AcDbLine
 10
94.99421229957375
 20
277.1711989215583
 30
0.0
 11
107.9307948778298
 21
277.1711989215583
 31
0.0
  0
LINE
  5
4211
330
1F
100
AcDbEntity
  8
0
100
AcDbLine
 10
97.99421229957397
 20
274.0441822677658
 30
0.0
 11
94.99421229957397
 21
274.0441822677659
 31
0.0
  0
LINE
  5
4212
330
1F
100
AcDbEntity
  8
0
100
AcDbLine
 10
96.26216149200514
 20
270.1711989215584
 30
0.0
 11
97.99421229957397
 21
266.2982155753507
 31
0.0
  0
LINE
  5
4213
330
1F
100
AcDbEntity
  8
0
100
AcDbLine
 10
97.99421229957397
 20
266.2982155753507
 30
0.0
 11
94.99421229957397
 21
266.2982155753506
 31
0.0
  0
LINE
  5
4214
330
1F
100
AcDbEntity
  8
0
100
AcDbLine
 10
96.26216149200514
 20
270.1711989215581
 30
0.0
 11
97.99421229957397
 21
274.0441822677658
 31
0.0
  0
LINE
  5
4215
330
1F
100
AcDbEntity
  8
0
100
AcDbLine
 10
94.99421229957397
 20
274.0441822677659
 30
0.0
 11
96.26216149200514
 21
270.1711989215581
 31
0.0
  0
LINE
  5
4216
330
1F
100
AcDbEntity
  8
0
100
AcDbLine
 10
94.99421229957375
 20
274.0441822677657
 30
0.0
 11
94.99421229957375
 21
270.1711989215582
 31
0.0
  0
LINE
  5
4217
330
1F
100
AcDbEntity
  8
0
100
AcDbLine
 10
94.99421229957397
 20
266.2982155753506
 30
0.0
 11
96.26216149200514
 21
270.1711989215584
 31
0.0
  0
LINE
  5
4218
102
{ACAD_REACTORS
330
4367
102
}
330
1F
100
AcDbEntity
  8
0
100
AcDbLine
 10
94.99421229957375
 20
266.2982155753508
 30
0.0
 11
94.99421229957375
 21
270.1711989215582
 31
0.0
  0
ARC
  5
4219
102
{ACAD_REACTORS
330
4367
102
}
330
1F
100
AcDbEntity
  8
0
100
AcDbCircle
 10
101.9942122995739
 20
270.1711989215582
 30
0.0
 40
8.000000000000158
100
AcDbArc
 50
180.0000000000004
 51
208.9550243718603
  0
ARC
  5
421A
330
1F
100
AcDbEntity
  8
0
100
AcDbCircle
 10
101.9942122995739
 20
270.1711989215582
 30
0.0
 40
8.000000000000158
100
AcDbArc
 50
151.0449756281393
 51
180.0000000000004
  0
LINE
  5
421B
330
1F
100
AcDbEntity
  8
0
100
AcDbLine
 10
96.49421229957397
 20
277.1711989215583
 30
0.0
 11
96.49421229957397
 21
274.0441822677659
 31
0.0
  0
ARC
  5
421C
102
{ACAD_REACTORS
330
434B
330
4360
102
}
330
1F
100
AcDbEntity
  8
0
100
AcDbCircle
 10
92.99421229957397
 20
283.1711989215583
 30
0.0
 40
1.0
100
AcDbArc
 50
0.0
 51
90.0
  0
LINE
  5
421D
330
1F
100
AcDbEntity
  8
CENTER
100
AcDbLine
 10
170.9235013090888
 20
270.1711989215582
 30
0.0
 11
230.893361762797
 21
270.1711989215582
 31
0.0
  0
LINE
  5
421E
330
1F
100
AcDbEntity
  8
0
100
AcDbLine
 10
229.2055146607775
 20
261.7711989215582
 30
0.0
 11
229.2055146607775
 21
246.9332988443136
 31
0.0
  0
LINE
  5
421F
330
1F
100
AcDbEntity
  8
CENTER
100
AcDbLine
 10
203.2055146607774
 20
298.5777250390226
 30
0.0
 11
203.2055146607774
 21
241.5378186424597
 31
0.0
  0
CIRCLE
  5
4220
330
1F
100
AcDbEntity
  8
0
100
AcDbCircle
 10
183.2072828809678
 20
250.1729669854324
 30
0.0
 40
3.45
  0
ARC
  5
4221
330
1F
100
AcDbEntity
  8
0
100
AcDbCircle
 10
183.2072828809678
 20
250.1729669854324
 30
0.0
 40
4.0
100
AcDbArc
 50
254.6780967755912
 51
200.8131074224111
  0
LINE
  5
4222
330
1F
100
AcDbEntity
  8
CENTER
100
AcDbLine
 10
183.2072828809678
 20
243.1995674651787
 30
0.0
 11
183.2072828809678
 21
257.1463665056861
 31
0.0
  0
LINE
  5
4223
330
1F
100
AcDbEntity
  8
0
100
AcDbLine
 10
177.2055146607774
 20
257.4711989232582
 30
0.0
 11
177.2055146607774
 21
246.9332988443136
 31
0.0
  0
LINE
  5
4224
330
1F
100
AcDbEntity
  8
0
100
AcDbLine
 10
179.9676145835328
 20
244.1711989215582
 30
0.0
 11
194.8055146607773
 21
244.1711989215581
 31
0.0
  0
ARC
  5
4225
330
1F
100
AcDbEntity
  8
0
100
AcDbCircle
 10
203.2055146607774
 20
270.1711989215582
 30
0.0
 40
35.0
100
AcDbArc
 50
222.3426054522118
 51
227.6573945477934
  0
ARC
  5
4226
330
1F
100
AcDbEntity
  8
0
100
AcDbCircle
 10
177.7055146607774
 20
246.9332988443136
 30
0.0
 40
0.5
100
AcDbArc
 50
180.0
 51
222.3426054522118
  0
ARC
  5
4227
330
1F
100
AcDbEntity
  8
0
100
AcDbCircle
 10
179.9676145835328
 20
244.6711989215582
 30
0.0
 40
0.5
100
AcDbArc
 50
227.6573945477934
 51
270.0
  0
LINE
  5
4228
330
1F
100
AcDbEntity
  8
0
100
AcDbLine
 10
204.3055146607774
 20
246.6711989215582
 30
0.0
 11
213.3055146607774
 21
246.6711989215582
 31
0.0
  0
LINE
  5
4229
330
1F
100
AcDbEntity
  8
0
100
AcDbLine
 10
193.1055146607775
 20
246.6711989215582
 30
0.0
 11
202.1055146607775
 21
246.6711989215582
 31
0.0
  0
LINE
  5
422A
330
1F
100
AcDbEntity
  8
0
100
AcDbLine
 10
193.1055146607775
 20
245.3711989215583
 30
0.0
 11
194.8055146607773
 21
245.3711989215583
 31
0.0
  0
LINE
  5
422B
330
1F
100
AcDbEntity
  8
0
100
AcDbLine
 10
193.1055146607775
 20
246.6711989215582
 30
0.0
 11
193.1055146607775
 21
245.3711989215583
 31
0.0
  0
LINE
  5
422C
330
1F
100
AcDbEntity
  8
0
100
AcDbLine
 10
194.8055146607773
 20
245.3711989215583
 30
0.0
 11
194.8055146607773
 21
244.1711989215582
 31
0.0
  0
LINE
  5
422D
330
1F
100
AcDbEntity
  8
0
100
AcDbLine
 10
202.1055146607775
 20
244.1711989215581
 30
0.0
 11
204.3055146607774
 21
244.1711989215581
 31
0.0
  0
LINE
  5
422E
330
1F
100
AcDbEntity
  8
0
100
AcDbLine
 10
202.1055146607775
 20
246.6711989215582
 30
0.0
 11
202.1055146607775
 21
244.1711989215582
 31
0.0
  0
LINE
  5
422F
330
1F
100
AcDbEntity
  8
0
100
AcDbLine
 10
204.3055146607774
 20
246.6711989215582
 30
0.0
 11
204.3055146607774
 21
244.1711989215582
 31
0.0
  0
LINE
  5
4230
330
1F
100
AcDbEntity
  8
0
100
AcDbLine
 10
211.6055146607775
 20
244.1711989215582
 30
0.0
 11
226.443414738022
 21
244.1711989215582
 31
0.0
  0
LINE
  5
4231
330
1F
100
AcDbEntity
  8
0
100
AcDbLine
 10
213.3055146607774
 20
246.6711989215582
 30
0.0
 11
213.3055146607774
 21
245.3711989215583
 31
0.0
  0
LINE
  5
4232
330
1F
100
AcDbEntity
  8
0
100
AcDbLine
 10
211.6055146607775
 20
245.3711989215583
 30
0.0
 11
211.6055146607775
 21
244.1711989215582
 31
0.0
  0
LINE
  5
4233
330
1F
100
AcDbEntity
  8
0
100
AcDbLine
 10
211.6055146607775
 20
245.3711989215583
 30
0.0
 11
213.3055146607774
 21
245.3711989215583
 31
0.0
  0
ARC
  5
4234
330
1F
100
AcDbEntity
  8
0
100
AcDbCircle
 10
226.443414738022
 20
244.6711989215582
 30
0.0
 40
0.5
100
AcDbArc
 50
270.0
 51
312.3426054522066
  0
ARC
  5
4235
330
1F
100
AcDbEntity
  8
0
100
AcDbCircle
 10
228.7055146607774
 20
246.9332988443136
 30
0.0
 40
0.5
100
AcDbArc
 50
317.6573945477882
 51
0.0
  0
ARC
  5
4236
330
1F
100
AcDbEntity
  8
0
100
AcDbCircle
 10
203.2055146607774
 20
270.1711989215582
 30
0.0
 40
35.0
100
AcDbArc
 50
312.3426054522066
 51
317.6573945477882
  0
LINE
  5
4237
330
1F
100
AcDbEntity
  8
CENTER
100
AcDbLine
 10
190.1806824012215
 20
250.1729669854324
 30
0.0
 11
176.2338833607141
 21
250.1729669854324
 31
0.0
  0
ARC
  5
4238
330
1F
100
AcDbEntity
  8
0
100
AcDbCircle
 10
204.3900582306553
 20
270.171198921558
 30
0.0
 40
18.94589781764398
100
AcDbArc
 50
41.6869772705485
 51
318.3130227294515
  0
CIRCLE
  5
4239
330
1F
100
AcDbEntity
  8
0
100
AcDbCircle
 10
203.2055146607774
 20
270.1711989215581
 30
0.0
 40
20.99999999999941
  0
LINE
  5
423A
330
1F
100
AcDbEntity
  8
0
100
AcDbLine
 10
179.9676145835328
 20
296.1711989215583
 30
0.0
 11
194.8055146607776
 21
296.1711989215581
 31
0.0
  0
ARC
  5
423B
330
1F
100
AcDbEntity
  8
0
100
AcDbCircle
 10
180.8309737805027
 20
280.7003942816091
 30
0.0
 40
1.6999999983
100
AcDbArc
 50
269.8615981726285
 51
359.8615981726252
  0
LINE
  5
423C
330
1F
100
AcDbEntity
  8
0
100
AcDbLine
 10
172.8841560263638
 20
277.2070529941583
 30
0.0
 11
177.2055146607774
 21
277.6711989215582
 31
0.0
  0
LINE
  5
423D
330
1F
100
AcDbEntity
  8
0
100
AcDbLine
 10
172.8841560263638
 20
263.1353448489581
 30
0.0
 11
177.2055146607774
 21
262.6711989215583
 31
0.0
  0
LINE
  5
423E
102
{ACAD_REACTORS
330
4372
102
}
330
1F
100
AcDbEntity
  8
0
100
AcDbLine
 10
172.7055146607774
 20
277.0081967427202
 30
0.0
 11
172.7055146607774
 21
263.3342011003961
 31
0.0
  0
ARC
  5
423F
102
{ACAD_REACTORS
330
4378
102
}
330
1F
100
AcDbEntity
  8
0
100
AcDbCircle
 10
172.9055146607772
 20
263.3342011003961
 30
0.0
 40
0.2
100
AcDbArc
 50
180.0
 51
263.8695112687578
  0
ARC
  5
4240
102
{ACAD_REACTORS
330
4378
102
}
330
1F
100
AcDbEntity
  8
0
100
AcDbCircle
 10
172.9055146607775
 20
277.0081967427202
 30
0.0
 40
0.2
100
AcDbArc
 50
96.13048873124217
 51
180.0
  0
ARC
  5
4241
330
1F
100
AcDbEntity
  8
0
100
AcDbCircle
 10
180.8055146576773
 20
259.6211989211081
 30
0.0
 40
1.6999999983
100
AcDbArc
 50
0.0
 51
90.0
  0
ARC
  5
4242
330
1F
100
AcDbEntity
  8
0
100
AcDbCircle
 10
180.8055146576773
 20
258.7211989220082
 30
0.0
 40
1.6999999983
100
AcDbArc
 50
270.0
 51
0.0
  0
LINE
  5
4243
330
1F
100
AcDbEntity
  8
0
100
AcDbLine
 10
178.7055146597774
 20
257.0211989237081
 30
0.0
 11
180.8055146576773
 21
257.0211989237081
 31
0.0
  0
LINE
  5
4244
330
1F
100
AcDbEntity
  8
0
100
AcDbLine
 10
178.7055146597772
 20
261.3211989194082
 30
0.0
 11
180.8055146576773
 21
261.3211989194082
 31
0.0
  0
LINE
  5
4245
330
1F
100
AcDbEntity
  8
0
100
AcDbLine
 10
178.7055146597772
 20
257.0211989237082
 30
0.0
 11
178.2055146602772
 21
257.4711989232582
 31
0.0
  0
LINE
  5
4246
330
1F
100
AcDbEntity
  8
0
100
AcDbLine
 10
178.7055146597772
 20
261.3211989194082
 30
0.0
 11
178.2055146602772
 21
260.8711989198582
 31
0.0
  0
LINE
  5
4247
330
1F
100
AcDbEntity
  8
0
100
AcDbLine
 10
177.2055146607774
 20
262.6711989215583
 30
0.0
 11
177.2055146607774
 21
260.8711989198582
 31
0.0
  0
LINE
  5
4248
330
1F
100
AcDbEntity
  8
0
100
AcDbLine
 10
177.2055146607774
 20
257.4711989232582
 30
0.0
 11
178.2055146602772
 21
257.4711989232582
 31
0.0
  0
LINE
  5
4249
330
1F
100
AcDbEntity
  8
0
100
AcDbLine
 10
177.2055146607774
 20
260.8711989198582
 30
0.0
 11
178.2055146602772
 21
260.8711989198582
 31
0.0
  0
LINE
  5
424A
330
1F
100
AcDbEntity
  8
0
100
AcDbLine
 10
182.5055146559773
 20
258.7211989220082
 30
0.0
 11
182.5055146559773
 21
259.6211989211081
 31
0.0
  0
LINE
  5
424B
330
1F
100
AcDbEntity
  8
0
100
AcDbLine
 10
178.7268734484291
 20
279.0054719300049
 30
0.0
 11
180.8268673196173
 21
279.0003992430284
 31
0.0
  0
LINE
  5
424C
330
1F
100
AcDbEntity
  8
0
100
AcDbLine
 10
178.7268734484291
 20
279.0054719300049
 30
0.0
 11
178.2279619120222
 21
279.4566783993014
 31
0.0
  0
LINE
  5
424D
330
1F
100
AcDbEntity
  8
0
100
AcDbLine
 10
177.2055146607774
 20
279.4211989215581
 30
0.0
 11
177.2055146607774
 21
277.6711989215581
 31
0.0
  0
LINE
  5
424E
330
1F
100
AcDbEntity
  8
0
100
AcDbLine
 10
177.2279648300043
 20
279.4590939645295
 30
0.0
 11
178.2279619120224
 21
279.4566783993014
 31
0.0
  0
ARC
  5
424F
330
1F
100
AcDbEntity
  8
0
100
AcDbCircle
 10
179.9676145835328
 20
295.6711989215581
 30
0.0
 40
0.5
100
AcDbArc
 50
90.0
 51
132.3426054522068
  0
ARC
  5
4250
330
1F
100
AcDbEntity
  8
0
100
AcDbCircle
 10
180.833147789207
 20
281.6003916549753
 30
0.0
 40
1.6999999983
100
AcDbArc
 50
359.8615981726252
 51
89.86159817262846
  0
LINE
  5
4251
102
{ACAD_REACTORS
330
436F
102
}
330
1F
100
AcDbEntity
  8
0
100
AcDbLine
 10
177.2055146607774
 20
293.4090989988026
 30
0.0
 11
177.2055146607774
 21
282.9211989215583
 31
0.0
  0
LINE
  5
4252
330
1F
100
AcDbEntity
  8
0
100
AcDbLine
 10
178.7372603789051
 20
283.3054593805325
 30
0.0
 11
180.8372542500929
 21
283.3003866935561
 31
0.0
  0
LINE
  5
4253
330
1F
100
AcDbEntity
  8
0
100
AcDbLine
 10
178.7372603789047
 20
283.3054593805325
 30
0.0
 11
178.2361748337937
 21
282.8566684764628
 31
0.0
  0
LINE
  5
4254
330
1F
100
AcDbEntity
  8
0
100
AcDbLine
 10
177.2361777517758
 20
282.8590840416909
 30
0.0
 11
178.2361748337937
 21
282.8566684764628
 31
0.0
  0
ARC
  5
4255
330
1F
100
AcDbEntity
  8
0
100
AcDbCircle
 10
203.2055146607774
 20
270.1711989215582
 30
0.0
 40
35.0
100
AcDbArc
 50
132.3426054522065
 51
137.6573945477882
  0
ARC
  5
4256
330
1F
100
AcDbEntity
  8
0
100
AcDbCircle
 10
177.7055146607774
 20
293.4090989988026
 30
0.0
 40
0.5
100
AcDbArc
 50
137.6573945477882
 51
180.0
  0
LINE
  5
4257
330
1F
100
AcDbEntity
  8
0
100
AcDbLine
 10
182.5331428277879
 20
281.5962851940897
 30
0.0
 11
182.5309688190836
 21
280.6962878207234
 31
0.0
  0
LINE
  5
4258
330
1F
100
AcDbEntity
  8
0
100
AcDbLine
 10
213.3055146607774
 20
293.671198921558
 30
0.0
 11
204.3055146607774
 21
293.671198921558
 31
0.0
  0
CIRCLE
  5
4259
102
{ACAD_REACTORS
330
4375
102
}
330
1F
100
AcDbEntity
  8
0
100
AcDbCircle
 10
203.2055146607774
 20
270.1711989215581
 30
0.0
 40
7.999999999999957
  0
CIRCLE
  5
425A
330
1F
100
AcDbEntity
  8
0
100
AcDbCircle
 10
203.2055146607774
 20
270.1711989215581
 30
0.0
 40
13.99999999999996
  0
LINE
  5
425B
102
{ACAD_REACTORS
330
4375
102
}
330
1F
100
AcDbEntity
  8
0
100
AcDbLine
 10
196.2055146607774
 20
266.298215575351
 30
0.0
 11
196.2055146607774
 21
274.0441822677652
 31
0.0
  0
LINE
  5
425C
330
1F
100
AcDbEntity
  8
0
100
AcDbLine
 10
207.0784980069845
 20
263.171198921558
 30
0.0
 11
199.3325313145703
 21
263.171198921558
 31
0.0
  0
LINE
  5
425D
330
1F
100
AcDbEntity
  8
0
100
AcDbLine
 10
199.3325313145703
 20
277.1711989215583
 30
0.0
 11
207.0784980069845
 21
277.1711989215583
 31
0.0
  0
LINE
  5
425E
330
1F
100
AcDbEntity
  8
0
100
AcDbLine
 10
202.1055146607775
 20
293.671198921558
 30
0.0
 11
193.1055146607775
 21
293.671198921558
 31
0.0
  0
LINE
  5
425F
330
1F
100
AcDbEntity
  8
0
100
AcDbLine
 10
194.8055146607776
 20
294.971198921558
 30
0.0
 11
194.8055146607776
 21
296.1711989215581
 31
0.0
  0
LINE
  5
4260
330
1F
100
AcDbEntity
  8
0
100
AcDbLine
 10
194.8055146607776
 20
294.971198921558
 30
0.0
 11
193.1055146607775
 21
294.971198921558
 31
0.0
  0
LINE
  5
4261
330
1F
100
AcDbEntity
  8
0
100
AcDbLine
 10
193.1055146607775
 20
293.671198921558
 30
0.0
 11
193.1055146607775
 21
294.971198921558
 31
0.0
  0
LINE
  5
4262
330
1F
100
AcDbEntity
  8
0
100
AcDbLine
 10
204.3055146607774
 20
293.671198921558
 30
0.0
 11
204.3055146607774
 21
296.171198921558
 31
0.0
  0
LINE
  5
4263
330
1F
100
AcDbEntity
  8
0
100
AcDbLine
 10
202.1055146607775
 20
293.671198921558
 30
0.0
 11
202.1055146607775
 21
296.171198921558
 31
0.0
  0
LINE
  5
4264
330
1F
100
AcDbEntity
  8
0
100
AcDbLine
 10
204.3055146607774
 20
296.1711989215581
 30
0.0
 11
202.1055146607775
 21
296.1711989215581
 31
0.0
  0
LINE
  5
4265
102
{ACAD_REACTORS
330
4372
102
}
330
1F
100
AcDbEntity
  8
0
100
AcDbLine
 10
229.2055146607775
 20
293.4090989988028
 30
0.0
 11
229.2055146607775
 21
278.5711989215581
 31
0.0
  0
LINE
  5
4266
330
1F
100
AcDbEntity
  8
0
100
AcDbLine
 10
226.7055146607774
 20
271.2711989215581
 30
0.0
 11
226.7055146607774
 21
280.271198921558
 31
0.0
  0
LINE
  5
4267
330
1F
100
AcDbEntity
  8
0
100
AcDbLine
 10
228.0055146607774
 20
278.5711989215581
 30
0.0
 11
228.0055146607774
 21
280.271198921558
 31
0.0
  0
ARC
  5
4268
330
1F
100
AcDbEntity
  8
0
100
AcDbCircle
 10
216.3786453242574
 20
280.8363333065977
 30
0.0
 40
2.9
100
AcDbArc
 50
318.7098514923397
 51
41.85547504026941
  0
ARC
  5
4269
330
1F
100
AcDbEntity
  8
0
100
AcDbCircle
 10
220.73663542589
 20
263.3333249501918
 30
0.0
 40
2.9
100
AcDbArc
 50
75.00000000000555
 51
157.5421213952662
  0
ARC
  5
426A
330
1F
100
AcDbEntity
  8
0
100
AcDbCircle
 10
220.73663542589
 20
277.0090728929242
 30
0.0
 40
2.9
100
AcDbArc
 50
202.4578786047337
 51
284.9999999999944
  0
ARC
  5
426B
330
1F
100
AcDbEntity
  8
0
100
AcDbCircle
 10
216.3786453242574
 20
259.5060645365184
 30
0.0
 40
2.9
100
AcDbArc
 50
318.1445249597306
 51
41.29014850766004
  0
ARC
  5
426C
330
1F
100
AcDbEntity
  8
0
100
AcDbCircle
 10
220.73663542589
 20
263.3333249501918
 30
0.0
 40
2.9
100
AcDbArc
 50
157.5421213952662
 51
221.29014850766
  0
LINE
  5
426D
102
{ACAD_REACTORS
330
4375
102
}
330
1F
100
AcDbEntity
  8
0
100
AcDbLine
 10
210.2055146607774
 20
274.0441822677652
 30
0.0
 11
210.2055146607774
 21
266.298215575351
 31
0.0
  0
ARC
  5
426E
330
1F
100
AcDbEntity
  8
0
100
AcDbCircle
 10
220.73663542589
 20
277.0090728929245
 30
0.0
 40
2.9
100
AcDbArc
 50
138.7098514923399
 51
202.4578786047337
  0
LINE
  5
426F
330
1F
100
AcDbEntity
  8
0
100
AcDbLine
 10
226.7055146607774
 20
260.0711989215581
 30
0.0
 11
226.7055146607772
 21
269.0711989215581
 31
0.0
  0
CIRCLE
  5
4270
330
1F
100
AcDbEntity
  8
0
100
AcDbCircle
 10
220.73663542589
 20
263.3333249501918
 30
0.0
 40
1.25
  0
LINE
  5
4271
330
1F
100
AcDbEntity
  8
0
100
AcDbLine
 10
228.0055146607774
 20
260.0711989215581
 30
0.0
 11
228.0055146607774
 21
261.7711989215582
 31
0.0
  0
LINE
  5
4272
330
1F
100
AcDbEntity
  8
0
100
AcDbLine
 10
226.7055146607774
 20
260.0711989215581
 30
0.0
 11
228.0055146607774
 21
260.0711989215581
 31
0.0
  0
LINE
  5
4273
330
1F
100
AcDbEntity
  8
0
100
AcDbLine
 10
228.0055146607774
 20
261.7711989215582
 30
0.0
 11
229.2055146607775
 21
261.7711989215582
 31
0.0
  0
ARC
  5
4274
330
1F
100
AcDbEntity
  8
0
100
AcDbCircle
 10
223.2156850133642
 20
264.6360903580105
 30
0.0
 40
1.0
100
AcDbArc
 50
62.08244630502939
 51
75.00000000000555
  0
LINE
  5
4275
330
1F
100
AcDbEntity
  8
0
100
AcDbLine
 10
221.4872106566875
 20
266.1345098464301
 30
0.0
 11
223.4745040584669
 21
265.6020161842996
 31
0.0
  0
CIRCLE
  5
4276
330
1F
100
AcDbEntity
  8
0
100
AcDbCircle
 10
220.73663542589
 20
277.0090728929245
 30
0.0
 40
1.25
  0
ARC
  5
4277
330
1F
100
AcDbEntity
  8
0
100
AcDbCircle
 10
223.2156850133642
 20
275.7063074851056
 30
0.0
 40
1.0
100
AcDbArc
 50
284.9999999999944
 51
297.9175536949706
  0
LINE
  5
4278
330
1F
100
AcDbEntity
  8
0
100
AcDbLine
 10
221.4872106566875
 20
274.207887996686
 30
0.0
 11
223.4745040584669
 21
274.7403816588165
 31
0.0
  0
LINE
  5
4279
330
1F
100
AcDbEntity
  8
0
100
AcDbLine
 10
229.2055146607775
 20
269.0711989215581
 30
0.0
 11
229.2055146607775
 21
271.2711989215581
 31
0.0
  0
LINE
  5
427A
330
1F
100
AcDbEntity
  8
0
100
AcDbLine
 10
226.7055146607772
 20
269.0711989215581
 30
0.0
 11
229.2055146607775
 21
269.0711989215581
 31
0.0
  0
LINE
  5
427B
330
1F
100
AcDbEntity
  8
0
100
AcDbLine
 10
226.7055146607774
 20
271.2711989215581
 30
0.0
 11
229.2055146607775
 21
271.2711989215581
 31
0.0
  0
LINE
  5
427C
330
1F
100
AcDbEntity
  8
0
100
AcDbLine
 10
228.0055146607774
 20
278.5711989215581
 30
0.0
 11
229.2055146607775
 21
278.5711989215581
 31
0.0
  0
LINE
  5
427D
330
1F
100
AcDbEntity
  8
0
100
AcDbLine
 10
211.6055146607775
 20
296.1711989215581
 30
0.0
 11
226.4434147380218
 21
296.1711989215583
 31
0.0
  0
LINE
  5
427E
330
1F
100
AcDbEntity
  8
0
100
AcDbLine
 10
211.6055146607775
 20
294.971198921558
 30
0.0
 11
211.6055146607775
 21
296.1711989215581
 31
0.0
  0
LINE
  5
427F
330
1F
100
AcDbEntity
  8
0
100
AcDbLine
 10
213.3055146607774
 20
293.671198921558
 30
0.0
 11
213.3055146607774
 21
294.971198921558
 31
0.0
  0
LINE
  5
4280
330
1F
100
AcDbEntity
  8
0
100
AcDbLine
 10
213.3055146607774
 20
294.971198921558
 30
0.0
 11
211.6055146607775
 21
294.971198921558
 31
0.0
  0
ARC
  5
4281
330
1F
100
AcDbEntity
  8
0
100
AcDbCircle
 10
226.4434147380218
 20
295.6711989215581
 30
0.0
 40
0.5
100
AcDbArc
 50
47.65739454779343
 51
90.0
  0
LINE
  5
4282
330
1F
100
AcDbEntity
  8
0
100
AcDbLine
 10
226.7055146607774
 20
280.271198921558
 30
0.0
 11
228.0055146607774
 21
280.271198921558
 31
0.0
  0
ARC
  5
4283
102
{ACAD_REACTORS
330
436F
102
}
330
1F
100
AcDbEntity
  8
0
100
AcDbCircle
 10
228.7055146607774
 20
293.4090989988027
 30
0.0
 40
0.5
100
AcDbArc
 50
0.0
 51
42.34260545221181
  0
ARC
  5
4284
330
1F
100
AcDbEntity
  8
0
100
AcDbCircle
 10
203.2055146607774
 20
270.1711989215582
 30
0.0
 40
35.0
100
AcDbArc
 50
42.34260545221181
 51
47.65739454779343
  0
LINE
  5
4285
330
1F
100
AcDbEntity
  8
0
100
AcDbLine
 10
125.9942122995739
 20
264.3711989215583
 30
0.0
 11
125.9942122995739
 21
275.9711989215583
 31
0.0
  0
LINE
  5
4286
102
{ACAD_REACTORS
330
4345
330
4348
330
435A
102
}
330
1F
100
AcDbEntity
  8
0
100
AcDbLine
 10
124.7942122995739
 20
277.1711989215583
 30
0.0
 11
125.9942122995739
 21
275.9711989215583
 31
0.0
  0
LINE
  5
4287
330
1F
100
AcDbEntity
  8
0
100
AcDbLine
 10
125.9942122995739
 20
264.3711989215583
 30
0.0
 11
124.7942122995739
 21
263.1711989215583
 31
0.0
  0
LINE
  5
4288
330
1F
100
AcDbEntity
  8
0
 62
     3
100
AcDbLine
 10
100.9942122995739
 20
276.4211989215582
 30
0.0
 11
107.9307948778298
 21
276.4211989215582
 31
0.0
  0
LINE
  5
4289
330
1F
100
AcDbEntity
  8
0
 62
     3
100
AcDbLine
 10
100.9942122995739
 20
263.9211989215582
 30
0.0
 11
107.9307948778298
 21
263.9211989215582
 31
0.0
  0
LINE
  5
428A
102
{ACAD_REACTORS
330
4345
102
}
330
1F
100
AcDbEntity
  8
0
100
AcDbLine
 10
100.9942122995739
 20
263.1711989215583
 30
0.0
 11
100.9942122995739
 21
277.1711989215583
 31
0.0
  0
LINE
  5
428B
330
1F
100
AcDbEntity
  8
0
100
AcDbLine
 10
124.7942122995739
 20
277.1711989215583
 30
0.0
 11
124.7942122995739
 21
263.1711989215583
 31
0.0
  0
ARC
  5
428C
330
1F
100
AcDbEntity
  8
0
100
AcDbCircle
 10
93.93079487782983
 20
270.1711989215582
 30
0.0
 40
22.0
100
AcDbArc
 50
343.0232811802312
 51
16.97671881976878
  0
LINE
  5
428D
102
{ACAD_REACTORS
330
4342
102
}
330
1F
100
AcDbEntity
  8
0
100
AcDbLine
 10
115.9307948778298
 20
260.6449194799294
 30
0.0
 11
115.9307948778298
 21
279.6974783631871
 31
0.0
  0
ARC
  5
428E
330
1F
100
AcDbEntity
  8
0
100
AcDbCircle
 10
129.9307948778298
 20
270.1711989215582
 30
0.0
 40
22.0
100
AcDbArc
 50
163.0232811802312
 51
196.9767188197687
  0
LINE
  5
428F
102
{ACAD_REACTORS
330
4342
102
}
330
1F
100
AcDbEntity
  8
0
100
AcDbLine
 10
107.9307948778298
 20
260.6449194799294
 30
0.0
 11
107.9307948778298
 21
279.6974783631871
 31
0.0
  0
LINE
  5
4290
330
1F
100
AcDbEntity
  8
0
100
AcDbLine
 10
108.8894783759483
 20
263.7475706736246
 30
0.0
 11
114.9721113797113
 21
263.7475706736246
 31
0.0
  0
LINE
  5
4291
330
1F
100
AcDbEntity
  8
0
100
AcDbLine
 10
108.9400636827272
 20
257.4694929993865
 30
0.0
 11
114.9215260729322
 21
257.4694929993865
 31
0.0
  0
ARC
  5
4292
330
1F
100
AcDbEntity
  8
0
100
AcDbCircle
 10
110.4307948778298
 20
260.6449194799294
 30
0.0
 40
5.500000000000028
100
AcDbArc
 50
324.7356103172508
 51
34.34109372674026
  0
ARC
  5
4293
330
1F
100
AcDbEntity
  8
0
100
AcDbCircle
 10
113.4307948778298
 20
260.6449194799294
 30
0.0
 40
5.500000000000028
100
AcDbArc
 50
145.6589062732597
 51
215.2643896827492
  0
LINE
  5
4294
330
1F
100
AcDbEntity
  8
0
100
AcDbLine
 10
108.8894783759483
 20
276.5948271694917
 30
0.0
 11
114.9721113797113
 21
276.5948271694917
 31
0.0
  0
LINE
  5
4295
330
1F
100
AcDbEntity
  8
0
100
AcDbLine
 10
108.9400636827272
 20
282.87290484373
 30
0.0
 11
114.9215260729322
 21
282.87290484373
 31
0.0
  0
ARC
  5
4296
102
{ACAD_REACTORS
330
4342
102
}
330
1F
100
AcDbEntity
  8
0
100
AcDbCircle
 10
110.4307948778298
 20
279.6974783631871
 30
0.0
 40
5.500000000000028
100
AcDbArc
 50
325.6589062732597
 51
35.2643896827492
  0
ARC
  5
4297
330
1F
100
AcDbEntity
  8
0
100
AcDbCircle
 10
113.4307948778298
 20
279.6974783631871
 30
0.0
 40
5.500000000000028
100
AcDbArc
 50
144.7356103172507
 51
214.3410937267403
  0
LINE
  5
4298
330
1F
100
AcDbEntity
  8
0
100
AcDbLine
 10
115.9307948778298
 20
277.1711989215583
 30
0.0
 11
124.7942122995739
 21
277.1711989215583
 31
0.0
  0
LINE
  5
4299
330
1F
100
AcDbEntity
  8
0
 62
     3
100
AcDbLine
 10
115.9307948778298
 20
276.4211989215582
 30
0.0
 11
125.5442122995739
 21
276.4211989215582
 31
0.0
  0
LINE
  5
429A
330
1F
100
AcDbEntity
  8
0
 62
     3
100
AcDbLine
 10
115.9307948778298
 20
263.9211989215583
 30
0.0
 11
125.5442122995739
 21
263.9211989215583
 31
0.0
  0
LINE
  5
429B
330
1F
100
AcDbEntity
  8
0
100
AcDbLine
 10
115.9307948778298
 20
263.1711989215583
 30
0.0
 11
124.7942122995739
 21
263.1711989215583
 31
0.0
  0
ARC
  5
429C
330
1F
100
AcDbEntity
  8
0
 62
     3
100
AcDbCircle
 10
203.2055146607774
 20
270.0577718407412
 30
0.0
 40
7.0
100
AcDbArc
 50
161.3052621793996
 51
112.0644133913037
  0
CIRCLE
  5
429D
330
1F
100
AcDbEntity
  8
0
100
AcDbCircle
 10
203.2055146607774
 20
270.0577718407412
 30
0.0
 40
6.25
  0
LINE
  5
429E
102
{ACAD_REACTORS
330
435D
102
}
330
1F
100
AcDbEntity
  8
0
100
AcDbLine
 10
93.99421229957374
 20
278.1711989215582
 30
0.0
 11
94.99421229957375
 21
277.1711989215583
 31
0.0
  0
LINE
  5
429F
102
{ACAD_REACTORS
330
435D
102
}
330
1F
100
AcDbEntity
  8
0
100
AcDbLine
 10
93.99421229957374
 20
262.1711989215583
 30
0.0
 11
94.99421229957375
 21
263.1711989215582
 31
0.0
  0
LINE
  5
42A0
102
{ACAD_REACTORS
330
438F
102
}
330
1F
100
AcDbEntity
  8
0
100
AcDbLine
 10
93.99421229957397
 20
128.1319392349222
 30
0.0
 11
94.99421229957397
 21
127.1319392349222
 31
0.0
  0
LINE
  5
42A1
102
{ACAD_REACTORS
330
438F
102
}
330
1F
100
AcDbEntity
  8
0
100
AcDbLine
 10
93.99421229957397
 20
112.1319392349223
 30
0.0
 11
94.99421229957397
 21
113.1319392349222
 31
0.0
  0
CIRCLE
  5
42A2
330
1F
100
AcDbEntity
  8
0
100
AcDbCircle
 10
183.2072828809678
 20
250.1729669854324
 30
0.0
 40
5.25
  0
CIRCLE
  5
42A3
330
1F
100
AcDbEntity
  8
0
100
AcDbCircle
 10
223.2072828809678
 20
250.1729669854324
 30
0.0
 40
3.45
  0
ARC
  5
42A4
330
1F
100
AcDbEntity
  8
0
100
AcDbCircle
 10
223.2072828809678
 20
250.1729669854324
 30
0.0
 40
4.0
100
AcDbArc
 50
254.6780967755912
 51
200.8131074224111
  0
LINE
  5
42A5
330
1F
100
AcDbEntity
  8
CENTER
100
AcDbLine
 10
223.2072828809678
 20
243.1995674651787
 30
0.0
 11
223.2072828809678
 21
257.1463665056861
 31
0.0
  0
LINE
  5
42A6
330
1F
100
AcDbEntity
  8
CENTER
100
AcDbLine
 10
230.1806824012215
 20
250.1729669854324
 30
0.0
 11
216.2338833607141
 21
250.1729669854324
 31
0.0
  0
CIRCLE
  5
42A7
330
1F
100
AcDbEntity
  8
0
100
AcDbCircle
 10
223.2072828809678
 20
250.1729669854324
 30
0.0
 40
5.25
  0
CIRCLE
  5
42A8
330
1F
100
AcDbEntity
  8
0
100
AcDbCircle
 10
223.2072828809678
 20
290.1711989215582
 30
0.0
 40
3.45
  0
ARC
  5
42A9
330
1F
100
AcDbEntity
  8
0
100
AcDbCircle
 10
223.2072828809678
 20
290.1711989215582
 30
0.0
 40
4.0
100
AcDbArc
 50
254.6780967755912
 51
200.8131074224111
  0
LINE
  5
42AA
102
{ACAD_REACTORS
330
436C
102
}
330
1F
100
AcDbEntity
  8
CENTER
100
AcDbLine
 10
223.2072828809678
 20
283.1977994013045
 30
0.0
 11
223.2072828809678
 21
297.144598441812
 31
0.0
  0
LINE
  5
42AB
330
1F
100
AcDbEntity
  8
CENTER
100
AcDbLine
 10
230.1806824012215
 20
290.1711989215582
 30
0.0
 11
216.2338833607141
 21
290.1711989215582
 31
0.0
  0
CIRCLE
  5
42AC
330
1F
100
AcDbEntity
  8
0
100
AcDbCircle
 10
223.2072828809678
 20
290.1711989215582
 30
0.0
 40
5.25
  0
CIRCLE
  5
42AD
330
1F
100
AcDbEntity
  8
0
100
AcDbCircle
 10
183.2072828809678
 20
290.1729669854324
 30
0.0
 40
3.45
  0
ARC
  5
42AE
330
1F
100
AcDbEntity
  8
0
100
AcDbCircle
 10
183.2072828809678
 20
290.1729669854324
 30
0.0
 40
4.0
100
AcDbArc
 50
254.6780967755912
 51
200.8131074224111
  0
LINE
  5
42AF
102
{ACAD_REACTORS
330
436C
102
}
330
1F
100
AcDbEntity
  8
CENTER
100
AcDbLine
 10
183.2072828809678
 20
283.1995674651786
 30
0.0
 11
183.2072828809678
 21
297.1463665056861
 31
0.0
  0
LINE
  5
42B0
330
1F
100
AcDbEntity
  8
CENTER
100
AcDbLine
 10
190.1806824012215
 20
290.1729669854324
 30
0.0
 11
176.2338833607141
 21
290.1729669854324
 31
0.0
  0
CIRCLE
  5
42B1
330
1F
100
AcDbEntity
  8
0
100
AcDbCircle
 10
183.2072828809678
 20
290.1729669854324
 30
0.0
 40
5.25
  0
LINE
  5
42B2
330
1F
100
AcDbEntity
  8
CENTER
100
AcDbLine
 10
170.9235013090888
 20
120.1319392349224
 30
0.0
 11
230.893361762797
 21
120.1319392349224
 31
0.0
  0
LINE
  5
42B3
330
1F
100
AcDbEntity
  8
0
100
AcDbLine
 10
229.2055146607775
 20
111.7319392349223
 30
0.0
 11
229.2055146607775
 21
96.89403915767778
 31
0.0
  0
LINE
  5
42B4
330
1F
100
AcDbEntity
  8
CENTER
100
AcDbLine
 10
203.2055146607774
 20
148.5384653523868
 30
0.0
 11
203.2055146607774
 21
91.49855895582382
 31
0.0
  0
CIRCLE
  5
42B5
330
1F
100
AcDbEntity
  8
0
100
AcDbCircle
 10
183.2072828809678
 20
100.1337072987965
 30
0.0
 40
3.45
  0
ARC
  5
42B6
330
1F
100
AcDbEntity
  8
0
 62
     3
100
AcDbCircle
 10
183.2072828809678
 20
100.1337072987965
 30
0.0
 40
4.0
100
AcDbArc
 50
254.6780967755912
 51
200.8131074224111
  0
LINE
  5
42B7
330
1F
100
AcDbEntity
  8
CENTER
100
AcDbLine
 10
183.2072828809678
 20
93.16030777854278
 30
0.0
 11
183.2072828809678
 21
107.1071068190502
 31
0.0
  0
LINE
  5
42B8
330
1F
100
AcDbEntity
  8
0
100
AcDbLine
 10
177.2055146607774
 20
107.4319392366223
 30
0.0
 11
177.2055146607774
 21
96.89403915767778
 31
0.0
  0
LINE
  5
42B9
330
1F
100
AcDbEntity
  8
0
100
AcDbLine
 10
179.9676145835328
 20
94.13193923492238
 30
0.0
 11
194.8055146607773
 21
94.13193923492228
 31
0.0
  0
ARC
  5
42BA
330
1F
100
AcDbEntity
  8
0
100
AcDbCircle
 10
203.2055146607774
 20
120.1319392349224
 30
0.0
 40
35.0
100
AcDbArc
 50
222.3426054522118
 51
227.6573945477934
  0
ARC
  5
42BB
330
1F
100
AcDbEntity
  8
0
100
AcDbCircle
 10
177.7055146607774
 20
96.89403915767778
 30
0.0
 40
0.5
100
AcDbArc
 50
180.0
 51
222.3426054522118
  0
ARC
  5
42BC
330
1F
100
AcDbEntity
  8
0
100
AcDbCircle
 10
179.9676145835328
 20
94.63193923492239
 30
0.0
 40
0.5
100
AcDbArc
 50
227.6573945477934
 51
270.0
  0
LINE
  5
42BD
330
1F
100
AcDbEntity
  8
0
100
AcDbLine
 10
204.3055146607774
 20
96.63193923492238
 30
0.0
 11
213.3055146607774
 21
96.63193923492238
 31
0.0
  0
LINE
  5
42BE
330
1F
100
AcDbEntity
  8
0
100
AcDbLine
 10
193.1055146607775
 20
96.63193923492238
 30
0.0
 11
202.1055146607775
 21
96.63193923492238
 31
0.0
  0
LINE
  5
42BF
330
1F
100
AcDbEntity
  8
0
100
AcDbLine
 10
193.1055146607775
 20
95.33193923492243
 30
0.0
 11
194.8055146607773
 21
95.33193923492243
 31
0.0
  0
LINE
  5
42C0
330
1F
100
AcDbEntity
  8
0
100
AcDbLine
 10
193.1055146607775
 20
96.63193923492238
 30
0.0
 11
193.1055146607775
 21
95.33193923492243
 31
0.0
  0
LINE
  5
42C1
330
1F
100
AcDbEntity
  8
0
100
AcDbLine
 10
194.8055146607773
 20
95.33193923492243
 30
0.0
 11
194.8055146607773
 21
94.13193923492238
 31
0.0
  0
LINE
  5
42C2
330
1F
100
AcDbEntity
  8
0
100
AcDbLine
 10
202.1055146607775
 20
94.13193923492228
 30
0.0
 11
204.3055146607774
 21
94.13193923492228
 31
0.0
  0
LINE
  5
42C3
330
1F
100
AcDbEntity
  8
0
100
AcDbLine
 10
202.1055146607775
 20
96.63193923492238
 30
0.0
 11
202.1055146607775
 21
94.13193923492238
 31
0.0
  0
LINE
  5
42C4
330
1F
100
AcDbEntity
  8
0
100
AcDbLine
 10
204.3055146607774
 20
96.63193923492238
 30
0.0
 11
204.3055146607774
 21
94.13193923492238
 31
0.0
  0
LINE
  5
42C5
330
1F
100
AcDbEntity
  8
0
100
AcDbLine
 10
211.6055146607775
 20
94.13193923492238
 30
0.0
 11
226.443414738022
 21
94.13193923492238
 31
0.0
  0
LINE
  5
42C6
330
1F
100
AcDbEntity
  8
0
100
AcDbLine
 10
213.3055146607774
 20
96.63193923492238
 30
0.0
 11
213.3055146607774
 21
95.33193923492243
 31
0.0
  0
LINE
  5
42C7
330
1F
100
AcDbEntity
  8
0
100
AcDbLine
 10
211.6055146607775
 20
95.33193923492243
 30
0.0
 11
211.6055146607775
 21
94.13193923492238
 31
0.0
  0
LINE
  5
42C8
330
1F
100
AcDbEntity
  8
0
100
AcDbLine
 10
211.6055146607775
 20
95.33193923492243
 30
0.0
 11
213.3055146607774
 21
95.33193923492243
 31
0.0
  0
ARC
  5
42C9
330
1F
100
AcDbEntity
  8
0
100
AcDbCircle
 10
226.443414738022
 20
94.63193923492239
 30
0.0
 40
0.5
100
AcDbArc
 50
270.0
 51
312.3426054522066
  0
ARC
  5
42CA
330
1F
100
AcDbEntity
  8
0
100
AcDbCircle
 10
228.7055146607774
 20
96.89403915767778
 30
0.0
 40
0.5
100
AcDbArc
 50
317.6573945477882
 51
0.0
  0
ARC
  5
42CB
330
1F
100
AcDbEntity
  8
0
100
AcDbCircle
 10
203.2055146607774
 20
120.1319392349224
 30
0.0
 40
35.0
100
AcDbArc
 50
312.3426054522066
 51
317.6573945477882
  0
LINE
  5
42CC
330
1F
100
AcDbEntity
  8
CENTER
100
AcDbLine
 10
190.1806824012215
 20
100.1337072987965
 30
0.0
 11
176.2338833607141
 21
100.1337072987965
 31
0.0
  0
ARC
  5
42CD
330
1F
100
AcDbEntity
  8
0
100
AcDbCircle
 10
204.3900582306553
 20
120.1319392349221
 30
0.0
 40
18.94589781764398
100
AcDbArc
 50
41.6869772705485
 51
318.3130227294515
  0
CIRCLE
  5
42CE
330
1F
100
AcDbEntity
  8
0
100
AcDbCircle
 10
203.2055146607774
 20
120.1319392349222
 30
0.0
 40
20.99999999999941
  0
LINE
  5
42CF
330
1F
100
AcDbEntity
  8
0
100
AcDbLine
 10
179.9676145835328
 20
146.1319392349223
 30
0.0
 11
194.8055146607776
 21
146.1319392349222
 31
0.0
  0
ARC
  5
42D0
330
1F
100
AcDbEntity
  8
0
100
AcDbCircle
 10
180.8309737805027
 20
130.6611345949732
 30
0.0
 40
1.6999999983
100
AcDbArc
 50
269.8615981726285
 51
359.8615981726252
  0
LINE
  5
42D1
330
1F
100
AcDbEntity
  8
0
100
AcDbLine
 10
172.8841560263638
 20
127.1677933075224
 30
0.0
 11
177.2055146607774
 21
127.6319392349224
 31
0.0
  0
LINE
  5
42D2
330
1F
100
AcDbEntity
  8
0
100
AcDbLine
 10
172.8841560263638
 20
113.0960851623222
 30
0.0
 11
177.2055146607774
 21
112.6319392349224
 31
0.0
  0
LINE
  5
42D3
330
1F
100
AcDbEntity
  8
0
100
AcDbLine
 10
172.7055146607774
 20
126.9689370560843
 30
0.0
 11
172.7055146607774
 21
113.2949414137602
 31
0.0
  0
ARC
  5
42D4
330
1F
100
AcDbEntity
  8
0
100
AcDbCircle
 10
172.9055146607772
 20
113.2949414137602
 30
0.0
 40
0.2
100
AcDbArc
 50
180.0
 51
263.8695112687578
  0
ARC
  5
42D5
330
1F
100
AcDbEntity
  8
0
100
AcDbCircle
 10
172.9055146607775
 20
126.9689370560843
 30
0.0
 40
0.2
100
AcDbArc
 50
96.13048873124217
 51
180.0
  0
ARC
  5
42D6
330
1F
100
AcDbEntity
  8
0
100
AcDbCircle
 10
180.8055146576773
 20
109.5819392344722
 30
0.0
 40
1.6999999983
100
AcDbArc
 50
0.0
 51
90.0
  0
ARC
  5
42D7
330
1F
100
AcDbEntity
  8
0
100
AcDbCircle
 10
180.8055146576773
 20
108.6819392353723
 30
0.0
 40
1.6999999983
100
AcDbArc
 50
270.0
 51
0.0
  0
LINE
  5
42D8
330
1F
100
AcDbEntity
  8
0
100
AcDbLine
 10
178.7055146597774
 20
106.9819392370722
 30
0.0
 11
180.8055146576773
 21
106.9819392370722
 31
0.0
  0
LINE
  5
42D9
330
1F
100
AcDbEntity
  8
0
100
AcDbLine
 10
178.7055146597772
 20
111.2819392327723
 30
0.0
 11
180.8055146576773
 21
111.2819392327723
 31
0.0
  0
LINE
  5
42DA
330
1F
100
AcDbEntity
  8
0
100
AcDbLine
 10
178.7055146597772
 20
106.9819392370723
 30
0.0
 11
178.2055146602772
 21
107.4319392366223
 31
0.0
  0
LINE
  5
42DB
330
1F
100
AcDbEntity
  8
0
100
AcDbLine
 10
178.7055146597772
 20
111.2819392327723
 30
0.0
 11
178.2055146602772
 21
110.8319392332223
 31
0.0
  0
LINE
  5
42DC
330
1F
100
AcDbEntity
  8
0
100
AcDbLine
 10
177.2055146607774
 20
112.6319392349224
 30
0.0
 11
177.2055146607774
 21
110.8319392332223
 31
0.0
  0
LINE
  5
42DD
330
1F
100
AcDbEntity
  8
0
100
AcDbLine
 10
177.2055146607774
 20
107.4319392366223
 30
0.0
 11
178.2055146602772
 21
107.4319392366223
 31
0.0
  0
LINE
  5
42DE
330
1F
100
AcDbEntity
  8
0
100
AcDbLine
 10
177.2055146607774
 20
110.8319392332223
 30
0.0
 11
178.2055146602772
 21
110.8319392332223
 31
0.0
  0
LINE
  5
42DF
330
1F
100
AcDbEntity
  8
0
100
AcDbLine
 10
182.5055146559773
 20
108.6819392353723
 30
0.0
 11
182.5055146559773
 21
109.5819392344722
 31
0.0
  0
LINE
  5
42E0
330
1F
100
AcDbEntity
  8
0
100
AcDbLine
 10
178.7268734484291
 20
128.966212243369
 30
0.0
 11
180.8268673196173
 21
128.9611395563925
 31
0.0
  0
LINE
  5
42E1
330
1F
100
AcDbEntity
  8
0
100
AcDbLine
 10
178.7268734484291
 20
128.966212243369
 30
0.0
 11
178.2279619120222
 21
129.4174187126655
 31
0.0
  0
LINE
  5
42E2
330
1F
100
AcDbEntity
  8
0
100
AcDbLine
 10
177.2055146607774
 20
129.3819392349222
 30
0.0
 11
177.2055146607774
 21
127.6319392349222
 31
0.0
  0
LINE
  5
42E3
330
1F
100
AcDbEntity
  8
0
100
AcDbLine
 10
177.2279648300043
 20
129.4198342778936
 30
0.0
 11
178.2279619120224
 21
129.4174187126655
 31
0.0
  0
ARC
  5
42E4
330
1F
100
AcDbEntity
  8
0
100
AcDbCircle
 10
179.9676145835328
 20
145.6319392349223
 30
0.0
 40
0.5
100
AcDbArc
 50
90.0
 51
132.3426054522068
  0
ARC
  5
42E5
330
1F
100
AcDbEntity
  8
0
100
AcDbCircle
 10
180.833147789207
 20
131.5611319683394
 30
0.0
 40
1.6999999983
100
AcDbArc
 50
359.8615981726252
 51
89.86159817262846
  0
LINE
  5
42E6
330
1F
100
AcDbEntity
  8
0
100
AcDbLine
 10
177.2055146607774
 20
143.3698393121667
 30
0.0
 11
177.2055146607774
 21
132.8819392349224
 31
0.0
  0
LINE
  5
42E7
330
1F
100
AcDbEntity
  8
0
100
AcDbLine
 10
178.7372603789051
 20
133.2661996938966
 30
0.0
 11
180.8372542500929
 21
133.2611270069202
 31
0.0
  0
LINE
  5
42E8
330
1F
100
AcDbEntity
  8
0
100
AcDbLine
 10
178.7372603789047
 20
133.2661996938966
 30
0.0
 11
178.2361748337937
 21
132.8174087898269
 31
0.0
  0
LINE
  5
42E9
330
1F
100
AcDbEntity
  8
0
100
AcDbLine
 10
177.2361777517758
 20
132.8198243550551
 30
0.0
 11
178.2361748337937
 21
132.8174087898269
 31
0.0
  0
ARC
  5
42EA
330
1F
100
AcDbEntity
  8
0
100
AcDbCircle
 10
203.2055146607774
 20
120.1319392349224
 30
0.0
 40
35.0
100
AcDbArc
 50
132.3426054522065
 51
137.6573945477882
  0
ARC
  5
42EB
330
1F
100
AcDbEntity
  8
0
100
AcDbCircle
 10
177.7055146607774
 20
143.3698393121667
 30
0.0
 40
0.5
100
AcDbArc
 50
137.6573945477882
 51
180.0
  0
LINE
  5
42EC
330
1F
100
AcDbEntity
  8
0
100
AcDbLine
 10
182.5331428277879
 20
131.5570255074538
 30
0.0
 11
182.5309688190836
 21
130.6570281340876
 31
0.0
  0
LINE
  5
42ED
330
1F
100
AcDbEntity
  8
0
100
AcDbLine
 10
213.3055146607774
 20
143.6319392349221
 30
0.0
 11
204.3055146607774
 21
143.6319392349221
 31
0.0
  0
CIRCLE
  5
42EE
330
1F
100
AcDbEntity
  8
0
100
AcDbCircle
 10
203.2055146607774
 20
120.1319392349222
 30
0.0
 40
13.99999999999996
  0
LINE
  5
42EF
330
1F
100
AcDbEntity
  8
0
100
AcDbLine
 10
202.1055146607775
 20
143.6319392349221
 30
0.0
 11
193.1055146607775
 21
143.6319392349221
 31
0.0
  0
LINE
  5
42F0
330
1F
100
AcDbEntity
  8
0
100
AcDbLine
 10
194.8055146607776
 20
144.9319392349221
 30
0.0
 11
194.8055146607776
 21
146.1319392349222
 31
0.0
  0
LINE
  5
42F1
330
1F
100
AcDbEntity
  8
0
100
AcDbLine
 10
194.8055146607776
 20
144.9319392349221
 30
0.0
 11
193.1055146607775
 21
144.9319392349221
 31
0.0
  0
LINE
  5
42F2
330
1F
100
AcDbEntity
  8
0
100
AcDbLine
 10
193.1055146607775
 20
143.6319392349221
 30
0.0
 11
193.1055146607775
 21
144.9319392349221
 31
0.0
  0
LINE
  5
42F3
330
1F
100
AcDbEntity
  8
0
100
AcDbLine
 10
204.3055146607774
 20
143.6319392349221
 30
0.0
 11
204.3055146607774
 21
146.1319392349221
 31
0.0
  0
LINE
  5
42F4
330
1F
100
AcDbEntity
  8
0
100
AcDbLine
 10
202.1055146607775
 20
143.6319392349221
 30
0.0
 11
202.1055146607775
 21
146.1319392349221
 31
0.0
  0
LINE
  5
42F5
330
1F
100
AcDbEntity
  8
0
100
AcDbLine
 10
204.3055146607774
 20
146.1319392349222
 30
0.0
 11
202.1055146607775
 21
146.1319392349222
 31
0.0
  0
LINE
  5
42F6
330
1F
100
AcDbEntity
  8
0
100
AcDbLine
 10
229.2055146607775
 20
143.369839312167
 30
0.0
 11
229.2055146607775
 21
128.5319392349222
 31
0.0
  0
LINE
  5
42F7
330
1F
100
AcDbEntity
  8
0
100
AcDbLine
 10
226.7055146607774
 20
121.2319392349222
 30
0.0
 11
226.7055146607774
 21
130.2319392349222
 31
0.0
  0
LINE
  5
42F8
330
1F
100
AcDbEntity
  8
0
100
AcDbLine
 10
228.0055146607774
 20
128.5319392349222
 30
0.0
 11
228.0055146607774
 21
130.2319392349222
 31
0.0
  0
ARC
  5
42F9
330
1F
100
AcDbEntity
  8
0
100
AcDbCircle
 10
216.3786453242574
 20
130.7970736199618
 30
0.0
 40
2.9
100
AcDbArc
 50
318.7098514923397
 51
41.85547504026941
  0
ARC
  5
42FA
330
1F
100
AcDbEntity
  8
0
100
AcDbCircle
 10
220.73663542589
 20
113.2940652635559
 30
0.0
 40
2.9
100
AcDbArc
 50
75.00000000000555
 51
157.5421213952662
  0
ARC
  5
42FB
330
1F
100
AcDbEntity
  8
0
100
AcDbCircle
 10
220.73663542589
 20
126.9698132062883
 30
0.0
 40
2.9
100
AcDbArc
 50
202.4578786047337
 51
284.9999999999944
  0
ARC
  5
42FC
330
1F
100
AcDbEntity
  8
0
100
AcDbCircle
 10
216.3786453242574
 20
109.4668048498825
 30
0.0
 40
2.9
100
AcDbArc
 50
318.1445249597306
 51
41.29014850766004
  0
ARC
  5
42FD
330
1F
100
AcDbEntity
  8
0
100
AcDbCircle
 10
220.73663542589
 20
113.2940652635559
 30
0.0
 40
2.9
100
AcDbArc
 50
157.5421213952662
 51
221.29014850766
  0
ARC
  5
42FE
330
1F
100
AcDbEntity
  8
0
100
AcDbCircle
 10
220.73663542589
 20
126.9698132062886
 30
0.0
 40
2.9
100
AcDbArc
 50
138.7098514923399
 51
202.4578786047337
  0
LINE
  5
42FF
330
1F
100
AcDbEntity
  8
0
100
AcDbLine
 10
226.7055146607774
 20
110.0319392349222
 30
0.0
 11
226.7055146607772
 21
119.0319392349222
 31
0.0
  0
CIRCLE
  5
4300
330
1F
100
AcDbEntity
  8
0
100
AcDbCircle
 10
220.73663542589
 20
113.2940652635559
 30
0.0
 40
1.25
  0
LINE
  5
4301
330
1F
100
AcDbEntity
  8
0
100
AcDbLine
 10
228.0055146607774
 20
110.0319392349222
 30
0.0
 11
228.0055146607774
 21
111.7319392349223
 31
0.0
  0
LINE
  5
4302
330
1F
100
AcDbEntity
  8
0
100
AcDbLine
 10
226.7055146607774
 20
110.0319392349222
 30
0.0
 11
228.0055146607774
 21
110.0319392349222
 31
0.0
  0
LINE
  5
4303
330
1F
100
AcDbEntity
  8
0
100
AcDbLine
 10
228.0055146607774
 20
111.7319392349223
 30
0.0
 11
229.2055146607775
 21
111.7319392349223
 31
0.0
  0
ARC
  5
4304
330
1F
100
AcDbEntity
  8
0
100
AcDbCircle
 10
223.2156850133642
 20
114.5968306713746
 30
0.0
 40
1.0
100
AcDbArc
 50
62.08244630502939
 51
75.00000000000555
  0
LINE
  5
4305
330
1F
100
AcDbEntity
  8
0
100
AcDbLine
 10
221.4872106566875
 20
116.0952501597942
 30
0.0
 11
223.4745040584669
 21
115.5627564976637
 31
0.0
  0
CIRCLE
  5
4306
330
1F
100
AcDbEntity
  8
0
100
AcDbCircle
 10
220.73663542589
 20
126.9698132062886
 30
0.0
 40
1.25
  0
ARC
  5
4307
330
1F
100
AcDbEntity
  8
0
100
AcDbCircle
 10
223.2156850133642
 20
125.6670477984697
 30
0.0
 40
1.0
100
AcDbArc
 50
284.9999999999944
 51
297.9175536949706
  0
LINE
  5
4308
330
1F
100
AcDbEntity
  8
0
100
AcDbLine
 10
221.4872106566875
 20
124.1686283100502
 30
0.0
 11
223.4745040584669
 21
124.7011219721807
 31
0.0
  0
LINE
  5
4309
330
1F
100
AcDbEntity
  8
0
100
AcDbLine
 10
229.2055146607775
 20
119.0319392349222
 30
0.0
 11
229.2055146607775
 21
121.2319392349222
 31
0.0
  0
LINE
  5
430A
330
1F
100
AcDbEntity
  8
0
100
AcDbLine
 10
226.7055146607772
 20
119.0319392349222
 30
0.0
 11
229.2055146607775
 21
119.0319392349222
 31
0.0
  0
LINE
  5
430B
330
1F
100
AcDbEntity
  8
0
100
AcDbLine
 10
226.7055146607774
 20
121.2319392349222
 30
0.0
 11
229.2055146607775
 21
121.2319392349222
 31
0.0
  0
LINE
  5
430C
330
1F
100
AcDbEntity
  8
0
100
AcDbLine
 10
228.0055146607774
 20
128.5319392349222
 30
0.0
 11
229.2055146607775
 21
128.5319392349222
 31
0.0
  0
LINE
  5
430D
330
1F
100
AcDbEntity
  8
0
100
AcDbLine
 10
211.6055146607775
 20
146.1319392349222
 30
0.0
 11
226.4434147380218
 21
146.1319392349223
 31
0.0
  0
LINE
  5
430E
330
1F
100
AcDbEntity
  8
0
100
AcDbLine
 10
211.6055146607775
 20
144.9319392349221
 30
0.0
 11
211.6055146607775
 21
146.1319392349222
 31
0.0
  0
LINE
  5
430F
330
1F
100
AcDbEntity
  8
0
100
AcDbLine
 10
213.3055146607774
 20
143.6319392349221
 30
0.0
 11
213.3055146607774
 21
144.9319392349221
 31
0.0
  0
LINE
  5
4310
330
1F
100
AcDbEntity
  8
0
100
AcDbLine
 10
213.3055146607774
 20
144.9319392349221
 30
0.0
 11
211.6055146607775
 21
144.9319392349221
 31
0.0
  0
ARC
  5
4311
330
1F
100
AcDbEntity
  8
0
100
AcDbCircle
 10
226.4434147380218
 20
145.6319392349223
 30
0.0
 40
0.5
100
AcDbArc
 50
47.65739454779343
 51
90.0
  0
LINE
  5
4312
330
1F
100
AcDbEntity
  8
0
100
AcDbLine
 10
226.7055146607774
 20
130.2319392349222
 30
0.0
 11
228.0055146607774
 21
130.2319392349222
 31
0.0
  0
ARC
  5
4313
330
1F
100
AcDbEntity
  8
0
100
AcDbCircle
 10
228.7055146607774
 20
143.3698393121668
 30
0.0
 40
0.5
100
AcDbArc
 50
0.0
 51
42.34260545221181
  0
ARC
  5
4314
330
1F
100
AcDbEntity
  8
0
100
AcDbCircle
 10
203.2055146607774
 20
120.1319392349224
 30
0.0
 40
35.0
100
AcDbArc
 50
42.34260545221181
 51
47.65739454779343
  0
CIRCLE
  5
4315
330
1F
100
AcDbEntity
  8
0
100
AcDbCircle
 10
183.2072828809678
 20
100.1337072987965
 30
0.0
 40
5.25
  0
CIRCLE
  5
4316
330
1F
100
AcDbEntity
  8
0
100
AcDbCircle
 10
223.2072828809678
 20
100.1337072987965
 30
0.0
 40
3.45
  0
ARC
  5
4317
330
1F
100
AcDbEntity
  8
0
 62
     3
100
AcDbCircle
 10
223.2072828809678
 20
100.1337072987965
 30
0.0
 40
4.0
100
AcDbArc
 50
254.6780967755912
 51
200.8131074224111
  0
LINE
  5
4318
330
1F
100
AcDbEntity
  8
CENTER
100
AcDbLine
 10
223.2072828809678
 20
93.16030777854278
 30
0.0
 11
223.2072828809678
 21
107.1071068190502
 31
0.0
  0
LINE
  5
4319
330
1F
100
AcDbEntity
  8
CENTER
100
AcDbLine
 10
230.1806824012215
 20
100.1337072987965
 30
0.0
 11
216.2338833607141
 21
100.1337072987965
 31
0.0
  0
CIRCLE
  5
431A
330
1F
100
AcDbEntity
  8
0
100
AcDbCircle
 10
223.2072828809678
 20
100.1337072987965
 30
0.0
 40
5.25
  0
CIRCLE
  5
431B
330
1F
100
AcDbEntity
  8
0
100
AcDbCircle
 10
223.2072828809678
 20
140.1319392349224
 30
0.0
 40
3.45
  0
ARC
  5
431C
330
1F
100
AcDbEntity
  8
0
 62
     3
100
AcDbCircle
 10
223.2072828809678
 20
140.1319392349224
 30
0.0
 40
4.0
100
AcDbArc
 50
254.6780967755912
 51
200.8131074224111
  0
LINE
  5
431D
330
1F
100
AcDbEntity
  8
CENTER
100
AcDbLine
 10
223.2072828809678
 20
133.1585397146686
 30
0.0
 11
223.2072828809678
 21
147.1053387551761
 31
0.0
  0
LINE
  5
431E
330
1F
100
AcDbEntity
  8
CENTER
100
AcDbLine
 10
230.1806824012215
 20
140.1319392349224
 30
0.0
 11
216.2338833607141
 21
140.1319392349224
 31
0.0
  0
CIRCLE
  5
431F
330
1F
100
AcDbEntity
  8
0
100
AcDbCircle
 10
223.2072828809678
 20
140.1319392349224
 30
0.0
 40
5.25
  0
CIRCLE
  5
4320
330
1F
100
AcDbEntity
  8
0
100
AcDbCircle
 10
183.2072828809678
 20
140.1337072987965
 30
0.0
 40
3.45
  0
ARC
  5
4321
330
1F
100
AcDbEntity
  8
0
 62
     3
100
AcDbCircle
 10
183.2072828809678
 20
140.1337072987965
 30
0.0
 40
4.0
100
AcDbArc
 50
254.6780967755912
 51
200.8131074224111
  0
LINE
  5
4322
330
1F
100
AcDbEntity
  8
CENTER
100
AcDbLine
 10
183.2072828809678
 20
133.1603077785427
 30
0.0
 11
183.2072828809678
 21
147.1071068190502
 31
0.0
  0
LINE
  5
4323
330
1F
100
AcDbEntity
  8
CENTER
100
AcDbLine
 10
190.1806824012215
 20
140.1337072987965
 30
0.0
 11
176.2338833607141
 21
140.1337072987965
 31
0.0
  0
CIRCLE
  5
4324
330
1F
100
AcDbEntity
  8
0
100
AcDbCircle
 10
183.2072828809678
 20
140.1337072987965
 30
0.0
 40
5.25
  0
LINE
  5
4325
330
1F
100
AcDbEntity
  8
0
100
AcDbLine
 10
90.99421229957375
 20
263.2005443139667
 30
0.0
 11
59.99421229957397
 21
263.2005443139667
 31
0.0
  0
LINE
  5
4326
330
1F
100
AcDbEntity
  8
0
100
AcDbLine
 10
90.99421229957398
 20
260.8711989198582
 30
0.0
 11
59.99421229957397
 21
260.8711989198582
 31
0.0
  0
LINE
  5
4327
330
1F
100
AcDbEntity
  8
0
100
AcDbLine
 10
90.99421229957398
 20
257.4711989232582
 30
0.0
 11
59.99421229957397
 21
257.4711989232582
 31
0.0
  0
LINE
  5
4328
330
1F
100
AcDbEntity
  8
0
100
AcDbLine
 10
90.99421229957398
 20
246.752720064685
 30
0.0
 11
59.99421229957397
 21
246.752720064685
 31
0.0
  0
LINE
  5
4329
330
1F
100
AcDbEntity
  8
0
100
AcDbLine
 10
90.99421229957398
 20
244.1711989215582
 30
0.0
 11
59.99421229957397
 21
244.1711989215582
 31
0.0
  0
LINE
  5
432A
330
1F
100
AcDbEntity
  8
0
100
AcDbLine
 10
90.99421229957375
 20
277.1418535291497
 30
0.0
 11
59.99421229957397
 21
277.1418535291496
 31
0.0
  0
LINE
  5
432B
330
1F
100
AcDbEntity
  8
0
100
AcDbLine
 10
90.99421229957375
 20
279.4711989232582
 30
0.0
 11
59.99421229957397
 21
279.4711989232581
 31
0.0
  0
LINE
  5
432C
330
1F
100
AcDbEntity
  8
0
100
AcDbLine
 10
90.99421229957375
 20
282.8711989198582
 30
0.0
 11
59.99421229957397
 21
282.8711989198581
 31
0.0
  0
LINE
  5
432D
330
1F
100
AcDbEntity
  8
0
100
AcDbLine
 10
90.99421229957375
 20
293.5896777784313
 30
0.0
 11
59.99421229957397
 21
293.5896777784312
 31
0.0
  0
LINE
  5
432E
102
{ACAD_REACTORS
330
4351
330
435A
102
}
330
1F
100
AcDbEntity
  8
0
100
AcDbLine
 10
90.99421229957375
 20
296.1711989215581
 30
0.0
 11
59.99421229957397
 21
296.171198921558
 31
0.0
  0
LINE
  5
432F
102
{ACAD_REACTORS
330
4383
102
}
330
1F
100
AcDbEntity
  8
0
100
AcDbLine
 10
59.99421229957397
 20
94.13193923492165
 30
0.0
 11
59.99421229957397
 21
146.131939234922
 31
0.0
  0
ARC
  5
4330
330
1F
100
AcDbEntity
  8
0
 62
     3
100
AcDbCircle
 10
80.99421229957398
 20
120.1319392349221
 30
0.0
 40
2.5
100
AcDbArc
 50
168.880627278952
 51
104.2247044161056
  0
CIRCLE
  5
4331
330
1F
100
AcDbEntity
  8
0
100
AcDbCircle
 10
80.99421229957398
 20
120.1319392349221
 30
0.0
 40
2.1
  0
ARC
  5
4332
330
1F
100
AcDbEntity
  8
0
 62
     3
100
AcDbCircle
 10
69.99421229957397
 20
120.1319392349221
 30
0.0
 40
2.5
100
AcDbArc
 50
168.880627278952
 51
104.2247044161056
  0
LINE
  5
4333
102
{ACAD_REACTORS
330
4383
102
}
330
1F
100
AcDbEntity
  8
CENTER
 48
0.5
100
AcDbLine
 10
69.99421229957397
 20
115.9259804563173
 30
0.0
 11
69.99421229957397
 21
124.2678285326915
 31
0.0
  0
CIRCLE
  5
4334
330
1F
100
AcDbEntity
  8
0
100
AcDbCircle
 10
69.99421229957397
 20
120.1319392349221
 30
0.0
 40
2.1
  0
LINE
  5
4335
102
{ACAD_REACTORS
330
4386
102
}
330
1F
100
AcDbEntity
  8
CENTER
 48
0.5
100
AcDbLine
 10
80.99421229957398
 20
115.9259804563173
 30
0.0
 11
80.99421229957398
 21
124.2678285326915
 31
0.0
  0
LINE
  5
4336
330
1F
100
AcDbEntity
  8
0
100
AcDbLine
 10
90.99421229957375
 20
113.1612846273307
 30
0.0
 11
59.99421229957397
 21
113.1612846273306
 31
0.0
  0
LINE
  5
4337
330
1F
100
AcDbEntity
  8
0
100
AcDbLine
 10
90.99421229957398
 20
110.8319392332222
 30
0.0
 11
59.99421229957397
 21
110.8319392332222
 31
0.0
  0
LINE
  5
4338
330
1F
100
AcDbEntity
  8
0
100
AcDbLine
 10
90.99421229957398
 20
107.4319392366221
 30
0.0
 11
59.99421229957397
 21
107.4319392366221
 31
0.0
  0
LINE
  5
4339
330
1F
100
AcDbEntity
  8
0
100
AcDbLine
 10
90.99421229957398
 20
96.71346037804898
 30
0.0
 11
59.99421229957397
 21
96.71346037804898
 31
0.0
  0
LINE
  5
433A
330
1F
100
AcDbEntity
  8
0
100
AcDbLine
 10
90.99421229957398
 20
94.13193923492222
 30
0.0
 11
59.99421229957397
 21
94.13193923492224
 31
0.0
  0
LINE
  5
433B
330
1F
100
AcDbEntity
  8
0
100
AcDbLine
 10
90.99421229957375
 20
127.1025938425136
 30
0.0
 11
59.99421229957397
 21
127.1025938425135
 31
0.0
  0
LINE
  5
433C
330
1F
100
AcDbEntity
  8
0
100
AcDbLine
 10
90.99421229957375
 20
129.4319392366221
 30
0.0
 11
59.99421229957397
 21
129.4319392366219
 31
0.0
  0
LINE
  5
433D
330
1F
100
AcDbEntity
  8
0
100
AcDbLine
 10
90.99421229957375
 20
132.8319392332222
 30
0.0
 11
59.99421229957397
 21
132.831939233222
 31
0.0
  0
LINE
  5
433E
330
1F
100
AcDbEntity
  8
0
100
AcDbLine
 10
90.99421229957375
 20
143.5504180917953
 30
0.0
 11
59.99421229957397
 21
143.5504180917952
 31
0.0
  0
LINE
  5
433F
102
{ACAD_REACTORS
330
437D
330
4380
330
4386
102
}
330
1F
100
AcDbEntity
  8
0
100
AcDbLine
 10
90.99421229957375
 20
146.131939234922
 30
0.0
 11
59.99421229957397
 21
146.131939234922
 31
0.0
  0
DIMENSION
  5
4340
102
{ACAD_XDICTIONARY
360
4341
102
}
102
{ACAD_REACTORS
330
4342
102
}
330
1F
100
AcDbEntity
  8
DIM
100
AcDbDimension
  2
*D7
 10
115.93079487783
 20
288.6853558805836
 30
0.0
 11
111.9307948778299
 21
290.9353558805836
 31
0.0
 70
    32
 71
     5
 42
8.000000000000227
  3
AM_ANSI
100
AcDbAlignedDimension
 13
107.9307948778298
 23
279.6974783631871
 33
0.0
 14
115.93079487783
 24
279.6974783631871
 34
0.0
100
AcDbRotatedDimension
1001
ACAD
1000
DSTYLE
1002
{
1070
    42
1040
1.5
1070
    43
1040
8.0
1070
    44
1040
1.5
1070
    73
1070
     0
1070
    74
1070
     0
1070
    77
1070
     3
1070
   140
1040
2.5
1070
   141
1040
3.0
1070
   146
1040
0.6
1070
   147
1040
1.0
1070
   172
1070
     1
1070
   178
1070
   256
1070
   272
1070
     2
1070
   274
1070
     2
1070
   340
1005
4003
1002
}
  0
DIMENSION
  5
4343
102
{ACAD_XDICTIONARY
360
4344
102
}
102
{ACAD_REACTORS
330
4345
102
}
330
1F
100
AcDbEntity
  8
DIM
100
AcDbDimension
  2
*D8
 10
125.9942122995739
 20
294.9793897013717
 30
0.0
 11
113.4942122995739
 21
297.2293897013717
 31
0.0
 70
    32
 71
     5
 42
25.0
  3
AM_ANSI
100
AcDbAlignedDimension
 13
100.9942122995739
 23
277.1711989215583
 33
0.0
 14
125.9942122995739
 24
275.9711989215582
 34
0.0
100
AcDbRotatedDimension
1001
ACAD
1000
DSTYLE
1002
{
1070
    42
1040
1.5
1070
    43
1040
8.0
1070
    44
1040
1.5
1070
    73
1070
     0
1070
    74
1070
     0
1070
    77
1070
     3
1070
   140
1040
2.5
1070
   141
1040
3.0
1070
   146
1040
0.6
1070
   147
1040
1.0
1070
   172
1070
     1
1070
   178
1070
   256
1070
   272
1070
     2
1070
   274
1070
     2
1070
   340
1005
4003
1002
}
  0
DIMENSION
  5
4346
102
{ACAD_XDICTIONARY
360
4347
102
}
102
{ACAD_REACTORS
330
4348
102
}
330
1F
100
AcDbEntity
  8
DIM
100
AcDbDimension
  2
*D9
 10
125.9942122995739
 20
301.3714929871663
 30
0.0
 11
111.994212299574
 21
303.6214929871663
 31
0.0
 70
    32
 71
     5
 42
28.0
  3
AM_ANSI
100
AcDbAlignedDimension
 13
97.99421229957397
 23
277.1711989215583
 33
0.0
 14
125.9942122995739
 24
275.9711989215583
 34
0.0
100
AcDbRotatedDimension
1001
ACAD
1000
DSTYLE
1002
{
1070
    42
1040
1.5
1070
    43
1040
8.0
1070
    44
1040
1.5
1070
    73
1070
     0
1070
    74
1070
     0
1070
    77
1070
     3
1070
   140
1040
2.5
1070
   141
1040
3.0
1070
   146
1040
0.6
1070
   147
1040
1.0
1070
   172
1070
     1
1070
   178
1070
   256
1070
   272
1070
     2
1070
   274
1070
     2
1070
   340
1005
4003
1002
}
  0
DIMENSION
  5
4349
102
{ACAD_XDICTIONARY
360
434A
102
}
102
{ACAD_REACTORS
330
434B
102
}
330
1F
100
AcDbEntity
  8
DIM
100
AcDbDimension
  2
*D10
 10
93.99421229957397
 20
305.3513182695756
 30
0.0
 11
92.49421229957397
 21
305.3513182695756
 31
0.0
 70
   160
 71
     5
 42
3.0
  3
AM_ANSI
100
AcDbAlignedDimension
 13
90.99421229957398
 23
296.1711989215581
 33
0.0
 14
93.99421229957397
 24
283.1711989215583
 34
0.0
100
AcDbRotatedDimension
1001
ACAD
1000
DSTYLE
1002
{
1070
    42
1040
1.5
1070
    43
1040
8.0
1070
    44
1040
1.5
1070
    73
1070
     0
1070
    74
1070
     0
1070
    77
1070
     3
1070
   140
1040
2.5
1070
   141
1040
3.0
1070
   146
1040
0.6
1070
   147
1040
1.0
1070
   172
1070
     1
1070
   178
1070
   256
1070
   272
1070
     2
1070
   274
1070
     2
1070
   340
1005
4003
1002
}
  0
DIMENSION
  5
434C
102
{ACAD_XDICTIONARY
360
434D
102
}
102
{ACAD_REACTORS
330
434E
102
}
330
1F
100
AcDbEntity
  8
DIM
100
AcDbDimension
  2
*D11
 10
69.99421229957397
 20
305.3513182695756
 30
0.0
 11
64.99421229957397
 21
307.6013182695755
 31
0.0
 70
    32
 71
     5
 42
10.0
  3
AM_ANSI
100
AcDbAlignedDimension
 13
59.99421229957397
 23
296.171198921558
 33
0.0
 14
69.99421229957397
 24
274.3070882193275
 34
0.0
100
AcDbRotatedDimension
1001
ACAD
1000
DSTYLE
1002
{
1070
    42
1040
1.5
1070
    43
1040
8.0
1070
    44
1040
1.5
1070
    73
1070
     0
1070
    74
1070
     0
1070
    77
1070
     3
1070
   140
1040
2.5
1070
   141
1040
3.0
1070
   146
1040
0.6
1070
   147
1040
1.0
1070
   172
1070
     1
1070
   178
1070
   256
1070
   272
1070
     2
1070
   274
1070
     2
1070
   340
1005
4003
1002
}
  0
DIMENSION
  5
434F
102
{ACAD_XDICTIONARY
360
4350
102
}
102
{ACAD_REACTORS
330
4351
102
}
330
1F
100
AcDbEntity
  8
DIM
100
AcDbDimension
  2
*D12
 10
90.99421229957375
 20
305.3513182695756
 30
0.0
 11
85.99421229957386
 21
307.6013182695755
 31
0.0
 70
    32
 71
     5
 42
9.999999999999772
  3
AM_ANSI
100
AcDbAlignedDimension
 13
80.99421229957398
 23
274.3070882193275
 33
0.0
 14
90.99421229957375
 24
296.1711989215581
 34
0.0
100
AcDbRotatedDimension
1001
ACAD
1000
DSTYLE
1002
{
1070
    42
1040
1.5
1070
    43
1040
8.0
1070
    44
1040
1.5
1070
    73
1070
     0
1070
    74
1070
     0
1070
    77
1070
     3
1070
   140
1040
2.5
1070
   141
1040
3.0
1070
   146
1040
0.6
1070
   147
1040
1.0
1070
   172
1070
     1
1070
   178
1070
   256
1070
   272
1070
     2
1070
   274
1070
     2
1070
   340
1005
4003
1002
}
  0
DIMENSION
  5
4358
102
{ACAD_XDICTIONARY
360
4359
102
}
102
{ACAD_REACTORS
330
435A
102
}
330
1F
100
AcDbEntity
  8
DIM
100
AcDbDimension
  2
*D13
 10
125.9942122995739
 20
312.2394186815304
 30
0.0
 11
108.4942122995739
 21
314.4894186815303
 31
0.0
 70
    32
 71
     5
 42
35.0
  3
AM_ANSI
100
AcDbAlignedDimension
 13
90.99421229957398
 23
296.1711989215581
 33
0.0
 14
125.9942122995739
 24
275.9711989215583
 34
0.0
100
AcDbRotatedDimension
1001
ACAD
1000
DSTYLE
1002
{
1070
    42
1040
1.5
1070
    43
1040
8.0
1070
    44
1040
1.5
1070
    73
1070
     0
1070
    74
1070
     0
1070
    77
1070
     3
1070
   140
1040
2.5
1070
   141
1040
3.0
1070
   146
1040
0.6
1070
   147
1040
1.0
1070
   172
1070
     1
1070
   178
1070
   256
1070
   272
1070
     2
1070
   274
1070
     2
1070
   340
1005
4003
1002
}
  0
DIMENSION
  5
435B
102
{ACAD_XDICTIONARY
360
435C
102
}
102
{ACAD_REACTORS
330
435D
102
}
330
1F
100
AcDbEntity
  8
DIM
100
AcDbDimension
  2
*D14
 10
137.6200013873965
 20
278.1711989215579
 30
0.0
 11
135.3700013873965
 21
270.1711989215581
 31
0.0
 70
    32
  1
%%c<>
 71
     5
 42
15.99999999999971
  3
AM_ANSI
100
AcDbAlignedDimension
 13
93.99421229957374
 23
262.1711989215583
 33
0.0
 14
93.99421229957397
 24
278.171198921558
 34
0.0
 50
90.0
100
AcDbRotatedDimension
1001
ACAD
1000
DSTYLE
1002
{
1070
    42
1040
1.5
1070
    43
1040
8.0
1070
    44
1040
1.5
1070
    73
1070
     0
1070
    74
1070
     0
1070
    77
1070
     3
1070
   140
1040
2.5
1070
   141
1040
3.0
1070
   146
1040
0.6
1070
   147
1040
1.0
1070
   172
1070
     1
1070
   178
1070
   256
1070
   272
1070
     2
1070
   274
1070
     2
1070
   340
1005
4003
1002
}
  0
DIMENSION
  5
435E
102
{ACAD_XDICTIONARY
360
435F
102
}
102
{ACAD_REACTORS
330
4360
102
}
330
1F
100
AcDbEntity
  8
DIM
100
AcDbDimension
  2
*D15
 10
146.9152234825135
 20
284.1711989215582
 30
0.0
 11
143.8443901491801
 21
270.1711989215582
 31
0.0
 70
    32
  1
%%c<>{}{\H0.71x;\C3;\S 0^ -0.05;}
 71
     5
 42
28.0
  3
AM_ANSI
100
AcDbAlignedDimension
 13
92.99421229957397
 23
256.1711989215583
 33
0.0
 14
92.99421229957397
 24
284.1711989215582
 34
0.0
 50
90.0
100
AcDbRotatedDimension
1001
GENIUS_GENDTOL_13
1000
TolSmNrm
1000

1000
{\H0.71x;$2\S$+$P^ $-$M;}
1040
28.0
1001
ACAD
1000
DSTYLE
1002
{
1070
   286
1070
     0
1070
   284
1070
     8
1070
    42
1040
1.5
1070
    43
1040
8.0
1070
    44
1040
1.5
1070
    47
1040
0.0
1070
    48
1040
0.05
1070
    73
1070
     0
1070
    74
1070
     0
1070
    77
1070
     3
1070
   140
1040
2.5
1070
   141
1040
3.0
1070
   146
1040
0.6
1070
   147
1040
1.0
1070
   172
1070
     1
1070
   178
1070
   256
1070
   272
1070
     2
1070
   274
1070
     2
1070
   340
1005
4003
1002
}
  0
LEADER
  5
4361
330
1F
100
AcDbEntity
  8
DIM
100
AcDbLeader
  3
AM_ANSI$7
 73
     0
 74
     0
 75
     1
 40
2.0
 41
11.04761904761904
 76
     3
 10
120.3625035887019
 20
263.1711989215583
 30
0.0
 10
129.294950929593
 20
248.9869677187878
 30
0.0
 10
131.294950929593
 20
248.9869677187878
 30
0.0
340
4362
213
0.8150760156128171
223
0.3869799573012926
233
0.0
1001
ACAD
1000
DSTYLE
1002
{
1070
    41
1040
2.0
1070
    42
1040
1.5
1070
    43
1040
8.0
1070
    44
1040
1.5
1070
    73
1070
     0
1070
    74
1070
     0
1070
    77
1070
     3
1070
   140
1040
2.0
1070
   141
1040
3.0
1070
   146
1040
0.6
1070
   147
1040
1.0
1070
   172
1070
     1
1070
   178
1070
   256
1070
   272
1070
     2
1070
   274
1070
     2
1070
   340
1005
4003
1002
}
  0
MTEXT
  5
4362
102
{ACAD_REACTORS
330
4361
102
}
330
1F
100
AcDbEntity
  8
DIM
100
AcDbMText
 10
131.4798749139802
 20
251.5999877614865
 30
0.0
 40
2.0
 41
0.0
 71
     1
 72
     1
  1
M14*1.5
  7
dayus
 73
     1
 44
1.0
1001
ACAD
1000
MTEXTBEGIN
1070
    73
1070
     1
1070
    44
1040
1.0
1070
    74
1070
     0
1000
MTEXTEND
  0
LEADER
  5
4363
330
1F
100
AcDbEntity
  8
DIM
100
AcDbLeader
  3
AM_ANSI$7
 73
     0
 74
     0
 75
     1
 40
2.0
 41
3.238095238095239
 76
     3
 10
112.1304488049918
 20
258.9995868002434
 30
0.0
 10
118.7619201664936
 20
245.7503530091443
 30
0.0
 10
120.7619201664936
 20
245.7503530091443
 30
0.0
340
4364
213
1.28621199348413
223
0.2860289400440479
233
0.0
1001
ACAD
1000
DSTYLE
1002
{
1070
    41
1040
2.0
1070
    42
1040
1.5
1070
    43
1040
8.0
1070
    44
1040
1.5
1070
    73
1070
     0
1070
    74
1070
     0
1070
    77
1070
     3
1070
   140
1040
2.0
1070
   141
1040
3.0
1070
   146
1040
0.6
1070
   147
1040
1.0
1070
   172
1070
     1
1070
   178
1070
   256
1070
   272
1070
     2
1070
   274
1070
     2
1070
   340
1005
4003
1002
}
  0
MTEXT
  5
4364
102
{ACAD_REACTORS
330
4363
102
}
330
1F
100
AcDbEntity
  8
DIM
100
AcDbMText
 10
120.4757081730094
 20
248.4643240691002
 30
0.0
 40
2.0
 41
0.0
 71
     1
 72
     1
  1
22
  7
dayus
 73
     1
 44
1.0
1001
ACAD
1000
MTEXTBEGIN
1070
    73
1070
     1
1070
    44
1040
1.0
1070
    74
1070
     0
1000
MTEXTEND
  0
DIMENSION
  5
4365
102
{ACAD_XDICTIONARY
360
4366
102
}
102
{ACAD_REACTORS
330
4367
102
}
330
1F
100
AcDbEntity
  8
DIM
100
AcDbDimension
  2
*D16
 10
97.99421229957397
 20
249.0942076924097
 30
0.0
 11
96.49421229957386
 21
249.0942076924097
 31
0.0
 70
   160
 71
     5
 42
3.000000000000227
  3
AM_ANSI
100
AcDbAlignedDimension
 13
94.99421229957375
 23
266.2982155753509
 33
0.0
 14
97.99421229957397
 24
263.1711989215582
 34
0.0
100
AcDbRotatedDimension
1001
ACAD
1000
DSTYLE
1002
{
1070
    42
1040
1.5
1070
    43
1040
8.0
1070
    44
1040
1.5
1070
    73
1070
     0
1070
    74
1070
     0
1070
    77
1070
     3
1070
   140
1040
2.5
1070
   141
1040
3.0
1070
   146
1040
0.6
1070
   147
1040
1.0
1070
   172
1070
     1
1070
   178
1070
   256
1070
   272
1070
     2
1070
   274
1070
     2
1070
   340
1005
4003
1002
}
  0
LEADER
  5
4368
330
1F
100
AcDbEntity
  8
DIM
100
AcDbLeader
  3
AM_ANSI$7
 73
     0
 75
     1
 40
8.452380952380952
 41
38.2142857142857
 76
     3
 10
67.91572800746212
 20
271.5604084260767
 30
0.0
 10
55.91975935578535
 20
282.3861889330642
 30
0.0
 10
53.91975935578535
 20
282.3861889330642
 30
0.0
340
4369
213
-1.543897086449305
223
0.4194728829406813
233
0.0
1001
ACAD
1000
DSTYLE
1002
{
1070
    41
1040
2.0
1070
    42
1040
1.5
1070
    43
1040
8.0
1070
    44
1040
1.5
1070
    73
1070
     0
1070
    74
1070
     0
1070
    77
1070
     3
1070
   140
1040
2.0
1070
   141
1040
3.0
1070
   146
1040
0.6
1070
   147
1040
1.0
1070
   172
1070
     1
1070
   178
1070
   256
1070
   272
1070
     8
1070
   274
1070
     2
1070
   340
1005
4003
1002
}
  0
MTEXT
  5
4369
102
{ACAD_REACTORS
330
4368
102
}
330
1F
100
AcDbEntity
  8
DIM
100
AcDbMText
 10
54.46365644223465
 20
282.9667160501235
 30
0.0
 40
2.5
 41
0.0
 71
     9
 72
     1
  1
2-M5*0.8(ST=5mm)\PPT1/8
  7
dayus
 73
     1
 44
1.0
1001
ACAD
1000
MTEXTBEGIN
1070
    73
1070
     1
1070
    44
1040
1.0
1070
    74
1070
     0
1000
MTEXTEND
  0
DIMENSION
  5
436A
102
{ACAD_XDICTIONARY
360
436B
102
}
102
{ACAD_REACTORS
330
436C
102
}
330
1F
100
AcDbEntity
  8
DIM
100
AcDbDimension
  2
*D17
 10
223.2072828809678
 20
305.3513182695756
 30
0.0
 11
203.2072828809678
 21
307.6013182695755
 31
0.0
 70
    32
  1
□<>
 71
     5
 42
40.0
  3
AM_ANSI
100
AcDbAlignedDimension
 13
183.2072828809678
 23
297.1463665056861
 33
0.0
 14
223.2072828809678
 24
297.144598441812
 34
0.0
100
AcDbRotatedDimension
1001
ACAD
1000
DSTYLE
1002
{
1070
    42
1040
1.5
1070
    43
1040
8.0
1070
    44
1040
1.5
1070
    73
1070
     0
1070
    74
1070
     0
1070
    77
1070
     3
1070
   140
1040
2.5
1070
   141
1040
3.0
1070
   146
1040
0.6
1070
   147
1040
1.0
1070
   172
1070
     1
1070
   178
1070
   256
1070
   272
1070
     2
1070
   274
1070
     2
1070
   340
1005
4003
1002
}
  0
DIMENSION
  5
436D
102
{ACAD_XDICTIONARY
360
436E
102
}
102
{ACAD_REACTORS
330
436F
102
}
330
1F
100
AcDbEntity
  8
DIM
100
AcDbDimension
  2
*D18
 10
229.2055146607775
 20
312.2394186815304
 30
0.0
 11
203.2055146607774
 21
314.4894186815303
 31
0.0
 70
    32
  1
□<>
 71
     5
 42
52.0
  3
AM_ANSI
100
AcDbAlignedDimension
 13
177.2055146607774
 23
293.4090989988026
 33
0.0
 14
229.2055146607775
 24
293.4090989988027
 34
0.0
100
AcDbRotatedDimension
1001
ACAD
1000
DSTYLE
1002
{
1070
    42
1040
1.5
1070
    43
1040
8.0
1070
    44
1040
1.5
1070
    73
1070
     0
1070
    74
1070
     0
1070
    77
1070
     3
1070
   140
1040
2.5
1070
   141
1040
3.0
1070
   146
1040
0.6
1070
   147
1040
1.0
1070
   172
1070
     1
1070
   178
1070
   256
1070
   272
1070
     2
1070
   274
1070
     2
1070
   340
1005
4003
1002
}
  0
DIMENSION
  5
4370
102
{ACAD_XDICTIONARY
360
4371
102
}
102
{ACAD_REACTORS
330
4372
102
}
330
1F
100
AcDbEntity
  8
DIM
100
AcDbDimension
  2
*D19
 10
229.2055146607775
 20
318.5906322819256
 30
0.0
 11
200.9555146607775
 21
320.8406322819256
 31
0.0
 70
    32
  1
<>
 71
     5
 42
56.5
  3
AM_ANSI
100
AcDbAlignedDimension
 13
172.7055146607774
 23
277.0081967427202
 33
0.0
 14
229.2055146607775
 24
293.4090989988028
 34
0.0
100
AcDbRotatedDimension
1001
ACAD
1000
DSTYLE
1002
{
1070
    42
1040
1.5
1070
    43
1040
8.0
1070
    44
1040
1.5
1070
    73
1070
     0
1070
    74
1070
     0
1070
    77
1070
     3
1070
   140
1040
2.5
1070
   141
1040
3.0
1070
   146
1040
0.6
1070
   147
1040
1.0
1070
   172
1070
     1
1070
   178
1070
   256
1070
   272
1070
     2
1070
   274
1070
     2
1070
   340
1005
4003
1002
}
  0
DIMENSION
  5
4373
102
{ACAD_XDICTIONARY
360
4374
102
}
102
{ACAD_REACTORS
330
4375
102
}
330
1F
100
AcDbEntity
  8
DIM
100
AcDbDimension
  2
*D20
 10
210.2055146607774
 20
233.4557506117061
 30
0.0
 11
203.2055146607774
 21
235.7057506117062
 31
0.0
 70
    32
  1
□<>
 71
     5
 42
14.0
  3
AM_ANSI
100
AcDbAlignedDimension
 13
196.2055146607774
 23
266.2982155753508
 33
0.0
 14
210.2055146607774
 24
266.2982155753513
 34
0.0
100
AcDbRotatedDimension
1001
ACAD
1000
DSTYLE
1002
{
1070
    42
1040
1.5
1070
    43
1040
8.0
1070
    44
1040
1.5
1070
    73
1070
     0
1070
    74
1070
     0
1070
    77
1070
     3
1070
   140
1040
2.5
1070
   141
1040
3.0
1070
   146
1040
0.6
1070
   147
1040
1.0
1070
   172
1070
     1
1070
   178
1070
   256
1070
   272
1070
     2
1070
   274
1070
     2
1070
   340
1005
4003
1002
}
  0
DIMENSION
  5
4376
102
{ACAD_XDICTIONARY
360
4377
102
}
102
{ACAD_REACTORS
330
4378
102
}
330
1F
100
AcDbEntity
  8
DIM
100
AcDbDimension
  2
*D21
 10
164.8277946108393
 20
263.2005443139667
 30
0.0
 11
162.5777946108393
 21
270.1711989215582
 31
0.0
 70
    32
 71
     5
 42
13.94130921518285
  3
AM_ANSI
100
AcDbAlignedDimension
 13
172.7567334003937
 23
277.1418535291496
 33
0.0
 14
172.7567334003935
 24
263.2005443139667
 34
0.0
 50
90.0
100
AcDbRotatedDimension
1001
ACAD
1000
DSTYLE
1002
{
1070
    42
1040
1.5
1070
    43
1040
8.0
1070
    44
1040
1.5
1070
    73
1070
     0
1070
    74
1070
     0
1070
    77
1070
     3
1070
   140
1040
2.5
1070
   141
1040
3.0
1070
   146
1040
0.6
1070
   147
1040
1.0
1070
   172
1070
     1
1070
   178
1070
   256
1070
   271
1070
     0
1070
   272
1070
     2
1070
   274
1070
     2
1070
   340
1005
4003
1002
}
  0
LEADER
  5
4379
330
1F
100
AcDbEntity
  8
DIM
100
AcDbLeader
  3
AM_ANSI$7
 73
     0
 74
     0
 75
     1
 40
10.83333333333333
 41
36.66666666666666
 76
     3
 10
227.3658501995978
 20
293.3756985480867
 30
0.0
 10
238.0960121615086
 20
301.918593349639
 30
0.0
 10
240.5960121615086
 20
301.918593349639
 30
0.0
340
437A
213
-0.1905629376930165
223
0.2179465301056638
233
0.0
1001
ACAD
1000
DSTYLE
1002
{
1070
    41
1040
2.5
1070
    42
1040
1.5
1070
    43
1040
8.0
1070
    44
1040
1.5
1070
    73
1070
     0
1070
    74
1070
     0
1070
    77
1070
     3
1070
   140
1040
2.0
1070
   141
1040
3.0
1070
   146
1040
0.6
1070
   147
1040
1.0
1070
   172
1070
     1
1070
   178
1070
   256
1070
   272
1070
     2
1070
   274
1070
     2
1070
   340
1005
4003
1002
}
  0
MTEXT
  5
437A
102
{ACAD_REACTORS
330
4379
102
}
330
1F
100
AcDbEntity
  8
DIM
100
AcDbMText
 10
241.7865750992016
 20
313.5339801528666
 30
0.0
 40
2.5
 41
0.0
 71
     1
 72
     1
  1
%%C10.5*8 depth\PM8*1.25*12.5 depth\P%%C6.9 thru
  7
dayus
 73
     1
 44
1.0
1001
ACAD
1000
MTEXTBEGIN
1070
    73
1070
     1
1070
    44
1040
1.0
1070
    74
1070
     0
1000
MTEXTEND
  0
DIMENSION
  5
437B
102
{ACAD_XDICTIONARY
360
437C
102
}
102
{ACAD_REACTORS
330
437D
102
}
330
1F
100
AcDbEntity
  8
DIM
100
AcDbDimension
  2
*D22
 10
97.99421229957397
 20
159.0629359226049
 30
0.0
 11
94.49421229957385
 21
161.3129359226049
 31
0.0
 70
    32
 71
     5
 42
7.000000000000227
  3
AM_ANSI
100
AcDbAlignedDimension
 13
90.99421229957375
 23
146.131939234922
 33
0.0
 14
97.99421229957397
 24
127.1319392349222
 34
0.0
100
AcDbRotatedDimension
1001
ACAD
1000
DSTYLE
1002
{
1070
    42
1040
1.5
1070
    43
1040
8.0
1070
    44
1040
1.5
1070
    73
1070
     0
1070
    74
1070
     0
1070
    77
1070
     3
1070
   140
1040
2.5
1070
   141
1040
3.0
1070
   146
1040
0.6
1070
   147
1040
1.0
1070
   172
1070
     1
1070
   178
1070
   256
1070
   272
1070
     2
1070
   274
1070
     2
1070
   340
1005
4003
1002
}
  0
DIMENSION
  5
437E
102
{ACAD_XDICTIONARY
360
437F
102
}
102
{ACAD_REACTORS
330
4380
102
}
330
1F
100
AcDbEntity
  8
DIM
100
AcDbDimension
  2
*D23
 10
93.99421229957397
 20
152.8201142074426
 30
0.0
 11
92.49421229957397
 21
152.8201142074426
 31
0.0
 70
   160
 71
     5
 42
3.0
  3
AM_ANSI
100
AcDbAlignedDimension
 13
90.99421229957398
 23
146.131939234922
 33
0.0
 14
93.99421229957397
 24
133.1319392349222
 34
0.0
100
AcDbRotatedDimension
1001
ACAD
1000
DSTYLE
1002
{
1070
    42
1040
1.5
1070
    43
1040
8.0
1070
    44
1040
1.5
1070
    73
1070
     0
1070
    74
1070
     0
1070
    77
1070
     3
1070
   140
1040
2.5
1070
   141
1040
3.0
1070
   146
1040
0.6
1070
   147
1040
1.0
1070
   172
1070
     1
1070
   178
1070
   256
1070
   272
1070
     2
1070
   274
1070
     2
1070
   340
1005
4003
1002
}
  0
DIMENSION
  5
4381
102
{ACAD_XDICTIONARY
360
4382
102
}
102
{ACAD_REACTORS
330
4383
102
}
330
1F
100
AcDbEntity
  8
DIM
100
AcDbDimension
  2
*D24
 10
69.99421229957397
 20
152.8201142074426
 30
0.0
 11
64.99421229957397
 21
155.0701142074426
 31
0.0
 70
    32
 71
     5
 42
10.0
  3
AM_ANSI
100
AcDbAlignedDimension
 13
59.99421229957397
 23
146.131939234922
 33
0.0
 14
69.99421229957397
 24
124.2678285326915
 34
0.0
100
AcDbRotatedDimension
1001
ACAD
1000
DSTYLE
1002
{
1070
    42
1040
1.5
1070
    43
1040
8.0
1070
    44
1040
1.5
1070
    73
1070
     0
1070
    74
1070
     0
1070
    77
1070
     3
1070
   140
1040
2.5
1070
   141
1040
3.0
1070
   146
1040
0.6
1070
   147
1040
1.0
1070
   172
1070
     1
1070
   178
1070
   256
1070
   272
1070
     2
1070
   274
1070
     2
1070
   340
1005
4003
1002
}
  0
DIMENSION
  5
4384
102
{ACAD_XDICTIONARY
360
4385
102
}
102
{ACAD_REACTORS
330
4386
102
}
330
1F
100
AcDbEntity
  8
DIM
100
AcDbDimension
  2
*D25
 10
90.99421229957375
 20
152.8201142074426
 30
0.0
 11
85.99421229957386
 21
155.0701142074426
 31
0.0
 70
    32
 71
     5
 42
9.999999999999772
  3
AM_ANSI
100
AcDbAlignedDimension
 13
80.99421229957398
 23
124.2678285326915
 33
0.0
 14
90.99421229957375
 24
146.131939234922
 34
0.0
100
AcDbRotatedDimension
1001
ACAD
1000
DSTYLE
1002
{
1070
    42
1040
1.5
1070
    43
1040
8.0
1070
    44
1040
1.5
1070
    73
1070
     0
1070
    74
1070
     0
1070
    77
1070
     3
1070
   140
1040
2.5
1070
   141
1040
3.0
1070
   146
1040
0.6
1070
   147
1040
1.0
1070
   172
1070
     1
1070
   178
1070
   256
1070
   272
1070
     2
1070
   274
1070
     2
1070
   340
1005
4003
1002
}
  0
DIMENSION
  5
438D
102
{ACAD_XDICTIONARY
360
438E
102
}
102
{ACAD_REACTORS
330
438F
102
}
330
1F
100
AcDbEntity
  8
DIM
100
AcDbDimension
  2
*D26
 10
108.8217869639225
 20
128.1319392349222
 30
0.0
 11
106.5717869639224
 21
120.1319392349222
 31
0.0
 70
    32
  1
%%c<>
 71
     5
 42
15.9999999999999
  3
AM_ANSI
100
AcDbAlignedDimension
 13
93.99421229957397
 23
112.1319392349223
 33
0.0
 14
93.99421229957397
 24
128.1319392349222
 34
0.0
 50
90.0
100
AcDbRotatedDimension
1001
ACAD
1000
DSTYLE
1002
{
1070
    42
1040
1.5
1070
    43
1040
8.0
1070
    44
1040
1.5
1070
    73
1070
     0
1070
    74
1070
     0
1070
    77
1070
     3
1070
   140
1040
2.5
1070
   141
1040
3.0
1070
   146
1040
0.6
1070
   147
1040
1.0
1070
   172
1070
     1
1070
   178
1070
   256
1070
   272
1070
     2
1070
   274
1070
     2
1070
   340
1005
4003
1002
}
  0
DIMENSION
  5
4390
102
{ACAD_XDICTIONARY
360
4391
102
}
102
{ACAD_REACTORS
330
4392
102
}
330
1F
100
AcDbEntity
  8
DIM
100
AcDbDimension
  2
*D27
 10
118.5537608780075
 20
106.1319392349222
 30
0.0
 11
115.4829275446742
 21
120.1319392349222
 31
0.0
 70
    32
  1
%%c<>{}{\H0.71x;\C3;\S 0^ -0.05;}
 71
     5
 42
28.00000000000003
  3
AM_ANSI
100
AcDbAlignedDimension
 13
92.99421229957397
 23
134.1319392349222
 33
0.0
 14
92.99421229957397
 24
106.1319392349222
 34
0.0
 50
90.0
100
AcDbRotatedDimension
1001
GENIUS_GENDTOL_13
1000
TolSmNrm
1000

1000
{\H0.71x;$2\S$+$P^ $-$M;}
1040
28.0
1001
ACAD
1000
DSTYLE
1002
{
1070
   286
1070
     0
1070
   284
1070
     8
1070
    42
1040
1.5
1070
    43
1040
8.0
1070
    44
1040
1.5
1070
    47
1040
0.0
1070
    48
1040
0.05
1070
    73
1070
     0
1070
    74
1070
     0
1070
    77
1070
     3
1070
   140
1040
2.5
1070
   141
1040
3.0
1070
   146
1040
0.6
1070
   147
1040
1.0
1070
   172
1070
     1
1070
   178
1070
   256
1070
   272
1070
     2
1070
   274
1070
     2
1070
   340
1005
4003
1002
}
  0
DIMENSION
  5
4393
102
{ACAD_XDICTIONARY
360
4394
102
}
102
{ACAD_REACTORS
330
4395
102
}
330
1F
100
AcDbEntity
  8
DIM
100
AcDbDimension
  2
*D28
 10
97.99421229957397
 20
98.53800788845614
 30
0.0
 11
96.49421229957386
 21
98.53800788845614
 31
0.0
 70
   160
 71
     5
 42
3.000000000000227
  3
AM_ANSI
100
AcDbAlignedDimension
 13
94.99421229957375
 23
116.2589558887149
 33
0.0
 14
97.99421229957397
 24
113.1319392349223
 34
0.0
100
AcDbRotatedDimension
1001
ACAD
1000
DSTYLE
1002
{
1070
    42
1040
1.5
1070
    43
1040
8.0
1070
    44
1040
1.5
1070
    73
1070
     0
1070
    74
1070
     0
1070
    77
1070
     3
1070
   140
1040
2.5
1070
   141
1040
3.0
1070
   146
1040
0.6
1070
   147
1040
1.0
1070
   172
1070
     1
1070
   178
1070
   256
1070
   272
1070
     2
1070
   274
1070
     2
1070
   340
1005
4003
1002
}
  0
LEADER
  5
4396
330
1F
100
AcDbEntity
  8
DIM
100
AcDbLeader
  3
AM_ANSI$7
 73
     0
 75
     1
 40
8.452380952380952
 41
38.2142857142857
 76
     3
 10
67.91572800746212
 20
121.5211487394406
 30
0.0
 10
55.91975935578535
 20
132.3469292464281
 30
0.0
 10
53.91975935578535
 20
132.3469292464281
 30
0.0
340
4397
213
-1.543897086449305
223
0.4194728829406813
233
0.0
1001
ACAD
1000
DSTYLE
1002
{
1070
    41
1040
2.0
1070
    42
1040
1.5
1070
    43
1040
8.0
1070
    44
1040
1.5
1070
    73
1070
     0
1070
    74
1070
     0
1070
    77
1070
     3
1070
   140
1040
2.0
1070
   141
1040
3.0
1070
   146
1040
0.6
1070
   147
1040
1.0
1070
   172
1070
     1
1070
   178
1070
   256
1070
   272
1070
     8
1070
   274
1070
     2
1070
   340
1005
4003
1002
}
  0
MTEXT
  5
4397
102
{ACAD_REACTORS
330
4396
102
}
330
1F
100
AcDbEntity
  8
DIM
100
AcDbMText
 10
54.46365644223465
 20
132.9274563634875
 30
0.0
 40
2.5
 41
0.0
 71
     9
 72
     1
  1
2-M5*0.8(ST=5mm)\PPT1/8
  7
dayus
 73
     1
 44
1.0
1001
ACAD
1000
MTEXTBEGIN
1070
    73
1070
     1
1070
    44
1040
1.0
1070
    74
1070
     0
1000
MTEXTEND
  0
DIMENSION
  5
4398
330
1F
100
AcDbEntity
  8
DIM
100
AcDbDimension
  2
*D2
 10
223.2072828809678
 20
155.3120585829397
 30
0.0
 11
203.2072828809678
 21
157.5620585829397
 31
0.0
 70
    32
  1
□<>
 71
     5
 42
40.0
  3
AM_ANSI
100
AcDbAlignedDimension
 13
183.2072828809678
 23
147.1071068190502
 33
0.0
 14
223.2072828809678
 24
147.1053387551761
 34
0.0
100
AcDbRotatedDimension
1001
ACAD
1000
DSTYLE
1002
{
1070
    42
1040
1.5
1070
    43
1040
8.0
1070
    44
1040
1.5
1070
    73
1070
     0
1070
    74
1070
     0
1070
    77
1070
     3
1070
   140
1040
2.5
1070
   141
1040
3.0
1070
   146
1040
0.6
1070
   147
1040
1.0
1070
   172
1070
     1
1070
   178
1070
   256
1070
   272
1070
     2
1070
   274
1070
     2
1070
   340
1005
4003
1002
}
  0
DIMENSION
  5
4399
330
1F
100
AcDbEntity
  8
DIM
100
AcDbDimension
  2
*D3
 10
229.2055146607775
 20
162.2001589948945
 30
0.0
 11
203.2055146607774
 21
164.4501589948945
 31
0.0
 70
    32
  1
□<>
 71
     5
 42
52.0
  3
AM_ANSI
100
AcDbAlignedDimension
 13
177.2055146607774
 23
143.3698393121667
 33
0.0
 14
229.2055146607775
 24
143.3698393121668
 34
0.0
100
AcDbRotatedDimension
1001
ACAD
1000
DSTYLE
1002
{
1070
    42
1040
1.5
1070
    43
1040
8.0
1070
    44
1040
1.5
1070
    73
1070
     0
1070
    74
1070
     0
1070
    77
1070
     3
1070
   140
1040
2.5
1070
   141
1040
3.0
1070
   146
1040
0.6
1070
   147
1040
1.0
1070
   172
1070
     1
1070
   178
1070
   256
1070
   272
1070
     2
1070
   274
1070
     2
1070
   340
1005
4003
1002
}
  0
DIMENSION
  5
439A
330
1F
100
AcDbEntity
  8
DIM
100
AcDbDimension
  2
*D4
 10
229.2055146607775
 20
168.5513725952897
 30
0.0
 11
200.9555146607775
 21
170.8013725952897
 31
0.0
 70
    32
  1
<>
 71
     5
 42
56.5
  3
AM_ANSI
100
AcDbAlignedDimension
 13
172.7055146607774
 23
126.9689370560843
 33
0.0
 14
229.2055146607775
 24
143.369839312167
 34
0.0
100
AcDbRotatedDimension
1001
ACAD
1000
DSTYLE
1002
{
1070
    42
1040
1.5
1070
    43
1040
8.0
1070
    44
1040
1.5
1070
    73
1070
     0
1070
    74
1070
     0
1070
    77
1070
     3
1070
   140
1040
2.5
1070
   141
1040
3.0
1070
   146
1040
0.6
1070
   147
1040
1.0
1070
   172
1070
     1
1070
   178
1070
   256
1070
   272
1070
     2
1070
   274
1070
     2
1070
   340
1005
4003
1002
}
  0
DIMENSION
  5
439B
330
1F
100
AcDbEntity
  8
DIM
100
AcDbDimension
  2
*D5
 10
210.2055146607777
 20
83.41649092507006
 30
0.0
 11
203.2055146607777
 21
85.66649092507006
 31
0.0
 70
    32
  1
□<>
 71
     5
 42
14.0
  3
AM_ANSI
100
AcDbAlignedDimension
 13
196.2055146607777
 23
116.2589558887147
 33
0.0
 14
210.2055146607777
 24
116.2589558887151
 34
0.0
100
AcDbRotatedDimension
1001
ACAD
1000
DSTYLE
1002
{
1070
    42
1040
1.5
1070
    43
1040
8.0
1070
    44
1040
1.5
1070
    73
1070
     0
1070
    74
1070
     0
1070
    77
1070
     3
1070
   140
1040
2.5
1070
   141
1040
3.0
1070
   146
1040
0.6
1070
   147
1040
1.0
1070
   172
1070
     1
1070
   178
1070
   256
1070
   272
1070
     2
1070
   274
1070
     2
1070
   340
1005
4003
1002
}
  0
DIMENSION
  5
439C
330
1F
100
AcDbEntity
  8
DIM
100
AcDbDimension
  2
*D6
 10
164.8277946108394
 20
113.1612846273308
 30
0.0
 11
162.5777946108394
 21
120.1319392349223
 31
0.0
 70
    32
 71
     5
 42
13.94130921518291
  3
AM_ANSI
100
AcDbAlignedDimension
 13
172.7567334003938
 23
127.1025938425137
 33
0.0
 14
172.7567334003936
 24
113.1612846273308
 34
0.0
 50
90.0
100
AcDbRotatedDimension
1001
ACAD
1000
DSTYLE
1002
{
1070
    42
1040
1.5
1070
    43
1040
8.0
1070
    44
1040
1.5
1070
    73
1070
     0
1070
    74
1070
     0
1070
    77
1070
     3
1070
   140
1040
2.5
1070
   141
1040
3.0
1070
   146
1040
0.6
1070
   147
1040
1.0
1070
   172
1070
     1
1070
   178
1070
   256
1070
   271
1070
     0
1070
   272
1070
     2
1070
   274
1070
     2
1070
   340
1005
4003
1002
}
  0
LEADER
  5
439F
330
1F
100
AcDbEntity
  8
DIM
100
AcDbLeader
  3
AM_ANSI$7
 73
     0
 74
     0
 75
     1
 40
3.333333333333333
 41
33.09523809523809
 76
     3
 10
207.0750584805657
 20
121.1451670606051
 30
0.0
 10
231.5664600433442
 20
129.0097417472213
 30
0.0
 10
233.5664600433442
 20
129.0097417472213
 30
0.0
340
43A0
213
0.5511825494140794
223
0.3357795278853928
233
0.0
1001
ACAD
1000
DSTYLE
1002
{
1070
    41
1040
2.0
1070
    42
1040
1.5
1070
    43
1040
8.0
1070
    44
1040
1.5
1070
    73
1070
     0
1070
    74
1070
     0
1070
    77
1070
     3
1070
   140
1040
2.0
1070
   141
1040
3.0
1070
   146
1040
0.6
1070
   147
1040
1.0
1070
   172
1070
     1
1070
   178
1070
   256
1070
   272
1070
     8
1070
   274
1070
     2
1070
   340
1005
4003
1002
}
  0
MTEXT
  5
43A0
102
{ACAD_REACTORS
330
439F
102
}
330
1F
100
AcDbEntity
  8
DIM
100
AcDbMText
 10
234.0152774939302
 20
133.0072955526693
 30
0.0
 40
2.5
 41
0.0
 71
     1
 72
     1
  1
M8*1.25*12 depth
  7
dayus
 73
     1
 44
1.0
1001
ACAD
1000
MTEXTBEGIN
1070
    73
1070
     1
1070
    44
1040
1.0
1070
    74
1070
     0
1000
MTEXTEND
  0
DIMENSION
  5
4A72
330
1F
100
AcDbEntity
  8
DIM
100
AcDbDimension
  2
*D29
 10
90.99421229957352
 20
312.2394186815304
 30
0.0
 11
75.49421229957374
 21
314.4894186815303
 31
0.0
 70
    32
  1
26+stroke=S
 71
     5
 42
30.99999999999955
  3
AM_ANSI
100
AcDbAlignedDimension
 13
59.99421229957397
 23
296.171198921558
 33
0.0
 14
90.99421229957352
 24
296.1711989215581
 34
0.0
100
AcDbRotatedDimension
1001
ACAD
1000
DSTYLE
1002
{
1070
    42
1040
1.5
1070
    43
1040
8.0
1070
    44
1040
1.5
1070
    73
1070
     0
1070
    74
1070
     0
1070
    77
1070
     3
1070
   140
1040
2.5
1070
   141
1040
3.0
1070
   146
1040
0.6
1070
   147
1040
1.0
1070
   172
1070
     1
1070
   178
1070
   256
1070
   272
1070
     2
1070
   274
1070
     2
1070
   340
1005
4003
1002
}
  0
DIMENSION
  5
4A75
330
1F
100
AcDbEntity
  8
DIM
100
AcDbDimension
  2
*D30
 10
125.9942122995737
 20
318.5906322819256
 30
0.0
 11
92.99421229957387
 21
320.8406322819256
 31
0.0
 70
    32
  1
61+stroke=ZZ
 71
     5
 42
65.99999999999977
  3
AM_ANSI
100
AcDbAlignedDimension
 13
59.99421229957397
 23
296.171198921558
 33
0.0
 14
125.9942122995737
 24
275.9711989215583
 34
0.0
100
AcDbRotatedDimension
1001
ACAD
1000
DSTYLE
1002
{
1070
    42
1040
1.5
1070
    43
1040
8.0
1070
    44
1040
1.5
1070
    73
1070
     0
1070
    74
1070
     0
1070
    77
1070
     3
1070
   140
1040
2.5
1070
   141
1040
3.0
1070
   146
1040
0.6
1070
   147
1040
1.0
1070
   172
1070
     1
1070
   178
1070
   256
1070
   272
1070
     2
1070
   274
1070
     2
1070
   340
1005
4003
1002
}
  0
DIMENSION
  5
4A90
330
1F
100
AcDbEntity
  8
DIM
100
AcDbDimension
  2
*D31
 10
90.99421229957398
 20
159.0629359226049
 30
0.0
 11
75.49421229957397
 21
161.3129359226049
 31
0.0
 70
    32
  1
26+stroke=S
 71
     5
 42
31.0
  3
AM_ANSI
100
AcDbAlignedDimension
 13
59.99421229957397
 23
146.131939234922
 33
0.0
 14
90.99421229957398
 24
146.131939234922
 34
0.0
100
AcDbRotatedDimension
1001
ACAD
1000
DSTYLE
1002
{
1070
    42
1040
1.5
1070
    43
1040
8.0
1070
    44
1040
1.5
1070
    73
1070
     0
1070
    74
1070
     0
1070
    77
1070
     3
1070
   140
1040
2.5
1070
   141
1040
3.0
1070
   146
1040
0.6
1070
   147
1040
1.0
1070
   172
1070
     1
1070
   178
1070
   256
1070
   272
1070
     2
1070
   274
1070
     2
1070
   340
1005
4003
1002
}
  0
DIMENSION
  5
4A93
330
1F
100
AcDbEntity
  8
DIM
100
AcDbDimension
  2
*D32
 10
97.99421229957397
 20
166.4631516334447
 30
0.0
 11
78.99421229957408
 21
168.7131516334447
 31
0.0
 70
    32
  1
33+stroke=ZZ
 71
     5
 42
37.99999999999978
  3
AM_ANSI
100
AcDbAlignedDimension
 13
59.9942122995742
 23
146.131939234922
 33
0.0
 14
97.99421229957397
 24
127.1319392349222
 34
0.0
100
AcDbRotatedDimension
1001
ACAD
1000
DSTYLE
1002
{
1070
    42
1040
1.5
1070
    43
1040
8.0
1070
    44
1040
1.5
1070
    73
1070
     0
1070
    74
1070
     0
1070
    77
1070
     3
1070
   140
1040
2.5
1070
   141
1040
3.0
1070
   146
1040
0.6
1070
   147
1040
1.0
1070
   172
1070
     1
1070
   178
1070
   256
1070
   272
1070
     2
1070
   274
1070
     2
1070
   340
1005
4003
1002
}
  0
LWPOLYLINE
  5
4C6C
330
1F
100
AcDbEntity
  8
LOGO
 62
     4
100
AcDbPolyline
 90
        4
 70
     1
 43
0.0
 10
-15.48932901079761
 20
73.63425484441356
 10
314.9214976567958
 20
73.63425484441356
 10
314.9214976567958
 20
34.7548852516527
 10
-15.48932901079761
 20
34.7548852516527
1001
GENIUS_GENREC_14
1002
{
1000
PYDIR
1011
-15.48932901079761
1021
34.7548852516527
1031
0.0
1002
}
1002
{
1000
PXDIR
1011
314.9214976567958
1021
73.63425484441356
1031
0.0
1002
}
1002
{
1000
PORI
1011
-15.48932901079761
1021
73.63425484441356
1031
0.0
1002
}
1002
{
1000
PINS
1011
-15.48932901079761
1021
73.63425484441356
1031
0.0
1002
}
1002
{
1000
PINS2
1011
314.9214976567958
1021
34.7548852516527
1031
0.0
1002
}
1002
{
1000
C
1070
     1
1002
}
1001
GENIUS_GENOBJ-N-REC_13
1002
{
1000
OWNER
1000
GEN
1002
}
1001
GENIUS_GENODEF_13
1002
{
1000
HIER
1070
     0
1002
}
1002
{
1000
MANEDIT
1070
     0
1002
}
1002
{
1000
NOSEL
1070
     0
1002
}
1002
{
1000
BEHIND
1070
     0
1002
}
1002
{
1000
OTHER
1070
     0
1002
}
1002
{
1000
REACTOR
1002
}
  0
TEXT
  5
4C6D
330
1F
100
AcDbEntity
  8
LOGO
 62
     7
100
AcDbText
 10
72.29771315451415
 20
56.60186461483158
 30
0.0
 40
5.183915945701357
  1
Order example:
 41
0.8
  7
CHINESET
100
AcDbText
  0
TEXT
  5
4C6E
330
1F
100
AcDbEntity
  8
LOGO
 62
     7
100
AcDbText
 10
73.22775054441388
 20
63.89974492288678
 30
0.0
 40
7.775873918552036
  1
訂購代號：
  7
CHINESET
100
AcDbText
  0
LINE
  5
4C6F
330
1F
100
AcDbEntity
  8
LOGO
 62
     4
100
AcDbLine
 10
70.04528409327486
 20
34.75488525165315
 30
0.0
 11
70.04528409327486
 21
73.63425484441356
 31
0.0
  0
TEXT
  5
4C70
330
1F
100
AcDbEntity
  8
LOGO
  6
Continuous
100
AcDbText
 10
-1.523684686930437
 20
42.39267873406638
 30
0.0
 40
5.831905438914027
  1
金器工業股份有限公司
  7
CHINESET
100
AcDbText
  0
TEXT
  5
4C71
330
1F
100
AcDbEntity
  8
LOGO
  6
Continuous
100
AcDbText
 10
-12.23574119262298
 20
36.55963069892542
 30
0.0
 40
3.887936959276018
  1
MINDMAN INDUSTRIAL CO., LTD.
 41
0.85
  7
CHINESET
100
AcDbText
  0
LINE
  5
4C72
330
1F
100
AcDbEntity
  8
LOGO
 62
     4
100
AcDbLine
 10
70.04528409327486
 20
65.8583809258615
 30
0.0
 11
13.02220869055964
 21
65.8583809258615
 31
0.0
  0
LINE
  5
4C73
330
1F
100
AcDbEntity
  8
LOGO
 62
     4
100
AcDbLine
 10
70.04528409327486
 20
58.08250700730937
 30
0.0
 11
13.02220869055964
 21
58.08250700730937
 31
0.0
  0
LINE
  5
4C74
330
1F
100
AcDbEntity
  8
LOGO
 62
     4
100
AcDbLine
 10
70.04528409327486
 20
50.30663308875773
 30
0.0
 11
-15.48932901079763
 21
50.30663308875773
 31
0.0
  0
LINE
  5
4C75
330
1F
100
AcDbEntity
  8
LOGO
 62
     4
100
AcDbLine
 10
13.02220869055964
 20
50.30663308875773
 30
0.0
 11
13.02220869055964
 21
73.63425484441356
 31
0.0
  0
TEXT
  5
4C76
330
1F
100
AcDbEntity
  8
LOGO
100
AcDbText
 10
51.99478928015228
 20
52.25060156839511
 30
0.0
 40
3.887936959276018
  1
mm
  7
CHINESET
 72
     1
 11
56.8084255154464
 21
54.19457004803311
 31
0.0
100
AcDbText
 73
     2
  0
TEXT
  5
4C77
330
1F
100
AcDbEntity
  8
LOGO
100
AcDbText
 10
49.95825087291247
 20
67.8023494054993
 30
0.0
 40
3.887936959276018
  1
1 : 1
  7
CHINESET
 72
     1
 11
56.8084255154464
 21
69.7463178851373
 31
0.0
100
AcDbText
 73
     2
  0
LINE
  5
4C78
330
1F
100
AcDbEntity
  8
LOGO
 62
     4
100
AcDbLine
 10
44.1257043647679
 20
50.30663308875773
 30
0.0
 11
44.1257043647679
 21
73.63425484441356
 31
0.0
  0
CIRCLE
  5
4C79
330
1F
100
AcDbEntity
  8
LOGO
  6
Continuous
100
AcDbCircle
 10
51.32470594033486
 20
61.97876029219265
 30
0.0
 40
2.257427710275888
  0
CIRCLE
  5
4C7A
330
1F
100
AcDbEntity
  8
LOGO
  6
Continuous
100
AcDbCircle
 10
51.32470594033486
 20
61.97876029219265
 30
0.0
 40
1.322652799453087
  0
LINE
  5
4C7B
330
1F
100
AcDbEntity
  8
LOGO
100
AcDbLine
 10
65.51064361254294
 20
59.72133258191632
 30
0.0
 11
65.51064361254294
 21
64.23618800246896
 31
0.0
  0
LINE
  5
4C7C
330
1F
100
AcDbEntity
  8
LOGO
100
AcDbLine
 10
58.43373732336186
 20
60.65610749273981
 30
0.0
 11
58.43373732336186
 21
63.30141309164594
 31
0.0
  0
LINE
  5
4C7D
330
1F
100
AcDbEntity
  8
LOGO
  6
Continuous
100
AcDbLine
 10
58.43373732336186
 20
63.30141309164594
 30
0.0
 11
65.51064361254294
 21
64.23618800246896
 31
0.0
  0
LINE
  5
4C7E
330
1F
100
AcDbEntity
  8
LOGO
  6
Continuous
100
AcDbLine
 10
58.43373732336186
 20
60.65610749273981
 30
0.0
 11
65.51064361254294
 21
59.72133258191632
 31
0.0
  0
TEXT
  5
4C7F
330
1F
100
AcDbEntity
  8
LOGO
100
AcDbText
 10
16.22802099581987
 20
67.80426276030208
 30
254.8089833089768
 40
3.887936959276018
  1
比例 Scale:
 41
0.9
  7
CHINESET
 72
     4
 11
28.57395652766377
 21
69.7463178851373
 31
254.8089833089768
100
AcDbText
  0
TEXT
  5
4C80
330
1F
100
AcDbEntity
  8
LOGO
100
AcDbText
 10
16.004117483433
 20
60.08116554506041
 30
254.8089833089768
 40
3.887936959276018
  1
投影  View:
 41
0.9
  7
CHINESET
 72
     4
 11
28.57395652766377
 21
61.97044396658523
 31
254.8089833089768
100
AcDbText
  0
TEXT
  5
4C81
330
1F
100
AcDbEntity
  8
LOGO
100
AcDbText
 10
16.38423274864793
 20
52.25060156839511
 30
254.8089833089768
 40
3.887936959276018
  1
單位  Unit:
 41
0.9
  7
CHINESET
 72
     4
 11
28.57395652766377
 21
54.19457004803311
 31
254.8089833089768
100
AcDbText
  0
SOLID
  5
4C82
330
1F
100
AcDbEntity
  8
LOGO
 62
     5
100
AcDbTrace
 10
-11.45553201890669
 20
56.76977487930574
 30
0.0
 11
-9.774490097181683
 21
56.76977487930532
 31
0.0
 12
-2.760487596190841
 22
72.71068965428589
 32
0.0
 13
-1.079445674464864
 23
72.71068965428501
 33
0.0
  0
SOLID
  5
4C83
330
1F
100
AcDbEntity
  8
LOGO
 62
     5
100
AcDbTrace
 10
-9.0788865433625
 20
56.76977487930574
 30
0.0
 11
-7.397844621637432
 21
56.76977487930574
 31
0.0
 12
-1.079445674464864
 22
71.43541647228684
 32
0.0
 13
-2.760487596190841
 23
65.27159609262787
 33
0.0
  0
SOLID
  5
4C84
330
1F
100
AcDbEntity
  8
LOGO
 62
     2
100
AcDbTrace
 10
-9.774490097181683
 20
56.76977487930532
 30
0.0
 11
-9.0788865433625
 21
56.76977487930574
 31
0.0
 12
-1.079445674464864
 22
72.71068965428501
 32
0.0
 13
-0.3838421206466478
 23
72.71068965428501
 33
0.0
  0
SOLID
  5
4C85
330
1F
100
AcDbEntity
  8
LOGO
 62
     5
100
AcDbTrace
 10
-14.15065446140818
 20
50.97307859749531
 30
0.0
 11
-13.57098483322647
 21
50.97307859749531
 31
0.0
 12
-11.9385900423905
 22
53.87142673840035
 32
0.0
 13
-11.3589204142105
 23
53.87142673840035
 33
0.0
  0
SOLID
  5
4C86
330
1F
100
AcDbEntity
  8
LOGO
 62
     5
100
AcDbTrace
 10
-11.9385900423905
 20
53.87142673840035
 30
0.0
 11
-11.3589204142105
 21
53.87142673840035
 31
0.0
 12
-11.9385900423905
 22
50.97307859749531
 32
0.0
 13
-11.3589204142105
 23
50.97307859749531
 33
0.0
  0
SOLID
  5
4C87
330
1F
100
AcDbEntity
  8
LOGO
 62
     5
100
AcDbTrace
 10
-11.9385900423905
 20
50.97307859749531
 30
0.0
 11
-11.3589204142105
 21
50.97307859749531
 31
0.0
 12
-9.726525623371855
 22
53.87142673840035
 32
0.0
 13
-9.146855995191003
 23
53.87142673840035
 33
0.0
  0
SOLID
  5
4C88
330
1F
100
AcDbEntity
  8
LOGO
 62
     5
100
AcDbTrace
 10
-9.726525623371855
 20
53.87142673840035
 30
0.0
 11
-9.146855995191003
 21
53.87142673840035
 31
0.0
 12
-9.726525623371855
 22
50.97307859749531
 32
0.0
 13
-9.146855995191003
 23
50.97307859749531
 33
0.0
  0
POLYLINE
  5
4C89
330
1F
100
AcDbEntity
  8
LOGO
 62
     5
100
AcDb2dPolyline
 66
     1
 10
0.0
 20
0.0
 30
0.0
 40
0.580598585918552
 41
0.580598585918552
  0
VERTEX
  5
4C8A
330
4C89
100
AcDbEntity
  8
LOGO
 62
     5
100
AcDbVertex
100
AcDb2dVertex
 10
9.703802846310225
 20
52.71208748203822
 30
0.0
 42
1.0
  0
VERTEX
  5
4C8B
330
4C89
100
AcDbEntity
  8
LOGO
 62
     5
100
AcDbVertex
100
AcDb2dVertex
 10
7.962007088554173
 20
52.71208748203822
 30
0.0
 42
1.0
  0
SEQEND
  5
4C8C
330
4C89
100
AcDbEntity
  8
LOGO
 62
     5
  0
POLYLINE
  5
4C8D
330
1F
100
AcDbEntity
  8
LOGO
 62
     5
100
AcDb2dPolyline
 66
     1
 10
0.0
 20
0.0
 30
0.0
 70
     1
  0
VERTEX
  5
4C8E
330
4C8D
100
AcDbEntity
  8
LOGO
 62
     5
100
AcDbVertex
100
AcDb2dVertex
 10
4.678644610108449
 20
52.42225266794739
 30
0.0
 42
1.000000057330635
  0
VERTEX
  5
4C8F
330
4C8D
100
AcDbEntity
  8
LOGO
 62
     5
100
AcDbVertex
100
AcDb2dVertex
 10
6.417653494651858
 20
52.42225266794739
 30
0.0
 42
1.000000057330635
  0
SEQEND
  5
4C90
330
4C8D
100
AcDbEntity
  8
LOGO
 62
     5
  0
CIRCLE
  5
4C91
330
1F
100
AcDbEntity
  8
LOGO
 62
     5
100
AcDbCircle
 10
5.548149052381518
 20
52.42225266794739
 30
0.0
 40
0.8695044422716236
  0
POLYLINE
  5
4C92
330
1F
100
AcDbEntity
  8
LOGO
 62
     5
100
AcDb2dPolyline
 66
     1
 10
0.0
 20
0.0
 30
0.0
 70
     1
 40
0.580598585918552
 41
0.580598585918552
  0
VERTEX
  5
4C93
330
4C92
100
AcDbEntity
  8
LOGO
 62
     5
100
AcDbVertex
100
AcDb2dVertex
 10
4.386951880543506
 20
52.42225266794739
 30
0.0
 42
1.0
  0
VERTEX
  5
4C94
330
4C92
100
AcDbEntity
  8
LOGO
 62
     5
100
AcDbVertex
100
AcDb2dVertex
 10
6.709346224217597
 20
52.42225266794739
 30
0.0
 42
1.0
  0
SEQEND
  5
4C95
330
4C92
100
AcDbEntity
  8
LOGO
 62
     5
  0
LINE
  5
4C96
330
1F
100
AcDbEntity
  8
LOGO
100
AcDbLine
 10
9.99224422379342
 20
50.97307859749531
 30
0.0
 11
9.99224422379342
 21
52.71208748203822
 31
0.0
  0
SOLID
  5
4C97
330
1F
100
AcDbEntity
  8
LOGO
 62
     5
100
AcDbTrace
 10
6.41759552769156
 20
53.87142673840035
 30
0.0
 11
6.997265155871559
 21
53.87142673840035
 31
0.0
 12
6.41759552769156
 22
50.97307859749531
 32
0.0
 13
6.997265155871559
 23
50.97307859749531
 33
0.0
  0
SOLID
  5
4C98
330
1F
100
AcDbEntity
  8
LOGO
 62
     5
100
AcDbTrace
 10
7.673565711069272
 20
50.97307859749531
 30
0.0
 11
8.253235339250977
 21
50.97307859749531
 31
0.0
 12
7.673565711069272
 22
53.87142673840035
 32
0.0
 13
8.253235339250977
 23
53.87142673840035
 33
0.0
  0
SOLID
  5
4C99
330
1F
100
AcDbEntity
  8
LOGO
 62
     5
100
AcDbTrace
 10
9.412574595613477
 20
52.71208748203822
 30
0.0
 11
9.99224422379342
 21
52.71208748203822
 31
0.0
 12
9.412574595613477
 22
50.97307859749531
 32
0.0
 13
9.99224422379342
 23
50.97307859749531
 33
0.0
  0
SOLID
  5
4C9A
330
1F
100
AcDbEntity
  8
LOGO
 62
     5
100
AcDbTrace
 10
7.615598748250988
 20
71.43541647228684
 30
0.0
 11
5.934556826526829
 21
65.27159609262787
 31
0.0
 12
7.615598748250988
 22
56.76977487930532
 32
0.0
 13
5.934556826526829
 23
56.76977487930532
 33
0.0
  0
SOLID
  5
4C9B
330
1F
100
AcDbEntity
  8
LOGO
 62
     5
100
AcDbTrace
 10
8.311202302069261
 20
56.76977487930532
 30
0.0
 11
9.99224422379342
 21
56.76977487930532
 31
0.0
 12
8.311202302069261
 22
72.71068965428501
 32
0.0
 13
9.99224422379342
 23
72.71068965428589
 33
0.0
  0
SOLID
  5
4C9C
330
1F
100
AcDbEntity
  8
LOGO
 62
     2
100
AcDbTrace
 10
7.615598748250988
 20
72.71068965428589
 30
0.0
 11
8.311202302069261
 21
72.71068965428501
 31
0.0
 12
7.615598748250988
 22
56.76977487930532
 32
0.0
 13
8.311202302069261
 23
56.76977487930532
 33
0.0
  0
POLYLINE
  5
4C9D
330
1F
100
AcDbEntity
  8
LOGO
 62
     5
100
AcDb2dPolyline
 66
     1
 10
0.0
 20
0.0
 30
0.0
 40
0.580598585918552
 41
0.580598585918552
  0
VERTEX
  5
4C9E
330
4C9D
100
AcDbEntity
  8
LOGO
 62
     5
100
AcDbVertex
100
AcDb2dVertex
 10
1.395166197739627
 20
52.71208748203822
 30
0.0
 42
1.0
  0
VERTEX
  5
4C9F
330
4C9D
100
AcDbEntity
  8
LOGO
 62
     5
100
AcDbVertex
100
AcDb2dVertex
 10
-0.3466295600163676
 20
52.71208748203822
 30
0.0
 42
1.0
  0
SEQEND
  5
4CA0
330
4C9D
100
AcDbEntity
  8
LOGO
 62
     5
  0
POLYLINE
  5
4CA1
330
1F
100
AcDbEntity
  8
LOGO
 62
     5
100
AcDb2dPolyline
 66
     1
 10
0.0
 20
0.0
 30
0.0
 40
0.580598585918552
 41
0.580598585918552
  0
VERTEX
  5
4CA2
330
4CA1
100
AcDbEntity
  8
LOGO
 62
     5
100
AcDbVertex
100
AcDb2dVertex
 10
3.134175082281217
 20
52.71208748203822
 30
0.0
 42
1.0
  0
VERTEX
  5
4CA3
330
4CA1
100
AcDbEntity
  8
LOGO
 62
     5
100
AcDbVertex
100
AcDb2dVertex
 10
1.392379324526132
 20
52.71208748203822
 30
0.0
 42
1.0
  0
SEQEND
  5
4CA4
330
4CA1
100
AcDbEntity
  8
LOGO
 62
     5
  0
POLYLINE
  5
4CA5
330
1F
100
AcDbEntity
  8
LOGO
 62
     5
100
AcDb2dPolyline
 66
     1
 10
0.0
 20
0.0
 30
0.0
 40
0.580598585918552
 41
0.580598585918552
  0
VERTEX
  5
4CA6
330
4CA5
100
AcDbEntity
  8
LOGO
 62
     5
100
AcDbVertex
100
AcDb2dVertex
 10
-5.174461566289323
 20
52.71208748203822
 30
0.0
 42
1.0
  0
VERTEX
  5
4CA7
330
4CA5
100
AcDbEntity
  8
LOGO
 62
     5
100
AcDbVertex
100
AcDb2dVertex
 10
-6.916257324044522
 20
52.71208748203822
 30
0.0
 42
1.0
  0
SEQEND
  5
4CA8
330
4CA5
100
AcDbEntity
  8
LOGO
 62
     5
  0
SOLID
  5
4CA9
330
1F
100
AcDbEntity
  8
LOGO
 62
     5
100
AcDbTrace
 10
-7.204698701528513
 20
53.87142673840035
 30
0.0
 11
-6.625029073348628
 21
53.87142673840035
 31
0.0
 12
-7.204698701528513
 22
50.97307859749531
 32
0.0
 13
-6.625029073348628
 23
50.97307859749531
 33
0.0
  0
SOLID
  5
4CAA
330
1F
100
AcDbEntity
  8
LOGO
 62
     5
100
AcDbTrace
 10
-5.465689816985218
 20
52.71208748203822
 30
0.0
 11
-4.886020188803513
 21
52.71208748203822
 31
0.0
 12
-5.465689816985218
 22
50.97307859749531
 32
0.0
 13
-4.886020188803513
 23
50.97307859749531
 33
0.0
  0
POLYLINE
  5
4CAB
330
1F
100
AcDbEntity
  8
LOGO
 62
     5
100
AcDb2dPolyline
 66
     1
 10
0.0
 20
0.0
 30
0.0
 70
     1
 40
0.580598585918552
 41
0.580598585918552
  0
VERTEX
  5
4CAC
330
4CAB
100
AcDbEntity
  8
LOGO
 62
     5
100
AcDbVertex
100
AcDb2dVertex
 10
-3.921684768027944
 20
52.42225266794739
 30
0.0
 42
1.0
  0
VERTEX
  5
4CAD
330
4CAB
100
AcDbEntity
  8
LOGO
 62
     5
100
AcDbVertex
100
AcDb2dVertex
 10
-1.599290424352886
 20
52.42225266794739
 30
0.0
 42
1.0
  0
SEQEND
  5
4CAE
330
4CAB
100
AcDbEntity
  8
LOGO
 62
     5
  0
SOLID
  5
4CAF
330
1F
100
AcDbEntity
  8
LOGO
 62
     5
100
AcDbTrace
 10
-1.891041120880743
 20
54.74093118067242
 30
0.0
 11
-1.31137149269989
 21
54.74093118067242
 31
0.0
 12
-1.891041120880743
 22
50.97307859749531
 32
0.0
 13
-1.31137149269989
 23
50.97307859749531
 33
0.0
  0
SOLID
  5
4CB0
330
1F
100
AcDbEntity
  8
LOGO
 62
     5
100
AcDbTrace
 10
-0.6350709374995632
 20
53.87142673840035
 30
0.0
 11
-0.0554013093196204
 21
53.87142673840035
 31
0.0
 12
-0.6350709374995632
 22
50.97307859749531
 32
0.0
 13
-0.0554013093196204
 23
50.97307859749531
 33
0.0
  0
SOLID
  5
4CB1
330
1F
100
AcDbEntity
  8
LOGO
 62
     5
100
AcDbTrace
 10
1.103937947042027
 20
52.71208748203822
 30
0.0
 11
1.683607575223732
 21
52.71208748203822
 31
0.0
 12
1.103937947042027
 22
50.97307859749531
 32
0.0
 13
1.683607575223732
 23
50.97307859749531
 33
0.0
  0
SOLID
  5
4CB2
330
1F
100
AcDbEntity
  8
LOGO
 62
     5
100
AcDbTrace
 10
2.842946831585436
 20
52.71208748203822
 30
0.0
 11
3.422616459766231
 21
52.71208748203822
 31
0.0
 12
2.842946831585436
 22
50.97307859749446
 32
0.0
 13
3.422616459766231
 23
50.97307859749446
 33
0.0
  0
SOLID
  5
4CB3
330
1F
100
AcDbEntity
  8
LOGO
 62
     5
100
AcDbTrace
 10
-8.460668884908841
 20
54.27719547812725
 30
0.0
 11
-7.880999256726227
 21
54.27719547812725
 31
0.0
 12
-8.460668884908841
 22
54.74093118067242
 32
0.0
 13
-7.880999256726227
 23
54.74093118067242
 33
0.0
  0
SOLID
  5
4CB4
330
1F
100
AcDbEntity
  8
LOGO
 62
     5
100
AcDbTrace
 10
-8.460668884908841
 20
53.87142673840035
 30
0.0
 11
-7.880999256726227
 21
53.87142673840035
 31
0.0
 12
-8.460668884908841
 22
50.97307859749446
 32
0.0
 13
-7.880999256726227
 23
50.97307859749531
 33
0.0
  0
SOLID
  5
4CB5
330
1F
100
AcDbEntity
  8
LOGO
 62
     5
100
AcDbTrace
 10
-2.760487596190841
 20
56.76977487930574
 30
0.0
 11
-1.079445674464864
 21
56.76977487930574
 31
0.0
 12
-2.760487596190841
 22
65.27159609262787
 32
0.0
 13
-1.079445674464864
 23
71.43541647228684
 33
0.0
  0
SOLID
  5
4CB6
330
1F
100
AcDbEntity
  8
LOGO
 62
     5
100
AcDbTrace
 10
-0.3838421206466478
 20
72.71068965428501
 30
0.0
 11
1.297199801077567
 21
72.71068965428589
 31
0.0
 12
-0.3838421206466478
 22
58.0450480613039
 32
0.0
 13
1.297199801077567
 23
64.20886844096287
 33
0.0
  0
SOLID
  5
4CB7
330
1F
100
AcDbEntity
  8
LOGO
 62
     2
100
AcDbTrace
 10
-1.079445674464864
 20
72.71068965428501
 30
0.0
 11
-0.3838421206466478
 21
72.71068965428501
 31
0.0
 12
-1.079445674464864
 22
56.76977487930574
 32
0.0
 13
-0.3838421206466478
 23
56.76977487930574
 33
0.0
  0
SOLID
  5
4CB8
330
1F
100
AcDbEntity
  8
LOGO
 62
     5
100
AcDbTrace
 10
-0.3838421206466478
 20
58.0450480613039
 30
0.0
 11
1.297199801077567
 21
64.20886844096287
 31
0.0
 12
7.615598748250988
 22
72.71068965428589
 32
0.0
 13
5.934556826526829
 23
72.71068965428589
 33
0.0
  0
SOLID
  5
4CB9
330
1F
100
AcDbEntity
  8
LOGO
 62
     5
100
AcDbTrace
 10
-0.3838421206466478
 20
56.76977487930574
 30
0.0
 11
1.297199801077567
 21
56.76977487930574
 31
0.0
 12
7.615598748250988
 22
71.43541647228684
 32
0.0
 13
5.934556826526829
 23
65.27159609262787
 33
0.0
  0
SOLID
  5
4CBA
330
1F
100
AcDbEntity
  8
LOGO
 62
     2
100
AcDbTrace
 10
-1.079445674464864
 20
56.76977487930574
 30
0.0
 11
-0.3838421206466478
 21
56.76977487930574
 31
0.0
 12
7.615598748250988
 22
72.71068965428589
 32
0.0
 13
8.311202302069261
 23
72.71068965428501
 33
0.0
  0
TEXT
  5
4CBB
330
1F
100
AcDbEntity
  8
LOGO
100
AcDbText
 10
72.94844258320541
 20
36.8232523685472
 30
0.0
 40
3.8885
  1
1070266
 41
0.7
  7
CHINESET
 72
     1
 11
81.30871758320541
 21
36.8232523685472
 31
0.0
100
AcDbText
  0
LINE
  5
4CBC
330
1F
100
AcDbEntity
  8
LOGO
 62
     4
100
AcDbLine
 10
93.37628409327317
 20
42.53075917020609
 30
0.0
 11
93.37628409327487
 21
34.75488525165358
 31
0.0
  0
LINE
  5
4CBD
330
1F
100
AcDbEntity
  8
LOGO
 62
     4
100
AcDbLine
 10
93.37628409327317
 20
42.53075917020609
 30
0.0
 11
70.04528409327486
 21
42.53075917020609
 31
0.0
  0
LINE
  5
4CBE
330
1F
100
AcDbEntity
  8
LOGO
  6
AM_ISO08W050x2
 48
0.3
100
AcDbLine
 10
48.21280803940135
 20
61.97876029219265
 30
0.0
 11
54.43660384126838
 21
61.97876029219265
 31
0.0
1001
GENIUS_GENOREF_13
1005
4CC3
  0
LINE
  5
4CBF
330
1F
100
AcDbEntity
  8
LOGO
  6
AM_ISO08W050x2
 48
0.3
100
AcDbLine
 10
51.32470594033486
 20
58.86686239125916
 30
0.0
 11
51.32470594033486
 21
65.09065819312616
 31
0.0
1001
GENIUS_GENOREF_13
1005
4CC2
  0
LINE
  5
4CC0
330
1F
100
AcDbEntity
  8
LOGO
  6
CENTER
 48
0.5
100
AcDbLine
 10
57.86778152191738
 20
61.97876029219265
 30
0.0
 11
66.22326516673661
 21
61.97876029219265
 31
0.0
1001
GENIUS_GENOREF_13
1005
4CC1
  0
POINT
  5
4CC1
330
1F
100
AcDbEntity
  8
0
 60
     1
100
AcDbPoint
 10
-2072.811814811345
 20
-923.250426012127
 30
0.0
1001
GENIUS_GENOBJ-N-CRS_13
1002
{
1000
OWNER
1000
GEN
1002
}
1001
GENIUS_GENOLIS_13
1002
{
1000
ENT
1005
0
1005
0
1005
0
1005
4CC0
1002
}
1001
GENIUS_GENOENT_13
1002
{
1000
MYREF
1005
4CC1
1002
}
1002
{
1000
GRP
1005
0
1002
}
1001
GENIUS_GENODEF_13
1002
{
1000
HIER
1070
    10
1002
}
1002
{
1000
MANEDIT
1070
     1
1002
}
1002
{
1000
NOSEL
1070
     0
1002
}
1002
{
1000
BEHIND
1070
     0
1002
}
1002
{
1000
OTHER
1070
     0
1002
}
1002
{
1000
REACTOR
1002
}
  0
POINT
  5
4CC2
330
1F
100
AcDbEntity
  8
0
 60
     1
100
AcDbPoint
 10
-2084.136400034199
 20
-914.3748395334908
 30
0.0
1001
GENIUS_GENOBJ-N-CRS_13
1002
{
1000
OWNER
1000
GEN
1002
}
1001
GENIUS_GENOLIS_13
1002
{
1000
ENT
1005
0
1005
0
1005
0
1005
4CBF
1002
}
1001
GENIUS_GENOENT_13
1002
{
1000
MYREF
1005
4CC2
1002
}
1002
{
1000
GRP
1005
0
1002
}
1001
GENIUS_GENODEF_13
1002
{
1000
HIER
1070
    10
1002
}
1002
{
1000
MANEDIT
1070
     1
1002
}
1002
{
1000
NOSEL
1070
     0
1002
}
1002
{
1000
BEHIND
1070
     0
1002
}
1002
{
1000
OTHER
1070
     0
1002
}
1002
{
1000
REACTOR
1002
}
  0
POINT
  5
4CC3
330
1F
100
AcDbEntity
  8
0
 60
     1
100
AcDbPoint
 10
-2077.777726336362
 20
-923.250426012127
 30
0.0
1001
GENIUS_GENOBJ-N-CRS_13
1002
{
1000
OWNER
1000
GEN
1002
}
1001
GENIUS_GENOLIS_13
1002
{
1000
ENT
1005
0
1005
0
1005
0
1005
4CBE
1002
}
1001
GENIUS_GENOENT_13
1002
{
1000
MYREF
1005
4CC3
1002
}
1002
{
1000
GRP
1005
0
1002
}
1001
GENIUS_GENODEF_13
1002
{
1000
HIER
1070
    10
1002
}
1002
{
1000
MANEDIT
1070
     1
1002
}
1002
{
1000
NOSEL
1070
     0
1002
}
1002
{
1000
BEHIND
1070
     0
1002
}
1002
{
1000
OTHER
1070
     0
1002
}
1002
{
1000
REACTOR
1002
}
  0
TEXT
  5
4F67
330
1F
100
AcDbEntity
  8
0
100
AcDbText
 10
-8.383230530107766
 20
203.7166379552947
 30
0.0
 40
6.0
  1
12 type
  7
CHINESET
100
AcDbText
  0
LINE
  5
4F8E
330
1F
100
AcDbEntity
  8
0
100
AcDbLine
 10
174.1900980540326
 20
343.8711785155649
 30
0.0
 11
174.1900980540312
 21
332.5815785155655
 31
0.0
  0
LINE
  5
4F8F
330
1F
100
AcDbEntity
  8
0
100
AcDbLine
 10
201.9968765195189
 20
340.1079785155653
 30
0.0
 11
201.996876519519
 21
332.5815785155653
 31
0.0
  0
LINE
  5
4F90
330
1F
100
AcDbEntity
  8
0
100
AcDbLine
 10
187.7472677779885
 20
343.8711785155649
 30
0.0
 11
187.7472677779891
 21
332.5815785155655
 31
0.0
  0
LINE
  5
4F91
330
1F
100
AcDbEntity
  8
0
100
AcDbLine
 10
174.1900980540329
 20
332.5815785155653
 30
0.0
 11
244.7457027441085
 21
332.5815785155653
 31
0.0
  0
LINE
  5
4F92
330
1F
100
AcDbEntity
  8
0
100
AcDbLine
 10
174.1900980540329
 20
336.3447785155653
 30
0.0
 11
244.7457027441083
 21
336.3447785155653
 31
0.0
  0
TEXT
  5
4F93
330
1F
100
AcDbEntity
  8
0
100
AcDbText
 10
180.3931304823394
 20
333.221267992156
 30
0.0
 40
2.362676112418407
  1
5
 41
0.8
  7
CHINESET
 72
     4
 11
181.023177445651
 21
334.4026060483652
 31
0.0
100
AcDbText
  0
TEXT
  5
4F94
330
1F
100
AcDbEntity
  8
0
100
AcDbText
 10
177.4467892388079
 20
337.2552186958306
 30
0.0
 40
1.881599999999999
  1
Stroke
 41
0.8
  7
CHINESET
100
AcDbText
  0
TEXT
  5
4F95
330
1F
100
AcDbEntity
  8
0
100
AcDbText
 10
192.6607570119159
 20
333.2407632378387
 30
0.0
 40
2.351999999999999
  1
31
 41
0.8
  7
CHINESET
100
AcDbText
  0
LINE
  5
4F96
330
1F
100
AcDbEntity
  8
0
100
AcDbLine
 10
174.1900980540326
 20
343.871178515565
 30
0.0
 11
244.7457027441078
 21
343.871178515565
 31
0.0
  0
INSERT
  5
4F97
330
1F
100
AcDbEntity
  8
0
100
AcDbBlockReference
  2
A$C5ECF147B
 10
173.6852575915504
 20
332.9117000094728
 30
0.0
 41
0.7526400000000422
 42
0.7526400000000422
 43
0.75264
  0
LINE
  5
4F98
330
1F
100
AcDbEntity
  8
0
100
AcDbLine
 10
174.1900980540328
 20
340.1079785155653
 30
0.0
 11
244.7457027441082
 21
340.1079785155653
 31
0.0
  0
TEXT
  5
4F99
330
1F
100
AcDbEntity
  8
0
100
AcDbText
 10
193.5773810513774
 20
337.0039632378387
 30
0.0
 40
2.351999999999999
  1
S
 41
0.8
  7
CHINESET
100
AcDbText
  0
TEXT
  5
4F9A
330
1F
100
AcDbEntity
  8
0
100
AcDbText
 10
190.9772471444728
 20
340.784226083199
 30
0.0
 40
2.351999999999999
  1
Without magnet
 41
0.8
  7
CHINESET
100
AcDbText
  0
LINE
  5
4F9B
330
1F
100
AcDbEntity
  8
0
100
AcDbLine
 10
216.2464852610487
 20
343.871178515565
 30
0.0
 11
216.2464852610489
 21
332.5815785155651
 31
0.0
  0
TEXT
  5
4F9C
330
1F
100
AcDbEntity
  8
0
100
AcDbText
 10
207.6233615605977
 20
333.2407632378385
 30
0.0
 40
2.351999999999999
  1
66
 41
0.8
  7
CHINESET
100
AcDbText
  0
TEXT
  5
4F9D
330
1F
100
AcDbEntity
  8
0
100
AcDbText
 10
207.8269897929074
 20
337.0039632378387
 30
0.0
 40
2.351999999999999
  1
ZZ
 41
0.8
  7
CHINESET
100
AcDbText
  0
LINE
  5
4F9E
330
1F
100
AcDbEntity
  8
0
100
AcDbLine
 10
230.4960940025785
 20
340.1079785155653
 30
0.0
 11
230.4960940025787
 21
332.5815785155653
 31
0.0
  0
TEXT
  5
4F9F
330
1F
100
AcDbEntity
  8
0
100
AcDbText
 10
221.3539148500849
 20
333.2407632378387
 30
0.0
 40
2.351999999999999
  1
41
 41
0.8
  7
CHINESET
100
AcDbText
  0
TEXT
  5
4FA0
330
1F
100
AcDbEntity
  8
0
100
AcDbText
 10
222.0765985344371
 20
337.0039632378387
 30
0.0
 40
2.351999999999999
  1
S
 41
0.8
  7
CHINESET
100
AcDbText
  0
TEXT
  5
4FA1
330
1F
100
AcDbEntity
  8
0
100
AcDbText
 10
221.4493040112209
 20
340.784226083199
 30
0.0
 40
2.351999999999999
  1
With magnet
 41
0.8
  7
CHINESET
100
AcDbText
  0
TEXT
  5
4FA2
330
1F
100
AcDbEntity
  8
0
100
AcDbText
 10
235.9439701069454
 20
333.2407632378385
 30
0.0
 40
2.351999999999999
  1
76
 41
0.8
  7
CHINESET
100
AcDbText
  0
TEXT
  5
4FA3
330
1F
100
AcDbEntity
  8
0
100
AcDbText
 10
236.3262072759671
 20
337.0039632378387
 30
0.0
 40
2.351999999999999
  1
ZZ
 41
0.8
  7
CHINESET
100
AcDbText
  0
LINE
  5
4FA4
330
1F
100
AcDbEntity
  8
0
100
AcDbLine
 10
244.7457027441084
 20
343.871178515565
 30
0.0
 11
244.7457027441085
 21
332.5815785155651
 31
0.0
  0
INSERT
  5
4FA5
330
1F
100
AcDbEntity
  8
0
100
AcDbBlockReference
  2
A$C5ECF147B
 10
192.1752079489872
 20
332.9117000094728
 30
0.0
 41
0.7526400000000422
 42
0.7526400000000422
 43
0.75264
  0
INSERT
  5
4FA6
330
1F
100
AcDbEntity
  8
0
100
AcDbBlockReference
  2
A$C5ECF147B
 10
206.424816690517
 20
332.9117000094726
 30
0.0
 41
0.7526400000000422
 42
0.7526400000000422
 43
0.75264
  0
LEADER
  5
4FA9
330
1F
100
AcDbEntity
  8
DIM
100
AcDbLeader
  3
AM_ANSI$7
 73
     0
 74
     0
 75
     1
 40
10.83333333333333
 41
36.66666666666666
 76
     3
 10
227.3658501995978
 20
143.3364388614508
 30
0.0
 10
238.0960121615086
 20
151.8793336630031
 30
0.0
 10
240.5960121615086
 20
151.8793336630031
 30
0.0
340
4FAA
213
-0.1905629376930165
223
0.2179465301056638
233
0.0
1001
ACAD
1000
DSTYLE
1002
{
1070
    41
1040
2.5
1070
    42
1040
1.5
1070
    43
1040
8.0
1070
    44
1040
1.5
1070
    73
1070
     0
1070
    74
1070
     0
1070
    77
1070
     3
1070
   140
1040
2.0
1070
   141
1040
3.0
1070
   146
1040
0.6
1070
   147
1040
1.0
1070
   172
1070
     1
1070
   178
1070
   256
1070
   272
1070
     2
1070
   274
1070
     2
1070
   340
1005
4003
1002
}
  0
MTEXT
  5
4FAA
102
{ACAD_REACTORS
330
4FA9
102
}
330
1F
100
AcDbEntity
  8
DIM
100
AcDbMText
 10
241.7865750992016
 20
163.4947204662307
 30
0.0
 40
2.5
 41
0.0
 71
     1
 72
     1
  1
%%C10.5*8 depth\PM8*1.25*12.5 depth\P%%C6.9 thru
  7
dayus
 73
     1
 44
1.0
1001
ACAD
1000
MTEXTBEGIN
1070
    73
1070
     1
1070
    44
1040
1.0
1070
    74
1070
     0
1000
MTEXTEND
  0
LINE
  5
50EC
330
1F
100
AcDbEntity
  8
0
100
AcDbLine
 10
174.1900980540326
 20
196.5208975153534
 30
0.0
 11
174.1900980540312
 21
185.231297515354
 31
0.0
  0
LINE
  5
50ED
330
1F
100
AcDbEntity
  8
0
100
AcDbLine
 10
201.9968765195189
 20
192.7576975153538
 30
0.0
 11
201.996876519519
 21
185.2312975153538
 31
0.0
  0
LINE
  5
50EE
330
1F
100
AcDbEntity
  8
0
100
AcDbLine
 10
187.7472677779885
 20
196.5208975153534
 30
0.0
 11
187.7472677779891
 21
185.231297515354
 31
0.0
  0
LINE
  5
50EF
330
1F
100
AcDbEntity
  8
0
100
AcDbLine
 10
174.1900980540329
 20
185.2312975153538
 30
0.0
 11
244.7457027441085
 21
185.2312975153538
 31
0.0
  0
LINE
  5
50F0
330
1F
100
AcDbEntity
  8
0
100
AcDbLine
 10
174.1900980540329
 20
188.9944975153538
 30
0.0
 11
244.7457027441083
 21
188.9944975153538
 31
0.0
  0
TEXT
  5
50F1
330
1F
100
AcDbEntity
  8
0
100
AcDbText
 10
180.3931304823394
 20
185.8709869919445
 30
0.0
 40
2.362676112418407
  1
5
 41
0.8
  7
CHINESET
 72
     4
 11
181.023177445651
 21
187.0523250481537
 31
0.0
100
AcDbText
  0
TEXT
  5
50F2
330
1F
100
AcDbEntity
  8
0
100
AcDbText
 10
177.4467892388079
 20
189.9049376956191
 30
0.0
 40
1.881599999999999
  1
Stroke
 41
0.8
  7
CHINESET
100
AcDbText
  0
TEXT
  5
50F3
330
1F
100
AcDbEntity
  8
0
100
AcDbText
 10
192.6607570119159
 20
185.8904822376272
 30
0.0
 40
2.351999999999999
  1
31
 41
0.8
  7
CHINESET
100
AcDbText
  0
LINE
  5
50F4
330
1F
100
AcDbEntity
  8
0
100
AcDbLine
 10
174.1900980540326
 20
196.5208975153535
 30
0.0
 11
244.7457027441078
 21
196.5208975153535
 31
0.0
  0
INSERT
  5
50F5
330
1F
100
AcDbEntity
  8
0
100
AcDbBlockReference
  2
A$C5ECF147B
 10
173.6852575915504
 20
185.5614190092613
 30
0.0
 41
0.7526400000000422
 42
0.7526400000000422
 43
0.75264
  0
LINE
  5
50F6
330
1F
100
AcDbEntity
  8
0
100
AcDbLine
 10
174.1900980540328
 20
192.7576975153538
 30
0.0
 11
244.7457027441082
 21
192.7576975153538
 31
0.0
  0
TEXT
  5
50F7
330
1F
100
AcDbEntity
  8
0
100
AcDbText
 10
193.5773810513774
 20
189.6536822376272
 30
0.0
 40
2.351999999999999
  1
S
 41
0.8
  7
CHINESET
100
AcDbText
  0
TEXT
  5
50F8
330
1F
100
AcDbEntity
  8
0
100
AcDbText
 10
190.9772471444728
 20
193.4339450829875
 30
0.0
 40
2.351999999999999
  1
Without magnet
 41
0.8
  7
CHINESET
100
AcDbText
  0
LINE
  5
50F9
330
1F
100
AcDbEntity
  8
0
100
AcDbLine
 10
216.2464852610487
 20
196.5208975153535
 30
0.0
 11
216.2464852610489
 21
185.2312975153536
 31
0.0
  0
TEXT
  5
50FA
330
1F
100
AcDbEntity
  8
0
100
AcDbText
 10
207.6233615605977
 20
185.890482237627
 30
0.0
 40
2.351999999999999
  1
38
 41
0.8
  7
CHINESET
100
AcDbText
  0
TEXT
  5
50FB
330
1F
100
AcDbEntity
  8
0
100
AcDbText
 10
207.8269897929074
 20
189.6536822376272
 30
0.0
 40
2.351999999999999
  1
ZZ
 41
0.8
  7
CHINESET
100
AcDbText
  0
LINE
  5
50FC
330
1F
100
AcDbEntity
  8
0
100
AcDbLine
 10
230.4960940025785
 20
192.7576975153538
 30
0.0
 11
230.4960940025787
 21
185.2312975153538
 31
0.0
  0
TEXT
  5
50FD
330
1F
100
AcDbEntity
  8
0
100
AcDbText
 10
221.3539148500849
 20
185.8904822376272
 30
0.0
 40
2.351999999999999
  1
41
 41
0.8
  7
CHINESET
100
AcDbText
  0
TEXT
  5
50FE
330
1F
100
AcDbEntity
  8
0
100
AcDbText
 10
222.0765985344371
 20
189.6536822376272
 30
0.0
 40
2.351999999999999
  1
S
 41
0.8
  7
CHINESET
100
AcDbText
  0
TEXT
  5
50FF
330
1F
100
AcDbEntity
  8
0
100
AcDbText
 10
221.4493040112209
 20
193.4339450829875
 30
0.0
 40
2.351999999999999
  1
With magnet
 41
0.8
  7
CHINESET
100
AcDbText
  0
TEXT
  5
5100
330
1F
100
AcDbEntity
  8
0
100
AcDbText
 10
235.9439701069454
 20
185.890482237627
 30
0.0
 40
2.351999999999999
  1
48
 41
0.8
  7
CHINESET
100
AcDbText
  0
TEXT
  5
5101
330
1F
100
AcDbEntity
  8
0
100
AcDbText
 10
236.3262072759671
 20
189.6536822376272
 30
0.0
 40
2.351999999999999
  1
ZZ
 41
0.8
  7
CHINESET
100
AcDbText
  0
LINE
  5
5102
330
1F
100
AcDbEntity
  8
0
100
AcDbLine
 10
244.7457027441084
 20
196.5208975153535
 30
0.0
 11
244.7457027441085
 21
185.2312975153536
 31
0.0
  0
INSERT
  5
5103
330
1F
100
AcDbEntity
  8
0
100
AcDbBlockReference
  2
A$C5ECF147B
 10
192.1752079489872
 20
185.5614190092613
 30
0.0
 41
0.7526400000000422
 42
0.7526400000000422
 43
0.75264
  0
INSERT
  5
5104
330
1F
100
AcDbEntity
  8
0
100
AcDbBlockReference
  2
A$C5ECF147B
 10
206.424816690517
 20
185.5614190092611
 30
0.0
 41
0.7526400000000422
 42
0.7526400000000422
 43
0.75264
  0
LINE
  5
5240
330
1F
100
AcDbEntity
  8
AM_7
  6
ACISOTGB
 62
     2
100
AcDbLine
 10
75.49421229957397
 20
299.1711989215581
 30
0.0
 11
75.49421229957397
 21
234.1845288161769
 31
0.0
1001
GENIUS_GENOBJ-N-CEN_13
1002
{
1000
OWNER
1000
GEN
1002
}
1001
GENIUS_GENODEF_13
1002
{
1000
HIER
1070
     0
1002
}
1002
{
1000
MANEDIT
1070
     0
1002
}
1002
{
1000
NOSEL
1070
     0
1002
}
1002
{
1000
BEHIND
1070
     0
1002
}
1002
{
1000
OTHER
1070
     0
1002
}
1002
{
1000
REACTOR
1002
}
1001
GENIUS_GENCEN_19
1002
{
1040
3.0
1002
}
  0
INSERT
  5
5294
330
1F
100
AcDbEntity
  8
0
100
AcDbBlockReference
  2
A$C1F6E6265
 10
75.49421183536742
 20
235.3503481274347
 30
0.0
  0
LINE
  5
5295
330
1F
100
AcDbEntity
  8
AM_7
  6
ACISOTGB
 62
     2
100
AcDbLine
 10
75.49421229957397
 20
149.131939234922
 30
0.0
 11
75.49421229957397
 21
84.14526912954091
 31
0.0
1001
GENIUS_GENOBJ-N-CEN_13
1002
{
1000
OWNER
1000
GEN
1002
}
1001
GENIUS_GENODEF_13
1002
{
1000
HIER
1070
     0
1002
}
1002
{
1000
MANEDIT
1070
     0
1002
}
1002
{
1000
NOSEL
1070
     0
1002
}
1002
{
1000
BEHIND
1070
     0
1002
}
1002
{
1000
OTHER
1070
     0
1002
}
1002
{
1000
REACTOR
1002
}
1001
GENIUS_GENCEN_19
1002
{
1040
3.0
1002
}
  0
INSERT
  5
5296
330
1F
100
AcDbEntity
  8
0
100
AcDbBlockReference
  2
A$C1F6E6265
 10
75.49421183536742
 20
85.3110884407987
 30
0.0
  0
ENDSEC
  0
SECTION
  2
OBJECTS
  0
DICTIONARY
  5
C
330
0
100
AcDbDictionary
281
     1
  3
ACAD_COLOR
350
3E77
  3
ACAD_GROUP
350
D
  3
ACAD_LAYOUT
350
1A
  3
ACAD_MATERIAL
350
3E76
  3
ACAD_MLINESTYLE
350
17
  3
ACAD_PLOTSETTINGS
350
19
  3
ACAD_PLOTSTYLENAME
350
E
  3
ACAD_TABLESTYLE
350
3E78
  3
AcadDim
350
1E82
  3
ACDBHEADERROUNDTRIPXREC
350
5331
  3
AcDbVariableDictionary
350
1488
  3
AcmDictionary
350
3DD5
  3
AMG
350
3DBC
  3
AMGSNAPSETTINGS
350
3E08
  3
DWGPROPS
350
5330
  0
DICTIONARY
  5
400D
330
2
100
AcDbDictionary
280
     1
281
     1
  3
ACAD_LAYERSTATES
360
400E
  0
DICTIONARY
  5
3D23
330
1F
100
AcDbDictionary
280
     1
281
     1
  3
ACAD_INDEX
360
52C0
  3
ACAD_LAYOUTSELFREF
360
3E5B
  3
ACAD_SORTENTS
360
46BD
  0
DICTIONARY
  5
3D25
330
1B
100
AcDbDictionary
280
     1
281
     1
  3
ACAD_LAYOUTSELFREF
360
3E5A
  0
DICTIONARY
  5
3D27
330
23
100
AcDbDictionary
280
     1
281
     1
  3
ACAD_LAYOUTSELFREF
360
3E5C
  0
DICTIONARY
  5
4F6B
330
4F6A
100
AcDbDictionary
280
     1
281
     1
  0
DICTIONARY
  5
5290
330
528B
100
AcDbDictionary
280
     1
281
     1
  3
ACAD_SORTENTS
360
5291
  0
DICTIONARY
  5
4341
330
4340
100
AcDbDictionary
280
     1
281
     1
  3
ACAD_DIMASSOC
360
4342
  0
DICTIONARY
  5
4344
330
4343
100
AcDbDictionary
280
     1
281
     1
  3
ACAD_DIMASSOC
360
4345
  0
DICTIONARY
  5
4347
330
4346
100
AcDbDictionary
280
     1
281
     1
  3
ACAD_DIMASSOC
360
4348
  0
DICTIONARY
  5
434A
330
4349
100
AcDbDictionary
280
     1
281
     1
  3
ACAD_DIMASSOC
360
434B
  0
DICTIONARY
  5
434D
330
434C
100
AcDbDictionary
280
     1
281
     1
  3
ACAD_DIMASSOC
360
434E
  0
DICTIONARY
  5
4350
330
434F
100
AcDbDictionary
280
     1
281
     1
  3
ACAD_DIMASSOC
360
4351
  0
DICTIONARY
  5
4359
330
4358
100
AcDbDictionary
280
     1
281
     1
  3
ACAD_DIMASSOC
360
435A
  0
DICTIONARY
  5
435C
330
435B
100
AcDbDictionary
280
     1
281
     1
  3
ACAD_DIMASSOC
360
435D
  0
DICTIONARY
  5
435F
330
435E
100
AcDbDictionary
280
     1
281
     1
  3
ACAD_DIMASSOC
360
4360
  0
DICTIONARY
  5
4366
330
4365
100
AcDbDictionary
280
     1
281
     1
  3
ACAD_DIMASSOC
360
4367
  0
DICTIONARY
  5
436B
330
436A
100
AcDbDictionary
280
     1
281
     1
  3
ACAD_DIMASSOC
360
436C
  0
DICTIONARY
  5
436E
330
436D
100
AcDbDictionary
280
     1
281
     1
  3
ACAD_DIMASSOC
360
436F
  0
DICTIONARY
  5
4371
330
4370
100
AcDbDictionary
280
     1
281
     1
  3
ACAD_DIMASSOC
360
4372
  0
DICTIONARY
  5
4374
330
4373
100
AcDbDictionary
280
     1
281
     1
  3
ACAD_DIMASSOC
360
4375
  0
DICTIONARY
  5
4377
330
4376
100
AcDbDictionary
280
     1
281
     1
  3
ACAD_DIMASSOC
360
4378
  0
DICTIONARY
  5
437C
330
437B
100
AcDbDictionary
280
     1
281
     1
  3
ACAD_DIMASSOC
360
437D
  0
DICTIONARY
  5
437F
330
437E
100
AcDbDictionary
280
     1
281
     1
  3
ACAD_DIMASSOC
360
4380
  0
DICTIONARY
  5
4382
330
4381
100
AcDbDictionary
280
     1
281
     1
  3
ACAD_DIMASSOC
360
4383
  0
DICTIONARY
  5
4385
330
4384
100
AcDbDictionary
280
     1
281
     1
  3
ACAD_DIMASSOC
360
4386
  0
DICTIONARY
  5
438E
330
438D
100
AcDbDictionary
280
     1
281
     1
  3
ACAD_DIMASSOC
360
438F
  0
DICTIONARY
  5
4391
330
4390
100
AcDbDictionary
280
     1
281
     1
  3
ACAD_DIMASSOC
360
4392
  0
DICTIONARY
  5
4394
330
4393
100
AcDbDictionary
280
     1
281
     1
  3
ACAD_DIMASSOC
360
4395
  0
DICTIONARY
  5
3E77
102
{ACAD_REACTORS
330
C
102
}
330
C
100
AcDbDictionary
281
     1
  0
DICTIONARY
  5
D
102
{ACAD_REACTORS
330
C
102
}
330
C
100
AcDbDictionary
281
     1
  0
DICTIONARY
  5
1A
102
{ACAD_REACTORS
330
C
102
}
330
C
100
AcDbDictionary
281
     1
  3
Layout1
350
1E
  3
Layout2
350
26
  3
Model
350
22
  0
DICTIONARY
  5
3E76
102
{ACAD_REACTORS
330
C
102
}
330
C
100
AcDbDictionary
281
     1
  0
DICTIONARY
  5
17
102
{ACAD_REACTORS
330
C
102
}
330
C
100
AcDbDictionary
281
     1
  3
Standard
350
18
  0
DICTIONARY
  5
19
102
{ACAD_REACTORS
330
C
102
}
330
C
100
AcDbDictionary
281
     1
  0
ACDBDICTIONARYWDFLT
  5
E
102
{ACAD_REACTORS
330
C
102
}
330
C
100
AcDbDictionary
281
     1
  3
Normal
350
F
100
AcDbDictionaryWithDefault
340
F
1001
ACAD
1000
TREAT_AS_HARD
1070
     0
  0
DICTIONARY
  5
3E78
102
{ACAD_REACTORS
330
C
102
}
330
C
100
AcDbDictionary
281
     1
  3
Standard
350
3E79
  0
XRECORD
  5
1E82
102
{ACAD_REACTORS
330
C
102
}
330
C
100
AcDbXrecord
280
     1
 90
   990106
  3

 60
     0
 61
     0
 62
     4
 63
     4
 64
     1
 65
     0
 66
     0
 67
     3
 68
     1
 69
     0
 70
     0
 71
     0
 72
     0
 40
0.0
170
     2
340
0
  0
DICTIONARY
  5
5331
102
{ACAD_REACTORS
330
C
102
}
330
C
100
AcDbDictionary
281
     1
  0
DICTIONARY
  5
1488
102
{ACAD_REACTORS
330
C
102
}
330
C
100
AcDbDictionary
281
     1
  3
CTABLESTYLE
350
457C
  3
DIMASSOC
350
3E74
  3
INDEXCTL
350
3E73
  3
PROJECTNAME
350
4D8B
  3
SORTENTS
350
1489
  0
DICTIONARY
  5
3DD5
102
{ACAD_REACTORS
330
C
102
}
330
C
100
AcDbDictionary
281
     1
  3
AcmStdDictionary
350
3DDB
  3
AMDTSECTSYM_ARROWCOLOR
350
4B25
  0
DICTIONARY
  5
3DBC
102
{ACAD_REACTORS
330
C
102
}
330
C
100
AcDbDictionary
281
     1
  0
DICTIONARY
  5
3E08
102
{ACAD_REACTORS
330
C
102
}
330
C
100
AcDbDictionary
281
     1
  0
XRECORD
  5
5330
102
{ACAD_REACTORS
330
C
102
}
330
C
100
AcDbXrecord
280
     1
  1
DWGPROPS COOKIE
  2

  3

  4

  6

  7

  8

  9

300
AmdtFileType=84
301
=
302
=
303
=
304
=
305
=
306
=
307
=
308
=
309
=
 40
0.368441087962963
 41
2452019.631085301
 42
2454308.388215232
  1

 90
        1
  0
DICTIONARY
  5
400E
102
{ACAD_REACTORS
330
400D
102
}
330
400D
100
AcDbDictionary
281
     1
  0
DICTIONARY
  5
52C0
102
{ACAD_REACTORS
330
3D23
102
}
330
3D23
100
AcDbDictionary
281
     1
  3
*A1
350
52C1
  0
XRECORD
  5
3E5B
102
{ACAD_REACTORS
330
3D23
102
}
330
3D23
100
AcDbXrecord
280
     1
340
1F
  0
SORTENTSTABLE
  5
46BD
102
{ACAD_REACTORS
330
3D23
102
}
330
3D23
100
AcDbSortentsTable
330
1F
331
4CAB
  5
4CAB
331
4C74
  5
4C74
331
4F90
  5
4F90
331
4F98
  5
4F98
331
4CB3
  5
4CB3
331
4C7C
  5
4C7C
331
4FA0
  5
4FA0
331
4CBB
  5
4CBB
331
4C84
  5
4C84
331
187A
  5
187A
331
42F6
  5
42F6
331
42B7
  5
42B7
331
432D
  5
432D
331
1882
  5
1882
331
4206
  5
4206
331
423D
  5
423D
331
427C
  5
427C
331
42FE
  5
42FE
331
42BF
  5
42BF
331
4335
  5
4335
331
4284
  5
4284
331
188A
  5
188A
331
17C3
  5
17C3
331
420E
  5
420E
331
4245
  5
4245
331
4306
  5
4306
331
42C7
  5
42C7
331
433D
  5
433D
331
1803
  5
1803
331
4216
  5
4216
331
424D
  5
424D
331
428C
  5
428C
331
430E
  5
430E
331
42CF
  5
42CF
331
4384
  5
4384
331
421E
  5
421E
331
41DF
  5
41DF
331
4255
  5
4255
331
4294
  5
4294
331
4C9C
  5
4C9C
331
50F0
  5
50F0
331
50F8
  5
50F8
331
4C6D
  5
4C6D
331
180B
  5
180B
331
42D7
  5
42D7
331
4316
  5
4316
331
425D
  5
425D
331
18EA
  5
18EA
331
41E7
  5
41E7
331
4226
  5
4226
331
429C
  5
429C
331
42DF
  5
42DF
331
431E
  5
431E
331
4265
  5
4265
331
186B
  5
186B
331
41EF
  5
41EF
331
422E
  5
422E
331
42A4
  5
42A4
331
42E7
  5
42E7
331
4326
  5
4326
331
439C
  5
439C
331
426D
  5
426D
331
1873
  5
1873
331
41F7
  5
41F7
331
4236
  5
4236
331
42AC
  5
42AC
331
4365
  5
4365
331
42EF
  5
42EF
331
41FF
  5
41FF
331
4275
  5
4275
331
5100
  5
5100
331
4F91
  5
4F91
331
4C75
  5
4C75
331
4F99
  5
4F99
331
4CB4
  5
4CB4
331
4C7D
  5
4C7D
331
4FA1
  5
4FA1
331
4CBC
  5
4CBC
331
4C85
  5
4C85
331
4FA9
  5
4FA9
331
4C8D
  5
4C8D
331
42B0
  5
42B0
331
17B4
  5
17B4
331
187B
  5
187B
331
436D
  5
436D
331
42F7
  5
42F7
331
42B8
  5
42B8
331
432E
  5
432E
331
1883
  5
1883
331
4207
  5
4207
331
423E
  5
423E
331
427D
  5
427D
331
42C0
  5
42C0
331
42FF
  5
42FF
331
4336
  5
4336
331
4285
  5
4285
331
188B
  5
188B
331
17C4
  5
17C4
331
420F
  5
420F
331
4246
  5
4246
331
4307
  5
4307
331
42C8
  5
42C8
331
433E
  5
433E
331
1804
  5
1804
331
4217
  5
4217
331
424E
  5
424E
331
428D
  5
428D
331
430F
  5
430F
331
4346
  5
4346
331
421F
  5
421F
331
4256
  5
4256
331
4295
  5
4295
331
4C9D
  5
4C9D
331
50F1
  5
50F1
331
50F9
  5
50F9
331
4CA5
  5
4CA5
331
4C6E
  5
4C6E
331
42D0
  5
42D0
331
180C
  5
180C
331
41E0
  5
41E0
331
42D8
  5
42D8
331
4317
  5
4317
331
438D
  5
438D
331
425E
  5
425E
331
41E8
  5
41E8
331
4227
  5
4227
331
429D
  5
429D
331
42E0
  5
42E0
331
431F
  5
431F
331
4266
  5
4266
331
186C
  5
186C
331
41F0
  5
41F0
331
422F
  5
422F
331
42A5
  5
42A5
331
435E
  5
435E
331
42E8
  5
42E8
331
4327
  5
4327
331
426E
  5
426E
331
1874
  5
1874
331
41F8
  5
41F8
331
4237
  5
4237
331
42AD
  5
42AD
331
4276
  5
4276
331
5101
  5
5101
331
4F92
  5
4F92
331
4C76
  5
4C76
331
4F9A
  5
4F9A
331
4CB5
  5
4CB5
331
4C7E
  5
4C7E
331
4FA2
  5
4FA2
331
4CBD
  5
4CBD
331
4C86
  5
4C86
331
4FAA
  5
4FAA
331
42F0
  5
42F0
331
42B1
  5
42B1
331
17B5
  5
17B5
331
187C
  5
187C
331
4200
  5
4200
331
432F
  5
432F
331
42F8
  5
42F8
331
42B9
  5
42B9
331
423F
  5
423F
331
17BD
  5
17BD
331
4208
  5
4208
331
427E
  5
427E
331
4376
  5
4376
331
4337
  5
4337
331
4300
  5
4300
331
42C1
  5
42C1
331
4286
  5
4286
331
4247
  5
4247
331
188C
  5
188C
331
17C5
  5
17C5
331
4210
  5
4210
331
437E
  5
437E
331
4308
  5
4308
331
42C9
  5
42C9
331
433F
  5
433F
331
1805
  5
1805
331
4218
  5
4218
331
424F
  5
424F
331
428E
  5
428E
331
4257
  5
4257
331
4296
  5
4296
331
4C96
  5
4C96
331
50F2
  5
50F2
331
4A90
  5
4A90
331
50FA
  5
50FA
331
4C6F
  5
4C6F
331
42D1
  5
42D1
331
4310
  5
4310
331
180D
  5
180D
331
41E1
  5
41E1
331
4220
  5
4220
331
434F
  5
434F
331
42D9
  5
42D9
331
4318
  5
4318
331
425F
  5
425F
331
41E9
  5
41E9
331
4228
  5
4228
331
429E
  5
429E
331
4396
  5
4396
331
42E1
  5
42E1
331
4320
  5
4320
331
4267
  5
4267
331
186D
  5
186D
331
41F1
  5
41F1
331
4230
  5
4230
331
42A6
  5
42A6
331
42E9
  5
42E9
331
1875
  5
1875
331
41F9
  5
41F9
331
426F
  5
426F
331
42AE
  5
42AE
331
4277
  5
4277
331
5102
  5
5102
331
4F93
  5
4F93
331
4C77
  5
4C77
331
4F9B
  5
4F9B
331
4CB6
  5
4CB6
331
4C7F
  5
4C7F
331
A9
  5
A9
331
4FA3
  5
4FA3
331
4CBE
  5
4CBE
331
4C87
  5
4C87
331
B1
  5
B1
331
42F1
  5
42F1
331
42B2
  5
42B2
331
4328
  5
4328
331
187D
  5
187D
331
4201
  5
4201
331
4238
  5
4238
331
42F9
  5
42F9
331
42BA
  5
42BA
331
4330
  5
4330
331
427F
  5
427F
331
1885
  5
1885
331
17BE
  5
17BE
331
4209
  5
4209
331
4240
  5
4240
331
4301
  5
4301
331
42C2
  5
42C2
331
4338
  5
4338
331
4287
  5
4287
331
188D
  5
188D
331
17C6
  5
17C6
331
4211
  5
4211
331
4248
  5
4248
331
4309
  5
4309
331
42CA
  5
42CA
331
4340
  5
4340
331
1806
  5
1806
331
4219
  5
4219
331
4250
  5
4250
331
428F
  5
428F
331
4297
  5
4297
331
4C97
  5
4C97
331
50F3
  5
50F3
331
50FB
  5
50FB
331
42D2
  5
42D2
331
4311
  5
4311
331
4221
  5
4221
331
180E
  5
180E
331
41E2
  5
41E2
331
4258
  5
4258
331
42DA
  5
42DA
331
4319
  5
4319
331
4260
  5
4260
331
41EA
  5
41EA
331
4229
  5
4229
331
429F
  5
429F
331
4358
  5
4358
331
42E2
  5
42E2
331
4321
  5
4321
331
4397
  5
4397
331
4268
  5
4268
331
186E
  5
186E
331
41F2
  5
41F2
331
4231
  5
4231
331
42A7
  5
42A7
331
42EA
  5
42EA
331
439F
  5
439F
331
1876
  5
1876
331
41FA
  5
41FA
331
4270
  5
4270
331
42AF
  5
42AF
331
5103
  5
5103
331
4C70
  5
4C70
331
4CAF
  5
4CAF
331
4C78
  5
4C78
331
4F94
  5
4F94
331
4F9C
  5
4F9C
331
4CB7
  5
4CB7
331
4C80
  5
4C80
331
4A72
  5
4A72
331
AA
  5
AA
331
4FA4
  5
4FA4
331
4CBF
  5
4CBF
331
4C88
  5
4C88
331
B2
  5
B2
331
4368
  5
4368
331
42F2
  5
42F2
331
42B3
  5
42B3
331
4329
  5
4329
331
187E
  5
187E
331
4202
  5
4202
331
4239
  5
4239
331
4278
  5
4278
331
4370
  5
4370
331
42FA
  5
42FA
331
42BB
  5
42BB
331
4331
  5
4331
331
4280
  5
4280
331
1886
  5
1886
331
17BF
  5
17BF
331
420A
  5
420A
331
4241
  5
4241
331
4302
  5
4302
331
42C3
  5
42C3
331
4339
  5
4339
331
188E
  5
188E
331
17C7
  5
17C7
331
4212
  5
4212
331
4249
  5
4249
331
4288
  5
4288
331
430A
  5
430A
331
42CB
  5
42CB
331
1807
  5
1807
331
421A
  5
421A
331
4251
  5
4251
331
4290
  5
4290
331
50EC
  5
50EC
331
4C98
  5
4C98
331
50F4
  5
50F4
331
50FC
  5
50FC
331
4349
  5
4349
331
42D3
  5
42D3
331
4312
  5
4312
331
4259
  5
4259
331
180F
  5
180F
331
41E3
  5
41E3
331
4222
  5
4222
331
4298
  5
4298
331
42DB
  5
42DB
331
431A
  5
431A
331
4390
  5
4390
331
4261
  5
4261
331
41EB
  5
41EB
331
422A
  5
422A
331
42A0
  5
42A0
331
42E3
  5
42E3
331
4322
  5
4322
331
4398
  5
4398
331
4269
  5
4269
331
186F
  5
186F
331
41F3
  5
41F3
331
4232
  5
4232
331
42A8
  5
42A8
331
4361
  5
4361
331
42EB
  5
42EB
331
1877
  5
1877
331
41FB
  5
41FB
331
4271
  5
4271
331
5104
  5
5104
331
4C71
  5
4C71
331
4F95
  5
4F95
331
4CB0
  5
4CB0
331
4C79
  5
4C79
331
4F9D
  5
4F9D
331
4CB8
  5
4CB8
331
4C81
  5
4C81
331
AB
  5
AB
331
4FA5
  5
4FA5
331
4CC0
  5
4CC0
331
4C89
  5
4C89
331
4369
  5
4369
331
42F3
  5
42F3
331
42B4
  5
42B4
331
432A
  5
432A
331
43A0
  5
43A0
331
187F
  5
187F
331
4203
  5
4203
331
423A
  5
423A
331
4279
  5
4279
331
42FB
  5
42FB
331
10B3
  5
10B3
331
42BC
  5
42BC
331
4332
  5
4332
331
4281
  5
4281
331
1887
  5
1887
331
420B
  5
420B
331
4242
  5
4242
331
4379
  5
4379
331
4303
  5
4303
331
42C4
  5
42C4
331
433A
  5
433A
331
4213
  5
4213
331
188F
  5
188F
331
424A
  5
424A
331
4289
  5
4289
331
430B
  5
430B
331
42CC
  5
42CC
331
4381
  5
4381
331
421B
  5
421B
331
41DC
  5
41DC
331
4252
  5
4252
331
4291
  5
4291
331
4C91
  5
4C91
331
50ED
  5
50ED
331
4C99
  5
4C99
331
50F5
  5
50F5
331
4CA1
  5
4CA1
331
4A93
  5
4A93
331
50FD
  5
50FD
331
4F8E
  5
4F8E
331
1808
  5
1808
331
42D4
  5
42D4
331
4313
  5
4313
331
425A
  5
425A
331
18E7
  5
18E7
331
1810
  5
1810
331
41E4
  5
41E4
331
4223
  5
4223
331
4299
  5
4299
331
42DC
  5
42DC
331
431B
  5
431B
331
4262
  5
4262
331
1868
  5
1868
331
41EC
  5
41EC
331
422B
  5
422B
331
42A1
  5
42A1
331
42E4
  5
42E4
331
4323
  5
4323
331
4399
  5
4399
331
426A
  5
426A
331
1870
  5
1870
331
41F4
  5
41F4
331
4233
  5
4233
331
42A9
  5
42A9
331
4362
  5
4362
331
42EC
  5
42EC
331
41FC
  5
41FC
331
4272
  5
4272
331
5240
  5
5240
331
4CA9
  5
4CA9
331
4C72
  5
4C72
331
4F96
  5
4F96
331
4CB1
  5
4CB1
331
4C7A
  5
4C7A
331
4F9E
  5
4F9E
331
4CB9
  5
4CB9
331
4C82
  5
4C82
331
AC
  5
AC
331
4FA6
  5
4FA6
331
436A
  5
436A
331
42F4
  5
42F4
331
42B5
  5
42B5
331
432B
  5
432B
331
1878
  5
1878
331
42FC
  5
42FC
331
42BD
  5
42BD
331
4333
  5
4333
331
1880
  5
1880
331
4204
  5
4204
331
423B
  5
423B
331
427A
  5
427A
331
4282
  5
4282
331
437A
  5
437A
331
4304
  5
4304
331
42C5
  5
42C5
331
433B
  5
433B
331
1888
  5
1888
331
420C
  5
420C
331
4243
  5
4243
331
430C
  5
430C
331
42CD
  5
42CD
331
4343
  5
4343
331
1890
  5
1890
331
4214
  5
4214
331
424B
  5
424B
331
428A
  5
428A
331
421C
  5
421C
331
41DD
  5
41DD
331
4253
  5
4253
331
4292
  5
4292
331
4C92
  5
4C92
331
4C9A
  5
4C9A
331
50EE
  5
50EE
331
50F6
  5
50F6
331
4F67
  5
4F67
331
50FE
  5
50FE
331
4F8F
  5
4F8F
331
42D5
  5
42D5
331
4314
  5
4314
331
1809
  5
1809
331
425B
  5
425B
331
42DD
  5
42DD
331
431C
  5
431C
331
41E5
  5
41E5
331
4224
  5
4224
331
429A
  5
429A
331
4263
  5
4263
331
435B
  5
435B
331
42E5
  5
42E5
331
4324
  5
4324
331
439A
  5
439A
331
1869
  5
1869
331
41ED
  5
41ED
331
422C
  5
422C
331
42A2
  5
42A2
331
426B
  5
426B
331
4363
  5
4363
331
42ED
  5
42ED
331
1871
  5
1871
331
41F5
  5
41F5
331
4234
  5
4234
331
42AA
  5
42AA
331
41FD
  5
41FD
331
4273
  5
4273
331
4CAA
  5
4CAA
331
4C73
  5
4C73
331
4F97
  5
4F97
331
4CB2
  5
4CB2
331
4C7B
  5
4C7B
331
4F9F
  5
4F9F
331
4CBA
  5
4CBA
331
4C83
  5
4C83
331
4A75
  5
4A75
331
42F5
  5
42F5
331
42B6
  5
42B6
331
432C
  5
432C
331
1879
  5
1879
331
4373
  5
4373
331
42FD
  5
42FD
331
42BE
  5
42BE
331
4334
  5
4334
331
1881
  5
1881
331
4205
  5
4205
331
423C
  5
423C
331
427B
  5
427B
331
4283
  5
4283
331
437B
  5
437B
331
4305
  5
4305
331
42C6
  5
42C6
331
433C
  5
433C
331
1889
  5
1889
331
420D
  5
420D
331
4244
  5
4244
331
1891
  5
1891
331
430D
  5
430D
331
42CE
  5
42CE
331
1802
  5
1802
331
4215
  5
4215
331
424C
  5
424C
331
428B
  5
428B
331
421D
  5
421D
331
41DE
  5
41DE
331
4254
  5
4254
331
4293
  5
4293
331
4C9B
  5
4C9B
331
50EF
  5
50EF
331
50F7
  5
50F7
331
4C6C
  5
4C6C
331
50FF
  5
50FF
331
434C
  5
434C
331
42D6
  5
42D6
331
4315
  5
4315
331
180A
  5
180A
331
425C
  5
425C
331
42DE
  5
42DE
331
431D
  5
431D
331
4393
  5
4393
331
41E6
  5
41E6
331
4225
  5
4225
331
429B
  5
429B
331
4264
  5
4264
331
42E6
  5
42E6
331
4325
  5
4325
331
439B
  5
439B
331
186A
  5
186A
331
41EE
  5
41EE
331
422D
  5
422D
331
42A3
  5
42A3
331
426C
  5
426C
331
4364
  5
4364
331
42EE
  5
42EE
331
1872
  5
1872
331
41F6
  5
41F6
331
4235
  5
4235
331
42AB
  5
42AB
331
41FE
  5
41FE
331
4274
  5
4274
  0
XRECORD
  5
3E5A
102
{ACAD_REACTORS
330
3D25
102
}
330
3D25
100
AcDbXrecord
280
     1
340
1B
  0
XRECORD
  5
3E5C
102
{ACAD_REACTORS
330
3D27
102
}
330
3D27
100
AcDbXrecord
280
     1
340
23
  0
SORTENTSTABLE
  5
5291
102
{ACAD_REACTORS
330
5290
102
}
330
5290
100
AcDbSortentsTable
330
528B
  0
DIMASSOC
  5
4342
102
{ACAD_REACTORS
330
4341
102
}
330
4341
100
AcDbDimAssoc
330
4340
 90
        3
 70
     0
 71
     0
  1
AcDbOsnapPointRef
 72
     1
331
428F
 73
     2
 91
        0
 40
1.0
 10
0.0
 20
0.0
 30
2.000000000000000E+50
 75
     0
  1
AcDbOsnapPointRef
 72
     6
331
428D
 73
     2
 91
        0
 40
1.0
 10
0.0
 20
0.0
 30
0.0
332
4296
 74
     2
 92
        0
 75
     0
  0
DIMASSOC
  5
4345
102
{ACAD_REACTORS
330
4344
102
}
330
4344
100
AcDbDimAssoc
330
4343
 90
        3
 70
     0
 71
     0
  1
AcDbOsnapPointRef
 72
     6
331
428A
 73
     2
 91
        0
 40
1.0
 10
0.0
 20
0.0
 30
0.0
332
4210
 74
     2
 92
        0
 75
     0
  1
AcDbOsnapPointRef
 72
     1
331
4286
 73
     2
 91
        0
 40
1.0
 10
0.0
 20
0.0
 30
2.000000000000000E+50
 75
     0
  0
DIMASSOC
  5
4348
102
{ACAD_REACTORS
330
4347
102
}
330
4347
100
AcDbDimAssoc
330
4346
 90
        3
 70
     0
 71
     0
  1
AcDbOsnapPointRef
 72
     1
331
420D
 73
     2
 91
        0
 40
1.0
 10
0.0
 20
0.0
 30
2.000000000000000E+50
 75
     0
  1
AcDbOsnapPointRef
 72
     1
331
4286
 73
     2
 91
        0
 40
1.0
 10
0.0
 20
0.0
 30
2.000000000000000E+50
 75
     0
  0
DIMASSOC
  5
434B
102
{ACAD_REACTORS
330
434A
102
}
330
434A
100
AcDbDimAssoc
330
4349
 90
        3
 70
     0
 71
     0
  1
AcDbOsnapPointRef
 72
     1
331
4202
 73
     2
 91
        0
 40
1.0
 10
0.0
 20
0.0
 30
2.000000000000000E+50
 75
     0
  1
AcDbOsnapPointRef
 72
    13
331
421C
 73
     2
 91
        0
 40
0.0
 10
0.0
 20
0.0
 30
2.000000000000000E+50
 75
     0
  0
DIMASSOC
  5
434E
102
{ACAD_REACTORS
330
434D
102
}
330
434D
100
AcDbDimAssoc
330
434C
 90
        3
 70
     0
 71
     0
  1
AcDbOsnapPointRef
 72
     1
331
41FE
 73
     2
 91
        0
 40
1.0
 10
0.0
 20
0.0
 30
2.000000000000000E+50
 75
     0
  1
AcDbOsnapPointRef
 72
     1
331
4206
 73
     2
 91
        0
 40
1.0
 10
0.0
 20
0.0
 30
2.000000000000000E+50
 75
     0
  0
DIMASSOC
  5
4351
102
{ACAD_REACTORS
330
4350
102
}
330
4350
100
AcDbDimAssoc
330
434F
 90
        3
 70
     0
 71
     0
  1
AcDbOsnapPointRef
 72
     1
331
4208
 73
     2
 91
        0
 40
1.0
 10
0.0
 20
0.0
 30
2.000000000000000E+50
 75
     0
  1
AcDbOsnapPointRef
 72
    13
331
432E
 73
     2
 91
        0
 40
0.0
 10
0.0
 20
0.0
 30
2.000000000000000E+50
 75
     0
  0
DIMASSOC
  5
435A
102
{ACAD_REACTORS
330
4359
102
}
330
4359
100
AcDbDimAssoc
330
4358
 90
        3
 70
     0
 71
     0
  1
AcDbOsnapPointRef
 72
     6
331
432E
 73
     2
 91
        0
 40
-0.0000000000000087
 10
0.0
 20
0.0
 30
0.0
332
4202
 74
     2
 92
        0
 75
     0
  1
AcDbOsnapPointRef
 72
     1
331
4286
 73
     2
 91
        0
 40
1.0
 10
0.0
 20
0.0
 30
2.000000000000000E+50
 75
     0
  0
DIMASSOC
  5
435D
102
{ACAD_REACTORS
330
435C
102
}
330
435C
100
AcDbDimAssoc
330
435B
 90
        3
 70
     0
 71
     0
  1
AcDbOsnapPointRef
 72
    13
331
429F
 73
     2
 91
        0
 40
0.0
 10
0.0
 20
0.0
 30
2.000000000000000E+50
 75
     0
  1
AcDbOsnapPointRef
 72
     6
331
429E
 73
     2
 91
        0
 40
0.0000000000002274
 10
0.0
 20
0.0
 30
0.0
332
420A
 74
     2
 92
        0
 75
     0
  0
DIMASSOC
  5
4360
102
{ACAD_REACTORS
330
435F
102
}
330
435F
100
AcDbDimAssoc
330
435E
 90
        3
 70
     0
 71
     0
  1
AcDbOsnapPointRef
 72
    13
331
420F
 73
     2
 91
        0
 40
4.712388980384689
 10
0.0
 20
0.0
 30
2.000000000000000E+50
 75
     0
  1
AcDbOsnapPointRef
 72
     1
331
421C
 73
     2
 91
        0
 40
1.570796326794896
 10
0.0
 20
0.0
 30
2.000000000000000E+50
 75
     0
  0
DIMASSOC
  5
4367
102
{ACAD_REACTORS
330
4366
102
}
330
4366
100
AcDbDimAssoc
330
4365
 90
        3
 70
     0
 71
     0
  1
AcDbOsnapPointRef
 72
     6
331
4218
 73
     2
 91
        0
 40
0.0000000000000147
 10
0.0
 20
0.0
 30
0.0
332
4219
 74
     2
 92
        0
 75
     0
  1
AcDbOsnapPointRef
 72
     6
331
420E
 73
     2
 91
        0
 40
0.2319005024590227
 10
0.0
 20
0.0
 30
0.0
332
420D
 74
     2
 92
        0
 75
     0
  0
DIMASSOC
  5
436C
102
{ACAD_REACTORS
330
436B
102
}
330
436B
100
AcDbDimAssoc
330
436A
 90
        3
 70
     0
 71
     0
  1
AcDbOsnapPointRef
 72
     1
331
42AF
 73
     2
 91
        0
 40
1.0
 10
0.0
 20
0.0
 30
2.000000000000000E+50
 75
     0
  1
AcDbOsnapPointRef
 72
     1
331
42AA
 73
     2
 91
        0
 40
1.0
 10
0.0
 20
0.0
 30
2.000000000000000E+50
 75
     0
  0
DIMASSOC
  5
436F
102
{ACAD_REACTORS
330
436E
102
}
330
436E
100
AcDbDimAssoc
330
436D
 90
        3
 70
     0
 71
     0
  1
AcDbOsnapPointRef
 72
    13
331
4251
 73
     2
 91
        0
 40
0.0
 10
0.0
 20
0.0
 30
2.000000000000000E+50
 75
     0
  1
AcDbOsnapPointRef
 72
    13
331
4283
 73
     2
 91
        0
 40
0.0
 10
0.0
 20
0.0
 30
2.000000000000000E+50
 75
     0
  0
DIMASSOC
  5
4372
102
{ACAD_REACTORS
330
4371
102
}
330
4371
100
AcDbDimAssoc
330
4370
 90
        3
 70
     0
 71
     0
  1
AcDbOsnapPointRef
 72
    13
331
423E
 73
     2
 91
        0
 40
0.0
 10
0.0
 20
0.0
 30
2.000000000000000E+50
 75
     0
  1
AcDbOsnapPointRef
 72
    13
331
4265
 73
     2
 91
        0
 40
0.0
 10
0.0
 20
0.0
 30
2.000000000000000E+50
 75
     0
  0
DIMASSOC
  5
4375
102
{ACAD_REACTORS
330
4374
102
}
330
4374
100
AcDbDimAssoc
330
4373
 90
        3
 70
     0
 71
     0
  1
AcDbOsnapPointRef
 72
     6
331
425B
 73
     2
 91
        0
 40
-0.0000000000000587
 10
0.0
 20
0.0
 30
0.0
332
4259
 74
     2
 92
        0
 75
     0
  1
AcDbOsnapPointRef
 72
     6
331
426D
 73
     2
 91
        0
 40
1.0
 10
0.0
 20
0.0
 30
0.0
332
4259
 74
     2
 92
        0
 75
     0
  0
DIMASSOC
  5
4378
102
{ACAD_REACTORS
330
4377
102
}
330
4377
100
AcDbDimAssoc
330
4376
 90
        3
 70
     0
 71
     0
  1
AcDbOsnapPointRef
 72
     2
331
4240
 73
     2
 91
        0
 40
2.409693096750363
 10
0.0
 20
0.0
 30
0.0
 75
     0
  1
AcDbOsnapPointRef
 72
     2
331
423F
 73
     2
 91
        0
 40
3.873492210429223
 10
0.0
 20
0.0
 30
0.0
 75
     0
  0
DIMASSOC
  5
437D
102
{ACAD_REACTORS
330
437C
102
}
330
437C
100
AcDbDimAssoc
330
437B
 90
        3
 70
     0
 71
     0
  1
AcDbOsnapPointRef
 72
    13
331
433F
 73
     2
 91
        0
 40
0.0
 10
0.0
 20
0.0
 30
2.000000000000000E+50
 75
     0
  1
AcDbOsnapPointRef
 72
     1
331
41EC
 73
     2
 91
        0
 40
1.0
 10
0.0
 20
0.0
 30
2.000000000000000E+50
 75
     0
  0
DIMASSOC
  5
4380
102
{ACAD_REACTORS
330
437F
102
}
330
437F
100
AcDbDimAssoc
330
437E
 90
        3
 70
     0
 71
     0
  1
AcDbOsnapPointRef
 72
     6
331
433F
 73
     2
 91
        0
 40
-0.0000000000000087
 10
0.0
 20
0.0
 30
0.0
332
41DE
 74
     2
 92
        0
 75
     0
  1
AcDbOsnapPointRef
 72
     1
331
41EE
 73
     2
 91
        0
 40
1.0
 10
0.0
 20
0.0
 30
2.000000000000000E+50
 75
     0
  0
DIMASSOC
  5
4383
102
{ACAD_REACTORS
330
4382
102
}
330
4382
100
AcDbDimAssoc
330
4381
 90
        3
 70
     0
 71
     0
  1
AcDbOsnapPointRef
 72
     1
331
432F
 73
     2
 91
        0
 40
1.0
 10
0.0
 20
0.0
 30
2.000000000000000E+50
 75
     0
  1
AcDbOsnapPointRef
 72
     1
331
4333
 73
     2
 91
        0
 40
1.0
 10
0.0
 20
0.0
 30
2.000000000000000E+50
 75
     0
  0
DIMASSOC
  5
4386
102
{ACAD_REACTORS
330
4385
102
}
330
4385
100
AcDbDimAssoc
330
4384
 90
        3
 70
     0
 71
     0
  1
AcDbOsnapPointRef
 72
     1
331
4335
 73
     2
 91
        0
 40
1.0
 10
0.0
 20
0.0
 30
2.000000000000000E+50
 75
     0
  1
AcDbOsnapPointRef
 72
    13
331
433F
 73
     2
 91
        0
 40
0.0
 10
0.0
 20
0.0
 30
2.000000000000000E+50
 75
     0
  0
DIMASSOC
  5
438F
102
{ACAD_REACTORS
330
438E
102
}
330
438E
100
AcDbDimAssoc
330
438D
 90
        3
 70
     0
 71
     0
  1
AcDbOsnapPointRef
 72
    13
331
42A1
 73
     2
 91
        0
 40
0.0
 10
0.0
 20
0.0
 30
2.000000000000000E+50
 75
     0
  1
AcDbOsnapPointRef
 72
    13
331
42A0
 73
     2
 91
        0
 40
0.0
 10
0.0
 20
0.0
 30
2.000000000000000E+50
 75
     0
  0
DIMASSOC
  5
4392
102
{ACAD_REACTORS
330
4391
102
}
330
4391
100
AcDbDimAssoc
330
4390
 90
        3
 70
     0
 71
     0
  1
AcDbOsnapPointRef
 72
     1
331
41ED
 73
     2
 91
        0
 40
1.570796326794896
 10
0.0
 20
0.0
 30
2.000000000000000E+50
 75
     0
  1
AcDbOsnapPointRef
 72
    13
331
41E9
 73
     2
 91
        0
 40
4.712388980384689
 10
0.0
 20
0.0
 30
2.000000000000000E+50
 75
     0
  0
DIMASSOC
  5
4395
102
{ACAD_REACTORS
330
4394
102
}
330
4394
100
AcDbDimAssoc
330
4393
 90
        3
 70
     0
 71
     0
  1
AcDbOsnapPointRef
 72
     6
331
41E3
 73
     2
 91
        0
 40
0.0000000000000165
 10
0.0
 20
0.0
 30
0.0
332
41E2
 74
     2
 92
        0
 75
     0
  1
AcDbOsnapPointRef
 72
     1
331
41E6
 73
     2
 91
        0
 40
1.0
 10
0.0
 20
0.0
 30
2.000000000000000E+50
 75
     0
  0
LAYOUT
  5
1E
102
{ACAD_XDICTIONARY
360
5332
102
}
102
{ACAD_REACTORS
330
1A
102
}
330
1A
100
AcDbPlotSettings
  1

  2

  4

  6

 40
0.0
 41
0.0
 42
0.0
 43
0.0
 44
0.0
 45
0.0
 46
0.0
 47
0.0
 48
0.0
 49
0.0
140
0.0
141
0.0
142
1.0
143
1.0
 70
   688
 72
     0
 73
     0
 74
     5
  7

 75
    16
147
1.0
148
0.0
149
0.0
100
AcDbLayout
  1
Layout1
 70
     1
 71
     1
 10
0.0
 20
0.0
 11
12.0
 21
9.0
 12
0.0
 22
0.0
 32
0.0
 14
1.000000000000000E+20
 24
1.000000000000000E+20
 34
1.000000000000000E+20
 15
-1.000000000000000E+20
 25
-1.000000000000000E+20
 35
-1.000000000000000E+20
146
0.0
 13
0.0
 23
0.0
 33
0.0
 16
1.0
 26
0.0
 36
0.0
 17
0.0
 27
1.0
 37
0.0
 76
     0
330
1B
  0
LAYOUT
  5
26
102
{ACAD_XDICTIONARY
360
5336
102
}
102
{ACAD_REACTORS
330
1A
102
}
330
1A
100
AcDbPlotSettings
  1

  2

  4

  6

 40
0.0
 41
0.0
 42
0.0
 43
0.0
 44
0.0
 45
0.0
 46
0.0
 47
0.0
 48
0.0
 49
0.0
140
0.0
141
0.0
142
1.0
143
1.0
 70
   688
 72
     0
 73
     0
 74
     5
  7

 75
    16
147
1.0
148
0.0
149
0.0
100
AcDbLayout
  1
Layout2
 70
     1
 71
     2
 10
0.0
 20
0.0
 11
12.0
 21
9.0
 12
0.0
 22
0.0
 32
0.0
 14
0.0
 24
0.0
 34
0.0
 15
0.0
 25
0.0
 35
0.0
146
0.0
 13
0.0
 23
0.0
 33
0.0
 16
1.0
 26
0.0
 36
0.0
 17
0.0
 27
1.0
 37
0.0
 76
     0
330
23
  0
LAYOUT
  5
22
102
{ACAD_XDICTIONARY
360
5334
102
}
102
{ACAD_REACTORS
330
1A
102
}
330
1A
100
AcDbPlotSettings
  1

  2
DWF Classic.pc3
  4
ISO_A3_(420.00_x_297.00_MM)
  6

 40
5.793749809265136
 41
17.79375076293945
 42
5.79376220703125
 43
17.79376220703125
 44
420.0
 45
297.0
 46
58.62
 47
0.0
 48
0.0
 49
0.0
140
0.0
141
0.0
142
1.0
143
1.040956525863997
 70
 11956
 72
     1
 73
     1
 74
     1
  7

 75
     0
147
0.9606549122404478
148
0.4787910136826668
149
0.4766328058566387
100
AcDbLayout
  1
Model
 70
     1
 71
     0
 10
0.0
 20
0.0
 11
12.0
 21
9.0
 12
0.0
 22
0.0
 32
0.0
 14
0.0
 24
0.0
 34
0.0
 15
0.0
 25
0.0
 35
0.0
146
0.0
 13
0.0
 23
0.0
 33
0.0
 16
1.0
 26
0.0
 36
0.0
 17
0.0
 27
1.0
 37
0.0
 76
     0
330
1F
  0
MLINESTYLE
  5
18
102
{ACAD_REACTORS
330
17
102
}
330
17
100
AcDbMlineStyle
  2
STANDARD
 70
     0
  3

 62
   256
 51
90.0
 52
90.0
 71
     2
 49
0.5
 62
   256
  6
BYLAYER
 49
-0.5
 62
   256
  6
BYLAYER
  0
ACDBPLACEHOLDER
  5
F
102
{ACAD_REACTORS
330
E
102
}
330
E
  0
TABLESTYLE
  5
3E79
102
{ACAD_REACTORS
330
3E78
102
}
330
3E78
100
AcDbTableStyle
  3
Standard
 70
     0
 71
     0
 40
1.5
 41
1.5
280
     0
281
     0
  7
Standard
140
4.5
170
     2
 62
     0
 63
     7
283
     0
274
    -2
284
     1
 64
     0
275
    -2
285
     1
 65
     0
276
    -2
286
     1
 66
     0
277
    -2
287
     1
 67
     0
278
    -2
288
     1
 68
     0
279
    -2
289
     1
 69
     0
  7
Standard
140
6.0
170
     5
 62
     0
 63
     7
283
     0
274
    -2
284
     1
 64
     0
275
    -2
285
     1
 65
     0
276
    -2
286
     1
 66
     0
277
    -2
287
     1
 67
     0
278
    -2
288
     1
 68
     0
279
    -2
289
     1
 69
     0
  7
Standard
140
4.5
170
     5
 62
     0
 63
     7
283
     0
274
    -2
284
     1
 64
     0
275
    -2
285
     1
 65
     0
276
    -2
286
     1
 66
     0
277
    -2
287
     1
 67
     0
278
    -2
288
     1
 68
     0
279
    -2
289
     1
 69
     0
  0
DICTIONARYVAR
  5
457C
102
{ACAD_REACTORS
330
1488
102
}
330
1488
100
DictionaryVariables
280
     0
  1
STANDARD
  0
DICTIONARYVAR
  5
3E74
102
{ACAD_REACTORS
330
1488
102
}
330
1488
100
DictionaryVariables
280
     0
  1
1
  0
DICTIONARYVAR
  5
3E73
102
{ACAD_REACTORS
330
1488
102
}
330
1488
100
DictionaryVariables
280
     0
  1
1
  0
DICTIONARYVAR
  5
4D8B
102
{ACAD_REACTORS
330
1488
102
}
330
1488
100
DictionaryVariables
280
     0
  1

  0
DICTIONARYVAR
  5
1489
102
{ACAD_REACTORS
330
1488
102
}
330
1488
100
DictionaryVariables
280
     0
  1
96
  0
DICTIONARY
  5
3DDB
102
{ACAD_REACTORS
330
3DD5
102
}
330
3DD5
100
AcDbDictionary
281
     1
  0
XRECORD
  5
4B25
102
{ACAD_REACTORS
330
3DD5
102
}
330
3DD5
100
AcDbXrecord
280
     1
 90
-1023410169
  0
LAYER_INDEX
  5
52C1
102
{ACAD_REACTORS
330
52C0
102
}
330
52C0
100
AcDbIndex
 40
2454308.388215232
100
AcDbLayerIndex
  8
0
360
5327
 90
      398
  8
DIM
360
5328
 90
       45
  8
CENTER
360
5329
 90
       26
  8
LOGO
360
532A
 90
      127
  8
Defpoints
360
532B
 90
        0
  8
AM_CL
360
532C
 90
        0
  8
AM_7
360
532D
 90
        2
  8
AM_5
360
532E
 90
        0
  0
DICTIONARY
  5
5332
330
1E
100
AcDbDictionary
280
     1
281
     1
  3
ACAD_XREC_ROUNDTRIP
360
5333
  0
DICTIONARY
  5
5336
330
26
100
AcDbDictionary
280
     1
281
     1
  3
ACAD_XREC_ROUNDTRIP
360
5337
  0
DICTIONARY
  5
5334
330
22
100
AcDbDictionary
280
     1
281
     1
  3
ACAD_XREC_ROUNDTRIP
360
5335
  0
IDBUFFER
  5
5327
330
0
100
AcDbIdBuffer
330
42D2
330
42D3
330
42D4
330
42D5
330
42D6
330
42D7
330
42D8
330
42D9
330
42DA
330
42DB
330
42DC
330
42DD
330
42DE
330
42DF
330
42E0
330
42E1
330
42E2
330
42E3
330
42E4
330
42E5
330
42E6
330
42E7
330
42E8
330
42E9
330
42EA
330
42EB
330
42EC
330
42ED
330
42EE
330
42EF
330
42F0
330
42F1
330
42F2
330
42F3
330
42F4
330
42F5
330
42F6
330
42F7
330
42F8
330
42F9
330
42FA
330
42FB
330
42FC
330
42FD
330
42FE
330
42FF
330
4300
330
4301
330
4302
330
4303
330
4304
330
4305
330
4306
330
4307
330
4308
330
4309
330
430A
330
430B
330
430C
330
430D
330
430E
330
430F
330
4310
330
4311
330
4312
330
4313
330
4314
330
4315
330
4316
330
4317
330
431A
330
431B
330
431C
330
431F
330
4320
330
4321
330
4324
330
4325
330
4326
330
4327
330
4328
330
4329
330
432A
330
432B
330
432C
330
432D
330
432E
330
432F
330
4330
330
4331
330
4332
330
4334
330
4336
330
4337
330
4338
330
4339
330
433A
330
433B
330
433C
330
433D
330
433E
330
433F
330
4CC1
330
4CC2
330
4CC3
330
4F67
330
4F8E
330
4F8F
330
4F90
330
4F91
330
4F92
330
4F93
330
4F94
330
4F95
330
4F96
330
4F97
330
4F98
330
4F99
330
4F9A
330
4F9B
330
4F9C
330
4F9D
330
4F9E
330
4F9F
330
4FA0
330
4FA1
330
4FA2
330
4FA3
330
4FA4
330
4FA5
330
4FA6
330
50EC
330
50ED
330
50EE
330
50EF
330
50F0
330
50F1
330
50F2
330
50F3
330
50F4
330
50F5
330
50F6
330
50F7
330
50F8
330
50F9
330
50FA
330
50FB
330
50FC
330
50FD
330
50FE
330
50FF
330
5100
330
5101
330
5102
330
5103
330
5104
330
5294
330
5296
330
A9
330
AA
330
AB
330
AC
330
B1
330
B2
330
10B3
330
17B4
330
17B5
330
17BF
330
18E7
330
18EA
330
41DC
330
41DE
330
41DF
330
41E0
330
41E1
330
41E2
330
41E3
330
41E4
330
41E5
330
41E6
330
41E7
330
41E8
330
41E9
330
41EA
330
41EB
330
41EC
330
41ED
330
41EE
330
41EF
330
41F0
330
41F1
330
41F2
330
41F3
330
41F4
330
41F5
330
41F6
330
41F7
330
41F8
330
41F9
330
41FA
330
41FB
330
41FC
330
41FD
330
41FE
330
41FF
330
4200
330
4202
330
4203
330
4204
330
4205
330
4207
330
4209
330
420A
330
420B
330
420C
330
420D
330
420E
330
420F
330
4210
330
4211
330
4212
330
4213
330
4214
330
4215
330
4216
330
4217
330
4218
330
4219
330
421A
330
421B
330
421C
330
421E
330
4220
330
4221
330
4223
330
4224
330
4225
330
4226
330
4227
330
4228
330
4229
330
422A
330
422B
330
422C
330
422D
330
422E
330
422F
330
4230
330
4231
330
4232
330
4233
330
4234
330
4235
330
4236
330
4238
330
4239
330
423A
330
423B
330
423C
330
423D
330
423E
330
423F
330
4240
330
4241
330
4242
330
4243
330
4244
330
4245
330
4246
330
4247
330
4248
330
4249
330
424A
330
424B
330
424C
330
424D
330
424E
330
424F
330
4250
330
4251
330
4252
330
4253
330
4254
330
4255
330
4256
330
4257
330
4258
330
4259
330
425A
330
425B
330
425C
330
425D
330
425E
330
425F
330
4260
330
4261
330
4262
330
4263
330
4264
330
4265
330
4266
330
4267
330
4268
330
4269
330
426A
330
426B
330
426C
330
426D
330
426E
330
426F
330
4270
330
4271
330
4272
330
4273
330
4274
330
4275
330
4276
330
4277
330
4278
330
4279
330
427A
330
427B
330
427C
330
427D
330
427E
330
427F
330
4280
330
4281
330
4282
330
4283
330
4284
330
4285
330
4286
330
4287
330
4288
330
4289
330
428A
330
428B
330
428C
330
428D
330
428E
330
428F
330
4290
330
4291
330
4292
330
4293
330
4294
330
4295
330
4296
330
4297
330
4298
330
4299
330
429A
330
429B
330
429C
330
429D
330
429E
330
429F
330
42A0
330
42A1
330
42A2
330
42A3
330
42A4
330
42A7
330
42A8
330
42A9
330
42AC
330
42AD
330
42AE
330
42B1
330
42B3
330
42B5
330
42B6
330
42B8
330
42B9
330
42BA
330
42BB
330
42BC
330
42BD
330
42BE
330
42BF
330
42C0
330
42C1
330
42C2
330
42C3
330
42C4
330
42C5
330
42C6
330
42C7
330
42C8
330
42C9
330
42CA
330
42CB
330
42CD
330
42CE
330
42CF
330
42D0
330
42D1
  0
IDBUFFER
  5
5328
330
0
100
AcDbIdBuffer
330
436A
330
436D
330
4370
330
4373
330
4376
330
4379
330
437A
330
437B
330
437E
330
4381
330
4384
330
438D
330
4390
330
4393
330
4396
330
4397
330
4398
330
4399
330
439A
330
439B
330
439C
330
439F
330
43A0
330
4A72
330
4A75
330
4A90
330
4A93
330
4FA9
330
4FAA
330
4340
330
4343
330
4346
330
4349
330
434C
330
434F
330
4358
330
435B
330
435E
330
4361
330
4362
330
4363
330
4364
330
4365
330
4368
330
4369
  0
IDBUFFER
  5
5329
330
0
100
AcDbIdBuffer
330
42B7
330
42CC
330
4318
330
4319
330
431D
330
431E
330
4322
330
4323
330
4333
330
4335
330
41DD
330
4201
330
4206
330
4208
330
421D
330
421F
330
4222
330
4237
330
42A5
330
42A6
330
42AA
330
42AB
330
42AF
330
42B0
330
42B2
330
42B4
  0
IDBUFFER
  5
532A
330
0
100
AcDbIdBuffer
330
4CB2
330
4CB3
330
4CB4
330
4CB5
330
4CB6
330
4CB7
330
4CB8
330
4CB9
330
4CBA
330
4CBB
330
4CBC
330
4CBD
330
4CBE
330
4CBF
330
4CC0
330
17BD
330
17BE
330
17C3
330
17C4
330
17C5
330
17C6
330
17C7
330
1802
330
1803
330
1804
330
1805
330
1806
330
1807
330
1808
330
1809
330
180A
330
180B
330
180C
330
180D
330
180E
330
180F
330
1810
330
1868
330
1869
330
186A
330
186B
330
186C
330
186D
330
186E
330
186F
330
1870
330
1871
330
1872
330
1873
330
1874
330
1875
330
1876
330
1877
330
1878
330
1879
330
187A
330
187B
330
187C
330
187D
330
187E
330
187F
330
1880
330
1881
330
1882
330
1883
330
1885
330
1886
330
1887
330
1888
330
1889
330
188A
330
188B
330
188C
330
188D
330
188E
330
188F
330
1890
330
1891
330
4C6C
330
4C6D
330
4C6E
330
4C6F
330
4C70
330
4C71
330
4C72
330
4C73
330
4C74
330
4C75
330
4C76
330
4C77
330
4C78
330
4C79
330
4C7A
330
4C7B
330
4C7C
330
4C7D
330
4C7E
330
4C7F
330
4C80
330
4C81
330
4C82
330
4C83
330
4C84
330
4C85
330
4C86
330
4C87
330
4C88
330
4C89
330
4C8D
330
4C91
330
4C92
330
4C96
330
4C97
330
4C98
330
4C99
330
4C9A
330
4C9B
330
4C9C
330
4C9D
330
4CA1
330
4CA5
330
4CA9
330
4CAA
330
4CAB
330
4CAF
330
4CB0
330
4CB1
  0
IDBUFFER
  5
532B
330
0
100
AcDbIdBuffer
  0
IDBUFFER
  5
532C
330
0
100
AcDbIdBuffer
  0
IDBUFFER
  5
532D
330
0
100
AcDbIdBuffer
330
5240
330
5295
  0
IDBUFFER
  5
532E
330
0
100
AcDbIdBuffer
  0
XRECORD
  5
5333
102
{ACAD_REACTORS
330
5332
102
}
330
5332
100
AcDbXrecord
280
     1
102
SHADEPLOT
 70
     0
102
SHADEPLOTRESLEVEL
 70
     2
102
SHADEPLOTCUSTOMDPI
 70
   300
  0
XRECORD
  5
5337
102
{ACAD_REACTORS
330
5336
102
}
330
5336
100
AcDbXrecord
280
     1
102
SHADEPLOT
 70
     0
102
SHADEPLOTRESLEVEL
 70
     2
102
SHADEPLOTCUSTOMDPI
 70
   300
  0
XRECORD
  5
5335
102
{ACAD_REACTORS
330
5334
102
}
330
5334
100
AcDbXrecord
280
     1
102
SHADEPLOT
 70
     0
102
SHADEPLOTRESLEVEL
 70
     2
102
SHADEPLOTCUSTOMDPI
 70
   300
  0
ENDSEC
  0
EOF
