  0
SECTION
  2
HEADER
  9
$ACADVER
  1
AC1015
  9
$ACADMAINTVER
 70
    20
  9
$DWGCODEPAGE
  3
ANSI_950
  9
$INSBASE
 10
0.0
 20
0.0
 30
0.0
  9
$EXTMIN
 10
-42.69330233022185
 20
-2.394350073483792
 30
-0.0127212483778294
  9
$EXTMAX
 10
335.614345289319
 20
520.0514843040398
 30
277.9861627633788
  9
$LIMMIN
 10
0.0
 20
0.0
  9
$LIMMAX
 10
12.0
 20
9.0
  9
$ORTHOMODE
 70
     1
  9
$REGENMODE
 70
     1
  9
$FILLMODE
 70
     1
  9
$QTEXTMODE
 70
     0
  9
$MIRRTEXT
 70
     1
  9
$LTSCALE
 40
5.0
  9
$ATTMODE
 70
     1
  9
$TEXTSIZE
 40
4.5
  9
$TRACEWID
 40
0.05
  9
$TEXTSTYLE
  7
CHINESET
  9
$CLAYER
  8
0
  9
$CELTYPE
  6
ByLayer
  9
$CECOLOR
 62
   256
  9
$CELTSCALE
 40
1.0
  9
$DISPSILH
 70
     0
  9
$DIMSCALE
 40
1.0
  9
$DIMASZ
 40
3.0
  9
$DIMEXO
 40
3.0
  9
$DIMDLI
 40
2.0
  9
$DIMRND
 40
0.0
  9
$DIMDLE
 40
0.0
  9
$DIMEXE
 40
2.0
  9
$DIMTP
 40
0.0
  9
$DIMTM
 40
0.0
  9
$DIMTXT
 40
3.0
  9
$DIMCEN
 40
-3.0
  9
$DIMTSZ
 40
0.0
  9
$DIMTOL
 70
     0
  9
$DIMLIM
 70
     0
  9
$DIMTIH
 70
     0
  9
$DIMTOH
 70
     0
  9
$DIMSE1
 70
     0
  9
$DIMSE2
 70
     0
  9
$DIMTAD
 70
     1
  9
$DIMZIN
 70
     8
  9
$DIMBLK
  1

  9
$DIMASO
 70
     1
  9
$DIMSHO
 70
     1
  9
$DIMPOST
  1

  9
$DIMAPOST
  1

  9
$DIMALT
 70
     0
  9
$DIMALTD
 70
     2
  9
$DIMALTF
 40
25.4
  9
$DIMLFAC
 40
1.0
  9
$DIMTOFL
 70
     1
  9
$DIMTVP
 40
0.0
  9
$DIMTIX
 70
     0
  9
$DIMSOXD
 70
     0
  9
$DIMSAH
 70
     0
  9
$DIMBLK1
  1

  9
$DIMBLK2
  1

  9
$DIMSTYLE
  2
ISO-25-1
  9
$DIMCLRD
 70
   256
  9
$DIMCLRE
 70
   256
  9
$DIMCLRT
 70
   256
  9
$DIMTFAC
 40
0.7
  9
$DIMGAP
 40
1.0
  9
$DIMJUST
 70
     0
  9
$DIMSD1
 70
     0
  9
$DIMSD2
 70
     0
  9
$DIMTOLJ
 70
     1
  9
$DIMTZIN
 70
     8
  9
$DIMALTZ
 70
     0
  9
$DIMALTTZ
 70
     0
  9
$DIMUPT
 70
     0
  9
$DIMDEC
 70
     2
  9
$DIMTDEC
 70
     8
  9
$DIMALTU
 70
     2
  9
$DIMALTTD
 70
     2
  9
$DIMTXSTY
  7
CHINESET
  9
$DIMAUNIT
 70
     0
  9
$DIMADEC
 70
     0
  9
$DIMALTRND
 40
0.0
  9
$DIMAZIN
 70
     2
  9
$DIMDSEP
 70
    46
  9
$DIMATFIT
 70
     0
  9
$DIMFRAC
 70
     0
  9
$DIMLDRBLK
  1

  9
$DIMLUNIT
 70
     2
  9
$DIMLWD
 70
    -1
  9
$DIMLWE
 70
    -1
  9
$DIMTMOVE
 70
     0
  9
$LUNITS
 70
     2
  9
$LUPREC
 70
     2
  9
$SKETCHINC
 40
0.1
  9
$FILLETRAD
 40
0.5
  9
$AUNITS
 70
     0
  9
$AUPREC
 70
     0
  9
$MENU
  1
.
  9
$ELEVATION
 40
0.0
  9
$PELEVATION
 40
0.0
  9
$THICKNESS
 40
0.0
  9
$LIMCHECK
 70
     0
  9
$CHAMFERA
 40
1.5
  9
$CHAMFERB
 40
1.5
  9
$CHAMFERC
 40
1.0
  9
$CHAMFERD
 40
0.0
  9
$SKPOLY
 70
     0
  9
$TDCREATE
 40
2452019.631085301
  9
$TDUCREATE
 40
2452019.297751968
  9
$TDUPDATE
 40
2454329.446498472
  9
$TDUUPDATE
 40
2454329.113165139
  9
$TDINDWG
 40
0.4281977778
  9
$TDUSRTIMER
 40
0.4281977778
  9
$USRTIMER
 70
     1
  9
$ANGBASE
 50
0.0
  9
$ANGDIR
 70
     0
  9
$PDMODE
 70
     0
  9
$PDSIZE
 40
0.0
  9
$PLINEWID
 40
0.0
  9
$SPLFRAME
 70
     0
  9
$SPLINETYPE
 70
     6
  9
$SPLINESEGS
 70
     8
  9
$HANDSEED
  5
72FD
  9
$SURFTAB1
 70
     6
  9
$SURFTAB2
 70
     6
  9
$SURFTYPE
 70
     6
  9
$SURFU
 70
     6
  9
$SURFV
 70
     6
  9
$UCSBASE
  2

  9
$UCSNAME
  2

  9
$UCSORG
 10
0.0
 20
0.0
 30
0.0
  9
$UCSXDIR
 10
1.0
 20
0.0
 30
0.0
  9
$UCSYDIR
 10
0.0
 20
1.0
 30
0.0
  9
$UCSORTHOREF
  2

  9
$UCSORTHOVIEW
 70
     0
  9
$UCSORGTOP
 10
0.0
 20
0.0
 30
0.0
  9
$UCSORGBOTTOM
 10
0.0
 20
0.0
 30
0.0
  9
$UCSORGLEFT
 10
0.0
 20
0.0
 30
0.0
  9
$UCSORGRIGHT
 10
0.0
 20
0.0
 30
0.0
  9
$UCSORGFRONT
 10
0.0
 20
0.0
 30
0.0
  9
$UCSORGBACK
 10
0.0
 20
0.0
 30
0.0
  9
$PUCSBASE
  2

  9
$PUCSNAME
  2

  9
$PUCSORG
 10
0.0
 20
0.0
 30
0.0
  9
$PUCSXDIR
 10
1.0
 20
0.0
 30
0.0
  9
$PUCSYDIR
 10
0.0
 20
1.0
 30
0.0
  9
$PUCSORTHOREF
  2

  9
$PUCSORTHOVIEW
 70
     0
  9
$PUCSORGTOP
 10
0.0
 20
0.0
 30
0.0
  9
$PUCSORGBOTTOM
 10
0.0
 20
0.0
 30
0.0
  9
$PUCSORGLEFT
 10
0.0
 20
0.0
 30
0.0
  9
$PUCSORGRIGHT
 10
0.0
 20
0.0
 30
0.0
  9
$PUCSORGFRONT
 10
0.0
 20
0.0
 30
0.0
  9
$PUCSORGBACK
 10
0.0
 20
0.0
 30
0.0
  9
$USERI1
 70
     0
  9
$USERI2
 70
     0
  9
$USERI3
 70
     0
  9
$USERI4
 70
     0
  9
$USERI5
 70
     0
  9
$USERR1
 40
0.0
  9
$USERR2
 40
0.0
  9
$USERR3
 40
0.0
  9
$USERR4
 40
0.0
  9
$USERR5
 40
0.0
  9
$WORLDVIEW
 70
     1
  9
$SHADEDGE
 70
     3
  9
$SHADEDIF
 70
    70
  9
$TILEMODE
 70
     1
  9
$MAXACTVP
 70
    48
  9
$PINSBASE
 10
0.0
 20
0.0
 30
0.0
  9
$PLIMCHECK
 70
     0
  9
$PEXTMIN
 10
1.000000000000000E+20
 20
1.000000000000000E+20
 30
1.000000000000000E+20
  9
$PEXTMAX
 10
-1.000000000000000E+20
 20
-1.000000000000000E+20
 30
-1.000000000000000E+20
  9
$PLIMMIN
 10
0.0
 20
0.0
  9
$PLIMMAX
 10
12.0
 20
9.0
  9
$UNITMODE
 70
     0
  9
$VISRETAIN
 70
     1
  9
$PLINEGEN
 70
     0
  9
$PSLTSCALE
 70
     1
  9
$TREEDEPTH
 70
  3020
  9
$CMLSTYLE
  2
Standard
  9
$CMLJUST
 70
     0
  9
$CMLSCALE
 40
1.0
  9
$PROXYGRAPHICS
 70
     1
  9
$MEASUREMENT
 70
     1
  9
$CELWEIGHT
370
    -1
  9
$ENDCAPS
280
     0
  9
$JOINSTYLE
280
     0
  9
$LWDISPLAY
290
     0
  9
$INSUNITS
 70
     1
  9
$HYPERLINKBASE
  1

  9
$STYLESHEET
  1
彩色出圖.ctb
  9
$XEDIT
290
     1
  9
$CEPSNTYPE
380
     0
  9
$PSTYLEMODE
290
     1
  9
$FINGERPRINTGUID
  2
{FDEAD576-A652-11D2-9A35-0060089B3A3F}
  9
$VERSIONGUID
  2
{8BD401B9-BE55-4D88-AC4D-F7EFBFA62268}
  9
$EXTNAMES
290
     1
  9
$PSVPSCALE
 40
0.0
  9
$OLESTARTUP
290
     0
  0
ENDSEC
  0
SECTION
  2
CLASSES
  0
CLASS
  1
ACDBDICTIONARYWDFLT
  2
AcDbDictionaryWithDefault
  3
ObjectDBX Classes
 90
        0
280
     0
281
     0
  0
CLASS
  1
ACDBPLACEHOLDER
  2
AcDbPlaceHolder
  3
ObjectDBX Classes
 90
        0
280
     0
281
     0
  0
CLASS
  1
LAYOUT
  2
AcDbLayout
  3
ObjectDBX Classes
 90
        0
280
     0
281
     0
  0
CLASS
  1
DICTIONARYVAR
  2
AcDbDictionaryVar
  3
ObjectDBX Classes
 90
        0
280
     0
281
     0
  0
CLASS
  1
LONG_TRANSACTION
  2
AcDbLongTransaction
  3
ObjectDBX Classes
 90
    32768
280
     0
281
     0
  0
CLASS
  1
LWPOLYLINE
  2
AcDbPolyline
  3
ObjectDBX Classes
 90
        0
280
     0
281
     1
  0
CLASS
  1
HATCH
  2
AcDbHatch
  3
ObjectDBX Classes
 90
    32768
280
     0
281
     1
  0
CLASS
  1
XRECORD
  2
AcDbXrecord
  3
ObjectDBX Classes
 90
        0
280
     0
281
     0
  0
CLASS
  1
TABLESTYLE
  2
AcDbTableStyle
  3
ObjectDBX Classes
 90
     2047
280
     0
281
     0
  0
CLASS
  1
DIMASSOC
  2
AcDbDimAssoc
  3
"AcDbDimAssoc|Product Desc:     AcDim ARX App For Dimension|Company:          Autodesk, Inc.|WEB Address:      www.autodesk.com"
 90
        0
280
     0
281
     0
  0
CLASS
  1
SORTENTSTABLE
  2
AcDbSortentsTable
  3
ObjectDBX Classes
 90
        0
280
     0
281
     0
  0
CLASS
  1
ACME_DOCUMENT
  2
AcMeDbDoc
  3
AcMeServices
 90
        0
280
     0
281
     0
  0
CLASS
  1
AMGSETTINGSOBJ
  2
AmgSettingsObj
  3
"AcadM|Product Description: AutoCAD Mechanical 2000|Company: Autodesk"
 90
        0
280
     0
281
     0
  0
CLASS
  1
ACMESCOPE
  2
AcMeScope
  3
AcMeServices
 90
        0
280
     0
281
     0
  0
CLASS
  1
ACMECOMMANDHISTORY
  2
AcMeCommandHistory
  3
AcMeServices
 90
        0
280
     0
281
     0
  0
CLASS
  1
ACIMSYSVARMAN
  2
AcImSysVarManager
  3
AcMeServices
 90
        0
280
     0
281
     0
  0
CLASS
  1
ACIMINTSYSVAR
  2
AcImIntSysVar
  3
AcMeServices
 90
        0
280
     0
281
     0
  0
CLASS
  1
ACMEDRAWINGMAN
  2
AcMeDrawingMan
  3
AcMeServices
 90
        0
280
     0
281
     0
  0
CLASS
  1
ACMEVIEW
  2
AcMeView
  3
AcMeServices
 90
        0
280
     0
281
     0
  0
CLASS
  1
ACDBENTITYCACHE
  2
AcMeEntityCache
  3
AcMeServices
 90
        0
280
     0
281
     0
  0
CLASS
  1
GSMANAGER
  2
AcMeGSManager
  3
AcMeServices
 90
        0
280
     0
281
     0
  0
CLASS
  1
AMDTINTERNALREACTOR
  2
AmdtInternalReactor
  3
AcMeServices
 90
        0
280
     0
281
     0
  0
CLASS
  1
ACMESTATEMGR
  2
AcMeStateMgr
  3
AcMeServices
 90
        0
280
     0
281
     0
  0
CLASS
  1
ACGREFMASTER
  2
AcGrefMaster
  3
AcAttribServices
 90
        0
280
     0
281
     0
  0
CLASS
  1
AM_DRAWING_MGR
  2
AcDmDwgMgr
  3
AcMechDwgViewMgmt
 90
        0
280
     0
281
     0
  0
CLASS
  1
AM_DWG_DOCUMENT
  2
AcDmDwgDocument
  3
AcMechDwgViewMgmt
 90
        0
280
     0
281
     0
  0
CLASS
  1
AM_DWG_SHEET
  2
AcDmSheet
  3
AcMechDwgViewMgmt
 90
        0
280
     0
281
     0
  0
CLASS
  1
AM_VIEWDIMPARMAP
  2
AcDmViewDimParMap
  3
AcMechDwgViewMgmt
 90
        0
280
     0
281
     0
  0
CLASS
  1
ACIMREALSYSVAR
  2
AcImRealSysVar
  3
AcMeServices
 90
        0
280
     0
281
     0
  0
CLASS
  1
AM_DWGMGR_NAME
  2
AcDmDwgMgrName
  3
AcMechDwgViewMgmt
 90
        0
280
     0
281
     0
  0
CLASS
  1
ACME_DATABASE
  2
AcMeDbDatabase
  3
AcMeServices
 90
        0
280
     0
281
     0
  0
CLASS
  1
ACRFINSADJUSTERMGR
  2
AcRfInsAdjusterMgr
  3
AcMeServices
 90
        0
280
     0
281
     0
  0
CLASS
  1
ACGREFACADMASTER
  2
AcGrefacadMaster
  3
AcGrefServices
 90
        0
280
     0
281
     0
  0
CLASS
  1
AMDTMENUSTATEMGR
  2
AmdtMenuStateMgr
  3
McadcomServices
 90
        0
280
     0
281
     0
  0
CLASS
  1
AMDTMCOMMENUSTATE
  2
AmdtMcomMenuState
  3
McadcomServices
 90
        0
280
     0
281
     0
  0
CLASS
  1
AMIMASTER
  2
AmiMaster
  3
AmiServices
 90
        0
280
     0
281
     0
  0
CLASS
  1
MAPIAMMOUDLE
  2
MApiAmModule
  3
MApiAmServices
 90
        0
280
     0
281
     0
  0
CLASS
  1
AMDTADMENUSTATE
  2
AmdtAdMenuState
  3
DesignerServices
 90
        0
280
     0
281
     0
  0
CLASS
  1
ADAPPL
  2
AcAdAppl
  3
DesignerServices
 90
        0
280
     0
281
     0
  0
CLASS
  1
DEPMGR
  2
AcAdDepMgr
  3
DesignerServices
 90
        0
280
     0
281
     0
  0
CLASS
  1
PARAMMGR
  2
AcAdParamMgr
  3
DesignerServices
 90
        0
280
     0
281
     0
  0
CLASS
  1
PARAMSCOPE
  2
AcAdParamScope
  3
DesignerServices
 90
        0
280
     0
281
     0
  0
CLASS
  1
NAMEDAPPL
  2
AcAdNamedAppl
  3
DesignerServices
 90
        0
280
     0
281
     0
  0
CLASS
  1
AMDTDMMENUSTATE
  2
AmdtDmMenuState
  3
AcMechDwgViewMgmt
 90
        0
280
     0
281
     0
  0
CLASS
  1
AMDTAMMENUSTATE
  2
AmdtAmMenuState
  3
DesignerAssemblies
 90
        0
280
     0
281
     0
  0
CLASS
  1
ACIMSTRSYSVAR
  2
AcImStrSysVar
  3
AcMeServices
 90
        0
280
     0
281
     0
  0
CLASS
  1
ACAMPROJECT
  2
AcAmProject
  3
DesignerAssemblies
 90
        0
280
     0
281
     0
  0
CLASS
  1
ACAMGRCOMPDEF
  2
AcAmGrCompDef
  3
DesignerAssemblies
 90
        0
280
     0
281
     0
  0
CLASS
  1
ACCMCONTEXT
  2
AcCmContext
  3
DesignerAssemblies
 90
        0
280
     0
281
     0
  0
CLASS
  1
ACAMCOMPDEF
  2
AcAmCompDef
  3
DesignerAssemblies
 90
        0
280
     0
281
     0
  0
CLASS
  1
ACAMCOMPDEFMGR
  2
AcAmCompDefMgr
  3
DesignerAssemblies
 90
        0
280
     0
281
     0
  0
CLASS
  1
AMCONTEXTMGR
  2
AcAmContextMgr
  3
DesignerAssemblies
 90
        0
280
     0
281
     0
  0
CLASS
  1
ACAMCONTEXTMODELER
  2
AcAmContextModeler
  3
DesignerAssemblies
 90
        0
280
     0
281
     0
  0
CLASS
  1
ACMDATADICTIONARY
  2
AcmDataDictionary
  3
"AcmSymBB|Product Description: AutoCAD Mechanical 2004 DX|Company: Autodesk"
 90
        0
280
     0
281
     0
  0
CLASS
  1
CATALOGSTATE
  2
AcAmCatalogState
  3
DesignerAssemblies
 90
        0
280
     0
281
     0
  0
CLASS
  1
ACAMGRCOMPDEFSET
  2
AcAmGrCompDefSet
  3
DesignerAssemblies
 90
        0
280
     0
281
     0
  0
CLASS
  1
AMDTBROWSERDBTAB
  2
AmdtBrowserDbTab
  3
McadcomServices
 90
        0
280
     0
281
     0
  0
CLASS
  1
CBROWSERAPPOBJECT
  2
CBrowserAppObject
  3
McadcomServices
 90
        0
280
     0
281
     0
  0
CLASS
  1
DM_PLACEHOLDER
  2
AcDmSelsetPlaceholder
  3
AcMechDwgViewMgmt
 90
        0
280
     0
281
     0
  0
CLASS
  1
ACMSTANDARDISO
  2
AcmStandardISO
  3
"Amdt_StdImp|Product Description: AutoCAD Mechanical 2004 DX|Company: Autodesk"
 90
        0
280
     0
281
     0
  0
CLASS
  1
AMGOBJPROPCFG
  2
AmgObjPropCfg
  3
"AmgLay|Product Description: AutoCAD Mechanical 2000|Company: Autodesk"
 90
        1
280
     0
281
     0
  0
CLASS
  1
AMDTEDGESTANDARDISO13715
  2
AmdtEdgeStdISO13715
  3
"Amdt_StdImp|Product Description: AutoCAD Mechanical 2004 DX|Company: Autodesk"
 90
        0
280
     0
281
     0
  0
CLASS
  1
ACMSURFSTANDARDISO
  2
AcmSurfTextStdISO
  3
"Amdt_StdImp|Product Description: AutoCAD Mechanical 2004 DX|Company: Autodesk"
 90
        0
280
     0
281
     0
  0
CLASS
  1
ACMFCFSTANDARDISO
  2
AcmFCFStdISO
  3
"Amdt_StdImp|Product Description: AutoCAD Mechanical 2004 DX|Company: Autodesk"
 90
        0
280
     0
281
     0
  0
CLASS
  1
ACMWELDSTANDARDISO
  2
AcmWeldingStdISO
  3
"Amdt_StdImp|Product Description: AutoCAD Mechanical 2004 DX|Company: Autodesk"
 90
        0
280
     0
281
     0
  0
CLASS
  1
ACMIDSTANDARDISO
  2
AcmIdStdISO
  3
"Amdt_StdImp|Product Description: AutoCAD Mechanical 2004 DX|Company: Autodesk"
 90
        0
280
     0
281
     0
  0
CLASS
  1
ACMDATUMSTANDARDISO
  2
AcmDatumStdISO
  3
"Amdt_StdImp|Product Description: AutoCAD Mechanical 2004 DX|Company: Autodesk"
 90
        0
280
     0
281
     0
  0
CLASS
  1
ACMBOMSTANDARDISO
  2
AcmBOMStdISO
  3
"Amdt_StdImp|Product Description: AutoCAD Mechanical 2004 DX|Company: Autodesk"
 90
        0
280
     0
281
     0
  0
CLASS
  1
ACMDETAILSTANDARDISO
  2
AmdtDetailSymStdISO
  3
"Amdt_StdImp|Product Description: AutoCAD Mechanical 2004 DX|Company: Autodesk"
 90
        0
280
     0
281
     0
  0
CLASS
  1
ACMSECTIONSTANDARDISO
  2
AmdtSectionSymStdISO
  3
"Amdt_StdImp|Product Description: AutoCAD Mechanical 2004 DX|Company: Autodesk"
 90
        0
280
     0
281
     0
  0
CLASS
  1
ACMCENTERLINESTANDARDISO
  2
AmdtCenterLineStdISO
  3
"Amdt_StdImp|Product Description: AutoCAD Mechanical 2004 DX|Company: Autodesk"
 90
        0
280
     0
281
     0
  0
CLASS
  1
ACMTHREADLINESTANDARDISO
  2
AmdtThreadLineStdISO
  3
"Amdt_StdImp|Product Description: AutoCAD Mechanical 2004 DX|Company: Autodesk"
 90
        0
280
     0
281
     0
  0
CLASS
  1
ACMNOTESTANDARDISO
  2
AmdtNoteStdISO
  3
"Amdt_StdImp|Product Description: AutoCAD Mechanical 2004 DX|Company: Autodesk"
 90
        0
280
     0
281
     0
  0
CLASS
  1
AMDTNOTETEMPLATEDB
  2
AmdtNoteTemplateDB
  3
AMDT_STDIMP_MODULE_NAME
 90
        0
280
     0
281
     0
  0
CLASS
  1
ACAMGLAYSTD
  2
AcAmgLayStd
  3
"AcAmgLayStd|Product Description: AutoCAD Mechanical 2000|Company: Autodesk"
 90
        0
280
     0
281
     0
  0
CLASS
  1
ACAMGDIMSTD
  2
AcAmgDimStd
  3
"AcAmgDimStd|Product Description: AutoCAD Mechanical 2000|Company: Autodesk"
 90
        0
280
     0
281
     0
  0
CLASS
  1
ACAMGHOLECHARTSTDISO
  2
AcAmgHoleChartStdISO
  3
ACMSYMBB_MODULE_NAME
 90
        0
280
     0
281
     0
  0
CLASS
  1
ACAMGTITLESTD
  2
AcAmgTitleStd
  3
"TITLEAPP"
 90
        0
280
     0
281
     0
  0
CLASS
  1
ACAMGFILTERDAT
  2
AcAmgFilterDat
  3
"AcadM|Product Description: AutoCAD Mechanical 2000|Company: Autodesk"
 90
    32768
280
     0
281
     0
  0
CLASS
  1
ASAPP
  2
AcAsAppObject
  3
AutoSurfServices
 90
        0
280
     0
281
     0
  0
CLASS
  1
IM_STATIC_MAN
  2
AcImStaticVarManager
  3
AcMeServices
 90
        0
280
     0
281
     0
  0
CLASS
  1
ACIMDBLSTATICVAR
  2
AcImDblStaticVar
  3
AcMeServices
 90
        0
280
     0
281
     0
  0
CLASS
  1
ACIMSTRSTATICVAR
  2
AcImStrStaticVar
  3
AcMeServices
 90
        0
280
     0
281
     0
  0
CLASS
  1
ACIMINTSTATICVAR
  2
AcImIntStaticVar
  3
AcMeServices
 90
        0
280
     0
281
     0
  0
CLASS
  1
ACASGREFMASTER
  2
AcAsGrefMaster
  3
AutoSurfResolverServices
 90
        0
280
     0
281
     0
  0
CLASS
  1
ACADGREFMODULE
  2
AcAdGrefModule
  3
AdGrefServices
 90
        0
280
     0
281
     0
  0
CLASS
  1
AMDTMAPISURFMOUDULE
  2
AmdtMApiSurfModule
  3
MApiSurfServices
 90
        0
280
     0
281
     0
  0
CLASS
  1
MAPIADMODULE
  2
MApiAdModule
  3
MApiAdServices
 90
        0
280
     0
281
     0
  0
CLASS
  1
ACMDATAENTRYBLOCK
  2
AcmDataEntryBlock
  3
"AcmSymBB|Product Description: AutoCAD Mechanical 2004 DX|Company: Autodesk"
 90
        0
280
     0
281
     0
  0
CLASS
  1
LAYER_INDEX
  2
AcDbLayerIndex
  3
ObjectDBX Classes
 90
        0
280
     0
281
     0
  0
CLASS
  1
IDBUFFER
  2
AcDbIdBuffer
  3
ObjectDBX Classes
 90
        0
280
     0
281
     0
  0
CLASS
  1
ACRFATTGENMGR
  2
AcRfAttGeneralMgr
  3
AcAttribServices
 90
        0
280
     0
281
     0
  0
ENDSEC
  0
SECTION
  2
TABLES
  0
TABLE
  2
VPORT
  5
8
330
0
100
AcDbSymbolTable
 70
    11
  0
VPORT
  5
72F4
330
8
100
AcDbSymbolTableRecord
100
AcDbViewportTableRecord
  2
*Active
 70
     0
 10
0.0
 20
0.0
 11
1.0
 21
1.0
 12
146.4605214795486
 22
258.8285671152779
 13
0.0
 23
0.0
 14
0.5
 24
0.5
 15
0.5
 25
0.5
 16
0.0
 26
0.0
 36
1.0
 17
0.0
 27
0.0
 37
0.0
 40
526.6991247523744
 41
1.661684782608695
 42
50.0
 43
0.0
 44
0.0
 50
0.0
 51
0.0
 71
     0
 72
   100
 73
     1
 74
     3
 75
     0
 76
     0
 77
     0
 78
     0
281
     0
 65
     1
110
0.0
120
0.0
130
0.0
111
1.0
121
0.0
131
0.0
112
0.0
122
1.0
132
0.0
 79
     0
146
0.0
  0
ENDTAB
  0
TABLE
  2
LTYPE
  5
5
330
0
100
AcDbSymbolTable
 70
    14
  0
LTYPE
  5
14
330
5
100
AcDbSymbolTableRecord
100
AcDbLinetypeTableRecord
  2
ByBlock
 70
     0
  3

 72
    65
 73
     0
 40
0.0
  0
LTYPE
  5
15
330
5
100
AcDbSymbolTableRecord
100
AcDbLinetypeTableRecord
  2
ByLayer
 70
     0
  3

 72
    65
 73
     0
 40
0.0
  0
LTYPE
  5
16
330
5
100
AcDbSymbolTableRecord
100
AcDbLinetypeTableRecord
  2
Continuous
 70
     0
  3
Solid line
 72
    65
 73
     0
 40
0.0
  0
LTYPE
  5
4F
330
5
100
AcDbSymbolTableRecord
100
AcDbLinetypeTableRecord
  2
CENTER
 70
     0
  3
Center ____ _ ____ _ ____ _ ____ _ ____ _ ____
 72
    65
 73
     4
 40
2.0
 49
1.25
 74
     0
 49
-0.25
 74
     0
 49
0.25
 74
     0
 49
-0.25
 74
     0
  0
LTYPE
  5
59AC
330
5
100
AcDbSymbolTableRecord
100
AcDbLinetypeTableRecord
  2
HIDDEN
 70
     0
  3
__ __ __ __ __ __ __ __ __ __ __ __ __ __ __ __
 72
    65
 73
     2
 40
0.375
 49
0.25
 74
     0
 49
-0.125
 74
     0
  0
LTYPE
  5
59AD
330
5
100
AcDbSymbolTableRecord
100
AcDbLinetypeTableRecord
  2
PHANTOM2
 70
     0
  3
___ _ _ ___ _ _ ___ _ _ ___ _ _ ___ _ _ ___ _ _
 72
    65
 73
     6
 40
1.25
 49
0.625
 74
     0
 49
-0.125
 74
     0
 49
0.125
 74
     0
 49
-0.125
 74
     0
 49
0.125
 74
     0
 49
-0.125
 74
     0
  0
LTYPE
  5
59B2
330
5
100
AcDbSymbolTableRecord
100
AcDbLinetypeTableRecord
  2
Amconstr
 70
     0
  3
_______________________
 72
    65
 73
     2
 40
9999.0
 49
9999.0
 74
     0
 49
0.0
 74
     0
  0
LTYPE
  5
6690
330
5
100
AcDbSymbolTableRecord
100
AcDbLinetypeTableRecord
  2
AM_ISO02W050
 70
     0
  3
__ __ __ __ __ __ __ __ __ __ __ __ __ __ __
 72
    65
 73
     2
 40
7.5
 49
6.0
 74
     0
 49
-1.5
 74
     0
  0
LTYPE
  5
6691
330
5
100
AcDbSymbolTableRecord
100
AcDbLinetypeTableRecord
  2
AM_ISO08W050
 70
     0
  3
____ . ____ . ____ . ____ . ____ . ____ . ____
 72
    65
 73
     4
 40
18.0
 49
12.0
 74
     0
 49
-1.5
 74
     0
 49
3.0
 74
     0
 49
-1.5
 74
     0
  0
LTYPE
  5
6692
330
5
100
AcDbSymbolTableRecord
100
AcDbLinetypeTableRecord
  2
AM_ISO09W050
 70
     0
  3
_____ . . _____ . . _____ . . ____ .. ____
 72
    65
 73
     6
 40
22.5
 49
12.0
 74
     0
 49
-1.5
 74
     0
 49
3.0
 74
     0
 49
-1.5
 74
     0
 49
3.0
 74
     0
 49
-1.5
 74
     0
  0
LTYPE
  5
6693
330
5
100
AcDbSymbolTableRecord
100
AcDbLinetypeTableRecord
  2
AM_ISO08W050x2
 70
     0
  3
__ . __ . __ . __ . __ . __
 72
    65
 73
     4
 40
9.0
 49
6.0
 74
     0
 49
-0.75
 74
     0
 49
1.5
 74
     0
 49
-0.75
 74
     0
  0
LTYPE
  5
6694
330
5
100
AcDbSymbolTableRecord
100
AcDbLinetypeTableRecord
  2
AM_ISO02W050x2
 70
     0
  3
 _ _ _ _ _ _ _ _ _ _ _ _
 72
    65
 73
     2
 40
3.75
 49
3.0
 74
     0
 49
-0.75
 74
     0
  0
LTYPE
  5
6695
330
5
100
AcDbSymbolTableRecord
100
AcDbLinetypeTableRecord
  2
Amzigzag
 70
     0
  3
/\/-/\/-/\/-/\/-/\/-/\/
 72
    65
 73
     2
 40
11.0001
 49
0.0001
 74
     4
 75
   135
340
59B4
 46
0.04
 50
0.0
 44
0.0
 45
0.0
 49
-11.0
 74
     0
  0
LTYPE
  5
66A4
330
5
100
AcDbSymbolTableRecord
100
AcDbLinetypeTableRecord
  2
ACISOWELD
 70
     0
  3
_ _ _ _ _
 72
    65
 73
     2
 40
2.0
 49
2.0
 74
     0
 49
-1.0
 74
     0
  0
LTYPE
  5
66A5
330
5
100
AcDbSymbolTableRecord
100
AcDbLinetypeTableRecord
  2
ACISOTGB
 70
     0
  3
__ . . __ . .
 72
    65
 73
     6
 40
9.0
 49
4.0
 74
     0
 49
-1.0
 74
     0
 49
1.0
 74
     0
 49
-1.0
 74
     0
 49
1.0
 74
     0
 49
-1.0
 74
     0
  0
LTYPE
  5
66A6
330
5
100
AcDbSymbolTableRecord
100
AcDbLinetypeTableRecord
  2
ACISOTGL
 70
     0
  3
_ _ _ _ _
 72
    65
 73
     2
 40
3.0
 49
2.0
 74
     0
 49
-1.0
 74
     0
  0
ENDTAB
  0
TABLE
  2
LAYER
  5
2
102
{ACAD_XDICTIONARY
360
59BF
102
}
330
0
100
AcDbSymbolTable
 70
     7
  0
LAYER
  5
10
330
2
100
AcDbSymbolTableRecord
100
AcDbLayerTableRecord
  2
0
 70
     0
 62
     7
  6
Continuous
370
    -3
390
F
  0
LAYER
  5
48
330
2
100
AcDbSymbolTableRecord
100
AcDbLayerTableRecord
  2
DIM
 70
     0
 62
     5
  6
Continuous
370
    -3
390
F
  0
LAYER
  5
4A
330
2
100
AcDbSymbolTableRecord
100
AcDbLayerTableRecord
  2
CENTER
 70
     0
 62
     1
  6
CENTER
370
    -3
390
F
  0
LAYER
  5
1545
330
2
100
AcDbSymbolTableRecord
100
AcDbLayerTableRecord
  2
LOGO
 70
     0
 62
     7
  6
Continuous
370
    -3
390
F
  0
LAYER
  5
1A52
330
2
100
AcDbSymbolTableRecord
100
AcDbLayerTableRecord
  2
Defpoints
 70
     0
 62
     7
  6
Continuous
290
     0
370
    -3
390
F
  0
LAYER
  5
70C2
330
2
100
AcDbSymbolTableRecord
100
AcDbLayerTableRecord
  2
AM_7
 70
     0
 62
     4
  6
AM_ISO08W050
370
    25
390
F
  0
LAYER
  5
70C3
330
2
100
AcDbSymbolTableRecord
100
AcDbLayerTableRecord
  2
AM_5
 70
     0
 62
     3
  6
Continuous
370
    25
390
F
  0
ENDTAB
  0
TABLE
  2
STYLE
  5
3
330
0
100
AcDbSymbolTable
 70
     8
  0
STYLE
  5
11
330
3
100
AcDbSymbolTableRecord
100
AcDbTextStyleTableRecord
  2
Standard
 70
     0
 40
3.0
 41
1.0
 50
0.0
 71
     0
 42
3.0
  3
KAIU.TTF
  4

1001
ACAD
1000
DFKai-SB
1071
    34865
  0
STYLE
  5
5C
330
3
100
AcDbSymbolTableRecord
100
AcDbTextStyleTableRecord
  2
CHINESET
 70
     0
 40
3.0
 41
1.0
 50
0.0
 71
     0
 42
4.5
  3
simplex.shx
  4
CHINESET.shx
  0
STYLE
  5
59B4
330
3
100
AcDbSymbolTableRecord
100
AcDbTextStyleTableRecord
  2

 70
     1
 40
0.0
 41
1.0
 50
0.0
 71
     0
 42
0.12
  3
ltypeshp.shx
  4

  0
STYLE
  5
59B5
330
3
100
AcDbSymbolTableRecord
100
AcDbTextStyleTableRecord
  2
dayus
 70
     0
 40
3.5
 41
1.0
 50
0.0
 71
     0
 42
6.0
  3
simplex.shx
  4
dayus.shx
  0
STYLE
  5
6696
330
3
100
AcDbSymbolTableRecord
100
AcDbTextStyleTableRecord
  2
ACISOTS
 70
     0
 40
1.0
 41
1.0
 50
0.0
 71
     0
 42
4.5
  3
isocp.shx
  4
chineset.shx
  0
STYLE
  5
66A3
330
3
100
AcDbSymbolTableRecord
100
AcDbTextStyleTableRecord
  2
ACISOGDT
 70
     0
 40
0.0
 41
1.0
 50
0.0
 71
     0
 42
4.5
  3
amgdt.shx
  4

  0
ENDTAB
  0
TABLE
  2
VIEW
  5
6
330
0
100
AcDbSymbolTable
 70
     0
  0
ENDTAB
  0
TABLE
  2
UCS
  5
7
330
0
100
AcDbSymbolTable
 70
     0
  0
ENDTAB
  0
TABLE
  2
APPID
  5
9
330
0
100
AcDbSymbolTable
 70
    27
  0
APPID
  5
12
330
9
100
AcDbSymbolTableRecord
100
AcDbRegAppTableRecord
  2
ACAD
 70
     0
  0
APPID
  5
5F
330
9
100
AcDbSymbolTableRecord
100
AcDbRegAppTableRecord
  2
AD_DRAW
 70
     0
  0
APPID
  5
60
330
9
100
AcDbSymbolTableRecord
100
AcDbRegAppTableRecord
  2
DESIGNERASSEMBLIES
 70
     0
  0
APPID
  5
61
330
9
100
AcDbSymbolTableRecord
100
AcDbRegAppTableRecord
  2
MCAD_NO_VIS
 70
     0
  0
APPID
  5
62
330
9
100
AcDbSymbolTableRecord
100
AcDbRegAppTableRecord
  2
ASURF_PCURVE_APPNAME
 70
     0
  0
APPID
  5
11A1
330
9
100
AcDbSymbolTableRecord
100
AcDbRegAppTableRecord
  2
CONTENTBLOCKICON
 70
     0
  0
APPID
  5
31CE
330
9
100
AcDbSymbolTableRecord
100
AcDbRegAppTableRecord
  2
GENIUS_GENODEF_13
 70
     0
  0
APPID
  5
31CF
330
9
100
AcDbSymbolTableRecord
100
AcDbRegAppTableRecord
  2
GENIUS_GENOBJ-N-FIL_13
 70
     0
  0
APPID
  5
3922
330
9
100
AcDbSymbolTableRecord
100
AcDbRegAppTableRecord
  2
GENIUS_GENFIL_13
 70
     0
  0
APPID
  5
3923
330
9
100
AcDbSymbolTableRecord
100
AcDbRegAppTableRecord
  2
GENIUS_GENOBJ-N-CHA_13
 70
     0
  0
APPID
  5
59BE
330
9
100
AcDbSymbolTableRecord
100
AcDbRegAppTableRecord
  2
GENIUS_GENDTOL_13
 70
     0
  0
APPID
  5
6631
330
9
100
AcDbSymbolTableRecord
100
AcDbRegAppTableRecord
  2
ACAD_TEMP_GRAPHIC
 70
     0
  0
APPID
  5
6662
330
9
100
AcDbSymbolTableRecord
100
AcDbRegAppTableRecord
  2
ACATTRIBSERVICES
 70
     0
  0
APPID
  5
6685
330
9
100
AcDbSymbolTableRecord
100
AcDbRegAppTableRecord
  2
ACADM_DIM_EDIT
 70
     0
  0
APPID
  5
6686
330
9
100
AcDbSymbolTableRecord
100
AcDbRegAppTableRecord
  2
AMDT_DM_ADJ
 70
     0
  0
APPID
  5
66BC
330
9
100
AcDbSymbolTableRecord
100
AcDbRegAppTableRecord
  2
GENIUS_GENOENT_13
 70
     0
  0
APPID
  5
66BD
330
9
100
AcDbSymbolTableRecord
100
AcDbRegAppTableRecord
  2
GENIUS_GENOBJ-N-CRS_13
 70
     0
  0
APPID
  5
66BE
330
9
100
AcDbSymbolTableRecord
100
AcDbRegAppTableRecord
  2
GENIUS_GENOLIS_13
 70
     0
  0
APPID
  5
66BF
330
9
100
AcDbSymbolTableRecord
100
AcDbRegAppTableRecord
  2
GENIUS_GENOREF_13
 70
     0
  0
APPID
  5
66C0
330
9
100
AcDbSymbolTableRecord
100
AcDbRegAppTableRecord
  2
ACAD_PSEXT
 70
     0
  0
APPID
  5
66C1
330
9
100
AcDbSymbolTableRecord
100
AcDbRegAppTableRecord
  2
GENIUS_GENREC_14
 70
     0
  0
APPID
  5
66C2
330
9
100
AcDbSymbolTableRecord
100
AcDbRegAppTableRecord
  2
GENIUS_GENOBJ-N-REC_13
 70
     0
  0
APPID
  5
70C4
330
9
100
AcDbSymbolTableRecord
100
AcDbRegAppTableRecord
  2
GENIUS_GENOBJ-N-CEN_13
 70
     0
  0
APPID
  5
70C5
330
9
100
AcDbSymbolTableRecord
100
AcDbRegAppTableRecord
  2
GENIUS_GENCEN_19
 70
     0
  0
APPID
  5
7213
330
9
100
AcDbSymbolTableRecord
100
AcDbRegAppTableRecord
  2
GENIUS_GENDIM_13
 70
     0
  0
APPID
  5
7214
330
9
100
AcDbSymbolTableRecord
100
AcDbRegAppTableRecord
  2
GENIUS_GE3DTOL_13
 70
     0
  0
APPID
  5
7269
330
9
100
AcDbSymbolTableRecord
100
AcDbRegAppTableRecord
  2
AMG_3D2D_5.0
 70
     0
  0
ENDTAB
  0
TABLE
  2
DIMSTYLE
  5
A
330
0
100
AcDbSymbolTable
 70
    12
100
AcDbDimStyleTable
 71
     1
340
1A4
  0
DIMSTYLE
105
1A4
330
A
100
AcDbSymbolTableRecord
100
AcDbDimStyleTableRecord
  2
ISO-25-1
 70
     0
 41
3.0
 42
3.0
 43
2.0
 44
2.0
 73
     0
 74
     0
 77
     1
 78
     8
 79
     2
140
3.0
141
-3.0
146
0.7
147
1.0
172
     1
176
   256
177
   256
178
   256
271
     2
272
     2
284
     8
289
     0
340
5C
371
    -1
372
    -1
  0
DIMSTYLE
105
59B8
102
{ACAD_REACTORS
330
5E9B
330
5E9E
330
5EA1
330
5EA4
330
5EA7
330
5EAA
330
5EAD
330
5EB0
330
5EB3
330
5EB6
330
5EB9
330
5EC0
330
5EC5
330
5EC8
330
5ECB
330
5ED1
330
5ED6
330
5ED9
330
5EDC
330
5EDF
330
5EE2
330
5EE5
330
5EE8
330
5EEB
330
5EEE
330
5EF3
330
5EF6
330
5EF9
330
5EFC
330
5EFF
330
60CE
330
60D1
330
60D4
330
60D7
330
60DA
330
60DD
330
60E0
330
60E3
102
}
330
A
100
AcDbSymbolTableRecord
100
AcDbDimStyleTableRecord
  2
AM_ANSI
 70
     0
  4
"
 41
2.5
 42
1.0
 43
10.0
 44
1.0
 47
0.1
 48
0.1
 78
     8
 79
     2
140
3.5
141
0.0
143
0.0393701
146
0.71
147
1.5
176
   256
177
   256
178
     2
271
     2
272
     3
274
     4
284
     8
340
11
371
    -1
372
    -1
  0
DIMSTYLE
105
59BB
330
A
100
AcDbSymbolTableRecord
100
AcDbDimStyleTableRecord
  2
AM_ANSI$7
 70
     0
  4
"
 41
2.5
 42
1.0
 43
10.0
 44
1.0
 47
0.1
 48
0.1
 78
     8
 79
     2
140
5.0
141
0.0
143
0.0393701
146
0.71
147
1.5
176
   256
177
   256
178
     2
271
     2
272
     3
274
     4
284
     8
340
11
371
    -1
372
    -1
  0
DIMSTYLE
105
66B0
330
A
100
AcDbSymbolTableRecord
100
AcDbDimStyleTableRecord
  2
AM_ISO
 70
     0
  4
"
 41
2.5
 42
1.0
 43
10.0
 44
1.0
 47
0.1
 48
0.1
 73
     0
 74
     0
 77
     1
 78
     8
 79
     2
140
3.5
141
0.0
143
0.0393701
146
0.71
147
1.5
172
     1
176
   256
177
   256
178
     2
271
     2
272
     3
274
     4
283
     0
284
     8
340
11
371
    -1
372
    -1
  0
DIMSTYLE
105
66B1
330
A
100
AcDbSymbolTableRecord
100
AcDbDimStyleTableRecord
  2
AM_ISO$3
 70
     0
  4
"
 41
2.5
 42
1.0
 43
10.0
 44
1.0
 47
0.1
 48
0.1
 73
     0
 77
     1
 78
     8
 79
     2
140
3.5
141
0.0
143
0.0393701
146
0.71
147
1.5
176
   256
177
   256
178
     2
271
     2
272
     3
274
     4
283
     0
284
     8
288
     1
289
     0
340
11
371
    -1
372
    -1
  0
DIMSTYLE
105
66B2
330
A
100
AcDbSymbolTableRecord
100
AcDbDimStyleTableRecord
  2
AM_ISO$4
 70
     0
  4
"
 41
2.5
 42
1.0
 43
10.0
 44
1.0
 47
0.1
 48
0.1
 73
     0
 77
     1
 78
     8
 79
     2
140
3.5
141
0.0
143
0.0393701
146
0.71
147
1.5
176
   256
177
   256
178
     2
271
     2
272
     3
274
     4
283
     0
284
     8
288
     1
289
     0
340
11
371
    -1
372
    -1
  0
DIMSTYLE
105
66B3
330
A
100
AcDbSymbolTableRecord
100
AcDbDimStyleTableRecord
  2
AM_ISO$6
 70
     0
  4
"
 41
2.5
 42
1.0
 43
10.0
 44
1.0
 47
0.1
 48
0.1
 73
     0
 74
     0
 78
     8
 79
     2
140
3.5
141
0.0
143
0.0393701
146
0.71
147
1.5
172
     1
176
   256
177
   256
178
     2
271
     2
272
     3
274
     4
283
     0
284
     8
340
11
371
    -1
372
    -1
  0
DIMSTYLE
105
66B4
330
A
100
AcDbSymbolTableRecord
100
AcDbDimStyleTableRecord
  2
AM_ISO$7
 70
     0
  4
"
 41
2.5
 42
1.0
 43
10.0
 44
1.0
 47
0.1
 48
0.1
 73
     0
 74
     0
 77
     1
 78
     8
 79
     2
140
5.0
141
0.0
143
0.0393701
146
0.71
147
1.5
172
     1
176
   256
177
   256
178
     2
271
     2
272
     3
274
     4
283
     0
284
     8
340
11
371
    -1
372
    -1
  0
DIMSTYLE
105
66B5
330
A
100
AcDbSymbolTableRecord
100
AcDbDimStyleTableRecord
  2
AM_ISO$SF
 70
     0
  4
"
 41
2.5
 42
1.0
 43
10.0
 44
1.0
 47
0.1
 48
0.1
 73
     0
 74
     0
 75
     1
 76
     1
 77
     1
 78
     8
 79
     2
140
3.5
141
0.0
143
0.0393701
146
0.71
147
1.5
172
     1
176
   256
177
   256
178
     2
271
     2
272
     3
274
     4
283
     0
284
     8
340
11
371
    -1
372
    -1
  0
DIMSTYLE
105
66B6
330
A
100
AcDbSymbolTableRecord
100
AcDbDimStyleTableRecord
  2
AM_ISO$SH
 70
     0
  4
"
 41
2.5
 42
1.0
 43
10.0
 44
1.0
 47
0.1
 48
0.1
 73
     0
 74
     0
 75
     1
 76
     1
 77
     1
 78
     8
 79
     2
140
3.5
141
0.0
143
0.0393701
144
2.0
146
0.71
147
1.5
172
     1
173
     1
176
   256
177
   256
178
     2
271
     2
272
     3
274
     4
283
     0
284
     8
340
11
343
582C
371
    -1
372
    -1
  0
ENDTAB
  0
TABLE
  2
BLOCK_RECORD
  5
1
330
0
100
AcDbSymbolTable
 70
    45
  0
BLOCK_RECORD
  5
1F
102
{ACAD_XDICTIONARY
360
5790
102
}
330
1
100
AcDbSymbolTableRecord
100
AcDbBlockTableRecord
  2
*Model_Space
340
22
  0
BLOCK_RECORD
  5
1B
102
{ACAD_XDICTIONARY
360
5792
102
}
330
1
100
AcDbSymbolTableRecord
100
AcDbBlockTableRecord
  2
*Paper_Space
340
1E
  0
BLOCK_RECORD
  5
23
102
{ACAD_XDICTIONARY
360
5794
102
}
330
1
100
AcDbSymbolTableRecord
100
AcDbBlockTableRecord
  2
*Paper_Space0
340
26
  0
BLOCK_RECORD
  5
582C
330
1
100
AcDbSymbolTableRecord
100
AcDbBlockTableRecord
  2
GENAXEH
340
0
  0
BLOCK_RECORD
  5
5F06
330
1
100
AcDbSymbolTableRecord
100
AcDbBlockTableRecord
  2
*D2
340
0
  0
BLOCK_RECORD
  5
5F12
330
1
100
AcDbSymbolTableRecord
100
AcDbBlockTableRecord
  2
*D3
340
0
  0
BLOCK_RECORD
  5
5F1E
330
1
100
AcDbSymbolTableRecord
100
AcDbBlockTableRecord
  2
*D4
340
0
  0
BLOCK_RECORD
  5
5F2A
330
1
100
AcDbSymbolTableRecord
100
AcDbBlockTableRecord
  2
*D5
340
0
  0
BLOCK_RECORD
  5
5F38
330
1
100
AcDbSymbolTableRecord
100
AcDbBlockTableRecord
  2
*D6
340
0
  0
BLOCK_RECORD
  5
5F44
330
1
100
AcDbSymbolTableRecord
100
AcDbBlockTableRecord
  2
*D7
340
0
  0
BLOCK_RECORD
  5
5F50
330
1
100
AcDbSymbolTableRecord
100
AcDbBlockTableRecord
  2
*D8
340
0
  0
BLOCK_RECORD
  5
5F5C
330
1
100
AcDbSymbolTableRecord
100
AcDbBlockTableRecord
  2
*D9
340
0
  0
BLOCK_RECORD
  5
5F68
330
1
100
AcDbSymbolTableRecord
100
AcDbBlockTableRecord
  2
*D10
340
0
  0
BLOCK_RECORD
  5
5F74
330
1
100
AcDbSymbolTableRecord
100
AcDbBlockTableRecord
  2
*D11
340
0
  0
BLOCK_RECORD
  5
5F80
330
1
100
AcDbSymbolTableRecord
100
AcDbBlockTableRecord
  2
*D12
340
0
  0
BLOCK_RECORD
  5
5F8C
330
1
100
AcDbSymbolTableRecord
100
AcDbBlockTableRecord
  2
*D13
340
0
  0
BLOCK_RECORD
  5
5F9A
330
1
100
AcDbSymbolTableRecord
100
AcDbBlockTableRecord
  2
*D14
340
0
  0
BLOCK_RECORD
  5
5FA6
330
1
100
AcDbSymbolTableRecord
100
AcDbBlockTableRecord
  2
*D15
340
0
  0
BLOCK_RECORD
  5
5FB2
330
1
100
AcDbSymbolTableRecord
100
AcDbBlockTableRecord
  2
*D16
340
0
  0
BLOCK_RECORD
  5
5FCA
330
1
100
AcDbSymbolTableRecord
100
AcDbBlockTableRecord
  2
*D17
340
0
  0
BLOCK_RECORD
  5
5FD6
330
1
100
AcDbSymbolTableRecord
100
AcDbBlockTableRecord
  2
*D18
340
0
  0
BLOCK_RECORD
  5
5FE2
330
1
100
AcDbSymbolTableRecord
100
AcDbBlockTableRecord
  2
*D19
340
0
  0
BLOCK_RECORD
  5
5FF0
330
1
100
AcDbSymbolTableRecord
100
AcDbBlockTableRecord
  2
*D20
340
0
  0
BLOCK_RECORD
  5
5FFC
330
1
100
AcDbSymbolTableRecord
100
AcDbBlockTableRecord
  2
*D21
340
0
  0
BLOCK_RECORD
  5
6008
330
1
100
AcDbSymbolTableRecord
100
AcDbBlockTableRecord
  2
*D22
340
0
  0
BLOCK_RECORD
  5
6014
330
1
100
AcDbSymbolTableRecord
100
AcDbBlockTableRecord
  2
*D23
340
0
  0
BLOCK_RECORD
  5
6020
330
1
100
AcDbSymbolTableRecord
100
AcDbBlockTableRecord
  2
*D24
340
0
  0
BLOCK_RECORD
  5
602C
330
1
100
AcDbSymbolTableRecord
100
AcDbBlockTableRecord
  2
*D25
340
0
  0
BLOCK_RECORD
  5
6038
330
1
100
AcDbSymbolTableRecord
100
AcDbBlockTableRecord
  2
*D26
340
0
  0
BLOCK_RECORD
  5
6046
330
1
100
AcDbSymbolTableRecord
100
AcDbBlockTableRecord
  2
*D27
340
0
  0
BLOCK_RECORD
  5
6052
330
1
100
AcDbSymbolTableRecord
100
AcDbBlockTableRecord
  2
*D28
340
0
  0
BLOCK_RECORD
  5
605E
330
1
100
AcDbSymbolTableRecord
100
AcDbBlockTableRecord
  2
*D29
340
0
  0
BLOCK_RECORD
  5
606A
330
1
100
AcDbSymbolTableRecord
100
AcDbBlockTableRecord
  2
*D30
340
0
  0
BLOCK_RECORD
  5
6076
330
1
100
AcDbSymbolTableRecord
100
AcDbBlockTableRecord
  2
*D31
340
0
  0
BLOCK_RECORD
  5
60E6
330
1
100
AcDbSymbolTableRecord
100
AcDbBlockTableRecord
  2
*D32
340
0
  0
BLOCK_RECORD
  5
60F2
330
1
100
AcDbSymbolTableRecord
100
AcDbBlockTableRecord
  2
*D33
340
0
  0
BLOCK_RECORD
  5
60FE
330
1
100
AcDbSymbolTableRecord
100
AcDbBlockTableRecord
  2
*D34
340
0
  0
BLOCK_RECORD
  5
610A
330
1
100
AcDbSymbolTableRecord
100
AcDbBlockTableRecord
  2
*D35
340
0
  0
BLOCK_RECORD
  5
6116
330
1
100
AcDbSymbolTableRecord
100
AcDbBlockTableRecord
  2
*D36
340
0
  0
BLOCK_RECORD
  5
6122
330
1
100
AcDbSymbolTableRecord
100
AcDbBlockTableRecord
  2
*D37
340
0
  0
BLOCK_RECORD
  5
612E
330
1
100
AcDbSymbolTableRecord
100
AcDbBlockTableRecord
  2
*D38
340
0
  0
BLOCK_RECORD
  5
613A
330
1
100
AcDbSymbolTableRecord
100
AcDbBlockTableRecord
  2
*D39
340
0
  0
BLOCK_RECORD
  5
7059
102
{ACAD_XDICTIONARY
360
705A
102
}
330
1
100
AcDbSymbolTableRecord
100
AcDbBlockTableRecord
  2
A$C5ECF147B
340
0
102
{BLKREFS
331
7086
331
7094
331
7095
331
70A5
331
70B3
331
70B4
102
}
  0
BLOCK_RECORD
  5
70E2
102
{ACAD_XDICTIONARY
360
70E7
102
}
330
1
100
AcDbSymbolTableRecord
100
AcDbBlockTableRecord
  2
A$C56E90040
340
0
102
{BLKREFS
331
70EB
331
70ED
102
}
  0
ENDTAB
  0
ENDSEC
  0
SECTION
  2
BLOCKS
  0
BLOCK
  5
20
330
1F
100
AcDbEntity
  8
0
100
AcDbBlockBegin
  2
*Model_Space
 70
     0
 10
0.0
 20
0.0
 30
0.0
  3
*Model_Space
  1

  0
ENDBLK
  5
21
330
1F
100
AcDbEntity
  8
0
100
AcDbBlockEnd
  0
BLOCK
  5
1C
330
1B
100
AcDbEntity
 67
     1
  8
0
100
AcDbBlockBegin
  2
*Paper_Space
 70
     0
 10
0.0
 20
0.0
 30
0.0
  3
*Paper_Space
  1

  0
ENDBLK
  5
1D
330
1B
100
AcDbEntity
 67
     1
  8
0
100
AcDbBlockEnd
  0
BLOCK
  5
24
330
23
100
AcDbEntity
  8
0
100
AcDbBlockBegin
  2
*Paper_Space0
 70
     0
 10
0.0
 20
0.0
 30
0.0
  3
*Paper_Space0
  1

  0
ENDBLK
  5
25
330
23
100
AcDbEntity
  8
0
100
AcDbBlockEnd
  0
BLOCK
  5
582D
330
582C
100
AcDbEntity
  8
0
100
AcDbBlockBegin
  2
GENAXEH
 70
     0
 10
0.0
 20
0.0
 30
0.0
  3
GENAXEH
  1

  0
LINE
  5
582E
330
582C
100
AcDbEntity
  8
0
100
AcDbLine
 10
-1.0
 20
0.0
 30
0.0
 11
1.0
 21
0.0
 31
0.0
  0
ENDBLK
  5
582F
330
582C
100
AcDbEntity
  8
0
100
AcDbBlockEnd
  0
BLOCK
  5
5F10
330
5F06
100
AcDbEntity
  8
0
100
AcDbBlockBegin
  2
*D2
 70
     1
 10
0.0
 20
0.0
 30
0.0
  3
*D2
  1

  0
LINE
  5
6B03
330
5F06
100
AcDbEntity
  8
DIM
100
AcDbLine
 10
83.25138433565076
 20
380.3811801152743
 30
0.0
 11
83.25138433565076
 21
394.246581015972
 31
0.0
  0
LINE
  5
6B04
330
5F06
100
AcDbEntity
  8
DIM
100
AcDbLine
 10
96.25138433565076
 20
380.3811801152743
 30
0.0
 11
96.25138433565076
 21
394.246581015972
 31
0.0
  0
LINE
  5
6B05
330
5F06
100
AcDbEntity
  8
DIM
100
AcDbLine
 10
86.75138433565075
 20
391.246581015972
 30
0.0
 11
92.75138433565075
 21
391.246581015972
 31
0.0
  0
SOLID
  5
6B06
330
5F06
100
AcDbEntity
  8
DIM
100
AcDbTrace
 10
86.75138433565075
 20
391.8299143493054
 30
0.0
 11
86.75138433565075
 21
390.6632476826387
 31
0.0
 12
83.25138433565076
 22
391.246581015972
 32
0.0
 13
83.25138433565076
 23
391.246581015972
 33
0.0
  0
SOLID
  5
6B07
330
5F06
100
AcDbEntity
  8
DIM
100
AcDbTrace
 10
92.75138433565075
 20
391.8299143493054
 30
0.0
 11
92.75138433565075
 21
390.6632476826387
 31
0.0
 12
96.25138433565076
 22
391.246581015972
 32
0.0
 13
96.25138433565076
 23
391.246581015972
 33
0.0
  0
MTEXT
  5
6B08
330
5F06
100
AcDbEntity
  8
DIM
100
AcDbMText
 10
89.75138433565076
 20
394.296581015972
 30
0.0
 40
3.5
 41
0.0
 71
     5
 72
     1
  1
\A1;13
  7
dayus
 73
     1
 44
1.0
1001
ACAD
1000
MTEXTBEGIN
1070
    73
1070
     1
1070
    44
1040
1.0
1070
    74
1070
     0
1000
MTEXTEND
  0
POINT
  5
6B09
330
5F06
100
AcDbEntity
  8
Defpoints
 62
     0
100
AcDbPoint
 10
83.25138433565076
 20
377.3811801152743
 30
0.0
  0
POINT
  5
6B0A
330
5F06
100
AcDbEntity
  8
Defpoints
 62
     0
100
AcDbPoint
 10
96.25138433565076
 20
377.3811801152743
 30
0.0
  0
POINT
  5
6B0B
330
5F06
100
AcDbEntity
  8
Defpoints
 62
     0
100
AcDbPoint
 10
96.25138433565076
 20
391.246581015972
 30
0.0
  0
ENDBLK
  5
5F11
330
5F06
100
AcDbEntity
  8
0
100
AcDbBlockEnd
  0
BLOCK
  5
5F1C
330
5F12
100
AcDbEntity
  8
0
100
AcDbBlockBegin
  2
*D3
 70
     1
 10
0.0
 20
0.0
 30
0.0
  3
*D3
  1

  0
LINE
  5
6B0C
330
5F12
100
AcDbEntity
  8
DIM
100
AcDbLine
 10
75.60500950808978
 20
377.5247736547233
 30
0.0
 11
75.60500950808978
 21
403.452320779566
 31
0.0
  0
LINE
  5
6B0D
330
5F12
100
AcDbEntity
  8
DIM
100
AcDbLine
 10
105.6050095080897
 20
376.0247736547233
 30
0.0
 11
105.6050095080897
 21
403.452320779566
 31
0.0
  0
LINE
  5
6B0E
330
5F12
100
AcDbEntity
  8
DIM
100
AcDbLine
 10
79.10500950808978
 20
400.452320779566
 30
0.0
 11
102.1050095080898
 21
400.452320779566
 31
0.0
  0
SOLID
  5
6B0F
330
5F12
100
AcDbEntity
  8
DIM
100
AcDbTrace
 10
79.10500950808978
 20
401.0356541128993
 30
0.0
 11
79.10500950808978
 21
399.8689874462327
 31
0.0
 12
75.60500950808978
 22
400.452320779566
 32
0.0
 13
75.60500950808978
 23
400.452320779566
 33
0.0
  0
SOLID
  5
6B10
330
5F12
100
AcDbEntity
  8
DIM
100
AcDbTrace
 10
102.1050095080898
 20
401.0356541128993
 30
0.0
 11
102.1050095080898
 21
399.8689874462327
 31
0.0
 12
105.6050095080897
 22
400.452320779566
 32
0.0
 13
105.6050095080897
 23
400.452320779566
 33
0.0
  0
MTEXT
  5
6B11
330
5F12
100
AcDbEntity
  8
DIM
100
AcDbMText
 10
90.60500950808977
 20
403.502320779566
 30
0.0
 40
3.5
 41
0.0
 71
     5
 72
     1
  1
\A1;30
  7
dayus
 73
     1
 44
1.0
1001
ACAD
1000
MTEXTBEGIN
1070
    73
1070
     1
1070
    44
1040
1.0
1070
    74
1070
     0
1000
MTEXTEND
  0
POINT
  5
6B12
330
5F12
100
AcDbEntity
  8
Defpoints
 62
     0
100
AcDbPoint
 10
75.60500950808978
 20
374.5247736547233
 30
0.0
  0
POINT
  5
6B13
330
5F12
100
AcDbEntity
  8
Defpoints
 62
     0
100
AcDbPoint
 10
105.6050095080897
 20
373.0247736547233
 30
0.0
  0
POINT
  5
6B14
330
5F12
100
AcDbEntity
  8
Defpoints
 62
     0
100
AcDbPoint
 10
105.6050095080897
 20
400.452320779566
 30
0.0
  0
ENDBLK
  5
5F1D
330
5F12
100
AcDbEntity
  8
0
100
AcDbBlockEnd
  0
BLOCK
  5
5F28
330
5F1E
100
AcDbEntity
  8
0
100
AcDbBlockBegin
  2
*D4
 70
     1
 10
0.0
 20
0.0
 30
0.0
  3
*D4
  1

  0
LINE
  5
6B15
330
5F1E
100
AcDbEntity
  8
DIM
100
AcDbLine
 10
72.60500950808978
 20
377.5247736547233
 30
0.0
 11
72.60500950808978
 21
412.8033600942822
 31
0.0
  0
LINE
  5
6B16
330
5F1E
100
AcDbEntity
  8
DIM
100
AcDbLine
 10
105.6050095080897
 20
376.0247736547233
 30
0.0
 11
105.6050095080897
 21
412.8033600942822
 31
0.0
  0
LINE
  5
6B17
330
5F1E
100
AcDbEntity
  8
DIM
100
AcDbLine
 10
76.10500950808978
 20
409.8033600942822
 30
0.0
 11
102.1050095080898
 21
409.8033600942822
 31
0.0
  0
SOLID
  5
6B18
330
5F1E
100
AcDbEntity
  8
DIM
100
AcDbTrace
 10
76.10500950808978
 20
410.3866934276156
 30
0.0
 11
76.10500950808978
 21
409.2200267609489
 31
0.0
 12
72.60500950808978
 22
409.8033600942822
 32
0.0
 13
72.60500950808978
 23
409.8033600942822
 33
0.0
  0
SOLID
  5
6B19
330
5F1E
100
AcDbEntity
  8
DIM
100
AcDbTrace
 10
102.1050095080898
 20
410.3866934276156
 30
0.0
 11
102.1050095080898
 21
409.2200267609489
 31
0.0
 12
105.6050095080897
 22
409.8033600942822
 32
0.0
 13
105.6050095080897
 23
409.8033600942822
 33
0.0
  0
MTEXT
  5
6B1A
330
5F1E
100
AcDbEntity
  8
DIM
100
AcDbMText
 10
89.10500950808978
 20
412.8533600942822
 30
0.0
 40
3.5
 41
0.0
 71
     5
 72
     1
  1
\A1;33
  7
dayus
 73
     1
 44
1.0
1001
ACAD
1000
MTEXTBEGIN
1070
    73
1070
     1
1070
    44
1040
1.0
1070
    74
1070
     0
1000
MTEXTEND
  0
POINT
  5
6B1B
330
5F1E
100
AcDbEntity
  8
Defpoints
 62
     0
100
AcDbPoint
 10
72.60500950808978
 20
374.5247736547233
 30
0.0
  0
POINT
  5
6B1C
330
5F1E
100
AcDbEntity
  8
Defpoints
 62
     0
100
AcDbPoint
 10
105.6050095080897
 20
373.0247736547233
 30
0.0
  0
POINT
  5
6B1D
330
5F1E
100
AcDbEntity
  8
Defpoints
 62
     0
100
AcDbPoint
 10
105.6050095080897
 20
409.8033600942822
 30
0.0
  0
ENDBLK
  5
5F29
330
5F1E
100
AcDbEntity
  8
0
100
AcDbBlockEnd
  0
BLOCK
  5
5F36
330
5F2A
100
AcDbEntity
  8
0
100
AcDbBlockBegin
  2
*D5
 70
     1
 10
0.0
 20
0.0
 30
0.0
  3
*D5
  1

  0
LINE
  5
6B1E
330
5F2A
100
AcDbEntity
  8
DIM
100
AcDbLine
 10
61.60500950808978
 20
413.524773654723
 30
0.0
 11
61.60500950808978
 21
423.8292932874454
 31
0.0
  0
LINE
  5
6B1F
330
5F2A
100
AcDbEntity
  8
DIM
100
AcDbLine
 10
66.60500950808978
 20
387.5247736547233
 30
0.0
 11
66.60500950808978
 21
423.8292932874454
 31
0.0
  0
LINE
  5
6B20
330
5F2A
100
AcDbEntity
  8
DIM
100
AcDbLine
 10
58.10500950808978
 20
420.8292932874454
 30
0.0
 11
54.60500950808977
 21
420.8292932874454
 31
0.0
  0
LINE
  5
6B21
330
5F2A
100
AcDbEntity
  8
DIM
100
AcDbLine
 10
70.10500950808978
 20
420.8292932874454
 30
0.0
 11
73.60500950808978
 21
420.8292932874454
 31
0.0
  0
LINE
  5
6B22
330
5F2A
100
AcDbEntity
  8
DIM
100
AcDbLine
 10
61.60500950808978
 20
420.8292932874454
 30
0.0
 11
66.60500950808978
 21
420.8292932874454
 31
0.0
  0
SOLID
  5
6B23
330
5F2A
100
AcDbEntity
  8
DIM
100
AcDbTrace
 10
58.10500950808978
 20
421.4126266207787
 30
0.0
 11
58.10500950808978
 21
420.245959954112
 31
0.0
 12
61.60500950808978
 22
420.8292932874454
 32
0.0
 13
61.60500950808978
 23
420.8292932874454
 33
0.0
  0
SOLID
  5
6B24
330
5F2A
100
AcDbEntity
  8
DIM
100
AcDbTrace
 10
70.10500950808978
 20
421.4126266207787
 30
0.0
 11
70.10500950808978
 21
420.245959954112
 31
0.0
 12
66.60500950808978
 22
420.8292932874454
 32
0.0
 13
66.60500950808978
 23
420.8292932874454
 33
0.0
  0
MTEXT
  5
6B25
330
5F2A
100
AcDbEntity
  8
DIM
100
AcDbMText
 10
64.10500950808978
 20
423.8792932874454
 30
0.0
 40
3.5
 41
0.0
 71
     5
 72
     1
  1
\A1;5
  7
dayus
 73
     1
 44
1.0
1001
ACAD
1000
MTEXTBEGIN
1070
    73
1070
     1
1070
    44
1040
1.0
1070
    74
1070
     0
1000
MTEXTEND
  0
POINT
  5
6B26
330
5F2A
100
AcDbEntity
  8
Defpoints
 62
     0
100
AcDbPoint
 10
61.60500950808978
 20
410.5247736547231
 30
0.0
  0
POINT
  5
6B27
330
5F2A
100
AcDbEntity
  8
Defpoints
 62
     0
100
AcDbPoint
 10
66.60500950808978
 20
384.5247736547233
 30
0.0
  0
POINT
  5
6B28
330
5F2A
100
AcDbEntity
  8
Defpoints
 62
     0
100
AcDbPoint
 10
66.60500950808978
 20
420.8292932874454
 30
0.0
  0
ENDBLK
  5
5F37
330
5F2A
100
AcDbEntity
  8
0
100
AcDbBlockEnd
  0
BLOCK
  5
5F42
330
5F38
100
AcDbEntity
  8
0
100
AcDbBlockBegin
  2
*D6
 70
     1
 10
0.0
 20
0.0
 30
0.0
  3
*D6
  1

  0
LINE
  5
6B29
330
5F38
100
AcDbEntity
  8
DIM
100
AcDbLine
 10
61.60500950808978
 20
413.524773654723
 30
0.0
 11
61.60500950808978
 21
434.43088731981
 31
0.0
  0
LINE
  5
6B2A
330
5F38
100
AcDbEntity
  8
DIM
100
AcDbLine
 10
105.6050095080897
 20
376.0247736547233
 30
0.0
 11
105.6050095080897
 21
434.43088731981
 31
0.0
  0
LINE
  5
6B2B
330
5F38
100
AcDbEntity
  8
DIM
100
AcDbLine
 10
65.10500950808978
 20
431.43088731981
 30
0.0
 11
102.1050095080898
 21
431.43088731981
 31
0.0
  0
SOLID
  5
6B2C
330
5F38
100
AcDbEntity
  8
DIM
100
AcDbTrace
 10
65.10500950808978
 20
432.0142206531433
 30
0.0
 11
65.10500950808978
 21
430.8475539864766
 31
0.0
 12
61.60500950808978
 22
431.43088731981
 32
0.0
 13
61.60500950808978
 23
431.43088731981
 33
0.0
  0
SOLID
  5
6B2D
330
5F38
100
AcDbEntity
  8
DIM
100
AcDbTrace
 10
102.1050095080898
 20
432.0142206531433
 30
0.0
 11
102.1050095080898
 21
430.8475539864766
 31
0.0
 12
105.6050095080897
 22
431.43088731981
 32
0.0
 13
105.6050095080897
 23
431.43088731981
 33
0.0
  0
MTEXT
  5
6B2E
330
5F38
100
AcDbEntity
  8
DIM
100
AcDbMText
 10
83.60500950808978
 20
434.48088731981
 30
0.0
 40
3.5
 41
0.0
 71
     5
 72
     1
  1
\A1;44
  7
dayus
 73
     1
 44
1.0
1001
ACAD
1000
MTEXTBEGIN
1070
    73
1070
     1
1070
    44
1040
1.0
1070
    74
1070
     0
1000
MTEXTEND
  0
POINT
  5
6B2F
330
5F38
100
AcDbEntity
  8
Defpoints
 62
     0
100
AcDbPoint
 10
61.60500950808978
 20
410.5247736547231
 30
0.0
  0
POINT
  5
6B30
330
5F38
100
AcDbEntity
  8
Defpoints
 62
     0
100
AcDbPoint
 10
105.6050095080897
 20
373.0247736547233
 30
0.0
  0
POINT
  5
6B31
330
5F38
100
AcDbEntity
  8
Defpoints
 62
     0
100
AcDbPoint
 10
105.6050095080897
 20
431.43088731981
 30
0.0
  0
ENDBLK
  5
5F43
330
5F38
100
AcDbEntity
  8
0
100
AcDbBlockEnd
  0
BLOCK
  5
5F4E
330
5F44
100
AcDbEntity
  8
0
100
AcDbBlockBegin
  2
*D7
 70
     1
 10
0.0
 20
0.0
 30
0.0
  3
*D7
  1

  0
LINE
  5
6D99
330
5F44
100
AcDbEntity
  8
DIM
100
AcDbLine
 10
15.60500950808978
 20
413.5247736547229
 30
0.0
 11
15.60500950808978
 21
434.43088731981
 31
0.0
  0
LINE
  5
6D9A
330
5F44
100
AcDbEntity
  8
DIM
100
AcDbLine
 10
61.60500950808978
 20
413.524773654723
 30
0.0
 11
61.60500950808978
 21
434.43088731981
 31
0.0
  0
LINE
  5
6D9B
330
5F44
100
AcDbEntity
  8
DIM
100
AcDbLine
 10
19.10500950808978
 20
431.43088731981
 30
0.0
 11
58.10500950808978
 21
431.43088731981
 31
0.0
  0
SOLID
  5
6D9C
330
5F44
100
AcDbEntity
  8
DIM
100
AcDbTrace
 10
19.10500950808978
 20
432.0142206531433
 30
0.0
 11
19.10500950808978
 21
430.8475539864766
 31
0.0
 12
15.60500950808978
 22
431.43088731981
 32
0.0
 13
15.60500950808978
 23
431.43088731981
 33
0.0
  0
SOLID
  5
6D9D
330
5F44
100
AcDbEntity
  8
DIM
100
AcDbTrace
 10
58.10500950808978
 20
432.0142206531433
 30
0.0
 11
58.10500950808978
 21
430.8475539864766
 31
0.0
 12
61.60500950808978
 22
431.43088731981
 32
0.0
 13
61.60500950808978
 23
431.43088731981
 33
0.0
  0
MTEXT
  5
6D9E
330
5F44
100
AcDbEntity
  8
DIM
100
AcDbMText
 10
38.60500950808978
 20
434.48088731981
 30
0.0
 40
3.5
 41
0.0
 71
     5
 72
     1
  1
\A1;41+stroke=S
  7
dayus
 73
     1
 44
1.0
1001
ACAD
1000
MTEXTBEGIN
1070
    73
1070
     1
1070
    44
1040
1.0
1070
    74
1070
     0
1000
MTEXTEND
  0
POINT
  5
6D9F
330
5F44
100
AcDbEntity
  8
Defpoints
 62
     0
100
AcDbPoint
 10
15.60500950808978
 20
410.5247736547229
 30
0.0
  0
POINT
  5
6DA0
330
5F44
100
AcDbEntity
  8
Defpoints
 62
     0
100
AcDbPoint
 10
61.60500950808978
 20
410.5247736547231
 30
0.0
  0
POINT
  5
6DA1
330
5F44
100
AcDbEntity
  8
Defpoints
 62
     0
100
AcDbPoint
 10
61.60500950808978
 20
431.43088731981
 30
0.0
  0
ENDBLK
  5
5F4F
330
5F44
100
AcDbEntity
  8
0
100
AcDbBlockEnd
  0
BLOCK
  5
5F5A
330
5F50
100
AcDbEntity
  8
0
100
AcDbBlockBegin
  2
*D8
 70
     1
 10
0.0
 20
0.0
 30
0.0
  3
*D8
  1

  0
LINE
  5
7295
330
5F50
100
AcDbEntity
  8
DIM
100
AcDbLine
 10
15.60500950808978
 20
413.5247736547229
 30
0.0
 11
15.60500950808978
 21
423.8292932874454
 31
0.0
  0
LINE
  5
7296
330
5F50
100
AcDbEntity
  8
DIM
100
AcDbLine
 10
28.60500950808978
 20
376.3861256032069
 30
0.0
 11
28.60500950808978
 21
423.8292932874454
 31
0.0
  0
LINE
  5
7297
330
5F50
100
AcDbEntity
  8
DIM
100
AcDbLine
 10
19.10500950808978
 20
420.8292932874454
 30
0.0
 11
25.10500950808979
 21
420.8292932874454
 31
0.0
  0
SOLID
  5
7298
330
5F50
100
AcDbEntity
  8
DIM
100
AcDbTrace
 10
19.10500950808978
 20
421.4126266207787
 30
0.0
 11
19.10500950808978
 21
420.245959954112
 31
0.0
 12
15.60500950808978
 22
420.8292932874454
 32
0.0
 13
15.60500950808978
 23
420.8292932874454
 33
0.0
  0
SOLID
  5
7299
330
5F50
100
AcDbEntity
  8
DIM
100
AcDbTrace
 10
25.10500950808979
 20
421.4126266207787
 30
0.0
 11
25.10500950808979
 21
420.245959954112
 31
0.0
 12
28.60500950808978
 22
420.8292932874454
 32
0.0
 13
28.60500950808978
 23
420.8292932874454
 33
0.0
  0
MTEXT
  5
729A
330
5F50
100
AcDbEntity
  8
DIM
100
AcDbMText
 10
21.79602960452343
 20
423.8792932874454
 30
0.0
 40
3.5
 41
0.0
 71
     5
 72
     1
  1
\A1;13
  7
dayus
 73
     1
 44
1.0
1001
ACAD
1000
MTEXTBEGIN
1070
    73
1070
     1
1070
    44
1040
1.0
1070
    74
1070
     0
1000
MTEXTEND
  0
POINT
  5
729B
330
5F50
100
AcDbEntity
  8
Defpoints
 62
     0
100
AcDbPoint
 10
15.60500950808978
 20
410.5247736547229
 30
0.0
  0
POINT
  5
729C
330
5F50
100
AcDbEntity
  8
Defpoints
 62
     0
100
AcDbPoint
 10
28.60500950808978
 20
373.3861256032069
 30
0.0
  0
POINT
  5
729D
330
5F50
100
AcDbEntity
  8
Defpoints
 62
     0
100
AcDbPoint
 10
28.60500950808978
 20
420.8292932874454
 30
0.0
  0
ENDBLK
  5
5F5B
330
5F50
100
AcDbEntity
  8
0
100
AcDbBlockEnd
  0
BLOCK
  5
5F66
330
5F5C
100
AcDbEntity
  8
0
100
AcDbBlockBegin
  2
*D9
 70
     1
 10
0.0
 20
0.0
 30
0.0
  3
*D9
  1

  0
LINE
  5
71D4
330
5F5C
100
AcDbEntity
  8
DIM
100
AcDbLine
 10
61.60500950808978
 20
413.524773654723
 30
0.0
 11
61.60500950808978
 21
423.8292932874454
 31
0.0
  0
LINE
  5
71D5
330
5F5C
100
AcDbEntity
  8
DIM
100
AcDbLine
 10
48.60500950808978
 20
376.3861256032069
 30
0.0
 11
48.60500950808978
 21
423.8292932874454
 31
0.0
  0
LINE
  5
71D6
330
5F5C
100
AcDbEntity
  8
DIM
100
AcDbLine
 10
58.10500950808978
 20
420.8292932874454
 30
0.0
 11
52.10500950808977
 21
420.8292932874454
 31
0.0
  0
SOLID
  5
71D7
330
5F5C
100
AcDbEntity
  8
DIM
100
AcDbTrace
 10
58.10500950808978
 20
421.4126266207787
 30
0.0
 11
58.10500950808978
 21
420.245959954112
 31
0.0
 12
61.60500950808978
 22
420.8292932874454
 32
0.0
 13
61.60500950808978
 23
420.8292932874454
 33
0.0
  0
SOLID
  5
71D8
330
5F5C
100
AcDbEntity
  8
DIM
100
AcDbTrace
 10
52.10500950808977
 20
421.4126266207787
 30
0.0
 11
52.10500950808977
 21
420.245959954112
 31
0.0
 12
48.60500950808978
 22
420.8292932874454
 32
0.0
 13
48.60500950808978
 23
420.8292932874454
 33
0.0
  0
MTEXT
  5
71D9
330
5F5C
100
AcDbEntity
  8
DIM
100
AcDbMText
 10
55.12247330816876
 20
423.8792932874454
 30
0.0
 40
3.5
 41
0.0
 71
     5
 72
     1
  1
\A1;13
  7
dayus
 73
     1
 44
1.0
1001
ACAD
1000
MTEXTBEGIN
1070
    73
1070
     1
1070
    44
1040
1.0
1070
    74
1070
     0
1000
MTEXTEND
  0
POINT
  5
71DA
330
5F5C
100
AcDbEntity
  8
Defpoints
 62
     0
100
AcDbPoint
 10
61.60500950808978
 20
410.5247736547231
 30
0.0
  0
POINT
  5
71DB
330
5F5C
100
AcDbEntity
  8
Defpoints
 62
     0
100
AcDbPoint
 10
48.60500950808978
 20
373.3861256032069
 30
0.0
  0
POINT
  5
71DC
330
5F5C
100
AcDbEntity
  8
Defpoints
 62
     0
100
AcDbPoint
 10
48.60500950808978
 20
420.8292932874454
 30
0.0
  0
ENDBLK
  5
5F67
330
5F5C
100
AcDbEntity
  8
0
100
AcDbBlockEnd
  0
BLOCK
  5
5F72
330
5F68
100
AcDbEntity
  8
0
100
AcDbBlockBegin
  2
*D10
 70
     1
 10
0.0
 20
0.0
 30
0.0
  3
*D10
  1

  0
LINE
  5
6D8F
330
5F68
100
AcDbEntity
  8
DIM
100
AcDbLine
 10
15.60500950808978
 20
413.5247736547229
 30
0.0
 11
15.60500950808978
 21
444.523799761643
 31
0.0
  0
LINE
  5
6D90
330
5F68
100
AcDbEntity
  8
DIM
100
AcDbLine
 10
105.6050095080897
 20
376.0247736547233
 30
0.0
 11
105.6050095080897
 21
444.523799761643
 31
0.0
  0
LINE
  5
6D91
330
5F68
100
AcDbEntity
  8
DIM
100
AcDbLine
 10
19.10500950808978
 20
441.523799761643
 30
0.0
 11
102.1050095080898
 21
441.523799761643
 31
0.0
  0
SOLID
  5
6D92
330
5F68
100
AcDbEntity
  8
DIM
100
AcDbTrace
 10
19.10500950808978
 20
442.1071330949764
 30
0.0
 11
19.10500950808978
 21
440.9404664283097
 31
0.0
 12
15.60500950808978
 22
441.523799761643
 32
0.0
 13
15.60500950808978
 23
441.523799761643
 33
0.0
  0
SOLID
  5
6D93
330
5F68
100
AcDbEntity
  8
DIM
100
AcDbTrace
 10
102.1050095080898
 20
442.1071330949764
 30
0.0
 11
102.1050095080898
 21
440.9404664283097
 31
0.0
 12
105.6050095080897
 22
441.523799761643
 32
0.0
 13
105.6050095080897
 23
441.523799761643
 33
0.0
  0
MTEXT
  5
6D94
330
5F68
100
AcDbEntity
  8
DIM
100
AcDbMText
 10
60.60500950808978
 20
444.573799761643
 30
0.0
 40
3.5
 41
0.0
 71
     5
 72
     1
  1
\A1;85+stroke=ZZ
  7
dayus
 73
     1
 44
1.0
1001
ACAD
1000
MTEXTBEGIN
1070
    73
1070
     1
1070
    44
1040
1.0
1070
    74
1070
     0
1000
MTEXTEND
  0
POINT
  5
6D95
330
5F68
100
AcDbEntity
  8
Defpoints
 62
     0
100
AcDbPoint
 10
15.60500950808978
 20
410.5247736547229
 30
0.0
  0
POINT
  5
6D96
330
5F68
100
AcDbEntity
  8
Defpoints
 62
     0
100
AcDbPoint
 10
105.6050095080897
 20
373.0247736547233
 30
0.0
  0
POINT
  5
6D97
330
5F68
100
AcDbEntity
  8
Defpoints
 62
     0
100
AcDbPoint
 10
105.6050095080897
 20
441.523799761643
 30
0.0
  0
ENDBLK
  5
5F73
330
5F68
100
AcDbEntity
  8
0
100
AcDbBlockEnd
  0
BLOCK
  5
5F7E
330
5F74
100
AcDbEntity
  8
0
100
AcDbBlockBegin
  2
*D11
 70
     1
 10
0.0
 20
0.0
 30
0.0
  3
*D11
  1

  0
LINE
  5
6B56
330
5F74
100
AcDbEntity
  8
DIM
100
AcDbLine
 10
70.10500950808978
 20
351.0247736547233
 30
0.0
 11
126.3078575610868
 21
351.0247736547233
 31
0.0
  0
LINE
  5
6B57
330
5F74
100
AcDbEntity
  8
DIM
100
AcDbLine
 10
70.10500950808978
 20
376.0247736547233
 30
0.0
 11
126.3078575610868
 21
376.0247736547233
 31
0.0
  0
LINE
  5
6B58
330
5F74
100
AcDbEntity
  8
DIM
100
AcDbLine
 10
123.3078575610868
 20
354.5247736547233
 30
0.0
 11
123.3078575610868
 21
372.5247736547233
 31
0.0
  0
SOLID
  5
6B59
330
5F74
100
AcDbEntity
  8
DIM
100
AcDbTrace
 10
122.7245242277535
 20
354.5247736547233
 30
0.0
 11
123.8911908944202
 21
354.5247736547233
 31
0.0
 12
123.3078575610868
 22
351.0247736547233
 32
0.0
 13
123.3078575610868
 23
351.0247736547233
 33
0.0
  0
SOLID
  5
6B5A
330
5F74
100
AcDbEntity
  8
DIM
100
AcDbTrace
 10
122.7245242277535
 20
372.5247736547233
 30
0.0
 11
123.8911908944202
 21
372.5247736547233
 31
0.0
 12
123.3078575610868
 22
376.0247736547233
 32
0.0
 13
123.3078575610868
 23
376.0247736547233
 33
0.0
  0
MTEXT
  5
6B5B
330
5F74
100
AcDbEntity
  8
DIM
100
AcDbMText
 10
120.2578575610868
 20
363.5247736547233
 30
0.0
 40
3.5
 41
0.0
 71
     5
 72
     1
  1
\A1;%%c25
  7
dayus
 11
0.0000000000000001
 21
1.0
 31
0.0
 73
     1
 44
1.0
1001
ACAD
1000
MTEXTBEGIN
1070
    73
1070
     1
1070
    44
1040
1.0
1070
    74
1070
     0
1000
MTEXTEND
  0
POINT
  5
6B5C
330
5F74
100
AcDbEntity
  8
Defpoints
 62
     0
100
AcDbPoint
 10
67.10500950808977
 20
351.0247736547233
 30
0.0
  0
POINT
  5
6B5D
330
5F74
100
AcDbEntity
  8
Defpoints
 62
     0
100
AcDbPoint
 10
67.10500950808977
 20
376.0247736547233
 30
0.0
  0
POINT
  5
6B5E
330
5F74
100
AcDbEntity
  8
Defpoints
 62
     0
100
AcDbPoint
 10
123.3078575610868
 20
376.0247736547233
 30
0.0
  0
ENDBLK
  5
5F7F
330
5F74
100
AcDbEntity
  8
0
100
AcDbBlockEnd
  0
BLOCK
  5
5F8A
330
5F80
100
AcDbEntity
  8
0
100
AcDbBlockBegin
  2
*D12
 70
     1
 10
0.0
 20
0.0
 30
0.0
  3
*D12
  1

  0
LINE
  5
6B5F
330
5F80
100
AcDbEntity
  8
DIM
100
AcDbLine
 10
68.10500950808978
 20
341.0247736547233
 30
0.0
 11
137.5594249783983
 21
341.0247736547233
 31
0.0
  0
LINE
  5
6B60
330
5F80
100
AcDbEntity
  8
DIM
100
AcDbLine
 10
68.10500950808978
 20
386.0247736547233
 30
0.0
 11
137.5594249783983
 21
386.0247736547232
 31
0.0
  0
LINE
  5
6B61
330
5F80
100
AcDbEntity
  8
DIM
100
AcDbLine
 10
134.5594249783983
 20
344.5247736547233
 30
0.0
 11
134.5594249783983
 21
382.5247736547232
 31
0.0
  0
SOLID
  5
6B62
330
5F80
100
AcDbEntity
  8
DIM
100
AcDbTrace
 10
133.9760916450649
 20
344.5247736547233
 30
0.0
 11
135.1427583117316
 21
344.5247736547233
 31
0.0
 12
134.5594249783983
 22
341.0247736547233
 32
0.0
 13
134.5594249783983
 23
341.0247736547233
 33
0.0
  0
SOLID
  5
6B63
330
5F80
100
AcDbEntity
  8
DIM
100
AcDbTrace
 10
133.9760916450649
 20
382.5247736547232
 30
0.0
 11
135.1427583117316
 21
382.5247736547232
 31
0.0
 12
134.5594249783983
 22
386.0247736547232
 32
0.0
 13
134.5594249783983
 23
386.0247736547232
 33
0.0
  0
MTEXT
  5
6B64
330
5F80
100
AcDbEntity
  8
DIM
100
AcDbMText
 10
130.3602583117315
 20
363.5247736547233
 30
0.0
 40
3.5
 41
0.0
 71
     5
 72
     1
  1
\A1;%%c45{}{\H0.71x;\C3;\S 0^ -0.05;}
  7
dayus
 11
0.0000000000000001
 21
1.0
 31
0.0
 73
     1
 44
1.0
1001
ACAD
1000
MTEXTBEGIN
1070
    73
1070
     1
1070
    44
1040
1.0
1070
    74
1070
     0
1000
MTEXTEND
  0
POINT
  5
6B65
330
5F80
100
AcDbEntity
  8
Defpoints
 62
     0
100
AcDbPoint
 10
65.10500950808978
 20
341.0247736547233
 30
0.0
  0
POINT
  5
6B66
330
5F80
100
AcDbEntity
  8
Defpoints
 62
     0
100
AcDbPoint
 10
65.10500950808978
 20
386.0247736547233
 30
0.0
  0
POINT
  5
6B67
330
5F80
100
AcDbEntity
  8
Defpoints
 62
     0
100
AcDbPoint
 10
134.5594249783983
 20
386.0247736547232
 30
0.0
  0
ENDBLK
  5
5F8B
330
5F80
100
AcDbEntity
  8
0
100
AcDbBlockEnd
  0
BLOCK
  5
5F98
330
5F8C
100
AcDbEntity
  8
0
100
AcDbBlockBegin
  2
*D13
 70
     1
 10
0.0
 20
0.0
 30
0.0
  3
*D13
  1

  0
LINE
  5
6B68
330
5F8C
100
AcDbEntity
  8
DIM
100
AcDbLine
 10
68.60500950808921
 20
354.5876026112054
 30
0.0
 11
68.60500950808921
 21
326.6816802354885
 31
0.0
  0
LINE
  5
6B69
330
5F8C
100
AcDbEntity
  8
DIM
100
AcDbLine
 10
72.60500950808967
 20
349.5247736547238
 30
0.0
 11
72.60500950808967
 21
326.6816802354885
 31
0.0
  0
LINE
  5
6B6A
330
5F8C
100
AcDbEntity
  8
DIM
100
AcDbLine
 10
65.10500950808921
 20
329.6816802354884
 30
0.0
 11
61.60500950808921
 21
329.6816802354884
 31
0.0
  0
LINE
  5
6B6B
330
5F8C
100
AcDbEntity
  8
DIM
100
AcDbLine
 10
76.10500950808966
 20
329.6816802354884
 30
0.0
 11
79.60500950808967
 21
329.6816802354884
 31
0.0
  0
LINE
  5
6B6C
330
5F8C
100
AcDbEntity
  8
DIM
100
AcDbLine
 10
68.60500950808921
 20
329.6816802354884
 30
0.0
 11
72.60500950808967
 21
329.6816802354884
 31
0.0
  0
SOLID
  5
6B6D
330
5F8C
100
AcDbEntity
  8
DIM
100
AcDbTrace
 10
65.10500950808921
 20
330.2650135688218
 30
0.0
 11
65.10500950808921
 21
329.0983469021551
 31
0.0
 12
68.60500950808921
 22
329.6816802354884
 32
0.0
 13
68.60500950808921
 23
329.6816802354884
 33
0.0
  0
SOLID
  5
6B6E
330
5F8C
100
AcDbEntity
  8
DIM
100
AcDbTrace
 10
76.10500950808966
 20
330.2650135688218
 30
0.0
 11
76.10500950808966
 21
329.0983469021551
 31
0.0
 12
72.60500950808967
 22
329.6816802354884
 32
0.0
 13
72.60500950808967
 23
329.6816802354884
 33
0.0
  0
MTEXT
  5
6B6F
330
5F8C
100
AcDbEntity
  8
DIM
100
AcDbMText
 10
70.60500950808943
 20
332.7316802354884
 30
0.0
 40
3.5
 41
0.0
 71
     5
 72
     1
  1
\A1;4
  7
dayus
 73
     1
 44
1.0
1001
ACAD
1000
MTEXTBEGIN
1070
    73
1070
     1
1070
    44
1040
1.0
1070
    74
1070
     0
1000
MTEXTEND
  0
POINT
  5
6B70
330
5F8C
100
AcDbEntity
  8
Defpoints
 62
     0
100
AcDbPoint
 10
68.60500950808921
 20
357.5876026112053
 30
0.0
  0
POINT
  5
6B71
330
5F8C
100
AcDbEntity
  8
Defpoints
 62
     0
100
AcDbPoint
 10
72.60500950808967
 20
352.5247736547238
 30
0.0
  0
POINT
  5
6B72
330
5F8C
100
AcDbEntity
  8
Defpoints
 62
     0
100
AcDbPoint
 10
72.60500950808967
 20
329.6816802354884
 30
0.0
  0
ENDBLK
  5
5F99
330
5F8C
100
AcDbEntity
  8
0
100
AcDbBlockEnd
  0
BLOCK
  5
5FA4
330
5F9A
100
AcDbEntity
  8
0
100
AcDbBlockBegin
  2
*D14
 70
     1
 10
0.0
 20
0.0
 30
0.0
  3
*D14
  1

  0
LINE
  5
6FB1
330
5F9A
100
AcDbEntity
  8
DIM
100
AcDbLine
 10
207.1396932763
 20
411.424773654723
 30
0.0
 11
207.1396932763
 21
423.8292932874454
 31
0.0
  0
LINE
  5
6FB2
330
5F9A
100
AcDbEntity
  8
DIM
100
AcDbLine
 10
281.1396932763
 20
411.424773654723
 30
0.0
 11
281.1396932763
 21
423.8292932874454
 31
0.0
  0
LINE
  5
6FB3
330
5F9A
100
AcDbEntity
  8
DIM
100
AcDbLine
 10
210.6396932763
 20
420.8292932874454
 30
0.0
 11
277.6396932763
 21
420.8292932874454
 31
0.0
  0
SOLID
  5
6FB4
330
5F9A
100
AcDbEntity
  8
DIM
100
AcDbTrace
 10
210.6396932763
 20
421.4126266207787
 30
0.0
 11
210.6396932763
 21
420.245959954112
 31
0.0
 12
207.1396932763
 22
420.8292932874454
 32
0.0
 13
207.1396932763
 23
420.8292932874454
 33
0.0
  0
SOLID
  5
6FB5
330
5F9A
100
AcDbEntity
  8
DIM
100
AcDbTrace
 10
277.6396932763
 20
421.4126266207787
 30
0.0
 11
277.6396932763
 21
420.245959954112
 31
0.0
 12
281.1396932763
 22
420.8292932874454
 32
0.0
 13
281.1396932763
 23
420.8292932874454
 33
0.0
  0
MTEXT
  5
6FB6
330
5F9A
100
AcDbEntity
  8
DIM
100
AcDbMText
 10
244.1396932763
 20
423.8792932874454
 30
0.0
 40
3.5
 41
0.0
 71
     5
 72
     1
  1
\A1;□74
  7
dayus
 73
     1
 44
1.0
1001
ACAD
1000
MTEXTBEGIN
1070
    73
1070
     1
1070
    44
1040
1.0
1070
    74
1070
     0
1000
MTEXTEND
  0
POINT
  5
6FB7
330
5F9A
100
AcDbEntity
  8
Defpoints
 62
     0
100
AcDbPoint
 10
207.1396932763
 20
408.424773654723
 30
0.0
  0
POINT
  5
6FB8
330
5F9A
100
AcDbEntity
  8
Defpoints
 62
     0
100
AcDbPoint
 10
281.1396932763
 20
408.424773654723
 30
0.0
  0
POINT
  5
6FB9
330
5F9A
100
AcDbEntity
  8
Defpoints
 62
     0
100
AcDbPoint
 10
281.1396932763
 20
420.8292932874454
 30
0.0
  0
ENDBLK
  5
5FA5
330
5F9A
100
AcDbEntity
  8
0
100
AcDbBlockEnd
  0
BLOCK
  5
5FB0
330
5FA6
100
AcDbEntity
  8
0
100
AcDbBlockBegin
  2
*D15
 70
     1
 10
0.0
 20
0.0
 30
0.0
  3
*D15
  1

  0
LINE
  5
6FBA
330
5FA6
100
AcDbEntity
  8
DIM
100
AcDbLine
 10
197.1396932763
 20
406.9599068930345
 30
0.0
 11
197.1396932763
 21
434.43088731981
 31
0.0
  0
LINE
  5
6FBB
330
5FA6
100
AcDbEntity
  8
DIM
100
AcDbLine
 10
291.1396932763055
 20
406.959906893028
 30
0.0
 11
291.1396932763055
 21
434.43088731981
 31
0.0
  0
LINE
  5
6FBC
330
5FA6
100
AcDbEntity
  8
DIM
100
AcDbLine
 10
200.6396932763
 20
431.43088731981
 30
0.0
 11
287.6396932763055
 21
431.43088731981
 31
0.0
  0
SOLID
  5
6FBD
330
5FA6
100
AcDbEntity
  8
DIM
100
AcDbTrace
 10
200.6396932763
 20
432.0142206531433
 30
0.0
 11
200.6396932763
 21
430.8475539864766
 31
0.0
 12
197.1396932763
 22
431.43088731981
 32
0.0
 13
197.1396932763
 23
431.43088731981
 33
0.0
  0
SOLID
  5
6FBE
330
5FA6
100
AcDbEntity
  8
DIM
100
AcDbTrace
 10
287.6396932763055
 20
432.0142206531433
 30
0.0
 11
287.6396932763055
 21
430.8475539864766
 31
0.0
 12
291.1396932763055
 22
431.43088731981
 32
0.0
 13
291.1396932763055
 23
431.43088731981
 33
0.0
  0
MTEXT
  5
6FBF
330
5FA6
100
AcDbEntity
  8
DIM
100
AcDbMText
 10
244.1396932763027
 20
434.48088731981
 30
0.0
 40
3.5
 41
0.0
 71
     5
 72
     1
  1
\A1;□94
  7
dayus
 73
     1
 44
1.0
1001
ACAD
1000
MTEXTBEGIN
1070
    73
1070
     1
1070
    44
1040
1.0
1070
    74
1070
     0
1000
MTEXTEND
  0
POINT
  5
6FC0
330
5FA6
100
AcDbEntity
  8
Defpoints
 62
     0
100
AcDbPoint
 10
197.1396932763
 20
403.9599068930344
 30
0.0
  0
POINT
  5
6FC1
330
5FA6
100
AcDbEntity
  8
Defpoints
 62
     0
100
AcDbPoint
 10
291.1396932763055
 20
403.959906893028
 30
0.0
  0
POINT
  5
6FC2
330
5FA6
100
AcDbEntity
  8
Defpoints
 62
     0
100
AcDbPoint
 10
291.1396932763055
 20
431.43088731981
 30
0.0
  0
ENDBLK
  5
5FB1
330
5FA6
100
AcDbEntity
  8
0
100
AcDbBlockEnd
  0
BLOCK
  5
5FBC
330
5FB2
100
AcDbEntity
  8
0
100
AcDbBlockBegin
  2
*D16
 70
     1
 10
0.0
 20
0.0
 30
0.0
  3
*D16
  1

  0
LINE
  5
6FC3
330
5FB2
100
AcDbEntity
  8
DIM
100
AcDbLine
 10
189.1396932763
 20
380.024773654723
 30
0.0
 11
189.1396932763
 21
444.523799761643
 31
0.0
  0
LINE
  5
6FC4
330
5FB2
100
AcDbEntity
  8
DIM
100
AcDbLine
 10
291.1396932763055
 20
406.959906893028
 30
0.0
 11
291.1396932763055
 21
444.523799761643
 31
0.0
  0
LINE
  5
6FC5
330
5FB2
100
AcDbEntity
  8
DIM
100
AcDbLine
 10
192.6396932763
 20
441.523799761643
 30
0.0
 11
287.6396932763055
 21
441.523799761643
 31
0.0
  0
SOLID
  5
6FC6
330
5FB2
100
AcDbEntity
  8
DIM
100
AcDbTrace
 10
192.6396932763
 20
442.1071330949764
 30
0.0
 11
192.6396932763
 21
440.9404664283097
 31
0.0
 12
189.1396932763
 22
441.523799761643
 32
0.0
 13
189.1396932763
 23
441.523799761643
 33
0.0
  0
SOLID
  5
6FC7
330
5FB2
100
AcDbEntity
  8
DIM
100
AcDbTrace
 10
287.6396932763055
 20
442.1071330949764
 30
0.0
 11
287.6396932763055
 21
440.9404664283097
 31
0.0
 12
291.1396932763055
 22
441.523799761643
 32
0.0
 13
291.1396932763055
 23
441.523799761643
 33
0.0
  0
MTEXT
  5
6FC8
330
5FB2
100
AcDbEntity
  8
DIM
100
AcDbMText
 10
240.1396932763027
 20
444.573799761643
 30
0.0
 40
3.5
 41
0.0
 71
     5
 72
     1
  1
\A1;102
  7
dayus
 73
     1
 44
1.0
1001
ACAD
1000
MTEXTBEGIN
1070
    73
1070
     1
1070
    44
1040
1.0
1070
    74
1070
     0
1000
MTEXTEND
  0
POINT
  5
6FC9
330
5FB2
100
AcDbEntity
  8
Defpoints
 62
     0
100
AcDbPoint
 10
189.1396932763
 20
377.0247736547231
 30
0.0
  0
POINT
  5
6FCA
330
5FB2
100
AcDbEntity
  8
Defpoints
 62
     0
100
AcDbPoint
 10
291.1396932763055
 20
403.959906893028
 30
0.0
  0
POINT
  5
6FCB
330
5FB2
100
AcDbEntity
  8
Defpoints
 62
     0
100
AcDbPoint
 10
291.1396932763055
 20
441.523799761643
 30
0.0
  0
ENDBLK
  5
5FBD
330
5FB2
100
AcDbEntity
  8
0
100
AcDbBlockEnd
  0
BLOCK
  5
5FD4
330
5FCA
100
AcDbEntity
  8
0
100
AcDbBlockBegin
  2
*D17
 70
     1
 10
0.0
 20
0.0
 30
0.0
  3
*D17
  1

  0
LINE
  5
6FCC
330
5FCA
100
AcDbEntity
  8
DIM
100
AcDbLine
 10
186.1396932763
 20
377.0247736547231
 30
0.0
 11
171.729931645144
 21
377.0247736547231
 31
0.0
  0
LINE
  5
6FCD
330
5FCA
100
AcDbEntity
  8
DIM
100
AcDbLine
 10
186.1396932763
 20
350.0247736547231
 30
0.0
 11
171.729931645144
 21
350.0247736547231
 31
0.0
  0
LINE
  5
6FCE
330
5FCA
100
AcDbEntity
  8
DIM
100
AcDbLine
 10
174.729931645144
 20
373.524773654723
 30
0.0
 11
174.729931645144
 21
353.524773654723
 31
0.0
  0
SOLID
  5
6FCF
330
5FCA
100
AcDbEntity
  8
DIM
100
AcDbTrace
 10
174.1465983118106
 20
373.524773654723
 30
0.0
 11
175.3132649784773
 21
373.524773654723
 31
0.0
 12
174.729931645144
 22
377.0247736547231
 32
0.0
 13
174.729931645144
 23
377.0247736547231
 33
0.0
  0
SOLID
  5
6FD0
330
5FCA
100
AcDbEntity
  8
DIM
100
AcDbTrace
 10
174.1465983118106
 20
353.524773654723
 30
0.0
 11
175.3132649784773
 21
353.524773654723
 31
0.0
 12
174.729931645144
 22
350.0247736547231
 32
0.0
 13
174.729931645144
 23
350.0247736547231
 33
0.0
  0
MTEXT
  5
6FD1
330
5FCA
100
AcDbEntity
  8
DIM
100
AcDbMText
 10
171.6799316451439
 20
363.5247736547231
 30
0.0
 40
3.5
 41
0.0
 71
     5
 72
     1
  1
\A1;27
  7
dayus
 11
0.0000000000000001
 21
1.0
 31
0.0
 73
     1
 44
1.0
1001
ACAD
1000
MTEXTBEGIN
1070
    73
1070
     1
1070
    44
1040
1.0
1070
    74
1070
     0
1000
MTEXTEND
  0
POINT
  5
6FD2
330
5FCA
100
AcDbEntity
  8
Defpoints
 62
     0
100
AcDbPoint
 10
189.1396932763
 20
377.0247736547231
 30
0.0
  0
POINT
  5
6FD3
330
5FCA
100
AcDbEntity
  8
Defpoints
 62
     0
100
AcDbPoint
 10
189.1396932763
 20
350.0247736547231
 30
0.0
  0
POINT
  5
6FD4
330
5FCA
100
AcDbEntity
  8
Defpoints
 62
     0
100
AcDbPoint
 10
174.729931645144
 20
350.0247736547231
 30
0.0
  0
ENDBLK
  5
5FD5
330
5FCA
100
AcDbEntity
  8
0
100
AcDbBlockEnd
  0
BLOCK
  5
5FE0
330
5FD6
100
AcDbEntity
  8
0
100
AcDbBlockBegin
  2
*D18
 70
     1
 10
0.0
 20
0.0
 30
0.0
  3
*D18
  1

  0
LINE
  5
70EE
330
5FD6
100
AcDbEntity
  8
DIM
100
AcDbLine
 10
61.60500950808978
 20
180.8995571206589
 30
0.0
 11
61.60500950808978
 21
203.7569163749417
 31
0.0
  0
LINE
  5
70EF
330
5FD6
100
AcDbEntity
  8
DIM
100
AcDbLine
 10
72.60500950808978
 20
144.8995571206591
 30
0.0
 11
72.60500950808978
 21
203.7569163749417
 31
0.0
  0
LINE
  5
70F0
330
5FD6
100
AcDbEntity
  8
DIM
100
AcDbLine
 10
65.10500950808978
 20
200.7569163749417
 30
0.0
 11
69.10500950808978
 21
200.7569163749417
 31
0.0
  0
SOLID
  5
70F1
330
5FD6
100
AcDbEntity
  8
DIM
100
AcDbTrace
 10
65.10500950808978
 20
201.340249708275
 30
0.0
 11
65.10500950808978
 21
200.1735830416083
 31
0.0
 12
61.60500950808978
 22
200.7569163749417
 32
0.0
 13
61.60500950808978
 23
200.7569163749417
 33
0.0
  0
SOLID
  5
70F2
330
5FD6
100
AcDbEntity
  8
DIM
100
AcDbTrace
 10
69.10500950808978
 20
201.340249708275
 30
0.0
 11
69.10500950808978
 21
200.1735830416083
 31
0.0
 12
72.60500950808978
 22
200.7569163749417
 32
0.0
 13
72.60500950808978
 23
200.7569163749417
 33
0.0
  0
MTEXT
  5
70F3
330
5FD6
100
AcDbEntity
  8
DIM
100
AcDbMText
 10
67.10500950808977
 20
203.8069163749417
 30
0.0
 40
3.5
 41
0.0
 71
     5
 72
     1
  1
\A1;11
  7
dayus
 73
     1
 44
1.0
1001
ACAD
1000
MTEXTBEGIN
1070
    73
1070
     1
1070
    44
1040
1.0
1070
    74
1070
     0
1000
MTEXTEND
  0
POINT
  5
70F4
330
5FD6
100
AcDbEntity
  8
Defpoints
 62
     0
100
AcDbPoint
 10
61.60500950808978
 20
177.8995571206589
 30
0.0
  0
POINT
  5
70F5
330
5FD6
100
AcDbEntity
  8
Defpoints
 62
     0
100
AcDbPoint
 10
72.60500950808978
 20
141.8995571206591
 30
0.0
  0
POINT
  5
70F6
330
5FD6
100
AcDbEntity
  8
Defpoints
 62
     0
100
AcDbPoint
 10
72.60500950808978
 20
200.7569163749417
 30
0.0
  0
ENDBLK
  5
5FE1
330
5FD6
100
AcDbEntity
  8
0
100
AcDbBlockEnd
  0
BLOCK
  5
5FEE
330
5FE2
100
AcDbEntity
  8
0
100
AcDbBlockBegin
  2
*D19
 70
     1
 10
0.0
 20
0.0
 30
0.0
  3
*D19
  1

  0
LINE
  5
70F7
330
5FE2
100
AcDbEntity
  8
DIM
100
AcDbLine
 10
61.60500950808978
 20
180.8995571206589
 30
0.0
 11
61.60500950808978
 21
192.3552927794164
 31
0.0
  0
LINE
  5
70F8
330
5FE2
100
AcDbEntity
  8
DIM
100
AcDbLine
 10
66.60500950808978
 20
154.8995571206591
 30
0.0
 11
66.60500950808978
 21
192.3552927794164
 31
0.0
  0
LINE
  5
70F9
330
5FE2
100
AcDbEntity
  8
DIM
100
AcDbLine
 10
58.10500950808978
 20
189.3552927794164
 30
0.0
 11
54.60500950808977
 21
189.3552927794164
 31
0.0
  0
LINE
  5
70FA
330
5FE2
100
AcDbEntity
  8
DIM
100
AcDbLine
 10
70.10500950808978
 20
189.3552927794164
 30
0.0
 11
73.60500950808978
 21
189.3552927794164
 31
0.0
  0
LINE
  5
70FB
330
5FE2
100
AcDbEntity
  8
DIM
100
AcDbLine
 10
61.60500950808978
 20
189.3552927794164
 30
0.0
 11
66.60500950808978
 21
189.3552927794164
 31
0.0
  0
SOLID
  5
70FC
330
5FE2
100
AcDbEntity
  8
DIM
100
AcDbTrace
 10
58.10500950808978
 20
189.9386261127497
 30
0.0
 11
58.10500950808978
 21
188.7719594460831
 31
0.0
 12
61.60500950808978
 22
189.3552927794164
 32
0.0
 13
61.60500950808978
 23
189.3552927794164
 33
0.0
  0
SOLID
  5
70FD
330
5FE2
100
AcDbEntity
  8
DIM
100
AcDbTrace
 10
70.10500950808978
 20
189.9386261127497
 30
0.0
 11
70.10500950808978
 21
188.7719594460831
 31
0.0
 12
66.60500950808978
 22
189.3552927794164
 32
0.0
 13
66.60500950808978
 23
189.3552927794164
 33
0.0
  0
MTEXT
  5
70FE
330
5FE2
100
AcDbEntity
  8
DIM
100
AcDbMText
 10
64.10500950808978
 20
192.4052927794164
 30
0.0
 40
3.5
 41
0.0
 71
     5
 72
     1
  1
\A1;5
  7
dayus
 73
     1
 44
1.0
1001
ACAD
1000
MTEXTBEGIN
1070
    73
1070
     1
1070
    44
1040
1.0
1070
    74
1070
     0
1000
MTEXTEND
  0
POINT
  5
70FF
330
5FE2
100
AcDbEntity
  8
Defpoints
 62
     0
100
AcDbPoint
 10
61.60500950808978
 20
177.8995571206589
 30
0.0
  0
POINT
  5
7100
330
5FE2
100
AcDbEntity
  8
Defpoints
 62
     0
100
AcDbPoint
 10
66.60500950808978
 20
151.899557120659
 30
0.0
  0
POINT
  5
7101
330
5FE2
100
AcDbEntity
  8
Defpoints
 62
     0
100
AcDbPoint
 10
66.60500950808978
 20
189.3552927794164
 30
0.0
  0
ENDBLK
  5
5FEF
330
5FE2
100
AcDbEntity
  8
0
100
AcDbBlockEnd
  0
BLOCK
  5
5FFA
330
5FF0
100
AcDbEntity
  8
0
100
AcDbBlockBegin
  2
*D20
 70
     1
 10
0.0
 20
0.0
 30
0.0
  3
*D20
  1

  0
LINE
  5
728C
330
5FF0
100
AcDbEntity
  8
DIM
100
AcDbLine
 10
15.60500950808978
 20
180.8995571206589
 30
0.0
 11
15.60500950808978
 21
192.3552927794164
 31
0.0
  0
LINE
  5
728D
330
5FF0
100
AcDbEntity
  8
DIM
100
AcDbLine
 10
28.60500950808978
 20
143.7609090691427
 30
0.0
 11
28.60500950808978
 21
192.3552927794164
 31
0.0
  0
LINE
  5
728E
330
5FF0
100
AcDbEntity
  8
DIM
100
AcDbLine
 10
19.10500950808978
 20
189.3552927794164
 30
0.0
 11
25.10500950808979
 21
189.3552927794164
 31
0.0
  0
SOLID
  5
728F
330
5FF0
100
AcDbEntity
  8
DIM
100
AcDbTrace
 10
19.10500950808978
 20
189.9386261127497
 30
0.0
 11
19.10500950808978
 21
188.7719594460831
 31
0.0
 12
15.60500950808978
 22
189.3552927794164
 32
0.0
 13
15.60500950808978
 23
189.3552927794164
 33
0.0
  0
SOLID
  5
7290
330
5FF0
100
AcDbEntity
  8
DIM
100
AcDbTrace
 10
25.10500950808979
 20
189.9386261127497
 30
0.0
 11
25.10500950808979
 21
188.7719594460831
 31
0.0
 12
28.60500950808978
 22
189.3552927794164
 32
0.0
 13
28.60500950808978
 23
189.3552927794164
 33
0.0
  0
MTEXT
  5
7291
330
5FF0
100
AcDbEntity
  8
DIM
100
AcDbMText
 10
21.78920682161427
 20
192.4052927794164
 30
0.0
 40
3.5
 41
0.0
 71
     5
 72
     1
  1
\A1;13
  7
dayus
 73
     1
 44
1.0
1001
ACAD
1000
MTEXTBEGIN
1070
    73
1070
     1
1070
    44
1040
1.0
1070
    74
1070
     0
1000
MTEXTEND
  0
POINT
  5
7292
330
5FF0
100
AcDbEntity
  8
Defpoints
 62
     0
100
AcDbPoint
 10
15.60500950808978
 20
177.8995571206589
 30
0.0
  0
POINT
  5
7293
330
5FF0
100
AcDbEntity
  8
Defpoints
 62
     0
100
AcDbPoint
 10
28.60500950808978
 20
140.7609090691427
 30
0.0
  0
POINT
  5
7294
330
5FF0
100
AcDbEntity
  8
Defpoints
 62
     0
100
AcDbPoint
 10
28.60500950808978
 20
189.3552927794164
 30
0.0
  0
ENDBLK
  5
5FFB
330
5FF0
100
AcDbEntity
  8
0
100
AcDbBlockEnd
  0
BLOCK
  5
6006
330
5FFC
100
AcDbEntity
  8
0
100
AcDbBlockBegin
  2
*D21
 70
     1
 10
0.0
 20
0.0
 30
0.0
  3
*D21
  1

  0
LINE
  5
71CB
330
5FFC
100
AcDbEntity
  8
DIM
100
AcDbLine
 10
48.60500950808978
 20
143.7609090691427
 30
0.0
 11
48.60500950808978
 21
192.3552927794164
 31
0.0
  0
LINE
  5
71CC
330
5FFC
100
AcDbEntity
  8
DIM
100
AcDbLine
 10
61.60500950808978
 20
180.8995571206589
 30
0.0
 11
61.60500950808978
 21
192.3552927794164
 31
0.0
  0
LINE
  5
71CD
330
5FFC
100
AcDbEntity
  8
DIM
100
AcDbLine
 10
52.10500950808977
 20
189.3552927794164
 30
0.0
 11
58.10500950808978
 21
189.3552927794164
 31
0.0
  0
SOLID
  5
71CE
330
5FFC
100
AcDbEntity
  8
DIM
100
AcDbTrace
 10
52.10500950808977
 20
189.9386261127497
 30
0.0
 11
52.10500950808977
 21
188.7719594460831
 31
0.0
 12
48.60500950808978
 22
189.3552927794164
 32
0.0
 13
48.60500950808978
 23
189.3552927794164
 33
0.0
  0
SOLID
  5
71CF
330
5FFC
100
AcDbEntity
  8
DIM
100
AcDbTrace
 10
58.10500950808978
 20
189.9386261127497
 30
0.0
 11
58.10500950808978
 21
188.7719594460831
 31
0.0
 12
61.60500950808978
 22
189.3552927794164
 32
0.0
 13
61.60500950808978
 23
189.3552927794164
 33
0.0
  0
MTEXT
  5
71D0
330
5FFC
100
AcDbEntity
  8
DIM
100
AcDbMText
 10
55.45297175028759
 20
192.4052927794164
 30
0.0
 40
3.5
 41
0.0
 71
     5
 72
     1
  1
\A1;13
  7
dayus
 73
     1
 44
1.0
1001
ACAD
1000
MTEXTBEGIN
1070
    73
1070
     1
1070
    44
1040
1.0
1070
    74
1070
     0
1000
MTEXTEND
  0
POINT
  5
71D1
330
5FFC
100
AcDbEntity
  8
Defpoints
 62
     0
100
AcDbPoint
 10
48.60500950808978
 20
140.7609090691427
 30
0.0
  0
POINT
  5
71D2
330
5FFC
100
AcDbEntity
  8
Defpoints
 62
     0
100
AcDbPoint
 10
61.60500950808978
 20
177.8995571206589
 30
0.0
  0
POINT
  5
71D3
330
5FFC
100
AcDbEntity
  8
Defpoints
 62
     0
100
AcDbPoint
 10
61.60500950808978
 20
189.3552927794164
 30
0.0
  0
ENDBLK
  5
6007
330
5FFC
100
AcDbEntity
  8
0
100
AcDbBlockEnd
  0
BLOCK
  5
6012
330
6008
100
AcDbEntity
  8
0
100
AcDbBlockBegin
  2
*D22
 70
     1
 10
0.0
 20
0.0
 30
0.0
  3
*D22
  1

  0
LINE
  5
7114
330
6008
100
AcDbEntity
  8
DIM
100
AcDbLine
 10
15.60500950808978
 20
180.8995571206589
 30
0.0
 11
15.60500950808978
 21
203.7569163749417
 31
0.0
  0
LINE
  5
7115
330
6008
100
AcDbEntity
  8
DIM
100
AcDbLine
 10
61.60500950808978
 20
180.8995571206589
 30
0.0
 11
61.60500950808978
 21
203.7569163749417
 31
0.0
  0
LINE
  5
7116
330
6008
100
AcDbEntity
  8
DIM
100
AcDbLine
 10
19.10500950808978
 20
200.7569163749417
 30
0.0
 11
58.10500950808978
 21
200.7569163749417
 31
0.0
  0
SOLID
  5
7117
330
6008
100
AcDbEntity
  8
DIM
100
AcDbTrace
 10
19.10500950808978
 20
201.340249708275
 30
0.0
 11
19.10500950808978
 21
200.1735830416083
 31
0.0
 12
15.60500950808978
 22
200.7569163749417
 32
0.0
 13
15.60500950808978
 23
200.7569163749417
 33
0.0
  0
SOLID
  5
7118
330
6008
100
AcDbEntity
  8
DIM
100
AcDbTrace
 10
58.10500950808978
 20
201.340249708275
 30
0.0
 11
58.10500950808978
 21
200.1735830416083
 31
0.0
 12
61.60500950808978
 22
200.7569163749417
 32
0.0
 13
61.60500950808978
 23
200.7569163749417
 33
0.0
  0
MTEXT
  5
7119
330
6008
100
AcDbEntity
  8
DIM
100
AcDbMText
 10
38.60500950808978
 20
203.8069163749417
 30
0.0
 40
3.5
 41
0.0
 71
     5
 72
     1
  1
\A1;41+stroke=S
  7
dayus
 73
     1
 44
1.0
1001
ACAD
1000
MTEXTBEGIN
1070
    73
1070
     1
1070
    44
1040
1.0
1070
    74
1070
     0
1000
MTEXTEND
  0
POINT
  5
711A
330
6008
100
AcDbEntity
  8
Defpoints
 62
     0
100
AcDbPoint
 10
15.60500950808978
 20
177.8995571206589
 30
0.0
  0
POINT
  5
711B
330
6008
100
AcDbEntity
  8
Defpoints
 62
     0
100
AcDbPoint
 10
61.60500950808978
 20
177.8995571206589
 30
0.0
  0
POINT
  5
711C
330
6008
100
AcDbEntity
  8
Defpoints
 62
     0
100
AcDbPoint
 10
61.60500950808978
 20
200.7569163749417
 30
0.0
  0
ENDBLK
  5
6013
330
6008
100
AcDbEntity
  8
0
100
AcDbBlockEnd
  0
BLOCK
  5
601E
330
6014
100
AcDbEntity
  8
0
100
AcDbBlockBegin
  2
*D23
 70
     1
 10
0.0
 20
0.0
 30
0.0
  3
*D23
  1

  0
LINE
  5
711D
330
6014
100
AcDbEntity
  8
DIM
100
AcDbLine
 10
15.60500950808978
 20
180.8995571206588
 30
0.0
 11
15.60500950808978
 21
213.1239473852312
 31
0.0
  0
LINE
  5
711E
330
6014
100
AcDbEntity
  8
DIM
100
AcDbLine
 10
72.60500950808978
 20
144.8995571206591
 30
0.0
 11
72.60500950808978
 21
213.1239473852312
 31
0.0
  0
LINE
  5
711F
330
6014
100
AcDbEntity
  8
DIM
100
AcDbLine
 10
19.10500950808978
 20
210.1239473852313
 30
0.0
 11
69.10500950808978
 21
210.1239473852313
 31
0.0
  0
SOLID
  5
7120
330
6014
100
AcDbEntity
  8
DIM
100
AcDbTrace
 10
19.10500950808978
 20
210.7072807185646
 30
0.0
 11
19.10500950808978
 21
209.5406140518979
 31
0.0
 12
15.60500950808978
 22
210.1239473852313
 32
0.0
 13
15.60500950808978
 23
210.1239473852313
 33
0.0
  0
SOLID
  5
7121
330
6014
100
AcDbEntity
  8
DIM
100
AcDbTrace
 10
69.10500950808978
 20
210.7072807185646
 30
0.0
 11
69.10500950808978
 21
209.5406140518979
 31
0.0
 12
72.60500950808978
 22
210.1239473852313
 32
0.0
 13
72.60500950808978
 23
210.1239473852313
 33
0.0
  0
MTEXT
  5
7122
330
6014
100
AcDbEntity
  8
DIM
100
AcDbMText
 10
44.10500950808978
 20
213.1739473852312
 30
0.0
 40
3.5
 41
0.0
 71
     5
 72
     1
  1
\A1;52+stroke=ZZ
  7
dayus
 73
     1
 44
1.0
1001
ACAD
1000
MTEXTBEGIN
1070
    73
1070
     1
1070
    44
1040
1.0
1070
    74
1070
     0
1000
MTEXTEND
  0
POINT
  5
7123
330
6014
100
AcDbEntity
  8
Defpoints
 62
     0
100
AcDbPoint
 10
15.60500950808978
 20
177.8995571206588
 30
0.0
  0
POINT
  5
7124
330
6014
100
AcDbEntity
  8
Defpoints
 62
     0
100
AcDbPoint
 10
72.60500950808978
 20
141.8995571206591
 30
0.0
  0
POINT
  5
7125
330
6014
100
AcDbEntity
  8
Defpoints
 62
     0
100
AcDbPoint
 10
72.60500950808978
 20
210.1239473852313
 30
0.0
  0
ENDBLK
  5
601F
330
6014
100
AcDbEntity
  8
0
100
AcDbBlockEnd
  0
BLOCK
  5
602A
330
6020
100
AcDbEntity
  8
0
100
AcDbBlockBegin
  2
*D24
 70
     1
 10
0.0
 20
0.0
 30
0.0
  3
*D24
  1

  0
LINE
  5
7126
330
6020
100
AcDbEntity
  8
DIM
100
AcDbLine
 10
70.10500950808978
 20
118.3995571206591
 30
0.0
 11
92.22294666037873
 21
118.3995571206591
 31
0.0
  0
LINE
  5
7127
330
6020
100
AcDbEntity
  8
DIM
100
AcDbLine
 10
70.10500950808978
 20
143.3995571206591
 30
0.0
 11
92.22294666037873
 21
143.3995571206591
 31
0.0
  0
LINE
  5
7128
330
6020
100
AcDbEntity
  8
DIM
100
AcDbLine
 10
89.22294666037874
 20
121.8995571206591
 30
0.0
 11
89.22294666037874
 21
139.8995571206591
 31
0.0
  0
SOLID
  5
7129
330
6020
100
AcDbEntity
  8
DIM
100
AcDbTrace
 10
88.63961332704541
 20
121.8995571206591
 30
0.0
 11
89.80627999371206
 21
121.8995571206591
 31
0.0
 12
89.22294666037874
 22
118.3995571206591
 32
0.0
 13
89.22294666037874
 23
118.3995571206591
 33
0.0
  0
SOLID
  5
712A
330
6020
100
AcDbEntity
  8
DIM
100
AcDbTrace
 10
88.63961332704541
 20
139.8995571206591
 30
0.0
 11
89.80627999371206
 21
139.8995571206591
 31
0.0
 12
89.22294666037874
 22
143.3995571206591
 32
0.0
 13
89.22294666037874
 23
143.3995571206591
 33
0.0
  0
MTEXT
  5
712B
330
6020
100
AcDbEntity
  8
DIM
100
AcDbMText
 10
86.17294666037873
 20
130.8995571206592
 30
0.0
 40
3.5
 41
0.0
 71
     5
 72
     1
  1
\A1;%%c25
  7
dayus
 11
0.0000000000000001
 21
1.0
 31
0.0
 73
     1
 44
1.0
1001
ACAD
1000
MTEXTBEGIN
1070
    73
1070
     1
1070
    44
1040
1.0
1070
    74
1070
     0
1000
MTEXTEND
  0
POINT
  5
712C
330
6020
100
AcDbEntity
  8
Defpoints
 62
     0
100
AcDbPoint
 10
67.10500950808977
 20
118.3995571206591
 30
0.0
  0
POINT
  5
712D
330
6020
100
AcDbEntity
  8
Defpoints
 62
     0
100
AcDbPoint
 10
67.10500950808977
 20
143.3995571206591
 30
0.0
  0
POINT
  5
712E
330
6020
100
AcDbEntity
  8
Defpoints
 62
     0
100
AcDbPoint
 10
89.22294666037874
 20
143.3995571206591
 30
0.0
  0
ENDBLK
  5
602B
330
6020
100
AcDbEntity
  8
0
100
AcDbBlockEnd
  0
BLOCK
  5
6036
330
602C
100
AcDbEntity
  8
0
100
AcDbBlockBegin
  2
*D25
 70
     1
 10
0.0
 20
0.0
 30
0.0
  3
*D25
  1

  0
LINE
  5
712F
330
602C
100
AcDbEntity
  8
DIM
100
AcDbLine
 10
68.10500950808978
 20
108.3995571206591
 30
0.0
 11
104.0082171589749
 21
108.3995571206591
 31
0.0
  0
LINE
  5
7130
330
602C
100
AcDbEntity
  8
DIM
100
AcDbLine
 10
68.10500950808978
 20
153.3995571206591
 30
0.0
 11
104.0082171589749
 21
153.3995571206591
 31
0.0
  0
LINE
  5
7131
330
602C
100
AcDbEntity
  8
DIM
100
AcDbLine
 10
101.0082171589749
 20
111.8995571206591
 30
0.0
 11
101.0082171589749
 21
149.8995571206591
 31
0.0
  0
SOLID
  5
7132
330
602C
100
AcDbEntity
  8
DIM
100
AcDbTrace
 10
100.4248838256416
 20
111.8995571206591
 30
0.0
 11
101.5915504923083
 21
111.8995571206591
 31
0.0
 12
101.0082171589749
 22
108.3995571206591
 32
0.0
 13
101.0082171589749
 23
108.3995571206591
 33
0.0
  0
SOLID
  5
7133
330
602C
100
AcDbEntity
  8
DIM
100
AcDbTrace
 10
100.4248838256416
 20
149.8995571206591
 30
0.0
 11
101.5915504923083
 21
149.8995571206591
 31
0.0
 12
101.0082171589749
 22
153.3995571206591
 32
0.0
 13
101.0082171589749
 23
153.3995571206591
 33
0.0
  0
MTEXT
  5
7134
330
602C
100
AcDbEntity
  8
DIM
100
AcDbMText
 10
96.80905049230828
 20
130.8995571206591
 30
0.0
 40
3.5
 41
0.0
 71
     5
 72
     1
  1
\A1;%%c45{}{\H0.71x;\C3;\S 0^ -0.05;}
  7
dayus
 11
0.0000000000000001
 21
1.0
 31
0.0
 73
     1
 44
1.0
1001
ACAD
1000
MTEXTBEGIN
1070
    73
1070
     1
1070
    44
1040
1.0
1070
    74
1070
     0
1000
MTEXTEND
  0
POINT
  5
7135
330
602C
100
AcDbEntity
  8
Defpoints
 62
     0
100
AcDbPoint
 10
65.10500950808978
 20
108.3995571206591
 30
0.0
  0
POINT
  5
7136
330
602C
100
AcDbEntity
  8
Defpoints
 62
     0
100
AcDbPoint
 10
65.10500950808978
 20
153.3995571206591
 30
0.0
  0
POINT
  5
7137
330
602C
100
AcDbEntity
  8
Defpoints
 62
     0
100
AcDbPoint
 10
101.0082171589749
 20
153.3995571206591
 30
0.0
  0
ENDBLK
  5
6037
330
602C
100
AcDbEntity
  8
0
100
AcDbBlockEnd
  0
BLOCK
  5
6044
330
6038
100
AcDbEntity
  8
0
100
AcDbBlockBegin
  2
*D26
 70
     1
 10
0.0
 20
0.0
 30
0.0
  3
*D26
  1

  0
LINE
  5
7138
330
6038
100
AcDbEntity
  8
DIM
100
AcDbLine
 10
68.60500950808978
 20
121.9623860771401
 30
0.0
 11
68.60500950808978
 21
92.52267676934016
 31
0.0
  0
LINE
  5
7139
330
6038
100
AcDbEntity
  8
DIM
100
AcDbLine
 10
72.60500950808978
 20
116.8995571206593
 30
0.0
 11
72.60500950808978
 21
92.52267676934016
 31
0.0
  0
LINE
  5
713A
330
6038
100
AcDbEntity
  8
DIM
100
AcDbLine
 10
65.10500950808978
 20
95.52267676934016
 30
0.0
 11
61.60500950808978
 21
95.52267676934016
 31
0.0
  0
LINE
  5
713B
330
6038
100
AcDbEntity
  8
DIM
100
AcDbLine
 10
76.10500950808978
 20
95.52267676934016
 30
0.0
 11
79.60500950808977
 21
95.52267676934016
 31
0.0
  0
LINE
  5
713C
330
6038
100
AcDbEntity
  8
DIM
100
AcDbLine
 10
68.60500950808978
 20
95.52267676934016
 30
0.0
 11
72.60500950808978
 21
95.52267676934016
 31
0.0
  0
SOLID
  5
713D
330
6038
100
AcDbEntity
  8
DIM
100
AcDbTrace
 10
65.10500950808978
 20
96.1060101026735
 30
0.0
 11
65.10500950808978
 21
94.93934343600683
 31
0.0
 12
68.60500950808978
 22
95.52267676934016
 32
0.0
 13
68.60500950808978
 23
95.52267676934016
 33
0.0
  0
SOLID
  5
713E
330
6038
100
AcDbEntity
  8
DIM
100
AcDbTrace
 10
76.10500950808978
 20
96.1060101026735
 30
0.0
 11
76.10500950808978
 21
94.93934343600683
 31
0.0
 12
72.60500950808978
 22
95.52267676934016
 32
0.0
 13
72.60500950808978
 23
95.52267676934016
 33
0.0
  0
MTEXT
  5
713F
330
6038
100
AcDbEntity
  8
DIM
100
AcDbMText
 10
70.60500950808978
 20
98.57267676934016
 30
0.0
 40
3.5
 41
0.0
 71
     5
 72
     1
  1
\A1;4
  7
dayus
 73
     1
 44
1.0
1001
ACAD
1000
MTEXTBEGIN
1070
    73
1070
     1
1070
    44
1040
1.0
1070
    74
1070
     0
1000
MTEXTEND
  0
POINT
  5
7140
330
6038
100
AcDbEntity
  8
Defpoints
 62
     0
100
AcDbPoint
 10
68.60500950808978
 20
124.9623860771401
 30
0.0
  0
POINT
  5
7141
330
6038
100
AcDbEntity
  8
Defpoints
 62
     0
100
AcDbPoint
 10
72.60500950808978
 20
119.8995571206593
 30
0.0
  0
POINT
  5
7142
330
6038
100
AcDbEntity
  8
Defpoints
 62
     0
100
AcDbPoint
 10
72.60500950808978
 20
95.52267676934016
 30
0.0
  0
ENDBLK
  5
6045
330
6038
100
AcDbEntity
  8
0
100
AcDbBlockEnd
  0
BLOCK
  5
6050
330
6046
100
AcDbEntity
  8
0
100
AcDbBlockBegin
  2
*D27
 70
     1
 10
0.0
 20
0.0
 30
0.0
  3
*D27
  1

  0
LINE
  5
6FD5
330
6046
100
AcDbEntity
  8
DIM
100
AcDbLine
 10
207.1396932763
 20
411.424773654723
 30
0.0
 11
207.1396932763
 21
423.8292932874454
 31
0.0
  0
LINE
  5
6FD6
330
6046
100
AcDbEntity
  8
DIM
100
AcDbLine
 10
281.1396932763
 20
411.424773654723
 30
0.0
 11
281.1396932763
 21
423.8292932874454
 31
0.0
  0
LINE
  5
6FD7
330
6046
100
AcDbEntity
  8
DIM
100
AcDbLine
 10
210.6396932763
 20
420.8292932874454
 30
0.0
 11
277.6396932763
 21
420.8292932874454
 31
0.0
  0
SOLID
  5
6FD8
330
6046
100
AcDbEntity
  8
DIM
100
AcDbTrace
 10
210.6396932763
 20
421.4126266207787
 30
0.0
 11
210.6396932763
 21
420.245959954112
 31
0.0
 12
207.1396932763
 22
420.8292932874454
 32
0.0
 13
207.1396932763
 23
420.8292932874454
 33
0.0
  0
SOLID
  5
6FD9
330
6046
100
AcDbEntity
  8
DIM
100
AcDbTrace
 10
277.6396932763
 20
421.4126266207787
 30
0.0
 11
277.6396932763
 21
420.245959954112
 31
0.0
 12
281.1396932763
 22
420.8292932874454
 32
0.0
 13
281.1396932763
 23
420.8292932874454
 33
0.0
  0
MTEXT
  5
6FDA
330
6046
100
AcDbEntity
  8
DIM
100
AcDbMText
 10
244.1396932763
 20
423.8792932874454
 30
0.0
 40
3.5
 41
0.0
 71
     5
 72
     1
  1
\A1;□74
  7
dayus
 73
     1
 44
1.0
1001
ACAD
1000
MTEXTBEGIN
1070
    73
1070
     1
1070
    44
1040
1.0
1070
    74
1070
     0
1000
MTEXTEND
  0
POINT
  5
6FDB
330
6046
100
AcDbEntity
  8
Defpoints
 62
     0
100
AcDbPoint
 10
207.1396932763
 20
408.424773654723
 30
0.0
  0
POINT
  5
6FDC
330
6046
100
AcDbEntity
  8
Defpoints
 62
     0
100
AcDbPoint
 10
281.1396932763
 20
408.424773654723
 30
0.0
  0
POINT
  5
6FDD
330
6046
100
AcDbEntity
  8
Defpoints
 62
     0
100
AcDbPoint
 10
281.1396932763
 20
420.8292932874454
 30
0.0
  0
ENDBLK
  5
6051
330
6046
100
AcDbEntity
  8
0
100
AcDbBlockEnd
  0
BLOCK
  5
605C
330
6052
100
AcDbEntity
  8
0
100
AcDbBlockBegin
  2
*D28
 70
     1
 10
0.0
 20
0.0
 30
0.0
  3
*D28
  1

  0
LINE
  5
6FDE
330
6052
100
AcDbEntity
  8
DIM
100
AcDbLine
 10
197.1396932763
 20
406.9599068930345
 30
0.0
 11
197.1396932763
 21
434.43088731981
 31
0.0
  0
LINE
  5
6FDF
330
6052
100
AcDbEntity
  8
DIM
100
AcDbLine
 10
291.1396932763055
 20
406.959906893028
 30
0.0
 11
291.1396932763055
 21
434.43088731981
 31
0.0
  0
LINE
  5
6FE0
330
6052
100
AcDbEntity
  8
DIM
100
AcDbLine
 10
200.6396932763
 20
431.43088731981
 30
0.0
 11
287.6396932763055
 21
431.43088731981
 31
0.0
  0
SOLID
  5
6FE1
330
6052
100
AcDbEntity
  8
DIM
100
AcDbTrace
 10
200.6396932763
 20
432.0142206531433
 30
0.0
 11
200.6396932763
 21
430.8475539864766
 31
0.0
 12
197.1396932763
 22
431.43088731981
 32
0.0
 13
197.1396932763
 23
431.43088731981
 33
0.0
  0
SOLID
  5
6FE2
330
6052
100
AcDbEntity
  8
DIM
100
AcDbTrace
 10
287.6396932763055
 20
432.0142206531433
 30
0.0
 11
287.6396932763055
 21
430.8475539864766
 31
0.0
 12
291.1396932763055
 22
431.43088731981
 32
0.0
 13
291.1396932763055
 23
431.43088731981
 33
0.0
  0
MTEXT
  5
6FE3
330
6052
100
AcDbEntity
  8
DIM
100
AcDbMText
 10
244.1396932763027
 20
434.48088731981
 30
0.0
 40
3.5
 41
0.0
 71
     5
 72
     1
  1
\A1;□94
  7
dayus
 73
     1
 44
1.0
1001
ACAD
1000
MTEXTBEGIN
1070
    73
1070
     1
1070
    44
1040
1.0
1070
    74
1070
     0
1000
MTEXTEND
  0
POINT
  5
6FE4
330
6052
100
AcDbEntity
  8
Defpoints
 62
     0
100
AcDbPoint
 10
197.1396932763
 20
403.9599068930344
 30
0.0
  0
POINT
  5
6FE5
330
6052
100
AcDbEntity
  8
Defpoints
 62
     0
100
AcDbPoint
 10
291.1396932763055
 20
403.959906893028
 30
0.0
  0
POINT
  5
6FE6
330
6052
100
AcDbEntity
  8
Defpoints
 62
     0
100
AcDbPoint
 10
291.1396932763055
 20
431.43088731981
 30
0.0
  0
ENDBLK
  5
605D
330
6052
100
AcDbEntity
  8
0
100
AcDbBlockEnd
  0
BLOCK
  5
6068
330
605E
100
AcDbEntity
  8
0
100
AcDbBlockBegin
  2
*D29
 70
     1
 10
0.0
 20
0.0
 30
0.0
  3
*D29
  1

  0
LINE
  5
6FE7
330
605E
100
AcDbEntity
  8
DIM
100
AcDbLine
 10
189.1396932763
 20
380.024773654723
 30
0.0
 11
189.1396932763
 21
444.523799761643
 31
0.0
  0
LINE
  5
6FE8
330
605E
100
AcDbEntity
  8
DIM
100
AcDbLine
 10
291.1396932763055
 20
406.959906893028
 30
0.0
 11
291.1396932763055
 21
444.523799761643
 31
0.0
  0
LINE
  5
6FE9
330
605E
100
AcDbEntity
  8
DIM
100
AcDbLine
 10
192.6396932763
 20
441.523799761643
 30
0.0
 11
287.6396932763055
 21
441.523799761643
 31
0.0
  0
SOLID
  5
6FEA
330
605E
100
AcDbEntity
  8
DIM
100
AcDbTrace
 10
192.6396932763
 20
442.1071330949764
 30
0.0
 11
192.6396932763
 21
440.9404664283097
 31
0.0
 12
189.1396932763
 22
441.523799761643
 32
0.0
 13
189.1396932763
 23
441.523799761643
 33
0.0
  0
SOLID
  5
6FEB
330
605E
100
AcDbEntity
  8
DIM
100
AcDbTrace
 10
287.6396932763055
 20
442.1071330949764
 30
0.0
 11
287.6396932763055
 21
440.9404664283097
 31
0.0
 12
291.1396932763055
 22
441.523799761643
 32
0.0
 13
291.1396932763055
 23
441.523799761643
 33
0.0
  0
MTEXT
  5
6FEC
330
605E
100
AcDbEntity
  8
DIM
100
AcDbMText
 10
240.1396932763027
 20
444.573799761643
 30
0.0
 40
3.5
 41
0.0
 71
     5
 72
     1
  1
\A1;102
  7
dayus
 73
     1
 44
1.0
1001
ACAD
1000
MTEXTBEGIN
1070
    73
1070
     1
1070
    44
1040
1.0
1070
    74
1070
     0
1000
MTEXTEND
  0
POINT
  5
6FED
330
605E
100
AcDbEntity
  8
Defpoints
 62
     0
100
AcDbPoint
 10
189.1396932763
 20
377.0247736547231
 30
0.0
  0
POINT
  5
6FEE
330
605E
100
AcDbEntity
  8
Defpoints
 62
     0
100
AcDbPoint
 10
291.1396932763055
 20
403.959906893028
 30
0.0
  0
POINT
  5
6FEF
330
605E
100
AcDbEntity
  8
Defpoints
 62
     0
100
AcDbPoint
 10
291.1396932763055
 20
441.523799761643
 30
0.0
  0
ENDBLK
  5
6069
330
605E
100
AcDbEntity
  8
0
100
AcDbBlockEnd
  0
BLOCK
  5
6074
330
606A
100
AcDbEntity
  8
0
100
AcDbBlockBegin
  2
*D30
 70
     1
 10
0.0
 20
0.0
 30
0.0
  3
*D30
  1

  0
LINE
  5
6FF0
330
606A
100
AcDbEntity
  8
DIM
100
AcDbLine
 10
233.1396932762995
 20
354.5876026112054
 30
0.0
 11
233.1396932762995
 21
302.659868945792
 31
0.0
  0
LINE
  5
6FF1
330
606A
100
AcDbEntity
  8
DIM
100
AcDbLine
 10
255.1396932762999
 20
354.5876026112046
 30
0.0
 11
255.1396932762999
 21
302.659868945792
 31
0.0
  0
LINE
  5
6FF2
330
606A
100
AcDbEntity
  8
DIM
100
AcDbLine
 10
236.6396932762995
 20
305.659868945792
 30
0.0
 11
251.6396932762999
 21
305.659868945792
 31
0.0
  0
SOLID
  5
6FF3
330
606A
100
AcDbEntity
  8
DIM
100
AcDbTrace
 10
236.6396932762995
 20
306.2432022791254
 30
0.0
 11
236.6396932762995
 21
305.0765356124587
 31
0.0
 12
233.1396932762995
 22
305.659868945792
 32
0.0
 13
233.1396932762995
 23
305.659868945792
 33
0.0
  0
SOLID
  5
6FF4
330
606A
100
AcDbEntity
  8
DIM
100
AcDbTrace
 10
251.6396932762999
 20
306.2432022791254
 30
0.0
 11
251.6396932762999
 21
305.0765356124587
 31
0.0
 12
255.1396932762999
 22
305.659868945792
 32
0.0
 13
255.1396932762999
 23
305.659868945792
 33
0.0
  0
MTEXT
  5
6FF5
330
606A
100
AcDbEntity
  8
DIM
100
AcDbMText
 10
244.1396932762997
 20
308.7098689457921
 30
0.0
 40
3.5
 41
0.0
 71
     5
 72
     1
  1
\A1;□22
  7
dayus
 73
     1
 44
1.0
1001
ACAD
1000
MTEXTBEGIN
1070
    73
1070
     1
1070
    44
1040
1.0
1070
    74
1070
     0
1000
MTEXTEND
  0
POINT
  5
6FF6
330
606A
100
AcDbEntity
  8
Defpoints
 62
     0
100
AcDbPoint
 10
233.1396932762995
 20
357.5876026112053
 30
0.0
  0
POINT
  5
6FF7
330
606A
100
AcDbEntity
  8
Defpoints
 62
     0
100
AcDbPoint
 10
255.1396932762999
 20
357.5876026112046
 30
0.0
  0
POINT
  5
6FF8
330
606A
100
AcDbEntity
  8
Defpoints
 62
     0
100
AcDbPoint
 10
255.1396932762999
 20
305.659868945792
 30
0.0
  0
ENDBLK
  5
6075
330
606A
100
AcDbEntity
  8
0
100
AcDbBlockEnd
  0
BLOCK
  5
6080
330
6076
100
AcDbEntity
  8
0
100
AcDbBlockBegin
  2
*D31
 70
     1
 10
0.0
 20
0.0
 30
0.0
  3
*D31
  1

  0
LINE
  5
6FF9
330
6076
100
AcDbEntity
  8
DIM
100
AcDbLine
 10
186.1396932763
 20
377.0247736547231
 30
0.0
 11
171.729931645144
 21
377.0247736547231
 31
0.0
  0
LINE
  5
6FFA
330
6076
100
AcDbEntity
  8
DIM
100
AcDbLine
 10
186.1396932763
 20
350.0247736547231
 30
0.0
 11
171.729931645144
 21
350.0247736547231
 31
0.0
  0
LINE
  5
6FFB
330
6076
100
AcDbEntity
  8
DIM
100
AcDbLine
 10
174.729931645144
 20
373.524773654723
 30
0.0
 11
174.729931645144
 21
353.524773654723
 31
0.0
  0
SOLID
  5
6FFC
330
6076
100
AcDbEntity
  8
DIM
100
AcDbTrace
 10
174.1465983118106
 20
373.524773654723
 30
0.0
 11
175.3132649784773
 21
373.524773654723
 31
0.0
 12
174.729931645144
 22
377.0247736547231
 32
0.0
 13
174.729931645144
 23
377.0247736547231
 33
0.0
  0
SOLID
  5
6FFD
330
6076
100
AcDbEntity
  8
DIM
100
AcDbTrace
 10
174.1465983118106
 20
353.524773654723
 30
0.0
 11
175.3132649784773
 21
353.524773654723
 31
0.0
 12
174.729931645144
 22
350.0247736547231
 32
0.0
 13
174.729931645144
 23
350.0247736547231
 33
0.0
  0
MTEXT
  5
6FFE
330
6076
100
AcDbEntity
  8
DIM
100
AcDbMText
 10
171.6799316451439
 20
363.5247736547231
 30
0.0
 40
3.5
 41
0.0
 71
     5
 72
     1
  1
\A1;27
  7
dayus
 11
0.0000000000000001
 21
1.0
 31
0.0
 73
     1
 44
1.0
1001
ACAD
1000
MTEXTBEGIN
1070
    73
1070
     1
1070
    44
1040
1.0
1070
    74
1070
     0
1000
MTEXTEND
  0
POINT
  5
6FFF
330
6076
100
AcDbEntity
  8
Defpoints
 62
     0
100
AcDbPoint
 10
189.1396932763
 20
377.0247736547231
 30
0.0
  0
POINT
  5
7000
330
6076
100
AcDbEntity
  8
Defpoints
 62
     0
100
AcDbPoint
 10
189.1396932763
 20
350.0247736547231
 30
0.0
  0
POINT
  5
7001
330
6076
100
AcDbEntity
  8
Defpoints
 62
     0
100
AcDbPoint
 10
174.729931645144
 20
350.0247736547231
 30
0.0
  0
ENDBLK
  5
6081
330
6076
100
AcDbEntity
  8
0
100
AcDbBlockEnd
  0
BLOCK
  5
60F0
330
60E6
100
AcDbEntity
  8
0
100
AcDbBlockBegin
  2
*D32
 70
     1
 10
0.0
 20
0.0
 30
0.0
  3
*D32
  1

  0
LINE
  5
7143
330
60E6
100
AcDbEntity
  8
DIM
100
AcDbLine
 10
207.1396932763
 20
178.7995571206588
 30
0.0
 11
207.1396932763
 21
191.2040767533812
 31
0.0
  0
LINE
  5
7144
330
60E6
100
AcDbEntity
  8
DIM
100
AcDbLine
 10
281.1396932763
 20
178.7995571206588
 30
0.0
 11
281.1396932763
 21
191.2040767533812
 31
0.0
  0
LINE
  5
7145
330
60E6
100
AcDbEntity
  8
DIM
100
AcDbLine
 10
210.6396932763
 20
188.2040767533812
 30
0.0
 11
277.6396932763
 21
188.2040767533812
 31
0.0
  0
SOLID
  5
7146
330
60E6
100
AcDbEntity
  8
DIM
100
AcDbTrace
 10
210.6396932763
 20
188.7874100867145
 30
0.0
 11
210.6396932763
 21
187.6207434200479
 31
0.0
 12
207.1396932763
 22
188.2040767533812
 32
0.0
 13
207.1396932763
 23
188.2040767533812
 33
0.0
  0
SOLID
  5
7147
330
60E6
100
AcDbEntity
  8
DIM
100
AcDbTrace
 10
277.6396932763
 20
188.7874100867145
 30
0.0
 11
277.6396932763
 21
187.6207434200479
 31
0.0
 12
281.1396932763
 22
188.2040767533812
 32
0.0
 13
281.1396932763
 23
188.2040767533812
 33
0.0
  0
MTEXT
  5
7148
330
60E6
100
AcDbEntity
  8
DIM
100
AcDbMText
 10
244.1396932763
 20
191.2540767533812
 30
0.0
 40
3.5
 41
0.0
 71
     5
 72
     1
  1
\A1;□74
  7
dayus
 73
     1
 44
1.0
1001
ACAD
1000
MTEXTBEGIN
1070
    73
1070
     1
1070
    44
1040
1.0
1070
    74
1070
     0
1000
MTEXTEND
  0
POINT
  5
7149
330
60E6
100
AcDbEntity
  8
Defpoints
 62
     0
100
AcDbPoint
 10
207.1396932763
 20
175.7995571206588
 30
0.0
  0
POINT
  5
714A
330
60E6
100
AcDbEntity
  8
Defpoints
 62
     0
100
AcDbPoint
 10
281.1396932763
 20
175.7995571206588
 30
0.0
  0
POINT
  5
714B
330
60E6
100
AcDbEntity
  8
Defpoints
 62
     0
100
AcDbPoint
 10
281.1396932763
 20
188.2040767533812
 30
0.0
  0
ENDBLK
  5
60F1
330
60E6
100
AcDbEntity
  8
0
100
AcDbBlockEnd
  0
BLOCK
  5
60FC
330
60F2
100
AcDbEntity
  8
0
100
AcDbBlockBegin
  2
*D33
 70
     1
 10
0.0
 20
0.0
 30
0.0
  3
*D33
  1

  0
LINE
  5
714C
330
60F2
100
AcDbEntity
  8
DIM
100
AcDbLine
 10
197.1396932763
 20
174.3346903589703
 30
0.0
 11
197.1396932763
 21
201.8056707857458
 31
0.0
  0
LINE
  5
714D
330
60F2
100
AcDbEntity
  8
DIM
100
AcDbLine
 10
291.1396932763055
 20
174.3346903589638
 30
0.0
 11
291.1396932763055
 21
201.8056707857458
 31
0.0
  0
LINE
  5
714E
330
60F2
100
AcDbEntity
  8
DIM
100
AcDbLine
 10
200.6396932763
 20
198.8056707857458
 30
0.0
 11
287.6396932763055
 21
198.8056707857458
 31
0.0
  0
SOLID
  5
714F
330
60F2
100
AcDbEntity
  8
DIM
100
AcDbTrace
 10
200.6396932763
 20
199.3890041190791
 30
0.0
 11
200.6396932763
 21
198.2223374524124
 31
0.0
 12
197.1396932763
 22
198.8056707857458
 32
0.0
 13
197.1396932763
 23
198.8056707857458
 33
0.0
  0
SOLID
  5
7150
330
60F2
100
AcDbEntity
  8
DIM
100
AcDbTrace
 10
287.6396932763055
 20
199.3890041190791
 30
0.0
 11
287.6396932763055
 21
198.2223374524124
 31
0.0
 12
291.1396932763055
 22
198.8056707857458
 32
0.0
 13
291.1396932763055
 23
198.8056707857458
 33
0.0
  0
MTEXT
  5
7151
330
60F2
100
AcDbEntity
  8
DIM
100
AcDbMText
 10
244.1396932763027
 20
201.8556707857458
 30
0.0
 40
3.5
 41
0.0
 71
     5
 72
     1
  1
\A1;□94
  7
dayus
 73
     1
 44
1.0
1001
ACAD
1000
MTEXTBEGIN
1070
    73
1070
     1
1070
    44
1040
1.0
1070
    74
1070
     0
1000
MTEXTEND
  0
POINT
  5
7152
330
60F2
100
AcDbEntity
  8
Defpoints
 62
     0
100
AcDbPoint
 10
197.1396932763
 20
171.3346903589703
 30
0.0
  0
POINT
  5
7153
330
60F2
100
AcDbEntity
  8
Defpoints
 62
     0
100
AcDbPoint
 10
291.1396932763055
 20
171.3346903589638
 30
0.0
  0
POINT
  5
7154
330
60F2
100
AcDbEntity
  8
Defpoints
 62
     0
100
AcDbPoint
 10
291.1396932763055
 20
198.8056707857458
 30
0.0
  0
ENDBLK
  5
60FD
330
60F2
100
AcDbEntity
  8
0
100
AcDbBlockEnd
  0
BLOCK
  5
6108
330
60FE
100
AcDbEntity
  8
0
100
AcDbBlockBegin
  2
*D34
 70
     1
 10
0.0
 20
0.0
 30
0.0
  3
*D34
  1

  0
LINE
  5
7155
330
60FE
100
AcDbEntity
  8
DIM
100
AcDbLine
 10
189.1396932763
 20
147.3995571206588
 30
0.0
 11
189.1396932763
 21
211.8985832275789
 31
0.0
  0
LINE
  5
7156
330
60FE
100
AcDbEntity
  8
DIM
100
AcDbLine
 10
291.1396932763055
 20
174.3346903589638
 30
0.0
 11
291.1396932763055
 21
211.8985832275789
 31
0.0
  0
LINE
  5
7157
330
60FE
100
AcDbEntity
  8
DIM
100
AcDbLine
 10
192.6396932763
 20
208.8985832275788
 30
0.0
 11
287.6396932763055
 21
208.8985832275788
 31
0.0
  0
SOLID
  5
7158
330
60FE
100
AcDbEntity
  8
DIM
100
AcDbTrace
 10
192.6396932763
 20
209.4819165609122
 30
0.0
 11
192.6396932763
 21
208.3152498942455
 31
0.0
 12
189.1396932763
 22
208.8985832275788
 32
0.0
 13
189.1396932763
 23
208.8985832275788
 33
0.0
  0
SOLID
  5
7159
330
60FE
100
AcDbEntity
  8
DIM
100
AcDbTrace
 10
287.6396932763055
 20
209.4819165609122
 30
0.0
 11
287.6396932763055
 21
208.3152498942455
 31
0.0
 12
291.1396932763055
 22
208.8985832275788
 32
0.0
 13
291.1396932763055
 23
208.8985832275788
 33
0.0
  0
MTEXT
  5
715A
330
60FE
100
AcDbEntity
  8
DIM
100
AcDbMText
 10
240.1396932763027
 20
211.9485832275789
 30
0.0
 40
3.5
 41
0.0
 71
     5
 72
     1
  1
\A1;102
  7
dayus
 73
     1
 44
1.0
1001
ACAD
1000
MTEXTBEGIN
1070
    73
1070
     1
1070
    44
1040
1.0
1070
    74
1070
     0
1000
MTEXTEND
  0
POINT
  5
715B
330
60FE
100
AcDbEntity
  8
Defpoints
 62
     0
100
AcDbPoint
 10
189.1396932763
 20
144.3995571206588
 30
0.0
  0
POINT
  5
715C
330
60FE
100
AcDbEntity
  8
Defpoints
 62
     0
100
AcDbPoint
 10
291.1396932763055
 20
171.3346903589638
 30
0.0
  0
POINT
  5
715D
330
60FE
100
AcDbEntity
  8
Defpoints
 62
     0
100
AcDbPoint
 10
291.1396932763055
 20
208.8985832275788
 30
0.0
  0
ENDBLK
  5
6109
330
60FE
100
AcDbEntity
  8
0
100
AcDbBlockEnd
  0
BLOCK
  5
6114
330
610A
100
AcDbEntity
  8
0
100
AcDbBlockBegin
  2
*D35
 70
     1
 10
0.0
 20
0.0
 30
0.0
  3
*D35
  1

  0
LINE
  5
715E
330
610A
100
AcDbEntity
  8
DIM
100
AcDbLine
 10
207.1396932763
 20
178.7995571206588
 30
0.0
 11
207.1396932763
 21
191.2040767533812
 31
0.0
  0
LINE
  5
715F
330
610A
100
AcDbEntity
  8
DIM
100
AcDbLine
 10
281.1396932763
 20
178.7995571206588
 30
0.0
 11
281.1396932763
 21
191.2040767533812
 31
0.0
  0
LINE
  5
7160
330
610A
100
AcDbEntity
  8
DIM
100
AcDbLine
 10
210.6396932763
 20
188.2040767533812
 30
0.0
 11
277.6396932763
 21
188.2040767533812
 31
0.0
  0
SOLID
  5
7161
330
610A
100
AcDbEntity
  8
DIM
100
AcDbTrace
 10
210.6396932763
 20
188.7874100867145
 30
0.0
 11
210.6396932763
 21
187.6207434200479
 31
0.0
 12
207.1396932763
 22
188.2040767533812
 32
0.0
 13
207.1396932763
 23
188.2040767533812
 33
0.0
  0
SOLID
  5
7162
330
610A
100
AcDbEntity
  8
DIM
100
AcDbTrace
 10
277.6396932763
 20
188.7874100867145
 30
0.0
 11
277.6396932763
 21
187.6207434200479
 31
0.0
 12
281.1396932763
 22
188.2040767533812
 32
0.0
 13
281.1396932763
 23
188.2040767533812
 33
0.0
  0
MTEXT
  5
7163
330
610A
100
AcDbEntity
  8
DIM
100
AcDbMText
 10
244.1396932763
 20
191.2540767533812
 30
0.0
 40
3.5
 41
0.0
 71
     5
 72
     1
  1
\A1;□74
  7
dayus
 73
     1
 44
1.0
1001
ACAD
1000
MTEXTBEGIN
1070
    73
1070
     1
1070
    44
1040
1.0
1070
    74
1070
     0
1000
MTEXTEND
  0
POINT
  5
7164
330
610A
100
AcDbEntity
  8
Defpoints
 62
     0
100
AcDbPoint
 10
207.1396932763
 20
175.7995571206588
 30
0.0
  0
POINT
  5
7165
330
610A
100
AcDbEntity
  8
Defpoints
 62
     0
100
AcDbPoint
 10
281.1396932763
 20
175.7995571206588
 30
0.0
  0
POINT
  5
7166
330
610A
100
AcDbEntity
  8
Defpoints
 62
     0
100
AcDbPoint
 10
281.1396932763
 20
188.2040767533812
 30
0.0
  0
ENDBLK
  5
6115
330
610A
100
AcDbEntity
  8
0
100
AcDbBlockEnd
  0
BLOCK
  5
6120
330
6116
100
AcDbEntity
  8
0
100
AcDbBlockBegin
  2
*D36
 70
     1
 10
0.0
 20
0.0
 30
0.0
  3
*D36
  1

  0
LINE
  5
7167
330
6116
100
AcDbEntity
  8
DIM
100
AcDbLine
 10
197.1396932763
 20
174.3346903589703
 30
0.0
 11
197.1396932763
 21
201.8056707857458
 31
0.0
  0
LINE
  5
7168
330
6116
100
AcDbEntity
  8
DIM
100
AcDbLine
 10
291.1396932763055
 20
174.3346903589638
 30
0.0
 11
291.1396932763055
 21
201.8056707857458
 31
0.0
  0
LINE
  5
7169
330
6116
100
AcDbEntity
  8
DIM
100
AcDbLine
 10
200.6396932763
 20
198.8056707857458
 30
0.0
 11
287.6396932763055
 21
198.8056707857458
 31
0.0
  0
SOLID
  5
716A
330
6116
100
AcDbEntity
  8
DIM
100
AcDbTrace
 10
200.6396932763
 20
199.3890041190791
 30
0.0
 11
200.6396932763
 21
198.2223374524124
 31
0.0
 12
197.1396932763
 22
198.8056707857458
 32
0.0
 13
197.1396932763
 23
198.8056707857458
 33
0.0
  0
SOLID
  5
716B
330
6116
100
AcDbEntity
  8
DIM
100
AcDbTrace
 10
287.6396932763055
 20
199.3890041190791
 30
0.0
 11
287.6396932763055
 21
198.2223374524124
 31
0.0
 12
291.1396932763055
 22
198.8056707857458
 32
0.0
 13
291.1396932763055
 23
198.8056707857458
 33
0.0
  0
MTEXT
  5
716C
330
6116
100
AcDbEntity
  8
DIM
100
AcDbMText
 10
244.1396932763027
 20
201.8556707857458
 30
0.0
 40
3.5
 41
0.0
 71
     5
 72
     1
  1
\A1;□94
  7
dayus
 73
     1
 44
1.0
1001
ACAD
1000
MTEXTBEGIN
1070
    73
1070
     1
1070
    44
1040
1.0
1070
    74
1070
     0
1000
MTEXTEND
  0
POINT
  5
716D
330
6116
100
AcDbEntity
  8
Defpoints
 62
     0
100
AcDbPoint
 10
197.1396932763
 20
171.3346903589703
 30
0.0
  0
POINT
  5
716E
330
6116
100
AcDbEntity
  8
Defpoints
 62
     0
100
AcDbPoint
 10
291.1396932763055
 20
171.3346903589638
 30
0.0
  0
POINT
  5
716F
330
6116
100
AcDbEntity
  8
Defpoints
 62
     0
100
AcDbPoint
 10
291.1396932763055
 20
198.8056707857458
 30
0.0
  0
ENDBLK
  5
6121
330
6116
100
AcDbEntity
  8
0
100
AcDbBlockEnd
  0
BLOCK
  5
612C
330
6122
100
AcDbEntity
  8
0
100
AcDbBlockBegin
  2
*D37
 70
     1
 10
0.0
 20
0.0
 30
0.0
  3
*D37
  1

  0
LINE
  5
7170
330
6122
100
AcDbEntity
  8
DIM
100
AcDbLine
 10
189.1396932763
 20
147.3995571206588
 30
0.0
 11
189.1396932763
 21
211.8985832275789
 31
0.0
  0
LINE
  5
7171
330
6122
100
AcDbEntity
  8
DIM
100
AcDbLine
 10
291.1396932763055
 20
174.3346903589638
 30
0.0
 11
291.1396932763055
 21
211.8985832275789
 31
0.0
  0
LINE
  5
7172
330
6122
100
AcDbEntity
  8
DIM
100
AcDbLine
 10
192.6396932763
 20
208.8985832275788
 30
0.0
 11
287.6396932763055
 21
208.8985832275788
 31
0.0
  0
SOLID
  5
7173
330
6122
100
AcDbEntity
  8
DIM
100
AcDbTrace
 10
192.6396932763
 20
209.4819165609122
 30
0.0
 11
192.6396932763
 21
208.3152498942455
 31
0.0
 12
189.1396932763
 22
208.8985832275788
 32
0.0
 13
189.1396932763
 23
208.8985832275788
 33
0.0
  0
SOLID
  5
7174
330
6122
100
AcDbEntity
  8
DIM
100
AcDbTrace
 10
287.6396932763055
 20
209.4819165609122
 30
0.0
 11
287.6396932763055
 21
208.3152498942455
 31
0.0
 12
291.1396932763055
 22
208.8985832275788
 32
0.0
 13
291.1396932763055
 23
208.8985832275788
 33
0.0
  0
MTEXT
  5
7175
330
6122
100
AcDbEntity
  8
DIM
100
AcDbMText
 10
240.1396932763027
 20
211.9485832275789
 30
0.0
 40
3.5
 41
0.0
 71
     5
 72
     1
  1
\A1;102
  7
dayus
 73
     1
 44
1.0
1001
ACAD
1000
MTEXTBEGIN
1070
    73
1070
     1
1070
    44
1040
1.0
1070
    74
1070
     0
1000
MTEXTEND
  0
POINT
  5
7176
330
6122
100
AcDbEntity
  8
Defpoints
 62
     0
100
AcDbPoint
 10
189.1396932763
 20
144.3995571206588
 30
0.0
  0
POINT
  5
7177
330
6122
100
AcDbEntity
  8
Defpoints
 62
     0
100
AcDbPoint
 10
291.1396932763055
 20
171.3346903589638
 30
0.0
  0
POINT
  5
7178
330
6122
100
AcDbEntity
  8
Defpoints
 62
     0
100
AcDbPoint
 10
291.1396932763055
 20
208.8985832275788
 30
0.0
  0
ENDBLK
  5
612D
330
6122
100
AcDbEntity
  8
0
100
AcDbBlockEnd
  0
BLOCK
  5
6138
330
612E
100
AcDbEntity
  8
0
100
AcDbBlockBegin
  2
*D38
 70
     1
 10
0.0
 20
0.0
 30
0.0
  3
*D38
  1

  0
LINE
  5
7179
330
612E
100
AcDbEntity
  8
DIM
100
AcDbLine
 10
233.1396932762995
 20
121.9623860771411
 30
0.0
 11
233.1396932762995
 21
66.46126300214996
 31
0.0
  0
LINE
  5
717A
330
612E
100
AcDbEntity
  8
DIM
100
AcDbLine
 10
255.1396932762999
 20
121.9623860771404
 30
0.0
 11
255.1396932762999
 21
66.46126300214996
 31
0.0
  0
LINE
  5
717B
330
612E
100
AcDbEntity
  8
DIM
100
AcDbLine
 10
236.6396932762995
 20
69.46126300214996
 30
0.0
 11
251.6396932762999
 21
69.46126300214996
 31
0.0
  0
SOLID
  5
717C
330
612E
100
AcDbEntity
  8
DIM
100
AcDbTrace
 10
236.6396932762995
 20
70.04459633548329
 30
0.0
 11
236.6396932762995
 21
68.87792966881663
 31
0.0
 12
233.1396932762995
 22
69.46126300214996
 32
0.0
 13
233.1396932762995
 23
69.46126300214996
 33
0.0
  0
SOLID
  5
717D
330
612E
100
AcDbEntity
  8
DIM
100
AcDbTrace
 10
251.6396932762999
 20
70.04459633548329
 30
0.0
 11
251.6396932762999
 21
68.87792966881663
 31
0.0
 12
255.1396932762999
 22
69.46126300214996
 32
0.0
 13
255.1396932762999
 23
69.46126300214996
 33
0.0
  0
MTEXT
  5
717E
330
612E
100
AcDbEntity
  8
DIM
100
AcDbMText
 10
244.1396932762997
 20
72.51126300214996
 30
0.0
 40
3.5
 41
0.0
 71
     5
 72
     1
  1
\A1;□22
  7
dayus
 73
     1
 44
1.0
1001
ACAD
1000
MTEXTBEGIN
1070
    73
1070
     1
1070
    44
1040
1.0
1070
    74
1070
     0
1000
MTEXTEND
  0
POINT
  5
717F
330
612E
100
AcDbEntity
  8
Defpoints
 62
     0
100
AcDbPoint
 10
233.1396932762995
 20
124.9623860771411
 30
0.0
  0
POINT
  5
7180
330
612E
100
AcDbEntity
  8
Defpoints
 62
     0
100
AcDbPoint
 10
255.1396932762999
 20
124.9623860771404
 30
0.0
  0
POINT
  5
7181
330
612E
100
AcDbEntity
  8
Defpoints
 62
     0
100
AcDbPoint
 10
255.1396932762999
 20
69.46126300214996
 30
0.0
  0
ENDBLK
  5
6139
330
612E
100
AcDbEntity
  8
0
100
AcDbBlockEnd
  0
BLOCK
  5
6144
330
613A
100
AcDbEntity
  8
0
100
AcDbBlockBegin
  2
*D39
 70
     1
 10
0.0
 20
0.0
 30
0.0
  3
*D39
  1

  0
LINE
  5
7182
330
613A
100
AcDbEntity
  8
DIM
100
AcDbLine
 10
186.1396932763
 20
144.3995571206588
 30
0.0
 11
171.729931645144
 21
144.3995571206588
 31
0.0
  0
LINE
  5
7183
330
613A
100
AcDbEntity
  8
DIM
100
AcDbLine
 10
186.1396932763
 20
117.3995571206589
 30
0.0
 11
171.729931645144
 21
117.3995571206589
 31
0.0
  0
LINE
  5
7184
330
613A
100
AcDbEntity
  8
DIM
100
AcDbLine
 10
174.729931645144
 20
140.8995571206588
 30
0.0
 11
174.729931645144
 21
120.8995571206588
 31
0.0
  0
SOLID
  5
7185
330
613A
100
AcDbEntity
  8
DIM
100
AcDbTrace
 10
174.1465983118106
 20
140.8995571206588
 30
0.0
 11
175.3132649784773
 21
140.8995571206588
 31
0.0
 12
174.729931645144
 22
144.3995571206588
 32
0.0
 13
174.729931645144
 23
144.3995571206588
 33
0.0
  0
SOLID
  5
7186
330
613A
100
AcDbEntity
  8
DIM
100
AcDbTrace
 10
174.1465983118106
 20
120.8995571206588
 30
0.0
 11
175.3132649784773
 21
120.8995571206588
 31
0.0
 12
174.729931645144
 22
117.3995571206589
 32
0.0
 13
174.729931645144
 23
117.3995571206589
 33
0.0
  0
MTEXT
  5
7187
330
613A
100
AcDbEntity
  8
DIM
100
AcDbMText
 10
171.6799316451439
 20
130.8995571206589
 30
0.0
 40
3.5
 41
0.0
 71
     5
 72
     1
  1
\A1;27
  7
dayus
 11
0.0000000000000001
 21
1.0
 31
0.0
 73
     1
 44
1.0
1001
ACAD
1000
MTEXTBEGIN
1070
    73
1070
     1
1070
    44
1040
1.0
1070
    74
1070
     0
1000
MTEXTEND
  0
POINT
  5
7188
330
613A
100
AcDbEntity
  8
Defpoints
 62
     0
100
AcDbPoint
 10
189.1396932763
 20
144.3995571206588
 30
0.0
  0
POINT
  5
7189
330
613A
100
AcDbEntity
  8
Defpoints
 62
     0
100
AcDbPoint
 10
189.1396932763
 20
117.3995571206589
 30
0.0
  0
POINT
  5
718A
330
613A
100
AcDbEntity
  8
Defpoints
 62
     0
100
AcDbPoint
 10
174.729931645144
 20
117.3995571206589
 30
0.0
  0
ENDBLK
  5
6145
330
613A
100
AcDbEntity
  8
0
100
AcDbBlockEnd
  0
BLOCK
  5
705B
330
7059
100
AcDbEntity
  8
0
100
AcDbBlockBegin
  2
A$C5ECF147B
 70
     0
 10
0.0
 20
0.0
 30
0.0
  3
A$C5ECF147B
  1

  0
CIRCLE
  5
705C
330
7059
100
AcDbEntity
  8
0
100
AcDbCircle
 10
-3.079240456948355
 20
2.061381943681453
 30
0.0
 40
1.25
  0
CIRCLE
  5
705D
330
7059
100
AcDbEntity
  8
0
100
AcDbCircle
 10
-3.079240456948355
 20
2.061381943681453
 30
0.0
 40
0.75
  0
ENDBLK
  5
705E
330
7059
100
AcDbEntity
  8
0
100
AcDbBlockEnd
  0
BLOCK
  5
70E9
330
70E2
100
AcDbEntity
  8
0
100
AcDbBlockBegin
  2
A$C56E90040
 70
     0
 10
0.0
 20
0.0
 30
0.0
  3
A$C56E90040
  1

  0
LINE
  5
70E3
330
70E2
100
AcDbEntity
  8
AM_5
 62
     5
100
AcDbLine
 10
15.09416023930511
 20
0.0
 30
0.0
 11
8.509708240382373
 21
0.0
 31
0.0
  0
LINE
  5
70E4
330
70E2
100
AcDbEntity
  8
AM_5
 62
     5
100
AcDbLine
 10
8.509708240382373
 20
0.0
 30
0.0
 11
4.199999999999981
 21
0.0
 31
0.0
  0
TRACE
  5
70E5
330
70E2
100
AcDbEntity
  8
AM_5
 62
     5
370
    35
100
AcDbTrace
 10
4.199999999999981
 20
0.5529404874000079
 30
0.0
 11
4.199999999999981
 21
-0.5529404873999511
 31
0.0
 12
0.0
 22
0.0
 32
0.0
 13
0.0
 23
0.0
 33
0.0
  0
MTEXT
  5
70E6
330
70E2
100
AcDbEntity
  8
AM_5
 62
     5
100
AcDbMText
 10
7.924538044032892
 20
1.152361497384617
 30
0.0
 40
4.0
 41
0.0
 71
     7
 72
     5
  1
SL
  7
ACISOTS
 73
     1
 44
1.0
1001
ACAD
1000
MTEXTBEGIN
1070
    73
1070
     1
1070
    44
1040
1.0
1070
    74
1070
     0
1000
MTEXTEND
  0
ENDBLK
  5
70EA
330
70E2
100
AcDbEntity
  8
0
100
AcDbBlockEnd
  0
ENDSEC
  0
SECTION
  2
ENTITIES
  0
MTEXT
  5
A9
330
1F
100
AcDbEntity
  8
0
100
AcDbMText
 10
-112.8858816556399
 20
179.1757813154577
 30
0.0
 40
3.0
 41
0.0
 71
     4
 72
     5
  1

 73
     1
 44
1.0
1001
ACAD
1000
MTEXTBEGIN
1070
    73
1070
     1
1070
    44
1040
1.0
1070
    74
1070
     0
1000
MTEXTEND
  0
MTEXT
  5
AA
330
1F
100
AcDbEntity
  8
0
100
AcDbMText
 10
-176.2667196970539
 20
189.9084924046809
 30
0.0
 40
1.799999999999999
 41
0.0
 71
     9
 72
     5
  1

 73
     1
 44
1.0
1001
ACAD
1000
MTEXTBEGIN
1070
    73
1070
     1
1070
    44
1040
1.0
1070
    74
1070
     0
1000
MTEXTEND
  0
MTEXT
  5
AB
330
1F
100
AcDbEntity
  8
0
100
AcDbMText
 10
82.64233389287733
 20
174.944592339129
 30
0.0
 40
3.0
 41
0.0
 71
     4
 72
     5
  1

 73
     1
 44
1.0
1001
ACAD
1000
MTEXTBEGIN
1070
    73
1070
     1
1070
    44
1040
1.0
1070
    74
1070
     0
1000
MTEXTEND
  0
MTEXT
  5
AC
330
1F
100
AcDbEntity
  8
0
100
AcDbMText
 10
19.26149585146331
 20
185.6773034283523
 30
0.0
 40
1.799999999999999
 41
0.0
 71
     9
 72
     5
  1

 73
     1
 44
1.0
1001
ACAD
1000
MTEXTBEGIN
1070
    73
1070
     1
1070
    44
1040
1.0
1070
    74
1070
     0
1000
MTEXTEND
  0
MTEXT
  5
B1
330
1F
100
AcDbEntity
  8
0
100
AcDbMText
 10
-211.0828086697475
 20
93.72900974557683
 30
0.0
 40
3.0
 41
59.51
 71
     1
 72
     5
  1

  7
CHINESET
 73
     1
 44
1.0
1001
ACAD
1000
MTEXTBEGIN
1070
    73
1070
     1
1070
    44
1040
1.0
1070
    74
1070
     0
1000
MTEXTEND
  0
MTEXT
  5
B2
330
1F
100
AcDbEntity
  8
0
100
AcDbMText
 10
-179.9099428209695
 20
86.93407807798587
 30
0.0
 40
3.0
 41
38.26
 71
     1
 72
     5
  1

  7
CHINESET
 73
     1
 44
1.0
1001
ACAD
1000
MTEXTBEGIN
1070
    73
1070
     1
1070
    44
1040
1.0
1070
    74
1070
     0
1000
MTEXTEND
  0
MTEXT
  5
10B3
330
1F
100
AcDbEntity
  8
0
100
AcDbMText
 10
81.67014302795905
 20
125.5492500028813
 30
0.0
 40
3.0
 41
0.0
 71
     7
 72
     5
  1

  7
CHINESET
 73
     1
 44
1.0
1001
ACAD
1000
MTEXTBEGIN
1070
    73
1070
     1
1070
    44
1040
1.0
1070
    74
1070
     0
1000
MTEXTEND
  0
LINE
  5
17B4
330
1F
100
AcDbEntity
  8
0
 62
     4
100
AcDbLine
 10
335.5970268586416
 20
40.04341482199879
 30
0.0
 11
335.5970268586416
 21
520.0275674151736
 31
0.0
  0
LINE
  5
17B5
330
1F
100
AcDbEntity
  8
0
 62
     4
100
AcDbLine
 10
-42.67599094580492
 20
40.04341482199873
 30
0.0
 11
-42.67599094580492
 21
520.0275674151736
 31
0.0
  0
TEXT
  5
17BD
330
1F
100
AcDbEntity
  8
LOGO
  6
Continuous
 62
     7
100
AcDbText
 10
154.8864124551551
 20
25.65028112656037
 30
0.0
 40
7.423499999999999
  1
11/12
  7
CHINESET
 72
     1
 11
169.7334124551551
 21
29.36203112656037
 31
0.0
100
AcDbText
 73
     2
  0
TEXT
  5
17BE
330
1F
100
AcDbEntity
  8
LOGO
100
AcDbText
 10
157.9119149608118
 20
9.257891008608915
 30
0.0
 40
5.3025
  1
作動型式
  7
CHINESET
 72
     4
 11
168.4616805858118
 21
11.77344711097112
 31
0.0
100
AcDbText
  0
LINE
  5
17BF
330
1F
100
AcDbEntity
  8
0
 62
     4
100
AcDbLine
 10
335.5970268586416
 20
280.618339855862
 30
0.0
 11
-42.67599094580492
 21
280.618339855862
 31
0.0
  0
LINE
  5
17C0
330
1F
100
AcDbEntity
  8
0
 62
     4
100
AcDbLine
 10
335.5970268586416
 20
40.04341482199873
 30
0.0
 11
-42.67599094580492
 21
40.04341482199873
 31
0.0
  0
TEXT
  5
17C3
330
1F
100
AcDbEntity
  8
LOGO
  6
Continuous
100
AcDbText
 10
157.5536805858118
 20
3.645455183214256
 30
0.0
 40
3.1815
  1
Acting type
 41
0.8
  7
CHINESET
 72
     4
 11
168.4616805858118
 21
4.705955183214257
 31
0.0
100
AcDbText
  0
LINE
  5
17C4
330
1F
100
AcDbEntity
  8
LOGO
 62
     4
100
AcDbLine
 10
187.4406052204577
 20
23.0814341953822
 30
0.0
 11
152.8740416003633
 21
23.0814341953822
 31
0.0
  0
LINE
  5
17C5
330
1F
100
AcDbEntity
  8
LOGO
 62
     4
100
AcDbLine
 10
187.4406052204577
 20
16.72069146040098
 30
0.0
 11
152.8740416003633
 21
16.72069146040098
 31
0.0
  0
LINE
  5
17C6
330
1F
100
AcDbEntity
  8
LOGO
 62
     4
100
AcDbLine
 10
187.4406052204577
 20
1.172209219335798
 30
0.0
 11
152.8740416003633
 21
1.172209219335741
 31
0.0
  0
LINE
  5
17C7
330
1F
100
AcDbEntity
  8
LOGO
 62
     4
100
AcDbLine
 10
187.4406052204577
 20
35.80291966534472
 30
0.0
 11
152.8740416003633
 21
35.80291966534458
 31
0.0
  0
LINE
  5
1802
330
1F
100
AcDbEntity
  8
LOGO
 62
     4
100
AcDbLine
 10
140.0379958352029
 20
16.72069146040098
 30
0.0
 11
111.7680281241753
 21
16.72069146040098
 31
0.0
  0
TEXT
  5
1803
330
1F
100
AcDbEntity
  8
LOGO
  6
Continuous
 62
     7
100
AcDbText
 10
112.293261979689
 20
25.73042693036342
 30
0.0
 40
7.423499999999999
  1
MCJA
  7
CHINESET
 72
     1
 11
125.903011979689
 21
29.44217693036342
 31
0.0
100
AcDbText
 73
     2
  0
LINE
  5
1804
330
1F
100
AcDbEntity
  8
LOGO
 62
     4
100
AcDbLine
 10
140.0379958352029
 20
1.172209219335798
 30
0.0
 11
111.7680281241753
 21
1.172209219335741
 31
0.0
  0
TEXT
  5
1805
330
1F
100
AcDbEntity
  8
LOGO
  6
Continuous
100
AcDbText
 10
121.055011979689
 20
3.115205183214257
 30
0.0
 40
3.1815
  1
Model
 41
0.8
  7
CHINESET
 72
     4
 11
125.903011979689
 21
4.705955183214257
 31
0.0
100
AcDbText
  0
TEXT
  5
1806
330
1F
100
AcDbEntity
  8
LOGO
100
AcDbText
 10
120.600511979689
 20
9.257891008608915
 30
0.0
 40
5.3025
  1
型式
  7
CHINESET
 72
     4
 11
125.903011979689
 21
11.77344711097112
 31
0.0
100
AcDbText
  0
LINE
  5
1807
330
1F
100
AcDbEntity
  8
LOGO
 62
     4
100
AcDbLine
 10
142.8649926063056
 20
23.0814341953822
 30
0.0
 11
108.9410313530726
 21
23.0814341953822
 31
0.0
  0
LINE
  5
1808
330
1F
100
AcDbEntity
  8
LOGO
 62
     4
100
AcDbLine
 10
142.8649926063056
 20
35.80291966534458
 30
0.0
 11
108.9410313530726
 21
35.80291966534458
 31
0.0
  0
LINE
  5
1809
330
1F
100
AcDbEntity
  8
LOGO
 62
     4
100
AcDbLine
 10
125.903011979689
 20
23.0814341953822
 30
0.0
 11
125.903011979689
 21
16.72069146040098
 31
0.0
  0
LINE
  5
180A
330
1F
100
AcDbEntity
  8
LOGO
 62
     4
100
AcDbLine
 10
111.7680281241753
 20
16.72069146040098
 30
0.0
 11
111.7680281241753
 21
1.172209219335741
 31
0.0
  0
LINE
  5
180B
330
1F
100
AcDbEntity
  8
LOGO
 62
     4
100
AcDbLine
 10
108.9410313530726
 20
35.80291966534458
 30
0.0
 11
108.9410313530726
 21
23.0814341953822
 31
0.0
  0
LINE
  5
180C
330
1F
100
AcDbEntity
  8
LOGO
 62
     4
100
AcDbLine
 10
140.0379958352029
 20
16.72069146040098
 30
0.0
 11
140.0379958352029
 21
1.172209219335798
 31
0.0
  0
LINE
  5
180D
330
1F
100
AcDbEntity
  8
LOGO
 62
     4
100
AcDbLine
 10
152.8740416003633
 20
16.72069146040098
 30
0.0
 11
152.8740416003633
 21
1.172209219335798
 31
0.0
  0
LINE
  5
180E
330
1F
100
AcDbEntity
  8
LOGO
  6
Continuous
 62
     7
100
AcDbLine
 10
145.0567133680077
 20
29.39711541835888
 30
0.0
 11
150.6740571651644
 21
29.39711541835888
 31
0.0
  0
LINE
  5
180F
330
1F
100
AcDbEntity
  8
LOGO
 62
     4
100
AcDbLine
 10
142.8649926063058
 20
35.80291966534458
 30
0.0
 11
142.8649926063058
 21
23.0814341953822
 31
0.0
  0
LINE
  5
1810
330
1F
100
AcDbEntity
  8
LOGO
 62
     4
100
AcDbLine
 10
152.8740416003633
 20
35.80291966534458
 30
0.0
 11
152.8740416003633
 21
23.0814341953822
 31
0.0
  0
LINE
  5
1868
330
1F
100
AcDbEntity
  8
LOGO
 62
     4
100
AcDbLine
 10
253.6996380407504
 20
35.80291966534458
 30
0.0
 11
230.1529908661616
 21
35.80291966534458
 31
0.0
  0
LINE
  5
1869
330
1F
100
AcDbEntity
  8
LOGO
 62
     4
100
AcDbLine
 10
253.6996380407504
 20
23.0814341953822
 30
0.0
 11
230.1529908661616
 21
23.0814341953822
 31
0.0
  0
LINE
  5
186A
330
1F
100
AcDbEntity
  8
LOGO
 62
     4
100
AcDbLine
 10
252.286139655199
 20
16.72069146040098
 30
0.0
 11
231.5664892517129
 21
16.72069146040098
 31
0.0
  0
LINE
  5
186B
330
1F
100
AcDbEntity
  8
LOGO
 62
     4
100
AcDbLine
 10
252.286139655199
 20
1.172209219335798
 30
0.0
 11
231.5664892517129
 21
1.172209219335741
 31
0.0
  0
LINE
  5
186C
330
1F
100
AcDbEntity
  8
LOGO
 62
     4
100
AcDbLine
 10
220.1439418721039
 20
23.08143419538226
 30
0.0
 11
197.4496542145152
 21
23.08143419538226
 31
0.0
  0
LINE
  5
186D
330
1F
100
AcDbEntity
  8
LOGO
 62
     4
100
AcDbLine
 10
220.1439418721039
 20
16.72069146040104
 30
0.0
 11
197.4496542145152
 21
16.72069146040104
 31
0.0
  0
LINE
  5
186E
330
1F
100
AcDbEntity
  8
LOGO
 62
     4
100
AcDbLine
 10
220.1439418721039
 20
35.8029196653448
 30
0.0
 11
197.4496542145152
 21
35.80291966534472
 31
0.0
  0
TEXT
  5
186F
330
1F
100
AcDbEntity
  8
LOGO
  6
Continuous
 62
     7
100
AcDbText
 10
203.446930805279
 20
25.65028112656043
 30
0.0
 40
7.423499999999999
  1
80
  7
CHINESET
 72
     1
 11
209.456430805279
 21
29.36203112656043
 31
0.0
100
AcDbText
 73
     2
  0
LINE
  5
1870
330
1F
100
AcDbEntity
  8
LOGO
 62
     4
100
AcDbLine
 10
220.1439418721039
 20
1.172209219335854
 30
0.0
 11
197.4496542145152
 21
1.172209219335798
 31
0.0
  0
TEXT
  5
1871
330
1F
100
AcDbEntity
  8
LOGO
  6
Continuous
100
AcDbText
 10
204.8577980433097
 20
3.115205183214257
 30
0.0
 40
3.1815
  1
Bore
 41
0.8
  7
CHINESET
 72
     4
 11
208.7967980433097
 21
4.705955183214257
 31
0.0
100
AcDbText
  0
TEXT
  5
1872
330
1F
100
AcDbEntity
  8
LOGO
100
AcDbText
 10
203.1628917933097
 20
9.122197110971175
 30
0.0
 40
5.3025
  1
內徑
  7
CHINESET
 72
     4
 11
208.7967980433097
 21
11.77344711097117
 31
0.0
100
AcDbText
  0
LINE
  5
1873
330
1F
100
AcDbEntity
  8
LOGO
 62
     4
100
AcDbLine
 10
208.7967977173789
 20
23.08143419538226
 30
0.0
 11
208.7967977173789
 21
16.72069146040104
 31
0.0
  0
LINE
  5
1874
330
1F
100
AcDbEntity
  8
LOGO
 62
     4
100
AcDbLine
 10
168.4616805858118
 20
23.0814341953822
 30
0.0
 11
168.4616805858118
 21
16.72069146040098
 31
0.0
  0
LINE
  5
1875
330
1F
100
AcDbEntity
  8
LOGO
 62
     4
100
AcDbLine
 10
187.4406052204577
 20
16.72069146040098
 30
0.0
 11
187.4406052204577
 21
1.172209219335798
 31
0.0
  0
LINE
  5
1876
330
1F
100
AcDbEntity
  8
LOGO
 62
     4
100
AcDbLine
 10
197.4496542145152
 20
16.72069146040104
 30
0.0
 11
197.4496542145152
 21
1.172209219335854
 31
0.0
  0
LINE
  5
1877
330
1F
100
AcDbEntity
  8
LOGO
 62
     4
100
AcDbLine
 10
187.4406052204577
 20
35.80291966534472
 30
0.0
 11
187.4406052204577
 21
23.0814341953822
 31
0.0
  0
LINE
  5
1878
330
1F
100
AcDbEntity
  8
LOGO
 62
     4
100
AcDbLine
 10
197.4496542145152
 20
35.80291966534472
 30
0.0
 11
197.4496542145152
 21
23.08143419538226
 31
0.0
  0
LINE
  5
1879
330
1F
100
AcDbEntity
  8
LOGO
  6
Continuous
 62
     7
100
AcDbLine
 10
189.6323259821596
 20
29.39711541835894
 30
0.0
 11
195.2496697793164
 21
29.39711541835894
 31
0.0
  0
LINE
  5
187A
330
1F
100
AcDbEntity
  8
LOGO
 62
     4
100
AcDbLine
 10
242.2256805771559
 20
23.0814341953822
 30
0.0
 11
242.2256805771559
 21
16.72069146040098
 31
0.0
  0
LINE
  5
187B
330
1F
100
AcDbEntity
  8
LOGO
 62
     4
100
AcDbLine
 10
220.1439418721039
 20
16.72069146040104
 30
0.0
 11
220.1439418721039
 21
1.172209219335854
 31
0.0
  0
LINE
  5
187C
330
1F
100
AcDbEntity
  8
LOGO
 62
     4
100
AcDbLine
 10
231.5664892517129
 20
16.72069146040098
 30
0.0
 11
231.5664892517129
 21
1.172209219335741
 31
0.0
  0
TEXT
  5
187D
330
1F
100
AcDbEntity
  8
LOGO
  6
Continuous
100
AcDbText
 10
236.169314453456
 20
3.115205183214143
 30
0.0
 40
3.1815
  1
Stroke
 41
0.8
  7
CHINESET
 72
     4
 11
241.926314453456
 21
4.705955183214143
 31
0.0
100
AcDbText
  0
TEXT
  5
187E
330
1F
100
AcDbEntity
  8
LOGO
100
AcDbText
 10
236.6238144534559
 20
9.122197110971118
 30
0.0
 40
5.3025
  1
行程
  7
CHINESET
 72
     4
 11
241.926314453456
 21
11.77344711097112
 31
0.0
100
AcDbText
  0
LINE
  5
187F
330
1F
100
AcDbEntity
  8
LOGO
 62
     4
100
AcDbLine
 10
220.1439418721039
 20
35.8029196653448
 30
0.0
 11
220.1439418721039
 21
23.08143419538226
 31
0.0
  0
LINE
  5
1880
330
1F
100
AcDbEntity
  8
LOGO
  6
Continuous
 62
     7
100
AcDbLine
 10
222.335662633806
 20
29.39711541835902
 30
0.0
 11
227.9530064309629
 21
29.39711541835902
 31
0.0
  0
LINE
  5
1881
330
1F
100
AcDbEntity
  8
LOGO
 62
     4
100
AcDbLine
 10
230.1529908661616
 20
35.80291966534458
 30
0.0
 11
230.1529908661616
 21
23.0814341953822
 31
0.0
  0
TEXT
  5
1882
330
1F
100
AcDbEntity
  8
LOGO
  6
Continuous
 62
     7
100
AcDbText
 10
240.8184472154254
 20
25.65028112656037
 30
0.0
 40
7.423499999999999
  1
*
  7
CHINESET
 72
     1
 11
242.5859472154254
 21
29.36203112656037
 31
0.0
100
AcDbText
 73
     2
  0
LINE
  5
1883
330
1F
100
AcDbEntity
  8
LOGO
 62
     4
100
AcDbLine
 10
265.9278940877163
 20
23.0814341953822
 30
0.0
 11
265.9278940877163
 21
16.72069146040098
 31
0.0
  0
LINE
  5
1885
330
1F
100
AcDbEntity
  8
LOGO
 62
     4
100
AcDbLine
 10
276.2877192894594
 20
1.172209219335798
 30
0.0
 11
255.5680688859733
 21
1.172209219335741
 31
0.0
  0
LINE
  5
1886
330
1F
100
AcDbEntity
  8
LOGO
 62
     4
100
AcDbLine
 10
276.2877192894594
 20
16.72069146040098
 30
0.0
 11
255.5680688859733
 21
16.72069146040098
 31
0.0
  0
TEXT
  5
1887
330
1F
100
AcDbEntity
  8
LOGO
  6
Continuous
100
AcDbText
 10
259.4436940877163
 20
3.645455183214142
 30
0.0
 40
3.1815
  1
Magnet
 41
0.8
  7
CHINESET
 72
     4
 11
265.9278940877163
 21
4.705955183214143
 31
0.0
100
AcDbText
  0
TEXT
  5
1888
330
1F
100
AcDbEntity
  8
LOGO
100
AcDbText
 10
257.9741440877163
 20
9.177431485971117
 30
0.0
 40
5.3025
  1
附磁石
  7
CHINESET
 72
     4
 11
265.9278940877163
 21
11.77344711097112
 31
0.0
100
AcDbText
  0
LINE
  5
1889
330
1F
100
AcDbEntity
  8
LOGO
 62
     4
100
AcDbLine
 10
255.5680688859733
 20
16.72069146040098
 30
0.0
 11
255.5680688859733
 21
1.172209219335741
 31
0.0
  0
LINE
  5
188A
330
1F
100
AcDbEntity
  8
LOGO
 62
     4
100
AcDbLine
 10
252.286139655199
 20
16.72069146040098
 30
0.0
 11
252.286139655199
 21
1.113581131429896
 31
0.0
  0
LINE
  5
188B
330
1F
100
AcDbEntity
  8
LOGO
 62
     4
100
AcDbLine
 10
276.2877192894594
 20
16.72069146040098
 30
0.0
 11
276.2877192894594
 21
1.113581131429896
 31
0.0
  0
TEXT
  5
188C
330
1F
100
AcDbEntity
  8
LOGO
  6
Continuous
 62
     7
100
AcDbText
 10
258.6337771756165
 20
25.65028112656037
 30
0.0
 40
7.423499999999999
  1
(M)
  7
CHINESET
 72
     1
 11
266.5875271756164
 21
29.36203112656037
 31
0.0
100
AcDbText
 73
     2
  0
LINE
  5
188D
330
1F
100
AcDbEntity
  8
LOGO
 62
     4
100
AcDbLine
 10
275.2145930683815
 20
23.0814341953822
 30
0.0
 11
256.6411951070511
 21
23.0814341953822
 31
0.0
  0
LINE
  5
188E
330
1F
100
AcDbEntity
  8
LOGO
 62
     4
100
AcDbLine
 10
275.2145930683815
 20
35.80291966534472
 30
0.0
 11
256.6411951070511
 21
35.80291966534458
 31
0.0
  0
LINE
  5
188F
330
1F
100
AcDbEntity
  8
LOGO
 62
     4
100
AcDbLine
 10
256.6411951070511
 20
35.80291966534458
 30
0.0
 11
256.6411951070511
 21
23.0814341953822
 31
0.0
  0
LINE
  5
1890
330
1F
100
AcDbEntity
  8
LOGO
 62
     4
100
AcDbLine
 10
253.6996380407504
 20
35.80291966534458
 30
0.0
 11
253.6996380407504
 21
23.0814341953822
 31
0.0
  0
LINE
  5
1891
330
1F
100
AcDbEntity
  8
LOGO
 62
     4
100
AcDbLine
 10
275.2145930683814
 20
35.80291966534472
 30
0.0
 11
275.2145930683815
 21
23.0814341953822
 31
0.0
  0
LINE
  5
18E7
330
1F
100
AcDbEntity
  8
0
 62
     4
100
AcDbLine
 10
335.5970268586416
 20
520.0275674151736
 30
0.0
 11
-42.67599094580492
 21
520.0275674151737
 31
0.0
  0
LINE
  5
5C68
330
1F
100
AcDbEntity
  8
0
100
AcDbLine
 10
61.60500950808978
 20
130.8995571206591
 30
0.0
 11
61.60500950808978
 21
83.8995571206591
 31
0.0
  0
LINE
  5
5C69
330
1F
100
AcDbEntity
  8
0
100
AcDbLine
 10
61.60500950808978
 20
177.8995571206589
 30
0.0
 11
61.60500950808978
 21
130.8995571206591
 31
0.0
  0
LINE
  5
5C6A
330
1F
100
AcDbEntity
  8
0
100
AcDbLine
 10
61.60500950808978
 20
177.8995571206589
 30
0.0
 11
61.60500950808978
 21
130.8995571206591
 31
0.0
  0
LINE
  5
5C6B
330
1F
100
AcDbEntity
  8
CENTER
 48
1.5
100
AcDbLine
 10
78.00085019890025
 20
130.8995571206591
 30
0.0
 11
11.35081439239798
 21
130.8995571206591
 31
0.0
  0
LINE
  5
5C6C
330
1F
100
AcDbEntity
  8
0
100
AcDbLine
 10
66.60500950808978
 20
109.8995571206591
 30
0.0
 11
66.60500950808978
 21
130.8995571206591
 31
0.0
  0
LINE
  5
5C6D
330
1F
100
AcDbEntity
  8
0
100
AcDbLine
 10
65.10500950808978
 20
108.3995571206591
 30
0.0
 11
61.60500950808978
 21
108.3995571206591
 31
0.0
  0
ARC
  5
5C6E
102
{ACAD_REACTORS
330
5EED
102
}
330
1F
100
AcDbEntity
  8
0
100
AcDbCircle
 10
65.10500950808978
 20
109.8995571206591
 30
0.0
 40
1.5
100
AcDbArc
 50
270.0
 51
0.0
  0
ARC
  5
5C6F
330
1F
100
AcDbEntity
  8
0
100
AcDbCircle
 10
244.1396932763
 20
130.8995571206589
 30
0.0
 40
62.0
100
AcDbArc
 50
40.70613426789399
 51
49.29386573209921
  0
LINE
  5
5C70
330
1F
100
AcDbEntity
  8
0
100
AcDbLine
 10
287.6196932763
 20
151.1995571206588
 30
0.0
 11
291.1396932763
 21
151.1995571206588
 31
0.0
  0
LINE
  5
5C71
330
1F
100
AcDbEntity
  8
0
100
AcDbLine
 10
287.6196932763
 20
154.5995571206589
 30
0.0
 11
291.1396932763
 21
154.5995571206589
 31
0.0
  0
LINE
  5
5C72
330
1F
100
AcDbEntity
  8
0
100
AcDbLine
 10
289.6396932762996
 20
139.299557120659
 30
0.0
 11
290.9396932762998
 21
139.299557120659
 31
0.0
  0
LINE
  5
5C73
330
1F
100
AcDbEntity
  8
0
100
AcDbLine
 10
288.3396932762994
 20
131.999557120659
 30
0.0
 11
290.9396932762998
 21
131.9995571206591
 31
0.0
  0
LINE
  5
5C74
330
1F
100
AcDbEntity
  8
0
100
AcDbLine
 10
288.3396932762994
 20
129.7995571206592
 30
0.0
 11
290.9396932762998
 21
129.7995571206592
 31
0.0
  0
LINE
  5
5C75
330
1F
100
AcDbEntity
  8
0
100
AcDbLine
 10
289.6396932762996
 20
122.4995571206591
 30
0.0
 11
290.9396932762998
 21
122.4995571206591
 31
0.0
  0
LINE
  5
5C76
330
1F
100
AcDbEntity
  8
0
100
AcDbLine
 10
287.6196932763
 20
107.1995571206588
 30
0.0
 11
291.1396932763
 21
107.1995571206588
 31
0.0
  0
LINE
  5
5C77
330
1F
100
AcDbEntity
  8
0
100
AcDbLine
 10
287.6196932763
 20
110.5995571206589
 30
0.0
 11
291.1396932763
 21
110.5995571206589
 31
0.0
  0
ARC
  5
5C78
330
1F
100
AcDbEntity
  8
0
100
AcDbCircle
 10
244.1396932763
 20
130.8995571206589
 30
0.0
 40
62.0
100
AcDbArc
 50
310.7061342679009
 51
319.2938657320778
  0
LINE
  5
5C79
330
1F
100
AcDbEntity
  8
0
100
AcDbLine
 10
291.1396932763
 20
171.3346903589705
 30
0.0
 11
291.1396932763
 21
154.5995571206588
 31
0.0
  0
LINE
  5
5C7A
330
1F
100
AcDbEntity
  8
0
100
AcDbLine
 10
291.1396932763
 20
107.1995571206588
 30
0.0
 11
291.1396932763
 21
90.46442388234742
 31
0.0
  0
LINE
  5
5C7B
330
1F
100
AcDbEntity
  8
0
100
AcDbLine
 10
291.1396932763
 20
122.299557120659
 30
0.0
 11
291.1396932763
 21
110.5995571206589
 31
0.0
  0
ARC
  5
5C7C
330
1F
100
AcDbEntity
  8
0
100
AcDbCircle
 10
290.9396932762998
 20
122.299557120659
 30
0.0
 40
0.2
100
AcDbArc
 50
0.0
 51
90.0
  0
LINE
  5
5C7D
330
1F
100
AcDbEntity
  8
0
100
AcDbLine
 10
291.1396932763
 20
151.1995571206588
 30
0.0
 11
291.1396932763
 21
139.499557120659
 31
0.0
  0
LINE
  5
5C7E
330
1F
100
AcDbEntity
  8
0
100
AcDbLine
 10
291.1396932762995
 20
129.999557120659
 30
0.0
 11
291.1396932762995
 21
131.7995571206589
 31
0.0
  0
ARC
  5
5C7F
330
1F
100
AcDbEntity
  8
0
100
AcDbCircle
 10
290.9396932762998
 20
129.999557120659
 30
0.0
 40
0.2
100
AcDbArc
 50
270.0
 51
0.0
  0
ARC
  5
5C80
330
1F
100
AcDbEntity
  8
0
100
AcDbCircle
 10
290.9396932762998
 20
131.7995571206589
 30
0.0
 40
0.2
100
AcDbArc
 50
0.0
 51
90.0
  0
ARC
  5
5C81
330
1F
100
AcDbEntity
  8
0
100
AcDbCircle
 10
290.9396932762998
 20
139.499557120659
 30
0.0
 40
0.2
100
AcDbArc
 50
270.0
 51
0.0
  0
ARC
  5
5C82
330
1F
100
AcDbEntity
  8
0
100
AcDbCircle
 10
245.921428655824
 20
130.8995571206591
 30
0.0
 40
38.53173537952415
100
AcDbArc
 50
33.06478044552914
 51
326.9352195544708
  0
CIRCLE
  5
5C83
330
1F
100
AcDbEntity
  8
0
100
AcDbCircle
 10
244.1396932763
 20
130.8995571206591
 30
0.0
 40
41.0
  0
LINE
  5
5C84
330
1F
100
AcDbEntity
  8
0
100
AcDbLine
 10
197.1396932763
 20
171.3346903589703
 30
0.0
 11
197.1396932763
 21
154.5995571206589
 31
0.0
  0
LINE
  5
5C85
330
1F
100
AcDbEntity
  8
CENTER
 48
1.5
100
AcDbLine
 10
244.1396932763
 20
182.8995571206588
 30
0.0
 11
244.1396932763
 21
78.89955712065887
 31
0.0
  0
CIRCLE
  5
5C86
330
1F
100
AcDbEntity
  8
0
100
AcDbCircle
 10
207.1396932763
 20
93.89955712065887
 30
0.0
 40
7.0
  0
ARC
  5
5C87
330
1F
100
AcDbEntity
  8
0
 62
     3
100
AcDbCircle
 10
207.1396932763
 20
93.89955712065887
 30
0.0
 40
6.0
100
AcDbArc
 50
253.7695004067114
 51
199.4352408154539
  0
LINE
  5
5C88
330
1F
100
AcDbEntity
  8
0
100
AcDbLine
 10
201.1596932763
 20
150.7495571206589
 30
0.0
 11
203.2596932762999
 21
150.7495571206589
 31
0.0
  0
LINE
  5
5C89
330
1F
100
AcDbEntity
  8
0
100
AcDbLine
 10
203.2596932762999
 20
155.0495571206589
 30
0.0
 11
201.1596932763
 21
155.0495571206589
 31
0.0
  0
LINE
  5
5C8A
330
1F
100
AcDbEntity
  8
0
100
AcDbLine
 10
203.2596932762999
 20
106.7495571206588
 30
0.0
 11
201.1596932763
 21
106.7495571206588
 31
0.0
  0
LINE
  5
5C8B
330
1F
100
AcDbEntity
  8
0
100
AcDbLine
 10
201.1596932763
 20
111.0495571206588
 30
0.0
 11
203.2596932762999
 21
111.0495571206589
 31
0.0
  0
ARC
  5
5C8C
330
1F
100
AcDbEntity
  8
0
100
AcDbCircle
 10
244.1396932763
 20
130.8995571206589
 30
0.0
 40
62.0
100
AcDbArc
 50
220.7061342679221
 51
229.2938657320992
  0
LINE
  5
5C8D
330
1F
100
AcDbEntity
  8
CENTER
 48
1.5
100
AcDbLine
 10
199.2396932762999
 20
93.89955712065887
 30
0.0
 11
215.0396932763001
 21
93.89955712065887
 31
0.0
  0
CIRCLE
  5
5C8E
330
1F
100
AcDbEntity
  8
0
100
AcDbCircle
 10
281.1396932763
 20
93.89955712065887
 30
0.0
 40
7.0
  0
ARC
  5
5C8F
330
1F
100
AcDbEntity
  8
0
 62
     3
100
AcDbCircle
 10
281.1396932763
 20
93.89955712065887
 30
0.0
 40
6.0
100
AcDbArc
 50
253.7695004067114
 51
199.4352408154539
  0
CIRCLE
  5
5C90
330
1F
100
AcDbEntity
  8
0
100
AcDbCircle
 10
207.1396932763
 20
93.89955712065887
 30
0.0
 40
5.25
  0
LINE
  5
5C91
330
1F
100
AcDbEntity
  8
CENTER
 48
1.5
100
AcDbLine
 10
207.1396932763
 20
85.57532087774006
 30
0.0
 11
207.1396932763
 21
102.1921401635163
 31
0.0
  0
LINE
  5
5C92
330
1F
100
AcDbEntity
  8
CENTER
 48
1.5
100
AcDbLine
 10
281.1396932763
 20
85.9995571206589
 30
0.0
 11
281.1396932763
 21
101.7995571206588
 31
0.0
  0
CIRCLE
  5
5C93
330
1F
100
AcDbEntity
  8
0
100
AcDbCircle
 10
281.1396932763
 20
93.89955712065887
 30
0.0
 40
5.25
  0
LINE
  5
5C94
330
1F
100
AcDbEntity
  8
0
100
AcDbLine
 10
245.4396932762997
 20
86.89955712065886
 30
0.0
 11
254.0396932763001
 21
86.89955712065886
 31
0.0
  0
ARC
  5
5C95
330
1F
100
AcDbEntity
  8
0
100
AcDbCircle
 10
266.5896932762998
 20
90.01955712065887
 30
0.0
 40
1.7
100
AcDbArc
 50
0.0
 51
90.0
  0
LINE
  5
5C96
330
1F
100
AcDbEntity
  8
0
100
AcDbLine
 10
267.8396932762999
 20
83.89955712065887
 30
0.0
 11
284.5748265146117
 21
83.89955712065887
 31
0.0
  0
LINE
  5
5C97
330
1F
100
AcDbEntity
  8
CENTER
 48
1.5
100
AcDbLine
 10
289.0396932763001
 20
93.89955712065887
 30
0.0
 11
273.2396932762999
 21
93.89955712065887
 31
0.0
  0
LINE
  5
5C98
330
1F
100
AcDbEntity
  8
0
100
AcDbLine
 10
252.7396932762999
 20
83.89955712065887
 30
0.0
 11
264.4396932762997
 21
83.89955712065887
 31
0.0
  0
LINE
  5
5C99
330
1F
100
AcDbEntity
  8
0
100
AcDbLine
 10
264.4396932762997
 20
87.41955712065886
 30
0.0
 11
263.9896932762999
 21
87.91955712065885
 31
0.0
  0
LINE
  5
5C9A
330
1F
100
AcDbEntity
  8
0
100
AcDbLine
 10
267.8396932762999
 20
87.41955712065886
 30
0.0
 11
268.2896932763001
 21
87.91955712065885
 31
0.0
  0
LINE
  5
5C9B
330
1F
100
AcDbEntity
  8
0
100
AcDbLine
 10
264.4396932762997
 20
87.41955712065886
 30
0.0
 11
264.4396932762997
 21
83.89955712065887
 31
0.0
  0
LINE
  5
5C9C
330
1F
100
AcDbEntity
  8
0
100
AcDbLine
 10
267.8396932762999
 20
87.41955712065886
 30
0.0
 11
267.8396932762999
 21
83.89955712065887
 31
0.0
  0
ARC
  5
5C9D
330
1F
100
AcDbEntity
  8
0
100
AcDbCircle
 10
265.6896932762998
 20
90.01955712065887
 30
0.0
 40
1.7
100
AcDbArc
 50
90.0
 51
180.0
  0
LINE
  5
5C9E
330
1F
100
AcDbEntity
  8
0
100
AcDbLine
 10
268.2896932763001
 20
90.01955712065898
 30
0.0
 11
268.2896932763001
 21
87.91955712065885
 31
0.0
  0
LINE
  5
5C9F
330
1F
100
AcDbEntity
  8
0
100
AcDbLine
 10
263.9896932762999
 20
87.91955712065885
 30
0.0
 11
263.9896932762999
 21
90.01955712065887
 31
0.0
  0
LINE
  5
5CA0
330
1F
100
AcDbEntity
  8
0
100
AcDbLine
 10
265.6896932762998
 20
91.71955712065892
 30
0.0
 11
266.5896932762998
 21
91.71955712065892
 31
0.0
  0
ARC
  5
5CA1
330
1F
100
AcDbEntity
  8
0
100
AcDbCircle
 10
252.7396932762999
 20
84.09955712065892
 30
0.0
 40
0.2
100
AcDbArc
 50
180.0
 51
270.0
  0
ARC
  5
5CA2
330
1F
100
AcDbEntity
  8
0
100
AcDbCircle
 10
254.0396932763001
 20
86.69955712065904
 30
0.0
 40
0.2
100
AcDbArc
 50
0.0
 51
90.0
  0
ARC
  5
5CA3
330
1F
100
AcDbEntity
  8
0
100
AcDbCircle
 10
254.0396932763001
 20
85.79955712065896
 30
0.0
 40
0.2
100
AcDbArc
 50
270.0
 51
0.0
  0
ARC
  5
5CA4
330
1F
100
AcDbEntity
  8
0
100
AcDbCircle
 10
252.7396932762999
 20
85.39955712065887
 30
0.0
 40
0.2
100
AcDbArc
 50
90.0
 51
180.0
  0
LINE
  5
5CA5
330
1F
100
AcDbEntity
  8
0
100
AcDbLine
 10
252.7396932762999
 20
85.59955712065891
 30
0.0
 11
254.0396932763001
 21
85.59955712065891
 31
0.0
  0
LINE
  5
5CA6
330
1F
100
AcDbEntity
  8
0
100
AcDbLine
 10
254.2396932762999
 20
86.69955712065904
 30
0.0
 11
254.2396932762999
 21
85.79955712065896
 31
0.0
  0
LINE
  5
5CA7
330
1F
100
AcDbEntity
  8
0
100
AcDbLine
 10
252.5396932763001
 20
85.39955712065887
 30
0.0
 11
252.5396932763001
 21
84.09955712065892
 31
0.0
  0
ARC
  5
5CA8
330
1F
100
AcDbEntity
  8
0
100
AcDbCircle
 10
222.5896932762998
 20
90.01955712065887
 30
0.0
 40
1.7
100
AcDbArc
 50
0.0
 51
90.0
  0
LINE
  5
5CA9
330
1F
100
AcDbEntity
  8
0
100
AcDbLine
 10
223.8396932762999
 20
87.41955712065886
 30
0.0
 11
224.2896932763001
 21
87.91955712065885
 31
0.0
  0
LINE
  5
5CAA
330
1F
100
AcDbEntity
  8
0
100
AcDbLine
 10
223.8396932762999
 20
83.89955712065887
 30
0.0
 11
235.5396932763001
 21
83.89955712065887
 31
0.0
  0
LINE
  5
5CAB
330
1F
100
AcDbEntity
  8
0
100
AcDbLine
 10
234.2396932762999
 20
85.59955712065891
 30
0.0
 11
235.5396932763001
 21
85.59955712065891
 31
0.0
  0
LINE
  5
5CAC
330
1F
100
AcDbEntity
  8
0
100
AcDbLine
 10
234.2396932762999
 20
86.89955712065886
 30
0.0
 11
242.8396932762999
 21
86.89955712065886
 31
0.0
  0
ARC
  5
5CAD
330
1F
100
AcDbEntity
  8
0
100
AcDbCircle
 10
243.2396932762999
 20
84.09955712065892
 30
0.0
 40
0.2
100
AcDbArc
 50
180.0
 51
270.0
  0
ARC
  5
5CAE
330
1F
100
AcDbEntity
  8
0
100
AcDbCircle
 10
245.0396932763001
 20
84.09955712065892
 30
0.0
 40
0.2
100
AcDbArc
 50
270.0
 51
0.0
  0
ARC
  5
5CAF
330
1F
100
AcDbEntity
  8
0
100
AcDbCircle
 10
242.8396932762999
 20
86.69955712065904
 30
0.0
 40
0.2
100
AcDbArc
 50
0.0
 51
90.0
  0
ARC
  5
5CB0
330
1F
100
AcDbEntity
  8
0
100
AcDbCircle
 10
245.4396932762997
 20
86.69955712065904
 30
0.0
 40
0.2
100
AcDbArc
 50
90.0
 51
180.0
  0
LINE
  5
5CB1
330
1F
100
AcDbEntity
  8
0
100
AcDbLine
 10
243.2396932762999
 20
83.89955712065887
 30
0.0
 11
245.0396932763001
 21
83.89955712065887
 31
0.0
  0
LINE
  5
5CB2
330
1F
100
AcDbEntity
  8
0
100
AcDbLine
 10
243.0396932763001
 20
86.69955712065904
 30
0.0
 11
243.0396932763001
 21
84.09955712065892
 31
0.0
  0
LINE
  5
5CB3
330
1F
100
AcDbEntity
  8
0
100
AcDbLine
 10
245.2396932762999
 20
86.69955712065904
 30
0.0
 11
245.2396932762999
 21
84.09955712065892
 31
0.0
  0
ARC
  5
5CB4
330
1F
100
AcDbEntity
  8
0
100
AcDbCircle
 10
235.5396932763001
 20
84.09955712065892
 30
0.0
 40
0.2
100
AcDbArc
 50
270.0
 51
0.0
  0
ARC
  5
5CB5
330
1F
100
AcDbEntity
  8
0
100
AcDbCircle
 10
235.5396932763001
 20
85.39955712065887
 30
0.0
 40
0.2
100
AcDbArc
 50
0.0
 51
90.0
  0
LINE
  5
5CB6
330
1F
100
AcDbEntity
  8
0
100
AcDbLine
 10
235.7396932762999
 20
85.39955712065887
 30
0.0
 11
235.7396932762999
 21
84.09955712065892
 31
0.0
  0
ARC
  5
5CB7
330
1F
100
AcDbEntity
  8
0
100
AcDbCircle
 10
234.2396932762999
 20
85.79955712065896
 30
0.0
 40
0.2
100
AcDbArc
 50
180.0
 51
270.0
  0
ARC
  5
5CB8
330
1F
100
AcDbEntity
  8
0
100
AcDbCircle
 10
234.2396932762999
 20
86.69955712065883
 30
0.0
 40
0.2
100
AcDbArc
 50
90.0
 51
180.0
  0
LINE
  5
5CB9
330
1F
100
AcDbEntity
  8
0
100
AcDbLine
 10
234.0396932763001
 20
86.69955712065883
 30
0.0
 11
234.0396932763001
 21
85.79955712065896
 31
0.0
  0
LINE
  5
5CBA
330
1F
100
AcDbEntity
  8
0
100
AcDbLine
 10
224.2896932763001
 20
87.91955712065885
 30
0.0
 11
224.2896932763001
 21
90.01955712065887
 31
0.0
  0
LINE
  5
5CBB
330
1F
100
AcDbEntity
  8
0
100
AcDbLine
 10
203.7045600379884
 20
83.89955712065887
 30
0.0
 11
220.4396932762997
 21
83.89955712065887
 31
0.0
  0
LINE
  5
5CBC
330
1F
100
AcDbEntity
  8
0
100
AcDbLine
 10
220.4396932762997
 20
87.41955712065886
 30
0.0
 11
219.9896932763
 21
87.91955712065885
 31
0.0
  0
LINE
  5
5CBD
330
1F
100
AcDbEntity
  8
0
100
AcDbLine
 10
220.4396932762997
 20
87.41955712065886
 30
0.0
 11
220.4396932762997
 21
83.89955712065887
 31
0.0
  0
LINE
  5
5CBE
330
1F
100
AcDbEntity
  8
0
100
AcDbLine
 10
223.8396932762999
 20
87.41955712065886
 30
0.0
 11
223.8396932762999
 21
83.89955712065887
 31
0.0
  0
ARC
  5
5CBF
330
1F
100
AcDbEntity
  8
0
100
AcDbCircle
 10
221.6896932762998
 20
90.01955712065887
 30
0.0
 40
1.7
100
AcDbArc
 50
90.0
 51
180.0
  0
LINE
  5
5CC0
330
1F
100
AcDbEntity
  8
0
100
AcDbLine
 10
219.9896932763
 20
90.01955712065898
 30
0.0
 11
219.9896932763
 21
87.91955712065885
 31
0.0
  0
LINE
  5
5CC1
330
1F
100
AcDbEntity
  8
0
100
AcDbLine
 10
222.5896932762998
 20
91.71955712065892
 30
0.0
 11
221.6896932762998
 21
91.71955712065892
 31
0.0
  0
CIRCLE
  5
5CC2
330
1F
100
AcDbEntity
  8
0
100
AcDbCircle
 10
244.1396932763
 20
130.8995571206591
 30
0.0
 40
6.25
  0
ARC
  5
5CC3
330
1F
100
AcDbEntity
  8
0
 62
     3
100
AcDbCircle
 10
244.1396932763
 20
130.8995571206591
 30
0.0
 40
7.0
100
AcDbArc
 50
250.5640305264892
 51
200.2981581249894
  0
CIRCLE
  5
5CC4
330
1F
100
AcDbEntity
  8
0
100
AcDbCircle
 10
244.1396932763
 20
130.8995571206591
 30
0.0
 40
22.49999999999997
  0
LINE
  5
5CC5
330
1F
100
AcDbEntity
  8
0
100
AcDbLine
 10
288.1396932762996
 20
120.999557120659
 30
0.0
 11
288.1396932762996
 21
129.5995571206591
 31
0.0
  0
ARC
  5
5CC6
330
1F
100
AcDbEntity
  8
0
100
AcDbCircle
 10
274.8608961010309
 20
112.0594941613881
 30
0.0
 40
4.0
100
AcDbArc
 50
326.9352195544708
 51
36.3392806080652
  0
ARC
  5
5CC7
330
1F
100
AcDbEntity
  8
0
100
AcDbCircle
 10
285.0196932762997
 20
109.3495571206589
 30
0.0
 40
1.7
100
AcDbArc
 50
90.0
 51
180.0
  0
ARC
  5
5CC8
330
1F
100
AcDbEntity
  8
0
100
AcDbCircle
 10
285.0196932762997
 20
108.4495571206588
 30
0.0
 40
1.7
100
AcDbArc
 50
180.0
 51
270.0
  0
LINE
  5
5CC9
330
1F
100
AcDbEntity
  8
0
100
AcDbLine
 10
287.6196932763
 20
107.1995571206588
 30
0.0
 11
287.1196932763
 21
106.7495571206588
 31
0.0
  0
LINE
  5
5CCA
330
1F
100
AcDbEntity
  8
0
100
AcDbLine
 10
285.0196932762997
 20
106.7495571206588
 30
0.0
 11
287.1196932763
 21
106.7495571206588
 31
0.0
  0
LINE
  5
5CCB
330
1F
100
AcDbEntity
  8
0
100
AcDbLine
 10
287.6196932763
 20
110.5995571206589
 30
0.0
 11
287.1196932763
 21
111.0495571206589
 31
0.0
  0
LINE
  5
5CCC
330
1F
100
AcDbEntity
  8
0
100
AcDbLine
 10
287.1196932763
 20
111.0495571206588
 30
0.0
 11
285.0196932762997
 21
111.0495571206588
 31
0.0
  0
LINE
  5
5CCD
330
1F
100
AcDbEntity
  8
0
100
AcDbLine
 10
283.3196932762998
 20
109.3495571206589
 30
0.0
 11
283.3196932762998
 21
108.4495571206588
 31
0.0
  0
ARC
  5
5CCE
330
1F
100
AcDbEntity
  8
0
100
AcDbCircle
 10
281.3050738841348
 20
116.8000186787541
 30
0.0
 40
4.0
100
AcDbArc
 50
75.00000000000555
 51
159.224611750322
  0
CIRCLE
  5
5CCF
330
1F
100
AcDbEntity
  8
0
100
AcDbCircle
 10
281.3050738841348
 20
116.8000186787541
 30
0.0
 40
1.25
  0
LINE
  5
5CD0
330
1F
100
AcDbEntity
  8
0
100
AcDbLine
 10
289.4396932762997
 20
120.999557120659
 30
0.0
 11
289.4396932762997
 21
122.299557120659
 31
0.0
  0
ARC
  5
5CD1
330
1F
100
AcDbEntity
  8
0
100
AcDbCircle
 10
289.6396932762996
 20
122.299557120659
 30
0.0
 40
0.2
100
AcDbArc
 50
90.0
 51
180.0
  0
ARC
  5
5CD2
330
1F
100
AcDbEntity
  8
0
100
AcDbCircle
 10
289.2396932762999
 20
120.999557120659
 30
0.0
 40
0.2
100
AcDbArc
 50
270.0
 51
0.0
  0
ARC
  5
5CD3
330
1F
100
AcDbEntity
  8
0
100
AcDbCircle
 10
288.3396932762998
 20
120.999557120659
 30
0.0
 40
0.2
100
AcDbArc
 50
180.0
 51
270.0
  0
LINE
  5
5CD4
330
1F
100
AcDbEntity
  8
0
100
AcDbLine
 10
288.3396932762998
 20
120.7995571206592
 30
0.0
 11
289.2396932762999
 21
120.7995571206592
 31
0.0
  0
LINE
  5
5CD5
330
1F
100
AcDbEntity
  8
0
100
AcDbLine
 10
282.340350064545
 20
120.6637219839103
 30
0.0
 11
283.7426521541516
 21
120.2879762714558
 31
0.0
  0
ARC
  5
5CD6
330
1F
100
AcDbEntity
  8
0
100
AcDbCircle
 10
281.3050738841348
 20
116.8000186787541
 30
0.0
 40
4.0
100
AcDbArc
 50
159.224611750322
 51
216.3392806080652
  0
ARC
  5
5CD7
330
1F
100
AcDbEntity
  8
0
100
AcDbCircle
 10
244.1396932763
 20
130.8995571206591
 30
0.0
 40
35.75
100
AcDbArc
 50
339.2246117503221
 51
339.2246117503221
  0
ARC
  5
5CD8
330
1F
100
AcDbEntity
  8
0
100
AcDbCircle
 10
281.3050738841353
 20
144.9990955625641
 30
0.0
 40
4.0
100
AcDbArc
 50
200.7753882496757
 51
284.9999999999944
  0
LINE
  5
5CD9
330
1F
100
AcDbEntity
  8
0
100
AcDbLine
 10
288.1396932762996
 20
132.199557120659
 30
0.0
 11
288.1396932762996
 21
140.7995571206589
 31
0.0
  0
ARC
  5
5CDA
330
1F
100
AcDbEntity
  8
0
100
AcDbCircle
 10
288.3396932762994
 20
129.599557120659
 30
0.0
 40
0.2
100
AcDbArc
 50
90.0
 51
180.0
  0
ARC
  5
5CDB
330
1F
100
AcDbEntity
  8
0
100
AcDbCircle
 10
288.3396932762994
 20
132.1995571206589
 30
0.0
 40
0.2
100
AcDbArc
 50
180.0
 51
270.0
  0
ARC
  5
5CDC
330
1F
100
AcDbEntity
  8
0
100
AcDbCircle
 10
288.3396932762994
 20
140.7995571206589
 30
0.0
 40
0.2
100
AcDbArc
 50
90.0
 51
180.0
  0
ARC
  5
5CDD
330
1F
100
AcDbEntity
  8
0
100
AcDbCircle
 10
289.2396932762999
 20
140.7995571206589
 30
0.0
 40
0.2
100
AcDbArc
 50
0.0
 51
90.0
  0
LINE
  5
5CDE
330
1F
100
AcDbEntity
  8
0
100
AcDbLine
 10
289.4396932762997
 20
139.499557120659
 30
0.0
 11
289.4396932762997
 21
140.7995571206589
 31
0.0
  0
LINE
  5
5CDF
330
1F
100
AcDbEntity
  8
0
100
AcDbLine
 10
288.3396932762994
 20
140.999557120659
 30
0.0
 11
289.2396932762999
 21
140.999557120659
 31
0.0
  0
ARC
  5
5CE0
330
1F
100
AcDbEntity
  8
0
100
AcDbCircle
 10
289.6396932762996
 20
139.499557120659
 30
0.0
 40
0.2
100
AcDbArc
 50
180.0
 51
270.0
  0
LINE
  5
5CE1
330
1F
100
AcDbEntity
  8
0
100
AcDbLine
 10
282.340350064545
 20
141.1353922574078
 30
0.0
 11
283.7426521541516
 21
141.5111379698624
 31
0.0
  0
CIRCLE
  5
5CE2
330
1F
100
AcDbEntity
  8
0
100
AcDbCircle
 10
281.3050738841353
 20
144.9990955625641
 30
0.0
 40
1.25
  0
ARC
  5
5CE3
330
1F
100
AcDbEntity
  8
0
100
AcDbCircle
 10
285.0196932762997
 20
152.4495571206588
 30
0.0
 40
1.7
100
AcDbArc
 50
180.0
 51
270.0
  0
ARC
  5
5CE4
330
1F
100
AcDbEntity
  8
0
100
AcDbCircle
 10
285.0196932762997
 20
153.3495571206589
 30
0.0
 40
1.7
100
AcDbArc
 50
90.0
 51
180.0
  0
LINE
  5
5CE5
330
1F
100
AcDbEntity
  8
0
100
AcDbLine
 10
287.6196932763
 20
151.1995571206588
 30
0.0
 11
287.1196932763
 21
150.7495571206588
 31
0.0
  0
LINE
  5
5CE6
330
1F
100
AcDbEntity
  8
0
100
AcDbLine
 10
287.1196932763
 20
150.7495571206589
 30
0.0
 11
285.0196932762997
 21
150.7495571206588
 31
0.0
  0
LINE
  5
5CE7
330
1F
100
AcDbEntity
  8
0
100
AcDbLine
 10
285.0196932762997
 20
155.0495571206589
 30
0.0
 11
287.1196932763
 21
155.0495571206589
 31
0.0
  0
LINE
  5
5CE8
330
1F
100
AcDbEntity
  8
0
100
AcDbLine
 10
287.6196932763
 20
154.5995571206589
 30
0.0
 11
287.1196932763
 21
155.0495571206589
 31
0.0
  0
LINE
  5
5CE9
330
1F
100
AcDbEntity
  8
0
100
AcDbLine
 10
283.3196932762998
 20
152.4495571206588
 30
0.0
 11
283.3196932762998
 21
153.3495571206589
 31
0.0
  0
ARC
  5
5CEA
330
1F
100
AcDbEntity
  8
0
100
AcDbCircle
 10
274.8608961010309
 20
149.7396200799301
 30
0.0
 40
4.0
100
AcDbArc
 50
323.6607193919348
 51
33.06478044552914
  0
ARC
  5
5CEB
330
1F
100
AcDbEntity
  8
0
100
AcDbCircle
 10
281.3050738841353
 20
144.9990955625641
 30
0.0
 40
4.0
100
AcDbArc
 50
143.6607193919348
 51
200.7753882496757
  0
ARC
  5
5CEC
330
1F
100
AcDbEntity
  8
0
100
AcDbCircle
 10
244.1396932763
 20
130.8995571206591
 30
0.0
 40
35.75
100
AcDbArc
 50
20.77538824967792
 51
20.77538824967792
  0
ARC
  5
5CED
330
1F
100
AcDbEntity
  8
0
100
AcDbCircle
 10
203.2596932762999
 20
109.3495571206589
 30
0.0
 40
1.7
100
AcDbArc
 50
0.0
 51
90.0
  0
ARC
  5
5CEE
330
1F
100
AcDbEntity
  8
0
100
AcDbCircle
 10
203.2596932762999
 20
108.4495571206588
 30
0.0
 40
1.7
100
AcDbArc
 50
270.0
 51
0.0
  0
LINE
  5
5CEF
330
1F
100
AcDbEntity
  8
0
100
AcDbLine
 10
204.9596932763002
 20
109.3495571206589
 30
0.0
 11
204.9596932763002
 21
108.4495571206588
 31
0.0
  0
ARC
  5
5CF0
330
1F
100
AcDbEntity
  8
0
100
AcDbCircle
 10
203.2596932762999
 20
153.3495571206589
 30
0.0
 40
1.7
100
AcDbArc
 50
0.0
 51
90.0
  0
LINE
  5
5CF1
330
1F
100
AcDbEntity
  8
0
100
AcDbLine
 10
204.9596932763002
 20
152.4495571206588
 30
0.0
 11
204.9596932763002
 21
153.3495571206589
 31
0.0
  0
ARC
  5
5CF2
330
1F
100
AcDbEntity
  8
0
100
AcDbCircle
 10
203.2596932762999
 20
152.4495571206588
 30
0.0
 40
1.7
100
AcDbArc
 50
270.0
 51
0.0
  0
LINE
  5
5CF3
330
1F
100
AcDbEntity
  8
0
100
AcDbLine
 10
197.1396932763
 20
107.1995571206588
 30
0.0
 11
197.1396932763
 21
90.46442388234742
 31
0.0
  0
LINE
  5
5CF4
330
1F
100
AcDbEntity
  8
0
100
AcDbLine
 10
189.1396932763
 20
144.3995571206588
 30
0.0
 11
189.1396932763
 21
117.3995571206589
 31
0.0
  0
LINE
  5
5CF5
330
1F
100
AcDbEntity
  8
0
100
AcDbLine
 10
197.1396932763
 20
111.3995571206588
 30
0.0
 11
197.1396932763
 21
110.5995571206589
 31
0.0
  0
LINE
  5
5CF6
330
1F
100
AcDbEntity
  8
0
100
AcDbLine
 10
200.6596932763
 20
107.1995571206588
 30
0.0
 11
197.1396932763
 21
107.1995571206588
 31
0.0
  0
LINE
  5
5CF7
330
1F
100
AcDbEntity
  8
0
100
AcDbLine
 10
200.6596932763
 20
107.1995571206588
 30
0.0
 11
201.1596932763
 21
106.7495571206588
 31
0.0
  0
LINE
  5
5CF8
330
1F
100
AcDbEntity
  8
0
100
AcDbLine
 10
200.6596932763
 20
110.5995571206589
 30
0.0
 11
197.1396932763
 21
110.5995571206589
 31
0.0
  0
LINE
  5
5CF9
330
1F
100
AcDbEntity
  8
0
100
AcDbLine
 10
200.6596932763
 20
110.5995571206589
 30
0.0
 11
201.1596932763
 21
111.0495571206589
 31
0.0
  0
LINE
  5
5CFA
330
1F
100
AcDbEntity
  8
0
100
AcDbLine
 10
189.1396932763
 20
117.3995571206589
 30
0.0
 11
197.1396932763
 21
111.3995571206588
 31
0.0
  0
LINE
  5
5CFB
330
1F
100
AcDbEntity
  8
0
100
AcDbLine
 10
189.1396932763
 20
144.3995571206588
 30
0.0
 11
197.1396932762995
 21
150.3995571206587
 31
0.0
  0
LINE
  5
5CFC
330
1F
100
AcDbEntity
  8
0
100
AcDbLine
 10
200.6596932763
 20
151.1995571206588
 30
0.0
 11
197.1396932763
 21
151.1995571206588
 31
0.0
  0
LINE
  5
5CFD
330
1F
100
AcDbEntity
  8
0
100
AcDbLine
 10
197.1396932763
 20
151.1995571206589
 30
0.0
 11
197.1396932762995
 21
150.3995571206587
 31
0.0
  0
LINE
  5
5CFE
330
1F
100
AcDbEntity
  8
0
100
AcDbLine
 10
200.6596932763
 20
151.1995571206588
 30
0.0
 11
201.1596932763
 21
150.7495571206588
 31
0.0
  0
LINE
  5
5CFF
330
1F
100
AcDbEntity
  8
0
100
AcDbLine
 10
200.6596932763
 20
154.5995571206589
 30
0.0
 11
197.1396932763
 21
154.5995571206589
 31
0.0
  0
LINE
  5
5D00
330
1F
100
AcDbEntity
  8
0
100
AcDbLine
 10
200.6596932763
 20
154.5995571206589
 30
0.0
 11
201.1596932763
 21
155.0495571206589
 31
0.0
  0
CIRCLE
  5
5D01
330
1F
100
AcDbEntity
  8
0
100
AcDbCircle
 10
207.1396932763
 20
167.8995571206588
 30
0.0
 40
7.0
  0
ARC
  5
5D02
330
1F
100
AcDbEntity
  8
0
 62
     3
100
AcDbCircle
 10
207.1396932763
 20
167.8995571206588
 30
0.0
 40
6.0
100
AcDbArc
 50
253.7695004067114
 51
199.4352408154539
  0
ARC
  5
5D03
330
1F
100
AcDbEntity
  8
0
100
AcDbCircle
 10
244.1396932763
 20
130.8995571206589
 30
0.0
 40
62.0
100
AcDbArc
 50
130.7061342679008
 51
139.2938657320778
  0
LINE
  5
5D04
330
1F
100
AcDbEntity
  8
CENTER
 48
1.5
100
AcDbLine
 10
199.2396932762999
 20
167.8995571206588
 30
0.0
 11
215.0396932763001
 21
167.8995571206588
 31
0.0
  0
LINE
  5
5D05
330
1F
100
AcDbEntity
  8
0
100
AcDbLine
 10
254.0396932762996
 20
174.8995571206588
 30
0.0
 11
245.4396932762997
 21
174.8995571206588
 31
0.0
  0
ARC
  5
5D06
330
1F
100
AcDbEntity
  8
0
100
AcDbCircle
 10
266.5896932762998
 20
171.7795571206588
 30
0.0
 40
1.7
100
AcDbArc
 50
270.0
 51
0.0
  0
LINE
  5
5D07
330
1F
100
AcDbEntity
  8
0
100
AcDbLine
 10
267.8396932762999
 20
177.8995571206588
 30
0.0
 11
284.5748265146117
 21
177.8995571206588
 31
0.0
  0
CIRCLE
  5
5D08
330
1F
100
AcDbEntity
  8
0
100
AcDbCircle
 10
281.1396932762995
 20
167.8995571206588
 30
0.0
 40
7.0
  0
ARC
  5
5D09
330
1F
100
AcDbEntity
  8
0
 62
     3
100
AcDbCircle
 10
281.1396932762995
 20
167.8995571206588
 30
0.0
 40
6.0
100
AcDbArc
 50
253.7695004067114
 51
199.4352408154539
  0
LINE
  5
5D0A
330
1F
100
AcDbEntity
  8
CENTER
 48
1.5
100
AcDbLine
 10
281.1396932763
 20
175.7995571206588
 30
0.0
 11
281.1396932763
 21
159.9995571206589
 31
0.0
  0
LINE
  5
5D0B
330
1F
100
AcDbEntity
  8
CENTER
 48
1.5
100
AcDbLine
 10
289.0396932763001
 20
167.8995571206588
 30
0.0
 11
273.2396932762999
 21
167.8995571206588
 31
0.0
  0
CIRCLE
  5
5D0C
330
1F
100
AcDbEntity
  8
0
100
AcDbCircle
 10
281.1396932762995
 20
167.8995571206588
 30
0.0
 40
5.25
  0
LINE
  5
5D0D
330
1F
100
AcDbEntity
  8
0
100
AcDbLine
 10
268.2896932763001
 20
171.7795571206588
 30
0.0
 11
268.2896932763001
 21
173.8795571206589
 31
0.0
  0
LINE
  5
5D0E
330
1F
100
AcDbEntity
  8
0
100
AcDbLine
 10
263.9896932762999
 20
173.8795571206589
 30
0.0
 11
263.9896932762999
 21
171.7795571206588
 31
0.0
  0
ARC
  5
5D0F
330
1F
100
AcDbEntity
  8
0
100
AcDbCircle
 10
265.6896932762998
 20
171.7795571206588
 30
0.0
 40
1.7
100
AcDbArc
 50
180.0
 51
270.0
  0
LINE
  5
5D10
330
1F
100
AcDbEntity
  8
0
100
AcDbLine
 10
265.6896932762998
 20
170.0795571206589
 30
0.0
 11
266.5896932762998
 21
170.0795571206589
 31
0.0
  0
LINE
  5
5D11
330
1F
100
AcDbEntity
  8
0
100
AcDbLine
 10
252.7396932762995
 20
177.8995571206588
 30
0.0
 11
260.4396932762997
 21
177.8995571206588
 31
0.0
  0
LINE
  5
5D12
330
1F
100
AcDbEntity
  8
0
100
AcDbLine
 10
252.7396932762995
 20
177.8995571206587
 30
0.0
 11
264.4396932762997
 21
177.8995571206588
 31
0.0
  0
LINE
  5
5D13
330
1F
100
AcDbEntity
  8
0
100
AcDbLine
 10
267.8396932762999
 20
174.3795571206589
 30
0.0
 11
267.8396932762999
 21
177.8995571206588
 31
0.0
  0
LINE
  5
5D14
330
1F
100
AcDbEntity
  8
0
100
AcDbLine
 10
264.4396932762997
 20
174.3795571206589
 30
0.0
 11
264.4396932762997
 21
177.8995571206588
 31
0.0
  0
LINE
  5
5D15
330
1F
100
AcDbEntity
  8
0
100
AcDbLine
 10
264.4396932762997
 20
174.3795571206589
 30
0.0
 11
263.9896932762999
 21
173.8795571206589
 31
0.0
  0
LINE
  5
5D16
330
1F
100
AcDbEntity
  8
0
100
AcDbLine
 10
267.8396932762999
 20
174.3795571206589
 30
0.0
 11
268.2896932763001
 21
173.8795571206589
 31
0.0
  0
LINE
  5
5D17
330
1F
100
AcDbEntity
  8
0
100
AcDbLine
 10
252.5396932762997
 20
176.3995571206588
 30
0.0
 11
252.5396932762997
 21
177.6995571206588
 31
0.0
  0
LINE
  5
5D18
330
1F
100
AcDbEntity
  8
0
100
AcDbLine
 10
254.0396932762996
 20
176.1995571206588
 30
0.0
 11
252.7396932762995
 21
176.1995571206588
 31
0.0
  0
ARC
  5
5D19
330
1F
100
AcDbEntity
  8
0
100
AcDbCircle
 10
252.7396932762995
 20
176.3995571206588
 30
0.0
 40
0.2
100
AcDbArc
 50
180.0
 51
270.0
  0
ARC
  5
5D1A
330
1F
100
AcDbEntity
  8
0
100
AcDbCircle
 10
254.0396932762996
 20
175.9995571206587
 30
0.0
 40
0.2
100
AcDbArc
 50
0.0
 51
90.0
  0
ARC
  5
5D1B
330
1F
100
AcDbEntity
  8
0
100
AcDbCircle
 10
254.0396932762996
 20
175.0995571206589
 30
0.0
 40
0.2
100
AcDbArc
 50
270.0
 51
0.0
  0
LINE
  5
5D1C
330
1F
100
AcDbEntity
  8
0
100
AcDbLine
 10
254.2396932762995
 20
175.0995571206589
 30
0.0
 11
254.2396932762995
 21
175.9995571206587
 31
0.0
  0
ARC
  5
5D1D
330
1F
100
AcDbEntity
  8
0
100
AcDbCircle
 10
252.7396932762995
 20
177.6995571206588
 30
0.0
 40
0.2
100
AcDbArc
 50
90.0
 51
180.0
  0
ARC
  5
5D1E
330
1F
100
AcDbEntity
  8
0
100
AcDbCircle
 10
222.5896932762998
 20
171.779557120659
 30
0.0
 40
1.7
100
AcDbArc
 50
270.0
 51
0.0
  0
LINE
  5
5D1F
330
1F
100
AcDbEntity
  8
0
100
AcDbLine
 10
223.8396932762999
 20
174.3795571206589
 30
0.0
 11
224.2896932763001
 21
173.8795571206589
 31
0.0
  0
LINE
  5
5D20
330
1F
100
AcDbEntity
  8
0
100
AcDbLine
 10
223.8396932762999
 20
177.8995571206587
 30
0.0
 11
235.5396932762996
 21
177.8995571206586
 31
0.0
  0
LINE
  5
5D21
330
1F
100
AcDbEntity
  8
0
100
AcDbLine
 10
224.2896932763001
 20
173.8795571206589
 30
0.0
 11
224.2896932763001
 21
171.7795571206588
 31
0.0
  0
LINE
  5
5D22
330
1F
100
AcDbEntity
  8
0
100
AcDbLine
 10
242.8396932762994
 20
174.8995571206588
 30
0.0
 11
234.2396932762995
 21
174.8995571206588
 31
0.0
  0
LINE
  5
5D23
330
1F
100
AcDbEntity
  8
0
100
AcDbLine
 10
235.5396932762996
 20
176.1995571206588
 30
0.0
 11
234.2396932762995
 21
176.1995571206588
 31
0.0
  0
LINE
  5
5D24
330
1F
100
AcDbEntity
  8
0
100
AcDbLine
 10
245.2396932762995
 20
175.0995571206587
 30
0.0
 11
245.2396932762995
 21
177.6995571206588
 31
0.0
  0
LINE
  5
5D25
330
1F
100
AcDbEntity
  8
0
100
AcDbLine
 10
243.0396932762997
 20
175.0995571206587
 30
0.0
 11
243.0396932762997
 21
177.6995571206588
 31
0.0
  0
ARC
  5
5D26
330
1F
100
AcDbEntity
  8
0
100
AcDbCircle
 10
245.4396932762997
 20
175.0995571206587
 30
0.0
 40
0.2
100
AcDbArc
 50
180.0
 51
270.0
  0
ARC
  5
5D27
330
1F
100
AcDbEntity
  8
0
100
AcDbCircle
 10
242.8396932762994
 20
175.0995571206587
 30
0.0
 40
0.2
100
AcDbArc
 50
270.0
 51
0.0
  0
ARC
  5
5D28
330
1F
100
AcDbEntity
  8
0
100
AcDbCircle
 10
243.2396932762995
 20
177.6995571206588
 30
0.0
 40
0.2
100
AcDbArc
 50
90.0
 51
180.0
  0
ARC
  5
5D29
330
1F
100
AcDbEntity
  8
0
100
AcDbCircle
 10
245.0396932762997
 20
177.6995571206588
 30
0.0
 40
0.2
100
AcDbArc
 50
0.0
 51
90.0
  0
LINE
  5
5D2A
330
1F
100
AcDbEntity
  8
0
100
AcDbLine
 10
245.0396932762997
 20
177.8995571206588
 30
0.0
 11
243.2396932762995
 21
177.8995571206588
 31
0.0
  0
LINE
  5
5D2B
330
1F
100
AcDbEntity
  8
0
100
AcDbLine
 10
235.7396932762995
 20
176.3995571206588
 30
0.0
 11
235.7396932762995
 21
177.6995571206588
 31
0.0
  0
ARC
  5
5D2C
330
1F
100
AcDbEntity
  8
0
100
AcDbCircle
 10
235.5396932762996
 20
176.3995571206588
 30
0.0
 40
0.2
100
AcDbArc
 50
270.0
 51
0.0
  0
ARC
  5
5D2D
330
1F
100
AcDbEntity
  8
0
100
AcDbCircle
 10
235.5396932762996
 20
177.6995571206588
 30
0.0
 40
0.2
100
AcDbArc
 50
0.0
 51
90.0
  0
ARC
  5
5D2E
330
1F
100
AcDbEntity
  8
0
100
AcDbCircle
 10
234.2396932762995
 20
175.0995571206587
 30
0.0
 40
0.2
100
AcDbArc
 50
180.0
 51
270.0
  0
ARC
  5
5D2F
330
1F
100
AcDbEntity
  8
0
100
AcDbCircle
 10
234.2396932762995
 20
175.9995571206587
 30
0.0
 40
0.2
100
AcDbArc
 50
90.0
 51
180.0
  0
LINE
  5
5D30
330
1F
100
AcDbEntity
  8
0
100
AcDbLine
 10
234.0396932762997
 20
175.0995571206587
 30
0.0
 11
234.0396932762997
 21
175.9995571206587
 31
0.0
  0
LINE
  5
5D31
330
1F
100
AcDbEntity
  8
CENTER
 48
1.5
100
AcDbLine
 10
207.1396932763
 20
175.7995571206588
 30
0.0
 11
207.1396932763
 21
159.9995571206589
 31
0.0
  0
LINE
  5
5D32
330
1F
100
AcDbEntity
  8
0
100
AcDbLine
 10
219.9896932763
 20
171.7795571206588
 30
0.0
 11
219.9896932763
 21
173.8795571206589
 31
0.0
  0
ARC
  5
5D33
330
1F
100
AcDbEntity
  8
0
100
AcDbCircle
 10
221.6896932762998
 20
171.779557120659
 30
0.0
 40
1.7
100
AcDbArc
 50
180.0
 51
270.0
  0
LINE
  5
5D34
330
1F
100
AcDbEntity
  8
0
100
AcDbLine
 10
222.5896932762998
 20
170.0795571206589
 30
0.0
 11
221.6896932762998
 21
170.0795571206589
 31
0.0
  0
CIRCLE
  5
5D35
330
1F
100
AcDbEntity
  8
0
100
AcDbCircle
 10
207.1396932763
 20
167.8995571206588
 30
0.0
 40
5.25
  0
LINE
  5
5D36
330
1F
100
AcDbEntity
  8
0
100
AcDbLine
 10
203.7045600379884
 20
177.8995571206588
 30
0.0
 11
220.4396932762997
 21
177.8995571206587
 31
0.0
  0
LINE
  5
5D37
330
1F
100
AcDbEntity
  8
0
100
AcDbLine
 10
223.8396932762999
 20
174.3795571206589
 30
0.0
 11
223.8396932762999
 21
177.8995571206588
 31
0.0
  0
LINE
  5
5D38
330
1F
100
AcDbEntity
  8
0
100
AcDbLine
 10
220.4396932762997
 20
174.3795571206589
 30
0.0
 11
220.4396932762997
 21
177.8995571206588
 31
0.0
  0
LINE
  5
5D39
330
1F
100
AcDbEntity
  8
0
100
AcDbLine
 10
220.4396932762997
 20
174.3795571206589
 30
0.0
 11
219.9896932763
 21
173.8795571206589
 31
0.0
  0
LINE
  5
5D3A
330
1F
100
AcDbEntity
  8
CENTER
 48
1.5
100
AcDbLine
 10
183.5762254836559
 20
130.8995571206589
 30
0.0
 11
296.1396932763
 21
130.8995571206589
 31
0.0
  0
LINE
  5
5D3B
330
1F
100
AcDbEntity
  8
0
100
AcDbLine
 10
66.60500950808978
 20
151.8995571206591
 30
0.0
 11
66.60500950808978
 21
130.8995571206591
 31
0.0
  0
LINE
  5
5D3C
330
1F
100
AcDbEntity
  8
0
100
AcDbLine
 10
65.10500950808978
 20
153.3995571206591
 30
0.0
 11
61.60500950808978
 21
153.3995571206591
 31
0.0
  0
ARC
  5
5D3D
102
{ACAD_REACTORS
330
5EDB
330
5EED
102
}
330
1F
100
AcDbEntity
  8
0
100
AcDbCircle
 10
65.10500950808978
 20
151.8995571206591
 30
0.0
 40
1.5
100
AcDbArc
 50
359.9999999999992
 51
90.0
  0
LINE
  5
5D3E
330
1F
100
AcDbEntity
  8
0
100
AcDbLine
 10
61.60500950808978
 20
323.0896404164116
 30
0.0
 11
15.60500950808978
 21
323.0896404164116
 31
0.0
  0
LINE
  5
5D3F
330
1F
100
AcDbEntity
  8
0
100
AcDbLine
 10
61.60500950808978
 20
316.5247736547233
 30
0.0
 11
15.60500950808978
 21
316.5247736547232
 31
0.0
  0
LINE
  5
5D40
330
1F
100
AcDbEntity
  8
0
100
AcDbLine
 10
61.60500950808978
 20
403.959906893035
 30
0.0
 11
15.60500950808978
 21
403.9599068930348
 31
0.0
  0
LINE
  5
5D41
330
1F
100
AcDbEntity
  8
0
100
AcDbLine
 10
61.60500950808978
 20
387.2247736547236
 30
0.0
 11
15.60500950808978
 21
387.2247736547235
 31
0.0
  0
LINE
  5
5D42
330
1F
100
AcDbEntity
  8
0
100
AcDbLine
 10
61.60500950808978
 20
383.8247736547235
 30
0.0
 11
15.60500950808978
 21
383.8247736547234
 31
0.0
  0
LINE
  5
5D43
330
1F
100
AcDbEntity
  8
0
100
AcDbLine
 10
61.60500950808978
 20
377.0247736547235
 30
0.0
 11
15.60500950808978
 21
377.0247736547235
 31
0.0
  0
LINE
  5
5D44
330
1F
100
AcDbEntity
  8
0
100
AcDbLine
 10
61.60500950808978
 20
350.0247736547231
 30
0.0
 11
15.60500950808978
 21
350.024773654723
 31
0.0
  0
LINE
  5
5D45
330
1F
100
AcDbEntity
  8
0
100
AcDbLine
 10
61.60500950808978
 20
343.2247736547231
 30
0.0
 11
15.60500950808978
 21
343.2247736547231
 31
0.0
  0
LINE
  5
5D46
330
1F
100
AcDbEntity
  8
0
100
AcDbLine
 10
61.60500950808978
 20
339.824773654723
 30
0.0
 11
15.60500950808978
 21
339.824773654723
 31
0.0
  0
LINE
  5
5D47
102
{ACAD_REACTORS
330
5EAC
330
5EAF
330
5EB5
102
}
330
1F
100
AcDbEntity
  8
0
100
AcDbLine
 10
61.60500950808978
 20
410.5247736547231
 30
0.0
 11
15.60500950808978
 21
410.5247736547229
 31
0.0
  0
LINE
  5
5D48
330
1F
100
AcDbEntity
  8
CENTER
 48
1.5
100
AcDbLine
 10
110.8632271263839
 20
363.5247736547233
 30
0.0
 11
10.93473087173674
 21
363.5247736547233
 31
0.0
  0
ARC
  5
5D49
330
1F
100
AcDbEntity
  8
0
100
AcDbCircle
 10
65.10500950808978
 20
342.5247736547234
 30
0.0
 40
1.5
100
AcDbArc
 50
270.0
 51
0.0
  0
LINE
  5
5D4A
330
1F
100
AcDbEntity
  8
0
100
AcDbLine
 10
61.60500950808978
 20
363.5247736547233
 30
0.0
 11
61.60500950808978
 21
316.5247736547233
 31
0.0
  0
LINE
  5
5D4B
102
{ACAD_REACTORS
330
5EBB
102
}
330
1F
100
AcDbEntity
  8
0
100
AcDbLine
 10
65.10500950808978
 20
341.0247736547233
 30
0.0
 11
61.60500950808978
 21
341.0247736547233
 31
0.0
  0
LINE
  5
5D4C
330
1F
100
AcDbEntity
  8
0
100
AcDbLine
 10
61.60500950808978
 20
410.5247736547231
 30
0.0
 11
61.60500950808978
 21
363.5247736547233
 31
0.0
  0
LINE
  5
5D4D
102
{ACAD_REACTORS
330
5EA6
330
5EA9
330
5EAC
330
5EB2
102
}
330
1F
100
AcDbEntity
  8
0
100
AcDbLine
 10
61.60500950808978
 20
410.5247736547231
 30
0.0
 11
61.60500950808978
 21
363.5247736547233
 31
0.0
  0
LINE
  5
5D4E
330
1F
100
AcDbEntity
  8
0
100
AcDbLine
 10
15.60500950808978
 20
410.5247736547231
 30
0.0
 11
15.60500950808978
 21
316.5247736547232
 31
0.0
  0
LINE
  5
5D4F
102
{ACAD_REACTORS
330
5EAF
102
}
330
1F
100
AcDbEntity
  8
CENTER
 48
1.5
100
AcDbLine
 10
28.60500950808978
 20
373.3861256032069
 30
0.0
 11
28.60500950808978
 21
353.6634217062397
 31
0.0
  0
LINE
  5
5D50
330
1F
100
AcDbEntity
  8
0
100
AcDbLine
 10
66.60500950808978
 20
384.5247736547233
 30
0.0
 11
66.60500950808978
 21
363.5247736547233
 31
0.0
  0
LINE
  5
5D51
330
1F
100
AcDbEntity
  8
0
100
AcDbLine
 10
66.60500950808978
 20
342.5247736547234
 30
0.0
 11
66.60500950808978
 21
363.5247736547233
 31
0.0
  0
ARC
  5
5D52
102
{ACAD_REACTORS
330
5EA6
102
}
330
1F
100
AcDbEntity
  8
0
100
AcDbCircle
 10
65.10500950808978
 20
384.5247736547233
 30
0.0
 40
1.5
100
AcDbArc
 50
359.9999999999992
 51
90.0
  0
LINE
  5
5D53
102
{ACAD_REACTORS
330
5EBB
102
}
330
1F
100
AcDbEntity
  8
0
100
AcDbLine
 10
65.10500950808978
 20
386.0247736547233
 30
0.0
 11
61.60500950808978
 21
386.0247736547234
 31
0.0
  0
CIRCLE
  5
5D54
330
1F
100
AcDbEntity
  8
0
100
AcDbCircle
 10
244.1396932763
 20
363.5247736547233
 30
0.0
 40
22.49999999999997
  0
LINE
  5
5D55
330
1F
100
AcDbEntity
  8
CENTER
 48
1.5
100
AcDbLine
 10
183.5762254836559
 20
363.524773654723
 30
0.0
 11
296.1396932763
 21
363.524773654723
 31
0.0
  0
CIRCLE
  5
5D56
330
1F
100
AcDbEntity
  8
0
100
AcDbCircle
 10
244.1396932763
 20
363.5247736547233
 30
0.0
 40
41.0
  0
ARC
  5
5D57
330
1F
100
AcDbEntity
  8
0
100
AcDbCircle
 10
245.921428655824
 20
363.5247736547233
 30
0.0
 40
38.53173537952415
100
AcDbArc
 50
33.06478044552914
 51
326.9352195544708
  0
LINE
  5
5D58
330
1F
100
AcDbEntity
  8
0
100
AcDbLine
 10
245.4396932762997
 20
319.524773654723
 30
0.0
 11
254.0396932763001
 21
319.524773654723
 31
0.0
  0
LINE
  5
5D59
330
1F
100
AcDbEntity
  8
0
100
AcDbLine
 10
254.0396932762996
 20
407.524773654723
 30
0.0
 11
245.4396932762997
 21
407.524773654723
 31
0.0
  0
ARC
  5
5D5A
330
1F
100
AcDbEntity
  8
0
100
AcDbCircle
 10
203.2596932762999
 20
341.9747736547231
 30
0.0
 40
1.7
100
AcDbArc
 50
0.0
 51
90.0
  0
LINE
  5
5D5B
330
1F
100
AcDbEntity
  8
CENTER
 48
1.5
100
AcDbLine
 10
244.1396932763
 20
415.524773654723
 30
0.0
 11
244.1396932763
 21
311.524773654723
 31
0.0
  0
ARC
  5
5D5C
330
1F
100
AcDbEntity
  8
0
100
AcDbCircle
 10
203.2596932762999
 20
341.074773654723
 30
0.0
 40
1.7
100
AcDbArc
 50
270.0
 51
0.0
  0
CIRCLE
  5
5D5D
330
1F
100
AcDbEntity
  8
0
100
AcDbCircle
 10
207.1396932763
 20
326.5247736547231
 30
0.0
 40
5.25
  0
LINE
  5
5D5E
330
1F
100
AcDbEntity
  8
CENTER
 48
1.5
100
AcDbLine
 10
199.2396932762999
 20
326.5247736547231
 30
0.0
 11
215.0396932763001
 21
326.5247736547231
 31
0.0
  0
ARC
  5
5D5F
330
1F
100
AcDbEntity
  8
0
 62
     3
100
AcDbCircle
 10
207.1396932763
 20
326.5247736547231
 30
0.0
 40
6.0
100
AcDbArc
 50
253.7695004067114
 51
199.4352408154539
  0
CIRCLE
  5
5D60
330
1F
100
AcDbEntity
  8
0
100
AcDbCircle
 10
207.1396932763
 20
326.5247736547231
 30
0.0
 40
7.0
  0
LINE
  5
5D61
330
1F
100
AcDbEntity
  8
0
100
AcDbLine
 10
203.7045600379884
 20
316.5247736547231
 30
0.0
 11
220.4396932762997
 21
316.5247736547231
 31
0.0
  0
LINE
  5
5D62
330
1F
100
AcDbEntity
  8
0
100
AcDbLine
 10
197.1396932763
 20
339.824773654723
 30
0.0
 11
197.1396932763
 21
323.0896404164116
 31
0.0
  0
ARC
  5
5D63
330
1F
100
AcDbEntity
  8
0
100
AcDbCircle
 10
244.1396932763
 20
363.524773654723
 30
0.0
 40
62.0
100
AcDbArc
 50
220.7061342679221
 51
229.2938657320992
  0
LINE
  5
5D64
330
1F
100
AcDbEntity
  8
0
100
AcDbLine
 10
200.6596932763
 20
339.824773654723
 30
0.0
 11
197.1396932763
 21
339.824773654723
 31
0.0
  0
LINE
  5
5D65
330
1F
100
AcDbEntity
  8
0
100
AcDbLine
 10
200.6596932763
 20
339.824773654723
 30
0.0
 11
201.1596932763
 21
339.374773654723
 31
0.0
  0
LINE
  5
5D66
330
1F
100
AcDbEntity
  8
0
100
AcDbLine
 10
203.2596932762999
 20
339.374773654723
 30
0.0
 11
201.1596932763
 21
339.374773654723
 31
0.0
  0
LINE
  5
5D67
330
1F
100
AcDbEntity
  8
0
100
AcDbLine
 10
223.8396932762999
 20
316.5247736547231
 30
0.0
 11
235.5396932763001
 21
316.5247736547231
 31
0.0
  0
LINE
  5
5D68
330
1F
100
AcDbEntity
  8
CENTER
 48
1.5
100
AcDbLine
 10
207.1396932763
 20
318.2005374118042
 30
0.0
 11
207.1396932763
 21
334.8173566975805
 31
0.0
  0
LINE
  5
5D69
330
1F
100
AcDbEntity
  8
0
100
AcDbLine
 10
204.9596932763002
 20
341.9747736547231
 30
0.0
 11
204.9596932763002
 21
341.074773654723
 31
0.0
  0
ARC
  5
5D6A
330
1F
100
AcDbEntity
  8
0
100
AcDbCircle
 10
221.6896932762998
 20
322.6447736547231
 30
0.0
 40
1.7
100
AcDbArc
 50
90.0
 51
180.0
  0
LINE
  5
5D6B
330
1F
100
AcDbEntity
  8
0
100
AcDbLine
 10
223.8396932762999
 20
320.044773654723
 30
0.0
 11
223.8396932762999
 21
316.5247736547231
 31
0.0
  0
LINE
  5
5D6C
330
1F
100
AcDbEntity
  8
0
100
AcDbLine
 10
220.4396932762997
 20
320.044773654723
 30
0.0
 11
220.4396932762997
 21
316.5247736547231
 31
0.0
  0
LINE
  5
5D6D
330
1F
100
AcDbEntity
  8
0
100
AcDbLine
 10
222.5896932762998
 20
324.3447736547231
 30
0.0
 11
221.6896932762998
 21
324.3447736547231
 31
0.0
  0
LINE
  5
5D6E
330
1F
100
AcDbEntity
  8
0
100
AcDbLine
 10
220.4396932762997
 20
320.044773654723
 30
0.0
 11
219.9896932763
 21
320.544773654723
 31
0.0
  0
LINE
  5
5D6F
330
1F
100
AcDbEntity
  8
0
100
AcDbLine
 10
219.9896932763
 20
322.6447736547232
 30
0.0
 11
219.9896932763
 21
320.544773654723
 31
0.0
  0
LINE
  5
5D70
330
1F
100
AcDbEntity
  8
0
100
AcDbLine
 10
223.8396932762999
 20
320.044773654723
 30
0.0
 11
224.2896932763001
 21
320.544773654723
 31
0.0
  0
LINE
  5
5D71
330
1F
100
AcDbEntity
  8
0
100
AcDbLine
 10
224.2896932763001
 20
320.544773654723
 30
0.0
 11
224.2896932763001
 21
322.6447736547231
 31
0.0
  0
ARC
  5
5D72
330
1F
100
AcDbEntity
  8
0
100
AcDbCircle
 10
222.5896932762998
 20
322.6447736547231
 30
0.0
 40
1.7
100
AcDbArc
 50
0.0
 51
90.0
  0
LINE
  5
5D73
330
1F
100
AcDbEntity
  8
0
100
AcDbLine
 10
234.2396932762999
 20
319.524773654723
 30
0.0
 11
242.8396932762999
 21
319.524773654723
 31
0.0
  0
ARC
  5
5D74
330
1F
100
AcDbEntity
  8
0
100
AcDbCircle
 10
235.5396932763001
 20
316.7247736547231
 30
0.0
 40
0.2
100
AcDbArc
 50
270.0
 51
0.0
  0
ARC
  5
5D75
330
1F
100
AcDbEntity
  8
0
100
AcDbCircle
 10
235.5396932763001
 20
318.024773654723
 30
0.0
 40
0.2
100
AcDbArc
 50
0.0
 51
90.0
  0
LINE
  5
5D76
330
1F
100
AcDbEntity
  8
0
100
AcDbLine
 10
234.2396932762999
 20
318.2247736547231
 30
0.0
 11
235.5396932763001
 21
318.2247736547231
 31
0.0
  0
LINE
  5
5D77
330
1F
100
AcDbEntity
  8
0
100
AcDbLine
 10
234.0396932763001
 20
319.324773654723
 30
0.0
 11
234.0396932763001
 21
318.4247736547231
 31
0.0
  0
ARC
  5
5D78
330
1F
100
AcDbEntity
  8
0
100
AcDbCircle
 10
234.2396932762999
 20
318.4247736547231
 30
0.0
 40
0.2
100
AcDbArc
 50
180.0
 51
270.0
  0
ARC
  5
5D79
330
1F
100
AcDbEntity
  8
0
100
AcDbCircle
 10
234.2396932762999
 20
319.324773654723
 30
0.0
 40
0.2
100
AcDbArc
 50
90.0
 51
180.0
  0
LINE
  5
5D7A
330
1F
100
AcDbEntity
  8
0
100
AcDbLine
 10
235.7396932762999
 20
318.024773654723
 30
0.0
 11
235.7396932762999
 21
316.7247736547231
 31
0.0
  0
LINE
  5
5D7B
330
1F
100
AcDbEntity
  8
0
100
AcDbLine
 10
245.2396932762999
 20
319.3247736547232
 30
0.0
 11
245.2396932762999
 21
316.7247736547231
 31
0.0
  0
LINE
  5
5D7C
330
1F
100
AcDbEntity
  8
0
100
AcDbLine
 10
243.0396932763001
 20
319.3247736547232
 30
0.0
 11
243.0396932763001
 21
316.7247736547231
 31
0.0
  0
LINE
  5
5D7D
330
1F
100
AcDbEntity
  8
0
100
AcDbLine
 10
243.2396932762999
 20
316.5247736547231
 30
0.0
 11
245.0396932763001
 21
316.5247736547231
 31
0.0
  0
ARC
  5
5D7E
330
1F
100
AcDbEntity
  8
0
100
AcDbCircle
 10
243.2396932762999
 20
316.7247736547231
 30
0.0
 40
0.2
100
AcDbArc
 50
180.0
 51
270.0
  0
ARC
  5
5D7F
330
1F
100
AcDbEntity
  8
0
100
AcDbCircle
 10
245.0396932763001
 20
316.7247736547231
 30
0.0
 40
0.2
100
AcDbArc
 50
270.0
 51
0.0
  0
ARC
  5
5D80
330
1F
100
AcDbEntity
  8
0
100
AcDbCircle
 10
242.8396932762999
 20
319.3247736547232
 30
0.0
 40
0.2
100
AcDbArc
 50
0.0
 51
90.0
  0
ARC
  5
5D81
330
1F
100
AcDbEntity
  8
0
100
AcDbCircle
 10
245.4396932762997
 20
319.3247736547232
 30
0.0
 40
0.2
100
AcDbArc
 50
90.0
 51
180.0
  0
CIRCLE
  5
5D82
330
1F
100
AcDbEntity
  8
0
100
AcDbCircle
 10
207.1396932763
 20
400.524773654723
 30
0.0
 40
5.25
  0
ARC
  5
5D83
330
1F
100
AcDbEntity
  8
0
 62
     3
100
AcDbCircle
 10
207.1396932763
 20
400.524773654723
 30
0.0
 40
6.0
100
AcDbArc
 50
253.7695004067114
 51
199.4352408154539
  0
CIRCLE
  5
5D84
330
1F
100
AcDbEntity
  8
0
100
AcDbCircle
 10
207.1396932763
 20
400.524773654723
 30
0.0
 40
7.0
  0
ARC
  5
5D85
330
1F
100
AcDbEntity
  8
0
100
AcDbCircle
 10
203.2596932762999
 20
385.074773654723
 30
0.0
 40
1.7
100
AcDbArc
 50
270.0
 51
0.0
  0
ARC
  5
5D86
330
1F
100
AcDbEntity
  8
0
100
AcDbCircle
 10
203.2596932762999
 20
385.9747736547231
 30
0.0
 40
1.7
100
AcDbArc
 50
0.0
 51
90.0
  0
LINE
  5
5D87
330
1F
100
AcDbEntity
  8
CENTER
 48
1.5
100
AcDbLine
 10
199.2396932762999
 20
400.524773654723
 30
0.0
 11
215.0396932763001
 21
400.524773654723
 31
0.0
  0
LINE
  5
5D88
330
1F
100
AcDbEntity
  8
0
100
AcDbLine
 10
203.7045600379884
 20
410.524773654723
 30
0.0
 11
220.4396932762997
 21
410.5247736547229
 31
0.0
  0
ARC
  5
5D89
330
1F
100
AcDbEntity
  8
0
100
AcDbCircle
 10
244.1396932763
 20
363.524773654723
 30
0.0
 40
62.0
100
AcDbArc
 50
130.7061342679008
 51
139.2938657320778
  0
LINE
  5
5D8A
102
{ACAD_REACTORS
330
5ECD
330
5EFB
102
}
330
1F
100
AcDbEntity
  8
0
100
AcDbLine
 10
189.1396932763
 20
377.0247736547231
 30
0.0
 11
189.1396932763
 21
350.0247736547231
 31
0.0
  0
LINE
  5
5D8B
102
{ACAD_REACTORS
330
5ED3
330
5F01
102
}
330
1F
100
AcDbEntity
  8
0
100
AcDbLine
 10
189.1396932763
 20
350.0247736547231
 30
0.0
 11
197.1396932763
 21
344.0247736547231
 31
0.0
  0
LINE
  5
5D8C
330
1F
100
AcDbEntity
  8
0
100
AcDbLine
 10
200.6596932763
 20
343.2247736547231
 30
0.0
 11
197.1396932763
 21
343.2247736547231
 31
0.0
  0
LINE
  5
5D8D
330
1F
100
AcDbEntity
  8
0
100
AcDbLine
 10
197.1396932763
 20
344.0247736547231
 30
0.0
 11
197.1396932763
 21
343.2247736547231
 31
0.0
  0
LINE
  5
5D8E
330
1F
100
AcDbEntity
  8
0
100
AcDbLine
 10
200.6596932763
 20
343.2247736547231
 30
0.0
 11
201.1596932763
 21
343.6747736547232
 31
0.0
  0
LINE
  5
5D8F
330
1F
100
AcDbEntity
  8
0
100
AcDbLine
 10
201.1596932763
 20
343.674773654723
 30
0.0
 11
203.2596932762999
 21
343.6747736547232
 31
0.0
  0
LINE
  5
5D90
102
{ACAD_REACTORS
330
5ED3
330
5F01
102
}
330
1F
100
AcDbEntity
  8
0
100
AcDbLine
 10
189.1396932763
 20
377.0247736547231
 30
0.0
 11
197.1396932762995
 21
383.0247736547229
 31
0.0
  0
LINE
  5
5D91
102
{ACAD_REACTORS
330
5ECA
330
5EF8
102
}
330
1F
100
AcDbEntity
  8
0
100
AcDbLine
 10
197.1396932763
 20
403.9599068930344
 30
0.0
 11
197.1396932763
 21
387.2247736547231
 31
0.0
  0
LINE
  5
5D92
330
1F
100
AcDbEntity
  8
0
100
AcDbLine
 10
200.6596932763
 20
387.2247736547231
 30
0.0
 11
197.1396932763
 21
387.2247736547231
 31
0.0
  0
LINE
  5
5D93
330
1F
100
AcDbEntity
  8
0
100
AcDbLine
 10
200.6596932763
 20
383.824773654723
 30
0.0
 11
197.1396932763
 21
383.824773654723
 31
0.0
  0
LINE
  5
5D94
330
1F
100
AcDbEntity
  8
0
100
AcDbLine
 10
197.1396932763
 20
383.8247736547231
 30
0.0
 11
197.1396932762995
 21
383.0247736547229
 31
0.0
  0
LINE
  5
5D95
330
1F
100
AcDbEntity
  8
0
100
AcDbLine
 10
200.6596932763
 20
387.2247736547231
 30
0.0
 11
201.1596932763
 21
387.6747736547232
 31
0.0
  0
LINE
  5
5D96
330
1F
100
AcDbEntity
  8
0
100
AcDbLine
 10
200.6596932763
 20
383.824773654723
 30
0.0
 11
201.1596932763
 21
383.374773654723
 31
0.0
  0
LINE
  5
5D97
330
1F
100
AcDbEntity
  8
0
100
AcDbLine
 10
203.2596932762999
 20
387.6747736547232
 30
0.0
 11
201.1596932763
 21
387.6747736547232
 31
0.0
  0
LINE
  5
5D98
330
1F
100
AcDbEntity
  8
0
100
AcDbLine
 10
201.1596932763
 20
383.3747736547231
 30
0.0
 11
203.2596932762999
 21
383.3747736547231
 31
0.0
  0
LINE
  5
5D99
330
1F
100
AcDbEntity
  8
0
100
AcDbLine
 10
223.8396932762999
 20
407.004773654723
 30
0.0
 11
223.8396932762999
 21
410.524773654723
 31
0.0
  0
LINE
  5
5D9A
330
1F
100
AcDbEntity
  8
0
100
AcDbLine
 10
220.4396932762997
 20
407.004773654723
 30
0.0
 11
220.4396932762997
 21
410.524773654723
 31
0.0
  0
LINE
  5
5D9B
102
{ACAD_REACTORS
330
5EC7
330
5EF5
102
}
330
1F
100
AcDbEntity
  8
CENTER
 48
1.5
100
AcDbLine
 10
207.1396932763
 20
408.424773654723
 30
0.0
 11
207.1396932763
 21
392.6247736547231
 31
0.0
  0
LINE
  5
5D9C
330
1F
100
AcDbEntity
  8
0
100
AcDbLine
 10
204.9596932763002
 20
385.074773654723
 30
0.0
 11
204.9596932763002
 21
385.9747736547231
 31
0.0
  0
ARC
  5
5D9D
330
1F
100
AcDbEntity
  8
0
100
AcDbCircle
 10
221.6896932762998
 20
404.4047736547232
 30
0.0
 40
1.7
100
AcDbArc
 50
180.0
 51
270.0
  0
LINE
  5
5D9E
330
1F
100
AcDbEntity
  8
0
100
AcDbLine
 10
222.5896932762998
 20
402.704773654723
 30
0.0
 11
221.6896932762998
 21
402.704773654723
 31
0.0
  0
LINE
  5
5D9F
330
1F
100
AcDbEntity
  8
0
100
AcDbLine
 10
220.4396932762997
 20
407.004773654723
 30
0.0
 11
219.9896932763
 21
406.5047736547231
 31
0.0
  0
LINE
  5
5DA0
330
1F
100
AcDbEntity
  8
0
100
AcDbLine
 10
219.9896932763
 20
404.404773654723
 30
0.0
 11
219.9896932763
 21
406.5047736547231
 31
0.0
  0
LINE
  5
5DA1
330
1F
100
AcDbEntity
  8
0
100
AcDbLine
 10
223.8396932762999
 20
407.004773654723
 30
0.0
 11
224.2896932763001
 21
406.5047736547231
 31
0.0
  0
LINE
  5
5DA2
330
1F
100
AcDbEntity
  8
0
100
AcDbLine
 10
224.2896932763001
 20
406.5047736547231
 30
0.0
 11
224.2896932763001
 21
404.404773654723
 31
0.0
  0
ARC
  5
5DA3
330
1F
100
AcDbEntity
  8
0
100
AcDbCircle
 10
222.5896932762998
 20
404.4047736547232
 30
0.0
 40
1.7
100
AcDbArc
 50
270.0
 51
0.0
  0
LINE
  5
5DA4
330
1F
100
AcDbEntity
  8
0
100
AcDbLine
 10
223.8396932762999
 20
410.5247736547229
 30
0.0
 11
235.5396932762996
 21
410.5247736547227
 31
0.0
  0
LINE
  5
5DA5
330
1F
100
AcDbEntity
  8
0
100
AcDbLine
 10
242.8396932762994
 20
407.524773654723
 30
0.0
 11
234.2396932762995
 21
407.524773654723
 31
0.0
  0
ARC
  5
5DA6
330
1F
100
AcDbEntity
  8
0
100
AcDbCircle
 10
235.5396932762996
 20
409.024773654723
 30
0.0
 40
0.2
100
AcDbArc
 50
270.0
 51
0.0
  0
ARC
  5
5DA7
330
1F
100
AcDbEntity
  8
0
100
AcDbCircle
 10
235.5396932762996
 20
410.3247736547229
 30
0.0
 40
0.2
100
AcDbArc
 50
0.0
 51
90.0
  0
LINE
  5
5DA8
330
1F
100
AcDbEntity
  8
0
100
AcDbLine
 10
235.5396932762996
 20
408.824773654723
 30
0.0
 11
234.2396932762995
 21
408.824773654723
 31
0.0
  0
ARC
  5
5DA9
330
1F
100
AcDbEntity
  8
0
100
AcDbCircle
 10
234.2396932762995
 20
408.6247736547229
 30
0.0
 40
0.2
100
AcDbArc
 50
90.0
 51
180.0
  0
ARC
  5
5DAA
330
1F
100
AcDbEntity
  8
0
100
AcDbCircle
 10
234.2396932762995
 20
407.7247736547228
 30
0.0
 40
0.2
100
AcDbArc
 50
180.0
 51
270.0
  0
LINE
  5
5DAB
330
1F
100
AcDbEntity
  8
0
100
AcDbLine
 10
234.0396932762997
 20
407.7247736547228
 30
0.0
 11
234.0396932762997
 21
408.6247736547229
 31
0.0
  0
LINE
  5
5DAC
330
1F
100
AcDbEntity
  8
0
100
AcDbLine
 10
235.7396932762995
 20
409.024773654723
 30
0.0
 11
235.7396932762995
 21
410.3247736547229
 31
0.0
  0
LINE
  5
5DAD
330
1F
100
AcDbEntity
  8
0
100
AcDbLine
 10
245.0396932762997
 20
410.524773654723
 30
0.0
 11
243.2396932762995
 21
410.524773654723
 31
0.0
  0
ARC
  5
5DAE
330
1F
100
AcDbEntity
  8
0
100
AcDbCircle
 10
243.2396932762995
 20
410.3247736547229
 30
0.0
 40
0.2
100
AcDbArc
 50
90.0
 51
180.0
  0
ARC
  5
5DAF
330
1F
100
AcDbEntity
  8
0
100
AcDbCircle
 10
242.8396932762994
 20
407.7247736547228
 30
0.0
 40
0.2
100
AcDbArc
 50
270.0
 51
0.0
  0
LINE
  5
5DB0
330
1F
100
AcDbEntity
  8
0
100
AcDbLine
 10
243.0396932762997
 20
407.7247736547228
 30
0.0
 11
243.0396932762997
 21
410.3247736547229
 31
0.0
  0
ARC
  5
5DB1
330
1F
100
AcDbEntity
  8
0
100
AcDbCircle
 10
245.0396932762997
 20
410.3247736547229
 30
0.0
 40
0.2
100
AcDbArc
 50
0.0
 51
90.0
  0
ARC
  5
5DB2
330
1F
100
AcDbEntity
  8
0
100
AcDbCircle
 10
245.4396932762997
 20
407.7247736547228
 30
0.0
 40
0.2
100
AcDbArc
 50
180.0
 51
270.0
  0
LINE
  5
5DB3
330
1F
100
AcDbEntity
  8
0
100
AcDbLine
 10
245.2396932762995
 20
407.7247736547228
 30
0.0
 11
245.2396932762995
 21
410.3247736547229
 31
0.0
  0
ARC
  5
5DB4
330
1F
100
AcDbEntity
  8
0
100
AcDbCircle
 10
285.0196932762997
 20
341.9747736547231
 30
0.0
 40
1.7
100
AcDbArc
 50
90.0
 51
180.0
  0
LINE
  5
5DB5
330
1F
100
AcDbEntity
  8
0
100
AcDbLine
 10
287.6196932763
 20
339.824773654723
 30
0.0
 11
291.1396932763
 21
339.824773654723
 31
0.0
  0
ARC
  5
5DB6
330
1F
100
AcDbEntity
  8
0
100
AcDbCircle
 10
244.1396932763
 20
363.524773654723
 30
0.0
 40
62.0
100
AcDbArc
 50
310.7061342679009
 51
319.2938657320778
  0
LINE
  5
5DB7
330
1F
100
AcDbEntity
  8
CENTER
 48
1.5
100
AcDbLine
 10
289.0396932763001
 20
326.5247736547231
 30
0.0
 11
273.2396932762999
 21
326.5247736547231
 31
0.0
  0
ARC
  5
5DB8
330
1F
100
AcDbEntity
  8
0
100
AcDbCircle
 10
266.5896932762998
 20
322.6447736547231
 30
0.0
 40
1.7
100
AcDbArc
 50
0.0
 51
90.0
  0
LINE
  5
5DB9
330
1F
100
AcDbEntity
  8
0
100
AcDbLine
 10
252.7396932762999
 20
316.5247736547231
 30
0.0
 11
264.4396932762997
 21
316.5247736547231
 31
0.0
  0
LINE
  5
5DBA
330
1F
100
AcDbEntity
  8
0
100
AcDbLine
 10
252.5396932763001
 20
318.024773654723
 30
0.0
 11
252.5396932763001
 21
316.7247736547231
 31
0.0
  0
ARC
  5
5DBB
330
1F
100
AcDbEntity
  8
0
100
AcDbCircle
 10
252.7396932762999
 20
316.7247736547231
 30
0.0
 40
0.2
100
AcDbArc
 50
180.0
 51
270.0
  0
ARC
  5
5DBC
330
1F
100
AcDbEntity
  8
0
100
AcDbCircle
 10
254.0396932763001
 20
318.4247736547231
 30
0.0
 40
0.2
100
AcDbArc
 50
270.0
 51
0.0
  0
ARC
  5
5DBD
330
1F
100
AcDbEntity
  8
0
100
AcDbCircle
 10
254.0396932763001
 20
319.3247736547232
 30
0.0
 40
0.2
100
AcDbArc
 50
0.0
 51
90.0
  0
LINE
  5
5DBE
330
1F
100
AcDbEntity
  8
0
100
AcDbLine
 10
252.7396932762999
 20
318.2247736547231
 30
0.0
 11
254.0396932763001
 21
318.2247736547231
 31
0.0
  0
ARC
  5
5DBF
330
1F
100
AcDbEntity
  8
0
100
AcDbCircle
 10
252.7396932762999
 20
318.024773654723
 30
0.0
 40
0.2
100
AcDbArc
 50
90.0
 51
180.0
  0
LINE
  5
5DC0
330
1F
100
AcDbEntity
  8
0
100
AcDbLine
 10
254.2396932762999
 20
319.3247736547232
 30
0.0
 11
254.2396932762999
 21
318.4247736547231
 31
0.0
  0
LINE
  5
5DC1
330
1F
100
AcDbEntity
  8
0
100
AcDbLine
 10
264.4396932762997
 20
320.044773654723
 30
0.0
 11
264.4396932762997
 21
316.5247736547231
 31
0.0
  0
ARC
  5
5DC2
330
1F
100
AcDbEntity
  8
0
100
AcDbCircle
 10
265.6896932762998
 20
322.6447736547231
 30
0.0
 40
1.7
100
AcDbArc
 50
90.0
 51
180.0
  0
LINE
  5
5DC3
330
1F
100
AcDbEntity
  8
0
100
AcDbLine
 10
264.4396932762997
 20
320.044773654723
 30
0.0
 11
263.9896932762999
 21
320.544773654723
 31
0.0
  0
LINE
  5
5DC4
330
1F
100
AcDbEntity
  8
0
100
AcDbLine
 10
263.9896932762999
 20
320.544773654723
 30
0.0
 11
263.9896932762999
 21
322.6447736547231
 31
0.0
  0
LINE
  5
5DC5
330
1F
100
AcDbEntity
  8
0
100
AcDbLine
 10
265.6896932762998
 20
324.3447736547231
 30
0.0
 11
266.5896932762998
 21
324.3447736547231
 31
0.0
  0
LINE
  5
5DC6
330
1F
100
AcDbEntity
  8
0
100
AcDbLine
 10
267.8396932762999
 20
316.5247736547231
 30
0.0
 11
284.5748265146117
 21
316.5247736547231
 31
0.0
  0
CIRCLE
  5
5DC7
330
1F
100
AcDbEntity
  8
0
100
AcDbCircle
 10
281.1396932763
 20
326.5247736547231
 30
0.0
 40
5.25
  0
ARC
  5
5DC8
330
1F
100
AcDbEntity
  8
0
 62
     3
100
AcDbCircle
 10
281.1396932763
 20
326.5247736547231
 30
0.0
 40
6.0
100
AcDbArc
 50
253.7695004067114
 51
199.4352408154539
  0
CIRCLE
  5
5DC9
330
1F
100
AcDbEntity
  8
0
100
AcDbCircle
 10
281.1396932763
 20
326.5247736547231
 30
0.0
 40
7.0
  0
LINE
  5
5DCA
330
1F
100
AcDbEntity
  8
0
100
AcDbLine
 10
267.8396932762999
 20
320.044773654723
 30
0.0
 11
267.8396932762999
 21
316.5247736547231
 31
0.0
  0
LINE
  5
5DCB
330
1F
100
AcDbEntity
  8
0
100
AcDbLine
 10
267.8396932762999
 20
320.044773654723
 30
0.0
 11
268.2896932763001
 21
320.544773654723
 31
0.0
  0
LINE
  5
5DCC
330
1F
100
AcDbEntity
  8
0
100
AcDbLine
 10
268.2896932763001
 20
322.6447736547232
 30
0.0
 11
268.2896932763001
 21
320.544773654723
 31
0.0
  0
LINE
  5
5DCD
330
1F
100
AcDbEntity
  8
CENTER
 48
1.5
100
AcDbLine
 10
281.1396932763
 20
318.6247736547231
 30
0.0
 11
281.1396932763
 21
334.424773654723
 31
0.0
  0
ARC
  5
5DCE
330
1F
100
AcDbEntity
  8
0
100
AcDbCircle
 10
285.0196932762997
 20
341.074773654723
 30
0.0
 40
1.7
100
AcDbArc
 50
180.0
 51
270.0
  0
LINE
  5
5DCF
330
1F
100
AcDbEntity
  8
0
100
AcDbLine
 10
283.3196932762998
 20
341.9747736547231
 30
0.0
 11
283.3196932762998
 21
341.074773654723
 31
0.0
  0
LINE
  5
5DD0
330
1F
100
AcDbEntity
  8
0
100
AcDbLine
 10
285.0196932762997
 20
339.374773654723
 30
0.0
 11
287.1196932763
 21
339.374773654723
 31
0.0
  0
LINE
  5
5DD1
330
1F
100
AcDbEntity
  8
0
100
AcDbLine
 10
287.6196932763
 20
339.824773654723
 30
0.0
 11
287.1196932763
 21
339.374773654723
 31
0.0
  0
LINE
  5
5DD2
330
1F
100
AcDbEntity
  8
0
100
AcDbLine
 10
291.1396932763
 20
339.824773654723
 30
0.0
 11
291.1396932763
 21
323.0896404164116
 31
0.0
  0
LINE
  5
5DD3
330
1F
100
AcDbEntity
  8
0
100
AcDbLine
 10
287.6196932763
 20
387.2247736547231
 30
0.0
 11
291.1396932763
 21
387.2247736547231
 31
0.0
  0
LINE
  5
5DD4
330
1F
100
AcDbEntity
  8
0
100
AcDbLine
 10
287.6196932763
 20
383.824773654723
 30
0.0
 11
291.1396932763
 21
383.824773654723
 31
0.0
  0
LINE
  5
5DD5
330
1F
100
AcDbEntity
  8
0
100
AcDbLine
 10
288.3396932762994
 20
373.6247736547232
 30
0.0
 11
289.2396932762999
 21
373.6247736547232
 31
0.0
  0
LINE
  5
5DD6
330
1F
100
AcDbEntity
  8
0
100
AcDbLine
 10
288.3396932762994
 20
362.4247736547234
 30
0.0
 11
290.9396932762998
 21
362.4247736547234
 31
0.0
  0
LINE
  5
5DD7
330
1F
100
AcDbEntity
  8
0
100
AcDbLine
 10
288.3396932762994
 20
364.6247736547232
 30
0.0
 11
290.9396932762998
 21
364.6247736547233
 31
0.0
  0
LINE
  5
5DD8
330
1F
100
AcDbEntity
  8
0
100
AcDbLine
 10
288.3396932762998
 20
353.4247736547234
 30
0.0
 11
289.2396932762999
 21
353.4247736547234
 31
0.0
  0
LINE
  5
5DD9
330
1F
100
AcDbEntity
  8
0
100
AcDbLine
 10
287.6196932763
 20
343.2247736547231
 30
0.0
 11
291.1396932763
 21
343.2247736547231
 31
0.0
  0
LINE
  5
5DDA
330
1F
100
AcDbEntity
  8
CENTER
 48
1.5
100
AcDbLine
 10
289.0396932763001
 20
400.524773654723
 30
0.0
 11
273.2396932762999
 21
400.524773654723
 31
0.0
  0
ARC
  5
5DDB
102
{ACAD_REACTORS
330
5ECA
330
5ECD
330
5EF8
330
5EFB
102
}
330
1F
100
AcDbEntity
  8
0
100
AcDbCircle
 10
244.1396932763
 20
363.524773654723
 30
0.0
 40
62.0
100
AcDbArc
 50
40.70613426789399
 51
49.29386573209921
  0
LINE
  5
5DDC
330
1F
100
AcDbEntity
  8
0
100
AcDbLine
 10
267.8396932762999
 20
407.004773654723
 30
0.0
 11
267.8396932762999
 21
410.524773654723
 31
0.0
  0
LINE
  5
5DDD
330
1F
100
AcDbEntity
  8
0
100
AcDbLine
 10
264.4396932762997
 20
407.004773654723
 30
0.0
 11
264.4396932762997
 21
410.524773654723
 31
0.0
  0
LINE
  5
5DDE
102
{ACAD_REACTORS
330
5EC7
330
5EF5
102
}
330
1F
100
AcDbEntity
  8
CENTER
 48
1.5
100
AcDbLine
 10
281.1396932763
 20
408.424773654723
 30
0.0
 11
281.1396932763
 21
392.6247736547231
 31
0.0
  0
ARC
  5
5DDF
330
1F
100
AcDbEntity
  8
0
100
AcDbCircle
 10
266.5896932762998
 20
404.404773654723
 30
0.0
 40
1.7
100
AcDbArc
 50
270.0
 51
0.0
  0
ARC
  5
5DE0
330
1F
100
AcDbEntity
  8
0
100
AcDbCircle
 10
265.6896932762998
 20
404.404773654723
 30
0.0
 40
1.7
100
AcDbArc
 50
180.0
 51
270.0
  0
LINE
  5
5DE1
330
1F
100
AcDbEntity
  8
0
100
AcDbLine
 10
264.4396932762997
 20
407.004773654723
 30
0.0
 11
263.9896932762999
 21
406.5047736547231
 31
0.0
  0
LINE
  5
5DE2
330
1F
100
AcDbEntity
  8
0
100
AcDbLine
 10
263.9896932762999
 20
406.5047736547231
 30
0.0
 11
263.9896932762999
 21
404.404773654723
 31
0.0
  0
LINE
  5
5DE3
330
1F
100
AcDbEntity
  8
0
100
AcDbLine
 10
265.6896932762998
 20
402.704773654723
 30
0.0
 11
266.5896932762998
 21
402.704773654723
 31
0.0
  0
ARC
  5
5DE4
330
1F
100
AcDbEntity
  8
0
100
AcDbCircle
 10
281.3050738841353
 20
377.6243120966283
 30
0.0
 40
4.0
100
AcDbArc
 50
200.7753882496757
 51
284.9999999999944
  0
ARC
  5
5DE5
330
1F
100
AcDbEntity
  8
0
100
AcDbCircle
 10
281.3050738841348
 20
349.4252352128183
 30
0.0
 40
4.0
100
AcDbArc
 50
75.00000000000555
 51
159.224611750322
  0
ARC
  5
5DE6
330
1F
100
AcDbEntity
  8
0
100
AcDbCircle
 10
274.8608961010309
 20
344.6847106954523
 30
0.0
 40
4.0
100
AcDbArc
 50
326.9352195544708
 51
36.3392806080652
  0
ARC
  5
5DE7
330
1F
100
AcDbEntity
  8
0
100
AcDbCircle
 10
281.3050738841348
 20
349.4252352128183
 30
0.0
 40
4.0
100
AcDbArc
 50
159.224611750322
 51
216.3392806080652
  0
ARC
  5
5DE8
330
1F
100
AcDbEntity
  8
0
100
AcDbCircle
 10
244.1396932763
 20
363.5247736547233
 30
0.0
 40
35.75
100
AcDbArc
 50
339.2246117503221
 51
339.2246117503221
  0
LINE
  5
5DE9
330
1F
100
AcDbEntity
  8
0
100
AcDbLine
 10
288.1396932762996
 20
353.6247736547232
 30
0.0
 11
288.1396932762996
 21
362.2247736547233
 31
0.0
  0
LINE
  5
5DEA
330
1F
100
AcDbEntity
  8
0
100
AcDbLine
 10
282.340350064545
 20
353.2889385179745
 30
0.0
 11
283.7426521541516
 21
352.91319280552
 31
0.0
  0
CIRCLE
  5
5DEB
330
1F
100
AcDbEntity
  8
0
100
AcDbCircle
 10
281.3050738841348
 20
349.4252352128183
 30
0.0
 40
1.25
  0
LINE
  5
5DEC
330
1F
100
AcDbEntity
  8
0
100
AcDbLine
 10
287.1196932763
 20
343.674773654723
 30
0.0
 11
285.0196932762997
 21
343.674773654723
 31
0.0
  0
LINE
  5
5DED
330
1F
100
AcDbEntity
  8
0
100
AcDbLine
 10
287.6196932763
 20
343.2247736547231
 30
0.0
 11
287.1196932763
 21
343.6747736547232
 31
0.0
  0
ARC
  5
5DEE
330
1F
100
AcDbEntity
  8
0
100
AcDbCircle
 10
288.3396932762998
 20
353.6247736547232
 30
0.0
 40
0.2
100
AcDbArc
 50
180.0
 51
270.0
  0
LINE
  5
5DEF
330
1F
100
AcDbEntity
  8
0
100
AcDbLine
 10
282.340350064545
 20
373.760608791472
 30
0.0
 11
283.7426521541516
 21
374.1363545039265
 31
0.0
  0
LINE
  5
5DF0
330
1F
100
AcDbEntity
  8
0
100
AcDbLine
 10
288.1396932762996
 20
364.8247736547232
 30
0.0
 11
288.1396932762996
 21
373.4247736547231
 31
0.0
  0
ARC
  5
5DF1
330
1F
100
AcDbEntity
  8
0
100
AcDbCircle
 10
288.3396932762994
 20
364.8247736547231
 30
0.0
 40
0.2
100
AcDbArc
 50
180.0
 51
270.0
  0
ARC
  5
5DF2
330
1F
100
AcDbEntity
  8
0
100
AcDbCircle
 10
288.3396932762994
 20
362.2247736547232
 30
0.0
 40
0.2
100
AcDbArc
 50
90.0
 51
180.0
  0
ARC
  5
5DF3
330
1F
100
AcDbEntity
  8
0
100
AcDbCircle
 10
288.3396932762994
 20
373.4247736547231
 30
0.0
 40
0.2
100
AcDbArc
 50
90.0
 51
180.0
  0
ARC
  5
5DF4
330
1F
100
AcDbEntity
  8
0
100
AcDbCircle
 10
274.8608961010309
 20
382.3648366139943
 30
0.0
 40
4.0
100
AcDbArc
 50
323.6607193919348
 51
33.06478044552914
  0
ARC
  5
5DF5
330
1F
100
AcDbEntity
  8
0
100
AcDbCircle
 10
244.1396932763
 20
363.5247736547233
 30
0.0
 40
35.75
100
AcDbArc
 50
20.77538824967792
 51
20.77538824967792
  0
ARC
  5
5DF6
330
1F
100
AcDbEntity
  8
0
100
AcDbCircle
 10
281.3050738841353
 20
377.6243120966283
 30
0.0
 40
4.0
100
AcDbArc
 50
143.6607193919348
 51
200.7753882496757
  0
LINE
  5
5DF7
330
1F
100
AcDbEntity
  8
0
100
AcDbLine
 10
267.8396932762999
 20
407.004773654723
 30
0.0
 11
268.2896932763001
 21
406.5047736547231
 31
0.0
  0
LINE
  5
5DF8
330
1F
100
AcDbEntity
  8
0
100
AcDbLine
 10
268.2896932763001
 20
404.404773654723
 30
0.0
 11
268.2896932763001
 21
406.5047736547231
 31
0.0
  0
ARC
  5
5DF9
330
1F
100
AcDbEntity
  8
0
100
AcDbCircle
 10
285.0196932762997
 20
385.9747736547231
 30
0.0
 40
1.7
100
AcDbArc
 50
90.0
 51
180.0
  0
ARC
  5
5DFA
330
1F
100
AcDbEntity
  8
0
100
AcDbCircle
 10
285.0196932762997
 20
385.074773654723
 30
0.0
 40
1.7
100
AcDbArc
 50
180.0
 51
270.0
  0
CIRCLE
  5
5DFB
330
1F
100
AcDbEntity
  8
0
100
AcDbCircle
 10
281.3050738841353
 20
377.6243120966283
 30
0.0
 40
1.25
  0
LINE
  5
5DFC
330
1F
100
AcDbEntity
  8
0
100
AcDbLine
 10
283.3196932762998
 20
385.074773654723
 30
0.0
 11
283.3196932762998
 21
385.9747736547231
 31
0.0
  0
LINE
  5
5DFD
330
1F
100
AcDbEntity
  8
0
100
AcDbLine
 10
285.0196932762997
 20
387.6747736547232
 30
0.0
 11
287.1196932763
 21
387.6747736547232
 31
0.0
  0
LINE
  5
5DFE
330
1F
100
AcDbEntity
  8
0
100
AcDbLine
 10
287.1196932763
 20
383.3747736547231
 30
0.0
 11
285.0196932762997
 21
383.374773654723
 31
0.0
  0
LINE
  5
5DFF
330
1F
100
AcDbEntity
  8
0
100
AcDbLine
 10
287.6196932763
 20
387.2247736547231
 30
0.0
 11
287.1196932763
 21
387.6747736547232
 31
0.0
  0
LINE
  5
5E00
330
1F
100
AcDbEntity
  8
0
100
AcDbLine
 10
287.6196932763
 20
383.824773654723
 30
0.0
 11
287.1196932763
 21
383.374773654723
 31
0.0
  0
LINE
  5
5E01
330
1F
100
AcDbEntity
  8
0
100
AcDbLine
 10
252.7396932762995
 20
410.5247736547229
 30
0.0
 11
264.4396932762997
 21
410.524773654723
 31
0.0
  0
LINE
  5
5E02
330
1F
100
AcDbEntity
  8
0
100
AcDbLine
 10
252.7396932762995
 20
410.524773654723
 30
0.0
 11
260.4396932762997
 21
410.524773654723
 31
0.0
  0
ARC
  5
5E03
330
1F
100
AcDbEntity
  8
0
100
AcDbCircle
 10
254.0396932762996
 20
408.6247736547229
 30
0.0
 40
0.2
100
AcDbArc
 50
0.0
 51
90.0
  0
ARC
  5
5E04
330
1F
100
AcDbEntity
  8
0
100
AcDbCircle
 10
254.0396932762996
 20
407.7247736547231
 30
0.0
 40
0.2
100
AcDbArc
 50
270.0
 51
0.0
  0
ARC
  5
5E05
330
1F
100
AcDbEntity
  8
0
100
AcDbCircle
 10
252.7396932762995
 20
410.3247736547229
 30
0.0
 40
0.2
100
AcDbArc
 50
90.0
 51
180.0
  0
LINE
  5
5E06
330
1F
100
AcDbEntity
  8
0
100
AcDbLine
 10
254.0396932762996
 20
408.824773654723
 30
0.0
 11
252.7396932762995
 21
408.824773654723
 31
0.0
  0
ARC
  5
5E07
330
1F
100
AcDbEntity
  8
0
100
AcDbCircle
 10
252.7396932762995
 20
409.024773654723
 30
0.0
 40
0.2
100
AcDbArc
 50
180.0
 51
270.0
  0
LINE
  5
5E08
330
1F
100
AcDbEntity
  8
0
100
AcDbLine
 10
254.2396932762995
 20
407.7247736547231
 30
0.0
 11
254.2396932762995
 21
408.6247736547229
 31
0.0
  0
LINE
  5
5E09
330
1F
100
AcDbEntity
  8
0
100
AcDbLine
 10
252.5396932762997
 20
409.024773654723
 30
0.0
 11
252.5396932762997
 21
410.3247736547229
 31
0.0
  0
LINE
  5
5E0A
330
1F
100
AcDbEntity
  8
0
100
AcDbLine
 10
267.8396932762999
 20
410.524773654723
 30
0.0
 11
284.5748265146117
 21
410.524773654723
 31
0.0
  0
LINE
  5
5E0B
330
1F
100
AcDbEntity
  8
0
100
AcDbLine
 10
291.1396932763
 20
383.824773654723
 30
0.0
 11
291.1396932763
 21
372.1247736547232
 31
0.0
  0
LINE
  5
5E0C
330
1F
100
AcDbEntity
  8
0
100
AcDbLine
 10
291.1396932763
 20
354.9247736547233
 30
0.0
 11
291.1396932763
 21
343.2247736547231
 31
0.0
  0
ARC
  5
5E0D
330
1F
100
AcDbEntity
  8
0
100
AcDbCircle
 10
290.9396932762998
 20
354.9247736547233
 30
0.0
 40
0.2
100
AcDbArc
 50
0.0
 51
90.0
  0
ARC
  5
5E0E
330
1F
100
AcDbEntity
  8
0
100
AcDbCircle
 10
289.6396932762996
 20
354.9247736547233
 30
0.0
 40
0.2
100
AcDbArc
 50
90.0
 51
180.0
  0
LINE
  5
5E0F
330
1F
100
AcDbEntity
  8
0
100
AcDbLine
 10
289.6396932762996
 20
355.1247736547233
 30
0.0
 11
290.9396932762998
 21
355.1247736547233
 31
0.0
  0
ARC
  5
5E10
330
1F
100
AcDbEntity
  8
0
100
AcDbCircle
 10
289.2396932762999
 20
353.6247736547232
 30
0.0
 40
0.2
100
AcDbArc
 50
270.0
 51
0.0
  0
LINE
  5
5E11
330
1F
100
AcDbEntity
  8
0
100
AcDbLine
 10
289.4396932762997
 20
353.6247736547232
 30
0.0
 11
289.4396932762997
 21
354.9247736547233
 31
0.0
  0
ARC
  5
5E12
330
1F
100
AcDbEntity
  8
0
100
AcDbCircle
 10
290.9396932762998
 20
364.4247736547232
 30
0.0
 40
0.2
100
AcDbArc
 50
0.0
 51
90.0
  0
ARC
  5
5E13
330
1F
100
AcDbEntity
  8
0
100
AcDbCircle
 10
290.9396932762998
 20
362.6247736547232
 30
0.0
 40
0.2
100
AcDbArc
 50
270.0
 51
0.0
  0
LINE
  5
5E14
330
1F
100
AcDbEntity
  8
0
100
AcDbLine
 10
291.1396932762995
 20
362.6247736547232
 30
0.0
 11
291.1396932762995
 21
364.4247736547232
 31
0.0
  0
ARC
  5
5E15
330
1F
100
AcDbEntity
  8
0
100
AcDbCircle
 10
290.9396932762998
 20
372.1247736547232
 30
0.0
 40
0.2
100
AcDbArc
 50
270.0
 51
0.0
  0
LINE
  5
5E16
330
1F
100
AcDbEntity
  8
0
100
AcDbLine
 10
289.4396932762997
 20
372.1247736547232
 30
0.0
 11
289.4396932762997
 21
373.4247736547231
 31
0.0
  0
ARC
  5
5E17
330
1F
100
AcDbEntity
  8
0
100
AcDbCircle
 10
289.6396932762996
 20
372.1247736547232
 30
0.0
 40
0.2
100
AcDbArc
 50
180.0
 51
270.0
  0
ARC
  5
5E18
330
1F
100
AcDbEntity
  8
0
100
AcDbCircle
 10
289.2396932762999
 20
373.4247736547231
 30
0.0
 40
0.2
100
AcDbArc
 50
0.0
 51
90.0
  0
LINE
  5
5E19
330
1F
100
AcDbEntity
  8
0
100
AcDbLine
 10
289.6396932762996
 20
371.9247736547233
 30
0.0
 11
290.9396932762998
 21
371.9247736547233
 31
0.0
  0
LINE
  5
5E1A
330
1F
100
AcDbEntity
  8
0
100
AcDbLine
 10
291.1396932763
 20
403.9599068930347
 30
0.0
 11
291.1396932763
 21
387.224773654723
 31
0.0
  0
ARC
  5
5E1B
330
1F
100
AcDbEntity
  8
0
100
AcDbCircle
 10
64.25138433565075
 20
363.5247736547232
 30
0.0
 40
32.00000000000004
100
AcDbArc
 50
343.0232811802388
 51
16.97671881976121
  0
LINE
  5
5E1C
102
{ACAD_REACTORS
330
5E9D
102
}
330
1F
100
AcDbEntity
  8
0
100
AcDbLine
 10
96.25138433565076
 20
349.6683671941722
 30
0.0
 11
96.25138433565076
 21
377.3811801152743
 31
0.0
  0
ARC
  5
5E1D
330
1F
100
AcDbEntity
  8
0
100
AcDbCircle
 10
115.2513843356507
 20
363.5247736547232
 30
0.0
 40
32.00000000000004
100
AcDbArc
 50
163.0232811802388
 51
196.9767188197612
  0
LINE
  5
5E1E
102
{ACAD_REACTORS
330
5E9D
102
}
330
1F
100
AcDbEntity
  8
0
100
AcDbLine
 10
83.25138433565076
 20
349.6683671941722
 30
0.0
 11
83.25138433565076
 21
377.3811801152744
 31
0.0
  0
LINE
  5
5E1F
330
1F
100
AcDbEntity
  8
0
100
AcDbLine
 10
84.64583306018653
 20
354.1813143850017
 30
0.0
 11
94.85693561111451
 21
354.1813143850017
 31
0.0
  0
LINE
  5
5E20
330
1F
100
AcDbEntity
  8
0
100
AcDbLine
 10
84.71941168822899
 20
345.0495650406552
 30
0.0
 11
94.78335698307251
 21
345.0495650406552
 31
0.0
  0
ARC
  5
5E21
330
1F
100
AcDbEntity
  8
0
100
AcDbCircle
 10
88.25138433565076
 20
349.6683671941722
 30
0.0
 40
8.0
100
AcDbArc
 50
324.7356103172505
 51
34.34109372673992
  0
LINE
  5
5E22
330
1F
100
AcDbEntity
  8
0
100
AcDbLine
 10
96.25138433565076
 20
349.6683671941722
 30
0.0
 11
96.25138433565076
 21
354.2871693476892
 31
0.0
  0
ARC
  5
5E23
330
1F
100
AcDbEntity
  8
0
100
AcDbCircle
 10
91.25138433565075
 20
349.6683671941722
 30
0.0
 40
8.0
100
AcDbArc
 50
145.6589062732601
 51
215.2643896827495
  0
LINE
  5
5E24
330
1F
100
AcDbEntity
  8
0
100
AcDbLine
 10
83.25138433565076
 20
349.6683671941722
 30
0.0
 11
83.25138433565076
 21
354.2871693476893
 31
0.0
  0
LINE
  5
5E25
330
1F
100
AcDbEntity
  8
0
100
AcDbLine
 10
84.64583306018653
 20
372.8682329244448
 30
0.0
 11
94.85693561111451
 21
372.8682329244448
 31
0.0
  0
LINE
  5
5E26
330
1F
100
AcDbEntity
  8
0
100
AcDbLine
 10
84.71941168822899
 20
381.9999822687913
 30
0.0
 11
94.78335698307251
 21
381.9999822687913
 31
0.0
  0
ARC
  5
5E27
330
1F
100
AcDbEntity
  8
0
100
AcDbCircle
 10
88.25138433565076
 20
377.3811801152743
 30
0.0
 40
8.0
100
AcDbArc
 50
325.6589062732587
 51
35.26438968274887
  0
ARC
  5
5E28
102
{ACAD_REACTORS
330
5E9D
102
}
330
1F
100
AcDbEntity
  8
0
100
AcDbCircle
 10
91.25138433565075
 20
377.3811801152743
 30
0.0
 40
8.0
100
AcDbArc
 50
144.7356103172504
 51
214.3410937267413
  0
LINE
  5
5E29
330
1F
100
AcDbEntity
  8
0
 62
     3
100
AcDbLine
 10
104.1050095080898
 20
373.6967736547232
 30
0.0
 11
96.25138433565076
 21
373.6967736547232
 31
0.0
  0
LINE
  5
5E2A
330
1F
100
AcDbEntity
  8
0
 62
     3
100
AcDbLine
 10
83.2513843356512
 20
373.6967736547233
 30
0.0
 11
75.60500950808978
 21
373.6967736547232
 31
0.0
  0
LINE
  5
5E2B
330
1F
100
AcDbEntity
  8
0
 62
     3
100
AcDbLine
 10
104.1050095080898
 20
353.3527736547233
 30
0.0
 11
96.25138433565076
 21
353.3527736547233
 31
0.0
  0
LINE
  5
5E2C
330
1F
100
AcDbEntity
  8
0
 62
     3
100
AcDbLine
 10
83.2513843356512
 20
353.3527736547233
 30
0.0
 11
75.60500950808978
 21
353.3527736547233
 31
0.0
  0
LINE
  5
5E2D
330
1F
100
AcDbEntity
  8
0
 62
     3
100
AcDbLine
 10
75.60500950808978
 20
353.3527736547233
 30
0.0
 11
74.7770095080898
 21
352.5247736547233
 31
0.0
  0
LINE
  5
5E2E
330
1F
100
AcDbEntity
  8
0
 62
     3
100
AcDbLine
 10
75.60500950808978
 20
373.6967736547232
 30
0.0
 11
74.7770095080898
 21
374.5247736547233
 31
0.0
  0
LINE
  5
5E2F
102
{ACAD_REACTORS
330
5EA0
102
}
330
1F
100
AcDbEntity
  8
0
100
AcDbLine
 10
75.60500950808978
 20
374.5247736547233
 30
0.0
 11
75.60500950808978
 21
352.5247736547233
 31
0.0
  0
LINE
  5
5E30
330
1F
100
AcDbEntity
  8
0
100
AcDbLine
 10
71.10500950808978
 20
374.5247736547233
 30
0.0
 11
68.60500950808978
 21
374.5247736547233
 31
0.0
  0
LINE
  5
5E31
330
1F
100
AcDbEntity
  8
0
100
AcDbLine
 10
67.10500950808977
 20
376.0247736547233
 30
0.0
 11
68.60500950808978
 21
374.5247736547233
 31
0.0
  0
LINE
  5
5E32
330
1F
100
AcDbEntity
  8
0
100
AcDbLine
 10
71.10500950808978
 20
374.5247736547233
 30
0.0
 11
72.60500950808978
 21
374.5247736547233
 31
0.0
  0
ARC
  5
5E33
102
{ACAD_REACTORS
330
5EC2
102
}
330
1F
100
AcDbEntity
  8
0
100
AcDbCircle
 10
79.60500950808977
 20
363.5247736547233
 30
0.0
 40
12.50000000000001
100
AcDbArc
 50
151.6423634236774
 51
208.3576365763225
  0
LINE
  5
5E34
330
1F
100
AcDbEntity
  8
0
100
AcDbLine
 10
68.60500950808978
 20
352.5247736547233
 30
0.0
 11
71.10500950808978
 21
352.5247736547233
 31
0.0
  0
LINE
  5
5E35
330
1F
100
AcDbEntity
  8
0
100
AcDbLine
 10
71.10500950808978
 20
352.5247736547233
 30
0.0
 11
72.60500950808978
 21
352.5247736547233
 31
0.0
  0
SPLINE
  5
5E36
330
1F
100
AcDbEntity
  8
0
100
AcDbSpline
210
0.0
220
0.0
230
1.0
 70
    12
 71
     2
 72
     6
 73
     3
 74
     0
 42
0.0000000001
 43
0.0000000001
 40
0.0
 40
0.0
 40
0.0
 40
6.162838341845223
 40
6.162838341845223
 40
6.162838341845223
 10
71.10500950808978
 20
369.4619446982422
 30
0.0
 41
1.0
 10
72.60500950808779
 20
366.3038749942424
 30
0.0
 41
1.033528818263833
 10
72.60500950808978
 20
363.5247736547233
 30
0.0
 41
1.0
  0
SPLINE
  5
5E37
330
1F
100
AcDbEntity
  8
0
100
AcDbSpline
210
0.0
220
0.0
230
1.0
 70
    12
 71
     2
 72
     6
 73
     3
 74
     0
 42
0.0000000001
 43
0.0000000001
 40
6.162838341845223
 40
6.162838341845223
 40
6.162838341845223
 40
12.32567668369044
 40
12.32567668369044
 40
12.32567668369044
 10
72.60500950808978
 20
363.5247736547233
 30
0.0
 41
1.0
 10
72.60500950808779
 20
360.7456723152036
 30
0.0
 41
1.033528818263833
 10
71.10500950808978
 20
357.5876026112043
 30
0.0
 41
1.0
  0
LINE
  5
5E38
330
1F
100
AcDbEntity
  8
0
100
AcDbLine
 10
71.10500950808978
 20
357.5876026112043
 30
0.0
 11
68.60500950808978
 21
357.5876026112043
 31
0.0
  0
LINE
  5
5E39
330
1F
100
AcDbEntity
  8
0
100
AcDbLine
 10
68.60500950808978
 20
357.5876026112043
 30
0.0
 11
68.60500950808978
 21
369.4619446982422
 31
0.0
  0
LINE
  5
5E3A
330
1F
100
AcDbEntity
  8
0
100
AcDbLine
 10
68.60500950808978
 20
369.4619446982422
 30
0.0
 11
71.10500950808978
 21
369.4619446982422
 31
0.0
  0
LINE
  5
5E3B
330
1F
100
AcDbEntity
  8
0
100
AcDbLine
 10
68.60500950808978
 20
352.5247736547233
 30
0.0
 11
67.10500950808977
 21
351.0247736547233
 31
0.0
  0
LINE
  5
5E3C
330
1F
100
AcDbEntity
  8
0
100
AcDbLine
 10
72.60500950808978
 20
352.5247736547233
 30
0.0
 11
77.10500950808977
 21
352.5247736547233
 31
0.0
  0
LINE
  5
5E3D
330
1F
100
AcDbEntity
  8
0
100
AcDbLine
 10
72.60500950808978
 20
374.5247736547233
 30
0.0
 11
77.10500950808977
 21
374.5247736547233
 31
0.0
  0
LINE
  5
5E3E
330
1F
100
AcDbEntity
  8
0
100
AcDbLine
 10
77.10500950808977
 20
352.5247736547233
 30
0.0
 11
83.2513843356503
 21
352.5247736547232
 31
0.0
  0
LINE
  5
5E3F
330
1F
100
AcDbEntity
  8
0
100
AcDbLine
 10
96.2513843356503
 20
352.5247736547233
 30
0.0
 11
104.1050095080898
 21
352.5247736547233
 31
0.0
  0
LINE
  5
5E40
330
1F
100
AcDbEntity
  8
0
100
AcDbLine
 10
77.10500950808977
 20
374.5247736547233
 30
0.0
 11
83.2513843356503
 21
374.5247736547232
 31
0.0
  0
LINE
  5
5E41
330
1F
100
AcDbEntity
  8
0
100
AcDbLine
 10
96.2513843356503
 20
374.5247736547233
 30
0.0
 11
104.1050095080898
 21
374.5247736547233
 31
0.0
  0
LINE
  5
5E42
330
1F
100
AcDbEntity
  8
0
100
AcDbLine
 10
105.6050095080897
 20
373.0247736547233
 30
0.0
 11
104.1050095080898
 21
374.5247736547233
 31
0.0
  0
LINE
  5
5E43
330
1F
100
AcDbEntity
  8
0
100
AcDbLine
 10
105.6050095080897
 20
354.0247736547233
 30
0.0
 11
104.1050095080898
 21
352.5247736547233
 31
0.0
  0
LINE
  5
5E44
330
1F
100
AcDbEntity
  8
0
100
AcDbLine
 10
71.10500950808978
 20
369.4619446982422
 30
0.0
 11
71.10500950808978
 21
374.5247736547233
 31
0.0
  0
LINE
  5
5E45
102
{ACAD_REACTORS
330
5EA3
102
}
330
1F
100
AcDbEntity
  8
0
100
AcDbLine
 10
72.60500950808978
 20
374.5247736547233
 30
0.0
 11
72.60500950808978
 21
363.5247736547233
 31
0.0
  0
LINE
  5
5E46
330
1F
100
AcDbEntity
  8
0
100
AcDbLine
 10
71.10500950808978
 20
352.5247736547233
 30
0.0
 11
71.10500950808978
 21
357.5876026112043
 31
0.0
  0
LINE
  5
5E47
102
{ACAD_REACTORS
330
5EC2
102
}
330
1F
100
AcDbEntity
  8
0
100
AcDbLine
 10
72.60500950808978
 20
363.5247736547233
 30
0.0
 11
72.60500950808978
 21
352.5247736547233
 31
0.0
  0
LINE
  5
5E48
330
1F
100
AcDbEntity
  8
0
100
AcDbLine
 10
104.1050095080898
 20
352.5247736547233
 30
0.0
 11
104.1050095080898
 21
374.5247736547233
 31
0.0
  0
LINE
  5
5E49
102
{ACAD_REACTORS
330
5EA0
330
5EA3
330
5EA9
330
5EB5
102
}
330
1F
100
AcDbEntity
  8
0
100
AcDbLine
 10
105.6050095080897
 20
373.0247736547233
 30
0.0
 11
105.6050095080897
 21
354.0247736547233
 31
0.0
  0
LINE
  5
5E4A
102
{ACAD_REACTORS
330
5EB8
102
}
330
1F
100
AcDbEntity
  8
0
100
AcDbLine
 10
66.60500950808978
 20
351.0247736547233
 30
0.0
 11
67.10500950808977
 21
351.0247736547233
 31
0.0
  0
LINE
  5
5E4B
102
{ACAD_REACTORS
330
5EB8
102
}
330
1F
100
AcDbEntity
  8
0
100
AcDbLine
 10
66.60500950808978
 20
376.0247736547233
 30
0.0
 11
67.10500950808977
 21
376.0247736547233
 31
0.0
  0
CIRCLE
  5
5E4C
330
1F
100
AcDbEntity
  8
0
100
AcDbCircle
 10
28.60500950808978
 20
363.5247736547233
 30
0.0
 40
5.719999999999999
  0
ARC
  5
5E4D
330
1F
100
AcDbEntity
  8
0
 62
     3
100
AcDbCircle
 10
28.60500950808978
 20
363.5247736547233
 30
0.0
 40
6.575
100
AcDbArc
 50
335.2347665373984
 51
246.3487276908177
  0
CIRCLE
  5
5E4E
330
1F
100
AcDbEntity
  8
0
100
AcDbCircle
 10
48.60500950808978
 20
363.5247736547233
 30
0.0
 40
5.719999999999999
  0
ARC
  5
5E4F
330
1F
100
AcDbEntity
  8
0
 62
     3
100
AcDbCircle
 10
48.60500950808978
 20
363.5247736547233
 30
0.0
 40
6.575
100
AcDbArc
 50
335.2347665373984
 51
246.3487276908177
  0
LINE
  5
5E50
102
{ACAD_REACTORS
330
5EB2
102
}
330
1F
100
AcDbEntity
  8
CENTER
 48
1.5
100
AcDbLine
 10
48.60500950808978
 20
373.3861256032069
 30
0.0
 11
48.60500950808978
 21
353.6634217062397
 31
0.0
  0
ARC
  5
5E51
330
1F
100
AcDbEntity
  8
0
 62
     3
100
AcDbCircle
 10
244.1396932763
 20
363.5247736547233
 30
0.0
 40
10.172
100
AcDbArc
 50
259.9999999999948
 51
189.9999999999986
  0
ARC
  5
5E52
330
1F
100
AcDbEntity
  8
0
100
AcDbCircle
 10
244.1396932763
 20
363.5247736547233
 30
0.0
 40
12.5
100
AcDbArc
 50
61.64236342367343
 51
118.3576365763265
  0
LINE
  5
5E53
330
1F
100
AcDbEntity
  8
0
100
AcDbLine
 10
244.1396932763
 20
374.5247736547233
 30
0.0
 11
250.0768643198189
 21
374.5247736547233
 31
0.0
  0
LINE
  5
5E54
330
1F
100
AcDbEntity
  8
0
100
AcDbLine
 10
238.2025222327811
 20
374.5247736547233
 30
0.0
 11
244.1396932763
 21
374.5247736547233
 31
0.0
  0
ARC
  5
5E55
330
1F
100
AcDbEntity
  8
0
100
AcDbCircle
 10
244.1396932763
 20
363.5247736547233
 30
0.0
 40
12.5
100
AcDbArc
 50
151.6423634236774
 51
208.3576365763225
  0
LINE
  5
5E56
330
1F
100
AcDbEntity
  8
0
100
AcDbLine
 10
238.2025222327811
 20
352.5247736547233
 30
0.0
 11
244.1396932763
 21
352.5247736547233
 31
0.0
  0
LINE
  5
5E57
330
1F
100
AcDbEntity
  8
0
100
AcDbLine
 10
244.1396932763
 20
352.5247736547233
 30
0.0
 11
250.0768643198189
 21
352.5247736547233
 31
0.0
  0
ARC
  5
5E58
102
{ACAD_REACTORS
330
5EFE
102
}
330
1F
100
AcDbEntity
  8
0
100
AcDbCircle
 10
244.1396932763
 20
363.5247736547233
 30
0.0
 40
12.5
100
AcDbArc
 50
331.6423634236774
 51
28.35763657632255
  0
LINE
  5
5E59
330
1F
100
AcDbEntity
  8
0
100
AcDbLine
 10
233.1396932763
 20
369.4619446982422
 30
0.0
 11
233.1396932763
 21
363.5247736547233
 31
0.0
  0
LINE
  5
5E5A
330
1F
100
AcDbEntity
  8
0
100
AcDbLine
 10
233.1396932763
 20
363.5247736547233
 30
0.0
 11
233.1396932763
 21
357.5876026112043
 31
0.0
  0
ARC
  5
5E5B
330
1F
100
AcDbEntity
  8
0
100
AcDbCircle
 10
244.1396932763
 20
363.5247736547233
 30
0.0
 40
12.5
100
AcDbArc
 50
241.6423634236734
 51
298.3576365763266
  0
LINE
  5
5E5C
102
{ACAD_REACTORS
330
5EFE
102
}
330
1F
100
AcDbEntity
  8
0
100
AcDbLine
 10
255.1396932763
 20
363.5247736547233
 30
0.0
 11
255.1396932763
 21
357.5876026112043
 31
0.0
  0
LINE
  5
5E5D
330
1F
100
AcDbEntity
  8
0
100
AcDbLine
 10
255.1396932763
 20
369.4619446982422
 30
0.0
 11
255.1396932763
 21
363.5247736547233
 31
0.0
  0
ARC
  5
5E5E
330
1F
100
AcDbEntity
  8
0
100
AcDbCircle
 10
244.1396932763
 20
363.5247736547233
 30
0.0
 40
12.5
100
AcDbArc
 50
298.3576365763266
 51
331.6423634236774
  0
ARC
  5
5E5F
330
1F
100
AcDbEntity
  8
0
100
AcDbCircle
 10
244.1396932763
 20
363.5247736547233
 30
0.0
 40
12.5
100
AcDbArc
 50
28.35763657632255
 51
61.64236342367343
  0
ARC
  5
5E60
330
1F
100
AcDbEntity
  8
0
100
AcDbCircle
 10
244.1396932763
 20
363.5247736547233
 30
0.0
 40
12.5
100
AcDbArc
 50
118.3576365763265
 51
151.6423634236774
  0
ARC
  5
5E61
102
{ACAD_REACTORS
330
5EFE
102
}
330
1F
100
AcDbEntity
  8
0
100
AcDbCircle
 10
244.1396932763
 20
363.5247736547233
 30
0.0
 40
12.5
100
AcDbArc
 50
208.3576365763225
 51
241.6423634236734
  0
CIRCLE
  5
5E62
330
1F
100
AcDbEntity
  8
0
100
AcDbCircle
 10
244.1396932763
 20
363.5247736547233
 30
0.0
 40
11.0
  0
CIRCLE
  5
5E63
330
1F
100
AcDbEntity
  8
0
100
AcDbCircle
 10
244.1396932763
 20
363.5247736547233
 30
0.0
 40
9.5
  0
CIRCLE
  5
5E64
330
1F
100
AcDbEntity
  8
0
100
AcDbCircle
 10
281.1396932763
 20
400.524773654723
 30
0.0
 40
5.25
  0
ARC
  5
5E65
330
1F
100
AcDbEntity
  8
0
 62
     3
100
AcDbCircle
 10
281.1396932763
 20
400.524773654723
 30
0.0
 40
6.0
100
AcDbArc
 50
253.7695004067114
 51
199.4352408154539
  0
CIRCLE
  5
5E66
330
1F
100
AcDbEntity
  8
0
100
AcDbCircle
 10
281.1396932763
 20
400.524773654723
 30
0.0
 40
7.0
  0
ARC
  5
5E67
330
1F
100
AcDbEntity
  8
0
100
AcDbCircle
 10
244.1396932763
 20
130.8995571206591
 30
0.0
 40
12.5
100
AcDbArc
 50
61.64236342367343
 51
118.3576365763265
  0
LINE
  5
5E68
330
1F
100
AcDbEntity
  8
0
100
AcDbLine
 10
244.1396932763
 20
141.8995571206591
 30
0.0
 11
250.0768643198189
 21
141.8995571206591
 31
0.0
  0
LINE
  5
5E69
330
1F
100
AcDbEntity
  8
0
100
AcDbLine
 10
238.2025222327811
 20
141.8995571206591
 30
0.0
 11
244.1396932763
 21
141.8995571206591
 31
0.0
  0
ARC
  5
5E6A
330
1F
100
AcDbEntity
  8
0
100
AcDbCircle
 10
244.1396932763
 20
130.8995571206591
 30
0.0
 40
12.5
100
AcDbArc
 50
151.6423634236774
 51
208.3576365763225
  0
LINE
  5
5E6B
330
1F
100
AcDbEntity
  8
0
100
AcDbLine
 10
238.2025222327811
 20
119.8995571206591
 30
0.0
 11
244.1396932763
 21
119.8995571206591
 31
0.0
  0
LINE
  5
5E6C
330
1F
100
AcDbEntity
  8
0
100
AcDbLine
 10
244.1396932763
 20
119.8995571206591
 30
0.0
 11
250.0768643198189
 21
119.8995571206591
 31
0.0
  0
ARC
  5
5E6D
330
1F
100
AcDbEntity
  8
0
100
AcDbCircle
 10
244.1396932763
 20
130.8995571206591
 30
0.0
 40
12.5
100
AcDbArc
 50
331.6423634236774
 51
28.35763657632255
  0
LINE
  5
5E6E
330
1F
100
AcDbEntity
  8
0
100
AcDbLine
 10
233.1396932763
 20
136.836728164178
 30
0.0
 11
233.1396932763
 21
130.8995571206591
 31
0.0
  0
LINE
  5
5E6F
330
1F
100
AcDbEntity
  8
0
100
AcDbLine
 10
233.1396932763
 20
130.8995571206591
 30
0.0
 11
233.1396932763
 21
124.9623860771401
 31
0.0
  0
ARC
  5
5E70
330
1F
100
AcDbEntity
  8
0
100
AcDbCircle
 10
244.1396932763
 20
130.8995571206591
 30
0.0
 40
12.5
100
AcDbArc
 50
241.6423634236734
 51
298.3576365763266
  0
LINE
  5
5E71
330
1F
100
AcDbEntity
  8
0
100
AcDbLine
 10
255.1396932763
 20
130.8995571206591
 30
0.0
 11
255.1396932763
 21
124.9623860771401
 31
0.0
  0
LINE
  5
5E72
330
1F
100
AcDbEntity
  8
0
100
AcDbLine
 10
255.1396932763
 20
136.836728164178
 30
0.0
 11
255.1396932763
 21
130.8995571206591
 31
0.0
  0
ARC
  5
5E73
330
1F
100
AcDbEntity
  8
0
100
AcDbCircle
 10
244.1396932763
 20
130.8995571206591
 30
0.0
 40
12.5
100
AcDbArc
 50
298.3576365763266
 51
331.6423634236774
  0
ARC
  5
5E74
330
1F
100
AcDbEntity
  8
0
100
AcDbCircle
 10
244.1396932763
 20
130.8995571206591
 30
0.0
 40
12.5
100
AcDbArc
 50
28.35763657632255
 51
61.64236342367343
  0
ARC
  5
5E75
330
1F
100
AcDbEntity
  8
0
100
AcDbCircle
 10
244.1396932763
 20
130.8995571206591
 30
0.0
 40
12.5
100
AcDbArc
 50
118.3576365763265
 51
151.6423634236774
  0
ARC
  5
5E76
330
1F
100
AcDbEntity
  8
0
100
AcDbCircle
 10
244.1396932763
 20
130.8995571206591
 30
0.0
 40
12.5
100
AcDbArc
 50
208.3576365763225
 51
241.6423634236734
  0
CIRCLE
  5
5E77
330
1F
100
AcDbEntity
  8
0
100
AcDbCircle
 10
244.1396932763
 20
130.8995571206591
 30
0.0
 40
11.0
  0
LINE
  5
5E78
330
1F
100
AcDbEntity
  8
0
100
AcDbLine
 10
71.10500950808978
 20
141.8995571206591
 30
0.0
 11
68.60500950808978
 21
141.8995571206591
 31
0.0
  0
LINE
  5
5E79
330
1F
100
AcDbEntity
  8
0
100
AcDbLine
 10
67.10500950808977
 20
143.3995571206591
 30
0.0
 11
68.60500950808978
 21
141.8995571206591
 31
0.0
  0
LINE
  5
5E7A
330
1F
100
AcDbEntity
  8
0
100
AcDbLine
 10
71.10500950808978
 20
141.8995571206591
 30
0.0
 11
72.60500950808978
 21
141.8995571206591
 31
0.0
  0
ARC
  5
5E7B
102
{ACAD_REACTORS
330
5EF0
102
}
330
1F
100
AcDbEntity
  8
0
100
AcDbCircle
 10
79.60500950808977
 20
130.8995571206591
 30
0.0
 40
12.50000000000001
100
AcDbArc
 50
151.6423634236774
 51
208.3576365763225
  0
LINE
  5
5E7C
330
1F
100
AcDbEntity
  8
0
100
AcDbLine
 10
68.60500950808978
 20
119.8995571206591
 30
0.0
 11
71.10500950808978
 21
119.8995571206591
 31
0.0
  0
LINE
  5
5E7D
330
1F
100
AcDbEntity
  8
0
100
AcDbLine
 10
71.10500950808978
 20
119.8995571206591
 30
0.0
 11
72.60500950808978
 21
119.8995571206591
 31
0.0
  0
SPLINE
  5
5E7E
330
1F
100
AcDbEntity
  8
0
100
AcDbSpline
210
0.0
220
0.0
230
1.0
 70
    12
 71
     2
 72
     6
 73
     3
 74
     0
 42
0.0000000001
 43
0.0000000001
 40
0.0
 40
0.0
 40
0.0
 40
6.162838341845223
 40
6.162838341845223
 40
6.162838341845223
 10
71.10500950808978
 20
136.8367281641781
 30
0.0
 41
1.0
 10
72.60500950808705
 20
133.6786584601785
 30
0.0
 41
1.033528818263833
 10
72.60500950808978
 20
130.8995571206591
 30
0.0
 41
1.0
  0
SPLINE
  5
5E7F
330
1F
100
AcDbEntity
  8
0
100
AcDbSpline
210
0.0
220
0.0
230
1.0
 70
    12
 71
     2
 72
     6
 73
     3
 74
     0
 42
0.0000000001
 43
0.0000000001
 40
6.162838341845223
 40
6.162838341845223
 40
6.162838341845223
 40
12.32567668369044
 40
12.32567668369044
 40
12.32567668369044
 10
72.60500950808978
 20
130.8995571206591
 30
0.0
 41
1.0
 10
72.60500950808705
 20
128.1204557811394
 30
0.0
 41
1.033528818263833
 10
71.10500950808978
 20
124.9623860771402
 30
0.0
 41
1.0
  0
LINE
  5
5E80
330
1F
100
AcDbEntity
  8
0
100
AcDbLine
 10
71.10500950808978
 20
124.9623860771402
 30
0.0
 11
68.60500950808978
 21
124.9623860771402
 31
0.0
  0
LINE
  5
5E81
102
{ACAD_REACTORS
330
5EF0
102
}
330
1F
100
AcDbEntity
  8
0
100
AcDbLine
 10
68.60500950808978
 20
124.9623860771402
 30
0.0
 11
68.60500950808978
 21
136.8367281641781
 31
0.0
  0
LINE
  5
5E82
330
1F
100
AcDbEntity
  8
0
100
AcDbLine
 10
68.60500950808978
 20
136.8367281641781
 30
0.0
 11
71.10500950808978
 21
136.8367281641781
 31
0.0
  0
LINE
  5
5E83
330
1F
100
AcDbEntity
  8
0
100
AcDbLine
 10
68.60500950808978
 20
119.8995571206591
 30
0.0
 11
67.10500950808977
 21
118.3995571206591
 31
0.0
  0
LINE
  5
5E84
330
1F
100
AcDbEntity
  8
0
100
AcDbLine
 10
71.10500950808978
 20
136.8367281641781
 30
0.0
 11
71.10500950808978
 21
141.8995571206591
 31
0.0
  0
LINE
  5
5E85
102
{ACAD_REACTORS
330
5ED8
330
5EE7
102
}
330
1F
100
AcDbEntity
  8
0
100
AcDbLine
 10
72.60500950808978
 20
141.8995571206591
 30
0.0
 11
72.60500950808978
 21
130.8995571206591
 31
0.0
  0
LINE
  5
5E86
330
1F
100
AcDbEntity
  8
0
100
AcDbLine
 10
71.10500950808978
 20
119.8995571206591
 30
0.0
 11
71.10500950808978
 21
124.9623860771402
 31
0.0
  0
LINE
  5
5E87
102
{ACAD_REACTORS
330
5EF0
102
}
330
1F
100
AcDbEntity
  8
0
100
AcDbLine
 10
72.60500950808978
 20
130.8995571206591
 30
0.0
 11
72.60500950808978
 21
119.8995571206591
 31
0.0
  0
LINE
  5
5E88
102
{ACAD_REACTORS
330
5EEA
102
}
330
1F
100
AcDbEntity
  8
0
100
AcDbLine
 10
66.60500950808978
 20
118.3995571206591
 30
0.0
 11
67.10500950808977
 21
118.3995571206591
 31
0.0
  0
LINE
  5
5E89
102
{ACAD_REACTORS
330
5EEA
102
}
330
1F
100
AcDbEntity
  8
0
100
AcDbLine
 10
66.60500950808978
 20
143.3995571206591
 30
0.0
 11
67.10500950808977
 21
143.3995571206591
 31
0.0
  0
LINE
  5
5E8A
330
1F
100
AcDbEntity
  8
0
100
AcDbLine
 10
61.60500950808978
 20
90.46442388234742
 30
0.0
 11
15.60500950808978
 21
90.46442388234742
 31
0.0
  0
LINE
  5
5E8B
330
1F
100
AcDbEntity
  8
0
100
AcDbLine
 10
61.60500950808978
 20
83.8995571206591
 30
0.0
 11
15.60500950808978
 21
83.89955712065903
 31
0.0
  0
LINE
  5
5E8C
330
1F
100
AcDbEntity
  8
0
100
AcDbLine
 10
61.60500950808978
 20
171.3346903589708
 30
0.0
 11
15.60500950808978
 21
171.3346903589707
 31
0.0
  0
LINE
  5
5E8D
330
1F
100
AcDbEntity
  8
0
100
AcDbLine
 10
61.60500950808978
 20
154.5995571206594
 30
0.0
 11
15.60500950808978
 21
154.5995571206593
 31
0.0
  0
LINE
  5
5E8E
330
1F
100
AcDbEntity
  8
0
100
AcDbLine
 10
61.60500950808978
 20
151.1995571206593
 30
0.0
 11
15.60500950808978
 21
151.1995571206592
 31
0.0
  0
LINE
  5
5E8F
330
1F
100
AcDbEntity
  8
0
100
AcDbLine
 10
61.60500950808978
 20
144.3995571206594
 30
0.0
 11
15.60500950808978
 21
144.3995571206593
 31
0.0
  0
LINE
  5
5E90
330
1F
100
AcDbEntity
  8
0
100
AcDbLine
 10
61.60500950808978
 20
117.3995571206589
 30
0.0
 11
15.60500950808978
 21
117.3995571206588
 31
0.0
  0
LINE
  5
5E91
330
1F
100
AcDbEntity
  8
0
100
AcDbLine
 10
61.60500950808978
 20
110.5995571206589
 30
0.0
 11
15.60500950808978
 21
110.5995571206588
 31
0.0
  0
LINE
  5
5E92
330
1F
100
AcDbEntity
  8
0
100
AcDbLine
 10
61.60500950808978
 20
107.1995571206588
 30
0.0
 11
15.60500950808978
 21
107.1995571206588
 31
0.0
  0
LINE
  5
5E93
102
{ACAD_REACTORS
330
5ED8
330
5EDB
330
5EE1
330
5EE4
330
5EE7
102
}
330
1F
100
AcDbEntity
  8
0
100
AcDbLine
 10
61.60500950808978
 20
177.8995571206589
 30
0.0
 11
15.60500950808978
 21
177.8995571206588
 31
0.0
  0
LINE
  5
5E94
102
{ACAD_REACTORS
330
5EDE
330
5EE4
102
}
330
1F
100
AcDbEntity
  8
0
100
AcDbLine
 10
15.60500950808978
 20
177.8995571206589
 30
0.0
 11
15.60500950808978
 21
83.89955712065898
 31
0.0
  0
LINE
  5
5E95
102
{ACAD_REACTORS
330
5EDE
102
}
330
1F
100
AcDbEntity
  8
CENTER
 48
1.5
100
AcDbLine
 10
28.60500950808978
 20
140.7609090691427
 30
0.0
 11
28.60500950808978
 21
121.0382051721754
 31
0.0
  0
CIRCLE
  5
5E96
330
1F
100
AcDbEntity
  8
0
100
AcDbCircle
 10
28.60500950808978
 20
130.8995571206591
 30
0.0
 40
5.719999999999999
  0
ARC
  5
5E97
330
1F
100
AcDbEntity
  8
0
 62
     3
100
AcDbCircle
 10
28.60500950808978
 20
130.8995571206591
 30
0.0
 40
6.575
100
AcDbArc
 50
335.2347665373984
 51
246.3487276908177
  0
CIRCLE
  5
5E98
330
1F
100
AcDbEntity
  8
0
100
AcDbCircle
 10
48.60500950808978
 20
130.8995571206591
 30
0.0
 40
5.719999999999999
  0
ARC
  5
5E99
330
1F
100
AcDbEntity
  8
0
 62
     3
100
AcDbCircle
 10
48.60500950808978
 20
130.8995571206591
 30
0.0
 40
6.575
100
AcDbArc
 50
335.2347665373984
 51
246.3487276908177
  0
LINE
  5
5E9A
102
{ACAD_REACTORS
330
5EE1
102
}
330
1F
100
AcDbEntity
  8
CENTER
 48
1.5
100
AcDbLine
 10
48.60500950808978
 20
140.7609090691427
 30
0.0
 11
48.60500950808978
 21
121.0382051721754
 31
0.0
  0
DIMENSION
  5
5E9B
102
{ACAD_XDICTIONARY
360
5E9C
102
}
102
{ACAD_REACTORS
330
5E9D
102
}
330
1F
100
AcDbEntity
  8
DIM
100
AcDbDimension
  2
*D2
 10
96.25138433565076
 20
391.246581015972
 30
0.0
 11
89.75138433565076
 21
394.296581015972
 31
0.0
 70
    32
 71
     5
 42
13.0
  3
AM_ANSI
100
AcDbAlignedDimension
 13
83.25138433565076
 23
377.3811801152743
 33
0.0
 14
96.25138433565076
 24
377.3811801152743
 34
0.0
100
AcDbRotatedDimension
1001
ACAD
1000
DSTYLE
1002
{
1070
    41
1040
3.5
1070
    42
1040
3.0
1070
    43
1040
8.0
1070
    44
1040
3.0
1070
    73
1070
     0
1070
    74
1070
     0
1070
    77
1070
     3
1070
   141
1040
3.0
1070
   146
1040
0.6
1070
   147
1040
1.3
1070
   172
1070
     1
1070
   178
1070
   256
1070
   272
1070
     2
1070
   274
1070
     2
1070
   340
1005
59B5
1002
}
  0
DIMENSION
  5
5E9E
102
{ACAD_XDICTIONARY
360
5E9F
102
}
102
{ACAD_REACTORS
330
5EA0
102
}
330
1F
100
AcDbEntity
  8
DIM
100
AcDbDimension
  2
*D3
 10
105.6050095080897
 20
400.452320779566
 30
0.0
 11
90.60500950808977
 21
403.502320779566
 31
0.0
 70
    32
 71
     5
 42
30.0
  3
AM_ANSI
100
AcDbAlignedDimension
 13
75.60500950808978
 23
374.5247736547233
 33
0.0
 14
105.6050095080897
 24
373.0247736547233
 34
0.0
100
AcDbRotatedDimension
1001
ACAD
1000
DSTYLE
1002
{
1070
    41
1040
3.5
1070
    42
1040
3.0
1070
    43
1040
8.0
1070
    44
1040
3.0
1070
    73
1070
     0
1070
    74
1070
     0
1070
    77
1070
     3
1070
   141
1040
3.0
1070
   146
1040
0.6
1070
   147
1040
1.3
1070
   172
1070
     1
1070
   178
1070
   256
1070
   272
1070
     2
1070
   274
1070
     2
1070
   340
1005
59B5
1002
}
  0
DIMENSION
  5
5EA1
102
{ACAD_XDICTIONARY
360
5EA2
102
}
102
{ACAD_REACTORS
330
5EA3
102
}
330
1F
100
AcDbEntity
  8
DIM
100
AcDbDimension
  2
*D4
 10
105.6050095080897
 20
409.8033600942822
 30
0.0
 11
89.10500950808978
 21
412.8533600942822
 31
0.0
 70
    32
 71
     5
 42
33.0
  3
AM_ANSI
100
AcDbAlignedDimension
 13
72.60500950808978
 23
374.5247736547233
 33
0.0
 14
105.6050095080897
 24
373.0247736547233
 34
0.0
100
AcDbRotatedDimension
1001
ACAD
1000
DSTYLE
1002
{
1070
    41
1040
3.5
1070
    42
1040
3.0
1070
    43
1040
8.0
1070
    44
1040
3.0
1070
    73
1070
     0
1070
    74
1070
     0
1070
    77
1070
     3
1070
   141
1040
3.0
1070
   146
1040
0.6
1070
   147
1040
1.3
1070
   172
1070
     1
1070
   178
1070
   256
1070
   272
1070
     2
1070
   274
1070
     2
1070
   340
1005
59B5
1002
}
  0
DIMENSION
  5
5EA4
102
{ACAD_XDICTIONARY
360
5EA5
102
}
102
{ACAD_REACTORS
330
5EA6
102
}
330
1F
100
AcDbEntity
  8
DIM
100
AcDbDimension
  2
*D5
 10
66.60500950808978
 20
420.8292932874454
 30
0.0
 11
64.10500950808978
 21
423.8792932874454
 31
0.0
 70
    32
 71
     5
 42
5.0
  3
AM_ANSI
100
AcDbAlignedDimension
 13
61.60500950808978
 23
410.5247736547231
 33
0.0
 14
66.60500950808978
 24
384.5247736547233
 34
0.0
100
AcDbRotatedDimension
1001
ACAD
1000
DSTYLE
1002
{
1070
    41
1040
3.5
1070
    42
1040
3.0
1070
    43
1040
8.0
1070
    44
1040
3.0
1070
    73
1070
     0
1070
    74
1070
     0
1070
    77
1070
     3
1070
   141
1040
3.0
1070
   146
1040
0.6
1070
   147
1040
1.3
1070
   172
1070
     1
1070
   178
1070
   256
1070
   272
1070
     2
1070
   274
1070
     2
1070
   340
1005
59B5
1002
}
  0
DIMENSION
  5
5EA7
102
{ACAD_XDICTIONARY
360
5EA8
102
}
102
{ACAD_REACTORS
330
5EA9
102
}
330
1F
100
AcDbEntity
  8
DIM
100
AcDbDimension
  2
*D6
 10
105.6050095080897
 20
431.43088731981
 30
0.0
 11
83.60500950808978
 21
434.48088731981
 31
0.0
 70
    32
 71
     5
 42
44.0
  3
AM_ANSI
100
AcDbAlignedDimension
 13
61.60500950808978
 23
410.5247736547231
 33
0.0
 14
105.6050095080897
 24
373.0247736547233
 34
0.0
100
AcDbRotatedDimension
1001
ACAD
1000
DSTYLE
1002
{
1070
    41
1040
3.5
1070
    42
1040
3.0
1070
    43
1040
8.0
1070
    44
1040
3.0
1070
    73
1070
     0
1070
    74
1070
     0
1070
    77
1070
     3
1070
   141
1040
3.0
1070
   146
1040
0.6
1070
   147
1040
1.3
1070
   172
1070
     1
1070
   178
1070
   256
1070
   272
1070
     2
1070
   274
1070
     2
1070
   340
1005
59B5
1002
}
  0
DIMENSION
  5
5EAA
102
{ACAD_XDICTIONARY
360
5EAB
102
}
102
{ACAD_REACTORS
330
5EAC
102
}
330
1F
100
AcDbEntity
  8
DIM
100
AcDbDimension
  2
*D7
 10
61.60500950808978
 20
431.43088731981
 30
0.0
 11
38.60500950808978
 21
434.48088731981
 31
0.0
 70
    32
  1
41+stroke=S
 71
     5
 42
46.0
  3
AM_ANSI
100
AcDbAlignedDimension
 13
15.60500950808978
 23
410.5247736547229
 33
0.0
 14
61.60500950808978
 24
410.5247736547231
 34
0.0
100
AcDbRotatedDimension
1001
ACAD
1000
DSTYLE
1002
{
1070
    41
1040
3.5
1070
    42
1040
3.0
1070
    43
1040
8.0
1070
    44
1040
3.0
1070
    73
1070
     0
1070
    74
1070
     0
1070
    77
1070
     3
1070
   141
1040
3.0
1070
   146
1040
0.6
1070
   147
1040
1.3
1070
   172
1070
     1
1070
   178
1070
   256
1070
   272
1070
     2
1070
   274
1070
     2
1070
   340
1005
59B5
1002
}
  0
DIMENSION
  5
5EAD
102
{ACAD_XDICTIONARY
360
5EAE
102
}
102
{ACAD_REACTORS
330
5EAF
102
}
330
1F
100
AcDbEntity
  8
DIM
100
AcDbDimension
  2
*D8
 10
28.60500950808978
 20
420.8292932874454
 30
0.0
 11
21.79602960452343
 21
420.8292932874454
 31
0.0
 70
   160
 71
     5
 42
13.0
  3
AM_ANSI
100
AcDbAlignedDimension
 13
15.60500950808978
 23
410.5247736547229
 33
0.0
 14
28.60500950808978
 24
373.3861256032069
 34
0.0
100
AcDbRotatedDimension
1001
ACAD
1000
DSTYLE
1002
{
1070
    41
1040
3.5
1070
    42
1040
3.0
1070
    43
1040
8.0
1070
    44
1040
3.0
1070
    73
1070
     0
1070
    74
1070
     0
1070
    77
1070
     3
1070
   141
1040
3.0
1070
   146
1040
0.6
1070
   147
1040
1.3
1070
   172
1070
     1
1070
   178
1070
   256
1070
   272
1070
     2
1070
   274
1070
     2
1070
   340
1005
59B5
1002
}
  0
DIMENSION
  5
5EB0
102
{ACAD_XDICTIONARY
360
5EB1
102
}
102
{ACAD_REACTORS
330
5EB2
102
}
330
1F
100
AcDbEntity
  8
DIM
100
AcDbDimension
  2
*D9
 10
48.60500950808978
 20
420.8292932874454
 30
0.0
 11
55.12247330816876
 21
420.8292932874454
 31
0.0
 70
   160
 71
     5
 42
13.0
  3
AM_ANSI
100
AcDbAlignedDimension
 13
61.60500950808978
 23
410.5247736547231
 33
0.0
 14
48.60500950808978
 24
373.3861256032069
 34
0.0
100
AcDbRotatedDimension
1001
ACAD
1000
DSTYLE
1002
{
1070
    41
1040
3.5
1070
    42
1040
3.0
1070
    43
1040
8.0
1070
    44
1040
3.0
1070
    73
1070
     0
1070
    74
1070
     0
1070
    77
1070
     3
1070
   141
1040
3.0
1070
   146
1040
0.6
1070
   147
1040
1.3
1070
   172
1070
     1
1070
   178
1070
   256
1070
   272
1070
     2
1070
   274
1070
     2
1070
   340
1005
59B5
1002
}
  0
DIMENSION
  5
5EB3
102
{ACAD_XDICTIONARY
360
5EB4
102
}
102
{ACAD_REACTORS
330
5EB5
102
}
330
1F
100
AcDbEntity
  8
DIM
100
AcDbDimension
  2
*D10
 10
105.6050095080897
 20
441.523799761643
 30
0.0
 11
60.60500950808978
 21
444.573799761643
 31
0.0
 70
    32
  1
85+stroke=ZZ
 71
     5
 42
90.0
  3
AM_ANSI
100
AcDbAlignedDimension
 13
15.60500950808978
 23
410.5247736547229
 33
0.0
 14
105.6050095080897
 24
373.0247736547233
 34
0.0
100
AcDbRotatedDimension
1001
ACAD
1000
DSTYLE
1002
{
1070
    41
1040
3.5
1070
    42
1040
3.0
1070
    43
1040
8.0
1070
    44
1040
3.0
1070
    73
1070
     0
1070
    74
1070
     0
1070
    77
1070
     3
1070
   141
1040
3.0
1070
   146
1040
0.6
1070
   147
1040
1.3
1070
   172
1070
     1
1070
   178
1070
   256
1070
   272
1070
     2
1070
   274
1070
     2
1070
   340
1005
59B5
1002
}
  0
DIMENSION
  5
5EB6
102
{ACAD_XDICTIONARY
360
5EB7
102
}
102
{ACAD_REACTORS
330
5EB8
102
}
330
1F
100
AcDbEntity
  8
DIM
100
AcDbDimension
  2
*D11
 10
123.3078575610868
 20
376.0247736547233
 30
0.0
 11
120.2578575610868
 21
363.5247736547233
 31
0.0
 70
    32
  1
%%c<>
 71
     5
 42
25.0
  3
AM_ANSI
100
AcDbAlignedDimension
 13
67.10500950808977
 23
351.0247736547233
 33
0.0
 14
67.10500950808977
 24
376.0247736547233
 34
0.0
 50
90.0
100
AcDbRotatedDimension
1001
ACAD
1000
DSTYLE
1002
{
1070
    41
1040
3.5
1070
    42
1040
3.0
1070
    43
1040
8.0
1070
    44
1040
3.0
1070
    73
1070
     0
1070
    74
1070
     0
1070
    77
1070
     3
1070
   141
1040
3.0
1070
   146
1040
0.6
1070
   147
1040
1.3
1070
   172
1070
     1
1070
   178
1070
   256
1070
   272
1070
     2
1070
   274
1070
     2
1070
   340
1005
59B5
1002
}
  0
DIMENSION
  5
5EB9
102
{ACAD_XDICTIONARY
360
5EBA
102
}
102
{ACAD_REACTORS
330
5EBB
102
}
330
1F
100
AcDbEntity
  8
DIM
100
AcDbDimension
  2
*D12
 10
134.5594249783983
 20
386.0247736547232
 30
0.0
 11
130.3602583117315
 21
363.5247736547233
 31
0.0
 70
    32
  1
%%c<>{}{\H0.71x;\C3;\S 0^ -0.05;}
 71
     5
 42
44.99999999999994
  3
AM_ANSI
100
AcDbAlignedDimension
 13
65.10500950808978
 23
341.0247736547233
 33
0.0
 14
65.10500950808978
 24
386.0247736547233
 34
0.0
 50
90.0
100
AcDbRotatedDimension
1001
GENIUS_GENDTOL_13
1000
TolSmNrm
1000

1000
{\H0.71x;$2\S$+$P^ $-$M;}
1040
45.0
1001
ACAD
1000
DSTYLE
1002
{
1070
   286
1070
     0
1070
   284
1070
     8
1070
    41
1040
3.5
1070
    42
1040
3.0
1070
    43
1040
8.0
1070
    44
1040
3.0
1070
    47
1040
0.0
1070
    48
1040
0.05
1070
    73
1070
     0
1070
    74
1070
     0
1070
    77
1070
     3
1070
   141
1040
3.0
1070
   146
1040
0.6
1070
   147
1040
1.3
1070
   172
1070
     1
1070
   178
1070
   256
1070
   272
1070
     2
1070
   274
1070
     2
1070
   340
1005
59B5
1002
}
  0
LEADER
  5
5EBC
330
1F
100
AcDbEntity
  8
DIM
100
AcDbLeader
  3
AM_ANSI$7
 73
     0
 74
     0
 75
     1
 40
3.5
 41
19.99999999999999
 76
     3
 10
100.1781969218698
 20
352.5247736547233
 30
0.0
 10
114.048230049233
 20
330.6830663524715
 30
0.0
 10
117.048230049233
 20
330.6830663524715
 30
0.0
340
5EBD
213
1.282147892448961
223
0.1232296656107508
233
0.0
1001
ACAD
1000
DSTYLE
1002
{
1070
    41
1040
3.0
1070
    42
1040
1.5
1070
    43
1040
8.0
1070
    44
1040
1.5
1070
    73
1070
     0
1070
    74
1070
     0
1070
    77
1070
     3
1070
   140
1040
2.0
1070
   141
1040
3.0
1070
   146
1040
0.6
1070
   147
1040
1.0
1070
   172
1070
     1
1070
   178
1070
   256
1070
   272
1070
     2
1070
   274
1070
     2
1070
   340
1005
59B5
1002
}
  0
MTEXT
  5
5EBD
102
{ACAD_REACTORS
330
5EBC
102
}
330
1F
100
AcDbEntity
  8
DIM
100
AcDbMText
 10
116.766082156784
 20
335.0598366868608
 30
0.0
 40
3.5
 41
0.0
 71
     1
 72
     1
  1
M22*1.5
  7
dayus
 73
     1
 44
1.0
1001
ACAD
1000
MTEXTBEGIN
1070
    73
1070
     1
1070
    44
1040
1.0
1070
    74
1070
     0
1000
MTEXTEND
  0
LEADER
  5
5EBE
330
1F
100
AcDbEntity
  8
DIM
100
AcDbLeader
  3
AM_ANSI$7
 73
     0
 74
     0
 75
     1
 40
3.5
 41
5.666666666666667
 76
     3
 10
90.73966094181447
 20
347.6037522496509
 30
0.0
 10
97.02254139974002
 20
326.4670433406324
 30
0.0
 10
100.02254139974
 20
326.4670433406324
 30
0.0
340
5EBF
213
1.28621199348413
223
0.2860289400440479
233
0.0
1001
ACAD
1000
DSTYLE
1002
{
1070
    41
1040
3.0
1070
    42
1040
1.5
1070
    43
1040
8.0
1070
    44
1040
1.5
1070
    73
1070
     0
1070
    74
1070
     0
1070
    77
1070
     3
1070
   140
1040
2.0
1070
   141
1040
3.0
1070
   146
1040
0.6
1070
   147
1040
1.0
1070
   172
1070
     1
1070
   178
1070
   256
1070
   272
1070
     2
1070
   274
1070
     2
1070
   340
1005
59B5
1002
}
  0
MTEXT
  5
5EBF
102
{ACAD_REACTORS
330
5EBE
102
}
330
1F
100
AcDbEntity
  8
DIM
100
AcDbMText
 10
99.7363294062559
 20
330.6810144005884
 30
0.0
 40
3.5
 41
0.0
 71
     1
 72
     1
  1
32
  7
dayus
 73
     1
 44
1.0
1001
ACAD
1000
MTEXTBEGIN
1070
    73
1070
     1
1070
    44
1040
1.0
1070
    74
1070
     0
1000
MTEXTEND
  0
DIMENSION
  5
5EC0
102
{ACAD_XDICTIONARY
360
5EC1
102
}
102
{ACAD_REACTORS
330
5EC2
102
}
330
1F
100
AcDbEntity
  8
DIM
100
AcDbDimension
  2
*D13
 10
72.60500950808967
 20
329.6816802354884
 30
0.0
 11
70.60500950808943
 21
329.6816802354884
 31
0.0
 70
   160
 71
     5
 42
4.000000000000454
  3
AM_ANSI
100
AcDbAlignedDimension
 13
68.60500950808921
 23
357.5876026112053
 33
0.0
 14
72.60500950808967
 24
352.5247736547238
 34
0.0
100
AcDbRotatedDimension
1001
ACAD
1000
DSTYLE
1002
{
1070
    41
1040
3.5
1070
    42
1040
3.0
1070
    43
1040
8.0
1070
    44
1040
3.0
1070
    73
1070
     0
1070
    74
1070
     0
1070
    77
1070
     3
1070
   141
1040
3.0
1070
   146
1040
0.6
1070
   147
1040
1.3
1070
   172
1070
     1
1070
   178
1070
   256
1070
   272
1070
     2
1070
   274
1070
     2
1070
   340
1005
59B5
1002
}
  0
DIMENSION
  5
5EC5
102
{ACAD_XDICTIONARY
360
5EC6
102
}
102
{ACAD_REACTORS
330
5EC7
102
}
330
1F
100
AcDbEntity
  8
DIM
100
AcDbDimension
  2
*D14
 10
281.1396932763
 20
420.8292932874454
 30
0.0
 11
244.1396932763
 21
423.8792932874454
 31
0.0
 70
    32
  1
□<>
 71
     5
 42
74.0
  3
AM_ANSI
100
AcDbAlignedDimension
 13
207.1396932763
 23
408.424773654723
 33
0.0
 14
281.1396932763
 24
408.424773654723
 34
0.0
100
AcDbRotatedDimension
1001
ACAD
1000
DSTYLE
1002
{
1070
    41
1040
3.5
1070
    42
1040
3.0
1070
    43
1040
8.0
1070
    44
1040
3.0
1070
    73
1070
     0
1070
    74
1070
     0
1070
    77
1070
     3
1070
   141
1040
3.0
1070
   146
1040
0.6
1070
   147
1040
1.3
1070
   172
1070
     1
1070
   178
1070
   256
1070
   272
1070
     2
1070
   274
1070
     2
1070
   340
1005
59B5
1002
}
  0
DIMENSION
  5
5EC8
102
{ACAD_XDICTIONARY
360
5EC9
102
}
102
{ACAD_REACTORS
330
5ECA
102
}
330
1F
100
AcDbEntity
  8
DIM
100
AcDbDimension
  2
*D15
 10
291.1396932763055
 20
431.43088731981
 30
0.0
 11
244.1396932763027
 21
434.48088731981
 31
0.0
 70
    32
  1
□<>
 71
     5
 42
94.00000000000545
  3
AM_ANSI
100
AcDbAlignedDimension
 13
197.1396932763
 23
403.9599068930344
 33
0.0
 14
291.1396932763055
 24
403.959906893028
 34
0.0
100
AcDbRotatedDimension
1001
ACAD
1000
DSTYLE
1002
{
1070
    41
1040
3.5
1070
    42
1040
3.0
1070
    43
1040
8.0
1070
    44
1040
3.0
1070
    73
1070
     0
1070
    74
1070
     0
1070
    77
1070
     3
1070
   141
1040
3.0
1070
   146
1040
0.6
1070
   147
1040
1.3
1070
   172
1070
     1
1070
   178
1070
   256
1070
   272
1070
     2
1070
   274
1070
     2
1070
   340
1005
59B5
1002
}
  0
DIMENSION
  5
5ECB
102
{ACAD_XDICTIONARY
360
5ECC
102
}
102
{ACAD_REACTORS
330
5ECD
102
}
330
1F
100
AcDbEntity
  8
DIM
100
AcDbDimension
  2
*D16
 10
291.1396932763055
 20
441.523799761643
 30
0.0
 11
240.1396932763027
 21
444.573799761643
 31
0.0
 70
    32
 71
     5
 42
102.0000000000054
  3
AM_ANSI
100
AcDbAlignedDimension
 13
189.1396932763
 23
377.0247736547231
 33
0.0
 14
291.1396932763055
 24
403.959906893028
 34
0.0
100
AcDbRotatedDimension
1001
ACAD
1000
DSTYLE
1002
{
1070
    41
1040
3.5
1070
    42
1040
3.0
1070
    43
1040
8.0
1070
    44
1040
3.0
1070
    73
1070
     0
1070
    74
1070
     0
1070
    77
1070
     3
1070
   141
1040
3.0
1070
   146
1040
0.6
1070
   147
1040
1.3
1070
   172
1070
     1
1070
   178
1070
   256
1070
   272
1070
     2
1070
   274
1070
     2
1070
   340
1005
59B5
1002
}
  0
DIMENSION
  5
5ED1
102
{ACAD_XDICTIONARY
360
5ED2
102
}
102
{ACAD_REACTORS
330
5ED3
102
}
330
1F
100
AcDbEntity
  8
DIM
100
AcDbDimension
  2
*D17
 10
174.729931645144
 20
350.0247736547231
 30
0.0
 11
171.6799316451439
 21
363.5247736547231
 31
0.0
 70
    32
 71
     5
 42
27.0
  3
AM_ANSI
100
AcDbAlignedDimension
 13
189.1396932763
 23
377.0247736547231
 33
0.0
 14
189.1396932763
 24
350.0247736547231
 34
0.0
 50
90.0
100
AcDbRotatedDimension
1001
ACAD
1000
DSTYLE
1002
{
1070
    41
1040
3.5
1070
    42
1040
3.0
1070
    43
1040
8.0
1070
    44
1040
3.0
1070
    73
1070
     0
1070
    74
1070
     0
1070
    77
1070
     3
1070
   141
1040
3.0
1070
   146
1040
0.6
1070
   147
1040
1.3
1070
   172
1070
     1
1070
   178
1070
   256
1070
   272
1070
     2
1070
   274
1070
     2
1070
   340
1005
59B5
1002
}
  0
LEADER
  5
5ED4
330
1F
100
AcDbEntity
  8
DIM
100
AcDbLeader
  3
AM_ANSI$7
 73
     0
 75
     1
 40
16.46666666666667
 41
53.19999999999998
 76
     3
 10
201.2468100150254
 20
404.3028587343618
 30
0.0
 10
180.586894396631
 20
417.5484832417051
 30
0.0
 10
177.586894396631
 20
417.5484832417051
 30
0.0
340
5ED5
213
-1.470381022235983
223
-0.2720687161413622
233
0.0
1001
ACAD
1000
DSTYLE
1002
{
1070
    41
1040
3.0
1070
    42
1040
1.5
1070
    43
1040
8.0
1070
    44
1040
1.5
1070
    73
1070
     0
1070
    74
1070
     0
1070
    77
1070
     3
1070
   140
1040
2.0
1070
   141
1040
3.0
1070
   146
1040
0.6
1070
   147
1040
1.0
1070
   172
1070
     1
1070
   178
1070
   256
1070
   272
1070
     2
1070
   274
1070
     2
1070
   340
1005
59B5
1002
}
  0
MTEXT
  5
5ED5
102
{ACAD_REACTORS
330
5ED4
102
}
330
1F
100
AcDbEntity
  8
DIM
100
AcDbMText
 10
178.057275418867
 20
435.2872186245131
 30
0.0
 40
3.799999999999999
 41
0.0
 71
     3
 72
     1
  1
%%C14*10.5 depth\PM12*1.75*12 depth\P%%C10.5 thru
  7
dayus
 73
     1
 44
1.0
1001
ACAD
1000
MTEXTBEGIN
1070
    73
1070
     1
1070
    44
1040
1.0
1070
    74
1070
     0
1000
MTEXTEND
  0
DIMENSION
  5
5ED6
102
{ACAD_XDICTIONARY
360
5ED7
102
}
102
{ACAD_REACTORS
330
5ED8
102
}
330
1F
100
AcDbEntity
  8
DIM
100
AcDbDimension
  2
*D18
 10
72.60500950808978
 20
200.7569163749417
 30
0.0
 11
67.10500950808977
 21
203.8069163749417
 31
0.0
 70
    32
 71
     5
 42
11.0
  3
AM_ANSI
100
AcDbAlignedDimension
 13
61.60500950808978
 23
177.8995571206589
 33
0.0
 14
72.60500950808978
 24
141.8995571206591
 34
0.0
100
AcDbRotatedDimension
1001
ACAD
1000
DSTYLE
1002
{
1070
    41
1040
3.5
1070
    42
1040
3.0
1070
    43
1040
8.0
1070
    44
1040
3.0
1070
    73
1070
     0
1070
    74
1070
     0
1070
    77
1070
     3
1070
   141
1040
3.0
1070
   146
1040
0.6
1070
   147
1040
1.3
1070
   172
1070
     1
1070
   178
1070
   256
1070
   272
1070
     2
1070
   274
1070
     2
1070
   340
1005
59B5
1002
}
  0
DIMENSION
  5
5ED9
102
{ACAD_XDICTIONARY
360
5EDA
102
}
102
{ACAD_REACTORS
330
5EDB
102
}
330
1F
100
AcDbEntity
  8
DIM
100
AcDbDimension
  2
*D19
 10
66.60500950808978
 20
189.3552927794164
 30
0.0
 11
64.10500950808978
 21
192.4052927794164
 31
0.0
 70
    32
 71
     5
 42
5.0
  3
AM_ANSI
100
AcDbAlignedDimension
 13
61.60500950808978
 23
177.8995571206589
 33
0.0
 14
66.60500950808978
 24
151.899557120659
 34
0.0
100
AcDbRotatedDimension
1001
ACAD
1000
DSTYLE
1002
{
1070
    41
1040
3.5
1070
    42
1040
3.0
1070
    43
1040
8.0
1070
    44
1040
3.0
1070
    73
1070
     0
1070
    74
1070
     0
1070
    77
1070
     3
1070
   141
1040
3.0
1070
   146
1040
0.6
1070
   147
1040
1.3
1070
   172
1070
     1
1070
   178
1070
   256
1070
   272
1070
     2
1070
   274
1070
     2
1070
   340
1005
59B5
1002
}
  0
DIMENSION
  5
5EDC
102
{ACAD_XDICTIONARY
360
5EDD
102
}
102
{ACAD_REACTORS
330
5EDE
102
}
330
1F
100
AcDbEntity
  8
DIM
100
AcDbDimension
  2
*D20
 10
28.60500950808978
 20
189.3552927794164
 30
0.0
 11
21.78920682161427
 21
189.3552927794164
 31
0.0
 70
   160
 71
     5
 42
13.0
  3
AM_ANSI
100
AcDbAlignedDimension
 13
15.60500950808978
 23
177.8995571206589
 33
0.0
 14
28.60500950808978
 24
140.7609090691427
 34
0.0
100
AcDbRotatedDimension
1001
ACAD
1000
DSTYLE
1002
{
1070
    41
1040
3.5
1070
    42
1040
3.0
1070
    43
1040
8.0
1070
    44
1040
3.0
1070
    73
1070
     0
1070
    74
1070
     0
1070
    77
1070
     3
1070
   141
1040
3.0
1070
   146
1040
0.6
1070
   147
1040
1.3
1070
   172
1070
     1
1070
   178
1070
   256
1070
   272
1070
     2
1070
   274
1070
     2
1070
   340
1005
59B5
1002
}
  0
DIMENSION
  5
5EDF
102
{ACAD_XDICTIONARY
360
5EE0
102
}
102
{ACAD_REACTORS
330
5EE1
102
}
330
1F
100
AcDbEntity
  8
DIM
100
AcDbDimension
  2
*D21
 10
61.60500950808978
 20
189.3552927794164
 30
0.0
 11
55.45297175028759
 21
189.3552927794164
 31
0.0
 70
   160
 71
     5
 42
13.0
  3
AM_ANSI
100
AcDbAlignedDimension
 13
48.60500950808978
 23
140.7609090691427
 33
0.0
 14
61.60500950808978
 24
177.8995571206589
 34
0.0
100
AcDbRotatedDimension
1001
ACAD
1000
DSTYLE
1002
{
1070
    41
1040
3.5
1070
    42
1040
3.0
1070
    43
1040
8.0
1070
    44
1040
3.0
1070
    73
1070
     0
1070
    74
1070
     0
1070
    77
1070
     3
1070
   141
1040
3.0
1070
   146
1040
0.6
1070
   147
1040
1.3
1070
   172
1070
     1
1070
   178
1070
   256
1070
   272
1070
     2
1070
   274
1070
     2
1070
   340
1005
59B5
1002
}
  0
DIMENSION
  5
5EE2
102
{ACAD_XDICTIONARY
360
5EE3
102
}
102
{ACAD_REACTORS
330
5EE4
102
}
330
1F
100
AcDbEntity
  8
DIM
100
AcDbDimension
  2
*D22
 10
61.60500950808978
 20
200.7569163749417
 30
0.0
 11
38.60500950808978
 21
203.8069163749417
 31
0.0
 70
    32
  1
41+stroke=S
 71
     5
 42
46.0
  3
AM_ANSI
100
AcDbAlignedDimension
 13
15.60500950808978
 23
177.8995571206589
 33
0.0
 14
61.60500950808978
 24
177.8995571206589
 34
0.0
100
AcDbRotatedDimension
1001
ACAD
1000
DSTYLE
1002
{
1070
    41
1040
3.5
1070
    42
1040
3.0
1070
    43
1040
8.0
1070
    44
1040
3.0
1070
    73
1070
     0
1070
    74
1070
     0
1070
    77
1070
     3
1070
   141
1040
3.0
1070
   146
1040
0.6
1070
   147
1040
1.3
1070
   172
1070
     1
1070
   178
1070
   256
1070
   272
1070
     2
1070
   274
1070
     2
1070
   340
1005
59B5
1002
}
  0
DIMENSION
  5
5EE5
102
{ACAD_XDICTIONARY
360
5EE6
102
}
102
{ACAD_REACTORS
330
5EE7
102
}
330
1F
100
AcDbEntity
  8
DIM
100
AcDbDimension
  2
*D23
 10
72.60500950808978
 20
210.1239473852313
 30
0.0
 11
44.10500950808978
 21
213.1739473852312
 31
0.0
 70
    32
  1
52+stroke=ZZ
 71
     5
 42
57.0
  3
AM_ANSI
100
AcDbAlignedDimension
 13
15.60500950808978
 23
177.8995571206588
 33
0.0
 14
72.60500950808978
 24
141.8995571206591
 34
0.0
100
AcDbRotatedDimension
1001
ACAD
1000
DSTYLE
1002
{
1070
    41
1040
3.5
1070
    42
1040
3.0
1070
    43
1040
8.0
1070
    44
1040
3.0
1070
    73
1070
     0
1070
    74
1070
     0
1070
    77
1070
     3
1070
   141
1040
3.0
1070
   146
1040
0.6
1070
   147
1040
1.3
1070
   172
1070
     1
1070
   178
1070
   256
1070
   272
1070
     2
1070
   274
1070
     2
1070
   340
1005
59B5
1002
}
  0
DIMENSION
  5
5EE8
102
{ACAD_XDICTIONARY
360
5EE9
102
}
102
{ACAD_REACTORS
330
5EEA
102
}
330
1F
100
AcDbEntity
  8
DIM
100
AcDbDimension
  2
*D24
 10
89.22294666037874
 20
143.3995571206591
 30
0.0
 11
86.17294666037873
 21
130.8995571206592
 31
0.0
 70
    32
  1
%%c<>
 71
     5
 42
25.00000000000002
  3
AM_ANSI
100
AcDbAlignedDimension
 13
67.10500950808977
 23
118.3995571206591
 33
0.0
 14
67.10500950808977
 24
143.3995571206591
 34
0.0
 50
90.0
100
AcDbRotatedDimension
1001
ACAD
1000
DSTYLE
1002
{
1070
    41
1040
3.5
1070
    42
1040
3.0
1070
    43
1040
8.0
1070
    44
1040
3.0
1070
    73
1070
     0
1070
    74
1070
     0
1070
    77
1070
     3
1070
   141
1040
3.0
1070
   146
1040
0.6
1070
   147
1040
1.3
1070
   172
1070
     1
1070
   178
1070
   256
1070
   272
1070
     2
1070
   274
1070
     2
1070
   340
1005
59B5
1002
}
  0
DIMENSION
  5
5EEB
102
{ACAD_XDICTIONARY
360
5EEC
102
}
102
{ACAD_REACTORS
330
5EED
102
}
330
1F
100
AcDbEntity
  8
DIM
100
AcDbDimension
  2
*D25
 10
101.0082171589749
 20
153.3995571206591
 30
0.0
 11
96.80905049230828
 21
130.8995571206591
 31
0.0
 70
    32
  1
%%c<>{}{\H0.71x;\C3;\S 0^ -0.05;}
 71
     5
 42
44.99999999999995
  3
AM_ANSI
100
AcDbAlignedDimension
 13
65.10500950808978
 23
108.3995571206591
 33
0.0
 14
65.10500950808978
 24
153.3995571206591
 34
0.0
 50
90.0
100
AcDbRotatedDimension
1001
GENIUS_GENDTOL_13
1000
TolSmNrm
1000

1000
{\H0.71x;$2\S$+$P^ $-$M;}
1040
45.0
1001
ACAD
1000
DSTYLE
1002
{
1070
   286
1070
     0
1070
   284
1070
     8
1070
    41
1040
3.5
1070
    42
1040
3.0
1070
    43
1040
8.0
1070
    44
1040
3.0
1070
    47
1040
0.0
1070
    48
1040
0.05
1070
    73
1070
     0
1070
    74
1070
     0
1070
    77
1070
     3
1070
   141
1040
3.0
1070
   146
1040
0.6
1070
   147
1040
1.3
1070
   172
1070
     1
1070
   178
1070
   256
1070
   272
1070
     2
1070
   274
1070
     2
1070
   340
1005
59B5
1002
}
  0
DIMENSION
  5
5EEE
102
{ACAD_XDICTIONARY
360
5EEF
102
}
102
{ACAD_REACTORS
330
5EF0
102
}
330
1F
100
AcDbEntity
  8
DIM
100
AcDbDimension
  2
*D26
 10
72.60500950808978
 20
95.52267676934016
 30
0.0
 11
70.60500950808978
 21
95.52267676934016
 31
0.0
 70
   160
 71
     5
 42
4.0
  3
AM_ANSI
100
AcDbAlignedDimension
 13
68.60500950808978
 23
124.9623860771401
 33
0.0
 14
72.60500950808978
 24
119.8995571206593
 34
0.0
100
AcDbRotatedDimension
1001
ACAD
1000
DSTYLE
1002
{
1070
    41
1040
3.5
1070
    42
1040
3.0
1070
    43
1040
8.0
1070
    44
1040
3.0
1070
    73
1070
     0
1070
    74
1070
     0
1070
    77
1070
     3
1070
   141
1040
3.0
1070
   146
1040
0.6
1070
   147
1040
1.3
1070
   172
1070
     1
1070
   178
1070
   256
1070
   272
1070
     2
1070
   274
1070
     2
1070
   340
1005
59B5
1002
}
  0
DIMENSION
  5
5EF3
102
{ACAD_XDICTIONARY
360
5EF4
102
}
102
{ACAD_REACTORS
330
5EF5
102
}
330
1F
100
AcDbEntity
  8
DIM
100
AcDbDimension
  2
*D27
 10
281.1396932763
 20
420.8292932874454
 30
0.0
 11
244.1396932763
 21
423.8792932874454
 31
0.0
 70
    32
  1
□<>
 71
     5
 42
74.0
  3
AM_ANSI
100
AcDbAlignedDimension
 13
207.1396932763
 23
408.424773654723
 33
0.0
 14
281.1396932763
 24
408.424773654723
 34
0.0
100
AcDbRotatedDimension
1001
ACAD
1000
DSTYLE
1002
{
1070
    41
1040
3.5
1070
    42
1040
3.0
1070
    43
1040
8.0
1070
    44
1040
3.0
1070
    73
1070
     0
1070
    74
1070
     0
1070
    77
1070
     3
1070
   141
1040
3.0
1070
   146
1040
0.6
1070
   147
1040
1.3
1070
   172
1070
     1
1070
   178
1070
   256
1070
   272
1070
     2
1070
   274
1070
     2
1070
   340
1005
59B5
1002
}
  0
DIMENSION
  5
5EF6
102
{ACAD_XDICTIONARY
360
5EF7
102
}
102
{ACAD_REACTORS
330
5EF8
102
}
330
1F
100
AcDbEntity
  8
DIM
100
AcDbDimension
  2
*D28
 10
291.1396932763055
 20
431.43088731981
 30
0.0
 11
244.1396932763027
 21
434.48088731981
 31
0.0
 70
    32
  1
□<>
 71
     5
 42
94.00000000000545
  3
AM_ANSI
100
AcDbAlignedDimension
 13
197.1396932763
 23
403.9599068930344
 33
0.0
 14
291.1396932763055
 24
403.959906893028
 34
0.0
100
AcDbRotatedDimension
1001
ACAD
1000
DSTYLE
1002
{
1070
    41
1040
3.5
1070
    42
1040
3.0
1070
    43
1040
8.0
1070
    44
1040
3.0
1070
    73
1070
     0
1070
    74
1070
     0
1070
    77
1070
     3
1070
   141
1040
3.0
1070
   146
1040
0.6
1070
   147
1040
1.3
1070
   172
1070
     1
1070
   178
1070
   256
1070
   272
1070
     2
1070
   274
1070
     2
1070
   340
1005
59B5
1002
}
  0
DIMENSION
  5
5EF9
102
{ACAD_XDICTIONARY
360
5EFA
102
}
102
{ACAD_REACTORS
330
5EFB
102
}
330
1F
100
AcDbEntity
  8
DIM
100
AcDbDimension
  2
*D29
 10
291.1396932763055
 20
441.523799761643
 30
0.0
 11
240.1396932763027
 21
444.573799761643
 31
0.0
 70
    32
 71
     5
 42
102.0000000000054
  3
AM_ANSI
100
AcDbAlignedDimension
 13
189.1396932763
 23
377.0247736547231
 33
0.0
 14
291.1396932763055
 24
403.959906893028
 34
0.0
100
AcDbRotatedDimension
1001
ACAD
1000
DSTYLE
1002
{
1070
    41
1040
3.5
1070
    42
1040
3.0
1070
    43
1040
8.0
1070
    44
1040
3.0
1070
    73
1070
     0
1070
    74
1070
     0
1070
    77
1070
     3
1070
   141
1040
3.0
1070
   146
1040
0.6
1070
   147
1040
1.3
1070
   172
1070
     1
1070
   178
1070
   256
1070
   272
1070
     2
1070
   274
1070
     2
1070
   340
1005
59B5
1002
}
  0
DIMENSION
  5
5EFC
102
{ACAD_XDICTIONARY
360
5EFD
102
}
102
{ACAD_REACTORS
330
5EFE
102
}
330
1F
100
AcDbEntity
  8
DIM
100
AcDbDimension
  2
*D30
 10
255.1396932762999
 20
305.659868945792
 30
0.0
 11
244.1396932762997
 21
308.7098689457921
 31
0.0
 70
    32
  1
□<>
 71
     5
 42
22.00000000000045
  3
AM_ANSI
100
AcDbAlignedDimension
 13
233.1396932762995
 23
357.5876026112053
 33
0.0
 14
255.1396932762999
 24
357.5876026112046
 34
0.0
100
AcDbRotatedDimension
1001
ACAD
1000
DSTYLE
1002
{
1070
    41
1040
3.5
1070
    42
1040
3.0
1070
    43
1040
8.0
1070
    44
1040
3.0
1070
    73
1070
     0
1070
    74
1070
     0
1070
    77
1070
     3
1070
   141
1040
3.0
1070
   146
1040
0.6
1070
   147
1040
1.3
1070
   172
1070
     1
1070
   178
1070
   256
1070
   272
1070
     2
1070
   274
1070
     2
1070
   340
1005
59B5
1002
}
  0
DIMENSION
  5
5EFF
102
{ACAD_XDICTIONARY
360
5F00
102
}
102
{ACAD_REACTORS
330
5F01
102
}
330
1F
100
AcDbEntity
  8
DIM
100
AcDbDimension
  2
*D31
 10
174.729931645144
 20
350.0247736547231
 30
0.0
 11
171.6799316451439
 21
363.5247736547231
 31
0.0
 70
    32
 71
     5
 42
27.0
  3
AM_ANSI
100
AcDbAlignedDimension
 13
189.1396932763
 23
377.0247736547231
 33
0.0
 14
189.1396932763
 24
350.0247736547231
 34
0.0
 50
90.0
100
AcDbRotatedDimension
1001
ACAD
1000
DSTYLE
1002
{
1070
    41
1040
3.5
1070
    42
1040
3.0
1070
    43
1040
8.0
1070
    44
1040
3.0
1070
    73
1070
     0
1070
    74
1070
     0
1070
    77
1070
     3
1070
   141
1040
3.0
1070
   146
1040
0.6
1070
   147
1040
1.3
1070
   172
1070
     1
1070
   178
1070
   256
1070
   272
1070
     2
1070
   274
1070
     2
1070
   340
1005
59B5
1002
}
  0
LEADER
  5
5F04
330
1F
100
AcDbEntity
  8
DIM
100
AcDbLeader
  3
AM_ANSI$7
 73
     0
 75
     1
 40
5.066666666666667
 41
50.30476190476189
 76
     3
 10
237.6706100361221
 20
133.5736853957513
 30
0.0
 10
177.9721830384668
 20
156.9845882835251
 30
0.0
 10
174.4721830384667
 20
156.9845882835251
 30
0.0
340
5F05
213
-2.80835377781841
223
-0.2045582755891928
233
0.0
1001
ACAD
1000
DSTYLE
1002
{
1070
    41
1040
3.5
1070
    42
1040
3.0
1070
    43
1040
8.0
1070
    44
1040
3.0
1070
    73
1070
     0
1070
    74
1070
     0
1070
    77
1070
     3
1070
   141
1040
3.0
1070
   146
1040
0.6
1070
   147
1040
1.3
1070
   172
1070
     1
1070
   178
1070
   256
1070
   272
1070
     2
1070
   274
1070
     2
1070
   340
1005
59B5
1002
}
  0
MTEXT
  5
5F05
102
{ACAD_REACTORS
330
5F04
102
}
330
1F
100
AcDbEntity
  8
DIM
100
AcDbMText
 10
175.9805368162851
 20
163.555813225781
 30
0.0
 40
3.799999999999999
 41
0.0
 71
     3
 72
     1
  1
M14*1.5*20 depth
  7
dayus
 73
     1
 44
1.0
1001
ACAD
1000
MTEXTBEGIN
1070
    73
1070
     1
1070
    44
1040
1.0
1070
    74
1070
     0
1000
MTEXTEND
  0
DIMENSION
  5
60CE
330
1F
100
AcDbEntity
  8
DIM
100
AcDbDimension
  2
*D32
 10
281.1396932763
 20
188.2040767533812
 30
0.0
 11
244.1396932763
 21
191.2540767533812
 31
0.0
 70
    32
  1
□<>
 71
     5
 42
74.0
  3
AM_ANSI
100
AcDbAlignedDimension
 13
207.1396932763
 23
175.7995571206588
 33
0.0
 14
281.1396932763
 24
175.7995571206588
 34
0.0
100
AcDbRotatedDimension
1001
ACAD
1000
DSTYLE
1002
{
1070
    41
1040
3.5
1070
    42
1040
3.0
1070
    43
1040
8.0
1070
    44
1040
3.0
1070
    73
1070
     0
1070
    74
1070
     0
1070
    77
1070
     3
1070
   141
1040
3.0
1070
   146
1040
0.6
1070
   147
1040
1.3
1070
   172
1070
     1
1070
   178
1070
   256
1070
   272
1070
     2
1070
   274
1070
     2
1070
   340
1005
59B5
1002
}
  0
DIMENSION
  5
60D1
330
1F
100
AcDbEntity
  8
DIM
100
AcDbDimension
  2
*D33
 10
291.1396932763055
 20
198.8056707857458
 30
0.0
 11
244.1396932763027
 21
201.8556707857458
 31
0.0
 70
    32
  1
□<>
 71
     5
 42
94.00000000000545
  3
AM_ANSI
100
AcDbAlignedDimension
 13
197.1396932763
 23
171.3346903589703
 33
0.0
 14
291.1396932763055
 24
171.3346903589638
 34
0.0
100
AcDbRotatedDimension
1001
ACAD
1000
DSTYLE
1002
{
1070
    41
1040
3.5
1070
    42
1040
3.0
1070
    43
1040
8.0
1070
    44
1040
3.0
1070
    73
1070
     0
1070
    74
1070
     0
1070
    77
1070
     3
1070
   141
1040
3.0
1070
   146
1040
0.6
1070
   147
1040
1.3
1070
   172
1070
     1
1070
   178
1070
   256
1070
   272
1070
     2
1070
   274
1070
     2
1070
   340
1005
59B5
1002
}
  0
DIMENSION
  5
60D4
330
1F
100
AcDbEntity
  8
DIM
100
AcDbDimension
  2
*D34
 10
291.1396932763055
 20
208.8985832275788
 30
0.0
 11
240.1396932763027
 21
211.9485832275789
 31
0.0
 70
    32
 71
     5
 42
102.0000000000054
  3
AM_ANSI
100
AcDbAlignedDimension
 13
189.1396932763
 23
144.3995571206588
 33
0.0
 14
291.1396932763055
 24
171.3346903589638
 34
0.0
100
AcDbRotatedDimension
1001
ACAD
1000
DSTYLE
1002
{
1070
    41
1040
3.5
1070
    42
1040
3.0
1070
    43
1040
8.0
1070
    44
1040
3.0
1070
    73
1070
     0
1070
    74
1070
     0
1070
    77
1070
     3
1070
   141
1040
3.0
1070
   146
1040
0.6
1070
   147
1040
1.3
1070
   172
1070
     1
1070
   178
1070
   256
1070
   272
1070
     2
1070
   274
1070
     2
1070
   340
1005
59B5
1002
}
  0
DIMENSION
  5
60D7
330
1F
100
AcDbEntity
  8
DIM
100
AcDbDimension
  2
*D35
 10
281.1396932763
 20
188.2040767533812
 30
0.0
 11
244.1396932763
 21
191.2540767533812
 31
0.0
 70
    32
  1
□<>
 71
     5
 42
74.0
  3
AM_ANSI
100
AcDbAlignedDimension
 13
207.1396932763
 23
175.7995571206588
 33
0.0
 14
281.1396932763
 24
175.7995571206588
 34
0.0
100
AcDbRotatedDimension
1001
ACAD
1000
DSTYLE
1002
{
1070
    41
1040
3.5
1070
    42
1040
3.0
1070
    43
1040
8.0
1070
    44
1040
3.0
1070
    73
1070
     0
1070
    74
1070
     0
1070
    77
1070
     3
1070
   141
1040
3.0
1070
   146
1040
0.6
1070
   147
1040
1.3
1070
   172
1070
     1
1070
   178
1070
   256
1070
   272
1070
     2
1070
   274
1070
     2
1070
   340
1005
59B5
1002
}
  0
DIMENSION
  5
60DA
330
1F
100
AcDbEntity
  8
DIM
100
AcDbDimension
  2
*D36
 10
291.1396932763055
 20
198.8056707857458
 30
0.0
 11
244.1396932763027
 21
201.8556707857458
 31
0.0
 70
    32
  1
□<>
 71
     5
 42
94.00000000000545
  3
AM_ANSI
100
AcDbAlignedDimension
 13
197.1396932763
 23
171.3346903589703
 33
0.0
 14
291.1396932763055
 24
171.3346903589638
 34
0.0
100
AcDbRotatedDimension
1001
ACAD
1000
DSTYLE
1002
{
1070
    41
1040
3.5
1070
    42
1040
3.0
1070
    43
1040
8.0
1070
    44
1040
3.0
1070
    73
1070
     0
1070
    74
1070
     0
1070
    77
1070
     3
1070
   141
1040
3.0
1070
   146
1040
0.6
1070
   147
1040
1.3
1070
   172
1070
     1
1070
   178
1070
   256
1070
   272
1070
     2
1070
   274
1070
     2
1070
   340
1005
59B5
1002
}
  0
DIMENSION
  5
60DD
330
1F
100
AcDbEntity
  8
DIM
100
AcDbDimension
  2
*D37
 10
291.1396932763055
 20
208.8985832275788
 30
0.0
 11
240.1396932763027
 21
211.9485832275789
 31
0.0
 70
    32
 71
     5
 42
102.0000000000054
  3
AM_ANSI
100
AcDbAlignedDimension
 13
189.1396932763
 23
144.3995571206588
 33
0.0
 14
291.1396932763055
 24
171.3346903589638
 34
0.0
100
AcDbRotatedDimension
1001
ACAD
1000
DSTYLE
1002
{
1070
    41
1040
3.5
1070
    42
1040
3.0
1070
    43
1040
8.0
1070
    44
1040
3.0
1070
    73
1070
     0
1070
    74
1070
     0
1070
    77
1070
     3
1070
   141
1040
3.0
1070
   146
1040
0.6
1070
   147
1040
1.3
1070
   172
1070
     1
1070
   178
1070
   256
1070
   272
1070
     2
1070
   274
1070
     2
1070
   340
1005
59B5
1002
}
  0
DIMENSION
  5
60E0
330
1F
100
AcDbEntity
  8
DIM
100
AcDbDimension
  2
*D38
 10
255.1396932762999
 20
69.46126300214996
 30
0.0
 11
244.1396932762997
 21
72.51126300214996
 31
0.0
 70
    32
  1
□<>
 71
     5
 42
22.00000000000045
  3
AM_ANSI
100
AcDbAlignedDimension
 13
233.1396932762995
 23
124.9623860771411
 33
0.0
 14
255.1396932762999
 24
124.9623860771404
 34
0.0
100
AcDbRotatedDimension
1001
ACAD
1000
DSTYLE
1002
{
1070
    41
1040
3.5
1070
    42
1040
3.0
1070
    43
1040
8.0
1070
    44
1040
3.0
1070
    73
1070
     0
1070
    74
1070
     0
1070
    77
1070
     3
1070
   141
1040
3.0
1070
   146
1040
0.6
1070
   147
1040
1.3
1070
   172
1070
     1
1070
   178
1070
   256
1070
   272
1070
     2
1070
   274
1070
     2
1070
   340
1005
59B5
1002
}
  0
DIMENSION
  5
60E3
330
1F
100
AcDbEntity
  8
DIM
100
AcDbDimension
  2
*D39
 10
174.729931645144
 20
117.3995571206589
 30
0.0
 11
171.6799316451439
 21
130.8995571206589
 31
0.0
 70
    32
 71
     5
 42
26.99999999999999
  3
AM_ANSI
100
AcDbAlignedDimension
 13
189.1396932763
 23
144.3995571206588
 33
0.0
 14
189.1396932763
 24
117.3995571206589
 34
0.0
 50
90.0
100
AcDbRotatedDimension
1001
ACAD
1000
DSTYLE
1002
{
1070
    41
1040
3.5
1070
    42
1040
3.0
1070
    43
1040
8.0
1070
    44
1040
3.0
1070
    73
1070
     0
1070
    74
1070
     0
1070
    77
1070
     3
1070
   141
1040
3.0
1070
   146
1040
0.6
1070
   147
1040
1.3
1070
   172
1070
     1
1070
   178
1070
   256
1070
   272
1070
     2
1070
   274
1070
     2
1070
   340
1005
59B5
1002
}
  0
LEADER
  5
6148
330
1F
100
AcDbEntity
  8
DIM
100
AcDbLeader
  3
AM_ANSI$7
 73
     0
 74
     0
 75
     1
 40
11.83333333333333
 41
75.33333333333331
 76
     3
 10
31.63681145233153
 20
126.4001377107074
 30
0.0
 10
70.81357198600382
 20
76.49001263938743
 30
0.0
 10
74.11357198600382
 20
76.49001263938743
 30
0.0
340
6149
213
-1.543897086449305
223
0.4194728829406813
233
0.0
1001
ACAD
1000
DSTYLE
1002
{
1070
    41
1040
3.299999999999999
1070
    42
1040
1.5
1070
    43
1040
8.0
1070
    44
1040
1.5
1070
    73
1070
     0
1070
    74
1070
     0
1070
    77
1070
     3
1070
   140
1040
2.0
1070
   141
1040
3.0
1070
   146
1040
0.6
1070
   147
1040
1.0
1070
   172
1070
     1
1070
   178
1070
   256
1070
   272
1070
     8
1070
   274
1070
     2
1070
   340
1005
59B5
1002
}
  0
MTEXT
  5
6149
102
{ACAD_REACTORS
330
6148
102
}
330
1F
100
AcDbEntity
  8
DIM
100
AcDbMText
 10
76.65746907245313
 20
77.07053975644675
 30
0.0
 40
3.5
 41
0.0
 71
     7
 72
     1
  1
2-PT3/8\P2-PT1/4(only for ST=5mm)
  7
dayus
 73
     1
 44
1.0
1001
ACAD
1000
MTEXTBEGIN
1070
    73
1070
     1
1070
    44
1040
1.0
1070
    74
1070
     0
1000
MTEXTEND
  0
LWPOLYLINE
  5
6767
330
1F
100
AcDbEntity
  8
LOGO
 62
     4
100
AcDbPolyline
 90
        4
 70
     1
 43
0.0
 10
-42.67599094580493
 20
40.04341482199877
 10
335.5970268586416
 20
40.04341482199877
 10
335.5970268586416
 20
-2.370442915558527
 10
-42.67599094580493
 20
-2.370442915558527
1001
GENIUS_GENREC_14
1002
{
1000
PYDIR
1011
-42.67599094580493
1021
-2.370442915558527
1031
0.0
1002
}
1002
{
1000
PXDIR
1011
335.5970268586416
1021
40.04341482199877
1031
0.0
1002
}
1002
{
1000
PORI
1011
-42.67599094580493
1021
40.04341482199877
1031
0.0
1002
}
1002
{
1000
PINS
1011
-42.67599094580493
1021
40.04341482199877
1031
0.0
1002
}
1002
{
1000
PINS2
1011
335.5970268586416
1021
-2.370442915558527
1031
0.0
1002
}
1002
{
1000
C
1070
     1
1002
}
1001
GENIUS_GENOBJ-N-REC_13
1002
{
1000
OWNER
1000
GEN
1002
}
1001
GENIUS_GENODEF_13
1002
{
1000
HIER
1070
     0
1002
}
1002
{
1000
MANEDIT
1070
     0
1002
}
1002
{
1000
NOSEL
1070
     0
1002
}
1002
{
1000
BEHIND
1070
     0
1002
}
1002
{
1000
OTHER
1070
     0
1002
}
1002
{
1000
REACTOR
1002
}
  0
TEXT
  5
6768
330
1F
100
AcDbEntity
  8
LOGO
 62
     7
100
AcDbText
 10
53.09169141635337
 20
21.46262548063663
 30
0.0
 40
5.655181031674207
  1
Order example:
 41
0.8
  7
CHINESET
100
AcDbText
  0
TEXT
  5
6769
330
1F
100
AcDbEntity
  8
LOGO
 62
     7
100
AcDbText
 10
54.10627765988031
 20
29.42394945306046
 30
0.0
 40
8.48277154751131
  1
訂購代號：
  7
CHINESET
100
AcDbText
  0
LINE
  5
676A
330
1F
100
AcDbEntity
  8
LOGO
 62
     4
100
AcDbLine
 10
50.63449607681957
 20
-2.370442915558044
 30
0.0
 11
50.63449607681957
 21
40.04341482199879
 31
0.0
  0
TEXT
  5
676B
330
1F
100
AcDbEntity
  8
LOGO
  6
Continuous
100
AcDbText
 10
-27.44074259249524
 20
5.961695428892824
 30
0.0
 40
6.362078660633484
  1
金器工業股份有限公司
  7
CHINESET
100
AcDbText
  0
TEXT
  5
676C
330
1F
100
AcDbEntity
  8
LOGO
  6
Continuous
100
AcDbText
 10
-39.12662241688719
 20
-0.4016297003518617
 30
0.0
 40
4.241385773755655
  1
MINDMAN INDUSTRIAL CO., LTD.
 41
0.85
  7
CHINESET
100
AcDbText
  0
LINE
  5
676D
330
1F
100
AcDbEntity
  8
LOGO
 62
     4
100
AcDbLine
 10
50.63449607681957
 20
31.56064327448738
 30
0.0
 11
-11.57249527159706
 21
31.56064327448738
 31
0.0
  0
LINE
  5
676E
330
1F
100
AcDbEntity
  8
LOGO
 62
     4
100
AcDbLine
 10
50.63449607681957
 20
23.07787172697601
 30
0.0
 11
-11.57249527159706
 21
23.07787172697601
 31
0.0
  0
LINE
  5
676F
330
1F
100
AcDbEntity
  8
LOGO
 62
     4
100
AcDbLine
 10
50.63449607681957
 20
14.59510017946513
 30
0.0
 11
-42.67599094580492
 21
14.59510017946513
 31
0.0
  0
LINE
  5
6770
330
1F
100
AcDbEntity
  8
LOGO
 62
     4
100
AcDbLine
 10
-11.57249527159706
 20
14.59510017946513
 30
0.0
 11
-11.57249527159706
 21
40.04341482199879
 31
0.0
  0
TEXT
  5
6771
330
1F
100
AcDbEntity
  8
LOGO
100
AcDbText
 10
30.94304718977677
 20
16.71579306634229
 30
0.0
 40
4.241385773755655
  1
mm
  7
CHINESET
 72
     1
 11
36.19428671918853
 21
18.83648595322012
 31
0.0
100
AcDbText
 73
     2
  0
TEXT
  5
6772
330
1F
100
AcDbEntity
  8
LOGO
100
AcDbText
 10
28.72136892733332
 20
33.68133616136502
 30
0.0
 40
4.241385773755655
  1
1 : 1
  7
CHINESET
 72
     1
 11
36.19428671918853
 21
35.80202904824285
 31
0.0
100
AcDbText
 73
     2
  0
LINE
  5
6773
330
1F
100
AcDbEntity
  8
LOGO
 62
     4
100
AcDbLine
 10
22.35859091844837
 20
14.59510017946513
 30
0.0
 11
22.35859091844837
 21
40.04341482199879
 31
0.0
  0
CIRCLE
  5
6774
330
1F
100
AcDbEntity
  8
LOGO
  6
Continuous
100
AcDbCircle
 10
30.21204718270324
 20
27.32832985593962
 30
0.0
 40
2.462648411210059
  0
CIRCLE
  5
6775
330
1F
100
AcDbEntity
  8
LOGO
  6
Continuous
100
AcDbCircle
 10
30.21204718270324
 20
27.32832985593962
 30
0.0
 40
1.442893963039731
  0
LINE
  5
6776
330
1F
100
AcDbEntity
  8
LOGO
100
AcDbLine
 10
45.68761555238471
 20
24.86568144472909
 30
0.0
 11
45.68761555238471
 21
29.79097826715017
 31
0.0
  0
LINE
  5
6777
330
1F
100
AcDbEntity
  8
LOGO
100
AcDbLine
 10
37.96735414600542
 20
25.88543589290009
 30
0.0
 11
37.96735414600542
 21
28.77122381897957
 31
0.0
  0
LINE
  5
6778
330
1F
100
AcDbEntity
  8
LOGO
  6
Continuous
100
AcDbLine
 10
37.96735414600542
 20
28.77122381897957
 30
0.0
 11
45.68761555238471
 21
29.79097826715017
 31
0.0
  0
LINE
  5
6779
330
1F
100
AcDbEntity
  8
LOGO
  6
Continuous
100
AcDbLine
 10
37.96735414600542
 20
25.88543589290009
 30
0.0
 11
45.68761555238471
 21
24.86568144472909
 31
0.0
  0
TEXT
  5
677A
330
1F
100
AcDbEntity
  8
LOGO
100
AcDbText
 10
-8.075245484040401
 20
33.68342345751352
 30
277.9734363370656
 40
4.241385773755655
  1
比例 Scale:
 41
0.9
  7
CHINESET
 72
     4
 11
5.393047823425661
 21
35.80202904824285
 31
277.9734363370656
100
AcDbText
  0
TEXT
  5
677B
330
1F
100
AcDbEntity
  8
LOGO
100
AcDbText
 10
-8.319503861189723
 20
25.25822649543169
 30
277.9734363370656
 40
4.241385773755655
  1
投影  View:
 41
0.9
  7
CHINESET
 72
     4
 11
5.393047823425661
 21
27.31925750073151
 31
277.9734363370656
100
AcDbText
  0
TEXT
  5
677C
330
1F
100
AcDbEntity
  8
LOGO
100
AcDbText
 10
-7.904832662773435
 20
16.71579306634229
 30
277.9734363370656
 40
4.241385773755655
  1
單位  Unit:
 41
0.9
  7
CHINESET
 72
     4
 11
5.393047823425661
 21
18.83648595322012
 31
277.9734363370656
100
AcDbText
  0
SOLID
  5
677D
330
1F
100
AcDbEntity
  8
LOGO
 62
     5
100
AcDbTrace
 10
-38.27548513646937
 20
21.64580031460849
 30
0.0
 11
-36.44162122186026
 21
21.64580031460798
 31
0.0
 12
-28.78998212987028
 22
39.03588916004134
 32
0.0
 13
-26.95611821526012
 23
39.03588916004037
 33
0.0
  0
SOLID
  5
677E
330
1F
100
AcDbEntity
  8
LOGO
 62
     5
100
AcDbTrace
 10
-35.68278098133027
 20
21.64580031460849
 30
0.0
 11
-33.84891706672107
 21
21.64580031460849
 31
0.0
 12
-26.95611821526012
 22
37.64468205240599
 32
0.0
 13
-28.78998212987028
 23
30.92051436550534
 33
0.0
  0
SOLID
  5
677F
330
1F
100
AcDbEntity
  8
LOGO
 62
     2
100
AcDbTrace
 10
-36.44162122186026
 20
21.64580031460798
 30
0.0
 11
-35.68278098133027
 21
21.64580031460849
 31
0.0
 12
-26.95611821526012
 22
39.03588916004037
 32
0.0
 13
-26.19727797473118
 23
39.03588916004037
 33
0.0
  0
SOLID
  5
6780
330
1F
100
AcDbEntity
  8
LOGO
 62
     5
100
AcDbTrace
 10
-41.21561871010738
 20
15.32213164354249
 30
0.0
 11
-40.58325184300002
 21
15.32213164354249
 31
0.0
 12
-38.80245752572441
 22
18.48396597907526
 32
0.0
 13
-38.17009065861899
 23
18.48396597907526
 33
0.0
  0
SOLID
  5
6781
330
1F
100
AcDbEntity
  8
LOGO
 62
     5
100
AcDbTrace
 10
-38.80245752572441
 20
18.48396597907526
 30
0.0
 11
-38.17009065861899
 21
18.48396597907526
 31
0.0
 12
-38.80245752572441
 22
15.32213164354249
 32
0.0
 13
-38.17009065861899
 23
15.32213164354249
 33
0.0
  0
SOLID
  5
6782
330
1F
100
AcDbEntity
  8
LOGO
 62
     5
100
AcDbTrace
 10
-38.80245752572441
 20
15.32213164354249
 30
0.0
 11
-38.17009065861899
 21
15.32213164354249
 31
0.0
 12
-36.3892963413405
 22
18.48396597907526
 32
0.0
 13
-35.75692947423411
 23
18.48396597907526
 33
0.0
  0
SOLID
  5
6783
330
1F
100
AcDbEntity
  8
LOGO
 62
     5
100
AcDbTrace
 10
-36.3892963413405
 20
18.48396597907526
 30
0.0
 11
-35.75692947423411
 21
18.48396597907526
 31
0.0
 12
-36.3892963413405
 22
15.32213164354249
 32
0.0
 13
-35.75692947423411
 23
15.32213164354249
 33
0.0
  0
POLYLINE
  5
6784
330
1F
100
AcDbEntity
  8
LOGO
 62
     5
100
AcDb2dPolyline
 66
     1
 10
0.0
 20
0.0
 30
0.0
 40
0.6333802755475111
 41
0.6333802755475111
  0
VERTEX
  5
6785
330
6784
100
AcDbEntity
  8
LOGO
 62
     5
100
AcDbVertex
100
AcDb2dVertex
 10
-15.19257437441459
 20
17.2192322448621
 30
0.0
 42
1.0
  0
VERTEX
  5
6786
330
6784
100
AcDbEntity
  8
LOGO
 62
     5
100
AcDbVertex
100
AcDb2dVertex
 10
-17.0927152010575
 20
17.2192322448621
 30
0.0
 42
1.0
  0
SEQEND
  5
6787
330
6784
100
AcDbEntity
  8
LOGO
 62
     5
  0
POLYLINE
  5
6788
330
1F
100
AcDbEntity
  8
LOGO
 62
     5
100
AcDb2dPolyline
 66
     1
 10
0.0
 20
0.0
 30
0.0
 70
     1
  0
VERTEX
  5
6789
330
6788
100
AcDbEntity
  8
LOGO
 62
     5
100
AcDbVertex
100
AcDb2dVertex
 10
-20.67456517754377
 20
16.90304881130839
 30
0.0
 42
1.000000057330635
  0
VERTEX
  5
678A
330
6788
100
AcDbEntity
  8
LOGO
 62
     5
100
AcDbVertex
100
AcDb2dVertex
 10
-18.77746457622371
 20
16.90304881130839
 30
0.0
 42
1.000000057330635
  0
SEQEND
  5
678B
330
6788
100
AcDbEntity
  8
LOGO
 62
     5
  0
CIRCLE
  5
678C
330
1F
100
AcDbEntity
  8
LOGO
 62
     5
100
AcDbCircle
 10
-19.72601487688226
 20
16.90304881130839
 30
0.0
 40
0.9485503006599529
  0
POLYLINE
  5
678D
330
1F
100
AcDbEntity
  8
LOGO
 62
     5
100
AcDb2dPolyline
 66
     1
 10
0.0
 20
0.0
 30
0.0
 70
     1
 40
0.6333802755475111
 41
0.6333802755475111
  0
VERTEX
  5
678E
330
678D
100
AcDbEntity
  8
LOGO
 62
     5
100
AcDbVertex
100
AcDb2dVertex
 10
-20.99277542797822
 20
16.90304881130839
 30
0.0
 42
1.0
  0
VERTEX
  5
678F
330
678D
100
AcDbEntity
  8
LOGO
 62
     5
100
AcDbVertex
100
AcDb2dVertex
 10
-18.45925432578829
 20
16.90304881130839
 30
0.0
 42
1.0
  0
SEQEND
  5
6790
330
678D
100
AcDbEntity
  8
LOGO
 62
     5
  0
LINE
  5
6791
330
1F
100
AcDbEntity
  8
LOGO
100
AcDbLine
 10
-14.87791105352383
 20
15.32213164354249
 30
0.0
 11
-14.87791105352383
 21
17.2192322448621
 31
0.0
  0
SOLID
  5
6792
330
1F
100
AcDbEntity
  8
LOGO
 62
     5
100
AcDbTrace
 10
-18.77752781290761
 20
18.48396597907526
 30
0.0
 11
-18.14516094580219
 21
18.48396597907526
 31
0.0
 12
-18.77752781290761
 22
15.32213164354249
 32
0.0
 13
-18.14516094580219
 23
15.32213164354249
 33
0.0
  0
SOLID
  5
6793
330
1F
100
AcDbEntity
  8
LOGO
 62
     5
100
AcDbTrace
 10
-17.40737852195016
 20
15.32213164354249
 30
0.0
 11
-16.77501165484284
 21
15.32213164354249
 31
0.0
 12
-17.40737852195016
 22
18.48396597907526
 32
0.0
 13
-16.77501165484284
 23
18.48396597907526
 33
0.0
  0
SOLID
  5
6794
330
1F
100
AcDbEntity
  8
LOGO
 62
     5
100
AcDbTrace
 10
-15.51027792062919
 20
17.2192322448621
 30
0.0
 11
-14.87791105352383
 21
17.2192322448621
 31
0.0
 12
-15.51027792062919
 22
15.32213164354249
 32
0.0
 13
-14.87791105352383
 23
15.32213164354249
 33
0.0
  0
SOLID
  5
6795
330
1F
100
AcDbEntity
  8
LOGO
 62
     5
100
AcDbTrace
 10
-17.47061520866103
 20
37.64468205240599
 30
0.0
 11
-19.3044791232692
 21
30.92051436550534
 31
0.0
 12
-17.47061520866103
 22
21.64580031460798
 32
0.0
 13
-19.3044791232692
 23
21.64580031460798
 33
0.0
  0
SOLID
  5
6796
330
1F
100
AcDbEntity
  8
LOGO
 62
     5
100
AcDbTrace
 10
-16.711774968132
 20
21.64580031460798
 30
0.0
 11
-14.87791105352383
 21
21.64580031460798
 31
0.0
 12
-16.711774968132
 22
39.03588916004037
 32
0.0
 13
-14.87791105352383
 23
39.03588916004134
 33
0.0
  0
SOLID
  5
6797
330
1F
100
AcDbEntity
  8
LOGO
 62
     2
100
AcDbTrace
 10
-17.47061520866103
 20
39.03588916004134
 30
0.0
 11
-16.711774968132
 21
39.03588916004037
 31
0.0
 12
-17.47061520866103
 22
21.64580031460798
 32
0.0
 13
-16.711774968132
 23
21.64580031460798
 33
0.0
  0
POLYLINE
  5
6798
330
1F
100
AcDbEntity
  8
LOGO
 62
     5
100
AcDb2dPolyline
 66
     1
 10
0.0
 20
0.0
 30
0.0
 40
0.6333802755475111
 41
0.6333802755475111
  0
VERTEX
  5
6799
330
6798
100
AcDbEntity
  8
LOGO
 62
     5
100
AcDbVertex
100
AcDb2dVertex
 10
-24.25654162740068
 20
17.2192322448621
 30
0.0
 42
1.0
  0
VERTEX
  5
679A
330
6798
100
AcDbEntity
  8
LOGO
 62
     5
100
AcDbVertex
100
AcDb2dVertex
 10
-26.15668245404354
 20
17.2192322448621
 30
0.0
 42
1.0
  0
SEQEND
  5
679B
330
6798
100
AcDbEntity
  8
LOGO
 62
     5
  0
POLYLINE
  5
679C
330
1F
100
AcDbEntity
  8
LOGO
 62
     5
100
AcDb2dPolyline
 66
     1
 10
0.0
 20
0.0
 30
0.0
 40
0.6333802755475111
 41
0.6333802755475111
  0
VERTEX
  5
679D
330
679C
100
AcDbEntity
  8
LOGO
 62
     5
100
AcDbVertex
100
AcDb2dVertex
 10
-22.35944102608255
 20
17.2192322448621
 30
0.0
 42
1.0
  0
VERTEX
  5
679E
330
679C
100
AcDbEntity
  8
LOGO
 62
     5
100
AcDbVertex
100
AcDb2dVertex
 10
-24.25958185272452
 20
17.2192322448621
 30
0.0
 42
1.0
  0
SEQEND
  5
679F
330
679C
100
AcDbEntity
  8
LOGO
 62
     5
  0
POLYLINE
  5
67A0
330
1F
100
AcDbEntity
  8
LOGO
 62
     5
100
AcDb2dPolyline
 66
     1
 10
0.0
 20
0.0
 30
0.0
 40
0.6333802755475111
 41
0.6333802755475111
  0
VERTEX
  5
67A1
330
67A0
100
AcDbEntity
  8
LOGO
 62
     5
100
AcDbVertex
100
AcDb2dVertex
 10
-31.42340827906864
 20
17.2192322448621
 30
0.0
 42
1.0
  0
VERTEX
  5
67A2
330
67A0
100
AcDbEntity
  8
LOGO
 62
     5
100
AcDbVertex
100
AcDb2dVertex
 10
-33.32354910571061
 20
17.2192322448621
 30
0.0
 42
1.0
  0
SEQEND
  5
67A3
330
67A0
100
AcDbEntity
  8
LOGO
 62
     5
  0
SOLID
  5
67A4
330
1F
100
AcDbEntity
  8
LOGO
 62
     5
100
AcDbTrace
 10
-33.63821242660234
 20
18.48396597907526
 30
0.0
 11
-33.00584555949698
 21
18.48396597907526
 31
0.0
 12
-33.63821242660234
 22
15.32213164354249
 32
0.0
 13
-33.00584555949698
 23
15.32213164354249
 33
0.0
  0
SOLID
  5
67A5
330
1F
100
AcDbEntity
  8
LOGO
 62
     5
100
AcDbTrace
 10
-31.74111182528227
 20
17.2192322448621
 30
0.0
 11
-31.10874495817501
 21
17.2192322448621
 31
0.0
 12
-31.74111182528227
 22
15.32213164354249
 32
0.0
 13
-31.10874495817501
 23
15.32213164354249
 33
0.0
  0
POLYLINE
  5
67A6
330
1F
100
AcDbEntity
  8
LOGO
 62
     5
100
AcDb2dPolyline
 66
     1
 10
0.0
 20
0.0
 30
0.0
 70
     1
 40
0.6333802755475111
 41
0.6333802755475111
  0
VERTEX
  5
67A7
330
67A6
100
AcDbEntity
  8
LOGO
 62
     5
100
AcDbVertex
100
AcDb2dVertex
 10
-30.05674268096527
 20
16.90304881130839
 30
0.0
 42
1.0
  0
VERTEX
  5
67A8
330
67A6
100
AcDbEntity
  8
LOGO
 62
     5
100
AcDbVertex
100
AcDb2dVertex
 10
-27.52322157877433
 20
16.90304881130839
 30
0.0
 42
1.0
  0
SEQEND
  5
67A9
330
67A6
100
AcDbEntity
  8
LOGO
 62
     5
  0
SOLID
  5
67AA
330
1F
100
AcDbEntity
  8
LOGO
 62
     5
100
AcDbTrace
 10
-27.84149506589563
 20
19.43251627973569
 30
0.0
 11
-27.20912819878924
 21
19.43251627973569
 31
0.0
 12
-27.84149506589563
 22
15.32213164354249
 32
0.0
 13
-27.20912819878924
 23
15.32213164354249
 33
0.0
  0
SOLID
  5
67AB
330
1F
100
AcDbEntity
  8
LOGO
 62
     5
100
AcDbTrace
 10
-26.47134577493429
 20
18.48396597907526
 30
0.0
 11
-25.83897890782893
 21
18.48396597907526
 31
0.0
 12
-26.47134577493429
 22
15.32213164354249
 32
0.0
 13
-25.83897890782893
 23
15.32213164354249
 33
0.0
  0
SOLID
  5
67AC
330
1F
100
AcDbEntity
  8
LOGO
 62
     5
100
AcDbTrace
 10
-24.57424517361622
 20
17.2192322448621
 30
0.0
 11
-23.9418783065089
 21
17.2192322448621
 31
0.0
 12
-24.57424517361622
 22
15.32213164354249
 32
0.0
 13
-23.9418783065089
 23
15.32213164354249
 33
0.0
  0
SOLID
  5
67AD
330
1F
100
AcDbEntity
  8
LOGO
 62
     5
100
AcDbTrace
 10
-22.67714457229619
 20
17.2192322448621
 30
0.0
 11
-22.04477770518989
 21
17.2192322448621
 31
0.0
 12
-22.67714457229619
 22
15.32213164354158
 32
0.0
 13
-22.04477770518989
 23
15.32213164354158
 33
0.0
  0
SOLID
  5
67AE
330
1F
100
AcDbEntity
  8
LOGO
 62
     5
100
AcDbTrace
 10
-35.00836171756262
 20
18.92662278605007
 30
0.0
 11
-34.37599485045434
 21
18.92662278605007
 31
0.0
 12
-35.00836171756262
 22
19.43251627973569
 32
0.0
 13
-34.37599485045434
 23
19.43251627973569
 33
0.0
  0
SOLID
  5
67AF
330
1F
100
AcDbEntity
  8
LOGO
 62
     5
100
AcDbTrace
 10
-35.00836171756262
 20
18.48396597907526
 30
0.0
 11
-34.37599485045434
 21
18.48396597907526
 31
0.0
 12
-35.00836171756262
 22
15.32213164354158
 32
0.0
 13
-34.37599485045434
 23
15.32213164354249
 33
0.0
  0
SOLID
  5
67B0
330
1F
100
AcDbEntity
  8
LOGO
 62
     5
100
AcDbTrace
 10
-28.78998212987028
 20
21.64580031460849
 30
0.0
 11
-26.95611821526012
 21
21.64580031460849
 31
0.0
 12
-28.78998212987028
 22
30.92051436550534
 32
0.0
 13
-26.95611821526012
 23
37.64468205240599
 33
0.0
  0
SOLID
  5
67B1
330
1F
100
AcDbEntity
  8
LOGO
 62
     5
100
AcDbTrace
 10
-26.19727797473118
 20
39.03588916004037
 30
0.0
 11
-24.36341406012292
 21
39.03588916004134
 31
0.0
 12
-26.19727797473118
 22
23.03700742224277
 32
0.0
 13
-24.36341406012292
 23
29.76117510914352
 33
0.0
  0
SOLID
  5
67B2
330
1F
100
AcDbEntity
  8
LOGO
 62
     2
100
AcDbTrace
 10
-26.95611821526012
 20
39.03588916004037
 30
0.0
 11
-26.19727797473118
 21
39.03588916004037
 31
0.0
 12
-26.95611821526012
 22
21.64580031460849
 32
0.0
 13
-26.19727797473118
 23
21.64580031460849
 33
0.0
  0
SOLID
  5
67B3
330
1F
100
AcDbEntity
  8
LOGO
 62
     5
100
AcDbTrace
 10
-26.19727797473118
 20
23.03700742224277
 30
0.0
 11
-24.36341406012292
 21
29.76117510914352
 31
0.0
 12
-17.47061520866103
 22
39.03588916004134
 32
0.0
 13
-19.3044791232692
 23
39.03588916004134
 33
0.0
  0
SOLID
  5
67B4
330
1F
100
AcDbEntity
  8
LOGO
 62
     5
100
AcDbTrace
 10
-26.19727797473118
 20
21.64580031460849
 30
0.0
 11
-24.36341406012292
 21
21.64580031460849
 31
0.0
 12
-17.47061520866103
 22
37.64468205240599
 32
0.0
 13
-19.3044791232692
 23
30.92051436550534
 33
0.0
  0
SOLID
  5
67B5
330
1F
100
AcDbEntity
  8
LOGO
 62
     2
100
AcDbTrace
 10
-26.95611821526012
 20
21.64580031460849
 30
0.0
 11
-26.19727797473118
 21
21.64580031460849
 31
0.0
 12
-17.47061520866103
 22
39.03588916004134
 32
0.0
 13
-16.711774968132
 23
39.03588916004037
 33
0.0
  0
TEXT
  5
67F5
330
1F
100
AcDbEntity
  8
LOGO
100
AcDbText
 10
52.3875780658347
 20
-0.1140424244009068
 30
0.0
 40
4.241999999999999
  1
10707269
 41
0.7
  7
CHINESET
 72
     1
 11
62.9218780658347
 21
-0.1140424244009068
 31
0.0
100
AcDbText
  0
LINE
  5
67F6
330
1F
100
AcDbEntity
  8
LOGO
 62
     4
100
AcDbLine
 10
76.08649607681771
 20
6.112328631954255
 30
0.0
 11
76.08649607681961
 21
-2.370442915557589
 31
0.0
  0
LINE
  5
67F7
330
1F
100
AcDbEntity
  8
LOGO
 62
     4
100
AcDbLine
 10
76.08649607681771
 20
6.112328631954255
 30
0.0
 11
50.63449607681957
 21
6.112328631954255
 31
0.0
  0
LINE
  5
67F8
330
1F
100
AcDbEntity
  8
LOGO
  6
AM_ISO08W050x2
 48
0.3
100
AcDbLine
 10
26.81724947259396
 20
27.32832985593962
 30
0.0
 11
33.60684489281253
 21
27.32832985593962
 31
0.0
1001
GENIUS_GENOREF_13
1005
67FD
  0
LINE
  5
67F9
330
1F
100
AcDbEntity
  8
LOGO
  6
AM_ISO08W050x2
 48
0.3
100
AcDbLine
 10
30.21204718270324
 20
23.93353214583033
 30
0.0
 11
30.21204718270324
 21
30.7231275660489
 31
0.0
1001
GENIUS_GENOREF_13
1005
67FC
  0
LINE
  5
67FA
330
1F
100
AcDbEntity
  8
LOGO
  6
CENTER
 48
0.5
100
AcDbLine
 10
37.34994781715686
 20
27.32832985593962
 30
0.0
 11
46.4650208842324
 21
27.32832985593962
 31
0.0
1001
GENIUS_GENOREF_13
1005
67FB
  0
POINT
  5
67FB
330
1F
100
AcDbEntity
  8
0
 60
     1
100
AcDbPoint
 10
-1750.493197803881
 20
-910.4717086676414
 30
0.0
1001
GENIUS_GENOBJ-N-CRS_13
1002
{
1000
OWNER
1000
GEN
1002
}
1001
GENIUS_GENOLIS_13
1002
{
1000
ENT
1005
0
1005
0
1005
0
1005
67FA
1002
}
1001
GENIUS_GENOENT_13
1002
{
1000
MYREF
1005
67FB
1002
}
1002
{
1000
GRP
1005
0
1002
}
1001
GENIUS_GENODEF_13
1002
{
1000
HIER
1070
    10
1002
}
1002
{
1000
MANEDIT
1070
     1
1002
}
1002
{
1000
NOSEL
1070
     0
1002
}
1002
{
1000
BEHIND
1070
     0
1002
}
1002
{
1000
OTHER
1070
     0
1002
}
1002
{
1000
REACTOR
1002
}
  0
POINT
  5
67FC
330
1F
100
AcDbEntity
  8
0
 60
     1
100
AcDbPoint
 10
-1761.817783026735
 20
-901.5961221890052
 30
0.0
1001
GENIUS_GENOBJ-N-CRS_13
1002
{
1000
OWNER
1000
GEN
1002
}
1001
GENIUS_GENOLIS_13
1002
{
1000
ENT
1005
0
1005
0
1005
0
1005
67F9
1002
}
1001
GENIUS_GENOENT_13
1002
{
1000
MYREF
1005
67FC
1002
}
1002
{
1000
GRP
1005
0
1002
}
1001
GENIUS_GENODEF_13
1002
{
1000
HIER
1070
    10
1002
}
1002
{
1000
MANEDIT
1070
     1
1002
}
1002
{
1000
NOSEL
1070
     0
1002
}
1002
{
1000
BEHIND
1070
     0
1002
}
1002
{
1000
OTHER
1070
     0
1002
}
1002
{
1000
REACTOR
1002
}
  0
POINT
  5
67FD
330
1F
100
AcDbEntity
  8
0
 60
     1
100
AcDbPoint
 10
-1755.459109328899
 20
-910.4717086676414
 30
0.0
1001
GENIUS_GENOBJ-N-CRS_13
1002
{
1000
OWNER
1000
GEN
1002
}
1001
GENIUS_GENOLIS_13
1002
{
1000
ENT
1005
0
1005
0
1005
0
1005
67F8
1002
}
1001
GENIUS_GENOENT_13
1002
{
1000
MYREF
1005
67FD
1002
}
1002
{
1000
GRP
1005
0
1002
}
1001
GENIUS_GENODEF_13
1002
{
1000
HIER
1070
    10
1002
}
1002
{
1000
MANEDIT
1070
     1
1002
}
1002
{
1000
NOSEL
1070
     0
1002
}
1002
{
1000
BEHIND
1070
     0
1002
}
1002
{
1000
OTHER
1070
     0
1002
}
1002
{
1000
REACTOR
1002
}
  0
TEXT
  5
6E72
330
1F
100
AcDbEntity
  8
0
100
AcDbText
 10
-33.36475021318292
 20
267.3449642425849
 30
0.0
 40
5.599999999999999
  1
12 type
  7
CHINESET
100
AcDbText
  0
TEXT
  5
6E74
330
1F
100
AcDbEntity
  8
0
100
AcDbText
 10
-33.36475021318292
 20
507.3370405391725
 30
0.0
 40
5.599999999999999
  1
11 type
  7
CHINESET
100
AcDbText
  0
LEADER
  5
704A
330
1F
100
AcDbEntity
  8
DIM
100
AcDbLeader
  3
AM_ANSI$7
 73
     0
 75
     1
 40
16.46666666666667
 41
53.19999999999998
 76
     3
 10
201.2468100150254
 20
171.6776422002976
 30
0.0
 10
180.586894396631
 20
184.9232667076409
 30
0.0
 10
177.586894396631
 20
184.9232667076409
 30
0.0
340
704B
213
-1.470381022235983
223
-0.2720687161413622
233
0.0
1001
ACAD
1000
DSTYLE
1002
{
1070
    41
1040
3.0
1070
    42
1040
1.5
1070
    43
1040
8.0
1070
    44
1040
1.5
1070
    73
1070
     0
1070
    74
1070
     0
1070
    77
1070
     3
1070
   140
1040
2.0
1070
   141
1040
3.0
1070
   146
1040
0.6
1070
   147
1040
1.0
1070
   172
1070
     1
1070
   178
1070
   256
1070
   272
1070
     2
1070
   274
1070
     2
1070
   340
1005
59B5
1002
}
  0
MTEXT
  5
704B
102
{ACAD_REACTORS
330
704A
102
}
330
1F
100
AcDbEntity
  8
DIM
100
AcDbMText
 10
178.057275418867
 20
202.662002090449
 30
0.0
 40
3.799999999999999
 41
0.0
 71
     3
 72
     1
  1
%%C14*10.5 depth\PM12*1.75*12 depth\P%%C10.5 thru
  7
dayus
 73
     1
 44
1.0
1001
ACAD
1000
MTEXTBEGIN
1070
    73
1070
     1
1070
    44
1040
1.0
1070
    74
1070
     0
1000
MTEXTEND
  0
LINE
  5
707D
330
1F
100
AcDbEntity
  8
0
100
AcDbLine
 10
177.2798175084776
 20
492.7011130972783
 30
0.0
 11
177.2798175084753
 21
474.8183866972792
 31
0.0
  0
LINE
  5
707E
330
1F
100
AcDbEntity
  8
0
100
AcDbLine
 10
221.3257545978078
 20
486.7402042972789
 30
0.0
 11
221.325754597808
 21
474.818386697279
 31
0.0
  0
LINE
  5
707F
330
1F
100
AcDbEntity
  8
0
100
AcDbLine
 10
198.7543743512237
 20
492.7011130972783
 30
0.0
 11
198.7543743512248
 21
474.8183866972792
 31
0.0
  0
LINE
  5
7080
330
1F
100
AcDbEntity
  8
0
100
AcDbLine
 10
177.279817508478
 20
474.818386697279
 30
0.0
 11
289.0398953375578
 21
474.818386697279
 31
0.0
  0
LINE
  5
7081
330
1F
100
AcDbEntity
  8
0
100
AcDbLine
 10
177.279817508478
 20
480.7792954972789
 30
0.0
 11
289.0398953375574
 21
480.7792954972789
 31
0.0
  0
TEXT
  5
7082
330
1F
100
AcDbEntity
  8
0
100
AcDbText
 10
187.1054208749155
 20
475.8316548281986
 30
0.0
 40
3.742478962070756
  1
5
 41
0.8
  7
CHINESET
 72
     4
 11
188.1034152648011
 21
477.702894309234
 31
0.0
100
AcDbText
  0
TEXT
  5
7083
330
1F
100
AcDbEntity
  8
0
100
AcDbText
 10
182.4384163451616
 20
482.2214327428191
 30
0.0
 40
2.9804544
  1
Stroke
 41
0.8
  7
CHINESET
100
AcDbText
  0
TEXT
  5
7084
330
1F
100
AcDbEntity
  8
0
100
AcDbText
 10
206.5373412977647
 20
475.86253529736
 30
0.0
 40
3.725567999999999
  1
46
 41
0.8
  7
CHINESET
100
AcDbText
  0
LINE
  5
7085
330
1F
100
AcDbEntity
  8
0
100
AcDbLine
 10
177.2798175084776
 20
492.7011130972784
 30
0.0
 11
289.0398953375567
 21
492.7011130972784
 31
0.0
  0
INSERT
  5
7086
330
1F
100
AcDbEntity
  8
0
100
AcDbBlockReference
  2
A$C5ECF147B
 10
176.4801502159058
 20
475.3412991436285
 30
0.0
 41
1.192181760000073
 42
1.192181760000039
 43
1.192181759999999
  0
LINE
  5
7087
330
1F
100
AcDbEntity
  8
0
100
AcDbLine
 10
177.2798175084778
 20
486.7402042972789
 30
0.0
 11
289.0398953375574
 21
486.7402042972789
 31
0.0
  0
TEXT
  5
7088
330
1F
100
AcDbEntity
  8
0
100
AcDbText
 10
207.9892737762717
 20
481.8234440973601
 30
0.0
 40
3.725567999999999
  1
S
 41
0.8
  7
CHINESET
100
AcDbText
  0
TEXT
  5
7089
330
1F
100
AcDbEntity
  8
0
100
AcDbText
 10
203.8706616677349
 20
487.8113804444107
 30
0.0
 40
3.725567999999999
  1
Without magnet
 41
0.8
  7
CHINESET
100
AcDbText
  0
LINE
  5
708A
330
1F
100
AcDbEntity
  8
0
100
AcDbLine
 10
243.8971348443911
 20
492.7011130972784
 30
0.0
 11
243.8971348443913
 21
474.8183866972786
 31
0.0
  0
TEXT
  5
708B
330
1F
100
AcDbEntity
  8
0
100
AcDbText
 10
230.2381069028767
 20
475.8625352973597
 30
0.0
 40
3.725567999999999
  1
90
 41
0.8
  7
CHINESET
100
AcDbText
  0
TEXT
  5
708C
330
1F
100
AcDbEntity
  8
0
100
AcDbText
 10
230.5606540228553
 20
481.8234440973601
 30
0.0
 40
3.725567999999999
  1
ZZ
 41
0.8
  7
CHINESET
100
AcDbText
  0
LINE
  5
708D
330
1F
100
AcDbEntity
  8
0
100
AcDbLine
 10
266.4685150909743
 20
486.7402042972789
 30
0.0
 11
266.4685150909746
 21
474.818386697279
 31
0.0
  0
TEXT
  5
708E
330
1F
100
AcDbEntity
  8
0
100
AcDbText
 10
251.9873033134245
 20
475.86253529736
 30
0.0
 40
3.725567999999999
  1
56
 41
0.8
  7
CHINESET
100
AcDbText
  0
TEXT
  5
708F
330
1F
100
AcDbEntity
  8
0
100
AcDbText
 10
253.1320342694383
 20
481.8234440973601
 30
0.0
 40
3.725567999999999
  1
S
 41
0.8
  7
CHINESET
100
AcDbText
  0
TEXT
  5
7090
330
1F
100
AcDbEntity
  8
0
100
AcDbText
 10
252.1383997446639
 20
487.8113804444107
 30
0.0
 40
3.725567999999999
  1
With magnet
 41
0.8
  7
CHINESET
100
AcDbText
  0
TEXT
  5
7091
330
1F
100
AcDbEntity
  8
0
100
AcDbText
 10
275.0979508402916
 20
475.8625352973597
 30
0.0
 40
3.725567999999999
  1
100
 41
0.8
  7
CHINESET
100
AcDbText
  0
TEXT
  5
7092
330
1F
100
AcDbEntity
  8
0
100
AcDbText
 10
275.7034145160219
 20
481.8234440973601
 30
0.0
 40
3.725567999999999
  1
ZZ
 41
0.8
  7
CHINESET
100
AcDbText
  0
LINE
  5
7093
330
1F
100
AcDbEntity
  8
0
100
AcDbLine
 10
289.0398953375576
 20
492.7011130972784
 30
0.0
 11
289.0398953375578
 21
474.8183866972786
 31
0.0
  0
INSERT
  5
7094
330
1F
100
AcDbEntity
  8
0
100
AcDbBlockReference
  2
A$C5ECF147B
 10
205.7682315820856
 20
475.3412991436285
 30
0.0
 41
1.192181760000073
 42
1.192181760000039
 43
1.192181759999999
  0
INSERT
  5
7095
330
1F
100
AcDbEntity
  8
0
100
AcDbBlockReference
  2
A$C5ECF147B
 10
228.3396118286689
 20
475.341299143628
 30
0.0
 41
1.192181760000073
 42
1.192181760000039
 43
1.192181759999999
  0
LINE
  5
709C
330
1F
100
AcDbEntity
  8
0
100
AcDbLine
 10
177.2798175084776
 20
253.2918855379668
 30
0.0
 11
177.2798175084753
 21
235.4091591379676
 31
0.0
  0
LINE
  5
709D
330
1F
100
AcDbEntity
  8
0
100
AcDbLine
 10
221.3257545978078
 20
247.3309767379674
 30
0.0
 11
221.325754597808
 21
235.4091591379674
 31
0.0
  0
LINE
  5
709E
330
1F
100
AcDbEntity
  8
0
100
AcDbLine
 10
198.7543743512237
 20
253.2918855379668
 30
0.0
 11
198.7543743512248
 21
235.4091591379676
 31
0.0
  0
LINE
  5
709F
330
1F
100
AcDbEntity
  8
0
100
AcDbLine
 10
177.279817508478
 20
235.4091591379674
 30
0.0
 11
289.0398953375578
 21
235.4091591379674
 31
0.0
  0
LINE
  5
70A0
330
1F
100
AcDbEntity
  8
0
100
AcDbLine
 10
177.279817508478
 20
241.3700679379674
 30
0.0
 11
289.0398953375574
 21
241.3700679379674
 31
0.0
  0
TEXT
  5
70A1
330
1F
100
AcDbEntity
  8
0
100
AcDbText
 10
187.1054208749155
 20
236.4224272688871
 30
0.0
 40
3.742478962070756
  1
5
 41
0.8
  7
CHINESET
 72
     4
 11
188.1034152648011
 21
238.2936667499225
 31
0.0
100
AcDbText
  0
TEXT
  5
70A2
330
1F
100
AcDbEntity
  8
0
100
AcDbText
 10
182.4384163451616
 20
242.8122051835076
 30
0.0
 40
2.9804544
  1
Stroke
 41
0.8
  7
CHINESET
100
AcDbText
  0
TEXT
  5
70A3
330
1F
100
AcDbEntity
  8
0
100
AcDbText
 10
206.5373412977647
 20
236.4533077380484
 30
0.0
 40
3.725567999999999
  1
46
 41
0.8
  7
CHINESET
100
AcDbText
  0
LINE
  5
70A4
330
1F
100
AcDbEntity
  8
0
100
AcDbLine
 10
177.2798175084776
 20
253.2918855379669
 30
0.0
 11
289.0398953375567
 21
253.2918855379669
 31
0.0
  0
INSERT
  5
70A5
330
1F
100
AcDbEntity
  8
0
100
AcDbBlockReference
  2
A$C5ECF147B
 10
176.4801502159058
 20
235.9320715843169
 30
0.0
 41
1.192181760000073
 42
1.192181760000039
 43
1.192181759999999
  0
LINE
  5
70A6
330
1F
100
AcDbEntity
  8
0
100
AcDbLine
 10
177.2798175084778
 20
247.3309767379673
 30
0.0
 11
289.0398953375574
 21
247.3309767379673
 31
0.0
  0
TEXT
  5
70A7
330
1F
100
AcDbEntity
  8
0
100
AcDbText
 10
207.9892737762717
 20
242.4142165380485
 30
0.0
 40
3.725567999999999
  1
S
 41
0.8
  7
CHINESET
100
AcDbText
  0
TEXT
  5
70A8
330
1F
100
AcDbEntity
  8
0
100
AcDbText
 10
203.8706616677349
 20
248.4021528850992
 30
0.0
 40
3.725567999999999
  1
Without magnet
 41
0.8
  7
CHINESET
100
AcDbText
  0
LINE
  5
70A9
330
1F
100
AcDbEntity
  8
0
100
AcDbLine
 10
243.8971348443911
 20
253.2918855379669
 30
0.0
 11
243.8971348443913
 21
235.4091591379671
 31
0.0
  0
TEXT
  5
70AA
330
1F
100
AcDbEntity
  8
0
100
AcDbText
 10
230.2381069028767
 20
236.4533077380481
 30
0.0
 40
3.725567999999999
  1
57
 41
0.8
  7
CHINESET
100
AcDbText
  0
TEXT
  5
70AB
330
1F
100
AcDbEntity
  8
0
100
AcDbText
 10
230.5606540228553
 20
242.4142165380485
 30
0.0
 40
3.725567999999999
  1
ZZ
 41
0.8
  7
CHINESET
100
AcDbText
  0
LINE
  5
70AC
330
1F
100
AcDbEntity
  8
0
100
AcDbLine
 10
266.4685150909743
 20
247.3309767379674
 30
0.0
 11
266.4685150909746
 21
235.4091591379674
 31
0.0
  0
TEXT
  5
70AD
330
1F
100
AcDbEntity
  8
0
100
AcDbText
 10
251.9873033134245
 20
236.4533077380484
 30
0.0
 40
3.725567999999999
  1
56
 41
0.8
  7
CHINESET
100
AcDbText
  0
TEXT
  5
70AE
330
1F
100
AcDbEntity
  8
0
100
AcDbText
 10
253.1320342694383
 20
242.4142165380485
 30
0.0
 40
3.725567999999999
  1
S
 41
0.8
  7
CHINESET
100
AcDbText
  0
TEXT
  5
70AF
330
1F
100
AcDbEntity
  8
0
100
AcDbText
 10
252.1383997446639
 20
248.4021528850992
 30
0.0
 40
3.725567999999999
  1
With magnet
 41
0.8
  7
CHINESET
100
AcDbText
  0
TEXT
  5
70B0
330
1F
100
AcDbEntity
  8
0
100
AcDbText
 10
275.0979508402916
 20
236.4533077380481
 30
0.0
 40
3.725567999999999
  1
67
 41
0.8
  7
CHINESET
100
AcDbText
  0
TEXT
  5
70B1
330
1F
100
AcDbEntity
  8
0
100
AcDbText
 10
275.7034145160219
 20
242.4142165380485
 30
0.0
 40
3.725567999999999
  1
ZZ
 41
0.8
  7
CHINESET
100
AcDbText
  0
LINE
  5
70B2
330
1F
100
AcDbEntity
  8
0
100
AcDbLine
 10
289.0398953375576
 20
253.2918855379669
 30
0.0
 11
289.0398953375578
 21
235.4091591379671
 31
0.0
  0
INSERT
  5
70B3
330
1F
100
AcDbEntity
  8
0
100
AcDbBlockReference
  2
A$C5ECF147B
 10
205.7682315820856
 20
235.9320715843169
 30
0.0
 41
1.192181760000073
 42
1.192181760000039
 43
1.192181759999999
  0
INSERT
  5
70B4
330
1F
100
AcDbEntity
  8
0
100
AcDbBlockReference
  2
A$C5ECF147B
 10
228.3396118286689
 20
235.9320715843165
 30
0.0
 41
1.192181760000073
 42
1.192181760000039
 43
1.192181759999999
  0
LINE
  5
70CD
330
1F
100
AcDbEntity
  8
AM_7
  6
ACISOTGB
 62
     2
100
AcDbLine
 10
38.60500950808978
 20
415.9546792565045
 30
0.0
 11
38.60500950808978
 21
300.4318251421803
 31
0.0
1001
GENIUS_GENOBJ-N-CEN_13
1002
{
1000
OWNER
1000
GEN
1002
}
1001
GENIUS_GENODEF_13
1002
{
1000
HIER
1070
     0
1002
}
1002
{
1000
MANEDIT
1070
     0
1002
}
1002
{
1000
NOSEL
1070
     0
1002
}
1002
{
1000
BEHIND
1070
     0
1002
}
1002
{
1000
OTHER
1070
     0
1002
}
1002
{
1000
REACTOR
1002
}
1001
GENIUS_GENCEN_19
1002
{
1040
3.0
1002
}
  0
INSERT
  5
70EB
330
1F
100
AcDbEntity
  8
0
100
AcDbBlockReference
  2
A$C56E90040
 10
38.60500950808978
 20
303.4898747027137
 30
0.0
  0
LINE
  5
70EC
330
1F
100
AcDbEntity
  8
AM_7
  6
ACISOTGB
 62
     2
100
AcDbLine
 10
38.60500950808978
 20
183.3294627224403
 30
0.0
 11
38.60500950808978
 21
67.80660860811611
 31
0.0
1001
GENIUS_GENOBJ-N-CEN_13
1002
{
1000
OWNER
1000
GEN
1002
}
1001
GENIUS_GENODEF_13
1002
{
1000
HIER
1070
     0
1002
}
1002
{
1000
MANEDIT
1070
     0
1002
}
1002
{
1000
NOSEL
1070
     0
1002
}
1002
{
1000
BEHIND
1070
     0
1002
}
1002
{
1000
OTHER
1070
     0
1002
}
1002
{
1000
REACTOR
1002
}
1001
GENIUS_GENCEN_19
1002
{
1040
3.0
1002
}
  0
INSERT
  5
70ED
330
1F
100
AcDbEntity
  8
0
100
AcDbBlockReference
  2
A$C56E90040
 10
38.60500950808978
 20
70.8646581686495
 30
0.0
  0
LEADER
  5
72CC
330
1F
100
AcDbEntity
  8
DIM
100
AcDbLeader
  3
AM_ANSI$7
 73
     0
 74
     0
 75
     1
 40
11.83333333333333
 41
75.33333333333331
 76
     3
 10
31.63681145233153
 20
359.0253542447716
 30
0.0
 10
70.81357198600382
 20
309.1152291734516
 30
0.0
 10
74.11357198600382
 20
309.1152291734516
 30
0.0
340
72CD
213
-1.543897086449305
223
0.4194728829406813
233
0.0
1001
ACAD
1000
DSTYLE
1002
{
1070
    41
1040
3.299999999999999
1070
    42
1040
1.5
1070
    43
1040
8.0
1070
    44
1040
1.5
1070
    73
1070
     0
1070
    74
1070
     0
1070
    77
1070
     3
1070
   140
1040
2.0
1070
   141
1040
3.0
1070
   146
1040
0.6
1070
   147
1040
1.0
1070
   172
1070
     1
1070
   178
1070
   256
1070
   272
1070
     8
1070
   274
1070
     2
1070
   340
1005
59B5
1002
}
  0
MTEXT
  5
72CD
102
{ACAD_REACTORS
330
72CC
102
}
330
1F
100
AcDbEntity
  8
DIM
100
AcDbMText
 10
76.65746907245313
 20
309.6957562905109
 30
0.0
 40
3.5
 41
0.0
 71
     7
 72
     1
  1
2-PT3/8\P2-PT1/4(only for ST=5mm)
  7
dayus
 73
     1
 44
1.0
1001
ACAD
1000
MTEXTBEGIN
1070
    73
1070
     1
1070
    44
1040
1.0
1070
    74
1070
     0
1000
MTEXTEND
  0
ENDSEC
  0
SECTION
  2
OBJECTS
  0
DICTIONARY
  5
C
330
0
100
AcDbDictionary
281
     1
  3
ACAD_COLOR
350
5825
  3
ACAD_GROUP
350
D
  3
ACAD_LAYOUT
350
1A
  3
ACAD_MATERIAL
350
5824
  3
ACAD_MLINESTYLE
350
17
  3
ACAD_PLOTSETTINGS
350
19
  3
ACAD_PLOTSTYLENAME
350
E
  3
ACAD_TABLESTYLE
350
5826
  3
AcadDim
350
1E82
  3
AcAsAppObject
350
721F
  3
ACASGREF_MASTER
350
7266
  3
ACDBHEADERROUNDTRIPXREC
350
72F6
  3
AcDbVariableDictionary
350
1488
  3
AcmDictionary
350
6680
  3
AD_GREF_MODULE
350
7267
  3
AD_MAPI_MODULE
350
7279
  3
AMG
350
662C
  3
AMGSNAPSETTINGS
350
675F
  3
DWGPROPS
350
72F5
  3
MAPISURF_MODULE
350
7268
  0
DICTIONARY
  5
59BF
330
2
100
AcDbDictionary
280
     1
281
     1
  3
ACAD_LAYERSTATES
360
59C0
  0
DICTIONARY
  5
5790
330
1F
100
AcDbDictionary
280
     1
281
     1
  3
ACAD_INDEX
360
729E
  3
ACAD_LAYOUTSELFREF
360
57CA
  3
ACAD_SORTENTS
360
70DF
  0
DICTIONARY
  5
5792
330
1B
100
AcDbDictionary
280
     1
281
     1
  3
ACAD_LAYOUTSELFREF
360
57C9
  0
DICTIONARY
  5
5794
330
23
100
AcDbDictionary
280
     1
281
     1
  3
ACAD_LAYOUTSELFREF
360
57CB
  0
DICTIONARY
  5
705A
330
7059
100
AcDbDictionary
280
     1
281
     1
  0
DICTIONARY
  5
70E7
330
70E2
100
AcDbDictionary
280
     1
281
     1
  3
ACAD_SORTENTS
360
70E8
  0
DICTIONARY
  5
5E9C
330
5E9B
100
AcDbDictionary
280
     1
281
     1
  3
ACAD_DIMASSOC
360
5E9D
  0
DICTIONARY
  5
5E9F
330
5E9E
100
AcDbDictionary
280
     1
281
     1
  3
ACAD_DIMASSOC
360
5EA0
  0
DICTIONARY
  5
5EA2
330
5EA1
100
AcDbDictionary
280
     1
281
     1
  3
ACAD_DIMASSOC
360
5EA3
  0
DICTIONARY
  5
5EA5
330
5EA4
100
AcDbDictionary
280
     1
281
     1
  3
ACAD_DIMASSOC
360
5EA6
  0
DICTIONARY
  5
5EA8
330
5EA7
100
AcDbDictionary
280
     1
281
     1
  3
ACAD_DIMASSOC
360
5EA9
  0
DICTIONARY
  5
5EAB
330
5EAA
100
AcDbDictionary
280
     1
281
     1
  3
ACAD_DIMASSOC
360
5EAC
  0
DICTIONARY
  5
5EAE
330
5EAD
100
AcDbDictionary
280
     1
281
     1
  3
ACAD_DIMASSOC
360
5EAF
  0
DICTIONARY
  5
5EB1
330
5EB0
100
AcDbDictionary
280
     1
281
     1
  3
ACAD_DIMASSOC
360
5EB2
  0
DICTIONARY
  5
5EB4
330
5EB3
100
AcDbDictionary
280
     1
281
     1
  3
ACAD_DIMASSOC
360
5EB5
  0
DICTIONARY
  5
5EB7
330
5EB6
100
AcDbDictionary
280
     1
281
     1
  3
ACAD_DIMASSOC
360
5EB8
  0
DICTIONARY
  5
5EBA
330
5EB9
100
AcDbDictionary
280
     1
281
     1
  3
ACAD_DIMASSOC
360
5EBB
  0
DICTIONARY
  5
5EC1
330
5EC0
100
AcDbDictionary
280
     1
281
     1
  3
ACAD_DIMASSOC
360
5EC2
  0
DICTIONARY
  5
5EC6
330
5EC5
100
AcDbDictionary
280
     1
281
     1
  3
ACAD_DIMASSOC
360
5EC7
  0
DICTIONARY
  5
5EC9
330
5EC8
100
AcDbDictionary
280
     1
281
     1
  3
ACAD_DIMASSOC
360
5ECA
  0
DICTIONARY
  5
5ECC
330
5ECB
100
AcDbDictionary
280
     1
281
     1
  3
ACAD_DIMASSOC
360
5ECD
  0
DICTIONARY
  5
5ED2
330
5ED1
100
AcDbDictionary
280
     1
281
     1
  3
ACAD_DIMASSOC
360
5ED3
  0
DICTIONARY
  5
5ED7
330
5ED6
100
AcDbDictionary
280
     1
281
     1
  3
ACAD_DIMASSOC
360
5ED8
  0
DICTIONARY
  5
5EDA
330
5ED9
100
AcDbDictionary
280
     1
281
     1
  3
ACAD_DIMASSOC
360
5EDB
  0
DICTIONARY
  5
5EDD
330
5EDC
100
AcDbDictionary
280
     1
281
     1
  3
ACAD_DIMASSOC
360
5EDE
  0
DICTIONARY
  5
5EE0
330
5EDF
100
AcDbDictionary
280
     1
281
     1
  3
ACAD_DIMASSOC
360
5EE1
  0
DICTIONARY
  5
5EE3
330
5EE2
100
AcDbDictionary
280
     1
281
     1
  3
ACAD_DIMASSOC
360
5EE4
  0
DICTIONARY
  5
5EE6
330
5EE5
100
AcDbDictionary
280
     1
281
     1
  3
ACAD_DIMASSOC
360
5EE7
  0
DICTIONARY
  5
5EE9
330
5EE8
100
AcDbDictionary
280
     1
281
     1
  3
ACAD_DIMASSOC
360
5EEA
  0
DICTIONARY
  5
5EEC
330
5EEB
100
AcDbDictionary
280
     1
281
     1
  3
ACAD_DIMASSOC
360
5EED
  0
DICTIONARY
  5
5EEF
330
5EEE
100
AcDbDictionary
280
     1
281
     1
  3
ACAD_DIMASSOC
360
5EF0
  0
DICTIONARY
  5
5EF4
330
5EF3
100
AcDbDictionary
280
     1
281
     1
  3
ACAD_DIMASSOC
360
5EF5
  0
DICTIONARY
  5
5EF7
330
5EF6
100
AcDbDictionary
280
     1
281
     1
  3
ACAD_DIMASSOC
360
5EF8
  0
DICTIONARY
  5
5EFA
330
5EF9
100
AcDbDictionary
280
     1
281
     1
  3
ACAD_DIMASSOC
360
5EFB
  0
DICTIONARY
  5
5EFD
330
5EFC
100
AcDbDictionary
280
     1
281
     1
  3
ACAD_DIMASSOC
360
5EFE
  0
DICTIONARY
  5
5F00
330
5EFF
100
AcDbDictionary
280
     1
281
     1
  3
ACAD_DIMASSOC
360
5F01
  0
DICTIONARY
  5
5825
102
{ACAD_REACTORS
330
C
102
}
330
C
100
AcDbDictionary
281
     1
  0
DICTIONARY
  5
D
102
{ACAD_REACTORS
330
C
102
}
330
C
100
AcDbDictionary
281
     1
  0
DICTIONARY
  5
1A
102
{ACAD_REACTORS
330
C
102
}
330
C
100
AcDbDictionary
281
     1
  3
Layout1
350
1E
  3
Layout2
350
26
  3
Model
350
22
  0
DICTIONARY
  5
5824
102
{ACAD_REACTORS
330
C
102
}
330
C
100
AcDbDictionary
281
     1
  0
DICTIONARY
  5
17
102
{ACAD_REACTORS
330
C
102
}
330
C
100
AcDbDictionary
281
     1
  3
Standard
350
18
  0
DICTIONARY
  5
19
102
{ACAD_REACTORS
330
C
102
}
330
C
100
AcDbDictionary
281
     1
  0
ACDBDICTIONARYWDFLT
  5
E
102
{ACAD_REACTORS
330
C
102
}
330
C
100
AcDbDictionary
281
     1
  3
Normal
350
F
100
AcDbDictionaryWithDefault
340
F
1001
ACAD
1000
TREAT_AS_HARD
1070
     0
  0
DICTIONARY
  5
5826
102
{ACAD_REACTORS
330
C
102
}
330
C
100
AcDbDictionary
281
     1
  3
Standard
350
5827
  0
XRECORD
  5
1E82
102
{ACAD_REACTORS
330
C
102
}
330
C
100
AcDbXrecord
280
     1
 90
   990106
  3

 60
     0
 61
     0
 62
     4
 63
     4
 64
     1
 65
     0
 66
     0
 67
     3
 68
     1
 69
     0
 70
     0
 71
     0
 72
     0
 40
0.0
170
     2
340
0
  0
ACAD_PROXY_OBJECT
  5
721F
102
{ACAD_REACTORS
330
C
102
}
330
C
100
AcDbProxyObject
 90
      499
 91
      579
 95
  2555929
 70
     0
 93
       10
310
4040
 94
        0
1001
ACAD
1000
AcRTDxfName
1000
ASAPP
  0
ACAD_PROXY_OBJECT
  5
7266
102
{ACAD_REACTORS
330
C
102
}
330
C
100
AcDbProxyObject
 90
      499
 91
      584
 95
  2555929
 70
     0
 93
       34
310
0100004069
 94
        0
1001
ACAD
1000
AcRTDxfName
1000
ACASGREFMASTER
  0
DICTIONARY
  5
72F6
102
{ACAD_REACTORS
330
C
102
}
330
C
100
AcDbDictionary
281
     1
  0
DICTIONARY
  5
1488
102
{ACAD_REACTORS
330
C
102
}
330
C
100
AcDbDictionary
281
     1
  3
CTABLESTYLE
350
6147
  3
DIMASSOC
350
6D10
  3
INDEXCTL
350
72F3
  3
PROJECTNAME
350
6D11
  3
SORTENTS
350
1489
  0
DICTIONARY
  5
6680
102
{ACAD_REACTORS
330
C
102
}
330
C
100
AcDbDictionary
281
     1
  3
AcmStdDictionary
350
668D
  3
AMDTSECTSYM_ARROWCOLOR
350
66A8
  0
ACAD_PROXY_OBJECT
  5
7267
102
{ACAD_REACTORS
330
C
102
}
330
C
100
AcDbProxyObject
 90
      499
 91
      585
 95
  2555929
 70
     0
 93
      114
310
00000043808000000000000000003E
 94
        0
1001
ACAD
1000
AcRTDxfName
1000
ACADGREFMODULE
  0
ACAD_PROXY_OBJECT
  5
7279
102
{ACAD_REACTORS
330
C
102
}
330
C
100
AcDbProxyObject
 90
      499
 91
      587
 95
  2555929
 70
     0
 93
       34
310
05000044FE
 94
        0
1001
ACAD
1000
AcRTDxfName
1000
MAPIADMODULE
  0
DICTIONARY
  5
662C
102
{ACAD_REACTORS
330
C
102
}
330
C
100
AcDbDictionary
281
     1
  0
DICTIONARY
  5
675F
102
{ACAD_REACTORS
330
C
102
}
330
C
100
AcDbDictionary
281
     1
  0
XRECORD
  5
72F5
102
{ACAD_REACTORS
330
C
102
}
330
C
100
AcDbXrecord
280
     1
  1
DWGPROPS COOKIE
  2

  3

  4

  6

  7

  8

  9

300
AmdtFileType=84
301
=
302
=
303
=
304
=
305
=
306
=
307
=
308
=
309
=
 40
0.4281966898148148
 41
2452019.631085301
 42
2454329.446498472
  1

 90
        1
  0
ACAD_PROXY_OBJECT
  5
7268
102
{ACAD_REACTORS
330
C
102
}
330
C
100
AcDbProxyObject
 90
      499
 91
      586
 95
  2555929
 70
     0
 93
        8
310
047E
 94
        0
1001
ACAD
1000
AcRTDxfName
1000
AMDTMAPISURFMOUDULE
  0
DICTIONARY
  5
59C0
102
{ACAD_REACTORS
330
59BF
102
}
330
59BF
100
AcDbDictionary
281
     1
  0
DICTIONARY
  5
729E
102
{ACAD_REACTORS
330
5790
102
}
330
5790
100
AcDbDictionary
281
     1
  3
*A1
350
729F
  0
XRECORD
  5
57CA
102
{ACAD_REACTORS
330
5790
102
}
330
5790
100
AcDbXrecord
280
     1
340
1F
  0
SORTENTSTABLE
  5
70DF
102
{ACAD_REACTORS
330
5790
102
}
330
5790
100
AcDbSortentsTable
330
1F
331
5CCE
  5
5CCE
331
5D44
  5
5D44
331
6781
  5
6781
331
5DA0
  5
5DA0
331
5E5D
  5
5E5D
331
5DA8
  5
5DA8
331
5DE7
  5
5DE7
331
5E1E
  5
5E1E
331
5E94
  5
5E94
331
70A9
  5
70A9
331
704A
  5
704A
331
5E26
  5
5E26
331
6791
  5
6791
331
5DB0
  5
5DB0
331
5DEF
  5
5DEF
331
5E65
  5
5E65
331
67F8
  5
67F8
331
70B1
  5
70B1
331
5EA4
  5
5EA4
331
5DF7
  5
5DF7
331
5DB8
  5
5DB8
331
5E2E
  5
5E2E
331
5E6D
  5
5E6D
331
5E36
  5
5E36
331
7082
  5
7082
331
6E74
  5
6E74
331
187A
  5
187A
331
5D4C
  5
5D4C
331
5C97
  5
5C97
331
1882
  5
1882
331
5CD6
  5
5CD6
331
5D0D
  5
5D0D
331
5D15
  5
5D15
331
5C68
  5
5C68
331
188A
  5
188A
331
17C3
  5
17C3
331
5C9F
  5
5C9F
331
5CDE
  5
5CDE
331
5D54
  5
5D54
331
5D1D
  5
5D1D
331
5C70
  5
5C70
331
1803
  5
1803
331
5CA7
  5
5CA7
331
5CE6
  5
5CE6
331
5D5C
  5
5D5C
331
5CEE
  5
5CEE
331
5CAF
  5
5CAF
331
5D25
  5
5D25
331
5D64
  5
5D64
331
60DD
  5
60DD
331
5D81
  5
5D81
331
5DC0
  5
5DC0
331
5E75
  5
5E75
331
5DC8
  5
5DC8
331
676A
  5
676A
331
5D89
  5
5D89
331
5DFF
  5
5DFF
331
5E3E
  5
5E3E
331
5EEB
  5
5EEB
331
5EF3
  5
5EF3
331
5E46
  5
5E46
331
5DD0
  5
5DD0
331
6772
  5
6772
331
5D91
  5
5D91
331
5E07
  5
5E07
331
5E7D
  5
5E7D
331
5EBC
  5
5EBC
331
708A
  5
708A
331
5E4E
  5
5E4E
331
677A
  5
677A
331
5D99
  5
5D99
331
5DD8
  5
5DD8
331
5E0F
  5
5E0F
331
5E85
  5
5E85
331
7092
  5
7092
331
5E17
  5
5E17
331
5E56
  5
5E56
331
5E8D
  5
5E8D
331
67B1
  5
67B1
331
70A2
  5
70A2
331
180B
  5
180B
331
5C78
  5
5C78
331
5D6C
  5
5D6C
331
5CB7
  5
5CB7
331
5C80
  5
5C80
331
5CF6
  5
5CF6
331
5D2D
  5
5D2D
331
5D35
  5
5D35
331
5C88
  5
5C88
331
186B
  5
186B
331
5CBF
  5
5CBF
331
5CFE
  5
5CFE
331
5D74
  5
5D74
331
5D06
  5
5D06
331
5CC7
  5
5CC7
331
1873
  5
1873
331
5D3D
  5
5D3D
331
5D7C
  5
5D7C
331
5D45
  5
5D45
331
5CCF
  5
5CCF
331
6782
  5
6782
331
5DA1
  5
5DA1
331
5DE0
  5
5DE0
331
5E95
  5
5E95
331
5DE8
  5
5DE8
331
60CE
  5
60CE
331
5DA9
  5
5DA9
331
5E1F
  5
5E1F
331
5E5E
  5
5E5E
331
5ED4
  5
5ED4
331
70AA
  5
70AA
331
704B
  5
704B
331
5EDC
  5
5EDC
331
5DF0
  5
5DF0
331
6792
  5
6792
331
5DB1
  5
5DB1
331
5E27
  5
5E27
331
5E66
  5
5E66
331
67F9
  5
67F9
331
70B2
  5
70B2
331
5E6E
  5
5E6E
331
5DB9
  5
5DB9
331
5E2F
  5
5E2F
331
5E37
  5
5E37
331
5EAD
  5
5EAD
331
7083
  5
7083
331
187B
  5
187B
331
17B4
  5
17B4
331
5C90
  5
5C90
331
5CD7
  5
5CD7
331
1883
  5
1883
331
5C98
  5
5C98
331
5D0E
  5
5D0E
331
5D4D
  5
5D4D
331
5CDF
  5
5CDF
331
5C69
  5
5C69
331
17C4
  5
17C4
331
188B
  5
188B
331
5CA0
  5
5CA0
331
5D16
  5
5D16
331
5D55
  5
5D55
331
5D5D
  5
5D5D
331
5CA8
  5
5CA8
331
1804
  5
1804
331
5C71
  5
5C71
331
5CE7
  5
5CE7
331
5D1E
  5
5D1E
331
5D26
  5
5D26
331
5CEF
  5
5CEF
331
5D65
  5
5D65
331
A9
  5
A9
331
B1
  5
B1
331
5D82
  5
5D82
331
5DC1
  5
5DC1
331
5DF8
  5
5DF8
331
5E3F
  5
5E3F
331
676B
  5
676B
331
5D8A
  5
5D8A
331
5DC9
  5
5DC9
331
5E00
  5
5E00
331
5E76
  5
5E76
331
5EBD
  5
5EBD
331
5E08
  5
5E08
331
6773
  5
6773
331
5D92
  5
5D92
331
5DD1
  5
5DD1
331
5E47
  5
5E47
331
5E7E
  5
5E7E
331
708B
  5
708B
331
7093
  5
7093
331
5E86
  5
5E86
331
5DD9
  5
5DD9
331
677B
  5
677B
331
5D9A
  5
5D9A
331
5E10
  5
5E10
331
5E4F
  5
5E4F
331
5EC5
  5
5EC5
331
5EFC
  5
5EFC
331
67AA
  5
67AA
331
5F04
  5
5F04
331
5E57
  5
5E57
331
5E8E
  5
5E8E
331
67B2
  5
67B2
331
70A3
  5
70A3
331
5C79
  5
5C79
331
180C
  5
180C
331
5CB0
  5
5CB0
331
5D2E
  5
5D2E
331
5C81
  5
5C81
331
5CB8
  5
5CB8
331
5CF7
  5
5CF7
331
5D6D
  5
5D6D
331
5CFF
  5
5CFF
331
186C
  5
186C
331
5C89
  5
5C89
331
5CC0
  5
5CC0
331
5D36
  5
5D36
331
5D75
  5
5D75
331
5D7D
  5
5D7D
331
5CC8
  5
5CC8
331
1874
  5
1874
331
5D07
  5
5D07
331
5D3E
  5
5D3E
331
5D46
  5
5D46
331
5DE1
  5
5DE1
331
6783
  5
6783
331
5DA2
  5
5DA2
331
5E18
  5
5E18
331
5E5F
  5
5E5F
331
5DAA
  5
5DAA
331
5DE9
  5
5DE9
331
5E20
  5
5E20
331
5E96
  5
5E96
331
5ED5
  5
5ED5
331
70AB
  5
70AB
331
67FA
  5
67FA
331
5DF1
  5
5DF1
331
60D7
  5
60D7
331
6793
  5
6793
331
5DB2
  5
5DB2
331
5E28
  5
5E28
331
5E67
  5
5E67
331
5E9E
  5
5E9E
331
70B3
  5
70B3
331
5EE5
  5
5EE5
331
5E30
  5
5E30
331
5DBA
  5
5DBA
331
5E6F
  5
5E6F
331
7084
  5
7084
331
5CD0
  5
5CD0
331
17B5
  5
17B5
331
187C
  5
187C
331
5C91
  5
5C91
331
5D4E
  5
5D4E
331
5C99
  5
5C99
331
17BD
  5
17BD
331
5CD8
  5
5CD8
331
5D0F
  5
5D0F
331
5D17
  5
5D17
331
5C6A
  5
5C6A
331
188C
  5
188C
331
17C5
  5
17C5
331
5CA1
  5
5CA1
331
5CE0
  5
5CE0
331
5D56
  5
5D56
331
5CE8
  5
5CE8
331
1805
  5
1805
331
5C72
  5
5C72
331
5CA9
  5
5CA9
331
5D1F
  5
5D1F
331
5D5E
  5
5D5E
331
5D27
  5
5D27
331
5D66
  5
5D66
331
AA
  5
AA
331
B2
  5
B2
331
5DF9
  5
5DF9
331
5D83
  5
5D83
331
5DC2
  5
5DC2
331
5E38
  5
5E38
331
5E77
  5
5E77
331
5DCA
  5
5DCA
331
676C
  5
676C
331
5D8B
  5
5D8B
331
5E01
  5
5E01
331
5E40
  5
5E40
331
5EB6
  5
5EB6
331
708C
  5
708C
331
5E48
  5
5E48
331
6774
  5
6774
331
5D93
  5
5D93
331
5DD2
  5
5DD2
331
5E09
  5
5E09
331
5E7F
  5
5E7F
331
5EBE
  5
5EBE
331
7094
  5
7094
331
67AB
  5
67AB
331
5E50
  5
5E50
331
677C
  5
677C
331
5D9B
  5
5D9B
331
5DDA
  5
5DDA
331
5E11
  5
5E11
331
5E87
  5
5E87
331
709C
  5
709C
331
67B3
  5
67B3
331
5F05
  5
5F05
331
5E8F
  5
5E8F
331
70A4
  5
70A4
331
5CF0
  5
5CF0
331
180D
  5
180D
331
5C7A
  5
5C7A
331
5CB1
  5
5CB1
331
5D6E
  5
5D6E
331
5CB9
  5
5CB9
331
5C82
  5
5C82
331
5CF8
  5
5CF8
331
5D2F
  5
5D2F
331
5D37
  5
5D37
331
5C8A
  5
5C8A
331
186D
  5
186D
331
5CC1
  5
5CC1
331
5D00
  5
5D00
331
5D76
  5
5D76
331
5D3F
  5
5D3F
331
5CC9
  5
5CC9
331
1875
  5
1875
331
5D7E
  5
5D7E
331
5D47
  5
5D47
331
5E19
  5
5E19
331
6784
  5
6784
331
5DA3
  5
5DA3
331
5DE2
  5
5DE2
331
5E58
  5
5E58
331
5E97
  5
5E97
331
5DEA
  5
5DEA
331
678C
  5
678C
331
5DAB
  5
5DAB
331
5E21
  5
5E21
331
5E60
  5
5E60
331
5ED6
  5
5ED6
331
70AC
  5
70AC
331
5E68
  5
5E68
331
5DF2
  5
5DF2
331
6794
  5
6794
331
5DB3
  5
5DB3
331
5E29
  5
5E29
331
70B4
  5
70B4
331
5EA7
  5
5EA7
331
5DBB
  5
5DBB
331
5E31
  5
5E31
331
707D
  5
707D
331
7085
  5
7085
331
5D08
  5
5D08
331
187D
  5
187D
331
5C92
  5
5C92
331
5CD1
  5
5CD1
331
5CD9
  5
5CD9
331
17BE
  5
17BE
331
1885
  5
1885
331
5C9A
  5
5C9A
331
5D10
  5
5D10
331
5D4F
  5
5D4F
331
5D57
  5
5D57
331
5CE1
  5
5CE1
331
5C6B
  5
5C6B
331
17C6
  5
17C6
331
188D
  5
188D
331
5CA2
  5
5CA2
331
5D18
  5
5D18
331
5D5F
  5
5D5F
331
5CAA
  5
5CAA
331
1806
  5
1806
331
5C73
  5
5C73
331
5CE9
  5
5CE9
331
5D20
  5
5D20
331
5D67
  5
5D67
331
AB
  5
AB
331
5E39
  5
5E39
331
10B3
  5
10B3
331
60E0
  5
60E0
331
5D84
  5
5D84
331
5DC3
  5
5DC3
331
5DFA
  5
5DFA
331
5E70
  5
5E70
331
679C
  5
679C
331
5EEE
  5
5EEE
331
5E02
  5
5E02
331
676D
  5
676D
331
5D8C
  5
5D8C
331
5DCB
  5
5DCB
331
5E41
  5
5E41
331
5E78
  5
5E78
331
708D
  5
708D
331
67A4
  5
67A4
331
5EBF
  5
5EBF
331
5E0A
  5
5E0A
331
6775
  5
6775
331
5D94
  5
5D94
331
5DD3
  5
5DD3
331
5E49
  5
5E49
331
5E80
  5
5E80
331
5EF6
  5
5EF6
331
7095
  5
7095
331
67AC
  5
67AC
331
5E88
  5
5E88
331
5DDB
  5
5DDB
331
677D
  5
677D
331
5D9C
  5
5D9C
331
5E12
  5
5E12
331
5E51
  5
5E51
331
709D
  5
709D
331
67B4
  5
67B4
331
70A5
  5
70A5
331
5D28
  5
5D28
331
5C7B
  5
5C7B
331
180E
  5
180E
331
5CB2
  5
5CB2
331
5CF1
  5
5CF1
331
5CF9
  5
5CF9
331
5C83
  5
5C83
331
5CBA
  5
5CBA
331
5D30
  5
5D30
331
5D6F
  5
5D6F
331
5D01
  5
5D01
331
186E
  5
186E
331
5C8B
  5
5C8B
331
5CC2
  5
5CC2
331
5D38
  5
5D38
331
5D77
  5
5D77
331
5D7F
  5
5D7F
331
5CCA
  5
5CCA
331
1876
  5
1876
331
5D40
  5
5D40
331
5E59
  5
5E59
331
5DA4
  5
5DA4
331
5DE3
  5
5DE3
331
5E1A
  5
5E1A
331
5E90
  5
5E90
331
5E61
  5
5E61
331
678D
  5
678D
331
60D1
  5
60D1
331
5DAC
  5
5DAC
331
5DEB
  5
5DEB
331
5E22
  5
5E22
331
5E98
  5
5E98
331
70AD
  5
70AD
331
5EDF
  5
5EDF
331
5DF3
  5
5DF3
331
6795
  5
6795
331
5DB4
  5
5DB4
331
5E2A
  5
5E2A
331
5E69
  5
5E69
331
5E32
  5
5E32
331
5DBC
  5
5DBC
331
707E
  5
707E
331
7086
  5
7086
331
5D48
  5
5D48
331
5C93
  5
5C93
331
187E
  5
187E
331
5CD2
  5
5CD2
331
5D09
  5
5D09
331
5D50
  5
5D50
331
5C9B
  5
5C9B
331
17BF
  5
17BF
331
1886
  5
1886
331
5CDA
  5
5CDA
331
5D11
  5
5D11
331
70CD
  5
70CD
331
5D19
  5
5D19
331
5C6C
  5
5C6C
331
188E
  5
188E
331
17C7
  5
17C7
331
5CA3
  5
5CA3
331
5CE2
  5
5CE2
331
5D58
  5
5D58
331
5CEA
  5
5CEA
331
1807
  5
1807
331
5C74
  5
5C74
331
5CAB
  5
5CAB
331
5D21
  5
5D21
331
5D60
  5
5D60
331
AC
  5
AC
331
5E71
  5
5E71
331
5DFB
  5
5DFB
331
5D85
  5
5D85
331
5DC4
  5
5DC4
331
5E3A
  5
5E3A
331
5EB0
  5
5EB0
331
5E79
  5
5E79
331
5DCC
  5
5DCC
331
676E
  5
676E
331
6148
  5
6148
331
5D8D
  5
5D8D
331
5E03
  5
5E03
331
5E42
  5
5E42
331
708E
  5
708E
331
5E4A
  5
5E4A
331
6776
  5
6776
331
5D95
  5
5D95
331
5DD4
  5
5DD4
331
5E0B
  5
5E0B
331
5E81
  5
5E81
331
5EC0
  5
5EC0
331
67A5
  5
67A5
331
5EC8
  5
5EC8
331
5E13
  5
5E13
331
677E
  5
677E
331
5D9D
  5
5D9D
331
5DDC
  5
5DDC
331
5E52
  5
5E52
331
5E89
  5
5E89
331
5EFF
  5
5EFF
331
67AD
  5
67AD
331
709E
  5
709E
331
67B5
  5
67B5
331
70A6
  5
70A6
331
5D68
  5
5D68
331
5CF2
  5
5CF2
331
180F
  5
180F
331
5C7C
  5
5C7C
331
5CB3
  5
5CB3
331
5D29
  5
5D29
331
5D70
  5
5D70
331
5CBB
  5
5CBB
331
5C84
  5
5C84
331
5CFA
  5
5CFA
331
5D31
  5
5D31
331
5D02
  5
5D02
331
5C8C
  5
5C8C
331
186F
  5
186F
331
5CC3
  5
5CC3
331
5D39
  5
5D39
331
5D78
  5
5D78
331
5D41
  5
5D41
331
1877
  5
1877
331
5CCB
  5
5CCB
331
5E1B
  5
5E1B
331
5DA5
  5
5DA5
331
5DE4
  5
5DE4
331
5E5A
  5
5E5A
331
5E91
  5
5E91
331
5E99
  5
5E99
331
5DEC
  5
5DEC
331
5DAD
  5
5DAD
331
5E23
  5
5E23
331
5E62
  5
5E62
331
67F5
  5
67F5
331
5E6A
  5
5E6A
331
6796
  5
6796
331
5DB5
  5
5DB5
331
5DF4
  5
5DF4
331
5E2B
  5
5E2B
331
5EA1
  5
5EA1
331
70AE
  5
70AE
331
5DBD
  5
5DBD
331
5E33
  5
5E33
331
707F
  5
707F
331
7087
  5
7087
331
5D0A
  5
5D0A
331
187F
  5
187F
331
5C94
  5
5C94
331
5CD3
  5
5CD3
331
5D49
  5
5D49
331
5CDB
  5
5CDB
331
17C0
  5
17C0
331
1887
  5
1887
331
5C9C
  5
5C9C
331
5D12
  5
5D12
331
5D51
  5
5D51
331
5D59
  5
5D59
331
5CA4
  5
5CA4
331
5C6D
  5
5C6D
331
188F
  5
188F
331
5CE3
  5
5CE3
331
5D1A
  5
5D1A
331
5D61
  5
5D61
331
5CAC
  5
5CAC
331
5C75
  5
5C75
331
5CEB
  5
5CEB
331
5D22
  5
5D22
331
60DA
  5
60DA
331
5EE8
  5
5EE8
331
5E3B
  5
5E3B
331
6767
  5
6767
331
5D86
  5
5D86
331
5DC5
  5
5DC5
331
5DFC
  5
5DFC
331
5E72
  5
5E72
331
5EB9
  5
5EB9
331
5E04
  5
5E04
331
676F
  5
676F
331
6149
  5
6149
331
5D8E
  5
5D8E
331
5DCD
  5
5DCD
331
5E43
  5
5E43
331
5E7A
  5
5E7A
331
708F
  5
708F
331
5E82
  5
5E82
331
5E0C
  5
5E0C
331
6777
  5
6777
331
5D96
  5
5D96
331
5DD5
  5
5DD5
331
5E4B
  5
5E4B
331
67A6
  5
67A6
331
5E8A
  5
5E8A
331
5DDD
  5
5DDD
331
677F
  5
677F
331
5D9E
  5
5D9E
331
5E14
  5
5E14
331
5E53
  5
5E53
331
67AE
  5
67AE
331
709F
  5
709F
331
70A7
  5
70A7
331
1808
  5
1808
331
5D2A
  5
5D2A
331
5C7D
  5
5C7D
331
18E7
  5
18E7
331
1810
  5
1810
331
5CB4
  5
5CB4
331
5CF3
  5
5CF3
331
5D69
  5
5D69
331
5CFB
  5
5CFB
331
1868
  5
1868
331
5C85
  5
5C85
331
5CBC
  5
5CBC
331
5D32
  5
5D32
331
5D71
  5
5D71
331
5D79
  5
5D79
331
5D03
  5
5D03
331
1870
  5
1870
331
5C8D
  5
5C8D
331
5CC4
  5
5CC4
331
5D3A
  5
5D3A
331
5CCC
  5
5CCC
331
5D42
  5
5D42
331
5E5B
  5
5E5B
331
5DA6
  5
5DA6
331
5DE5
  5
5DE5
331
5E1C
  5
5E1C
331
5E92
  5
5E92
331
5ED1
  5
5ED1
331
5ED9
  5
5ED9
331
5E24
  5
5E24
331
5DAE
  5
5DAE
331
5DED
  5
5DED
331
5E63
  5
5E63
331
5E9A
  5
5E9A
331
67F6
  5
67F6
331
5DF5
  5
5DF5
331
6797
  5
6797
331
5DB6
  5
5DB6
331
5E2C
  5
5E2C
331
5E6B
  5
5E6B
331
70AF
  5
70AF
331
5EAA
  5
5EAA
331
5E34
  5
5E34
331
5DBE
  5
5DBE
331
7080
  5
7080
331
6E72
  5
6E72
331
1878
  5
1878
331
5D4A
  5
5D4A
331
5C95
  5
5C95
331
1880
  5
1880
331
5CD4
  5
5CD4
331
5D0B
  5
5D0B
331
5D13
  5
5D13
331
1888
  5
1888
331
5C9D
  5
5C9D
331
5CDC
  5
5CDC
331
5D52
  5
5D52
331
5D1B
  5
5D1B
331
5C6E
  5
5C6E
331
1890
  5
1890
331
5CA5
  5
5CA5
331
5CE4
  5
5CE4
331
5D5A
  5
5D5A
331
5CEC
  5
5CEC
331
5C76
  5
5C76
331
5CAD
  5
5CAD
331
5D23
  5
5D23
331
5D62
  5
5D62
331
5E73
  5
5E73
331
5DC6
  5
5DC6
331
60E3
  5
60E3
331
6768
  5
6768
331
5D87
  5
5D87
331
5DFD
  5
5DFD
331
5E3C
  5
5E3C
331
5E7B
  5
5E7B
331
5DCE
  5
5DCE
331
6770
  5
6770
331
5D8F
  5
5D8F
331
5E05
  5
5E05
331
5E44
  5
5E44
331
7088
  5
7088
331
5EF9
  5
5EF9
331
5E4C
  5
5E4C
331
6778
  5
6778
331
5D97
  5
5D97
331
5DD6
  5
5DD6
331
5E0D
  5
5E0D
331
5E83
  5
5E83
331
7090
  5
7090
331
5E15
  5
5E15
331
5D9F
  5
5D9F
331
5DDE
  5
5DDE
331
5E54
  5
5E54
331
5E8B
  5
5E8B
331
67AF
  5
67AF
331
70A0
  5
70A0
331
1809
  5
1809
331
5D6A
  5
5D6A
331
5CB5
  5
5CB5
331
5C7E
  5
5C7E
331
5CF4
  5
5CF4
331
5D2B
  5
5D2B
331
5D72
  5
5D72
331
5CBD
  5
5CBD
331
1869
  5
1869
331
5C86
  5
5C86
331
5CFC
  5
5CFC
331
5D33
  5
5D33
331
5D04
  5
5D04
331
5C8E
  5
5C8E
331
1871
  5
1871
331
5CC5
  5
5CC5
331
5D3B
  5
5D3B
331
5D7A
  5
5D7A
331
5D43
  5
5D43
331
5CCD
  5
5CCD
331
6780
  5
6780
331
5E93
  5
5E93
331
5E1D
  5
5E1D
331
6788
  5
6788
331
5DA7
  5
5DA7
331
5DE6
  5
5DE6
331
5E5C
  5
5E5C
331
70A8
  5
70A8
331
5E9B
  5
5E9B
331
5DEE
  5
5DEE
331
60D4
  5
60D4
331
5DAF
  5
5DAF
331
5E25
  5
5E25
331
5E64
  5
5E64
331
67F7
  5
67F7
331
70B0
  5
70B0
331
5EE2
  5
5EE2
331
5E6C
  5
5E6C
331
5DB7
  5
5DB7
331
5DF6
  5
5DF6
331
5E2D
  5
5E2D
331
5E35
  5
5E35
331
5DBF
  5
5DBF
331
7081
  5
7081
331
1879
  5
1879
331
5D0C
  5
5D0C
331
1881
  5
1881
331
5C96
  5
5C96
331
5CD5
  5
5CD5
331
5D4B
  5
5D4B
331
5CDD
  5
5CDD
331
1889
  5
1889
331
5C9E
  5
5C9E
331
5D14
  5
5D14
331
5D53
  5
5D53
331
5D5B
  5
5D5B
331
5CA6
  5
5CA6
331
5C6F
  5
5C6F
331
1802
  5
1802
331
1891
  5
1891
331
5CE5
  5
5CE5
331
5D1C
  5
5D1C
331
5D24
  5
5D24
331
5CAE
  5
5CAE
331
5C77
  5
5C77
331
5CED
  5
5CED
331
5D63
  5
5D63
331
5D80
  5
5D80
331
5E3D
  5
5E3D
331
6769
  5
6769
331
5D88
  5
5D88
331
5DC7
  5
5DC7
331
5DFE
  5
5DFE
331
5E74
  5
5E74
331
5EB3
  5
5EB3
331
6798
  5
6798
331
7089
  5
7089
331
5E06
  5
5E06
331
6771
  5
6771
331
5D90
  5
5D90
331
5DCF
  5
5DCF
331
5E45
  5
5E45
331
5E7C
  5
5E7C
331
67A0
  5
67A0
331
5E84
  5
5E84
331
5DD7
  5
5DD7
331
6779
  5
6779
331
5D98
  5
5D98
331
5E0E
  5
5E0E
331
5E4D
  5
5E4D
331
7091
  5
7091
331
5E8C
  5
5E8C
331
5DDF
  5
5DDF
331
5E16
  5
5E16
331
5E55
  5
5E55
331
5ECB
  5
5ECB
331
67B0
  5
67B0
331
70A1
  5
70A1
331
180A
  5
180A
331
5D2C
  5
5D2C
331
5C7F
  5
5C7F
331
5CB6
  5
5CB6
331
5CF5
  5
5CF5
331
5D6B
  5
5D6B
331
5CFD
  5
5CFD
331
186A
  5
186A
331
5C87
  5
5C87
331
5CBE
  5
5CBE
331
5D34
  5
5D34
331
5D73
  5
5D73
331
5D7B
  5
5D7B
331
5CC6
  5
5CC6
331
1872
  5
1872
331
5C8F
  5
5C8F
331
5D05
  5
5D05
331
5D3C
  5
5D3C
  0
XRECORD
  5
57C9
102
{ACAD_REACTORS
330
5792
102
}
330
5792
100
AcDbXrecord
280
     1
340
1B
  0
XRECORD
  5
57CB
102
{ACAD_REACTORS
330
5794
102
}
330
5794
100
AcDbXrecord
280
     1
340
23
  0
SORTENTSTABLE
  5
70E8
102
{ACAD_REACTORS
330
70E7
102
}
330
70E7
100
AcDbSortentsTable
330
70E2
  0
DIMASSOC
  5
5E9D
102
{ACAD_REACTORS
330
5E9C
102
}
330
5E9C
100
AcDbDimAssoc
330
5E9B
 90
        3
 70
     0
 71
     0
  1
AcDbOsnapPointRef
 72
     6
331
5E1E
 73
     2
 91
        0
 40
0.9999999999999978
 10
0.0
 20
0.0
 30
0.0
332
5E28
 74
     2
 92
        0
 75
     0
  1
AcDbOsnapPointRef
 72
     1
331
5E1C
 73
     2
 91
        0
 40
1.0
 10
0.0
 20
0.0
 30
2.000000000000000E+50
 75
     0
  0
DIMASSOC
  5
5EA0
102
{ACAD_REACTORS
330
5E9F
102
}
330
5E9F
100
AcDbDimAssoc
330
5E9E
 90
        3
 70
     0
 71
     0
  1
AcDbOsnapPointRef
 72
    13
331
5E2F
 73
     2
 91
        0
 40
0.0
 10
0.0
 20
0.0
 30
2.000000000000000E+50
 75
     0
  1
AcDbOsnapPointRef
 72
    13
331
5E49
 73
     2
 91
        0
 40
0.0
 10
0.0
 20
0.0
 30
2.000000000000000E+50
 75
     0
  0
DIMASSOC
  5
5EA3
102
{ACAD_REACTORS
330
5EA2
102
}
330
5EA2
100
AcDbDimAssoc
330
5EA1
 90
        3
 70
     0
 71
     0
  1
AcDbOsnapPointRef
 72
    13
331
5E45
 73
     2
 91
        0
 40
0.0
 10
0.0
 20
0.0
 30
2.000000000000000E+50
 75
     0
  1
AcDbOsnapPointRef
 72
    13
331
5E49
 73
     2
 91
        0
 40
0.0
 10
0.0
 20
0.0
 30
2.000000000000000E+50
 75
     0
  0
DIMASSOC
  5
5EA6
102
{ACAD_REACTORS
330
5EA5
102
}
330
5EA5
100
AcDbDimAssoc
330
5EA4
 90
        3
 70
     0
 71
     0
  1
AcDbOsnapPointRef
 72
    13
331
5D4D
 73
     2
 91
        0
 40
0.0
 10
0.0
 20
0.0
 30
2.000000000000000E+50
 75
     0
  1
AcDbOsnapPointRef
 72
    13
331
5D52
 73
     2
 91
        0
 40
6.283185307179586
 10
0.0
 20
0.0
 30
2.000000000000000E+50
 75
     0
  0
DIMASSOC
  5
5EA9
102
{ACAD_REACTORS
330
5EA8
102
}
330
5EA8
100
AcDbDimAssoc
330
5EA7
 90
        3
 70
     0
 71
     0
  1
AcDbOsnapPointRef
 72
    13
331
5D4D
 73
     2
 91
        0
 40
0.0
 10
0.0
 20
0.0
 30
2.000000000000000E+50
 75
     0
  1
AcDbOsnapPointRef
 72
    13
331
5E49
 73
     2
 91
        0
 40
0.0
 10
0.0
 20
0.0
 30
2.000000000000000E+50
 75
     0
  0
DIMASSOC
  5
5EAC
102
{ACAD_REACTORS
330
5EAB
102
}
330
5EAB
100
AcDbDimAssoc
330
5EAA
 90
        3
 70
     0
 71
     0
  1
AcDbOsnapPointRef
 72
     1
331
5D47
 73
     2
 91
        0
 40
1.0
 10
0.0
 20
0.0
 30
2.000000000000000E+50
 75
     0
  1
AcDbOsnapPointRef
 72
    13
331
5D4D
 73
     2
 91
        0
 40
0.0
 10
0.0
 20
0.0
 30
2.000000000000000E+50
 75
     0
  0
DIMASSOC
  5
5EAF
102
{ACAD_REACTORS
330
5EAE
102
}
330
5EAE
100
AcDbDimAssoc
330
5EAD
 90
        3
 70
     0
 71
     0
  1
AcDbOsnapPointRef
 72
     1
331
5D47
 73
     2
 91
        0
 40
1.0
 10
0.0
 20
0.0
 30
2.000000000000000E+50
 75
     0
  1
AcDbOsnapPointRef
 72
    13
331
5D4F
 73
     2
 91
        0
 40
0.0
 10
0.0
 20
0.0
 30
2.000000000000000E+50
 75
     0
  0
DIMASSOC
  5
5EB2
102
{ACAD_REACTORS
330
5EB1
102
}
330
5EB1
100
AcDbDimAssoc
330
5EB0
 90
        3
 70
     0
 71
     0
  1
AcDbOsnapPointRef
 72
    13
331
5D4D
 73
     2
 91
        0
 40
0.0
 10
0.0
 20
0.0
 30
2.000000000000000E+50
 75
     0
  1
AcDbOsnapPointRef
 72
    13
331
5E50
 73
     2
 91
        0
 40
0.0
 10
0.0
 20
0.0
 30
2.000000000000000E+50
 75
     0
  0
DIMASSOC
  5
5EB5
102
{ACAD_REACTORS
330
5EB4
102
}
330
5EB4
100
AcDbDimAssoc
330
5EB3
 90
        3
 70
     0
 71
     0
  1
AcDbOsnapPointRef
 72
     1
331
5D47
 73
     2
 91
        0
 40
1.0
 10
0.0
 20
0.0
 30
2.000000000000000E+50
 75
     0
  1
AcDbOsnapPointRef
 72
    13
331
5E49
 73
     2
 91
        0
 40
0.0
 10
0.0
 20
0.0
 30
2.000000000000000E+50
 75
     0
  0
DIMASSOC
  5
5EB8
102
{ACAD_REACTORS
330
5EB7
102
}
330
5EB7
100
AcDbDimAssoc
330
5EB6
 90
        3
 70
     0
 71
     0
  1
AcDbOsnapPointRef
 72
     1
331
5E4A
 73
     2
 91
        0
 40
1.0
 10
0.0
 20
0.0
 30
2.000000000000000E+50
 75
     0
  1
AcDbOsnapPointRef
 72
     1
331
5E4B
 73
     2
 91
        0
 40
1.0
 10
0.0
 20
0.0
 30
2.000000000000000E+50
 75
     0
  0
DIMASSOC
  5
5EBB
102
{ACAD_REACTORS
330
5EBA
102
}
330
5EBA
100
AcDbDimAssoc
330
5EB9
 90
        3
 70
     0
 71
     0
  1
AcDbOsnapPointRef
 72
    13
331
5D4B
 73
     2
 91
        0
 40
0.0
 10
0.0
 20
0.0
 30
2.000000000000000E+50
 75
     0
  1
AcDbOsnapPointRef
 72
    13
331
5D53
 73
     2
 91
        0
 40
0.0
 10
0.0
 20
0.0
 30
2.000000000000000E+50
 75
     0
  0
DIMASSOC
  5
5EC2
102
{ACAD_REACTORS
330
5EC1
102
}
330
5EC1
100
AcDbDimAssoc
330
5EC0
 90
        3
 70
     0
 71
     0
  1
AcDbOsnapPointRef
 72
     1
331
5E33
 73
     2
 91
        0
 40
3.636526779930635
 10
0.0
 20
0.0
 30
2.000000000000000E+50
 75
     0
  1
AcDbOsnapPointRef
 72
     1
331
5E47
 73
     2
 91
        0
 40
1.0
 10
0.0
 20
0.0
 30
2.000000000000000E+50
 75
     0
  0
DIMASSOC
  5
5EC7
102
{ACAD_REACTORS
330
5EC6
102
}
330
5EC6
100
AcDbDimAssoc
330
5EC5
 90
        3
 70
     0
 71
     0
  1
AcDbOsnapPointRef
 72
    13
331
5D9B
 73
     2
 91
        0
 40
0.0
 10
0.0
 20
0.0
 30
2.000000000000000E+50
 75
     0
  1
AcDbOsnapPointRef
 72
    13
331
5DDE
 73
     2
 91
        0
 40
0.0
 10
0.0
 20
0.0
 30
2.000000000000000E+50
 75
     0
  0
DIMASSOC
  5
5ECA
102
{ACAD_REACTORS
330
5EC9
102
}
330
5EC9
100
AcDbDimAssoc
330
5EC8
 90
        3
 70
     0
 71
     0
  1
AcDbOsnapPointRef
 72
    13
331
5D91
 73
     2
 91
        0
 40
0.0
 10
0.0
 20
0.0
 30
2.000000000000000E+50
 75
     0
  1
AcDbOsnapPointRef
 72
    13
331
5DDB
 73
     2
 91
        0
 40
0.7104560687337348
 10
0.0
 20
0.0
 30
2.000000000000000E+50
 75
     0
  0
DIMASSOC
  5
5ECD
102
{ACAD_REACTORS
330
5ECC
102
}
330
5ECC
100
AcDbDimAssoc
330
5ECB
 90
        3
 70
     0
 71
     0
  1
AcDbOsnapPointRef
 72
    13
331
5D8A
 73
     2
 91
        0
 40
0.0
 10
0.0
 20
0.0
 30
2.000000000000000E+50
 75
     0
  1
AcDbOsnapPointRef
 72
    13
331
5DDB
 73
     2
 91
        0
 40
0.7104560687337348
 10
0.0
 20
0.0
 30
2.000000000000000E+50
 75
     0
  0
DIMASSOC
  5
5ED3
102
{ACAD_REACTORS
330
5ED2
102
}
330
5ED2
100
AcDbDimAssoc
330
5ED1
 90
        3
 70
     0
 71
     0
  1
AcDbOsnapPointRef
 72
    13
331
5D90
 73
     2
 91
        0
 40
0.0
 10
0.0
 20
0.0
 30
2.000000000000000E+50
 75
     0
  1
AcDbOsnapPointRef
 72
    13
331
5D8B
 73
     2
 91
        0
 40
0.0
 10
0.0
 20
0.0
 30
2.000000000000000E+50
 75
     0
  0
DIMASSOC
  5
5ED8
102
{ACAD_REACTORS
330
5ED7
102
}
330
5ED7
100
AcDbDimAssoc
330
5ED6
 90
        3
 70
     0
 71
     0
  1
AcDbOsnapPointRef
 72
    13
331
5E93
 73
     2
 91
        0
 40
0.0
 10
0.0
 20
0.0
 30
2.000000000000000E+50
 75
     0
  1
AcDbOsnapPointRef
 72
    13
331
5E85
 73
     2
 91
        0
 40
0.0
 10
0.0
 20
0.0
 30
2.000000000000000E+50
 75
     0
  0
DIMASSOC
  5
5EDB
102
{ACAD_REACTORS
330
5EDA
102
}
330
5EDA
100
AcDbDimAssoc
330
5ED9
 90
        3
 70
     0
 71
     0
  1
AcDbOsnapPointRef
 72
    13
331
5E93
 73
     2
 91
        0
 40
0.0
 10
0.0
 20
0.0
 30
2.000000000000000E+50
 75
     0
  1
AcDbOsnapPointRef
 72
    13
331
5D3D
 73
     2
 91
        0
 40
6.283185307179568
 10
0.0
 20
0.0
 30
2.000000000000000E+50
 75
     0
  0
DIMASSOC
  5
5EDE
102
{ACAD_REACTORS
330
5EDD
102
}
330
5EDD
100
AcDbDimAssoc
330
5EDC
 90
        3
 70
     0
 71
     0
  1
AcDbOsnapPointRef
 72
    13
331
5E94
 73
     2
 91
        0
 40
0.0
 10
0.0
 20
0.0
 30
2.000000000000000E+50
 75
     0
  1
AcDbOsnapPointRef
 72
    13
331
5E95
 73
     2
 91
        0
 40
0.0
 10
0.0
 20
0.0
 30
2.000000000000000E+50
 75
     0
  0
DIMASSOC
  5
5EE1
102
{ACAD_REACTORS
330
5EE0
102
}
330
5EE0
100
AcDbDimAssoc
330
5EDF
 90
        3
 70
     0
 71
     0
  1
AcDbOsnapPointRef
 72
    13
331
5E9A
 73
     2
 91
        0
 40
0.0
 10
0.0
 20
0.0
 30
2.000000000000000E+50
 75
     0
  1
AcDbOsnapPointRef
 72
    13
331
5E93
 73
     2
 91
        0
 40
0.0
 10
0.0
 20
0.0
 30
2.000000000000000E+50
 75
     0
  0
DIMASSOC
  5
5EE4
102
{ACAD_REACTORS
330
5EE3
102
}
330
5EE3
100
AcDbDimAssoc
330
5EE2
 90
        3
 70
     0
 71
     0
  1
AcDbOsnapPointRef
 72
    13
331
5E94
 73
     2
 91
        0
 40
0.0
 10
0.0
 20
0.0
 30
2.000000000000000E+50
 75
     0
  1
AcDbOsnapPointRef
 72
    13
331
5E93
 73
     2
 91
        0
 40
0.0
 10
0.0
 20
0.0
 30
2.000000000000000E+50
 75
     0
  0
DIMASSOC
  5
5EE7
102
{ACAD_REACTORS
330
5EE6
102
}
330
5EE6
100
AcDbDimAssoc
330
5EE5
 90
        3
 70
     0
 71
     0
  1
AcDbOsnapPointRef
 72
     1
331
5E93
 73
     2
 91
        0
 40
1.0
 10
0.0
 20
0.0
 30
2.000000000000000E+50
 75
     0
  1
AcDbOsnapPointRef
 72
    13
331
5E85
 73
     2
 91
        0
 40
0.0
 10
0.0
 20
0.0
 30
2.000000000000000E+50
 75
     0
  0
DIMASSOC
  5
5EEA
102
{ACAD_REACTORS
330
5EE9
102
}
330
5EE9
100
AcDbDimAssoc
330
5EE8
 90
        3
 70
     0
 71
     0
  1
AcDbOsnapPointRef
 72
     1
331
5E88
 73
     2
 91
        0
 40
1.0
 10
0.0
 20
0.0
 30
2.000000000000000E+50
 75
     0
  1
AcDbOsnapPointRef
 72
     1
331
5E89
 73
     2
 91
        0
 40
1.0
 10
0.0
 20
0.0
 30
2.000000000000000E+50
 75
     0
  0
DIMASSOC
  5
5EED
102
{ACAD_REACTORS
330
5EEC
102
}
330
5EEC
100
AcDbDimAssoc
330
5EEB
 90
        3
 70
     0
 71
     0
  1
AcDbOsnapPointRef
 72
    13
331
5C6E
 73
     2
 91
        0
 40
4.712388980384689
 10
0.0
 20
0.0
 30
2.000000000000000E+50
 75
     0
  1
AcDbOsnapPointRef
 72
     1
331
5D3D
 73
     2
 91
        0
 40
7.853981633974482
 10
0.0
 20
0.0
 30
2.000000000000000E+50
 75
     0
  0
DIMASSOC
  5
5EF0
102
{ACAD_REACTORS
330
5EEF
102
}
330
5EEF
100
AcDbDimAssoc
330
5EEE
 90
        3
 70
     0
 71
     0
  1
AcDbOsnapPointRef
 72
     6
331
5E81
 73
     2
 91
        0
 40
-0.0000000000000191
 10
0.0
 20
0.0
 30
0.0
332
5E7B
 74
     2
 92
        0
 75
     0
  1
AcDbOsnapPointRef
 72
     1
331
5E87
 73
     2
 91
        0
 40
1.0
 10
0.0
 20
0.0
 30
2.000000000000000E+50
 75
     0
  0
DIMASSOC
  5
5EF5
102
{ACAD_REACTORS
330
5EF4
102
}
330
5EF4
100
AcDbDimAssoc
330
5EF3
 90
        3
 70
     0
 71
     0
  1
AcDbOsnapPointRef
 72
    13
331
5D9B
 73
     2
 91
        0
 40
0.0
 10
0.0
 20
0.0
 30
2.000000000000000E+50
 75
     0
  1
AcDbOsnapPointRef
 72
    13
331
5DDE
 73
     2
 91
        0
 40
0.0
 10
0.0
 20
0.0
 30
2.000000000000000E+50
 75
     0
  0
DIMASSOC
  5
5EF8
102
{ACAD_REACTORS
330
5EF7
102
}
330
5EF7
100
AcDbDimAssoc
330
5EF6
 90
        3
 70
     0
 71
     0
  1
AcDbOsnapPointRef
 72
    13
331
5D91
 73
     2
 91
        0
 40
0.0
 10
0.0
 20
0.0
 30
2.000000000000000E+50
 75
     0
  1
AcDbOsnapPointRef
 72
    13
331
5DDB
 73
     2
 91
        0
 40
0.7104560687337348
 10
0.0
 20
0.0
 30
2.000000000000000E+50
 75
     0
  0
DIMASSOC
  5
5EFB
102
{ACAD_REACTORS
330
5EFA
102
}
330
5EFA
100
AcDbDimAssoc
330
5EF9
 90
        3
 70
     0
 71
     0
  1
AcDbOsnapPointRef
 72
    13
331
5D8A
 73
     2
 91
        0
 40
0.0
 10
0.0
 20
0.0
 30
2.000000000000000E+50
 75
     0
  1
AcDbOsnapPointRef
 72
    13
331
5DDB
 73
     2
 91
        0
 40
0.7104560687337348
 10
0.0
 20
0.0
 30
2.000000000000000E+50
 75
     0
  0
DIMASSOC
  5
5EFE
102
{ACAD_REACTORS
330
5EFD
102
}
330
5EFD
100
AcDbDimAssoc
330
5EFC
 90
        3
 70
     0
 71
     0
  1
AcDbOsnapPointRef
 72
    13
331
5E61
 73
     2
 91
        0
 40
3.636526779930635
 10
0.0
 20
0.0
 30
2.000000000000000E+50
 75
     0
  1
AcDbOsnapPointRef
 72
     6
331
5E5C
 73
     2
 91
        0
 40
1.0
 10
0.0
 20
0.0
 30
0.0
332
5E58
 74
     2
 92
        0
 75
     0
  0
DIMASSOC
  5
5F01
102
{ACAD_REACTORS
330
5F00
102
}
330
5F00
100
AcDbDimAssoc
330
5EFF
 90
        3
 70
     0
 71
     0
  1
AcDbOsnapPointRef
 72
    13
331
5D90
 73
     2
 91
        0
 40
0.0
 10
0.0
 20
0.0
 30
2.000000000000000E+50
 75
     0
  1
AcDbOsnapPointRef
 72
    13
331
5D8B
 73
     2
 91
        0
 40
0.0
 10
0.0
 20
0.0
 30
2.000000000000000E+50
 75
     0
  0
LAYOUT
  5
1E
102
{ACAD_XDICTIONARY
360
72F7
102
}
102
{ACAD_REACTORS
330
1A
102
}
330
1A
100
AcDbPlotSettings
  1

  2

  4

  6

 40
0.0
 41
0.0
 42
0.0
 43
0.0
 44
0.0
 45
0.0
 46
0.0
 47
0.0
 48
0.0
 49
0.0
140
0.0
141
0.0
142
1.0
143
1.0
 70
   688
 72
     0
 73
     0
 74
     5
  7
彩色出圖.ctb
 75
    16
147
1.0
148
0.0
149
0.0
100
AcDbLayout
  1
Layout1
 70
     1
 71
     1
 10
0.0
 20
0.0
 11
12.0
 21
9.0
 12
0.0
 22
0.0
 32
0.0
 14
1.000000000000000E+20
 24
1.000000000000000E+20
 34
1.000000000000000E+20
 15
-1.000000000000000E+20
 25
-1.000000000000000E+20
 35
-1.000000000000000E+20
146
0.0
 13
0.0
 23
0.0
 33
0.0
 16
1.0
 26
0.0
 36
0.0
 17
0.0
 27
1.0
 37
0.0
 76
     0
330
1B
  0
LAYOUT
  5
26
102
{ACAD_XDICTIONARY
360
72FB
102
}
102
{ACAD_REACTORS
330
1A
102
}
330
1A
100
AcDbPlotSettings
  1

  2

  4

  6

 40
0.0
 41
0.0
 42
0.0
 43
0.0
 44
0.0
 45
0.0
 46
0.0
 47
0.0
 48
0.0
 49
0.0
140
0.0
141
0.0
142
1.0
143
1.0
 70
   688
 72
     0
 73
     0
 74
     5
  7
彩色出圖.ctb
 75
    16
147
1.0
148
0.0
149
0.0
100
AcDbLayout
  1
Layout2
 70
     1
 71
     2
 10
0.0
 20
0.0
 11
12.0
 21
9.0
 12
0.0
 22
0.0
 32
0.0
 14
0.0
 24
0.0
 34
0.0
 15
0.0
 25
0.0
 35
0.0
146
0.0
 13
0.0
 23
0.0
 33
0.0
 16
1.0
 26
0.0
 36
0.0
 17
0.0
 27
1.0
 37
0.0
 76
     0
330
23
  0
LAYOUT
  5
22
102
{ACAD_XDICTIONARY
360
72F9
102
}
102
{ACAD_REACTORS
330
1A
102
}
330
1A
100
AcDbPlotSettings
  1

  2
DWF Classic.pc3
  4
ISO_A3_(420.00_x_297.00_MM)
  6

 40
5.793749809265136
 41
17.79375076293945
 42
5.79376220703125
 43
17.79376220703125
 44
420.0
 45
297.0
 46
3.16
 47
0.0
 48
0.0
 49
0.0
140
0.0
141
0.0
142
1.0
143
1.040972819440143
 70
 11956
 72
     1
 73
     1
 74
     1
  7
彩色出圖.ctb
 75
     0
147
0.960639875820985
148
0.4820973571052037
149
0.4766328058566387
100
AcDbLayout
  1
Model
 70
     1
 71
     0
 10
0.0
 20
0.0
 11
12.0
 21
9.0
 12
0.0
 22
0.0
 32
0.0
 14
0.0
 24
0.0
 34
0.0
 15
0.0
 25
0.0
 35
0.0
146
0.0
 13
0.0
 23
0.0
 33
0.0
 16
1.0
 26
0.0
 36
0.0
 17
0.0
 27
1.0
 37
0.0
 76
     0
330
1F
  0
MLINESTYLE
  5
18
102
{ACAD_REACTORS
330
17
102
}
330
17
100
AcDbMlineStyle
  2
STANDARD
 70
     0
  3

 62
   256
 51
90.0
 52
90.0
 71
     2
 49
0.5
 62
   256
  6
BYLAYER
 49
-0.5
 62
   256
  6
BYLAYER
  0
ACDBPLACEHOLDER
  5
F
102
{ACAD_REACTORS
330
E
102
}
330
E
  0
TABLESTYLE
  5
5827
102
{ACAD_REACTORS
330
5826
102
}
330
5826
100
AcDbTableStyle
  3
Standard
 70
     0
 71
     0
 40
1.5
 41
1.5
280
     0
281
     0
  7
Standard
140
4.5
170
     2
 62
     0
 63
     7
283
     0
274
    -2
284
     1
 64
     0
275
    -2
285
     1
 65
     0
276
    -2
286
     1
 66
     0
277
    -2
287
     1
 67
     0
278
    -2
288
     1
 68
     0
279
    -2
289
     1
 69
     0
  7
Standard
140
6.0
170
     5
 62
     0
 63
     7
283
     0
274
    -2
284
     1
 64
     0
275
    -2
285
     1
 65
     0
276
    -2
286
     1
 66
     0
277
    -2
287
     1
 67
     0
278
    -2
288
     1
 68
     0
279
    -2
289
     1
 69
     0
  7
Standard
140
4.5
170
     5
 62
     0
 63
     7
283
     0
274
    -2
284
     1
 64
     0
275
    -2
285
     1
 65
     0
276
    -2
286
     1
 66
     0
277
    -2
287
     1
 67
     0
278
    -2
288
     1
 68
     0
279
    -2
289
     1
 69
     0
  0
DICTIONARYVAR
  5
6147
102
{ACAD_REACTORS
330
1488
102
}
330
1488
100
DictionaryVariables
280
     0
  1
STANDARD
  0
DICTIONARYVAR
  5
6D10
102
{ACAD_REACTORS
330
1488
102
}
330
1488
100
DictionaryVariables
280
     0
  1
1
  0
DICTIONARYVAR
  5
72F3
102
{ACAD_REACTORS
330
1488
102
}
330
1488
100
DictionaryVariables
280
     0
  1
1
  0
DICTIONARYVAR
  5
6D11
102
{ACAD_REACTORS
330
1488
102
}
330
1488
100
DictionaryVariables
280
     0
  1

  0
DICTIONARYVAR
  5
1489
102
{ACAD_REACTORS
330
1488
102
}
330
1488
100
DictionaryVariables
280
     0
  1
96
  0
DICTIONARY
  5
668D
102
{ACAD_REACTORS
330
6680
102
}
330
6680
100
AcDbDictionary
281
     1
  0
XRECORD
  5
66A8
102
{ACAD_REACTORS
330
6680
102
}
330
6680
100
AcDbXrecord
280
     1
 90
-1023410169
  0
LAYER_INDEX
  5
729F
102
{ACAD_REACTORS
330
729E
102
}
330
729E
100
AcDbIndex
 40
2454329.446498472
100
AcDbLayerIndex
  8
0
360
72EC
 90
      606
  8
DIM
360
72ED
 90
       52
  8
CENTER
360
72EE
 90
       26
  8
LOGO
360
72EF
 90
      127
  8
Defpoints
360
72F0
 90
        0
  8
AM_7
360
72F1
 90
        2
  8
AM_5
360
72F2
 90
        0
  0
DICTIONARY
  5
72F7
330
1E
100
AcDbDictionary
280
     1
281
     1
  3
ACAD_XREC_ROUNDTRIP
360
72F8
  0
DICTIONARY
  5
72FB
330
26
100
AcDbDictionary
280
     1
281
     1
  3
ACAD_XREC_ROUNDTRIP
360
72FC
  0
DICTIONARY
  5
72F9
330
22
100
AcDbDictionary
280
     1
281
     1
  3
ACAD_XREC_ROUNDTRIP
360
72FA
  0
IDBUFFER
  5
72EC
330
0
100
AcDbIdBuffer
330
5E64
330
5E65
330
5E66
330
5E67
330
5E68
330
5E69
330
5E6A
330
5E6B
330
5E6C
330
5E6D
330
5E6E
330
5E6F
330
5E70
330
5E71
330
5E72
330
5E73
330
5E74
330
5E75
330
5E76
330
5E77
330
5E78
330
5E79
330
5E7A
330
5E7B
330
5E7C
330
5E7D
330
5E7E
330
5E7F
330
5E80
330
5E81
330
5E82
330
5E83
330
5E84
330
5E85
330
5E86
330
5E87
330
5E88
330
5E89
330
5E8A
330
5E8B
330
5E8C
330
5E8D
330
5E8E
330
5E8F
330
5E90
330
5E91
330
5E92
330
5E93
330
5E94
330
5E96
330
5E97
330
5E98
330
5E99
330
67FB
330
67FC
330
67FD
330
6E72
330
6E74
330
707D
330
707E
330
707F
330
7080
330
7081
330
7082
330
7083
330
7084
330
7085
330
7086
330
7087
330
7088
330
7089
330
708A
330
708B
330
708C
330
708D
330
708E
330
708F
330
7090
330
7091
330
7092
330
7093
330
7094
330
7095
330
709C
330
709D
330
709E
330
709F
330
70A0
330
70A1
330
70A2
330
70A3
330
70A4
330
70A5
330
70A6
330
70A7
330
70A8
330
70A9
330
70AA
330
70AB
330
70AC
330
70AD
330
70AE
330
70AF
330
70B0
330
70B1
330
70B2
330
70B3
330
70B4
330
70EB
330
70ED
330
A9
330
AA
330
AB
330
AC
330
B1
330
B2
330
10B3
330
17B4
330
17B5
330
17BF
330
17C0
330
18E7
330
5C68
330
5C69
330
5C6A
330
5C6C
330
5C6D
330
5C6E
330
5C6F
330
5C70
330
5C71
330
5C72
330
5C73
330
5C74
330
5C75
330
5C76
330
5C77
330
5C78
330
5C79
330
5C7A
330
5C7B
330
5C7C
330
5C7D
330
5C7E
330
5C7F
330
5C80
330
5C81
330
5C82
330
5C83
330
5C84
330
5C86
330
5C87
330
5C88
330
5C89
330
5C8A
330
5C8B
330
5C8C
330
5C8E
330
5C8F
330
5C90
330
5C93
330
5C94
330
5C95
330
5C96
330
5C98
330
5C99
330
5C9A
330
5C9B
330
5C9C
330
5C9D
330
5C9E
330
5C9F
330
5CA0
330
5CA1
330
5CA2
330
5CA3
330
5CA4
330
5CA5
330
5CA6
330
5CA7
330
5CA8
330
5CA9
330
5CAA
330
5CAB
330
5CAC
330
5CAD
330
5CAE
330
5CAF
330
5CB0
330
5CB1
330
5CB2
330
5CB3
330
5CB4
330
5CB5
330
5CB6
330
5CB7
330
5CB8
330
5CB9
330
5CBA
330
5CBB
330
5CBC
330
5CBD
330
5CBE
330
5CBF
330
5CC0
330
5CC1
330
5CC2
330
5CC3
330
5CC4
330
5CC5
330
5CC6
330
5CC7
330
5CC8
330
5CC9
330
5CCA
330
5CCB
330
5CCC
330
5CCD
330
5CCE
330
5CCF
330
5CD0
330
5CD1
330
5CD2
330
5CD3
330
5CD4
330
5CD5
330
5CD6
330
5CD7
330
5CD8
330
5CD9
330
5CDA
330
5CDB
330
5CDC
330
5CDD
330
5CDE
330
5CDF
330
5CE0
330
5CE1
330
5CE2
330
5CE3
330
5CE4
330
5CE5
330
5CE6
330
5CE7
330
5CE8
330
5CE9
330
5CEA
330
5CEB
330
5CEC
330
5CED
330
5CEE
330
5CEF
330
5CF0
330
5CF1
330
5CF2
330
5CF3
330
5CF4
330
5CF5
330
5CF6
330
5CF7
330
5CF8
330
5CF9
330
5CFA
330
5CFB
330
5CFC
330
5CFD
330
5CFE
330
5CFF
330
5D00
330
5D01
330
5D02
330
5D03
330
5D05
330
5D06
330
5D07
330
5D08
330
5D09
330
5D0C
330
5D0D
330
5D0E
330
5D0F
330
5D10
330
5D11
330
5D12
330
5D13
330
5D14
330
5D15
330
5D16
330
5D17
330
5D18
330
5D19
330
5D1A
330
5D1B
330
5D1C
330
5D1D
330
5D1E
330
5D1F
330
5D20
330
5D21
330
5D22
330
5D23
330
5D24
330
5D25
330
5D26
330
5D27
330
5D28
330
5D29
330
5D2A
330
5D2B
330
5D2C
330
5D2D
330
5D2E
330
5D2F
330
5D30
330
5D32
330
5D33
330
5D34
330
5D35
330
5D36
330
5D37
330
5D38
330
5D39
330
5D3B
330
5D3C
330
5D3D
330
5D3E
330
5D3F
330
5D40
330
5D41
330
5D42
330
5D43
330
5D44
330
5D45
330
5D46
330
5D47
330
5D49
330
5D4A
330
5D4B
330
5D4C
330
5D4D
330
5D4E
330
5D50
330
5D51
330
5D52
330
5D53
330
5D54
330
5D56
330
5D57
330
5D58
330
5D59
330
5D5A
330
5D5C
330
5D5D
330
5D5F
330
5D60
330
5D61
330
5D62
330
5D63
330
5D64
330
5D65
330
5D66
330
5D67
330
5D69
330
5D6A
330
5D6B
330
5D6C
330
5D6D
330
5D6E
330
5D6F
330
5D70
330
5D71
330
5D72
330
5D73
330
5D74
330
5D75
330
5D76
330
5D77
330
5D78
330
5D79
330
5D7A
330
5D7B
330
5D7C
330
5D7D
330
5D7E
330
5D7F
330
5D80
330
5D81
330
5D82
330
5D83
330
5D84
330
5D85
330
5D86
330
5D88
330
5D89
330
5D8A
330
5D8B
330
5D8C
330
5D8D
330
5D8E
330
5D8F
330
5D90
330
5D91
330
5D92
330
5D93
330
5D94
330
5D95
330
5D96
330
5D97
330
5D98
330
5D99
330
5D9A
330
5D9C
330
5D9D
330
5D9E
330
5D9F
330
5DA0
330
5DA1
330
5DA2
330
5DA3
330
5DA4
330
5DA5
330
5DA6
330
5DA7
330
5DA8
330
5DA9
330
5DAA
330
5DAB
330
5DAC
330
5DAD
330
5DAE
330
5DAF
330
5DB0
330
5DB1
330
5DB2
330
5DB3
330
5DB4
330
5DB5
330
5DB6
330
5DB8
330
5DB9
330
5DBA
330
5DBB
330
5DBC
330
5DBD
330
5DBE
330
5DBF
330
5DC0
330
5DC1
330
5DC2
330
5DC3
330
5DC4
330
5DC5
330
5DC6
330
5DC7
330
5DC8
330
5DC9
330
5DCA
330
5DCB
330
5DCC
330
5DCE
330
5DCF
330
5DD0
330
5DD1
330
5DD2
330
5DD3
330
5DD4
330
5DD5
330
5DD6
330
5DD7
330
5DD8
330
5DD9
330
5DDB
330
5DDC
330
5DDD
330
5DDF
330
5DE0
330
5DE1
330
5DE2
330
5DE3
330
5DE4
330
5DE5
330
5DE6
330
5DE7
330
5DE8
330
5DE9
330
5DEA
330
5DEB
330
5DEC
330
5DED
330
5DEE
330
5DEF
330
5DF0
330
5DF1
330
5DF2
330
5DF3
330
5DF4
330
5DF5
330
5DF6
330
5DF7
330
5DF8
330
5DF9
330
5DFA
330
5DFB
330
5DFC
330
5DFD
330
5DFE
330
5DFF
330
5E00
330
5E01
330
5E02
330
5E03
330
5E04
330
5E05
330
5E06
330
5E07
330
5E08
330
5E09
330
5E0A
330
5E0B
330
5E0C
330
5E0D
330
5E0E
330
5E0F
330
5E10
330
5E11
330
5E12
330
5E13
330
5E14
330
5E15
330
5E16
330
5E17
330
5E18
330
5E19
330
5E1A
330
5E1B
330
5E1C
330
5E1D
330
5E1E
330
5E1F
330
5E20
330
5E21
330
5E22
330
5E23
330
5E24
330
5E25
330
5E26
330
5E27
330
5E28
330
5E29
330
5E2A
330
5E2B
330
5E2C
330
5E2D
330
5E2E
330
5E2F
330
5E30
330
5E31
330
5E32
330
5E33
330
5E34
330
5E35
330
5E36
330
5E37
330
5E38
330
5E39
330
5E3A
330
5E3B
330
5E3C
330
5E3D
330
5E3E
330
5E3F
330
5E40
330
5E41
330
5E42
330
5E43
330
5E44
330
5E45
330
5E46
330
5E47
330
5E48
330
5E49
330
5E4A
330
5E4B
330
5E4C
330
5E4D
330
5E4E
330
5E4F
330
5E51
330
5E52
330
5E53
330
5E54
330
5E55
330
5E56
330
5E57
330
5E58
330
5E59
330
5E5A
330
5E5B
330
5E5C
330
5E5D
330
5E5E
330
5E5F
330
5E60
330
5E61
330
5E62
330
5E63
  0
IDBUFFER
  5
72ED
330
0
100
AcDbIdBuffer
330
704A
330
704B
330
72CC
330
72CD
330
5E9B
330
5E9E
330
5EA1
330
5EA4
330
5EA7
330
5EAA
330
5EAD
330
5EB0
330
5EB3
330
5EB6
330
5EB9
330
5EBC
330
5EBD
330
5EBE
330
5EBF
330
5EC0
330
5EC5
330
5EC8
330
5ECB
330
5ED1
330
5ED4
330
5ED5
330
5ED6
330
5ED9
330
5EDC
330
5EDF
330
5EE2
330
5EE5
330
5EE8
330
5EEB
330
5EEE
330
5EF3
330
5EF6
330
5EF9
330
5EFC
330
5EFF
330
5F04
330
5F05
330
60CE
330
60D1
330
60D4
330
60D7
330
60DA
330
60DD
330
60E0
330
60E3
330
6148
330
6149
  0
IDBUFFER
  5
72EE
330
0
100
AcDbIdBuffer
330
5D68
330
5D87
330
5D9B
330
5DB7
330
5DCD
330
5DDA
330
5DDE
330
5E50
330
5E95
330
5E9A
330
5C6B
330
5C85
330
5C8D
330
5C91
330
5C92
330
5C97
330
5D04
330
5D0A
330
5D0B
330
5D31
330
5D3A
330
5D48
330
5D4F
330
5D55
330
5D5B
330
5D5E
  0
IDBUFFER
  5
72EF
330
0
100
AcDbIdBuffer
330
67AD
330
67AE
330
67AF
330
67B0
330
67B1
330
67B2
330
67B3
330
67B4
330
67B5
330
67F5
330
67F6
330
67F7
330
67F8
330
67F9
330
67FA
330
17BD
330
17BE
330
17C3
330
17C4
330
17C5
330
17C6
330
17C7
330
1802
330
1803
330
1804
330
1805
330
1806
330
1807
330
1808
330
1809
330
180A
330
180B
330
180C
330
180D
330
180E
330
180F
330
1810
330
1868
330
1869
330
186A
330
186B
330
186C
330
186D
330
186E
330
186F
330
1870
330
1871
330
1872
330
1873
330
1874
330
1875
330
1876
330
1877
330
1878
330
1879
330
187A
330
187B
330
187C
330
187D
330
187E
330
187F
330
1880
330
1881
330
1882
330
1883
330
1885
330
1886
330
1887
330
1888
330
1889
330
188A
330
188B
330
188C
330
188D
330
188E
330
188F
330
1890
330
1891
330
6767
330
6768
330
6769
330
676A
330
676B
330
676C
330
676D
330
676E
330
676F
330
6770
330
6771
330
6772
330
6773
330
6774
330
6775
330
6776
330
6777
330
6778
330
6779
330
677A
330
677B
330
677C
330
677D
330
677E
330
677F
330
6780
330
6781
330
6782
330
6783
330
6784
330
6788
330
678C
330
678D
330
6791
330
6792
330
6793
330
6794
330
6795
330
6796
330
6797
330
6798
330
679C
330
67A0
330
67A4
330
67A5
330
67A6
330
67AA
330
67AB
330
67AC
  0
IDBUFFER
  5
72F0
330
0
100
AcDbIdBuffer
  0
IDBUFFER
  5
72F1
330
0
100
AcDbIdBuffer
330
70CD
330
70EC
  0
IDBUFFER
  5
72F2
330
0
100
AcDbIdBuffer
  0
XRECORD
  5
72F8
102
{ACAD_REACTORS
330
72F7
102
}
330
72F7
100
AcDbXrecord
280
     1
102
SHADEPLOT
 70
     0
102
SHADEPLOTRESLEVEL
 70
     2
102
SHADEPLOTCUSTOMDPI
 70
   300
  0
XRECORD
  5
72FC
102
{ACAD_REACTORS
330
72FB
102
}
330
72FB
100
AcDbXrecord
280
     1
102
SHADEPLOT
 70
     0
102
SHADEPLOTRESLEVEL
 70
     2
102
SHADEPLOTCUSTOMDPI
 70
   300
  0
XRECORD
  5
72FA
102
{ACAD_REACTORS
330
72F9
102
}
330
72F9
100
AcDbXrecord
280
     1
102
SHADEPLOT
 70
     0
102
SHADEPLOTRESLEVEL
 70
     2
102
SHADEPLOTCUSTOMDPI
 70
   300
  0
ENDSEC
  0
EOF
