  0
SECTION
  2
HEADER
  9
$ACADVER
  1
AC1015
  9
$ACADMAINTVER
 70
    20
  9
$DWGCODEPAGE
  3
ANSI_950
  9
$INSBASE
 10
0.0
 20
0.0
 30
0.0
  9
$EXTMIN
 10
54.83355057409903
 20
6.734056384096611
 30
0.0
  9
$EXTMAX
 10
290.3688113312526
 20
264.380872712284
 30
184.4637490072701
  9
$LIMMIN
 10
0.0
 20
0.0
  9
$LIMMAX
 10
12.0
 20
9.0
  9
$ORTHOMODE
 70
     0
  9
$REGENMODE
 70
     1
  9
$FILLMODE
 70
     1
  9
$QTEXTMODE
 70
     0
  9
$MIRRTEXT
 70
     1
  9
$LTSCALE
 40
3.0
  9
$ATTMODE
 70
     1
  9
$TEXTSIZE
 40
4.5
  9
$TRACEWID
 40
0.05
  9
$TEXTSTYLE
  7
CHINESET
  9
$CLAYER
  8
0
  9
$CELTYPE
  6
ByLayer
  9
$CECOLOR
 62
   256
  9
$CELTSCALE
 40
1.0
  9
$DISPSILH
 70
     0
  9
$DIMSCALE
 40
1.0
  9
$DIMASZ
 40
3.0
  9
$DIMEXO
 40
3.0
  9
$DIMDLI
 40
2.0
  9
$DIMRND
 40
0.0
  9
$DIMDLE
 40
0.0
  9
$DIMEXE
 40
2.0
  9
$DIMTP
 40
0.0
  9
$DIMTM
 40
0.0
  9
$DIMTXT
 40
3.0
  9
$DIMCEN
 40
-3.0
  9
$DIMTSZ
 40
0.0
  9
$DIMTOL
 70
     0
  9
$DIMLIM
 70
     0
  9
$DIMTIH
 70
     0
  9
$DIMTOH
 70
     0
  9
$DIMSE1
 70
     0
  9
$DIMSE2
 70
     0
  9
$DIMTAD
 70
     1
  9
$DIMZIN
 70
     8
  9
$DIMBLK
  1

  9
$DIMASO
 70
     1
  9
$DIMSHO
 70
     1
  9
$DIMPOST
  1

  9
$DIMAPOST
  1

  9
$DIMALT
 70
     0
  9
$DIMALTD
 70
     2
  9
$DIMALTF
 40
25.4
  9
$DIMLFAC
 40
1.0
  9
$DIMTOFL
 70
     1
  9
$DIMTVP
 40
0.0
  9
$DIMTIX
 70
     0
  9
$DIMSOXD
 70
     0
  9
$DIMSAH
 70
     0
  9
$DIMBLK1
  1

  9
$DIMBLK2
  1

  9
$DIMSTYLE
  2
ISO-25-1
  9
$DIMCLRD
 70
   256
  9
$DIMCLRE
 70
   256
  9
$DIMCLRT
 70
   256
  9
$DIMTFAC
 40
0.7
  9
$DIMGAP
 40
1.0
  9
$DIMJUST
 70
     0
  9
$DIMSD1
 70
     0
  9
$DIMSD2
 70
     0
  9
$DIMTOLJ
 70
     1
  9
$DIMTZIN
 70
     8
  9
$DIMALTZ
 70
     0
  9
$DIMALTTZ
 70
     0
  9
$DIMUPT
 70
     0
  9
$DIMDEC
 70
     2
  9
$DIMTDEC
 70
     8
  9
$DIMALTU
 70
     2
  9
$DIMALTTD
 70
     2
  9
$DIMTXSTY
  7
CHINESET
  9
$DIMAUNIT
 70
     0
  9
$DIMADEC
 70
     0
  9
$DIMALTRND
 40
0.0
  9
$DIMAZIN
 70
     2
  9
$DIMDSEP
 70
    46
  9
$DIMATFIT
 70
     0
  9
$DIMFRAC
 70
     0
  9
$DIMLDRBLK
  1

  9
$DIMLUNIT
 70
     2
  9
$DIMLWD
 70
    -1
  9
$DIMLWE
 70
    -1
  9
$DIMTMOVE
 70
     0
  9
$LUNITS
 70
     2
  9
$LUPREC
 70
     2
  9
$SKETCHINC
 40
0.1
  9
$FILLETRAD
 40
0.5
  9
$AUNITS
 70
     0
  9
$AUPREC
 70
     0
  9
$MENU
  1
.
  9
$ELEVATION
 40
0.0
  9
$PELEVATION
 40
0.0
  9
$THICKNESS
 40
0.0
  9
$LIMCHECK
 70
     0
  9
$CHAMFERA
 40
1.0
  9
$CHAMFERB
 40
1.0
  9
$CHAMFERC
 40
1.0
  9
$CHAMFERD
 40
0.0
  9
$SKPOLY
 70
     0
  9
$TDCREATE
 40
2452019.631085301
  9
$TDUCREATE
 40
2452019.297751968
  9
$TDUPDATE
 40
2456885.437989907
  9
$TDUUPDATE
 40
2456885.104656574
  9
$TDINDWG
 40
0.3670432755
  9
$TDUSRTIMER
 40
0.3670432755
  9
$USRTIMER
 70
     1
  9
$ANGBASE
 50
0.0
  9
$ANGDIR
 70
     0
  9
$PDMODE
 70
     0
  9
$PDSIZE
 40
0.0
  9
$PLINEWID
 40
0.0
  9
$SPLFRAME
 70
     0
  9
$SPLINETYPE
 70
     6
  9
$SPLINESEGS
 70
     8
  9
$HANDSEED
  5
4ED6
  9
$SURFTAB1
 70
     6
  9
$SURFTAB2
 70
     6
  9
$SURFTYPE
 70
     6
  9
$SURFU
 70
     6
  9
$SURFV
 70
     6
  9
$UCSBASE
  2

  9
$UCSNAME
  2

  9
$UCSORG
 10
0.0
 20
0.0
 30
0.0
  9
$UCSXDIR
 10
1.0
 20
0.0
 30
0.0
  9
$UCSYDIR
 10
0.0
 20
1.0
 30
0.0
  9
$UCSORTHOREF
  2

  9
$UCSORTHOVIEW
 70
     0
  9
$UCSORGTOP
 10
0.0
 20
0.0
 30
0.0
  9
$UCSORGBOTTOM
 10
0.0
 20
0.0
 30
0.0
  9
$UCSORGLEFT
 10
0.0
 20
0.0
 30
0.0
  9
$UCSORGRIGHT
 10
0.0
 20
0.0
 30
0.0
  9
$UCSORGFRONT
 10
0.0
 20
0.0
 30
0.0
  9
$UCSORGBACK
 10
0.0
 20
0.0
 30
0.0
  9
$PUCSBASE
  2

  9
$PUCSNAME
  2

  9
$PUCSORG
 10
0.0
 20
0.0
 30
0.0
  9
$PUCSXDIR
 10
1.0
 20
0.0
 30
0.0
  9
$PUCSYDIR
 10
0.0
 20
1.0
 30
0.0
  9
$PUCSORTHOREF
  2

  9
$PUCSORTHOVIEW
 70
     0
  9
$PUCSORGTOP
 10
0.0
 20
0.0
 30
0.0
  9
$PUCSORGBOTTOM
 10
0.0
 20
0.0
 30
0.0
  9
$PUCSORGLEFT
 10
0.0
 20
0.0
 30
0.0
  9
$PUCSORGRIGHT
 10
0.0
 20
0.0
 30
0.0
  9
$PUCSORGFRONT
 10
0.0
 20
0.0
 30
0.0
  9
$PUCSORGBACK
 10
0.0
 20
0.0
 30
0.0
  9
$USERI1
 70
     0
  9
$USERI2
 70
     0
  9
$USERI3
 70
     0
  9
$USERI4
 70
     0
  9
$USERI5
 70
     0
  9
$USERR1
 40
0.0
  9
$USERR2
 40
0.0
  9
$USERR3
 40
0.0
  9
$USERR4
 40
0.0
  9
$USERR5
 40
0.0
  9
$WORLDVIEW
 70
     1
  9
$SHADEDGE
 70
     3
  9
$SHADEDIF
 70
    70
  9
$TILEMODE
 70
     1
  9
$MAXACTVP
 70
    48
  9
$PINSBASE
 10
0.0
 20
0.0
 30
0.0
  9
$PLIMCHECK
 70
     0
  9
$PEXTMIN
 10
1.000000000000000E+20
 20
1.000000000000000E+20
 30
1.000000000000000E+20
  9
$PEXTMAX
 10
-1.000000000000000E+20
 20
-1.000000000000000E+20
 30
-1.000000000000000E+20
  9
$PLIMMIN
 10
0.0
 20
0.0
  9
$PLIMMAX
 10
12.0
 20
9.0
  9
$UNITMODE
 70
     0
  9
$VISRETAIN
 70
     1
  9
$PLINEGEN
 70
     0
  9
$PSLTSCALE
 70
     1
  9
$TREEDEPTH
 70
  3020
  9
$CMLSTYLE
  2
Standard
  9
$CMLJUST
 70
     0
  9
$CMLSCALE
 40
1.0
  9
$PROXYGRAPHICS
 70
     1
  9
$MEASUREMENT
 70
     1
  9
$CELWEIGHT
370
    -1
  9
$ENDCAPS
280
     0
  9
$JOINSTYLE
280
     0
  9
$LWDISPLAY
290
     0
  9
$INSUNITS
 70
     1
  9
$HYPERLINKBASE
  1

  9
$STYLESHEET
  1
彩色出圖.ctb
  9
$XEDIT
290
     1
  9
$CEPSNTYPE
380
     0
  9
$PSTYLEMODE
290
     1
  9
$FINGERPRINTGUID
  2
{FDEAD576-A652-11D2-9A35-0060089B3A3F}
  9
$VERSIONGUID
  2
{2E189239-3E53-4B8F-A2C3-2ADDC1968292}
  9
$EXTNAMES
290
     1
  9
$PSVPSCALE
 40
0.0
  9
$OLESTARTUP
290
     0
  0
ENDSEC
  0
SECTION
  2
CLASSES
  0
CLASS
  1
ACDBDICTIONARYWDFLT
  2
AcDbDictionaryWithDefault
  3
ObjectDBX Classes
 90
        0
280
     0
281
     0
  0
CLASS
  1
ACDBPLACEHOLDER
  2
AcDbPlaceHolder
  3
ObjectDBX Classes
 90
        0
280
     0
281
     0
  0
CLASS
  1
LAYOUT
  2
AcDbLayout
  3
ObjectDBX Classes
 90
        0
280
     0
281
     0
  0
CLASS
  1
DICTIONARYVAR
  2
AcDbDictionaryVar
  3
ObjectDBX Classes
 90
        0
280
     0
281
     0
  0
CLASS
  1
TABLESTYLE
  2
AcDbTableStyle
  3
ObjectDBX Classes
 90
     2047
280
     0
281
     0
  0
CLASS
  1
DIMASSOC
  2
AcDbDimAssoc
  3
"AcDbDimAssoc|Product Desc:     AcDim ARX App For Dimension|Company:          Autodesk, Inc.|WEB Address:      www.autodesk.com"
 90
        0
280
     0
281
     0
  0
CLASS
  1
SORTENTSTABLE
  2
AcDbSortentsTable
  3
ObjectDBX Classes
 90
        0
280
     0
281
     0
  0
CLASS
  1
ACME_DOCUMENT
  2
AcMeDbDoc
  3
AcMeServices
 90
        0
280
     0
281
     0
  0
CLASS
  1
AMGSETTINGSOBJ
  2
AmgSettingsObj
  3
"AcadM|Product Description: AutoCAD Mechanical 2000|Company: Autodesk"
 90
        0
280
     0
281
     0
  0
CLASS
  1
ACMESCOPE
  2
AcMeScope
  3
AcMeServices
 90
        0
280
     0
281
     0
  0
CLASS
  1
ACMECOMMANDHISTORY
  2
AcMeCommandHistory
  3
AcMeServices
 90
        0
280
     0
281
     0
  0
CLASS
  1
ACIMSYSVARMAN
  2
AcImSysVarManager
  3
AcMeServices
 90
        0
280
     0
281
     0
  0
CLASS
  1
ACIMINTSYSVAR
  2
AcImIntSysVar
  3
AcMeServices
 90
        0
280
     0
281
     0
  0
CLASS
  1
ACMEDRAWINGMAN
  2
AcMeDrawingMan
  3
AcMeServices
 90
        0
280
     0
281
     0
  0
CLASS
  1
ACMEVIEW
  2
AcMeView
  3
AcMeServices
 90
        0
280
     0
281
     0
  0
CLASS
  1
ACDBENTITYCACHE
  2
AcMeEntityCache
  3
AcMeServices
 90
        0
280
     0
281
     0
  0
CLASS
  1
GSMANAGER
  2
AcMeGSManager
  3
AcMeServices
 90
        0
280
     0
281
     0
  0
CLASS
  1
AMDTINTERNALREACTOR
  2
AmdtInternalReactor
  3
AcMeServices
 90
        0
280
     0
281
     0
  0
CLASS
  1
ACMESTATEMGR
  2
AcMeStateMgr
  3
AcMeServices
 90
        0
280
     0
281
     0
  0
CLASS
  1
ACGREFMASTER
  2
AcGrefMaster
  3
AcAttribServices
 90
        0
280
     0
281
     0
  0
CLASS
  1
AM_DRAWING_MGR
  2
AcDmDwgMgr
  3
AcMechDwgViewMgmt
 90
        0
280
     0
281
     0
  0
CLASS
  1
AM_DWG_DOCUMENT
  2
AcDmDwgDocument
  3
AcMechDwgViewMgmt
 90
        0
280
     0
281
     0
  0
CLASS
  1
AM_DWG_SHEET
  2
AcDmSheet
  3
AcMechDwgViewMgmt
 90
        0
280
     0
281
     0
  0
CLASS
  1
AM_VIEWDIMPARMAP
  2
AcDmViewDimParMap
  3
AcMechDwgViewMgmt
 90
        0
280
     0
281
     0
  0
CLASS
  1
ACIMREALSYSVAR
  2
AcImRealSysVar
  3
AcMeServices
 90
        0
280
     0
281
     0
  0
CLASS
  1
AM_DWGMGR_NAME
  2
AcDmDwgMgrName
  3
AcMechDwgViewMgmt
 90
        0
280
     0
281
     0
  0
CLASS
  1
ACME_DATABASE
  2
AcMeDbDatabase
  3
AcMeServices
 90
        0
280
     0
281
     0
  0
CLASS
  1
ACRFINSADJUSTERMGR
  2
AcRfInsAdjusterMgr
  3
AcMeServices
 90
        0
280
     0
281
     0
  0
CLASS
  1
ACGREFACADMASTER
  2
AcGrefacadMaster
  3
AcGrefServices
 90
        0
280
     0
281
     0
  0
CLASS
  1
AMDTMENUSTATEMGR
  2
AmdtMenuStateMgr
  3
McadcomServices
 90
        0
280
     0
281
     0
  0
CLASS
  1
AMDTMCOMMENUSTATE
  2
AmdtMcomMenuState
  3
McadcomServices
 90
        0
280
     0
281
     0
  0
CLASS
  1
AMIMASTER
  2
AmiMaster
  3
AmiServices
 90
        0
280
     0
281
     0
  0
CLASS
  1
MAPIAMMOUDLE
  2
MApiAmModule
  3
MApiAmServices
 90
        0
280
     0
281
     0
  0
CLASS
  1
AMDTADMENUSTATE
  2
AmdtAdMenuState
  3
DesignerServices
 90
        0
280
     0
281
     0
  0
CLASS
  1
ADAPPL
  2
AcAdAppl
  3
DesignerServices
 90
        0
280
     0
281
     0
  0
CLASS
  1
DEPMGR
  2
AcAdDepMgr
  3
DesignerServices
 90
        0
280
     0
281
     0
  0
CLASS
  1
PARAMMGR
  2
AcAdParamMgr
  3
DesignerServices
 90
        0
280
     0
281
     0
  0
CLASS
  1
PARAMSCOPE
  2
AcAdParamScope
  3
DesignerServices
 90
        0
280
     0
281
     0
  0
CLASS
  1
NAMEDAPPL
  2
AcAdNamedAppl
  3
DesignerServices
 90
        0
280
     0
281
     0
  0
CLASS
  1
AMDTDMMENUSTATE
  2
AmdtDmMenuState
  3
AcMechDwgViewMgmt
 90
        0
280
     0
281
     0
  0
CLASS
  1
AMDTAMMENUSTATE
  2
AmdtAmMenuState
  3
DesignerAssemblies
 90
        0
280
     0
281
     0
  0
CLASS
  1
ACIMSTRSYSVAR
  2
AcImStrSysVar
  3
AcMeServices
 90
        0
280
     0
281
     0
  0
CLASS
  1
ACAMPROJECT
  2
AcAmProject
  3
DesignerAssemblies
 90
        0
280
     0
281
     0
  0
CLASS
  1
ACAMGRCOMPDEF
  2
AcAmGrCompDef
  3
DesignerAssemblies
 90
        0
280
     0
281
     0
  0
CLASS
  1
ACCMCONTEXT
  2
AcCmContext
  3
DesignerAssemblies
 90
        0
280
     0
281
     0
  0
CLASS
  1
ACAMCOMPDEF
  2
AcAmCompDef
  3
DesignerAssemblies
 90
        0
280
     0
281
     0
  0
CLASS
  1
ACAMCOMPDEFMGR
  2
AcAmCompDefMgr
  3
DesignerAssemblies
 90
        0
280
     0
281
     0
  0
CLASS
  1
AMCONTEXTMGR
  2
AcAmContextMgr
  3
DesignerAssemblies
 90
        0
280
     0
281
     0
  0
CLASS
  1
ACAMCONTEXTMODELER
  2
AcAmContextModeler
  3
DesignerAssemblies
 90
        0
280
     0
281
     0
  0
CLASS
  1
ACMDATADICTIONARY
  2
AcmDataDictionary
  3
"AcmSymBB|Product Description: AutoCAD Mechanical 2004 DX|Company: Autodesk"
 90
        0
280
     0
281
     0
  0
CLASS
  1
CATALOGSTATE
  2
AcAmCatalogState
  3
DesignerAssemblies
 90
        0
280
     0
281
     0
  0
CLASS
  1
ACAMGRCOMPDEFSET
  2
AcAmGrCompDefSet
  3
DesignerAssemblies
 90
        0
280
     0
281
     0
  0
CLASS
  1
AMDTBROWSERDBTAB
  2
AmdtBrowserDbTab
  3
McadcomServices
 90
        0
280
     0
281
     0
  0
CLASS
  1
CBROWSERAPPOBJECT
  2
CBrowserAppObject
  3
McadcomServices
 90
        0
280
     0
281
     0
  0
CLASS
  1
DM_PLACEHOLDER
  2
AcDmSelsetPlaceholder
  3
AcMechDwgViewMgmt
 90
        0
280
     0
281
     0
  0
CLASS
  1
ACMSTANDARDISO
  2
AcmStandardISO
  3
"Amdt_StdImp|Product Description: AutoCAD Mechanical 2004 DX|Company: Autodesk"
 90
        0
280
     0
281
     0
  0
CLASS
  1
AMGOBJPROPCFG
  2
AmgObjPropCfg
  3
"AmgLay|Product Description: AutoCAD Mechanical 2000|Company: Autodesk"
 90
        1
280
     0
281
     0
  0
CLASS
  1
AMDTEDGESTANDARDISO13715
  2
AmdtEdgeStdISO13715
  3
"Amdt_StdImp|Product Description: AutoCAD Mechanical 2004 DX|Company: Autodesk"
 90
        0
280
     0
281
     0
  0
CLASS
  1
ACMSURFSTANDARDISO
  2
AcmSurfTextStdISO
  3
"Amdt_StdImp|Product Description: AutoCAD Mechanical 2004 DX|Company: Autodesk"
 90
        0
280
     0
281
     0
  0
CLASS
  1
ACMFCFSTANDARDISO
  2
AcmFCFStdISO
  3
"Amdt_StdImp|Product Description: AutoCAD Mechanical 2004 DX|Company: Autodesk"
 90
        0
280
     0
281
     0
  0
CLASS
  1
ACMWELDSTANDARDISO
  2
AcmWeldingStdISO
  3
"Amdt_StdImp|Product Description: AutoCAD Mechanical 2004 DX|Company: Autodesk"
 90
        0
280
     0
281
     0
  0
CLASS
  1
ACMIDSTANDARDISO
  2
AcmIdStdISO
  3
"Amdt_StdImp|Product Description: AutoCAD Mechanical 2004 DX|Company: Autodesk"
 90
        0
280
     0
281
     0
  0
CLASS
  1
ACMDATUMSTANDARDISO
  2
AcmDatumStdISO
  3
"Amdt_StdImp|Product Description: AutoCAD Mechanical 2004 DX|Company: Autodesk"
 90
        0
280
     0
281
     0
  0
CLASS
  1
ACMBOMSTANDARDISO
  2
AcmBOMStdISO
  3
"Amdt_StdImp|Product Description: AutoCAD Mechanical 2004 DX|Company: Autodesk"
 90
        0
280
     0
281
     0
  0
CLASS
  1
ACMDETAILSTANDARDISO
  2
AmdtDetailSymStdISO
  3
"Amdt_StdImp|Product Description: AutoCAD Mechanical 2004 DX|Company: Autodesk"
 90
        0
280
     0
281
     0
  0
CLASS
  1
ACMSECTIONSTANDARDISO
  2
AmdtSectionSymStdISO
  3
"Amdt_StdImp|Product Description: AutoCAD Mechanical 2004 DX|Company: Autodesk"
 90
        0
280
     0
281
     0
  0
CLASS
  1
ACMCENTERLINESTANDARDISO
  2
AmdtCenterLineStdISO
  3
"Amdt_StdImp|Product Description: AutoCAD Mechanical 2004 DX|Company: Autodesk"
 90
        0
280
     0
281
     0
  0
CLASS
  1
ACMTHREADLINESTANDARDISO
  2
AmdtThreadLineStdISO
  3
"Amdt_StdImp|Product Description: AutoCAD Mechanical 2004 DX|Company: Autodesk"
 90
        0
280
     0
281
     0
  0
CLASS
  1
ACMNOTESTANDARDISO
  2
AmdtNoteStdISO
  3
"Amdt_StdImp|Product Description: AutoCAD Mechanical 2004 DX|Company: Autodesk"
 90
        0
280
     0
281
     0
  0
CLASS
  1
AMDTNOTETEMPLATEDB
  2
AmdtNoteTemplateDB
  3
AMDT_STDIMP_MODULE_NAME
 90
        0
280
     0
281
     0
  0
CLASS
  1
ACAMGLAYSTD
  2
AcAmgLayStd
  3
"AcAmgLayStd|Product Description: AutoCAD Mechanical 2000|Company: Autodesk"
 90
        0
280
     0
281
     0
  0
CLASS
  1
ACAMGDIMSTD
  2
AcAmgDimStd
  3
"AcAmgDimStd|Product Description: AutoCAD Mechanical 2000|Company: Autodesk"
 90
        0
280
     0
281
     0
  0
CLASS
  1
ACAMGHOLECHARTSTDISO
  2
AcAmgHoleChartStdISO
  3
ACMSYMBB_MODULE_NAME
 90
        0
280
     0
281
     0
  0
CLASS
  1
ACAMGTITLESTD
  2
AcAmgTitleStd
  3
"TITLEAPP"
 90
        0
280
     0
281
     0
  0
CLASS
  1
ACAMGFILTERDAT
  2
AcAmgFilterDat
  3
"AcadM|Product Description: AutoCAD Mechanical 2000|Company: Autodesk"
 90
    32768
280
     0
281
     0
  0
CLASS
  1
ASAPP
  2
AcAsAppObject
  3
AutoSurfServices
 90
        0
280
     0
281
     0
  0
CLASS
  1
IM_STATIC_MAN
  2
AcImStaticVarManager
  3
AcMeServices
 90
        0
280
     0
281
     0
  0
CLASS
  1
ACIMDBLSTATICVAR
  2
AcImDblStaticVar
  3
AcMeServices
 90
        0
280
     0
281
     0
  0
CLASS
  1
ACIMSTRSTATICVAR
  2
AcImStrStaticVar
  3
AcMeServices
 90
        0
280
     0
281
     0
  0
CLASS
  1
ACIMINTSTATICVAR
  2
AcImIntStaticVar
  3
AcMeServices
 90
        0
280
     0
281
     0
  0
CLASS
  1
ACASGREFMASTER
  2
AcAsGrefMaster
  3
AutoSurfResolverServices
 90
        0
280
     0
281
     0
  0
CLASS
  1
ACADGREFMODULE
  2
AcAdGrefModule
  3
AdGrefServices
 90
        0
280
     0
281
     0
  0
CLASS
  1
AMDTMAPISURFMOUDULE
  2
AmdtMApiSurfModule
  3
MApiSurfServices
 90
        0
280
     0
281
     0
  0
CLASS
  1
MAPIADMODULE
  2
MApiAdModule
  3
MApiAdServices
 90
        0
280
     0
281
     0
  0
CLASS
  1
ACMDATAENTRYBLOCK
  2
AcmDataEntryBlock
  3
"AcmSymBB|Product Description: AutoCAD Mechanical 2004 DX|Company: Autodesk"
 90
        0
280
     0
281
     0
  0
CLASS
  1
LAYER_INDEX
  2
AcDbLayerIndex
  3
ObjectDBX Classes
 90
        0
280
     0
281
     0
  0
CLASS
  1
IDBUFFER
  2
AcDbIdBuffer
  3
ObjectDBX Classes
 90
        0
280
     0
281
     0
  0
ENDSEC
  0
SECTION
  2
TABLES
  0
TABLE
  2
VPORT
  5
8
330
0
100
AcDbSymbolTable
 70
     3
  0
VPORT
  5
4ECD
330
8
100
AcDbSymbolTableRecord
100
AcDbViewportTableRecord
  2
*Active
 70
     0
 10
0.0
 20
0.0
 11
1.0
 21
1.0
 12
156.3890488737922
 22
136.112427119467
 13
0.0
 23
0.0
 14
0.5
 24
0.5
 15
0.5
 25
0.5
 16
0.0
 26
0.0
 36
1.0
 17
0.0
 27
0.0
 37
0.0
 40
302.1353079225707
 41
1.263157894736842
 42
50.0
 43
0.0
 44
0.0
 50
0.0
 51
0.0
 71
     0
 72
   100
 73
     1
 74
     3
 75
     0
 76
     0
 77
     0
 78
     0
281
     0
 65
     1
110
0.0
120
0.0
130
0.0
111
1.0
121
0.0
131
0.0
112
0.0
122
1.0
132
0.0
 79
     0
146
0.0
  0
ENDTAB
  0
TABLE
  2
LTYPE
  5
5
330
0
100
AcDbSymbolTable
 70
    16
  0
LTYPE
  5
14
330
5
100
AcDbSymbolTableRecord
100
AcDbLinetypeTableRecord
  2
ByBlock
 70
     0
  3

 72
    65
 73
     0
 40
0.0
  0
LTYPE
  5
15
330
5
100
AcDbSymbolTableRecord
100
AcDbLinetypeTableRecord
  2
ByLayer
 70
     0
  3

 72
    65
 73
     0
 40
0.0
  0
LTYPE
  5
16
330
5
100
AcDbSymbolTableRecord
100
AcDbLinetypeTableRecord
  2
Continuous
 70
     0
  3
Solid line
 72
    65
 73
     0
 40
0.0
  0
LTYPE
  5
4F
330
5
100
AcDbSymbolTableRecord
100
AcDbLinetypeTableRecord
  2
CENTER
 70
     0
  3
Center ____ _ ____ _ ____ _ ____ _ ____ _ ____
 72
    65
 73
     4
 40
2.0
 49
1.25
 74
     0
 49
-0.25
 74
     0
 49
0.25
 74
     0
 49
-0.25
 74
     0
  0
LTYPE
  5
29BC
330
5
100
AcDbSymbolTableRecord
100
AcDbLinetypeTableRecord
  2
HIDDEN
 70
     0
  3
__ __ __ __ __ __ __ __ __ __ __ __ __ __ __ __
 72
    65
 73
     2
 40
0.375
 49
0.25
 74
     0
 49
-0.125
 74
     0
  0
LTYPE
  5
29BD
330
5
100
AcDbSymbolTableRecord
100
AcDbLinetypeTableRecord
  2
PHANTOM2
 70
     0
  3
___ _ _ ___ _ _ ___ _ _ ___ _ _ ___ _ _ ___ _ _
 72
    65
 73
     6
 40
1.25
 49
0.625
 74
     0
 49
-0.125
 74
     0
 49
0.125
 74
     0
 49
-0.125
 74
     0
 49
0.125
 74
     0
 49
-0.125
 74
     0
  0
LTYPE
  5
29C2
330
5
100
AcDbSymbolTableRecord
100
AcDbLinetypeTableRecord
  2
Amconstr
 70
     0
  3
_______________________
 72
    65
 73
     2
 40
9999.0
 49
9999.0
 74
     0
 49
0.0
 74
     0
  0
LTYPE
  5
405F
330
5
100
AcDbSymbolTableRecord
100
AcDbLinetypeTableRecord
  2
AM_ISO02W050
 70
     0
  3
__ __ __ __ __ __ __ __ __ __ __ __ __ __ __
 72
    65
 73
     2
 40
7.5
 49
6.0
 74
     0
 49
-1.5
 74
     0
  0
LTYPE
  5
4060
330
5
100
AcDbSymbolTableRecord
100
AcDbLinetypeTableRecord
  2
AM_ISO08W050
 70
     0
  3
____ . ____ . ____ . ____ . ____ . ____ . ____
 72
    65
 73
     4
 40
18.0
 49
12.0
 74
     0
 49
-1.5
 74
     0
 49
3.0
 74
     0
 49
-1.5
 74
     0
  0
LTYPE
  5
4061
330
5
100
AcDbSymbolTableRecord
100
AcDbLinetypeTableRecord
  2
AM_ISO09W050
 70
     0
  3
_____ . . _____ . . _____ . . ____ .. ____
 72
    65
 73
     6
 40
22.5
 49
12.0
 74
     0
 49
-1.5
 74
     0
 49
3.0
 74
     0
 49
-1.5
 74
     0
 49
3.0
 74
     0
 49
-1.5
 74
     0
  0
LTYPE
  5
4062
330
5
100
AcDbSymbolTableRecord
100
AcDbLinetypeTableRecord
  2
AM_ISO08W050x2
 70
     0
  3
__ . __ . __ . __ . __ . __
 72
    65
 73
     4
 40
9.0
 49
6.0
 74
     0
 49
-0.75
 74
     0
 49
1.5
 74
     0
 49
-0.75
 74
     0
  0
LTYPE
  5
4063
330
5
100
AcDbSymbolTableRecord
100
AcDbLinetypeTableRecord
  2
AM_ISO02W050x2
 70
     0
  3
 _ _ _ _ _ _ _ _ _ _ _ _
 72
    65
 73
     2
 40
3.75
 49
3.0
 74
     0
 49
-0.75
 74
     0
  0
LTYPE
  5
4064
330
5
100
AcDbSymbolTableRecord
100
AcDbLinetypeTableRecord
  2
Amzigzag
 70
     0
  3
/\/-/\/-/\/-/\/-/\/-/\/
 72
    65
 73
     2
 40
11.0001
 49
0.0001
 74
     4
 75
   135
340
29C4
 46
0.04
 50
0.0
 44
0.0
 45
0.0
 49
-11.0
 74
     0
  0
LTYPE
  5
4073
330
5
100
AcDbSymbolTableRecord
100
AcDbLinetypeTableRecord
  2
ACISOWELD
 70
     0
  3
_ _ _ _ _
 72
    65
 73
     2
 40
2.0
 49
2.0
 74
     0
 49
-1.0
 74
     0
  0
LTYPE
  5
4074
330
5
100
AcDbSymbolTableRecord
100
AcDbLinetypeTableRecord
  2
ACISOTGB
 70
     0
  3
__ . . __ . .
 72
    65
 73
     6
 40
9.0
 49
4.0
 74
     0
 49
-1.0
 74
     0
 49
1.0
 74
     0
 49
-1.0
 74
     0
 49
1.0
 74
     0
 49
-1.0
 74
     0
  0
LTYPE
  5
4075
330
5
100
AcDbSymbolTableRecord
100
AcDbLinetypeTableRecord
  2
ACISOTGL
 70
     0
  3
_ _ _ _ _
 72
    65
 73
     2
 40
3.0
 49
2.0
 74
     0
 49
-1.0
 74
     0
  0
LTYPE
  5
44F6
330
5
100
AcDbSymbolTableRecord
100
AcDbLinetypeTableRecord
  2
ASULTYPE
 70
     0
  3
實線
 72
    65
 73
     2
 40
3.0
 49
2.5
 74
     0
 49
0.5
 74
     0
  0
LTYPE
  5
44F7
330
5
100
AcDbSymbolTableRecord
100
AcDbLinetypeTableRecord
  2
ASVLTYPE
 70
     0
  3
__ __ __ __ __ __ __ __ __ __ __ __ __ __ __ __ __ __ __ __ __
 72
    65
 73
     2
 40
0.75
 49
0.5
 74
     0
 49
-0.25
 74
     0
  0
ENDTAB
  0
TABLE
  2
LAYER
  5
2
102
{ACAD_XDICTIONARY
360
29CF
102
}
330
0
100
AcDbSymbolTable
 70
     7
  0
LAYER
  5
10
330
2
100
AcDbSymbolTableRecord
100
AcDbLayerTableRecord
  2
0
 70
     0
 62
     7
  6
Continuous
370
    -3
390
F
  0
LAYER
  5
48
330
2
100
AcDbSymbolTableRecord
100
AcDbLayerTableRecord
  2
DIM
 70
     0
 62
     5
  6
Continuous
370
    -3
390
F
  0
LAYER
  5
4A
330
2
100
AcDbSymbolTableRecord
100
AcDbLayerTableRecord
  2
CENTER
 70
     0
 62
     1
  6
CENTER
370
    -3
390
F
  0
LAYER
  5
1545
330
2
100
AcDbSymbolTableRecord
100
AcDbLayerTableRecord
  2
LOGO
 70
     0
 62
     7
  6
Continuous
370
    -3
390
F
  0
LAYER
  5
1A52
330
2
100
AcDbSymbolTableRecord
100
AcDbLayerTableRecord
  2
Defpoints
 70
     0
 62
     7
  6
Continuous
290
     0
370
    -3
390
F
  0
LAYER
  5
4449
330
2
100
AcDbSymbolTableRecord
100
AcDbLayerTableRecord
  2
AM_7
 70
     0
 62
     4
  6
AM_ISO08W050
370
    25
390
F
  0
LAYER
  5
444A
330
2
100
AcDbSymbolTableRecord
100
AcDbLayerTableRecord
  2
AM_5
 70
     0
 62
     3
  6
Continuous
370
    25
390
F
  0
ENDTAB
  0
TABLE
  2
STYLE
  5
3
330
0
100
AcDbSymbolTable
 70
     6
  0
STYLE
  5
11
330
3
100
AcDbSymbolTableRecord
100
AcDbTextStyleTableRecord
  2
Standard
 70
     0
 40
3.0
 41
1.0
 50
0.0
 71
     0
 42
3.0
  3
KAIU.TTF
  4

1001
ACAD
1000
DFKai-SB
1071
    34865
  0
STYLE
  5
5C
330
3
100
AcDbSymbolTableRecord
100
AcDbTextStyleTableRecord
  2
CHINESET
 70
     0
 40
3.0
 41
1.0
 50
0.0
 71
     0
 42
4.5
  3
simplex.shx
  4
CHINESET.shx
  0
STYLE
  5
29C4
330
3
100
AcDbSymbolTableRecord
100
AcDbTextStyleTableRecord
  2

 70
     1
 40
0.0
 41
1.0
 50
0.0
 71
     0
 42
0.12
  3
ltypeshp.shx
  4

  0
STYLE
  5
29C5
330
3
100
AcDbSymbolTableRecord
100
AcDbTextStyleTableRecord
  2
dayus
 70
     0
 40
2.0
 41
1.0
 50
0.0
 71
     0
 42
6.0
  3
simplex.shx
  4
dayus.shx
  0
STYLE
  5
4065
330
3
100
AcDbSymbolTableRecord
100
AcDbTextStyleTableRecord
  2
ACISOTS
 70
     0
 40
1.0
 41
1.0
 50
0.0
 71
     0
 42
4.5
  3
isocp.shx
  4
chineset.shx
  0
STYLE
  5
4072
330
3
100
AcDbSymbolTableRecord
100
AcDbTextStyleTableRecord
  2
ACISOGDT
 70
     0
 40
0.0
 41
1.0
 50
0.0
 71
     0
 42
4.5
  3
amgdt.shx
  4

  0
ENDTAB
  0
TABLE
  2
VIEW
  5
6
330
0
100
AcDbSymbolTable
 70
     0
  0
ENDTAB
  0
TABLE
  2
UCS
  5
7
330
0
100
AcDbSymbolTable
 70
     0
  0
ENDTAB
  0
TABLE
  2
APPID
  5
9
330
0
100
AcDbSymbolTable
 70
    24
  0
APPID
  5
12
330
9
100
AcDbSymbolTableRecord
100
AcDbRegAppTableRecord
  2
ACAD
 70
     0
  0
APPID
  5
5F
330
9
100
AcDbSymbolTableRecord
100
AcDbRegAppTableRecord
  2
AD_DRAW
 70
     0
  0
APPID
  5
60
330
9
100
AcDbSymbolTableRecord
100
AcDbRegAppTableRecord
  2
DESIGNERASSEMBLIES
 70
     0
  0
APPID
  5
61
330
9
100
AcDbSymbolTableRecord
100
AcDbRegAppTableRecord
  2
MCAD_NO_VIS
 70
     0
  0
APPID
  5
62
330
9
100
AcDbSymbolTableRecord
100
AcDbRegAppTableRecord
  2
ASURF_PCURVE_APPNAME
 70
     0
  0
APPID
  5
11A1
330
9
100
AcDbSymbolTableRecord
100
AcDbRegAppTableRecord
  2
CONTENTBLOCKICON
 70
     0
  0
APPID
  5
29CE
330
9
100
AcDbSymbolTableRecord
100
AcDbRegAppTableRecord
  2
GENIUS_GENDTOL_13
 70
     0
  0
APPID
  5
4000
330
9
100
AcDbSymbolTableRecord
100
AcDbRegAppTableRecord
  2
ACAD_TEMP_GRAPHIC
 70
     0
  0
APPID
  5
4031
330
9
100
AcDbSymbolTableRecord
100
AcDbRegAppTableRecord
  2
ACATTRIBSERVICES
 70
     0
  0
APPID
  5
4054
330
9
100
AcDbSymbolTableRecord
100
AcDbRegAppTableRecord
  2
ACADM_DIM_EDIT
 70
     0
  0
APPID
  5
4055
330
9
100
AcDbSymbolTableRecord
100
AcDbRegAppTableRecord
  2
AMDT_DM_ADJ
 70
     0
  0
APPID
  5
408B
330
9
100
AcDbSymbolTableRecord
100
AcDbRegAppTableRecord
  2
GENIUS_GENOENT_13
 70
     0
  0
APPID
  5
408C
330
9
100
AcDbSymbolTableRecord
100
AcDbRegAppTableRecord
  2
GENIUS_GENOBJ-N-CRS_13
 70
     0
  0
APPID
  5
408D
330
9
100
AcDbSymbolTableRecord
100
AcDbRegAppTableRecord
  2
GENIUS_GENOLIS_13
 70
     0
  0
APPID
  5
408E
330
9
100
AcDbSymbolTableRecord
100
AcDbRegAppTableRecord
  2
GENIUS_GENODEF_13
 70
     0
  0
APPID
  5
408F
330
9
100
AcDbSymbolTableRecord
100
AcDbRegAppTableRecord
  2
GENIUS_GENOREF_13
 70
     0
  0
APPID
  5
4090
330
9
100
AcDbSymbolTableRecord
100
AcDbRegAppTableRecord
  2
ACAD_PSEXT
 70
     0
  0
APPID
  5
4091
330
9
100
AcDbSymbolTableRecord
100
AcDbRegAppTableRecord
  2
GENIUS_GENREC_14
 70
     0
  0
APPID
  5
4092
330
9
100
AcDbSymbolTableRecord
100
AcDbRegAppTableRecord
  2
GENIUS_GENOBJ-N-REC_13
 70
     0
  0
APPID
  5
444B
330
9
100
AcDbSymbolTableRecord
100
AcDbRegAppTableRecord
  2
GENIUS_GENOBJ-N-CEN_13
 70
     0
  0
APPID
  5
444C
330
9
100
AcDbSymbolTableRecord
100
AcDbRegAppTableRecord
  2
GENIUS_GENCEN_19
 70
     0
  0
APPID
  5
44A5
330
9
100
AcDbSymbolTableRecord
100
AcDbRegAppTableRecord
  2
GENIUS_GENDIM_13
 70
     0
  0
APPID
  5
44A6
330
9
100
AcDbSymbolTableRecord
100
AcDbRegAppTableRecord
  2
GENIUS_GE3DTOL_13
 70
     0
  0
APPID
  5
44FB
330
9
100
AcDbSymbolTableRecord
100
AcDbRegAppTableRecord
  2
AMG_3D2D_5.0
 70
     0
  0
ENDTAB
  0
TABLE
  2
DIMSTYLE
  5
A
330
0
100
AcDbSymbolTable
 70
    12
100
AcDbDimStyleTable
 71
     2
340
29C8
340
1A4
  0
DIMSTYLE
105
1A4
330
A
100
AcDbSymbolTableRecord
100
AcDbDimStyleTableRecord
  2
ISO-25-1
 70
     0
 41
3.0
 42
3.0
 43
2.0
 44
2.0
 73
     0
 74
     0
 77
     1
 78
     8
 79
     2
140
3.0
141
-3.0
146
0.7
147
1.0
172
     1
176
   256
177
   256
178
   256
271
     2
272
     2
284
     8
289
     0
340
5C
371
    -1
372
    -1
  0
DIMSTYLE
105
29C8
102
{ACAD_REACTORS
330
3BD0
330
3BD3
330
3BD6
330
3BD9
330
3BEB
330
4AD5
330
4AFF
330
4B00
330
4BFF
330
4C4A
330
4C7B
330
4CAC
330
4CD0
330
4D27
330
4D62
330
4D64
330
4D65
330
4D5E
330
4D5F
330
4D60
330
4D61
102
}
330
A
100
AcDbSymbolTableRecord
100
AcDbDimStyleTableRecord
  2
AM_ANSI
 70
     0
  4
"
 41
2.5
 42
1.0
 43
10.0
 44
1.0
 47
0.1
 48
0.1
 78
     8
 79
     2
140
3.5
141
0.0
143
0.0393701
146
0.71
147
1.5
176
   256
177
   256
178
     2
271
     2
272
     3
274
     4
284
     8
340
11
371
    -1
372
    -1
  0
DIMSTYLE
105
29CB
330
A
100
AcDbSymbolTableRecord
100
AcDbDimStyleTableRecord
  2
AM_ANSI$7
 70
     0
  4
"
 41
2.5
 42
1.0
 43
10.0
 44
1.0
 47
0.1
 48
0.1
 78
     8
 79
     2
140
5.0
141
0.0
143
0.0393701
146
0.71
147
1.5
176
   256
177
   256
178
     2
271
     2
272
     3
274
     4
284
     8
340
11
371
    -1
372
    -1
  0
DIMSTYLE
105
407F
330
A
100
AcDbSymbolTableRecord
100
AcDbDimStyleTableRecord
  2
AM_ISO
 70
     0
  4
"
 41
2.5
 42
1.0
 43
10.0
 44
1.0
 47
0.1
 48
0.1
 73
     0
 74
     0
 77
     1
 78
     8
 79
     2
140
3.5
141
0.0
143
0.0393701
146
0.71
147
1.5
172
     1
176
   256
177
   256
178
     2
271
     2
272
     3
274
     4
283
     0
284
     8
340
11
371
    -1
372
    -1
  0
DIMSTYLE
105
4080
330
A
100
AcDbSymbolTableRecord
100
AcDbDimStyleTableRecord
  2
AM_ISO$3
 70
     0
  4
"
 41
2.5
 42
1.0
 43
10.0
 44
1.0
 47
0.1
 48
0.1
 73
     0
 77
     1
 78
     8
 79
     2
140
3.5
141
0.0
143
0.0393701
146
0.71
147
1.5
176
   256
177
   256
178
     2
271
     2
272
     3
274
     4
283
     0
284
     8
288
     1
289
     0
340
11
371
    -1
372
    -1
  0
DIMSTYLE
105
4081
330
A
100
AcDbSymbolTableRecord
100
AcDbDimStyleTableRecord
  2
AM_ISO$4
 70
     0
  4
"
 41
2.5
 42
1.0
 43
10.0
 44
1.0
 47
0.1
 48
0.1
 73
     0
 77
     1
 78
     8
 79
     2
140
3.5
141
0.0
143
0.0393701
146
0.71
147
1.5
176
   256
177
   256
178
     2
271
     2
272
     3
274
     4
283
     0
284
     8
288
     1
289
     0
340
11
371
    -1
372
    -1
  0
DIMSTYLE
105
4082
330
A
100
AcDbSymbolTableRecord
100
AcDbDimStyleTableRecord
  2
AM_ISO$6
 70
     0
  4
"
 41
2.5
 42
1.0
 43
10.0
 44
1.0
 47
0.1
 48
0.1
 73
     0
 74
     0
 78
     8
 79
     2
140
3.5
141
0.0
143
0.0393701
146
0.71
147
1.5
172
     1
176
   256
177
   256
178
     2
271
     2
272
     3
274
     4
283
     0
284
     8
340
11
371
    -1
372
    -1
  0
DIMSTYLE
105
4083
330
A
100
AcDbSymbolTableRecord
100
AcDbDimStyleTableRecord
  2
AM_ISO$7
 70
     0
  4
"
 41
2.5
 42
1.0
 43
10.0
 44
1.0
 47
0.1
 48
0.1
 73
     0
 74
     0
 77
     1
 78
     8
 79
     2
140
5.0
141
0.0
143
0.0393701
146
0.71
147
1.5
172
     1
176
   256
177
   256
178
     2
271
     2
272
     3
274
     4
283
     0
284
     8
340
11
371
    -1
372
    -1
  0
DIMSTYLE
105
4084
330
A
100
AcDbSymbolTableRecord
100
AcDbDimStyleTableRecord
  2
AM_ISO$SF
 70
     0
  4
"
 41
2.5
 42
1.0
 43
10.0
 44
1.0
 47
0.1
 48
0.1
 73
     0
 74
     0
 75
     1
 76
     1
 77
     1
 78
     8
 79
     2
140
3.5
141
0.0
143
0.0393701
146
0.71
147
1.5
172
     1
176
   256
177
   256
178
     2
271
     2
272
     3
274
     4
283
     0
284
     8
340
11
371
    -1
372
    -1
  0
DIMSTYLE
105
4085
330
A
100
AcDbSymbolTableRecord
100
AcDbDimStyleTableRecord
  2
AM_ISO$SH
 70
     0
  4
"
 41
2.5
 42
1.0
 43
10.0
 44
1.0
 47
0.1
 48
0.1
 73
     0
 74
     0
 75
     1
 76
     1
 77
     1
 78
     8
 79
     2
140
3.5
141
0.0
143
0.0393701
144
2.0
146
0.71
147
1.5
172
     1
173
     1
176
   256
177
   256
178
     2
271
     2
272
     3
274
     4
283
     0
284
     8
340
11
343
2864
371
    -1
372
    -1
  0
DIMSTYLE
105
451F
330
A
100
AcDbSymbolTableRecord
100
AcDbDimStyleTableRecord
  2
ISO-25
 70
     0
 41
2.5
 42
0.625
 43
3.75
 44
1.25
 73
     0
 74
     0
 77
     1
 78
     8
140
2.5
141
2.5
143
0.03937007874016
147
0.625
171
     3
172
     1
271
     2
272
     2
274
     3
278
    44
283
     0
284
     8
340
11
  0
DIMSTYLE
105
4AD1
330
A
100
AcDbSymbolTableRecord
100
AcDbDimStyleTableRecord
  2
ISO-25-1$0
 70
     0
 41
3.0
 42
3.0
 43
2.0
 44
2.0
 73
     0
 74
     0
 77
     1
 78
     8
 79
     2
140
3.0
141
-3.0
146
0.7
147
1.0
172
     1
176
   256
177
   256
178
   256
271
     2
272
     2
284
     8
289
     0
340
5C
371
    -1
372
    -1
  0
ENDTAB
  0
TABLE
  2
BLOCK_RECORD
  5
1
330
0
100
AcDbSymbolTable
 70
    26
  0
BLOCK_RECORD
  5
1F
102
{ACAD_XDICTIONARY
360
27C8
102
}
330
1
100
AcDbSymbolTableRecord
100
AcDbBlockTableRecord
  2
*Model_Space
340
22
  0
BLOCK_RECORD
  5
1B
102
{ACAD_XDICTIONARY
360
27CA
102
}
330
1
100
AcDbSymbolTableRecord
100
AcDbBlockTableRecord
  2
*Paper_Space
340
1E
  0
BLOCK_RECORD
  5
23
102
{ACAD_XDICTIONARY
360
27CC
102
}
330
1
100
AcDbSymbolTableRecord
100
AcDbBlockTableRecord
  2
*Paper_Space0
340
26
  0
BLOCK_RECORD
  5
2864
330
1
100
AcDbSymbolTableRecord
100
AcDbBlockTableRecord
  2
GENAXEH
340
0
  0
BLOCK_RECORD
  5
3C80
330
1
100
AcDbSymbolTableRecord
100
AcDbBlockTableRecord
  2
*D2
340
0
  0
BLOCK_RECORD
  5
3C8C
330
1
100
AcDbSymbolTableRecord
100
AcDbBlockTableRecord
  2
*D3
340
0
  0
BLOCK_RECORD
  5
3C98
330
1
100
AcDbSymbolTableRecord
100
AcDbBlockTableRecord
  2
*D4
340
0
  0
BLOCK_RECORD
  5
3CA4
330
1
100
AcDbSymbolTableRecord
100
AcDbBlockTableRecord
  2
*D5
340
0
  0
BLOCK_RECORD
  5
3CD6
330
1
100
AcDbSymbolTableRecord
100
AcDbBlockTableRecord
  2
*D6
340
0
  0
BLOCK_RECORD
  5
42E6
102
{ACAD_XDICTIONARY
360
42E7
102
}
330
1
100
AcDbSymbolTableRecord
100
AcDbBlockTableRecord
  2
A$C5ECF147B
340
0
  0
BLOCK_RECORD
  5
4440
102
{ACAD_XDICTIONARY
360
4441
102
}
330
1
100
AcDbSymbolTableRecord
100
AcDbBlockTableRecord
  2
A$C1F6E6265
340
0
102
{BLKREFS
331
4AFC
331
4AFE
102
}
  0
BLOCK_RECORD
  5
4AD6
330
1
100
AcDbSymbolTableRecord
100
AcDbBlockTableRecord
  2
*D10
340
0
  0
BLOCK_RECORD
  5
4B01
330
1
100
AcDbSymbolTableRecord
100
AcDbBlockTableRecord
  2
*D11
340
0
  0
BLOCK_RECORD
  5
4B0D
330
1
100
AcDbSymbolTableRecord
100
AcDbBlockTableRecord
  2
*D12
340
0
  0
BLOCK_RECORD
  5
4C0C
330
1
100
AcDbSymbolTableRecord
100
AcDbBlockTableRecord
  2
*D13
340
0
  0
BLOCK_RECORD
  5
4C4B
330
1
100
AcDbSymbolTableRecord
100
AcDbBlockTableRecord
  2
*D14
340
0
  0
BLOCK_RECORD
  5
4C7C
330
1
100
AcDbSymbolTableRecord
100
AcDbBlockTableRecord
  2
*D15
340
0
  0
BLOCK_RECORD
  5
4CAD
330
1
100
AcDbSymbolTableRecord
100
AcDbBlockTableRecord
  2
*D16
340
0
  0
BLOCK_RECORD
  5
4CD1
330
1
100
AcDbSymbolTableRecord
100
AcDbBlockTableRecord
  2
*D17
340
0
  0
BLOCK_RECORD
  5
4D28
330
1
100
AcDbSymbolTableRecord
100
AcDbBlockTableRecord
  2
*D18
340
0
  0
BLOCK_RECORD
  5
4D66
330
1
100
AcDbSymbolTableRecord
100
AcDbBlockTableRecord
  2
*D19
340
0
  0
BLOCK_RECORD
  5
4D7E
330
1
100
AcDbSymbolTableRecord
100
AcDbBlockTableRecord
  2
*D20
340
0
  0
BLOCK_RECORD
  5
4D8A
330
1
100
AcDbSymbolTableRecord
100
AcDbBlockTableRecord
  2
*D21
340
0
  0
BLOCK_RECORD
  5
4D96
330
1
100
AcDbSymbolTableRecord
100
AcDbBlockTableRecord
  2
*D22
340
0
  0
BLOCK_RECORD
  5
4DA2
330
1
100
AcDbSymbolTableRecord
100
AcDbBlockTableRecord
  2
*D23
340
0
  0
BLOCK_RECORD
  5
4DAE
330
1
100
AcDbSymbolTableRecord
100
AcDbBlockTableRecord
  2
*D24
340
0
  0
BLOCK_RECORD
  5
4DBA
330
1
100
AcDbSymbolTableRecord
100
AcDbBlockTableRecord
  2
*D25
340
0
  0
ENDTAB
  0
ENDSEC
  0
SECTION
  2
BLOCKS
  0
BLOCK
  5
20
330
1F
100
AcDbEntity
  8
0
100
AcDbBlockBegin
  2
*Model_Space
 70
     0
 10
0.0
 20
0.0
 30
0.0
  3
*Model_Space
  1

  0
ENDBLK
  5
21
330
1F
100
AcDbEntity
  8
0
100
AcDbBlockEnd
  0
BLOCK
  5
1C
330
1B
100
AcDbEntity
 67
     1
  8
0
100
AcDbBlockBegin
  2
*Paper_Space
 70
     0
 10
0.0
 20
0.0
 30
0.0
  3
*Paper_Space
  1

  0
ENDBLK
  5
1D
330
1B
100
AcDbEntity
 67
     1
  8
0
100
AcDbBlockEnd
  0
BLOCK
  5
24
330
23
100
AcDbEntity
  8
0
100
AcDbBlockBegin
  2
*Paper_Space0
 70
     0
 10
0.0
 20
0.0
 30
0.0
  3
*Paper_Space0
  1

  0
ENDBLK
  5
25
330
23
100
AcDbEntity
  8
0
100
AcDbBlockEnd
  0
BLOCK
  5
2865
330
2864
100
AcDbEntity
  8
0
100
AcDbBlockBegin
  2
GENAXEH
 70
     0
 10
0.0
 20
0.0
 30
0.0
  3
GENAXEH
  1

  0
LINE
  5
2866
330
2864
100
AcDbEntity
  8
0
100
AcDbLine
 10
-1.0
 20
0.0
 30
0.0
 11
1.0
 21
0.0
 31
0.0
  0
ENDBLK
  5
2867
330
2864
100
AcDbEntity
  8
0
100
AcDbBlockEnd
  0
BLOCK
  5
3C8A
330
3C80
100
AcDbEntity
  8
0
100
AcDbBlockBegin
  2
*D2
 70
     1
 10
0.0
 20
0.0
 30
0.0
  3
*D2
  1

  0
LINE
  5
4D04
330
3C80
100
AcDbEntity
  8
DIM
100
AcDbLine
 10
119.7432065244402
 20
214.79882520906
 30
0.0
 11
119.7432065244402
 21
210.9629870649352
 31
0.0
  0
LINE
  5
4D05
330
3C80
100
AcDbEntity
  8
DIM
100
AcDbLine
 10
126.74320652444
 20
197.0180846471507
 30
0.0
 11
126.74320652444
 21
213.9629870649352
 31
0.0
  0
LINE
  5
4D06
330
3C80
100
AcDbEntity
  8
DIM
100
AcDbLine
 10
121.7432065244402
 20
212.4629870649352
 30
0.0
 11
124.74320652444
 21
212.4629870649352
 31
0.0
  0
SOLID
  5
4D07
330
3C80
100
AcDbEntity
  8
DIM
100
AcDbTrace
 10
121.7432065244402
 20
212.7963203982686
 30
0.0
 11
121.7432065244402
 21
212.1296537316019
 31
0.0
 12
119.7432065244402
 22
212.4629870649352
 32
0.0
 13
119.7432065244402
 23
212.4629870649352
 33
0.0
  0
SOLID
  5
4D08
330
3C80
100
AcDbEntity
  8
DIM
100
AcDbTrace
 10
124.74320652444
 20
212.7963203982686
 30
0.0
 11
124.74320652444
 21
212.1296537316019
 31
0.0
 12
126.74320652444
 22
212.4629870649352
 32
0.0
 13
126.74320652444
 23
212.4629870649352
 33
0.0
  0
MTEXT
  5
4D09
330
3C80
100
AcDbEntity
  8
DIM
100
AcDbMText
 10
123.2432065244401
 20
214.4629870649352
 30
0.0
 40
2.0
 41
0.0
 71
     5
 72
     1
  1
\A1;7
  7
dayus
 73
     1
 44
1.0
1001
ACAD
1000
MTEXTBEGIN
1070
    73
1070
     1
1070
    44
1040
1.0
1070
    74
1070
     0
1000
MTEXTEND
  0
POINT
  5
4D0A
330
3C80
100
AcDbEntity
  8
Defpoints
 62
     0
100
AcDbPoint
 10
119.7432065244402
 20
216.29882520906
 30
0.0
  0
POINT
  5
4D0B
330
3C80
100
AcDbEntity
  8
Defpoints
 62
     0
100
AcDbPoint
 10
126.74320652444
 20
195.5180846471507
 30
0.0
  0
POINT
  5
4D0C
330
3C80
100
AcDbEntity
  8
Defpoints
 62
     0
100
AcDbPoint
 10
126.74320652444
 20
212.4629870649352
 30
0.0
  0
ENDBLK
  5
3C8B
330
3C80
100
AcDbEntity
  8
0
100
AcDbBlockEnd
  0
BLOCK
  5
3C96
330
3C8C
100
AcDbEntity
  8
0
100
AcDbBlockBegin
  2
*D3
 70
     1
 10
0.0
 20
0.0
 30
0.0
  3
*D3
  1

  0
LINE
  5
4CFB
330
3C8C
100
AcDbEntity
  8
DIM
100
AcDbLine
 10
154.74320652444
 20
197.0180846471506
 30
0.0
 11
154.74320652444
 21
213.9629870649352
 31
0.0
  0
LINE
  5
4CFC
330
3C8C
100
AcDbEntity
  8
DIM
100
AcDbLine
 10
161.7432059581959
 20
210.0601820245456
 30
0.0
 11
161.7432059581959
 21
213.9629870649352
 31
0.0
  0
LINE
  5
4CFD
330
3C8C
100
AcDbEntity
  8
DIM
100
AcDbLine
 10
156.74320652444
 20
212.4629870649352
 30
0.0
 11
159.7432059581959
 21
212.4629870649352
 31
0.0
  0
SOLID
  5
4CFE
330
3C8C
100
AcDbEntity
  8
DIM
100
AcDbTrace
 10
156.74320652444
 20
212.7963203982685
 30
0.0
 11
156.74320652444
 21
212.1296537316018
 31
0.0
 12
154.74320652444
 22
212.4629870649352
 32
0.0
 13
154.74320652444
 23
212.4629870649352
 33
0.0
  0
SOLID
  5
4CFF
330
3C8C
100
AcDbEntity
  8
DIM
100
AcDbTrace
 10
159.7432059581959
 20
212.7963203982685
 30
0.0
 11
159.7432059581959
 21
212.1296537316018
 31
0.0
 12
161.7432059581959
 22
212.4629870649352
 32
0.0
 13
161.7432059581959
 23
212.4629870649352
 33
0.0
  0
MTEXT
  5
4D00
330
3C8C
100
AcDbEntity
  8
DIM
100
AcDbMText
 10
158.243206241318
 20
214.4629870649352
 30
0.0
 40
2.0
 41
0.0
 71
     5
 72
     1
  1
\A1;7
  7
dayus
 73
     1
 44
1.0
1001
ACAD
1000
MTEXTBEGIN
1070
    73
1070
     1
1070
    44
1040
1.0
1070
    74
1070
     0
1000
MTEXTEND
  0
POINT
  5
4D01
330
3C8C
100
AcDbEntity
  8
Defpoints
 62
     0
100
AcDbPoint
 10
154.74320652444
 20
195.5180846471506
 30
0.0
  0
POINT
  5
4D02
330
3C8C
100
AcDbEntity
  8
Defpoints
 62
     0
100
AcDbPoint
 10
161.7432059581959
 20
208.5601820245456
 30
0.0
  0
POINT
  5
4D03
330
3C8C
100
AcDbEntity
  8
Defpoints
 62
     0
100
AcDbPoint
 10
161.7432059581959
 20
212.4629870649352
 30
0.0
  0
ENDBLK
  5
3C97
330
3C8C
100
AcDbEntity
  8
0
100
AcDbBlockEnd
  0
BLOCK
  5
3CA2
330
3C98
100
AcDbEntity
  8
0
100
AcDbBlockBegin
  2
*D4
 70
     1
 10
0.0
 20
0.0
 30
0.0
  3
*D4
  1

  0
LINE
  5
4BC8
330
3C98
100
AcDbEntity
  8
DIM
100
AcDbLine
 10
119.74320652444
 20
210.0601820245458
 30
0.0
 11
119.74320652444
 21
224.9503853367413
 31
0.0
  0
LINE
  5
4BC9
330
3C98
100
AcDbEntity
  8
DIM
100
AcDbLine
 10
161.7432059581959
 20
209.5601810112668
 30
0.0
 11
161.7432059581959
 21
224.9503853367413
 31
0.0
  0
LINE
  5
4BCA
330
3C98
100
AcDbEntity
  8
DIM
100
AcDbLine
 10
121.74320652444
 20
223.4503853367413
 30
0.0
 11
159.7432059581959
 21
223.4503853367413
 31
0.0
  0
SOLID
  5
4BCB
330
3C98
100
AcDbEntity
  8
DIM
100
AcDbTrace
 10
121.74320652444
 20
223.7837186700746
 30
0.0
 11
121.74320652444
 21
223.1170520034079
 31
0.0
 12
119.74320652444
 22
223.4503853367413
 32
0.0
 13
119.74320652444
 23
223.4503853367413
 33
0.0
  0
SOLID
  5
4BCC
330
3C98
100
AcDbEntity
  8
DIM
100
AcDbTrace
 10
159.7432059581959
 20
223.7837186700746
 30
0.0
 11
159.7432059581959
 21
223.1170520034079
 31
0.0
 12
161.7432059581959
 22
223.4503853367413
 32
0.0
 13
161.7432059581959
 23
223.4503853367413
 33
0.0
  0
MTEXT
  5
4BCD
330
3C98
100
AcDbEntity
  8
DIM
100
AcDbMText
 10
140.7432062413179
 20
225.4503853367413
 30
0.0
 40
2.0
 41
0.0
 71
     5
 72
     1
  1
\A1;37+stroke=42
  7
dayus
 73
     1
 44
1.0
1001
ACAD
1000
MTEXTBEGIN
1070
    73
1070
     1
1070
    44
1040
1.0
1070
    74
1070
     0
1000
MTEXTEND
  0
POINT
  5
4BCE
330
3C98
100
AcDbEntity
  8
Defpoints
 62
     0
100
AcDbPoint
 10
119.74320652444
 20
208.5601820245458
 30
0.0
  0
POINT
  5
4BCF
330
3C98
100
AcDbEntity
  8
Defpoints
 62
     0
100
AcDbPoint
 10
161.7432059581959
 20
208.0601810112668
 30
0.0
  0
POINT
  5
4BD0
330
3C98
100
AcDbEntity
  8
Defpoints
 62
     0
100
AcDbPoint
 10
161.7432059581959
 20
223.4503853367413
 30
0.0
  0
ENDBLK
  5
3CA3
330
3C98
100
AcDbEntity
  8
0
100
AcDbBlockEnd
  0
BLOCK
  5
3CAE
330
3CA4
100
AcDbEntity
  8
0
100
AcDbBlockBegin
  2
*D5
 70
     1
 10
0.0
 20
0.0
 30
0.0
  3
*D5
  1

  0
LINE
  5
4BD1
330
3CA4
100
AcDbEntity
  8
DIM
100
AcDbLine
 10
97.74320664364928
 20
195.3101814694776
 30
0.0
 11
97.74320664364928
 21
233.1664725637169
 31
0.0
  0
LINE
  5
4BD2
330
3CA4
100
AcDbEntity
  8
DIM
100
AcDbLine
 10
161.7432059581959
 20
210.0601820245456
 30
0.0
 11
161.7432059581959
 21
233.1664725637169
 31
0.0
  0
LINE
  5
4BD3
330
3CA4
100
AcDbEntity
  8
DIM
100
AcDbLine
 10
99.74320664364928
 20
231.666472563717
 30
0.0
 11
159.7432059581959
 21
231.666472563717
 31
0.0
  0
SOLID
  5
4BD4
330
3CA4
100
AcDbEntity
  8
DIM
100
AcDbTrace
 10
99.74320664364928
 20
231.9998058970503
 30
0.0
 11
99.74320664364928
 21
231.3331392303836
 31
0.0
 12
97.74320664364928
 22
231.666472563717
 32
0.0
 13
97.74320664364928
 23
231.666472563717
 33
0.0
  0
SOLID
  5
4BD5
330
3CA4
100
AcDbEntity
  8
DIM
100
AcDbTrace
 10
159.7432059581959
 20
231.9998058970503
 30
0.0
 11
159.7432059581959
 21
231.3331392303836
 31
0.0
 12
161.7432059581959
 22
231.666472563717
 32
0.0
 13
161.7432059581959
 23
231.666472563717
 33
0.0
  0
MTEXT
  5
4BD6
330
3CA4
100
AcDbEntity
  8
DIM
100
AcDbMText
 10
129.7432063009226
 20
233.666472563717
 30
0.0
 40
2.0
 41
0.0
 71
     5
 72
     1
  1
\A1;59+stroke=64
  7
dayus
 73
     1
 44
1.0
1001
ACAD
1000
MTEXTBEGIN
1070
    73
1070
     1
1070
    44
1040
1.0
1070
    74
1070
     0
1000
MTEXTEND
  0
POINT
  5
4BD7
330
3CA4
100
AcDbEntity
  8
Defpoints
 62
     0
100
AcDbPoint
 10
97.74320664364928
 20
193.8101814694776
 30
0.0
  0
POINT
  5
4BD8
330
3CA4
100
AcDbEntity
  8
Defpoints
 62
     0
100
AcDbPoint
 10
161.7432059581959
 20
208.5601820245456
 30
0.0
  0
POINT
  5
4BD9
330
3CA4
100
AcDbEntity
  8
Defpoints
 62
     0
100
AcDbPoint
 10
161.7432059581959
 20
231.666472563717
 30
0.0
  0
ENDBLK
  5
3CAF
330
3CA4
100
AcDbEntity
  8
0
100
AcDbBlockEnd
  0
BLOCK
  5
3CE0
330
3CD6
100
AcDbEntity
  8
0
100
AcDbBlockBegin
  2
*D6
 70
     1
 10
0.0
 20
0.0
 30
0.0
  3
*D6
  1

  0
LINE
  5
4BDA
330
3CD6
100
AcDbEntity
  8
DIM
100
AcDbLine
 10
215.232682720795
 20
208.0180846471508
 30
0.0
 11
215.232682720795
 21
214.4649516079877
 31
0.0
  0
LINE
  5
4BDB
330
3CD6
100
AcDbEntity
  8
DIM
100
AcDbLine
 10
237.232682720795
 20
208.0180846471508
 30
0.0
 11
237.232682720795
 21
214.4649516079877
 31
0.0
  0
LINE
  5
4BDC
330
3CD6
100
AcDbEntity
  8
DIM
100
AcDbLine
 10
217.232682720795
 20
212.9649516079877
 30
0.0
 11
235.232682720795
 21
212.9649516079877
 31
0.0
  0
SOLID
  5
4BDD
330
3CD6
100
AcDbEntity
  8
DIM
100
AcDbTrace
 10
217.232682720795
 20
213.2982849413211
 30
0.0
 11
217.232682720795
 21
212.6316182746544
 31
0.0
 12
215.232682720795
 22
212.9649516079877
 32
0.0
 13
215.232682720795
 23
212.9649516079877
 33
0.0
  0
SOLID
  5
4BDE
330
3CD6
100
AcDbEntity
  8
DIM
100
AcDbTrace
 10
235.232682720795
 20
213.2982849413211
 30
0.0
 11
235.232682720795
 21
212.6316182746544
 31
0.0
 12
237.232682720795
 22
212.9649516079877
 32
0.0
 13
237.232682720795
 23
212.9649516079877
 33
0.0
  0
MTEXT
  5
4BDF
330
3CD6
100
AcDbEntity
  8
DIM
100
AcDbMText
 10
226.232682720795
 20
214.9649516079877
 30
0.0
 40
2.0
 41
0.0
 71
     5
 72
     1
  1
\A1;□22
  7
dayus
 73
     1
 44
1.0
1001
ACAD
1000
MTEXTBEGIN
1070
    73
1070
     1
1070
    44
1040
1.0
1070
    74
1070
     0
1000
MTEXTEND
  0
POINT
  5
4BE0
330
3CD6
100
AcDbEntity
  8
Defpoints
 62
     0
100
AcDbPoint
 10
215.232682720795
 20
206.5180846471508
 30
0.0
  0
POINT
  5
4BE1
330
3CD6
100
AcDbEntity
  8
Defpoints
 62
     0
100
AcDbPoint
 10
237.232682720795
 20
206.5180846471508
 30
0.0
  0
POINT
  5
4BE2
330
3CD6
100
AcDbEntity
  8
Defpoints
 62
     0
100
AcDbPoint
 10
237.232682720795
 20
212.9649516079877
 30
0.0
  0
ENDBLK
  5
3CE1
330
3CD6
100
AcDbEntity
  8
0
100
AcDbBlockEnd
  0
BLOCK
  5
42E8
330
42E6
100
AcDbEntity
  8
0
100
AcDbBlockBegin
  2
A$C5ECF147B
 70
     0
 10
0.0
 20
0.0
 30
0.0
  3
A$C5ECF147B
  1

  0
CIRCLE
  5
42E9
330
42E6
100
AcDbEntity
  8
0
100
AcDbCircle
 10
-3.079240456948355
 20
2.061381943681453
 30
0.0
 40
1.25
  0
CIRCLE
  5
42EA
330
42E6
100
AcDbEntity
  8
0
100
AcDbCircle
 10
-3.079240456948355
 20
2.061381943681453
 30
0.0
 40
0.75
  0
ENDBLK
  5
42EB
330
42E6
100
AcDbEntity
  8
0
100
AcDbBlockEnd
  0
BLOCK
  5
4443
330
4440
100
AcDbEntity
  8
0
100
AcDbBlockBegin
  2
A$C1F6E6265
 70
     0
 10
0.0
 20
0.0
 30
0.0
  3
A$C1F6E6265
  1

  0
LINE
  5
4444
330
4440
100
AcDbEntity
  8
AM_5
 62
     5
100
AcDbLine
 10
12.57846733029419
 20
0.460783587398737
 30
0.0
 11
7.091423997858555
 21
0.460783587398737
 31
0.0
  0
LINE
  5
4445
330
4440
100
AcDbEntity
  8
AM_5
 62
     5
100
AcDbLine
 10
7.091423997858555
 20
0.460783587398737
 30
0.0
 11
3.50000046420655
 21
0.460783587398737
 31
0.0
  0
TRACE
  5
4446
330
4440
100
AcDbEntity
  8
AM_5
 62
     5
370
    35
100
AcDbTrace
 10
3.50000046420655
 20
0.9215673268987245
 30
0.0
 11
3.50000046420655
 21
-0.0000001521012507
 31
0.0
 12
0.0000004642065505
 22
0.460783587398737
 32
0.0
 13
0.0000004642065505
 23
0.460783587398737
 33
0.0
  0
MTEXT
  5
4447
330
4440
100
AcDbEntity
  8
AM_5
 62
     5
100
AcDbMText
 10
6.603782167567317
 20
1.421084835219261
 30
0.0
 40
2.449999999999999
 41
0.0
 71
     7
 72
     5
  1
SL
  7
ACISOTS
 73
     1
 44
1.0
1001
ACAD
1000
MTEXTBEGIN
1070
    73
1070
     1
1070
    44
1040
1.0
1070
    74
1070
     0
1000
MTEXTEND
  0
ENDBLK
  5
4448
330
4440
100
AcDbEntity
  8
0
100
AcDbBlockEnd
  0
BLOCK
  5
4AE2
330
4AD6
100
AcDbEntity
  8
0
100
AcDbBlockBegin
  2
*D10
 70
     1
 10
0.0
 20
0.0
 30
0.0
  3
*D10
  1

  0
LINE
  5
4BE3
330
4AD6
100
AcDbEntity
  8
DIM
100
AcDbLine
 10
113.7432064722859
 20
196.8101812496854
 30
0.0
 11
113.7432064722859
 21
224.9503853367412
 31
0.0
  0
LINE
  5
4BE4
330
4AD6
100
AcDbEntity
  8
DIM
100
AcDbLine
 10
119.74320652444
 20
209.5601810112668
 30
0.0
 11
119.74320652444
 21
224.9503853367412
 31
0.0
  0
LINE
  5
4BE5
330
4AD6
100
AcDbEntity
  8
DIM
100
AcDbLine
 10
115.7432064722859
 20
223.4503853367412
 30
0.0
 11
117.74320652444
 21
223.4503853367412
 31
0.0
  0
SOLID
  5
4BE6
330
4AD6
100
AcDbEntity
  8
DIM
100
AcDbTrace
 10
115.7432064722859
 20
223.7837186700746
 30
0.0
 11
115.7432064722859
 21
223.1170520034079
 31
0.0
 12
113.7432064722859
 22
223.4503853367412
 32
0.0
 13
113.7432064722859
 23
223.4503853367412
 33
0.0
  0
SOLID
  5
4BE7
330
4AD6
100
AcDbEntity
  8
DIM
100
AcDbTrace
 10
117.74320652444
 20
223.7837186700746
 30
0.0
 11
117.74320652444
 21
223.1170520034079
 31
0.0
 12
119.74320652444
 22
223.4503853367412
 32
0.0
 13
119.74320652444
 23
223.4503853367412
 33
0.0
  0
MTEXT
  5
4BE8
330
4AD6
100
AcDbEntity
  8
DIM
100
AcDbMText
 10
116.743206498363
 20
225.4503853367412
 30
0.0
 40
2.0
 41
0.0
 71
     5
 72
     1
  1
\A1;6
  7
dayus
 73
     1
 44
1.0
1001
ACAD
1000
MTEXTBEGIN
1070
    73
1070
     1
1070
    44
1040
1.0
1070
    74
1070
     0
1000
MTEXTEND
  0
POINT
  5
4BE9
330
4AD6
100
AcDbEntity
  8
Defpoints
 62
     0
100
AcDbPoint
 10
113.7432064722859
 20
195.3101812496854
 30
0.0
  0
POINT
  5
4BEA
330
4AD6
100
AcDbEntity
  8
Defpoints
 62
     0
100
AcDbPoint
 10
119.74320652444
 20
208.0601810112668
 30
0.0
  0
POINT
  5
4BEB
330
4AD6
100
AcDbEntity
  8
Defpoints
 62
     0
100
AcDbPoint
 10
119.74320652444
 20
223.4503853367412
 30
0.0
  0
ENDBLK
  5
4AE3
330
4AD6
100
AcDbEntity
  8
0
100
AcDbBlockEnd
  0
BLOCK
  5
4B0B
330
4B01
100
AcDbEntity
  8
0
100
AcDbBlockBegin
  2
*D11
 70
     1
 10
0.0
 20
0.0
 30
0.0
  3
*D11
  1

  0
LINE
  5
4E2A
330
4B01
100
AcDbEntity
  8
DIM
100
AcDbLine
 10
215.2326827207953
 20
98.11708910208768
 30
0.0
 11
215.2326827207953
 21
105.7057630032134
 31
0.0
  0
LINE
  5
4E2B
330
4B01
100
AcDbEntity
  8
DIM
100
AcDbLine
 10
237.2326827207953
 20
98.11708910208762
 30
0.0
 11
237.2326827207953
 21
105.7057630032134
 31
0.0
  0
LINE
  5
4E2C
330
4B01
100
AcDbEntity
  8
DIM
100
AcDbLine
 10
217.2326827207953
 20
104.2057630032134
 30
0.0
 11
235.2326827207953
 21
104.2057630032134
 31
0.0
  0
SOLID
  5
4E2D
330
4B01
100
AcDbEntity
  8
DIM
100
AcDbTrace
 10
217.2326827207953
 20
104.5390963365467
 30
0.0
 11
217.2326827207953
 21
103.8724296698801
 31
0.0
 12
215.2326827207953
 22
104.2057630032134
 32
0.0
 13
215.2326827207953
 23
104.2057630032134
 33
0.0
  0
SOLID
  5
4E2E
330
4B01
100
AcDbEntity
  8
DIM
100
AcDbTrace
 10
235.2326827207953
 20
104.5390963365467
 30
0.0
 11
235.2326827207953
 21
103.8724296698801
 31
0.0
 12
237.2326827207953
 22
104.2057630032134
 32
0.0
 13
237.2326827207953
 23
104.2057630032134
 33
0.0
  0
MTEXT
  5
4E2F
330
4B01
100
AcDbEntity
  8
DIM
100
AcDbMText
 10
226.2326827207953
 20
106.2057630032134
 30
0.0
 40
2.0
 41
0.0
 71
     5
 72
     1
  1
\A1;□22
  7
dayus
 73
     1
 44
1.0
1001
ACAD
1000
MTEXTBEGIN
1070
    73
1070
     1
1070
    44
1040
1.0
1070
    74
1070
     0
1000
MTEXTEND
  0
POINT
  5
4E30
330
4B01
100
AcDbEntity
  8
Defpoints
 62
     0
100
AcDbPoint
 10
215.2326827207953
 20
96.61708910208767
 30
0.0
  0
POINT
  5
4E31
330
4B01
100
AcDbEntity
  8
Defpoints
 62
     0
100
AcDbPoint
 10
237.2326827207953
 20
96.61708910208762
 30
0.0
  0
POINT
  5
4E32
330
4B01
100
AcDbEntity
  8
Defpoints
 62
     0
100
AcDbPoint
 10
237.2326827207953
 20
104.2057630032134
 30
0.0
  0
ENDBLK
  5
4B0C
330
4B01
100
AcDbEntity
  8
0
100
AcDbBlockEnd
  0
BLOCK
  5
4B17
330
4B0D
100
AcDbEntity
  8
0
100
AcDbBlockBegin
  2
*D12
 70
     1
 10
0.0
 20
0.0
 30
0.0
  3
*D12
  1

  0
LINE
  5
4E33
330
4B0D
100
AcDbEntity
  8
DIM
100
AcDbLine
 10
208.4826821396494
 20
93.15918626341508
 30
0.0
 11
208.4826821396494
 21
111.8928777795877
 31
0.0
  0
LINE
  5
4E34
330
4B0D
100
AcDbEntity
  8
DIM
100
AcDbLine
 10
243.9826833019406
 20
93.15918626341575
 30
0.0
 11
243.9826833019406
 21
111.8928777795877
 31
0.0
  0
LINE
  5
4E35
330
4B0D
100
AcDbEntity
  8
DIM
100
AcDbLine
 10
210.4826821396494
 20
110.3928777795877
 30
0.0
 11
241.9826833019406
 21
110.3928777795877
 31
0.0
  0
SOLID
  5
4E36
330
4B0D
100
AcDbEntity
  8
DIM
100
AcDbTrace
 10
210.4826821396494
 20
110.726211112921
 30
0.0
 11
210.4826821396494
 21
110.0595444462544
 31
0.0
 12
208.4826821396494
 22
110.3928777795877
 32
0.0
 13
208.4826821396494
 23
110.3928777795877
 33
0.0
  0
SOLID
  5
4E37
330
4B0D
100
AcDbEntity
  8
DIM
100
AcDbTrace
 10
241.9826833019406
 20
110.726211112921
 30
0.0
 11
241.9826833019406
 21
110.0595444462544
 31
0.0
 12
243.9826833019406
 22
110.3928777795877
 32
0.0
 13
243.9826833019406
 23
110.3928777795877
 33
0.0
  0
MTEXT
  5
4E38
330
4B0D
100
AcDbEntity
  8
DIM
100
AcDbMText
 10
226.2326827207949
 20
112.3928777795877
 30
0.0
 40
2.0
 41
0.0
 71
     5
 72
     1
  1
\A1;□35.5
  7
dayus
 73
     1
 44
1.0
1001
ACAD
1000
MTEXTBEGIN
1070
    73
1070
     1
1070
    44
1040
1.0
1070
    74
1070
     0
1000
MTEXTEND
  0
POINT
  5
4E39
330
4B0D
100
AcDbEntity
  8
Defpoints
 62
     0
100
AcDbPoint
 10
208.4826821396494
 20
91.65918626341508
 30
0.0
  0
POINT
  5
4E3A
330
4B0D
100
AcDbEntity
  8
Defpoints
 62
     0
100
AcDbPoint
 10
243.9826833019406
 20
91.65918626341577
 30
0.0
  0
POINT
  5
4E3B
330
4B0D
100
AcDbEntity
  8
Defpoints
 62
     0
100
AcDbPoint
 10
243.9826833019406
 20
110.3928777795877
 30
0.0
  0
ENDBLK
  5
4B18
330
4B0D
100
AcDbEntity
  8
0
100
AcDbBlockEnd
  0
BLOCK
  5
4C16
330
4C0C
100
AcDbEntity
  8
0
100
AcDbBlockBegin
  2
*D13
 70
     1
 10
0.0
 20
0.0
 30
0.0
  3
*D13
  1

  0
LINE
  5
4C21
330
4C0C
100
AcDbEntity
  8
DIM
100
AcDbLine
 10
208.4826815585038
 20
203.0601821735566
 30
0.0
 11
208.4826815585038
 21
221.7938736897292
 31
0.0
  0
LINE
  5
4C22
330
4C0C
100
AcDbEntity
  8
DIM
100
AcDbLine
 10
243.982682720795
 20
203.0601821735573
 30
0.0
 11
243.982682720795
 21
221.7938736897292
 31
0.0
  0
LINE
  5
4C23
330
4C0C
100
AcDbEntity
  8
DIM
100
AcDbLine
 10
210.4826815585038
 20
220.2938736897292
 30
0.0
 11
241.982682720795
 21
220.2938736897292
 31
0.0
  0
SOLID
  5
4C24
330
4C0C
100
AcDbEntity
  8
DIM
100
AcDbTrace
 10
210.4826815585038
 20
220.6272070230625
 30
0.0
 11
210.4826815585038
 21
219.9605403563959
 31
0.0
 12
208.4826815585038
 22
220.2938736897292
 32
0.0
 13
208.4826815585038
 23
220.2938736897292
 33
0.0
  0
SOLID
  5
4C25
330
4C0C
100
AcDbEntity
  8
DIM
100
AcDbTrace
 10
241.982682720795
 20
220.6272070230625
 30
0.0
 11
241.982682720795
 21
219.9605403563959
 31
0.0
 12
243.982682720795
 22
220.2938736897292
 32
0.0
 13
243.982682720795
 23
220.2938736897292
 33
0.0
  0
MTEXT
  5
4C26
330
4C0C
100
AcDbEntity
  8
DIM
100
AcDbMText
 10
226.2326821396494
 20
222.2938736897292
 30
0.0
 40
2.0
 41
0.0
 71
     5
 72
     1
  1
\A1;□35.5
  7
dayus
 73
     1
 44
1.0
1001
ACAD
1000
MTEXTBEGIN
1070
    73
1070
     1
1070
    44
1040
1.0
1070
    74
1070
     0
1000
MTEXTEND
  0
POINT
  5
4C27
330
4C0C
100
AcDbEntity
  8
Defpoints
 62
     0
100
AcDbPoint
 10
208.4826815585038
 20
201.5601821735566
 30
0.0
  0
POINT
  5
4C28
330
4C0C
100
AcDbEntity
  8
Defpoints
 62
     0
100
AcDbPoint
 10
243.982682720795
 20
201.5601821735573
 30
0.0
  0
POINT
  5
4C29
330
4C0C
100
AcDbEntity
  8
Defpoints
 62
     0
100
AcDbPoint
 10
243.982682720795
 20
220.2938736897292
 30
0.0
  0
ENDBLK
  5
4C17
330
4C0C
100
AcDbEntity
  8
0
100
AcDbBlockEnd
  0
BLOCK
  5
4C55
330
4C4B
100
AcDbEntity
  8
0
100
AcDbBlockBegin
  2
*D14
 70
     1
 10
0.0
 20
0.0
 30
0.0
  3
*D14
  1

  0
LINE
  5
4E3C
330
4C4B
100
AcDbEntity
  8
DIM
100
AcDbLine
 10
222.2326825308055
 20
76.40918587226028
 30
0.0
 11
222.2326825308055
 21
55.79426970354544
 31
0.0
  0
LINE
  5
4E3D
330
4C4B
100
AcDbEntity
  8
DIM
100
AcDbLine
 10
230.2326829107851
 20
76.40918587226039
 30
0.0
 11
230.2326829107851
 21
55.79426970354544
 31
0.0
  0
LINE
  5
4E3E
330
4C4B
100
AcDbEntity
  8
DIM
100
AcDbLine
 10
224.2326825308055
 20
57.29426970354544
 30
0.0
 11
228.2326829107851
 21
57.29426970354544
 31
0.0
  0
SOLID
  5
4E3F
330
4C4B
100
AcDbEntity
  8
DIM
100
AcDbTrace
 10
224.2326825308055
 20
57.62760303687877
 30
0.0
 11
224.2326825308055
 21
56.9609363702121
 31
0.0
 12
222.2326825308055
 22
57.29426970354544
 32
0.0
 13
222.2326825308055
 23
57.29426970354544
 33
0.0
  0
SOLID
  5
4E40
330
4C4B
100
AcDbEntity
  8
DIM
100
AcDbTrace
 10
228.2326829107851
 20
57.62760303687877
 30
0.0
 11
228.2326829107851
 21
56.9609363702121
 31
0.0
 12
230.2326829107851
 22
57.29426970354544
 32
0.0
 13
230.2326829107851
 23
57.29426970354544
 33
0.0
  0
MTEXT
  5
4E41
330
4C4B
100
AcDbEntity
  8
DIM
100
AcDbMText
 10
226.2326827207953
 20
59.29426970354544
 30
0.0
 40
2.0
 41
0.0
 71
     5
 72
     1
  1
\A1;8
  7
dayus
 73
     1
 44
1.0
1001
ACAD
1000
MTEXTBEGIN
1070
    73
1070
     1
1070
    44
1040
1.0
1070
    74
1070
     0
1000
MTEXTEND
  0
POINT
  5
4E42
330
4C4B
100
AcDbEntity
  8
Defpoints
 62
     0
100
AcDbPoint
 10
222.2326825308055
 20
77.90918587226028
 30
0.0
  0
POINT
  5
4E43
330
4C4B
100
AcDbEntity
  8
Defpoints
 62
     0
100
AcDbPoint
 10
230.2326829107851
 20
77.90918587226039
 30
0.0
  0
POINT
  5
4E44
330
4C4B
100
AcDbEntity
  8
Defpoints
 62
     0
100
AcDbPoint
 10
230.2326829107851
 20
57.29426970354544
 30
0.0
  0
ENDBLK
  5
4C56
330
4C4B
100
AcDbEntity
  8
0
100
AcDbBlockEnd
  0
BLOCK
  5
4C86
330
4C7C
100
AcDbEntity
  8
0
100
AcDbBlockBegin
  2
*D15
 70
     1
 10
0.0
 20
0.0
 30
0.0
  3
*D15
  1

  0
LINE
  5
4C94
330
4C7C
100
AcDbEntity
  8
DIM
100
AcDbLine
 10
97.74320664364928
 20
195.3101814694776
 30
0.0
 11
97.74320664364928
 21
224.9503853367412
 31
0.0
  0
LINE
  5
4C95
330
4C7C
100
AcDbEntity
  8
DIM
100
AcDbLine
 10
113.7432064722859
 20
196.8101812496854
 30
0.0
 11
113.7432064722859
 21
224.9503853367412
 31
0.0
  0
LINE
  5
4C96
330
4C7C
100
AcDbEntity
  8
DIM
100
AcDbLine
 10
99.74320664364928
 20
223.4503853367411
 30
0.0
 11
111.7432064722859
 21
223.4503853367411
 31
0.0
  0
SOLID
  5
4C97
330
4C7C
100
AcDbEntity
  8
DIM
100
AcDbTrace
 10
99.74320664364928
 20
223.7837186700745
 30
0.0
 11
99.74320664364928
 21
223.1170520034078
 31
0.0
 12
97.74320664364928
 22
223.4503853367411
 32
0.0
 13
97.74320664364928
 23
223.4503853367411
 33
0.0
  0
SOLID
  5
4C98
330
4C7C
100
AcDbEntity
  8
DIM
100
AcDbTrace
 10
111.7432064722859
 20
223.7837186700745
 30
0.0
 11
111.7432064722859
 21
223.1170520034078
 31
0.0
 12
113.7432064722859
 22
223.4503853367411
 32
0.0
 13
113.7432064722859
 23
223.4503853367411
 33
0.0
  0
MTEXT
  5
4C99
330
4C7C
100
AcDbEntity
  8
DIM
100
AcDbMText
 10
105.7432065579676
 20
225.4503853367411
 30
0.0
 40
2.0
 41
0.0
 71
     5
 72
     1
  1
\A1;16
  7
dayus
 73
     1
 44
1.0
1001
ACAD
1000
MTEXTBEGIN
1070
    73
1070
     1
1070
    44
1040
1.0
1070
    74
1070
     0
1000
MTEXTEND
  0
POINT
  5
4C9A
330
4C7C
100
AcDbEntity
  8
Defpoints
 62
     0
100
AcDbPoint
 10
97.74320664364928
 20
193.8101814694776
 30
0.0
  0
POINT
  5
4C9B
330
4C7C
100
AcDbEntity
  8
Defpoints
 62
     0
100
AcDbPoint
 10
113.7432064722859
 20
195.3101812496854
 30
0.0
  0
POINT
  5
4C9C
330
4C7C
100
AcDbEntity
  8
Defpoints
 62
     0
100
AcDbPoint
 10
113.7432064722859
 20
223.4503853367411
 30
0.0
  0
ENDBLK
  5
4C87
330
4C7C
100
AcDbEntity
  8
0
100
AcDbBlockEnd
  0
BLOCK
  5
4CB7
330
4CAD
100
AcDbEntity
  8
0
100
AcDbBlockBegin
  2
*D16
 70
     1
 10
0.0
 20
0.0
 30
0.0
  3
*D16
  1

  0
LINE
  5
4CE9
330
4CAD
100
AcDbEntity
  8
DIM
100
AcDbLine
 10
119.74320652444
 20
210.0601820245457
 30
0.0
 11
119.74320652444
 21
219.0241411253726
 31
0.0
  0
LINE
  5
4CEA
330
4CAD
100
AcDbEntity
  8
DIM
100
AcDbLine
 10
130.7432064648354
 20
210.0601820245458
 30
0.0
 11
130.7432064648354
 21
219.0241411253726
 31
0.0
  0
LINE
  5
4CEB
330
4CAD
100
AcDbEntity
  8
DIM
100
AcDbLine
 10
121.74320652444
 20
217.5241411253726
 30
0.0
 11
128.7432064648354
 21
217.5241411253726
 31
0.0
  0
SOLID
  5
4CEC
330
4CAD
100
AcDbEntity
  8
DIM
100
AcDbTrace
 10
121.74320652444
 20
217.8574744587059
 30
0.0
 11
121.74320652444
 21
217.1908077920392
 31
0.0
 12
119.74320652444
 22
217.5241411253726
 32
0.0
 13
119.74320652444
 23
217.5241411253726
 33
0.0
  0
SOLID
  5
4CED
330
4CAD
100
AcDbEntity
  8
DIM
100
AcDbTrace
 10
128.7432064648354
 20
217.8574744587059
 30
0.0
 11
128.7432064648354
 21
217.1908077920392
 31
0.0
 12
130.7432064648354
 22
217.5241411253726
 32
0.0
 13
130.7432064648354
 23
217.5241411253726
 33
0.0
  0
MTEXT
  5
4CEE
330
4CAD
100
AcDbEntity
  8
DIM
100
AcDbMText
 10
125.2432064946377
 20
219.5241411253726
 30
0.0
 40
2.0
 41
0.0
 71
     5
 72
     1
  1
\A1;11
  7
dayus
 73
     1
 44
1.0
1001
ACAD
1000
MTEXTBEGIN
1070
    73
1070
     1
1070
    44
1040
1.0
1070
    74
1070
     0
1000
MTEXTEND
  0
POINT
  5
4CEF
330
4CAD
100
AcDbEntity
  8
Defpoints
 62
     0
100
AcDbPoint
 10
119.74320652444
 20
208.5601820245457
 30
0.0
  0
POINT
  5
4CF0
330
4CAD
100
AcDbEntity
  8
Defpoints
 62
     0
100
AcDbPoint
 10
130.7432064648354
 20
208.5601820245458
 30
0.0
  0
POINT
  5
4CF1
330
4CAD
100
AcDbEntity
  8
Defpoints
 62
     0
100
AcDbPoint
 10
130.7432064648354
 20
217.5241411253726
 30
0.0
  0
ENDBLK
  5
4CB8
330
4CAD
100
AcDbEntity
  8
0
100
AcDbBlockEnd
  0
BLOCK
  5
4CDB
330
4CD1
100
AcDbEntity
  8
0
100
AcDbBlockBegin
  2
*D17
 70
     1
 10
0.0
 20
0.0
 30
0.0
  3
*D17
  1

  0
LINE
  5
4CF2
330
4CD1
100
AcDbEntity
  8
DIM
100
AcDbLine
 10
150.7432060178006
 20
210.0601820245457
 30
0.0
 11
150.7432060178006
 21
219.0241411253716
 31
0.0
  0
LINE
  5
4CF3
330
4CD1
100
AcDbEntity
  8
DIM
100
AcDbLine
 10
161.7432059581959
 20
210.0601820245457
 30
0.0
 11
161.7432059581959
 21
219.0241411253716
 31
0.0
  0
LINE
  5
4CF4
330
4CD1
100
AcDbEntity
  8
DIM
100
AcDbLine
 10
152.7432060178006
 20
217.5241411253716
 30
0.0
 11
159.7432059581959
 21
217.5241411253716
 31
0.0
  0
SOLID
  5
4CF5
330
4CD1
100
AcDbEntity
  8
DIM
100
AcDbTrace
 10
152.7432060178006
 20
217.857474458705
 30
0.0
 11
152.7432060178006
 21
217.1908077920383
 31
0.0
 12
150.7432060178006
 22
217.5241411253716
 32
0.0
 13
150.7432060178006
 23
217.5241411253716
 33
0.0
  0
SOLID
  5
4CF6
330
4CD1
100
AcDbEntity
  8
DIM
100
AcDbTrace
 10
159.7432059581959
 20
217.857474458705
 30
0.0
 11
159.7432059581959
 21
217.1908077920383
 31
0.0
 12
161.7432059581959
 22
217.5241411253716
 32
0.0
 13
161.7432059581959
 23
217.5241411253716
 33
0.0
  0
MTEXT
  5
4CF7
330
4CD1
100
AcDbEntity
  8
DIM
100
AcDbMText
 10
156.2432059879983
 20
219.5241411253716
 30
0.0
 40
2.0
 41
0.0
 71
     5
 72
     1
  1
\A1;11
  7
dayus
 73
     1
 44
1.0
1001
ACAD
1000
MTEXTBEGIN
1070
    73
1070
     1
1070
    44
1040
1.0
1070
    74
1070
     0
1000
MTEXTEND
  0
POINT
  5
4CF8
330
4CD1
100
AcDbEntity
  8
Defpoints
 62
     0
100
AcDbPoint
 10
150.7432060178006
 20
208.5601820245457
 30
0.0
  0
POINT
  5
4CF9
330
4CD1
100
AcDbEntity
  8
Defpoints
 62
     0
100
AcDbPoint
 10
161.7432059581959
 20
208.5601820245457
 30
0.0
  0
POINT
  5
4CFA
330
4CD1
100
AcDbEntity
  8
Defpoints
 62
     0
100
AcDbPoint
 10
161.7432059581959
 20
217.5241411253716
 30
0.0
  0
ENDBLK
  5
4CDC
330
4CD1
100
AcDbEntity
  8
0
100
AcDbBlockEnd
  0
BLOCK
  5
4D32
330
4D28
100
AcDbEntity
  8
0
100
AcDbBlockBegin
  2
*D18
 70
     1
 10
0.0
 20
0.0
 30
0.0
  3
*D18
  1

  0
LINE
  5
4E45
330
4D28
100
AcDbEntity
  8
DIM
100
AcDbLine
 10
113.1092321585501
 20
85.90918578657866
 30
0.0
 11
101.1092321585502
 21
85.90918578657866
 31
0.0
  0
LINE
  5
4E46
330
4D28
100
AcDbEntity
  8
DIM
100
AcDbLine
 10
113.1092321585502
 20
75.90918601009605
 30
0.0
 11
101.1092321585502
 21
75.90918601009605
 31
0.0
  0
LINE
  5
4E47
330
4D28
100
AcDbEntity
  8
DIM
100
AcDbLine
 10
102.6092321585502
 20
83.90918578657865
 30
0.0
 11
102.6092321585502
 21
77.90918601009605
 31
0.0
  0
SOLID
  5
4E48
330
4D28
100
AcDbEntity
  8
DIM
100
AcDbTrace
 10
102.2758988252168
 20
83.90918578657865
 30
0.0
 11
102.9425654918835
 21
83.90918578657865
 31
0.0
 12
102.6092321585502
 22
85.90918578657866
 32
0.0
 13
102.6092321585502
 23
85.90918578657866
 33
0.0
  0
SOLID
  5
4E49
330
4D28
100
AcDbEntity
  8
DIM
100
AcDbTrace
 10
102.2758988252168
 20
77.90918601009605
 30
0.0
 11
102.9425654918835
 21
77.90918601009605
 31
0.0
 12
102.6092321585502
 22
75.90918601009605
 32
0.0
 13
102.6092321585502
 23
75.90918601009605
 33
0.0
  0
MTEXT
  5
4E4A
330
4D28
100
AcDbEntity
  8
DIM
100
AcDbMText
 10
100.6092321585501
 20
80.90918589833739
 30
0.0
 40
2.0
 41
0.0
 71
     5
 72
     1
  1
\A1;%%C10
  7
dayus
 11
0.0000000000000001
 21
1.0
 31
0.0
 73
     1
 44
1.0
1001
ACAD
1000
MTEXTBEGIN
1070
    73
1070
     1
1070
    44
1040
1.0
1070
    74
1070
     0
1000
MTEXTEND
  0
POINT
  5
4E4B
330
4D28
100
AcDbEntity
  8
Defpoints
 62
     0
100
AcDbPoint
 10
114.6092321585502
 20
85.90918578657866
 30
0.0
  0
POINT
  5
4E4C
330
4D28
100
AcDbEntity
  8
Defpoints
 62
     0
100
AcDbPoint
 10
114.6092321585502
 20
75.90918601009605
 30
0.0
  0
POINT
  5
4E4D
330
4D28
100
AcDbEntity
  8
Defpoints
 62
     0
100
AcDbPoint
 10
102.6092321585502
 20
75.90918601009605
 30
0.0
  0
ENDBLK
  5
4D33
330
4D28
100
AcDbEntity
  8
0
100
AcDbBlockEnd
  0
BLOCK
  5
4D70
330
4D66
100
AcDbEntity
  8
0
100
AcDbBlockBegin
  2
*D19
 70
     1
 10
0.0
 20
0.0
 30
0.0
  3
*D19
  1

  0
LINE
  5
4E72
330
4D66
100
AcDbEntity
  8
DIM
100
AcDbLine
 10
113.7432064722862
 20
86.90918570462224
 30
0.0
 11
113.7432064722862
 21
115.049389791678
 31
0.0
  0
LINE
  5
4E73
330
4D66
100
AcDbEntity
  8
DIM
100
AcDbLine
 10
119.7432065244402
 20
99.65918546620365
 30
0.0
 11
119.7432065244402
 21
115.049389791678
 31
0.0
  0
LINE
  5
4E74
330
4D66
100
AcDbEntity
  8
DIM
100
AcDbLine
 10
115.7432064722862
 20
113.549389791678
 30
0.0
 11
117.7432065244403
 21
113.549389791678
 31
0.0
  0
SOLID
  5
4E75
330
4D66
100
AcDbEntity
  8
DIM
100
AcDbTrace
 10
115.7432064722862
 20
113.8827231250113
 30
0.0
 11
115.7432064722862
 21
113.2160564583447
 31
0.0
 12
113.7432064722862
 22
113.549389791678
 32
0.0
 13
113.7432064722862
 23
113.549389791678
 33
0.0
  0
SOLID
  5
4E76
330
4D66
100
AcDbEntity
  8
DIM
100
AcDbTrace
 10
117.7432065244403
 20
113.8827231250113
 30
0.0
 11
117.7432065244403
 21
113.2160564583447
 31
0.0
 12
119.7432065244402
 22
113.549389791678
 32
0.0
 13
119.7432065244402
 23
113.549389791678
 33
0.0
  0
MTEXT
  5
4E77
330
4D66
100
AcDbEntity
  8
DIM
100
AcDbMText
 10
116.7432064983632
 20
115.549389791678
 30
0.0
 40
2.0
 41
0.0
 71
     5
 72
     1
  1
\A1;6
  7
dayus
 73
     1
 44
1.0
1001
ACAD
1000
MTEXTBEGIN
1070
    73
1070
     1
1070
    44
1040
1.0
1070
    74
1070
     0
1000
MTEXTEND
  0
POINT
  5
4E78
330
4D66
100
AcDbEntity
  8
Defpoints
 62
     0
100
AcDbPoint
 10
113.7432064722862
 20
85.40918570462224
 30
0.0
  0
POINT
  5
4E79
330
4D66
100
AcDbEntity
  8
Defpoints
 62
     0
100
AcDbPoint
 10
119.7432065244402
 20
98.15918546620364
 30
0.0
  0
POINT
  5
4E7A
330
4D66
100
AcDbEntity
  8
Defpoints
 62
     0
100
AcDbPoint
 10
119.7432065244402
 20
113.549389791678
 30
0.0
  0
ENDBLK
  5
4D71
330
4D66
100
AcDbEntity
  8
0
100
AcDbBlockEnd
  0
BLOCK
  5
4D88
330
4D7E
100
AcDbEntity
  8
0
100
AcDbBlockBegin
  2
*D20
 70
     1
 10
0.0
 20
0.0
 30
0.0
  3
*D20
  1

  0
LINE
  5
4E7B
330
4D7E
100
AcDbEntity
  8
DIM
100
AcDbLine
 10
119.7432065244402
 20
100.1591864794825
 30
0.0
 11
119.7432065244402
 21
109.1231455803094
 31
0.0
  0
LINE
  5
4E7C
330
4D7E
100
AcDbEntity
  8
DIM
100
AcDbLine
 10
130.7432064648356
 20
100.1591864794826
 30
0.0
 11
130.7432064648356
 21
109.1231455803094
 31
0.0
  0
LINE
  5
4E7D
330
4D7E
100
AcDbEntity
  8
DIM
100
AcDbLine
 10
121.7432065244402
 20
107.6231455803094
 30
0.0
 11
128.7432064648356
 21
107.6231455803094
 31
0.0
  0
SOLID
  5
4E7E
330
4D7E
100
AcDbEntity
  8
DIM
100
AcDbTrace
 10
121.7432065244402
 20
107.9564789136427
 30
0.0
 11
121.7432065244402
 21
107.289812246976
 31
0.0
 12
119.7432065244402
 22
107.6231455803094
 32
0.0
 13
119.7432065244402
 23
107.6231455803094
 33
0.0
  0
SOLID
  5
4E7F
330
4D7E
100
AcDbEntity
  8
DIM
100
AcDbTrace
 10
128.7432064648356
 20
107.9564789136427
 30
0.0
 11
128.7432064648356
 21
107.289812246976
 31
0.0
 12
130.7432064648356
 22
107.6231455803094
 32
0.0
 13
130.7432064648356
 23
107.6231455803094
 33
0.0
  0
MTEXT
  5
4E80
330
4D7E
100
AcDbEntity
  8
DIM
100
AcDbMText
 10
125.2432064946379
 20
109.6231455803094
 30
0.0
 40
2.0
 41
0.0
 71
     5
 72
     1
  1
\A1;11
  7
dayus
 73
     1
 44
1.0
1001
ACAD
1000
MTEXTBEGIN
1070
    73
1070
     1
1070
    44
1040
1.0
1070
    74
1070
     0
1000
MTEXTEND
  0
POINT
  5
4E81
330
4D7E
100
AcDbEntity
  8
Defpoints
 62
     0
100
AcDbPoint
 10
119.7432065244402
 20
98.65918647948255
 30
0.0
  0
POINT
  5
4E82
330
4D7E
100
AcDbEntity
  8
Defpoints
 62
     0
100
AcDbPoint
 10
130.7432064648356
 20
98.65918647948266
 30
0.0
  0
POINT
  5
4E83
330
4D7E
100
AcDbEntity
  8
Defpoints
 62
     0
100
AcDbPoint
 10
130.7432064648356
 20
107.6231455803094
 30
0.0
  0
ENDBLK
  5
4D89
330
4D7E
100
AcDbEntity
  8
0
100
AcDbBlockEnd
  0
BLOCK
  5
4D94
330
4D8A
100
AcDbEntity
  8
0
100
AcDbBlockBegin
  2
*D21
 70
     1
 10
0.0
 20
0.0
 30
0.0
  3
*D21
  1

  0
LINE
  5
4E84
330
4D8A
100
AcDbEntity
  8
DIM
100
AcDbLine
 10
150.7432060178008
 20
100.1591864794825
 30
0.0
 11
150.7432060178008
 21
109.1231455803084
 31
0.0
  0
LINE
  5
4E85
330
4D8A
100
AcDbEntity
  8
DIM
100
AcDbLine
 10
161.7432059581961
 20
100.1591864794825
 30
0.0
 11
161.7432059581961
 21
109.1231455803084
 31
0.0
  0
LINE
  5
4E86
330
4D8A
100
AcDbEntity
  8
DIM
100
AcDbLine
 10
152.7432060178008
 20
107.6231455803084
 30
0.0
 11
159.7432059581961
 21
107.6231455803084
 31
0.0
  0
SOLID
  5
4E87
330
4D8A
100
AcDbEntity
  8
DIM
100
AcDbTrace
 10
152.7432060178008
 20
107.9564789136417
 30
0.0
 11
152.7432060178008
 21
107.2898122469751
 31
0.0
 12
150.7432060178008
 22
107.6231455803084
 32
0.0
 13
150.7432060178008
 23
107.6231455803084
 33
0.0
  0
SOLID
  5
4E88
330
4D8A
100
AcDbEntity
  8
DIM
100
AcDbTrace
 10
159.7432059581961
 20
107.9564789136417
 30
0.0
 11
159.7432059581961
 21
107.2898122469751
 31
0.0
 12
161.7432059581961
 22
107.6231455803084
 32
0.0
 13
161.7432059581961
 23
107.6231455803084
 33
0.0
  0
MTEXT
  5
4E89
330
4D8A
100
AcDbEntity
  8
DIM
100
AcDbMText
 10
156.2432059879985
 20
109.6231455803084
 30
0.0
 40
2.0
 41
0.0
 71
     5
 72
     1
  1
\A1;11
  7
dayus
 73
     1
 44
1.0
1001
ACAD
1000
MTEXTBEGIN
1070
    73
1070
     1
1070
    44
1040
1.0
1070
    74
1070
     0
1000
MTEXTEND
  0
POINT
  5
4E8A
330
4D8A
100
AcDbEntity
  8
Defpoints
 62
     0
100
AcDbPoint
 10
150.7432060178008
 20
98.65918647948248
 30
0.0
  0
POINT
  5
4E8B
330
4D8A
100
AcDbEntity
  8
Defpoints
 62
     0
100
AcDbPoint
 10
161.7432059581961
 20
98.65918647948255
 30
0.0
  0
POINT
  5
4E8C
330
4D8A
100
AcDbEntity
  8
Defpoints
 62
     0
100
AcDbPoint
 10
161.7432059581961
 20
107.6231455803084
 30
0.0
  0
ENDBLK
  5
4D95
330
4D8A
100
AcDbEntity
  8
0
100
AcDbBlockEnd
  0
BLOCK
  5
4DA0
330
4D96
100
AcDbEntity
  8
0
100
AcDbBlockBegin
  2
*D22
 70
     1
 10
0.0
 20
0.0
 30
0.0
  3
*D22
  1

  0
LINE
  5
4E4E
330
4D96
100
AcDbEntity
  8
DIM
100
AcDbLine
 10
119.7432065244405
 20
104.8978296639968
 30
0.0
 11
119.7432065244405
 21
101.061991519872
 31
0.0
  0
LINE
  5
4E4F
330
4D96
100
AcDbEntity
  8
DIM
100
AcDbLine
 10
126.7432065244402
 20
87.11708910208754
 30
0.0
 11
126.7432065244402
 21
104.061991519872
 31
0.0
  0
LINE
  5
4E50
330
4D96
100
AcDbEntity
  8
DIM
100
AcDbLine
 10
121.7432065244405
 20
102.561991519872
 30
0.0
 11
124.7432065244402
 21
102.561991519872
 31
0.0
  0
SOLID
  5
4E51
330
4D96
100
AcDbEntity
  8
DIM
100
AcDbTrace
 10
121.7432065244405
 20
102.8953248532053
 30
0.0
 11
121.7432065244405
 21
102.2286581865387
 31
0.0
 12
119.7432065244405
 22
102.561991519872
 32
0.0
 13
119.7432065244405
 23
102.561991519872
 33
0.0
  0
SOLID
  5
4E52
330
4D96
100
AcDbEntity
  8
DIM
100
AcDbTrace
 10
124.7432065244402
 20
102.8953248532053
 30
0.0
 11
124.7432065244402
 21
102.2286581865387
 31
0.0
 12
126.7432065244402
 22
102.561991519872
 32
0.0
 13
126.7432065244402
 23
102.561991519872
 33
0.0
  0
MTEXT
  5
4E53
330
4D96
100
AcDbEntity
  8
DIM
100
AcDbMText
 10
123.2432065244404
 20
104.561991519872
 30
0.0
 40
2.0
 41
0.0
 71
     5
 72
     1
  1
\A1;7
  7
dayus
 73
     1
 44
1.0
1001
ACAD
1000
MTEXTBEGIN
1070
    73
1070
     1
1070
    44
1040
1.0
1070
    74
1070
     0
1000
MTEXTEND
  0
POINT
  5
4E54
330
4D96
100
AcDbEntity
  8
Defpoints
 62
     0
100
AcDbPoint
 10
119.7432065244405
 20
106.3978296639968
 30
0.0
  0
POINT
  5
4E55
330
4D96
100
AcDbEntity
  8
Defpoints
 62
     0
100
AcDbPoint
 10
126.7432065244402
 20
85.61708910208754
 30
0.0
  0
POINT
  5
4E56
330
4D96
100
AcDbEntity
  8
Defpoints
 62
     0
100
AcDbPoint
 10
126.7432065244402
 20
102.561991519872
 30
0.0
  0
ENDBLK
  5
4DA1
330
4D96
100
AcDbEntity
  8
0
100
AcDbBlockEnd
  0
BLOCK
  5
4DAC
330
4DA2
100
AcDbEntity
  8
0
100
AcDbBlockBegin
  2
*D23
 70
     1
 10
0.0
 20
0.0
 30
0.0
  3
*D23
  1

  0
LINE
  5
4E57
330
4DA2
100
AcDbEntity
  8
DIM
100
AcDbLine
 10
154.7432065244402
 20
87.11708910208745
 30
0.0
 11
154.7432065244402
 21
104.061991519872
 31
0.0
  0
LINE
  5
4E58
330
4DA2
100
AcDbEntity
  8
DIM
100
AcDbLine
 10
161.7432059581961
 20
100.1591864794824
 30
0.0
 11
161.7432059581961
 21
104.061991519872
 31
0.0
  0
LINE
  5
4E59
330
4DA2
100
AcDbEntity
  8
DIM
100
AcDbLine
 10
156.7432065244402
 20
102.561991519872
 30
0.0
 11
159.7432059581961
 21
102.561991519872
 31
0.0
  0
SOLID
  5
4E5A
330
4DA2
100
AcDbEntity
  8
DIM
100
AcDbTrace
 10
156.7432065244402
 20
102.8953248532053
 30
0.0
 11
156.7432065244402
 21
102.2286581865387
 31
0.0
 12
154.7432065244402
 22
102.561991519872
 32
0.0
 13
154.7432065244402
 23
102.561991519872
 33
0.0
  0
SOLID
  5
4E5B
330
4DA2
100
AcDbEntity
  8
DIM
100
AcDbTrace
 10
159.7432059581961
 20
102.8953248532053
 30
0.0
 11
159.7432059581961
 21
102.2286581865387
 31
0.0
 12
161.7432059581961
 22
102.561991519872
 32
0.0
 13
161.7432059581961
 23
102.561991519872
 33
0.0
  0
MTEXT
  5
4E5C
330
4DA2
100
AcDbEntity
  8
DIM
100
AcDbMText
 10
158.2432062413182
 20
104.561991519872
 30
0.0
 40
2.0
 41
0.0
 71
     5
 72
     1
  1
\A1;7
  7
dayus
 73
     1
 44
1.0
1001
ACAD
1000
MTEXTBEGIN
1070
    73
1070
     1
1070
    44
1040
1.0
1070
    74
1070
     0
1000
MTEXTEND
  0
POINT
  5
4E5D
330
4DA2
100
AcDbEntity
  8
Defpoints
 62
     0
100
AcDbPoint
 10
154.7432065244402
 20
85.61708910208745
 30
0.0
  0
POINT
  5
4E5E
330
4DA2
100
AcDbEntity
  8
Defpoints
 62
     0
100
AcDbPoint
 10
161.7432059581961
 20
98.65918647948243
 30
0.0
  0
POINT
  5
4E5F
330
4DA2
100
AcDbEntity
  8
Defpoints
 62
     0
100
AcDbPoint
 10
161.7432059581961
 20
102.561991519872
 30
0.0
  0
ENDBLK
  5
4DAD
330
4DA2
100
AcDbEntity
  8
0
100
AcDbBlockEnd
  0
BLOCK
  5
4DB8
330
4DAE
100
AcDbEntity
  8
0
100
AcDbBlockBegin
  2
*D24
 70
     1
 10
0.0
 20
0.0
 30
0.0
  3
*D24
  1

  0
LINE
  5
4E60
330
4DAE
100
AcDbEntity
  8
DIM
100
AcDbLine
 10
119.7432065244402
 20
100.1591864794826
 30
0.0
 11
119.7432065244402
 21
115.0493897916781
 31
0.0
  0
LINE
  5
4E61
330
4DAE
100
AcDbEntity
  8
DIM
100
AcDbLine
 10
161.7432059581961
 20
99.65918546620358
 30
0.0
 11
161.7432059581961
 21
115.0493897916781
 31
0.0
  0
LINE
  5
4E62
330
4DAE
100
AcDbEntity
  8
DIM
100
AcDbLine
 10
121.7432065244402
 20
113.5493897916781
 30
0.0
 11
159.7432059581961
 21
113.5493897916781
 31
0.0
  0
SOLID
  5
4E63
330
4DAE
100
AcDbEntity
  8
DIM
100
AcDbTrace
 10
121.7432065244402
 20
113.8827231250114
 30
0.0
 11
121.7432065244402
 21
113.2160564583447
 31
0.0
 12
119.7432065244402
 22
113.5493897916781
 32
0.0
 13
119.7432065244402
 23
113.5493897916781
 33
0.0
  0
SOLID
  5
4E64
330
4DAE
100
AcDbEntity
  8
DIM
100
AcDbTrace
 10
159.7432059581961
 20
113.8827231250114
 30
0.0
 11
159.7432059581961
 21
113.2160564583447
 31
0.0
 12
161.7432059581961
 22
113.5493897916781
 32
0.0
 13
161.7432059581961
 23
113.5493897916781
 33
0.0
  0
MTEXT
  5
4E65
330
4DAE
100
AcDbEntity
  8
DIM
100
AcDbMText
 10
140.7432062413182
 20
115.5493897916781
 30
0.0
 40
2.0
 41
0.0
 71
     5
 72
     1
  1
\A1;37+stroke=42
  7
dayus
 73
     1
 44
1.0
1001
ACAD
1000
MTEXTBEGIN
1070
    73
1070
     1
1070
    44
1040
1.0
1070
    74
1070
     0
1000
MTEXTEND
  0
POINT
  5
4E66
330
4DAE
100
AcDbEntity
  8
Defpoints
 62
     0
100
AcDbPoint
 10
119.7432065244402
 20
98.65918647948266
 30
0.0
  0
POINT
  5
4E67
330
4DAE
100
AcDbEntity
  8
Defpoints
 62
     0
100
AcDbPoint
 10
161.7432059581961
 20
98.15918546620359
 30
0.0
  0
POINT
  5
4E68
330
4DAE
100
AcDbEntity
  8
Defpoints
 62
     0
100
AcDbPoint
 10
161.7432059581961
 20
113.5493897916781
 30
0.0
  0
ENDBLK
  5
4DB9
330
4DAE
100
AcDbEntity
  8
0
100
AcDbBlockEnd
  0
BLOCK
  5
4DC4
330
4DBA
100
AcDbEntity
  8
0
100
AcDbBlockBegin
  2
*D25
 70
     1
 10
0.0
 20
0.0
 30
0.0
  3
*D25
  1

  0
LINE
  5
4E69
330
4DBA
100
AcDbEntity
  8
DIM
100
AcDbLine
 10
113.7432064722861
 20
86.90918570462228
 30
0.0
 11
113.7432064722861
 21
123.2654770186538
 31
0.0
  0
LINE
  5
4E6A
330
4DBA
100
AcDbEntity
  8
DIM
100
AcDbLine
 10
161.7432059581961
 20
100.1591864794824
 30
0.0
 11
161.7432059581961
 21
123.2654770186538
 31
0.0
  0
LINE
  5
4E6B
330
4DBA
100
AcDbEntity
  8
DIM
100
AcDbLine
 10
115.7432064722861
 20
121.7654770186537
 30
0.0
 11
159.7432059581961
 21
121.7654770186537
 31
0.0
  0
SOLID
  5
4E6C
330
4DBA
100
AcDbEntity
  8
DIM
100
AcDbTrace
 10
115.7432064722861
 20
122.0988103519871
 30
0.0
 11
115.7432064722861
 21
121.4321436853204
 31
0.0
 12
113.7432064722861
 22
121.7654770186537
 32
0.0
 13
113.7432064722861
 23
121.7654770186537
 33
0.0
  0
SOLID
  5
4E6D
330
4DBA
100
AcDbEntity
  8
DIM
100
AcDbTrace
 10
159.7432059581961
 20
122.0988103519871
 30
0.0
 11
159.7432059581961
 21
121.4321436853204
 31
0.0
 12
161.7432059581961
 22
121.7654770186537
 32
0.0
 13
161.7432059581961
 23
121.7654770186537
 33
0.0
  0
MTEXT
  5
4E6E
330
4DBA
100
AcDbEntity
  8
DIM
100
AcDbMText
 10
137.7432062152411
 20
123.7654770186537
 30
0.0
 40
2.0
 41
0.0
 71
     5
 72
     1
  1
\A1;43+stroke=48
  7
dayus
 73
     1
 44
1.0
1001
ACAD
1000
MTEXTBEGIN
1070
    73
1070
     1
1070
    44
1040
1.0
1070
    74
1070
     0
1000
MTEXTEND
  0
POINT
  5
4E6F
330
4DBA
100
AcDbEntity
  8
Defpoints
 62
     0
100
AcDbPoint
 10
113.7432064722861
 20
85.40918570462228
 30
0.0
  0
POINT
  5
4E70
330
4DBA
100
AcDbEntity
  8
Defpoints
 62
     0
100
AcDbPoint
 10
161.7432059581961
 20
98.65918647948243
 30
0.0
  0
POINT
  5
4E71
330
4DBA
100
AcDbEntity
  8
Defpoints
 62
     0
100
AcDbPoint
 10
161.7432059581961
 20
121.7654770186537
 30
0.0
  0
ENDBLK
  5
4DC5
330
4DBA
100
AcDbEntity
  8
0
100
AcDbBlockEnd
  0
ENDSEC
  0
SECTION
  2
ENTITIES
  0
MTEXT
  5
A9
330
1F
100
AcDbEntity
  8
0
100
AcDbMText
 10
-112.8858816556399
 20
179.1757813154577
 30
0.0
 40
3.0
 41
0.0
 71
     4
 72
     5
  1

 73
     1
 44
1.0
1001
ACAD
1000
MTEXTBEGIN
1070
    73
1070
     1
1070
    44
1040
1.0
1070
    74
1070
     0
1000
MTEXTEND
  0
MTEXT
  5
AA
330
1F
100
AcDbEntity
  8
0
100
AcDbMText
 10
-176.2667196970539
 20
189.9084924046809
 30
0.0
 40
1.799999999999999
 41
0.0
 71
     9
 72
     5
  1

 73
     1
 44
1.0
1001
ACAD
1000
MTEXTBEGIN
1070
    73
1070
     1
1070
    44
1040
1.0
1070
    74
1070
     0
1000
MTEXTEND
  0
MTEXT
  5
AB
330
1F
100
AcDbEntity
  8
0
100
AcDbMText
 10
82.64233389287733
 20
174.944592339129
 30
0.0
 40
3.0
 41
0.0
 71
     4
 72
     5
  1

 73
     1
 44
1.0
1001
ACAD
1000
MTEXTBEGIN
1070
    73
1070
     1
1070
    44
1040
1.0
1070
    74
1070
     0
1000
MTEXTEND
  0
MTEXT
  5
AC
330
1F
100
AcDbEntity
  8
0
100
AcDbMText
 10
19.26149585146331
 20
185.6773034283523
 30
0.0
 40
1.799999999999999
 41
0.0
 71
     9
 72
     5
  1

 73
     1
 44
1.0
1001
ACAD
1000
MTEXTBEGIN
1070
    73
1070
     1
1070
    44
1040
1.0
1070
    74
1070
     0
1000
MTEXTEND
  0
MTEXT
  5
B1
330
1F
100
AcDbEntity
  8
0
100
AcDbMText
 10
-211.0828086697475
 20
93.72900974557683
 30
0.0
 40
3.0
 41
59.51
 71
     1
 72
     5
  1

  7
CHINESET
 73
     1
 44
1.0
1001
ACAD
1000
MTEXTBEGIN
1070
    73
1070
     1
1070
    44
1040
1.0
1070
    74
1070
     0
1000
MTEXTEND
  0
MTEXT
  5
B2
330
1F
100
AcDbEntity
  8
0
100
AcDbMText
 10
-179.9099428209695
 20
86.93407807798587
 30
0.0
 40
3.0
 41
38.26
 71
     1
 72
     5
  1

  7
CHINESET
 73
     1
 44
1.0
1001
ACAD
1000
MTEXTBEGIN
1070
    73
1070
     1
1070
    44
1040
1.0
1070
    74
1070
     0
1000
MTEXTEND
  0
MTEXT
  5
10B3
330
1F
100
AcDbEntity
  8
0
100
AcDbMText
 10
81.67014302795905
 20
125.5492500028813
 30
0.0
 40
3.0
 41
0.0
 71
     7
 72
     5
  1

  7
CHINESET
 73
     1
 44
1.0
1001
ACAD
1000
MTEXTBEGIN
1070
    73
1070
     1
1070
    44
1040
1.0
1070
    74
1070
     0
1000
MTEXTEND
  0
LINE
  5
17B4
330
1F
100
AcDbEntity
  8
0
 62
     4
100
AcDbLine
 10
290.3688113312526
 20
34.8799803659976
 30
0.0
 11
290.3688113312526
 21
264.3808727122839
 31
0.0
  0
LINE
  5
17B5
330
1F
100
AcDbEntity
  8
0
 62
     4
100
AcDbLine
 10
54.83355057409903
 20
34.87998036599757
 30
0.0
 11
54.83355057409903
 21
264.3808727122839
 31
0.0
  0
TEXT
  5
17BD
330
1F
100
AcDbEntity
  8
LOGO
  6
Continuous
 62
     7
100
AcDbText
 10
186.689067531638
 20
25.32486812293918
 30
0.0
 40
4.926249999999999
  1
11/12
  7
CHINESET
 72
     1
 11
196.541567531638
 21
27.78799312293918
 31
0.0
100
AcDbText
 73
     2
  0
TEXT
  5
17BE
330
1F
100
AcDbEntity
  8
LOGO
100
AcDbText
 10
188.0191927617445
 20
14.44058860513659
 30
0.0
 40
3.518749999999999
  1
作動型式
  7
CHINESET
 72
     4
 11
195.0200391159111
 21
16.10991685316809
 31
0.0
100
AcDbText
  0
LINE
  5
17BF
330
1F
100
AcDbEntity
  8
0
 62
     4
100
AcDbLine
 10
290.3688113312526
 20
155.3848575742212
 30
0.0
 11
54.83355057409903
 21
155.3848575742212
 31
0.0
  0
TEXT
  5
17C3
330
1F
100
AcDbEntity
  8
LOGO
  6
Continuous
100
AcDbText
 10
187.7814676873397
 20
10.71365097496072
 30
0.0
 40
2.11125
  1
Acting type
 41
0.8
  7
CHINESET
 72
     4
 11
195.0200391159111
 21
11.41740097496072
 31
0.0
100
AcDbText
  0
LINE
  5
17C4
330
1F
100
AcDbEntity
  8
LOGO
 62
     4
100
AcDbLine
 10
209.144841704883
 20
23.61794225829988
 30
0.0
 11
184.6705057608449
 21
23.61794225829988
 31
0.0
  0
LINE
  5
17C5
330
1F
100
AcDbEntity
  8
LOGO
 62
     4
100
AcDbLine
 10
209.144841704883
 20
19.39467796791325
 30
0.0
 11
184.6705057608449
 21
19.39467796791325
 31
0.0
  0
LINE
  5
17C6
330
1F
100
AcDbEntity
  8
LOGO
 62
     4
100
AcDbLine
 10
209.144841704883
 20
9.071143035857033
 30
0.0
 11
184.6705057608449
 21
9.071143035857012
 31
0.0
  0
LINE
  5
17C7
330
1F
100
AcDbEntity
  8
LOGO
 62
     4
100
AcDbLine
 10
209.144841704883
 20
32.0644708390732
 30
0.0
 11
184.6705057608449
 21
32.06447083907315
 31
0.0
  0
LINE
  5
1802
330
1F
100
AcDbEntity
  8
LOGO
 62
     4
100
AcDbLine
 10
176.1479139868309
 20
19.39467796791325
 30
0.0
 11
157.3778504740014
 21
19.39467796791325
 31
0.0
  0
TEXT
  5
1803
330
1F
100
AcDbEntity
  8
LOGO
  6
Continuous
 62
     7
100
AcDbText
 10
159.6080905637494
 20
25.37808154868652
 30
0.0
 40
4.926249999999999
  1
MCJI
  7
CHINESET
 72
     1
 11
166.7628822304161
 21
27.84120654868651
 31
0.0
100
AcDbText
 73
     2
  0
LINE
  5
1804
330
1F
100
AcDbEntity
  8
LOGO
 62
     4
100
AcDbLine
 10
176.1479139868309
 20
9.071143035857033
 30
0.0
 11
157.3778504740014
 21
9.071143035857012
 31
0.0
  0
TEXT
  5
1805
330
1F
100
AcDbEntity
  8
LOGO
  6
Continuous
100
AcDbText
 10
163.5457393732733
 20
10.36177597496072
 30
0.0
 40
2.11125
  1
Model
 41
0.8
  7
CHINESET
 72
     4
 11
166.7628822304161
 21
11.41740097496072
 31
0.0
100
AcDbText
  0
TEXT
  5
1806
330
1F
100
AcDbEntity
  8
LOGO
100
AcDbText
 10
163.2441322304161
 20
14.44058860513659
 30
0.0
 40
3.518749999999999
  1
型式
  7
CHINESET
 72
     4
 11
166.7628822304161
 21
16.10991685316809
 31
0.0
100
AcDbText
  0
LINE
  5
1807
330
1F
100
AcDbEntity
  8
LOGO
 62
     4
100
AcDbLine
 10
178.0249203381138
 20
23.61794225829988
 30
0.0
 11
155.5008441227185
 21
23.61794225829988
 31
0.0
  0
LINE
  5
1808
330
1F
100
AcDbEntity
  8
LOGO
 62
     4
100
AcDbLine
 10
178.0249203381138
 20
32.06447083907315
 30
0.0
 11
155.5008441227185
 21
32.06447083907315
 31
0.0
  0
LINE
  5
1809
330
1F
100
AcDbEntity
  8
LOGO
 62
     4
100
AcDbLine
 10
166.7628822304161
 20
23.61794225829988
 30
0.0
 11
166.7628822304161
 21
19.39467796791325
 31
0.0
  0
LINE
  5
180A
330
1F
100
AcDbEntity
  8
LOGO
 62
     4
100
AcDbLine
 10
157.3778504740014
 20
19.39467796791325
 30
0.0
 11
157.3778504740014
 21
9.071143035857012
 31
0.0
  0
LINE
  5
180B
330
1F
100
AcDbEntity
  8
LOGO
 62
     4
100
AcDbLine
 10
155.5008441227185
 20
32.06447083907315
 30
0.0
 11
155.5008441227185
 21
23.61794225829988
 31
0.0
  0
LINE
  5
180C
330
1F
100
AcDbEntity
  8
LOGO
 62
     4
100
AcDbLine
 10
176.1479139868309
 20
19.39467796791325
 30
0.0
 11
176.1479139868309
 21
9.071143035857033
 31
0.0
  0
LINE
  5
180D
330
1F
100
AcDbEntity
  8
LOGO
 62
     4
100
AcDbLine
 10
184.6705057608449
 20
19.39467796791325
 30
0.0
 11
184.6705057608449
 21
9.071143035857033
 31
0.0
  0
LINE
  5
180E
330
1F
100
AcDbEntity
  8
LOGO
  6
Continuous
 62
     7
100
AcDbLine
 10
179.4801302739741
 20
27.81128760958637
 30
0.0
 11
183.2098090951104
 21
27.81128760958637
 31
0.0
  0
LINE
  5
180F
330
1F
100
AcDbEntity
  8
LOGO
 62
     4
100
AcDbLine
 10
178.0249203381139
 20
32.06447083907315
 30
0.0
 11
178.0249203381139
 21
23.61794225829988
 31
0.0
  0
LINE
  5
1810
330
1F
100
AcDbEntity
  8
LOGO
 62
     4
100
AcDbLine
 10
184.6705057608449
 20
32.06447083907315
 30
0.0
 11
184.6705057608449
 21
23.61794225829988
 31
0.0
  0
LINE
  5
1868
330
1F
100
AcDbEntity
  8
LOGO
 62
     4
100
AcDbLine
 10
253.1380385506794
 20
32.06447083907315
 30
0.0
 11
237.5040602066287
 21
32.06447083907315
 31
0.0
  0
LINE
  5
1869
330
1F
100
AcDbEntity
  8
LOGO
 62
     4
100
AcDbLine
 10
253.1380385506794
 20
23.61794225829988
 30
0.0
 11
237.5040602066287
 21
23.61794225829988
 31
0.0
  0
LINE
  5
186A
330
1F
100
AcDbEntity
  8
LOGO
 62
     4
100
AcDbLine
 10
252.1995353750379
 20
19.39467796791325
 30
0.0
 11
238.4425633822701
 21
19.39467796791325
 31
0.0
  0
LINE
  5
186B
330
1F
100
AcDbEntity
  8
LOGO
 62
     4
100
AcDbLine
 10
252.1995353750379
 20
9.071143035857033
 30
0.0
 11
238.4425633822701
 21
9.071143035857012
 31
0.0
  0
LINE
  5
186C
330
1F
100
AcDbEntity
  8
LOGO
 62
     4
100
AcDbLine
 10
230.8584747838975
 20
23.61794225829993
 30
0.0
 11
215.790427127614
 21
23.61794225829993
 31
0.0
  0
LINE
  5
186D
330
1F
100
AcDbEntity
  8
LOGO
 62
     4
100
AcDbLine
 10
230.8584747838975
 20
19.39467796791329
 30
0.0
 11
215.790427127614
 21
19.39467796791329
 31
0.0
  0
LINE
  5
186E
330
1F
100
AcDbEntity
  8
LOGO
 62
     4
100
AcDbLine
 10
230.8584747838975
 20
32.06447083907326
 30
0.0
 11
215.790427127614
 21
32.0644708390732
 31
0.0
  0
TEXT
  5
186F
330
1F
100
AcDbEntity
  8
LOGO
  6
Continuous
 62
     7
100
AcDbText
 10
219.7745025585923
 20
25.32486812293924
 30
0.0
 40
4.926249999999999
  1
20
  7
CHINESET
 72
     1
 11
223.762419225259
 21
27.78799312293923
 31
0.0
100
AcDbText
 73
     2
  0
LINE
  5
1870
330
1F
100
AcDbEntity
  8
LOGO
 62
     4
100
AcDbLine
 10
230.8584747838975
 20
9.07114303585709
 30
0.0
 11
215.790427127614
 21
9.071143035857058
 31
0.0
  0
TEXT
  5
1871
330
1F
100
AcDbEntity
  8
LOGO
  6
Continuous
100
AcDbText
 10
220.7105223843273
 20
10.36177597496075
 30
0.0
 40
2.11125
  1
Bore
 41
0.8
  7
CHINESET
 72
     4
 11
223.3244509557559
 21
11.41740097496075
 31
0.0
100
AcDbText
  0
TEXT
  5
1872
330
1F
100
AcDbEntity
  8
LOGO
100
AcDbText
 10
219.5857790807559
 20
14.35054185316812
 30
0.0
 40
3.518749999999999
  1
內徑
  7
CHINESET
 72
     4
 11
223.3244509557559
 21
16.10991685316812
 31
0.0
100
AcDbText
  0
LINE
  5
1873
330
1F
100
AcDbEntity
  8
LOGO
 62
     4
100
AcDbLine
 10
223.3244507393516
 20
23.61794225829993
 30
0.0
 11
223.3244507393516
 21
19.39467796791329
 31
0.0
  0
LINE
  5
1874
330
1F
100
AcDbEntity
  8
LOGO
 62
     4
100
AcDbLine
 10
195.0200391159111
 20
23.61794225829988
 30
0.0
 11
195.0200391159111
 21
19.39467796791325
 31
0.0
  0
LINE
  5
1875
330
1F
100
AcDbEntity
  8
LOGO
 62
     4
100
AcDbLine
 10
209.144841704883
 20
19.39467796791325
 30
0.0
 11
209.144841704883
 21
9.071143035857058
 31
0.0
  0
LINE
  5
1876
330
1F
100
AcDbEntity
  8
LOGO
 62
     4
100
AcDbLine
 10
215.790427127614
 20
19.39467796791329
 30
0.0
 11
215.790427127614
 21
9.07114303585709
 31
0.0
  0
LINE
  5
1877
330
1F
100
AcDbEntity
  8
LOGO
 62
     4
100
AcDbLine
 10
209.144841704883
 20
32.0644708390732
 30
0.0
 11
209.144841704883
 21
23.61794225829988
 31
0.0
  0
LINE
  5
1878
330
1F
100
AcDbEntity
  8
LOGO
 62
     4
100
AcDbLine
 10
215.790427127614
 20
32.0644708390732
 30
0.0
 11
215.790427127614
 21
23.61794225829993
 31
0.0
  0
LINE
  5
1879
330
1F
100
AcDbEntity
  8
LOGO
  6
Continuous
 62
     7
100
AcDbLine
 10
210.6000516407431
 20
27.81128760958643
 30
0.0
 11
214.3297304618796
 21
27.81128760958643
 31
0.0
  0
LINE
  5
187A
330
1F
100
AcDbEntity
  8
LOGO
 62
     4
100
AcDbLine
 10
245.5198158297825
 20
23.61794225829988
 30
0.0
 11
245.5198158297825
 21
19.39467796791325
 31
0.0
  0
LINE
  5
187B
330
1F
100
AcDbEntity
  8
LOGO
 62
     4
100
AcDbLine
 10
230.8584747838975
 20
19.39467796791329
 30
0.0
 11
230.8584747838975
 21
9.071143035857115
 31
0.0
  0
LINE
  5
187C
330
1F
100
AcDbEntity
  8
LOGO
 62
     4
100
AcDbLine
 10
238.4425633822701
 20
19.39467796791325
 30
0.0
 11
238.4425633822701
 21
9.071143035857012
 31
0.0
  0
TEXT
  5
187D
330
1F
100
AcDbEntity
  8
LOGO
  6
Continuous
100
AcDbText
 10
241.5006922357969
 20
10.36177597496069
 30
0.0
 40
2.11125
  1
Stroke
 41
0.8
  7
CHINESET
 72
     4
 11
245.321049378654
 21
11.41740097496069
 31
0.0
100
AcDbText
  0
TEXT
  5
187E
330
1F
100
AcDbEntity
  8
LOGO
100
AcDbText
 10
241.802299378654
 20
14.35054185316806
 30
0.0
 40
3.518749999999999
  1
行程
  7
CHINESET
 72
     4
 11
245.321049378654
 21
16.10991685316806
 31
0.0
100
AcDbText
  0
LINE
  5
187F
330
1F
100
AcDbEntity
  8
LOGO
 62
     4
100
AcDbLine
 10
230.8584747838975
 20
32.06447083907326
 30
0.0
 11
230.8584747838975
 21
23.61794225829993
 31
0.0
  0
LINE
  5
1880
330
1F
100
AcDbEntity
  8
LOGO
  6
Continuous
 62
     7
100
AcDbLine
 10
232.3136847197578
 20
27.81128760958648
 30
0.0
 11
236.0433635408943
 21
27.81128760958648
 31
0.0
  0
LINE
  5
1881
330
1F
100
AcDbEntity
  8
LOGO
 62
     4
100
AcDbLine
 10
237.5040602066287
 20
32.06447083907315
 30
0.0
 11
237.5040602066287
 21
23.61794225829988
 31
0.0
  0
TEXT
  5
1882
330
1F
100
AcDbEntity
  8
LOGO
  6
Continuous
 62
     7
100
AcDbText
 10
244.1169343148239
 20
25.32486812293918
 30
0.0
 40
4.926249999999999
  1
5
  7
CHINESET
 72
     1
 11
245.7590176481572
 21
27.78799312293918
 31
0.0
100
AcDbText
 73
     2
  0
LINE
  5
1883
330
1F
100
AcDbEntity
  8
LOGO
 62
     4
100
AcDbLine
 10
261.2570836447125
 20
23.61794225829988
 30
0.0
 11
261.2570836447125
 21
19.39467796791325
 31
0.0
  0
LINE
  5
1885
330
1F
100
AcDbEntity
  8
LOGO
 62
     4
100
AcDbLine
 10
269.8237765391519
 20
9.071143035857033
 30
0.0
 11
254.3785976483285
 21
9.071143035857012
 31
0.0
  0
LINE
  5
1886
330
1F
100
AcDbEntity
  8
LOGO
 62
     4
100
AcDbLine
 10
269.8237765391519
 20
19.39467796791325
 30
0.0
 11
254.3785976483285
 21
19.39467796791325
 31
0.0
  0
TEXT
  5
1887
330
1F
100
AcDbEntity
  8
LOGO
  6
Continuous
100
AcDbText
 10
256.9541550732838
 20
10.7136509749607
 30
0.0
 40
2.11125
  1
Magnet
 41
0.8
  7
CHINESET
 72
     4
 11
261.2570836447125
 21
11.41740097496069
 31
0.0
100
AcDbText
  0
TEXT
  5
1888
330
1F
100
AcDbEntity
  8
LOGO
100
AcDbText
 10
255.9789586447124
 20
14.38719549900139
 30
0.0
 40
3.518749999999999
  1
附磁石
  7
CHINESET
 72
     4
 11
261.2570836447125
 21
16.10991685316806
 31
0.0
100
AcDbText
  0
LINE
  5
1889
330
1F
100
AcDbEntity
  8
LOGO
 62
     4
100
AcDbLine
 10
254.3785976483285
 20
19.39467796791325
 30
0.0
 11
254.3785976483285
 21
9.071143035857012
 31
0.0
  0
LINE
  5
188A
330
1F
100
AcDbEntity
  8
LOGO
 62
     4
100
AcDbLine
 10
252.1995353750379
 20
19.39467796791325
 30
0.0
 11
252.1995353750379
 21
9.032216463853934
 31
0.0
  0
LINE
  5
188B
330
1F
100
AcDbEntity
  8
LOGO
 62
     4
100
AcDbLine
 10
269.8237765391519
 20
19.39467796791325
 30
0.0
 11
269.8237765391519
 21
9.032216463853934
 31
0.0
  0
TEXT
  5
188C
330
1F
100
AcDbEntity
  8
LOGO
  6
Continuous
 62
     7
100
AcDbText
 10
256.8611918757213
 20
25.32486812293918
 30
0.0
 40
4.926249999999999
  1
(M)
  7
CHINESET
 72
     1
 11
262.1393168757213
 21
27.78799312293918
 31
0.0
100
AcDbText
 73
     2
  0
LINE
  5
188D
330
1F
100
AcDbEntity
  8
LOGO
 62
     4
100
AcDbLine
 10
269.1112660922773
 20
23.61794225829988
 30
0.0
 11
255.0911080952031
 21
23.61794225829988
 31
0.0
  0
LINE
  5
188E
330
1F
100
AcDbEntity
  8
LOGO
 62
     4
100
AcDbLine
 10
269.1112660922773
 20
32.0644708390732
 30
0.0
 11
255.0911080952031
 21
32.06447083907315
 31
0.0
  0
LINE
  5
188F
330
1F
100
AcDbEntity
  8
LOGO
 62
     4
100
AcDbLine
 10
255.0911080952031
 20
32.06447083907315
 30
0.0
 11
255.0911080952031
 21
23.61794225829988
 31
0.0
  0
LINE
  5
1890
330
1F
100
AcDbEntity
  8
LOGO
 62
     4
100
AcDbLine
 10
253.1380385506794
 20
32.06447083907315
 30
0.0
 11
253.1380385506794
 21
23.61794225829988
 31
0.0
  0
LINE
  5
1891
330
1F
100
AcDbEntity
  8
LOGO
 62
     4
100
AcDbLine
 10
269.1112660922772
 20
32.0644708390732
 30
0.0
 11
269.1112660922773
 21
23.61794225829988
 31
0.0
  0
LINE
  5
18E7
330
1F
100
AcDbEntity
  8
0
 62
     4
100
AcDbLine
 10
290.3688113312526
 20
264.3808727122839
 30
0.0
 11
54.83355057409903
 21
264.380872712284
 31
0.0
  0
TEXT
  5
18EA
330
1F
100
AcDbEntity
  8
0
100
AcDbText
 10
62.55913148534978
 20
253.9762093734847
 30
0.0
 40
4.0
  1
11 type
  7
CHINESET
100
AcDbText
  0
LINE
  5
3B06
330
1F
100
AcDbEntity
  8
CENTER
 48
0.8
100
AcDbLine
 10
215.232682720795
 20
175.1022782396504
 30
0.0
 11
215.232682720795
 21
184.5180846471508
 31
0.0
  0
LINE
  5
3B07
330
1F
100
AcDbEntity
  8
CENTER
 48
0.8
100
AcDbLine
 10
219.9405859245453
 20
179.8101814434005
 30
0.0
 11
210.5247795170448
 21
179.8101814434005
 31
0.0
  0
LINE
  5
3B8A
330
1F
100
AcDbEntity
  8
CENTER
 48
0.8
100
AcDbLine
 10
207.565459792372
 20
190.8101814434006
 30
0.0
 11
244.8999056492183
 21
190.8101814434006
 31
0.0
  0
LINE
  5
3B8B
330
1F
100
AcDbEntity
  8
CENTER
 48
0.8
100
AcDbLine
 10
226.2326827207951
 20
172.1429585149774
 30
0.0
 11
226.2326827207951
 21
209.4774043718237
 31
0.0
  0
LINE
  5
3B8C
330
1F
100
AcDbEntity
  8
CENTER
 48
0.8
100
AcDbLine
 10
237.2326827207949
 20
175.1022782396503
 30
0.0
 11
237.2326827207949
 21
184.5180846471507
 31
0.0
  0
LINE
  5
3B8D
330
1F
100
AcDbEntity
  8
CENTER
 48
0.8
100
AcDbLine
 10
241.9405859245451
 20
179.8101814434004
 30
0.0
 11
232.5247795170447
 21
179.8101814434004
 31
0.0
  0
LINE
  5
3B8E
102
{ACAD_REACTORS
330
3BED
102
}
330
1F
100
AcDbEntity
  8
CENTER
 48
0.8
100
AcDbLine
 10
237.232682720795
 20
197.1022782396503
 30
0.0
 11
237.232682720795
 21
206.5180846471508
 31
0.0
  0
LINE
  5
3B8F
330
1F
100
AcDbEntity
  8
CENTER
 48
0.8
100
AcDbLine
 10
241.9405859245452
 20
201.8101814434005
 30
0.0
 11
232.5247795170448
 21
201.8101814434005
 31
0.0
  0
LINE
  5
3B90
102
{ACAD_REACTORS
330
3BED
102
}
330
1F
100
AcDbEntity
  8
CENTER
 48
0.8
100
AcDbLine
 10
215.232682720795
 20
197.1022782396504
 30
0.0
 11
215.232682720795
 21
206.5180846471508
 31
0.0
  0
LINE
  5
3B91
330
1F
100
AcDbEntity
  8
CENTER
 48
0.8
100
AcDbLine
 10
219.9405859245453
 20
201.8101814434006
 30
0.0
 11
210.5247795170448
 21
201.8101814434006
 31
0.0
  0
DIMENSION
  5
3BD0
330
1F
100
AcDbEntity
  8
DIM
100
AcDbDimension
  2
*D2
 10
126.74320652444
 20
212.4629870649352
 30
0.0
 11
123.2432065244401
 21
214.4629870649352
 31
0.0
 70
    32
 71
     5
 42
6.999999999999772
  3
AM_ANSI
100
AcDbAlignedDimension
 13
119.7432065244402
 23
216.29882520906
 33
0.0
 14
126.74320652444
 24
195.5180846471507
 34
0.0
100
AcDbRotatedDimension
1001
ACAD
1000
DSTYLE
1002
{
1070
    41
1040
2.0
1070
    42
1040
1.5
1070
    43
1040
8.0
1070
    44
1040
1.5
1070
    73
1070
     0
1070
    74
1070
     0
1070
    77
1070
     3
1070
   140
1040
2.0
1070
   141
1040
3.0
1070
   146
1040
0.6
1070
   147
1040
1.0
1070
   172
1070
     1
1070
   178
1070
   256
1070
   272
1070
     8
1070
   274
1070
     2
1070
   340
1005
29C5
1002
}
  0
DIMENSION
  5
3BD3
330
1F
100
AcDbEntity
  8
DIM
100
AcDbDimension
  2
*D3
 10
161.7432059581959
 20
212.4629870649352
 30
0.0
 11
158.243206241318
 21
214.4629870649352
 31
0.0
 70
    32
 71
     5
 42
6.999999433755874
  3
AM_ANSI
100
AcDbAlignedDimension
 13
154.74320652444
 23
195.5180846471506
 33
0.0
 14
161.7432059581959
 24
208.5601820245456
 34
0.0
100
AcDbRotatedDimension
1001
ACAD
1000
DSTYLE
1002
{
1070
    41
1040
2.0
1070
    42
1040
1.5
1070
    43
1040
8.0
1070
    44
1040
1.5
1070
    73
1070
     0
1070
    74
1070
     0
1070
    77
1070
     3
1070
   140
1040
2.0
1070
   141
1040
3.0
1070
   146
1040
0.6
1070
   147
1040
1.0
1070
   172
1070
     1
1070
   178
1070
   256
1070
   272
1070
     8
1070
   274
1070
     2
1070
   340
1005
29C5
1002
}
  0
DIMENSION
  5
3BD6
330
1F
100
AcDbEntity
  8
DIM
100
AcDbDimension
  2
*D4
 10
161.7432059581959
 20
223.4503853367413
 30
0.0
 11
140.7432062413179
 21
225.4503853367413
 31
0.0
 70
    32
  1
37+stroke=<>
 71
     5
 42
41.99999943375587
  3
AM_ANSI
100
AcDbAlignedDimension
 13
119.74320652444
 23
208.5601820245458
 33
0.0
 14
161.7432059581959
 24
208.0601810112668
 34
0.0
100
AcDbRotatedDimension
1001
ACAD
1000
DSTYLE
1002
{
1070
    41
1040
2.0
1070
    42
1040
1.5
1070
    43
1040
8.0
1070
    44
1040
1.5
1070
    73
1070
     0
1070
    74
1070
     0
1070
    77
1070
     3
1070
   140
1040
2.0
1070
   141
1040
3.0
1070
   146
1040
0.6
1070
   147
1040
1.0
1070
   172
1070
     1
1070
   178
1070
   256
1070
   272
1070
     8
1070
   274
1070
     2
1070
   340
1005
29C5
1002
}
  0
DIMENSION
  5
3BD9
330
1F
100
AcDbEntity
  8
DIM
100
AcDbDimension
  2
*D5
 10
161.7432059581959
 20
231.666472563717
 30
0.0
 11
129.7432063009226
 21
233.666472563717
 31
0.0
 70
    32
  1
59+stroke=<>
 71
     5
 42
63.99999931454664
  3
AM_ANSI
100
AcDbAlignedDimension
 13
97.74320664364928
 23
193.8101814694776
 33
0.0
 14
161.7432059581959
 24
208.5601820245456
 34
0.0
100
AcDbRotatedDimension
1001
ACAD
1000
DSTYLE
1002
{
1070
    41
1040
2.0
1070
    42
1040
1.5
1070
    43
1040
8.0
1070
    44
1040
1.5
1070
    73
1070
     0
1070
    74
1070
     0
1070
    77
1070
     3
1070
   140
1040
2.0
1070
   141
1040
3.0
1070
   146
1040
0.6
1070
   147
1040
1.0
1070
   172
1070
     1
1070
   178
1070
   256
1070
   272
1070
     8
1070
   274
1070
     2
1070
   340
1005
29C5
1002
}
  0
DIMENSION
  5
3BEB
102
{ACAD_XDICTIONARY
360
3BEC
102
}
102
{ACAD_REACTORS
330
3BED
102
}
330
1F
100
AcDbEntity
  8
DIM
100
AcDbDimension
  2
*D6
 10
237.232682720795
 20
212.9649516079877
 30
0.0
 11
226.232682720795
 21
214.9649516079877
 31
0.0
 70
    32
  1
□<>
 71
     5
 42
22.0
  3
AM_ANSI
100
AcDbAlignedDimension
 13
215.232682720795
 23
206.5180846471508
 33
0.0
 14
237.232682720795
 24
206.5180846471508
 34
0.0
100
AcDbRotatedDimension
1001
ACAD
1000
DSTYLE
1002
{
1070
    41
1040
2.0
1070
    42
1040
1.5
1070
    43
1040
8.0
1070
    44
1040
1.5
1070
    73
1070
     0
1070
    74
1070
     0
1070
    77
1070
     3
1070
   140
1040
2.0
1070
   141
1040
3.0
1070
   146
1040
0.6
1070
   147
1040
1.0
1070
   172
1070
     1
1070
   178
1070
   256
1070
   272
1070
     8
1070
   274
1070
     2
1070
   340
1005
29C5
1002
}
  0
TEXT
  5
41CE
330
1F
100
AcDbEntity
  8
LOGO
 62
     7
100
AcDbText
 10
118.3851832590296
 20
22.54973001334916
 30
0.0
 40
3.752789864253393
  1
Order example:
 41
0.8
  7
CHINESET
100
AcDbText
  0
TEXT
  5
41CF
330
1F
100
AcDbEntity
  8
LOGO
 62
     7
100
AcDbText
 10
119.0584647949864
 20
27.8328811171618
 30
0.0
 40
5.62918479638009
  1
訂購代號：
  7
CHINESET
100
AcDbText
  0
LINE
  5
41D0
330
1F
100
AcDbEntity
  8
LOGO
 62
     4
100
AcDbLine
 10
116.7545833342801
 20
6.734056384096923
 30
0.0
 11
116.7545833342801
 21
34.87998036599755
 31
0.0
  0
TEXT
  5
41D1
330
1F
100
AcDbEntity
  8
LOGO
  6
Continuous
100
AcDbText
 10
64.9436929867739
 20
12.26328067443853
 30
0.0
 40
4.221888597285068
  1
金器工業股份有限公司
  7
CHINESET
100
AcDbText
  0
TEXT
  5
41D2
330
1F
100
AcDbEntity
  8
LOGO
  6
Continuous
100
AcDbText
 10
57.18891889302961
 20
8.040564917997272
 30
0.0
 40
2.814592398190045
  1
MINDMAN INDUSTRIAL CO., LTD.
 41
0.85
  7
CHINESET
100
AcDbText
  0
LINE
  5
41D3
330
1F
100
AcDbEntity
  8
LOGO
 62
     4
100
AcDbLine
 10
116.7545833342801
 20
29.25079556961743
 30
0.0
 11
75.47389482749252
 21
29.25079556961743
 31
0.0
  0
LINE
  5
41D4
330
1F
100
AcDbEntity
  8
LOGO
 62
     4
100
AcDbLine
 10
116.7545833342801
 20
23.62161077323731
 30
0.0
 11
75.47389482749252
 21
23.62161077323731
 31
0.0
  0
LINE
  5
41D5
330
1F
100
AcDbEntity
  8
LOGO
 62
     4
100
AcDbLine
 10
116.7545833342801
 20
17.9924259768575
 30
0.0
 11
54.83355057409903
 21
17.9924259768575
 31
0.0
  0
LINE
  5
41D6
330
1F
100
AcDbEntity
  8
LOGO
 62
     4
100
AcDbLine
 10
75.47389482749252
 20
17.9924259768575
 30
0.0
 11
75.47389482749252
 21
34.87998036599755
 31
0.0
  0
TEXT
  5
41D7
330
1F
100
AcDbEntity
  8
LOGO
100
AcDbText
 10
103.6872970030623
 20
19.39972217595206
 30
0.0
 40
2.814592398190045
  1
mm
  7
CHINESET
 72
     1
 11
107.1720304484405
 21
20.80701837504708
 31
0.0
100
AcDbText
 73
     2
  0
TEXT
  5
41D8
330
1F
100
AcDbEntity
  8
LOGO
100
AcDbText
 10
102.2129866992485
 20
30.65809176871232
 30
0.0
 40
2.814592398190045
  1
1 : 1
  7
CHINESET
 72
     1
 11
107.1720304484405
 21
32.06538796780734
 31
0.0
100
AcDbText
 73
     2
  0
LINE
  5
41D9
330
1F
100
AcDbEntity
  8
LOGO
 62
     4
100
AcDbLine
 10
97.990634013013
 20
17.9924259768575
 30
0.0
 11
97.990634013013
 21
34.87998036599755
 31
0.0
  0
CIRCLE
  5
41DA
330
1F
100
AcDbEntity
  8
LOGO
  6
Continuous
100
AcDbCircle
 10
103.2022038819139
 20
26.44222360516386
 30
0.0
 40
1.634218594426288
  0
CIRCLE
  5
41DB
330
1F
100
AcDbEntity
  8
LOGO
  6
Continuous
100
AcDbCircle
 10
103.2022038819139
 20
26.44222360516386
 30
0.0
 40
0.9575074271468279
  0
LINE
  5
41DC
330
1F
100
AcDbEntity
  8
LOGO
100
AcDbLine
 10
113.4718231559952
 20
24.80800501073725
 30
0.0
 11
113.4718231559952
 21
28.07644219959046
 31
0.0
  0
LINE
  5
41DD
330
1F
100
AcDbEntity
  8
LOGO
100
AcDbLine
 10
108.3486416710925
 20
25.4847161780172
 30
0.0
 11
108.3486416710925
 21
27.39973103231084
 31
0.0
  0
LINE
  5
41DE
330
1F
100
AcDbEntity
  8
LOGO
  6
Continuous
100
AcDbLine
 10
108.3486416710925
 20
27.39973103231084
 30
0.0
 11
113.4718231559952
 21
28.07644219959046
 31
0.0
  0
LINE
  5
41DF
330
1F
100
AcDbEntity
  8
LOGO
  6
Continuous
100
AcDbLine
 10
108.3486416710925
 20
25.4847161780172
 30
0.0
 11
113.4718231559952
 21
24.80800501073725
 31
0.0
  0
TEXT
  5
41E0
330
1F
100
AcDbEntity
  8
LOGO
100
AcDbText
 10
77.79467704153589
 20
30.65947690276654
 30
184.4637490072701
 40
2.814592398190045
  1
比例 Scale:
 41
0.9
  7
CHINESET
 72
     4
 11
86.73226442025276
 21
32.06538796780734
 31
184.4637490072701
100
AcDbText
  0
TEXT
  5
41E1
330
1F
100
AcDbEntity
  8
LOGO
100
AcDbText
 10
77.63258667574726
 20
25.06849872071552
 30
184.4637490072701
 40
2.814592398190045
  1
投影  View:
 41
0.9
  7
CHINESET
 72
     4
 11
86.73226442025276
 21
26.43620317142721
 31
184.4637490072701
100
AcDbText
  0
TEXT
  5
41E2
330
1F
100
AcDbEntity
  8
LOGO
100
AcDbText
 10
77.90776334324888
 20
19.39972217595206
 30
184.4637490072701
 40
2.814592398190045
  1
單位  Unit:
 41
0.9
  7
CHINESET
 72
     4
 11
86.73226442025276
 21
20.80701837504708
 31
184.4637490072701
100
AcDbText
  0
SOLID
  5
41E3
330
1F
100
AcDbEntity
  8
LOGO
 62
     5
100
AcDbTrace
 10
57.75373535799332
 20
22.67128521316781
 30
0.0
 11
58.97069125606612
 21
22.67128521316749
 31
0.0
 12
64.04833483078363
 22
34.21138424661748
 32
0.0
 13
65.26529072885711
 23
34.21138424661684
 33
0.0
  0
SOLID
  5
41E4
330
1F
100
AcDbEntity
  8
LOGO
 62
     5
100
AcDbTrace
 10
59.47425921389066
 20
22.67128521316781
 30
0.0
 11
60.69121511196351
 21
22.67128521316781
 31
0.0
 12
65.26529072885711
 22
33.28817632394106
 32
0.0
 13
64.04833483078363
 23
28.82600469767385
 33
0.0
  0
SOLID
  5
41E5
330
1F
100
AcDbEntity
  8
LOGO
 62
     2
100
AcDbTrace
 10
58.97069125606612
 20
22.67128521316749
 30
0.0
 11
59.47425921389066
 21
22.67128521316781
 31
0.0
 12
65.26529072885711
 22
34.21138424661684
 32
0.0
 13
65.76885868668103
 23
34.21138424661684
 33
0.0
  0
SOLID
  5
41E6
330
1F
100
AcDbEntity
  8
LOGO
 62
     5
100
AcDbTrace
 10
55.80265661924016
 20
18.47488556464104
 30
0.0
 11
56.22229658409333
 21
18.47488556464104
 31
0.0
 12
57.4040353872831
 22
20.57308538890426
 32
0.0
 13
57.82367535213495
 23
20.57308538890426
 33
0.0
  0
SOLID
  5
41E7
330
1F
100
AcDbEntity
  8
LOGO
 62
     5
100
AcDbTrace
 10
57.4040353872831
 20
20.57308538890426
 30
0.0
 11
57.82367535213495
 21
20.57308538890426
 31
0.0
 12
57.4040353872831
 22
18.47488556464104
 32
0.0
 13
57.82367535213495
 23
18.47488556464104
 33
0.0
  0
SOLID
  5
41E8
330
1F
100
AcDbEntity
  8
LOGO
 62
     5
100
AcDbTrace
 10
57.4040353872831
 20
18.47488556464104
 30
0.0
 11
57.82367535213495
 21
18.47488556464104
 31
0.0
 12
59.00541415532666
 22
20.57308538890426
 32
0.0
 13
59.42505412017914
 23
20.57308538890426
 33
0.0
  0
SOLID
  5
41E9
330
1F
100
AcDbEntity
  8
LOGO
 62
     5
100
AcDbTrace
 10
59.00541415532666
 20
20.57308538890426
 30
0.0
 11
59.42505412017914
 21
20.57308538890426
 31
0.0
 12
59.00541415532666
 22
18.47488556464104
 32
0.0
 13
59.42505412017914
 23
18.47488556464104
 33
0.0
  0
POLYLINE
  5
41EA
330
1F
100
AcDbEntity
  8
LOGO
 62
     5
100
AcDb2dPolyline
 66
     1
 10
0.0
 20
0.0
 30
0.0
 40
0.42031246479638
 41
0.42031246479638
  0
VERTEX
  5
41EB
330
41EA
100
AcDbEntity
  8
LOGO
 62
     5
100
AcDbVertex
100
AcDb2dVertex
 10
73.0716028250335
 20
19.73380545919891
 30
0.0
 42
1.0
  0
VERTEX
  5
41EC
330
41EA
100
AcDbEntity
  8
LOGO
 62
     5
100
AcDbVertex
100
AcDb2dVertex
 10
71.81066543064407
 20
19.73380545919891
 30
0.0
 42
1.0
  0
SEQEND
  5
41ED
330
41EA
100
AcDbEntity
  8
LOGO
 62
     5
  0
POLYLINE
  5
41EE
330
1F
100
AcDbEntity
  8
LOGO
 62
     5
100
AcDb2dPolyline
 66
     1
 10
0.0
 20
0.0
 30
0.0
 70
     1
  0
VERTEX
  5
41EF
330
41EE
100
AcDbEntity
  8
LOGO
 62
     5
100
AcDbVertex
100
AcDb2dVertex
 10
69.43374235572452
 20
19.52398547677233
 30
0.0
 42
1.000000057330635
  0
VERTEX
  5
41F0
330
41EE
100
AcDbEntity
  8
LOGO
 62
     5
100
AcDbVertex
100
AcDb2dVertex
 10
70.69266225028269
 20
19.52398547677233
 30
0.0
 42
1.000000057330635
  0
SEQEND
  5
41F1
330
41EE
100
AcDbEntity
  8
LOGO
 62
     5
  0
CIRCLE
  5
41F2
330
1F
100
AcDbEntity
  8
LOGO
 62
     5
100
AcDbCircle
 10
70.06320230300457
 20
19.52398547677233
 30
0.0
 40
0.6294599472790589
  0
POLYLINE
  5
41F3
330
1F
100
AcDbEntity
  8
LOGO
 62
     5
100
AcDb2dPolyline
 66
     1
 10
0.0
 20
0.0
 30
0.0
 70
     1
 40
0.42031246479638
 41
0.42031246479638
  0
VERTEX
  5
41F4
330
41F3
100
AcDbEntity
  8
LOGO
 62
     5
100
AcDbVertex
100
AcDb2dVertex
 10
69.22257737341124
 20
19.52398547677233
 30
0.0
 42
1.0
  0
VERTEX
  5
41F5
330
41F3
100
AcDbEntity
  8
LOGO
 62
     5
100
AcDbVertex
100
AcDb2dVertex
 10
70.90382723259665
 20
19.52398547677233
 30
0.0
 42
1.0
  0
SEQEND
  5
41F6
330
41F3
100
AcDbEntity
  8
LOGO
 62
     5
  0
LINE
  5
41F7
330
1F
100
AcDbEntity
  8
LOGO
100
AcDbLine
 10
73.28041405754351
 20
18.47488556464104
 30
0.0
 11
73.28041405754351
 21
19.73380545919891
 31
0.0
  0
SOLID
  5
41F8
330
1F
100
AcDbEntity
  8
LOGO
 62
     5
100
AcDbTrace
 10
70.6926202862881
 20
20.57308538890426
 30
0.0
 11
71.11226025113996
 21
20.57308538890426
 31
0.0
 12
70.6926202862881
 22
18.47488556464104
 32
0.0
 13
71.11226025113996
 23
18.47488556464104
 33
0.0
  0
SOLID
  5
41F9
330
1F
100
AcDbEntity
  8
LOGO
 62
     5
100
AcDbTrace
 10
71.6018541981328
 20
18.47488556464104
 30
0.0
 11
72.02149416298595
 21
18.47488556464104
 31
0.0
 12
71.6018541981328
 22
20.57308538890426
 32
0.0
 13
72.02149416298595
 23
20.57308538890426
 33
0.0
  0
SOLID
  5
41FA
330
1F
100
AcDbEntity
  8
LOGO
 62
     5
100
AcDbTrace
 10
72.8607740926916
 20
19.73380545919891
 30
0.0
 11
73.28041405754351
 21
19.73380545919891
 31
0.0
 12
72.8607740926916
 22
18.47488556464104
 32
0.0
 13
73.28041405754351
 23
18.47488556464104
 33
0.0
  0
SOLID
  5
41FB
330
1F
100
AcDbEntity
  8
LOGO
 62
     5
100
AcDbTrace
 10
71.55989020164742
 20
33.28817632394106
 30
0.0
 11
70.34293430357525
 21
28.82600469767385
 31
0.0
 12
71.55989020164742
 22
22.67128521316749
 32
0.0
 13
70.34293430357525
 23
22.67128521316749
 33
0.0
  0
SOLID
  5
41FC
330
1F
100
AcDbEntity
  8
LOGO
 62
     5
100
AcDbTrace
 10
72.06345815947134
 20
22.67128521316749
 30
0.0
 11
73.28041405754351
 21
22.67128521316749
 31
0.0
 12
72.06345815947134
 22
34.21138424661684
 32
0.0
 13
73.28041405754351
 23
34.21138424661748
 33
0.0
  0
SOLID
  5
41FD
330
1F
100
AcDbEntity
  8
LOGO
 62
     2
100
AcDbTrace
 10
71.55989020164742
 20
34.21138424661748
 30
0.0
 11
72.06345815947134
 21
34.21138424661684
 31
0.0
 12
71.55989020164742
 22
22.67128521316749
 32
0.0
 13
72.06345815947134
 23
22.67128521316749
 33
0.0
  0
POLYLINE
  5
41FE
330
1F
100
AcDbEntity
  8
LOGO
 62
     5
100
AcDb2dPolyline
 66
     1
 10
0.0
 20
0.0
 30
0.0
 40
0.42031246479638
 41
0.42031246479638
  0
VERTEX
  5
41FF
330
41FE
100
AcDbEntity
  8
LOGO
 62
     5
100
AcDbVertex
100
AcDb2dVertex
 10
67.0567353528138
 20
19.73380545919891
 30
0.0
 42
1.0
  0
VERTEX
  5
4200
330
41FE
100
AcDbEntity
  8
LOGO
 62
     5
100
AcDbVertex
100
AcDb2dVertex
 10
65.79579795842443
 20
19.73380545919891
 30
0.0
 42
1.0
  0
SEQEND
  5
4201
330
41FE
100
AcDbEntity
  8
LOGO
 62
     5
  0
POLYLINE
  5
4202
330
1F
100
AcDbEntity
  8
LOGO
 62
     5
100
AcDb2dPolyline
 66
     1
 10
0.0
 20
0.0
 30
0.0
 40
0.42031246479638
 41
0.42031246479638
  0
VERTEX
  5
4203
330
4202
100
AcDbEntity
  8
LOGO
 62
     5
100
AcDbVertex
100
AcDb2dVertex
 10
68.31565524737072
 20
19.73380545919891
 30
0.0
 42
1.0
  0
VERTEX
  5
4204
330
4202
100
AcDbEntity
  8
LOGO
 62
     5
100
AcDbVertex
100
AcDb2dVertex
 10
67.05471785298198
 20
19.73380545919891
 30
0.0
 42
1.0
  0
SEQEND
  5
4205
330
4202
100
AcDbEntity
  8
LOGO
 62
     5
  0
POLYLINE
  5
4206
330
1F
100
AcDbEntity
  8
LOGO
 62
     5
100
AcDb2dPolyline
 66
     1
 10
0.0
 20
0.0
 30
0.0
 40
0.42031246479638
 41
0.42031246479638
  0
VERTEX
  5
4207
330
4206
100
AcDbEntity
  8
LOGO
 62
     5
100
AcDbVertex
100
AcDb2dVertex
 10
62.30078777515103
 20
19.73380545919891
 30
0.0
 42
1.0
  0
VERTEX
  5
4208
330
4206
100
AcDbEntity
  8
LOGO
 62
     5
100
AcDbVertex
100
AcDb2dVertex
 10
61.03985038076229
 20
19.73380545919891
 30
0.0
 42
1.0
  0
SEQEND
  5
4209
330
4206
100
AcDbEntity
  8
LOGO
 62
     5
  0
SOLID
  5
420A
330
1F
100
AcDbEntity
  8
LOGO
 62
     5
100
AcDbTrace
 10
60.83103914825165
 20
20.57308538890426
 30
0.0
 11
61.2506791131035
 21
20.57308538890426
 31
0.0
 12
60.83103914825165
 22
18.47488556464104
 32
0.0
 13
61.2506791131035
 23
18.47488556464104
 33
0.0
  0
SOLID
  5
420B
330
1F
100
AcDbEntity
  8
LOGO
 62
     5
100
AcDbTrace
 10
62.08995904280982
 20
19.73380545919891
 30
0.0
 11
62.50959900766298
 21
19.73380545919891
 31
0.0
 12
62.08995904280982
 22
18.47488556464104
 32
0.0
 13
62.50959900766298
 23
18.47488556464104
 33
0.0
  0
POLYLINE
  5
420C
330
1F
100
AcDbEntity
  8
LOGO
 62
     5
100
AcDb2dPolyline
 66
     1
 10
0.0
 20
0.0
 30
0.0
 70
     1
 40
0.42031246479638
 41
0.42031246479638
  0
VERTEX
  5
420D
330
420C
100
AcDbEntity
  8
LOGO
 62
     5
100
AcDbVertex
100
AcDb2dVertex
 10
63.20770990119092
 20
19.52398547677233
 30
0.0
 42
1.0
  0
VERTEX
  5
420E
330
420C
100
AcDbEntity
  8
LOGO
 62
     5
100
AcDbVertex
100
AcDb2dVertex
 10
64.88895976037702
 20
19.52398547677233
 30
0.0
 42
1.0
  0
SEQEND
  5
420F
330
420C
100
AcDbEntity
  8
LOGO
 62
     5
  0
SOLID
  5
4210
330
1F
100
AcDbEntity
  8
LOGO
 62
     5
100
AcDbTrace
 10
64.67775281406716
 20
21.20254533618368
 30
0.0
 11
65.0973927789197
 21
21.20254533618368
 31
0.0
 12
64.67775281406716
 22
18.47488556464104
 32
0.0
 13
65.0973927789197
 23
18.47488556464104
 33
0.0
  0
SOLID
  5
4211
330
1F
100
AcDbEntity
  8
LOGO
 62
     5
100
AcDbTrace
 10
65.58698672591441
 20
20.57308538890426
 30
0.0
 11
66.00662669076626
 21
20.57308538890426
 31
0.0
 12
65.58698672591441
 22
18.47488556464104
 32
0.0
 13
66.00662669076626
 23
18.47488556464104
 33
0.0
  0
SOLID
  5
4212
330
1F
100
AcDbEntity
  8
LOGO
 62
     5
100
AcDbTrace
 10
66.84590662047134
 20
19.73380545919891
 30
0.0
 11
67.2655465853245
 21
19.73380545919891
 31
0.0
 12
66.84590662047134
 22
18.47488556464104
 32
0.0
 13
67.2655465853245
 23
18.47488556464104
 33
0.0
  0
SOLID
  5
4213
330
1F
100
AcDbEntity
  8
LOGO
 62
     5
100
AcDbTrace
 10
68.10482651502951
 20
19.73380545919891
 30
0.0
 11
68.52446647988205
 21
19.73380545919891
 31
0.0
 12
68.10482651502951
 22
18.4748855646404
 32
0.0
 13
68.52446647988205
 23
18.4748855646404
 33
0.0
  0
SOLID
  5
4214
330
1F
100
AcDbEntity
  8
LOGO
 62
     5
100
AcDbTrace
 10
59.92180523640502
 20
20.86683336430128
 30
0.0
 11
60.34144520125886
 21
20.86683336430128
 31
0.0
 12
59.92180523640502
 22
21.20254533618368
 32
0.0
 13
60.34144520125886
 23
21.20254533618368
 33
0.0
  0
SOLID
  5
4215
330
1F
100
AcDbEntity
  8
LOGO
 62
     5
100
AcDbTrace
 10
59.92180523640502
 20
20.57308538890426
 30
0.0
 11
60.34144520125886
 21
20.57308538890426
 31
0.0
 12
59.92180523640502
 22
18.4748855646404
 32
0.0
 13
60.34144520125886
 23
18.47488556464104
 33
0.0
  0
SOLID
  5
4216
330
1F
100
AcDbEntity
  8
LOGO
 62
     5
100
AcDbTrace
 10
64.04833483078363
 20
22.67128521316781
 30
0.0
 11
65.26529072885711
 21
22.67128521316781
 31
0.0
 12
64.04833483078363
 22
28.82600469767385
 32
0.0
 13
65.26529072885711
 23
33.28817632394106
 33
0.0
  0
SOLID
  5
4217
330
1F
100
AcDbEntity
  8
LOGO
 62
     5
100
AcDbTrace
 10
65.76885868668103
 20
34.21138424661684
 30
0.0
 11
66.9858145847532
 21
34.21138424661748
 31
0.0
 12
65.76885868668103
 22
23.59449313584361
 32
0.0
 13
66.9858145847532
 23
28.0566647621108
 33
0.0
  0
SOLID
  5
4218
330
1F
100
AcDbEntity
  8
LOGO
 62
     2
100
AcDbTrace
 10
65.26529072885711
 20
34.21138424661684
 30
0.0
 11
65.76885868668103
 21
34.21138424661684
 31
0.0
 12
65.26529072885711
 22
22.67128521316781
 32
0.0
 13
65.76885868668103
 23
22.67128521316781
 33
0.0
  0
SOLID
  5
4219
330
1F
100
AcDbEntity
  8
LOGO
 62
     5
100
AcDbTrace
 10
65.76885868668103
 20
23.59449313584361
 30
0.0
 11
66.9858145847532
 21
28.0566647621108
 31
0.0
 12
71.55989020164742
 22
34.21138424661748
 32
0.0
 13
70.34293430357525
 23
34.21138424661748
 33
0.0
  0
SOLID
  5
421A
330
1F
100
AcDbEntity
  8
LOGO
 62
     5
100
AcDbTrace
 10
65.76885868668103
 20
22.67128521316781
 30
0.0
 11
66.9858145847532
 21
22.67128521316781
 31
0.0
 12
71.55989020164742
 22
33.28817632394106
 32
0.0
 13
70.34293430357525
 23
28.82600469767385
 33
0.0
  0
SOLID
  5
421B
330
1F
100
AcDbEntity
  8
LOGO
 62
     2
100
AcDbTrace
 10
65.26529072885711
 20
22.67128521316781
 30
0.0
 11
65.76885868668103
 21
22.67128521316781
 31
0.0
 12
71.55989020164742
 22
34.21138424661748
 32
0.0
 13
72.06345815947134
 23
34.21138424661684
 33
0.0
  0
TEXT
  5
421C
330
1F
100
AcDbEntity
  8
LOGO
100
AcDbText
 10
118.2463488456138
 20
8.231408430916225
 30
0.0
 40
2.814999999999999
  1
1081214B
 41
0.7
  7
CHINESET
 72
     1
 11
124.9085155122805
 21
8.231408430916225
 31
0.0
100
AcDbText
  0
LINE
  5
421D
330
1F
100
AcDbEntity
  8
LOGO
 62
     4
100
AcDbLine
 10
133.6445833342788
 20
12.36324118047769
 30
0.0
 11
133.64458333428
 21
6.734056384097243
 31
0.0
  0
LINE
  5
421E
330
1F
100
AcDbEntity
  8
LOGO
 62
     4
100
AcDbLine
 10
133.6445833342788
 20
12.36324118047769
 30
0.0
 11
116.7545833342801
 21
12.36324118047769
 31
0.0
  0
LINE
  5
421F
330
1F
100
AcDbEntity
  8
LOGO
  6
AM_ISO08W050x2
 48
0.3
100
AcDbLine
 10
100.9494090790007
 20
26.44222360516386
 30
0.0
 11
105.454998684827
 21
26.44222360516386
 31
0.0
1001
GENIUS_GENOREF_13
1005
4224
  0
LINE
  5
4220
330
1F
100
AcDbEntity
  8
LOGO
  6
AM_ISO08W050x2
 48
0.3
100
AcDbLine
 10
103.2022038819139
 20
24.1894288022507
 30
0.0
 11
103.2022038819139
 21
28.695018408077
 31
0.0
1001
GENIUS_GENOREF_13
1005
4223
  0
LINE
  5
4221
330
1F
100
AcDbEntity
  8
LOGO
  6
CENTER
 48
0.5
100
AcDbLine
 10
107.9389295504633
 20
26.44222360516386
 30
0.0
 11
113.9877109469314
 21
26.44222360516386
 31
0.0
1001
GENIUS_GENOREF_13
1005
4222
  0
POINT
  5
4222
330
1F
100
AcDbEntity
  8
0
 60
     1
100
AcDbPoint
 10
-2015.827872058566
 20
-919.9712041172713
 30
0.0
1001
GENIUS_GENOBJ-N-CRS_13
1002
{
1000
OWNER
1000
GEN
1002
}
1001
GENIUS_GENOLIS_13
1002
{
1000
ENT
1005
0
1005
0
1005
0
1005
4221
1002
}
1001
GENIUS_GENOENT_13
1002
{
1000
MYREF
1005
4222
1002
}
1002
{
1000
GRP
1005
0
1002
}
1001
GENIUS_GENODEF_13
1002
{
1000
HIER
1070
    10
1002
}
1002
{
1000
MANEDIT
1070
     1
1002
}
1002
{
1000
NOSEL
1070
     0
1002
}
1002
{
1000
BEHIND
1070
     0
1002
}
1002
{
1000
OTHER
1070
     0
1002
}
1002
{
1000
REACTOR
1002
}
  0
POINT
  5
4223
330
1F
100
AcDbEntity
  8
0
 60
     1
100
AcDbPoint
 10
-2027.15245728142
 20
-911.095617638635
 30
0.0
1001
GENIUS_GENOBJ-N-CRS_13
1002
{
1000
OWNER
1000
GEN
1002
}
1001
GENIUS_GENOLIS_13
1002
{
1000
ENT
1005
0
1005
0
1005
0
1005
4220
1002
}
1001
GENIUS_GENOENT_13
1002
{
1000
MYREF
1005
4223
1002
}
1002
{
1000
GRP
1005
0
1002
}
1001
GENIUS_GENODEF_13
1002
{
1000
HIER
1070
    10
1002
}
1002
{
1000
MANEDIT
1070
     1
1002
}
1002
{
1000
NOSEL
1070
     0
1002
}
1002
{
1000
BEHIND
1070
     0
1002
}
1002
{
1000
OTHER
1070
     0
1002
}
1002
{
1000
REACTOR
1002
}
  0
POINT
  5
4224
330
1F
100
AcDbEntity
  8
0
 60
     1
100
AcDbPoint
 10
-2020.793783583584
 20
-919.9712041172713
 30
0.0
1001
GENIUS_GENOBJ-N-CRS_13
1002
{
1000
OWNER
1000
GEN
1002
}
1001
GENIUS_GENOLIS_13
1002
{
1000
ENT
1005
0
1005
0
1005
0
1005
421F
1002
}
1001
GENIUS_GENOENT_13
1002
{
1000
MYREF
1005
4224
1002
}
1002
{
1000
GRP
1005
0
1002
}
1001
GENIUS_GENODEF_13
1002
{
1000
HIER
1070
    10
1002
}
1002
{
1000
MANEDIT
1070
     1
1002
}
1002
{
1000
NOSEL
1070
     0
1002
}
1002
{
1000
BEHIND
1070
     0
1002
}
1002
{
1000
OTHER
1070
     0
1002
}
1002
{
1000
REACTOR
1002
}
  0
LWPOLYLINE
  5
4225
330
1F
100
AcDbEntity
  8
LOGO
 62
     4
100
AcDbPolyline
 90
        4
 70
     1
 43
0.0
 10
54.83355057409903
 20
34.87998036599757
 10
290.3688113312526
 20
34.87998036599757
 10
290.3688113312526
 20
6.734056384096611
 10
54.83355057409903
 20
6.734056384096611
1001
GENIUS_GENREC_14
1002
{
1000
PYDIR
1011
54.83355057409903
1021
6.734056384096611
1031
0.0
1002
}
1002
{
1000
PXDIR
1011
290.3688113312526
1021
34.87998036599757
1031
0.0
1002
}
1002
{
1000
PORI
1011
54.83355057409903
1021
34.87998036599757
1031
0.0
1002
}
1002
{
1000
PINS
1011
54.83355057409903
1021
34.87998036599757
1031
0.0
1002
}
1002
{
1000
PINS2
1011
290.3688113312526
1021
6.734056384096611
1031
0.0
1002
}
1002
{
1000
C
1070
     1
1002
}
1001
GENIUS_GENOBJ-N-REC_13
1002
{
1000
OWNER
1000
GEN
1002
}
1001
GENIUS_GENODEF_13
1002
{
1000
HIER
1070
     0
1002
}
1002
{
1000
MANEDIT
1070
     0
1002
}
1002
{
1000
NOSEL
1070
     0
1002
}
1002
{
1000
BEHIND
1070
     0
1002
}
1002
{
1000
OTHER
1070
     0
1002
}
1002
{
1000
REACTOR
1002
}
  0
TEXT
  5
42E3
330
1F
100
AcDbEntity
  8
0
100
AcDbText
 10
62.55913148534978
 20
144.9801942354219
 30
0.0
 40
4.0
  1
12 type
  7
CHINESET
100
AcDbText
  0
SPLINE
  5
46B1
330
1F
100
AcDbEntity
  8
0
  6
Continuous
 62
     7
370
    15
100
AcDbSpline
210
0.0
220
0.0
230
1.0
 70
    24
 71
     1
 72
     4
 73
     2
 74
     0
 42
0.0000000001
 43
0.0000000001
 40
0.0
 40
0.0
 40
1.0
 40
1.0
 10
114.6092321585502
 20
75.90918601009605
 30
0.0
 10
119.7432065244402
 20
75.90918601009605
 30
0.0
  0
SPLINE
  5
46B2
330
1F
100
AcDbEntity
  8
0
  6
Continuous
 62
     7
370
    15
100
AcDbSpline
210
0.0
220
0.0
230
1.0
 70
    24
 71
     1
 72
     4
 73
     2
 74
     0
 42
0.0000000001
 43
0.0000000001
 40
0.0
 40
0.0
 40
1.0
 40
1.0
 10
119.7432065244403
 20
85.90918578657863
 30
0.0
 10
114.6092321585502
 20
85.90918578657866
 30
0.0
  0
LINE
  5
46B3
330
1F
100
AcDbEntity
  8
0
  6
Continuous
 62
     7
370
    15
100
AcDbLine
 10
150.7432060178008
 20
98.40918597284304
 30
0.0
 11
130.7432064648357
 21
98.40918597284312
 31
0.0
  0
LINE
  5
46B4
330
1F
100
AcDbEntity
  8
0
  6
Continuous
 62
     7
370
    15
100
AcDbLine
 10
150.7432060178008
 20
94.84056275788294
 30
0.0
 11
150.7432060178008
 21
97.8944756508206
 31
0.0
  0
LINE
  5
46B5
330
1F
100
AcDbEntity
  8
0
  6
Continuous
 62
     7
370
    15
100
AcDbLine
 10
130.7432064648357
 20
92.40918592068902
 30
0.0
 11
150.7432060178008
 21
92.40918592068897
 31
0.0
  0
LINE
  5
46B6
330
1F
100
AcDbEntity
  8
0
  6
Continuous
 62
     7
370
    15
100
AcDbLine
 10
130.7432064648357
 20
94.84056275788299
 30
0.0
 11
130.7432064648357
 21
97.89447565082065
 31
0.0
  0
LINE
  5
46B7
330
1F
100
AcDbEntity
  8
0
  6
Continuous
 62
     7
370
    15
100
AcDbLine
 10
150.7432060178008
 20
85.39452435899125
 30
0.0
 11
130.7432064648357
 21
85.3945243589913
 31
0.0
  0
LINE
  5
46B8
330
1F
100
AcDbEntity
  8
0
  6
Continuous
 62
     7
370
    15
100
AcDbLine
 10
130.7432064648357
 20
84.47064491439215
 30
0.0
 11
150.7432060178008
 21
84.4706449143921
 31
0.0
  0
LINE
  5
46B9
330
1F
100
AcDbEntity
  8
0
  6
Continuous
 62
     7
370
    15
100
AcDbLine
 10
130.7432064648356
 20
76.42384743768326
 30
0.0
 11
150.7432060178008
 21
76.42384743768321
 31
0.0
  0
LINE
  5
46BA
330
1F
100
AcDbEntity
  8
0
  6
Continuous
 62
     7
370
    15
100
AcDbLine
 10
150.7432060178008
 20
77.34772688228236
 30
0.0
 11
130.7432064648356
 21
77.34772688228241
 31
0.0
  0
LINE
  5
46BB
330
1F
100
AcDbEntity
  8
0
  6
Continuous
 62
     7
370
    15
100
AcDbLine
 10
150.7432060178007
 20
69.40918587598549
 30
0.0
 11
130.7432064648355
 21
69.40918587598554
 31
0.0
  0
LINE
  5
46BC
330
1F
100
AcDbEntity
  8
0
  6
Continuous
 62
     7
370
    15
100
AcDbLine
 10
130.7432064648355
 20
63.40918582383148
 30
0.0
 11
150.7432060178007
 21
63.40918582383142
 31
0.0
  0
LINE
  5
46BD
330
1F
100
AcDbEntity
  8
0
  6
Continuous
 62
     7
370
    15
100
AcDbLine
 10
150.7432060178007
 20
63.92389614585384
 30
0.0
 11
150.7432060178007
 21
66.97780903879152
 31
0.0
  0
LINE
  5
46BE
330
1F
100
AcDbEntity
  8
0
  6
Continuous
 62
     7
370
    15
100
AcDbLine
 10
130.7432064648355
 20
63.9238961458539
 30
0.0
 11
130.7432064648355
 21
66.97780903879158
 31
0.0
  0
LINE
  5
46BF
330
1F
100
AcDbEntity
  8
0
  6
Continuous
 62
     7
370
    15
100
AcDbLine
 10
150.7432060178008
 20
82.55283298886912
 30
0.0
 11
130.7432064648356
 21
82.5528329888692
 31
0.0
  0
LINE
  5
46C0
330
1F
100
AcDbEntity
  8
0
  6
Continuous
 62
     7
370
    15
100
AcDbLine
 10
130.7432064648355
 20
79.26553880780542
 30
0.0
 11
150.7432060178007
 21
79.26553880780534
 31
0.0
  0
LINE
  5
46C1
330
1F
100
AcDbEntity
  8
0
  6
Continuous
 62
     7
370
    15
100
AcDbLine
 10
150.7432060178008
 20
82.04362492061751
 30
0.0
 11
130.7432064648356
 21
82.04362492061759
 31
0.0
  0
LINE
  5
46C2
330
1F
100
AcDbEntity
  8
0
  6
Continuous
 62
     7
370
    15
100
AcDbLine
 10
130.7432064648355
 20
79.77474687605703
 30
0.0
 11
150.7432060178007
 21
79.77474687605695
 31
0.0
  0
LINE
  5
46C3
330
1F
100
AcDbEntity
  8
0
  6
Continuous
 62
     7
370
    15
100
AcDbLine
 10
113.7432064722861
 20
85.40918570462228
 30
0.0
 11
113.7432064722861
 21
76.40918609205247
 31
0.0
  0
LINE
  5
46C4
330
1F
100
AcDbEntity
  8
0
  6
Continuous
 62
     7
370
    15
100
AcDbLine
 10
150.7432060178008
 20
91.65918626341568
 30
0.0
 11
161.7432059581962
 21
91.65918626341563
 31
0.0
  0
LINE
  5
46C5
330
1F
100
AcDbEntity
  8
0
  6
Continuous
 62
     7
370
    15
100
AcDbLine
 10
161.7432059581962
 20
98.65918647948248
 30
0.0
 11
150.7432060178008
 21
98.65918647948252
 31
0.0
  0
LINE
  5
46C6
330
1F
100
AcDbEntity
  8
0
  6
Continuous
 62
     7
370
    15
100
AcDbLine
 10
161.7432059581962
 20
91.65918626341563
 30
0.0
 11
161.7432059581962
 21
98.65918647948248
 31
0.0
  0
LINE
  5
46C7
330
1F
100
AcDbEntity
  8
0
  6
Continuous
 62
     7
370
    15
100
AcDbLine
 10
150.7432060178008
 20
98.65918647948252
 30
0.0
 11
150.7432060178008
 21
97.8944756508206
 31
0.0
  0
LINE
  5
46C8
330
1F
100
AcDbEntity
  8
0
  6
Continuous
 62
     7
370
    15
100
AcDbLine
 10
150.7432060178008
 20
94.84056275788294
 30
0.0
 11
150.7432060178008
 21
91.65918626341568
 31
0.0
  0
CIRCLE
  5
46C9
330
1F
100
AcDbEntity
  8
0
  6
Continuous
 62
     7
370
    15
100
AcDbCircle
 10
154.7432065244402
 20
80.90918589833719
 30
0.0
 40
2.650500000015654
  0
LINE
  5
46CA
330
1F
100
AcDbEntity
  8
0
  6
Continuous
 62
     7
370
    15
100
AcDbLine
 10
161.7432059581961
 20
70.15918553325872
 30
0.0
 11
161.7432059581962
 21
91.65918626341563
 31
0.0
  0
LINE
  5
46CB
330
1F
100
AcDbEntity
  8
0
  6
Continuous
 62
     7
370
    15
100
AcDbLine
 10
161.7432059581961
 20
70.15918553325872
 30
0.0
 11
150.7432060178007
 21
70.15918553325878
 31
0.0
  0
LINE
  5
46CC
330
1F
100
AcDbEntity
  8
0
  6
Continuous
 62
     7
370
    15
100
AcDbLine
 10
150.7432060178007
 20
70.15918553325878
 30
0.0
 11
150.7432060178008
 21
91.65918626341568
 31
0.0
  0
LINE
  5
46CD
330
1F
100
AcDbEntity
  8
0
  6
Continuous
 62
     7
370
    15
100
AcDbLine
 10
150.7432060178007
 20
63.15918531719194
 30
0.0
 11
161.7432059581961
 21
63.15918531719188
 31
0.0
  0
LINE
  5
46CE
330
1F
100
AcDbEntity
  8
0
  6
Continuous
 62
     7
370
    15
100
AcDbLine
 10
161.7432059581961
 20
63.15918531719188
 30
0.0
 11
161.7432059581961
 21
70.15918553325872
 31
0.0
  0
LINE
  5
46CF
330
1F
100
AcDbEntity
  8
0
  6
Continuous
 62
     7
370
    15
100
AcDbLine
 10
150.7432060178007
 20
70.15918553325878
 30
0.0
 11
150.7432060178007
 21
66.97780903879152
 31
0.0
  0
LINE
  5
46D0
330
1F
100
AcDbEntity
  8
0
  6
Continuous
 62
     7
370
    15
100
AcDbLine
 10
150.7432060178007
 20
63.92389614585384
 30
0.0
 11
150.7432060178007
 21
63.15918531719194
 31
0.0
  0
CIRCLE
  5
46D1
330
1F
100
AcDbEntity
  8
0
  6
Continuous
 62
     7
370
    15
100
AcDbCircle
 10
154.7432065244402
 20
80.90918589833719
 30
0.0
 40
2.150500000027477
  0
LINE
  5
46D2
330
1F
100
AcDbEntity
  8
0
  6
Continuous
 62
     7
370
    15
100
AcDbLine
 10
161.7432059581961
 20
92.6091855809425
 30
0.0
 11
161.7432059581961
 21
92.90918600264536
 31
0.0
  0
LINE
  5
46D3
330
1F
100
AcDbEntity
  8
0
  6
Continuous
 62
     7
370
    15
100
AcDbLine
 10
161.7432059581961
 20
98.15918546620359
 30
0.0
 11
161.7432059581961
 21
98.65918647948255
 31
0.0
  0
LINE
  5
46D4
330
1F
100
AcDbEntity
  8
0
  6
Continuous
 62
     7
370
    15
100
AcDbLine
 10
150.7432060178008
 20
98.40918597284309
 30
0.0
 11
150.7432060178008
 21
98.65918647948257
 31
0.0
  0
LINE
  5
46D5
330
1F
100
AcDbEntity
  8
0
  6
Continuous
 62
     7
370
    15
100
AcDbLine
 10
161.7432059581961
 20
96.50918547514429
 30
0.0
 11
161.7432059581961
 21
98.15918546620359
 31
0.0
  0
LINE
  5
46D6
330
1F
100
AcDbEntity
  8
0
  6
Continuous
 62
     7
370
    15
100
AcDbLine
 10
161.7432059581961
 20
96.30918581489076
 30
0.0
 11
161.7432059581961
 21
96.50918547514429
 31
0.0
  0
LINE
  5
46D7
330
1F
100
AcDbEntity
  8
0
  6
Continuous
 62
     7
370
    15
100
AcDbLine
 10
161.743205958196
 20
65.30918632153023
 30
0.0
 11
161.743205958196
 21
65.50918598178376
 31
0.0
  0
LINE
  5
46D8
330
1F
100
AcDbEntity
  8
0
  6
Continuous
 62
     7
370
    15
100
AcDbLine
 10
161.743205958196
 20
63.6591863304709
 30
0.0
 11
161.743205958196
 21
65.30918632153023
 31
0.0
  0
LINE
  5
46D9
330
1F
100
AcDbEntity
  8
0
  6
Continuous
 62
     7
370
    15
100
AcDbLine
 10
161.743205958196
 20
63.15918531719194
 30
0.0
 11
161.743205958196
 21
63.6591863304709
 31
0.0
  0
LINE
  5
46DA
330
1F
100
AcDbEntity
  8
0
  6
Continuous
 62
     7
370
    15
100
AcDbLine
 10
150.7432060178006
 20
63.159185317192
 30
0.0
 11
150.7432060178006
 21
63.40918582383148
 31
0.0
  0
LINE
  5
46DB
330
1F
100
AcDbEntity
  8
0
  6
Continuous
 62
     7
370
    15
100
AcDbLine
 10
161.7432059581961
 20
93.1091856628989
 30
0.0
 11
161.7432059581961
 21
96.10918615463724
 31
0.0
  0
LINE
  5
46DC
330
1F
100
AcDbEntity
  8
0
  6
Continuous
 62
     7
370
    15
100
AcDbLine
 10
161.743205958196
 20
65.70918564203728
 30
0.0
 11
161.743205958196
 21
68.7091861337756
 31
0.0
  0
LINE
  5
46DD
330
1F
100
AcDbEntity
  8
0
  6
Continuous
 62
     7
370
    15
100
AcDbLine
 10
130.7432064648357
 20
98.65918647948261
 30
0.0
 11
119.7432065244403
 21
98.65918647948261
 31
0.0
  0
LINE
  5
46DE
330
1F
100
AcDbEntity
  8
0
  6
Continuous
 62
     7
370
    15
100
AcDbLine
 10
130.7432064648357
 20
91.65918626341573
 30
0.0
 11
130.7432064648357
 21
94.84056275788299
 31
0.0
  0
LINE
  5
46DF
330
1F
100
AcDbEntity
  8
0
  6
Continuous
 62
     7
370
    15
100
AcDbLine
 10
130.7432064648357
 20
97.89447565082065
 30
0.0
 11
130.7432064648357
 21
98.65918647948261
 31
0.0
  0
LINE
  5
46E0
330
1F
100
AcDbEntity
  8
0
  6
Continuous
 62
     7
370
    15
100
AcDbLine
 10
119.7432065244403
 20
91.65918626341577
 30
0.0
 11
130.7432064648357
 21
91.65918626341573
 31
0.0
  0
LINE
  5
46E1
330
1F
100
AcDbEntity
  8
0
  6
Continuous
 62
     7
370
    15
100
AcDbLine
 10
119.7432065244403
 20
98.65918647948261
 30
0.0
 11
119.7432065244403
 21
91.65918626341577
 31
0.0
  0
CIRCLE
  5
46E2
330
1F
100
AcDbEntity
  8
0
  6
Continuous
 62
     7
370
    15
100
AcDbCircle
 10
126.7432065244402
 20
80.90918589833728
 30
0.0
 40
2.650500000015654
  0
LINE
  5
46E3
330
1F
100
AcDbEntity
  8
0
  6
Continuous
 62
     7
370
    15
100
AcDbLine
 10
130.7432064648357
 20
91.65918626341573
 30
0.0
 11
130.7432064648355
 21
70.15918553325883
 31
0.0
  0
LINE
  5
46E4
330
1F
100
AcDbEntity
  8
0
  6
Continuous
 62
     7
370
    15
100
AcDbLine
 10
130.7432064648355
 20
70.15918553325883
 30
0.0
 11
119.7432065244402
 21
70.15918553325886
 31
0.0
  0
LINE
  5
46E5
330
1F
100
AcDbEntity
  8
0
  6
Continuous
 62
     7
370
    15
100
AcDbLine
 10
119.7432065244403
 20
91.65918626341577
 30
0.0
 11
119.7432065244402
 21
70.15918553325886
 31
0.0
  0
LINE
  5
46E6
330
1F
100
AcDbEntity
  8
0
  6
Continuous
 62
     7
370
    15
100
AcDbLine
 10
119.7432065244402
 20
63.15918531719205
 30
0.0
 11
130.7432064648355
 21
63.159185317192
 31
0.0
  0
LINE
  5
46E7
330
1F
100
AcDbEntity
  8
0
  6
Continuous
 62
     7
370
    15
100
AcDbLine
 10
130.7432064648355
 20
63.159185317192
 30
0.0
 11
130.7432064648355
 21
63.9238961458539
 31
0.0
  0
LINE
  5
46E8
330
1F
100
AcDbEntity
  8
0
  6
Continuous
 62
     7
370
    15
100
AcDbLine
 10
130.7432064648355
 20
66.97780903879158
 30
0.0
 11
130.7432064648355
 21
70.15918553325883
 31
0.0
  0
LINE
  5
46E9
330
1F
100
AcDbEntity
  8
0
  6
Continuous
 62
     7
370
    15
100
AcDbLine
 10
119.7432065244402
 20
70.15918553325886
 30
0.0
 11
119.7432065244402
 21
63.15918531719205
 31
0.0
  0
CIRCLE
  5
46EA
330
1F
100
AcDbEntity
  8
0
  6
Continuous
 62
     7
370
    15
100
AcDbCircle
 10
126.7432065244402
 20
80.90918589833728
 30
0.0
 40
2.150500000027477
  0
LINE
  5
46EB
330
1F
100
AcDbEntity
  8
0
  6
Continuous
 62
     7
370
    15
100
AcDbLine
 10
119.7432065244402
 20
92.6091855809426
 30
0.0
 11
119.7432065244402
 21
92.90918600264546
 31
0.0
  0
LINE
  5
46EC
330
1F
100
AcDbEntity
  8
0
  6
Continuous
 62
     7
370
    15
100
AcDbLine
 10
130.7432064648356
 20
98.65918647948261
 30
0.0
 11
130.7432064648356
 21
98.40918597284312
 31
0.0
  0
LINE
  5
46ED
330
1F
100
AcDbEntity
  8
0
  6
Continuous
 62
     7
370
    15
100
AcDbLine
 10
119.7432065244402
 20
98.65918647948266
 30
0.0
 11
119.7432065244402
 21
98.15918546620366
 31
0.0
  0
LINE
  5
46EE
330
1F
100
AcDbEntity
  8
0
  6
Continuous
 62
     7
370
    15
100
AcDbLine
 10
119.7432065244402
 20
98.15918546620366
 30
0.0
 11
119.7432065244402
 21
96.50918547514439
 31
0.0
  0
LINE
  5
46EF
330
1F
100
AcDbEntity
  8
0
  6
Continuous
 62
     7
370
    15
100
AcDbLine
 10
119.7432065244402
 20
96.50918547514439
 30
0.0
 11
119.7432065244402
 21
96.30918581489087
 31
0.0
  0
LINE
  5
46F0
330
1F
100
AcDbEntity
  8
0
  6
Continuous
 62
     7
370
    15
100
AcDbLine
 10
119.7432065244401
 20
65.30918632153035
 30
0.0
 11
119.7432065244401
 21
63.65918633047101
 31
0.0
  0
LINE
  5
46F1
330
1F
100
AcDbEntity
  8
0
  6
Continuous
 62
     7
370
    15
100
AcDbLine
 10
119.7432065244401
 20
65.50918598178387
 30
0.0
 11
119.7432065244401
 21
65.30918632153035
 31
0.0
  0
LINE
  5
46F2
330
1F
100
AcDbEntity
  8
0
  6
Continuous
 62
     7
370
    15
100
AcDbLine
 10
130.7432064648355
 20
63.40918582383153
 30
0.0
 11
130.7432064648355
 21
63.15918531719205
 31
0.0
  0
LINE
  5
46F3
330
1F
100
AcDbEntity
  8
0
  6
Continuous
 62
     7
370
    15
100
AcDbLine
 10
119.7432065244401
 20
63.65918633047101
 30
0.0
 11
119.7432065244401
 21
63.15918531719211
 31
0.0
  0
LINE
  5
46F4
330
1F
100
AcDbEntity
  8
0
  6
Continuous
 62
     7
370
    15
100
AcDbLine
 10
119.7432065244402
 20
96.10918615463734
 30
0.0
 11
119.7432065244402
 21
93.10918566289902
 31
0.0
  0
LINE
  5
46F5
330
1F
100
AcDbEntity
  8
0
  6
Continuous
 62
     7
370
    15
100
AcDbLine
 10
119.7432065244401
 20
68.70918613377572
 30
0.0
 11
119.7432065244401
 21
65.7091856420374
 31
0.0
  0
LINE
  5
46FA
330
1F
100
AcDbEntity
  8
0
  6
Continuous
 62
     7
370
    15
100
AcDbLine
 10
215.2326827803999
 20
76.77521123069886
 30
0.0
 11
213.7326825345307
 21
77.64123668413225
 31
0.0
  0
LINE
  5
46FB
330
1F
100
AcDbEntity
  8
0
  6
Continuous
 62
     7
370
    15
100
AcDbLine
 10
212.2326822886615
 20
76.77521123069886
 30
0.0
 11
213.7326825345307
 21
77.64123668413225
 31
0.0
  0
LINE
  5
46FC
330
1F
100
AcDbEntity
  8
0
  6
Continuous
 62
     7
370
    15
100
AcDbLine
 10
212.2326822886615
 20
75.04316032383207
 30
0.0
 11
212.2326822886615
 21
76.77521123069886
 31
0.0
  0
LINE
  5
46FD
330
1F
100
AcDbEntity
  8
0
  6
Continuous
 62
     7
370
    15
100
AcDbLine
 10
213.7326825345307
 20
74.17713510322932
 30
0.0
 11
212.2326822886615
 21
75.04316032383207
 31
0.0
  0
LINE
  5
46FE
330
1F
100
AcDbEntity
  8
0
  6
Continuous
 62
     7
370
    15
100
AcDbLine
 10
215.2326827803999
 20
75.04316032383207
 30
0.0
 11
213.7326825345307
 21
74.17713510322932
 31
0.0
  0
LINE
  5
46FF
330
1F
100
AcDbEntity
  8
0
  6
Continuous
 62
     7
370
    15
100
AcDbLine
 10
215.2326827803999
 20
76.77521123069886
 30
0.0
 11
215.2326827803999
 21
75.04316032383207
 31
0.0
  0
CIRCLE
  5
4700
330
1F
100
AcDbEntity
  8
0
  6
Continuous
 62
     7
370
    15
100
AcDbCircle
 10
213.7326827207952
 20
75.9091858983374
 30
0.0
 40
3.200000000000045
  0
LINE
  5
4701
330
1F
100
AcDbEntity
  8
0
  6
Continuous
 62
     7
370
    15
100
AcDbLine
 10
240.232683152929
 20
86.77521147284265
 30
0.0
 11
238.7326829070598
 21
87.6412366934454
 31
0.0
  0
LINE
  5
4702
330
1F
100
AcDbEntity
  8
0
  6
Continuous
 62
     7
370
    15
100
AcDbLine
 10
237.2326826611907
 20
86.77521147284265
 30
0.0
 11
238.7326829070598
 21
87.6412366934454
 31
0.0
  0
LINE
  5
4703
330
1F
100
AcDbEntity
  8
0
  6
Continuous
 62
     7
370
    15
100
AcDbLine
 10
237.2326826611906
 20
85.04316056597586
 30
0.0
 11
237.2326826611907
 21
86.77521147284265
 31
0.0
  0
LINE
  5
4704
330
1F
100
AcDbEntity
  8
0
  6
Continuous
 62
     7
370
    15
100
AcDbLine
 10
238.7326829070597
 20
84.17713511254246
 30
0.0
 11
237.2326826611906
 21
85.04316056597586
 31
0.0
  0
LINE
  5
4705
330
1F
100
AcDbEntity
  8
0
  6
Continuous
 62
     7
370
    15
100
AcDbLine
 10
240.2326831529289
 20
85.04316056597586
 30
0.0
 11
238.7326829070597
 21
84.17713511254246
 31
0.0
  0
LINE
  5
4706
330
1F
100
AcDbEntity
  8
0
  6
Continuous
 62
     7
370
    15
100
AcDbLine
 10
240.232683152929
 20
86.77521147284265
 30
0.0
 11
240.2326831529289
 21
85.04316056597586
 31
0.0
  0
CIRCLE
  5
4707
330
1F
100
AcDbEntity
  8
0
  6
Continuous
 62
     7
370
    15
100
AcDbCircle
 10
238.7326827207952
 20
85.90918589833734
 30
0.0
 40
3.199999999999988
  0
LINE
  5
4708
330
1F
100
AcDbEntity
  8
0
  6
Continuous
 62
     7
370
    15
100
AcDbLine
 10
240.2326831529289
 20
76.77521123069877
 30
0.0
 11
238.7326829070597
 21
77.64123668413216
 31
0.0
  0
LINE
  5
4709
330
1F
100
AcDbEntity
  8
0
  6
Continuous
 62
     7
370
    15
100
AcDbLine
 10
237.2326826611906
 20
76.77521123069877
 30
0.0
 11
238.7326829070597
 21
77.64123668413216
 31
0.0
  0
LINE
  5
470A
330
1F
100
AcDbEntity
  8
0
  6
Continuous
 62
     7
370
    15
100
AcDbLine
 10
237.2326826611906
 20
75.04316032383198
 30
0.0
 11
237.2326826611906
 21
76.77521123069877
 31
0.0
  0
LINE
  5
470B
330
1F
100
AcDbEntity
  8
0
  6
Continuous
 62
     7
370
    15
100
AcDbLine
 10
238.7326829070597
 20
74.17713510322923
 30
0.0
 11
237.2326826611906
 21
75.04316032383198
 31
0.0
  0
LINE
  5
470C
330
1F
100
AcDbEntity
  8
0
  6
Continuous
 62
     7
370
    15
100
AcDbLine
 10
240.2326831529289
 20
75.04316032383198
 30
0.0
 11
238.7326829070597
 21
74.17713510322923
 31
0.0
  0
LINE
  5
470D
330
1F
100
AcDbEntity
  8
0
  6
Continuous
 62
     7
370
    15
100
AcDbLine
 10
240.2326831529289
 20
76.77521123069877
 30
0.0
 11
240.2326831529289
 21
75.04316032383198
 31
0.0
  0
CIRCLE
  5
470E
330
1F
100
AcDbEntity
  8
0
  6
Continuous
 62
     7
370
    15
100
AcDbCircle
 10
238.7326827207952
 20
75.90918589833731
 30
0.0
 40
3.199999999999988
  0
LINE
  5
470F
330
1F
100
AcDbEntity
  8
0
  6
Continuous
 62
     7
370
    15
100
AcDbLine
 10
215.2326827803999
 20
86.77521147284272
 30
0.0
 11
213.7326825345308
 21
87.64123669344547
 31
0.0
  0
LINE
  5
4710
330
1F
100
AcDbEntity
  8
0
  6
Continuous
 62
     7
370
    15
100
AcDbLine
 10
212.2326822886616
 20
86.77521147284272
 30
0.0
 11
213.7326825345308
 21
87.64123669344547
 31
0.0
  0
LINE
  5
4711
330
1F
100
AcDbEntity
  8
0
  6
Continuous
 62
     7
370
    15
100
AcDbLine
 10
212.2326822886615
 20
85.04316056597593
 30
0.0
 11
212.2326822886616
 21
86.77521147284272
 31
0.0
  0
LINE
  5
4712
330
1F
100
AcDbEntity
  8
0
  6
Continuous
 62
     7
370
    15
100
AcDbLine
 10
213.7326825345307
 20
84.17713511254254
 30
0.0
 11
212.2326822886615
 21
85.04316056597593
 31
0.0
  0
LINE
  5
4713
330
1F
100
AcDbEntity
  8
0
  6
Continuous
 62
     7
370
    15
100
AcDbLine
 10
215.2326827803999
 20
85.04316056597593
 30
0.0
 11
213.7326825345307
 21
84.17713511254254
 31
0.0
  0
LINE
  5
4714
330
1F
100
AcDbEntity
  8
0
  6
Continuous
 62
     7
370
    15
100
AcDbLine
 10
215.2326827803999
 20
86.77521147284272
 30
0.0
 11
215.2326827803999
 21
85.04316056597593
 31
0.0
  0
CIRCLE
  5
4715
330
1F
100
AcDbEntity
  8
0
  6
Continuous
 62
     7
370
    15
100
AcDbCircle
 10
213.7326827207952
 20
85.90918589833743
 30
0.0
 40
3.199999999999988
  0
ARC
  5
4716
330
1F
100
AcDbEntity
  8
0
  6
Continuous
 62
     7
370
    15
100
AcDbCircle
 10
226.2326827207953
 20
80.90918589833734
 30
0.0
 40
4.49999999999427
100
AcDbArc
 50
207.2660444505261
 51
332.7339555494098
  0
SPLINE
  5
4717
330
1F
100
AcDbEntity
  8
0
  6
Continuous
 62
     7
370
    15
100
AcDbSpline
210
0.0
220
0.0
230
1.0
 70
    24
 71
     3
 72
     9
 73
     5
 74
     0
 42
0.0000000001
 43
0.0000000001
 40
0.0
 40
0.0
 40
0.0
 40
0.0
 40
0.499019077836997
 40
1.0
 40
1.0
 40
1.0
 40
1.0
 10
230.2326829107851
 20
77.90918587226039
 30
0.0
 10
230.2326829107851
 20
78.05813944908155
 30
0.0
 10
230.2326829107851
 20
78.35663219903167
 30
0.0
 10
230.2326829107851
 20
78.68375218989237
 30
0.0
 10
230.2326829107851
 20
78.84763306457168
 30
0.0
  0
ARC
  5
4718
330
1F
100
AcDbEntity
  8
0
  6
Continuous
 62
     7
370
    15
100
AcDbCircle
 10
226.2326827207953
 20
80.90918589833734
 30
0.0
 40
4.999999999999511
100
AcDbArc
 50
216.8698976458369
 51
323.1301023541664
  0
SPLINE
  5
4719
330
1F
100
AcDbEntity
  8
0
  6
Continuous
 62
     7
370
    15
100
AcDbSpline
210
0.0
220
0.0
230
1.0
 70
    24
 71
     3
 72
     9
 73
     5
 74
     0
 42
0.0000000001
 43
0.0000000001
 40
0.0
 40
0.0
 40
0.0
 40
0.0
 40
0.4987668164956883
 40
1.0
 40
1.0
 40
1.0
 40
1.0
 10
222.2326825308055
 20
78.84763306457156
 30
0.0
 10
222.2326825308055
 20
78.68446345328326
 30
0.0
 10
222.2326825308055
 20
78.35731736839583
 30
0.0
 10
222.2326825308055
 20
78.05880844848942
 30
0.0
 10
222.2326825308055
 20
77.90918587226028
 30
0.0
  0
CIRCLE
  5
471A
330
1F
100
AcDbEntity
  8
0
  6
Continuous
 62
     7
370
    15
100
AcDbCircle
 10
226.2326827207953
 20
80.90918589833734
 30
0.0
 40
3.158499999983632
  0
LINE
  5
471B
330
1F
100
AcDbEntity
  8
0
  6
Continuous
 62
     7
370
    15
100
AcDbLine
 10
222.2326825308054
 20
82.97073873210306
 30
0.0
 11
222.2326825308055
 21
78.84763306457156
 31
0.0
  0
ARC
  5
471C
330
1F
100
AcDbEntity
  8
0
  6
Continuous
 62
     7
370
    15
100
AcDbCircle
 10
226.2326827207953
 20
80.90918589833734
 30
0.0
 40
4.49999999999169
100
AcDbArc
 50
27.26604445052831
 51
152.7339555494746
  0
LINE
  5
471D
330
1F
100
AcDbEntity
  8
0
  6
Continuous
 62
     7
370
    15
100
AcDbLine
 10
230.2326829107851
 20
78.84763306457168
 30
0.0
 11
230.232682910785
 21
82.97073873210317
 31
0.0
  0
ARC
  5
471E
330
1F
100
AcDbEntity
  8
0
  6
Continuous
 62
     7
370
    15
100
AcDbCircle
 10
226.2326827207953
 20
80.90918589833734
 30
0.0
 40
4.999999999999454
100
AcDbArc
 50
36.86989764583751
 51
143.130102354184
  0
SPLINE
  5
471F
330
1F
100
AcDbEntity
  8
0
  6
Continuous
 62
     7
370
    15
100
AcDbSpline
210
0.0
220
0.0
230
1.0
 70
    24
 71
     3
 72
     9
 73
     5
 74
     0
 42
0.0000000001
 43
0.0000000001
 40
0.0
 40
0.0
 40
0.0
 40
0.0
 40
0.499019077836997
 40
1.0
 40
1.0
 40
1.0
 40
1.0
 10
222.2326825308054
 20
83.90918592441435
 30
0.0
 10
222.2326825308054
 20
83.76023234759319
 30
0.0
 10
222.2326825308054
 20
83.46173959764305
 30
0.0
 10
222.2326825308054
 20
83.13461960678237
 30
0.0
 10
222.2326825308054
 20
82.97073873210306
 30
0.0
  0
SPLINE
  5
4720
330
1F
100
AcDbEntity
  8
0
  6
Continuous
 62
     7
370
    15
100
AcDbSpline
210
0.0
220
0.0
230
1.0
 70
    24
 71
     3
 72
     9
 73
     5
 74
     0
 42
0.0000000001
 43
0.0000000001
 40
0.0
 40
0.0
 40
0.0
 40
0.0
 40
0.4987668164956883
 40
1.0
 40
1.0
 40
1.0
 40
1.0
 10
230.232682910785
 20
82.97073873210317
 30
0.0
 10
230.232682910785
 20
83.13390834339148
 30
0.0
 10
230.232682910785
 20
83.46105442827891
 30
0.0
 10
230.232682910785
 20
83.7595633481853
 30
0.0
 10
230.232682910785
 20
83.90918592441446
 30
0.0
  0
CIRCLE
  5
4721
330
1F
100
AcDbEntity
  8
0
  6
Continuous
 62
     7
370
    15
100
AcDbCircle
 10
226.2326827207953
 20
80.90918589833734
 30
0.0
 40
2.458499999988816
  0
ARC
  5
4722
330
1F
100
AcDbEntity
  8
0
  6
Continuous
 62
     7
370
    15
100
AcDbCircle
 10
226.2326827207953
 20
80.90918589833734
 30
0.0
 40
5.000000000000033
100
AcDbArc
 50
323.1301023541573
 51
36.86989764584402
  0
ARC
  5
4723
330
1F
100
AcDbEntity
  8
0
  6
Continuous
 62
     7
370
    15
100
AcDbCircle
 10
226.2326827207953
 20
80.90918589833734
 30
0.0
 40
5.000000000000023
100
AcDbArc
 50
143.1301023541566
 51
216.869897645844
  0
CIRCLE
  5
4725
330
1F
100
AcDbEntity
  8
0
  6
Continuous
 62
     7
370
    15
100
AcDbCircle
 10
213.7326827207952
 20
75.9091858983374
 30
0.0
 40
3.449999999975261
  0
CIRCLE
  5
4726
330
1F
100
AcDbEntity
  8
0
  6
Continuous
 62
     7
370
    15
100
AcDbCircle
 10
213.7326827207953
 20
85.90918589833743
 30
0.0
 40
3.449999999975318
  0
CIRCLE
  5
4727
330
1F
100
AcDbEntity
  8
0
  6
Continuous
 62
     7
370
    15
100
AcDbCircle
 10
238.7326827207952
 20
85.90918589833734
 30
0.0
 40
3.449999999997999
  0
CIRCLE
  5
4728
330
1F
100
AcDbEntity
  8
0
  6
Continuous
 62
     7
370
    15
100
AcDbCircle
 10
238.7326827207952
 20
75.90918589833731
 30
0.0
 40
3.449999999997999
  0
CIRCLE
  5
4729
330
1F
100
AcDbEntity
  8
0
  6
Continuous
 62
     7
370
    15
100
AcDbCircle
 10
215.2326827207952
 20
69.90918589833739
 30
0.0
 40
2.650500000039755
  0
CIRCLE
  5
472A
330
1F
100
AcDbEntity
  8
0
  6
Continuous
 62
     7
370
    15
100
AcDbCircle
 10
215.2326827207953
 20
91.9091858983374
 30
0.0
 40
2.650500000039755
  0
CIRCLE
  5
472B
330
1F
100
AcDbEntity
  8
0
  6
Continuous
 62
     7
370
    15
100
AcDbCircle
 10
237.2326827207953
 20
91.90918589833733
 30
0.0
 40
2.650499999991552
  0
CIRCLE
  5
472C
330
1F
100
AcDbEntity
  8
0
  6
Continuous
 62
     7
370
    15
100
AcDbCircle
 10
237.2326827207952
 20
69.90918589833731
 30
0.0
 40
2.650499999991495
  0
CIRCLE
  5
472D
330
1F
100
AcDbEntity
  8
0
  6
Continuous
 62
     7
370
    15
100
AcDbCircle
 10
226.2326827207953
 20
80.90918589833728
 30
0.0
 40
5.250000000000056
  0
LINE
  5
472E
330
1F
100
AcDbEntity
  8
0
  6
Continuous
 62
     7
370
    15
100
AcDbLine
 10
208.4826821396499
 20
70.15918553325895
 30
0.0
 11
208.48268213965
 21
91.65918626341584
 31
0.0
  0
ARC
  5
472F
330
1F
100
AcDbEntity
  8
0
  6
Continuous
 62
     7
370
    15
100
AcDbCircle
 10
215.4826827207953
 20
91.6591858983374
 30
0.0
 40
7.0
100
AcDbArc
 50
90.0
 51
179.9999999999992
  0
LINE
  5
4730
330
1F
100
AcDbEntity
  8
0
  6
Continuous
 62
     7
370
    15
100
AcDbLine
 10
215.4826823557169
 20
98.65918647948269
 30
0.0
 11
223.0826827166975
 21
98.65918647948266
 31
0.0
  0
ARC
  5
4731
330
1F
100
AcDbEntity
  8
0
  6
Continuous
 62
     7
370
    15
100
AcDbCircle
 10
223.0826827207953
 20
98.15918589833737
 30
0.0
 40
0.5
100
AcDbArc
 50
0.0
 51
90.0
  0
LINE
  5
4732
330
1F
100
AcDbEntity
  8
0
  6
Continuous
 62
     7
370
    15
100
AcDbLine
 10
223.5826827986539
 20
98.15918546620366
 30
0.0
 11
223.5826827986539
 21
96.50918547514439
 31
0.0
  0
ARC
  5
4733
330
1F
100
AcDbEntity
  8
0
  6
Continuous
 62
     7
370
    15
100
AcDbCircle
 10
223.3826827207953
 20
96.50918589833736
 30
0.0
 40
0.2000000000000455
100
AcDbArc
 50
270.0
 51
0.0
  0
LINE
  5
4734
330
1F
100
AcDbEntity
  8
0
  6
Continuous
 62
     7
370
    15
100
AcDbLine
 10
223.3826826727391
 20
96.30918581489087
 30
0.0
 11
223.1326826317609
 21
96.30918581489087
 31
0.0
  0
ARC
  5
4735
330
1F
100
AcDbEntity
  8
0
  6
Continuous
 62
     7
370
    15
100
AcDbCircle
 10
223.1326827207953
 20
96.10918589833739
 30
0.0
 40
0.1999999999999886
100
AcDbArc
 50
90.0
 51
180.0
  0
LINE
  5
4736
330
1F
100
AcDbEntity
  8
0
  6
Continuous
 62
     7
370
    15
100
AcDbLine
 10
222.9326827386767
 20
96.10918615463734
 30
0.0
 11
222.9326827386767
 21
93.10918566289902
 31
0.0
  0
ARC
  5
4737
330
1F
100
AcDbEntity
  8
0
  6
Continuous
 62
     7
370
    15
100
AcDbCircle
 10
223.1326827207953
 20
93.10918589833736
 30
0.0
 40
0.2000000000000455
100
AcDbArc
 50
180.0
 51
270.0
  0
LINE
  5
4738
330
1F
100
AcDbEntity
  8
0
  6
Continuous
 62
     7
370
    15
100
AcDbLine
 10
223.1326827269311
 20
92.90918589833731
 30
0.0
 11
229.3326828098297
 21
92.90918600264546
 31
0.0
  0
ARC
  5
4739
330
1F
100
AcDbEntity
  8
0
  6
Continuous
 62
     7
370
    15
100
AcDbCircle
 10
229.3326827207952
 20
93.10918589833732
 30
0.0
 40
0.1999999999999886
100
AcDbArc
 50
270.0
 51
0.0
  0
LINE
  5
473A
330
1F
100
AcDbEntity
  8
0
  6
Continuous
 62
     7
370
    15
100
AcDbLine
 10
229.5326827029139
 20
93.10918566289899
 30
0.0
 11
229.5326827029139
 21
96.10918615463731
 31
0.0
  0
ARC
  5
473B
330
1F
100
AcDbEntity
  8
0
  6
Continuous
 62
     7
370
    15
100
AcDbCircle
 10
229.3326827207952
 20
96.10918589833737
 30
0.0
 40
0.2000000000000455
100
AcDbArc
 50
0.0000000000008142
 51
90.0
  0
LINE
  5
473C
330
1F
100
AcDbEntity
  8
0
  6
Continuous
 62
     7
370
    15
100
AcDbLine
 10
229.3326828098297
 20
96.30918581489083
 30
0.0
 11
229.0826827688515
 21
96.30918581489083
 31
0.0
  0
ARC
  5
473D
330
1F
100
AcDbEntity
  8
0
  6
Continuous
 62
     7
370
    15
100
AcDbCircle
 10
229.0826827207953
 20
96.50918589833736
 30
0.0
 40
0.2000000000000455
100
AcDbArc
 50
180.0
 51
270.0
  0
LINE
  5
473E
330
1F
100
AcDbEntity
  8
0
  6
Continuous
 62
     7
370
    15
100
AcDbLine
 10
228.8826826429367
 20
96.50918547514436
 30
0.0
 11
228.8826826429367
 21
98.15918546620366
 31
0.0
  0
ARC
  5
473F
330
1F
100
AcDbEntity
  8
0
  6
Continuous
 62
     7
370
    15
100
AcDbCircle
 10
229.3826827207953
 20
98.15918589833735
 30
0.0
 40
0.5
100
AcDbArc
 50
90.0
 51
179.9999999999992
  0
LINE
  5
4740
330
1F
100
AcDbEntity
  8
0
  6
Continuous
 62
     7
370
    15
100
AcDbLine
 10
229.3826827248931
 20
98.65918647948262
 30
0.0
 11
236.9826830858738
 21
98.65918647948261
 31
0.0
  0
ARC
  5
4741
330
1F
100
AcDbEntity
  8
0
  6
Continuous
 62
     7
370
    15
100
AcDbCircle
 10
236.9826827207953
 20
91.65918589833735
 30
0.0
 40
7.0
100
AcDbArc
 50
0.0
 51
90.0
  0
LINE
  5
4742
330
1F
100
AcDbEntity
  8
0
  6
Continuous
 62
     7
370
    15
100
AcDbLine
 10
243.9826833019406
 20
91.65918626341577
 30
0.0
 11
243.9826833019405
 21
70.15918553325886
 31
0.0
  0
ARC
  5
4743
330
1F
100
AcDbEntity
  8
0
  6
Continuous
 62
     7
370
    15
100
AcDbCircle
 10
236.9826827207952
 20
70.15918589833731
 30
0.0
 40
7.0
100
AcDbArc
 50
270.0
 51
0.0
  0
LINE
  5
4744
330
1F
100
AcDbEntity
  8
0
  6
Continuous
 62
     7
370
    15
100
AcDbLine
 10
236.9826830858737
 20
63.15918531719205
 30
0.0
 11
229.382682724893
 21
63.15918531719205
 31
0.0
  0
ARC
  5
4745
330
1F
100
AcDbEntity
  8
0
  6
Continuous
 62
     7
370
    15
100
AcDbCircle
 10
229.3826827207952
 20
63.65918589833734
 30
0.0
 40
0.5
100
AcDbArc
 50
179.9999999999967
 51
270.0
  0
LINE
  5
4746
330
1F
100
AcDbEntity
  8
0
  6
Continuous
 62
     7
370
    15
100
AcDbLine
 10
228.8826826429366
 20
63.65918633047101
 30
0.0
 11
228.8826826429366
 21
65.30918632153031
 31
0.0
  0
ARC
  5
4747
330
1F
100
AcDbEntity
  8
0
  6
Continuous
 62
     7
370
    15
100
AcDbCircle
 10
229.0826827207952
 20
65.30918589833735
 30
0.0
 40
0.200000000000017
100
AcDbArc
 50
90.0
 51
180.0
  0
LINE
  5
4748
330
1F
100
AcDbEntity
  8
0
  6
Continuous
 62
     7
370
    15
100
AcDbLine
 10
229.0826827688515
 20
65.50918598178384
 30
0.0
 11
229.3326828098297
 21
65.50918598178384
 31
0.0
  0
ARC
  5
4749
330
1F
100
AcDbEntity
  8
0
  6
Continuous
 62
     7
370
    15
100
AcDbCircle
 10
229.3326827207952
 20
65.70918589833735
 30
0.0
 40
0.1999999999999886
100
AcDbArc
 50
270.0
 51
0.0
  0
LINE
  5
474A
330
1F
100
AcDbEntity
  8
0
  6
Continuous
 62
     7
370
    15
100
AcDbLine
 10
229.5326827029138
 20
65.70918564203736
 30
0.0
 11
229.5326827029138
 21
68.70918613377568
 31
0.0
  0
ARC
  5
474B
330
1F
100
AcDbEntity
  8
0
  6
Continuous
 62
     7
370
    15
100
AcDbCircle
 10
229.3326827207952
 20
68.70918589833735
 30
0.0
 40
0.1999999999999886
100
AcDbArc
 50
0.0
 51
90.0
  0
LINE
  5
474C
330
1F
100
AcDbEntity
  8
0
  6
Continuous
 62
     7
370
    15
100
AcDbLine
 10
229.3326828098297
 20
68.90918579402921
 30
0.0
 11
223.1326826317608
 21
68.90918579402924
 31
0.0
  0
ARC
  5
474D
330
1F
100
AcDbEntity
  8
0
  6
Continuous
 62
     7
370
    15
100
AcDbCircle
 10
223.1326827207952
 20
68.70918589833735
 30
0.0
 40
0.200000000000017
100
AcDbArc
 50
90.0
 51
180.0
  0
LINE
  5
474E
330
1F
100
AcDbEntity
  8
0
  6
Continuous
 62
     7
370
    15
100
AcDbLine
 10
222.9326827386766
 20
68.70918613377572
 30
0.0
 11
222.9326827386766
 21
65.7091856420374
 31
0.0
  0
ARC
  5
474F
330
1F
100
AcDbEntity
  8
0
  6
Continuous
 62
     7
370
    15
100
AcDbCircle
 10
223.1326827207952
 20
65.70918589833735
 30
0.0
 40
0.1999999999999886
100
AcDbArc
 50
179.9999999999992
 51
270.0
  0
LINE
  5
4750
330
1F
100
AcDbEntity
  8
0
  6
Continuous
 62
     7
370
    15
100
AcDbLine
 10
223.1326826317608
 20
65.50918598178387
 30
0.0
 11
223.382682672739
 21
65.50918598178387
 31
0.0
  0
ARC
  5
4751
330
1F
100
AcDbEntity
  8
0
  6
Continuous
 62
     7
370
    15
100
AcDbCircle
 10
223.3826827207952
 20
65.30918589833738
 30
0.0
 40
0.1999999999999886
100
AcDbArc
 50
0.0
 51
90.0
  0
LINE
  5
4752
330
1F
100
AcDbEntity
  8
0
  6
Continuous
 62
     7
370
    15
100
AcDbLine
 10
223.5826827986538
 20
65.30918632153035
 30
0.0
 11
223.5826827986538
 21
63.65918633047101
 31
0.0
  0
ARC
  5
4753
330
1F
100
AcDbEntity
  8
0
  6
Continuous
 62
     7
370
    15
100
AcDbCircle
 10
223.0826827207952
 20
63.65918589833737
 30
0.0
 40
0.5
100
AcDbArc
 50
270.0
 51
0.0
  0
LINE
  5
4754
330
1F
100
AcDbEntity
  8
0
  6
Continuous
 62
     7
370
    15
100
AcDbLine
 10
223.0826827166974
 20
63.15918531719211
 30
0.0
 11
215.4826823557168
 21
63.15918531719211
 31
0.0
  0
ARC
  5
4755
330
1F
100
AcDbEntity
  8
0
  6
Continuous
 62
     7
370
    15
100
AcDbCircle
 10
215.4826827207952
 20
70.1591858983374
 30
0.0
 40
7.0
100
AcDbArc
 50
179.9999999999992
 51
270.0
  0
CIRCLE
  5
4756
330
1F
100
AcDbEntity
  8
0
  6
Continuous
 62
     7
370
    15
100
AcDbCircle
 10
215.2326827207952
 20
69.90918589833739
 30
0.0
 40
2.150500000051579
  0
CIRCLE
  5
4757
330
1F
100
AcDbEntity
  8
0
  6
Continuous
 62
     7
370
    15
100
AcDbCircle
 10
215.2326827207953
 20
91.9091858983374
 30
0.0
 40
2.150500000051579
  0
CIRCLE
  5
4758
330
1F
100
AcDbEntity
  8
0
  6
Continuous
 62
     7
370
    15
100
AcDbCircle
 10
237.2326827207952
 20
69.90918589833731
 30
0.0
 40
2.150500000003376
  0
CIRCLE
  5
4759
330
1F
100
AcDbEntity
  8
0
  6
Continuous
 62
     7
370
    15
100
AcDbCircle
 10
237.2326827207953
 20
91.90918589833733
 30
0.0
 40
2.150500000003319
  0
SPLINE
  5
475A
330
1F
100
AcDbEntity
  8
0
  6
Continuous
 62
     7
370
    15
100
AcDbSpline
210
0.0
220
0.0
230
1.0
 70
    24
 71
     1
 72
     4
 73
     2
 74
     0
 42
0.0000000001
 43
0.0000000001
 40
0.0
 40
0.0
 40
1.0
 40
1.0
 10
114.6092321585499
 20
185.8101815551592
 30
0.0
 10
119.74320652444
 20
185.8101815551592
 30
0.0
  0
SPLINE
  5
475B
330
1F
100
AcDbEntity
  8
0
  6
Continuous
 62
     7
370
    15
100
AcDbSpline
210
0.0
220
0.0
230
1.0
 70
    24
 71
     1
 72
     4
 73
     2
 74
     0
 42
0.0000000001
 43
0.0000000001
 40
0.0
 40
0.0
 40
1.0
 40
1.0
 10
119.74320652444
 20
195.8101813316418
 30
0.0
 10
114.60923215855
 20
195.8101813316418
 30
0.0
  0
SPLINE
  5
475C
330
1F
100
AcDbEntity
  8
0
  6
Continuous
 62
     7
370
    15
100
AcDbSpline
210
0.0
220
0.0
230
1.0
 70
    24
 71
     1
 72
     4
 73
     2
 74
     0
 42
0.0000000001
 43
0.0000000001
 40
0.0
 40
0.0
 40
1.0
 40
1.0
 10
98.74320680756206
 20
194.8101816333904
 30
0.0
 10
97.74320664364928
 20
193.8101814694776
 30
0.0
  0
SPLINE
  5
475D
330
1F
100
AcDbEntity
  8
0
  6
Continuous
 62
     7
370
    15
100
AcDbSpline
210
0.0
220
0.0
230
1.0
 70
    24
 71
     1
 72
     4
 73
     2
 74
     0
 42
0.0000000001
 43
0.0000000001
 40
0.0
 40
0.0
 40
1.0
 40
1.0
 10
97.74320664364928
 20
187.8101814173235
 30
0.0
 10
98.74320680756206
 20
186.8101812534107
 30
0.0
  0
SPLINE
  5
475E
330
1F
100
AcDbEntity
  8
0
  6
Continuous
 62
     7
370
    15
100
AcDbSpline
210
0.0
220
0.0
230
1.0
 70
    24
 71
     1
 72
     4
 73
     2
 74
     0
 42
0.0000000001
 43
0.0000000001
 40
0.0
 40
0.0
 40
1.0
 40
1.0
 10
98.74320680756206
 20
186.8101812534107
 30
0.0
 10
103.7432057644807
 20
186.8101812534107
 30
0.0
  0
SPLINE
  5
475F
330
1F
100
AcDbEntity
  8
0
  6
Continuous
 62
     7
370
    15
100
AcDbSpline
210
0.0
220
0.0
230
1.0
 70
    24
 71
     1
 72
     4
 73
     2
 74
     0
 42
0.0000000001
 43
0.0000000001
 40
0.0
 40
0.0
 40
1.0
 40
1.0
 10
107.7432064201318
 20
186.8101812534107
 30
0.0
 10
113.7432064722859
 20
186.8101812534107
 30
0.0
  0
SPLINE
  5
4760
330
1F
100
AcDbEntity
  8
0
  6
Continuous
 62
     7
370
    15
100
AcDbSpline
210
0.0
220
0.0
230
1.0
 70
    24
 71
     1
 72
     4
 73
     2
 74
     0
 42
0.0000000001
 43
0.0000000001
 40
0.0
 40
0.0
 40
1.0
 40
1.0
 10
113.7432064722859
 20
194.8101816333903
 30
0.0
 10
107.7432064201319
 20
194.8101816333903
 30
0.0
  0
SPLINE
  5
4761
330
1F
100
AcDbEntity
  8
0
  6
Continuous
 62
     7
370
    15
100
AcDbSpline
210
0.0
220
0.0
230
1.0
 70
    24
 71
     1
 72
     4
 73
     2
 74
     0
 42
0.0000000001
 43
0.0000000001
 40
0.0
 40
0.0
 40
1.0
 40
1.0
 10
103.7432057644807
 20
194.8101816333903
 30
0.0
 10
98.74320680756206
 20
194.8101816333904
 30
0.0
  0
SPLINE
  5
4762
330
1F
100
AcDbEntity
  8
0
  6
Continuous
 62
     7
370
    15
100
AcDbSpline
210
0.0
220
0.0
230
1.0
 70
    24
 71
     1
 72
     4
 73
     2
 74
     0
 42
0.0000000001
 43
0.0000000001
 40
0.0
 40
0.0
 40
1.0
 40
1.0
 10
114.60923215855
 20
195.8101813316418
 30
0.0
 10
113.7432064722859
 20
195.3101812496854
 30
0.0
  0
SPLINE
  5
4763
330
1F
100
AcDbEntity
  8
0
  6
Continuous
 62
     7
370
    15
100
AcDbSpline
210
0.0
220
0.0
230
1.0
 70
    24
 71
     1
 72
     4
 73
     2
 74
     0
 42
0.0000000001
 43
0.0000000001
 40
0.0
 40
0.0
 40
1.0
 40
1.0
 10
113.7432064722859
 20
186.3101816371156
 30
0.0
 10
114.6092321585499
 20
185.8101815551592
 30
0.0
  0
LINE
  5
4764
330
1F
100
AcDbEntity
  8
0
  6
Continuous
 62
     7
370
    15
100
AcDbLine
 10
150.7432060178006
 20
208.3101815179062
 30
0.0
 11
130.7432064648354
 21
208.3101815179063
 31
0.0
  0
LINE
  5
4765
330
1F
100
AcDbEntity
  8
0
  6
Continuous
 62
     7
370
    15
100
AcDbLine
 10
150.7432060178006
 20
204.7415583029461
 30
0.0
 11
150.7432060178006
 21
207.7954711958838
 31
0.0
  0
LINE
  5
4766
330
1F
100
AcDbEntity
  8
0
  6
Continuous
 62
     7
370
    15
100
AcDbLine
 10
130.7432064648354
 20
202.3101814657522
 30
0.0
 11
150.7432060178006
 21
202.3101814657521
 31
0.0
  0
LINE
  5
4767
330
1F
100
AcDbEntity
  8
0
  6
Continuous
 62
     7
370
    15
100
AcDbLine
 10
130.7432064648354
 20
204.7415583029462
 30
0.0
 11
130.7432064648354
 21
207.7954711958838
 31
0.0
  0
LINE
  5
4768
330
1F
100
AcDbEntity
  8
0
  6
Continuous
 62
     7
370
    15
100
AcDbLine
 10
150.7432060178005
 20
195.2955199040544
 30
0.0
 11
130.7432064648354
 21
195.2955199040544
 31
0.0
  0
LINE
  5
4769
330
1F
100
AcDbEntity
  8
0
  6
Continuous
 62
     7
370
    15
100
AcDbLine
 10
130.7432064648354
 20
194.3716404594553
 30
0.0
 11
150.7432060178005
 21
194.3716404594552
 31
0.0
  0
LINE
  5
476A
330
1F
100
AcDbEntity
  8
0
  6
Continuous
 62
     7
370
    15
100
AcDbLine
 10
130.7432064648354
 20
186.3248429827464
 30
0.0
 11
150.7432060178005
 21
186.3248429827463
 31
0.0
  0
LINE
  5
476B
330
1F
100
AcDbEntity
  8
0
  6
Continuous
 62
     7
370
    15
100
AcDbLine
 10
150.7432060178005
 20
187.2487224273455
 30
0.0
 11
130.7432064648354
 21
187.2487224273456
 31
0.0
  0
LINE
  5
476C
330
1F
100
AcDbEntity
  8
0
  6
Continuous
 62
     7
370
    15
100
AcDbLine
 10
150.7432060178005
 20
179.3101814210486
 30
0.0
 11
130.7432064648354
 21
179.3101814210487
 31
0.0
  0
LINE
  5
476D
330
1F
100
AcDbEntity
  8
0
  6
Continuous
 62
     7
370
    15
100
AcDbLine
 10
130.7432064648353
 20
173.3101813688946
 30
0.0
 11
150.7432060178005
 21
173.3101813688946
 31
0.0
  0
LINE
  5
476E
330
1F
100
AcDbEntity
  8
0
  6
Continuous
 62
     7
370
    15
100
AcDbLine
 10
150.7432060178005
 20
173.824891690917
 30
0.0
 11
150.7432060178005
 21
176.8788045838546
 31
0.0
  0
LINE
  5
476F
330
1F
100
AcDbEntity
  8
0
  6
Continuous
 62
     7
370
    15
100
AcDbLine
 10
130.7432064648353
 20
173.8248916909171
 30
0.0
 11
130.7432064648353
 21
176.8788045838547
 31
0.0
  0
LINE
  5
4770
330
1F
100
AcDbEntity
  8
0
  6
Continuous
 62
     7
370
    15
100
AcDbLine
 10
150.7432060178005
 20
192.4538285339322
 30
0.0
 11
130.7432064648354
 21
192.4538285339323
 31
0.0
  0
LINE
  5
4771
330
1F
100
AcDbEntity
  8
0
  6
Continuous
 62
     7
370
    15
100
AcDbLine
 10
130.7432064648354
 20
189.1665343528686
 30
0.0
 11
150.7432060178005
 21
189.1665343528685
 31
0.0
  0
LINE
  5
4772
330
1F
100
AcDbEntity
  8
0
  6
Continuous
 62
     7
370
    15
100
AcDbLine
 10
150.7432060178005
 20
191.9446204656806
 30
0.0
 11
130.7432064648354
 21
191.9446204656807
 31
0.0
  0
LINE
  5
4773
330
1F
100
AcDbEntity
  8
0
  6
Continuous
 62
     7
370
    15
100
AcDbLine
 10
130.7432064648354
 20
189.6757424211202
 30
0.0
 11
150.7432060178005
 21
189.6757424211201
 31
0.0
  0
LINE
  5
4774
330
1F
100
AcDbEntity
  8
0
  6
Continuous
 62
     7
370
    15
100
AcDbLine
 10
114.6092321585499
 20
187.8101814173234
 30
0.0
 11
114.6092321585499
 21
185.8101815551592
 31
0.0
  0
LINE
  5
4775
330
1F
100
AcDbEntity
  8
0
  6
Continuous
 62
     7
370
    15
100
AcDbLine
 10
117.7432064294451
 20
187.8101814173234
 30
0.0
 11
114.6092321585499
 21
187.8101814173234
 31
0.0
  0
ARC
  5
4776
330
1F
100
AcDbEntity
  8
0
  6
Continuous
 62
     7
370
    15
100
AcDbCircle
 10
113.74320652444
 20
190.8101814434005
 30
0.0
 40
5.000000000000023
100
AcDbArc
 50
323.1301023541566
 51
36.86989764584338
  0
LINE
  5
4777
330
1F
100
AcDbEntity
  8
0
  6
Continuous
 62
     7
370
    15
100
AcDbLine
 10
114.60923215855
 20
193.8101814694775
 30
0.0
 11
117.7432064294451
 21
193.8101814694775
 31
0.0
  0
LINE
  5
4778
330
1F
100
AcDbEntity
  8
0
  6
Continuous
 62
     7
370
    15
100
AcDbLine
 10
114.60923215855
 20
195.8101813316418
 30
0.0
 11
114.60923215855
 21
193.8101814694775
 31
0.0
  0
LINE
  5
4779
330
1F
100
AcDbEntity
  8
0
  6
Continuous
 62
     7
370
    15
100
AcDbLine
 10
117.7432064294451
 20
193.8101814694775
 30
0.0
 11
117.7432064294451
 21
187.8101814173234
 31
0.0
  0
LINE
  5
477A
330
1F
100
AcDbEntity
  8
0
  6
Continuous
 62
     7
370
    15
100
AcDbLine
 10
97.74320664364928
 20
190.8101814434006
 30
0.0
 11
97.74320664364928
 21
187.8101814173235
 31
0.0
  0
LINE
  5
477B
330
1F
100
AcDbEntity
  8
0
  6
Continuous
 62
     7
370
    15
100
AcDbLine
 10
97.74320664364928
 20
193.8101814694776
 30
0.0
 11
97.74320664364928
 21
190.8101814434006
 31
0.0
  0
LINE
  5
477C
330
1F
100
AcDbEntity
  8
0
  6
Continuous
 62
     7
370
    15
100
AcDbLine
 10
98.74320680756206
 20
190.8101814434006
 30
0.0
 11
98.74320680756206
 21
186.8101812534107
 31
0.0
  0
LINE
  5
477D
330
1F
100
AcDbEntity
  8
0
  6
Continuous
 62
     7
370
    15
100
AcDbLine
 10
98.74320680756206
 20
194.8101816333904
 30
0.0
 11
98.74320680756206
 21
190.8101814434006
 31
0.0
  0
LINE
  5
477E
330
1F
100
AcDbEntity
  8
0
  6
Continuous
 62
     7
370
    15
100
AcDbLine
 10
113.7432064722859
 20
195.3101812496854
 30
0.0
 11
113.7432064722859
 21
192.8717342771662
 31
0.0
  0
SPLINE
  5
477F
330
1F
100
AcDbEntity
  8
0
  6
Continuous
 62
     7
370
    15
100
AcDbSpline
210
0.0
220
0.0
230
1.0
 70
     8
 71
     3
 72
     9
 73
     5
 74
     0
 42
0.0000000001
 43
0.0000000001
 40
0.0
 40
0.0
 40
0.0
 40
0.0
 40
0.4987668164956883
 40
1.0
 40
1.0
 40
1.0
 40
1.0
 10
113.7432064722859
 20
192.8717342771662
 30
0.0
 10
113.8794416133838
 20
193.0349038884546
 30
0.0
 10
114.1525855688199
 20
193.362049973342
 30
0.0
 10
114.4567665546572
 20
193.6605588932484
 30
0.0
 10
114.60923215855
 20
193.8101814694775
 30
0.0
  0
SPLINE
  5
4780
330
1F
100
AcDbEntity
  8
0
  6
Continuous
 62
     7
370
    15
100
AcDbSpline
210
0.0
220
0.0
230
1.0
 70
     8
 71
     3
 72
     9
 73
     5
 74
     0
 42
0.0000000001
 43
0.0000000001
 40
0.0
 40
0.0
 40
0.0
 40
0.0
 40
0.499019077836997
 40
1.0
 40
1.0
 40
1.0
 40
1.0
 10
114.6092321585499
 20
187.8101814173234
 30
0.0
 10
114.4574335734559
 20
187.9591349941446
 30
0.0
 10
114.1532396220904
 20
188.2576277440947
 30
0.0
 10
113.8800628323324
 20
188.5847477349554
 30
0.0
 10
113.7432064722859
 20
188.7486286096347
 30
0.0
  0
LINE
  5
4781
330
1F
100
AcDbEntity
  8
0
  6
Continuous
 62
     7
370
    15
100
AcDbLine
 10
113.7432064722859
 20
188.7486286096347
 30
0.0
 11
113.7432064722859
 21
190.8101814434005
 31
0.0
  0
LINE
  5
4782
330
1F
100
AcDbEntity
  8
0
  6
Continuous
 62
     7
370
    15
100
AcDbLine
 10
113.7432064722859
 20
190.8101814434005
 30
0.0
 11
113.7432064722859
 21
192.8717342771662
 31
0.0
  0
LINE
  5
4783
330
1F
100
AcDbEntity
  8
0
  6
Continuous
 62
     7
370
    15
100
AcDbLine
 10
113.7432064722859
 20
188.7486286096347
 30
0.0
 11
113.7432064722859
 21
186.3101816371156
 31
0.0
  0
LINE
  5
4784
330
1F
100
AcDbEntity
  8
0
  6
Continuous
 62
     7
370
    15
100
AcDbLine
 10
107.162649729439
 20
190.81018145783
 30
0.0
 11
104.3237633864963
 21
190.8101814434005
 31
0.0
  0
SPLINE
  5
4785
330
1F
100
AcDbEntity
  8
0
  6
Continuous
 62
     7
370
    15
100
AcDbSpline
210
0.0
220
0.0
230
1.0
 70
     8
 71
     3
 72
    11
 73
     7
 74
     0
 42
0.0000000001
 43
0.0000000001
 40
0.0
 40
0.0
 40
0.0
 40
0.0
 40
0.2472747816134066
 40
0.4945905851066941
 40
0.7472644022119094
 40
0.9999999999999998
 40
0.9999999999999998
 40
0.9999999999999998
 40
0.9999999999999998
 10
103.7432057644808
 20
194.0601815104557
 30
0.0
 10
103.7509577563759
 20
193.7881764385402
 30
0.0
 10
103.7664630261903
 20
193.2441211701749
 30
0.0
 10
103.8875316387989
 20
192.4278731771953
 30
0.0
 10
104.0696632699053
 20
191.6146170821068
 30
0.0
 10
104.2390564454883
 20
191.07834850726
 30
0.0
 10
104.3237633864963
 20
190.8101814434005
 30
0.0
  0
SPLINE
  5
4786
330
1F
100
AcDbEntity
  8
0
  6
Continuous
 62
     7
370
    15
100
AcDbSpline
210
0.0
220
0.0
230
1.0
 70
     8
 71
     3
 72
    11
 73
     7
 74
     0
 42
0.0000000001
 43
0.0000000001
 40
0.0
 40
0.0
 40
0.0
 40
0.0
 40
0.2477112931518365
 40
0.4953655273176868
 40
0.7477052716422373
 40
1.0
 40
1.0
 40
1.0
 40
1.0
 10
104.3237633864963
 20
197.310181577511
 30
0.0
 10
104.2406558548429
 20
197.0473691607845
 30
0.0
 10
104.0744599349164
 20
196.5218048647817
 30
0.0
 10
103.8916768875794
 20
195.7143399939523
 30
0.0
 10
103.7674394403431
 20
194.8928166391805
 30
0.0
 10
103.7512831760278
 20
194.3377100472517
 30
0.0
 10
103.7432057644808
 20
194.0601815104557
 30
0.0
  0
LINE
  5
4787
330
1F
100
AcDbEntity
  8
0
  6
Continuous
 62
     7
370
    15
100
AcDbLine
 10
107.162649729439
 20
197.3101815775109
 30
0.0
 11
104.3237633864963
 21
197.310181577511
 31
0.0
  0
SPLINE
  5
4788
330
1F
100
AcDbEntity
  8
0
  6
Continuous
 62
     7
370
    15
100
AcDbSpline
210
0.0
220
0.0
230
1.0
 70
     8
 71
     3
 72
    11
 73
     7
 74
     0
 42
0.0000000001
 43
0.0000000001
 40
0.0
 40
0.0
 40
0.0
 40
0.0
 40
0.247711235826654
 40
0.4953654843005489
 40
0.7477052906616985
 40
1.0
 40
1.0
 40
1.0
 40
1.0
 10
107.162649729439
 20
197.3101815775109
 30
0.0
 10
107.2457574349133
 20
197.047369145199
 30
0.0
 10
107.4119537264702
 20
196.5218047420423
 30
0.0
 10
107.594734187923
 20
195.7143398969499
 30
0.0
 10
107.7189758099297
 20
194.8928168063689
 30
0.0
 10
107.7351300312757
 20
194.3377100732573
 30
0.0
 10
107.7432064201319
 20
194.0601815104557
 30
0.0
  0
SPLINE
  5
4789
330
1F
100
AcDbEntity
  8
0
  6
Continuous
 62
     7
370
    15
100
AcDbSpline
210
0.0
220
0.0
230
1.0
 70
     8
 71
     3
 72
    11
 73
     7
 74
     0
 42
0.0000000001
 43
0.0000000001
 40
0.0
 40
0.0
 40
0.0
 40
0.0
 40
0.2472747930436437
 40
0.4945905784316145
 40
0.7472643942305599
 40
0.9999999999999998
 40
0.9999999999999998
 40
0.9999999999999998
 40
0.9999999999999998
 10
107.7432064201319
 20
194.0601815104557
 30
0.0
 10
107.7354543248325
 20
193.7881764498628
 30
0.0
 10
107.7199488491187
 20
193.244121236636
 30
0.0
 10
107.5988818118231
 20
192.4278731186608
 30
0.0
 10
107.4167497558671
 20
191.614617143555
 30
0.0
 10
107.2473566414276
 20
191.0783485810472
 30
0.0
 10
107.162649729439
 20
190.8101815184311
 30
0.0
  0
LINE
  5
478A
330
1F
100
AcDbEntity
  8
0
  6
Continuous
 62
     7
370
    15
100
AcDbLine
 10
107.7432064201319
 20
194.0601815104557
 30
0.0
 11
107.7432064201318
 21
187.5601813763453
 31
0.0
  0
SPLINE
  5
478B
330
1F
100
AcDbEntity
  8
0
  6
Continuous
 62
     7
370
    15
100
AcDbSpline
210
0.0
220
0.0
230
1.0
 70
     8
 71
     3
 72
    11
 73
     7
 74
     0
 42
0.0000000001
 43
0.0000000001
 40
0.0
 40
0.0
 40
0.0
 40
0.0
 40
0.247711143330619
 40
0.4953654743653387
 40
0.7477052248352548
 40
0.9999999999999998
 40
0.9999999999999998
 40
0.9999999999999998
 40
0.9999999999999998
 10
107.162649729439
 20
190.810181485349
 30
0.0
 10
107.2457574475982
 20
190.5473691586593
 30
0.0
 10
107.4119538232469
 20
190.0218047810166
 30
0.0
 10
107.594734121386
 20
189.2143399615461
 30
0.0
 10
107.7189758419721
 20
188.3928164263864
 30
0.0
 10
107.735130040657
 20
187.8377099018265
 30
0.0
 10
107.7432064201318
 20
187.5601813763453
 30
0.0
  0
LINE
  5
478C
330
1F
100
AcDbEntity
  8
0
  6
Continuous
 62
     7
370
    15
100
AcDbLine
 10
107.1626497294389
 20
184.31018130929
 30
0.0
 11
104.3237633864962
 21
184.3101813092901
 31
0.0
  0
SPLINE
  5
478D
330
1F
100
AcDbEntity
  8
0
  6
Continuous
 62
     7
370
    15
100
AcDbSpline
210
0.0
220
0.0
230
1.0
 70
     8
 71
     3
 72
    11
 73
     7
 74
     0
 42
0.0000000001
 43
0.0000000001
 40
0.0
 40
0.0
 40
0.0
 40
0.0
 40
0.2472747743000747
 40
0.4945905704788169
 40
0.7472643801110199
 40
1.0
 40
1.0
 40
1.0
 40
1.0
 10
103.7432057644807
 20
187.5601813763453
 30
0.0
 10
103.7509577565552
 20
187.2881763038892
 30
0.0
 10
103.766463026728
 20
186.7441210344424
 30
0.0
 10
103.8875316366281
 20
185.9278730496327
 30
0.0
 10
104.0696632853999
 20
185.1146168908905
 30
0.0
 10
104.23905644735
 20
184.5783483645715
 30
0.0
 10
104.3237633864962
 20
184.3101813092901
 30
0.0
  0
SPLINE
  5
478E
330
1F
100
AcDbEntity
  8
0
  6
Continuous
 62
     7
370
    15
100
AcDbSpline
210
0.0
220
0.0
230
1.0
 70
     8
 71
     3
 72
    11
 73
     7
 74
     0
 42
0.0000000001
 43
0.0000000001
 40
0.0
 40
0.0
 40
0.0
 40
0.0
 40
0.2477111343692937
 40
0.4953655131363151
 40
0.7477052036928967
 40
0.9999999999999998
 40
0.9999999999999998
 40
0.9999999999999998
 40
0.9999999999999998
 10
104.3237633864963
 20
190.8101814434005
 30
0.0
 10
104.2406558333315
 20
190.5473691082273
 30
0.0
 10
104.0744597686138
 20
190.0218046534718
 30
0.0
 10
103.8916769870204
 20
189.2143402072285
 30
0.0
 10
103.7674394025064
 20
188.3928162382388
 30
0.0
 10
103.7512831647154
 20
187.8377098688348
 30
0.0
 10
103.7432057644807
 20
187.5601813763453
 30
0.0
  0
SPLINE
  5
478F
330
1F
100
AcDbEntity
  8
0
  6
Continuous
 62
     7
370
    15
100
AcDbSpline
210
0.0
220
0.0
230
1.0
 70
     8
 71
     3
 72
    11
 73
     7
 74
     0
 42
0.0000000001
 43
0.0000000001
 40
0.0
 40
0.0
 40
0.0
 40
0.0
 40
0.2472747889172714
 40
0.4945905701781859
 40
0.7472643947467396
 40
0.9999999999999998
 40
0.9999999999999998
 40
0.9999999999999998
 40
0.9999999999999998
 10
107.7432064201318
 20
187.5601813763453
 30
0.0
 10
107.735454325112
 20
187.2881763153113
 30
0.0
 10
107.7199488499575
 20
186.7441211012023
 30
0.0
 10
107.5988818063327
 20
185.9278729757073
 30
0.0
 10
107.4167497611702
 20
185.1146169569441
 30
0.0
 10
107.247356642158
 20
184.5783483761324
 30
0.0
 10
107.1626497294389
 20
184.31018130929
 30
0.0
  0
LINE
  5
4790
330
1F
100
AcDbEntity
  8
0
  6
Continuous
 62
     7
370
    15
100
AcDbLine
 10
103.7432057644808
 20
194.0601815104557
 30
0.0
 11
103.7432057644807
 21
187.5601813763453
 31
0.0
  0
SPLINE
  5
4791
330
1F
100
AcDbEntity
  8
0
  6
Continuous
 62
     7
370
    15
100
AcDbSpline
210
0.0
220
0.0
230
1.0
 70
    24
 71
     3
 72
    11
 73
     7
 74
     0
 42
0.0000000001
 43
0.0000000001
 40
0.0
 40
0.0
 40
0.0
 40
0.0
 40
0.2472747629664084
 40
0.4945905547255642
 40
0.7472643955626133
 40
1.0
 40
1.0
 40
1.0
 40
1.0
 10
103.7432057644808
 20
197.310181577511
 30
0.0
 10
103.750957755977
 20
197.310181577511
 30
0.0
 10
103.7664630252101
 20
197.310181577511
 30
0.0
 10
103.8875316532655
 20
197.310181577511
 30
0.0
 10
104.0696632597537
 20
197.310181577511
 30
0.0
 10
104.239056444013
 20
197.310181577511
 30
0.0
 10
104.3237633864963
 20
197.310181577511
 30
0.0
  0
LINE
  5
4792
330
1F
100
AcDbEntity
  8
0
  6
Continuous
 62
     7
370
    15
100
AcDbLine
 10
103.7432057644808
 20
197.310181577511
 30
0.0
 11
103.7432057644808
 21
194.0601815104557
 31
0.0
  0
SPLINE
  5
4793
330
1F
100
AcDbEntity
  8
0
  6
Continuous
 62
     7
370
    15
100
AcDbSpline
210
0.0
220
0.0
230
1.0
 70
    24
 71
     3
 72
    11
 73
     7
 74
     0
 42
0.0000000001
 43
0.0000000001
 40
0.0
 40
0.0
 40
0.0
 40
0.0
 40
0.2472747550281882
 40
0.4945905397472479
 40
0.7472643880725399
 40
1.0
 40
1.0
 40
1.0
 40
1.0
 10
107.7432064201319
 20
197.310181577511
 30
0.0
 10
107.7354543238413
 20
197.310181577511
 30
0.0
 10
107.7199488449738
 20
197.310181577511
 30
0.0
 10
107.5988817976683
 20
197.3101815775109
 30
0.0
 10
107.416749770784
 20
197.3101815775109
 30
0.0
 10
107.2473566434541
 20
197.3101815775109
 30
0.0
 10
107.162649729439
 20
197.3101815775109
 30
0.0
  0
LINE
  5
4794
330
1F
100
AcDbEntity
  8
0
  6
Continuous
 62
     7
370
    15
100
AcDbLine
 10
107.7432064201319
 20
197.310181577511
 30
0.0
 11
107.7432064201319
 21
194.0601815104557
 31
0.0
  0
SPLINE
  5
4795
330
1F
100
AcDbEntity
  8
0
  6
Continuous
 62
     7
370
    15
100
AcDbSpline
210
0.0
220
0.0
230
1.0
 70
    24
 71
     3
 72
    11
 73
     7
 74
     0
 42
0.0000000001
 43
0.0000000001
 40
0.0
 40
0.0
 40
0.0
 40
0.0
 40
0.2477112222665446
 40
0.4953655163364995
 40
0.7477052974656239
 40
1.0
 40
1.0
 40
1.0
 40
1.0
 10
107.1626497294389
 20
184.31018130929
 30
0.0
 10
107.2457574394645
 20
184.31018130929
 30
0.0
 10
107.4119537599691
 20
184.31018130929
 30
0.0
 10
107.5947341562812
 20
184.3101813092901
 30
0.0
 10
107.7189758181518
 20
184.31018130929
 30
0.0
 10
107.7351300338195
 20
184.3101813092901
 30
0.0
 10
107.7432064201318
 20
184.3101813092901
 30
0.0
  0
LINE
  5
4796
330
1F
100
AcDbEntity
  8
0
  6
Continuous
 62
     7
370
    15
100
AcDbLine
 10
107.7432064201318
 20
187.5601813763453
 30
0.0
 11
107.7432064201318
 21
184.3101813092901
 31
0.0
  0
SPLINE
  5
4797
330
1F
100
AcDbEntity
  8
0
  6
Continuous
 62
     7
370
    15
100
AcDbSpline
210
0.0
220
0.0
230
1.0
 70
    24
 71
     3
 72
    11
 73
     7
 74
     0
 42
0.0000000001
 43
0.0000000001
 40
0.0
 40
0.0
 40
0.0
 40
0.0
 40
0.2477111757548745
 40
0.4953655299187457
 40
0.7477052637300269
 40
1.0
 40
1.0
 40
1.0
 40
1.0
 10
104.3237633864962
 20
184.3101813092901
 30
0.0
 10
104.240655838294
 20
184.3101813092901
 30
0.0
 10
104.0744598056364
 20
184.3101813092901
 30
0.0
 10
103.8916769559517
 20
184.3101813092901
 30
0.0
 10
103.7674394253627
 20
184.3101813092901
 30
0.0
 10
103.7512831712313
 20
184.3101813092901
 30
0.0
 10
103.7432057644807
 20
184.3101813092901
 30
0.0
  0
LINE
  5
4798
330
1F
100
AcDbEntity
  8
0
  6
Continuous
 62
     7
370
    15
100
AcDbLine
 10
103.7432057644807
 20
187.5601813763453
 30
0.0
 11
103.7432057644807
 21
184.3101813092901
 31
0.0
  0
LINE
  5
4799
330
1F
100
AcDbEntity
  8
0
  6
Continuous
 62
     7
370
    15
100
AcDbLine
 10
150.7432060178006
 20
201.5601818084788
 30
0.0
 11
161.7432059581959
 21
201.5601818084788
 31
0.0
  0
LINE
  5
479A
330
1F
100
AcDbEntity
  8
0
  6
Continuous
 62
     7
370
    15
100
AcDbLine
 10
161.7432059581959
 20
208.5601820245456
 30
0.0
 11
150.7432060178006
 21
208.5601820245457
 31
0.0
  0
LINE
  5
479B
330
1F
100
AcDbEntity
  8
0
  6
Continuous
 62
     7
370
    15
100
AcDbLine
 10
161.7432059581959
 20
201.5601818084788
 30
0.0
 11
161.7432059581959
 21
208.5601820245456
 31
0.0
  0
LINE
  5
479C
330
1F
100
AcDbEntity
  8
0
  6
Continuous
 62
     7
370
    15
100
AcDbLine
 10
150.7432060178006
 20
208.5601820245457
 30
0.0
 11
150.7432060178006
 21
207.7954711958838
 31
0.0
  0
LINE
  5
479D
330
1F
100
AcDbEntity
  8
0
  6
Continuous
 62
     7
370
    15
100
AcDbLine
 10
150.7432060178006
 20
204.7415583029461
 30
0.0
 11
150.7432060178006
 21
201.5601818084788
 31
0.0
  0
CIRCLE
  5
479E
330
1F
100
AcDbEntity
  8
0
  6
Continuous
 62
     7
370
    15
100
AcDbCircle
 10
154.74320652444
 20
190.8101814434003
 30
0.0
 40
2.650500000015654
  0
LINE
  5
479F
330
1F
100
AcDbEntity
  8
0
  6
Continuous
 62
     7
370
    15
100
AcDbLine
 10
161.7432059581959
 20
180.0601810783218
 30
0.0
 11
161.7432059581959
 21
201.5601818084788
 31
0.0
  0
LINE
  5
47A0
330
1F
100
AcDbEntity
  8
0
  6
Continuous
 62
     7
370
    15
100
AcDbLine
 10
161.7432059581959
 20
180.0601810783218
 30
0.0
 11
150.7432060178005
 21
180.0601810783219
 31
0.0
  0
LINE
  5
47A1
330
1F
100
AcDbEntity
  8
0
  6
Continuous
 62
     7
370
    15
100
AcDbLine
 10
150.7432060178005
 20
180.0601810783219
 30
0.0
 11
150.7432060178006
 21
201.5601818084788
 31
0.0
  0
LINE
  5
47A2
330
1F
100
AcDbEntity
  8
0
  6
Continuous
 62
     7
370
    15
100
AcDbLine
 10
150.7432060178004
 20
173.0601808622551
 30
0.0
 11
161.7432059581958
 21
173.060180862255
 31
0.0
  0
LINE
  5
47A3
330
1F
100
AcDbEntity
  8
0
  6
Continuous
 62
     7
370
    15
100
AcDbLine
 10
161.7432059581958
 20
173.060180862255
 30
0.0
 11
161.7432059581959
 21
180.0601810783218
 31
0.0
  0
LINE
  5
47A4
330
1F
100
AcDbEntity
  8
0
  6
Continuous
 62
     7
370
    15
100
AcDbLine
 10
150.7432060178005
 20
180.0601810783219
 30
0.0
 11
150.7432060178005
 21
176.8788045838546
 31
0.0
  0
LINE
  5
47A5
330
1F
100
AcDbEntity
  8
0
  6
Continuous
 62
     7
370
    15
100
AcDbLine
 10
150.7432060178005
 20
173.824891690917
 30
0.0
 11
150.7432060178004
 21
173.0601808622551
 31
0.0
  0
CIRCLE
  5
47A6
330
1F
100
AcDbEntity
  8
0
  6
Continuous
 62
     7
370
    15
100
AcDbCircle
 10
154.74320652444
 20
190.8101814434003
 30
0.0
 40
2.150500000027477
  0
LINE
  5
47A7
330
1F
100
AcDbEntity
  8
0
  6
Continuous
 62
     7
370
    15
100
AcDbLine
 10
161.7432059581959
 20
202.5101811260057
 30
0.0
 11
161.7432059581959
 21
202.8101815477085
 31
0.0
  0
LINE
  5
47A8
330
1F
100
AcDbEntity
  8
0
  6
Continuous
 62
     7
370
    15
100
AcDbLine
 10
161.7432059581959
 20
208.0601810112668
 30
0.0
 11
161.7432059581959
 21
208.5601820245457
 31
0.0
  0
LINE
  5
47A9
330
1F
100
AcDbEntity
  8
0
  6
Continuous
 62
     7
370
    15
100
AcDbLine
 10
150.7432060178005
 20
208.3101815179063
 30
0.0
 11
150.7432060178005
 21
208.5601820245457
 31
0.0
  0
LINE
  5
47AA
330
1F
100
AcDbEntity
  8
0
  6
Continuous
 62
     7
370
    15
100
AcDbLine
 10
161.7432059581959
 20
206.4101810202074
 30
0.0
 11
161.7432059581959
 21
208.0601810112668
 31
0.0
  0
LINE
  5
47AB
330
1F
100
AcDbEntity
  8
0
  6
Continuous
 62
     7
370
    15
100
AcDbLine
 10
161.7432059581959
 20
206.2101813599539
 30
0.0
 11
161.7432059581959
 21
206.4101810202074
 31
0.0
  0
LINE
  5
47AC
330
1F
100
AcDbEntity
  8
0
  6
Continuous
 62
     7
370
    15
100
AcDbLine
 10
161.7432059581958
 20
175.2101818665934
 30
0.0
 11
161.7432059581958
 21
175.4101815268469
 31
0.0
  0
LINE
  5
47AD
330
1F
100
AcDbEntity
  8
0
  6
Continuous
 62
     7
370
    15
100
AcDbLine
 10
161.7432059581958
 20
173.560181875534
 30
0.0
 11
161.7432059581958
 21
175.2101818665934
 31
0.0
  0
LINE
  5
47AE
330
1F
100
AcDbEntity
  8
0
  6
Continuous
 62
     7
370
    15
100
AcDbLine
 10
161.7432059581958
 20
173.0601808622551
 30
0.0
 11
161.7432059581958
 21
173.560181875534
 31
0.0
  0
LINE
  5
47AF
330
1F
100
AcDbEntity
  8
0
  6
Continuous
 62
     7
370
    15
100
AcDbLine
 10
150.7432060178004
 20
173.0601808622551
 30
0.0
 11
150.7432060178004
 21
173.3101813688946
 31
0.0
  0
LINE
  5
47B0
330
1F
100
AcDbEntity
  8
0
  6
Continuous
 62
     7
370
    15
100
AcDbLine
 10
161.7432059581959
 20
203.0101812079621
 30
0.0
 11
161.7432059581959
 21
206.0101816997004
 31
0.0
  0
LINE
  5
47B1
330
1F
100
AcDbEntity
  8
0
  6
Continuous
 62
     7
370
    15
100
AcDbLine
 10
161.7432059581958
 20
175.6101811871004
 30
0.0
 11
161.7432059581958
 21
178.6101816788387
 31
0.0
  0
LINE
  5
47B2
330
1F
100
AcDbEntity
  8
0
  6
Continuous
 62
     7
370
    15
100
AcDbLine
 10
130.7432064648354
 20
208.5601820245457
 30
0.0
 11
119.7432065244401
 21
208.5601820245457
 31
0.0
  0
LINE
  5
47B3
330
1F
100
AcDbEntity
  8
0
  6
Continuous
 62
     7
370
    15
100
AcDbLine
 10
130.7432064648354
 20
201.5601818084789
 30
0.0
 11
130.7432064648354
 21
204.7415583029462
 31
0.0
  0
LINE
  5
47B4
330
1F
100
AcDbEntity
  8
0
  6
Continuous
 62
     7
370
    15
100
AcDbLine
 10
130.7432064648354
 20
207.7954711958838
 30
0.0
 11
130.7432064648354
 21
208.5601820245457
 31
0.0
  0
LINE
  5
47B5
330
1F
100
AcDbEntity
  8
0
  6
Continuous
 62
     7
370
    15
100
AcDbLine
 10
119.7432065244401
 20
201.5601818084789
 30
0.0
 11
130.7432064648354
 21
201.5601818084789
 31
0.0
  0
LINE
  5
47B6
330
1F
100
AcDbEntity
  8
0
  6
Continuous
 62
     7
370
    15
100
AcDbLine
 10
119.7432065244401
 20
208.5601820245457
 30
0.0
 11
119.7432065244401
 21
201.5601818084789
 31
0.0
  0
CIRCLE
  5
47B7
330
1F
100
AcDbEntity
  8
0
  6
Continuous
 62
     7
370
    15
100
AcDbCircle
 10
126.74320652444
 20
190.8101814434004
 30
0.0
 40
2.650500000015654
  0
LINE
  5
47B8
330
1F
100
AcDbEntity
  8
0
  6
Continuous
 62
     7
370
    15
100
AcDbLine
 10
130.7432064648354
 20
201.5601818084789
 30
0.0
 11
130.7432064648354
 21
180.060181078322
 31
0.0
  0
LINE
  5
47B9
330
1F
100
AcDbEntity
  8
0
  6
Continuous
 62
     7
370
    15
100
AcDbLine
 10
130.7432064648354
 20
180.060181078322
 30
0.0
 11
119.74320652444
 21
180.060181078322
 31
0.0
  0
LINE
  5
47BA
330
1F
100
AcDbEntity
  8
0
  6
Continuous
 62
     7
370
    15
100
AcDbLine
 10
119.7432065244401
 20
201.5601818084789
 30
0.0
 11
119.74320652444
 21
180.060181078322
 31
0.0
  0
LINE
  5
47BB
330
1F
100
AcDbEntity
  8
0
  6
Continuous
 62
     7
370
    15
100
AcDbLine
 10
119.7432065244399
 20
173.0601808622552
 30
0.0
 11
130.7432064648353
 21
173.0601808622551
 31
0.0
  0
LINE
  5
47BC
330
1F
100
AcDbEntity
  8
0
  6
Continuous
 62
     7
370
    15
100
AcDbLine
 10
130.7432064648353
 20
173.0601808622551
 30
0.0
 11
130.7432064648353
 21
173.8248916909171
 31
0.0
  0
LINE
  5
47BD
330
1F
100
AcDbEntity
  8
0
  6
Continuous
 62
     7
370
    15
100
AcDbLine
 10
130.7432064648353
 20
176.8788045838547
 30
0.0
 11
130.7432064648354
 21
180.060181078322
 31
0.0
  0
LINE
  5
47BE
330
1F
100
AcDbEntity
  8
0
  6
Continuous
 62
     7
370
    15
100
AcDbLine
 10
119.74320652444
 20
180.060181078322
 30
0.0
 11
119.7432065244399
 21
173.0601808622552
 31
0.0
  0
CIRCLE
  5
47BF
330
1F
100
AcDbEntity
  8
0
  6
Continuous
 62
     7
370
    15
100
AcDbCircle
 10
126.74320652444
 20
190.8101814434004
 30
0.0
 40
2.150500000027477
  0
LINE
  5
47C0
330
1F
100
AcDbEntity
  8
0
  6
Continuous
 62
     7
370
    15
100
AcDbLine
 10
119.74320652444
 20
202.5101811260058
 30
0.0
 11
119.74320652444
 21
202.8101815477086
 31
0.0
  0
LINE
  5
47C1
330
1F
100
AcDbEntity
  8
0
  6
Continuous
 62
     7
370
    15
100
AcDbLine
 10
130.7432064648354
 20
208.5601820245457
 30
0.0
 11
130.7432064648354
 21
208.3101815179063
 31
0.0
  0
LINE
  5
47C2
330
1F
100
AcDbEntity
  8
0
  6
Continuous
 62
     7
370
    15
100
AcDbLine
 10
119.74320652444
 20
208.5601820245458
 30
0.0
 11
119.74320652444
 21
208.0601810112668
 31
0.0
  0
LINE
  5
47C3
330
1F
100
AcDbEntity
  8
0
  6
Continuous
 62
     7
370
    15
100
AcDbLine
 10
119.74320652444
 20
208.0601810112668
 30
0.0
 11
119.74320652444
 21
206.4101810202076
 31
0.0
  0
LINE
  5
47C4
330
1F
100
AcDbEntity
  8
0
  6
Continuous
 62
     7
370
    15
100
AcDbLine
 10
119.74320652444
 20
206.4101810202076
 30
0.0
 11
119.74320652444
 21
206.210181359954
 31
0.0
  0
LINE
  5
47C5
330
1F
100
AcDbEntity
  8
0
  6
Continuous
 62
     7
370
    15
100
AcDbLine
 10
119.7432065244399
 20
175.2101818665935
 30
0.0
 11
119.7432065244399
 21
173.5601818755341
 31
0.0
  0
LINE
  5
47C6
330
1F
100
AcDbEntity
  8
0
  6
Continuous
 62
     7
370
    15
100
AcDbLine
 10
119.7432065244399
 20
175.410181526847
 30
0.0
 11
119.7432065244399
 21
175.2101818665935
 31
0.0
  0
LINE
  5
47C7
330
1F
100
AcDbEntity
  8
0
  6
Continuous
 62
     7
370
    15
100
AcDbLine
 10
130.7432064648353
 20
173.3101813688947
 30
0.0
 11
130.7432064648353
 21
173.0601808622552
 31
0.0
  0
LINE
  5
47C8
330
1F
100
AcDbEntity
  8
0
  6
Continuous
 62
     7
370
    15
100
AcDbLine
 10
119.7432065244399
 20
173.5601818755341
 30
0.0
 11
119.7432065244399
 21
173.0601808622552
 31
0.0
  0
LINE
  5
47C9
330
1F
100
AcDbEntity
  8
0
  6
Continuous
 62
     7
370
    15
100
AcDbLine
 10
119.74320652444
 20
206.0101816997005
 30
0.0
 11
119.74320652444
 21
203.0101812079622
 31
0.0
  0
LINE
  5
47CA
330
1F
100
AcDbEntity
  8
0
  6
Continuous
 62
     7
370
    15
100
AcDbLine
 10
119.7432065244399
 20
178.6101816788388
 30
0.0
 11
119.7432065244399
 21
175.6101811871005
 31
0.0
  0
CIRCLE
  5
47CF
330
1F
100
AcDbEntity
  8
0
  6
Continuous
 62
     7
370
    15
100
AcDbCircle
 10
226.2326827207951
 20
190.8101814434006
 30
0.0
 40
2.999999999985902
  0
CIRCLE
  5
47D0
330
1F
100
AcDbEntity
  8
0
  6
Continuous
 62
     7
370
    15
100
AcDbCircle
 10
226.2326827207951
 20
190.8101814434006
 30
0.0
 40
4.0
  0
ARC
  5
47D1
330
1F
100
AcDbEntity
  8
0
  6
Continuous
 62
     7
370
    15
100
AcDbCircle
 10
226.2326827207951
 20
190.8101814434006
 30
0.0
 40
6.5
100
AcDbArc
 50
90.0
 51
149.9999999999994
  0
ARC
  5
47D2
330
1F
100
AcDbEntity
  8
0
  6
Continuous
 62
     7
370
    15
100
AcDbCircle
 10
226.2326827207951
 20
190.8101814434006
 30
0.0
 40
6.500000000000027
100
AcDbArc
 50
30.00000000000055
 51
90.0
  0
ARC
  5
47D3
330
1F
100
AcDbEntity
  8
0
  6
Continuous
 62
     7
370
    15
100
AcDbCircle
 10
226.2326827207951
 20
190.8101814434006
 30
0.0
 40
6.500000000000027
100
AcDbArc
 50
329.9999999999995
 51
30.00000000000055
  0
ARC
  5
47D4
330
1F
100
AcDbEntity
  8
0
  6
Continuous
 62
     7
370
    15
100
AcDbCircle
 10
226.2326827207951
 20
190.8101814434006
 30
0.0
 40
6.500000000000006
100
AcDbArc
 50
270.0
 51
329.9999999999995
  0
ARC
  5
47D5
330
1F
100
AcDbEntity
  8
0
  6
Continuous
 62
     7
370
    15
100
AcDbCircle
 10
226.2326827207951
 20
190.8101814434006
 30
0.0
 40
6.499999999999977
100
AcDbArc
 50
210.0000000000019
 51
270.0
  0
ARC
  5
47D6
330
1F
100
AcDbEntity
  8
0
  6
Continuous
 62
     7
370
    15
100
AcDbCircle
 10
226.2326827207951
 20
190.8101814434006
 30
0.0
 40
6.499999999999992
100
AcDbArc
 50
149.9999999999994
 51
210.0000000000019
  0
SPLINE
  5
47D7
330
1F
100
AcDbEntity
  8
0
  6
Continuous
 62
     7
370
    15
100
AcDbSpline
210
0.0
220
0.0
230
1.0
 70
     8
 71
     3
 72
    11
 73
     7
 74
     0
 42
0.0000000001
 43
0.0000000001
 40
0.0
 40
0.0
 40
0.0
 40
0.0
 40
0.2472747816134051
 40
0.494590585106691
 40
0.7472644022119046
 40
1.0
 40
1.0
 40
1.0
 40
1.0
 10
220.603517622724
 20
187.5601813763453
 30
0.0
 10
220.4464754307049
 20
187.8321864482608
 30
0.0
 10
220.132364994006
 20
188.3762417166263
 30
0.0
 10
219.6611037419811
 20
189.1924897096058
 30
0.0
 10
219.1915704264693
 20
190.0057458046943
 30
0.0
 10
218.8819556990898
 20
190.5420143795411
 30
0.0
 10
218.7271294119208
 20
190.8101814434006
 30
0.0
  0
SPLINE
  5
47D8
330
1F
100
AcDbEntity
  8
0
  6
Continuous
 62
     7
370
    15
100
AcDbSpline
210
0.0
220
0.0
230
1.0
 70
     8
 71
     3
 72
    11
 73
     7
 74
     0
 42
0.0000000001
 43
0.0000000001
 40
0.0
 40
0.0
 40
0.0
 40
0.0
 40
0.2477111343692885
 40
0.4953655131363116
 40
0.747705203692895
 40
0.9999999999999998
 40
0.9999999999999998
 40
0.9999999999999998
 40
0.9999999999999998
 10
218.7271294119208
 20
190.8101814434006
 30
0.0
 10
218.8788640057028
 20
191.0729937785738
 30
0.0
 10
219.1822984278203
 20
191.5985582333293
 30
0.0
 10
219.6484887073314
 20
192.4060226795726
 30
0.0
 10
220.1227954098789
 20
193.2275466485623
 30
0.0
 10
220.4432863891508
 20
193.7826530179662
 30
0.0
 10
220.603517622724
 20
194.0601815104558
 30
0.0
  0
SPLINE
  5
47D9
330
1F
100
AcDbEntity
  8
0
  6
Continuous
 62
     7
370
    15
100
AcDbSpline
210
0.0
220
0.0
230
1.0
 70
    24
 71
     3
 72
    11
 73
     7
 74
     0
 42
0.0000000001
 43
0.0000000001
 40
0.0
 40
0.0
 40
0.0
 40
0.0
 40
0.2472747629664084
 40
0.4945905547255643
 40
0.7472643955626133
 40
0.9999999999999998
 40
0.9999999999999998
 40
0.9999999999999998
 40
0.9999999999999998
 10
226.2326827207951
 20
184.3101813092901
 30
0.0
 10
225.9185983520818
 20
184.3101813092901
 30
0.0
 10
225.2903775005523
 20
184.3101813092901
 30
0.0
 10
224.3478554059934
 20
184.3101813092901
 30
0.0
 10
223.4087882998738
 20
184.3101813092901
 30
0.0
 10
222.7895587018636
 20
184.3101813092901
 30
0.0
 10
222.4799060663579
 20
184.3101813092901
 30
0.0
  0
SPLINE
  5
47DA
330
1F
100
AcDbEntity
  8
0
  6
Continuous
 62
     7
370
    15
100
AcDbSpline
210
0.0
220
0.0
230
1.0
 70
     8
 71
     3
 72
    11
 73
     7
 74
     0
 42
0.0000000001
 43
0.0000000001
 40
0.0
 40
0.0
 40
0.0
 40
0.0
 40
0.2477112931518365
 40
0.4953655273176868
 40
0.7477052716422373
 40
1.0
 40
1.0
 40
1.0
 40
1.0
 10
222.4799060663579
 20
184.3101813092901
 30
0.0
 10
222.328171169562
 20
184.5729937260165
 30
0.0
 10
222.0247363273009
 20
185.0985580220194
 30
0.0
 10
221.5585466655526
 20
185.9060228928488
 30
0.0
 10
221.0842392074212
 20
186.7275462476206
 30
0.0
 10
220.7637486211585
 20
187.2826528395494
 30
0.0
 10
220.603517622724
 20
187.5601813763453
 30
0.0
  0
SPLINE
  5
47DB
330
1F
100
AcDbEntity
  8
0
  6
Continuous
 62
     7
370
    15
100
AcDbSpline
210
0.0
220
0.0
230
1.0
 70
     8
 71
     3
 72
    11
 73
     7
 74
     0
 42
0.0000000001
 43
0.0000000001
 40
0.0
 40
0.0
 40
0.0
 40
0.0
 40
0.2472747743000747
 40
0.4945905704788169
 40
0.7472643801110199
 40
1.0
 40
1.0
 40
1.0
 40
1.0
 10
231.8618478188662
 20
187.5601813763453
 30
0.0
 10
231.704805627876
 20
187.2881763038892
 30
0.0
 10
231.3906951932353
 20
186.7441210344424
 30
0.0
 10
230.9194339256606
 20
185.9278730496327
 30
0.0
 10
230.4499006520343
 20
185.1146168908905
 30
0.0
 10
230.1402857558648
 20
184.5783483645715
 30
0.0
 10
229.9854593752323
 20
184.3101813092901
 30
0.0
  0
SPLINE
  5
47DC
330
1F
100
AcDbEntity
  8
0
  6
Continuous
 62
     7
370
    15
100
AcDbSpline
210
0.0
220
0.0
230
1.0
 70
    24
 71
     3
 72
    11
 73
     7
 74
     0
 42
0.0000000001
 43
0.0000000001
 40
0.0
 40
0.0
 40
0.0
 40
0.0
 40
0.2477111757548745
 40
0.4953655299187457
 40
0.7477052637300269
 40
1.0
 40
1.0
 40
1.0
 40
1.0
 10
229.9854593752323
 20
184.3101813092901
 30
0.0
 10
229.6819898706191
 20
184.3101813092901
 30
0.0
 10
229.0751204731899
 20
184.3101813092901
 30
0.0
 10
228.1427405653391
 20
184.3101813092901
 30
0.0
 10
227.1941266510639
 20
184.3101813092901
 30
0.0
 10
226.5531449790753
 20
184.3101813092901
 30
0.0
 10
226.2326827207951
 20
184.3101813092901
 30
0.0
  0
SPLINE
  5
47DD
330
1F
100
AcDbEntity
  8
0
  6
Continuous
 62
     7
370
    15
100
AcDbSpline
210
0.0
220
0.0
230
1.0
 70
    24
 71
     3
 72
    11
 73
     7
 74
     0
 42
0.0000000001
 43
0.0000000001
 40
0.0
 40
0.0
 40
0.0
 40
0.0
 40
0.2477111757548744
 40
0.4953655299187456
 40
0.7477052637300267
 40
0.9999999999999998
 40
0.9999999999999998
 40
0.9999999999999998
 40
0.9999999999999998
 10
222.4799060663579
 20
197.310181577511
 30
0.0
 10
222.7833755709712
 20
197.310181577511
 30
0.0
 10
223.3902449684004
 20
197.310181577511
 30
0.0
 10
224.3226248762511
 20
197.310181577511
 30
0.0
 10
225.2712387905263
 20
197.310181577511
 30
0.0
 10
225.912220462515
 20
197.310181577511
 30
0.0
 10
226.2326827207951
 20
197.310181577511
 30
0.0
  0
SPLINE
  5
47DE
330
1F
100
AcDbEntity
  8
0
  6
Continuous
 62
     7
370
    15
100
AcDbSpline
210
0.0
220
0.0
230
1.0
 70
     8
 71
     3
 72
    11
 73
     7
 74
     0
 42
0.0000000001
 43
0.0000000001
 40
0.0
 40
0.0
 40
0.0
 40
0.0
 40
0.2472747743000747
 40
0.4945905704788169
 40
0.7472643801110199
 40
1.0
 40
1.0
 40
1.0
 40
1.0
 10
220.603517622724
 20
194.0601815104558
 30
0.0
 10
220.7605598137142
 20
194.3321865829119
 30
0.0
 10
221.0746702483549
 20
194.8762418523587
 30
0.0
 10
221.5459315159296
 20
195.6924898371683
 30
0.0
 10
222.0154647895559
 20
196.5057459959106
 30
0.0
 10
222.3250796857255
 20
197.0420145222296
 30
0.0
 10
222.4799060663579
 20
197.310181577511
 30
0.0
  0
SPLINE
  5
47DF
330
1F
100
AcDbEntity
  8
0
  6
Continuous
 62
     7
370
    15
100
AcDbSpline
210
0.0
220
0.0
230
1.0
 70
     8
 71
     3
 72
    11
 73
     7
 74
     0
 42
0.0000000001
 43
0.0000000001
 40
0.0
 40
0.0
 40
0.0
 40
0.0
 40
0.2477112931518365
 40
0.4953655273176868
 40
0.7477052716422373
 40
1.0
 40
1.0
 40
1.0
 40
1.0
 10
229.9854593752323
 20
197.310181577511
 30
0.0
 10
230.1371942720282
 20
197.0473691607845
 30
0.0
 10
230.4406291142893
 20
196.5218048647817
 30
0.0
 10
230.9068187760377
 20
195.7143399939523
 30
0.0
 10
231.3811262341691
 20
194.8928166391805
 30
0.0
 10
231.7016168204318
 20
194.3377100472517
 30
0.0
 10
231.8618478188662
 20
194.0601815104557
 30
0.0
  0
SPLINE
  5
47E0
330
1F
100
AcDbEntity
  8
0
  6
Continuous
 62
     7
370
    15
100
AcDbSpline
210
0.0
220
0.0
230
1.0
 70
    24
 71
     3
 72
    11
 73
     7
 74
     0
 42
0.0000000001
 43
0.0000000001
 40
0.0
 40
0.0
 40
0.0
 40
0.0
 40
0.2472747629664084
 40
0.4945905547255642
 40
0.7472643955626133
 40
1.0
 40
1.0
 40
1.0
 40
1.0
 10
226.2326827207951
 20
197.310181577511
 30
0.0
 10
226.5467670895084
 20
197.310181577511
 30
0.0
 10
227.1749879410378
 20
197.310181577511
 30
0.0
 10
228.1175100355969
 20
197.310181577511
 30
0.0
 10
229.0565771417164
 20
197.310181577511
 30
0.0
 10
229.6758067397267
 20
197.310181577511
 30
0.0
 10
229.9854593752323
 20
197.310181577511
 30
0.0
  0
SPLINE
  5
47E1
330
1F
100
AcDbEntity
  8
0
  6
Continuous
 62
     7
370
    15
100
AcDbSpline
210
0.0
220
0.0
230
1.0
 70
     8
 71
     3
 72
    11
 73
     7
 74
     0
 42
0.0000000001
 43
0.0000000001
 40
0.0
 40
0.0
 40
0.0
 40
0.0
 40
0.2472747816134066
 40
0.4945905851066941
 40
0.7472644022119094
 40
0.9999999999999998
 40
0.9999999999999998
 40
0.9999999999999998
 40
0.9999999999999998
 10
231.8618478188662
 20
194.0601815104557
 30
0.0
 10
232.0188900108854
 20
193.7881764385402
 30
0.0
 10
232.3330004475843
 20
193.2441211701749
 30
0.0
 10
232.8042616996092
 20
192.4278731771953
 30
0.0
 10
233.2737950151209
 20
191.6146170821068
 30
0.0
 10
233.5834097425005
 20
191.07834850726
 30
0.0
 10
233.7382360296695
 20
190.8101814434005
 30
0.0
  0
SPLINE
  5
47E2
330
1F
100
AcDbEntity
  8
0
  6
Continuous
 62
     7
370
    15
100
AcDbSpline
210
0.0
220
0.0
230
1.0
 70
     8
 71
     3
 72
    11
 73
     7
 74
     0
 42
0.0000000001
 43
0.0000000001
 40
0.0
 40
0.0
 40
0.0
 40
0.0
 40
0.2477111343692937
 40
0.4953655131363151
 40
0.7477052036928967
 40
0.9999999999999998
 40
0.9999999999999998
 40
0.9999999999999998
 40
0.9999999999999998
 10
233.7382360296695
 20
190.8101814434005
 30
0.0
 10
233.5865014358875
 20
190.5473691082273
 30
0.0
 10
233.28306701377
 20
190.0218046534718
 30
0.0
 10
232.8168767342587
 20
189.2143402072285
 30
0.0
 10
232.3425700317113
 20
188.3928162382388
 30
0.0
 10
232.0220790524393
 20
187.8377098688348
 30
0.0
 10
231.8618478188662
 20
187.5601813763453
 30
0.0
  0
LINE
  5
47E3
330
1F
100
AcDbEntity
  8
0
  6
Continuous
 62
     7
370
    15
100
AcDbLine
 10
215.2326827803997
 20
186.676206775762
 30
0.0
 11
213.7326825345305
 21
187.5422322291954
 31
0.0
  0
LINE
  5
47E4
330
1F
100
AcDbEntity
  8
0
  6
Continuous
 62
     7
370
    15
100
AcDbLine
 10
212.2326822886614
 20
186.676206775762
 30
0.0
 11
213.7326825345305
 21
187.5422322291954
 31
0.0
  0
LINE
  5
47E5
330
1F
100
AcDbEntity
  8
0
  6
Continuous
 62
     7
370
    15
100
AcDbLine
 10
212.2326822886614
 20
184.9441558688952
 30
0.0
 11
212.2326822886614
 21
186.676206775762
 31
0.0
  0
LINE
  5
47E6
330
1F
100
AcDbEntity
  8
0
  6
Continuous
 62
     7
370
    15
100
AcDbLine
 10
213.7326825345305
 20
184.0781306482925
 30
0.0
 11
212.2326822886614
 21
184.9441558688952
 31
0.0
  0
LINE
  5
47E7
330
1F
100
AcDbEntity
  8
0
  6
Continuous
 62
     7
370
    15
100
AcDbLine
 10
215.2326827803997
 20
184.9441558688952
 30
0.0
 11
213.7326825345305
 21
184.0781306482925
 31
0.0
  0
LINE
  5
47E8
330
1F
100
AcDbEntity
  8
0
  6
Continuous
 62
     7
370
    15
100
AcDbLine
 10
215.2326827803997
 20
186.676206775762
 30
0.0
 11
215.2326827803997
 21
184.9441558688952
 31
0.0
  0
CIRCLE
  5
47E9
330
1F
100
AcDbEntity
  8
0
  6
Continuous
 62
     7
370
    15
100
AcDbCircle
 10
213.732682720795
 20
185.8101814434005
 30
0.0
 40
3.200000000000045
  0
LINE
  5
47EA
330
1F
100
AcDbEntity
  8
0
  6
Continuous
 62
     7
370
    15
100
AcDbLine
 10
240.2326831529287
 20
196.6762070179058
 30
0.0
 11
238.7326829070596
 21
197.5422322385085
 31
0.0
  0
LINE
  5
47EB
330
1F
100
AcDbEntity
  8
0
  6
Continuous
 62
     7
370
    15
100
AcDbLine
 10
237.2326826611904
 20
196.6762070179058
 30
0.0
 11
238.7326829070596
 21
197.5422322385085
 31
0.0
  0
LINE
  5
47EC
330
1F
100
AcDbEntity
  8
0
  6
Continuous
 62
     7
370
    15
100
AcDbLine
 10
237.2326826611904
 20
194.944156111039
 30
0.0
 11
237.2326826611904
 21
196.6762070179058
 31
0.0
  0
LINE
  5
47ED
330
1F
100
AcDbEntity
  8
0
  6
Continuous
 62
     7
370
    15
100
AcDbLine
 10
238.7326829070596
 20
194.0781306576056
 30
0.0
 11
237.2326826611904
 21
194.944156111039
 31
0.0
  0
LINE
  5
47EE
330
1F
100
AcDbEntity
  8
0
  6
Continuous
 62
     7
370
    15
100
AcDbLine
 10
240.2326831529287
 20
194.944156111039
 30
0.0
 11
238.7326829070596
 21
194.0781306576056
 31
0.0
  0
LINE
  5
47EF
330
1F
100
AcDbEntity
  8
0
  6
Continuous
 62
     7
370
    15
100
AcDbLine
 10
240.2326831529287
 20
196.6762070179058
 30
0.0
 11
240.2326831529287
 21
194.944156111039
 31
0.0
  0
CIRCLE
  5
47F0
330
1F
100
AcDbEntity
  8
0
  6
Continuous
 62
     7
370
    15
100
AcDbCircle
 10
238.732682720795
 20
195.8101814434005
 30
0.0
 40
3.199999999999988
  0
LINE
  5
47F1
330
1F
100
AcDbEntity
  8
0
  6
Continuous
 62
     7
370
    15
100
AcDbLine
 10
215.2326827803997
 20
196.6762070179059
 30
0.0
 11
213.7326825345305
 21
197.5422322385086
 31
0.0
  0
LINE
  5
47F2
330
1F
100
AcDbEntity
  8
0
  6
Continuous
 62
     7
370
    15
100
AcDbLine
 10
212.2326822886614
 20
196.6762070179059
 30
0.0
 11
213.7326825345305
 21
197.5422322385086
 31
0.0
  0
LINE
  5
47F3
330
1F
100
AcDbEntity
  8
0
  6
Continuous
 62
     7
370
    15
100
AcDbLine
 10
212.2326822886614
 20
194.9441561110391
 30
0.0
 11
212.2326822886614
 21
196.6762070179059
 31
0.0
  0
LINE
  5
47F4
330
1F
100
AcDbEntity
  8
0
  6
Continuous
 62
     7
370
    15
100
AcDbLine
 10
213.7326825345305
 20
194.0781306576057
 30
0.0
 11
212.2326822886614
 21
194.9441561110391
 31
0.0
  0
LINE
  5
47F5
330
1F
100
AcDbEntity
  8
0
  6
Continuous
 62
     7
370
    15
100
AcDbLine
 10
215.2326827803997
 20
194.9441561110391
 30
0.0
 11
213.7326825345305
 21
194.0781306576057
 31
0.0
  0
LINE
  5
47F6
330
1F
100
AcDbEntity
  8
0
  6
Continuous
 62
     7
370
    15
100
AcDbLine
 10
215.2326827803997
 20
196.6762070179059
 30
0.0
 11
215.2326827803997
 21
194.9441561110391
 31
0.0
  0
CIRCLE
  5
47F7
330
1F
100
AcDbEntity
  8
0
  6
Continuous
 62
     7
370
    15
100
AcDbCircle
 10
213.732682720795
 20
195.8101814434006
 30
0.0
 40
3.199999999999988
  0
LINE
  5
47F8
330
1F
100
AcDbEntity
  8
0
  6
Continuous
 62
     7
370
    15
100
AcDbLine
 10
240.2326831529287
 20
186.6762067757619
 30
0.0
 11
238.7326829070596
 21
187.5422322291953
 31
0.0
  0
LINE
  5
47F9
330
1F
100
AcDbEntity
  8
0
  6
Continuous
 62
     7
370
    15
100
AcDbLine
 10
237.2326826611904
 20
186.6762067757619
 30
0.0
 11
238.7326829070596
 21
187.5422322291953
 31
0.0
  0
LINE
  5
47FA
330
1F
100
AcDbEntity
  8
0
  6
Continuous
 62
     7
370
    15
100
AcDbLine
 10
237.2326826611904
 20
184.9441558688951
 30
0.0
 11
237.2326826611904
 21
186.6762067757619
 31
0.0
  0
LINE
  5
47FB
330
1F
100
AcDbEntity
  8
0
  6
Continuous
 62
     7
370
    15
100
AcDbLine
 10
238.7326829070596
 20
184.0781306482924
 30
0.0
 11
237.2326826611904
 21
184.9441558688951
 31
0.0
  0
LINE
  5
47FC
330
1F
100
AcDbEntity
  8
0
  6
Continuous
 62
     7
370
    15
100
AcDbLine
 10
240.2326831529287
 20
184.9441558688951
 30
0.0
 11
238.7326829070596
 21
184.0781306482924
 31
0.0
  0
LINE
  5
47FD
330
1F
100
AcDbEntity
  8
0
  6
Continuous
 62
     7
370
    15
100
AcDbLine
 10
240.2326831529287
 20
186.6762067757619
 30
0.0
 11
240.2326831529287
 21
184.9441558688951
 31
0.0
  0
CIRCLE
  5
47FE
330
1F
100
AcDbEntity
  8
0
  6
Continuous
 62
     7
370
    15
100
AcDbCircle
 10
238.7326827207949
 20
185.8101814434004
 30
0.0
 40
3.199999999999988
  0
CIRCLE
  5
47FF
330
1F
100
AcDbEntity
  8
0
  6
Continuous
 62
     7
370
    15
100
AcDbCircle
 10
213.732682720795
 20
185.8101814434005
 30
0.0
 40
3.449999999975261
  0
CIRCLE
  5
4800
330
1F
100
AcDbEntity
  8
0
  6
Continuous
 62
     7
370
    15
100
AcDbCircle
 10
213.732682720795
 20
195.8101814434006
 30
0.0
 40
3.449999999975318
  0
CIRCLE
  5
4801
330
1F
100
AcDbEntity
  8
0
  6
Continuous
 62
     7
370
    15
100
AcDbCircle
 10
238.732682720795
 20
195.8101814434005
 30
0.0
 40
3.449999999997999
  0
CIRCLE
  5
4802
330
1F
100
AcDbEntity
  8
0
  6
Continuous
 62
     7
370
    15
100
AcDbCircle
 10
238.732682720795
 20
185.8101814434004
 30
0.0
 40
3.449999999997999
  0
CIRCLE
  5
4803
330
1F
100
AcDbEntity
  8
0
  6
Continuous
 62
     7
370
    15
100
AcDbCircle
 10
215.232682720795
 20
179.8101814434005
 30
0.0
 40
2.650500000039755
  0
CIRCLE
  5
4804
330
1F
100
AcDbEntity
  8
0
  6
Continuous
 62
     7
370
    15
100
AcDbCircle
 10
215.232682720795
 20
201.8101814434006
 30
0.0
 40
2.650500000039755
  0
CIRCLE
  5
4805
330
1F
100
AcDbEntity
  8
0
  6
Continuous
 62
     7
370
    15
100
AcDbCircle
 10
237.232682720795
 20
201.8101814434005
 30
0.0
 40
2.650499999991552
  0
CIRCLE
  5
4806
330
1F
100
AcDbEntity
  8
0
  6
Continuous
 62
     7
370
    15
100
AcDbCircle
 10
237.2326827207949
 20
179.8101814434004
 30
0.0
 40
2.650499999991495
  0
LINE
  5
4807
330
1F
100
AcDbEntity
  8
0
  6
Continuous
 62
     7
370
    15
100
AcDbLine
 10
208.4826821396497
 20
180.0601810783221
 30
0.0
 11
208.4826821396497
 21
201.560181808479
 31
0.0
  0
ARC
  5
4808
330
1F
100
AcDbEntity
  8
0
  6
Continuous
 62
     7
370
    15
100
AcDbCircle
 10
215.482682720795
 20
201.5601814434006
 30
0.0
 40
7.0
100
AcDbArc
 50
90.0
 51
179.9999999999984
  0
LINE
  5
4809
330
1F
100
AcDbEntity
  8
0
  6
Continuous
 62
     7
370
    15
100
AcDbLine
 10
215.4826823557166
 20
208.5601820245458
 30
0.0
 11
223.0826827166972
 21
208.5601820245458
 31
0.0
  0
ARC
  5
480A
330
1F
100
AcDbEntity
  8
0
  6
Continuous
 62
     7
370
    15
100
AcDbCircle
 10
223.0826827207951
 20
208.0601814434006
 30
0.0
 40
0.5
100
AcDbArc
 50
0.0
 51
90.0
  0
LINE
  5
480B
330
1F
100
AcDbEntity
  8
0
  6
Continuous
 62
     7
370
    15
100
AcDbLine
 10
223.5826827986536
 20
208.0601810112668
 30
0.0
 11
223.5826827986536
 21
206.4101810202076
 31
0.0
  0
ARC
  5
480C
330
1F
100
AcDbEntity
  8
0
  6
Continuous
 62
     7
370
    15
100
AcDbCircle
 10
223.382682720795
 20
206.4101814434005
 30
0.0
 40
0.2000000000000455
100
AcDbArc
 50
270.0
 51
0.0
  0
LINE
  5
480D
330
1F
100
AcDbEntity
  8
0
  6
Continuous
 62
     7
370
    15
100
AcDbLine
 10
223.3826826727388
 20
206.210181359954
 30
0.0
 11
223.1326826317606
 21
206.210181359954
 31
0.0
  0
ARC
  5
480E
330
1F
100
AcDbEntity
  8
0
  6
Continuous
 62
     7
370
    15
100
AcDbCircle
 10
223.1326827207951
 20
206.0101814434005
 30
0.0
 40
0.1999999999999886
100
AcDbArc
 50
90.0
 51
180.0
  0
LINE
  5
480F
330
1F
100
AcDbEntity
  8
0
  6
Continuous
 62
     7
370
    15
100
AcDbLine
 10
222.9326827386764
 20
206.0101816997005
 30
0.0
 11
222.9326827386764
 21
203.0101812079622
 31
0.0
  0
ARC
  5
4810
330
1F
100
AcDbEntity
  8
0
  6
Continuous
 62
     7
370
    15
100
AcDbCircle
 10
223.1326827207951
 20
203.0101814434005
 30
0.0
 40
0.2000000000000455
100
AcDbArc
 50
180.0
 51
270.0
  0
LINE
  5
4811
330
1F
100
AcDbEntity
  8
0
  6
Continuous
 62
     7
370
    15
100
AcDbLine
 10
223.1326827269309
 20
202.8101814434005
 30
0.0
 11
229.3326828098295
 21
202.8101815477086
 31
0.0
  0
ARC
  5
4812
330
1F
100
AcDbEntity
  8
0
  6
Continuous
 62
     7
370
    15
100
AcDbCircle
 10
229.3326827207951
 20
203.0101814434005
 30
0.0
 40
0.1999999999999886
100
AcDbArc
 50
270.0
 51
0.0
  0
LINE
  5
4813
330
1F
100
AcDbEntity
  8
0
  6
Continuous
 62
     7
370
    15
100
AcDbLine
 10
229.5326827029136
 20
203.0101812079621
 30
0.0
 11
229.5326827029136
 21
206.0101816997005
 31
0.0
  0
ARC
  5
4814
330
1F
100
AcDbEntity
  8
0
  6
Continuous
 62
     7
370
    15
100
AcDbCircle
 10
229.3326827207951
 20
206.0101814434005
 30
0.0
 40
0.2000000000000455
100
AcDbArc
 50
0.0
 51
90.0
  0
LINE
  5
4815
330
1F
100
AcDbEntity
  8
0
  6
Continuous
 62
     7
370
    15
100
AcDbLine
 10
229.3326828098295
 20
206.210181359954
 30
0.0
 11
229.0826827688513
 21
206.210181359954
 31
0.0
  0
ARC
  5
4816
330
1F
100
AcDbEntity
  8
0
  6
Continuous
 62
     7
370
    15
100
AcDbCircle
 10
229.0826827207951
 20
206.4101814434005
 30
0.0
 40
0.2000000000000455
100
AcDbArc
 50
180.0
 51
270.0
  0
LINE
  5
4817
330
1F
100
AcDbEntity
  8
0
  6
Continuous
 62
     7
370
    15
100
AcDbLine
 10
228.8826826429365
 20
206.4101810202075
 30
0.0
 11
228.8826826429365
 21
208.0601810112668
 31
0.0
  0
ARC
  5
4818
330
1F
100
AcDbEntity
  8
0
  6
Continuous
 62
     7
370
    15
100
AcDbCircle
 10
229.382682720795
 20
208.0601814434005
 30
0.0
 40
0.5
100
AcDbArc
 50
90.0
 51
179.9999999999984
  0
LINE
  5
4819
330
1F
100
AcDbEntity
  8
0
  6
Continuous
 62
     7
370
    15
100
AcDbLine
 10
229.3826827248929
 20
208.5601820245458
 30
0.0
 11
236.9826830858735
 21
208.5601820245457
 31
0.0
  0
ARC
  5
481A
330
1F
100
AcDbEntity
  8
0
  6
Continuous
 62
     7
370
    15
100
AcDbCircle
 10
236.982682720795
 20
201.5601814434005
 30
0.0
 40
7.0
100
AcDbArc
 50
0.0
 51
90.0
  0
LINE
  5
481B
330
1F
100
AcDbEntity
  8
0
  6
Continuous
 62
     7
370
    15
100
AcDbLine
 10
243.9826833019403
 20
201.5601818084789
 30
0.0
 11
243.9826833019403
 21
180.060181078322
 31
0.0
  0
ARC
  5
481C
330
1F
100
AcDbEntity
  8
0
  6
Continuous
 62
     7
370
    15
100
AcDbCircle
 10
236.982682720795
 20
180.0601814434005
 30
0.0
 40
7.0
100
AcDbArc
 50
270.0
 51
0.0
  0
LINE
  5
481D
330
1F
100
AcDbEntity
  8
0
  6
Continuous
 62
     7
370
    15
100
AcDbLine
 10
236.9826830858734
 20
173.0601808622552
 30
0.0
 11
229.3826827248927
 21
173.0601808622552
 31
0.0
  0
ARC
  5
481E
330
1F
100
AcDbEntity
  8
0
  6
Continuous
 62
     7
370
    15
100
AcDbCircle
 10
229.3826827207949
 20
173.5601814434005
 30
0.0
 40
0.5
100
AcDbArc
 50
179.9999999999967
 51
270.0
  0
LINE
  5
481F
330
1F
100
AcDbEntity
  8
0
  6
Continuous
 62
     7
370
    15
100
AcDbLine
 10
228.8826826429363
 20
173.5601818755341
 30
0.0
 11
228.8826826429363
 21
175.2101818665934
 31
0.0
  0
ARC
  5
4820
330
1F
100
AcDbEntity
  8
0
  6
Continuous
 62
     7
370
    15
100
AcDbCircle
 10
229.0826827207949
 20
175.2101814434005
 30
0.0
 40
0.200000000000017
100
AcDbArc
 50
90.0
 51
180.0
  0
LINE
  5
4821
330
1F
100
AcDbEntity
  8
0
  6
Continuous
 62
     7
370
    15
100
AcDbLine
 10
229.0826827688511
 20
175.410181526847
 30
0.0
 11
229.3326828098293
 21
175.410181526847
 31
0.0
  0
ARC
  5
4822
330
1F
100
AcDbEntity
  8
0
  6
Continuous
 62
     7
370
    15
100
AcDbCircle
 10
229.3326827207949
 20
175.6101814434005
 30
0.0
 40
0.1999999999999886
100
AcDbArc
 50
270.0
 51
0.0
  0
LINE
  5
4823
330
1F
100
AcDbEntity
  8
0
  6
Continuous
 62
     7
370
    15
100
AcDbLine
 10
229.5326827029135
 20
175.6101811871005
 30
0.0
 11
229.5326827029136
 21
178.6101816788388
 31
0.0
  0
ARC
  5
4824
330
1F
100
AcDbEntity
  8
0
  6
Continuous
 62
     7
370
    15
100
AcDbCircle
 10
229.3326827207949
 20
178.6101814434005
 30
0.0
 40
0.1999999999999886
100
AcDbArc
 50
0.0
 51
90.0
  0
LINE
  5
4825
330
1F
100
AcDbEntity
  8
0
  6
Continuous
 62
     7
370
    15
100
AcDbLine
 10
229.3326828098295
 20
178.8101813390923
 30
0.0
 11
223.1326826317606
 21
178.8101813390924
 31
0.0
  0
ARC
  5
4826
330
1F
100
AcDbEntity
  8
0
  6
Continuous
 62
     7
370
    15
100
AcDbCircle
 10
223.132682720795
 20
178.6101814434005
 30
0.0
 40
0.200000000000017
100
AcDbArc
 50
90.0
 51
180.0
  0
LINE
  5
4827
330
1F
100
AcDbEntity
  8
0
  6
Continuous
 62
     7
370
    15
100
AcDbLine
 10
222.9326827386764
 20
178.6101816788388
 30
0.0
 11
222.9326827386763
 21
175.6101811871005
 31
0.0
  0
ARC
  5
4828
330
1F
100
AcDbEntity
  8
0
  6
Continuous
 62
     7
370
    15
100
AcDbCircle
 10
223.132682720795
 20
175.6101814434005
 30
0.0
 40
0.1999999999999886
100
AcDbArc
 50
179.9999999999984
 51
270.0
  0
LINE
  5
4829
330
1F
100
AcDbEntity
  8
0
  6
Continuous
 62
     7
370
    15
100
AcDbLine
 10
223.1326826317605
 20
175.410181526847
 30
0.0
 11
223.3826826727387
 21
175.410181526847
 31
0.0
  0
ARC
  5
482A
330
1F
100
AcDbEntity
  8
0
  6
Continuous
 62
     7
370
    15
100
AcDbCircle
 10
223.382682720795
 20
175.2101814434005
 30
0.0
 40
0.1999999999999886
100
AcDbArc
 50
0.0
 51
90.0
  0
LINE
  5
482B
330
1F
100
AcDbEntity
  8
0
  6
Continuous
 62
     7
370
    15
100
AcDbLine
 10
223.5826827986535
 20
175.2101818665935
 30
0.0
 11
223.5826827986535
 21
173.5601818755341
 31
0.0
  0
ARC
  5
482C
330
1F
100
AcDbEntity
  8
0
  6
Continuous
 62
     7
370
    15
100
AcDbCircle
 10
223.0826827207949
 20
173.5601814434005
 30
0.0
 40
0.5
100
AcDbArc
 50
270.0
 51
0.0
  0
LINE
  5
482D
330
1F
100
AcDbEntity
  8
0
  6
Continuous
 62
     7
370
    15
100
AcDbLine
 10
223.0826827166971
 20
173.0601808622552
 30
0.0
 11
215.4826823557165
 21
173.0601808622552
 31
0.0
  0
ARC
  5
482E
330
1F
100
AcDbEntity
  8
0
  6
Continuous
 62
     7
370
    15
100
AcDbCircle
 10
215.4826827207949
 20
180.0601814434005
 30
0.0
 40
7.0
100
AcDbArc
 50
179.9999999999984
 51
270.0
  0
CIRCLE
  5
482F
330
1F
100
AcDbEntity
  8
0
  6
Continuous
 62
     7
370
    15
100
AcDbCircle
 10
215.232682720795
 20
179.8101814434005
 30
0.0
 40
2.150500000051579
  0
CIRCLE
  5
4830
330
1F
100
AcDbEntity
  8
0
  6
Continuous
 62
     7
370
    15
100
AcDbCircle
 10
215.232682720795
 20
201.8101814434006
 30
0.0
 40
2.150500000051579
  0
CIRCLE
  5
4831
330
1F
100
AcDbEntity
  8
0
  6
Continuous
 62
     7
370
    15
100
AcDbCircle
 10
237.2326827207949
 20
179.8101814434004
 30
0.0
 40
2.150500000003376
  0
CIRCLE
  5
4832
330
1F
100
AcDbEntity
  8
0
  6
Continuous
 62
     7
370
    15
100
AcDbCircle
 10
237.232682720795
 20
201.8101814434005
 30
0.0
 40
2.150500000003319
  0
SPLINE
  5
4833
330
1F
100
AcDbEntity
  8
0
  6
Continuous
 62
     7
370
    15
100
AcDbSpline
210
0.0
220
0.0
230
1.0
 70
    24
 71
     1
 72
     4
 73
     2
 74
     0
 42
0.0000000001
 43
0.0000000001
 40
0.0
 40
0.0
 40
1.0
 40
1.0
 10
114.6092321585502
 20
85.90918578657866
 30
0.0
 10
113.7432064722861
 20
85.40918570462228
 30
0.0
  0
SPLINE
  5
4834
330
1F
100
AcDbEntity
  8
0
  6
Continuous
 62
     7
370
    15
100
AcDbSpline
210
0.0
220
0.0
230
1.0
 70
    24
 71
     1
 72
     4
 73
     2
 74
     0
 42
0.0000000001
 43
0.0000000001
 40
0.0
 40
0.0
 40
1.0
 40
1.0
 10
113.7432064722861
 20
76.40918609205247
 30
0.0
 10
114.6092321585502
 20
75.90918601009608
 30
0.0
  0
LINE
  5
4835
330
1F
100
AcDbEntity
  8
0
  6
Continuous
 62
     7
370
    15
100
AcDbLine
 10
114.6092321585502
 20
77.9091858722603
 30
0.0
 11
114.6092321585502
 21
75.90918601009608
 31
0.0
  0
LINE
  5
4836
330
1F
100
AcDbEntity
  8
0
  6
Continuous
 62
     7
370
    15
100
AcDbLine
 10
117.7432064294453
 20
77.9091858722603
 30
0.0
 11
114.6092321585502
 21
77.9091858722603
 31
0.0
  0
ARC
  5
4837
330
1F
100
AcDbEntity
  8
0
  6
Continuous
 62
     7
370
    15
100
AcDbCircle
 10
113.7432065244402
 20
80.90918589833737
 30
0.0
 40
5.000000000000023
100
AcDbArc
 50
323.1301023541566
 51
36.86989764584338
  0
LINE
  5
4838
330
1F
100
AcDbEntity
  8
0
  6
Continuous
 62
     7
370
    15
100
AcDbLine
 10
114.6092321585502
 20
83.90918592441437
 30
0.0
 11
117.7432064294453
 21
83.90918592441437
 31
0.0
  0
LINE
  5
4839
330
1F
100
AcDbEntity
  8
0
  6
Continuous
 62
     7
370
    15
100
AcDbLine
 10
114.6092321585502
 20
85.90918578657866
 30
0.0
 11
114.6092321585502
 21
83.90918592441437
 31
0.0
  0
LINE
  5
483A
330
1F
100
AcDbEntity
  8
0
  6
Continuous
 62
     7
370
    15
100
AcDbLine
 10
117.7432064294453
 20
83.90918592441437
 30
0.0
 11
117.7432064294453
 21
77.9091858722603
 31
0.0
  0
SPLINE
  5
483B
330
1F
100
AcDbEntity
  8
0
  6
Continuous
 62
     7
370
    15
100
AcDbSpline
210
0.0
220
0.0
230
1.0
 70
     8
 71
     3
 72
     9
 73
     5
 74
     0
 42
0.0000000001
 43
0.0000000001
 40
0.0
 40
0.0
 40
0.0
 40
0.0
 40
0.4987668164956883
 40
1.0
 40
1.0
 40
1.0
 40
1.0
 10
113.7432064722861
 20
82.97073873210308
 30
0.0
 10
113.8794416133841
 20
83.13390834339145
 30
0.0
 10
114.1525855688202
 20
83.46105442827886
 30
0.0
 10
114.4567665546575
 20
83.75956334818528
 30
0.0
 10
114.6092321585502
 20
83.90918592441437
 30
0.0
  0
SPLINE
  5
483C
330
1F
100
AcDbEntity
  8
0
  6
Continuous
 62
     7
370
    15
100
AcDbSpline
210
0.0
220
0.0
230
1.0
 70
     8
 71
     3
 72
     9
 73
     5
 74
     0
 42
0.0000000001
 43
0.0000000001
 40
0.0
 40
0.0
 40
0.0
 40
0.0
 40
0.499019077836997
 40
1.0
 40
1.0
 40
1.0
 40
1.0
 10
114.6092321585502
 20
77.9091858722603
 30
0.0
 10
114.4574335734561
 20
78.05813944908146
 30
0.0
 10
114.1532396220906
 20
78.35663219903162
 30
0.0
 10
113.8800628323326
 20
78.68375218989228
 30
0.0
 10
113.7432064722861
 20
78.84763306457159
 30
0.0
  0
LINE
  5
49DF
102
{ACAD_REACTORS
330
3BED
102
}
330
1F
100
AcDbEntity
  8
CENTER
 48
0.8
100
AcDbLine
 10
213.732682720795
 20
191.1022782396503
 30
0.0
 11
213.732682720795
 21
200.5180846471508
 31
0.0
  0
LINE
  5
49E0
330
1F
100
AcDbEntity
  8
CENTER
 48
0.8
100
AcDbLine
 10
218.4405859245452
 20
195.8101814434005
 30
0.0
 11
209.0247795170448
 21
195.8101814434005
 31
0.0
  0
LINE
  5
49E1
102
{ACAD_REACTORS
330
3BED
102
}
330
1F
100
AcDbEntity
  8
CENTER
 48
0.8
100
AcDbLine
 10
238.732682720795
 20
191.1022782396502
 30
0.0
 11
238.732682720795
 21
200.5180846471507
 31
0.0
  0
LINE
  5
49E2
330
1F
100
AcDbEntity
  8
CENTER
 48
0.8
100
AcDbLine
 10
243.4405859245452
 20
195.8101814434004
 30
0.0
 11
234.0247795170448
 21
195.8101814434004
 31
0.0
  0
LINE
  5
49E3
102
{ACAD_REACTORS
330
3BED
102
}
330
1F
100
AcDbEntity
  8
CENTER
 48
0.8
100
AcDbLine
 10
238.7326827207949
 20
181.1022782396502
 30
0.0
 11
238.7326827207949
 21
190.5180846471507
 31
0.0
  0
LINE
  5
49E4
330
1F
100
AcDbEntity
  8
CENTER
 48
0.8
100
AcDbLine
 10
243.4405859245451
 20
185.8101814434004
 30
0.0
 11
234.0247795170447
 21
185.8101814434004
 31
0.0
  0
LINE
  5
49E5
102
{ACAD_REACTORS
330
3BED
102
}
330
1F
100
AcDbEntity
  8
CENTER
 48
0.8
100
AcDbLine
 10
213.732682720795
 20
181.1022782396503
 30
0.0
 11
213.732682720795
 21
190.5180846471507
 31
0.0
  0
LINE
  5
49E6
330
1F
100
AcDbEntity
  8
CENTER
 48
0.8
100
AcDbLine
 10
218.4405859245452
 20
185.8101814434005
 30
0.0
 11
209.0247795170448
 21
185.8101814434005
 31
0.0
  0
LINE
  5
49E7
102
{ACAD_REACTORS
330
3BED
102
}
330
1F
100
AcDbEntity
  8
CENTER
 48
0.8
100
AcDbLine
 10
154.74320652444
 20
186.1022782396502
 30
0.0
 11
154.74320652444
 21
195.5180846471506
 31
0.0
  0
LINE
  5
49E8
330
1F
100
AcDbEntity
  8
CENTER
 48
0.8
100
AcDbLine
 10
159.4511097281902
 20
190.8101814434003
 30
0.0
 11
150.0353033206898
 21
190.8101814434003
 31
0.0
  0
LINE
  5
49E9
102
{ACAD_REACTORS
330
3BED
102
}
330
1F
100
AcDbEntity
  8
CENTER
 48
0.8
100
AcDbLine
 10
126.74320652444
 20
186.1022782396503
 30
0.0
 11
126.74320652444
 21
195.5180846471507
 31
0.0
  0
LINE
  5
49EA
330
1F
100
AcDbEntity
  8
CENTER
 48
0.8
100
AcDbLine
 10
131.4511097281902
 20
190.8101814434004
 30
0.0
 11
122.0353033206898
 21
190.8101814434004
 31
0.0
  0
LINE
  5
49EB
102
{ACAD_REACTORS
330
3BED
102
}
330
1F
100
AcDbEntity
  8
CENTER
 48
0.8
100
AcDbLine
 10
126.7432065244402
 20
76.20128269458712
 30
0.0
 11
126.7432065244402
 21
85.61708910208755
 31
0.0
  0
LINE
  5
49EC
330
1F
100
AcDbEntity
  8
CENTER
 48
0.8
100
AcDbLine
 10
131.4511097281905
 20
80.90918589833728
 30
0.0
 11
122.03530332069
 21
80.90918589833728
 31
0.0
  0
LINE
  5
49ED
102
{ACAD_REACTORS
330
3BED
102
}
330
1F
100
AcDbEntity
  8
CENTER
 48
0.8
100
AcDbLine
 10
154.7432065244402
 20
76.20128269458703
 30
0.0
 11
154.7432065244402
 21
85.61708910208748
 31
0.0
  0
LINE
  5
49EE
330
1F
100
AcDbEntity
  8
CENTER
 48
0.8
100
AcDbLine
 10
159.4511097281905
 20
80.90918589833719
 30
0.0
 11
150.03530332069
 21
80.90918589833719
 31
0.0
  0
LINE
  5
49EF
102
{ACAD_REACTORS
330
3BED
102
}
330
1F
100
AcDbEntity
  8
CENTER
 48
0.8
100
AcDbLine
 10
215.2326827207953
 20
87.20128269458724
 30
0.0
 11
215.2326827207953
 21
96.61708910208767
 31
0.0
  0
LINE
  5
49F0
330
1F
100
AcDbEntity
  8
CENTER
 48
0.8
100
AcDbLine
 10
219.9405859245455
 20
91.9091858983374
 30
0.0
 11
210.5247795170451
 21
91.9091858983374
 31
0.0
  0
LINE
  5
49F1
102
{ACAD_REACTORS
330
3BED
102
}
330
1F
100
AcDbEntity
  8
CENTER
 48
0.8
100
AcDbLine
 10
213.7326827207952
 20
81.20128269458726
 30
0.0
 11
213.7326827207952
 21
90.6170891020877
 31
0.0
  0
LINE
  5
49F2
330
1F
100
AcDbEntity
  8
CENTER
 48
0.8
100
AcDbLine
 10
218.4405859245454
 20
85.90918589833743
 30
0.0
 11
209.024779517045
 21
85.90918589833743
 31
0.0
  0
LINE
  5
49F3
102
{ACAD_REACTORS
330
3BED
102
}
330
1F
100
AcDbEntity
  8
CENTER
 48
0.8
100
AcDbLine
 10
213.7326827207952
 20
71.20128269458724
 30
0.0
 11
213.7326827207952
 21
80.61708910208768
 31
0.0
  0
LINE
  5
49F4
330
1F
100
AcDbEntity
  8
CENTER
 48
0.8
100
AcDbLine
 10
218.4405859245454
 20
75.9091858983374
 30
0.0
 11
209.024779517045
 21
75.9091858983374
 31
0.0
  0
LINE
  5
49F5
102
{ACAD_REACTORS
330
3BED
102
}
330
1F
100
AcDbEntity
  8
CENTER
 48
0.8
100
AcDbLine
 10
215.2326827207952
 20
65.20128269458723
 30
0.0
 11
215.2326827207952
 21
74.61708910208767
 31
0.0
  0
LINE
  5
49F6
330
1F
100
AcDbEntity
  8
CENTER
 48
0.8
100
AcDbLine
 10
219.9405859245454
 20
69.90918589833739
 30
0.0
 11
210.524779517045
 21
69.90918589833739
 31
0.0
  0
LINE
  5
49F7
102
{ACAD_REACTORS
330
3BED
102
}
330
1F
100
AcDbEntity
  8
CENTER
 48
0.8
100
AcDbLine
 10
237.2326827207952
 20
65.20128269458715
 30
0.0
 11
237.2326827207952
 21
74.61708910208759
 31
0.0
  0
LINE
  5
49F8
330
1F
100
AcDbEntity
  8
CENTER
 48
0.8
100
AcDbLine
 10
241.9405859245454
 20
69.90918589833731
 30
0.0
 11
232.524779517045
 21
69.90918589833731
 31
0.0
  0
LINE
  5
49F9
102
{ACAD_REACTORS
330
3BED
102
}
330
1F
100
AcDbEntity
  8
CENTER
 48
0.8
100
AcDbLine
 10
238.7326827207952
 20
71.20128269458715
 30
0.0
 11
238.7326827207952
 21
80.61708910208759
 31
0.0
  0
LINE
  5
49FA
330
1F
100
AcDbEntity
  8
CENTER
 48
0.8
100
AcDbLine
 10
243.4405859245454
 20
75.90918589833731
 30
0.0
 11
234.024779517045
 21
75.90918589833731
 31
0.0
  0
LINE
  5
49FB
102
{ACAD_REACTORS
330
3BED
102
}
330
1F
100
AcDbEntity
  8
CENTER
 48
0.8
100
AcDbLine
 10
238.7326827207952
 20
81.20128269458717
 30
0.0
 11
238.7326827207952
 21
90.61708910208762
 31
0.0
  0
LINE
  5
49FC
330
1F
100
AcDbEntity
  8
CENTER
 48
0.8
100
AcDbLine
 10
243.4405859245454
 20
85.90918589833734
 30
0.0
 11
234.024779517045
 21
85.90918589833734
 31
0.0
  0
LINE
  5
49FD
102
{ACAD_REACTORS
330
3BED
102
}
330
1F
100
AcDbEntity
  8
CENTER
 48
0.8
100
AcDbLine
 10
237.2326827207953
 20
87.20128269458717
 30
0.0
 11
237.2326827207953
 21
96.61708910208762
 31
0.0
  0
LINE
  5
49FE
330
1F
100
AcDbEntity
  8
CENTER
 48
0.8
100
AcDbLine
 10
241.9405859245455
 20
91.90918589833733
 30
0.0
 11
232.5247795170451
 21
91.90918589833733
 31
0.0
  0
LINE
  5
49FF
330
1F
100
AcDbEntity
  8
CENTER
 48
0.8
100
AcDbLine
 10
207.5654597923722
 20
80.90918589833734
 30
0.0
 11
244.8999056492184
 21
80.90918589833734
 31
0.0
  0
LINE
  5
4A00
330
1F
100
AcDbEntity
  8
CENTER
 48
0.8
100
AcDbLine
 10
226.2326827207953
 20
62.24196296991419
 30
0.0
 11
226.2326827207953
 21
99.57640882676049
 31
0.0
  0
ARC
  5
4A01
330
1F
100
AcDbEntity
  8
0
 62
     3
100
AcDbCircle
 10
215.232682720795
 20
201.8101814434006
 30
0.0
 40
2.386484388181064
100
AcDbArc
 50
350.0000000000014
 51
279.9999999999986
  0
ARC
  5
4A02
330
1F
100
AcDbEntity
  8
0
 62
     3
100
AcDbCircle
 10
237.232682720795
 20
201.8101814434006
 30
0.0
 40
2.386484388181064
100
AcDbArc
 50
350.0000000000014
 51
279.9999999999986
  0
ARC
  5
4A03
330
1F
100
AcDbEntity
  8
0
 62
     3
100
AcDbCircle
 10
237.2326827207949
 20
179.8101814434005
 30
0.0
 40
2.386484388181064
100
AcDbArc
 50
350.0000000000014
 51
279.9999999999986
  0
ARC
  5
4A04
330
1F
100
AcDbEntity
  8
0
 62
     3
100
AcDbCircle
 10
215.232682720795
 20
179.8101814434006
 30
0.0
 40
2.386484388181064
100
AcDbArc
 50
350.0000000000014
 51
279.9999999999986
  0
ARC
  5
4A05
330
1F
100
AcDbEntity
  8
0
 62
     3
100
AcDbCircle
 10
237.2326827207953
 20
91.90918589833733
 30
0.0
 40
2.386484388181064
100
AcDbArc
 50
350.0000000000014
 51
279.9999999999986
  0
ARC
  5
4A06
330
1F
100
AcDbEntity
  8
0
 62
     3
100
AcDbCircle
 10
215.2326827207953
 20
91.90918589833746
 30
0.0
 40
2.386484388181064
100
AcDbArc
 50
350.0000000000014
 51
279.9999999999986
  0
ARC
  5
4A07
330
1F
100
AcDbEntity
  8
0
 62
     3
100
AcDbCircle
 10
215.2326827207952
 20
69.90918589833739
 30
0.0
 40
2.386484388181064
100
AcDbArc
 50
350.0000000000014
 51
279.9999999999986
  0
ARC
  5
4A08
330
1F
100
AcDbEntity
  8
0
 62
     3
100
AcDbCircle
 10
237.2326827207952
 20
69.90918589833737
 30
0.0
 40
2.386484388181064
100
AcDbArc
 50
350.0000000000014
 51
279.9999999999986
  0
ARC
  5
4A09
330
1F
100
AcDbEntity
  8
0
 62
     3
100
AcDbCircle
 10
226.2326827207951
 20
190.8101814434006
 30
0.0
 40
3.442075145056735
100
AcDbArc
 50
350.0000000000014
 51
279.9999999999986
  0
ARC
  5
4A0A
330
1F
100
AcDbEntity
  8
0
 62
     3
100
AcDbCircle
 10
226.2326827207953
 20
80.90918589833734
 30
0.0
 40
2.643797725260188
100
AcDbArc
 50
350.0000000000014
 51
279.9999999999986
  0
DIMENSION
  5
4AD5
330
1F
100
AcDbEntity
  8
DIM
100
AcDbDimension
  2
*D10
 10
119.74320652444
 20
223.4503853367412
 30
0.0
 11
116.743206498363
 21
225.4503853367412
 31
0.0
 70
    32
 71
     5
 42
6.000000052154064
  3
AM_ANSI
100
AcDbAlignedDimension
 13
113.7432064722859
 23
195.3101812496854
 33
0.0
 14
119.74320652444
 24
208.0601810112668
 34
0.0
100
AcDbRotatedDimension
1001
ACAD
1000
DSTYLE
1002
{
1070
    41
1040
2.0
1070
    42
1040
1.5
1070
    43
1040
8.0
1070
    44
1040
1.5
1070
    73
1070
     0
1070
    74
1070
     0
1070
    77
1070
     3
1070
   140
1040
2.0
1070
   141
1040
3.0
1070
   146
1040
0.6
1070
   147
1040
1.0
1070
   172
1070
     1
1070
   178
1070
   256
1070
   272
1070
     8
1070
   274
1070
     2
1070
   340
1005
29C5
1002
}
  0
LINE
  5
4AFB
330
1F
100
AcDbEntity
  8
AM_7
  6
ACISOTGB
 62
     2
100
AcDbLine
 10
140.7432062413182
 20
210.5067735225648
 30
0.0
 11
140.7432062413182
 21
165.1317009295012
 31
0.0
1001
GENIUS_GENOBJ-N-CEN_13
1002
{
1000
OWNER
1000
GEN
1002
}
1001
GENIUS_GENODEF_13
1002
{
1000
HIER
1070
     0
1002
}
1002
{
1000
MANEDIT
1070
     0
1002
}
1002
{
1000
NOSEL
1070
     0
1002
}
1002
{
1000
BEHIND
1070
     0
1002
}
1002
{
1000
OTHER
1070
     0
1002
}
1002
{
1000
REACTOR
1002
}
1001
GENIUS_GENCEN_19
1002
{
1040
3.0
1002
}
  0
INSERT
  5
4AFC
330
1F
100
AcDbEntity
  8
0
100
AcDbBlockReference
  2
A$C1F6E6265
 10
140.7432057771116
 20
166.297520240759
 30
0.0
  0
LINE
  5
4AFD
330
1F
100
AcDbEntity
  8
AM_7
  6
ACISOTGB
 62
     2
100
AcDbLine
 10
140.7432062413181
 20
100.6057779775016
 30
0.0
 11
140.7432062413181
 21
55.23070538443803
 31
0.0
1001
GENIUS_GENOBJ-N-CEN_13
1002
{
1000
OWNER
1000
GEN
1002
}
1001
GENIUS_GENODEF_13
1002
{
1000
HIER
1070
     0
1002
}
1002
{
1000
MANEDIT
1070
     0
1002
}
1002
{
1000
NOSEL
1070
     0
1002
}
1002
{
1000
BEHIND
1070
     0
1002
}
1002
{
1000
OTHER
1070
     0
1002
}
1002
{
1000
REACTOR
1002
}
1001
GENIUS_GENCEN_19
1002
{
1040
3.0
1002
}
  0
INSERT
  5
4AFE
330
1F
100
AcDbEntity
  8
0
100
AcDbBlockReference
  2
A$C1F6E6265
 10
140.7432057771116
 20
56.39652469569583
 30
0.0
  0
DIMENSION
  5
4AFF
330
1F
100
AcDbEntity
  8
DIM
100
AcDbDimension
  2
*D11
 10
237.2326827207953
 20
104.2057630032134
 30
0.0
 11
226.2326827207953
 21
106.2057630032134
 31
0.0
 70
    32
  1
□<>
 71
     5
 42
22.0
  3
AM_ANSI
100
AcDbAlignedDimension
 13
215.2326827207953
 23
96.61708910208767
 33
0.0
 14
237.2326827207953
 24
96.61708910208762
 34
0.0
100
AcDbRotatedDimension
1001
ACAD
1000
DSTYLE
1002
{
1070
    41
1040
2.0
1070
    42
1040
1.5
1070
    43
1040
8.0
1070
    44
1040
1.5
1070
    73
1070
     0
1070
    74
1070
     0
1070
    77
1070
     3
1070
   140
1040
2.0
1070
   141
1040
3.0
1070
   146
1040
0.6
1070
   147
1040
1.0
1070
   172
1070
     1
1070
   178
1070
   256
1070
   272
1070
     8
1070
   274
1070
     2
1070
   340
1005
29C5
1002
}
  0
DIMENSION
  5
4B00
330
1F
100
AcDbEntity
  8
DIM
100
AcDbDimension
  2
*D12
 10
243.9826833019406
 20
110.3928777795877
 30
0.0
 11
226.2326827207949
 21
112.3928777795877
 31
0.0
 70
    32
  1
□<>
 71
     5
 42
35.50000116229126
  3
AM_ANSI
100
AcDbAlignedDimension
 13
208.4826821396494
 23
91.65918626341508
 33
0.0
 14
243.9826833019406
 24
91.65918626341577
 34
0.0
100
AcDbRotatedDimension
1001
ACAD
1000
DSTYLE
1002
{
1070
    41
1040
2.0
1070
    42
1040
1.5
1070
    43
1040
8.0
1070
    44
1040
1.5
1070
    73
1070
     0
1070
    74
1070
     0
1070
    77
1070
     3
1070
   140
1040
2.0
1070
   141
1040
3.0
1070
   146
1040
0.6
1070
   147
1040
1.0
1070
   172
1070
     1
1070
   178
1070
   256
1070
   272
1070
     8
1070
   274
1070
     2
1070
   340
1005
29C5
1002
}
  0
TEXT
  5
4B59
330
1F
100
AcDbEntity
  8
0
100
AcDbText
 10
63.1429941861985
 20
245.1498167362152
 30
0.0
 40
4.0
  1
Stroke=5
  7
CHINESET
100
AcDbText
  0
TEXT
  5
4B5B
330
1F
100
AcDbEntity
  8
0
100
AcDbText
 10
63.1429941861985
 20
136.1538015981524
 30
0.0
 40
4.0
  1
Stroke=5
  7
CHINESET
100
AcDbText
  0
DIMENSION
  5
4BFF
330
1F
100
AcDbEntity
  8
DIM
100
AcDbDimension
  2
*D13
 10
243.982682720795
 20
220.2938736897292
 30
0.0
 11
226.2326821396494
 21
222.2938736897292
 31
0.0
 70
    32
  1
□<>
 71
     5
 42
35.50000116229126
  3
AM_ANSI
100
AcDbAlignedDimension
 13
208.4826815585038
 23
201.5601821735566
 33
0.0
 14
243.982682720795
 24
201.5601821735573
 34
0.0
100
AcDbRotatedDimension
1001
ACAD
1000
DSTYLE
1002
{
1070
    41
1040
2.0
1070
    42
1040
1.5
1070
    43
1040
8.0
1070
    44
1040
1.5
1070
    73
1070
     0
1070
    74
1070
     0
1070
    77
1070
     3
1070
   140
1040
2.0
1070
   141
1040
3.0
1070
   146
1040
0.6
1070
   147
1040
1.0
1070
   172
1070
     1
1070
   178
1070
   256
1070
   272
1070
     8
1070
   274
1070
     2
1070
   340
1005
29C5
1002
}
  0
ARC
  5
4C2B
330
1F
100
AcDbEntity
  8
0
 62
     3
100
AcDbCircle
 10
154.74320652444
 20
190.8101814434004
 30
0.0
 40
2.5
100
AcDbArc
 50
344.4632242434407
 51
243.3773293786605
  0
ARC
  5
4C2C
330
1F
100
AcDbEntity
  8
0
 62
     3
100
AcDbCircle
 10
126.74320652444
 20
190.8101814434005
 30
0.0
 40
2.5
100
AcDbArc
 50
344.4632242434407
 51
243.3773293786605
  0
MTEXT
  5
4C30
330
1F
100
AcDbEntity
  8
DIM
100
AcDbMText
 10
177.3823010669578
 20
181.8775124361999
 30
0.0
 40
2.0
 41
0.0
 71
     9
 72
     1
  1
2-M5*0.8
  7
dayus
 73
     1
 44
1.0
1001
ACAD
1000
MTEXTBEGIN
1070
    73
1070
     1
1070
    44
1040
1.0
1070
    74
1070
     0
1000
MTEXTEND
  0
SOLID
  5
4C31
330
1F
100
AcDbEntity
  8
DIM
100
AcDbTrace
 10
156.9767782938168
 20
187.2349416997788
 30
0.0
 11
156.8937065244675
 21
189.2608267390267
 31
0.0
 12
157.6293317244188
 22
187.3713911946622
 32
0.0
 13
157.6293317244188
 23
187.3713911946622
 33
0.0
1001
ACAD
1000
DSTYLE
1002
{
1070
    41
1040
2.0
1070
    42
1040
1.5
1070
    43
1040
8.0
1070
    44
1040
1.5
1070
    73
1070
     0
1070
    74
1070
     0
1070
    77
1070
     2
1070
   140
1040
2.0
1070
   141
1040
3.0
1070
   146
1040
0.6
1070
   147
1040
1.0
1070
   172
1070
     1
1070
   178
1070
   256
1070
   272
1070
     2
1070
   274
1070
     2
1070
   340
1005
29C5
1002
}
  0
LWPOLYLINE
  5
4C32
330
1F
100
AcDbEntity
  8
DIM
100
AcDbPolyline
 90
        3
 70
     0
 43
0.0
 10
157.3030550091178
 20
187.3031664472205
 10
158.5885897661041
 20
181.1552498386153
 10
177.7497730696295
 20
181.1552498386153
1001
ACAD
1000
DSTYLE
1002
{
1070
    41
1040
2.0
1070
    42
1040
1.5
1070
    43
1040
8.0
1070
    44
1040
1.5
1070
    73
1070
     0
1070
    74
1070
     0
1070
    77
1070
     2
1070
   140
1040
2.0
1070
   141
1040
3.0
1070
   146
1040
0.6
1070
   147
1040
1.0
1070
   172
1070
     1
1070
   178
1070
   256
1070
   272
1070
     2
1070
   274
1070
     2
1070
   340
1005
29C5
1002
}
  0
LINE
  5
4C34
330
1F
100
AcDbEntity
  8
CENTER
 48
1.3
100
AcDbLine
 10
95.04672151594332
 20
190.8101814434003
 30
0.0
 11
165.5535031727893
 21
190.8101814434003
 31
0.0
  0
ARC
  5
4C35
330
1F
100
AcDbEntity
  8
0
 62
     3
100
AcDbCircle
 10
154.7432065244402
 20
80.90918589833725
 30
0.0
 40
2.5
100
AcDbArc
 50
344.4632242434407
 51
243.3773293786605
  0
ARC
  5
4C36
330
1F
100
AcDbEntity
  8
0
 62
     3
100
AcDbCircle
 10
126.7432065244402
 20
80.90918589833734
 30
0.0
 40
2.5
100
AcDbArc
 50
344.4632242434407
 51
243.3773293786605
  0
LINE
  5
4C37
330
1F
100
AcDbEntity
  8
CENTER
 48
1.3
100
AcDbLine
 10
109.234231321544
 20
80.90918589833719
 30
0.0
 11
165.5535031727895
 21
80.90918589833719
 31
0.0
  0
SOLID
  5
4C38
330
1F
100
AcDbEntity
  8
DIM
100
AcDbTrace
 10
156.9767782938169
 20
77.33394615471562
 30
0.0
 11
156.8937065244677
 21
79.35983119396349
 31
0.0
 12
157.629331724419
 22
77.47039564959905
 32
0.0
 13
157.629331724419
 23
77.47039564959905
 33
0.0
1001
ACAD
1000
DSTYLE
1002
{
1070
    41
1040
2.0
1070
    42
1040
1.5
1070
    43
1040
8.0
1070
    44
1040
1.5
1070
    73
1070
     0
1070
    74
1070
     0
1070
    77
1070
     2
1070
   140
1040
2.0
1070
   141
1040
3.0
1070
   146
1040
0.6
1070
   147
1040
1.0
1070
   172
1070
     1
1070
   178
1070
   256
1070
   272
1070
     2
1070
   274
1070
     2
1070
   340
1005
29C5
1002
}
  0
LWPOLYLINE
  5
4C39
330
1F
100
AcDbEntity
  8
DIM
100
AcDbPolyline
 90
        3
 70
     0
 43
0.0
 10
157.303055009118
 20
77.40217090215733
 10
158.5885897661043
 20
71.25425429355209
 10
177.7497730696297
 20
71.25425429355209
1001
ACAD
1000
DSTYLE
1002
{
1070
    41
1040
2.0
1070
    42
1040
1.5
1070
    43
1040
8.0
1070
    44
1040
1.5
1070
    73
1070
     0
1070
    74
1070
     0
1070
    77
1070
     2
1070
   140
1040
2.0
1070
   141
1040
3.0
1070
   146
1040
0.6
1070
   147
1040
1.0
1070
   172
1070
     1
1070
   178
1070
   256
1070
   272
1070
     2
1070
   274
1070
     2
1070
   340
1005
29C5
1002
}
  0
MTEXT
  5
4C3A
330
1F
100
AcDbEntity
  8
DIM
100
AcDbMText
 10
177.382301066958
 20
71.97651689113673
 30
0.0
 40
2.0
 41
0.0
 71
     9
 72
     1
  1
2-M5*0.8
  7
dayus
 73
     1
 44
1.0
1001
ACAD
1000
MTEXTBEGIN
1070
    73
1070
     1
1070
    44
1040
1.0
1070
    74
1070
     0
1000
MTEXTEND
  0
DIMENSION
  5
4C4A
330
1F
100
AcDbEntity
  8
DIM
100
AcDbDimension
  2
*D14
 10
230.2326829107851
 20
57.29426970354544
 30
0.0
 11
226.2326827207953
 21
59.29426970354544
 31
0.0
 70
    32
 71
     5
 42
8.00000037997961
  3
AM_ANSI
100
AcDbAlignedDimension
 13
222.2326825308055
 23
77.90918587226028
 33
0.0
 14
230.2326829107851
 24
77.90918587226039
 34
0.0
 50
0.0000000000001018
100
AcDbRotatedDimension
1001
ACAD
1000
DSTYLE
1002
{
1070
    41
1040
2.0
1070
    42
1040
1.5
1070
    43
1040
8.0
1070
    44
1040
1.5
1070
    73
1070
     0
1070
    74
1070
     0
1070
    77
1070
     3
1070
   140
1040
2.0
1070
   141
1040
3.0
1070
   146
1040
0.6
1070
   147
1040
1.0
1070
   172
1070
     1
1070
   178
1070
   256
1070
   272
1070
     8
1070
   274
1070
     2
1070
   340
1005
29C5
1002
}
  0
DIMENSION
  5
4C7B
330
1F
100
AcDbEntity
  8
DIM
100
AcDbDimension
  2
*D15
 10
113.7432064722859
 20
223.4503853367411
 30
0.0
 11
105.7432065579676
 21
225.4503853367411
 31
0.0
 70
    32
 71
     5
 42
15.9999998286367
  3
AM_ANSI
100
AcDbAlignedDimension
 13
97.74320664364928
 23
193.8101814694776
 33
0.0
 14
113.7432064722859
 24
195.3101812496854
 34
0.0
100
AcDbRotatedDimension
1001
ACAD
1000
DSTYLE
1002
{
1070
    41
1040
2.0
1070
    42
1040
1.5
1070
    43
1040
8.0
1070
    44
1040
1.5
1070
    73
1070
     0
1070
    74
1070
     0
1070
    77
1070
     3
1070
   140
1040
2.0
1070
   141
1040
3.0
1070
   146
1040
0.6
1070
   147
1040
1.0
1070
   172
1070
     1
1070
   178
1070
   256
1070
   272
1070
     8
1070
   274
1070
     2
1070
   340
1005
29C5
1002
}
  0
DIMENSION
  5
4CAC
330
1F
100
AcDbEntity
  8
DIM
100
AcDbDimension
  2
*D16
 10
130.7432064648354
 20
217.5241411253726
 30
0.0
 11
125.2432064946377
 21
219.5241411253726
 31
0.0
 70
    32
 71
     5
 42
10.99999994039535
  3
AM_ANSI
100
AcDbAlignedDimension
 13
119.74320652444
 23
208.5601820245457
 33
0.0
 14
130.7432064648354
 24
208.5601820245458
 34
0.0
100
AcDbRotatedDimension
1001
ACAD
1000
DSTYLE
1002
{
1070
    41
1040
2.0
1070
    42
1040
1.5
1070
    43
1040
8.0
1070
    44
1040
1.5
1070
    73
1070
     0
1070
    74
1070
     0
1070
    77
1070
     3
1070
   140
1040
2.0
1070
   141
1040
3.0
1070
   146
1040
0.6
1070
   147
1040
1.0
1070
   172
1070
     1
1070
   178
1070
   256
1070
   272
1070
     8
1070
   274
1070
     2
1070
   340
1005
29C5
1002
}
  0
DIMENSION
  5
4CD0
330
1F
100
AcDbEntity
  8
DIM
100
AcDbDimension
  2
*D17
 10
161.7432059581959
 20
217.5241411253716
 30
0.0
 11
156.2432059879983
 21
219.5241411253716
 31
0.0
 70
    32
 71
     5
 42
10.9999999403953
  3
AM_ANSI
100
AcDbAlignedDimension
 13
150.7432060178006
 23
208.5601820245457
 33
0.0
 14
161.7432059581959
 24
208.5601820245457
 34
0.0
 50
359.9999999999996
100
AcDbRotatedDimension
1001
ACAD
1000
DSTYLE
1002
{
1070
    41
1040
2.0
1070
    42
1040
1.5
1070
    43
1040
8.0
1070
    44
1040
1.5
1070
    73
1070
     0
1070
    74
1070
     0
1070
    77
1070
     3
1070
   140
1040
2.0
1070
   141
1040
3.0
1070
   146
1040
0.6
1070
   147
1040
1.0
1070
   172
1070
     1
1070
   178
1070
   256
1070
   272
1070
     8
1070
   274
1070
     2
1070
   340
1005
29C5
1002
}
  0
LEADER
  5
4D0D
330
1F
100
AcDbEntity
  8
DIM
100
AcDbLeader
  3
AM_ANSI$7
 73
     0
 74
     0
 75
     1
 40
2.0
 41
17.9047619047619
 76
     3
 10
239.3831827207984
 20
203.3595361477665
 30
0.0
 10
246.1088541171657
 20
212.9649516079877
 30
0.0
 10
248.1088541171657
 20
212.9649516079877
 30
0.0
340
4D0E
213
1.061873878973585
223
0.1482579944929085
233
0.0
1001
ACAD
1000
DSTYLE
1002
{
1070
    41
1040
2.0
1070
    42
1040
1.5
1070
    43
1040
8.0
1070
    44
1040
1.5
1070
    73
1070
     0
1070
    74
1070
     0
1070
    77
1070
     3
1070
   140
1040
2.0
1070
   141
1040
3.0
1070
   146
1040
0.6
1070
   147
1040
1.0
1070
   172
1070
     1
1070
   178
1070
   256
1070
   272
1070
     2
1070
   274
1070
     2
1070
   340
1005
29C5
1002
}
  0
MTEXT
  5
4D0E
102
{ACAD_REACTORS
330
4D0D
102
}
330
1F
100
AcDbEntity
  8
DIM
100
AcDbMText
 10
248.0469802381922
 20
215.8166936134948
 30
0.0
 40
2.0
 41
0.0
 71
     1
 72
     1
  1
2x4-M5x0.8
  7
dayus
 73
     1
 44
1.0
1001
ACAD
1000
MTEXTBEGIN
1070
    73
1070
     1
1070
    44
1040
1.0
1070
    74
1070
     0
1000
MTEXTEND
  0
LEADER
  5
4D11
330
1F
100
AcDbEntity
  8
DIM
100
AcDbLeader
  3
AM_ANSI$7
 73
     0
 74
     0
 75
     1
 40
2.0
 41
17.9047619047619
 76
     3
 10
239.3831827207987
 20
93.45854060270337
 30
0.0
 10
246.108854117166
 20
103.0639560629245
 30
0.0
 10
248.108854117166
 20
103.0639560629245
 30
0.0
340
4D12
213
1.061873878973585
223
0.1482579944929085
233
0.0
1001
ACAD
1000
DSTYLE
1002
{
1070
    41
1040
2.0
1070
    42
1040
1.5
1070
    43
1040
8.0
1070
    44
1040
1.5
1070
    73
1070
     0
1070
    74
1070
     0
1070
    77
1070
     3
1070
   140
1040
2.0
1070
   141
1040
3.0
1070
   146
1040
0.6
1070
   147
1040
1.0
1070
   172
1070
     1
1070
   178
1070
   256
1070
   272
1070
     2
1070
   274
1070
     2
1070
   340
1005
29C5
1002
}
  0
MTEXT
  5
4D12
102
{ACAD_REACTORS
330
4D11
102
}
330
1F
100
AcDbEntity
  8
DIM
100
AcDbMText
 10
248.0469802381924
 20
105.9156980684316
 30
0.0
 40
2.0
 41
0.0
 71
     1
 72
     1
  1
2x4-M5x0.8
  7
dayus
 73
     1
 44
1.0
1001
ACAD
1000
MTEXTBEGIN
1070
    73
1070
     1
1070
    44
1040
1.0
1070
    74
1070
     0
1000
MTEXTEND
  0
MTEXT
  5
4D14
330
1F
100
AcDbEntity
  8
DIM
100
AcDbMText
 10
84.2269191995831
 20
179.9980371028498
 30
0.0
 40
2.0
 41
0.0
 71
     1
 72
     1
  1
M8*1.25
  7
dayus
 73
     1
 44
1.0
1001
ACAD
1000
MTEXTBEGIN
1070
    73
1070
     1
1070
    44
1040
1.0
1070
    74
1070
     0
1000
MTEXTEND
  0
SOLID
  5
4D16
330
1F
100
AcDbEntity
  8
DIM
100
AcDbTrace
 10
100.4960736936248
 20
184.9252664010925
 30
0.0
 11
101.2432062860214
 21
186.8101812534107
 31
0.0
 12
99.92513550327281
 22
185.2694669636166
 32
0.0
 13
99.92513550327281
 23
185.2694669636166
 33
0.0
1001
ACAD
1000
DSTYLE
1002
{
1070
    41
1040
2.0
1070
    42
1040
1.5
1070
    43
1040
8.0
1070
    44
1040
1.5
1070
    73
1070
     0
1070
    74
1070
     0
1070
    77
1070
     3
1070
   140
1040
2.0
1070
   141
1040
3.0
1070
   146
1040
0.6
1070
   147
1040
1.0
1070
   172
1070
     1
1070
   178
1070
   256
1070
   272
1070
     2
1070
   274
1070
     2
1070
   340
1005
29C5
1002
}
  0
LWPOLYLINE
  5
4D17
330
1F
100
AcDbEntity
  8
DIM
100
AcDbPolyline
 90
        3
 70
     0
 43
0.0
 10
100.2106045984488
 20
185.0973666823545
 10
95.58911823613106
 20
177.3951027359578
 10
83.93444606435037
 20
177.3951027359578
1001
ACAD
1000
DSTYLE
1002
{
1070
    41
1040
2.0
1070
    42
1040
1.5
1070
    43
1040
8.0
1070
    44
1040
1.5
1070
    73
1070
     0
1070
    74
1070
     0
1070
    77
1070
     3
1070
   140
1040
2.0
1070
   141
1040
3.0
1070
   146
1040
0.6
1070
   147
1040
1.0
1070
   172
1070
     1
1070
   178
1070
   256
1070
   272
1070
     2
1070
   274
1070
     2
1070
   340
1005
29C5
1002
}
  0
DIMENSION
  5
4D27
330
1F
100
AcDbEntity
  8
DIM
100
AcDbDimension
  2
*D18
 10
102.6092321585502
 20
75.90918601009605
 30
0.0
 11
100.6092321585501
 21
80.90918589833739
 31
0.0
 70
    32
  1
%%C<>
 71
     5
 42
9.99999977648261
  3
AM_ANSI
100
AcDbAlignedDimension
 13
114.6092321585502
 23
85.90918578657866
 33
0.0
 14
114.6092321585502
 24
75.90918601009605
 34
0.0
 50
90.0
100
AcDbRotatedDimension
1001
ACAD
1000
DSTYLE
1002
{
1070
    41
1040
2.0
1070
    42
1040
1.5
1070
    43
1040
8.0
1070
    44
1040
1.5
1070
    73
1070
     0
1070
    74
1070
     0
1070
    77
1070
     3
1070
   140
1040
2.0
1070
   141
1040
3.0
1070
   146
1040
0.6
1070
   147
1040
1.0
1070
   172
1070
     1
1070
   178
1070
   256
1070
   272
1070
     8
1070
   274
1070
     2
1070
   340
1005
29C5
1002
}
  0
SOLID
  5
4D5B
330
1F
100
AcDbEntity
  8
DIM
100
AcDbTrace
 10
112.9960738798896
 20
82.79410075065561
 30
0.0
 11
113.7432064722861
 21
80.90918589833737
 31
0.0
 12
112.4251356895375
 22
82.4499001881314
 32
0.0
 13
112.4251356895375
 23
82.4499001881314
 33
0.0
1001
ACAD
1000
DSTYLE
1002
{
1070
    41
1040
2.0
1070
    42
1040
1.5
1070
    43
1040
8.0
1070
    44
1040
1.5
1070
    73
1070
     0
1070
    74
1070
     0
1070
    77
1070
     3
1070
   140
1040
2.0
1070
   141
1040
3.0
1070
   146
1040
0.6
1070
   147
1040
1.0
1070
   172
1070
     1
1070
   178
1070
   256
1070
   272
1070
     2
1070
   274
1070
     2
1070
   340
1005
29C5
1002
}
  0
LWPOLYLINE
  5
4D5C
330
1F
100
AcDbEntity
  8
DIM
100
AcDbPolyline
 90
        3
 70
     0
 43
0.0
 10
112.7106047847135
 20
82.62200046939353
 10
108.0891184223958
 20
90.32426441579024
 10
97.30790569816418
 20
90.32426441579024
1001
ACAD
1000
DSTYLE
1002
{
1070
    41
1040
2.0
1070
    42
1040
1.5
1070
    43
1040
8.0
1070
    44
1040
1.5
1070
    73
1070
     0
1070
    74
1070
     0
1070
    77
1070
     3
1070
   140
1040
2.0
1070
   141
1040
3.0
1070
   146
1040
0.6
1070
   147
1040
1.0
1070
   172
1070
     1
1070
   178
1070
   256
1070
   272
1070
     2
1070
   274
1070
     2
1070
   340
1005
29C5
1002
}
  0
MTEXT
  5
4D5D
330
1F
100
AcDbEntity
  8
DIM
100
AcDbMText
 10
97.85861991307093
 20
92.9271987826822
 30
0.0
 40
2.0
 41
0.0
 71
     1
 72
     1
  1
M6*1.0
  7
dayus
 73
     1
 44
1.0
1001
ACAD
1000
MTEXTBEGIN
1070
    73
1070
     1
1070
    44
1040
1.0
1070
    74
1070
     0
1000
MTEXTEND
  0
DIMENSION
  5
4D5E
330
1F
100
AcDbEntity
  8
DIM
100
AcDbDimension
  2
*D22
 10
126.7432065244402
 20
102.561991519872
 30
0.0
 11
123.2432065244404
 21
104.561991519872
 31
0.0
 70
    32
 71
     5
 42
6.999999999999772
  3
AM_ANSI
100
AcDbAlignedDimension
 13
119.7432065244405
 23
106.3978296639968
 33
0.0
 14
126.7432065244402
 24
85.61708910208754
 34
0.0
100
AcDbRotatedDimension
1001
ACAD
1000
DSTYLE
1002
{
1070
    41
1040
2.0
1070
    42
1040
1.5
1070
    43
1040
8.0
1070
    44
1040
1.5
1070
    73
1070
     0
1070
    74
1070
     0
1070
    77
1070
     3
1070
   140
1040
2.0
1070
   141
1040
3.0
1070
   146
1040
0.6
1070
   147
1040
1.0
1070
   172
1070
     1
1070
   178
1070
   256
1070
   272
1070
     8
1070
   274
1070
     2
1070
   340
1005
29C5
1002
}
  0
DIMENSION
  5
4D5F
330
1F
100
AcDbEntity
  8
DIM
100
AcDbDimension
  2
*D23
 10
161.7432059581961
 20
102.561991519872
 30
0.0
 11
158.2432062413182
 21
104.561991519872
 31
0.0
 70
    32
 71
     5
 42
6.999999433755874
  3
AM_ANSI
100
AcDbAlignedDimension
 13
154.7432065244402
 23
85.61708910208745
 33
0.0
 14
161.7432059581961
 24
98.65918647948243
 34
0.0
100
AcDbRotatedDimension
1001
ACAD
1000
DSTYLE
1002
{
1070
    41
1040
2.0
1070
    42
1040
1.5
1070
    43
1040
8.0
1070
    44
1040
1.5
1070
    73
1070
     0
1070
    74
1070
     0
1070
    77
1070
     3
1070
   140
1040
2.0
1070
   141
1040
3.0
1070
   146
1040
0.6
1070
   147
1040
1.0
1070
   172
1070
     1
1070
   178
1070
   256
1070
   272
1070
     8
1070
   274
1070
     2
1070
   340
1005
29C5
1002
}
  0
DIMENSION
  5
4D60
330
1F
100
AcDbEntity
  8
DIM
100
AcDbDimension
  2
*D24
 10
161.7432059581961
 20
113.5493897916781
 30
0.0
 11
140.7432062413182
 21
115.5493897916781
 31
0.0
 70
    32
  1
37+stroke=<>
 71
     5
 42
41.99999943375587
  3
AM_ANSI
100
AcDbAlignedDimension
 13
119.7432065244402
 23
98.65918647948266
 33
0.0
 14
161.7432059581961
 24
98.15918546620359
 34
0.0
100
AcDbRotatedDimension
1001
ACAD
1000
DSTYLE
1002
{
1070
    41
1040
2.0
1070
    42
1040
1.5
1070
    43
1040
8.0
1070
    44
1040
1.5
1070
    73
1070
     0
1070
    74
1070
     0
1070
    77
1070
     3
1070
   140
1040
2.0
1070
   141
1040
3.0
1070
   146
1040
0.6
1070
   147
1040
1.0
1070
   172
1070
     1
1070
   178
1070
   256
1070
   272
1070
     8
1070
   274
1070
     2
1070
   340
1005
29C5
1002
}
  0
DIMENSION
  5
4D61
330
1F
100
AcDbEntity
  8
DIM
100
AcDbDimension
  2
*D25
 10
161.7432059581961
 20
121.7654770186537
 30
0.0
 11
137.7432062152411
 21
123.7654770186537
 31
0.0
 70
    32
  1
43+stroke=<>
 71
     5
 42
47.99999948591
  3
AM_ANSI
100
AcDbAlignedDimension
 13
113.7432064722861
 23
85.40918570462228
 33
0.0
 14
161.7432059581961
 24
98.65918647948243
 34
0.0
100
AcDbRotatedDimension
1001
ACAD
1000
DSTYLE
1002
{
1070
    41
1040
2.0
1070
    42
1040
1.5
1070
    43
1040
8.0
1070
    44
1040
1.5
1070
    73
1070
     0
1070
    74
1070
     0
1070
    77
1070
     3
1070
   140
1040
2.0
1070
   141
1040
3.0
1070
   146
1040
0.6
1070
   147
1040
1.0
1070
   172
1070
     1
1070
   178
1070
   256
1070
   272
1070
     8
1070
   274
1070
     2
1070
   340
1005
29C5
1002
}
  0
DIMENSION
  5
4D62
330
1F
100
AcDbEntity
  8
DIM
100
AcDbDimension
  2
*D19
 10
119.7432065244402
 20
113.549389791678
 30
0.0
 11
116.7432064983632
 21
115.549389791678
 31
0.0
 70
    32
 71
     5
 42
6.000000052154064
  3
AM_ANSI
100
AcDbAlignedDimension
 13
113.7432064722862
 23
85.40918570462224
 33
0.0
 14
119.7432065244402
 24
98.15918546620364
 34
0.0
100
AcDbRotatedDimension
1001
ACAD
1000
DSTYLE
1002
{
1070
    41
1040
2.0
1070
    42
1040
1.5
1070
    43
1040
8.0
1070
    44
1040
1.5
1070
    73
1070
     0
1070
    74
1070
     0
1070
    77
1070
     3
1070
   140
1040
2.0
1070
   141
1040
3.0
1070
   146
1040
0.6
1070
   147
1040
1.0
1070
   172
1070
     1
1070
   178
1070
   256
1070
   272
1070
     8
1070
   274
1070
     2
1070
   340
1005
29C5
1002
}
  0
DIMENSION
  5
4D64
330
1F
100
AcDbEntity
  8
DIM
100
AcDbDimension
  2
*D20
 10
130.7432064648356
 20
107.6231455803094
 30
0.0
 11
125.2432064946379
 21
109.6231455803094
 31
0.0
 70
    32
 71
     5
 42
10.99999994039535
  3
AM_ANSI
100
AcDbAlignedDimension
 13
119.7432065244402
 23
98.65918647948255
 33
0.0
 14
130.7432064648356
 24
98.65918647948266
 34
0.0
100
AcDbRotatedDimension
1001
ACAD
1000
DSTYLE
1002
{
1070
    41
1040
2.0
1070
    42
1040
1.5
1070
    43
1040
8.0
1070
    44
1040
1.5
1070
    73
1070
     0
1070
    74
1070
     0
1070
    77
1070
     3
1070
   140
1040
2.0
1070
   141
1040
3.0
1070
   146
1040
0.6
1070
   147
1040
1.0
1070
   172
1070
     1
1070
   178
1070
   256
1070
   272
1070
     8
1070
   274
1070
     2
1070
   340
1005
29C5
1002
}
  0
DIMENSION
  5
4D65
330
1F
100
AcDbEntity
  8
DIM
100
AcDbDimension
  2
*D21
 10
161.7432059581961
 20
107.6231455803084
 30
0.0
 11
156.2432059879985
 21
109.6231455803084
 31
0.0
 70
    32
 71
     5
 42
10.9999999403953
  3
AM_ANSI
100
AcDbAlignedDimension
 13
150.7432060178008
 23
98.65918647948248
 33
0.0
 14
161.7432059581961
 24
98.65918647948255
 34
0.0
100
AcDbRotatedDimension
1001
ACAD
1000
DSTYLE
1002
{
1070
    41
1040
2.0
1070
    42
1040
1.5
1070
    43
1040
8.0
1070
    44
1040
1.5
1070
    73
1070
     0
1070
    74
1070
     0
1070
    77
1070
     3
1070
   140
1040
2.0
1070
   141
1040
3.0
1070
   146
1040
0.6
1070
   147
1040
1.0
1070
   172
1070
     1
1070
   178
1070
   256
1070
   272
1070
     8
1070
   274
1070
     2
1070
   340
1005
29C5
1002
}
  0
ENDSEC
  0
SECTION
  2
OBJECTS
  0
DICTIONARY
  5
C
330
0
100
AcDbDictionary
281
     1
  3
ACAD_COLOR
350
285D
  3
ACAD_GROUP
350
D
  3
ACAD_LAYOUT
350
1A
  3
ACAD_MATERIAL
350
285C
  3
ACAD_MLINESTYLE
350
17
  3
ACAD_PLOTSETTINGS
350
19
  3
ACAD_PLOTSTYLENAME
350
E
  3
ACAD_TABLESTYLE
350
285E
  3
AcadDim
350
1E82
  3
ACDBHEADERROUNDTRIPXREC
350
4ECF
  3
AcDbVariableDictionary
350
1488
  3
AcmDictionary
350
404F
  3
AMG
350
3FFB
  3
AMGSNAPSETTINGS
350
412F
  3
DWGPROPS
350
4ECE
  3
MAPISURF_MODULE
350
44FA
  0
DICTIONARY
  5
29CF
330
2
100
AcDbDictionary
280
     1
281
     1
  3
ACAD_LAYERSTATES
360
29D0
  0
DICTIONARY
  5
27C8
330
1F
100
AcDbDictionary
280
     1
281
     1
  3
ACAD_INDEX
360
4A6F
  3
ACAD_LAYOUTSELFREF
360
2802
  3
ACAD_SORTENTS
360
4C33
  0
DICTIONARY
  5
27CA
330
1B
100
AcDbDictionary
280
     1
281
     1
  3
ACAD_LAYOUTSELFREF
360
2801
  0
DICTIONARY
  5
27CC
330
23
100
AcDbDictionary
280
     1
281
     1
  3
ACAD_LAYOUTSELFREF
360
2803
  0
DICTIONARY
  5
42E7
330
42E6
100
AcDbDictionary
280
     1
281
     1
  0
DICTIONARY
  5
4441
330
4440
100
AcDbDictionary
280
     1
281
     1
  3
ACAD_SORTENTS
360
4442
  0
DICTIONARY
  5
3BEC
330
3BEB
100
AcDbDictionary
280
     1
281
     1
  3
ACAD_DIMASSOC
360
3BED
  0
DICTIONARY
  5
285D
102
{ACAD_REACTORS
330
C
102
}
330
C
100
AcDbDictionary
281
     1
  0
DICTIONARY
  5
D
102
{ACAD_REACTORS
330
C
102
}
330
C
100
AcDbDictionary
281
     1
  0
DICTIONARY
  5
1A
102
{ACAD_REACTORS
330
C
102
}
330
C
100
AcDbDictionary
281
     1
  3
Layout1
350
1E
  3
Layout2
350
26
  3
Model
350
22
  0
DICTIONARY
  5
285C
102
{ACAD_REACTORS
330
C
102
}
330
C
100
AcDbDictionary
281
     1
  0
DICTIONARY
  5
17
102
{ACAD_REACTORS
330
C
102
}
330
C
100
AcDbDictionary
281
     1
  3
Standard
350
18
  0
DICTIONARY
  5
19
102
{ACAD_REACTORS
330
C
102
}
330
C
100
AcDbDictionary
281
     1
  0
ACDBDICTIONARYWDFLT
  5
E
102
{ACAD_REACTORS
330
C
102
}
330
C
100
AcDbDictionary
281
     1
  3
Normal
350
F
100
AcDbDictionaryWithDefault
340
F
1001
ACAD
1000
TREAT_AS_HARD
1070
     0
  0
DICTIONARY
  5
285E
102
{ACAD_REACTORS
330
C
102
}
330
C
100
AcDbDictionary
281
     1
  3
Standard
350
285F
  0
XRECORD
  5
1E82
102
{ACAD_REACTORS
330
C
102
}
330
C
100
AcDbXrecord
280
     1
 90
   990106
  3

 60
     0
 61
     0
 62
     4
 63
     4
 64
     1
 65
     0
 66
     0
 67
     3
 68
     1
 69
     0
 70
     0
 71
     0
 72
     0
 40
0.0
170
     2
340
0
  0
DICTIONARY
  5
4ECF
102
{ACAD_REACTORS
330
C
102
}
330
C
100
AcDbDictionary
281
     1
  0
DICTIONARY
  5
1488
102
{ACAD_REACTORS
330
C
102
}
330
C
100
AcDbDictionary
281
     1
  3
CTABLESTYLE
350
36AB
  3
DIMASSOC
350
4264
  3
INDEXCTL
350
4ECC
  3
PROJECTNAME
350
4265
  3
SORTENTS
350
1489
  0
DICTIONARY
  5
404F
102
{ACAD_REACTORS
330
C
102
}
330
C
100
AcDbDictionary
281
     1
  3
AcmStdDictionary
350
405C
  3
AMDTSECTSYM_ARROWCOLOR
350
4077
  0
DICTIONARY
  5
3FFB
102
{ACAD_REACTORS
330
C
102
}
330
C
100
AcDbDictionary
281
     1
  3
AcMgSettings
350
426F
  0
DICTIONARY
  5
412F
102
{ACAD_REACTORS
330
C
102
}
330
C
100
AcDbDictionary
281
     1
  0
XRECORD
  5
4ECE
102
{ACAD_REACTORS
330
C
102
}
330
C
100
AcDbXrecord
280
     1
  1
DWGPROPS COOKIE
  2

  3

  4

  6

  7

  8

  9

300
AmdtFileType=84
301
=
302
=
303
=
304
=
305
=
306
=
307
=
308
=
309
=
 40
0.3670425462962963
 41
2452019.631085301
 42
2456885.437989907
  1

 90
        1
  0
DICTIONARY
  5
29D0
102
{ACAD_REACTORS
330
29CF
102
}
330
29CF
100
AcDbDictionary
281
     1
  0
DICTIONARY
  5
4A6F
102
{ACAD_REACTORS
330
27C8
102
}
330
27C8
100
AcDbDictionary
281
     1
  3
*A1
350
4A70
  0
XRECORD
  5
2802
102
{ACAD_REACTORS
330
27C8
102
}
330
27C8
100
AcDbXrecord
280
     1
340
1F
  0
SORTENTSTABLE
  5
4C33
102
{ACAD_REACTORS
330
27C8
102
}
330
27C8
100
AcDbSortentsTable
330
1F
331
4CAC
  5
4CAC
331
3B91
  5
3B91
331
180C
  5
180C
331
473D
  5
473D
331
46FE
  5
46FE
331
46C7
  5
46C7
331
3BD9
  5
3BD9
331
186C
  5
186C
331
41FD
  5
41FD
331
49F8
  5
49F8
331
4829
  5
4829
331
47EA
  5
47EA
331
47B3
  5
47B3
331
4774
  5
4774
331
4745
  5
4745
331
4706
  5
4706
331
1874
  5
1874
331
46CF
  5
46CF
331
4C35
  5
4C35
331
4A00
  5
4A00
331
4831
  5
4831
331
47F2
  5
47F2
331
47BB
  5
47BB
331
474D
  5
474D
331
470E
  5
470E
331
46D7
  5
46D7
331
477C
  5
477C
331
41CE
  5
41CE
331
4A08
  5
4A08
331
4839
  5
4839
331
47FA
  5
47FA
331
47C3
  5
47C3
331
4716
  5
4716
331
4784
  5
4784
331
4802
  5
4802
331
478C
  5
478C
331
187C
  5
187C
331
17B5
  5
17B5
331
17BD
  5
17BD
331
41D6
  5
41D6
331
471E
  5
471E
331
46DF
  5
46DF
331
4215
  5
4215
331
188C
  5
188C
331
17C5
  5
17C5
331
41DE
  5
41DE
331
480A
  5
480A
331
4794
  5
4794
331
4755
  5
4755
331
4726
  5
4726
331
46E7
  5
46E7
331
421D
  5
421D
331
3B8A
  5
3B8A
331
1805
  5
1805
331
41E6
  5
41E6
331
49E1
  5
49E1
331
4812
  5
4812
331
47D3
  5
47D3
331
479C
  5
479C
331
472E
  5
472E
331
46EF
  5
46EF
331
46B8
  5
46B8
331
475D
  5
475D
331
4225
  5
4225
331
41EE
  5
41EE
331
49E9
  5
49E9
331
481A
  5
481A
331
47DB
  5
47DB
331
47A4
  5
47A4
331
4736
  5
4736
331
4765
  5
4765
331
49F1
  5
49F1
331
4822
  5
4822
331
47E3
  5
47E3
331
47AC
  5
47AC
331
476D
  5
476D
331
180D
  5
180D
331
46C0
  5
46C0
331
473E
  5
473E
331
46FF
  5
46FF
331
46C8
  5
46C8
331
42E3
  5
42E3
331
186D
  5
186D
331
41FE
  5
41FE
331
4B00
  5
4B00
331
49F9
  5
49F9
331
482A
  5
482A
331
47EB
  5
47EB
331
47B4
  5
47B4
331
4775
  5
4775
331
4746
  5
4746
331
4707
  5
4707
331
46D0
  5
46D0
331
1875
  5
1875
331
4206
  5
4206
331
4C36
  5
4C36
331
4A01
  5
4A01
331
4832
  5
4832
331
47F3
  5
47F3
331
47BC
  5
47BC
331
474E
  5
474E
331
470F
  5
470F
331
477D
  5
477D
331
41CF
  5
41CF
331
4A09
  5
4A09
331
483A
  5
483A
331
47FB
  5
47FB
331
47C4
  5
47C4
331
4717
  5
4717
331
4785
  5
4785
331
4803
  5
4803
331
478D
  5
478D
331
4BFF
  5
4BFF
331
4D14
  5
4D17
331
187D
  5
187D
331
1885
  5
1885
331
17BE
  5
17BE
331
41D7
  5
41D7
331
46D8
  5
46D8
331
471F
  5
471F
331
46E0
  5
46E0
331
4216
  5
4216
331
188D
  5
188D
331
17C6
  5
17C6
331
41DF
  5
41DF
331
480B
  5
480B
331
4795
  5
4795
331
4756
  5
4756
331
4727
  5
4727
331
46E8
  5
46E8
331
46B1
  5
46B1
331
421E
  5
421E
331
3B8B
  5
3B8B
331
1806
  5
1806
331
41E7
  5
41E7
331
49E2
  5
49E2
331
4813
  5
4813
331
47D4
  5
47D4
331
479D
  5
479D
331
472F
  5
472F
331
46F0
  5
46F0
331
46B9
  5
46B9
331
475E
  5
475E
331
49EA
  5
49EA
331
481B
  5
481B
331
47DC
  5
47DC
331
47A5
  5
47A5
331
4737
  5
4737
331
4766
  5
4766
331
49F2
  5
49F2
331
4823
  5
4823
331
47E4
  5
47E4
331
47AD
  5
47AD
331
476E
  5
476E
331
4D0D
  5
4D0D
331
180E
  5
180E
331
46C1
  5
46C1
331
3BD3
  5
3BD3
331
41F7
  5
41F7
331
473F
  5
473F
331
4700
  5
4700
331
186E
  5
186E
331
46C9
  5
46C9
331
49FA
  5
49FA
331
482B
  5
482B
331
47EC
  5
47EC
331
47B5
  5
47B5
331
4776
  5
4776
331
4747
  5
4747
331
4708
  5
4708
331
1876
  5
1876
331
46D1
  5
46D1
331
4C37
  5
4C37
331
4A02
  5
4A02
331
4833
  5
4833
331
47F4
  5
47F4
331
47BD
  5
47BD
331
474F
  5
474F
331
4710
  5
4710
331
477E
  5
477E
331
4A0A
  5
4A0A
331
483B
  5
483B
331
47FC
  5
47FC
331
47C5
  5
47C5
331
4786
  5
4786
331
4804
  5
4804
331
478E
  5
478E
331
3BEB
  5
3BEB
331
187E
  5
187E
331
41D0
  5
41D0
331
4718
  5
4718
331
41D8
  5
41D8
331
1886
  5
1886
331
17BF
  5
17BF
331
46D9
  5
46D9
331
4720
  5
4720
331
46E1
  5
46E1
331
4217
  5
4217
331
188E
  5
188E
331
17C7
  5
17C7
331
41E0
  5
41E0
331
480C
  5
480C
331
4796
  5
4796
331
4757
  5
4757
331
4728
  5
4728
331
46E9
  5
46E9
331
46B2
  5
46B2
331
421F
  5
421F
331
3B8C
  5
3B8C
331
1807
  5
1807
331
41E8
  5
41E8
331
4B59
  5
4B59
331
49E3
  5
49E3
331
4814
  5
4814
331
47D5
  5
47D5
331
479E
  5
479E
331
4730
  5
4730
331
46F1
  5
46F1
331
46BA
  5
46BA
331
475F
  5
475F
331
49EB
  5
49EB
331
481C
  5
481C
331
47DD
  5
47DD
331
47A6
  5
47A6
331
4767
  5
4767
331
49F3
  5
49F3
331
4824
  5
4824
331
47E5
  5
47E5
331
47AE
  5
47AE
331
476F
  5
476F
331
4D0E
  5
4D0E
331
180F
  5
180F
331
4738
  5
4738
331
41F8
  5
41F8
331
46C2
  5
46C2
331
4740
  5
4740
331
4701
  5
4701
331
186F
  5
186F
331
46CA
  5
46CA
331
49FB
  5
49FB
331
482C
  5
482C
331
47ED
  5
47ED
331
47B6
  5
47B6
331
4777
  5
4777
331
4C30
  5
4C32
331
4748
  5
4748
331
4709
  5
4709
331
1877
  5
1877
331
46D2
  5
46D2
331
4C38
  5
4C38
331
4A03
  5
4A03
331
4834
  5
4834
331
47F5
  5
47F5
331
47BE
  5
47BE
331
4711
  5
4711
331
477F
  5
477F
331
483C
  5
483C
331
47FD
  5
47FD
331
47C6
  5
47C6
331
4787
  5
4787
331
4805
  5
4805
331
478F
  5
478F
331
4D16
  5
4D14
331
A9
  5
A9
331
B1
  5
B1
331
187F
  5
187F
331
41D1
  5
41D1
331
4719
  5
4719
331
4210
  5
4210
331
41D9
  5
41D9
331
1887
  5
1887
331
46DA
  5
46DA
331
4750
  5
4750
331
4721
  5
4721
331
46E2
  5
46E2
331
4218
  5
4218
331
188F
  5
188F
331
41E1
  5
41E1
331
480D
  5
480D
331
4797
  5
4797
331
4729
  5
4729
331
46EA
  5
46EA
331
46B3
  5
46B3
331
4758
  5
4758
331
4220
  5
4220
331
3B8D
  5
3B8D
331
41E9
  5
41E9
331
49E4
  5
49E4
331
4815
  5
4815
331
47D6
  5
47D6
331
479F
  5
479F
331
4731
  5
4731
331
46F2
  5
46F2
331
46BB
  5
46BB
331
4760
  5
4760
331
49EC
  5
49EC
331
481D
  5
481D
331
47DE
  5
47DE
331
47A7
  5
47A7
331
4768
  5
4768
331
4AFB
  5
4AFB
331
49F4
  5
49F4
331
4825
  5
4825
331
47E6
  5
47E6
331
47AF
  5
47AF
331
1808
  5
1808
331
18E7
  5
18E7
331
1810
  5
1810
331
4739
  5
4739
331
46FA
  5
46FA
331
41F9
  5
41F9
331
1868
  5
1868
331
46C3
  5
46C3
331
4770
  5
4770
331
4741
  5
4741
331
4702
  5
4702
331
1870
  5
1870
331
46CB
  5
46CB
331
49FC
  5
49FC
331
482D
  5
482D
331
47EE
  5
47EE
331
47B7
  5
47B7
331
4C31
  5
4C30
331
4749
  5
4749
331
470A
  5
470A
331
46D3
  5
46D3
331
4778
  5
4778
331
4C39
  5
4C39
331
4A04
  5
4A04
331
4835
  5
4835
331
47F6
  5
47F6
331
47BF
  5
47BF
331
4712
  5
4712
331
4780
  5
4780
331
47FE
  5
47FE
331
47C7
  5
47C7
331
4788
  5
4788
331
4806
  5
4806
331
4CD0
  5
4CD0
331
4D17
  5
4D16
331
AA
  5
AA
331
B2
  5
B2
331
1878
  5
1878
331
1880
  5
1880
331
41D2
  5
41D2
331
471A
  5
471A
331
4211
  5
4211
331
41DA
  5
41DA
331
1888
  5
1888
331
46DB
  5
46DB
331
4790
  5
4790
331
4751
  5
4751
331
4722
  5
4722
331
46E3
  5
46E3
331
4219
  5
4219
331
3B06
  5
3B06
331
1890
  5
1890
331
41E2
  5
41E2
331
480E
  5
480E
331
47CF
  5
47CF
331
4798
  5
4798
331
472A
  5
472A
331
46EB
  5
46EB
331
46B4
  5
46B4
331
4759
  5
4759
331
4221
  5
4221
331
41EA
  5
41EA
331
3B8E
  5
3B8E
331
4B5B
  5
4B5B
331
49E5
  5
49E5
331
4816
  5
4816
331
47D7
  5
47D7
331
47A0
  5
47A0
331
4732
  5
4732
331
46F3
  5
46F3
331
46BC
  5
46BC
331
4761
  5
4761
331
49ED
  5
49ED
331
481E
  5
481E
331
47DF
  5
47DF
331
47A8
  5
47A8
331
4769
  5
4769
331
4AFC
  5
4AFC
331
49F5
  5
49F5
331
4826
  5
4826
331
47E7
  5
47E7
331
1809
  5
1809
331
41F2
  5
41F2
331
473A
  5
473A
331
46FB
  5
46FB
331
41FA
  5
41FA
331
3BD6
  5
3BD6
331
1869
  5
1869
331
46C4
  5
46C4
331
47B0
  5
47B0
331
4771
  5
4771
331
4742
  5
4742
331
4703
  5
4703
331
46CC
  5
46CC
331
1871
  5
1871
331
4202
  5
4202
331
49FD
  5
49FD
331
482E
  5
482E
331
47EF
  5
47EF
331
4C32
  5
4C31
331
47B8
  5
47B8
331
474A
  5
474A
331
470B
  5
470B
331
46D4
  5
46D4
331
4779
  5
4779
331
4C3A
  5
4C3A
331
4A05
  5
4A05
331
4836
  5
4836
331
47F7
  5
47F7
331
47C0
  5
47C0
331
4713
  5
4713
331
4781
  5
4781
331
4C4A
  5
4C4A
331
47FF
  5
47FF
331
4789
  5
4789
331
4807
  5
4807
331
AB
  5
AB
331
1879
  5
1879
331
1881
  5
1881
331
41D3
  5
41D3
331
420A
  5
420A
331
471B
  5
471B
331
4212
  5
4212
331
41DB
  5
41DB
331
10B3
  5
10B3
331
1889
  5
1889
331
46DC
  5
46DC
331
4791
  5
4791
331
47C8
  5
47C8
331
4752
  5
4752
331
4723
  5
4723
331
46E4
  5
46E4
331
421A
  5
421A
331
3B07
  5
3B07
331
1891
  5
1891
331
1802
  5
1802
331
41E3
  5
41E3
331
480F
  5
480F
331
47D0
  5
47D0
331
4799
  5
4799
331
472B
  5
472B
331
46EC
  5
46EC
331
46B5
  5
46B5
331
475A
  5
475A
331
3B8F
  5
3B8F
331
4AD5
  5
4AD5
331
49E6
  5
49E6
331
4817
  5
4817
331
47D8
  5
47D8
331
47A1
  5
47A1
331
4733
  5
4733
331
46F4
  5
46F4
331
46BD
  5
46BD
331
4762
  5
4762
331
49EE
  5
49EE
331
481F
  5
481F
331
47E0
  5
47E0
331
47A9
  5
47A9
331
476A
  5
476A
331
4AFD
  5
4AFD
331
49F6
  5
49F6
331
4827
  5
4827
331
4C2B
  5
4C2B
331
180A
  5
180A
331
41F3
  5
41F3
331
473B
  5
473B
331
46FC
  5
46FC
331
41FB
  5
41FB
331
186A
  5
186A
331
46C5
  5
46C5
331
47E8
  5
47E8
331
47B1
  5
47B1
331
4772
  5
4772
331
4743
  5
4743
331
4704
  5
4704
331
1872
  5
1872
331
46CD
  5
46CD
331
49FE
  5
49FE
331
482F
  5
482F
331
47F0
  5
47F0
331
47B9
  5
47B9
331
474B
  5
474B
331
470C
  5
470C
331
46D5
  5
46D5
331
477A
  5
477A
331
4A06
  5
4A06
331
4837
  5
4837
331
47F8
  5
47F8
331
47C1
  5
47C1
331
4714
  5
4714
331
4782
  5
4782
331
4800
  5
4800
331
478A
  5
478A
331
4D11
  5
4D11
331
4C7B
  5
4C7B
331
AC
  5
AC
331
187A
  5
187A
331
1882
  5
1882
331
41D4
  5
41D4
331
420B
  5
420B
331
471C
  5
471C
331
4213
  5
4213
331
41DC
  5
41DC
331
188A
  5
188A
331
17C3
  5
17C3
331
46DD
  5
46DD
331
4808
  5
4808
331
4792
  5
4792
331
47C9
  5
47C9
331
4753
  5
4753
331
46E5
  5
46E5
331
421B
  5
421B
331
1803
  5
1803
331
41E4
  5
41E4
331
49DF
  5
49DF
331
4810
  5
4810
331
47D1
  5
47D1
331
479A
  5
479A
331
472C
  5
472C
331
46ED
  5
46ED
331
46B6
  5
46B6
331
475B
  5
475B
331
49E7
  5
49E7
331
4818
  5
4818
331
47D9
  5
47D9
331
47A2
  5
47A2
331
4734
  5
4734
331
46F5
  5
46F5
331
46BE
  5
46BE
331
4763
  5
4763
331
49EF
  5
49EF
331
4820
  5
4820
331
47E1
  5
47E1
331
47AA
  5
47AA
331
476B
  5
476B
331
4AFE
  5
4AFE
331
49F7
  5
49F7
331
4C2C
  5
4C2C
331
3B90
  5
3B90
331
180B
  5
180B
331
3BD0
  5
3BD0
331
18EA
  5
18EA
331
473C
  5
473C
331
46FD
  5
46FD
331
41FC
  5
41FC
331
186B
  5
186B
331
46C6
  5
46C6
331
4828
  5
4828
331
47E9
  5
47E9
331
47B2
  5
47B2
331
4773
  5
4773
331
4744
  5
4744
331
4705
  5
4705
331
1873
  5
1873
331
46CE
  5
46CE
331
49FF
  5
49FF
331
4C34
  5
4C34
331
4830
  5
4830
331
47F1
  5
47F1
331
47BA
  5
47BA
331
474C
  5
474C
331
470D
  5
470D
331
46D6
  5
46D6
331
477B
  5
477B
331
4A07
  5
4A07
331
4838
  5
4838
331
47F9
  5
47F9
331
47C2
  5
47C2
331
4715
  5
4715
331
4783
  5
4783
331
4801
  5
4801
331
478B
  5
478B
331
4D12
  5
4D12
331
187B
  5
187B
331
17B4
  5
17B4
331
1883
  5
1883
331
41D5
  5
41D5
331
420C
  5
420C
331
471D
  5
471D
331
46DE
  5
46DE
331
41DD
  5
41DD
331
188B
  5
188B
331
17C4
  5
17C4
331
4214
  5
4214
331
4809
  5
4809
331
4793
  5
4793
331
47CA
  5
47CA
331
4754
  5
4754
331
4725
  5
4725
331
46E6
  5
46E6
331
421C
  5
421C
331
1804
  5
1804
331
41E5
  5
41E5
331
49E0
  5
49E0
331
4811
  5
4811
331
47D2
  5
47D2
331
479B
  5
479B
331
472D
  5
472D
331
46EE
  5
46EE
331
46B7
  5
46B7
331
475C
  5
475C
331
49E8
  5
49E8
331
4819
  5
4819
331
47DA
  5
47DA
331
47A3
  5
47A3
331
4735
  5
4735
331
46BF
  5
46BF
331
4764
  5
4764
331
49F0
  5
49F0
331
4821
  5
4821
331
47E2
  5
47E2
331
47AB
  5
47AB
331
476C
  5
476C
331
4AFF
  5
4AFF
  0
XRECORD
  5
2801
102
{ACAD_REACTORS
330
27CA
102
}
330
27CA
100
AcDbXrecord
280
     1
340
1B
  0
XRECORD
  5
2803
102
{ACAD_REACTORS
330
27CC
102
}
330
27CC
100
AcDbXrecord
280
     1
340
23
  0
SORTENTSTABLE
  5
4442
102
{ACAD_REACTORS
330
4441
102
}
330
4441
100
AcDbSortentsTable
330
4440
  0
DIMASSOC
  5
3BED
102
{ACAD_REACTORS
330
3BEC
102
}
330
3BEC
100
AcDbDimAssoc
330
3BEB
 90
        3
 70
     0
 71
     0
  1
AcDbOsnapPointRef
 72
     1
331
3B90
 73
     2
 91
        0
 40
1.0
 10
0.0
 20
0.0
 30
2.000000000000000E+50
 75
     0
  1
AcDbOsnapPointRef
 72
     1
331
3B8E
 73
     2
 91
        0
 40
1.0
 10
0.0
 20
0.0
 30
2.000000000000000E+50
 75
     0
  0
LAYOUT
  5
1E
102
{ACAD_XDICTIONARY
360
4ED0
102
}
102
{ACAD_REACTORS
330
1A
102
}
330
1A
100
AcDbPlotSettings
  1

  2

  4

  6

 40
0.0
 41
0.0
 42
0.0
 43
0.0
 44
0.0
 45
0.0
 46
0.0
 47
0.0
 48
0.0
 49
0.0
140
0.0
141
0.0
142
1.0
143
1.0
 70
   688
 72
     0
 73
     0
 74
     5
  7

 75
    16
147
1.0
148
0.0
149
0.0
100
AcDbLayout
  1
Layout1
 70
     1
 71
     1
 10
0.0
 20
0.0
 11
12.0
 21
9.0
 12
0.0
 22
0.0
 32
0.0
 14
1.000000000000000E+20
 24
1.000000000000000E+20
 34
1.000000000000000E+20
 15
-1.000000000000000E+20
 25
-1.000000000000000E+20
 35
-1.000000000000000E+20
146
0.0
 13
0.0
 23
0.0
 33
0.0
 16
1.0
 26
0.0
 36
0.0
 17
0.0
 27
1.0
 37
0.0
 76
     0
330
1B
  0
LAYOUT
  5
26
102
{ACAD_XDICTIONARY
360
4ED4
102
}
102
{ACAD_REACTORS
330
1A
102
}
330
1A
100
AcDbPlotSettings
  1

  2

  4

  6

 40
0.0
 41
0.0
 42
0.0
 43
0.0
 44
0.0
 45
0.0
 46
0.0
 47
0.0
 48
0.0
 49
0.0
140
0.0
141
0.0
142
1.0
143
1.0
 70
   688
 72
     0
 73
     0
 74
     5
  7

 75
    16
147
1.0
148
0.0
149
0.0
100
AcDbLayout
  1
Layout2
 70
     1
 71
     2
 10
0.0
 20
0.0
 11
12.0
 21
9.0
 12
0.0
 22
0.0
 32
0.0
 14
0.0
 24
0.0
 34
0.0
 15
0.0
 25
0.0
 35
0.0
146
0.0
 13
0.0
 23
0.0
 33
0.0
 16
1.0
 26
0.0
 36
0.0
 17
0.0
 27
1.0
 37
0.0
 76
     0
330
23
  0
LAYOUT
  5
22
102
{ACAD_XDICTIONARY
360
4ED2
102
}
102
{ACAD_REACTORS
330
1A
102
}
330
1A
100
AcDbPlotSettings
  1

  2
DWF Classic.pc3
  4
ISO_A3_(420.00_x_297.00_MM)
  6

 40
5.793749809265136
 41
17.79375076293945
 42
5.79376220703125
 43
17.79376220703125
 44
420.0
 45
297.0
 46
32.53
 47
0.0
 48
0.0
 49
0.0
140
0.0
141
0.0
142
1.0
143
0.835589434715678
 70
 11956
 72
     1
 73
     1
 74
     1
  7

 75
     0
147
1.196759985770122
148
-53.19842586332004
149
-6.721491280199529
100
AcDbLayout
  1
Model
 70
     1
 71
     0
 10
0.0
 20
0.0
 11
12.0
 21
9.0
 12
0.0
 22
0.0
 32
0.0
 14
0.0
 24
0.0
 34
0.0
 15
0.0
 25
0.0
 35
0.0
146
0.0
 13
0.0
 23
0.0
 33
0.0
 16
1.0
 26
0.0
 36
0.0
 17
0.0
 27
1.0
 37
0.0
 76
     0
330
1F
  0
MLINESTYLE
  5
18
102
{ACAD_REACTORS
330
17
102
}
330
17
100
AcDbMlineStyle
  2
STANDARD
 70
     0
  3

 62
   256
 51
90.0
 52
90.0
 71
     2
 49
0.5
 62
   256
  6
BYLAYER
 49
-0.5
 62
   256
  6
BYLAYER
  0
ACDBPLACEHOLDER
  5
F
102
{ACAD_REACTORS
330
E
102
}
330
E
  0
TABLESTYLE
  5
285F
102
{ACAD_REACTORS
330
285E
102
}
330
285E
100
AcDbTableStyle
  3
Standard
 70
     0
 71
     0
 40
1.5
 41
1.5
280
     0
281
     0
  7
Standard
140
4.5
170
     2
 62
     0
 63
     7
283
     0
274
    -2
284
     1
 64
     0
275
    -2
285
     1
 65
     0
276
    -2
286
     1
 66
     0
277
    -2
287
     1
 67
     0
278
    -2
288
     1
 68
     0
279
    -2
289
     1
 69
     0
  7
Standard
140
6.0
170
     5
 62
     0
 63
     7
283
     0
274
    -2
284
     1
 64
     0
275
    -2
285
     1
 65
     0
276
    -2
286
     1
 66
     0
277
    -2
287
     1
 67
     0
278
    -2
288
     1
 68
     0
279
    -2
289
     1
 69
     0
  7
Standard
140
4.5
170
     5
 62
     0
 63
     7
283
     0
274
    -2
284
     1
 64
     0
275
    -2
285
     1
 65
     0
276
    -2
286
     1
 66
     0
277
    -2
287
     1
 67
     0
278
    -2
288
     1
 68
     0
279
    -2
289
     1
 69
     0
  0
DICTIONARYVAR
  5
36AB
102
{ACAD_REACTORS
330
1488
102
}
330
1488
100
DictionaryVariables
280
     0
  1
STANDARD
  0
DICTIONARYVAR
  5
4264
102
{ACAD_REACTORS
330
1488
102
}
330
1488
100
DictionaryVariables
280
     0
  1
1
  0
DICTIONARYVAR
  5
4ECC
102
{ACAD_REACTORS
330
1488
102
}
330
1488
100
DictionaryVariables
280
     0
  1
1
  0
DICTIONARYVAR
  5
4265
102
{ACAD_REACTORS
330
1488
102
}
330
1488
100
DictionaryVariables
280
     0
  1

  0
DICTIONARYVAR
  5
1489
102
{ACAD_REACTORS
330
1488
102
}
330
1488
100
DictionaryVariables
280
     0
  1
96
  0
DICTIONARY
  5
405C
102
{ACAD_REACTORS
330
404F
102
}
330
404F
100
AcDbDictionary
281
     1
  0
XRECORD
  5
4077
102
{ACAD_REACTORS
330
404F
102
}
330
404F
100
AcDbXrecord
280
     1
 90
-1023410169
  0
DICTIONARY
  5
426F
102
{ACAD_REACTORS
330
3FFB
102
}
330
3FFB
100
AcDbDictionary
281
     1
  3
DWGSETTINGS
350
4270
  3
TRANSSETTINGS
350
4271
  0
LAYER_INDEX
  5
4A70
102
{ACAD_REACTORS
330
4A6F
102
}
330
4A6F
100
AcDbIndex
 40
2456885.437989907
100
AcDbLayerIndex
  8
0
360
4A71
 90
      421
  8
DIM
360
4A72
 90
       37
  8
CENTER
360
4A73
 90
       46
  8
LOGO
360
4A74
 90
      127
  8
Defpoints
360
4A75
 90
        0
  8
AM_7
360
4A76
 90
        2
  8
AM_5
360
4A77
 90
        0
  0
DICTIONARY
  5
4ED0
330
1E
100
AcDbDictionary
280
     1
281
     1
  3
ACAD_XREC_ROUNDTRIP
360
4ED1
  0
DICTIONARY
  5
4ED4
330
26
100
AcDbDictionary
280
     1
281
     1
  3
ACAD_XREC_ROUNDTRIP
360
4ED5
  0
DICTIONARY
  5
4ED2
330
22
100
AcDbDictionary
280
     1
281
     1
  3
ACAD_XREC_ROUNDTRIP
360
4ED3
  0
IDBUFFER
  5
4A71
330
0
100
AcDbIdBuffer
330
A9
330
AA
330
AB
330
AC
330
B1
330
B2
330
10B3
330
17B4
330
17B5
330
17BF
330
18E7
330
18EA
330
4222
330
4223
330
4224
330
42E3
330
46B1
330
46B2
330
46B3
330
46B4
330
46B5
330
46B6
330
46B7
330
46B8
330
46B9
330
46BA
330
46BB
330
46BC
330
46BD
330
46BE
330
46BF
330
46C0
330
46C1
330
46C2
330
46C3
330
46C4
330
46C5
330
46C6
330
46C7
330
46C8
330
46C9
330
46CA
330
46CB
330
46CC
330
46CD
330
46CE
330
46CF
330
46D0
330
46D1
330
46D2
330
46D3
330
46D4
330
46D5
330
46D6
330
46D7
330
46D8
330
46D9
330
46DA
330
46DB
330
46DC
330
46DD
330
46DE
330
46DF
330
46E0
330
46E1
330
46E2
330
46E3
330
46E4
330
46E5
330
46E6
330
46E7
330
46E8
330
46E9
330
46EA
330
46EB
330
46EC
330
46ED
330
46EE
330
46EF
330
46F0
330
46F1
330
46F2
330
46F3
330
46F4
330
46F5
330
46FA
330
46FB
330
46FC
330
46FD
330
46FE
330
46FF
330
4700
330
4701
330
4702
330
4703
330
4704
330
4705
330
4706
330
4707
330
4708
330
4709
330
470A
330
470B
330
470C
330
470D
330
470E
330
470F
330
4710
330
4711
330
4712
330
4713
330
4714
330
4715
330
4716
330
4717
330
4718
330
4719
330
471A
330
471B
330
471C
330
471D
330
471E
330
471F
330
4720
330
4721
330
4722
330
4723
330
4725
330
4726
330
4727
330
4728
330
4729
330
472A
330
472B
330
472C
330
472D
330
472E
330
472F
330
4730
330
4731
330
4732
330
4733
330
4734
330
4735
330
4736
330
4737
330
4738
330
4739
330
473A
330
473B
330
473C
330
473D
330
473E
330
473F
330
4740
330
4741
330
4742
330
4743
330
4744
330
4745
330
4746
330
4747
330
4748
330
4749
330
474A
330
474B
330
474C
330
474D
330
474E
330
474F
330
4750
330
4751
330
4752
330
4753
330
4754
330
4755
330
4756
330
4757
330
4758
330
4759
330
475A
330
475B
330
475C
330
475D
330
475E
330
475F
330
4760
330
4761
330
4762
330
4763
330
4764
330
4765
330
4766
330
4767
330
4768
330
4769
330
476A
330
476B
330
476C
330
476D
330
476E
330
476F
330
4770
330
4771
330
4772
330
4773
330
4774
330
4775
330
4776
330
4777
330
4778
330
4779
330
477A
330
477B
330
477C
330
477D
330
477E
330
477F
330
4780
330
4781
330
4782
330
4783
330
4784
330
4785
330
4786
330
4787
330
4788
330
4789
330
478A
330
478B
330
478C
330
478D
330
478E
330
478F
330
4790
330
4791
330
4792
330
4793
330
4794
330
4795
330
4796
330
4797
330
4798
330
4799
330
479A
330
479B
330
479C
330
479D
330
479E
330
479F
330
47A0
330
47A1
330
47A2
330
47A3
330
47A4
330
47A5
330
47A6
330
47A7
330
47A8
330
47A9
330
47AA
330
47AB
330
47AC
330
47AD
330
47AE
330
47AF
330
47B0
330
47B1
330
47B2
330
47B3
330
47B4
330
47B5
330
47B6
330
47B7
330
47B8
330
47B9
330
47BA
330
47BB
330
47BC
330
47BD
330
47BE
330
47BF
330
47C0
330
47C1
330
47C2
330
47C3
330
47C4
330
47C5
330
47C6
330
47C7
330
47C8
330
47C9
330
47CA
330
47CF
330
47D0
330
47D1
330
47D2
330
47D3
330
47D4
330
47D5
330
47D6
330
47D7
330
47D8
330
47D9
330
47DA
330
47DB
330
47DC
330
47DD
330
47DE
330
47DF
330
47E0
330
47E1
330
47E2
330
47E3
330
47E4
330
47E5
330
47E6
330
47E7
330
47E8
330
47E9
330
47EA
330
47EB
330
47EC
330
47ED
330
47EE
330
47EF
330
47F0
330
47F1
330
47F2
330
47F3
330
47F4
330
47F5
330
47F6
330
47F7
330
47F8
330
47F9
330
47FA
330
47FB
330
47FC
330
47FD
330
47FE
330
47FF
330
4800
330
4801
330
4802
330
4803
330
4804
330
4805
330
4806
330
4807
330
4808
330
4809
330
480A
330
480B
330
480C
330
480D
330
480E
330
480F
330
4810
330
4811
330
4812
330
4813
330
4814
330
4815
330
4816
330
4817
330
4818
330
4819
330
481A
330
481B
330
481C
330
481D
330
481E
330
481F
330
4820
330
4821
330
4822
330
4823
330
4824
330
4825
330
4826
330
4827
330
4828
330
4829
330
482A
330
482B
330
482C
330
482D
330
482E
330
482F
330
4830
330
4831
330
4832
330
4833
330
4834
330
4835
330
4836
330
4837
330
4838
330
4839
330
483A
330
483B
330
483C
330
4A01
330
4A02
330
4A03
330
4A04
330
4A05
330
4A06
330
4A07
330
4A08
330
4A09
330
4A0A
330
4AFC
330
4AFE
330
4B59
330
4B5B
330
4C2B
330
4C2C
330
4C35
330
4C36
  0
IDBUFFER
  5
4A72
330
0
100
AcDbIdBuffer
330
3BD0
330
3BD3
330
3BD6
330
3BD9
330
3BEB
330
4AD5
330
4AFF
330
4B00
330
4BFF
330
4C30
330
4C31
330
4C32
330
4C38
330
4C39
330
4C3A
330
4C4A
330
4C7B
330
4CAC
330
4CD0
330
4D0D
330
4D0E
330
4D11
330
4D12
330
4D14
330
4D16
330
4D17
330
4D27
330
4D5B
330
4D5C
330
4D5D
330
4D5E
330
4D5F
330
4D60
330
4D61
330
4D62
330
4D64
330
4D65
  0
IDBUFFER
  5
4A73
330
0
100
AcDbIdBuffer
330
3B06
330
3B07
330
3B8A
330
3B8B
330
3B8C
330
3B8D
330
3B8E
330
3B8F
330
3B90
330
3B91
330
49DF
330
49E0
330
49E1
330
49E2
330
49E3
330
49E4
330
49E5
330
49E6
330
49E7
330
49E8
330
49E9
330
49EA
330
49EB
330
49EC
330
49ED
330
49EE
330
49EF
330
49F0
330
49F1
330
49F2
330
49F3
330
49F4
330
49F5
330
49F6
330
49F7
330
49F8
330
49F9
330
49FA
330
49FB
330
49FC
330
49FD
330
49FE
330
49FF
330
4A00
330
4C34
330
4C37
  0
IDBUFFER
  5
4A74
330
0
100
AcDbIdBuffer
330
17BD
330
17BE
330
17C3
330
17C4
330
17C5
330
17C6
330
17C7
330
1802
330
1803
330
1804
330
1805
330
1806
330
1807
330
1808
330
1809
330
180A
330
180B
330
180C
330
180D
330
180E
330
180F
330
1810
330
1868
330
1869
330
186A
330
186B
330
186C
330
186D
330
186E
330
186F
330
1870
330
1871
330
1872
330
1873
330
1874
330
1875
330
1876
330
1877
330
1878
330
1879
330
187A
330
187B
330
187C
330
187D
330
187E
330
187F
330
1880
330
1881
330
1882
330
1883
330
1885
330
1886
330
1887
330
1888
330
1889
330
188A
330
188B
330
188C
330
188D
330
188E
330
188F
330
1890
330
1891
330
41CE
330
41CF
330
41D0
330
41D1
330
41D2
330
41D3
330
41D4
330
41D5
330
41D6
330
41D7
330
41D8
330
41D9
330
41DA
330
41DB
330
41DC
330
41DD
330
41DE
330
41DF
330
41E0
330
41E1
330
41E2
330
41E3
330
41E4
330
41E5
330
41E6
330
41E7
330
41E8
330
41E9
330
41EA
330
41EE
330
41F2
330
41F3
330
41F7
330
41F8
330
41F9
330
41FA
330
41FB
330
41FC
330
41FD
330
41FE
330
4202
330
4206
330
420A
330
420B
330
420C
330
4210
330
4211
330
4212
330
4213
330
4214
330
4215
330
4216
330
4217
330
4218
330
4219
330
421A
330
421B
330
421C
330
421D
330
421E
330
421F
330
4220
330
4221
330
4225
  0
IDBUFFER
  5
4A75
330
0
100
AcDbIdBuffer
  0
IDBUFFER
  5
4A76
330
0
100
AcDbIdBuffer
330
4AFB
330
4AFD
  0
IDBUFFER
  5
4A77
330
0
100
AcDbIdBuffer
  0
XRECORD
  5
4ED1
102
{ACAD_REACTORS
330
4ED0
102
}
330
4ED0
100
AcDbXrecord
280
     1
102
SHADEPLOT
 70
     0
102
SHADEPLOTRESLEVEL
 70
     2
102
SHADEPLOTCUSTOMDPI
 70
   300
  0
XRECORD
  5
4ED5
102
{ACAD_REACTORS
330
4ED4
102
}
330
4ED4
100
AcDbXrecord
280
     1
102
SHADEPLOT
 70
     0
102
SHADEPLOTRESLEVEL
 70
     2
102
SHADEPLOTCUSTOMDPI
 70
   300
  0
XRECORD
  5
4ED3
102
{ACAD_REACTORS
330
4ED2
102
}
330
4ED2
100
AcDbXrecord
280
     1
102
SHADEPLOT
 70
     0
102
SHADEPLOTRESLEVEL
 70
     2
102
SHADEPLOTCUSTOMDPI
 70
   300
  0
ENDSEC
  0
EOF
