  0
SECTION
  2
HEADER
  9
$ACADVER
  1
AC1015
  9
$ACADMAINTVER
 70
    20
  9
$DWGCODEPAGE
  3
ANSI_950
  9
$INSBASE
 10
0.0
 20
0.0
 30
0.0
  9
$EXTMIN
 10
57.12655326396907
 20
7.016729279656885
 30
-0.0055689685013363
  9
$EXTMAX
 10
271.6360742018455
 20
251.5658455577616
 30
182.5034529391925
  9
$LIMMIN
 10
0.0
 20
0.0
  9
$LIMMAX
 10
12.0
 20
9.0
  9
$ORTHOMODE
 70
     0
  9
$REGENMODE
 70
     1
  9
$FILLMODE
 70
     1
  9
$QTEXTMODE
 70
     0
  9
$MIRRTEXT
 70
     1
  9
$LTSCALE
 40
3.0
  9
$ATTMODE
 70
     1
  9
$TEXTSIZE
 40
4.5
  9
$TRACEWID
 40
0.05
  9
$TEXTSTYLE
  7
CHINESET
  9
$CLAYER
  8
0
  9
$CELTYPE
  6
ByLayer
  9
$CECOLOR
 62
   256
  9
$CELTSCALE
 40
1.0
  9
$DISPSILH
 70
     0
  9
$DIMSCALE
 40
1.0
  9
$DIMASZ
 40
3.0
  9
$DIMEXO
 40
3.0
  9
$DIMDLI
 40
2.0
  9
$DIMRND
 40
0.0
  9
$DIMDLE
 40
0.0
  9
$DIMEXE
 40
2.0
  9
$DIMTP
 40
0.0
  9
$DIMTM
 40
0.0
  9
$DIMTXT
 40
3.0
  9
$DIMCEN
 40
-3.0
  9
$DIMTSZ
 40
0.0
  9
$DIMTOL
 70
     0
  9
$DIMLIM
 70
     0
  9
$DIMTIH
 70
     0
  9
$DIMTOH
 70
     0
  9
$DIMSE1
 70
     0
  9
$DIMSE2
 70
     0
  9
$DIMTAD
 70
     1
  9
$DIMZIN
 70
     8
  9
$DIMBLK
  1

  9
$DIMASO
 70
     1
  9
$DIMSHO
 70
     1
  9
$DIMPOST
  1

  9
$DIMAPOST
  1

  9
$DIMALT
 70
     0
  9
$DIMALTD
 70
     2
  9
$DIMALTF
 40
25.4
  9
$DIMLFAC
 40
1.0
  9
$DIMTOFL
 70
     1
  9
$DIMTVP
 40
0.0
  9
$DIMTIX
 70
     0
  9
$DIMSOXD
 70
     0
  9
$DIMSAH
 70
     0
  9
$DIMBLK1
  1

  9
$DIMBLK2
  1

  9
$DIMSTYLE
  2
ISO-25-1
  9
$DIMCLRD
 70
   256
  9
$DIMCLRE
 70
   256
  9
$DIMCLRT
 70
   256
  9
$DIMTFAC
 40
0.7
  9
$DIMGAP
 40
1.0
  9
$DIMJUST
 70
     0
  9
$DIMSD1
 70
     0
  9
$DIMSD2
 70
     0
  9
$DIMTOLJ
 70
     1
  9
$DIMTZIN
 70
     8
  9
$DIMALTZ
 70
     0
  9
$DIMALTTZ
 70
     0
  9
$DIMUPT
 70
     0
  9
$DIMDEC
 70
     2
  9
$DIMTDEC
 70
     8
  9
$DIMALTU
 70
     2
  9
$DIMALTTD
 70
     2
  9
$DIMTXSTY
  7
CHINESET
  9
$DIMAUNIT
 70
     0
  9
$DIMADEC
 70
     0
  9
$DIMALTRND
 40
0.0
  9
$DIMAZIN
 70
     2
  9
$DIMDSEP
 70
    46
  9
$DIMATFIT
 70
     0
  9
$DIMFRAC
 70
     0
  9
$DIMLDRBLK
  1

  9
$DIMLUNIT
 70
     2
  9
$DIMLWD
 70
    -1
  9
$DIMLWE
 70
    -1
  9
$DIMTMOVE
 70
     0
  9
$LUNITS
 70
     2
  9
$LUPREC
 70
     2
  9
$SKETCHINC
 40
0.1
  9
$FILLETRAD
 40
0.5
  9
$AUNITS
 70
     0
  9
$AUPREC
 70
     0
  9
$MENU
  1
.
  9
$ELEVATION
 40
0.0
  9
$PELEVATION
 40
0.0
  9
$THICKNESS
 40
0.0
  9
$LIMCHECK
 70
     0
  9
$CHAMFERA
 40
1.0
  9
$CHAMFERB
 40
1.0
  9
$CHAMFERC
 40
1.0
  9
$CHAMFERD
 40
0.0
  9
$SKPOLY
 70
     0
  9
$TDCREATE
 40
2452019.631085301
  9
$TDUCREATE
 40
2452019.297751968
  9
$TDUPDATE
 40
2456885.440351737
  9
$TDUUPDATE
 40
2456885.107018403
  9
$TDINDWG
 40
0.5984357986
  9
$TDUSRTIMER
 40
0.5984357986
  9
$USRTIMER
 70
     1
  9
$ANGBASE
 50
0.0
  9
$ANGDIR
 70
     0
  9
$PDMODE
 70
     0
  9
$PDSIZE
 40
0.0
  9
$PLINEWID
 40
0.0
  9
$SPLFRAME
 70
     0
  9
$SPLINETYPE
 70
     6
  9
$SPLINESEGS
 70
     8
  9
$HANDSEED
  5
4C79
  9
$SURFTAB1
 70
     6
  9
$SURFTAB2
 70
     6
  9
$SURFTYPE
 70
     6
  9
$SURFU
 70
     6
  9
$SURFV
 70
     6
  9
$UCSBASE
  2

  9
$UCSNAME
  2

  9
$UCSORG
 10
0.0
 20
0.0
 30
0.0
  9
$UCSXDIR
 10
1.0
 20
0.0
 30
0.0
  9
$UCSYDIR
 10
0.0
 20
1.0
 30
0.0
  9
$UCSORTHOREF
  2

  9
$UCSORTHOVIEW
 70
     0
  9
$UCSORGTOP
 10
0.0
 20
0.0
 30
0.0
  9
$UCSORGBOTTOM
 10
0.0
 20
0.0
 30
0.0
  9
$UCSORGLEFT
 10
0.0
 20
0.0
 30
0.0
  9
$UCSORGRIGHT
 10
0.0
 20
0.0
 30
0.0
  9
$UCSORGFRONT
 10
0.0
 20
0.0
 30
0.0
  9
$UCSORGBACK
 10
0.0
 20
0.0
 30
0.0
  9
$PUCSBASE
  2

  9
$PUCSNAME
  2

  9
$PUCSORG
 10
0.0
 20
0.0
 30
0.0
  9
$PUCSXDIR
 10
1.0
 20
0.0
 30
0.0
  9
$PUCSYDIR
 10
0.0
 20
1.0
 30
0.0
  9
$PUCSORTHOREF
  2

  9
$PUCSORTHOVIEW
 70
     0
  9
$PUCSORGTOP
 10
0.0
 20
0.0
 30
0.0
  9
$PUCSORGBOTTOM
 10
0.0
 20
0.0
 30
0.0
  9
$PUCSORGLEFT
 10
0.0
 20
0.0
 30
0.0
  9
$PUCSORGRIGHT
 10
0.0
 20
0.0
 30
0.0
  9
$PUCSORGFRONT
 10
0.0
 20
0.0
 30
0.0
  9
$PUCSORGBACK
 10
0.0
 20
0.0
 30
0.0
  9
$USERI1
 70
     0
  9
$USERI2
 70
     0
  9
$USERI3
 70
     0
  9
$USERI4
 70
     0
  9
$USERI5
 70
     0
  9
$USERR1
 40
0.0
  9
$USERR2
 40
0.0
  9
$USERR3
 40
0.0
  9
$USERR4
 40
0.0
  9
$USERR5
 40
0.0
  9
$WORLDVIEW
 70
     1
  9
$SHADEDGE
 70
     3
  9
$SHADEDIF
 70
    70
  9
$TILEMODE
 70
     1
  9
$MAXACTVP
 70
    48
  9
$PINSBASE
 10
0.0
 20
0.0
 30
0.0
  9
$PLIMCHECK
 70
     0
  9
$PEXTMIN
 10
1.000000000000000E+20
 20
1.000000000000000E+20
 30
1.000000000000000E+20
  9
$PEXTMAX
 10
-1.000000000000000E+20
 20
-1.000000000000000E+20
 30
-1.000000000000000E+20
  9
$PLIMMIN
 10
0.0
 20
0.0
  9
$PLIMMAX
 10
12.0
 20
9.0
  9
$UNITMODE
 70
     0
  9
$VISRETAIN
 70
     1
  9
$PLINEGEN
 70
     0
  9
$PSLTSCALE
 70
     1
  9
$TREEDEPTH
 70
  3020
  9
$CMLSTYLE
  2
Standard
  9
$CMLJUST
 70
     0
  9
$CMLSCALE
 40
1.0
  9
$PROXYGRAPHICS
 70
     1
  9
$MEASUREMENT
 70
     1
  9
$CELWEIGHT
370
    -1
  9
$ENDCAPS
280
     0
  9
$JOINSTYLE
280
     0
  9
$LWDISPLAY
290
     0
  9
$INSUNITS
 70
     1
  9
$HYPERLINKBASE
  1

  9
$STYLESHEET
  1
彩色出圖.ctb
  9
$XEDIT
290
     1
  9
$CEPSNTYPE
380
     0
  9
$PSTYLEMODE
290
     1
  9
$FINGERPRINTGUID
  2
{FDEAD576-A652-11D2-9A35-0060089B3A3F}
  9
$VERSIONGUID
  2
{032769BF-F511-4BE2-8E05-0CE93ADC466D}
  9
$EXTNAMES
290
     1
  9
$PSVPSCALE
 40
0.0
  9
$OLESTARTUP
290
     0
  0
ENDSEC
  0
SECTION
  2
CLASSES
  0
CLASS
  1
ACDBDICTIONARYWDFLT
  2
AcDbDictionaryWithDefault
  3
ObjectDBX Classes
 90
        0
280
     0
281
     0
  0
CLASS
  1
ACDBPLACEHOLDER
  2
AcDbPlaceHolder
  3
ObjectDBX Classes
 90
        0
280
     0
281
     0
  0
CLASS
  1
LAYOUT
  2
AcDbLayout
  3
ObjectDBX Classes
 90
        0
280
     0
281
     0
  0
CLASS
  1
DICTIONARYVAR
  2
AcDbDictionaryVar
  3
ObjectDBX Classes
 90
        0
280
     0
281
     0
  0
CLASS
  1
TABLESTYLE
  2
AcDbTableStyle
  3
ObjectDBX Classes
 90
     2047
280
     0
281
     0
  0
CLASS
  1
DIMASSOC
  2
AcDbDimAssoc
  3
"AcDbDimAssoc|Product Desc:     AcDim ARX App For Dimension|Company:          Autodesk, Inc.|WEB Address:      www.autodesk.com"
 90
    32768
280
     0
281
     0
  0
CLASS
  1
SORTENTSTABLE
  2
AcDbSortentsTable
  3
ObjectDBX Classes
 90
        0
280
     0
281
     0
  0
CLASS
  1
ACME_DOCUMENT
  2
AcMeDbDoc
  3
AcMeServices
 90
        0
280
     0
281
     0
  0
CLASS
  1
AMGSETTINGSOBJ
  2
AmgSettingsObj
  3
"AcadM|Product Description: AutoCAD Mechanical 2000|Company: Autodesk"
 90
        0
280
     0
281
     0
  0
CLASS
  1
ACMESCOPE
  2
AcMeScope
  3
AcMeServices
 90
        0
280
     0
281
     0
  0
CLASS
  1
ACMECOMMANDHISTORY
  2
AcMeCommandHistory
  3
AcMeServices
 90
        0
280
     0
281
     0
  0
CLASS
  1
ACIMSYSVARMAN
  2
AcImSysVarManager
  3
AcMeServices
 90
        0
280
     0
281
     0
  0
CLASS
  1
ACIMINTSYSVAR
  2
AcImIntSysVar
  3
AcMeServices
 90
        0
280
     0
281
     0
  0
CLASS
  1
ACMEDRAWINGMAN
  2
AcMeDrawingMan
  3
AcMeServices
 90
        0
280
     0
281
     0
  0
CLASS
  1
ACMEVIEW
  2
AcMeView
  3
AcMeServices
 90
        0
280
     0
281
     0
  0
CLASS
  1
ACDBENTITYCACHE
  2
AcMeEntityCache
  3
AcMeServices
 90
        0
280
     0
281
     0
  0
CLASS
  1
GSMANAGER
  2
AcMeGSManager
  3
AcMeServices
 90
        0
280
     0
281
     0
  0
CLASS
  1
AMDTINTERNALREACTOR
  2
AmdtInternalReactor
  3
AcMeServices
 90
        0
280
     0
281
     0
  0
CLASS
  1
ACMESTATEMGR
  2
AcMeStateMgr
  3
AcMeServices
 90
        0
280
     0
281
     0
  0
CLASS
  1
ACGREFMASTER
  2
AcGrefMaster
  3
AcAttribServices
 90
        0
280
     0
281
     0
  0
CLASS
  1
AM_DRAWING_MGR
  2
AcDmDwgMgr
  3
AcMechDwgViewMgmt
 90
        0
280
     0
281
     0
  0
CLASS
  1
AM_DWG_DOCUMENT
  2
AcDmDwgDocument
  3
AcMechDwgViewMgmt
 90
        0
280
     0
281
     0
  0
CLASS
  1
AM_DWG_SHEET
  2
AcDmSheet
  3
AcMechDwgViewMgmt
 90
        0
280
     0
281
     0
  0
CLASS
  1
AM_VIEWDIMPARMAP
  2
AcDmViewDimParMap
  3
AcMechDwgViewMgmt
 90
        0
280
     0
281
     0
  0
CLASS
  1
ACIMREALSYSVAR
  2
AcImRealSysVar
  3
AcMeServices
 90
        0
280
     0
281
     0
  0
CLASS
  1
AM_DWGMGR_NAME
  2
AcDmDwgMgrName
  3
AcMechDwgViewMgmt
 90
        0
280
     0
281
     0
  0
CLASS
  1
ACME_DATABASE
  2
AcMeDbDatabase
  3
AcMeServices
 90
        0
280
     0
281
     0
  0
CLASS
  1
ACRFINSADJUSTERMGR
  2
AcRfInsAdjusterMgr
  3
AcMeServices
 90
        0
280
     0
281
     0
  0
CLASS
  1
ACGREFACADMASTER
  2
AcGrefacadMaster
  3
AcGrefServices
 90
        0
280
     0
281
     0
  0
CLASS
  1
AMDTMENUSTATEMGR
  2
AmdtMenuStateMgr
  3
McadcomServices
 90
        0
280
     0
281
     0
  0
CLASS
  1
AMDTMCOMMENUSTATE
  2
AmdtMcomMenuState
  3
McadcomServices
 90
        0
280
     0
281
     0
  0
CLASS
  1
AMIMASTER
  2
AmiMaster
  3
AmiServices
 90
        0
280
     0
281
     0
  0
CLASS
  1
MAPIAMMOUDLE
  2
MApiAmModule
  3
MApiAmServices
 90
        0
280
     0
281
     0
  0
CLASS
  1
AMDTADMENUSTATE
  2
AmdtAdMenuState
  3
DesignerServices
 90
        0
280
     0
281
     0
  0
CLASS
  1
ADAPPL
  2
AcAdAppl
  3
DesignerServices
 90
        0
280
     0
281
     0
  0
CLASS
  1
DEPMGR
  2
AcAdDepMgr
  3
DesignerServices
 90
        0
280
     0
281
     0
  0
CLASS
  1
PARAMMGR
  2
AcAdParamMgr
  3
DesignerServices
 90
        0
280
     0
281
     0
  0
CLASS
  1
PARAMSCOPE
  2
AcAdParamScope
  3
DesignerServices
 90
        0
280
     0
281
     0
  0
CLASS
  1
NAMEDAPPL
  2
AcAdNamedAppl
  3
DesignerServices
 90
        0
280
     0
281
     0
  0
CLASS
  1
AMDTDMMENUSTATE
  2
AmdtDmMenuState
  3
AcMechDwgViewMgmt
 90
        0
280
     0
281
     0
  0
CLASS
  1
AMDTAMMENUSTATE
  2
AmdtAmMenuState
  3
DesignerAssemblies
 90
        0
280
     0
281
     0
  0
CLASS
  1
ACIMSTRSYSVAR
  2
AcImStrSysVar
  3
AcMeServices
 90
        0
280
     0
281
     0
  0
CLASS
  1
ACAMPROJECT
  2
AcAmProject
  3
DesignerAssemblies
 90
        0
280
     0
281
     0
  0
CLASS
  1
ACAMGRCOMPDEF
  2
AcAmGrCompDef
  3
DesignerAssemblies
 90
        0
280
     0
281
     0
  0
CLASS
  1
ACCMCONTEXT
  2
AcCmContext
  3
DesignerAssemblies
 90
        0
280
     0
281
     0
  0
CLASS
  1
ACAMCOMPDEF
  2
AcAmCompDef
  3
DesignerAssemblies
 90
        0
280
     0
281
     0
  0
CLASS
  1
ACAMCOMPDEFMGR
  2
AcAmCompDefMgr
  3
DesignerAssemblies
 90
        0
280
     0
281
     0
  0
CLASS
  1
AMCONTEXTMGR
  2
AcAmContextMgr
  3
DesignerAssemblies
 90
        0
280
     0
281
     0
  0
CLASS
  1
ACAMCONTEXTMODELER
  2
AcAmContextModeler
  3
DesignerAssemblies
 90
        0
280
     0
281
     0
  0
CLASS
  1
ACMDATADICTIONARY
  2
AcmDataDictionary
  3
"AcmSymBB|Product Description: AutoCAD Mechanical 2004 DX|Company: Autodesk"
 90
        0
280
     0
281
     0
  0
CLASS
  1
CATALOGSTATE
  2
AcAmCatalogState
  3
DesignerAssemblies
 90
        0
280
     0
281
     0
  0
CLASS
  1
ACAMGRCOMPDEFSET
  2
AcAmGrCompDefSet
  3
DesignerAssemblies
 90
        0
280
     0
281
     0
  0
CLASS
  1
AMDTBROWSERDBTAB
  2
AmdtBrowserDbTab
  3
McadcomServices
 90
        0
280
     0
281
     0
  0
CLASS
  1
CBROWSERAPPOBJECT
  2
CBrowserAppObject
  3
McadcomServices
 90
        0
280
     0
281
     0
  0
CLASS
  1
DM_PLACEHOLDER
  2
AcDmSelsetPlaceholder
  3
AcMechDwgViewMgmt
 90
        0
280
     0
281
     0
  0
CLASS
  1
ACMSTANDARDISO
  2
AcmStandardISO
  3
"Amdt_StdImp|Product Description: AutoCAD Mechanical 2004 DX|Company: Autodesk"
 90
        0
280
     0
281
     0
  0
CLASS
  1
AMGOBJPROPCFG
  2
AmgObjPropCfg
  3
"AmgLay|Product Description: AutoCAD Mechanical 2000|Company: Autodesk"
 90
        1
280
     0
281
     0
  0
CLASS
  1
AMDTEDGESTANDARDISO13715
  2
AmdtEdgeStdISO13715
  3
"Amdt_StdImp|Product Description: AutoCAD Mechanical 2004 DX|Company: Autodesk"
 90
        0
280
     0
281
     0
  0
CLASS
  1
ACMSURFSTANDARDISO
  2
AcmSurfTextStdISO
  3
"Amdt_StdImp|Product Description: AutoCAD Mechanical 2004 DX|Company: Autodesk"
 90
        0
280
     0
281
     0
  0
CLASS
  1
ACMFCFSTANDARDISO
  2
AcmFCFStdISO
  3
"Amdt_StdImp|Product Description: AutoCAD Mechanical 2004 DX|Company: Autodesk"
 90
        0
280
     0
281
     0
  0
CLASS
  1
ACMWELDSTANDARDISO
  2
AcmWeldingStdISO
  3
"Amdt_StdImp|Product Description: AutoCAD Mechanical 2004 DX|Company: Autodesk"
 90
        0
280
     0
281
     0
  0
CLASS
  1
ACMIDSTANDARDISO
  2
AcmIdStdISO
  3
"Amdt_StdImp|Product Description: AutoCAD Mechanical 2004 DX|Company: Autodesk"
 90
        0
280
     0
281
     0
  0
CLASS
  1
ACMDATUMSTANDARDISO
  2
AcmDatumStdISO
  3
"Amdt_StdImp|Product Description: AutoCAD Mechanical 2004 DX|Company: Autodesk"
 90
        0
280
     0
281
     0
  0
CLASS
  1
ACMBOMSTANDARDISO
  2
AcmBOMStdISO
  3
"Amdt_StdImp|Product Description: AutoCAD Mechanical 2004 DX|Company: Autodesk"
 90
        0
280
     0
281
     0
  0
CLASS
  1
ACMDETAILSTANDARDISO
  2
AmdtDetailSymStdISO
  3
"Amdt_StdImp|Product Description: AutoCAD Mechanical 2004 DX|Company: Autodesk"
 90
        0
280
     0
281
     0
  0
CLASS
  1
ACMSECTIONSTANDARDISO
  2
AmdtSectionSymStdISO
  3
"Amdt_StdImp|Product Description: AutoCAD Mechanical 2004 DX|Company: Autodesk"
 90
        0
280
     0
281
     0
  0
CLASS
  1
ACMCENTERLINESTANDARDISO
  2
AmdtCenterLineStdISO
  3
"Amdt_StdImp|Product Description: AutoCAD Mechanical 2004 DX|Company: Autodesk"
 90
        0
280
     0
281
     0
  0
CLASS
  1
ACMTHREADLINESTANDARDISO
  2
AmdtThreadLineStdISO
  3
"Amdt_StdImp|Product Description: AutoCAD Mechanical 2004 DX|Company: Autodesk"
 90
        0
280
     0
281
     0
  0
CLASS
  1
ACMNOTESTANDARDISO
  2
AmdtNoteStdISO
  3
"Amdt_StdImp|Product Description: AutoCAD Mechanical 2004 DX|Company: Autodesk"
 90
        0
280
     0
281
     0
  0
CLASS
  1
AMDTNOTETEMPLATEDB
  2
AmdtNoteTemplateDB
  3
AMDT_STDIMP_MODULE_NAME
 90
        0
280
     0
281
     0
  0
CLASS
  1
ACAMGLAYSTD
  2
AcAmgLayStd
  3
"AcAmgLayStd|Product Description: AutoCAD Mechanical 2000|Company: Autodesk"
 90
        0
280
     0
281
     0
  0
CLASS
  1
ACAMGDIMSTD
  2
AcAmgDimStd
  3
"AcAmgDimStd|Product Description: AutoCAD Mechanical 2000|Company: Autodesk"
 90
        0
280
     0
281
     0
  0
CLASS
  1
ACAMGHOLECHARTSTDISO
  2
AcAmgHoleChartStdISO
  3
ACMSYMBB_MODULE_NAME
 90
        0
280
     0
281
     0
  0
CLASS
  1
ACAMGTITLESTD
  2
AcAmgTitleStd
  3
"TITLEAPP"
 90
        0
280
     0
281
     0
  0
CLASS
  1
ACAMGFILTERDAT
  2
AcAmgFilterDat
  3
"AcadM|Product Description: AutoCAD Mechanical 2000|Company: Autodesk"
 90
    32768
280
     0
281
     0
  0
CLASS
  1
ASAPP
  2
AcAsAppObject
  3
AutoSurfServices
 90
        0
280
     0
281
     0
  0
CLASS
  1
IM_STATIC_MAN
  2
AcImStaticVarManager
  3
AcMeServices
 90
        0
280
     0
281
     0
  0
CLASS
  1
ACIMDBLSTATICVAR
  2
AcImDblStaticVar
  3
AcMeServices
 90
        0
280
     0
281
     0
  0
CLASS
  1
ACIMSTRSTATICVAR
  2
AcImStrStaticVar
  3
AcMeServices
 90
        0
280
     0
281
     0
  0
CLASS
  1
ACIMINTSTATICVAR
  2
AcImIntStaticVar
  3
AcMeServices
 90
        0
280
     0
281
     0
  0
CLASS
  1
ACASGREFMASTER
  2
AcAsGrefMaster
  3
AutoSurfResolverServices
 90
        0
280
     0
281
     0
  0
CLASS
  1
ACADGREFMODULE
  2
AcAdGrefModule
  3
AdGrefServices
 90
        0
280
     0
281
     0
  0
CLASS
  1
AMDTMAPISURFMOUDULE
  2
AmdtMApiSurfModule
  3
MApiSurfServices
 90
        0
280
     0
281
     0
  0
CLASS
  1
MAPIADMODULE
  2
MApiAdModule
  3
MApiAdServices
 90
        0
280
     0
281
     0
  0
CLASS
  1
ACMDATAENTRYBLOCK
  2
AcmDataEntryBlock
  3
"AcmSymBB|Product Description: AutoCAD Mechanical 2004 DX|Company: Autodesk"
 90
        0
280
     0
281
     0
  0
CLASS
  1
LAYER_INDEX
  2
AcDbLayerIndex
  3
ObjectDBX Classes
 90
        0
280
     0
281
     0
  0
CLASS
  1
IDBUFFER
  2
AcDbIdBuffer
  3
ObjectDBX Classes
 90
        0
280
     0
281
     0
  0
ENDSEC
  0
SECTION
  2
TABLES
  0
TABLE
  2
VPORT
  5
8
330
0
100
AcDbSymbolTable
 70
     6
  0
VPORT
  5
4C70
330
8
100
AcDbSymbolTableRecord
100
AcDbViewportTableRecord
  2
*Active
 70
     0
 10
0.0
 20
0.0
 11
1.0
 21
1.0
 12
209.4269786869842
 22
148.0792289304468
 13
0.0
 23
0.0
 14
0.5
 24
0.5
 15
0.5
 25
0.5
 16
0.0
 26
0.0
 36
1.0
 17
0.0
 27
0.0
 37
0.0
 40
357.4314247696801
 41
1.263157894736842
 42
50.0
 43
0.0
 44
0.0
 50
0.0
 51
0.0
 71
     0
 72
   100
 73
     1
 74
     3
 75
     0
 76
     0
 77
     0
 78
     0
281
     0
 65
     1
110
0.0
120
0.0
130
0.0
111
1.0
121
0.0
131
0.0
112
0.0
122
1.0
132
0.0
 79
     0
146
0.0
  0
ENDTAB
  0
TABLE
  2
LTYPE
  5
5
330
0
100
AcDbSymbolTable
 70
    16
  0
LTYPE
  5
14
330
5
100
AcDbSymbolTableRecord
100
AcDbLinetypeTableRecord
  2
ByBlock
 70
     0
  3

 72
    65
 73
     0
 40
0.0
  0
LTYPE
  5
15
330
5
100
AcDbSymbolTableRecord
100
AcDbLinetypeTableRecord
  2
ByLayer
 70
     0
  3

 72
    65
 73
     0
 40
0.0
  0
LTYPE
  5
16
330
5
100
AcDbSymbolTableRecord
100
AcDbLinetypeTableRecord
  2
Continuous
 70
     0
  3
Solid line
 72
    65
 73
     0
 40
0.0
  0
LTYPE
  5
4F
330
5
100
AcDbSymbolTableRecord
100
AcDbLinetypeTableRecord
  2
CENTER
 70
     0
  3
Center ____ _ ____ _ ____ _ ____ _ ____ _ ____
 72
    65
 73
     4
 40
2.0
 49
1.25
 74
     0
 49
-0.25
 74
     0
 49
0.25
 74
     0
 49
-0.25
 74
     0
  0
LTYPE
  5
3145
330
5
100
AcDbSymbolTableRecord
100
AcDbLinetypeTableRecord
  2
HIDDEN
 70
     0
  3
__ __ __ __ __ __ __ __ __ __ __ __ __ __ __ __
 72
    65
 73
     2
 40
0.375
 49
0.25
 74
     0
 49
-0.125
 74
     0
  0
LTYPE
  5
3146
330
5
100
AcDbSymbolTableRecord
100
AcDbLinetypeTableRecord
  2
PHANTOM2
 70
     0
  3
___ _ _ ___ _ _ ___ _ _ ___ _ _ ___ _ _ ___ _ _
 72
    65
 73
     6
 40
1.25
 49
0.625
 74
     0
 49
-0.125
 74
     0
 49
0.125
 74
     0
 49
-0.125
 74
     0
 49
0.125
 74
     0
 49
-0.125
 74
     0
  0
LTYPE
  5
314B
330
5
100
AcDbSymbolTableRecord
100
AcDbLinetypeTableRecord
  2
Amconstr
 70
     0
  3
_______________________
 72
    65
 73
     2
 40
9999.0
 49
9999.0
 74
     0
 49
0.0
 74
     0
  0
LTYPE
  5
3910
330
5
100
AcDbSymbolTableRecord
100
AcDbLinetypeTableRecord
  2
AM_ISO02W050
 70
     0
  3
__ __ __ __ __ __ __ __ __ __ __ __ __ __ __
 72
    65
 73
     2
 40
7.5
 49
6.0
 74
     0
 49
-1.5
 74
     0
  0
LTYPE
  5
3911
330
5
100
AcDbSymbolTableRecord
100
AcDbLinetypeTableRecord
  2
AM_ISO08W050
 70
     0
  3
____ . ____ . ____ . ____ . ____ . ____ . ____
 72
    65
 73
     4
 40
18.0
 49
12.0
 74
     0
 49
-1.5
 74
     0
 49
3.0
 74
     0
 49
-1.5
 74
     0
  0
LTYPE
  5
3912
330
5
100
AcDbSymbolTableRecord
100
AcDbLinetypeTableRecord
  2
AM_ISO09W050
 70
     0
  3
_____ . . _____ . . _____ . . ____ .. ____
 72
    65
 73
     6
 40
22.5
 49
12.0
 74
     0
 49
-1.5
 74
     0
 49
3.0
 74
     0
 49
-1.5
 74
     0
 49
3.0
 74
     0
 49
-1.5
 74
     0
  0
LTYPE
  5
3913
330
5
100
AcDbSymbolTableRecord
100
AcDbLinetypeTableRecord
  2
AM_ISO08W050x2
 70
     0
  3
__ . __ . __ . __ . __ . __
 72
    65
 73
     4
 40
9.0
 49
6.0
 74
     0
 49
-0.75
 74
     0
 49
1.5
 74
     0
 49
-0.75
 74
     0
  0
LTYPE
  5
3914
330
5
100
AcDbSymbolTableRecord
100
AcDbLinetypeTableRecord
  2
AM_ISO02W050x2
 70
     0
  3
 _ _ _ _ _ _ _ _ _ _ _ _
 72
    65
 73
     2
 40
3.75
 49
3.0
 74
     0
 49
-0.75
 74
     0
  0
LTYPE
  5
3915
330
5
100
AcDbSymbolTableRecord
100
AcDbLinetypeTableRecord
  2
Amzigzag
 70
     0
  3
/\/-/\/-/\/-/\/-/\/-/\/
 72
    65
 73
     2
 40
11.0001
 49
0.0001
 74
     4
 75
   135
340
3150
 46
0.04
 50
0.0
 44
0.0
 45
0.0
 49
-11.0
 74
     0
  0
LTYPE
  5
3924
330
5
100
AcDbSymbolTableRecord
100
AcDbLinetypeTableRecord
  2
ACISOWELD
 70
     0
  3
_ _ _ _ _
 72
    65
 73
     2
 40
2.0
 49
2.0
 74
     0
 49
-1.0
 74
     0
  0
LTYPE
  5
3925
330
5
100
AcDbSymbolTableRecord
100
AcDbLinetypeTableRecord
  2
ACISOTGB
 70
     0
  3
__ . . __ . .
 72
    65
 73
     6
 40
9.0
 49
4.0
 74
     0
 49
-1.0
 74
     0
 49
1.0
 74
     0
 49
-1.0
 74
     0
 49
1.0
 74
     0
 49
-1.0
 74
     0
  0
LTYPE
  5
3926
330
5
100
AcDbSymbolTableRecord
100
AcDbLinetypeTableRecord
  2
ACISOTGL
 70
     0
  3
_ _ _ _ _
 72
    65
 73
     2
 40
3.0
 49
2.0
 74
     0
 49
-1.0
 74
     0
  0
LTYPE
  5
3CED
330
5
100
AcDbSymbolTableRecord
100
AcDbLinetypeTableRecord
  2
ASULTYPE
 70
     0
  3
實線
 72
    65
 73
     2
 40
3.0
 49
2.5
 74
     0
 49
0.5
 74
     0
  0
LTYPE
  5
3CEE
330
5
100
AcDbSymbolTableRecord
100
AcDbLinetypeTableRecord
  2
ASVLTYPE
 70
     0
  3
__ __ __ __ __ __ __ __ __ __ __ __ __ __ __ __ __ __ __ __ __
 72
    65
 73
     2
 40
0.75
 49
0.5
 74
     0
 49
-0.25
 74
     0
  0
ENDTAB
  0
TABLE
  2
LAYER
  5
2
102
{ACAD_XDICTIONARY
360
315B
102
}
330
0
100
AcDbSymbolTable
 70
     9
  0
LAYER
  5
10
330
2
100
AcDbSymbolTableRecord
100
AcDbLayerTableRecord
  2
0
 70
     0
 62
     7
  6
Continuous
370
    -3
390
F
  0
LAYER
  5
48
330
2
100
AcDbSymbolTableRecord
100
AcDbLayerTableRecord
  2
DIM
 70
     0
 62
     5
  6
Continuous
370
    -3
390
F
  0
LAYER
  5
4A
330
2
100
AcDbSymbolTableRecord
100
AcDbLayerTableRecord
  2
CENTER
 70
     0
 62
     1
  6
CENTER
370
    -3
390
F
  0
LAYER
  5
1545
330
2
100
AcDbSymbolTableRecord
100
AcDbLayerTableRecord
  2
LOGO
 70
     0
 62
     7
  6
Continuous
370
    -3
390
F
  0
LAYER
  5
1A52
330
2
100
AcDbSymbolTableRecord
100
AcDbLayerTableRecord
  2
Defpoints
 70
     0
 62
     7
  6
Continuous
290
     0
370
    -3
390
F
  0
LAYER
  5
314D
330
2
100
AcDbSymbolTableRecord
100
AcDbLayerTableRecord
  2
AM_VIS
 70
     0
 62
     7
  6
Continuous
370
    30
390
F
  0
LAYER
  5
314E
330
2
100
AcDbSymbolTableRecord
100
AcDbLayerTableRecord
  2
AM_4
 70
     0
 62
     3
  6
Continuous
370
    15
390
F
  0
LAYER
  5
3C60
330
2
100
AcDbSymbolTableRecord
100
AcDbLayerTableRecord
  2
AM_7
 70
     0
 62
     4
  6
AM_ISO08W050
370
    25
390
F
  0
LAYER
  5
3C61
330
2
100
AcDbSymbolTableRecord
100
AcDbLayerTableRecord
  2
AM_5
 70
     0
 62
     3
  6
Continuous
370
    25
390
F
  0
ENDTAB
  0
TABLE
  2
STYLE
  5
3
330
0
100
AcDbSymbolTable
 70
     7
  0
STYLE
  5
11
330
3
100
AcDbSymbolTableRecord
100
AcDbTextStyleTableRecord
  2
Standard
 70
     0
 40
3.0
 41
1.0
 50
0.0
 71
     0
 42
3.0
  3
KAIU.TTF
  4

1001
ACAD
1000
DFKai-SB
1071
    34865
  0
STYLE
  5
5C
330
3
100
AcDbSymbolTableRecord
100
AcDbTextStyleTableRecord
  2
CHINESET
 70
     0
 40
3.0
 41
1.0
 50
0.0
 71
     0
 42
4.5
  3
simplex.shx
  4
CHINESET.shx
  0
STYLE
  5
3150
330
3
100
AcDbSymbolTableRecord
100
AcDbTextStyleTableRecord
  2

 70
     1
 40
0.0
 41
1.0
 50
0.0
 71
     0
 42
0.12
  3
ltypeshp.shx
  4

  0
STYLE
  5
3151
330
3
100
AcDbSymbolTableRecord
100
AcDbTextStyleTableRecord
  2
dayus
 70
     0
 40
2.0
 41
1.0
 50
0.0
 71
     0
 42
6.0
  3
simplex.shx
  4
dayus.shx
  0
STYLE
  5
3916
330
3
100
AcDbSymbolTableRecord
100
AcDbTextStyleTableRecord
  2
ACISOTS
 70
     0
 40
1.0
 41
1.0
 50
0.0
 71
     0
 42
4.5
  3
isocp.shx
  4
chineset.shx
  0
STYLE
  5
3923
330
3
100
AcDbSymbolTableRecord
100
AcDbTextStyleTableRecord
  2
ACISOGDT
 70
     0
 40
0.0
 41
1.0
 50
0.0
 71
     0
 42
4.5
  3
amgdt.shx
  4

  0
ENDTAB
  0
TABLE
  2
VIEW
  5
6
330
0
100
AcDbSymbolTable
 70
     0
  0
ENDTAB
  0
TABLE
  2
UCS
  5
7
330
0
100
AcDbSymbolTable
 70
     0
  0
ENDTAB
  0
TABLE
  2
APPID
  5
9
330
0
100
AcDbSymbolTable
 70
    24
  0
APPID
  5
12
330
9
100
AcDbSymbolTableRecord
100
AcDbRegAppTableRecord
  2
ACAD
 70
     0
  0
APPID
  5
5F
330
9
100
AcDbSymbolTableRecord
100
AcDbRegAppTableRecord
  2
AD_DRAW
 70
     0
  0
APPID
  5
60
330
9
100
AcDbSymbolTableRecord
100
AcDbRegAppTableRecord
  2
DESIGNERASSEMBLIES
 70
     0
  0
APPID
  5
61
330
9
100
AcDbSymbolTableRecord
100
AcDbRegAppTableRecord
  2
MCAD_NO_VIS
 70
     0
  0
APPID
  5
62
330
9
100
AcDbSymbolTableRecord
100
AcDbRegAppTableRecord
  2
ASURF_PCURVE_APPNAME
 70
     0
  0
APPID
  5
11A1
330
9
100
AcDbSymbolTableRecord
100
AcDbRegAppTableRecord
  2
CONTENTBLOCKICON
 70
     0
  0
APPID
  5
315A
330
9
100
AcDbSymbolTableRecord
100
AcDbRegAppTableRecord
  2
GENIUS_GENDTOL_13
 70
     0
  0
APPID
  5
38B1
330
9
100
AcDbSymbolTableRecord
100
AcDbRegAppTableRecord
  2
ACAD_TEMP_GRAPHIC
 70
     0
  0
APPID
  5
38E2
330
9
100
AcDbSymbolTableRecord
100
AcDbRegAppTableRecord
  2
ACATTRIBSERVICES
 70
     0
  0
APPID
  5
3905
330
9
100
AcDbSymbolTableRecord
100
AcDbRegAppTableRecord
  2
ACADM_DIM_EDIT
 70
     0
  0
APPID
  5
3906
330
9
100
AcDbSymbolTableRecord
100
AcDbRegAppTableRecord
  2
AMDT_DM_ADJ
 70
     0
  0
APPID
  5
393C
330
9
100
AcDbSymbolTableRecord
100
AcDbRegAppTableRecord
  2
GENIUS_GENOENT_13
 70
     0
  0
APPID
  5
393D
330
9
100
AcDbSymbolTableRecord
100
AcDbRegAppTableRecord
  2
GENIUS_GENOBJ-N-CRS_13
 70
     0
  0
APPID
  5
393E
330
9
100
AcDbSymbolTableRecord
100
AcDbRegAppTableRecord
  2
GENIUS_GENOLIS_13
 70
     0
  0
APPID
  5
393F
330
9
100
AcDbSymbolTableRecord
100
AcDbRegAppTableRecord
  2
GENIUS_GENODEF_13
 70
     0
  0
APPID
  5
3940
330
9
100
AcDbSymbolTableRecord
100
AcDbRegAppTableRecord
  2
GENIUS_GENOREF_13
 70
     0
  0
APPID
  5
3941
330
9
100
AcDbSymbolTableRecord
100
AcDbRegAppTableRecord
  2
ACAD_PSEXT
 70
     0
  0
APPID
  5
3942
330
9
100
AcDbSymbolTableRecord
100
AcDbRegAppTableRecord
  2
GENIUS_GENREC_14
 70
     0
  0
APPID
  5
3943
330
9
100
AcDbSymbolTableRecord
100
AcDbRegAppTableRecord
  2
GENIUS_GENOBJ-N-REC_13
 70
     0
  0
APPID
  5
3C62
330
9
100
AcDbSymbolTableRecord
100
AcDbRegAppTableRecord
  2
GENIUS_GENOBJ-N-CEN_13
 70
     0
  0
APPID
  5
3C63
330
9
100
AcDbSymbolTableRecord
100
AcDbRegAppTableRecord
  2
GENIUS_GENCEN_19
 70
     0
  0
APPID
  5
3C9C
330
9
100
AcDbSymbolTableRecord
100
AcDbRegAppTableRecord
  2
GENIUS_GENDIM_13
 70
     0
  0
APPID
  5
3C9D
330
9
100
AcDbSymbolTableRecord
100
AcDbRegAppTableRecord
  2
GENIUS_GE3DTOL_13
 70
     0
  0
APPID
  5
3CF2
330
9
100
AcDbSymbolTableRecord
100
AcDbRegAppTableRecord
  2
AMG_3D2D_5.0
 70
     0
  0
ENDTAB
  0
TABLE
  2
DIMSTYLE
  5
A
330
0
100
AcDbSymbolTable
 70
    13
100
AcDbDimStyleTable
 71
     2
340
1A4
340
3154
  0
DIMSTYLE
105
1A4
330
A
100
AcDbSymbolTableRecord
100
AcDbDimStyleTableRecord
  2
ISO-25-1
 70
     0
 41
3.0
 42
3.0
 43
2.0
 44
2.0
 73
     0
 74
     0
 77
     1
 78
     8
 79
     2
140
3.0
141
-3.0
146
0.7
147
1.0
172
     1
176
   256
177
   256
178
   256
271
     2
272
     2
284
     8
289
     0
340
5C
371
    -1
372
    -1
  0
DIMSTYLE
105
3154
102
{ACAD_REACTORS
330
46AD
330
46AE
330
46AF
330
46B0
330
46B5
330
46BD
330
46BE
330
46BF
330
48BE
330
48BF
330
48C0
330
48C1
330
48C2
330
48C4
330
48C5
330
4A08
330
4A0B
330
4A4D
330
4B2D
330
4B2E
330
4B80
102
}
330
A
100
AcDbSymbolTableRecord
100
AcDbDimStyleTableRecord
  2
AM_ANSI
 70
     0
  4
"
 41
2.5
 42
1.0
 43
10.0
 44
1.0
 47
0.1
 48
0.1
 78
     8
 79
     2
140
3.5
141
0.0
143
0.0393701
146
0.71
147
1.5
176
   256
177
   256
178
     2
271
     2
272
     3
274
     4
284
     8
340
11
371
    -1
372
    -1
  0
DIMSTYLE
105
3157
330
A
100
AcDbSymbolTableRecord
100
AcDbDimStyleTableRecord
  2
AM_ANSI$7
 70
     0
  4
"
 41
2.5
 42
1.0
 43
10.0
 44
1.0
 47
0.1
 48
0.1
 78
     8
 79
     2
140
5.0
141
0.0
143
0.0393701
146
0.71
147
1.5
176
   256
177
   256
178
     2
271
     2
272
     3
274
     4
284
     8
340
11
371
    -1
372
    -1
  0
DIMSTYLE
105
3930
330
A
100
AcDbSymbolTableRecord
100
AcDbDimStyleTableRecord
  2
AM_ISO
 70
     0
  4
"
 41
2.5
 42
1.0
 43
10.0
 44
1.0
 47
0.1
 48
0.1
 73
     0
 74
     0
 77
     1
 78
     8
 79
     2
140
3.5
141
0.0
143
0.0393701
146
0.71
147
1.5
172
     1
176
   256
177
   256
178
     2
271
     2
272
     3
274
     4
283
     0
284
     8
340
11
371
    -1
372
    -1
  0
DIMSTYLE
105
3931
330
A
100
AcDbSymbolTableRecord
100
AcDbDimStyleTableRecord
  2
AM_ISO$3
 70
     0
  4
"
 41
2.5
 42
1.0
 43
10.0
 44
1.0
 47
0.1
 48
0.1
 73
     0
 77
     1
 78
     8
 79
     2
140
3.5
141
0.0
143
0.0393701
146
0.71
147
1.5
176
   256
177
   256
178
     2
271
     2
272
     3
274
     4
283
     0
284
     8
288
     1
289
     0
340
11
371
    -1
372
    -1
  0
DIMSTYLE
105
3932
330
A
100
AcDbSymbolTableRecord
100
AcDbDimStyleTableRecord
  2
AM_ISO$4
 70
     0
  4
"
 41
2.5
 42
1.0
 43
10.0
 44
1.0
 47
0.1
 48
0.1
 73
     0
 77
     1
 78
     8
 79
     2
140
3.5
141
0.0
143
0.0393701
146
0.71
147
1.5
176
   256
177
   256
178
     2
271
     2
272
     3
274
     4
283
     0
284
     8
288
     1
289
     0
340
11
371
    -1
372
    -1
  0
DIMSTYLE
105
3933
330
A
100
AcDbSymbolTableRecord
100
AcDbDimStyleTableRecord
  2
AM_ISO$6
 70
     0
  4
"
 41
2.5
 42
1.0
 43
10.0
 44
1.0
 47
0.1
 48
0.1
 73
     0
 74
     0
 78
     8
 79
     2
140
3.5
141
0.0
143
0.0393701
146
0.71
147
1.5
172
     1
176
   256
177
   256
178
     2
271
     2
272
     3
274
     4
283
     0
284
     8
340
11
371
    -1
372
    -1
  0
DIMSTYLE
105
3934
330
A
100
AcDbSymbolTableRecord
100
AcDbDimStyleTableRecord
  2
AM_ISO$7
 70
     0
  4
"
 41
2.5
 42
1.0
 43
10.0
 44
1.0
 47
0.1
 48
0.1
 73
     0
 74
     0
 77
     1
 78
     8
 79
     2
140
5.0
141
0.0
143
0.0393701
146
0.71
147
1.5
172
     1
176
   256
177
   256
178
     2
271
     2
272
     3
274
     4
283
     0
284
     8
340
11
371
    -1
372
    -1
  0
DIMSTYLE
105
3935
330
A
100
AcDbSymbolTableRecord
100
AcDbDimStyleTableRecord
  2
AM_ISO$SF
 70
     0
  4
"
 41
2.5
 42
1.0
 43
10.0
 44
1.0
 47
0.1
 48
0.1
 73
     0
 74
     0
 75
     1
 76
     1
 77
     1
 78
     8
 79
     2
140
3.5
141
0.0
143
0.0393701
146
0.71
147
1.5
172
     1
176
   256
177
   256
178
     2
271
     2
272
     3
274
     4
283
     0
284
     8
340
11
371
    -1
372
    -1
  0
DIMSTYLE
105
3936
330
A
100
AcDbSymbolTableRecord
100
AcDbDimStyleTableRecord
  2
AM_ISO$SH
 70
     0
  4
"
 41
2.5
 42
1.0
 43
10.0
 44
1.0
 47
0.1
 48
0.1
 73
     0
 74
     0
 75
     1
 76
     1
 77
     1
 78
     8
 79
     2
140
3.5
141
0.0
143
0.0393701
144
2.0
146
0.71
147
1.5
172
     1
173
     1
176
   256
177
   256
178
     2
271
     2
272
     3
274
     4
283
     0
284
     8
340
11
343
2FF1
371
    -1
372
    -1
  0
DIMSTYLE
105
3D16
330
A
100
AcDbSymbolTableRecord
100
AcDbDimStyleTableRecord
  2
ISO-25
 70
     0
 41
2.5
 42
0.625
 43
3.75
 44
1.25
 73
     0
 74
     0
 77
     1
 78
     8
140
2.5
141
2.5
143
0.03937007874016
147
0.625
171
     3
172
     1
271
     2
272
     2
274
     3
278
    44
283
     0
284
     8
340
11
  0
DIMSTYLE
105
4115
330
A
100
AcDbSymbolTableRecord
100
AcDbDimStyleTableRecord
  2
ISO-25-1$0
 70
     0
 41
3.0
 42
3.0
 43
2.0
 44
2.0
 73
     0
 74
     0
 77
     1
 78
     8
 79
     2
140
3.0
141
-3.0
146
0.7
147
1.0
172
     1
176
   256
177
   256
178
   256
271
     2
272
     2
284
     8
289
     0
340
5C
371
    -1
372
    -1
  0
ENDTAB
  0
TABLE
  2
BLOCK_RECORD
  5
1
330
0
100
AcDbSymbolTable
 70
    27
  0
BLOCK_RECORD
  5
1F
102
{ACAD_XDICTIONARY
360
2F55
102
}
330
1
100
AcDbSymbolTableRecord
100
AcDbBlockTableRecord
  2
*Model_Space
340
22
  0
BLOCK_RECORD
  5
1B
102
{ACAD_XDICTIONARY
360
2F57
102
}
330
1
100
AcDbSymbolTableRecord
100
AcDbBlockTableRecord
  2
*Paper_Space
340
1E
  0
BLOCK_RECORD
  5
23
102
{ACAD_XDICTIONARY
360
2F59
102
}
330
1
100
AcDbSymbolTableRecord
100
AcDbBlockTableRecord
  2
*Paper_Space0
340
26
  0
BLOCK_RECORD
  5
2FF1
330
1
100
AcDbSymbolTableRecord
100
AcDbBlockTableRecord
  2
GENAXEH
340
0
  0
BLOCK_RECORD
  5
3BCE
102
{ACAD_XDICTIONARY
360
3BCF
102
}
330
1
100
AcDbSymbolTableRecord
100
AcDbBlockTableRecord
  2
A$C5ECF147B
340
0
  0
BLOCK_RECORD
  5
3C57
102
{ACAD_XDICTIONARY
360
3C58
102
}
330
1
100
AcDbSymbolTableRecord
100
AcDbBlockTableRecord
  2
A$C1F6E6265
340
0
102
{BLKREFS
331
46B7
331
4A4C
102
}
  0
BLOCK_RECORD
  5
46C3
330
1
100
AcDbSymbolTableRecord
100
AcDbBlockTableRecord
  2
*D5
340
0
  0
BLOCK_RECORD
  5
46CF
330
1
100
AcDbSymbolTableRecord
100
AcDbBlockTableRecord
  2
*D6
340
0
  0
BLOCK_RECORD
  5
46DB
330
1
100
AcDbSymbolTableRecord
100
AcDbBlockTableRecord
  2
*D7
340
0
  0
BLOCK_RECORD
  5
46E7
330
1
100
AcDbSymbolTableRecord
100
AcDbBlockTableRecord
  2
*D8
340
0
  0
BLOCK_RECORD
  5
46F3
330
1
100
AcDbSymbolTableRecord
100
AcDbBlockTableRecord
  2
*D9
340
0
  0
BLOCK_RECORD
  5
46FF
330
1
100
AcDbSymbolTableRecord
100
AcDbBlockTableRecord
  2
*D10
340
0
  0
BLOCK_RECORD
  5
470B
330
1
100
AcDbSymbolTableRecord
100
AcDbBlockTableRecord
  2
*D11
340
0
  0
BLOCK_RECORD
  5
4717
330
1
100
AcDbSymbolTableRecord
100
AcDbBlockTableRecord
  2
*D12
340
0
  0
BLOCK_RECORD
  5
48C6
330
1
100
AcDbSymbolTableRecord
100
AcDbBlockTableRecord
  2
*D13
340
0
  0
BLOCK_RECORD
  5
48D2
330
1
100
AcDbSymbolTableRecord
100
AcDbBlockTableRecord
  2
*D14
340
0
  0
BLOCK_RECORD
  5
48DE
330
1
100
AcDbSymbolTableRecord
100
AcDbBlockTableRecord
  2
*D15
340
0
  0
BLOCK_RECORD
  5
48EA
330
1
100
AcDbSymbolTableRecord
100
AcDbBlockTableRecord
  2
*D16
340
0
  0
BLOCK_RECORD
  5
48F6
330
1
100
AcDbSymbolTableRecord
100
AcDbBlockTableRecord
  2
*D17
340
0
  0
BLOCK_RECORD
  5
490E
330
1
100
AcDbSymbolTableRecord
100
AcDbBlockTableRecord
  2
*D18
340
0
  0
BLOCK_RECORD
  5
491A
330
1
100
AcDbSymbolTableRecord
100
AcDbBlockTableRecord
  2
*D19
340
0
  0
BLOCK_RECORD
  5
4A0E
330
1
100
AcDbSymbolTableRecord
100
AcDbBlockTableRecord
  2
*D20
340
0
  0
BLOCK_RECORD
  5
4A1A
330
1
100
AcDbSymbolTableRecord
100
AcDbBlockTableRecord
  2
*D21
340
0
  0
BLOCK_RECORD
  5
4A58
330
1
100
AcDbSymbolTableRecord
100
AcDbBlockTableRecord
  2
*D22
340
0
  0
BLOCK_RECORD
  5
4B31
330
1
100
AcDbSymbolTableRecord
100
AcDbBlockTableRecord
  2
*D23
340
0
  0
BLOCK_RECORD
  5
4B3D
330
1
100
AcDbSymbolTableRecord
100
AcDbBlockTableRecord
  2
*D24
340
0
  0
BLOCK_RECORD
  5
4B81
330
1
100
AcDbSymbolTableRecord
100
AcDbBlockTableRecord
  2
*D25
340
0
  0
ENDTAB
  0
ENDSEC
  0
SECTION
  2
BLOCKS
  0
BLOCK
  5
20
330
1F
100
AcDbEntity
  8
0
100
AcDbBlockBegin
  2
*Model_Space
 70
     0
 10
0.0
 20
0.0
 30
0.0
  3
*Model_Space
  1

  0
ENDBLK
  5
21
330
1F
100
AcDbEntity
  8
0
100
AcDbBlockEnd
  0
BLOCK
  5
1C
330
1B
100
AcDbEntity
 67
     1
  8
0
100
AcDbBlockBegin
  2
*Paper_Space
 70
     0
 10
0.0
 20
0.0
 30
0.0
  3
*Paper_Space
  1

  0
ENDBLK
  5
1D
330
1B
100
AcDbEntity
 67
     1
  8
0
100
AcDbBlockEnd
  0
BLOCK
  5
24
330
23
100
AcDbEntity
  8
0
100
AcDbBlockBegin
  2
*Paper_Space0
 70
     0
 10
0.0
 20
0.0
 30
0.0
  3
*Paper_Space0
  1

  0
ENDBLK
  5
25
330
23
100
AcDbEntity
  8
0
100
AcDbBlockEnd
  0
BLOCK
  5
2FF2
330
2FF1
100
AcDbEntity
  8
0
100
AcDbBlockBegin
  2
GENAXEH
 70
     0
 10
0.0
 20
0.0
 30
0.0
  3
GENAXEH
  1

  0
LINE
  5
2FF3
330
2FF1
100
AcDbEntity
  8
0
100
AcDbLine
 10
-1.0
 20
0.0
 30
0.0
 11
1.0
 21
0.0
 31
0.0
  0
ENDBLK
  5
2FF4
330
2FF1
100
AcDbEntity
  8
0
100
AcDbBlockEnd
  0
BLOCK
  5
3BD0
330
3BCE
100
AcDbEntity
  8
0
100
AcDbBlockBegin
  2
A$C5ECF147B
 70
     0
 10
0.0
 20
0.0
 30
0.0
  3
A$C5ECF147B
  1

  0
CIRCLE
  5
3BD1
330
3BCE
100
AcDbEntity
  8
0
100
AcDbCircle
 10
-3.079240456948355
 20
2.061381943681453
 30
0.0
 40
1.25
  0
CIRCLE
  5
3BD2
330
3BCE
100
AcDbEntity
  8
0
100
AcDbCircle
 10
-3.079240456948355
 20
2.061381943681453
 30
0.0
 40
0.75
  0
ENDBLK
  5
3BD3
330
3BCE
100
AcDbEntity
  8
0
100
AcDbBlockEnd
  0
BLOCK
  5
3C5A
330
3C57
100
AcDbEntity
  8
0
100
AcDbBlockBegin
  2
A$C1F6E6265
 70
     0
 10
0.0
 20
0.0
 30
0.0
  3
A$C1F6E6265
  1

  0
LINE
  5
3C5B
330
3C57
100
AcDbEntity
  8
AM_5
 62
     5
100
AcDbLine
 10
12.57846733029419
 20
0.460783587398737
 30
0.0
 11
7.091423997858555
 21
0.460783587398737
 31
0.0
  0
LINE
  5
3C5C
330
3C57
100
AcDbEntity
  8
AM_5
 62
     5
100
AcDbLine
 10
7.091423997858555
 20
0.460783587398737
 30
0.0
 11
3.50000046420655
 21
0.460783587398737
 31
0.0
  0
TRACE
  5
3C5D
330
3C57
100
AcDbEntity
  8
AM_5
 62
     5
370
    35
100
AcDbTrace
 10
3.50000046420655
 20
0.9215673268987245
 30
0.0
 11
3.50000046420655
 21
-0.0000001521012507
 31
0.0
 12
0.0000004642065505
 22
0.460783587398737
 32
0.0
 13
0.0000004642065505
 23
0.460783587398737
 33
0.0
  0
MTEXT
  5
3C5E
330
3C57
100
AcDbEntity
  8
AM_5
 62
     5
100
AcDbMText
 10
6.603782167567317
 20
1.421084835219261
 30
0.0
 40
2.449999999999999
 41
0.0
 71
     7
 72
     5
  1
SL
  7
ACISOTS
 73
     1
 44
1.0
1001
ACAD
1000
MTEXTBEGIN
1070
    73
1070
     1
1070
    44
1040
1.0
1070
    74
1070
     0
1000
MTEXTEND
  0
ENDBLK
  5
3C5F
330
3C57
100
AcDbEntity
  8
0
100
AcDbBlockEnd
  0
BLOCK
  5
46CD
330
46C3
100
AcDbEntity
  8
0
100
AcDbBlockBegin
  2
*D5
 70
     1
 10
0.0
 20
0.0
 30
0.0
  3
*D5
  1

  0
LINE
  5
4817
330
46C3
100
AcDbEntity
  8
DIM
100
AcDbLine
 10
107.0974930231917
 20
207.1815347124811
 30
0.0
 11
107.0974930231917
 21
209.084339425045
 31
0.0
  0
LINE
  5
4818
330
46C3
100
AcDbEntity
  8
DIM
100
AcDbLine
 10
114.0974930231917
 20
192.1394370072604
 30
0.0
 11
114.0974930231917
 21
209.084339425045
 31
0.0
  0
LINE
  5
4819
330
46C3
100
AcDbEntity
  8
DIM
100
AcDbLine
 10
109.0974930231917
 20
207.5843394250449
 30
0.0
 11
112.0974930231917
 21
207.5843394250449
 31
0.0
  0
SOLID
  5
481A
330
46C3
100
AcDbEntity
  8
DIM
100
AcDbTrace
 10
109.0974930231917
 20
207.9176727583783
 30
0.0
 11
109.0974930231917
 21
207.2510060917116
 31
0.0
 12
107.0974930231917
 22
207.5843394250449
 32
0.0
 13
107.0974930231917
 23
207.5843394250449
 33
0.0
  0
SOLID
  5
481B
330
46C3
100
AcDbEntity
  8
DIM
100
AcDbTrace
 10
112.0974930231917
 20
207.9176727583783
 30
0.0
 11
112.0974930231917
 21
207.2510060917116
 31
0.0
 12
114.0974930231917
 22
207.5843394250449
 32
0.0
 13
114.0974930231917
 23
207.5843394250449
 33
0.0
  0
MTEXT
  5
481C
330
46C3
100
AcDbEntity
  8
DIM
100
AcDbMText
 10
110.5974930231917
 20
209.5843394250449
 30
0.0
 40
2.0
 41
0.0
 71
     5
 72
     1
  1
\A1;7
  7
dayus
 73
     1
 44
1.0
1001
ACAD
1000
MTEXTBEGIN
1070
    73
1070
     1
1070
    44
1040
1.0
1070
    74
1070
     0
1000
MTEXTEND
  0
POINT
  5
481D
330
46C3
100
AcDbEntity
  8
Defpoints
 62
     0
100
AcDbPoint
 10
107.0974930231917
 20
205.6815347124811
 30
0.0
  0
POINT
  5
481E
330
46C3
100
AcDbEntity
  8
Defpoints
 62
     0
100
AcDbPoint
 10
114.0974930231917
 20
190.6394370072604
 30
0.0
  0
POINT
  5
481F
330
46C3
100
AcDbEntity
  8
Defpoints
 62
     0
100
AcDbPoint
 10
114.0974930231917
 20
207.5843394250449
 30
0.0
  0
ENDBLK
  5
46CE
330
46C3
100
AcDbEntity
  8
0
100
AcDbBlockEnd
  0
BLOCK
  5
46D9
330
46CF
100
AcDbEntity
  8
0
100
AcDbBlockBegin
  2
*D6
 70
     1
 10
0.0
 20
0.0
 30
0.0
  3
*D6
  1

  0
LINE
  5
4898
330
46CF
100
AcDbEntity
  8
DIM
100
AcDbLine
 10
144.0974930231917
 20
192.1394370072603
 30
0.0
 11
144.0974930231917
 21
209.084339425045
 31
0.0
  0
LINE
  5
4899
330
46CF
100
AcDbEntity
  8
DIM
100
AcDbLine
 10
151.0974924569476
 20
207.181534712481
 30
0.0
 11
151.0974924569476
 21
209.084339425045
 31
0.0
  0
LINE
  5
489A
330
46CF
100
AcDbEntity
  8
DIM
100
AcDbLine
 10
146.0974930231917
 20
207.5843394250449
 30
0.0
 11
149.0974924569476
 21
207.5843394250449
 31
0.0
  0
SOLID
  5
489B
330
46CF
100
AcDbEntity
  8
DIM
100
AcDbTrace
 10
146.0974930231917
 20
207.9176727583783
 30
0.0
 11
146.0974930231917
 21
207.2510060917116
 31
0.0
 12
144.0974930231917
 22
207.5843394250449
 32
0.0
 13
144.0974930231917
 23
207.5843394250449
 33
0.0
  0
SOLID
  5
489C
330
46CF
100
AcDbEntity
  8
DIM
100
AcDbTrace
 10
149.0974924569476
 20
207.9176727583783
 30
0.0
 11
149.0974924569476
 21
207.2510060917116
 31
0.0
 12
151.0974924569476
 22
207.5843394250449
 32
0.0
 13
151.0974924569476
 23
207.5843394250449
 33
0.0
  0
MTEXT
  5
489D
330
46CF
100
AcDbEntity
  8
DIM
100
AcDbMText
 10
147.5974927400697
 20
209.5843394250449
 30
0.0
 40
2.0
 41
0.0
 71
     5
 72
     1
  1
\A1;7
  7
dayus
 73
     1
 44
1.0
1001
ACAD
1000
MTEXTBEGIN
1070
    73
1070
     1
1070
    44
1040
1.0
1070
    74
1070
     0
1000
MTEXTEND
  0
POINT
  5
489E
330
46CF
100
AcDbEntity
  8
Defpoints
 62
     0
100
AcDbPoint
 10
144.0974930231917
 20
190.6394370072604
 30
0.0
  0
POINT
  5
489F
330
46CF
100
AcDbEntity
  8
Defpoints
 62
     0
100
AcDbPoint
 10
151.0974924569476
 20
205.681534712481
 30
0.0
  0
POINT
  5
48A0
330
46CF
100
AcDbEntity
  8
Defpoints
 62
     0
100
AcDbPoint
 10
151.0974924569476
 20
207.5843394250449
 30
0.0
  0
ENDBLK
  5
46DA
330
46CF
100
AcDbEntity
  8
0
100
AcDbBlockEnd
  0
BLOCK
  5
46E5
330
46DB
100
AcDbEntity
  8
0
100
AcDbBlockBegin
  2
*D7
 70
     1
 10
0.0
 20
0.0
 30
0.0
  3
*D7
  1

  0
LINE
  5
48B4
330
46DB
100
AcDbEntity
  8
DIM
100
AcDbLine
 10
107.0974930231917
 20
207.1815347124811
 30
0.0
 11
107.0974930231917
 21
220.071737696851
 31
0.0
  0
LINE
  5
48B5
330
46DB
100
AcDbEntity
  8
DIM
100
AcDbLine
 10
151.0974924569476
 20
207.181534712481
 30
0.0
 11
151.0974924569476
 21
220.071737696851
 31
0.0
  0
LINE
  5
48B6
330
46DB
100
AcDbEntity
  8
DIM
100
AcDbLine
 10
109.0974930231917
 20
218.571737696851
 30
0.0
 11
149.0974924569476
 21
218.571737696851
 31
0.0
  0
SOLID
  5
48B7
330
46DB
100
AcDbEntity
  8
DIM
100
AcDbTrace
 10
109.0974930231917
 20
218.9050710301843
 30
0.0
 11
109.0974930231917
 21
218.2384043635177
 31
0.0
 12
107.0974930231917
 22
218.571737696851
 32
0.0
 13
107.0974930231917
 23
218.571737696851
 33
0.0
  0
SOLID
  5
48B8
330
46DB
100
AcDbEntity
  8
DIM
100
AcDbTrace
 10
149.0974924569476
 20
218.9050710301843
 30
0.0
 11
149.0974924569476
 21
218.2384043635177
 31
0.0
 12
151.0974924569476
 22
218.571737696851
 32
0.0
 13
151.0974924569476
 23
218.571737696851
 33
0.0
  0
MTEXT
  5
48B9
330
46DB
100
AcDbEntity
  8
DIM
100
AcDbMText
 10
129.0974927400696
 20
220.571737696851
 30
0.0
 40
2.0
 41
0.0
 71
     5
 72
     1
  1
\A1;39+stroke=44
  7
dayus
 73
     1
 44
1.0
1001
ACAD
1000
MTEXTBEGIN
1070
    73
1070
     1
1070
    44
1040
1.0
1070
    74
1070
     0
1000
MTEXTEND
  0
POINT
  5
48BA
330
46DB
100
AcDbEntity
  8
Defpoints
 62
     0
100
AcDbPoint
 10
107.0974930231917
 20
205.6815347124811
 30
0.0
  0
POINT
  5
48BB
330
46DB
100
AcDbEntity
  8
Defpoints
 62
     0
100
AcDbPoint
 10
151.0974924569476
 20
205.681534712481
 30
0.0
  0
POINT
  5
48BC
330
46DB
100
AcDbEntity
  8
Defpoints
 62
     0
100
AcDbPoint
 10
151.0974924569476
 20
218.571737696851
 30
0.0
  0
ENDBLK
  5
46E6
330
46DB
100
AcDbEntity
  8
0
100
AcDbBlockEnd
  0
BLOCK
  5
46F1
330
46E7
100
AcDbEntity
  8
0
100
AcDbBlockBegin
  2
*D8
 70
     1
 10
0.0
 20
0.0
 30
0.0
  3
*D8
  1

  0
LINE
  5
4C53
330
46E7
100
AcDbEntity
  8
DIM
100
AcDbLine
 10
85.09749314240094
 20
190.4315338295874
 30
0.0
 11
85.09749314240094
 21
228.2878249238267
 31
0.0
  0
LINE
  5
4C54
330
46E7
100
AcDbEntity
  8
DIM
100
AcDbLine
 10
151.0974924569476
 20
207.181534712481
 30
0.0
 11
151.0974924569476
 21
228.2878249238267
 31
0.0
  0
LINE
  5
4C55
330
46E7
100
AcDbEntity
  8
DIM
100
AcDbLine
 10
87.09749314240093
 20
226.7878249238267
 30
0.0
 11
149.0974924569476
 21
226.7878249238267
 31
0.0
  0
SOLID
  5
4C56
330
46E7
100
AcDbEntity
  8
DIM
100
AcDbTrace
 10
87.09749314240093
 20
227.12115825716
 30
0.0
 11
87.09749314240093
 21
226.4544915904934
 31
0.0
 12
85.09749314240094
 22
226.7878249238267
 32
0.0
 13
85.09749314240094
 23
226.7878249238267
 33
0.0
  0
SOLID
  5
4C57
330
46E7
100
AcDbEntity
  8
DIM
100
AcDbTrace
 10
149.0974924569476
 20
227.12115825716
 30
0.0
 11
149.0974924569476
 21
226.4544915904934
 31
0.0
 12
151.0974924569476
 22
226.7878249238267
 32
0.0
 13
151.0974924569476
 23
226.7878249238267
 33
0.0
  0
MTEXT
  5
4C58
330
46E7
100
AcDbEntity
  8
DIM
100
AcDbMText
 10
118.0974927996743
 20
228.7878249238267
 30
0.0
 40
2.0
 41
0.0
 71
     5
 72
     1
  1
\A1;61+stroke=66
  7
dayus
 73
     1
 44
1.0
1001
ACAD
1000
MTEXTBEGIN
1070
    73
1070
     1
1070
    44
1040
1.0
1070
    74
1070
     0
1000
MTEXTEND
  0
POINT
  5
4C59
330
46E7
100
AcDbEntity
  8
Defpoints
 62
     0
100
AcDbPoint
 10
85.09749314240094
 20
188.9315338295874
 30
0.0
  0
POINT
  5
4C5A
330
46E7
100
AcDbEntity
  8
Defpoints
 62
     0
100
AcDbPoint
 10
151.0974924569476
 20
205.681534712481
 30
0.0
  0
POINT
  5
4C5B
330
46E7
100
AcDbEntity
  8
Defpoints
 62
     0
100
AcDbPoint
 10
151.0974924569476
 20
226.7878249238267
 30
0.0
  0
ENDBLK
  5
46F2
330
46E7
100
AcDbEntity
  8
0
100
AcDbBlockEnd
  0
BLOCK
  5
46FD
330
46F3
100
AcDbEntity
  8
0
100
AcDbBlockBegin
  2
*D9
 70
     1
 10
0.0
 20
0.0
 30
0.0
  3
*D9
  1

  0
LINE
  5
483B
330
46F3
100
AcDbEntity
  8
DIM
100
AcDbLine
 10
101.0974929710376
 20
191.4315339935001
 30
0.0
 11
101.0974929710376
 21
220.071737696851
 31
0.0
  0
LINE
  5
483C
330
46F3
100
AcDbEntity
  8
DIM
100
AcDbLine
 10
107.0974930231917
 20
207.1815347124811
 30
0.0
 11
107.0974930231917
 21
220.071737696851
 31
0.0
  0
LINE
  5
483D
330
46F3
100
AcDbEntity
  8
DIM
100
AcDbLine
 10
103.0974929710376
 20
218.571737696851
 30
0.0
 11
105.0974930231917
 21
218.571737696851
 31
0.0
  0
SOLID
  5
483E
330
46F3
100
AcDbEntity
  8
DIM
100
AcDbTrace
 10
103.0974929710376
 20
218.9050710301843
 30
0.0
 11
103.0974929710376
 21
218.2384043635176
 31
0.0
 12
101.0974929710376
 22
218.571737696851
 32
0.0
 13
101.0974929710376
 23
218.571737696851
 33
0.0
  0
SOLID
  5
483F
330
46F3
100
AcDbEntity
  8
DIM
100
AcDbTrace
 10
105.0974930231917
 20
218.9050710301843
 30
0.0
 11
105.0974930231917
 21
218.2384043635176
 31
0.0
 12
107.0974930231917
 22
218.571737696851
 32
0.0
 13
107.0974930231917
 23
218.571737696851
 33
0.0
  0
MTEXT
  5
4840
330
46F3
100
AcDbEntity
  8
DIM
100
AcDbMText
 10
104.0974929971147
 20
220.571737696851
 30
0.0
 40
2.0
 41
0.0
 71
     5
 72
     1
  1
\A1;6
  7
dayus
 73
     1
 44
1.0
1001
ACAD
1000
MTEXTBEGIN
1070
    73
1070
     1
1070
    44
1040
1.0
1070
    74
1070
     0
1000
MTEXTEND
  0
POINT
  5
4841
330
46F3
100
AcDbEntity
  8
Defpoints
 62
     0
100
AcDbPoint
 10
101.0974929710376
 20
189.9315339935001
 30
0.0
  0
POINT
  5
4842
330
46F3
100
AcDbEntity
  8
Defpoints
 62
     0
100
AcDbPoint
 10
107.0974930231917
 20
205.6815347124811
 30
0.0
  0
POINT
  5
4843
330
46F3
100
AcDbEntity
  8
Defpoints
 62
     0
100
AcDbPoint
 10
107.0974930231917
 20
218.571737696851
 30
0.0
  0
ENDBLK
  5
46FE
330
46F3
100
AcDbEntity
  8
0
100
AcDbBlockEnd
  0
BLOCK
  5
4709
330
46FF
100
AcDbEntity
  8
0
100
AcDbBlockBegin
  2
*D10
 70
     1
 10
0.0
 20
0.0
 30
0.0
  3
*D10
  1

  0
LINE
  5
487D
330
46FF
100
AcDbEntity
  8
DIM
100
AcDbLine
 10
85.09749314240094
 20
190.4315338295874
 30
0.0
 11
85.09749314240094
 21
220.0717376968509
 31
0.0
  0
LINE
  5
487E
330
46FF
100
AcDbEntity
  8
DIM
100
AcDbLine
 10
101.0974929710376
 20
191.4315339935001
 30
0.0
 11
101.0974929710376
 21
220.0717376968509
 31
0.0
  0
LINE
  5
487F
330
46FF
100
AcDbEntity
  8
DIM
100
AcDbLine
 10
87.09749314240093
 20
218.5717376968509
 30
0.0
 11
99.09749297103765
 21
218.5717376968509
 31
0.0
  0
SOLID
  5
4880
330
46FF
100
AcDbEntity
  8
DIM
100
AcDbTrace
 10
87.09749314240093
 20
218.9050710301843
 30
0.0
 11
87.09749314240093
 21
218.2384043635176
 31
0.0
 12
85.09749314240094
 22
218.5717376968509
 32
0.0
 13
85.09749314240094
 23
218.5717376968509
 33
0.0
  0
SOLID
  5
4881
330
46FF
100
AcDbEntity
  8
DIM
100
AcDbTrace
 10
99.09749297103765
 20
218.9050710301843
 30
0.0
 11
99.09749297103765
 21
218.2384043635176
 31
0.0
 12
101.0974929710376
 22
218.5717376968509
 32
0.0
 13
101.0974929710376
 23
218.5717376968509
 33
0.0
  0
MTEXT
  5
4882
330
46FF
100
AcDbEntity
  8
DIM
100
AcDbMText
 10
93.09749305671928
 20
220.5717376968509
 30
0.0
 40
2.0
 41
0.0
 71
     5
 72
     1
  1
\A1;16
  7
dayus
 73
     1
 44
1.0
1001
ACAD
1000
MTEXTBEGIN
1070
    73
1070
     1
1070
    44
1040
1.0
1070
    74
1070
     0
1000
MTEXTEND
  0
POINT
  5
4883
330
46FF
100
AcDbEntity
  8
Defpoints
 62
     0
100
AcDbPoint
 10
85.09749314240094
 20
188.9315338295874
 30
0.0
  0
POINT
  5
4884
330
46FF
100
AcDbEntity
  8
Defpoints
 62
     0
100
AcDbPoint
 10
101.0974929710376
 20
189.9315339935001
 30
0.0
  0
POINT
  5
4885
330
46FF
100
AcDbEntity
  8
Defpoints
 62
     0
100
AcDbPoint
 10
101.0974929710376
 20
218.5717376968509
 30
0.0
  0
ENDBLK
  5
470A
330
46FF
100
AcDbEntity
  8
0
100
AcDbBlockEnd
  0
BLOCK
  5
4715
330
470B
100
AcDbEntity
  8
0
100
AcDbBlockBegin
  2
*D11
 70
     1
 10
0.0
 20
0.0
 30
0.0
  3
*D11
  1

  0
LINE
  5
484D
330
470B
100
AcDbEntity
  8
DIM
100
AcDbLine
 10
107.0974930231917
 20
207.1815347124811
 30
0.0
 11
107.0974930231917
 21
214.1454934854824
 31
0.0
  0
LINE
  5
484E
330
470B
100
AcDbEntity
  8
DIM
100
AcDbLine
 10
118.097492963587
 20
207.1815347124811
 30
0.0
 11
118.097492963587
 21
214.1454934854824
 31
0.0
  0
LINE
  5
484F
330
470B
100
AcDbEntity
  8
DIM
100
AcDbLine
 10
109.0974930231917
 20
212.6454934854824
 30
0.0
 11
116.097492963587
 21
212.6454934854824
 31
0.0
  0
SOLID
  5
4850
330
470B
100
AcDbEntity
  8
DIM
100
AcDbTrace
 10
109.0974930231917
 20
212.9788268188157
 30
0.0
 11
109.0974930231917
 21
212.312160152149
 31
0.0
 12
107.0974930231917
 22
212.6454934854824
 32
0.0
 13
107.0974930231917
 23
212.6454934854824
 33
0.0
  0
SOLID
  5
4851
330
470B
100
AcDbEntity
  8
DIM
100
AcDbTrace
 10
116.097492963587
 20
212.9788268188157
 30
0.0
 11
116.097492963587
 21
212.312160152149
 31
0.0
 12
118.097492963587
 22
212.6454934854824
 32
0.0
 13
118.097492963587
 23
212.6454934854824
 33
0.0
  0
MTEXT
  5
4852
330
470B
100
AcDbEntity
  8
DIM
100
AcDbMText
 10
112.5974929933894
 20
214.6454934854824
 30
0.0
 40
2.0
 41
0.0
 71
     5
 72
     1
  1
\A1;11
  7
dayus
 73
     1
 44
1.0
1001
ACAD
1000
MTEXTBEGIN
1070
    73
1070
     1
1070
    44
1040
1.0
1070
    74
1070
     0
1000
MTEXTEND
  0
POINT
  5
4853
330
470B
100
AcDbEntity
  8
Defpoints
 62
     0
100
AcDbPoint
 10
107.0974930231917
 20
205.6815347124811
 30
0.0
  0
POINT
  5
4854
330
470B
100
AcDbEntity
  8
Defpoints
 62
     0
100
AcDbPoint
 10
118.097492963587
 20
205.6815347124811
 30
0.0
  0
POINT
  5
4855
330
470B
100
AcDbEntity
  8
Defpoints
 62
     0
100
AcDbPoint
 10
118.097492963587
 20
212.6454934854824
 30
0.0
  0
ENDBLK
  5
4716
330
470B
100
AcDbEntity
  8
0
100
AcDbBlockEnd
  0
BLOCK
  5
4721
330
4717
100
AcDbEntity
  8
0
100
AcDbBlockBegin
  2
*D12
 70
     1
 10
0.0
 20
0.0
 30
0.0
  3
*D12
  1

  0
LINE
  5
488F
330
4717
100
AcDbEntity
  8
DIM
100
AcDbLine
 10
140.0974928443778
 20
207.181534712481
 30
0.0
 11
140.0974928443778
 21
214.1454934854813
 31
0.0
  0
LINE
  5
4890
330
4717
100
AcDbEntity
  8
DIM
100
AcDbLine
 10
151.0974927847731
 20
207.181534712481
 30
0.0
 11
151.0974927847731
 21
214.1454934854813
 31
0.0
  0
LINE
  5
4891
330
4717
100
AcDbEntity
  8
DIM
100
AcDbLine
 10
142.0974928443778
 20
212.6454934854813
 30
0.0
 11
149.0974927847731
 21
212.6454934854813
 31
0.0
  0
SOLID
  5
4892
330
4717
100
AcDbEntity
  8
DIM
100
AcDbTrace
 10
142.0974928443778
 20
212.9788268188147
 30
0.0
 11
142.0974928443778
 21
212.312160152148
 31
0.0
 12
140.0974928443778
 22
212.6454934854813
 32
0.0
 13
140.0974928443778
 23
212.6454934854813
 33
0.0
  0
SOLID
  5
4893
330
4717
100
AcDbEntity
  8
DIM
100
AcDbTrace
 10
149.0974927847731
 20
212.9788268188147
 30
0.0
 11
149.0974927847731
 21
212.312160152148
 31
0.0
 12
151.0974927847731
 22
212.6454934854813
 32
0.0
 13
151.0974927847731
 23
212.6454934854813
 33
0.0
  0
MTEXT
  5
4894
330
4717
100
AcDbEntity
  8
DIM
100
AcDbMText
 10
145.5974928145755
 20
214.6454934854813
 30
0.0
 40
2.0
 41
0.0
 71
     5
 72
     1
  1
\A1;11
  7
dayus
 73
     1
 44
1.0
1001
ACAD
1000
MTEXTBEGIN
1070
    73
1070
     1
1070
    44
1040
1.0
1070
    74
1070
     0
1000
MTEXTEND
  0
POINT
  5
4895
330
4717
100
AcDbEntity
  8
Defpoints
 62
     0
100
AcDbPoint
 10
140.0974928443778
 20
205.681534712481
 30
0.0
  0
POINT
  5
4896
330
4717
100
AcDbEntity
  8
Defpoints
 62
     0
100
AcDbPoint
 10
151.0974927847731
 20
205.681534712481
 30
0.0
  0
POINT
  5
4897
330
4717
100
AcDbEntity
  8
Defpoints
 62
     0
100
AcDbPoint
 10
151.0974927847731
 20
212.6454934854813
 30
0.0
  0
ENDBLK
  5
4722
330
4717
100
AcDbEntity
  8
0
100
AcDbBlockEnd
  0
BLOCK
  5
48D0
330
48C6
100
AcDbEntity
  8
0
100
AcDbBlockBegin
  2
*D13
 70
     1
 10
0.0
 20
0.0
 30
0.0
  3
*D13
  1

  0
LINE
  5
4BAE
330
48C6
100
AcDbEntity
  8
DIM
100
AcDbLine
 10
107.0974930231916
 20
98.20286627049831
 30
0.0
 11
107.0974930231916
 21
100.1056709830621
 31
0.0
  0
LINE
  5
4BAF
330
48C6
100
AcDbEntity
  8
DIM
100
AcDbLine
 10
114.0974930231916
 20
82.66076755199865
 30
0.0
 11
114.0974930231916
 21
100.1056709830621
 31
0.0
  0
LINE
  5
4BB0
330
48C6
100
AcDbEntity
  8
DIM
100
AcDbLine
 10
109.0974930231916
 20
98.60567098306212
 30
0.0
 11
112.0974930231916
 21
98.60567098306212
 31
0.0
  0
SOLID
  5
4BB1
330
48C6
100
AcDbEntity
  8
DIM
100
AcDbTrace
 10
109.0974930231916
 20
98.93900431639544
 30
0.0
 11
109.0974930231916
 21
98.27233764972879
 31
0.0
 12
107.0974930231916
 22
98.60567098306212
 32
0.0
 13
107.0974930231916
 23
98.60567098306212
 33
0.0
  0
SOLID
  5
4BB2
330
48C6
100
AcDbEntity
  8
DIM
100
AcDbTrace
 10
112.0974930231916
 20
98.93900431639544
 30
0.0
 11
112.0974930231916
 21
98.27233764972879
 31
0.0
 12
114.0974930231916
 22
98.60567098306212
 32
0.0
 13
114.0974930231916
 23
98.60567098306212
 33
0.0
  0
MTEXT
  5
4BB3
330
48C6
100
AcDbEntity
  8
DIM
100
AcDbMText
 10
110.5974930231917
 20
100.6056709830621
 30
0.0
 40
2.0
 41
0.0
 71
     5
 72
     1
  1
\A1;7
  7
dayus
 73
     1
 44
1.0
1001
ACAD
1000
MTEXTBEGIN
1070
    73
1070
     1
1070
    44
1040
1.0
1070
    74
1070
     0
1000
MTEXTEND
  0
POINT
  5
4BB4
330
48C6
100
AcDbEntity
  8
Defpoints
 62
     0
100
AcDbPoint
 10
107.0974930231916
 20
96.70286627049831
 30
0.0
  0
POINT
  5
4BB5
330
48C6
100
AcDbEntity
  8
Defpoints
 62
     0
100
AcDbPoint
 10
114.0974930231916
 20
81.16076755199864
 30
0.0
  0
POINT
  5
4BB6
330
48C6
100
AcDbEntity
  8
Defpoints
 62
     0
100
AcDbPoint
 10
114.0974930231916
 20
98.60567098306212
 30
0.0
  0
ENDBLK
  5
48D1
330
48C6
100
AcDbEntity
  8
0
100
AcDbBlockEnd
  0
BLOCK
  5
48DC
330
48D2
100
AcDbEntity
  8
0
100
AcDbBlockBegin
  2
*D14
 70
     1
 10
0.0
 20
0.0
 30
0.0
  3
*D14
  1

  0
LINE
  5
4BB7
330
48D2
100
AcDbEntity
  8
DIM
100
AcDbLine
 10
144.0974930231917
 20
82.66076755199859
 30
0.0
 11
144.0974930231917
 21
100.1056709830621
 31
0.0
  0
LINE
  5
4BB8
330
48D2
100
AcDbEntity
  8
DIM
100
AcDbLine
 10
151.0974924569476
 20
98.2028662704981
 30
0.0
 11
151.0974924569476
 21
100.1056709830621
 31
0.0
  0
LINE
  5
4BB9
330
48D2
100
AcDbEntity
  8
DIM
100
AcDbLine
 10
146.0974930231917
 20
98.60567098306212
 30
0.0
 11
149.0974924569476
 21
98.60567098306212
 31
0.0
  0
SOLID
  5
4BBA
330
48D2
100
AcDbEntity
  8
DIM
100
AcDbTrace
 10
146.0974930231917
 20
98.93900431639544
 30
0.0
 11
146.0974930231917
 21
98.27233764972879
 31
0.0
 12
144.0974930231917
 22
98.60567098306212
 32
0.0
 13
144.0974930231917
 23
98.60567098306212
 33
0.0
  0
SOLID
  5
4BBB
330
48D2
100
AcDbEntity
  8
DIM
100
AcDbTrace
 10
149.0974924569476
 20
98.93900431639544
 30
0.0
 11
149.0974924569476
 21
98.27233764972879
 31
0.0
 12
151.0974924569476
 22
98.60567098306212
 32
0.0
 13
151.0974924569476
 23
98.60567098306212
 33
0.0
  0
MTEXT
  5
4BBC
330
48D2
100
AcDbEntity
  8
DIM
100
AcDbMText
 10
147.5974927400696
 20
100.6056709830621
 30
0.0
 40
2.0
 41
0.0
 71
     5
 72
     1
  1
\A1;7
  7
dayus
 73
     1
 44
1.0
1001
ACAD
1000
MTEXTBEGIN
1070
    73
1070
     1
1070
    44
1040
1.0
1070
    74
1070
     0
1000
MTEXTEND
  0
POINT
  5
4BBD
330
48D2
100
AcDbEntity
  8
Defpoints
 62
     0
100
AcDbPoint
 10
144.0974930231917
 20
81.16076755199859
 30
0.0
  0
POINT
  5
4BBE
330
48D2
100
AcDbEntity
  8
Defpoints
 62
     0
100
AcDbPoint
 10
151.0974924569476
 20
96.70286627049812
 30
0.0
  0
POINT
  5
4BBF
330
48D2
100
AcDbEntity
  8
Defpoints
 62
     0
100
AcDbPoint
 10
151.0974924569476
 20
98.60567098306212
 30
0.0
  0
ENDBLK
  5
48DD
330
48D2
100
AcDbEntity
  8
0
100
AcDbBlockEnd
  0
BLOCK
  5
48E8
330
48DE
100
AcDbEntity
  8
0
100
AcDbBlockBegin
  2
*D15
 70
     1
 10
0.0
 20
0.0
 30
0.0
  3
*D15
  1

  0
LINE
  5
4BC0
330
48DE
100
AcDbEntity
  8
DIM
100
AcDbLine
 10
107.0974930231917
 20
97.70286525721928
 30
0.0
 11
107.0974930231917
 21
111.0930692548681
 31
0.0
  0
LINE
  5
4BC1
330
48DE
100
AcDbEntity
  8
DIM
100
AcDbLine
 10
151.0974927847731
 20
97.70286525721918
 30
0.0
 11
151.0974927847731
 21
111.0930692548681
 31
0.0
  0
LINE
  5
4BC2
330
48DE
100
AcDbEntity
  8
DIM
100
AcDbLine
 10
109.0974930231917
 20
109.5930692548682
 30
0.0
 11
149.0974927847731
 21
109.5930692548682
 31
0.0
  0
SOLID
  5
4BC3
330
48DE
100
AcDbEntity
  8
DIM
100
AcDbTrace
 10
109.0974930231917
 20
109.9264025882015
 30
0.0
 11
109.0974930231917
 21
109.2597359215348
 31
0.0
 12
107.0974930231917
 22
109.5930692548682
 32
0.0
 13
107.0974930231917
 23
109.5930692548682
 33
0.0
  0
SOLID
  5
4BC4
330
48DE
100
AcDbEntity
  8
DIM
100
AcDbTrace
 10
149.0974927847731
 20
109.9264025882015
 30
0.0
 11
149.0974927847731
 21
109.2597359215348
 31
0.0
 12
151.0974927847731
 22
109.5930692548682
 32
0.0
 13
151.0974927847731
 23
109.5930692548682
 33
0.0
  0
MTEXT
  5
4BC5
330
48DE
100
AcDbEntity
  8
DIM
100
AcDbMText
 10
129.0974929039824
 20
111.5930692548682
 30
0.0
 40
2.0
 41
0.0
 71
     5
 72
     1
  1
\A1;39+stroke=44
  7
dayus
 73
     1
 44
1.0
1001
ACAD
1000
MTEXTBEGIN
1070
    73
1070
     1
1070
    44
1040
1.0
1070
    74
1070
     0
1000
MTEXTEND
  0
POINT
  5
4BC6
330
48DE
100
AcDbEntity
  8
Defpoints
 62
     0
100
AcDbPoint
 10
107.0974930231917
 20
96.2028652572193
 30
0.0
  0
POINT
  5
4BC7
330
48DE
100
AcDbEntity
  8
Defpoints
 62
     0
100
AcDbPoint
 10
151.0974927847731
 20
96.20286525721917
 30
0.0
  0
POINT
  5
4BC8
330
48DE
100
AcDbEntity
  8
Defpoints
 62
     0
100
AcDbPoint
 10
151.0974927847731
 20
109.5930692548682
 30
0.0
  0
ENDBLK
  5
48E9
330
48DE
100
AcDbEntity
  8
0
100
AcDbBlockEnd
  0
BLOCK
  5
48F4
330
48EA
100
AcDbEntity
  8
0
100
AcDbBlockBegin
  2
*D16
 70
     1
 10
0.0
 20
0.0
 30
0.0
  3
*D16
  1

  0
LINE
  5
4BC9
330
48EA
100
AcDbEntity
  8
DIM
100
AcDbLine
 10
101.0974929710375
 20
81.95286453823834
 30
0.0
 11
101.0974929710375
 21
119.3091564818438
 31
0.0
  0
LINE
  5
4BCA
330
48EA
100
AcDbEntity
  8
DIM
100
AcDbLine
 10
151.0974927847731
 20
97.45286475057969
 30
0.0
 11
151.0974927847731
 21
119.3091564818438
 31
0.0
  0
LINE
  5
4BCB
330
48EA
100
AcDbEntity
  8
DIM
100
AcDbLine
 10
103.0974929710375
 20
117.8091564818438
 30
0.0
 11
149.0974927847731
 21
117.8091564818438
 31
0.0
  0
SOLID
  5
4BCC
330
48EA
100
AcDbEntity
  8
DIM
100
AcDbTrace
 10
103.0974929710375
 20
118.1424898151771
 30
0.0
 11
103.0974929710375
 21
117.4758231485105
 31
0.0
 12
101.0974929710375
 22
117.8091564818438
 32
0.0
 13
101.0974929710375
 23
117.8091564818438
 33
0.0
  0
SOLID
  5
4BCD
330
48EA
100
AcDbEntity
  8
DIM
100
AcDbTrace
 10
149.0974927847731
 20
118.1424898151771
 30
0.0
 11
149.0974927847731
 21
117.4758231485105
 31
0.0
 12
151.0974927847731
 22
117.8091564818438
 32
0.0
 13
151.0974927847731
 23
117.8091564818438
 33
0.0
  0
MTEXT
  5
4BCE
330
48EA
100
AcDbEntity
  8
DIM
100
AcDbMText
 10
126.0974928779053
 20
119.8091564818438
 30
0.0
 40
2.0
 41
0.0
 71
     5
 72
     1
  1
\A1;45+stroke=50
  7
dayus
 73
     1
 44
1.0
1001
ACAD
1000
MTEXTBEGIN
1070
    73
1070
     1
1070
    44
1040
1.0
1070
    74
1070
     0
1000
MTEXTEND
  0
POINT
  5
4BCF
330
48EA
100
AcDbEntity
  8
Defpoints
 62
     0
100
AcDbPoint
 10
101.0974929710375
 20
80.45286453823834
 30
0.0
  0
POINT
  5
4BD0
330
48EA
100
AcDbEntity
  8
Defpoints
 62
     0
100
AcDbPoint
 10
151.0974927847731
 20
95.95286475057969
 30
0.0
  0
POINT
  5
4BD1
330
48EA
100
AcDbEntity
  8
Defpoints
 62
     0
100
AcDbPoint
 10
151.0974927847731
 20
117.8091564818438
 30
0.0
  0
ENDBLK
  5
48F5
330
48EA
100
AcDbEntity
  8
0
100
AcDbBlockEnd
  0
BLOCK
  5
4900
330
48F6
100
AcDbEntity
  8
0
100
AcDbBlockBegin
  2
*D17
 70
     1
 10
0.0
 20
0.0
 30
0.0
  3
*D17
  1

  0
LINE
  5
4BD2
330
48F6
100
AcDbEntity
  8
DIM
100
AcDbLine
 10
101.0974929710376
 20
82.45286555151727
 30
0.0
 11
101.0974929710376
 21
111.0930692548681
 31
0.0
  0
LINE
  5
4BD3
330
48F6
100
AcDbEntity
  8
DIM
100
AcDbLine
 10
107.0974930231916
 20
98.20286627049831
 30
0.0
 11
107.0974930231916
 21
111.0930692548681
 31
0.0
  0
LINE
  5
4BD4
330
48F6
100
AcDbEntity
  8
DIM
100
AcDbLine
 10
103.0974929710376
 20
109.5930692548681
 30
0.0
 11
105.0974930231916
 21
109.5930692548681
 31
0.0
  0
SOLID
  5
4BD5
330
48F6
100
AcDbEntity
  8
DIM
100
AcDbTrace
 10
103.0974929710376
 20
109.9264025882014
 30
0.0
 11
103.0974929710376
 21
109.2597359215348
 31
0.0
 12
101.0974929710376
 22
109.5930692548681
 32
0.0
 13
101.0974929710376
 23
109.5930692548681
 33
0.0
  0
SOLID
  5
4BD6
330
48F6
100
AcDbEntity
  8
DIM
100
AcDbTrace
 10
105.0974930231916
 20
109.9264025882014
 30
0.0
 11
105.0974930231916
 21
109.2597359215348
 31
0.0
 12
107.0974930231916
 22
109.5930692548681
 32
0.0
 13
107.0974930231916
 23
109.5930692548681
 33
0.0
  0
MTEXT
  5
4BD7
330
48F6
100
AcDbEntity
  8
DIM
100
AcDbMText
 10
104.0974929971146
 20
111.5930692548681
 30
0.0
 40
2.0
 41
0.0
 71
     5
 72
     1
  1
\A1;6
  7
dayus
 73
     1
 44
1.0
1001
ACAD
1000
MTEXTBEGIN
1070
    73
1070
     1
1070
    44
1040
1.0
1070
    74
1070
     0
1000
MTEXTEND
  0
POINT
  5
4BD8
330
48F6
100
AcDbEntity
  8
Defpoints
 62
     0
100
AcDbPoint
 10
101.0974929710376
 20
80.95286555151728
 30
0.0
  0
POINT
  5
4BD9
330
48F6
100
AcDbEntity
  8
Defpoints
 62
     0
100
AcDbPoint
 10
107.0974930231916
 20
96.70286627049831
 30
0.0
  0
POINT
  5
4BDA
330
48F6
100
AcDbEntity
  8
Defpoints
 62
     0
100
AcDbPoint
 10
107.0974930231916
 20
109.5930692548681
 30
0.0
  0
ENDBLK
  5
4901
330
48F6
100
AcDbEntity
  8
0
100
AcDbBlockEnd
  0
BLOCK
  5
4918
330
490E
100
AcDbEntity
  8
0
100
AcDbBlockBegin
  2
*D18
 70
     1
 10
0.0
 20
0.0
 30
0.0
  3
*D18
  1

  0
LINE
  5
4BDB
330
490E
100
AcDbEntity
  8
DIM
100
AcDbLine
 10
107.0974930231916
 20
98.20286627049831
 30
0.0
 11
107.0974930231916
 21
105.1668250434995
 31
0.0
  0
LINE
  5
4BDC
330
490E
100
AcDbEntity
  8
DIM
100
AcDbLine
 10
118.0974929635871
 20
97.70286525721928
 30
0.0
 11
118.0974929635871
 21
105.1668250434995
 31
0.0
  0
LINE
  5
4BDD
330
490E
100
AcDbEntity
  8
DIM
100
AcDbLine
 10
109.0974930231916
 20
103.6668250434995
 30
0.0
 11
116.0974929635871
 21
103.6668250434995
 31
0.0
  0
SOLID
  5
4BDE
330
490E
100
AcDbEntity
  8
DIM
100
AcDbTrace
 10
109.0974930231916
 20
104.0001583768328
 30
0.0
 11
109.0974930231916
 21
103.3334917101661
 31
0.0
 12
107.0974930231916
 22
103.6668250434995
 32
0.0
 13
107.0974930231916
 23
103.6668250434995
 33
0.0
  0
SOLID
  5
4BDF
330
490E
100
AcDbEntity
  8
DIM
100
AcDbTrace
 10
116.0974929635871
 20
104.0001583768328
 30
0.0
 11
116.0974929635871
 21
103.3334917101661
 31
0.0
 12
118.0974929635871
 22
103.6668250434995
 32
0.0
 13
118.0974929635871
 23
103.6668250434995
 33
0.0
  0
MTEXT
  5
4BE0
330
490E
100
AcDbEntity
  8
DIM
100
AcDbMText
 10
112.5974929933894
 20
105.6668250434995
 30
0.0
 40
2.0
 41
0.0
 71
     5
 72
     1
  1
\A1;11
  7
dayus
 73
     1
 44
1.0
1001
ACAD
1000
MTEXTBEGIN
1070
    73
1070
     1
1070
    44
1040
1.0
1070
    74
1070
     0
1000
MTEXTEND
  0
POINT
  5
4BE1
330
490E
100
AcDbEntity
  8
Defpoints
 62
     0
100
AcDbPoint
 10
107.0974930231916
 20
96.70286627049831
 30
0.0
  0
POINT
  5
4BE2
330
490E
100
AcDbEntity
  8
Defpoints
 62
     0
100
AcDbPoint
 10
118.0974929635871
 20
96.2028652572193
 30
0.0
  0
POINT
  5
4BE3
330
490E
100
AcDbEntity
  8
Defpoints
 62
     0
100
AcDbPoint
 10
118.0974929635871
 20
103.6668250434995
 30
0.0
  0
ENDBLK
  5
4919
330
490E
100
AcDbEntity
  8
0
100
AcDbBlockEnd
  0
BLOCK
  5
4924
330
491A
100
AcDbEntity
  8
0
100
AcDbBlockBegin
  2
*D19
 70
     1
 10
0.0
 20
0.0
 30
0.0
  3
*D19
  1

  0
LINE
  5
4BE4
330
491A
100
AcDbEntity
  8
DIM
100
AcDbLine
 10
140.0974928443777
 20
97.70286525721928
 30
0.0
 11
140.0974928443777
 21
105.1668250434985
 31
0.0
  0
LINE
  5
4BE5
330
491A
100
AcDbEntity
  8
DIM
100
AcDbLine
 10
151.0974927847731
 20
98.20286627049814
 30
0.0
 11
151.0974927847731
 21
105.1668250434985
 31
0.0
  0
LINE
  5
4BE6
330
491A
100
AcDbEntity
  8
DIM
100
AcDbLine
 10
142.0974928443777
 20
103.6668250434985
 30
0.0
 11
149.0974927847731
 21
103.6668250434985
 31
0.0
  0
SOLID
  5
4BE7
330
491A
100
AcDbEntity
  8
DIM
100
AcDbTrace
 10
142.0974928443777
 20
104.0001583768318
 30
0.0
 11
142.0974928443777
 21
103.3334917101651
 31
0.0
 12
140.0974928443777
 22
103.6668250434985
 32
0.0
 13
140.0974928443777
 23
103.6668250434985
 33
0.0
  0
SOLID
  5
4BE8
330
491A
100
AcDbEntity
  8
DIM
100
AcDbTrace
 10
149.0974927847731
 20
104.0001583768318
 30
0.0
 11
149.0974927847731
 21
103.3334917101651
 31
0.0
 12
151.0974927847731
 22
103.6668250434985
 32
0.0
 13
151.0974927847731
 23
103.6668250434985
 33
0.0
  0
MTEXT
  5
4BE9
330
491A
100
AcDbEntity
  8
DIM
100
AcDbMText
 10
145.5974928145754
 20
105.6668250434984
 30
0.0
 40
2.0
 41
0.0
 71
     5
 72
     1
  1
\A1;11
  7
dayus
 73
     1
 44
1.0
1001
ACAD
1000
MTEXTBEGIN
1070
    73
1070
     1
1070
    44
1040
1.0
1070
    74
1070
     0
1000
MTEXTEND
  0
POINT
  5
4BEA
330
491A
100
AcDbEntity
  8
Defpoints
 62
     0
100
AcDbPoint
 10
140.0974928443777
 20
96.2028652572193
 30
0.0
  0
POINT
  5
4BEB
330
491A
100
AcDbEntity
  8
Defpoints
 62
     0
100
AcDbPoint
 10
151.0974927847731
 20
96.70286627049813
 30
0.0
  0
POINT
  5
4BEC
330
491A
100
AcDbEntity
  8
Defpoints
 62
     0
100
AcDbPoint
 10
151.0974927847731
 20
103.6668250434985
 30
0.0
  0
ENDBLK
  5
4925
330
491A
100
AcDbEntity
  8
0
100
AcDbBlockEnd
  0
BLOCK
  5
4A18
330
4A0E
100
AcDbEntity
  8
0
100
AcDbBlockBegin
  2
*D20
 70
     1
 10
0.0
 20
0.0
 30
0.0
  3
*D20
  1

  0
LINE
  5
4A30
330
4A0E
100
AcDbEntity
  8
DIM
100
AcDbLine
 10
199.6636639476664
 20
200.1815345336663
 30
0.0
 11
199.6636639476664
 21
218.9152260498389
 31
0.0
  0
LINE
  5
4A31
330
4A0E
100
AcDbEntity
  8
DIM
100
AcDbLine
 10
239.1636651099577
 20
200.1815338035103
 30
0.0
 11
239.1636651099577
 21
218.9152260498389
 31
0.0
  0
LINE
  5
4A32
330
4A0E
100
AcDbEntity
  8
DIM
100
AcDbLine
 10
201.6636639476665
 20
217.4152260498389
 30
0.0
 11
237.1636651099577
 21
217.4152260498389
 31
0.0
  0
SOLID
  5
4A33
330
4A0E
100
AcDbEntity
  8
DIM
100
AcDbTrace
 10
201.6636639476665
 20
217.7485593831722
 30
0.0
 11
201.6636639476665
 21
217.0818927165055
 31
0.0
 12
199.6636639476664
 22
217.4152260498389
 32
0.0
 13
199.6636639476664
 23
217.4152260498389
 33
0.0
  0
SOLID
  5
4A34
330
4A0E
100
AcDbEntity
  8
DIM
100
AcDbTrace
 10
237.1636651099577
 20
217.7485593831722
 30
0.0
 11
237.1636651099577
 21
217.0818927165055
 31
0.0
 12
239.1636651099577
 22
217.4152260498389
 32
0.0
 13
239.1636651099577
 23
217.4152260498389
 33
0.0
  0
MTEXT
  5
4A35
330
4A0E
100
AcDbEntity
  8
DIM
100
AcDbMText
 10
219.4136645288121
 20
219.4152260498389
 30
0.0
 40
2.0
 41
0.0
 71
     5
 72
     1
  1
\A1;□39.5
  7
dayus
 73
     1
 44
1.0
1001
ACAD
1000
MTEXTBEGIN
1070
    73
1070
     1
1070
    44
1040
1.0
1070
    74
1070
     0
1000
MTEXTEND
  0
POINT
  5
4A36
330
4A0E
100
AcDbEntity
  8
Defpoints
 62
     0
100
AcDbPoint
 10
199.6636639476664
 20
198.6815345336663
 30
0.0
  0
POINT
  5
4A37
330
4A0E
100
AcDbEntity
  8
Defpoints
 62
     0
100
AcDbPoint
 10
239.1636651099577
 20
198.6815338035102
 30
0.0
  0
POINT
  5
4A38
330
4A0E
100
AcDbEntity
  8
Defpoints
 62
     0
100
AcDbPoint
 10
239.1636651099577
 20
217.4152260498389
 30
0.0
  0
ENDBLK
  5
4A19
330
4A0E
100
AcDbEntity
  8
0
100
AcDbBlockEnd
  0
BLOCK
  5
4A24
330
4A1A
100
AcDbEntity
  8
0
100
AcDbBlockBegin
  2
*D21
 70
     1
 10
0.0
 20
0.0
 30
0.0
  3
*D21
  1

  0
LINE
  5
4A42
330
4A1A
100
AcDbEntity
  8
DIM
100
AcDbLine
 10
206.4136651099577
 20
205.1394370072606
 30
0.0
 11
206.4136651099577
 21
211.5863039680974
 31
0.0
  0
LINE
  5
4A43
330
4A1A
100
AcDbEntity
  8
DIM
100
AcDbLine
 10
232.4136651099577
 20
205.1394370072605
 30
0.0
 11
232.4136651099577
 21
211.5863039680974
 31
0.0
  0
LINE
  5
4A44
330
4A1A
100
AcDbEntity
  8
DIM
100
AcDbLine
 10
208.4136651099577
 20
210.0863039680974
 30
0.0
 11
230.4136651099577
 21
210.0863039680974
 31
0.0
  0
SOLID
  5
4A45
330
4A1A
100
AcDbEntity
  8
DIM
100
AcDbTrace
 10
208.4136651099577
 20
210.4196373014307
 30
0.0
 11
208.4136651099577
 21
209.7529706347641
 31
0.0
 12
206.4136651099577
 22
210.0863039680974
 32
0.0
 13
206.4136651099577
 23
210.0863039680974
 33
0.0
  0
SOLID
  5
4A46
330
4A1A
100
AcDbEntity
  8
DIM
100
AcDbTrace
 10
230.4136651099577
 20
210.4196373014307
 30
0.0
 11
230.4136651099577
 21
209.7529706347641
 31
0.0
 12
232.4136651099577
 22
210.0863039680974
 32
0.0
 13
232.4136651099577
 23
210.0863039680974
 33
0.0
  0
MTEXT
  5
4A47
330
4A1A
100
AcDbEntity
  8
DIM
100
AcDbMText
 10
219.4136651099577
 20
212.0863039680974
 30
0.0
 40
2.0
 41
0.0
 71
     5
 72
     1
  1
\A1;□26
  7
dayus
 73
     1
 44
1.0
1001
ACAD
1000
MTEXTBEGIN
1070
    73
1070
     1
1070
    44
1040
1.0
1070
    74
1070
     0
1000
MTEXTEND
  0
POINT
  5
4A48
330
4A1A
100
AcDbEntity
  8
Defpoints
 62
     0
100
AcDbPoint
 10
206.4136651099577
 20
203.6394370072605
 30
0.0
  0
POINT
  5
4A49
330
4A1A
100
AcDbEntity
  8
Defpoints
 62
     0
100
AcDbPoint
 10
232.4136651099577
 20
203.6394370072605
 30
0.0
  0
POINT
  5
4A4A
330
4A1A
100
AcDbEntity
  8
Defpoints
 62
     0
100
AcDbPoint
 10
232.4136651099577
 20
210.0863039680974
 30
0.0
  0
ENDBLK
  5
4A25
330
4A1A
100
AcDbEntity
  8
0
100
AcDbBlockEnd
  0
BLOCK
  5
4A62
330
4A58
100
AcDbEntity
  8
0
100
AcDbBlockBegin
  2
*D22
 70
     1
 10
0.0
 20
0.0
 30
0.0
  3
*D22
  1

  0
LINE
  5
4BED
330
4A58
100
AcDbEntity
  8
DIM
100
AcDbLine
 10
104.5974929756941
 20
81.45286423648981
 30
0.0
 11
88.46351865730159
 21
81.45286423648981
 31
0.0
  0
LINE
  5
4BEE
330
4A58
100
AcDbEntity
  8
DIM
100
AcDbLine
 10
104.4829073534804
 20
71.45746472786455
 30
0.0
 11
88.46351865730159
 21
71.45746472786456
 31
0.0
  0
LINE
  5
4BEF
330
4A58
100
AcDbEntity
  8
DIM
100
AcDbLine
 10
89.9635186573016
 20
79.45286423648981
 30
0.0
 11
89.9635186573016
 21
73.45746472786456
 31
0.0
  0
SOLID
  5
4BF0
330
4A58
100
AcDbEntity
  8
DIM
100
AcDbTrace
 10
89.63018532396826
 20
79.45286423648981
 30
0.0
 11
90.29685199063491
 21
79.45286423648981
 31
0.0
 12
89.9635186573016
 22
81.45286423648981
 32
0.0
 13
89.9635186573016
 23
81.45286423648981
 33
0.0
  0
SOLID
  5
4BF1
330
4A58
100
AcDbEntity
  8
DIM
100
AcDbTrace
 10
89.63018532396826
 20
73.45746472786456
 30
0.0
 11
90.29685199063491
 21
73.45746472786456
 31
0.0
 12
89.9635186573016
 22
71.45746472786456
 32
0.0
 13
89.9635186573016
 23
71.45746472786456
 33
0.0
  0
MTEXT
  5
4BF2
330
4A58
100
AcDbEntity
  8
DIM
100
AcDbMText
 10
87.96351865730157
 20
76.45516448217719
 30
0.0
 40
2.0
 41
0.0
 71
     5
 72
     1
  1
\A1;%%C10
  7
dayus
 11
0.0000000000000001
 21
1.0
 31
0.0
 73
     1
 44
1.0
1001
ACAD
1000
MTEXTBEGIN
1070
    73
1070
     1
1070
    44
1040
1.0
1070
    74
1070
     0
1000
MTEXTEND
  0
POINT
  5
4BF3
330
4A58
100
AcDbEntity
  8
Defpoints
 62
     0
100
AcDbPoint
 10
106.0974929756941
 20
81.45286423648981
 30
0.0
  0
POINT
  5
4BF4
330
4A58
100
AcDbEntity
  8
Defpoints
 62
     0
100
AcDbPoint
 10
105.9829073534804
 20
71.45746472786455
 30
0.0
  0
POINT
  5
4BF5
330
4A58
100
AcDbEntity
  8
Defpoints
 62
     0
100
AcDbPoint
 10
89.9635186573016
 20
71.45746472786456
 30
0.0
  0
ENDBLK
  5
4A63
330
4A58
100
AcDbEntity
  8
0
100
AcDbBlockEnd
  0
BLOCK
  5
4B3B
330
4B31
100
AcDbEntity
  8
0
100
AcDbBlockBegin
  2
*D23
 70
     1
 10
0.0
 20
0.0
 30
0.0
  3
*D23
  1

  0
LINE
  5
4BF6
330
4B31
100
AcDbEntity
  8
DIM
100
AcDbLine
 10
206.4136651099576
 20
95.66076755199867
 30
0.0
 11
206.4136651099576
 21
102.1076345128355
 31
0.0
  0
LINE
  5
4BF7
330
4B31
100
AcDbEntity
  8
DIM
100
AcDbLine
 10
232.4136651099576
 20
95.66076755199862
 30
0.0
 11
232.4136651099576
 21
102.1076345128355
 31
0.0
  0
LINE
  5
4BF8
330
4B31
100
AcDbEntity
  8
DIM
100
AcDbLine
 10
208.4136651099576
 20
100.6076345128355
 30
0.0
 11
230.4136651099576
 21
100.6076345128355
 31
0.0
  0
SOLID
  5
4BF9
330
4B31
100
AcDbEntity
  8
DIM
100
AcDbTrace
 10
208.4136651099576
 20
100.9409678461689
 30
0.0
 11
208.4136651099576
 21
100.2743011795022
 31
0.0
 12
206.4136651099576
 22
100.6076345128355
 32
0.0
 13
206.4136651099576
 23
100.6076345128355
 33
0.0
  0
SOLID
  5
4BFA
330
4B31
100
AcDbEntity
  8
DIM
100
AcDbTrace
 10
230.4136651099576
 20
100.9409678461689
 30
0.0
 11
230.4136651099576
 21
100.2743011795022
 31
0.0
 12
232.4136651099576
 22
100.6076345128355
 32
0.0
 13
232.4136651099576
 23
100.6076345128355
 33
0.0
  0
MTEXT
  5
4BFB
330
4B31
100
AcDbEntity
  8
DIM
100
AcDbMText
 10
219.4136651099576
 20
102.6076345128355
 30
0.0
 40
2.0
 41
0.0
 71
     5
 72
     1
  1
\A1;□26
  7
dayus
 73
     1
 44
1.0
1001
ACAD
1000
MTEXTBEGIN
1070
    73
1070
     1
1070
    44
1040
1.0
1070
    74
1070
     0
1000
MTEXTEND
  0
POINT
  5
4BFC
330
4B31
100
AcDbEntity
  8
Defpoints
 62
     0
100
AcDbPoint
 10
206.4136651099576
 20
94.16076755199867
 30
0.0
  0
POINT
  5
4BFD
330
4B31
100
AcDbEntity
  8
Defpoints
 62
     0
100
AcDbPoint
 10
232.4136651099576
 20
94.16076755199862
 30
0.0
  0
POINT
  5
4BFE
330
4B31
100
AcDbEntity
  8
Defpoints
 62
     0
100
AcDbPoint
 10
232.4136651099576
 20
100.6076345128355
 30
0.0
  0
ENDBLK
  5
4B3C
330
4B31
100
AcDbEntity
  8
0
100
AcDbBlockEnd
  0
BLOCK
  5
4B47
330
4B3D
100
AcDbEntity
  8
0
100
AcDbBlockBegin
  2
*D24
 70
     1
 10
0.0
 20
0.0
 30
0.0
  3
*D24
  1

  0
LINE
  5
4BFF
330
4B3D
100
AcDbEntity
  8
DIM
100
AcDbLine
 10
199.6636639476664
 20
90.70286507840444
 30
0.0
 11
199.6636639476664
 21
109.436556594577
 31
0.0
  0
LINE
  5
4C00
330
4B3D
100
AcDbEntity
  8
DIM
100
AcDbLine
 10
239.1636651099577
 20
90.7028643482484
 30
0.0
 11
239.1636651099577
 21
109.436556594577
 31
0.0
  0
LINE
  5
4C01
330
4B3D
100
AcDbEntity
  8
DIM
100
AcDbLine
 10
201.6636639476664
 20
107.936556594577
 30
0.0
 11
237.1636651099576
 21
107.936556594577
 31
0.0
  0
SOLID
  5
4C02
330
4B3D
100
AcDbEntity
  8
DIM
100
AcDbTrace
 10
201.6636639476664
 20
108.2698899279104
 30
0.0
 11
201.6636639476664
 21
107.6032232612437
 31
0.0
 12
199.6636639476664
 22
107.936556594577
 32
0.0
 13
199.6636639476664
 23
107.936556594577
 33
0.0
  0
SOLID
  5
4C03
330
4B3D
100
AcDbEntity
  8
DIM
100
AcDbTrace
 10
237.1636651099576
 20
108.2698899279104
 30
0.0
 11
237.1636651099576
 21
107.6032232612437
 31
0.0
 12
239.1636651099577
 22
107.936556594577
 32
0.0
 13
239.1636651099577
 23
107.936556594577
 33
0.0
  0
MTEXT
  5
4C04
330
4B3D
100
AcDbEntity
  8
DIM
100
AcDbMText
 10
219.413664528812
 20
109.936556594577
 30
0.0
 40
2.0
 41
0.0
 71
     5
 72
     1
  1
\A1;□39.5
  7
dayus
 73
     1
 44
1.0
1001
ACAD
1000
MTEXTBEGIN
1070
    73
1070
     1
1070
    44
1040
1.0
1070
    74
1070
     0
1000
MTEXTEND
  0
POINT
  5
4C05
330
4B3D
100
AcDbEntity
  8
Defpoints
 62
     0
100
AcDbPoint
 10
199.6636639476664
 20
89.20286507840444
 30
0.0
  0
POINT
  5
4C06
330
4B3D
100
AcDbEntity
  8
Defpoints
 62
     0
100
AcDbPoint
 10
239.1636651099577
 20
89.2028643482484
 30
0.0
  0
POINT
  5
4C07
330
4B3D
100
AcDbEntity
  8
Defpoints
 62
     0
100
AcDbPoint
 10
239.1636651099577
 20
107.936556594577
 30
0.0
  0
ENDBLK
  5
4B48
330
4B3D
100
AcDbEntity
  8
0
100
AcDbBlockEnd
  0
BLOCK
  5
4B8B
330
4B81
100
AcDbEntity
  8
0
100
AcDbBlockBegin
  2
*D25
 70
     1
 10
0.0
 20
0.0
 30
0.0
  3
*D25
  1

  0
LINE
  5
4C08
330
4B81
100
AcDbEntity
  8
DIM
100
AcDbLine
 10
99.59749297103755
 20
80.45286453823834
 30
0.0
 11
93.88078573026405
 21
80.45286453823836
 31
0.0
  0
LINE
  5
4C09
330
4B81
100
AcDbEntity
  8
DIM
100
AcDbLine
 10
99.59749297103755
 20
72.45286415825873
 30
0.0
 11
93.88078573026405
 21
72.45286415825875
 31
0.0
  0
LINE
  5
4C0A
330
4B81
100
AcDbEntity
  8
DIM
100
AcDbLine
 10
95.38078573026405
 20
78.45286453823836
 30
0.0
 11
95.38078573026405
 21
74.45286415825875
 31
0.0
  0
SOLID
  5
4C0B
330
4B81
100
AcDbEntity
  8
DIM
100
AcDbTrace
 10
95.04745239693072
 20
78.45286453823836
 30
0.0
 11
95.71411906359738
 21
78.45286453823836
 31
0.0
 12
95.38078573026405
 22
80.45286453823836
 32
0.0
 13
95.38078573026405
 23
80.45286453823836
 33
0.0
  0
SOLID
  5
4C0C
330
4B81
100
AcDbEntity
  8
DIM
100
AcDbTrace
 10
95.04745239693072
 20
74.45286415825875
 30
0.0
 11
95.71411906359738
 21
74.45286415825875
 31
0.0
 12
95.38078573026405
 22
72.45286415825875
 32
0.0
 13
95.38078573026405
 23
72.45286415825875
 33
0.0
  0
MTEXT
  5
4C0D
330
4B81
100
AcDbEntity
  8
DIM
100
AcDbMText
 10
93.38078573026404
 20
76.45286434824857
 30
0.0
 40
2.0
 41
0.0
 71
     5
 72
     1
  1
\A1;8
  7
dayus
 11
0.0000000000000001
 21
1.0
 31
0.0
 73
     1
 44
1.0
1001
ACAD
1000
MTEXTBEGIN
1070
    73
1070
     1
1070
    44
1040
1.0
1070
    74
1070
     0
1000
MTEXTEND
  0
POINT
  5
4C0E
330
4B81
100
AcDbEntity
  8
Defpoints
 62
     0
100
AcDbPoint
 10
101.0974929710375
 20
80.45286453823834
 30
0.0
  0
POINT
  5
4C0F
330
4B81
100
AcDbEntity
  8
Defpoints
 62
     0
100
AcDbPoint
 10
101.0974929710375
 20
72.45286415825873
 30
0.0
  0
POINT
  5
4C10
330
4B81
100
AcDbEntity
  8
Defpoints
 62
     0
100
AcDbPoint
 10
95.38078573026405
 20
72.45286415825875
 30
0.0
  0
ENDBLK
  5
4B8C
330
4B81
100
AcDbEntity
  8
0
100
AcDbBlockEnd
  0
ENDSEC
  0
SECTION
  2
ENTITIES
  0
MTEXT
  5
A9
330
1F
100
AcDbEntity
  8
0
100
AcDbMText
 10
-112.8858816556399
 20
179.1757813154577
 30
0.0
 40
3.0
 41
0.0
 71
     4
 72
     5
  1

 73
     1
 44
1.0
1001
ACAD
1000
MTEXTBEGIN
1070
    73
1070
     1
1070
    44
1040
1.0
1070
    74
1070
     0
1000
MTEXTEND
  0
MTEXT
  5
AA
330
1F
100
AcDbEntity
  8
0
100
AcDbMText
 10
-176.2667196970539
 20
189.9084924046809
 30
0.0
 40
1.799999999999999
 41
0.0
 71
     9
 72
     5
  1

 73
     1
 44
1.0
1001
ACAD
1000
MTEXTBEGIN
1070
    73
1070
     1
1070
    44
1040
1.0
1070
    74
1070
     0
1000
MTEXTEND
  0
MTEXT
  5
AB
330
1F
100
AcDbEntity
  8
0
100
AcDbMText
 10
82.64233389287733
 20
174.944592339129
 30
0.0
 40
3.0
 41
0.0
 71
     4
 72
     5
  1

 73
     1
 44
1.0
1001
ACAD
1000
MTEXTBEGIN
1070
    73
1070
     1
1070
    44
1040
1.0
1070
    74
1070
     0
1000
MTEXTEND
  0
MTEXT
  5
AC
330
1F
100
AcDbEntity
  8
0
100
AcDbMText
 10
19.26149585146331
 20
185.6773034283523
 30
0.0
 40
1.799999999999999
 41
0.0
 71
     9
 72
     5
  1

 73
     1
 44
1.0
1001
ACAD
1000
MTEXTBEGIN
1070
    73
1070
     1
1070
    44
1040
1.0
1070
    74
1070
     0
1000
MTEXTEND
  0
MTEXT
  5
B1
330
1F
100
AcDbEntity
  8
0
100
AcDbMText
 10
-211.0828086697475
 20
93.72900974557683
 30
0.0
 40
3.0
 41
59.51
 71
     1
 72
     5
  1

  7
CHINESET
 73
     1
 44
1.0
1001
ACAD
1000
MTEXTBEGIN
1070
    73
1070
     1
1070
    44
1040
1.0
1070
    74
1070
     0
1000
MTEXTEND
  0
MTEXT
  5
B2
330
1F
100
AcDbEntity
  8
0
100
AcDbMText
 10
-179.9099428209695
 20
86.93407807798587
 30
0.0
 40
3.0
 41
38.26
 71
     1
 72
     5
  1

  7
CHINESET
 73
     1
 44
1.0
1001
ACAD
1000
MTEXTBEGIN
1070
    73
1070
     1
1070
    44
1040
1.0
1070
    74
1070
     0
1000
MTEXTEND
  0
MTEXT
  5
10B3
330
1F
100
AcDbEntity
  8
0
100
AcDbMText
 10
81.67014302795905
 20
125.5492500028813
 30
0.0
 40
3.0
 41
0.0
 71
     7
 72
     5
  1

  7
CHINESET
 73
     1
 44
1.0
1001
ACAD
1000
MTEXTBEGIN
1070
    73
1070
     1
1070
    44
1040
1.0
1070
    74
1070
     0
1000
MTEXTEND
  0
LINE
  5
17B4
330
1F
100
AcDbEntity
  8
0
 62
     4
100
AcDbLine
 10
271.6277841472795
 20
34.8799803659976
 30
0.0
 11
271.6277841472795
 21
251.5581680260025
 31
0.0
  0
LINE
  5
17B5
330
1F
100
AcDbEntity
  8
0
 62
     4
100
AcDbLine
 10
57.1460469314577
 20
34.87998036599757
 30
0.0
 11
57.1460469314577
 21
251.5581680260025
 31
0.0
  0
TEXT
  5
17BD
330
1F
100
AcDbEntity
  8
LOGO
  6
Continuous
 62
     7
100
AcDbText
 10
186.8252464383467
 20
25.42676678939908
 30
0.0
 40
4.87375
  1
11/12
  7
CHINESET
 72
     1
 11
196.5727464383467
 21
27.86364178939908
 31
0.0
100
AcDbText
 73
     2
  0
TEXT
  5
17BE
330
1F
100
AcDbEntity
  8
LOGO
100
AcDbText
 10
188.9109600860619
 20
14.65859509430354
 30
0.0
 40
3.48125
  1
作動型式
  7
CHINESET
 72
     4
 11
195.8371970652286
 21
16.31013298800433
 31
0.0
100
AcDbText
  0
LINE
  5
17BF
330
1F
100
AcDbEntity
  8
0
 62
     4
100
AcDbLine
 10
271.6277841472795
 20
144.1593953270845
 30
0.0
 11
57.1460469314577
 21
144.1593953270845
 31
0.0
  0
TEXT
  5
17C3
330
1F
100
AcDbEntity
  8
LOGO
  6
Continuous
100
AcDbText
 10
188.6757684938
 20
10.97142114350603
 30
0.0
 40
2.08875
  1
Acting type
 41
0.8
  7
CHINESET
 72
     4
 11
195.8371970652286
 21
11.66767114350603
 31
0.0
100
AcDbText
  0
LINE
  5
17C4
330
1F
100
AcDbEntity
  8
LOGO
 62
     4
100
AcDbLine
 10
208.3796316618978
 20
23.73807193920163
 30
0.0
 11
185.5980599037764
 21
23.73807193920163
 31
0.0
  0
LINE
  5
17C5
330
1F
100
AcDbEntity
  8
LOGO
 62
     4
100
AcDbLine
 10
208.3796316618978
 20
19.55985627915316
 30
0.0
 11
185.5980599037764
 21
19.55985627915316
 31
0.0
  0
LINE
  5
17C6
330
1F
100
AcDbEntity
  8
LOGO
 62
     4
100
AcDbLine
 10
208.3796316618978
 20
9.346440221256877
 30
0.0
 11
185.5980599037764
 21
9.346440221256852
 31
0.0
  0
LINE
  5
17C7
330
1F
100
AcDbEntity
  8
LOGO
 62
     4
100
AcDbLine
 10
208.3796316618978
 20
32.09450325929863
 30
0.0
 11
185.5980599037764
 21
32.09450325929858
 31
0.0
  0
LINE
  5
1802
330
1F
100
AcDbEntity
  8
LOGO
 62
     4
100
AcDbLine
 10
177.166376739774
 20
19.55985627915316
 30
0.0
 11
158.5965293617807
 21
19.55985627915316
 31
0.0
  0
TEXT
  5
1803
330
1F
100
AcDbEntity
  8
LOGO
  6
Continuous
 62
     7
100
AcDbText
 10
160.8029113841106
 20
25.47941259925011
 30
0.0
 40
4.87375
  1
MCJI
  7
CHINESET
 72
     1
 11
167.8814530507773
 21
27.91628759925011
 31
0.0
100
AcDbText
 73
     2
  0
LINE
  5
1804
330
1F
100
AcDbEntity
  8
LOGO
 62
     4
100
AcDbLine
 10
177.166376739774
 20
9.346440221256877
 30
0.0
 11
158.5965293617807
 21
9.346440221256852
 31
0.0
  0
TEXT
  5
1805
330
1F
100
AcDbEntity
  8
LOGO
  6
Continuous
100
AcDbText
 10
164.6985959079201
 20
10.62329614350603
 30
0.0
 40
2.08875
  1
Model
 41
0.8
  7
CHINESET
 72
     4
 11
167.8814530507773
 21
11.66767114350603
 31
0.0
100
AcDbText
  0
TEXT
  5
1806
330
1F
100
AcDbEntity
  8
LOGO
100
AcDbText
 10
164.4002030507773
 20
14.65859509430354
 30
0.0
 40
3.48125
  1
型式
  7
CHINESET
 72
     4
 11
167.8814530507773
 21
16.31013298800433
 31
0.0
100
AcDbText
  0
LINE
  5
1807
330
1F
100
AcDbEntity
  8
LOGO
 62
     4
100
AcDbLine
 10
179.0233614775732
 20
23.73807193920163
 30
0.0
 11
156.7395446239814
 21
23.73807193920163
 31
0.0
  0
LINE
  5
1808
330
1F
100
AcDbEntity
  8
LOGO
 62
     4
100
AcDbLine
 10
179.0233614775732
 20
32.09450325929858
 30
0.0
 11
156.7395446239814
 21
32.09450325929858
 31
0.0
  0
LINE
  5
1809
330
1F
100
AcDbEntity
  8
LOGO
 62
     4
100
AcDbLine
 10
167.8814530507773
 20
23.73807193920163
 30
0.0
 11
167.8814530507773
 21
19.55985627915316
 31
0.0
  0
LINE
  5
180A
330
1F
100
AcDbEntity
  8
LOGO
 62
     4
100
AcDbLine
 10
158.5965293617807
 20
19.55985627915316
 30
0.0
 11
158.5965293617807
 21
9.346440221256852
 31
0.0
  0
LINE
  5
180B
330
1F
100
AcDbEntity
  8
LOGO
 62
     4
100
AcDbLine
 10
156.7395446239814
 20
32.09450325929858
 30
0.0
 11
156.7395446239814
 21
23.73807193920163
 31
0.0
  0
LINE
  5
180C
330
1F
100
AcDbEntity
  8
LOGO
 62
     4
100
AcDbLine
 10
177.166376739774
 20
19.55985627915316
 30
0.0
 11
177.166376739774
 21
9.346440221256877
 31
0.0
  0
LINE
  5
180D
330
1F
100
AcDbEntity
  8
LOGO
 62
     4
100
AcDbLine
 10
185.5980599037764
 20
19.55985627915316
 30
0.0
 11
185.5980599037764
 21
9.346440221256877
 31
0.0
  0
LINE
  5
180E
330
1F
100
AcDbEntity
  8
LOGO
  6
Continuous
 62
     7
100
AcDbLine
 10
180.4630490094451
 20
27.88668779888602
 30
0.0
 11
184.1529441677698
 21
27.88668779888602
 31
0.0
  0
LINE
  5
180F
330
1F
100
AcDbEntity
  8
LOGO
 62
     4
100
AcDbLine
 10
179.0233614775733
 20
32.09450325929858
 30
0.0
 11
179.0233614775733
 21
23.73807193920163
 31
0.0
  0
LINE
  5
1810
330
1F
100
AcDbEntity
  8
LOGO
 62
     4
100
AcDbLine
 10
185.5980599037764
 20
32.09450325929858
 30
0.0
 11
185.5980599037764
 21
23.73807193920163
 31
0.0
  0
LINE
  5
1868
330
1F
100
AcDbEntity
  8
LOGO
 62
     4
100
AcDbLine
 10
251.9035627630399
 20
32.09450325929858
 30
0.0
 11
236.4363486238103
 21
32.09450325929858
 31
0.0
  0
LINE
  5
1869
330
1F
100
AcDbEntity
  8
LOGO
 62
     4
100
AcDbLine
 10
251.9035627630399
 20
23.73807193920163
 30
0.0
 11
236.4363486238103
 21
23.73807193920163
 31
0.0
  0
LINE
  5
186A
330
1F
100
AcDbEntity
  8
LOGO
 62
     4
100
AcDbLine
 10
250.9750703941402
 20
19.55985627915316
 30
0.0
 11
237.3648409927099
 21
19.55985627915316
 31
0.0
  0
LINE
  5
186B
330
1F
100
AcDbEntity
  8
LOGO
 62
     4
100
AcDbLine
 10
250.9750703941402
 20
9.346440221256877
 30
0.0
 11
237.3648409927099
 21
9.346440221256852
 31
0.0
  0
LINE
  5
186C
330
1F
100
AcDbEntity
  8
LOGO
 62
     4
100
AcDbLine
 10
229.8616501976071
 20
23.73807193920168
 30
0.0
 11
214.9543300881008
 21
23.73807193920168
 31
0.0
  0
LINE
  5
186D
330
1F
100
AcDbEntity
  8
LOGO
 62
     4
100
AcDbLine
 10
229.8616501976071
 20
19.5598562791532
 30
0.0
 11
214.9543300881008
 21
19.5598562791532
 31
0.0
  0
LINE
  5
186E
330
1F
100
AcDbEntity
  8
LOGO
 62
     4
100
AcDbLine
 10
229.8616501976071
 20
32.09450325929869
 30
0.0
 11
214.9543300881008
 21
32.09450325929863
 31
0.0
  0
TEXT
  5
186F
330
1F
100
AcDbEntity
  8
LOGO
  6
Continuous
 62
     7
100
AcDbText
 10
218.8958700345884
 20
25.42676678939913
 30
0.0
 40
4.87375
  1
25
  7
CHINESET
 72
     1
 11
222.8412867012551
 21
27.86364178939913
 31
0.0
100
AcDbText
 73
     2
  0
LINE
  5
1870
330
1F
100
AcDbEntity
  8
LOGO
 62
     4
100
AcDbLine
 10
229.8616501976071
 20
9.346440221256933
 30
0.0
 11
214.9543300881008
 21
9.346440221256898
 31
0.0
  0
TEXT
  5
1871
330
1F
100
AcDbEntity
  8
LOGO
  6
Continuous
100
AcDbText
 10
219.8219187142826
 20
10.62329614350606
 30
0.0
 40
2.08875
  1
Bore
 41
0.8
  7
CHINESET
 72
     4
 11
222.4079901428541
 21
11.66767114350606
 31
0.0
100
AcDbText
  0
TEXT
  5
1872
330
1F
100
AcDbEntity
  8
LOGO
100
AcDbText
 10
218.7091620178541
 20
14.56950798800437
 30
0.0
 40
3.48125
  1
內徑
  7
CHINESET
 72
     4
 11
222.4079901428541
 21
16.31013298800437
 31
0.0
100
AcDbText
  0
LINE
  5
1873
330
1F
100
AcDbEntity
  8
LOGO
 62
     4
100
AcDbLine
 10
222.4079899287581
 20
23.73807193920168
 30
0.0
 11
222.4079899287581
 21
19.5598562791532
 31
0.0
  0
LINE
  5
1874
330
1F
100
AcDbEntity
  8
LOGO
 62
     4
100
AcDbLine
 10
195.8371970652286
 20
23.73807193920163
 30
0.0
 11
195.8371970652286
 21
19.55985627915316
 31
0.0
  0
LINE
  5
1875
330
1F
100
AcDbEntity
  8
LOGO
 62
     4
100
AcDbLine
 10
208.3796316618978
 20
19.55985627915316
 30
0.0
 11
208.3796316618978
 21
9.346440221256898
 31
0.0
  0
LINE
  5
1876
330
1F
100
AcDbEntity
  8
LOGO
 62
     4
100
AcDbLine
 10
214.9543300881008
 20
19.5598562791532
 30
0.0
 11
214.9543300881008
 21
9.346440221256933
 31
0.0
  0
LINE
  5
1877
330
1F
100
AcDbEntity
  8
LOGO
 62
     4
100
AcDbLine
 10
208.3796316618978
 20
32.09450325929863
 30
0.0
 11
208.3796316618978
 21
23.73807193920163
 31
0.0
  0
LINE
  5
1878
330
1F
100
AcDbEntity
  8
LOGO
 62
     4
100
AcDbLine
 10
214.9543300881008
 20
32.09450325929863
 30
0.0
 11
214.9543300881008
 21
23.73807193920168
 31
0.0
  0
LINE
  5
1879
330
1F
100
AcDbEntity
  8
LOGO
  6
Continuous
 62
     7
100
AcDbLine
 10
209.8193191937695
 20
27.88668779888606
 30
0.0
 11
213.5092143520943
 21
27.88668779888606
 31
0.0
  0
LINE
  5
187A
330
1F
100
AcDbEntity
  8
LOGO
 62
     4
100
AcDbLine
 10
244.3666019465823
 20
23.73807193920163
 30
0.0
 11
244.3666019465823
 21
19.55985627915316
 31
0.0
  0
LINE
  5
187B
330
1F
100
AcDbEntity
  8
LOGO
 62
     4
100
AcDbLine
 10
229.8616501976071
 20
19.5598562791532
 30
0.0
 11
229.8616501976071
 21
9.346440221256955
 31
0.0
  0
LINE
  5
187C
330
1F
100
AcDbEntity
  8
LOGO
 62
     4
100
AcDbLine
 10
237.3648409927099
 20
19.55985627915316
 30
0.0
 11
237.3648409927099
 21
9.346440221256852
 31
0.0
  0
TEXT
  5
187D
330
1F
100
AcDbEntity
  8
LOGO
  6
Continuous
100
AcDbText
 10
240.3903128362823
 20
10.623296143506
 30
0.0
 40
2.08875
  1
Stroke
 41
0.8
  7
CHINESET
 72
     4
 11
244.1699556934251
 21
11.667671143506
 31
0.0
100
AcDbText
  0
TEXT
  5
187E
330
1F
100
AcDbEntity
  8
LOGO
100
AcDbText
 10
240.6887056934251
 20
14.56950798800431
 30
0.0
 40
3.48125
  1
行程
  7
CHINESET
 72
     4
 11
244.1699556934251
 21
16.31013298800431
 31
0.0
100
AcDbText
  0
LINE
  5
187F
330
1F
100
AcDbEntity
  8
LOGO
 62
     4
100
AcDbLine
 10
229.8616501976071
 20
32.09450325929869
 30
0.0
 11
229.8616501976071
 21
23.73807193920168
 31
0.0
  0
LINE
  5
1880
330
1F
100
AcDbEntity
  8
LOGO
  6
Continuous
 62
     7
100
AcDbLine
 10
231.301337729479
 20
27.88668779888612
 30
0.0
 11
234.9912328878038
 21
27.88668779888612
 31
0.0
  0
LINE
  5
1881
330
1F
100
AcDbEntity
  8
LOGO
 62
     4
100
AcDbLine
 10
236.4363486238103
 20
32.09450325929858
 30
0.0
 11
236.4363486238103
 21
23.73807193920163
 31
0.0
  0
TEXT
  5
1882
330
1F
100
AcDbEntity
  8
LOGO
  6
Continuous
 62
     7
100
AcDbText
 10
242.9786689184928
 20
25.42676678939908
 30
0.0
 40
4.87375
  1
5
  7
CHINESET
 72
     1
 11
244.6032522518262
 21
27.86364178939908
 31
0.0
100
AcDbText
 73
     2
  0
LINE
  5
1883
330
1F
100
AcDbEntity
  8
LOGO
 62
     4
100
AcDbLine
 10
259.9360037906468
 20
23.73807193920163
 30
0.0
 11
259.9360037906468
 21
19.55985627915316
 31
0.0
  0
LINE
  5
1885
330
1F
100
AcDbEntity
  8
LOGO
 62
     4
100
AcDbLine
 10
266.7411184913619
 20
9.346440221256877
 30
0.0
 11
253.1308890899317
 21
9.346440221256852
 31
0.0
  0
LINE
  5
1886
330
1F
100
AcDbEntity
  8
LOGO
 62
     4
100
AcDbLine
 10
266.7411184913619
 20
19.55985627915316
 30
0.0
 11
253.1308890899317
 21
19.55985627915316
 31
0.0
  0
TEXT
  5
1887
330
1F
100
AcDbEntity
  8
LOGO
  6
Continuous
100
AcDbText
 10
255.6789323620753
 20
10.971421143506
 30
0.0
 40
2.08875
  1
Magnet
 41
0.8
  7
CHINESET
 72
     4
 11
259.9360037906468
 21
11.667671143506
 31
0.0
100
AcDbText
  0
TEXT
  5
1888
330
1F
100
AcDbEntity
  8
LOGO
100
AcDbText
 10
254.7141287906467
 20
14.60577100883764
 30
0.0
 40
3.48125
  1
附磁石
  7
CHINESET
 72
     4
 11
259.9360037906468
 21
16.31013298800431
 31
0.0
100
AcDbText
  0
LINE
  5
1889
330
1F
100
AcDbEntity
  8
LOGO
 62
     4
100
AcDbLine
 10
253.1308890899317
 20
19.55985627915316
 30
0.0
 11
253.1308890899317
 21
9.346440221256852
 31
0.0
  0
LINE
  5
188A
330
1F
100
AcDbEntity
  8
LOGO
 62
     4
100
AcDbLine
 10
250.9750703941402
 20
19.55985627915316
 30
0.0
 11
250.9750703941402
 21
9.307928870426763
 31
0.0
  0
LINE
  5
188B
330
1F
100
AcDbEntity
  8
LOGO
 62
     4
100
AcDbLine
 10
266.7411184913619
 20
19.55985627915316
 30
0.0
 11
266.7411184913619
 21
9.307928870426763
 31
0.0
  0
TEXT
  5
188C
330
1F
100
AcDbEntity
  8
LOGO
  6
Continuous
 62
     7
100
AcDbText
 10
255.1474255631436
 20
25.42676678939908
 30
0.0
 40
4.87375
  1
(M)
  7
CHINESET
 72
     1
 11
260.3693005631436
 21
27.86364178939908
 31
0.0
100
AcDbText
 73
     2
  0
LINE
  5
188D
330
1F
100
AcDbEntity
  8
LOGO
 62
     4
100
AcDbLine
 10
266.0362082365488
 20
23.73807193920163
 30
0.0
 11
253.8357993447447
 21
23.73807193920163
 31
0.0
  0
LINE
  5
188E
330
1F
100
AcDbEntity
  8
LOGO
 62
     4
100
AcDbLine
 10
266.0362082365488
 20
32.09450325929863
 30
0.0
 11
253.8357993447447
 21
32.09450325929858
 31
0.0
  0
LINE
  5
188F
330
1F
100
AcDbEntity
  8
LOGO
 62
     4
100
AcDbLine
 10
253.8357993447447
 20
32.09450325929858
 30
0.0
 11
253.8357993447447
 21
23.73807193920163
 31
0.0
  0
LINE
  5
1890
330
1F
100
AcDbEntity
  8
LOGO
 62
     4
100
AcDbLine
 10
251.9035627630399
 20
32.09450325929858
 30
0.0
 11
251.9035627630399
 21
23.73807193920163
 31
0.0
  0
LINE
  5
1891
330
1F
100
AcDbEntity
  8
LOGO
 62
     4
100
AcDbLine
 10
266.0362082365487
 20
32.09450325929863
 30
0.0
 11
266.0362082365488
 21
23.73807193920163
 31
0.0
  0
LINE
  5
18E7
330
1F
100
AcDbEntity
  8
0
 62
     4
100
AcDbLine
 10
271.6277841472795
 20
251.5581680260025
 30
0.0
 11
57.1460469314577
 21
251.5581680260025
 31
0.0
  0
LWPOLYLINE
  5
39E8
330
1F
100
AcDbEntity
  8
LOGO
 62
     4
100
AcDbPolyline
 90
        4
 70
     1
 43
0.0
 10
57.1460469314577
 20
34.87998036599757
 10
271.6277841472795
 20
34.8799803659976
 10
271.6277841472795
 20
7.034012945182624
 10
57.1460469314577
 20
7.034012945182595
1001
GENIUS_GENREC_14
1002
{
1000
PYDIR
1011
57.1460469314577
1021
7.034012945182595
1031
0.0
1002
}
1002
{
1000
PXDIR
1011
271.6277841472795
1021
34.8799803659976
1031
0.0
1002
}
1002
{
1000
PORI
1011
57.1460469314577
1021
34.87998036599757
1031
0.0
1002
}
1002
{
1000
PINS
1011
57.1460469314577
1021
34.87998036599757
1031
0.0
1002
}
1002
{
1000
PINS2
1011
271.6277841472795
1021
7.034012945182624
1031
0.0
1002
}
1002
{
1000
C
1070
     1
1002
}
1001
GENIUS_GENOBJ-N-REC_13
1002
{
1000
OWNER
1000
GEN
1002
}
1001
GENIUS_GENODEF_13
1002
{
1000
HIER
1070
     0
1002
}
1002
{
1000
MANEDIT
1070
     0
1002
}
1002
{
1000
NOSEL
1070
     0
1002
}
1002
{
1000
BEHIND
1070
     0
1002
}
1002
{
1000
OTHER
1070
     0
1002
}
1002
{
1000
REACTOR
1002
}
  0
TEXT
  5
39E9
330
1F
100
AcDbEntity
  8
LOGO
 62
     7
100
AcDbText
 10
120.0203975629077
 20
22.6811358785639
 30
0.0
 40
3.712795656108597
  1
Order example:
 41
0.8
  7
CHINESET
100
AcDbText
  0
TEXT
  5
39EA
330
1F
100
AcDbEntity
  8
LOGO
 62
     7
100
AcDbText
 10
120.6865038071846
 20
27.90798341821512
 30
0.0
 40
5.569193484162895
  1
訂購代號：
  7
CHINESET
100
AcDbText
  0
LINE
  5
39EB
330
1F
100
AcDbEntity
  8
LOGO
 62
     4
100
AcDbLine
 10
118.4071752572496
 20
7.034012945182912
 30
0.0
 11
118.4071752572496
 21
34.87998036599757
 31
0.0
  0
TEXT
  5
39EC
330
1F
100
AcDbEntity
  8
LOGO
  6
Continuous
100
AcDbText
 10
67.14844359905964
 20
12.50431122177309
 30
0.0
 40
4.176895113122172
  1
金器工業股份有限公司
  7
CHINESET
100
AcDbText
  0
TEXT
  5
39ED
330
1F
100
AcDbEntity
  8
LOGO
  6
Continuous
100
AcDbText
 10
59.47631363420078
 20
8.326597764690006
 30
0.0
 40
2.784596742081447
  1
MINDMAN INDUSTRIAL CO., LTD.
 41
0.85
  7
CHINESET
100
AcDbText
  0
LINE
  5
39EE
330
1F
100
AcDbEntity
  8
LOGO
 62
     4
100
AcDbLine
 10
118.4071752572496
 20
29.31078688183464
 30
0.0
 11
77.56642304005481
 21
29.31078688183464
 31
0.0
  0
LINE
  5
39EF
330
1F
100
AcDbEntity
  8
LOGO
 62
     4
100
AcDbLine
 10
118.4071752572496
 20
23.74159339767171
 30
0.0
 11
77.56642304005481
 21
23.74159339767171
 31
0.0
  0
LINE
  5
39F0
330
1F
100
AcDbEntity
  8
LOGO
 62
     4
100
AcDbLine
 10
118.4071752572496
 20
18.17239991350909
 30
0.0
 11
57.1460469314577
 21
18.17239991350909
 31
0.0
  0
LINE
  5
39F1
330
1F
100
AcDbEntity
  8
LOGO
 62
     4
100
AcDbLine
 10
77.56642304005481
 20
18.17239991350909
 30
0.0
 11
77.56642304005481
 21
34.87998036599757
 31
0.0
  0
TEXT
  5
39F2
330
1F
100
AcDbEntity
  8
LOGO
100
AcDbText
 10
105.4791495263646
 20
19.56469828454936
 30
0.0
 40
2.784596742081447
  1
mm
  7
CHINESET
 72
     1
 11
108.9267454927512
 21
20.95699665559008
 31
0.0
100
AcDbText
 73
     2
  0
TEXT
  5
39F3
330
1F
100
AcDbEntity
  8
LOGO
100
AcDbText
 10
104.0205512328934
 20
30.70308525287522
 30
0.0
 40
2.784596742081447
  1
1 : 1
  7
CHINESET
 72
     1
 11
108.9267454927512
 21
32.09538362391594
 31
0.0
100
AcDbText
 73
     2
  0
LINE
  5
39F4
330
1F
100
AcDbEntity
  8
LOGO
 62
     4
100
AcDbLine
 10
99.84319697670651
 20
18.17239991350909
 30
0.0
 11
99.84319697670651
 21
34.87998036599757
 31
0.0
  0
CIRCLE
  5
39F5
330
1F
100
AcDbEntity
  8
LOGO
  6
Continuous
100
AcDbCircle
 10
104.9992261365249
 20
26.53214641256174
 30
0.0
 40
1.616802410471479
  0
CIRCLE
  5
39F6
330
1F
100
AcDbEntity
  8
LOGO
  6
Continuous
100
AcDbCircle
 10
104.9992261365249
 20
26.53214641256174
 30
0.0
 40
0.947303085116844
  0
LINE
  5
39F7
330
1F
100
AcDbEntity
  8
LOGO
100
AcDbLine
 10
115.1594000897458
 20
24.91534400208995
 30
0.0
 11
115.1594000897458
 21
28.14894882303353
 31
0.0
  0
LINE
  5
39F8
330
1F
100
AcDbEntity
  8
LOGO
100
AcDbLine
 10
110.0908173418047
 20
25.58484332744506
 30
0.0
 11
110.0908173418047
 21
27.47944949767874
 31
0.0
  0
LINE
  5
39F9
330
1F
100
AcDbEntity
  8
LOGO
  6
Continuous
100
AcDbLine
 10
110.0908173418047
 20
27.47944949767874
 30
0.0
 11
115.1594000897458
 21
28.14894882303353
 31
0.0
  0
LINE
  5
39FA
330
1F
100
AcDbEntity
  8
LOGO
  6
Continuous
100
AcDbLine
 10
110.0908173418047
 20
25.58484332744506
 30
0.0
 11
115.1594000897458
 21
24.91534400208995
 31
0.0
  0
TEXT
  5
39FB
330
1F
100
AcDbEntity
  8
LOGO
100
AcDbText
 10
79.86247222872648
 20
30.70445562528766
 30
182.4978831208694
 40
2.784596742081447
  1
比例 Scale:
 41
0.9
  7
CHINESET
 72
     4
 11
88.70481000838067
 21
32.09538362391594
 31
182.4978831208694
100
AcDbText
  0
TEXT
  5
39FC
330
1F
100
AcDbEntity
  8
LOGO
100
AcDbText
 10
79.70210929134769
 20
25.17306158016791
 30
182.4978831208694
 40
2.784596742081447
  1
投影  View:
 41
0.9
  7
CHINESET
 72
     4
 11
88.70481000838067
 21
26.52619013975301
 31
182.4978831208694
100
AcDbText
  0
TEXT
  5
39FD
330
1F
100
AcDbEntity
  8
LOGO
100
AcDbText
 10
79.97435334782799
 20
19.56469828454936
 30
182.4978831208694
 40
2.784596742081447
  1
單位  Unit:
 41
0.9
  7
CHINESET
 72
     4
 11
88.70481000838067
 21
20.95699665559008
 31
182.4978831208694
100
AcDbText
  0
SOLID
  5
39FE
330
1F
100
AcDbEntity
  8
LOGO
 62
     5
100
AcDbTrace
 10
60.03511074074566
 20
22.80139564108431
 30
0.0
 11
61.23909730420314
 21
22.80139564108399
 31
0.0
 12
66.2626274482842
 22
34.21850960490574
 32
0.0
 13
67.46661401174231
 23
34.21850960490511
 33
0.0
  0
SOLID
  5
39FF
330
1F
100
AcDbEntity
  8
LOGO
 62
     5
100
AcDbTrace
 10
61.73729864080752
 20
22.80139564108431
 30
0.0
 11
62.941285204265
 21
22.80139564108431
 31
0.0
 12
67.46661401174231
 22
33.30514048779957
 32
0.0
 13
66.2626274482842
 23
28.8905230884553
 33
0.0
  0
SOLID
  5
3A00
330
1F
100
AcDbEntity
  8
LOGO
 62
     2
100
AcDbTrace
 10
61.23909730420314
 20
22.80139564108399
 30
0.0
 11
61.73729864080752
 21
22.80139564108431
 31
0.0
 12
67.46661401174231
 22
34.21850960490511
 32
0.0
 13
67.96481534834606
 23
34.21850960490511
 33
0.0
  0
SOLID
  5
3A01
330
1F
100
AcDbEntity
  8
LOGO
 62
     5
100
AcDbTrace
 10
58.10482502585131
 20
18.6497178360587
 30
0.0
 11
58.51999280635436
 21
18.6497178360587
 31
0.0
 12
59.68913759032716
 22
20.72555673857134
 32
0.0
 13
60.10430537082896
 23
20.72555673857134
 33
0.0
  0
SOLID
  5
3A02
330
1F
100
AcDbEntity
  8
LOGO
 62
     5
100
AcDbTrace
 10
59.68913759032716
 20
20.72555673857134
 30
0.0
 11
60.10430537082896
 21
20.72555673857134
 31
0.0
 12
59.68913759032716
 22
18.6497178360587
 32
0.0
 13
60.10430537082896
 23
18.6497178360587
 33
0.0
  0
SOLID
  5
3A03
330
1F
100
AcDbEntity
  8
LOGO
 62
     5
100
AcDbTrace
 10
59.68913759032716
 20
18.6497178360587
 30
0.0
 11
60.10430537082896
 21
18.6497178360587
 31
0.0
 12
61.27345015480369
 22
20.72555673857134
 32
0.0
 13
61.68861793530607
 23
20.72555673857134
 33
0.0
  0
SOLID
  5
3A04
330
1F
100
AcDbEntity
  8
LOGO
 62
     5
100
AcDbTrace
 10
61.27345015480369
 20
20.72555673857134
 30
0.0
 11
61.68861793530607
 21
20.72555673857134
 31
0.0
 12
61.27345015480369
 22
18.6497178360587
 32
0.0
 13
61.68861793530607
 23
18.6497178360587
 33
0.0
  0
POLYLINE
  5
3A05
330
1F
100
AcDbEntity
  8
LOGO
 62
     5
100
AcDb2dPolyline
 66
     1
 10
0.0
 20
0.0
 30
0.0
 40
0.4158331134841628
 41
0.4158331134841628
  0
VERTEX
  5
3A06
330
3A05
100
AcDbEntity
  8
LOGO
 62
     5
100
AcDbVertex
100
AcDb2dVertex
 10
75.18973272856334
 20
19.89522117756622
 30
0.0
 42
1.0
  0
VERTEX
  5
3A07
330
3A05
100
AcDbEntity
  8
LOGO
 62
     5
100
AcDbVertex
100
AcDb2dVertex
 10
73.94223338811059
 20
19.89522117756622
 30
0.0
 42
1.0
  0
SEQEND
  5
3A08
330
3A05
100
AcDbEntity
  8
LOGO
 62
     5
  0
POLYLINE
  5
3A09
330
1F
100
AcDbEntity
  8
LOGO
 62
     5
100
AcDb2dPolyline
 66
     1
 10
0.0
 20
0.0
 30
0.0
 70
     1
  0
VERTEX
  5
3A0A
330
3A09
100
AcDbEntity
  8
LOGO
 62
     5
100
AcDbVertex
100
AcDb2dVertex
 10
71.59064164258632
 20
19.6876372873147
 30
0.0
 42
1.000000057330635
  0
VERTEX
  5
3A0B
330
3A09
100
AcDbEntity
  8
LOGO
 62
     5
100
AcDbVertex
100
AcDb2dVertex
 10
72.83614498409412
 20
19.6876372873147
 30
0.0
 42
1.000000057330635
  0
SEQEND
  5
3A0C
330
3A09
100
AcDbEntity
  8
LOGO
 62
     5
  0
CIRCLE
  5
3A0D
330
1F
100
AcDbEntity
  8
LOGO
 62
     5
100
AcDbCircle
 10
72.21339331334116
 20
19.6876372873147
 30
0.0
 40
0.6227516707538824
  0
POLYLINE
  5
3A0E
330
1F
100
AcDbEntity
  8
LOGO
 62
     5
100
AcDb2dPolyline
 66
     1
 10
0.0
 20
0.0
 30
0.0
 70
     1
 40
0.4158331134841628
 41
0.4158331134841628
  0
VERTEX
  5
3A0F
330
3A0E
100
AcDbEntity
  8
LOGO
 62
     5
100
AcDbVertex
100
AcDb2dVertex
 10
71.38172708637222
 20
19.6876372873147
 30
0.0
 42
1.0
  0
VERTEX
  5
3A10
330
3A0E
100
AcDbEntity
  8
LOGO
 62
     5
100
AcDbVertex
100
AcDb2dVertex
 10
73.04505954030884
 20
19.6876372873147
 30
0.0
 42
1.0
  0
SEQEND
  5
3A11
330
3A0E
100
AcDbEntity
  8
LOGO
 62
     5
  0
LINE
  5
3A12
330
1F
100
AcDbEntity
  8
LOGO
100
AcDbLine
 10
75.39631861934146
 20
18.6497178360587
 30
0.0
 11
75.39631861934146
 21
19.89522117756622
 31
0.0
  0
SOLID
  5
3A13
330
1F
100
AcDbEntity
  8
LOGO
 62
     5
100
AcDbTrace
 10
72.83610346731791
 20
20.72555673857134
 30
0.0
 11
73.25127124781971
 21
20.72555673857134
 31
0.0
 12
72.83610346731791
 22
18.6497178360587
 32
0.0
 13
73.25127124781971
 23
18.6497178360587
 33
0.0
  0
SOLID
  5
3A14
330
1F
100
AcDbEntity
  8
LOGO
 62
     5
100
AcDbTrace
 10
73.73564749733123
 20
18.6497178360587
 30
0.0
 11
74.15081527783428
 21
18.6497178360587
 31
0.0
 12
73.73564749733123
 22
20.72555673857134
 32
0.0
 13
74.15081527783428
 23
20.72555673857134
 33
0.0
  0
SOLID
  5
3A15
330
1F
100
AcDbEntity
  8
LOGO
 62
     5
100
AcDbTrace
 10
74.98115083883971
 20
19.89522117756622
 30
0.0
 11
75.39631861934146
 21
19.89522117756622
 31
0.0
 12
74.98115083883971
 22
18.6497178360587
 32
0.0
 13
75.39631861934146
 23
18.6497178360587
 33
0.0
  0
SOLID
  5
3A16
330
1F
100
AcDbEntity
  8
LOGO
 62
     5
100
AcDbTrace
 10
73.69413071928085
 20
33.30514048779957
 30
0.0
 11
72.49014415582405
 21
28.8905230884553
 31
0.0
 12
73.69413071928085
 22
22.80139564108399
 32
0.0
 13
72.49014415582405
 23
22.80139564108399
 33
0.0
  0
SOLID
  5
3A17
330
1F
100
AcDbEntity
  8
LOGO
 62
     5
100
AcDbTrace
 10
74.19233205588466
 20
22.80139564108399
 30
0.0
 11
75.39631861934146
 21
22.80139564108399
 31
0.0
 12
74.19233205588466
 22
34.21850960490511
 32
0.0
 13
75.39631861934146
 23
34.21850960490574
 33
0.0
  0
SOLID
  5
3A18
330
1F
100
AcDbEntity
  8
LOGO
 62
     2
100
AcDbTrace
 10
73.69413071928085
 20
34.21850960490574
 30
0.0
 11
74.19233205588466
 21
34.21850960490511
 31
0.0
 12
73.69413071928085
 22
22.80139564108399
 32
0.0
 13
74.19233205588466
 23
22.80139564108399
 33
0.0
  0
POLYLINE
  5
3A19
330
1F
100
AcDbEntity
  8
LOGO
 62
     5
100
AcDb2dPolyline
 66
     1
 10
0.0
 20
0.0
 30
0.0
 40
0.4158331134841628
 41
0.4158331134841628
  0
VERTEX
  5
3A1A
330
3A19
100
AcDbEntity
  8
LOGO
 62
     5
100
AcDbVertex
100
AcDb2dVertex
 10
69.2389668635077
 20
19.89522117756622
 30
0.0
 42
1.0
  0
VERTEX
  5
3A1B
330
3A19
100
AcDbEntity
  8
LOGO
 62
     5
100
AcDbVertex
100
AcDb2dVertex
 10
67.99146752305495
 20
19.89522117756622
 30
0.0
 42
1.0
  0
SEQEND
  5
3A1C
330
3A19
100
AcDbEntity
  8
LOGO
 62
     5
  0
POLYLINE
  5
3A1D
330
1F
100
AcDbEntity
  8
LOGO
 62
     5
100
AcDb2dPolyline
 66
     1
 10
0.0
 20
0.0
 30
0.0
 40
0.4158331134841628
 41
0.4158331134841628
  0
VERTEX
  5
3A1E
330
3A1D
100
AcDbEntity
  8
LOGO
 62
     5
100
AcDbVertex
100
AcDb2dVertex
 10
70.48447020501424
 20
19.89522117756622
 30
0.0
 42
1.0
  0
VERTEX
  5
3A1F
330
3A1D
100
AcDbEntity
  8
LOGO
 62
     5
100
AcDbVertex
100
AcDb2dVertex
 10
69.23697086456212
 20
19.89522117756622
 30
0.0
 42
1.0
  0
SEQEND
  5
3A20
330
3A1D
100
AcDbEntity
  8
LOGO
 62
     5
  0
POLYLINE
  5
3A21
330
1F
100
AcDbEntity
  8
LOGO
 62
     5
100
AcDb2dPolyline
 66
     1
 10
0.0
 20
0.0
 30
0.0
 40
0.4158331134841628
 41
0.4158331134841628
  0
VERTEX
  5
3A22
330
3A21
100
AcDbEntity
  8
LOGO
 62
     5
100
AcDbVertex
100
AcDb2dVertex
 10
64.53370433995854
 20
19.89522117756622
 30
0.0
 42
1.0
  0
VERTEX
  5
3A23
330
3A21
100
AcDbEntity
  8
LOGO
 62
     5
100
AcDbVertex
100
AcDb2dVertex
 10
63.28620499950642
 20
19.89522117756622
 30
0.0
 42
1.0
  0
SEQEND
  5
3A24
330
3A21
100
AcDbEntity
  8
LOGO
 62
     5
  0
SOLID
  5
3A25
330
1F
100
AcDbEntity
  8
LOGO
 62
     5
100
AcDbTrace
 10
63.07961910872768
 20
20.72555673857134
 30
0.0
 11
63.49478688922949
 21
20.72555673857134
 31
0.0
 12
63.07961910872768
 22
18.6497178360587
 32
0.0
 13
63.49478688922949
 23
18.6497178360587
 33
0.0
  0
SOLID
  5
3A26
330
1F
100
AcDbEntity
  8
LOGO
 62
     5
100
AcDbTrace
 10
64.32512245023554
 20
19.89522117756622
 30
0.0
 11
64.74029023073859
 21
19.89522117756622
 31
0.0
 12
64.32512245023554
 22
18.6497178360587
 32
0.0
 13
64.74029023073859
 23
18.6497178360587
 33
0.0
  0
POLYLINE
  5
3A27
330
1F
100
AcDbEntity
  8
LOGO
 62
     5
100
AcDb2dPolyline
 66
     1
 10
0.0
 20
0.0
 30
0.0
 70
     1
 40
0.4158331134841628
 41
0.4158331134841628
  0
VERTEX
  5
3A28
330
3A27
100
AcDbEntity
  8
LOGO
 62
     5
100
AcDbVertex
100
AcDb2dVertex
 10
65.4309612213159
 20
19.6876372873147
 30
0.0
 42
1.0
  0
VERTEX
  5
3A29
330
3A27
100
AcDbEntity
  8
LOGO
 62
     5
100
AcDbVertex
100
AcDb2dVertex
 10
67.09429367525314
 20
19.6876372873147
 30
0.0
 42
1.0
  0
SEQEND
  5
3A2A
330
3A27
100
AcDbEntity
  8
LOGO
 62
     5
  0
SOLID
  5
3A2B
330
1F
100
AcDbEntity
  8
LOGO
 62
     5
100
AcDbTrace
 10
66.88533760226096
 20
21.34830840932558
 30
0.0
 11
67.30050538276339
 21
21.34830840932558
 31
0.0
 12
66.88533760226096
 22
18.6497178360587
 32
0.0
 13
67.30050538276339
 23
18.6497178360587
 33
0.0
  0
SOLID
  5
3A2C
330
1F
100
AcDbEntity
  8
LOGO
 62
     5
100
AcDbTrace
 10
67.78488163227684
 20
20.72555673857134
 30
0.0
 11
68.20004941277858
 21
20.72555673857134
 31
0.0
 12
67.78488163227684
 22
18.6497178360587
 32
0.0
 13
68.20004941277858
 23
18.6497178360587
 33
0.0
  0
SOLID
  5
3A2D
330
1F
100
AcDbEntity
  8
LOGO
 62
     5
100
AcDbTrace
 10
69.03038497378338
 20
19.89522117756622
 30
0.0
 11
69.44555275428644
 21
19.89522117756622
 31
0.0
 12
69.03038497378338
 22
18.6497178360587
 32
0.0
 13
69.44555275428644
 23
18.6497178360587
 33
0.0
  0
SOLID
  5
3A2E
330
1F
100
AcDbEntity
  8
LOGO
 62
     5
100
AcDbTrace
 10
70.27588831529124
 20
19.89522117756622
 30
0.0
 11
70.69105609579361
 21
19.89522117756622
 31
0.0
 12
70.27588831529124
 22
18.64971783605807
 32
0.0
 13
70.69105609579361
 23
18.64971783605807
 33
0.0
  0
SOLID
  5
3A2F
330
1F
100
AcDbEntity
  8
LOGO
 62
     5
100
AcDbTrace
 10
62.18007507871249
 20
21.01617418492328
 30
0.0
 11
62.59524285921617
 21
21.01617418492328
 31
0.0
 12
62.18007507871249
 22
21.34830840932558
 32
0.0
 13
62.59524285921617
 23
21.34830840932558
 33
0.0
  0
SOLID
  5
3A30
330
1F
100
AcDbEntity
  8
LOGO
 62
     5
100
AcDbTrace
 10
62.18007507871249
 20
20.72555673857134
 30
0.0
 11
62.59524285921617
 21
20.72555673857134
 31
0.0
 12
62.18007507871249
 22
18.64971783605807
 32
0.0
 13
62.59524285921617
 23
18.6497178360587
 33
0.0
  0
SOLID
  5
3A31
330
1F
100
AcDbEntity
  8
LOGO
 62
     5
100
AcDbTrace
 10
66.2626274482842
 20
22.80139564108431
 30
0.0
 11
67.46661401174231
 21
22.80139564108431
 31
0.0
 12
66.2626274482842
 22
28.8905230884553
 32
0.0
 13
67.46661401174231
 23
33.30514048779957
 33
0.0
  0
SOLID
  5
3A32
330
1F
100
AcDbEntity
  8
LOGO
 62
     5
100
AcDbTrace
 10
67.96481534834606
 20
34.21850960490511
 30
0.0
 11
69.16880191180291
 21
34.21850960490574
 31
0.0
 12
67.96481534834606
 22
23.71476475818985
 32
0.0
 13
69.16880191180291
 23
28.12938215753412
 33
0.0
  0
SOLID
  5
3A33
330
1F
100
AcDbEntity
  8
LOGO
 62
     2
100
AcDbTrace
 10
67.46661401174231
 20
34.21850960490511
 30
0.0
 11
67.96481534834606
 21
34.21850960490511
 31
0.0
 12
67.46661401174231
 22
22.80139564108431
 32
0.0
 13
67.96481534834606
 23
22.80139564108431
 33
0.0
  0
SOLID
  5
3A34
330
1F
100
AcDbEntity
  8
LOGO
 62
     5
100
AcDbTrace
 10
67.96481534834606
 20
23.71476475818985
 30
0.0
 11
69.16880191180291
 21
28.12938215753412
 31
0.0
 12
73.69413071928085
 22
34.21850960490574
 32
0.0
 13
72.49014415582405
 23
34.21850960490574
 33
0.0
  0
SOLID
  5
3A35
330
1F
100
AcDbEntity
  8
LOGO
 62
     5
100
AcDbTrace
 10
67.96481534834606
 20
22.80139564108431
 30
0.0
 11
69.16880191180291
 21
22.80139564108431
 31
0.0
 12
73.69413071928085
 22
33.30514048779957
 32
0.0
 13
72.49014415582405
 23
28.8905230884553
 33
0.0
  0
SOLID
  5
3A36
330
1F
100
AcDbEntity
  8
LOGO
 62
     2
100
AcDbTrace
 10
67.46661401174231
 20
22.80139564108431
 30
0.0
 11
67.96481534834606
 21
22.80139564108431
 31
0.0
 12
73.69413071928085
 22
34.21850960490574
 32
0.0
 13
74.19233205588466
 23
34.21850960490511
 33
0.0
  0
TEXT
  5
3A76
330
1F
100
AcDbEntity
  8
LOGO
100
AcDbText
 10
119.8830427347147
 20
8.515407421343393
 30
0.0
 40
2.785
  1
1081214B
 41
0.7
  7
CHINESET
 72
     1
 11
126.4742094013814
 21
8.515407421343393
 31
0.0
100
AcDbText
  0
LINE
  5
3A77
330
1F
100
AcDbEntity
  8
LOGO
 62
     4
100
AcDbLine
 10
135.1171752572484
 20
12.60320642934647
 30
0.0
 11
135.1171752572496
 21
7.034012945183228
 31
0.0
  0
LINE
  5
3A78
330
1F
100
AcDbEntity
  8
LOGO
 62
     4
100
AcDbLine
 10
135.1171752572484
 20
12.60320642934647
 30
0.0
 11
118.4071752572496
 21
12.60320642934647
 31
0.0
  0
LINE
  5
3A79
330
1F
100
AcDbEntity
  8
LOGO
  6
AM_ISO08W050x2
 48
0.3
100
AcDbLine
 10
102.7704398039803
 20
26.53214641256174
 30
0.0
 11
107.2280124690696
 21
26.53214641256174
 31
0.0
1001
GENIUS_GENOREF_13
1005
3A7E
  0
LINE
  5
3A7A
330
1F
100
AcDbEntity
  8
LOGO
  6
AM_ISO08W050x2
 48
0.3
100
AcDbLine
 10
104.9992261365249
 20
24.30336008001711
 30
0.0
 11
104.9992261365249
 21
28.76093274510637
 31
0.0
1001
GENIUS_GENOREF_13
1005
3A7D
  0
LINE
  5
3A7B
330
1F
100
AcDbEntity
  8
LOGO
  6
CENTER
 48
0.5
100
AcDbLine
 10
109.6854716025677
 20
26.53214641256174
 30
0.0
 11
115.6697899646152
 21
26.53214641256174
 31
0.0
1001
GENIUS_GENOREF_13
1005
3A7C
  0
POINT
  5
3A7C
330
1F
100
AcDbEntity
  8
0
 60
     1
100
AcDbPoint
 10
-1753.881171233674
 20
-919.756692738434
 30
0.0
1001
GENIUS_GENOBJ-N-CRS_13
1002
{
1000
OWNER
1000
GEN
1002
}
1001
GENIUS_GENOLIS_13
1002
{
1000
ENT
1005
0
1005
0
1005
0
1005
3A7B
1002
}
1001
GENIUS_GENOENT_13
1002
{
1000
MYREF
1005
3A7C
1002
}
1002
{
1000
GRP
1005
0
1002
}
1001
GENIUS_GENODEF_13
1002
{
1000
HIER
1070
    10
1002
}
1002
{
1000
MANEDIT
1070
     1
1002
}
1002
{
1000
NOSEL
1070
     0
1002
}
1002
{
1000
BEHIND
1070
     0
1002
}
1002
{
1000
OTHER
1070
     0
1002
}
1002
{
1000
REACTOR
1002
}
  0
POINT
  5
3A7D
330
1F
100
AcDbEntity
  8
0
 60
     1
100
AcDbPoint
 10
-1765.205756456529
 20
-910.8811062597977
 30
0.0
1001
GENIUS_GENOBJ-N-CRS_13
1002
{
1000
OWNER
1000
GEN
1002
}
1001
GENIUS_GENOLIS_13
1002
{
1000
ENT
1005
0
1005
0
1005
0
1005
3A7A
1002
}
1001
GENIUS_GENOENT_13
1002
{
1000
MYREF
1005
3A7D
1002
}
1002
{
1000
GRP
1005
0
1002
}
1001
GENIUS_GENODEF_13
1002
{
1000
HIER
1070
    10
1002
}
1002
{
1000
MANEDIT
1070
     1
1002
}
1002
{
1000
NOSEL
1070
     0
1002
}
1002
{
1000
BEHIND
1070
     0
1002
}
1002
{
1000
OTHER
1070
     0
1002
}
1002
{
1000
REACTOR
1002
}
  0
POINT
  5
3A7E
330
1F
100
AcDbEntity
  8
0
 60
     1
100
AcDbPoint
 10
-1758.847082758692
 20
-919.756692738434
 30
0.0
1001
GENIUS_GENOBJ-N-CRS_13
1002
{
1000
OWNER
1000
GEN
1002
}
1001
GENIUS_GENOLIS_13
1002
{
1000
ENT
1005
0
1005
0
1005
0
1005
3A79
1002
}
1001
GENIUS_GENOENT_13
1002
{
1000
MYREF
1005
3A7E
1002
}
1002
{
1000
GRP
1005
0
1002
}
1001
GENIUS_GENODEF_13
1002
{
1000
HIER
1070
    10
1002
}
1002
{
1000
MANEDIT
1070
     1
1002
}
1002
{
1000
NOSEL
1070
     0
1002
}
1002
{
1000
BEHIND
1070
     0
1002
}
1002
{
1000
OTHER
1070
     0
1002
}
1002
{
1000
REACTOR
1002
}
  0
SPLINE
  5
3E98
330
1F
100
AcDbEntity
  8
0
  6
Continuous
 62
     7
370
    15
100
AcDbSpline
210
0.0
220
0.0
230
1.0
 70
    24
 71
     1
 72
     4
 73
     2
 74
     0
 42
0.0000000001
 43
0.0000000001
 40
0.0
 40
0.0
 40
1.0
 40
1.0
 10
91.67804988524796
 20
193.4370871123847
 30
0.0
 10
91.09749226323248
 20
192.4315339376208
 30
0.0
  0
SPLINE
  5
3E99
330
1F
100
AcDbEntity
  8
0
  6
Continuous
 62
     7
370
    15
100
AcDbSpline
210
0.0
220
0.0
230
1.0
 70
    24
 71
     1
 72
     4
 73
     2
 74
     0
 42
0.0000000001
 43
0.0000000001
 40
0.0
 40
0.0
 40
1.0
 40
1.0
 10
95.09749291888358
 20
192.4315339376208
 30
0.0
 10
94.51693622819067
 20
193.4370871123847
 30
0.0
  0
SPLINE
  5
3E9A
330
1F
100
AcDbEntity
  8
0
  6
Continuous
 62
     7
370
    15
100
AcDbSpline
210
0.0
220
0.0
230
1.0
 70
    24
 71
     1
 72
     4
 73
     2
 74
     0
 42
0.0000000001
 43
0.0000000001
 40
0.0
 40
0.0
 40
1.0
 40
1.0
 10
91.09749226323243
 20
179.4315336693999
 30
0.0
 10
91.67804988524791
 20
178.425980494636
 30
0.0
  0
SPLINE
  5
3E9B
330
1F
100
AcDbEntity
  8
0
  6
Continuous
 62
     7
370
    15
100
AcDbSpline
210
0.0
220
0.0
230
1.0
 70
    24
 71
     1
 72
     4
 73
     2
 74
     0
 42
0.0000000001
 43
0.0000000001
 40
0.0
 40
0.0
 40
1.0
 40
1.0
 10
94.51693622819062
 20
178.425980494636
 30
0.0
 10
95.09749291888352
 20
179.4315336693999
 30
0.0
  0
SPLINE
  5
3E9C
330
1F
100
AcDbEntity
  8
0
  6
Continuous
 62
     7
370
    15
100
AcDbSpline
210
0.0
220
0.0
230
1.0
 70
    24
 71
     1
 72
     4
 73
     2
 74
     0
 42
0.0000000001
 43
0.0000000001
 40
0.0
 40
0.0
 40
1.0
 40
1.0
 10
106.0974929756942
 20
180.931533915269
 30
0.0
 10
107.0974930231917
 20
180.931533915269
 30
0.0
  0
SPLINE
  5
3E9D
330
1F
100
AcDbEntity
  8
0
  6
Continuous
 62
     7
370
    15
100
AcDbSpline
210
0.0
220
0.0
230
1.0
 70
    24
 71
     1
 72
     4
 73
     2
 74
     0
 42
0.0000000001
 43
0.0000000001
 40
0.0
 40
0.0
 40
1.0
 40
1.0
 10
107.0974930231917
 20
190.9315336917515
 30
0.0
 10
106.0974929756942
 20
190.9315336917515
 30
0.0
  0
SPLINE
  5
3E9E
330
1F
100
AcDbEntity
  8
0
  6
Continuous
 62
     7
370
    15
100
AcDbSpline
210
0.0
220
0.0
230
1.0
 70
    24
 71
     1
 72
     4
 73
     2
 74
     0
 42
0.0000000001
 43
0.0000000001
 40
0.0
 40
0.0
 40
1.0
 40
1.0
 10
86.09749330631377
 20
189.9315339935002
 30
0.0
 10
85.09749314240094
 20
188.9315338295874
 30
0.0
  0
SPLINE
  5
3E9F
330
1F
100
AcDbEntity
  8
0
  6
Continuous
 62
     7
370
    15
100
AcDbSpline
210
0.0
220
0.0
230
1.0
 70
    24
 71
     1
 72
     4
 73
     2
 74
     0
 42
0.0000000001
 43
0.0000000001
 40
0.0
 40
0.0
 40
1.0
 40
1.0
 10
85.09749314240094
 20
182.9315337774333
 30
0.0
 10
86.09749330631371
 20
181.9315336135205
 30
0.0
  0
SPLINE
  5
3EA0
330
1F
100
AcDbEntity
  8
0
  6
Continuous
 62
     7
370
    15
100
AcDbSpline
210
0.0
220
0.0
230
1.0
 70
    24
 71
     1
 72
     4
 73
     2
 74
     0
 42
0.0000000001
 43
0.0000000001
 40
0.0
 40
0.0
 40
1.0
 40
1.0
 10
86.09749330631371
 20
181.9315336135205
 30
0.0
 10
91.09749226323243
 20
181.9315336135205
 30
0.0
  0
SPLINE
  5
3EA1
330
1F
100
AcDbEntity
  8
0
  6
Continuous
 62
     7
370
    15
100
AcDbSpline
210
0.0
220
0.0
230
1.0
 70
    24
 71
     1
 72
     4
 73
     2
 74
     0
 42
0.0000000001
 43
0.0000000001
 40
0.0
 40
0.0
 40
1.0
 40
1.0
 10
95.09749291888352
 20
181.9315336135205
 30
0.0
 10
101.0974929710376
 20
181.9315336135205
 30
0.0
  0
SPLINE
  5
3EA2
330
1F
100
AcDbEntity
  8
0
  6
Continuous
 62
     7
370
    15
100
AcDbSpline
210
0.0
220
0.0
230
1.0
 70
    24
 71
     1
 72
     4
 73
     2
 74
     0
 42
0.0000000001
 43
0.0000000001
 40
0.0
 40
0.0
 40
1.0
 40
1.0
 10
101.0974929710376
 20
189.9315339935001
 30
0.0
 10
95.09749291888358
 20
189.9315339935001
 30
0.0
  0
SPLINE
  5
3EA3
330
1F
100
AcDbEntity
  8
0
  6
Continuous
 62
     7
370
    15
100
AcDbSpline
210
0.0
220
0.0
230
1.0
 70
    24
 71
     1
 72
     4
 73
     2
 74
     0
 42
0.0000000001
 43
0.0000000001
 40
0.0
 40
0.0
 40
1.0
 40
1.0
 10
91.09749226323248
 20
189.9315339935001
 30
0.0
 10
86.09749330631377
 20
189.9315339935002
 30
0.0
  0
LINE
  5
3EA4
330
1F
100
AcDbEntity
  8
0
  6
Continuous
 62
     7
370
    15
100
AcDbLine
 10
91.67804988524791
 20
182.1787571490731
 30
0.0
 11
94.51693622819062
 21
182.1787571490731
 31
0.0
  0
SPLINE
  5
3EA5
330
1F
100
AcDbEntity
  8
0
  6
Continuous
 62
     7
370
    15
100
AcDbSpline
210
0.0
220
0.0
230
1.0
 70
     8
 71
     3
 72
    11
 73
     7
 74
     0
 42
0.0000000001
 43
0.0000000001
 40
0.0
 40
0.0
 40
0.0
 40
0.0
 40
0.2472747629664075
 40
0.4945905547255637
 40
0.7472643955626129
 40
1.0
 40
1.0
 40
1.0
 40
1.0
 10
91.09749226323248
 20
185.9315338035103
 30
0.0
 10
91.10524425472874
 20
185.6174494347971
 30
0.0
 10
91.12074952396188
 20
184.9892285832676
 30
0.0
 10
91.24181815201717
 20
184.0467064887086
 30
0.0
 10
91.42394975850539
 20
183.1076393825891
 30
0.0
 10
91.59334294276471
 20
182.4884097845787
 30
0.0
 10
91.67804988524791
 20
182.1787571490731
 30
0.0
  0
SPLINE
  5
3EA6
330
1F
100
AcDbEntity
  8
0
  6
Continuous
 62
     7
370
    15
100
AcDbSpline
210
0.0
220
0.0
230
1.0
 70
     8
 71
     3
 72
    11
 73
     7
 74
     0
 42
0.0000000001
 43
0.0000000001
 40
0.0
 40
0.0
 40
0.0
 40
0.0
 40
0.2477111757548741
 40
0.4953655299187451
 40
0.747705263730026
 40
1.0
 40
1.0
 40
1.0
 40
1.0
 10
91.67804988524796
 20
189.6843104579475
 30
0.0
 10
91.59494233704577
 20
189.3808409533344
 30
0.0
 10
91.4287463043882
 20
188.773971555905
 30
0.0
 10
91.24596345470342
 20
187.8415916480543
 30
0.0
 10
91.12172592411445
 20
186.8929777337791
 30
0.0
 10
91.10556966998302
 20
186.2519960617905
 30
0.0
 10
91.09749226323248
 20
185.9315338035103
 30
0.0
  0
LINE
  5
3EA7
330
1F
100
AcDbEntity
  8
0
  6
Continuous
 62
     7
370
    15
100
AcDbLine
 10
94.51693622819067
 20
189.6843104579475
 30
0.0
 11
91.67804988524796
 21
189.6843104579475
 31
0.0
  0
SPLINE
  5
3EA8
330
1F
100
AcDbEntity
  8
0
  6
Continuous
 62
     7
370
    15
100
AcDbSpline
210
0.0
220
0.0
230
1.0
 70
     8
 71
     3
 72
    11
 73
     7
 74
     0
 42
0.0000000001
 43
0.0000000001
 40
0.0
 40
0.0
 40
0.0
 40
0.0
 40
0.2477112222665443
 40
0.4953655163364988
 40
0.7477052974656229
 40
1.0
 40
1.0
 40
1.0
 40
1.0
 10
94.51693622819067
 20
189.6843106907781
 30
0.0
 10
94.60004393821629
 20
189.3808411347283
 30
0.0
 10
94.76624025872082
 20
188.7739717650261
 30
0.0
 10
94.949020655033
 20
187.8415913644733
 30
0.0
 10
95.07326231690354
 20
186.8929779510059
 30
0.0
 10
95.08941653257124
 20
186.2519960998768
 30
0.0
 10
95.09749291888358
 20
185.9315338035103
 30
0.0
  0
SPLINE
  5
3EA9
330
1F
100
AcDbEntity
  8
0
  6
Continuous
 62
     7
370
    15
100
AcDbSpline
210
0.0
220
0.0
230
1.0
 70
     8
 71
     3
 72
    11
 73
     7
 74
     0
 42
0.0000000001
 43
0.0000000001
 40
0.0
 40
0.0
 40
0.0
 40
0.0
 40
0.2472747550281873
 40
0.4945905397472473
 40
0.7472643880725395
 40
0.9999999999999998
 40
0.9999999999999998
 40
0.9999999999999998
 40
0.9999999999999998
 10
95.09749291888358
 20
185.9315338035103
 30
0.0
 10
95.08974082259294
 20
185.6174494669173
 30
0.0
 10
95.07423534372549
 20
184.9892286784912
 30
0.0
 10
94.95316829642002
 20
184.0467064295849
 30
0.0
 10
94.77103626953567
 20
183.107639392983
 30
0.0
 10
94.60164314220572
 20
182.4884097880437
 30
0.0
 10
94.51693622819062
 20
182.1787571490731
 30
0.0
  0
LINE
  5
3EAA
330
1F
100
AcDbEntity
  8
0
  6
Continuous
 62
     7
370
    15
100
AcDbLine
 10
95.09749291888358
 20
185.9315338035103
 30
0.0
 11
95.09749291888352
 21
180.3023687054392
 31
0.0
  0
SPLINE
  5
3EAB
330
1F
100
AcDbEntity
  8
0
  6
Continuous
 62
     7
370
    15
100
AcDbSpline
210
0.0
220
0.0
230
1.0
 70
     8
 71
     3
 72
    11
 73
     7
 74
     0
 42
0.0000000001
 43
0.0000000001
 40
0.0
 40
0.0
 40
0.0
 40
0.0
 40
0.247711235826654
 40
0.4953654843005489
 40
0.7477052906616985
 40
1.0
 40
1.0
 40
1.0
 40
1.0
 10
94.51693622819062
 20
182.1787571490731
 30
0.0
 10
94.60004393366489
 20
182.0270224926067
 30
0.0
 10
94.76624022522186
 20
181.7235880870786
 30
0.0
 10
94.94902068667466
 20
181.2573974886169
 30
0.0
 10
95.07326230868148
 20
180.7830904379605
 30
0.0
 10
95.08941653002734
 20
180.4625997359864
 30
0.0
 10
95.09749291888352
 20
180.3023687054392
 30
0.0
  0
LINE
  5
3EAC
330
1F
100
AcDbEntity
  8
0
  6
Continuous
 62
     7
370
    15
100
AcDbLine
 10
94.51693622819062
 20
178.425980494636
 30
0.0
 11
91.67804988524791
 21
178.425980494636
 31
0.0
  0
SPLINE
  5
3EAD
330
1F
100
AcDbEntity
  8
0
  6
Continuous
 62
     7
370
    15
100
AcDbSpline
210
0.0
220
0.0
230
1.0
 70
     8
 71
     3
 72
    11
 73
     7
 74
     0
 42
0.0000000001
 43
0.0000000001
 40
0.0
 40
0.0
 40
0.0
 40
0.0
 40
0.2472747816134055
 40
0.4945905851066919
 40
0.7472644022119061
 40
0.9999999999999998
 40
0.9999999999999998
 40
0.9999999999999998
 40
0.9999999999999998
 10
91.09749226323243
 20
180.3023687054392
 30
0.0
 10
91.10524425512767
 20
180.14532651342
 30
0.0
 10
91.12074952494197
 20
179.8312160767212
 30
0.0
 10
91.24181813755058
 20
179.3599548246963
 30
0.0
 10
91.42394976865693
 20
178.8904215091845
 30
0.0
 10
91.59334294424002
 20
178.5808067818051
 30
0.0
 10
91.67804988524791
 20
178.425980494636
 30
0.0
  0
SPLINE
  5
3EAE
330
1F
100
AcDbEntity
  8
0
  6
Continuous
 62
     7
370
    15
100
AcDbSpline
210
0.0
220
0.0
230
1.0
 70
     8
 71
     3
 72
    11
 73
     7
 74
     0
 42
0.0000000001
 43
0.0000000001
 40
0.0
 40
0.0
 40
0.0
 40
0.0
 40
0.2477112931518365
 40
0.4953655273176868
 40
0.7477052716422373
 40
1.0
 40
1.0
 40
1.0
 40
1.0
 10
91.67804988524791
 20
182.1787571490731
 30
0.0
 10
91.59494235359455
 20
182.0270222522772
 30
0.0
 10
91.42874643366809
 20
181.7235874100162
 30
0.0
 10
91.24596338633102
 20
181.2573977482678
 30
0.0
 10
91.12172593909475
 20
180.7830902901364
 30
0.0
 10
91.10556967477952
 20
180.4625997038737
 30
0.0
 10
91.09749226323243
 20
180.3023687054392
 30
0.0
  0
SPLINE
  5
3EAF
330
1F
100
AcDbEntity
  8
0
  6
Continuous
 62
     7
370
    15
100
AcDbSpline
210
0.0
220
0.0
230
1.0
 70
     8
 71
     3
 72
    11
 73
     7
 74
     0
 42
0.0000000001
 43
0.0000000001
 40
0.0
 40
0.0
 40
0.0
 40
0.0
 40
0.2472747930436426
 40
0.4945905784316123
 40
0.7472643942305565
 40
0.9999999999999998
 40
0.9999999999999998
 40
0.9999999999999998
 40
0.9999999999999998
 10
95.09749291888352
 20
180.3023687054392
 30
0.0
 10
95.08974082358419
 20
180.1453265190449
 30
0.0
 10
95.07423534787035
 20
179.8312161123555
 30
0.0
 10
94.9531683105747
 20
179.3599548019502
 30
0.0
 10
94.77103625461877
 20
178.8904215022208
 30
0.0
 10
94.60164314017925
 20
178.5808067813799
 30
0.0
 10
94.51693622819062
 20
178.425980494636
 30
0.0
  0
SPLINE
  5
3EB0
330
1F
100
AcDbEntity
  8
0
  6
Continuous
 62
     7
370
    15
100
AcDbSpline
210
0.0
220
0.0
230
1.0
 70
     8
 71
     3
 72
    11
 73
     7
 74
     0
 42
0.0000000001
 43
0.0000000001
 40
0.0
 40
0.0
 40
0.0
 40
0.0
 40
0.2472747743000747
 40
0.4945905704788169
 40
0.7472643801110199
 40
1.0
 40
1.0
 40
1.0
 40
1.0
 10
91.09749226323248
 20
191.5606989015814
 30
0.0
 10
91.10524425530689
 20
191.4036567105912
 30
0.0
 10
91.12074952547976
 20
191.0895462759505
 30
0.0
 10
91.24181813537985
 20
190.6182850083759
 30
0.0
 10
91.42394978415167
 20
190.1487517347495
 30
0.0
 10
91.5933429461017
 20
189.83913683858
 30
0.0
 10
91.67804988524796
 20
189.6843104579475
 30
0.0
  0
SPLINE
  5
3EB1
330
1F
100
AcDbEntity
  8
0
  6
Continuous
 62
     7
370
    15
100
AcDbSpline
210
0.0
220
0.0
230
1.0
 70
     8
 71
     3
 72
    11
 73
     7
 74
     0
 42
0.0000000001
 43
0.0000000001
 40
0.0
 40
0.0
 40
0.0
 40
0.0
 40
0.2477111343692914
 40
0.4953655131363135
 40
0.747705203692896
 40
1.0
 40
1.0
 40
1.0
 40
1.0
 10
91.67804988524796
 20
193.4370871123847
 30
0.0
 10
91.59494233208324
 20
193.2853525186026
 30
0.0
 10
91.42874626736551
 20
192.9819180964852
 30
0.0
 10
91.24596348577217
 20
192.515727816974
 30
0.0
 10
91.12172590125812
 20
192.0414211144266
 30
0.0
 10
91.10556966346706
 20
191.7209301351545
 30
0.0
 10
91.09749226323248
 20
191.5606989015814
 30
0.0
  0
LINE
  5
3EB2
330
1F
100
AcDbEntity
  8
0
  6
Continuous
 62
     7
370
    15
100
AcDbLine
 10
94.51693622819067
 20
193.4370871123847
 30
0.0
 11
91.67804988524796
 21
193.4370871123847
 31
0.0
  0
SPLINE
  5
3EB3
330
1F
100
AcDbEntity
  8
0
  6
Continuous
 62
     7
370
    15
100
AcDbSpline
210
0.0
220
0.0
230
1.0
 70
     8
 71
     3
 72
    11
 73
     7
 74
     0
 42
0.0000000001
 43
0.0000000001
 40
0.0
 40
0.0
 40
0.0
 40
0.0
 40
0.2477111433306167
 40
0.4953654743653372
 40
0.7477052248352541
 40
1.0
 40
1.0
 40
1.0
 40
1.0
 10
94.51693622819067
 20
193.4370871123847
 30
0.0
 10
94.6000439463499
 20
193.2853525337349
 30
0.0
 10
94.76624032199868
 20
192.9819181766047
 30
0.0
 10
94.94902062013773
 20
192.5157276733644
 30
0.0
 10
95.07326234072388
 20
192.0414212234982
 30
0.0
 10
95.08941653940865
 20
191.7209301543504
 30
0.0
 10
95.09749291888358
 20
191.5606989015814
 30
0.0
  0
SPLINE
  5
3EB4
330
1F
100
AcDbEntity
  8
0
  6
Continuous
 62
     7
370
    15
100
AcDbSpline
210
0.0
220
0.0
230
1.0
 70
     8
 71
     3
 72
    11
 73
     7
 74
     0
 42
0.0000000001
 43
0.0000000001
 40
0.0
 40
0.0
 40
0.0
 40
0.0
 40
0.2472747889172714
 40
0.4945905701781859
 40
0.7472643947467396
 40
0.9999999999999998
 40
0.9999999999999998
 40
0.9999999999999998
 40
0.9999999999999998
 10
95.09749291888358
 20
191.5606989015814
 30
0.0
 10
95.08974082386378
 20
191.4036567158447
 30
0.0
 10
95.07423534870923
 20
191.0895463104707
 30
0.0
 10
94.95316830508443
 20
190.618284981938
 30
0.0
 10
94.77103625992198
 20
190.1487517104926
 30
0.0
 10
94.60164314090969
 20
189.8391369796694
 30
0.0
 10
94.51693622819067
 20
189.6843106907781
 30
0.0
  0
LINE
  5
3EB5
330
1F
100
AcDbEntity
  8
0
  6
Continuous
 62
     7
370
    15
100
AcDbLine
 10
91.09749226323248
 20
191.5606989015814
 30
0.0
 11
91.09749226323248
 21
185.9315338035103
 31
0.0
  0
LINE
  5
3EB6
330
1F
100
AcDbEntity
  8
0
  6
Continuous
 62
     7
370
    15
100
AcDbLine
 10
95.09749291888358
 20
191.5606989015814
 30
0.0
 11
95.09749291888358
 21
185.9315338035103
 31
0.0
  0
LINE
  5
3EB7
330
1F
100
AcDbEntity
  8
0
  6
Continuous
 62
     7
370
    15
100
AcDbLine
 10
91.09749226323248
 20
185.9315338035103
 30
0.0
 11
91.09749226323243
 21
180.3023687054392
 31
0.0
  0
LINE
  5
3EB8
330
1F
100
AcDbEntity
  8
0
  6
Continuous
 62
     7
370
    15
100
AcDbLine
 10
91.09749226323248
 20
192.4315339376208
 30
0.0
 11
91.09749226323248
 21
191.5606989015814
 31
0.0
  0
LINE
  5
3EB9
330
1F
100
AcDbEntity
  8
0
  6
Continuous
 62
     7
370
    15
100
AcDbLine
 10
95.09749291888358
 20
192.4315339376208
 30
0.0
 11
95.09749291888358
 21
191.5606989015814
 31
0.0
  0
LINE
  5
3EBA
330
1F
100
AcDbEntity
  8
0
  6
Continuous
 62
     7
370
    15
100
AcDbLine
 10
91.09749226323243
 20
180.3023687054392
 30
0.0
 11
91.09749226323243
 21
179.4315336693999
 31
0.0
  0
LINE
  5
3EBB
330
1F
100
AcDbEntity
  8
0
  6
Continuous
 62
     7
370
    15
100
AcDbLine
 10
95.09749291888352
 20
180.3023687054392
 30
0.0
 11
95.09749291888352
 21
179.4315336693999
 31
0.0
  0
LINE
  5
3EBC
330
1F
100
AcDbEntity
  8
0
  6
Continuous
 62
     7
370
    15
100
AcDbLine
 10
101.9635186573017
 20
189.9315339935001
 30
0.0
 11
101.9635186573016
 21
181.9315336135205
 31
0.0
  0
LINE
  5
3EBD
330
1F
100
AcDbEntity
  8
0
  6
Continuous
 62
     7
370
    15
100
AcDbLine
 10
105.0974929281968
 20
189.9315339935001
 30
0.0
 11
101.9635186573017
 21
189.9315339935001
 31
0.0
  0
LWPOLYLINE
  5
3EBE
330
1F
100
AcDbEntity
  8
0
  6
Continuous
 62
     7
370
    15
100
AcDbPolyline
 90
        8
 70
   128
 43
0.0
 10
106.0974929756942
 20
190.9315336917515
 10
106.076380707835
 20
190.9104215403076
 10
106.0132219032842
 20
190.8472625029262
 10
105.9085500934619
 20
190.7425906931038
 10
105.7632492199066
 20
190.5972899359639
 10
105.5785461836952
 20
190.4125867833372
 10
105.3560010665554
 20
190.1900416661974
 10
105.0974929281968
 20
189.9315339935001
  0
LWPOLYLINE
  5
3EBF
330
1F
100
AcDbEntity
  8
0
  6
Continuous
 62
     7
370
    15
100
AcDbPolyline
 90
        8
 70
   128
 43
0.0
 10
105.0974929281967
 20
181.9315336135204
 10
105.3560010665553
 20
181.6730259408231
 10
105.5785461836951
 20
181.4504808236833
 10
105.7632492199066
 20
181.2657776710566
 10
105.9085500934618
 20
181.1204769139166
 10
106.0132219032841
 20
181.0158051040943
 10
106.0763807078349
 20
180.9526460667129
 10
106.0974929756942
 20
180.931533915269
  0
LINE
  5
3EC0
330
1F
100
AcDbEntity
  8
0
  6
Continuous
 62
     7
370
    15
100
AcDbLine
 10
101.9635186573016
 20
181.9315336135205
 30
0.0
 11
105.0974929281967
 21
181.9315336135204
 31
0.0
  0
LINE
  5
3EC1
330
1F
100
AcDbEntity
  8
0
  6
Continuous
 62
     7
370
    15
100
AcDbLine
 10
101.0974929710376
 20
189.9315339935001
 30
0.0
 11
101.0974929710376
 21
181.9315336135205
 31
0.0
  0
SPLINE
  5
3EC2
330
1F
100
AcDbEntity
  8
0
  6
Continuous
 62
     7
370
    15
100
AcDbSpline
210
0.0
220
0.0
230
1.0
 70
    24
 71
     1
 72
     4
 73
     2
 74
     0
 42
0.0000000001
 43
0.0000000001
 40
0.0
 40
0.0
 40
1.0
 40
1.0
 10
101.9635186573017
 20
189.9315339935001
 30
0.0
 10
101.0974929710376
 20
189.9315339935001
 30
0.0
  0
SPLINE
  5
3EC3
330
1F
100
AcDbEntity
  8
0
  6
Continuous
 62
     7
370
    15
100
AcDbSpline
210
0.0
220
0.0
230
1.0
 70
    24
 71
     1
 72
     4
 73
     2
 74
     0
 42
0.0000000001
 43
0.0000000001
 40
0.0
 40
0.0
 40
1.0
 40
1.0
 10
101.0974929710376
 20
181.9315336135205
 30
0.0
 10
101.9635186573016
 20
181.9315336135205
 30
0.0
  0
LINE
  5
3EC4
330
1F
100
AcDbEntity
  8
0
  6
Continuous
 62
     7
370
    15
100
AcDbLine
 10
85.09749314240094
 20
188.9315338295874
 30
0.0
 11
85.09749314240094
 21
182.9315337774333
 31
0.0
  0
LINE
  5
3EC5
330
1F
100
AcDbEntity
  8
0
  6
Continuous
 62
     7
370
    15
100
AcDbLine
 10
86.09749330631377
 20
189.9315339935002
 30
0.0
 11
86.09749330631371
 21
181.9315336135205
 31
0.0
  0
LINE
  5
3EC6
330
1F
100
AcDbEntity
  8
0
  6
Continuous
 62
     7
370
    15
100
AcDbLine
 10
118.0974929635871
 20
205.681534712481
 30
0.0
 11
107.0974930231917
 21
205.6815347124811
 31
0.0
  0
LINE
  5
3EC7
330
1F
100
AcDbEntity
  8
0
  6
Continuous
 62
     7
370
    15
100
AcDbLine
 10
118.0974929635871
 20
198.6815335650916
 30
0.0
 11
118.0974929635871
 21
205.681534712481
 31
0.0
  0
LINE
  5
3EC8
330
1F
100
AcDbEntity
  8
0
  6
Continuous
 62
     7
370
    15
100
AcDbLine
 10
107.0974930231917
 20
198.6815335650916
 30
0.0
 11
118.0974929635871
 21
198.6815335650916
 31
0.0
  0
LINE
  5
3EC9
330
1F
100
AcDbEntity
  8
0
  6
Continuous
 62
     7
370
    15
100
AcDbLine
 10
107.0974930231917
 20
205.6815347124811
 30
0.0
 11
107.0974930231917
 21
198.6815335650916
 31
0.0
  0
CIRCLE
  5
3ECA
330
1F
100
AcDbEntity
  8
0
  6
Continuous
 62
     7
370
    15
100
AcDbCircle
 10
114.0974930231917
 20
185.9315338035102
 30
0.0
 40
2.650500000015654
  0
LINE
  5
3ECB
330
1F
100
AcDbEntity
  8
0
  6
Continuous
 62
     7
370
    15
100
AcDbLine
 10
118.0974929635871
 20
198.6815335650916
 30
0.0
 11
118.097492963587
 21
173.1815340419288
 31
0.0
  0
LINE
  5
3ECC
330
1F
100
AcDbEntity
  8
0
  6
Continuous
 62
     7
370
    15
100
AcDbLine
 10
118.097492963587
 20
173.1815340419288
 30
0.0
 11
107.0974930231917
 21
173.1815340419288
 31
0.0
  0
LINE
  5
3ECD
330
1F
100
AcDbEntity
  8
0
  6
Continuous
 62
     7
370
    15
100
AcDbLine
 10
107.0974930231917
 20
198.6815335650916
 30
0.0
 11
107.0974930231917
 21
173.1815340419288
 31
0.0
  0
LINE
  5
3ECE
330
1F
100
AcDbEntity
  8
0
  6
Continuous
 62
     7
370
    15
100
AcDbLine
 10
107.0974930231916
 20
166.1815328945394
 30
0.0
 11
118.097492963587
 21
166.1815328945394
 31
0.0
  0
LINE
  5
3ECF
330
1F
100
AcDbEntity
  8
0
  6
Continuous
 62
     7
370
    15
100
AcDbLine
 10
118.097492963587
 20
166.1815328945394
 30
0.0
 11
118.097492963587
 21
173.1815340419288
 31
0.0
  0
LINE
  5
3ED0
330
1F
100
AcDbEntity
  8
0
  6
Continuous
 62
     7
370
    15
100
AcDbLine
 10
107.0974930231917
 20
173.1815340419288
 30
0.0
 11
107.0974930231916
 21
166.1815328945394
 31
0.0
  0
CIRCLE
  5
3ED1
330
1F
100
AcDbEntity
  8
0
  6
Continuous
 62
     7
370
    15
100
AcDbCircle
 10
114.0974930231917
 20
185.9315338035102
 30
0.0
 40
2.150500000027477
  0
LINE
  5
3ED2
330
1F
100
AcDbEntity
  8
0
  6
Continuous
 62
     7
370
    15
100
AcDbLine
 10
107.0974930231917
 20
200.1315338958975
 30
0.0
 11
107.0974930231917
 21
200.4315333862778
 31
0.0
  0
LINE
  5
3ED3
330
1F
100
AcDbEntity
  8
0
  6
Continuous
 62
     7
370
    15
100
AcDbLine
 10
118.097492963587
 20
205.4315342058416
 30
0.0
 11
118.097492963587
 21
205.6815347124811
 31
0.0
  0
LINE
  5
3ED4
330
1F
100
AcDbEntity
  8
0
  6
Continuous
 62
     7
370
    15
100
AcDbLine
 10
107.0974930231917
 20
205.6815347124811
 30
0.0
 11
107.0974930231917
 21
205.1815336992022
 31
0.0
  0
LINE
  5
3ED5
330
1F
100
AcDbEntity
  8
0
  6
Continuous
 62
     7
370
    15
100
AcDbLine
 10
107.0974930231917
 20
204.0315347214218
 30
0.0
 11
107.0974930231917
 21
205.1815336992022
 31
0.0
  0
LINE
  5
3ED6
330
1F
100
AcDbEntity
  8
0
  6
Continuous
 62
     7
370
    15
100
AcDbLine
 10
107.0974930231917
 20
204.0315347214218
 30
0.0
 11
107.0974930231917
 21
203.8315331985232
 31
0.0
  0
LINE
  5
3ED7
330
1F
100
AcDbEntity
  8
0
  6
Continuous
 62
     7
370
    15
100
AcDbLine
 10
107.0974930231916
 20
168.0315344084974
 30
0.0
 11
107.0974930231916
 21
167.8315328855988
 31
0.0
  0
LINE
  5
3ED8
330
1F
100
AcDbEntity
  8
0
  6
Continuous
 62
     7
370
    15
100
AcDbLine
 10
107.0974930231916
 20
166.6815339078184
 30
0.0
 11
107.0974930231916
 21
167.8315328855988
 31
0.0
  0
LINE
  5
3ED9
330
1F
100
AcDbEntity
  8
0
  6
Continuous
 62
     7
370
    15
100
AcDbLine
 10
118.0974929635869
 20
166.4315334011789
 30
0.0
 11
118.0974929635869
 21
166.1815328945394
 31
0.0
  0
LINE
  5
3EDA
330
1F
100
AcDbEntity
  8
0
  6
Continuous
 62
     7
370
    15
100
AcDbLine
 10
107.0974930231916
 20
166.6815339078184
 30
0.0
 11
107.0974930231916
 21
166.1815328945395
 31
0.0
  0
LINE
  5
3EDB
330
1F
100
AcDbEntity
  8
0
  6
Continuous
 62
     7
370
    15
100
AcDbLine
 10
107.0974930231917
 20
203.6315335382696
 30
0.0
 11
107.0974930231917
 21
200.6315339778539
 31
0.0
  0
LINE
  5
3EDC
330
1F
100
AcDbEntity
  8
0
  6
Continuous
 62
     7
370
    15
100
AcDbLine
 10
107.0974930231916
 20
171.2315336291667
 30
0.0
 11
107.0974930231916
 21
168.231534068751
 31
0.0
  0
LINE
  5
3EDD
330
1F
100
AcDbEntity
  8
0
  6
Continuous
 62
     7
370
    15
100
AcDbLine
 10
140.0974928443778
 20
205.4315342058415
 30
0.0
 11
118.0974929635871
 21
205.4315342058416
 31
0.0
  0
LINE
  5
3EDE
330
1F
100
AcDbEntity
  8
0
  6
Continuous
 62
     7
370
    15
100
AcDbLine
 10
118.0974929635871
 20
198.4315339897747
 30
0.0
 11
140.0974928443778
 21
198.4315339897746
 31
0.0
  0
LINE
  5
3EDF
330
1F
100
AcDbEntity
  8
0
  6
Continuous
 62
     7
370
    15
100
AcDbLine
 10
140.0974928443778
 20
191.2607240912492
 30
0.0
 11
118.0974929635871
 21
191.2607240912492
 31
0.0
  0
LINE
  5
3EE0
330
1F
100
AcDbEntity
  8
0
  6
Continuous
 62
     7
370
    15
100
AcDbLine
 10
118.0974929635871
 20
190.3368441809888
 30
0.0
 11
140.0974928443778
 21
190.3368441809887
 31
0.0
  0
LINE
  5
3EE1
330
1F
100
AcDbEntity
  8
0
  6
Continuous
 62
     7
370
    15
100
AcDbLine
 10
140.0974928443778
 20
181.5262234260315
 30
0.0
 11
118.097492963587
 21
181.5262234260316
 31
0.0
  0
LINE
  5
3EE2
330
1F
100
AcDbEntity
  8
0
  6
Continuous
 62
     7
370
    15
100
AcDbLine
 10
118.097492963587
 20
180.6023435157712
 30
0.0
 11
140.0974928443778
 21
180.6023435157711
 31
0.0
  0
LINE
  5
3EE3
330
1F
100
AcDbEntity
  8
0
  6
Continuous
 62
     7
370
    15
100
AcDbLine
 10
140.0974928443777
 20
173.4315336172456
 30
0.0
 11
118.097492963587
 21
173.4315336172457
 31
0.0
  0
LINE
  5
3EE4
330
1F
100
AcDbEntity
  8
0
  6
Continuous
 62
     7
370
    15
100
AcDbLine
 10
118.097492963587
 20
166.4315334011789
 30
0.0
 11
140.0974928443777
 21
166.4315334011788
 31
0.0
  0
LINE
  5
3EE5
330
1F
100
AcDbEntity
  8
0
  6
Continuous
 62
     7
370
    15
100
AcDbLine
 10
140.0974928443778
 20
188.5827924081111
 30
0.0
 11
118.0974929635871
 21
188.5827924081112
 31
0.0
  0
LINE
  5
3EE6
330
1F
100
AcDbEntity
  8
0
  6
Continuous
 62
     7
370
    15
100
AcDbLine
 10
118.097492963587
 20
183.2802751989092
 30
0.0
 11
140.0974928443778
 21
183.2802751989091
 31
0.0
  0
LINE
  5
3EE7
330
1F
100
AcDbEntity
  8
0
  6
Continuous
 62
     7
370
    15
100
AcDbLine
 10
140.0974928443778
 20
188.0478754130179
 30
0.0
 11
118.097492963587
 21
188.047875413018
 31
0.0
  0
LINE
  5
3EE8
330
1F
100
AcDbEntity
  8
0
  6
Continuous
 62
     7
370
    15
100
AcDbLine
 10
118.097492963587
 20
183.8151921940024
 30
0.0
 11
140.0974928443778
 21
183.8151921940023
 31
0.0
  0
LINE
  5
3EE9
330
1F
100
AcDbEntity
  8
0
  6
Continuous
 62
     7
370
    15
100
AcDbLine
 10
140.0974928443778
 20
198.6815335650915
 30
0.0
 11
151.0974927847732
 21
198.6815335650915
 31
0.0
  0
LINE
  5
3EEA
330
1F
100
AcDbEntity
  8
0
  6
Continuous
 62
     7
370
    15
100
AcDbLine
 10
151.0974927847732
 20
205.681534712481
 30
0.0
 11
140.0974928443778
 21
205.681534712481
 31
0.0
  0
LINE
  5
3EEB
330
1F
100
AcDbEntity
  8
0
  6
Continuous
 62
     7
370
    15
100
AcDbLine
 10
151.0974927847732
 20
198.6815335650915
 30
0.0
 11
151.0974927847732
 21
205.681534712481
 31
0.0
  0
LINE
  5
3EEC
330
1F
100
AcDbEntity
  8
0
  6
Continuous
 62
     7
370
    15
100
AcDbLine
 10
140.0974928443778
 20
205.681534712481
 30
0.0
 11
140.0974928443778
 21
198.6815335650915
 31
0.0
  0
CIRCLE
  5
3EED
330
1F
100
AcDbEntity
  8
0
  6
Continuous
 62
     7
370
    15
100
AcDbCircle
 10
144.0974930231917
 20
185.9315338035101
 30
0.0
 40
2.650500000015625
  0
LINE
  5
3EEE
330
1F
100
AcDbEntity
  8
0
  6
Continuous
 62
     7
370
    15
100
AcDbLine
 10
151.097492784773
 20
173.1815340419286
 30
0.0
 11
151.0974927847732
 21
198.6815335650915
 31
0.0
  0
LINE
  5
3EEF
330
1F
100
AcDbEntity
  8
0
  6
Continuous
 62
     7
370
    15
100
AcDbLine
 10
151.097492784773
 20
173.1815340419286
 30
0.0
 11
140.0974928443777
 21
173.1815340419287
 31
0.0
  0
LINE
  5
3EF0
330
1F
100
AcDbEntity
  8
0
  6
Continuous
 62
     7
370
    15
100
AcDbLine
 10
140.0974928443777
 20
173.1815340419287
 30
0.0
 11
140.0974928443778
 21
198.6815335650915
 31
0.0
  0
LINE
  5
3EF1
330
1F
100
AcDbEntity
  8
0
  6
Continuous
 62
     7
370
    15
100
AcDbLine
 10
140.0974928443777
 20
166.1815328945393
 30
0.0
 11
151.097492784773
 21
166.1815328945393
 31
0.0
  0
LINE
  5
3EF2
330
1F
100
AcDbEntity
  8
0
  6
Continuous
 62
     7
370
    15
100
AcDbLine
 10
151.097492784773
 20
166.1815328945393
 30
0.0
 11
151.097492784773
 21
173.1815340419286
 31
0.0
  0
LINE
  5
3EF3
330
1F
100
AcDbEntity
  8
0
  6
Continuous
 62
     7
370
    15
100
AcDbLine
 10
140.0974928443777
 20
173.1815340419287
 30
0.0
 11
140.0974928443777
 21
166.1815328945393
 31
0.0
  0
CIRCLE
  5
3EF4
330
1F
100
AcDbEntity
  8
0
  6
Continuous
 62
     7
370
    15
100
AcDbCircle
 10
144.0974930231917
 20
185.9315338035101
 30
0.0
 40
2.150500000027477
  0
LINE
  5
3EF5
330
1F
100
AcDbEntity
  8
0
  6
Continuous
 62
     7
370
    15
100
AcDbLine
 10
151.0974927847731
 20
200.1315338958974
 30
0.0
 11
151.0974927847731
 21
200.4315333862777
 31
0.0
  0
LINE
  5
3EF6
330
1F
100
AcDbEntity
  8
0
  6
Continuous
 62
     7
370
    15
100
AcDbLine
 10
151.0974927847731
 20
205.181533699202
 30
0.0
 11
151.0974927847731
 21
203.831533198523
 31
0.0
  0
LINE
  5
3EF7
330
1F
100
AcDbEntity
  8
0
  6
Continuous
 62
     7
370
    15
100
AcDbLine
 10
151.097492784773
 20
168.0315344084973
 30
0.0
 11
151.097492784773
 21
166.6815339078183
 31
0.0
  0
LINE
  5
3EF8
330
1F
100
AcDbEntity
  8
0
  6
Continuous
 62
     7
370
    15
100
AcDbLine
 10
151.0974927847731
 20
205.181533699202
 30
0.0
 11
151.0974927847731
 21
205.681534712481
 31
0.0
  0
LINE
  5
3EF9
330
1F
100
AcDbEntity
  8
0
  6
Continuous
 62
     7
370
    15
100
AcDbLine
 10
140.0974928443778
 20
205.4315342058416
 30
0.0
 11
140.0974928443778
 21
205.681534712481
 31
0.0
  0
LINE
  5
3EFA
330
1F
100
AcDbEntity
  8
0
  6
Continuous
 62
     7
370
    15
100
AcDbLine
 10
151.097492784773
 20
166.1815328945393
 30
0.0
 11
151.097492784773
 21
166.6815339078183
 31
0.0
  0
LINE
  5
3EFB
330
1F
100
AcDbEntity
  8
0
  6
Continuous
 62
     7
370
    15
100
AcDbLine
 10
140.0974928443776
 20
166.1815328945394
 30
0.0
 11
140.0974928443776
 21
166.4315334011788
 31
0.0
  0
LINE
  5
3EFC
330
1F
100
AcDbEntity
  8
0
  6
Continuous
 62
     7
370
    15
100
AcDbLine
 10
151.0974927847731
 20
200.6315339778538
 30
0.0
 11
151.0974927847731
 21
203.831533198523
 31
0.0
  0
LINE
  5
3EFD
330
1F
100
AcDbEntity
  8
0
  6
Continuous
 62
     7
370
    15
100
AcDbLine
 10
151.097492784773
 20
168.0315344084973
 30
0.0
 11
151.097492784773
 21
171.2315336291666
 31
0.0
  0
ARC
  5
3EFE
330
1F
100
AcDbEntity
  8
0
  6
Continuous
 62
     7
370
    15
100
AcDbCircle
 10
219.4136651099578
 20
185.9315338035103
 30
0.0
 40
6.499999999999971
100
AcDbArc
 50
180.0
 51
240.0000000000002
  0
ARC
  5
3EFF
330
1F
100
AcDbEntity
  8
0
  6
Continuous
 62
     7
370
    15
100
AcDbCircle
 10
219.4136651099578
 20
185.9315338035103
 30
0.0
 40
6.499999999999987
100
AcDbArc
 50
119.9999999999997
 51
180.0
  0
ARC
  5
3F00
330
1F
100
AcDbEntity
  8
0
  6
Continuous
 62
     7
370
    15
100
AcDbCircle
 10
219.4136651099578
 20
185.9315338035103
 30
0.0
 40
6.500000000000006
100
AcDbArc
 50
59.99999999999986
 51
119.9999999999997
  0
ARC
  5
3F01
330
1F
100
AcDbEntity
  8
0
  6
Continuous
 62
     7
370
    15
100
AcDbCircle
 10
219.4136651099578
 20
185.9315338035103
 30
0.0
 40
6.500000000000006
100
AcDbArc
 50
0.0
 51
59.99999999999986
  0
ARC
  5
3F02
330
1F
100
AcDbEntity
  8
0
  6
Continuous
 62
     7
370
    15
100
AcDbCircle
 10
219.4136651099578
 20
185.9315338035103
 30
0.0
 40
6.5
100
AcDbArc
 50
300.0000000000001
 51
0.0
  0
ARC
  5
3F03
330
1F
100
AcDbEntity
  8
0
  6
Continuous
 62
     7
370
    15
100
AcDbCircle
 10
219.4136651099578
 20
185.9315338035103
 30
0.0
 40
6.499999999999977
100
AcDbArc
 50
240.0000000000002
 51
300.0000000000001
  0
SPLINE
  5
3F04
330
1F
100
AcDbEntity
  8
0
  6
Continuous
 62
     7
370
    15
100
AcDbSpline
210
0.0
220
0.0
230
1.0
 70
    24
 71
     3
 72
    11
 73
     7
 74
     0
 42
0.0000000001
 43
0.0000000001
 40
0.0
 40
0.0
 40
0.0
 40
0.0
 40
0.2477111757548745
 40
0.4953655299187458
 40
0.747705263730027
 40
1.0
 40
1.0
 40
1.0
 40
1.0
 10
212.9136649758473
 20
182.1787571490732
 30
0.0
 10
212.9136649758473
 20
182.4822266536863
 30
0.0
 10
212.9136649758473
 20
183.0890960511156
 30
0.0
 10
212.9136649758473
 20
184.0214759589663
 30
0.0
 10
212.9136649758474
 20
184.9700898732416
 30
0.0
 10
212.9136649758474
 20
185.6110715452302
 30
0.0
 10
212.9136649758474
 20
185.9315338035104
 30
0.0
  0
SPLINE
  5
3F05
330
1F
100
AcDbEntity
  8
0
  6
Continuous
 62
     7
370
    15
100
AcDbSpline
210
0.0
220
0.0
230
1.0
 70
     8
 71
     3
 72
    11
 73
     7
 74
     0
 42
0.0000000001
 43
0.0000000001
 40
0.0
 40
0.0
 40
0.0
 40
0.0
 40
0.2472747743000747
 40
0.4945905704788169
 40
0.7472643801110199
 40
1.0
 40
1.0
 40
1.0
 40
1.0
 10
216.1636650429025
 20
180.3023687054393
 30
0.0
 10
215.8916599704464
 20
180.4594108964294
 30
0.0
 10
215.3476047009996
 20
180.7735213310701
 30
0.0
 10
214.53135671619
 20
181.2447825986448
 30
0.0
 10
213.7181005574477
 20
181.7143158722711
 30
0.0
 10
213.1818320311288
 20
182.0239307684407
 30
0.0
 10
212.9136649758473
 20
182.1787571490732
 30
0.0
  0
SPLINE
  5
3F06
330
1F
100
AcDbEntity
  8
0
  6
Continuous
 62
     7
370
    15
100
AcDbSpline
210
0.0
220
0.0
230
1.0
 70
     8
 71
     3
 72
    11
 73
     7
 74
     0
 42
0.0000000001
 43
0.0000000001
 40
0.0
 40
0.0
 40
0.0
 40
0.0
 40
0.2472747816134055
 40
0.4945905851066919
 40
0.7472644022119061
 40
0.9999999999999998
 40
0.9999999999999998
 40
0.9999999999999998
 40
0.9999999999999998
 10
222.663665177013
 20
180.3023687054392
 30
0.0
 10
222.3916601050975
 20
180.14532651342
 30
0.0
 10
221.8476048367321
 20
179.8312160767212
 30
0.0
 10
221.0313568437525
 20
179.3599548246963
 30
0.0
 10
220.218100748664
 20
178.8904215091845
 30
0.0
 10
219.6818321738173
 20
178.5808067818051
 30
0.0
 10
219.4136651099578
 20
178.425980494636
 30
0.0
  0
SPLINE
  5
3F07
330
1F
100
AcDbEntity
  8
0
  6
Continuous
 62
     7
370
    15
100
AcDbSpline
210
0.0
220
0.0
230
1.0
 70
     8
 71
     3
 72
    11
 73
     7
 74
     0
 42
0.0000000001
 43
0.0000000001
 40
0.0
 40
0.0
 40
0.0
 40
0.0
 40
0.2477111343692901
 40
0.4953655131363127
 40
0.7477052036928957
 40
1.0
 40
1.0
 40
1.0
 40
1.0
 10
219.4136651099577
 20
178.425980494636
 30
0.0
 10
219.1508527747845
 20
178.5777150884181
 30
0.0
 10
218.625288320029
 20
178.8811495105355
 30
0.0
 10
217.8178238737857
 20
179.3473397900467
 30
0.0
 10
216.996299904796
 20
179.8216464925941
 30
0.0
 10
216.4411935353921
 20
180.1421374718661
 30
0.0
 10
216.1636650429025
 20
180.3023687054393
 30
0.0
  0
SPLINE
  5
3F08
330
1F
100
AcDbEntity
  8
0
  6
Continuous
 62
     7
370
    15
100
AcDbSpline
210
0.0
220
0.0
230
1.0
 70
     8
 71
     3
 72
    11
 73
     7
 74
     0
 42
0.0000000001
 43
0.0000000001
 40
0.0
 40
0.0
 40
0.0
 40
0.0
 40
0.2477112931518365
 40
0.4953655273176868
 40
0.7477052716422373
 40
1.0
 40
1.0
 40
1.0
 40
1.0
 10
212.9136649758474
 20
189.6843104579475
 30
0.0
 10
213.1764773925738
 20
189.8360453547435
 30
0.0
 10
213.7020416885767
 20
190.1394801970046
 30
0.0
 10
214.5095065594061
 20
190.6056698587529
 30
0.0
 10
215.3310299141779
 20
191.0799773168843
 30
0.0
 10
215.8861365061067
 20
191.4004679031469
 30
0.0
 10
216.1636650429026
 20
191.5606989015815
 30
0.0
  0
SPLINE
  5
3F09
330
1F
100
AcDbEntity
  8
0
  6
Continuous
 62
     7
370
    15
100
AcDbSpline
210
0.0
220
0.0
230
1.0
 70
    24
 71
     3
 72
    11
 73
     7
 74
     0
 42
0.0000000001
 43
0.0000000001
 40
0.0
 40
0.0
 40
0.0
 40
0.0
 40
0.2472747629664086
 40
0.4945905547255645
 40
0.7472643955626134
 40
1.0
 40
1.0
 40
1.0
 40
1.0
 10
212.9136649758474
 20
185.9315338035104
 30
0.0
 10
212.9136649758474
 20
186.2456181722236
 30
0.0
 10
212.9136649758474
 20
186.8738390237531
 30
0.0
 10
212.9136649758474
 20
187.8163611183121
 30
0.0
 10
212.9136649758474
 20
188.7554282244316
 30
0.0
 10
212.9136649758474
 20
189.3746578224419
 30
0.0
 10
212.9136649758474
 20
189.6843104579475
 30
0.0
  0
SPLINE
  5
3F0A
330
1F
100
AcDbEntity
  8
0
  6
Continuous
 62
     7
370
    15
100
AcDbSpline
210
0.0
220
0.0
230
1.0
 70
     8
 71
     3
 72
    11
 73
     7
 74
     0
 42
0.0000000001
 43
0.0000000001
 40
0.0
 40
0.0
 40
0.0
 40
0.0
 40
0.2477111343692914
 40
0.4953655131363135
 40
0.747705203692896
 40
1.0
 40
1.0
 40
1.0
 40
1.0
 10
219.4136651099579
 20
193.4370871123847
 30
0.0
 10
219.6764774451311
 20
193.2853525186026
 30
0.0
 10
220.2020418998866
 20
192.9819180964852
 30
0.0
 10
221.0095063461298
 20
192.515727816974
 30
0.0
 10
221.8310303151196
 20
192.0414211144266
 30
0.0
 10
222.3861366845234
 20
191.7209301351545
 30
0.0
 10
222.6636651770131
 20
191.5606989015814
 30
0.0
  0
SPLINE
  5
3F0B
330
1F
100
AcDbEntity
  8
0
  6
Continuous
 62
     7
370
    15
100
AcDbSpline
210
0.0
220
0.0
230
1.0
 70
     8
 71
     3
 72
    11
 73
     7
 74
     0
 42
0.0000000001
 43
0.0000000001
 40
0.0
 40
0.0
 40
0.0
 40
0.0
 40
0.2472747816134059
 40
0.4945905851066926
 40
0.747264402211907
 40
1.0
 40
1.0
 40
1.0
 40
1.0
 10
216.1636650429026
 20
191.5606989015815
 30
0.0
 10
216.4356701148181
 20
191.7177410936006
 30
0.0
 10
216.9797253831835
 20
192.0318515302995
 30
0.0
 10
217.795973376163
 20
192.5031127823244
 30
0.0
 10
218.6092294712516
 20
192.9726460978362
 30
0.0
 10
219.1454980460983
 20
193.2822608252156
 30
0.0
 10
219.4136651099579
 20
193.4370871123847
 30
0.0
  0
SPLINE
  5
3F0C
330
1F
100
AcDbEntity
  8
0
  6
Continuous
 62
     7
370
    15
100
AcDbSpline
210
0.0
220
0.0
230
1.0
 70
    24
 71
     3
 72
    11
 73
     7
 74
     0
 42
0.0000000001
 43
0.0000000001
 40
0.0
 40
0.0
 40
0.0
 40
0.0
 40
0.2472747629664075
 40
0.4945905547255637
 40
0.7472643955626129
 40
1.0
 40
1.0
 40
1.0
 40
1.0
 10
225.9136652440683
 20
185.9315338035103
 30
0.0
 10
225.9136652440683
 20
185.6174494347971
 30
0.0
 10
225.9136652440682
 20
184.9892285832676
 30
0.0
 10
225.9136652440682
 20
184.0467064887086
 30
0.0
 10
225.9136652440682
 20
183.1076393825891
 30
0.0
 10
225.9136652440682
 20
182.4884097845787
 30
0.0
 10
225.9136652440682
 20
182.1787571490731
 30
0.0
  0
SPLINE
  5
3F0D
330
1F
100
AcDbEntity
  8
0
  6
Continuous
 62
     7
370
    15
100
AcDbSpline
210
0.0
220
0.0
230
1.0
 70
     8
 71
     3
 72
    11
 73
     7
 74
     0
 42
0.0000000001
 43
0.0000000001
 40
0.0
 40
0.0
 40
0.0
 40
0.0
 40
0.2477112931518365
 40
0.4953655273176868
 40
0.7477052716422373
 40
1.0
 40
1.0
 40
1.0
 40
1.0
 10
225.9136652440682
 20
182.1787571490731
 30
0.0
 10
225.6508528273418
 20
182.0270222522772
 30
0.0
 10
225.1252885313389
 20
181.7235874100162
 30
0.0
 10
224.3178236605095
 20
181.2573977482678
 30
0.0
 10
223.4963003057377
 20
180.7830902901364
 30
0.0
 10
222.9411937138088
 20
180.4625997038737
 30
0.0
 10
222.663665177013
 20
180.3023687054392
 30
0.0
  0
SPLINE
  5
3F0E
330
1F
100
AcDbEntity
  8
0
  6
Continuous
 62
     7
370
    15
100
AcDbSpline
210
0.0
220
0.0
230
1.0
 70
     8
 71
     3
 72
    11
 73
     7
 74
     0
 42
0.0000000001
 43
0.0000000001
 40
0.0
 40
0.0
 40
0.0
 40
0.0
 40
0.2472747743000747
 40
0.4945905704788169
 40
0.7472643801110199
 40
1.0
 40
1.0
 40
1.0
 40
1.0
 10
222.6636651770131
 20
191.5606989015814
 30
0.0
 10
222.9356702494691
 20
191.4036567105912
 30
0.0
 10
223.479725518916
 20
191.0895462759505
 30
0.0
 10
224.2959735037256
 20
190.6182850083759
 30
0.0
 10
225.1092296624678
 20
190.1487517347495
 30
0.0
 10
225.6454981887868
 20
189.83913683858
 30
0.0
 10
225.9136652440683
 20
189.6843104579475
 30
0.0
  0
SPLINE
  5
3F0F
330
1F
100
AcDbEntity
  8
0
  6
Continuous
 62
     7
370
    15
100
AcDbSpline
210
0.0
220
0.0
230
1.0
 70
    24
 71
     3
 72
    11
 73
     7
 74
     0
 42
0.0000000001
 43
0.0000000001
 40
0.0
 40
0.0
 40
0.0
 40
0.0
 40
0.2477111757548741
 40
0.4953655299187451
 40
0.747705263730026
 40
1.0
 40
1.0
 40
1.0
 40
1.0
 10
225.9136652440683
 20
189.6843104579475
 30
0.0
 10
225.9136652440683
 20
189.3808409533344
 30
0.0
 10
225.9136652440683
 20
188.773971555905
 30
0.0
 10
225.9136652440683
 20
187.8415916480543
 30
0.0
 10
225.9136652440683
 20
186.8929777337791
 30
0.0
 10
225.9136652440683
 20
186.2519960617905
 30
0.0
 10
225.9136652440683
 20
185.9315338035103
 30
0.0
  0
CIRCLE
  5
3F10
330
1F
100
AcDbEntity
  8
0
  6
Continuous
 62
     7
370
    15
100
AcDbCircle
 10
219.4136651099579
 20
185.9315338035104
 30
0.0
 40
2.999999999985902
  0
CIRCLE
  5
3F11
330
1F
100
AcDbEntity
  8
0
  6
Continuous
 62
     7
370
    15
100
AcDbCircle
 10
219.4136651099579
 20
185.9315338035104
 30
0.0
 40
4.0
  0
CIRCLE
  5
3F12
330
1F
100
AcDbEntity
  8
0
  6
Continuous
 62
     7
370
    15
100
AcDbCircle
 10
204.4136651099577
 20
191.9315338035104
 30
0.0
 40
4.049999999992905
  0
CIRCLE
  5
3F13
330
1F
100
AcDbEntity
  8
0
  6
Continuous
 62
     7
370
    15
100
AcDbCircle
 10
204.4136651099576
 20
179.9315338035103
 30
0.0
 40
4.049999999992877
  0
CIRCLE
  5
3F14
330
1F
100
AcDbEntity
  8
0
  6
Continuous
 62
     7
370
    15
100
AcDbCircle
 10
234.4136651099576
 20
179.9315338035102
 30
0.0
 40
4.050000000020162
  0
CIRCLE
  5
3F15
330
1F
100
AcDbEntity
  8
0
  6
Continuous
 62
     7
370
    15
100
AcDbCircle
 10
234.4136651099577
 20
191.9315338035102
 30
0.0
 40
4.05000000002019
  0
CIRCLE
  5
3F16
330
1F
100
AcDbEntity
  8
0
  6
Continuous
 62
     7
370
    15
100
AcDbCircle
 10
206.4136651099577
 20
198.9315338035103
 30
0.0
 40
2.650499999935618
  0
CIRCLE
  5
3F17
330
1F
100
AcDbEntity
  8
0
  6
Continuous
 62
     7
370
    15
100
AcDbCircle
 10
206.4136651099576
 20
172.9315338035103
 30
0.0
 40
2.650499999935618
  0
CIRCLE
  5
3F18
330
1F
100
AcDbEntity
  8
0
  6
Continuous
 62
     7
370
    15
100
AcDbCircle
 10
232.4136651099576
 20
172.9315338035102
 30
0.0
 40
2.650500000038846
  0
CIRCLE
  5
3F19
330
1F
100
AcDbEntity
  8
0
  6
Continuous
 62
     7
370
    15
100
AcDbCircle
 10
232.4136651099577
 20
198.9315338035103
 30
0.0
 40
2.650500000038846
  0
LINE
  5
3F1A
330
1F
100
AcDbEntity
  8
0
  6
Continuous
 62
     7
370
    15
100
AcDbLine
 10
216.7636651878163
 20
204.0315347214218
 30
0.0
 11
216.7636651878163
 21
205.1815336992022
 31
0.0
  0
ARC
  5
3F1B
330
1F
100
AcDbEntity
  8
0
  6
Continuous
 62
     7
370
    15
100
AcDbCircle
 10
216.5636651099577
 20
204.0315338035104
 30
0.0
 40
0.200000000000017
100
AcDbArc
 50
269.9999999999935
 51
0.0
  0
LINE
  5
3F1C
330
1F
100
AcDbEntity
  8
0
  6
Continuous
 62
     7
370
    15
100
AcDbLine
 10
216.3136650209233
 20
203.8315331985232
 30
0.0
 11
216.5636650619015
 21
203.8315331985232
 31
0.0
  0
ARC
  5
3F1D
330
1F
100
AcDbEntity
  8
0
  6
Continuous
 62
     7
370
    15
100
AcDbCircle
 10
216.3136651099577
 20
203.6315338035104
 30
0.0
 40
0.1999999999999886
100
AcDbArc
 50
90.0
 51
179.9999999999992
  0
LINE
  5
3F1E
330
1F
100
AcDbEntity
  8
0
  6
Continuous
 62
     7
370
    15
100
AcDbLine
 10
216.1136651278391
 20
203.6315335382696
 30
0.0
 11
216.1136651278391
 21
200.6315339778539
 31
0.0
  0
ARC
  5
3F1F
330
1F
100
AcDbEntity
  8
0
  6
Continuous
 62
     7
370
    15
100
AcDbCircle
 10
216.3136651099577
 20
200.6315338035103
 30
0.0
 40
0.200000000000017
100
AcDbArc
 50
180.0
 51
270.0
  0
LINE
  5
3F20
330
1F
100
AcDbEntity
  8
0
  6
Continuous
 62
     7
370
    15
100
AcDbLine
 10
216.3136650209233
 20
200.4315333862778
 30
0.0
 11
222.5136651099577
 21
200.4315333862778
 31
0.0
  0
ARC
  5
3F21
330
1F
100
AcDbEntity
  8
0
  6
Continuous
 62
     7
370
    15
100
AcDbCircle
 10
222.5136651099577
 20
200.6315338035103
 30
0.0
 40
0.1999999999999886
100
AcDbArc
 50
270.0
 51
0.0000000000008142
  0
LINE
  5
3F22
330
1F
100
AcDbEntity
  8
0
  6
Continuous
 62
     7
370
    15
100
AcDbLine
 10
222.7136650920763
 20
200.6315339778539
 30
0.0
 11
222.7136650920763
 21
203.6315335382696
 31
0.0
  0
ARC
  5
3F23
330
1F
100
AcDbEntity
  8
0
  6
Continuous
 62
     7
370
    15
100
AcDbCircle
 10
222.5136651099577
 20
203.6315338035103
 30
0.0
 40
0.1999999999999886
100
AcDbArc
 50
0.0
 51
90.0
  0
LINE
  5
3F24
330
1F
100
AcDbEntity
  8
0
  6
Continuous
 62
     7
370
    15
100
AcDbLine
 10
222.263665158014
 20
203.8315331985232
 30
0.0
 11
222.5136651989922
 21
203.8315331985232
 31
0.0
  0
ARC
  5
3F25
330
1F
100
AcDbEntity
  8
0
  6
Continuous
 62
     7
370
    15
100
AcDbCircle
 10
222.2636651099577
 20
204.0315338035103
 30
0.0
 40
0.200000000000017
100
AcDbArc
 50
180.0
 51
270.0
  0
LINE
  5
3F26
330
1F
100
AcDbEntity
  8
0
  6
Continuous
 62
     7
370
    15
100
AcDbLine
 10
222.0636650320992
 20
205.1815336992022
 30
0.0
 11
222.0636650320992
 21
204.0315347214218
 31
0.0
  0
ARC
  5
3F27
330
1F
100
AcDbEntity
  8
0
  6
Continuous
 62
     7
370
    15
100
AcDbCircle
 10
222.5636651099577
 20
205.1815338035103
 30
0.0
 40
0.5
100
AcDbArc
 50
89.99999999999674
 51
179.9999999999992
  0
LINE
  5
3F28
330
1F
100
AcDbEntity
  8
0
  6
Continuous
 62
     7
370
    15
100
AcDbLine
 10
222.5636651140555
 20
205.6815347124811
 30
0.0
 11
232.1636648715391
 21
205.6815347124811
 31
0.0
  0
ARC
  5
3F29
330
1F
100
AcDbEntity
  8
0
  6
Continuous
 62
     7
370
    15
100
AcDbCircle
 10
232.1636651099577
 20
198.6815338035102
 30
0.0
 40
7.0
100
AcDbArc
 50
0.0
 51
90.0
  0
LINE
  5
3F2A
330
1F
100
AcDbEntity
  8
0
  6
Continuous
 62
     7
370
    15
100
AcDbLine
 10
239.1636660189286
 20
198.6815335650916
 30
0.0
 11
239.1636660189284
 21
173.1815340419288
 31
0.0
  0
ARC
  5
3F2B
330
1F
100
AcDbEntity
  8
0
  6
Continuous
 62
     7
370
    15
100
AcDbCircle
 10
232.1636651099576
 20
173.1815338035102
 30
0.0
 40
7.0
100
AcDbArc
 50
270.0
 51
0.0
  0
LINE
  5
3F2C
330
1F
100
AcDbEntity
  8
0
  6
Continuous
 62
     7
370
    15
100
AcDbLine
 10
232.163664871539
 20
166.1815328945394
 30
0.0
 11
222.5636651140554
 21
166.1815328945394
 31
0.0
  0
ARC
  5
3F2D
330
1F
100
AcDbEntity
  8
0
  6
Continuous
 62
     7
370
    15
100
AcDbCircle
 10
222.5636651099576
 20
166.6815338035103
 30
0.0
 40
0.5000000000000142
100
AcDbArc
 50
179.9999999999992
 51
270.0
  0
LINE
  5
3F2E
330
1F
100
AcDbEntity
  8
0
  6
Continuous
 62
     7
370
    15
100
AcDbLine
 10
222.063665032099
 20
167.8315328855987
 30
0.0
 11
222.063665032099
 21
166.6815339078184
 31
0.0
  0
ARC
  5
3F2F
330
1F
100
AcDbEntity
  8
0
  6
Continuous
 62
     7
370
    15
100
AcDbCircle
 10
222.2636651099576
 20
167.8315338035103
 30
0.0
 40
0.200000000000017
100
AcDbArc
 50
90.0
 51
180.0
  0
LINE
  5
3F30
330
1F
100
AcDbEntity
  8
0
  6
Continuous
 62
     7
370
    15
100
AcDbLine
 10
222.513665198992
 20
168.0315344084974
 30
0.0
 11
222.2636651580138
 21
168.0315344084974
 31
0.0
  0
ARC
  5
3F31
330
1F
100
AcDbEntity
  8
0
  6
Continuous
 62
     7
370
    15
100
AcDbCircle
 10
222.5136651099576
 20
168.2315338035103
 30
0.0
 40
0.1999999999999886
100
AcDbArc
 50
270.0
 51
0.0000000000008142
  0
LINE
  5
3F32
330
1F
100
AcDbEntity
  8
0
  6
Continuous
 62
     7
370
    15
100
AcDbLine
 10
222.7136650920762
 20
168.2315340687509
 30
0.0
 11
222.7136650920762
 21
171.2315336291667
 31
0.0
  0
ARC
  5
3F33
330
1F
100
AcDbEntity
  8
0
  6
Continuous
 62
     7
370
    15
100
AcDbCircle
 10
222.5136651099576
 20
171.2315338035103
 30
0.0
 40
0.2000000000000028
100
AcDbArc
 50
0.0
 51
90.0
  0
LINE
  5
3F34
330
1F
100
AcDbEntity
  8
0
  6
Continuous
 62
     7
370
    15
100
AcDbLine
 10
222.513665198992
 20
171.4315342207428
 30
0.0
 11
216.3136650209231
 21
171.4315342207428
 31
0.0
  0
ARC
  5
3F35
330
1F
100
AcDbEntity
  8
0
  6
Continuous
 62
     7
370
    15
100
AcDbCircle
 10
216.3136651099577
 20
171.2315338035103
 30
0.0
 40
0.200000000000017
100
AcDbArc
 50
90.0
 51
179.9999999999992
  0
LINE
  5
3F36
330
1F
100
AcDbEntity
  8
0
  6
Continuous
 62
     7
370
    15
100
AcDbLine
 10
216.113665127839
 20
171.2315336291667
 30
0.0
 11
216.113665127839
 21
168.231534068751
 31
0.0
  0
ARC
  5
3F37
330
1F
100
AcDbEntity
  8
0
  6
Continuous
 62
     7
370
    15
100
AcDbCircle
 10
216.3136651099576
 20
168.2315338035103
 30
0.0
 40
0.200000000000017
100
AcDbArc
 50
180.0
 51
270.0
  0
LINE
  5
3F38
330
1F
100
AcDbEntity
  8
0
  6
Continuous
 62
     7
370
    15
100
AcDbLine
 10
216.5636650619013
 20
168.0315344084974
 30
0.0
 11
216.3136650209231
 21
168.0315344084974
 31
0.0
  0
ARC
  5
3F39
330
1F
100
AcDbEntity
  8
0
  6
Continuous
 62
     7
370
    15
100
AcDbCircle
 10
216.5636651099576
 20
167.8315338035103
 30
0.0
 40
0.200000000000017
100
AcDbArc
 50
0.0
 51
90.0
  0
LINE
  5
3F3A
330
1F
100
AcDbEntity
  8
0
  6
Continuous
 62
     7
370
    15
100
AcDbLine
 10
216.7636651878162
 20
166.6815339078184
 30
0.0
 11
216.7636651878162
 21
167.8315328855988
 31
0.0
  0
ARC
  5
3F3B
330
1F
100
AcDbEntity
  8
0
  6
Continuous
 62
     7
370
    15
100
AcDbCircle
 10
216.2636651099576
 20
166.6815338035103
 30
0.0
 40
0.5
100
AcDbArc
 50
270.0
 51
0.0
  0
LINE
  5
3F3C
330
1F
100
AcDbEntity
  8
0
  6
Continuous
 62
     7
370
    15
100
AcDbLine
 10
216.2636651058598
 20
166.1815328945395
 30
0.0
 11
206.6636653483762
 21
166.1815328945395
 31
0.0
  0
ARC
  5
3F3D
330
1F
100
AcDbEntity
  8
0
  6
Continuous
 62
     7
370
    15
100
AcDbCircle
 10
206.6636651099576
 20
173.1815338035103
 30
0.0
 40
7.0
100
AcDbArc
 50
179.9999999999992
 51
270.0
  0
LINE
  5
3F3E
330
1F
100
AcDbEntity
  8
0
  6
Continuous
 62
     7
370
    15
100
AcDbLine
 10
199.6636642009868
 20
173.1815340419289
 30
0.0
 11
199.6636642009869
 21
198.6815335650918
 31
0.0
  0
ARC
  5
3F3F
330
1F
100
AcDbEntity
  8
0
  6
Continuous
 62
     7
370
    15
100
AcDbCircle
 10
206.6636651099577
 20
198.6815338035103
 30
0.0
 40
7.0
100
AcDbArc
 50
90.0
 51
179.9999999999992
  0
LINE
  5
3F40
330
1F
100
AcDbEntity
  8
0
  6
Continuous
 62
     7
370
    15
100
AcDbLine
 10
206.6636653483763
 20
205.6815347124812
 30
0.0
 11
216.2636651058599
 21
205.6815347124811
 31
0.0
  0
ARC
  5
3F41
330
1F
100
AcDbEntity
  8
0
  6
Continuous
 62
     7
370
    15
100
AcDbCircle
 10
216.2636651099577
 20
205.1815338035103
 30
0.0
 40
0.5
100
AcDbArc
 50
0.0
 51
89.99999999999674
  0
CIRCLE
  5
3F42
330
1F
100
AcDbEntity
  8
0
  6
Continuous
 62
     7
370
    15
100
AcDbCircle
 10
206.4136651099576
 20
172.9315338035103
 30
0.0
 40
2.150499999947442
  0
CIRCLE
  5
3F43
330
1F
100
AcDbEntity
  8
0
  6
Continuous
 62
     7
370
    15
100
AcDbCircle
 10
206.4136651099577
 20
198.9315338035103
 30
0.0
 40
2.150499999947442
  0
CIRCLE
  5
3F44
330
1F
100
AcDbEntity
  8
0
  6
Continuous
 62
     7
370
    15
100
AcDbCircle
 10
232.4136651099576
 20
172.9315338035102
 30
0.0
 40
2.150499999936982
  0
CIRCLE
  5
3F45
330
1F
100
AcDbEntity
  8
0
  6
Continuous
 62
     7
370
    15
100
AcDbCircle
 10
232.4136651099577
 20
198.9315338035103
 30
0.0
 40
2.150499999936982
  0
LINE
  5
3F46
330
1F
100
AcDbEntity
  8
0
  6
Continuous
 62
     7
370
    15
100
AcDbLine
 10
222.0636650320989
 20
203.831533198523
 30
0.0
 11
222.2341482859952
 21
203.831533198523
 31
0.0
  0
LINE
  5
3F47
330
1F
100
AcDbEntity
  8
0
  6
Continuous
 62
     7
370
    15
100
AcDbLine
 10
222.0636650320989
 20
204.0020173837418
 30
0.0
 11
222.0636650320989
 21
203.831533198523
 31
0.0
  0
LINE
  5
3F48
330
1F
100
AcDbEntity
  8
0
  6
Continuous
 62
     7
370
    15
100
AcDbLine
 10
222.0636650320988
 20
168.0315344084973
 30
0.0
 11
222.0636650320988
 21
167.8610502232785
 31
0.0
  0
LINE
  5
3F49
330
1F
100
AcDbEntity
  8
0
  6
Continuous
 62
     7
370
    15
100
AcDbLine
 10
222.234148285995
 20
168.0315344084973
 30
0.0
 11
222.0636650320988
 21
168.0315344084973
 31
0.0
  0
LINE
  5
3F4A
330
1F
100
AcDbEntity
  8
0
  6
Continuous
 62
     7
370
    15
100
AcDbLine
 10
216.7636651878159
 20
168.0315344084973
 30
0.0
 11
216.5931819339197
 21
168.0315344084973
 31
0.0
  0
LINE
  5
3F4B
330
1F
100
AcDbEntity
  8
0
  6
Continuous
 62
     7
370
    15
100
AcDbLine
 10
216.7636651878159
 20
167.8610502232785
 30
0.0
 11
216.7636651878159
 21
168.0315344084973
 31
0.0
  0
LINE
  5
3F4C
330
1F
100
AcDbEntity
  8
0
  6
Continuous
 62
     7
370
    15
100
AcDbLine
 10
216.7636651878161
 20
203.8315331985231
 30
0.0
 11
216.7636651878161
 21
204.0020173837419
 31
0.0
  0
LINE
  5
3F4D
330
1F
100
AcDbEntity
  8
0
  6
Continuous
 62
     7
370
    15
100
AcDbLine
 10
216.5931819339198
 20
203.8315331985231
 30
0.0
 11
216.7636651878161
 21
203.8315331985231
 31
0.0
  0
LINE
  5
3F4E
330
1F
100
AcDbEntity
  8
0
  6
Continuous
 62
     7
370
    15
100
AcDbLine
 10
235.9136650205508
 20
192.797559076267
 30
0.0
 11
234.4136647746816
 21
193.6635847625311
 31
0.0
  0
LINE
  5
3F4F
330
1F
100
AcDbEntity
  8
0
  6
Continuous
 62
     7
370
    15
100
AcDbLine
 10
232.913665460135
 20
192.797559076267
 30
0.0
 11
234.4136647746816
 21
193.6635847625311
 31
0.0
  0
LINE
  5
3F50
330
1F
100
AcDbEntity
  8
0
  6
Continuous
 62
     7
370
    15
100
AcDbLine
 10
232.913665460135
 20
191.0655081694003
 30
0.0
 11
232.913665460135
 21
192.797559076267
 31
0.0
  0
LINE
  5
3F51
330
1F
100
AcDbEntity
  8
0
  6
Continuous
 62
     7
370
    15
100
AcDbLine
 10
234.4136647746816
 20
190.1994829487975
 30
0.0
 11
232.913665460135
 21
191.0655081694003
 31
0.0
  0
LINE
  5
3F52
330
1F
100
AcDbEntity
  8
0
  6
Continuous
 62
     7
370
    15
100
AcDbLine
 10
235.9136650205508
 20
191.0655081694002
 30
0.0
 11
234.4136647746816
 21
190.1994829487975
 31
0.0
  0
LINE
  5
3F53
330
1F
100
AcDbEntity
  8
0
  6
Continuous
 62
     7
370
    15
100
AcDbLine
 10
235.9136650205508
 20
192.797559076267
 30
0.0
 11
235.9136650205508
 21
191.0655081694002
 31
0.0
  0
CIRCLE
  5
3F54
330
1F
100
AcDbEntity
  8
0
  6
Continuous
 62
     7
370
    15
100
AcDbCircle
 10
234.4136651099577
 20
191.9315338035102
 30
0.0
 40
3.5
  0
LINE
  5
3F55
330
1F
100
AcDbEntity
  8
0
  6
Continuous
 62
     7
370
    15
100
AcDbLine
 10
235.9136650205507
 20
180.7975594376202
 30
0.0
 11
234.4136647746815
 21
181.6635846582229
 31
0.0
  0
LINE
  5
3F56
330
1F
100
AcDbEntity
  8
0
  6
Continuous
 62
     7
370
    15
100
AcDbLine
 10
232.913665460135
 20
180.7975594376202
 30
0.0
 11
234.4136647746815
 21
181.6635846582229
 31
0.0
  0
LINE
  5
3F57
330
1F
100
AcDbEntity
  8
0
  6
Continuous
 62
     7
370
    15
100
AcDbLine
 10
232.913665460135
 20
179.0655085307534
 30
0.0
 11
232.913665460135
 21
180.7975594376202
 31
0.0
  0
LINE
  5
3F58
330
1F
100
AcDbEntity
  8
0
  6
Continuous
 62
     7
370
    15
100
AcDbLine
 10
234.4136647746815
 20
178.1994828444894
 30
0.0
 11
232.913665460135
 21
179.0655085307534
 31
0.0
  0
LINE
  5
3F59
330
1F
100
AcDbEntity
  8
0
  6
Continuous
 62
     7
370
    15
100
AcDbLine
 10
235.9136650205507
 20
179.0655085307534
 30
0.0
 11
234.4136647746815
 21
178.1994828444894
 31
0.0
  0
LINE
  5
3F5A
330
1F
100
AcDbEntity
  8
0
  6
Continuous
 62
     7
370
    15
100
AcDbLine
 10
235.9136650205507
 20
180.7975594376202
 30
0.0
 11
235.9136650205507
 21
179.0655085307534
 31
0.0
  0
CIRCLE
  5
3F5B
330
1F
100
AcDbEntity
  8
0
  6
Continuous
 62
     7
370
    15
100
AcDbCircle
 10
234.4136651099576
 20
179.9315338035102
 30
0.0
 40
3.5
  0
LINE
  5
3F5C
330
1F
100
AcDbEntity
  8
0
  6
Continuous
 62
     7
370
    15
100
AcDbLine
 10
205.9136647597804
 20
192.7975590762671
 30
0.0
 11
204.4136654452338
 21
193.6635847625312
 31
0.0
  0
LINE
  5
3F5D
330
1F
100
AcDbEntity
  8
0
  6
Continuous
 62
     7
370
    15
100
AcDbLine
 10
202.9136651993647
 20
192.7975590762671
 30
0.0
 11
204.4136654452338
 21
193.6635847625312
 31
0.0
  0
LINE
  5
3F5E
330
1F
100
AcDbEntity
  8
0
  6
Continuous
 62
     7
370
    15
100
AcDbLine
 10
202.9136651993647
 20
191.0655081694003
 30
0.0
 11
202.9136651993647
 21
192.7975590762671
 31
0.0
  0
LINE
  5
3F5F
330
1F
100
AcDbEntity
  8
0
  6
Continuous
 62
     7
370
    15
100
AcDbLine
 10
204.4136654452338
 20
190.1994829487976
 30
0.0
 11
202.9136651993647
 21
191.0655081694003
 31
0.0
  0
LINE
  5
3F60
330
1F
100
AcDbEntity
  8
0
  6
Continuous
 62
     7
370
    15
100
AcDbLine
 10
205.9136647597804
 20
191.0655081694003
 30
0.0
 11
204.4136654452338
 21
190.1994829487976
 31
0.0
  0
LINE
  5
3F61
330
1F
100
AcDbEntity
  8
0
  6
Continuous
 62
     7
370
    15
100
AcDbLine
 10
205.9136647597804
 20
192.7975590762671
 30
0.0
 11
205.9136647597804
 21
191.0655081694003
 31
0.0
  0
CIRCLE
  5
3F62
330
1F
100
AcDbEntity
  8
0
  6
Continuous
 62
     7
370
    15
100
AcDbCircle
 10
204.4136651099577
 20
191.9315338035104
 30
0.0
 40
3.5
  0
LINE
  5
3F63
330
1F
100
AcDbEntity
  8
0
  6
Continuous
 62
     7
370
    15
100
AcDbLine
 10
205.9136647597804
 20
180.7975594376203
 30
0.0
 11
204.4136654452338
 21
181.663584658223
 31
0.0
  0
LINE
  5
3F64
330
1F
100
AcDbEntity
  8
0
  6
Continuous
 62
     7
370
    15
100
AcDbLine
 10
202.9136651993646
 20
180.7975594376203
 30
0.0
 11
204.4136654452338
 21
181.663584658223
 31
0.0
  0
LINE
  5
3F65
330
1F
100
AcDbEntity
  8
0
  6
Continuous
 62
     7
370
    15
100
AcDbLine
 10
202.9136651993646
 20
179.0655085307535
 30
0.0
 11
202.9136651993646
 21
180.7975594376203
 31
0.0
  0
LINE
  5
3F66
330
1F
100
AcDbEntity
  8
0
  6
Continuous
 62
     7
370
    15
100
AcDbLine
 10
204.4136654452338
 20
178.1994828444895
 30
0.0
 11
202.9136651993646
 21
179.0655085307535
 31
0.0
  0
LINE
  5
3F67
330
1F
100
AcDbEntity
  8
0
  6
Continuous
 62
     7
370
    15
100
AcDbLine
 10
205.9136647597804
 20
179.0655085307535
 30
0.0
 11
204.4136654452338
 21
178.1994828444895
 31
0.0
  0
LINE
  5
3F68
330
1F
100
AcDbEntity
  8
0
  6
Continuous
 62
     7
370
    15
100
AcDbLine
 10
205.9136647597804
 20
180.7975594376203
 30
0.0
 11
205.9136647597804
 21
179.0655085307535
 31
0.0
  0
CIRCLE
  5
3F69
330
1F
100
AcDbEntity
  8
0
  6
Continuous
 62
     7
370
    15
100
AcDbCircle
 10
204.4136651099576
 20
179.9315338035103
 30
0.0
 40
3.500000000000028
  0
SPLINE
  5
3F6A
330
1F
100
AcDbEntity
  8
0
  6
Continuous
 62
     7
370
    15
100
AcDbSpline
210
0.0
220
0.0
230
1.0
 70
    24
 71
     1
 72
     4
 73
     2
 74
     0
 42
0.0000000001
 43
0.0000000001
 40
0.0
 40
0.0
 40
1.0
 40
1.0
 10
106.0974929756941
 20
71.45286446000722
 30
0.0
 10
107.0974930231916
 20
71.45286446000722
 30
0.0
  0
SPLINE
  5
3F6B
330
1F
100
AcDbEntity
  8
0
  6
Continuous
 62
     7
370
    15
100
AcDbSpline
210
0.0
220
0.0
230
1.0
 70
    24
 71
     1
 72
     4
 73
     2
 74
     0
 42
0.0000000001
 43
0.0000000001
 40
0.0
 40
0.0
 40
1.0
 40
1.0
 10
107.0974930231916
 20
81.45286423648981
 30
0.0
 10
106.0974929756941
 20
81.45286423648981
 30
0.0
  0
LINE
  5
3F6C
330
1F
100
AcDbEntity
  8
0
  6
Continuous
 62
     7
370
    15
100
AcDbLine
 10
118.0974929635871
 20
96.2028652572193
 30
0.0
 11
107.0974930231917
 21
96.2028652572193
 31
0.0
  0
LINE
  5
3F6D
330
1F
100
AcDbEntity
  8
0
  6
Continuous
 62
     7
370
    15
100
AcDbLine
 10
118.0974929635871
 20
89.20286410982985
 30
0.0
 11
118.0974929635871
 21
96.2028652572193
 31
0.0
  0
LINE
  5
3F6E
330
1F
100
AcDbEntity
  8
0
  6
Continuous
 62
     7
370
    15
100
AcDbLine
 10
107.0974930231917
 20
89.20286410982987
 30
0.0
 11
118.0974929635871
 21
89.20286410982985
 31
0.0
  0
LINE
  5
3F6F
330
1F
100
AcDbEntity
  8
0
  6
Continuous
 62
     7
370
    15
100
AcDbLine
 10
107.0974930231917
 20
96.2028652572193
 30
0.0
 11
107.0974930231917
 21
89.20286410982987
 31
0.0
  0
CIRCLE
  5
3F70
330
1F
100
AcDbEntity
  8
0
  6
Continuous
 62
     7
370
    15
100
AcDbCircle
 10
114.0974930231916
 20
76.45286434824843
 30
0.0
 40
2.650500000015654
  0
LINE
  5
3F71
330
1F
100
AcDbEntity
  8
0
  6
Continuous
 62
     7
370
    15
100
AcDbLine
 10
118.0974929635871
 20
89.20286410982985
 30
0.0
 11
118.097492963587
 21
63.70286458666701
 31
0.0
  0
LINE
  5
3F72
330
1F
100
AcDbEntity
  8
0
  6
Continuous
 62
     7
370
    15
100
AcDbLine
 10
118.097492963587
 20
63.70286458666701
 30
0.0
 11
107.0974930231916
 21
63.70286458666703
 31
0.0
  0
LINE
  5
3F73
330
1F
100
AcDbEntity
  8
0
  6
Continuous
 62
     7
370
    15
100
AcDbLine
 10
107.0974930231917
 20
89.20286410982987
 30
0.0
 11
107.0974930231916
 21
63.70286458666703
 31
0.0
  0
LINE
  5
3F74
330
1F
100
AcDbEntity
  8
0
  6
Continuous
 62
     7
370
    15
100
AcDbLine
 10
107.0974930231915
 20
56.70286343927767
 30
0.0
 11
118.0974929635869
 21
56.70286343927762
 31
0.0
  0
LINE
  5
3F75
330
1F
100
AcDbEntity
  8
0
  6
Continuous
 62
     7
370
    15
100
AcDbLine
 10
118.0974929635869
 20
56.70286343927762
 30
0.0
 11
118.097492963587
 21
63.70286458666701
 31
0.0
  0
LINE
  5
3F76
330
1F
100
AcDbEntity
  8
0
  6
Continuous
 62
     7
370
    15
100
AcDbLine
 10
107.0974930231916
 20
63.70286458666703
 30
0.0
 11
107.0974930231915
 21
56.70286343927767
 31
0.0
  0
CIRCLE
  5
3F77
330
1F
100
AcDbEntity
  8
0
  6
Continuous
 62
     7
370
    15
100
AcDbCircle
 10
114.0974930231916
 20
76.45286434824843
 30
0.0
 40
2.150500000027477
  0
LINE
  5
3F78
330
1F
100
AcDbEntity
  8
0
  6
Continuous
 62
     7
370
    15
100
AcDbLine
 10
107.0974930231916
 20
90.65286444063572
 30
0.0
 11
107.0974930231916
 21
90.952863931016
 31
0.0
  0
LINE
  5
3F79
330
1F
100
AcDbEntity
  8
0
  6
Continuous
 62
     7
370
    15
100
AcDbLine
 10
118.097492963587
 20
95.9528647505798
 30
0.0
 11
118.097492963587
 21
96.2028652572193
 31
0.0
  0
LINE
  5
3F7A
330
1F
100
AcDbEntity
  8
0
  6
Continuous
 62
     7
370
    15
100
AcDbLine
 10
107.0974930231916
 20
96.2028652572194
 30
0.0
 11
107.0974930231916
 21
95.70286424394044
 31
0.0
  0
LINE
  5
3F7B
330
1F
100
AcDbEntity
  8
0
  6
Continuous
 62
     7
370
    15
100
AcDbLine
 10
107.0974930231916
 20
94.5528652661601
 30
0.0
 11
107.0974930231916
 21
95.70286424394044
 31
0.0
  0
LINE
  5
3F7C
330
1F
100
AcDbEntity
  8
0
  6
Continuous
 62
     7
370
    15
100
AcDbLine
 10
107.0974930231916
 20
94.5528652661601
 30
0.0
 11
107.0974930231916
 21
94.35286374326143
 31
0.0
  0
LINE
  5
3F7D
330
1F
100
AcDbEntity
  8
0
  6
Continuous
 62
     7
370
    15
100
AcDbLine
 10
107.0974930231915
 20
58.55286495323568
 30
0.0
 11
107.0974930231915
 21
58.352863430337
 31
0.0
  0
LINE
  5
3F7E
330
1F
100
AcDbEntity
  8
0
  6
Continuous
 62
     7
370
    15
100
AcDbLine
 10
107.0974930231915
 20
57.20286445255666
 30
0.0
 11
107.0974930231915
 21
58.352863430337
 31
0.0
  0
LINE
  5
3F7F
330
1F
100
AcDbEntity
  8
0
  6
Continuous
 62
     7
370
    15
100
AcDbLine
 10
118.0974929635869
 20
56.95286394591716
 30
0.0
 11
118.0974929635869
 21
56.70286343927767
 31
0.0
  0
LINE
  5
3F80
330
1F
100
AcDbEntity
  8
0
  6
Continuous
 62
     7
370
    15
100
AcDbLine
 10
107.0974930231915
 20
57.20286445255666
 30
0.0
 11
107.0974930231915
 21
56.7028634392777
 31
0.0
  0
LINE
  5
3F81
330
1F
100
AcDbEntity
  8
0
  6
Continuous
 62
     7
370
    15
100
AcDbLine
 10
107.0974930231916
 20
94.15286408300787
 30
0.0
 11
107.0974930231916
 21
91.15286452259212
 31
0.0
  0
LINE
  5
3F82
330
1F
100
AcDbEntity
  8
0
  6
Continuous
 62
     7
370
    15
100
AcDbLine
 10
107.0974930231915
 20
61.75286417390495
 30
0.0
 11
107.0974930231915
 21
58.7528646134892
 31
0.0
  0
LINE
  5
3F83
330
1F
100
AcDbEntity
  8
0
  6
Continuous
 62
     7
370
    15
100
AcDbLine
 10
101.9635186573016
 20
80.45286453823834
 30
0.0
 11
101.9635186573016
 21
72.45286415825873
 31
0.0
  0
LINE
  5
3F84
330
1F
100
AcDbEntity
  8
0
  6
Continuous
 62
     7
370
    15
100
AcDbLine
 10
105.0974929281967
 20
80.45286453823832
 30
0.0
 11
101.9635186573016
 21
80.45286453823834
 31
0.0
  0
LWPOLYLINE
  5
3F85
330
1F
100
AcDbEntity
  8
0
  6
Continuous
 62
     7
370
    15
100
AcDbPolyline
 90
        9
 70
   128
 43
0.0
 10
106.0974929756941
 20
81.45286423648981
 10
106.0928927078368
 20
81.44826396863249
 10
106.056140739982
 20
81.41151211719302
 10
105.9829073534804
 20
81.3382784978607
 10
105.8737312020259
 20
81.22910234640626
 10
105.7294155513393
 20
81.08478692855028
 10
105.5510221091556
 20
80.90639348636655
 10
105.3398634582283
 20
80.69523471902398
 10
105.0974929281967
 20
80.45286453823832
  0
LWPOLYLINE
  5
3F86
330
1F
100
AcDbEntity
  8
0
  6
Continuous
 62
     7
370
    15
100
AcDbPolyline
 90
        9
 70
   128
 43
0.0
 10
105.0974929281967
 20
72.4528641582587
 10
105.3398634582283
 20
72.21049397747305
 10
105.5510221091556
 20
71.99933521013048
 10
105.7294155513393
 20
71.82094176794675
 10
105.8737312020259
 20
71.67662635009077
 10
105.9829073534804
 20
71.56745019863632
 10
106.056140739982
 20
71.49421657930401
 10
106.0928927078368
 20
71.45746472786453
 10
106.0974929756941
 20
71.45286446000722
  0
LINE
  5
3F87
330
1F
100
AcDbEntity
  8
0
  6
Continuous
 62
     7
370
    15
100
AcDbLine
 10
101.9635186573016
 20
72.45286415825873
 30
0.0
 11
105.0974929281967
 21
72.4528641582587
 31
0.0
  0
LINE
  5
3F88
330
1F
100
AcDbEntity
  8
0
  6
Continuous
 62
     7
370
    15
100
AcDbLine
 10
101.0974929710375
 20
80.45286453823834
 30
0.0
 11
101.0974929710375
 21
72.45286415825873
 31
0.0
  0
SPLINE
  5
3F89
330
1F
100
AcDbEntity
  8
0
  6
Continuous
 62
     7
370
    15
100
AcDbSpline
210
0.0
220
0.0
230
1.0
 70
    24
 71
     3
 72
     9
 73
     5
 74
     0
 42
0.0000000001
 43
0.0000000001
 40
0.0
 40
0.0
 40
0.0
 40
0.0
 40
0.499019077836997
 40
1.0
 40
1.0
 40
1.0
 40
1.0
 10
101.9635186573016
 20
80.45286453823834
 30
0.0
 10
101.8117200722076
 20
80.45286453823834
 30
0.0
 10
101.5075261208421
 20
80.45286453823834
 30
0.0
 10
101.234349331084
 20
80.45286453823834
 30
0.0
 10
101.0974929710375
 20
80.45286453823834
 30
0.0
  0
SPLINE
  5
3F8A
330
1F
100
AcDbEntity
  8
0
  6
Continuous
 62
     7
370
    15
100
AcDbSpline
210
0.0
220
0.0
230
1.0
 70
    24
 71
     3
 72
     9
 73
     5
 74
     0
 42
0.0000000001
 43
0.0000000001
 40
0.0
 40
0.0
 40
0.0
 40
0.0
 40
0.4987668164956883
 40
1.0
 40
1.0
 40
1.0
 40
1.0
 10
101.0974929710375
 20
72.45286415825873
 30
0.0
 10
101.2337281121354
 20
72.45286415825873
 30
0.0
 10
101.5068720675715
 20
72.45286415825873
 30
0.0
 10
101.8110530534088
 20
72.45286415825873
 30
0.0
 10
101.9635186573016
 20
72.45286415825873
 30
0.0
  0
LINE
  5
3F8B
330
1F
100
AcDbEntity
  8
0
  6
Continuous
 62
     7
370
    15
100
AcDbLine
 10
140.0974928443777
 20
95.95286475057969
 30
0.0
 11
118.0974929635871
 21
95.9528647505798
 31
0.0
  0
LINE
  5
3F8C
330
1F
100
AcDbEntity
  8
0
  6
Continuous
 62
     7
370
    15
100
AcDbLine
 10
118.0974929635871
 20
88.95286453451294
 30
0.0
 11
140.0974928443777
 21
88.95286453451289
 31
0.0
  0
LINE
  5
3F8D
330
1F
100
AcDbEntity
  8
0
  6
Continuous
 62
     7
370
    15
100
AcDbLine
 10
140.0974928443777
 20
81.78205463598741
 30
0.0
 11
118.097492963587
 21
81.78205463598747
 31
0.0
  0
LINE
  5
3F8E
330
1F
100
AcDbEntity
  8
0
  6
Continuous
 62
     7
370
    15
100
AcDbLine
 10
118.097492963587
 20
80.85817472572703
 30
0.0
 11
140.0974928443777
 21
80.85817472572697
 31
0.0
  0
LINE
  5
3F8F
330
1F
100
AcDbEntity
  8
0
  6
Continuous
 62
     7
370
    15
100
AcDbLine
 10
140.0974928443777
 20
72.04755397076977
 30
0.0
 11
118.097492963587
 21
72.04755397076983
 31
0.0
  0
LINE
  5
3F90
330
1F
100
AcDbEntity
  8
0
  6
Continuous
 62
     7
370
    15
100
AcDbLine
 10
118.097492963587
 20
71.12367406050942
 30
0.0
 11
140.0974928443777
 21
71.1236740605093
 31
0.0
  0
LINE
  5
3F91
330
1F
100
AcDbEntity
  8
0
  6
Continuous
 62
     7
370
    15
100
AcDbLine
 10
140.0974928443777
 20
63.95286416198382
 30
0.0
 11
118.097492963587
 21
63.95286416198391
 31
0.0
  0
LINE
  5
3F92
330
1F
100
AcDbEntity
  8
0
  6
Continuous
 62
     7
370
    15
100
AcDbLine
 10
118.0974929635869
 20
56.9528639459171
 30
0.0
 11
140.0974928443776
 21
56.95286394591704
 31
0.0
  0
LINE
  5
3F93
330
1F
100
AcDbEntity
  8
0
  6
Continuous
 62
     7
370
    15
100
AcDbLine
 10
140.0974928443777
 20
79.10412295284939
 30
0.0
 11
118.097492963587
 21
79.10412295284945
 31
0.0
  0
LINE
  5
3F94
330
1F
100
AcDbEntity
  8
0
  6
Continuous
 62
     7
370
    15
100
AcDbLine
 10
118.097492963587
 20
73.8016057436474
 30
0.0
 11
140.0974928443777
 21
73.80160574364734
 31
0.0
  0
LINE
  5
3F95
330
1F
100
AcDbEntity
  8
0
  6
Continuous
 62
     7
370
    15
100
AcDbLine
 10
140.0974928443777
 20
78.56920595775616
 30
0.0
 11
118.097492963587
 21
78.56920595775623
 31
0.0
  0
LINE
  5
3F96
330
1F
100
AcDbEntity
  8
0
  6
Continuous
 62
     7
370
    15
100
AcDbLine
 10
118.097492963587
 20
74.33652273874063
 30
0.0
 11
140.0974928443777
 21
74.33652273874057
 31
0.0
  0
LINE
  5
3F97
330
1F
100
AcDbEntity
  8
0
  6
Continuous
 62
     7
370
    15
100
AcDbLine
 10
140.0974928443777
 20
89.2028641098298
 30
0.0
 11
151.0974927847731
 21
89.20286410982976
 31
0.0
  0
LINE
  5
3F98
330
1F
100
AcDbEntity
  8
0
  6
Continuous
 62
     7
370
    15
100
AcDbLine
 10
151.0974927847731
 20
96.20286525721917
 30
0.0
 11
140.0974928443777
 21
96.20286525721917
 31
0.0
  0
LINE
  5
3F99
330
1F
100
AcDbEntity
  8
0
  6
Continuous
 62
     7
370
    15
100
AcDbLine
 10
151.0974927847731
 20
89.20286410982976
 30
0.0
 11
151.0974927847731
 21
96.20286525721917
 31
0.0
  0
LINE
  5
3F9A
330
1F
100
AcDbEntity
  8
0
  6
Continuous
 62
     7
370
    15
100
AcDbLine
 10
140.0974928443777
 20
96.20286525721917
 30
0.0
 11
140.0974928443777
 21
89.2028641098298
 31
0.0
  0
CIRCLE
  5
3F9B
330
1F
100
AcDbEntity
  8
0
  6
Continuous
 62
     7
370
    15
100
AcDbCircle
 10
144.0974930231917
 20
76.45286434824837
 30
0.0
 40
2.650500000015625
  0
LINE
  5
3F9C
330
1F
100
AcDbEntity
  8
0
  6
Continuous
 62
     7
370
    15
100
AcDbLine
 10
151.097492784773
 20
63.70286458666689
 30
0.0
 11
151.0974927847731
 21
89.20286410982976
 31
0.0
  0
LINE
  5
3F9D
330
1F
100
AcDbEntity
  8
0
  6
Continuous
 62
     7
370
    15
100
AcDbLine
 10
151.097492784773
 20
63.70286458666689
 30
0.0
 11
140.0974928443777
 21
63.70286458666692
 31
0.0
  0
LINE
  5
3F9E
330
1F
100
AcDbEntity
  8
0
  6
Continuous
 62
     7
370
    15
100
AcDbLine
 10
140.0974928443777
 20
63.70286458666692
 30
0.0
 11
140.0974928443777
 21
89.2028641098298
 31
0.0
  0
LINE
  5
3F9F
330
1F
100
AcDbEntity
  8
0
  6
Continuous
 62
     7
370
    15
100
AcDbLine
 10
140.0974928443776
 20
56.70286343927756
 30
0.0
 11
151.097492784773
 21
56.70286343927751
 31
0.0
  0
LINE
  5
3FA0
330
1F
100
AcDbEntity
  8
0
  6
Continuous
 62
     7
370
    15
100
AcDbLine
 10
151.097492784773
 20
56.70286343927751
 30
0.0
 11
151.097492784773
 21
63.70286458666689
 31
0.0
  0
LINE
  5
3FA1
330
1F
100
AcDbEntity
  8
0
  6
Continuous
 62
     7
370
    15
100
AcDbLine
 10
140.0974928443777
 20
63.70286458666692
 30
0.0
 11
140.0974928443776
 21
56.70286343927756
 31
0.0
  0
CIRCLE
  5
3FA2
330
1F
100
AcDbEntity
  8
0
  6
Continuous
 62
     7
370
    15
100
AcDbCircle
 10
144.0974930231917
 20
76.45286434824837
 30
0.0
 40
2.150500000027477
  0
LINE
  5
3FA3
330
1F
100
AcDbEntity
  8
0
  6
Continuous
 62
     7
370
    15
100
AcDbLine
 10
151.0974927847731
 20
90.65286444063557
 30
0.0
 11
151.0974927847731
 21
90.95286393101586
 31
0.0
  0
LINE
  5
3FA4
330
1F
100
AcDbEntity
  8
0
  6
Continuous
 62
     7
370
    15
100
AcDbLine
 10
151.0974927847731
 20
95.70286424394021
 30
0.0
 11
151.0974927847731
 21
94.35286374326119
 31
0.0
  0
LINE
  5
3FA5
330
1F
100
AcDbEntity
  8
0
  6
Continuous
 62
     7
370
    15
100
AcDbLine
 10
151.097492784773
 20
58.55286495323554
 30
0.0
 11
151.097492784773
 21
57.20286445255652
 31
0.0
  0
LINE
  5
3FA6
330
1F
100
AcDbEntity
  8
0
  6
Continuous
 62
     7
370
    15
100
AcDbLine
 10
151.0974927847731
 20
95.70286424394021
 30
0.0
 11
151.0974927847731
 21
96.20286525721917
 31
0.0
  0
LINE
  5
3FA7
330
1F
100
AcDbEntity
  8
0
  6
Continuous
 62
     7
370
    15
100
AcDbLine
 10
140.0974928443777
 20
95.9528647505798
 30
0.0
 11
140.0974928443777
 21
96.2028652572193
 31
0.0
  0
LINE
  5
3FA8
330
1F
100
AcDbEntity
  8
0
  6
Continuous
 62
     7
370
    15
100
AcDbLine
 10
151.097492784773
 20
56.70286343927756
 30
0.0
 11
151.097492784773
 21
57.20286445255652
 31
0.0
  0
LINE
  5
3FA9
330
1F
100
AcDbEntity
  8
0
  6
Continuous
 62
     7
370
    15
100
AcDbLine
 10
140.0974928443776
 20
56.70286343927759
 30
0.0
 11
140.0974928443776
 21
56.95286394591708
 31
0.0
  0
LINE
  5
3FAA
330
1F
100
AcDbEntity
  8
0
  6
Continuous
 62
     7
370
    15
100
AcDbLine
 10
151.0974927847731
 20
91.15286452259196
 30
0.0
 11
151.0974927847731
 21
94.35286374326119
 31
0.0
  0
LINE
  5
3FAB
330
1F
100
AcDbEntity
  8
0
  6
Continuous
 62
     7
370
    15
100
AcDbLine
 10
151.097492784773
 20
58.55286495323554
 30
0.0
 11
151.097492784773
 21
61.75286417390481
 31
0.0
  0
CIRCLE
  5
3FAC
330
1F
100
AcDbEntity
  8
0
  6
Continuous
 62
     7
370
    15
100
AcDbCircle
 10
204.4136651099577
 20
82.4528643482486
 30
0.0
 40
4.049999999992905
  0
CIRCLE
  5
3FAD
330
1F
100
AcDbEntity
  8
0
  6
Continuous
 62
     7
370
    15
100
AcDbCircle
 10
204.4136651099576
 20
70.45286434824856
 30
0.0
 40
4.049999999992877
  0
CIRCLE
  5
3FAE
330
1F
100
AcDbEntity
  8
0
  6
Continuous
 62
     7
370
    15
100
AcDbCircle
 10
234.4136651099576
 20
70.45286434824848
 30
0.0
 40
4.050000000020162
  0
CIRCLE
  5
3FAF
330
1F
100
AcDbEntity
  8
0
  6
Continuous
 62
     7
370
    15
100
AcDbCircle
 10
234.4136651099578
 20
82.45286434824848
 30
0.0
 40
4.05000000002019
  0
CIRCLE
  5
3FB0
330
1F
100
AcDbEntity
  8
0
  6
Continuous
 62
     7
370
    15
100
AcDbCircle
 10
206.4136651099577
 20
89.45286434824856
 30
0.0
 40
2.650499999935618
  0
CIRCLE
  5
3FB1
330
1F
100
AcDbEntity
  8
0
  6
Continuous
 62
     7
370
    15
100
AcDbCircle
 10
206.4136651099577
 20
63.45286434824856
 30
0.0
 40
2.650499999935647
  0
CIRCLE
  5
3FB2
330
1F
100
AcDbEntity
  8
0
  6
Continuous
 62
     7
370
    15
100
AcDbCircle
 10
232.4136651099576
 20
63.45286434824848
 30
0.0
 40
2.650500000038846
  0
CIRCLE
  5
3FB3
330
1F
100
AcDbEntity
  8
0
  6
Continuous
 62
     7
370
    15
100
AcDbCircle
 10
232.4136651099578
 20
89.45286434824849
 30
0.0
 40
2.650500000038846
  0
CIRCLE
  5
3FB4
330
1F
100
AcDbEntity
  8
0
  6
Continuous
 62
     7
370
    15
100
AcDbCircle
 10
219.4136651099578
 20
76.45286434824851
 30
0.0
 40
5.25
  0
LINE
  5
3FB5
330
1F
100
AcDbEntity
  8
0
  6
Continuous
 62
     7
370
    15
100
AcDbLine
 10
216.7636651878163
 20
94.5528652661601
 30
0.0
 11
216.7636651878163
 21
95.70286424394044
 31
0.0
  0
ARC
  5
3FB6
330
1F
100
AcDbEntity
  8
0
  6
Continuous
 62
     7
370
    15
100
AcDbCircle
 10
216.5636651099578
 20
94.55286434824859
 30
0.0
 40
0.200000000000017
100
AcDbArc
 50
269.9999999999935
 51
0.0
  0
LINE
  5
3FB7
330
1F
100
AcDbEntity
  8
0
  6
Continuous
 62
     7
370
    15
100
AcDbLine
 10
216.3136650209233
 20
94.35286374326143
 30
0.0
 11
216.5636650619015
 21
94.35286374326143
 31
0.0
  0
ARC
  5
3FB8
330
1F
100
AcDbEntity
  8
0
  6
Continuous
 62
     7
370
    15
100
AcDbCircle
 10
216.3136651099577
 20
94.15286434824855
 30
0.0
 40
0.1999999999999886
100
AcDbArc
 50
90.0
 51
179.9999999999984
  0
LINE
  5
3FB9
330
1F
100
AcDbEntity
  8
0
  6
Continuous
 62
     7
370
    15
100
AcDbLine
 10
216.1136651278392
 20
94.15286408300787
 30
0.0
 11
216.1136651278392
 21
91.15286452259212
 31
0.0
  0
ARC
  5
3FBA
330
1F
100
AcDbEntity
  8
0
  6
Continuous
 62
     7
370
    15
100
AcDbCircle
 10
216.3136651099577
 20
91.15286434824852
 30
0.0
 40
0.200000000000017
100
AcDbArc
 50
180.0
 51
270.0
  0
LINE
  5
3FBB
330
1F
100
AcDbEntity
  8
0
  6
Continuous
 62
     7
370
    15
100
AcDbLine
 10
216.3136650209233
 20
90.95286393101602
 30
0.0
 11
222.5136651099578
 21
90.95286393101602
 31
0.0
  0
ARC
  5
3FBC
330
1F
100
AcDbEntity
  8
0
  6
Continuous
 62
     7
370
    15
100
AcDbCircle
 10
222.5136651099578
 20
91.15286434824851
 30
0.0
 40
0.1999999999999886
100
AcDbArc
 50
270.0
 51
0.0
  0
LINE
  5
3FBD
330
1F
100
AcDbEntity
  8
0
  6
Continuous
 62
     7
370
    15
100
AcDbLine
 10
222.7136650920764
 20
91.1528645225921
 30
0.0
 11
222.7136650920764
 21
94.15286408300785
 31
0.0
  0
ARC
  5
3FBE
330
1F
100
AcDbEntity
  8
0
  6
Continuous
 62
     7
370
    15
100
AcDbCircle
 10
222.5136651099578
 20
94.15286434824853
 30
0.0
 40
0.1999999999999886
100
AcDbArc
 50
0.0
 51
90.0
  0
LINE
  5
3FBF
330
1F
100
AcDbEntity
  8
0
  6
Continuous
 62
     7
370
    15
100
AcDbLine
 10
222.263665158014
 20
94.35286374326137
 30
0.0
 11
222.5136651989922
 21
94.35286374326137
 31
0.0
  0
ARC
  5
3FC0
330
1F
100
AcDbEntity
  8
0
  6
Continuous
 62
     7
370
    15
100
AcDbCircle
 10
222.2636651099578
 20
94.55286434824854
 30
0.0
 40
0.200000000000017
100
AcDbArc
 50
180.0
 51
270.0
  0
LINE
  5
3FC1
330
1F
100
AcDbEntity
  8
0
  6
Continuous
 62
     7
370
    15
100
AcDbLine
 10
222.0636650320992
 20
95.70286424394039
 30
0.0
 11
222.0636650320992
 21
94.55286526616005
 31
0.0
  0
ARC
  5
3FC2
330
1F
100
AcDbEntity
  8
0
  6
Continuous
 62
     7
370
    15
100
AcDbCircle
 10
222.5636651099577
 20
95.70286434824851
 30
0.0
 40
0.5
100
AcDbArc
 50
89.99999999999674
 51
179.9999999999984
  0
LINE
  5
3FC3
330
1F
100
AcDbEntity
  8
0
  6
Continuous
 62
     7
370
    15
100
AcDbLine
 10
222.5636651140556
 20
96.20286525721935
 30
0.0
 11
232.1636648715392
 21
96.2028652572193
 31
0.0
  0
ARC
  5
3FC4
330
1F
100
AcDbEntity
  8
0
  6
Continuous
 62
     7
370
    15
100
AcDbCircle
 10
232.1636651099578
 20
89.20286434824848
 30
0.0
 40
7.0
100
AcDbArc
 50
0.0
 51
90.0
  0
LINE
  5
3FC5
330
1F
100
AcDbEntity
  8
0
  6
Continuous
 62
     7
370
    15
100
AcDbLine
 10
239.1636660189286
 20
89.20286410982987
 30
0.0
 11
239.1636660189285
 21
63.70286458666703
 31
0.0
  0
ARC
  5
3FC6
330
1F
100
AcDbEntity
  8
0
  6
Continuous
 62
     7
370
    15
100
AcDbCircle
 10
232.1636651099576
 20
63.70286434824848
 30
0.0
 40
7.000000000000028
100
AcDbArc
 50
270.0
 51
0.0
  0
LINE
  5
3FC7
330
1F
100
AcDbEntity
  8
0
  6
Continuous
 62
     7
370
    15
100
AcDbLine
 10
232.163664871539
 20
56.70286343927767
 30
0.0
 11
222.5636651140554
 21
56.70286343927767
 31
0.0
  0
ARC
  5
3FC8
330
1F
100
AcDbEntity
  8
0
  6
Continuous
 62
     7
370
    15
100
AcDbCircle
 10
222.5636651099576
 20
57.20286434824851
 30
0.0
 40
0.5000000000000142
100
AcDbArc
 50
179.9999999999984
 51
270.0
  0
LINE
  5
3FC9
330
1F
100
AcDbEntity
  8
0
  6
Continuous
 62
     7
370
    15
100
AcDbLine
 10
222.0636650320991
 20
58.35286343033698
 30
0.0
 11
222.0636650320991
 21
57.20286445255664
 31
0.0
  0
ARC
  5
3FCA
330
1F
100
AcDbEntity
  8
0
  6
Continuous
 62
     7
370
    15
100
AcDbCircle
 10
222.2636651099576
 20
58.35286434824851
 30
0.0
 40
0.200000000000017
100
AcDbArc
 50
90.0
 51
180.0
  0
LINE
  5
3FCB
330
1F
100
AcDbEntity
  8
0
  6
Continuous
 62
     7
370
    15
100
AcDbLine
 10
222.5136651989921
 20
58.55286495323565
 30
0.0
 11
222.2636651580139
 21
58.55286495323565
 31
0.0
  0
ARC
  5
3FCC
330
1F
100
AcDbEntity
  8
0
  6
Continuous
 62
     7
370
    15
100
AcDbCircle
 10
222.5136651099576
 20
58.75286434824852
 30
0.0
 40
0.1999999999999886
100
AcDbArc
 50
270.0
 51
0.0
  0
LINE
  5
3FCD
330
1F
100
AcDbEntity
  8
0
  6
Continuous
 62
     7
370
    15
100
AcDbLine
 10
222.7136650920762
 20
58.75286461348918
 30
0.0
 11
222.7136650920762
 21
61.75286417390492
 31
0.0
  0
ARC
  5
3FCE
330
1F
100
AcDbEntity
  8
0
  6
Continuous
 62
     7
370
    15
100
AcDbCircle
 10
222.5136651099576
 20
61.75286434824852
 30
0.0
 40
0.2000000000000028
100
AcDbArc
 50
0.0
 51
90.0
  0
LINE
  5
3FCF
330
1F
100
AcDbEntity
  8
0
  6
Continuous
 62
     7
370
    15
100
AcDbLine
 10
222.5136651989921
 20
61.95286476548102
 30
0.0
 11
216.3136650209232
 21
61.95286476548105
 31
0.0
  0
ARC
  5
3FD0
330
1F
100
AcDbEntity
  8
0
  6
Continuous
 62
     7
370
    15
100
AcDbCircle
 10
216.3136651099577
 20
61.75286434824855
 30
0.0
 40
0.200000000000017
100
AcDbArc
 50
90.0
 51
179.9999999999984
  0
LINE
  5
3FD1
330
1F
100
AcDbEntity
  8
0
  6
Continuous
 62
     7
370
    15
100
AcDbLine
 10
216.113665127839
 20
61.75286417390495
 30
0.0
 11
216.113665127839
 21
58.7528646134892
 31
0.0
  0
ARC
  5
3FD2
330
1F
100
AcDbEntity
  8
0
  6
Continuous
 62
     7
370
    15
100
AcDbCircle
 10
216.3136651099576
 20
58.75286434824852
 30
0.0
 40
0.200000000000017
100
AcDbArc
 50
180.0
 51
270.0
  0
LINE
  5
3FD3
330
1F
100
AcDbEntity
  8
0
  6
Continuous
 62
     7
370
    15
100
AcDbLine
 10
216.5636650619014
 20
58.55286495323568
 30
0.0
 11
216.3136650209232
 21
58.55286495323568
 31
0.0
  0
ARC
  5
3FD4
330
1F
100
AcDbEntity
  8
0
  6
Continuous
 62
     7
370
    15
100
AcDbCircle
 10
216.5636651099576
 20
58.35286434824855
 30
0.0
 40
0.200000000000017
100
AcDbArc
 50
0.0
 51
90.0
  0
LINE
  5
3FD5
330
1F
100
AcDbEntity
  8
0
  6
Continuous
 62
     7
370
    15
100
AcDbLine
 10
216.7636651878162
 20
57.20286445255666
 30
0.0
 11
216.7636651878162
 21
58.352863430337
 31
0.0
  0
ARC
  5
3FD6
330
1F
100
AcDbEntity
  8
0
  6
Continuous
 62
     7
370
    15
100
AcDbCircle
 10
216.2636651099576
 20
57.20286434824851
 30
0.0
 40
0.5
100
AcDbArc
 50
270.0
 51
0.0
  0
LINE
  5
3FD7
330
1F
100
AcDbEntity
  8
0
  6
Continuous
 62
     7
370
    15
100
AcDbLine
 10
216.2636651058598
 20
56.7028634392777
 30
0.0
 11
206.6636653483762
 21
56.70286343927774
 31
0.0
  0
ARC
  5
3FD8
330
1F
100
AcDbEntity
  8
0
  6
Continuous
 62
     7
370
    15
100
AcDbCircle
 10
206.6636651099577
 20
63.70286434824857
 30
0.0
 40
7.000000000000028
100
AcDbArc
 50
179.9999999999984
 51
270.0
  0
LINE
  5
3FD9
330
1F
100
AcDbEntity
  8
0
  6
Continuous
 62
     7
370
    15
100
AcDbLine
 10
199.6636642009868
 20
63.70286458666718
 30
0.0
 11
199.6636642009869
 21
89.20286410983001
 31
0.0
  0
ARC
  5
3FDA
330
1F
100
AcDbEntity
  8
0
  6
Continuous
 62
     7
370
    15
100
AcDbCircle
 10
206.6636651099578
 20
89.20286434824857
 30
0.0
 40
7.0
100
AcDbArc
 50
90.0
 51
179.9999999999984
  0
LINE
  5
3FDB
330
1F
100
AcDbEntity
  8
0
  6
Continuous
 62
     7
370
    15
100
AcDbLine
 10
206.6636653483763
 20
96.2028652572194
 30
0.0
 11
216.2636651058599
 21
96.2028652572194
 31
0.0
  0
ARC
  5
3FDC
330
1F
100
AcDbEntity
  8
0
  6
Continuous
 62
     7
370
    15
100
AcDbCircle
 10
216.2636651099578
 20
95.70286434824856
 30
0.0
 40
0.5
100
AcDbArc
 50
0.0
 51
89.99999999999674
  0
CIRCLE
  5
3FDD
330
1F
100
AcDbEntity
  8
0
  6
Continuous
 62
     7
370
    15
100
AcDbCircle
 10
206.4136651099576
 20
63.45286434824856
 30
0.0
 40
2.150499999947442
  0
CIRCLE
  5
3FDE
330
1F
100
AcDbEntity
  8
0
  6
Continuous
 62
     7
370
    15
100
AcDbCircle
 10
206.4136651099577
 20
89.45286434824856
 30
0.0
 40
2.150499999947442
  0
CIRCLE
  5
3FDF
330
1F
100
AcDbEntity
  8
0
  6
Continuous
 62
     7
370
    15
100
AcDbCircle
 10
232.4136651099576
 20
63.45286434824848
 30
0.0
 40
2.150499999936982
  0
CIRCLE
  5
3FE0
330
1F
100
AcDbEntity
  8
0
  6
Continuous
 62
     7
370
    15
100
AcDbCircle
 10
232.4136651099578
 20
89.45286434824849
 30
0.0
 40
2.150499999936982
  0
ARC
  5
3FE1
330
1F
100
AcDbEntity
  8
0
  6
Continuous
 62
     7
370
    15
100
AcDbCircle
 10
219.4136651099578
 20
76.45286434824853
 30
0.0
 40
4.499999999994269
100
AcDbArc
 50
117.2660444505264
 51
242.7339555494106
  0
SPLINE
  5
3FE2
330
1F
100
AcDbEntity
  8
0
  6
Continuous
 62
     7
370
    15
100
AcDbSpline
210
0.0
220
0.0
230
1.0
 70
    24
 71
     3
 72
     9
 73
     5
 74
     0
 42
0.0000000001
 43
0.0000000001
 40
0.0
 40
0.0
 40
0.0
 40
0.0
 40
0.499019077836997
 40
1.0
 40
1.0
 40
1.0
 40
1.0
 10
216.4136650838807
 20
72.45286415825873
 30
0.0
 10
216.5626186607018
 20
72.45286415825873
 30
0.0
 10
216.861111410652
 20
72.45286415825873
 30
0.0
 10
217.1882314015127
 20
72.45286415825873
 30
0.0
 10
217.352112276192
 20
72.45286415825873
 30
0.0
  0
ARC
  5
3FE3
330
1F
100
AcDbEntity
  8
0
  6
Continuous
 62
     7
370
    15
100
AcDbCircle
 10
219.4136651099578
 20
76.45286434824853
 30
0.0
 40
4.999999999999505
100
AcDbArc
 50
126.8698976458375
 51
233.1301023541661
  0
SPLINE
  5
3FE4
330
1F
100
AcDbEntity
  8
0
  6
Continuous
 62
     7
370
    15
100
AcDbSpline
210
0.0
220
0.0
230
1.0
 70
    24
 71
     3
 72
     9
 73
     5
 74
     0
 42
0.0000000001
 43
0.0000000001
 40
0.0
 40
0.0
 40
0.0
 40
0.0
 40
0.4987668164956883
 40
1.0
 40
1.0
 40
1.0
 40
1.0
 10
217.352112276192
 20
80.45286453823834
 30
0.0
 10
217.1889426649037
 20
80.45286453823834
 30
0.0
 10
216.8617965800163
 20
80.45286453823834
 30
0.0
 10
216.5632876601099
 20
80.45286453823834
 30
0.0
 10
216.4136650838807
 20
80.45286453823834
 30
0.0
  0
CIRCLE
  5
3FE5
330
1F
100
AcDbEntity
  8
0
  6
Continuous
 62
     7
370
    15
100
AcDbCircle
 10
219.4136651099578
 20
76.45286434824853
 30
0.0
 40
3.158499999983632
  0
LINE
  5
3FE6
330
1F
100
AcDbEntity
  8
0
  6
Continuous
 62
     7
370
    15
100
AcDbLine
 10
221.4752179437235
 20
80.45286453823834
 30
0.0
 11
217.352112276192
 21
80.45286453823834
 31
0.0
  0
ARC
  5
3FE7
330
1F
100
AcDbEntity
  8
0
  6
Continuous
 62
     7
370
    15
100
AcDbCircle
 10
219.4136651099578
 20
76.45286434824853
 30
0.0
 40
4.499999999991665
100
AcDbArc
 50
297.2660444505269
 51
62.73395554947317
  0
LINE
  5
3FE8
330
1F
100
AcDbEntity
  8
0
  6
Continuous
 62
     7
370
    15
100
AcDbLine
 10
217.352112276192
 20
72.45286415825873
 30
0.0
 11
221.4752179437235
 21
72.45286415825873
 31
0.0
  0
ARC
  5
3FE9
330
1F
100
AcDbEntity
  8
0
  6
Continuous
 62
     7
370
    15
100
AcDbCircle
 10
219.4136651099578
 20
76.45286434824853
 30
0.0
 40
4.999999999999488
100
AcDbArc
 50
306.8698976458375
 51
53.13010235418284
  0
SPLINE
  5
3FEA
330
1F
100
AcDbEntity
  8
0
  6
Continuous
 62
     7
370
    15
100
AcDbSpline
210
0.0
220
0.0
230
1.0
 70
    24
 71
     3
 72
     9
 73
     5
 74
     0
 42
0.0000000001
 43
0.0000000001
 40
0.0
 40
0.0
 40
0.0
 40
0.0
 40
0.499019077836997
 40
1.0
 40
1.0
 40
1.0
 40
1.0
 10
222.4136651360348
 20
80.45286453823834
 30
0.0
 10
222.2647115592137
 20
80.45286453823834
 30
0.0
 10
221.9662188092636
 20
80.45286453823834
 30
0.0
 10
221.6390988184028
 20
80.45286453823834
 30
0.0
 10
221.4752179437235
 20
80.45286453823834
 30
0.0
  0
SPLINE
  5
3FEB
330
1F
100
AcDbEntity
  8
0
  6
Continuous
 62
     7
370
    15
100
AcDbSpline
210
0.0
220
0.0
230
1.0
 70
    24
 71
     3
 72
     9
 73
     5
 74
     0
 42
0.0000000001
 43
0.0000000001
 40
0.0
 40
0.0
 40
0.0
 40
0.0
 40
0.4987668164956883
 40
1.0
 40
1.0
 40
1.0
 40
1.0
 10
221.4752179437235
 20
72.45286415825873
 30
0.0
 10
221.6383875550118
 20
72.45286415825873
 30
0.0
 10
221.9655336398992
 20
72.45286415825873
 30
0.0
 10
222.2640425598056
 20
72.45286415825873
 30
0.0
 10
222.4136651360348
 20
72.45286415825873
 30
0.0
  0
CIRCLE
  5
3FEC
330
1F
100
AcDbEntity
  8
0
  6
Continuous
 62
     7
370
    15
100
AcDbCircle
 10
219.4136651099578
 20
76.45286434824853
 30
0.0
 40
2.458499999988816
  0
ARC
  5
3FED
330
1F
100
AcDbEntity
  8
0
  6
Continuous
 62
     7
370
    15
100
AcDbCircle
 10
219.4136651099578
 20
76.45286434824853
 30
0.0
 40
5.000000000000016
100
AcDbArc
 50
233.1301023541579
 51
306.8698976458421
  0
ARC
  5
3FEE
330
1F
100
AcDbEntity
  8
0
  6
Continuous
 62
     7
370
    15
100
AcDbCircle
 10
219.4136651099578
 20
76.45286434824853
 30
0.0
 40
5.0
100
AcDbArc
 50
53.13010235415435
 51
126.869897645842
  0
LINE
  5
3FF0
330
1F
100
AcDbEntity
  8
0
  6
Continuous
 62
     7
370
    15
100
AcDbLine
 10
222.063665032099
 20
94.35286374326125
 30
0.0
 11
222.2380714823408
 21
94.35286374326125
 31
0.0
  0
LINE
  5
3FF1
330
1F
100
AcDbEntity
  8
0
  6
Continuous
 62
     7
370
    15
100
AcDbLine
 10
222.063665032099
 20
94.52727065916434
 30
0.0
 11
222.063665032099
 21
94.35286374326125
 31
0.0
  0
LINE
  5
3FF2
330
1F
100
AcDbEntity
  8
0
  6
Continuous
 62
     7
370
    15
100
AcDbLine
 10
222.0636650320988
 20
58.55286495323554
 30
0.0
 11
222.0636650320988
 21
58.37845803733245
 31
0.0
  0
LINE
  5
3FF3
330
1F
100
AcDbEntity
  8
0
  6
Continuous
 62
     7
370
    15
100
AcDbLine
 10
222.2380714823406
 20
58.55286495323554
 30
0.0
 11
222.0636650320988
 21
58.55286495323554
 31
0.0
  0
LINE
  5
3FF4
330
1F
100
AcDbEntity
  8
0
  6
Continuous
 62
     7
370
    15
100
AcDbLine
 10
216.763665187816
 20
58.55286495323557
 30
0.0
 11
216.5892587375742
 21
58.55286495323557
 31
0.0
  0
LINE
  5
3FF5
330
1F
100
AcDbEntity
  8
0
  6
Continuous
 62
     7
370
    15
100
AcDbLine
 10
216.763665187816
 20
58.37845803733248
 30
0.0
 11
216.763665187816
 21
58.55286495323557
 31
0.0
  0
LINE
  5
3FF6
330
1F
100
AcDbEntity
  8
0
  6
Continuous
 62
     7
370
    15
100
AcDbLine
 10
216.7636651878161
 20
94.3528637432613
 30
0.0
 11
216.7636651878161
 21
94.52727065916439
 31
0.0
  0
LINE
  5
3FF7
330
1F
100
AcDbEntity
  8
0
  6
Continuous
 62
     7
370
    15
100
AcDbLine
 10
216.5892587375743
 20
94.3528637432613
 30
0.0
 11
216.7636651878161
 21
94.3528637432613
 31
0.0
  0
LINE
  5
3FF8
330
1F
100
AcDbEntity
  8
0
  6
Continuous
 62
     7
370
    15
100
AcDbLine
 10
235.9136650205508
 20
83.31888962100526
 30
0.0
 11
234.4136647746816
 21
84.1849153072693
 31
0.0
  0
LINE
  5
3FF9
330
1F
100
AcDbEntity
  8
0
  6
Continuous
 62
     7
370
    15
100
AcDbLine
 10
232.913665460135
 20
83.3188896210053
 30
0.0
 11
234.4136647746816
 21
84.1849153072693
 31
0.0
  0
LINE
  5
3FFA
330
1F
100
AcDbEntity
  8
0
  6
Continuous
 62
     7
370
    15
100
AcDbLine
 10
232.913665460135
 20
81.58683871413851
 30
0.0
 11
232.913665460135
 21
83.3188896210053
 31
0.0
  0
LINE
  5
3FFB
330
1F
100
AcDbEntity
  8
0
  6
Continuous
 62
     7
370
    15
100
AcDbLine
 10
234.4136647746816
 20
80.72081349353572
 30
0.0
 11
232.913665460135
 21
81.58683871413851
 31
0.0
  0
LINE
  5
3FFC
330
1F
100
AcDbEntity
  8
0
  6
Continuous
 62
     7
370
    15
100
AcDbLine
 10
235.9136650205508
 20
81.58683871413847
 30
0.0
 11
234.4136647746816
 21
80.72081349353572
 31
0.0
  0
LINE
  5
3FFD
330
1F
100
AcDbEntity
  8
0
  6
Continuous
 62
     7
370
    15
100
AcDbLine
 10
235.9136650205508
 20
83.31888962100526
 30
0.0
 11
235.9136650205508
 21
81.58683871413847
 31
0.0
  0
CIRCLE
  5
3FFE
330
1F
100
AcDbEntity
  8
0
  6
Continuous
 62
     7
370
    15
100
AcDbCircle
 10
234.4136651099578
 20
82.45286434824848
 30
0.0
 40
3.500000000000028
  0
LINE
  5
3FFF
330
1F
100
AcDbEntity
  8
0
  6
Continuous
 62
     7
370
    15
100
AcDbLine
 10
205.9136647597805
 20
83.31888962100538
 30
0.0
 11
204.4136654452339
 21
84.18491530726942
 31
0.0
  0
LINE
  5
4000
330
1F
100
AcDbEntity
  8
0
  6
Continuous
 62
     7
370
    15
100
AcDbLine
 10
202.9136651993647
 20
83.31888962100538
 30
0.0
 11
204.4136654452339
 21
84.18491530726942
 31
0.0
  0
LINE
  5
4001
330
1F
100
AcDbEntity
  8
0
  6
Continuous
 62
     7
370
    15
100
AcDbLine
 10
202.9136651993647
 20
81.5868387141386
 30
0.0
 11
202.9136651993647
 21
83.31888962100538
 31
0.0
  0
LINE
  5
4002
330
1F
100
AcDbEntity
  8
0
  6
Continuous
 62
     7
370
    15
100
AcDbLine
 10
204.4136654452339
 20
80.72081349353585
 30
0.0
 11
202.9136651993647
 21
81.5868387141386
 31
0.0
  0
LINE
  5
4003
330
1F
100
AcDbEntity
  8
0
  6
Continuous
 62
     7
370
    15
100
AcDbLine
 10
205.9136647597805
 20
81.5868387141386
 30
0.0
 11
204.4136654452339
 21
80.72081349353585
 31
0.0
  0
LINE
  5
4004
330
1F
100
AcDbEntity
  8
0
  6
Continuous
 62
     7
370
    15
100
AcDbLine
 10
205.9136647597805
 20
83.31888962100538
 30
0.0
 11
205.9136647597805
 21
81.5868387141386
 31
0.0
  0
CIRCLE
  5
4005
330
1F
100
AcDbEntity
  8
0
  6
Continuous
 62
     7
370
    15
100
AcDbCircle
 10
204.4136651099577
 20
82.4528643482486
 30
0.0
 40
3.500000000000028
  0
LINE
  5
4006
330
1F
100
AcDbEntity
  8
0
  6
Continuous
 62
     7
370
    15
100
AcDbLine
 10
235.9136650205507
 20
71.31888998235843
 30
0.0
 11
234.4136647746815
 21
72.18491520296118
 31
0.0
  0
LINE
  5
4007
330
1F
100
AcDbEntity
  8
0
  6
Continuous
 62
     7
370
    15
100
AcDbLine
 10
232.913665460135
 20
71.31888998235845
 30
0.0
 11
234.4136647746815
 21
72.18491520296118
 31
0.0
  0
LINE
  5
4008
330
1F
100
AcDbEntity
  8
0
  6
Continuous
 62
     7
370
    15
100
AcDbLine
 10
232.913665460135
 20
69.58683907549169
 30
0.0
 11
232.913665460135
 21
71.31888998235845
 31
0.0
  0
LINE
  5
4009
330
1F
100
AcDbEntity
  8
0
  6
Continuous
 62
     7
370
    15
100
AcDbLine
 10
234.4136647746815
 20
68.7208133892276
 30
0.0
 11
232.913665460135
 21
69.58683907549169
 31
0.0
  0
LINE
  5
400A
330
1F
100
AcDbEntity
  8
0
  6
Continuous
 62
     7
370
    15
100
AcDbLine
 10
235.9136650205507
 20
69.58683907549164
 30
0.0
 11
234.4136647746815
 21
68.7208133892276
 31
0.0
  0
LINE
  5
400B
330
1F
100
AcDbEntity
  8
0
  6
Continuous
 62
     7
370
    15
100
AcDbLine
 10
235.9136650205507
 20
71.31888998235843
 30
0.0
 11
235.9136650205507
 21
69.58683907549164
 31
0.0
  0
CIRCLE
  5
400C
330
1F
100
AcDbEntity
  8
0
  6
Continuous
 62
     7
370
    15
100
AcDbCircle
 10
234.4136651099576
 20
70.45286434824848
 30
0.0
 40
3.500000000000028
  0
LINE
  5
400D
330
1F
100
AcDbEntity
  8
0
  6
Continuous
 62
     7
370
    15
100
AcDbLine
 10
205.9136647597804
 20
71.31888998235854
 30
0.0
 11
204.4136654452338
 21
72.18491520296129
 31
0.0
  0
LINE
  5
400E
330
1F
100
AcDbEntity
  8
0
  6
Continuous
 62
     7
370
    15
100
AcDbLine
 10
202.9136651993646
 20
71.31888998235854
 30
0.0
 11
204.4136654452338
 21
72.18491520296129
 31
0.0
  0
LINE
  5
400F
330
1F
100
AcDbEntity
  8
0
  6
Continuous
 62
     7
370
    15
100
AcDbLine
 10
202.9136651993646
 20
69.58683907549175
 30
0.0
 11
202.9136651993646
 21
71.31888998235854
 31
0.0
  0
LINE
  5
4010
330
1F
100
AcDbEntity
  8
0
  6
Continuous
 62
     7
370
    15
100
AcDbLine
 10
204.4136654452338
 20
68.72081338922772
 30
0.0
 11
202.9136651993646
 21
69.58683907549175
 31
0.0
  0
LINE
  5
4011
330
1F
100
AcDbEntity
  8
0
  6
Continuous
 62
     7
370
    15
100
AcDbLine
 10
205.9136647597804
 20
69.58683907549175
 30
0.0
 11
204.4136654452338
 21
68.72081338922772
 31
0.0
  0
LINE
  5
4012
330
1F
100
AcDbEntity
  8
0
  6
Continuous
 62
     7
370
    15
100
AcDbLine
 10
205.9136647597804
 20
71.31888998235854
 30
0.0
 11
205.9136647597804
 21
69.58683907549175
 31
0.0
  0
CIRCLE
  5
4013
330
1F
100
AcDbEntity
  8
0
  6
Continuous
 62
     7
370
    15
100
AcDbCircle
 10
204.4136651099576
 20
70.45286434824856
 30
0.0
 40
3.500000000000028
  0
TEXT
  5
430F
330
1F
100
AcDbEntity
  8
0
100
AcDbText
 10
64.87162784270845
 20
241.1535046872032
 30
0.0
 40
4.0
  1
11 type
  7
CHINESET
100
AcDbText
  0
TEXT
  5
4321
330
1F
100
AcDbEntity
  8
0
100
AcDbText
 10
64.87162784270845
 20
132.1574895491405
 30
0.0
 40
4.0
  1
12 type
  7
CHINESET
100
AcDbText
  0
TEXT
  5
44D8
330
1F
100
AcDbEntity
  8
0
100
AcDbText
 10
65.45549054355717
 20
232.3271120499337
 30
0.0
 40
4.0
  1
Stroke=5
  7
CHINESET
100
AcDbText
  0
TEXT
  5
44D9
330
1F
100
AcDbEntity
  8
0
100
AcDbText
 10
65.45549054355717
 20
123.3310969118709
 30
0.0
 40
4.0
  1
Stroke=5
  7
CHINESET
100
AcDbText
  0
SOLID
  5
44DD
330
1F
100
AcDbEntity
  8
DIM
100
AcDbTrace
 10
146.3310647925684
 20
72.82880463250737
 30
0.0
 11
146.2479930232191
 21
74.85468967175524
 31
0.0
 12
146.9836182231704
 22
72.96525412739081
 32
0.0
 13
146.9836182231704
 23
72.96525412739081
 33
0.0
1001
ACAD
1000
DSTYLE
1002
{
1070
    41
1040
2.0
1070
    42
1040
1.5
1070
    43
1040
8.0
1070
    44
1040
1.5
1070
    73
1070
     0
1070
    74
1070
     0
1070
    77
1070
     2
1070
   140
1040
2.0
1070
   141
1040
3.0
1070
   146
1040
0.6
1070
   147
1040
1.0
1070
   172
1070
     1
1070
   178
1070
   256
1070
   272
1070
     2
1070
   274
1070
     2
1070
   340
1005
3151
1002
}
  0
DIMENSION
  5
46AD
330
1F
100
AcDbEntity
  8
DIM
100
AcDbDimension
  2
*D5
 10
114.0974930231917
 20
207.5843394250449
 30
0.0
 11
110.5974930231917
 21
209.5843394250449
 31
0.0
 70
    32
 71
     5
 42
7.000000000000056
  3
AM_ANSI
100
AcDbAlignedDimension
 13
107.0974930231917
 23
205.6815347124811
 33
0.0
 14
114.0974930231917
 24
190.6394370072604
 34
0.0
100
AcDbRotatedDimension
1001
ACAD
1000
DSTYLE
1002
{
1070
    41
1040
2.0
1070
    42
1040
1.5
1070
    43
1040
8.0
1070
    44
1040
1.5
1070
    73
1070
     0
1070
    74
1070
     0
1070
    77
1070
     3
1070
   140
1040
2.0
1070
   141
1040
3.0
1070
   146
1040
0.6
1070
   147
1040
1.0
1070
   172
1070
     1
1070
   178
1070
   256
1070
   272
1070
     8
1070
   274
1070
     2
1070
   340
1005
3151
1002
}
  0
DIMENSION
  5
46AE
330
1F
100
AcDbEntity
  8
DIM
100
AcDbDimension
  2
*D6
 10
151.0974924569476
 20
207.5843394250449
 30
0.0
 11
147.5974927400697
 21
209.5843394250449
 31
0.0
 70
    32
 71
     5
 42
6.999999433755874
  3
AM_ANSI
100
AcDbAlignedDimension
 13
144.0974930231917
 23
190.6394370072604
 33
0.0
 14
151.0974924569476
 24
205.681534712481
 34
0.0
100
AcDbRotatedDimension
1001
ACAD
1000
DSTYLE
1002
{
1070
    41
1040
2.0
1070
    42
1040
1.5
1070
    43
1040
8.0
1070
    44
1040
1.5
1070
    73
1070
     0
1070
    74
1070
     0
1070
    77
1070
     3
1070
   140
1040
2.0
1070
   141
1040
3.0
1070
   146
1040
0.6
1070
   147
1040
1.0
1070
   172
1070
     1
1070
   178
1070
   256
1070
   272
1070
     8
1070
   274
1070
     2
1070
   340
1005
3151
1002
}
  0
DIMENSION
  5
46AF
330
1F
100
AcDbEntity
  8
DIM
100
AcDbDimension
  2
*D7
 10
151.0974924569476
 20
218.571737696851
 30
0.0
 11
129.0974927400696
 21
220.571737696851
 31
0.0
 70
    32
  1
39+stroke=<>
 71
     5
 42
43.99999943375592
  3
AM_ANSI
100
AcDbAlignedDimension
 13
107.0974930231917
 23
205.6815347124811
 33
0.0
 14
151.0974924569476
 24
205.681534712481
 34
0.0
100
AcDbRotatedDimension
1001
ACAD
1000
DSTYLE
1002
{
1070
    41
1040
2.0
1070
    42
1040
1.5
1070
    43
1040
8.0
1070
    44
1040
1.5
1070
    73
1070
     0
1070
    74
1070
     0
1070
    77
1070
     3
1070
   140
1040
2.0
1070
   141
1040
3.0
1070
   146
1040
0.6
1070
   147
1040
1.0
1070
   172
1070
     1
1070
   178
1070
   256
1070
   272
1070
     8
1070
   274
1070
     2
1070
   340
1005
3151
1002
}
  0
DIMENSION
  5
46B0
330
1F
100
AcDbEntity
  8
DIM
100
AcDbDimension
  2
*D8
 10
151.0974924569476
 20
226.7878249238267
 30
0.0
 11
118.0974927996743
 21
228.7878249238267
 31
0.0
 70
    32
  1
61+stroke=<>
 71
     5
 42
65.9999993145467
  3
AM_ANSI
100
AcDbAlignedDimension
 13
85.09749314240094
 23
188.9315338295874
 33
0.0
 14
151.0974924569476
 24
205.681534712481
 34
0.0
100
AcDbRotatedDimension
1001
ACAD
1000
DSTYLE
1002
{
1070
    41
1040
2.0
1070
    42
1040
1.5
1070
    43
1040
8.0
1070
    44
1040
1.5
1070
    73
1070
     0
1070
    74
1070
     0
1070
    77
1070
     3
1070
   140
1040
2.0
1070
   141
1040
3.0
1070
   146
1040
0.6
1070
   147
1040
1.0
1070
   172
1070
     1
1070
   178
1070
   256
1070
   272
1070
     8
1070
   274
1070
     2
1070
   340
1005
3151
1002
}
  0
LINE
  5
46B1
330
1F
100
AcDbEntity
  8
CENTER
 48
0.8
100
AcDbLine
 10
144.0974930231917
 20
181.2236305997599
 30
0.0
 11
144.0974930231917
 21
190.6394370072604
 31
0.0
  0
LINE
  5
46B2
330
1F
100
AcDbEntity
  8
CENTER
 48
0.8
100
AcDbLine
 10
148.8053962269419
 20
185.9315338035101
 30
0.0
 11
139.3895898194415
 21
185.9315338035101
 31
0.0
  0
LINE
  5
46B3
330
1F
100
AcDbEntity
  8
CENTER
 48
0.8
100
AcDbLine
 10
114.0974930231917
 20
181.22363059976
 30
0.0
 11
114.0974930231917
 21
190.6394370072604
 31
0.0
  0
LINE
  5
46B4
330
1F
100
AcDbEntity
  8
CENTER
 48
0.8
100
AcDbLine
 10
118.8053962269419
 20
185.9315338035102
 30
0.0
 11
109.3895898194415
 21
185.9315338035102
 31
0.0
  0
DIMENSION
  5
46B5
330
1F
100
AcDbEntity
  8
DIM
100
AcDbDimension
  2
*D9
 10
107.0974930231917
 20
218.571737696851
 30
0.0
 11
104.0974929971147
 21
220.571737696851
 31
0.0
 70
    32
 71
     5
 42
6.000000052154064
  3
AM_ANSI
100
AcDbAlignedDimension
 13
101.0974929710376
 23
189.9315339935001
 33
0.0
 14
107.0974930231917
 24
205.6815347124811
 34
0.0
100
AcDbRotatedDimension
1001
ACAD
1000
DSTYLE
1002
{
1070
    41
1040
2.0
1070
    42
1040
1.5
1070
    43
1040
8.0
1070
    44
1040
1.5
1070
    73
1070
     0
1070
    74
1070
     0
1070
    77
1070
     3
1070
   140
1040
2.0
1070
   141
1040
3.0
1070
   146
1040
0.6
1070
   147
1040
1.0
1070
   172
1070
     1
1070
   178
1070
   256
1070
   272
1070
     8
1070
   274
1070
     2
1070
   340
1005
3151
1002
}
  0
LINE
  5
46B6
330
1F
100
AcDbEntity
  8
AM_7
  6
ACISOTGB
 62
     2
100
AcDbLine
 10
129.2321605400641
 20
209.837670339421
 30
0.0
 11
129.0974929039824
 21
153.0564613967111
 31
0.0
1001
GENIUS_GENOBJ-N-CEN_13
1002
{
1000
OWNER
1000
GEN
1002
}
1001
GENIUS_GENODEF_13
1002
{
1000
HIER
1070
     0
1002
}
1002
{
1000
MANEDIT
1070
     0
1002
}
1002
{
1000
NOSEL
1070
     0
1002
}
1002
{
1000
BEHIND
1070
     0
1002
}
1002
{
1000
OTHER
1070
     0
1002
}
1002
{
1000
REACTOR
1002
}
1001
GENIUS_GENCEN_19
1002
{
1040
3.0
1002
}
  0
INSERT
  5
46B7
330
1F
100
AcDbEntity
  8
0
100
AcDbBlockReference
  2
A$C1F6E6265
 10
129.0974924397759
 20
154.2222807079689
 30
0.0
  0
ARC
  5
46B8
330
1F
100
AcDbEntity
  8
0
 62
     3
100
AcDbCircle
 10
144.0974930231917
 20
185.9315338035101
 30
0.0
 40
2.5
100
AcDbArc
 50
344.4632242434407
 51
243.3773293786603
  0
ARC
  5
46B9
330
1F
100
AcDbEntity
  8
0
 62
     3
100
AcDbCircle
 10
114.0974930231917
 20
185.9315338035102
 30
0.0
 40
2.5
100
AcDbArc
 50
344.4632242434407
 51
243.3773293786603
  0
LWPOLYLINE
  5
46BA
330
1F
100
AcDbEntity
  8
DIM
100
AcDbPolyline
 90
        3
 70
     0
 43
0.0
 10
146.6573415078694
 20
72.897029379949
 10
147.9428762648558
 20
66.74911277134379
 10
167.1040595683812
 20
66.74911277134379
1001
ACAD
1000
DSTYLE
1002
{
1070
    41
1040
2.0
1070
    42
1040
1.5
1070
    43
1040
8.0
1070
    44
1040
1.5
1070
    73
1070
     0
1070
    74
1070
     0
1070
    77
1070
     2
1070
   140
1040
2.0
1070
   141
1040
3.0
1070
   146
1040
0.6
1070
   147
1040
1.0
1070
   172
1070
     1
1070
   178
1070
   256
1070
   272
1070
     2
1070
   274
1070
     2
1070
   340
1005
3151
1002
}
  0
MTEXT
  5
46BB
330
1F
100
AcDbEntity
  8
DIM
100
AcDbMText
 10
166.7365875657094
 20
67.47137536892842
 30
0.0
 40
2.0
 41
0.0
 71
     9
 72
     1
  1
2-M5*0.8
  7
dayus
 73
     1
 44
1.0
1001
ACAD
1000
MTEXTBEGIN
1070
    73
1070
     1
1070
    44
1040
1.0
1070
    74
1070
     0
1000
MTEXTEND
  0
LINE
  5
46BC
330
1F
100
AcDbEntity
  8
CENTER
 48
1.3
100
AcDbLine
 10
84.40100801469503
 20
185.9315338035101
 30
0.0
 11
154.907789671541
 21
185.9315338035101
 31
0.0
  0
DIMENSION
  5
46BD
330
1F
100
AcDbEntity
  8
DIM
100
AcDbDimension
  2
*D10
 10
101.0974929710376
 20
218.5717376968509
 30
0.0
 11
93.09749305671928
 21
220.5717376968509
 31
0.0
 70
    32
 71
     5
 42
15.9999998286367
  3
AM_ANSI
100
AcDbAlignedDimension
 13
85.09749314240094
 23
188.9315338295874
 33
0.0
 14
101.0974929710376
 24
189.9315339935001
 34
0.0
100
AcDbRotatedDimension
1001
ACAD
1000
DSTYLE
1002
{
1070
    41
1040
2.0
1070
    42
1040
1.5
1070
    43
1040
8.0
1070
    44
1040
1.5
1070
    73
1070
     0
1070
    74
1070
     0
1070
    77
1070
     3
1070
   140
1040
2.0
1070
   141
1040
3.0
1070
   146
1040
0.6
1070
   147
1040
1.0
1070
   172
1070
     1
1070
   178
1070
   256
1070
   272
1070
     8
1070
   274
1070
     2
1070
   340
1005
3151
1002
}
  0
DIMENSION
  5
46BE
330
1F
100
AcDbEntity
  8
DIM
100
AcDbDimension
  2
*D11
 10
118.097492963587
 20
212.6454934854824
 30
0.0
 11
112.5974929933894
 21
214.6454934854824
 31
0.0
 70
    32
 71
     5
 42
10.99999994039535
  3
AM_ANSI
100
AcDbAlignedDimension
 13
107.0974930231917
 23
205.6815347124811
 33
0.0
 14
118.097492963587
 24
205.6815347124811
 34
0.0
100
AcDbRotatedDimension
1001
ACAD
1000
DSTYLE
1002
{
1070
    41
1040
2.0
1070
    42
1040
1.5
1070
    43
1040
8.0
1070
    44
1040
1.5
1070
    73
1070
     0
1070
    74
1070
     0
1070
    77
1070
     3
1070
   140
1040
2.0
1070
   141
1040
3.0
1070
   146
1040
0.6
1070
   147
1040
1.0
1070
   172
1070
     1
1070
   178
1070
   256
1070
   272
1070
     8
1070
   274
1070
     2
1070
   340
1005
3151
1002
}
  0
DIMENSION
  5
46BF
330
1F
100
AcDbEntity
  8
DIM
100
AcDbDimension
  2
*D12
 10
151.0974927847731
 20
212.6454934854813
 30
0.0
 11
145.5974928145755
 21
214.6454934854813
 31
0.0
 70
    32
 71
     5
 42
10.9999999403953
  3
AM_ANSI
100
AcDbAlignedDimension
 13
140.0974928443778
 23
205.681534712481
 33
0.0
 14
151.0974927847731
 24
205.681534712481
 34
0.0
100
AcDbRotatedDimension
1001
ACAD
1000
DSTYLE
1002
{
1070
    41
1040
2.0
1070
    42
1040
1.5
1070
    43
1040
8.0
1070
    44
1040
1.5
1070
    73
1070
     0
1070
    74
1070
     0
1070
    77
1070
     3
1070
   140
1040
2.0
1070
   141
1040
3.0
1070
   146
1040
0.6
1070
   147
1040
1.0
1070
   172
1070
     1
1070
   178
1070
   256
1070
   272
1070
     8
1070
   274
1070
     2
1070
   340
1005
3151
1002
}
  0
SOLID
  5
46C0
330
1F
100
AcDbEntity
  8
DIM
100
AcDbTrace
 10
88.44790778439715
 20
180.0466187612022
 30
0.0
 11
89.19504037679372
 21
181.9315336135204
 31
0.0
 12
87.87696959404511
 22
180.3908193237264
 32
0.0
 13
87.87696959404511
 23
180.3908193237264
 33
0.0
1001
ACAD
1000
DSTYLE
1002
{
1070
    41
1040
2.0
1070
    42
1040
1.5
1070
    43
1040
8.0
1070
    44
1040
1.5
1070
    73
1070
     0
1070
    74
1070
     0
1070
    77
1070
     3
1070
   140
1040
2.0
1070
   141
1040
3.0
1070
   146
1040
0.6
1070
   147
1040
1.0
1070
   172
1070
     1
1070
   178
1070
   256
1070
   272
1070
     2
1070
   274
1070
     2
1070
   340
1005
3151
1002
}
  0
LWPOLYLINE
  5
46C1
330
1F
100
AcDbEntity
  8
DIM
100
AcDbPolyline
 90
        3
 70
     0
 43
0.0
 10
88.16243868922112
 20
180.2187190424642
 10
83.54095232690339
 20
172.5164550960676
 10
71.47133231958878
 20
172.5164550960676
1001
ACAD
1000
DSTYLE
1002
{
1070
    41
1040
2.0
1070
    42
1040
1.5
1070
    43
1040
8.0
1070
    44
1040
1.5
1070
    73
1070
     0
1070
    74
1070
     0
1070
    77
1070
     3
1070
   140
1040
2.0
1070
   141
1040
3.0
1070
   146
1040
0.6
1070
   147
1040
1.0
1070
   172
1070
     1
1070
   178
1070
   256
1070
   272
1070
     2
1070
   274
1070
     2
1070
   340
1005
3151
1002
}
  0
MTEXT
  5
46C2
330
1F
100
AcDbEntity
  8
DIM
100
AcDbMText
 10
71.89159422149259
 20
175.1193894629595
 30
0.0
 40
2.0
 41
0.0
 71
     1
 72
     1
  1
M8*1.25
  7
dayus
 73
     1
 44
1.0
1001
ACAD
1000
MTEXTBEGIN
1070
    73
1070
     1
1070
    44
1040
1.0
1070
    74
1070
     0
1000
MTEXTEND
  0
DIMENSION
  5
48BE
330
1F
100
AcDbEntity
  8
DIM
100
AcDbDimension
  2
*D13
 10
114.0974930231916
 20
98.60567098306212
 30
0.0
 11
110.5974930231917
 21
100.6056709830621
 31
0.0
 70
    32
 71
     5
 42
7.0
  3
AM_ANSI
100
AcDbAlignedDimension
 13
107.0974930231916
 23
96.70286627049831
 33
0.0
 14
114.0974930231916
 24
81.16076755199864
 34
0.0
100
AcDbRotatedDimension
1001
ACAD
1000
DSTYLE
1002
{
1070
    41
1040
2.0
1070
    42
1040
1.5
1070
    43
1040
8.0
1070
    44
1040
1.5
1070
    73
1070
     0
1070
    74
1070
     0
1070
    77
1070
     3
1070
   140
1040
2.0
1070
   141
1040
3.0
1070
   146
1040
0.6
1070
   147
1040
1.0
1070
   172
1070
     1
1070
   178
1070
   256
1070
   272
1070
     8
1070
   274
1070
     2
1070
   340
1005
3151
1002
}
  0
DIMENSION
  5
48BF
330
1F
100
AcDbEntity
  8
DIM
100
AcDbDimension
  2
*D14
 10
151.0974924569476
 20
98.60567098306212
 30
0.0
 11
147.5974927400696
 21
100.6056709830621
 31
0.0
 70
    32
 71
     5
 42
6.999999433755931
  3
AM_ANSI
100
AcDbAlignedDimension
 13
144.0974930231917
 23
81.16076755199859
 33
0.0
 14
151.0974924569476
 24
96.70286627049812
 34
0.0
100
AcDbRotatedDimension
1001
ACAD
1000
DSTYLE
1002
{
1070
    41
1040
2.0
1070
    42
1040
1.5
1070
    43
1040
8.0
1070
    44
1040
1.5
1070
    73
1070
     0
1070
    74
1070
     0
1070
    77
1070
     3
1070
   140
1040
2.0
1070
   141
1040
3.0
1070
   146
1040
0.6
1070
   147
1040
1.0
1070
   172
1070
     1
1070
   178
1070
   256
1070
   272
1070
     8
1070
   274
1070
     2
1070
   340
1005
3151
1002
}
  0
DIMENSION
  5
48C0
330
1F
100
AcDbEntity
  8
DIM
100
AcDbDimension
  2
*D15
 10
151.0974927847731
 20
109.5930692548682
 30
0.0
 11
129.0974929039824
 21
111.5930692548682
 31
0.0
 70
    32
  1
39+stroke=<>
 71
     5
 42
43.99999976158136
  3
AM_ANSI
100
AcDbAlignedDimension
 13
107.0974930231917
 23
96.2028652572193
 33
0.0
 14
151.0974927847731
 24
96.20286525721917
 34
0.0
100
AcDbRotatedDimension
1001
ACAD
1000
DSTYLE
1002
{
1070
    41
1040
2.0
1070
    42
1040
1.5
1070
    43
1040
8.0
1070
    44
1040
1.5
1070
    73
1070
     0
1070
    74
1070
     0
1070
    77
1070
     3
1070
   140
1040
2.0
1070
   141
1040
3.0
1070
   146
1040
0.6
1070
   147
1040
1.0
1070
   172
1070
     1
1070
   178
1070
   256
1070
   272
1070
     8
1070
   274
1070
     2
1070
   340
1005
3151
1002
}
  0
DIMENSION
  5
48C1
330
1F
100
AcDbEntity
  8
DIM
100
AcDbDimension
  2
*D16
 10
151.0974927847731
 20
117.8091564818438
 30
0.0
 11
126.0974928779053
 21
119.8091564818438
 31
0.0
 70
    32
  1
45+stroke=<>
 71
     5
 42
49.99999981373554
  3
AM_ANSI
100
AcDbAlignedDimension
 13
101.0974929710375
 23
80.45286453823834
 33
0.0
 14
151.0974927847731
 24
95.95286475057969
 34
0.0
100
AcDbRotatedDimension
1001
ACAD
1000
DSTYLE
1002
{
1070
    41
1040
2.0
1070
    42
1040
1.5
1070
    43
1040
8.0
1070
    44
1040
1.5
1070
    73
1070
     0
1070
    74
1070
     0
1070
    77
1070
     3
1070
   140
1040
2.0
1070
   141
1040
3.0
1070
   146
1040
0.6
1070
   147
1040
1.0
1070
   172
1070
     1
1070
   178
1070
   256
1070
   272
1070
     8
1070
   274
1070
     2
1070
   340
1005
3151
1002
}
  0
DIMENSION
  5
48C2
330
1F
100
AcDbEntity
  8
DIM
100
AcDbDimension
  2
*D17
 10
107.0974930231916
 20
109.5930692548681
 30
0.0
 11
104.0974929971146
 21
111.5930692548681
 31
0.0
 70
    32
 71
     5
 42
6.000000052154064
  3
AM_ANSI
100
AcDbAlignedDimension
 13
101.0974929710376
 23
80.95286555151728
 33
0.0
 14
107.0974930231916
 24
96.70286627049831
 34
0.0
100
AcDbRotatedDimension
1001
ACAD
1000
DSTYLE
1002
{
1070
    41
1040
2.0
1070
    42
1040
1.5
1070
    43
1040
8.0
1070
    44
1040
1.5
1070
    73
1070
     0
1070
    74
1070
     0
1070
    77
1070
     3
1070
   140
1040
2.0
1070
   141
1040
3.0
1070
   146
1040
0.6
1070
   147
1040
1.0
1070
   172
1070
     1
1070
   178
1070
   256
1070
   272
1070
     8
1070
   274
1070
     2
1070
   340
1005
3151
1002
}
  0
DIMENSION
  5
48C4
330
1F
100
AcDbEntity
  8
DIM
100
AcDbDimension
  2
*D18
 10
118.0974929635871
 20
103.6668250434995
 30
0.0
 11
112.5974929933894
 21
105.6668250434995
 31
0.0
 70
    32
 71
     5
 42
10.99999994039541
  3
AM_ANSI
100
AcDbAlignedDimension
 13
107.0974930231916
 23
96.70286627049831
 33
0.0
 14
118.0974929635871
 24
96.2028652572193
 34
0.0
100
AcDbRotatedDimension
1001
ACAD
1000
DSTYLE
1002
{
1070
    41
1040
2.0
1070
    42
1040
1.5
1070
    43
1040
8.0
1070
    44
1040
1.5
1070
    73
1070
     0
1070
    74
1070
     0
1070
    77
1070
     3
1070
   140
1040
2.0
1070
   141
1040
3.0
1070
   146
1040
0.6
1070
   147
1040
1.0
1070
   172
1070
     1
1070
   178
1070
   256
1070
   272
1070
     8
1070
   274
1070
     2
1070
   340
1005
3151
1002
}
  0
DIMENSION
  5
48C5
330
1F
100
AcDbEntity
  8
DIM
100
AcDbDimension
  2
*D19
 10
151.0974927847731
 20
103.6668250434985
 30
0.0
 11
145.5974928145754
 21
105.6668250434984
 31
0.0
 70
    32
 71
     5
 42
10.99999994039535
  3
AM_ANSI
100
AcDbAlignedDimension
 13
140.0974928443777
 23
96.2028652572193
 33
0.0
 14
151.0974927847731
 24
96.70286627049813
 34
0.0
100
AcDbRotatedDimension
1001
ACAD
1000
DSTYLE
1002
{
1070
    41
1040
2.0
1070
    42
1040
1.5
1070
    43
1040
8.0
1070
    44
1040
1.5
1070
    73
1070
     0
1070
    74
1070
     0
1070
    77
1070
     3
1070
   140
1040
2.0
1070
   141
1040
3.0
1070
   146
1040
0.6
1070
   147
1040
1.0
1070
   172
1070
     1
1070
   178
1070
   256
1070
   272
1070
     8
1070
   274
1070
     2
1070
   340
1005
3151
1002
}
  0
LINE
  5
496F
330
1F
100
AcDbEntity
  8
CENTER
 48
0.8
100
AcDbLine
 10
144.0974930231917
 20
71.74496114449815
 30
0.0
 11
144.0974930231917
 21
81.16076755199859
 31
0.0
  0
LINE
  5
4970
330
1F
100
AcDbEntity
  8
CENTER
 48
0.8
100
AcDbLine
 10
148.8053962269419
 20
76.45286434824831
 30
0.0
 11
139.3895898194414
 21
76.45286434824831
 31
0.0
  0
LINE
  5
4971
330
1F
100
AcDbEntity
  8
CENTER
 48
0.8
100
AcDbLine
 10
114.0974930231916
 20
71.7449611444982
 30
0.0
 11
114.0974930231916
 21
81.16076755199864
 31
0.0
  0
LINE
  5
4972
330
1F
100
AcDbEntity
  8
CENTER
 48
0.8
100
AcDbLine
 10
118.8053962269419
 20
76.45286434824843
 30
0.0
 11
109.3895898194414
 21
76.45286434824843
 31
0.0
  0
ARC
  5
4973
330
1F
100
AcDbEntity
  8
0
 62
     3
100
AcDbCircle
 10
144.0974930231917
 20
76.45286434824837
 30
0.0
 40
2.5
100
AcDbArc
 50
344.4632242434407
 51
243.3773293786603
  0
ARC
  5
4974
330
1F
100
AcDbEntity
  8
0
 62
     3
100
AcDbCircle
 10
114.0974930231916
 20
76.45286434824843
 30
0.0
 40
2.5
100
AcDbArc
 50
344.4632242434407
 51
243.3773293786603
  0
LINE
  5
4975
330
1F
100
AcDbEntity
  8
CENTER
 48
1.3
100
AcDbLine
 10
98.51316741573237
 20
76.45286434824831
 30
0.0
 11
154.9077896715409
 21
76.45286434824831
 31
0.0
  0
LINE
  5
49DA
330
1F
100
AcDbEntity
  8
CENTER
 48
0.8
100
AcDbLine
 10
200.7464421815347
 20
185.9315338035104
 30
0.0
 11
238.080888038381
 21
185.9315338035104
 31
0.0
  0
LINE
  5
49DB
330
1F
100
AcDbEntity
  8
CENTER
 48
0.8
100
AcDbLine
 10
219.4136651099579
 20
167.2643108750872
 30
0.0
 11
219.4136651099579
 21
204.5987567319335
 31
0.0
  0
LINE
  5
49DC
330
1F
100
AcDbEntity
  8
CENTER
 48
0.8
100
AcDbLine
 10
232.4136651099577
 20
194.22363059976
 30
0.0
 11
232.4136651099577
 21
203.6394370072605
 31
0.0
  0
LINE
  5
49DD
330
1F
100
AcDbEntity
  8
CENTER
 48
0.8
100
AcDbLine
 10
237.121568313708
 20
198.9315338035102
 30
0.0
 11
227.7057619062075
 21
198.9315338035102
 31
0.0
  0
LINE
  5
49DE
330
1F
100
AcDbEntity
  8
CENTER
 48
0.8
100
AcDbLine
 10
234.4136647746816
 20
187.22363059976
 30
0.0
 11
234.4136647746816
 21
196.6394370072605
 31
0.0
  0
LINE
  5
49DF
330
1F
100
AcDbEntity
  8
CENTER
 48
0.8
100
AcDbLine
 10
239.1215679784318
 20
191.9315338035102
 30
0.0
 11
229.7057615709314
 21
191.9315338035102
 31
0.0
  0
ARC
  5
49E0
330
1F
100
AcDbEntity
  8
0
 62
     3
100
AcDbCircle
 10
232.4136651099577
 20
198.9315338035103
 30
0.0
 40
2.386484388181064
100
AcDbArc
 50
350.0000000000014
 51
279.9999999999986
  0
ARC
  5
49E1
330
1F
100
AcDbEntity
  8
0
 62
     3
100
AcDbCircle
 10
219.4136651099579
 20
185.9315338035104
 30
0.0
 40
3.442075145056735
100
AcDbArc
 50
350.0000000000014
 51
279.9999999999986
  0
LINE
  5
49E2
330
1F
100
AcDbEntity
  8
CENTER
 48
0.8
100
AcDbLine
 10
206.4136651099577
 20
194.2236305997602
 30
0.0
 11
206.4136651099577
 21
203.6394370072606
 31
0.0
  0
LINE
  5
49E3
330
1F
100
AcDbEntity
  8
CENTER
 48
0.8
100
AcDbLine
 10
211.1215683137079
 20
198.9315338035103
 30
0.0
 11
201.7057619062075
 21
198.9315338035103
 31
0.0
  0
ARC
  5
49E4
330
1F
100
AcDbEntity
  8
0
 62
     3
100
AcDbCircle
 10
206.4136651099577
 20
198.9315338035104
 30
0.0
 40
2.386484388181064
100
AcDbArc
 50
350.0000000000014
 51
279.9999999999986
  0
LINE
  5
49E5
330
1F
100
AcDbEntity
  8
CENTER
 48
0.8
100
AcDbLine
 10
206.4136651099576
 20
168.2236305997602
 30
0.0
 11
206.4136651099576
 21
177.6394370072606
 31
0.0
  0
LINE
  5
49E6
330
1F
100
AcDbEntity
  8
CENTER
 48
0.8
100
AcDbLine
 10
211.1215683137078
 20
172.9315338035103
 30
0.0
 11
201.7057619062074
 21
172.9315338035103
 31
0.0
  0
ARC
  5
49E7
330
1F
100
AcDbEntity
  8
0
 62
     3
100
AcDbCircle
 10
206.4136651099576
 20
172.9315338035104
 30
0.0
 40
2.386484388181064
100
AcDbArc
 50
350.0000000000014
 51
279.9999999999986
  0
LINE
  5
49E8
330
1F
100
AcDbEntity
  8
CENTER
 48
0.8
100
AcDbLine
 10
232.4136651099576
 20
168.2236305997601
 30
0.0
 11
232.4136651099576
 21
177.6394370072605
 31
0.0
  0
LINE
  5
49E9
330
1F
100
AcDbEntity
  8
CENTER
 48
0.8
100
AcDbLine
 10
237.1215683137078
 20
172.9315338035102
 30
0.0
 11
227.7057619062074
 21
172.9315338035102
 31
0.0
  0
ARC
  5
49EA
330
1F
100
AcDbEntity
  8
0
 62
     3
100
AcDbCircle
 10
232.4136651099576
 20
172.9315338035103
 30
0.0
 40
2.386484388181064
100
AcDbArc
 50
350.0000000000014
 51
279.9999999999986
  0
LINE
  5
49EB
330
1F
100
AcDbEntity
  8
CENTER
 48
0.8
100
AcDbLine
 10
232.4136651099578
 20
84.74496114449832
 30
0.0
 11
232.4136651099578
 21
94.16076755199876
 31
0.0
  0
LINE
  5
49EC
330
1F
100
AcDbEntity
  8
CENTER
 48
0.8
100
AcDbLine
 10
237.121568313708
 20
89.45286434824849
 30
0.0
 11
227.7057619062075
 21
89.45286434824849
 31
0.0
  0
ARC
  5
49ED
330
1F
100
AcDbEntity
  8
0
 62
     3
100
AcDbCircle
 10
232.4136651099578
 20
89.45286434824854
 30
0.0
 40
2.386484388181064
100
AcDbArc
 50
350.0000000000014
 51
279.9999999999986
  0
LINE
  5
49EE
330
1F
100
AcDbEntity
  8
CENTER
 48
0.8
100
AcDbLine
 10
206.4136651099577
 20
84.7449611444984
 30
0.0
 11
206.4136651099577
 21
94.16076755199885
 31
0.0
  0
LINE
  5
49EF
330
1F
100
AcDbEntity
  8
CENTER
 48
0.8
100
AcDbLine
 10
211.121568313708
 20
89.45286434824856
 30
0.0
 11
201.7057619062075
 21
89.45286434824856
 31
0.0
  0
ARC
  5
49F0
330
1F
100
AcDbEntity
  8
0
 62
     3
100
AcDbCircle
 10
206.4136651099577
 20
89.45286434824863
 30
0.0
 40
2.386484388181064
100
AcDbArc
 50
350.0000000000014
 51
279.9999999999986
  0
LINE
  5
49F1
330
1F
100
AcDbEntity
  8
CENTER
 48
0.8
100
AcDbLine
 10
206.4136651099577
 20
58.7449611444984
 30
0.0
 11
206.4136651099577
 21
68.16076755199884
 31
0.0
  0
LINE
  5
49F2
330
1F
100
AcDbEntity
  8
CENTER
 48
0.8
100
AcDbLine
 10
211.1215683137079
 20
63.45286434824856
 30
0.0
 11
201.7057619062075
 21
63.45286434824856
 31
0.0
  0
ARC
  5
49F3
330
1F
100
AcDbEntity
  8
0
 62
     3
100
AcDbCircle
 10
206.4136651099577
 20
63.45286434824862
 30
0.0
 40
2.386484388181064
100
AcDbArc
 50
350.0000000000014
 51
279.9999999999986
  0
LINE
  5
49F4
330
1F
100
AcDbEntity
  8
CENTER
 48
0.8
100
AcDbLine
 10
232.4136651099576
 20
58.74496114449832
 30
0.0
 11
232.4136651099576
 21
68.16076755199876
 31
0.0
  0
LINE
  5
49F5
330
1F
100
AcDbEntity
  8
CENTER
 48
0.8
100
AcDbLine
 10
237.1215683137079
 20
63.45286434824848
 30
0.0
 11
227.7057619062074
 21
63.45286434824848
 31
0.0
  0
ARC
  5
49F6
330
1F
100
AcDbEntity
  8
0
 62
     3
100
AcDbCircle
 10
232.4136651099576
 20
63.45286434824854
 30
0.0
 40
2.386484388181064
100
AcDbArc
 50
350.0000000000014
 51
279.9999999999986
  0
LINE
  5
49F7
330
1F
100
AcDbEntity
  8
CENTER
 48
0.8
100
AcDbLine
 10
200.7464421815346
 20
76.45286434824851
 30
0.0
 11
238.0808880383809
 21
76.45286434824851
 31
0.0
  0
LINE
  5
49F8
330
1F
100
AcDbEntity
  8
CENTER
 48
0.8
100
AcDbLine
 10
219.4136651099578
 20
57.78564141982537
 30
0.0
 11
219.4136651099578
 21
95.12008727667165
 31
0.0
  0
ARC
  5
49F9
330
1F
100
AcDbEntity
  8
0
 62
     3
100
AcDbCircle
 10
219.4136651099578
 20
76.45286434824851
 30
0.0
 40
2.895224516343054
100
AcDbArc
 50
350.0000000000014
 51
279.9999999999986
  0
LINE
  5
49FA
330
1F
100
AcDbEntity
  8
CENTER
 48
0.8
100
AcDbLine
 10
234.4136651099577
 20
77.74496114449826
 30
0.0
 11
234.4136651099577
 21
87.16076755199869
 31
0.0
  0
LINE
  5
49FB
330
1F
100
AcDbEntity
  8
CENTER
 48
0.8
100
AcDbLine
 10
239.121568313708
 20
82.45286434824842
 30
0.0
 11
229.7057619062075
 21
82.45286434824842
 31
0.0
  0
LINE
  5
49FC
330
1F
100
AcDbEntity
  8
CENTER
 48
0.8
100
AcDbLine
 10
234.4136651099576
 20
65.74496114449826
 30
0.0
 11
234.4136651099576
 21
75.1607675519987
 31
0.0
  0
LINE
  5
49FD
330
1F
100
AcDbEntity
  8
CENTER
 48
0.8
100
AcDbLine
 10
239.1215683137078
 20
70.45286434824842
 30
0.0
 11
229.7057619062074
 21
70.45286434824842
 31
0.0
  0
LINE
  5
49FE
330
1F
100
AcDbEntity
  8
CENTER
 48
0.8
100
AcDbLine
 10
204.4136651099577
 20
77.74496114449838
 30
0.0
 11
204.4136651099577
 21
87.16076755199882
 31
0.0
  0
LINE
  5
49FF
330
1F
100
AcDbEntity
  8
CENTER
 48
0.8
100
AcDbLine
 10
209.121568313708
 20
82.45286434824853
 30
0.0
 11
199.7057619062075
 21
82.45286434824853
 31
0.0
  0
LINE
  5
4A00
330
1F
100
AcDbEntity
  8
CENTER
 48
0.8
100
AcDbLine
 10
204.4136651099576
 20
65.74496114449835
 30
0.0
 11
204.4136651099576
 21
75.16076755199879
 31
0.0
  0
LINE
  5
4A01
330
1F
100
AcDbEntity
  8
CENTER
 48
0.8
100
AcDbLine
 10
209.1215683137078
 20
70.45286434824851
 30
0.0
 11
199.7057619062074
 21
70.45286434824851
 31
0.0
  0
LINE
  5
4A02
330
1F
100
AcDbEntity
  8
CENTER
 48
0.8
100
AcDbLine
 10
204.4136651099577
 20
187.2236305997601
 30
0.0
 11
204.4136651099577
 21
196.6394370072606
 31
0.0
  0
LINE
  5
4A03
330
1F
100
AcDbEntity
  8
CENTER
 48
0.8
100
AcDbLine
 10
209.1215683137079
 20
191.9315338035103
 30
0.0
 11
199.7057619062075
 21
191.9315338035103
 31
0.0
  0
LINE
  5
4A04
330
1F
100
AcDbEntity
  8
CENTER
 48
0.8
100
AcDbLine
 10
204.4136651099576
 20
175.2236305997601
 30
0.0
 11
204.4136651099576
 21
184.6394370072605
 31
0.0
  0
LINE
  5
4A05
330
1F
100
AcDbEntity
  8
CENTER
 48
0.8
100
AcDbLine
 10
209.1215683137078
 20
179.9315338035103
 30
0.0
 11
199.7057619062074
 21
179.9315338035103
 31
0.0
  0
LINE
  5
4A06
330
1F
100
AcDbEntity
  8
CENTER
 48
0.8
100
AcDbLine
 10
234.4136651099576
 20
175.22363059976
 30
0.0
 11
234.4136651099576
 21
184.6394370072605
 31
0.0
  0
LINE
  5
4A07
330
1F
100
AcDbEntity
  8
CENTER
 48
0.8
100
AcDbLine
 10
239.1215683137078
 20
179.9315338035102
 30
0.0
 11
229.7057619062074
 21
179.9315338035102
 31
0.0
  0
DIMENSION
  5
4A08
330
1F
100
AcDbEntity
  8
DIM
100
AcDbDimension
  2
*D21
 10
232.4136651099577
 20
210.0863039680974
 30
0.0
 11
219.4136651099577
 21
212.0863039680974
 31
0.0
 70
    32
  1
□<>
 71
     5
 42
26.0
  3
AM_ANSI
100
AcDbAlignedDimension
 13
206.4136651099577
 23
203.6394370072605
 33
0.0
 14
232.4136651099577
 24
203.6394370072605
 34
0.0
100
AcDbRotatedDimension
1001
ACAD
1000
DSTYLE
1002
{
1070
    41
1040
2.0
1070
    42
1040
1.5
1070
    43
1040
8.0
1070
    44
1040
1.5
1070
    73
1070
     0
1070
    74
1070
     0
1070
    77
1070
     3
1070
   140
1040
2.0
1070
   141
1040
3.0
1070
   146
1040
0.6
1070
   147
1040
1.0
1070
   172
1070
     1
1070
   178
1070
   256
1070
   272
1070
     8
1070
   274
1070
     2
1070
   340
1005
3151
1002
}
  0
DIMENSION
  5
4A0B
330
1F
100
AcDbEntity
  8
DIM
100
AcDbDimension
  2
*D20
 10
239.1636651099577
 20
217.4152260498389
 30
0.0
 11
219.4136645288121
 21
219.4152260498389
 31
0.0
 70
    32
  1
□<>
 71
     5
 42
39.50000116229126
  3
AM_ANSI
100
AcDbAlignedDimension
 13
199.6636639476664
 23
198.6815345336663
 33
0.0
 14
239.1636651099577
 24
198.6815338035102
 34
0.0
100
AcDbRotatedDimension
1001
ACAD
1000
DSTYLE
1002
{
1070
    41
1040
2.0
1070
    42
1040
1.5
1070
    43
1040
8.0
1070
    44
1040
1.5
1070
    73
1070
     0
1070
    74
1070
     0
1070
    77
1070
     3
1070
   140
1040
2.0
1070
   141
1040
3.0
1070
   146
1040
0.6
1070
   147
1040
1.0
1070
   172
1070
     1
1070
   178
1070
   256
1070
   272
1070
     8
1070
   274
1070
     2
1070
   340
1005
3151
1002
}
  0
LEADER
  5
4A0C
330
1F
100
AcDbEntity
  8
DIM
100
AcDbLeader
  3
AM_ANSI$7
 73
     0
 74
     0
 75
     1
 40
2.0
 41
17.9047619047619
 76
     3
 10
234.4021644039767
 20
199.8281150157871
 30
0.0
 10
241.127835800344
 20
209.4335304760083
 30
0.0
 10
243.127835800344
 20
209.4335304760083
 30
0.0
340
4A0D
213
1.061873878973585
223
0.1482579944929085
233
0.0
1001
ACAD
1000
DSTYLE
1002
{
1070
    41
1040
2.0
1070
    42
1040
1.5
1070
    43
1040
8.0
1070
    44
1040
1.5
1070
    73
1070
     0
1070
    74
1070
     0
1070
    77
1070
     3
1070
   140
1040
2.0
1070
   141
1040
3.0
1070
   146
1040
0.6
1070
   147
1040
1.0
1070
   172
1070
     1
1070
   178
1070
   256
1070
   272
1070
     2
1070
   274
1070
     2
1070
   340
1005
3151
1002
}
  0
MTEXT
  5
4A0D
102
{ACAD_REACTORS
330
4A0C
102
}
330
1F
100
AcDbEntity
  8
DIM
100
AcDbMText
 10
243.0659619213705
 20
212.2852724815154
 30
0.0
 40
2.0
 41
0.0
 71
     1
 72
     1
  1
2x4-M5x0.8
  7
dayus
 73
     1
 44
1.0
1001
ACAD
1000
MTEXTBEGIN
1070
    73
1070
     1
1070
    44
1040
1.0
1070
    74
1070
     0
1000
MTEXTEND
  0
LINE
  5
4A4B
330
1F
100
AcDbEntity
  8
AM_7
  6
ACISOTGB
 62
     2
100
AcDbLine
 10
128.0974927400695
 20
99.92855687815774
 30
0.0
 11
128.0974927400695
 21
50.77438383434921
 31
0.0
1001
GENIUS_GENOBJ-N-CEN_13
1002
{
1000
OWNER
1000
GEN
1002
}
1001
GENIUS_GENODEF_13
1002
{
1000
HIER
1070
     0
1002
}
1002
{
1000
MANEDIT
1070
     0
1002
}
1002
{
1000
NOSEL
1070
     0
1002
}
1002
{
1000
BEHIND
1070
     0
1002
}
1002
{
1000
OTHER
1070
     0
1002
}
1002
{
1000
REACTOR
1002
}
1001
GENIUS_GENCEN_19
1002
{
1040
3.0
1002
}
  0
INSERT
  5
4A4C
330
1F
100
AcDbEntity
  8
0
100
AcDbBlockReference
  2
A$C1F6E6265
 10
128.097492275863
 20
51.940203145607
 30
0.0
  0
DIMENSION
  5
4A4D
330
1F
100
AcDbEntity
  8
DIM
100
AcDbDimension
  2
*D22
 10
89.9635186573016
 20
71.45746472786456
 30
0.0
 11
87.96351865730157
 21
76.45516448217719
 31
0.0
 70
    32
  1
%%C<>
 71
     5
 42
9.995399508625254
  3
AM_ANSI
100
AcDbAlignedDimension
 13
106.0974929756941
 23
81.45286423648981
 33
0.0
 14
105.9829073534804
 24
71.45746472786455
 34
0.0
 50
90.0
100
AcDbRotatedDimension
1001
ACAD
1000
DSTYLE
1002
{
1070
    41
1040
2.0
1070
    42
1040
1.5
1070
    43
1040
8.0
1070
    44
1040
1.5
1070
    73
1070
     0
1070
    74
1070
     0
1070
    77
1070
     3
1070
   140
1040
2.0
1070
   141
1040
3.0
1070
   146
1040
0.6
1070
   147
1040
1.0
1070
   172
1070
     1
1070
   178
1070
   256
1070
   272
1070
     8
1070
   274
1070
     2
1070
   340
1005
3151
1002
}
  0
SOLID
  5
4A4E
330
1F
100
AcDbEntity
  8
DIM
100
AcDbTrace
 10
100.350360378641
 20
78.33777920056679
 30
0.0
 11
101.0974929710375
 21
76.45286434824853
 31
0.0
 12
99.77942218828895
 22
77.99357863804257
 32
0.0
 13
99.77942218828895
 23
77.99357863804257
 33
0.0
1001
ACAD
1000
DSTYLE
1002
{
1070
    41
1040
2.0
1070
    42
1040
1.5
1070
    43
1040
8.0
1070
    44
1040
1.5
1070
    73
1070
     0
1070
    74
1070
     0
1070
    77
1070
     3
1070
   140
1040
2.0
1070
   141
1040
3.0
1070
   146
1040
0.6
1070
   147
1040
1.0
1070
   172
1070
     1
1070
   178
1070
   256
1070
   272
1070
     2
1070
   274
1070
     2
1070
   340
1005
3151
1002
}
  0
LWPOLYLINE
  5
4A4F
330
1F
100
AcDbEntity
  8
DIM
100
AcDbPolyline
 90
        3
 70
     0
 43
0.0
 10
100.0648912834649
 20
78.16567891930469
 10
95.44340492114722
 20
85.86794286570142
 10
84.66219219691557
 20
85.86794286570142
1001
ACAD
1000
DSTYLE
1002
{
1070
    41
1040
2.0
1070
    42
1040
1.5
1070
    43
1040
8.0
1070
    44
1040
1.5
1070
    73
1070
     0
1070
    74
1070
     0
1070
    77
1070
     3
1070
   140
1040
2.0
1070
   141
1040
3.0
1070
   146
1040
0.6
1070
   147
1040
1.0
1070
   172
1070
     1
1070
   178
1070
   256
1070
   272
1070
     2
1070
   274
1070
     2
1070
   340
1005
3151
1002
}
  0
MTEXT
  5
4A50
330
1F
100
AcDbEntity
  8
DIM
100
AcDbMText
 10
85.21290641182233
 20
88.47087723259338
 30
0.0
 40
2.0
 41
0.0
 71
     1
 72
     1
  1
M6*1.0
  7
dayus
 73
     1
 44
1.0
1001
ACAD
1000
MTEXTBEGIN
1070
    73
1070
     1
1070
    44
1040
1.0
1070
    74
1070
     0
1000
MTEXTEND
  0
DIMENSION
  5
4B2D
330
1F
100
AcDbEntity
  8
DIM
100
AcDbDimension
  2
*D23
 10
232.4136651099576
 20
100.6076345128355
 30
0.0
 11
219.4136651099576
 21
102.6076345128355
 31
0.0
 70
    32
  1
□<>
 71
     5
 42
26.0
  3
AM_ANSI
100
AcDbAlignedDimension
 13
206.4136651099576
 23
94.16076755199867
 33
0.0
 14
232.4136651099576
 24
94.16076755199862
 34
0.0
100
AcDbRotatedDimension
1001
ACAD
1000
DSTYLE
1002
{
1070
    41
1040
2.0
1070
    42
1040
1.5
1070
    43
1040
8.0
1070
    44
1040
1.5
1070
    73
1070
     0
1070
    74
1070
     0
1070
    77
1070
     3
1070
   140
1040
2.0
1070
   141
1040
3.0
1070
   146
1040
0.6
1070
   147
1040
1.0
1070
   172
1070
     1
1070
   178
1070
   256
1070
   272
1070
     8
1070
   274
1070
     2
1070
   340
1005
3151
1002
}
  0
DIMENSION
  5
4B2E
330
1F
100
AcDbEntity
  8
DIM
100
AcDbDimension
  2
*D24
 10
239.1636651099577
 20
107.936556594577
 30
0.0
 11
219.413664528812
 21
109.936556594577
 31
0.0
 70
    32
  1
□<>
 71
     5
 42
39.50000116229126
  3
AM_ANSI
100
AcDbAlignedDimension
 13
199.6636639476664
 23
89.20286507840444
 33
0.0
 14
239.1636651099577
 24
89.2028643482484
 34
0.0
100
AcDbRotatedDimension
1001
ACAD
1000
DSTYLE
1002
{
1070
    41
1040
2.0
1070
    42
1040
1.5
1070
    43
1040
8.0
1070
    44
1040
1.5
1070
    73
1070
     0
1070
    74
1070
     0
1070
    77
1070
     3
1070
   140
1040
2.0
1070
   141
1040
3.0
1070
   146
1040
0.6
1070
   147
1040
1.0
1070
   172
1070
     1
1070
   178
1070
   256
1070
   272
1070
     8
1070
   274
1070
     2
1070
   340
1005
3151
1002
}
  0
LEADER
  5
4B2F
330
1F
100
AcDbEntity
  8
DIM
100
AcDbLeader
  3
AM_ANSI$7
 73
     0
 74
     0
 75
     1
 40
2.0
 41
17.9047619047619
 76
     3
 10
234.4021644039766
 20
90.34944556052526
 30
0.0
 10
241.127835800344
 20
99.95486102074647
 30
0.0
 10
243.127835800344
 20
99.95486102074647
 30
0.0
340
4B30
213
1.061873878973585
223
0.1482579944929085
233
0.0
1001
ACAD
1000
DSTYLE
1002
{
1070
    41
1040
2.0
1070
    42
1040
1.5
1070
    43
1040
8.0
1070
    44
1040
1.5
1070
    73
1070
     0
1070
    74
1070
     0
1070
    77
1070
     3
1070
   140
1040
2.0
1070
   141
1040
3.0
1070
   146
1040
0.6
1070
   147
1040
1.0
1070
   172
1070
     1
1070
   178
1070
   256
1070
   272
1070
     2
1070
   274
1070
     2
1070
   340
1005
3151
1002
}
  0
MTEXT
  5
4B30
102
{ACAD_REACTORS
330
4B2F
102
}
330
1F
100
AcDbEntity
  8
DIM
100
AcDbMText
 10
243.0659619213704
 20
102.8066030262535
 30
0.0
 40
2.0
 41
0.0
 71
     1
 72
     1
  1
2x4-M5x0.8
  7
dayus
 73
     1
 44
1.0
1001
ACAD
1000
MTEXTBEGIN
1070
    73
1070
     1
1070
    44
1040
1.0
1070
    74
1070
     0
1000
MTEXTEND
  0
DIMENSION
  5
4B80
330
1F
100
AcDbEntity
  8
DIM
100
AcDbDimension
  2
*D25
 10
95.38078573026405
 20
72.45286415825875
 30
0.0
 11
93.38078573026404
 21
76.45286434824857
 31
0.0
 70
    32
 71
     5
 42
8.00000037997961
  3
AM_ANSI
100
AcDbAlignedDimension
 13
101.0974929710375
 23
80.45286453823834
 33
0.0
 14
101.0974929710375
 24
72.45286415825873
 34
0.0
 50
90.0
100
AcDbRotatedDimension
1001
ACAD
1000
DSTYLE
1002
{
1070
    41
1040
2.0
1070
    42
1040
1.5
1070
    43
1040
8.0
1070
    44
1040
1.5
1070
    73
1070
     0
1070
    74
1070
     0
1070
    77
1070
     3
1070
   140
1040
2.0
1070
   141
1040
3.0
1070
   146
1040
0.6
1070
   147
1040
1.0
1070
   172
1070
     1
1070
   178
1070
   256
1070
   272
1070
     8
1070
   274
1070
     2
1070
   340
1005
3151
1002
}
  0
SOLID
  5
4BAB
330
1F
100
AcDbEntity
  8
DIM
100
AcDbTrace
 10
146.5892116065957
 20
183.2360066769171
 30
0.0
 11
146.5061398372465
 21
185.2618917161649
 31
0.0
 12
147.2417650371978
 22
183.3724561718005
 32
0.0
 13
147.2417650371978
 23
183.3724561718005
 33
0.0
1001
ACAD
1000
DSTYLE
1002
{
1070
    41
1040
2.0
1070
    42
1040
1.5
1070
    43
1040
8.0
1070
    44
1040
1.5
1070
    73
1070
     0
1070
    74
1070
     0
1070
    77
1070
     2
1070
   140
1040
2.0
1070
   141
1040
3.0
1070
   146
1040
0.6
1070
   147
1040
1.0
1070
   172
1070
     1
1070
   178
1070
   256
1070
   272
1070
     2
1070
   274
1070
     2
1070
   340
1005
3151
1002
}
  0
LWPOLYLINE
  5
4BAC
330
1F
100
AcDbEntity
  8
DIM
100
AcDbPolyline
 90
        3
 70
     0
 43
0.0
 10
146.9154883218967
 20
183.3042314243587
 10
148.2010230788831
 20
177.1563148157535
 10
167.3622063824085
 20
177.1563148157535
1001
ACAD
1000
DSTYLE
1002
{
1070
    41
1040
2.0
1070
    42
1040
1.5
1070
    43
1040
8.0
1070
    44
1040
1.5
1070
    73
1070
     0
1070
    74
1070
     0
1070
    77
1070
     2
1070
   140
1040
2.0
1070
   141
1040
3.0
1070
   146
1040
0.6
1070
   147
1040
1.0
1070
   172
1070
     1
1070
   178
1070
   256
1070
   272
1070
     2
1070
   274
1070
     2
1070
   340
1005
3151
1002
}
  0
MTEXT
  5
4BAD
330
1F
100
AcDbEntity
  8
DIM
100
AcDbMText
 10
166.9947343797367
 20
177.8785774133381
 30
0.0
 40
2.0
 41
0.0
 71
     9
 72
     1
  1
2-M5*0.8
  7
dayus
 73
     1
 44
1.0
1001
ACAD
1000
MTEXTBEGIN
1070
    73
1070
     1
1070
    44
1040
1.0
1070
    74
1070
     0
1000
MTEXTEND
  0
ENDSEC
  0
SECTION
  2
OBJECTS
  0
DICTIONARY
  5
C
330
0
100
AcDbDictionary
281
     1
  3
ACAD_COLOR
350
2FEA
  3
ACAD_GROUP
350
D
  3
ACAD_LAYOUT
350
1A
  3
ACAD_MATERIAL
350
2FE9
  3
ACAD_MLINESTYLE
350
17
  3
ACAD_PLOTSETTINGS
350
19
  3
ACAD_PLOTSTYLENAME
350
E
  3
ACAD_TABLESTYLE
350
2FEB
  3
AcadDim
350
1E82
  3
ACDBHEADERROUNDTRIPXREC
350
4C72
  3
AcDbVariableDictionary
350
1488
  3
AcmDictionary
350
3900
  3
AMG
350
38AC
  3
AMGSNAPSETTINGS
350
39E0
  3
DWGPROPS
350
4C71
  3
MAPISURF_MODULE
350
3CF1
  0
DICTIONARY
  5
315B
330
2
100
AcDbDictionary
280
     1
281
     1
  3
ACAD_LAYERSTATES
360
315C
  0
DICTIONARY
  5
2F55
330
1F
100
AcDbDictionary
280
     1
281
     1
  3
ACAD_INDEX
360
485F
  3
ACAD_LAYOUTSELFREF
360
2F8F
  0
DICTIONARY
  5
2F57
330
1B
100
AcDbDictionary
280
     1
281
     1
  3
ACAD_LAYOUTSELFREF
360
2F8E
  0
DICTIONARY
  5
2F59
330
23
100
AcDbDictionary
280
     1
281
     1
  3
ACAD_LAYOUTSELFREF
360
2F90
  0
DICTIONARY
  5
3BCF
330
3BCE
100
AcDbDictionary
280
     1
281
     1
  0
DICTIONARY
  5
3C58
330
3C57
100
AcDbDictionary
280
     1
281
     1
  3
ACAD_SORTENTS
360
4308
  0
DICTIONARY
  5
2FEA
102
{ACAD_REACTORS
330
C
102
}
330
C
100
AcDbDictionary
281
     1
  0
DICTIONARY
  5
D
102
{ACAD_REACTORS
330
C
102
}
330
C
100
AcDbDictionary
281
     1
  0
DICTIONARY
  5
1A
102
{ACAD_REACTORS
330
C
102
}
330
C
100
AcDbDictionary
281
     1
  3
Layout1
350
1E
  3
Layout2
350
26
  3
Model
350
22
  0
DICTIONARY
  5
2FE9
102
{ACAD_REACTORS
330
C
102
}
330
C
100
AcDbDictionary
281
     1
  0
DICTIONARY
  5
17
102
{ACAD_REACTORS
330
C
102
}
330
C
100
AcDbDictionary
281
     1
  3
Standard
350
18
  0
DICTIONARY
  5
19
102
{ACAD_REACTORS
330
C
102
}
330
C
100
AcDbDictionary
281
     1
  0
ACDBDICTIONARYWDFLT
  5
E
102
{ACAD_REACTORS
330
C
102
}
330
C
100
AcDbDictionary
281
     1
  3
Normal
350
F
100
AcDbDictionaryWithDefault
340
F
1001
ACAD
1000
TREAT_AS_HARD
1070
     0
  0
DICTIONARY
  5
2FEB
102
{ACAD_REACTORS
330
C
102
}
330
C
100
AcDbDictionary
281
     1
  3
Standard
350
2FEC
  0
XRECORD
  5
1E82
102
{ACAD_REACTORS
330
C
102
}
330
C
100
AcDbXrecord
280
     1
 90
   990106
  3

 60
     0
 61
     0
 62
     4
 63
     4
 64
     1
 65
     0
 66
     0
 67
     3
 68
     1
 69
     0
 70
     0
 71
     0
 72
     0
 40
0.0
170
     2
340
0
  0
DICTIONARY
  5
4C72
102
{ACAD_REACTORS
330
C
102
}
330
C
100
AcDbDictionary
281
     1
  0
DICTIONARY
  5
1488
102
{ACAD_REACTORS
330
C
102
}
330
C
100
AcDbDictionary
281
     1
  3
CTABLESTYLE
350
374E
  3
DIMASSOC
350
3B07
  3
INDEXCTL
350
4C5D
  3
PROJECTNAME
350
3B08
  3
SORTENTS
350
1489
  0
DICTIONARY
  5
3900
102
{ACAD_REACTORS
330
C
102
}
330
C
100
AcDbDictionary
281
     1
  3
AcmStdDictionary
350
390D
  3
AMDTSECTSYM_ARROWCOLOR
350
3928
  0
DICTIONARY
  5
38AC
102
{ACAD_REACTORS
330
C
102
}
330
C
100
AcDbDictionary
281
     1
  3
AcMgSettings
350
3B12
  0
DICTIONARY
  5
39E0
102
{ACAD_REACTORS
330
C
102
}
330
C
100
AcDbDictionary
281
     1
  0
XRECORD
  5
4C71
102
{ACAD_REACTORS
330
C
102
}
330
C
100
AcDbXrecord
280
     1
  1
DWGPROPS COOKIE
  2

  3

  4

  6

  7

  8

  9

300
AmdtFileType=84
301
=
302
=
303
=
304
=
305
=
306
=
307
=
308
=
309
=
 40
0.5984354398148149
 41
2452019.631085301
 42
2456885.440351737
  1

 90
        1
  0
DICTIONARY
  5
315C
102
{ACAD_REACTORS
330
315B
102
}
330
315B
100
AcDbDictionary
281
     1
  0
DICTIONARY
  5
485F
102
{ACAD_REACTORS
330
2F55
102
}
330
2F55
100
AcDbDictionary
281
     1
  3
*A1
350
4860
  0
XRECORD
  5
2F8F
102
{ACAD_REACTORS
330
2F55
102
}
330
2F55
100
AcDbXrecord
280
     1
340
1F
  0
XRECORD
  5
2F8E
102
{ACAD_REACTORS
330
2F57
102
}
330
2F57
100
AcDbXrecord
280
     1
340
1B
  0
XRECORD
  5
2F90
102
{ACAD_REACTORS
330
2F59
102
}
330
2F59
100
AcDbXrecord
280
     1
340
23
  0
SORTENTSTABLE
  5
4308
102
{ACAD_REACTORS
330
3C58
102
}
330
3C58
100
AcDbSortentsTable
330
3C57
  0
LAYOUT
  5
1E
102
{ACAD_XDICTIONARY
360
4C73
102
}
102
{ACAD_REACTORS
330
1A
102
}
330
1A
100
AcDbPlotSettings
  1

  2

  4

  6

 40
0.0
 41
0.0
 42
0.0
 43
0.0
 44
0.0
 45
0.0
 46
0.0
 47
0.0
 48
0.0
 49
0.0
140
0.0
141
0.0
142
1.0
143
1.0
 70
   688
 72
     0
 73
     0
 74
     5
  7

 75
    16
147
1.0
148
0.0
149
0.0
100
AcDbLayout
  1
Layout1
 70
     1
 71
     1
 10
0.0
 20
0.0
 11
12.0
 21
9.0
 12
0.0
 22
0.0
 32
0.0
 14
1.000000000000000E+20
 24
1.000000000000000E+20
 34
1.000000000000000E+20
 15
-1.000000000000000E+20
 25
-1.000000000000000E+20
 35
-1.000000000000000E+20
146
0.0
 13
0.0
 23
0.0
 33
0.0
 16
1.0
 26
0.0
 36
0.0
 17
0.0
 27
1.0
 37
0.0
 76
     0
330
1B
  0
LAYOUT
  5
26
102
{ACAD_XDICTIONARY
360
4C77
102
}
102
{ACAD_REACTORS
330
1A
102
}
330
1A
100
AcDbPlotSettings
  1

  2

  4

  6

 40
0.0
 41
0.0
 42
0.0
 43
0.0
 44
0.0
 45
0.0
 46
0.0
 47
0.0
 48
0.0
 49
0.0
140
0.0
141
0.0
142
1.0
143
1.0
 70
   688
 72
     0
 73
     0
 74
     5
  7

 75
    16
147
1.0
148
0.0
149
0.0
100
AcDbLayout
  1
Layout2
 70
     1
 71
     2
 10
0.0
 20
0.0
 11
12.0
 21
9.0
 12
0.0
 22
0.0
 32
0.0
 14
0.0
 24
0.0
 34
0.0
 15
0.0
 25
0.0
 35
0.0
146
0.0
 13
0.0
 23
0.0
 33
0.0
 16
1.0
 26
0.0
 36
0.0
 17
0.0
 27
1.0
 37
0.0
 76
     0
330
23
  0
LAYOUT
  5
22
102
{ACAD_XDICTIONARY
360
4C75
102
}
102
{ACAD_REACTORS
330
1A
102
}
330
1A
100
AcDbPlotSettings
  1

  2
DWF Classic.pc3
  4
ISO_A3_(420.00_x_297.00_MM)
  6

 40
5.793749809265136
 41
17.79375076293945
 42
5.79376220703125
 43
17.79376220703125
 44
420.0
 45
297.0
 46
43.31
 47
0.0
 48
0.0
 49
0.0
140
0.0
141
0.0
142
1.0
143
0.8509047238274899
 70
 11956
 72
     1
 73
     1
 74
     1
  7

 75
     0
147
1.175219706739737
148
-57.1339595094488
149
-6.995449403208453
100
AcDbLayout
  1
Model
 70
     1
 71
     0
 10
0.0
 20
0.0
 11
12.0
 21
9.0
 12
0.0
 22
0.0
 32
0.0
 14
0.0
 24
0.0
 34
0.0
 15
0.0
 25
0.0
 35
0.0
146
0.0
 13
0.0
 23
0.0
 33
0.0
 16
1.0
 26
0.0
 36
0.0
 17
0.0
 27
1.0
 37
0.0
 76
     0
330
1F
  0
MLINESTYLE
  5
18
102
{ACAD_REACTORS
330
17
102
}
330
17
100
AcDbMlineStyle
  2
STANDARD
 70
     0
  3

 62
   256
 51
90.0
 52
90.0
 71
     2
 49
0.5
 62
   256
  6
BYLAYER
 49
-0.5
 62
   256
  6
BYLAYER
  0
ACDBPLACEHOLDER
  5
F
102
{ACAD_REACTORS
330
E
102
}
330
E
  0
TABLESTYLE
  5
2FEC
102
{ACAD_REACTORS
330
2FEB
102
}
330
2FEB
100
AcDbTableStyle
  3
Standard
 70
     0
 71
     0
 40
1.5
 41
1.5
280
     0
281
     0
  7
Standard
140
4.5
170
     2
 62
     0
 63
     7
283
     0
274
    -2
284
     1
 64
     0
275
    -2
285
     1
 65
     0
276
    -2
286
     1
 66
     0
277
    -2
287
     1
 67
     0
278
    -2
288
     1
 68
     0
279
    -2
289
     1
 69
     0
  7
Standard
140
6.0
170
     5
 62
     0
 63
     7
283
     0
274
    -2
284
     1
 64
     0
275
    -2
285
     1
 65
     0
276
    -2
286
     1
 66
     0
277
    -2
287
     1
 67
     0
278
    -2
288
     1
 68
     0
279
    -2
289
     1
 69
     0
  7
Standard
140
4.5
170
     5
 62
     0
 63
     7
283
     0
274
    -2
284
     1
 64
     0
275
    -2
285
     1
 65
     0
276
    -2
286
     1
 66
     0
277
    -2
287
     1
 67
     0
278
    -2
288
     1
 68
     0
279
    -2
289
     1
 69
     0
  0
DICTIONARYVAR
  5
374E
102
{ACAD_REACTORS
330
1488
102
}
330
1488
100
DictionaryVariables
280
     0
  1
STANDARD
  0
DICTIONARYVAR
  5
3B07
102
{ACAD_REACTORS
330
1488
102
}
330
1488
100
DictionaryVariables
280
     0
  1
1
  0
DICTIONARYVAR
  5
4C5D
102
{ACAD_REACTORS
330
1488
102
}
330
1488
100
DictionaryVariables
280
     0
  1
1
  0
DICTIONARYVAR
  5
3B08
102
{ACAD_REACTORS
330
1488
102
}
330
1488
100
DictionaryVariables
280
     0
  1

  0
DICTIONARYVAR
  5
1489
102
{ACAD_REACTORS
330
1488
102
}
330
1488
100
DictionaryVariables
280
     0
  1
96
  0
DICTIONARY
  5
390D
102
{ACAD_REACTORS
330
3900
102
}
330
3900
100
AcDbDictionary
281
     1
  0
XRECORD
  5
3928
102
{ACAD_REACTORS
330
3900
102
}
330
3900
100
AcDbXrecord
280
     1
 90
-1023410169
  0
DICTIONARY
  5
3B12
102
{ACAD_REACTORS
330
38AC
102
}
330
38AC
100
AcDbDictionary
281
     1
  3
DWGSETTINGS
350
3B13
  3
TRANSSETTINGS
350
3B14
  0
LAYER_INDEX
  5
4860
102
{ACAD_REACTORS
330
485F
102
}
330
485F
100
AcDbIndex
 40
2456885.440351737
100
AcDbLayerIndex
  8
0
360
4861
 90
      413
  8
DIM
360
4862
 90
       37
  8
CENTER
360
4863
 90
       46
  8
LOGO
360
4864
 90
      127
  8
Defpoints
360
4865
 90
        0
  8
AM_VIS
360
4866
 90
        0
  8
AM_4
360
4867
 90
        0
  8
AM_7
360
4868
 90
        2
  8
AM_5
360
4869
 90
        0
  0
DICTIONARY
  5
4C73
330
1E
100
AcDbDictionary
280
     1
281
     1
  3
ACAD_XREC_ROUNDTRIP
360
4C74
  0
DICTIONARY
  5
4C77
330
26
100
AcDbDictionary
280
     1
281
     1
  3
ACAD_XREC_ROUNDTRIP
360
4C78
  0
DICTIONARY
  5
4C75
330
22
100
AcDbDictionary
280
     1
281
     1
  3
ACAD_XREC_ROUNDTRIP
360
4C76
  0
IDBUFFER
  5
4861
330
0
100
AcDbIdBuffer
330
A9
330
AA
330
AB
330
AC
330
B1
330
B2
330
10B3
330
17B4
330
17B5
330
17BF
330
18E7
330
3A7C
330
3A7D
330
3A7E
330
3E98
330
3E99
330
3E9A
330
3E9B
330
3E9C
330
3E9D
330
3E9E
330
3E9F
330
3EA0
330
3EA1
330
3EA2
330
3EA3
330
3EA4
330
3EA5
330
3EA6
330
3EA7
330
3EA8
330
3EA9
330
3EAA
330
3EAB
330
3EAC
330
3EAD
330
3EAE
330
3EAF
330
3EB0
330
3EB1
330
3EB2
330
3EB3
330
3EB4
330
3EB5
330
3EB6
330
3EB7
330
3EB8
330
3EB9
330
3EBA
330
3EBB
330
3EBC
330
3EBD
330
3EBE
330
3EBF
330
3EC0
330
3EC1
330
3EC2
330
3EC3
330
3EC4
330
3EC5
330
3EC6
330
3EC7
330
3EC8
330
3EC9
330
3ECA
330
3ECB
330
3ECC
330
3ECD
330
3ECE
330
3ECF
330
3ED0
330
3ED1
330
3ED2
330
3ED3
330
3ED4
330
3ED5
330
3ED6
330
3ED7
330
3ED8
330
3ED9
330
3EDA
330
3EDB
330
3EDC
330
3EDD
330
3EDE
330
3EDF
330
3EE0
330
3EE1
330
3EE2
330
3EE3
330
3EE4
330
3EE5
330
3EE6
330
3EE7
330
3EE8
330
3EE9
330
3EEA
330
3EEB
330
3EEC
330
3EED
330
3EEE
330
3EEF
330
3EF0
330
3EF1
330
3EF2
330
3EF3
330
3EF4
330
3EF5
330
3EF6
330
3EF7
330
3EF8
330
3EF9
330
3EFA
330
3EFB
330
3EFC
330
3EFD
330
3EFE
330
3EFF
330
3F00
330
3F01
330
3F02
330
3F03
330
3F04
330
3F05
330
3F06
330
3F07
330
3F08
330
3F09
330
3F0A
330
3F0B
330
3F0C
330
3F0D
330
3F0E
330
3F0F
330
3F10
330
3F11
330
3F12
330
3F13
330
3F14
330
3F15
330
3F16
330
3F17
330
3F18
330
3F19
330
3F1A
330
3F1B
330
3F1C
330
3F1D
330
3F1E
330
3F1F
330
3F20
330
3F21
330
3F22
330
3F23
330
3F24
330
3F25
330
3F26
330
3F27
330
3F28
330
3F29
330
3F2A
330
3F2B
330
3F2C
330
3F2D
330
3F2E
330
3F2F
330
3F30
330
3F31
330
3F32
330
3F33
330
3F34
330
3F35
330
3F36
330
3F37
330
3F38
330
3F39
330
3F3A
330
3F3B
330
3F3C
330
3F3D
330
3F3E
330
3F3F
330
3F40
330
3F41
330
3F42
330
3F43
330
3F44
330
3F45
330
3F46
330
3F47
330
3F48
330
3F49
330
3F4A
330
3F4B
330
3F4C
330
3F4D
330
3F4E
330
3F4F
330
3F50
330
3F51
330
3F52
330
3F53
330
3F54
330
3F55
330
3F56
330
3F57
330
3F58
330
3F59
330
3F5A
330
3F5B
330
3F5C
330
3F5D
330
3F5E
330
3F5F
330
3F60
330
3F61
330
3F62
330
3F63
330
3F64
330
3F65
330
3F66
330
3F67
330
3F68
330
3F69
330
3F6A
330
3F6B
330
3F6C
330
3F6D
330
3F6E
330
3F6F
330
3F70
330
3F71
330
3F72
330
3F73
330
3F74
330
3F75
330
3F76
330
3F77
330
3F78
330
3F79
330
3F7A
330
3F7B
330
3F7C
330
3F7D
330
3F7E
330
3F7F
330
3F80
330
3F81
330
3F82
330
3F83
330
3F84
330
3F85
330
3F86
330
3F87
330
3F88
330
3F89
330
3F8A
330
3F8B
330
3F8C
330
3F8D
330
3F8E
330
3F8F
330
3F90
330
3F91
330
3F92
330
3F93
330
3F94
330
3F95
330
3F96
330
3F97
330
3F98
330
3F99
330
3F9A
330
3F9B
330
3F9C
330
3F9D
330
3F9E
330
3F9F
330
3FA0
330
3FA1
330
3FA2
330
3FA3
330
3FA4
330
3FA5
330
3FA6
330
3FA7
330
3FA8
330
3FA9
330
3FAA
330
3FAB
330
3FAC
330
3FAD
330
3FAE
330
3FAF
330
3FB0
330
3FB1
330
3FB2
330
3FB3
330
3FB4
330
3FB5
330
3FB6
330
3FB7
330
3FB8
330
3FB9
330
3FBA
330
3FBB
330
3FBC
330
3FBD
330
3FBE
330
3FBF
330
3FC0
330
3FC1
330
3FC2
330
3FC3
330
3FC4
330
3FC5
330
3FC6
330
3FC7
330
3FC8
330
3FC9
330
3FCA
330
3FCB
330
3FCC
330
3FCD
330
3FCE
330
3FCF
330
3FD0
330
3FD1
330
3FD2
330
3FD3
330
3FD4
330
3FD5
330
3FD6
330
3FD7
330
3FD8
330
3FD9
330
3FDA
330
3FDB
330
3FDC
330
3FDD
330
3FDE
330
3FDF
330
3FE0
330
3FE1
330
3FE2
330
3FE3
330
3FE4
330
3FE5
330
3FE6
330
3FE7
330
3FE8
330
3FE9
330
3FEA
330
3FEB
330
3FEC
330
3FED
330
3FEE
330
3FF0
330
3FF1
330
3FF2
330
3FF3
330
3FF4
330
3FF5
330
3FF6
330
3FF7
330
3FF8
330
3FF9
330
3FFA
330
3FFB
330
3FFC
330
3FFD
330
3FFE
330
3FFF
330
4000
330
4001
330
4002
330
4003
330
4004
330
4005
330
4006
330
4007
330
4008
330
4009
330
400A
330
400B
330
400C
330
400D
330
400E
330
400F
330
4010
330
4011
330
4012
330
4013
330
430F
330
4321
330
44D8
330
44D9
330
46B7
330
46B8
330
46B9
330
4973
330
4974
330
49E0
330
49E1
330
49E4
330
49E7
330
49EA
330
49ED
330
49F0
330
49F3
330
49F6
330
49F9
330
4A4C
  0
IDBUFFER
  5
4862
330
0
100
AcDbIdBuffer
330
44DD
330
46AD
330
46AE
330
46AF
330
46B0
330
46B5
330
46BA
330
46BB
330
46BD
330
46BE
330
46BF
330
46C0
330
46C1
330
46C2
330
48BE
330
48BF
330
48C0
330
48C1
330
48C2
330
48C4
330
48C5
330
4A08
330
4A0B
330
4A0C
330
4A0D
330
4A4D
330
4A4E
330
4A4F
330
4A50
330
4B2D
330
4B2E
330
4B2F
330
4B30
330
4B80
330
4BAB
330
4BAC
330
4BAD
  0
IDBUFFER
  5
4863
330
0
100
AcDbIdBuffer
330
46B1
330
46B2
330
46B3
330
46B4
330
46BC
330
496F
330
4970
330
4971
330
4972
330
4975
330
49DA
330
49DB
330
49DC
330
49DD
330
49DE
330
49DF
330
49E2
330
49E3
330
49E5
330
49E6
330
49E8
330
49E9
330
49EB
330
49EC
330
49EE
330
49EF
330
49F1
330
49F2
330
49F4
330
49F5
330
49F7
330
49F8
330
49FA
330
49FB
330
49FC
330
49FD
330
49FE
330
49FF
330
4A00
330
4A01
330
4A02
330
4A03
330
4A04
330
4A05
330
4A06
330
4A07
  0
IDBUFFER
  5
4864
330
0
100
AcDbIdBuffer
330
17BD
330
17BE
330
17C3
330
17C4
330
17C5
330
17C6
330
17C7
330
1802
330
1803
330
1804
330
1805
330
1806
330
1807
330
1808
330
1809
330
180A
330
180B
330
180C
330
180D
330
180E
330
180F
330
1810
330
1868
330
1869
330
186A
330
186B
330
186C
330
186D
330
186E
330
186F
330
1870
330
1871
330
1872
330
1873
330
1874
330
1875
330
1876
330
1877
330
1878
330
1879
330
187A
330
187B
330
187C
330
187D
330
187E
330
187F
330
1880
330
1881
330
1882
330
1883
330
1885
330
1886
330
1887
330
1888
330
1889
330
188A
330
188B
330
188C
330
188D
330
188E
330
188F
330
1890
330
1891
330
39E8
330
39E9
330
39EA
330
39EB
330
39EC
330
39ED
330
39EE
330
39EF
330
39F0
330
39F1
330
39F2
330
39F3
330
39F4
330
39F5
330
39F6
330
39F7
330
39F8
330
39F9
330
39FA
330
39FB
330
39FC
330
39FD
330
39FE
330
39FF
330
3A00
330
3A01
330
3A02
330
3A03
330
3A04
330
3A05
330
3A09
330
3A0D
330
3A0E
330
3A12
330
3A13
330
3A14
330
3A15
330
3A16
330
3A17
330
3A18
330
3A19
330
3A1D
330
3A21
330
3A25
330
3A26
330
3A27
330
3A2B
330
3A2C
330
3A2D
330
3A2E
330
3A2F
330
3A30
330
3A31
330
3A32
330
3A33
330
3A34
330
3A35
330
3A36
330
3A76
330
3A77
330
3A78
330
3A79
330
3A7A
330
3A7B
  0
IDBUFFER
  5
4865
330
0
100
AcDbIdBuffer
  0
IDBUFFER
  5
4866
330
0
100
AcDbIdBuffer
  0
IDBUFFER
  5
4867
330
0
100
AcDbIdBuffer
  0
IDBUFFER
  5
4868
330
0
100
AcDbIdBuffer
330
46B6
330
4A4B
  0
IDBUFFER
  5
4869
330
0
100
AcDbIdBuffer
  0
XRECORD
  5
4C74
102
{ACAD_REACTORS
330
4C73
102
}
330
4C73
100
AcDbXrecord
280
     1
102
SHADEPLOT
 70
     0
102
SHADEPLOTRESLEVEL
 70
     2
102
SHADEPLOTCUSTOMDPI
 70
   300
  0
XRECORD
  5
4C78
102
{ACAD_REACTORS
330
4C77
102
}
330
4C77
100
AcDbXrecord
280
     1
102
SHADEPLOT
 70
     0
102
SHADEPLOTRESLEVEL
 70
     2
102
SHADEPLOTCUSTOMDPI
 70
   300
  0
XRECORD
  5
4C76
102
{ACAD_REACTORS
330
4C75
102
}
330
4C75
100
AcDbXrecord
280
     1
102
SHADEPLOT
 70
     0
102
SHADEPLOTRESLEVEL
 70
     2
102
SHADEPLOTCUSTOMDPI
 70
   300
  0
ENDSEC
  0
EOF
