  0
SECTION
  2
HEADER
  9
$ACADVER
  1
AC1015
  9
$ACADMAINTVER
 70
    20
  9
$DWGCODEPAGE
  3
ANSI_950
  9
$INSBASE
 10
0.0
 20
0.0
 30
0.0
  9
$EXTMIN
 10
-0.4706550713615343
 20
201.1626885908956
 30
0.0
  9
$EXTMAX
 10
271.6277841472795
 20
498.3383184385226
 30
231.644530280888
  9
$LIMMIN
 10
0.0
 20
0.0
  9
$LIMMAX
 10
12.0
 20
9.0
  9
$ORTHOMODE
 70
     0
  9
$REGENMODE
 70
     1
  9
$FILLMODE
 70
     1
  9
$QTEXTMODE
 70
     0
  9
$MIRRTEXT
 70
     1
  9
$LTSCALE
 40
5.0
  9
$ATTMODE
 70
     1
  9
$TEXTSIZE
 40
4.5
  9
$TRACEWID
 40
0.05
  9
$TEXTSTYLE
  7
CHINESET
  9
$CLAYER
  8
0
  9
$CELTYPE
  6
ByLayer
  9
$CECOLOR
 62
   256
  9
$CELTSCALE
 40
1.0
  9
$DISPSILH
 70
     0
  9
$DIMSCALE
 40
1.0
  9
$DIMASZ
 40
3.0
  9
$DIMEXO
 40
3.0
  9
$DIMDLI
 40
2.0
  9
$DIMRND
 40
0.0
  9
$DIMDLE
 40
0.0
  9
$DIMEXE
 40
2.0
  9
$DIMTP
 40
0.0
  9
$DIMTM
 40
0.0
  9
$DIMTXT
 40
3.0
  9
$DIMCEN
 40
-3.0
  9
$DIMTSZ
 40
0.0
  9
$DIMTOL
 70
     0
  9
$DIMLIM
 70
     0
  9
$DIMTIH
 70
     0
  9
$DIMTOH
 70
     0
  9
$DIMSE1
 70
     0
  9
$DIMSE2
 70
     0
  9
$DIMTAD
 70
     1
  9
$DIMZIN
 70
     8
  9
$DIMBLK
  1

  9
$DIMASO
 70
     1
  9
$DIMSHO
 70
     1
  9
$DIMPOST
  1

  9
$DIMAPOST
  1

  9
$DIMALT
 70
     0
  9
$DIMALTD
 70
     2
  9
$DIMALTF
 40
25.4
  9
$DIMLFAC
 40
1.0
  9
$DIMTOFL
 70
     1
  9
$DIMTVP
 40
0.0
  9
$DIMTIX
 70
     0
  9
$DIMSOXD
 70
     0
  9
$DIMSAH
 70
     0
  9
$DIMBLK1
  1

  9
$DIMBLK2
  1

  9
$DIMSTYLE
  2
ISO-25-1
  9
$DIMCLRD
 70
   256
  9
$DIMCLRE
 70
   256
  9
$DIMCLRT
 70
   256
  9
$DIMTFAC
 40
0.7
  9
$DIMGAP
 40
1.0
  9
$DIMJUST
 70
     0
  9
$DIMSD1
 70
     0
  9
$DIMSD2
 70
     0
  9
$DIMTOLJ
 70
     1
  9
$DIMTZIN
 70
     8
  9
$DIMALTZ
 70
     0
  9
$DIMALTTZ
 70
     0
  9
$DIMUPT
 70
     0
  9
$DIMDEC
 70
     2
  9
$DIMTDEC
 70
     8
  9
$DIMALTU
 70
     2
  9
$DIMALTTD
 70
     2
  9
$DIMTXSTY
  7
CHINESET
  9
$DIMAUNIT
 70
     0
  9
$DIMADEC
 70
     0
  9
$DIMALTRND
 40
0.0
  9
$DIMAZIN
 70
     2
  9
$DIMDSEP
 70
    46
  9
$DIMATFIT
 70
     0
  9
$DIMFRAC
 70
     0
  9
$DIMLDRBLK
  1

  9
$DIMLUNIT
 70
     2
  9
$DIMLWD
 70
    -1
  9
$DIMLWE
 70
    -1
  9
$DIMTMOVE
 70
     0
  9
$LUNITS
 70
     2
  9
$LUPREC
 70
     2
  9
$SKETCHINC
 40
0.1
  9
$FILLETRAD
 40
0.5
  9
$AUNITS
 70
     0
  9
$AUPREC
 70
     0
  9
$MENU
  1
.
  9
$ELEVATION
 40
0.0
  9
$PELEVATION
 40
0.0
  9
$THICKNESS
 40
0.0
  9
$LIMCHECK
 70
     0
  9
$CHAMFERA
 40
1.199999999999999
  9
$CHAMFERB
 40
1.199999999999999
  9
$CHAMFERC
 40
1.0
  9
$CHAMFERD
 40
0.0
  9
$SKPOLY
 70
     0
  9
$TDCREATE
 40
2452019.631085301
  9
$TDUCREATE
 40
2452019.297751968
  9
$TDUPDATE
 40
2456885.441473518
  9
$TDUUPDATE
 40
2456885.108140185
  9
$TDINDWG
 40
0.7187615856
  9
$TDUSRTIMER
 40
0.7187615856
  9
$USRTIMER
 70
     1
  9
$ANGBASE
 50
0.0
  9
$ANGDIR
 70
     0
  9
$PDMODE
 70
     0
  9
$PDSIZE
 40
0.0
  9
$PLINEWID
 40
0.0
  9
$SPLFRAME
 70
     0
  9
$SPLINETYPE
 70
     6
  9
$SPLINESEGS
 70
     8
  9
$HANDSEED
  5
58B1
  9
$SURFTAB1
 70
     6
  9
$SURFTAB2
 70
     6
  9
$SURFTYPE
 70
     6
  9
$SURFU
 70
     6
  9
$SURFV
 70
     6
  9
$UCSBASE
  2

  9
$UCSNAME
  2

  9
$UCSORG
 10
0.0
 20
0.0
 30
0.0
  9
$UCSXDIR
 10
1.0
 20
0.0
 30
0.0
  9
$UCSYDIR
 10
0.0
 20
1.0
 30
0.0
  9
$UCSORTHOREF
  2

  9
$UCSORTHOVIEW
 70
     0
  9
$UCSORGTOP
 10
0.0
 20
0.0
 30
0.0
  9
$UCSORGBOTTOM
 10
0.0
 20
0.0
 30
0.0
  9
$UCSORGLEFT
 10
0.0
 20
0.0
 30
0.0
  9
$UCSORGRIGHT
 10
0.0
 20
0.0
 30
0.0
  9
$UCSORGFRONT
 10
0.0
 20
0.0
 30
0.0
  9
$UCSORGBACK
 10
0.0
 20
0.0
 30
0.0
  9
$PUCSBASE
  2

  9
$PUCSNAME
  2

  9
$PUCSORG
 10
0.0
 20
0.0
 30
0.0
  9
$PUCSXDIR
 10
1.0
 20
0.0
 30
0.0
  9
$PUCSYDIR
 10
0.0
 20
1.0
 30
0.0
  9
$PUCSORTHOREF
  2

  9
$PUCSORTHOVIEW
 70
     0
  9
$PUCSORGTOP
 10
0.0
 20
0.0
 30
0.0
  9
$PUCSORGBOTTOM
 10
0.0
 20
0.0
 30
0.0
  9
$PUCSORGLEFT
 10
0.0
 20
0.0
 30
0.0
  9
$PUCSORGRIGHT
 10
0.0
 20
0.0
 30
0.0
  9
$PUCSORGFRONT
 10
0.0
 20
0.0
 30
0.0
  9
$PUCSORGBACK
 10
0.0
 20
0.0
 30
0.0
  9
$USERI1
 70
     0
  9
$USERI2
 70
     0
  9
$USERI3
 70
     0
  9
$USERI4
 70
     0
  9
$USERI5
 70
     0
  9
$USERR1
 40
0.0
  9
$USERR2
 40
0.0
  9
$USERR3
 40
0.0
  9
$USERR4
 40
0.0
  9
$USERR5
 40
0.0
  9
$WORLDVIEW
 70
     1
  9
$SHADEDGE
 70
     3
  9
$SHADEDIF
 70
    70
  9
$TILEMODE
 70
     1
  9
$MAXACTVP
 70
    48
  9
$PINSBASE
 10
0.0
 20
0.0
 30
0.0
  9
$PLIMCHECK
 70
     0
  9
$PEXTMIN
 10
1.000000000000000E+20
 20
1.000000000000000E+20
 30
1.000000000000000E+20
  9
$PEXTMAX
 10
-1.000000000000000E+20
 20
-1.000000000000000E+20
 30
-1.000000000000000E+20
  9
$PLIMMIN
 10
0.0
 20
0.0
  9
$PLIMMAX
 10
12.0
 20
9.0
  9
$UNITMODE
 70
     0
  9
$VISRETAIN
 70
     1
  9
$PLINEGEN
 70
     0
  9
$PSLTSCALE
 70
     1
  9
$TREEDEPTH
 70
  3020
  9
$CMLSTYLE
  2
Standard
  9
$CMLJUST
 70
     0
  9
$CMLSCALE
 40
1.0
  9
$PROXYGRAPHICS
 70
     1
  9
$MEASUREMENT
 70
     1
  9
$CELWEIGHT
370
    -1
  9
$ENDCAPS
280
     0
  9
$JOINSTYLE
280
     0
  9
$LWDISPLAY
290
     0
  9
$INSUNITS
 70
     1
  9
$HYPERLINKBASE
  1

  9
$STYLESHEET
  1
彩色出圖.ctb
  9
$XEDIT
290
     1
  9
$CEPSNTYPE
380
     0
  9
$PSTYLEMODE
290
     1
  9
$FINGERPRINTGUID
  2
{FDEAD576-A652-11D2-9A35-0060089B3A3F}
  9
$VERSIONGUID
  2
{C9F912F3-C47D-4FBB-9752-80EBF362478C}
  9
$EXTNAMES
290
     1
  9
$PSVPSCALE
 40
0.0
  9
$OLESTARTUP
290
     0
  0
ENDSEC
  0
SECTION
  2
CLASSES
  0
CLASS
  1
ACDBDICTIONARYWDFLT
  2
AcDbDictionaryWithDefault
  3
ObjectDBX Classes
 90
        0
280
     0
281
     0
  0
CLASS
  1
ACDBPLACEHOLDER
  2
AcDbPlaceHolder
  3
ObjectDBX Classes
 90
        0
280
     0
281
     0
  0
CLASS
  1
LAYOUT
  2
AcDbLayout
  3
ObjectDBX Classes
 90
        0
280
     0
281
     0
  0
CLASS
  1
DICTIONARYVAR
  2
AcDbDictionaryVar
  3
ObjectDBX Classes
 90
        0
280
     0
281
     0
  0
CLASS
  1
ACME_DOCUMENT
  2
AcMeDbDoc
  3
AcMeServices
 90
        0
280
     0
281
     0
  0
CLASS
  1
AMGSETTINGSOBJ
  2
AmgSettingsObj
  3
"AcadM|Product Description: AutoCAD Mechanical 2000|Company: Autodesk"
 90
        0
280
     0
281
     0
  0
CLASS
  1
ACMESCOPE
  2
AcMeScope
  3
AcMeServices
 90
        0
280
     0
281
     0
  0
CLASS
  1
ACMECOMMANDHISTORY
  2
AcMeCommandHistory
  3
AcMeServices
 90
        0
280
     0
281
     0
  0
CLASS
  1
ACIMSYSVARMAN
  2
AcImSysVarManager
  3
AcMeServices
 90
        0
280
     0
281
     0
  0
CLASS
  1
ACIMREALSYSVAR
  2
AcImRealSysVar
  3
AcMeServices
 90
        0
280
     0
281
     0
  0
CLASS
  1
ACIMINTSYSVAR
  2
AcImIntSysVar
  3
AcMeServices
 90
        0
280
     0
281
     0
  0
CLASS
  1
ACMEDRAWINGMAN
  2
AcMeDrawingMan
  3
AcMeServices
 90
        0
280
     0
281
     0
  0
CLASS
  1
ACMEVIEW
  2
AcMeView
  3
AcMeServices
 90
        0
280
     0
281
     0
  0
CLASS
  1
ACDBENTITYCACHE
  2
AcMeEntityCache
  3
AcMeServices
 90
        0
280
     0
281
     0
  0
CLASS
  1
GSMANAGER
  2
AcMeGSManager
  3
AcMeServices
 90
        0
280
     0
281
     0
  0
CLASS
  1
AMDTINTERNALREACTOR
  2
AmdtInternalReactor
  3
AcMeServices
 90
        0
280
     0
281
     0
  0
CLASS
  1
ACMESTATEMGR
  2
AcMeStateMgr
  3
AcMeServices
 90
        0
280
     0
281
     0
  0
CLASS
  1
ACGREFMASTER
  2
AcGrefMaster
  3
AcAttribServices
 90
        0
280
     0
281
     0
  0
CLASS
  1
ACME_DATABASE
  2
AcMeDbDatabase
  3
AcMeServices
 90
        0
280
     0
281
     0
  0
CLASS
  1
ACRFINSADJUSTERMGR
  2
AcRfInsAdjusterMgr
  3
AcMeServices
 90
        0
280
     0
281
     0
  0
CLASS
  1
ACGREFACADMASTER
  2
AcGrefacadMaster
  3
AcGrefServices
 90
        0
280
     0
281
     0
  0
CLASS
  1
AMIMASTER
  2
AmiMaster
  3
AmiServices
 90
        0
280
     0
281
     0
  0
CLASS
  1
ACMDATADICTIONARY
  2
AcmDataDictionary
  3
"AcmSymBB|Product Description: AutoCAD Mechanical 2004 DX|Company: Autodesk"
 90
        0
280
     0
281
     0
  0
CLASS
  1
ACMDATAENTRYBLOCK
  2
AcmDataEntryBlock
  3
"AcmSymBB|Product Description: AutoCAD Mechanical 2004 DX|Company: Autodesk"
 90
        0
280
     0
281
     0
  0
CLASS
  1
ACIMSTRSYSVAR
  2
AcImStrSysVar
  3
AcMeServices
 90
        0
280
     0
281
     0
  0
CLASS
  1
ACMSTANDARDISO
  2
AcmStandardISO
  3
"Amdt_StdImp|Product Description: AutoCAD Mechanical 2004 DX|Company: Autodesk"
 90
        0
280
     0
281
     0
  0
CLASS
  1
AMGOBJPROPCFG
  2
AmgObjPropCfg
  3
"AmgLay|Product Description: AutoCAD Mechanical 2000|Company: Autodesk"
 90
        1
280
     0
281
     0
  0
CLASS
  1
AMDTEDGESTANDARDISO
  2
AmdtEdgeStdISO
  3
"Amdt_StdImp|Product Description: AutoCAD Mechanical 2004 DX|Company: Autodesk"
 90
    32768
280
     0
281
     0
  0
CLASS
  1
ACMSURFSTANDARDISO
  2
AcmSurfTextStdISO
  3
"Amdt_StdImp|Product Description: AutoCAD Mechanical 2004 DX|Company: Autodesk"
 90
        0
280
     0
281
     0
  0
CLASS
  1
ACMFCFSTANDARDISO
  2
AcmFCFStdISO
  3
"Amdt_StdImp|Product Description: AutoCAD Mechanical 2004 DX|Company: Autodesk"
 90
        0
280
     0
281
     0
  0
CLASS
  1
ACMWELDSTANDARDISO
  2
AcmWeldingStdISO
  3
"Amdt_StdImp|Product Description: AutoCAD Mechanical 2004 DX|Company: Autodesk"
 90
        0
280
     0
281
     0
  0
CLASS
  1
ACMIDSTANDARDISO
  2
AcmIdStdISO
  3
"Amdt_StdImp|Product Description: AutoCAD Mechanical 2004 DX|Company: Autodesk"
 90
        0
280
     0
281
     0
  0
CLASS
  1
ACMDATUMSTANDARDISO
  2
AcmDatumStdISO
  3
"Amdt_StdImp|Product Description: AutoCAD Mechanical 2004 DX|Company: Autodesk"
 90
        0
280
     0
281
     0
  0
CLASS
  1
ACMBOMSTANDARDISO
  2
AcmBOMStdISO
  3
"Amdt_StdImp|Product Description: AutoCAD Mechanical 2004 DX|Company: Autodesk"
 90
        0
280
     0
281
     0
  0
CLASS
  1
ACMDETAILSTANDARDISO
  2
AmdtDetailSymStdISO
  3
"Amdt_StdImp|Product Description: AutoCAD Mechanical 2004 DX|Company: Autodesk"
 90
        0
280
     0
281
     0
  0
CLASS
  1
ACMSECTIONSTANDARDISO
  2
AmdtSectionSymStdISO
  3
"Amdt_StdImp|Product Description: AutoCAD Mechanical 2004 DX|Company: Autodesk"
 90
        0
280
     0
281
     0
  0
CLASS
  1
ACMCENTERLINESTANDARDISO
  2
AmdtCenterLineStdISO
  3
"Amdt_StdImp|Product Description: AutoCAD Mechanical 2004 DX|Company: Autodesk"
 90
        0
280
     0
281
     0
  0
CLASS
  1
ACMNOTESTANDARDISO
  2
AmdtNoteStdISO
  3
"Amdt_StdImp|Product Description: AutoCAD Mechanical 2004 DX|Company: Autodesk"
 90
        0
280
     0
281
     0
  0
CLASS
  1
ACAMGLAYSTD
  2
AcAmgLayStd
  3
"AcAmgLayStd|Product Description: AutoCAD Mechanical 2000|Company: Autodesk"
 90
        0
280
     0
281
     0
  0
CLASS
  1
ACAMGDIMSTD
  2
AcAmgDimStd
  3
"AcAmgDimStd|Product Description: AutoCAD Mechanical 2000|Company: Autodesk"
 90
        0
280
     0
281
     0
  0
CLASS
  1
ACAMGHOLECHARTSTDISO
  2
AcAmgHoleChartStdISO
  3
ACMSYMBB_MODULE_NAME
 90
        0
280
     0
281
     0
  0
CLASS
  1
ACAMGTITLESTD
  2
AcAmgTitleStd
  3
"TITLEAPP"
 90
        0
280
     0
281
     0
  0
CLASS
  1
ACAMGFILTERDAT
  2
AcAmgFilterDat
  3
"AcadM|Product Description: AutoCAD Mechanical 2000|Company: Autodesk"
 90
    32768
280
     0
281
     0
  0
CLASS
  1
LAYER_INDEX
  2
AcDbLayerIndex
  3
ObjectDBX Classes
 90
        0
280
     0
281
     0
  0
CLASS
  1
IDBUFFER
  2
AcDbIdBuffer
  3
ObjectDBX Classes
 90
        0
280
     0
281
     0
  0
CLASS
  1
TABLESTYLE
  2
AcDbTableStyle
  3
ObjectDBX Classes
 90
     2047
280
     0
281
     0
  0
CLASS
  1
DIMASSOC
  2
AcDbDimAssoc
  3
"AcDbDimAssoc|Product Desc:     AcDim ARX App For Dimension|Company:          Autodesk, Inc.|WEB Address:      www.autodesk.com"
 90
    32768
280
     0
281
     0
  0
CLASS
  1
SORTENTSTABLE
  2
AcDbSortentsTable
  3
ObjectDBX Classes
 90
        0
280
     0
281
     0
  0
CLASS
  1
AM_DRAWING_MGR
  2
AcDmDwgMgr
  3
AcMechDwgViewMgmt
 90
        0
280
     0
281
     0
  0
CLASS
  1
AM_DWG_DOCUMENT
  2
AcDmDwgDocument
  3
AcMechDwgViewMgmt
 90
        0
280
     0
281
     0
  0
CLASS
  1
AM_DWG_SHEET
  2
AcDmSheet
  3
AcMechDwgViewMgmt
 90
        0
280
     0
281
     0
  0
CLASS
  1
AM_VIEWDIMPARMAP
  2
AcDmViewDimParMap
  3
AcMechDwgViewMgmt
 90
        0
280
     0
281
     0
  0
CLASS
  1
AM_DWGMGR_NAME
  2
AcDmDwgMgrName
  3
AcMechDwgViewMgmt
 90
        0
280
     0
281
     0
  0
CLASS
  1
AMDTMENUSTATEMGR
  2
AmdtMenuStateMgr
  3
McadcomServices
 90
        0
280
     0
281
     0
  0
CLASS
  1
AMDTMCOMMENUSTATE
  2
AmdtMcomMenuState
  3
McadcomServices
 90
        0
280
     0
281
     0
  0
CLASS
  1
MAPIAMMOUDLE
  2
MApiAmModule
  3
MApiAmServices
 90
        0
280
     0
281
     0
  0
CLASS
  1
AMDTADMENUSTATE
  2
AmdtAdMenuState
  3
DesignerServices
 90
        0
280
     0
281
     0
  0
CLASS
  1
ADAPPL
  2
AcAdAppl
  3
DesignerServices
 90
        0
280
     0
281
     0
  0
CLASS
  1
DEPMGR
  2
AcAdDepMgr
  3
DesignerServices
 90
        0
280
     0
281
     0
  0
CLASS
  1
PARAMMGR
  2
AcAdParamMgr
  3
DesignerServices
 90
        0
280
     0
281
     0
  0
CLASS
  1
PARAMSCOPE
  2
AcAdParamScope
  3
DesignerServices
 90
        0
280
     0
281
     0
  0
CLASS
  1
NAMEDAPPL
  2
AcAdNamedAppl
  3
DesignerServices
 90
        0
280
     0
281
     0
  0
CLASS
  1
AMDTDMMENUSTATE
  2
AmdtDmMenuState
  3
AcMechDwgViewMgmt
 90
        0
280
     0
281
     0
  0
CLASS
  1
AMDTAMMENUSTATE
  2
AmdtAmMenuState
  3
DesignerAssemblies
 90
        0
280
     0
281
     0
  0
CLASS
  1
ACAMPROJECT
  2
AcAmProject
  3
DesignerAssemblies
 90
        0
280
     0
281
     0
  0
CLASS
  1
ACAMGRCOMPDEF
  2
AcAmGrCompDef
  3
DesignerAssemblies
 90
        0
280
     0
281
     0
  0
CLASS
  1
ACCMCONTEXT
  2
AcCmContext
  3
DesignerAssemblies
 90
        0
280
     0
281
     0
  0
CLASS
  1
ACAMCOMPDEF
  2
AcAmCompDef
  3
DesignerAssemblies
 90
        0
280
     0
281
     0
  0
CLASS
  1
ACAMCOMPDEFMGR
  2
AcAmCompDefMgr
  3
DesignerAssemblies
 90
        0
280
     0
281
     0
  0
CLASS
  1
AMCONTEXTMGR
  2
AcAmContextMgr
  3
DesignerAssemblies
 90
        0
280
     0
281
     0
  0
CLASS
  1
ACAMCONTEXTMODELER
  2
AcAmContextModeler
  3
DesignerAssemblies
 90
        0
280
     0
281
     0
  0
CLASS
  1
CATALOGSTATE
  2
AcAmCatalogState
  3
DesignerAssemblies
 90
        0
280
     0
281
     0
  0
CLASS
  1
ACAMGRCOMPDEFSET
  2
AcAmGrCompDefSet
  3
DesignerAssemblies
 90
        0
280
     0
281
     0
  0
CLASS
  1
AMDTBROWSERDBTAB
  2
AmdtBrowserDbTab
  3
McadcomServices
 90
        0
280
     0
281
     0
  0
CLASS
  1
CBROWSERAPPOBJECT
  2
CBrowserAppObject
  3
McadcomServices
 90
        0
280
     0
281
     0
  0
CLASS
  1
DM_PLACEHOLDER
  2
AcDmSelsetPlaceholder
  3
AcMechDwgViewMgmt
 90
        0
280
     0
281
     0
  0
CLASS
  1
AMDTEDGESTANDARDISO13715
  2
AmdtEdgeStdISO13715
  3
"Amdt_StdImp|Product Description: AutoCAD Mechanical 2004 DX|Company: Autodesk"
 90
        0
280
     0
281
     0
  0
CLASS
  1
ACMTHREADLINESTANDARDISO
  2
AmdtThreadLineStdISO
  3
"Amdt_StdImp|Product Description: AutoCAD Mechanical 2004 DX|Company: Autodesk"
 90
        0
280
     0
281
     0
  0
CLASS
  1
AMDTNOTETEMPLATEDB
  2
AmdtNoteTemplateDB
  3
AMDT_STDIMP_MODULE_NAME
 90
        0
280
     0
281
     0
  0
CLASS
  1
ASAPP
  2
AcAsAppObject
  3
AutoSurfServices
 90
        0
280
     0
281
     0
  0
CLASS
  1
IM_STATIC_MAN
  2
AcImStaticVarManager
  3
AcMeServices
 90
        0
280
     0
281
     0
  0
CLASS
  1
ACIMDBLSTATICVAR
  2
AcImDblStaticVar
  3
AcMeServices
 90
        0
280
     0
281
     0
  0
CLASS
  1
ACIMSTRSTATICVAR
  2
AcImStrStaticVar
  3
AcMeServices
 90
        0
280
     0
281
     0
  0
CLASS
  1
ACIMINTSTATICVAR
  2
AcImIntStaticVar
  3
AcMeServices
 90
        0
280
     0
281
     0
  0
CLASS
  1
ACASGREFMASTER
  2
AcAsGrefMaster
  3
AutoSurfResolverServices
 90
        0
280
     0
281
     0
  0
CLASS
  1
ACADGREFMODULE
  2
AcAdGrefModule
  3
AdGrefServices
 90
        0
280
     0
281
     0
  0
CLASS
  1
AMDTMAPISURFMOUDULE
  2
AmdtMApiSurfModule
  3
MApiSurfServices
 90
        0
280
     0
281
     0
  0
CLASS
  1
MAPIADMODULE
  2
MApiAdModule
  3
MApiAdServices
 90
        0
280
     0
281
     0
  0
ENDSEC
  0
SECTION
  2
TABLES
  0
TABLE
  2
VPORT
  5
8
330
0
100
AcDbSymbolTable
 70
     3
  0
VPORT
  5
58A8
330
8
100
AcDbSymbolTableRecord
100
AcDbViewportTableRecord
  2
*Active
 70
     0
 10
0.0
 20
0.0
 11
1.0
 21
1.0
 12
56.37935705352163
 22
-51.88144811574648
 13
0.0
 23
0.0
 14
0.5
 24
0.5
 15
0.5
 25
0.5
 16
0.0
 26
0.0
 36
1.0
 17
135.5785658050548
 27
397.0293733935222
 37
0.0
 40
373.9842315211618
 41
1.263157894736842
 42
50.0
 43
0.0
 44
0.0
 50
0.0
 51
0.0
 71
     0
 72
   100
 73
     1
 74
     3
 75
     0
 76
     0
 77
     0
 78
     0
281
     0
 65
     0
110
0.0
120
0.0
130
0.0
111
1.0
121
0.0
131
0.0
112
0.0
122
1.0
132
0.0
 79
     0
146
0.0
  0
ENDTAB
  0
TABLE
  2
LTYPE
  5
5
330
0
100
AcDbSymbolTable
 70
    16
  0
LTYPE
  5
14
330
5
100
AcDbSymbolTableRecord
100
AcDbLinetypeTableRecord
  2
ByBlock
 70
     0
  3

 72
    65
 73
     0
 40
0.0
  0
LTYPE
  5
15
330
5
100
AcDbSymbolTableRecord
100
AcDbLinetypeTableRecord
  2
ByLayer
 70
     0
  3

 72
    65
 73
     0
 40
0.0
  0
LTYPE
  5
16
330
5
100
AcDbSymbolTableRecord
100
AcDbLinetypeTableRecord
  2
Continuous
 70
     0
  3
Solid line
 72
    65
 73
     0
 40
0.0
  0
LTYPE
  5
4F
330
5
100
AcDbSymbolTableRecord
100
AcDbLinetypeTableRecord
  2
CENTER
 70
     0
  3
Center ____ _ ____ _ ____ _ ____ _ ____ _ ____
 72
    65
 73
     4
 40
2.0
 49
1.25
 74
     0
 49
-0.25
 74
     0
 49
0.25
 74
     0
 49
-0.25
 74
     0
  0
LTYPE
  5
350E
330
5
100
AcDbSymbolTableRecord
100
AcDbLinetypeTableRecord
  2
AM_ISO02W050
 70
     0
  3
__ __ __ __ __ __ __ __ __ __ __ __ __ __ __
 72
    65
 73
     2
 40
7.5
 49
6.0
 74
     0
 49
-1.5
 74
     0
  0
LTYPE
  5
350F
330
5
100
AcDbSymbolTableRecord
100
AcDbLinetypeTableRecord
  2
AM_ISO08W050
 70
     0
  3
____ . ____ . ____ . ____ . ____ . ____ . ____
 72
    65
 73
     4
 40
18.0
 49
12.0
 74
     0
 49
-1.5
 74
     0
 49
3.0
 74
     0
 49
-1.5
 74
     0
  0
LTYPE
  5
3510
330
5
100
AcDbSymbolTableRecord
100
AcDbLinetypeTableRecord
  2
AM_ISO09W050
 70
     0
  3
_____ . . _____ . . _____ . . ____ .. ____
 72
    65
 73
     6
 40
22.5
 49
12.0
 74
     0
 49
-1.5
 74
     0
 49
3.0
 74
     0
 49
-1.5
 74
     0
 49
3.0
 74
     0
 49
-1.5
 74
     0
  0
LTYPE
  5
3511
330
5
100
AcDbSymbolTableRecord
100
AcDbLinetypeTableRecord
  2
Amconstr
 70
     0
  3
_______________________
 72
    65
 73
     2
 40
9999.0
 49
9999.0
 74
     0
 49
0.0
 74
     0
  0
LTYPE
  5
3512
330
5
100
AcDbSymbolTableRecord
100
AcDbLinetypeTableRecord
  2
AM_ISO08W050x2
 70
     0
  3
__ . __ . __ . __ . __ . __
 72
    65
 73
     4
 40
9.0
 49
6.0
 74
     0
 49
-0.75
 74
     0
 49
1.5
 74
     0
 49
-0.75
 74
     0
  0
LTYPE
  5
3513
330
5
100
AcDbSymbolTableRecord
100
AcDbLinetypeTableRecord
  2
AM_ISO02W050x2
 70
     0
  3
 _ _ _ _ _ _ _ _ _ _ _ _
 72
    65
 73
     2
 40
3.75
 49
3.0
 74
     0
 49
-0.75
 74
     0
  0
LTYPE
  5
3516
330
5
100
AcDbSymbolTableRecord
100
AcDbLinetypeTableRecord
  2
Amzigzag
 70
     0
  3
/\/-/\/-/\/-/\/-/\/-/\/
 72
    65
 73
     2
 40
11.0001
 49
0.0001
 74
     4
 75
   135
340
3515
 46
0.04
 50
0.0
 44
0.0
 45
0.0
 49
-11.0
 74
     0
  0
LTYPE
  5
3524
330
5
100
AcDbSymbolTableRecord
100
AcDbLinetypeTableRecord
  2
ACISOWELD
 70
     0
  3
_ _ _ _ _
 72
    65
 73
     2
 40
2.0
 49
2.0
 74
     0
 49
-1.0
 74
     0
  0
LTYPE
  5
3525
330
5
100
AcDbSymbolTableRecord
100
AcDbLinetypeTableRecord
  2
ACISOTGB
 70
     0
  3
__ . . __ . .
 72
    65
 73
     6
 40
9.0
 49
4.0
 74
     0
 49
-1.0
 74
     0
 49
1.0
 74
     0
 49
-1.0
 74
     0
 49
1.0
 74
     0
 49
-1.0
 74
     0
  0
LTYPE
  5
3526
330
5
100
AcDbSymbolTableRecord
100
AcDbLinetypeTableRecord
  2
ACISOTGL
 70
     0
  3
_ _ _ _ _
 72
    65
 73
     2
 40
3.0
 49
2.0
 74
     0
 49
-1.0
 74
     0
  0
LTYPE
  5
3755
330
5
100
AcDbSymbolTableRecord
100
AcDbLinetypeTableRecord
  2
HIDDEN
 70
     0
  3
__ __ __ __ __ __ __ __ __ __ __ __ __ __ __ __
 72
    65
 73
     2
 40
0.375
 49
0.25
 74
     0
 49
-0.125
 74
     0
  0
LTYPE
  5
3756
330
5
100
AcDbSymbolTableRecord
100
AcDbLinetypeTableRecord
  2
PHANTOM2
 70
     0
  3
___ _ _ ___ _ _ ___ _ _ ___ _ _ ___ _ _ ___ _ _
 72
    65
 73
     6
 40
1.25
 49
0.625
 74
     0
 49
-0.125
 74
     0
 49
0.125
 74
     0
 49
-0.125
 74
     0
 49
0.125
 74
     0
 49
-0.125
 74
     0
  0
LTYPE
  5
4867
330
5
100
AcDbSymbolTableRecord
100
AcDbLinetypeTableRecord
  2
ASULTYPE
 70
     0
  3
實線
 72
    65
 73
     2
 40
3.0
 49
2.5
 74
     0
 49
0.5
 74
     0
  0
LTYPE
  5
4868
330
5
100
AcDbSymbolTableRecord
100
AcDbLinetypeTableRecord
  2
ASVLTYPE
 70
     0
  3
__ __ __ __ __ __ __ __ __ __ __ __ __ __ __ __ __ __ __ __ __
 72
    65
 73
     2
 40
0.75
 49
0.5
 74
     0
 49
-0.25
 74
     0
  0
ENDTAB
  0
TABLE
  2
LAYER
  5
2
102
{ACAD_XDICTIONARY
360
3766
102
}
330
0
100
AcDbSymbolTable
 70
     7
  0
LAYER
  5
10
330
2
100
AcDbSymbolTableRecord
100
AcDbLayerTableRecord
  2
0
 70
     0
 62
     7
  6
Continuous
370
    -3
390
F
  0
LAYER
  5
48
330
2
100
AcDbSymbolTableRecord
100
AcDbLayerTableRecord
  2
DIM
 70
     0
 62
     5
  6
Continuous
370
    -3
390
F
  0
LAYER
  5
4A
330
2
100
AcDbSymbolTableRecord
100
AcDbLayerTableRecord
  2
CENTER
 70
     0
 62
     1
  6
CENTER
370
    -3
390
F
  0
LAYER
  5
1545
330
2
100
AcDbSymbolTableRecord
100
AcDbLayerTableRecord
  2
LOGO
 70
     0
 62
     7
  6
Continuous
370
    -3
390
F
  0
LAYER
  5
1A52
330
2
100
AcDbSymbolTableRecord
100
AcDbLayerTableRecord
  2
Defpoints
 70
     0
 62
     7
  6
Continuous
290
     0
370
    -3
390
F
  0
LAYER
  5
4747
330
2
100
AcDbSymbolTableRecord
100
AcDbLayerTableRecord
  2
AM_7
 70
     0
 62
     4
  6
AM_ISO08W050
370
    25
390
F
  0
LAYER
  5
4748
330
2
100
AcDbSymbolTableRecord
100
AcDbLayerTableRecord
  2
AM_5
 70
     0
 62
     3
  6
Continuous
370
    25
390
F
  0
ENDTAB
  0
TABLE
  2
STYLE
  5
3
330
0
100
AcDbSymbolTable
 70
     6
  0
STYLE
  5
11
330
3
100
AcDbSymbolTableRecord
100
AcDbTextStyleTableRecord
  2
Standard
 70
     0
 40
3.0
 41
1.0
 50
0.0
 71
     0
 42
3.0
  3
KAIU.TTF
  4

1001
ACAD
1000
DFKai-SB
1071
    34865
  0
STYLE
  5
5C
330
3
100
AcDbSymbolTableRecord
100
AcDbTextStyleTableRecord
  2
CHINESET
 70
     0
 40
3.0
 41
1.0
 50
0.0
 71
     0
 42
4.5
  3
simplex.shx
  4
CHINESET.shx
  0
STYLE
  5
3515
330
3
100
AcDbSymbolTableRecord
100
AcDbTextStyleTableRecord
  2

 70
     1
 40
0.0
 41
1.0
 50
0.0
 71
     0
 42
4.5
  3
ltypeshp.shx
  4

  0
STYLE
  5
3517
330
3
100
AcDbSymbolTableRecord
100
AcDbTextStyleTableRecord
  2
ACISOTS
 70
     0
 40
1.0
 41
1.0
 50
0.0
 71
     0
 42
4.5
  3
isocp.shx
  4
chineset.shx
  0
STYLE
  5
3523
330
3
100
AcDbSymbolTableRecord
100
AcDbTextStyleTableRecord
  2
ACISOGDT
 70
     0
 40
0.0
 41
1.0
 50
0.0
 71
     0
 42
4.5
  3
amgdt.shx
  4

  0
STYLE
  5
375C
330
3
100
AcDbSymbolTableRecord
100
AcDbTextStyleTableRecord
  2
dayus
 70
     0
 40
2.0
 41
1.0
 50
0.0
 71
     0
 42
6.0
  3
simplex.shx
  4
dayus.shx
  0
ENDTAB
  0
TABLE
  2
VIEW
  5
6
330
0
100
AcDbSymbolTable
 70
     0
  0
ENDTAB
  0
TABLE
  2
UCS
  5
7
330
0
100
AcDbSymbolTable
 70
     0
  0
ENDTAB
  0
TABLE
  2
APPID
  5
9
330
0
100
AcDbSymbolTable
 70
    24
  0
APPID
  5
12
330
9
100
AcDbSymbolTableRecord
100
AcDbRegAppTableRecord
  2
ACAD
 70
     0
  0
APPID
  5
5F
330
9
100
AcDbSymbolTableRecord
100
AcDbRegAppTableRecord
  2
AD_DRAW
 70
     0
  0
APPID
  5
60
330
9
100
AcDbSymbolTableRecord
100
AcDbRegAppTableRecord
  2
DESIGNERASSEMBLIES
 70
     0
  0
APPID
  5
61
330
9
100
AcDbSymbolTableRecord
100
AcDbRegAppTableRecord
  2
MCAD_NO_VIS
 70
     0
  0
APPID
  5
62
330
9
100
AcDbSymbolTableRecord
100
AcDbRegAppTableRecord
  2
ASURF_PCURVE_APPNAME
 70
     0
  0
APPID
  5
11A1
330
9
100
AcDbSymbolTableRecord
100
AcDbRegAppTableRecord
  2
CONTENTBLOCKICON
 70
     0
  0
APPID
  5
34F1
330
9
100
AcDbSymbolTableRecord
100
AcDbRegAppTableRecord
  2
ACAD_TEMP_GRAPHIC
 70
     0
  0
APPID
  5
3502
330
9
100
AcDbSymbolTableRecord
100
AcDbRegAppTableRecord
  2
ACATTRIBSERVICES
 70
     0
  0
APPID
  5
3765
330
9
100
AcDbSymbolTableRecord
100
AcDbRegAppTableRecord
  2
GENIUS_GENDTOL_13
 70
     0
  0
APPID
  5
3F1B
330
9
100
AcDbSymbolTableRecord
100
AcDbRegAppTableRecord
  2
ACADM_DIM_EDIT
 70
     0
  0
APPID
  5
3F1C
330
9
100
AcDbSymbolTableRecord
100
AcDbRegAppTableRecord
  2
AMDT_DM_ADJ
 70
     0
  0
APPID
  5
3F3E
330
9
100
AcDbSymbolTableRecord
100
AcDbRegAppTableRecord
  2
GENIUS_GENOENT_13
 70
     0
  0
APPID
  5
3F3F
330
9
100
AcDbSymbolTableRecord
100
AcDbRegAppTableRecord
  2
GENIUS_GENOBJ-N-CRS_13
 70
     0
  0
APPID
  5
3F40
330
9
100
AcDbSymbolTableRecord
100
AcDbRegAppTableRecord
  2
GENIUS_GENOLIS_13
 70
     0
  0
APPID
  5
3F41
330
9
100
AcDbSymbolTableRecord
100
AcDbRegAppTableRecord
  2
GENIUS_GENODEF_13
 70
     0
  0
APPID
  5
3F42
330
9
100
AcDbSymbolTableRecord
100
AcDbRegAppTableRecord
  2
GENIUS_GENOREF_13
 70
     0
  0
APPID
  5
3F43
330
9
100
AcDbSymbolTableRecord
100
AcDbRegAppTableRecord
  2
ACAD_PSEXT
 70
     0
  0
APPID
  5
3F44
330
9
100
AcDbSymbolTableRecord
100
AcDbRegAppTableRecord
  2
GENIUS_GENREC_14
 70
     0
  0
APPID
  5
3F45
330
9
100
AcDbSymbolTableRecord
100
AcDbRegAppTableRecord
  2
GENIUS_GENOBJ-N-REC_13
 70
     0
  0
APPID
  5
4749
330
9
100
AcDbSymbolTableRecord
100
AcDbRegAppTableRecord
  2
GENIUS_GENOBJ-N-CEN_13
 70
     0
  0
APPID
  5
474A
330
9
100
AcDbSymbolTableRecord
100
AcDbRegAppTableRecord
  2
GENIUS_GENCEN_19
 70
     0
  0
APPID
  5
47E8
330
9
100
AcDbSymbolTableRecord
100
AcDbRegAppTableRecord
  2
GENIUS_GENDIM_13
 70
     0
  0
APPID
  5
47E9
330
9
100
AcDbSymbolTableRecord
100
AcDbRegAppTableRecord
  2
GENIUS_GE3DTOL_13
 70
     0
  0
APPID
  5
486D
330
9
100
AcDbSymbolTableRecord
100
AcDbRegAppTableRecord
  2
AMG_3D2D_5.0
 70
     0
  0
ENDTAB
  0
TABLE
  2
DIMSTYLE
  5
A
330
0
100
AcDbSymbolTable
 70
    11
100
AcDbDimStyleTable
 71
     1
340
1A4
  0
DIMSTYLE
105
1A4
330
A
100
AcDbSymbolTableRecord
100
AcDbDimStyleTableRecord
  2
ISO-25-1
 70
     0
 41
3.0
 42
3.0
 43
2.0
 44
2.0
 73
     0
 74
     0
 77
     1
 78
     8
 79
     2
140
3.0
141
-3.0
146
0.7
147
1.0
172
     1
176
   256
177
   256
178
   256
271
     2
272
     2
284
     8
289
     0
340
5C
371
    -1
372
    -1
  0
DIMSTYLE
105
352A
330
A
100
AcDbSymbolTableRecord
100
AcDbDimStyleTableRecord
  2
AM_ISO
 70
     0
  4
"
 41
2.5
 42
1.0
 43
10.0
 44
1.0
 47
0.1
 48
0.1
 73
     0
 74
     0
 77
     1
 78
     8
 79
     2
140
3.5
141
0.0
143
0.0393701
146
0.71
147
1.5
172
     1
176
   256
177
   256
178
     2
271
     2
272
     3
274
     4
283
     0
284
     8
340
11
371
    -1
372
    -1
  0
DIMSTYLE
105
352B
330
A
100
AcDbSymbolTableRecord
100
AcDbDimStyleTableRecord
  2
AM_ISO$3
 70
     0
  4
"
 41
2.5
 42
1.0
 43
10.0
 44
1.0
 47
0.1
 48
0.1
 73
     0
 77
     1
 78
     8
 79
     2
140
3.5
141
0.0
143
0.0393701
146
0.71
147
1.5
176
   256
177
   256
178
     2
271
     2
272
     3
274
     4
283
     0
284
     8
288
     1
289
     0
340
11
371
    -1
372
    -1
  0
DIMSTYLE
105
352C
330
A
100
AcDbSymbolTableRecord
100
AcDbDimStyleTableRecord
  2
AM_ISO$4
 70
     0
  4
"
 41
2.5
 42
1.0
 43
10.0
 44
1.0
 47
0.1
 48
0.1
 73
     0
 77
     1
 78
     8
 79
     2
140
3.5
141
0.0
143
0.0393701
146
0.71
147
1.5
176
   256
177
   256
178
     2
271
     2
272
     3
274
     4
283
     0
284
     8
288
     1
289
     0
340
11
371
    -1
372
    -1
  0
DIMSTYLE
105
352D
330
A
100
AcDbSymbolTableRecord
100
AcDbDimStyleTableRecord
  2
AM_ISO$6
 70
     0
  4
"
 41
2.5
 42
1.0
 43
10.0
 44
1.0
 47
0.1
 48
0.1
 73
     0
 74
     0
 78
     8
 79
     2
140
3.5
141
0.0
143
0.0393701
146
0.71
147
1.5
172
     1
176
   256
177
   256
178
     2
271
     2
272
     3
274
     4
283
     0
284
     8
340
11
371
    -1
372
    -1
  0
DIMSTYLE
105
352E
330
A
100
AcDbSymbolTableRecord
100
AcDbDimStyleTableRecord
  2
AM_ISO$7
 70
     0
  4
"
 41
2.5
 42
1.0
 43
10.0
 44
1.0
 47
0.1
 48
0.1
 73
     0
 74
     0
 77
     1
 78
     8
 79
     2
140
5.0
141
0.0
143
0.0393701
146
0.71
147
1.5
172
     1
176
   256
177
   256
178
     2
271
     2
272
     3
274
     4
283
     0
284
     8
340
11
371
    -1
372
    -1
  0
DIMSTYLE
105
352F
330
A
100
AcDbSymbolTableRecord
100
AcDbDimStyleTableRecord
  2
AM_ISO$SF
 70
     0
  4
"
 41
2.5
 42
1.0
 43
10.0
 44
1.0
 47
0.1
 48
0.1
 73
     0
 74
     0
 75
     1
 76
     1
 77
     1
 78
     8
 79
     2
140
3.5
141
0.0
143
0.0393701
146
0.71
147
1.5
172
     1
176
   256
177
   256
178
     2
271
     2
272
     3
274
     4
283
     0
284
     8
340
11
371
    -1
372
    -1
  0
DIMSTYLE
105
3534
330
A
100
AcDbSymbolTableRecord
100
AcDbDimStyleTableRecord
  2
AM_ISO$SH
 70
     0
  4
"
 41
2.5
 42
1.0
 43
10.0
 44
1.0
 47
0.1
 48
0.1
 73
     0
 74
     0
 75
     1
 76
     1
 77
     1
 78
     8
 79
     2
140
3.5
141
0.0
143
0.0393701
144
2.0
146
0.71
147
1.5
172
     1
173
     1
176
   256
177
   256
178
     2
271
     2
272
     3
274
     4
283
     0
284
     8
340
11
341
3530
343
3530
371
    -1
372
    -1
  0
DIMSTYLE
105
375F
102
{ACAD_REACTORS
330
511F
330
5120
330
5121
330
5122
330
5127
330
512F
330
5130
330
5131
330
563A
330
563B
330
569E
330
569F
330
56A0
330
56A1
330
56A2
330
56A4
330
56A5
330
5772
330
5773
330
57A0
330
57A1
102
}
330
A
100
AcDbSymbolTableRecord
100
AcDbDimStyleTableRecord
  2
AM_ANSI
 70
     0
  4
"
 41
2.5
 42
1.0
 43
10.0
 44
1.0
 47
0.1
 48
0.1
 78
     8
 79
     2
140
3.5
141
0.0
143
0.0393701
146
0.71
147
1.5
176
   256
177
   256
178
     2
271
     2
272
     3
274
     4
284
     8
340
11
371
    -1
372
    -1
  0
DIMSTYLE
105
3762
330
A
100
AcDbSymbolTableRecord
100
AcDbDimStyleTableRecord
  2
AM_ANSI$7
 70
     0
  4
"
 41
2.5
 42
1.0
 43
10.0
 44
1.0
 47
0.1
 48
0.1
 78
     8
 79
     2
140
5.0
141
0.0
143
0.0393701
146
0.71
147
1.5
176
   256
177
   256
178
     2
271
     2
272
     3
274
     4
284
     8
340
11
371
    -1
372
    -1
  0
DIMSTYLE
105
48C0
330
A
100
AcDbSymbolTableRecord
100
AcDbDimStyleTableRecord
  2
ISO-25
 70
     0
 41
2.5
 42
0.625
 43
3.75
 44
1.25
 73
     0
 74
     0
 77
     1
 78
     8
140
2.5
141
2.5
143
0.03937007874016
147
0.625
171
     3
172
     1
271
     2
272
     2
274
     3
278
    44
283
     0
284
     8
340
11
  0
ENDTAB
  0
TABLE
  2
BLOCK_RECORD
  5
1
330
0
100
AcDbSymbolTable
 70
    26
  0
BLOCK_RECORD
  5
1F
102
{ACAD_XDICTIONARY
360
344C
102
}
330
1
100
AcDbSymbolTableRecord
100
AcDbBlockTableRecord
  2
*Model_Space
340
22
  0
BLOCK_RECORD
  5
1B
102
{ACAD_XDICTIONARY
360
344E
102
}
330
1
100
AcDbSymbolTableRecord
100
AcDbBlockTableRecord
  2
*Paper_Space
340
1E
  0
BLOCK_RECORD
  5
23
102
{ACAD_XDICTIONARY
360
3450
102
}
330
1
100
AcDbSymbolTableRecord
100
AcDbBlockTableRecord
  2
*Paper_Space0
340
26
  0
BLOCK_RECORD
  5
3530
330
1
100
AcDbSymbolTableRecord
100
AcDbBlockTableRecord
  2
GENAXEH
340
0
  0
BLOCK_RECORD
  5
438E
102
{ACAD_XDICTIONARY
360
438F
102
}
330
1
100
AcDbSymbolTableRecord
100
AcDbBlockTableRecord
  2
A$C5ECF147B
340
0
  0
BLOCK_RECORD
  5
473E
102
{ACAD_XDICTIONARY
360
473F
102
}
330
1
100
AcDbSymbolTableRecord
100
AcDbBlockTableRecord
  2
A$C1F6E6265
340
0
102
{BLKREFS
331
548D
331
5491
102
}
  0
BLOCK_RECORD
  5
5183
330
1
100
AcDbSymbolTableRecord
100
AcDbBlockTableRecord
  2
*D5
340
0
  0
BLOCK_RECORD
  5
518F
330
1
100
AcDbSymbolTableRecord
100
AcDbBlockTableRecord
  2
*D6
340
0
  0
BLOCK_RECORD
  5
519B
330
1
100
AcDbSymbolTableRecord
100
AcDbBlockTableRecord
  2
*D7
340
0
  0
BLOCK_RECORD
  5
51A7
330
1
100
AcDbSymbolTableRecord
100
AcDbBlockTableRecord
  2
*D8
340
0
  0
BLOCK_RECORD
  5
51B3
330
1
100
AcDbSymbolTableRecord
100
AcDbBlockTableRecord
  2
*D9
340
0
  0
BLOCK_RECORD
  5
51BF
330
1
100
AcDbSymbolTableRecord
100
AcDbBlockTableRecord
  2
*D10
340
0
  0
BLOCK_RECORD
  5
51CB
330
1
100
AcDbSymbolTableRecord
100
AcDbBlockTableRecord
  2
*D11
340
0
  0
BLOCK_RECORD
  5
51D7
330
1
100
AcDbSymbolTableRecord
100
AcDbBlockTableRecord
  2
*D12
340
0
  0
BLOCK_RECORD
  5
563E
330
1
100
AcDbSymbolTableRecord
100
AcDbBlockTableRecord
  2
*D13
340
0
  0
BLOCK_RECORD
  5
564A
330
1
100
AcDbSymbolTableRecord
100
AcDbBlockTableRecord
  2
*D14
340
0
  0
BLOCK_RECORD
  5
56AD
330
1
100
AcDbSymbolTableRecord
100
AcDbBlockTableRecord
  2
*D15
340
0
  0
BLOCK_RECORD
  5
56B9
330
1
100
AcDbSymbolTableRecord
100
AcDbBlockTableRecord
  2
*D16
340
0
  0
BLOCK_RECORD
  5
56C5
330
1
100
AcDbSymbolTableRecord
100
AcDbBlockTableRecord
  2
*D17
340
0
  0
BLOCK_RECORD
  5
56D1
330
1
100
AcDbSymbolTableRecord
100
AcDbBlockTableRecord
  2
*D18
340
0
  0
BLOCK_RECORD
  5
56DD
330
1
100
AcDbSymbolTableRecord
100
AcDbBlockTableRecord
  2
*D19
340
0
  0
BLOCK_RECORD
  5
56F5
330
1
100
AcDbSymbolTableRecord
100
AcDbBlockTableRecord
  2
*D20
340
0
  0
BLOCK_RECORD
  5
5701
330
1
100
AcDbSymbolTableRecord
100
AcDbBlockTableRecord
  2
*D21
340
0
  0
BLOCK_RECORD
  5
5776
330
1
100
AcDbSymbolTableRecord
100
AcDbBlockTableRecord
  2
*D22
340
0
  0
BLOCK_RECORD
  5
5782
330
1
100
AcDbSymbolTableRecord
100
AcDbBlockTableRecord
  2
*D23
340
0
  0
BLOCK_RECORD
  5
57A2
330
1
100
AcDbSymbolTableRecord
100
AcDbBlockTableRecord
  2
*D24
340
0
  0
BLOCK_RECORD
  5
57AE
330
1
100
AcDbSymbolTableRecord
100
AcDbBlockTableRecord
  2
*D25
340
0
  0
ENDTAB
  0
ENDSEC
  0
SECTION
  2
BLOCKS
  0
BLOCK
  5
20
330
1F
100
AcDbEntity
  8
0
100
AcDbBlockBegin
  2
*Model_Space
 70
     0
 10
0.0
 20
0.0
 30
0.0
  3
*Model_Space
  1

  0
ENDBLK
  5
21
330
1F
100
AcDbEntity
  8
0
100
AcDbBlockEnd
  0
BLOCK
  5
1C
330
1B
100
AcDbEntity
 67
     1
  8
0
100
AcDbBlockBegin
  2
*Paper_Space
 70
     0
 10
0.0
 20
0.0
 30
0.0
  3
*Paper_Space
  1

  0
ENDBLK
  5
1D
330
1B
100
AcDbEntity
 67
     1
  8
0
100
AcDbBlockEnd
  0
BLOCK
  5
24
330
23
100
AcDbEntity
  8
0
100
AcDbBlockBegin
  2
*Paper_Space0
 70
     0
 10
0.0
 20
0.0
 30
0.0
  3
*Paper_Space0
  1

  0
ENDBLK
  5
25
330
23
100
AcDbEntity
  8
0
100
AcDbBlockEnd
  0
BLOCK
  5
3532
330
3530
100
AcDbEntity
  8
0
100
AcDbBlockBegin
  2
GENAXEH
 70
     0
 10
0.0
 20
0.0
 30
0.0
  3
GENAXEH
  1

  0
LINE
  5
3531
330
3530
100
AcDbEntity
  8
0
100
AcDbLine
 10
-1.0
 20
0.0
 30
0.0
 11
1.0
 21
0.0
 31
0.0
  0
ENDBLK
  5
3533
330
3530
100
AcDbEntity
  8
0
100
AcDbBlockEnd
  0
BLOCK
  5
4390
330
438E
100
AcDbEntity
  8
0
100
AcDbBlockBegin
  2
A$C5ECF147B
 70
     0
 10
0.0
 20
0.0
 30
0.0
  3
A$C5ECF147B
  1

  0
CIRCLE
  5
4391
330
438E
100
AcDbEntity
  8
0
100
AcDbCircle
 10
-3.079240456948355
 20
2.061381943681453
 30
0.0
 40
1.25
  0
CIRCLE
  5
4392
330
438E
100
AcDbEntity
  8
0
100
AcDbCircle
 10
-3.079240456948355
 20
2.061381943681453
 30
0.0
 40
0.75
  0
ENDBLK
  5
4393
330
438E
100
AcDbEntity
  8
0
100
AcDbBlockEnd
  0
BLOCK
  5
4741
330
473E
100
AcDbEntity
  8
0
100
AcDbBlockBegin
  2
A$C1F6E6265
 70
     0
 10
0.0
 20
0.0
 30
0.0
  3
A$C1F6E6265
  1

  0
LINE
  5
4742
330
473E
100
AcDbEntity
  8
AM_5
 62
     5
100
AcDbLine
 10
12.57846733029419
 20
0.460783587398737
 30
0.0
 11
7.091423997858555
 21
0.460783587398737
 31
0.0
  0
LINE
  5
4743
330
473E
100
AcDbEntity
  8
AM_5
 62
     5
100
AcDbLine
 10
7.091423997858555
 20
0.460783587398737
 30
0.0
 11
3.50000046420655
 21
0.460783587398737
 31
0.0
  0
TRACE
  5
4744
330
473E
100
AcDbEntity
  8
AM_5
 62
     5
370
    35
100
AcDbTrace
 10
3.50000046420655
 20
0.9215673268987245
 30
0.0
 11
3.50000046420655
 21
-0.0000001521012507
 31
0.0
 12
0.0000004642065505
 22
0.460783587398737
 32
0.0
 13
0.0000004642065505
 23
0.460783587398737
 33
0.0
  0
MTEXT
  5
4745
330
473E
100
AcDbEntity
  8
AM_5
 62
     5
100
AcDbMText
 10
6.603782167567317
 20
1.421084835219261
 30
0.0
 40
2.449999999999999
 41
0.0
 71
     7
 72
     5
  1
SL
  7
ACISOTS
 73
     1
 44
1.0
1001
ACAD
1000
MTEXTBEGIN
1070
    73
1070
     1
1070
    44
1040
1.0
1070
    74
1070
     0
1000
MTEXTEND
  0
ENDBLK
  5
4746
330
473E
100
AcDbEntity
  8
0
100
AcDbBlockEnd
  0
BLOCK
  5
518D
330
5183
100
AcDbEntity
  8
0
100
AcDbBlockBegin
  2
*D5
 70
     1
 10
0.0
 20
0.0
 30
0.0
  3
*D5
  1

  0
LINE
  5
5530
330
5183
100
AcDbEntity
  8
DIM
100
AcDbLine
 10
79.15572549003593
 20
457.1246156243631
 30
0.0
 11
79.15572549003593
 21
462.8807161118096
 31
0.0
  0
LINE
  5
5531
330
5183
100
AcDbEntity
  8
DIM
100
AcDbLine
 10
86.65572549003593
 20
439.9844943054893
 30
0.0
 11
86.65572549003593
 21
462.8807161118096
 31
0.0
  0
LINE
  5
5532
330
5183
100
AcDbEntity
  8
DIM
100
AcDbLine
 10
81.15572549003593
 20
461.3807161118097
 30
0.0
 11
84.65572549003594
 21
461.3807161118097
 31
0.0
  0
SOLID
  5
5533
330
5183
100
AcDbEntity
  8
DIM
100
AcDbTrace
 10
81.15572549003593
 20
461.714049445143
 30
0.0
 11
81.15572549003593
 21
461.0473827784764
 31
0.0
 12
79.15572549003593
 22
461.3807161118097
 32
0.0
 13
79.15572549003593
 23
461.3807161118097
 33
0.0
  0
SOLID
  5
5534
330
5183
100
AcDbEntity
  8
DIM
100
AcDbTrace
 10
84.65572549003594
 20
461.714049445143
 30
0.0
 11
84.65572549003594
 21
461.0473827784764
 31
0.0
 12
86.65572549003593
 22
461.3807161118097
 32
0.0
 13
86.65572549003593
 23
461.3807161118097
 33
0.0
  0
MTEXT
  5
5535
330
5183
100
AcDbEntity
  8
DIM
100
AcDbMText
 10
82.90572549003593
 20
463.3807161118097
 30
0.0
 40
2.0
 41
0.0
 71
     5
 72
     1
  1
\A1;7.5
  7
dayus
 73
     1
 44
1.0
1001
ACAD
1000
MTEXTBEGIN
1070
    73
1070
     1
1070
    44
1040
1.0
1070
    74
1070
     0
1000
MTEXTEND
  0
POINT
  5
5536
330
5183
100
AcDbEntity
  8
Defpoints
 62
     0
100
AcDbPoint
 10
79.15572549003593
 20
455.6246156243632
 30
0.0
  0
POINT
  5
5537
330
5183
100
AcDbEntity
  8
Defpoints
 62
     0
100
AcDbPoint
 10
86.65572549003593
 20
438.4844943054893
 30
0.0
  0
POINT
  5
5538
330
5183
100
AcDbEntity
  8
Defpoints
 62
     0
100
AcDbPoint
 10
86.65572549003593
 20
461.3807161118097
 30
0.0
  0
ENDBLK
  5
518E
330
5183
100
AcDbEntity
  8
0
100
AcDbBlockEnd
  0
BLOCK
  5
5199
330
518F
100
AcDbEntity
  8
0
100
AcDbBlockBegin
  2
*D6
 70
     1
 10
0.0
 20
0.0
 30
0.0
  3
*D6
  1

  0
LINE
  5
54FA
330
518F
100
AcDbEntity
  8
DIM
100
AcDbLine
 10
120.6557254900359
 20
439.9844943054893
 30
0.0
 11
120.6557254900359
 21
463.2061924684393
 31
0.0
  0
LINE
  5
54FB
330
518F
100
AcDbEntity
  8
DIM
100
AcDbLine
 10
128.155724208536
 20
457.124615624363
 30
0.0
 11
128.155724208536
 21
463.2061924684393
 31
0.0
  0
LINE
  5
54FC
330
518F
100
AcDbEntity
  8
DIM
100
AcDbLine
 10
122.6557254900359
 20
461.7061924684393
 30
0.0
 11
126.155724208536
 21
461.7061924684393
 31
0.0
  0
SOLID
  5
54FD
330
518F
100
AcDbEntity
  8
DIM
100
AcDbTrace
 10
122.6557254900359
 20
462.0395258017726
 30
0.0
 11
122.6557254900359
 21
461.372859135106
 31
0.0
 12
120.6557254900359
 22
461.7061924684393
 32
0.0
 13
120.6557254900359
 23
461.7061924684393
 33
0.0
  0
SOLID
  5
54FE
330
518F
100
AcDbEntity
  8
DIM
100
AcDbTrace
 10
126.155724208536
 20
462.0395258017726
 30
0.0
 11
126.155724208536
 21
461.372859135106
 31
0.0
 12
128.155724208536
 22
461.7061924684393
 32
0.0
 13
128.155724208536
 23
461.7061924684393
 33
0.0
  0
MTEXT
  5
54FF
330
518F
100
AcDbEntity
  8
DIM
100
AcDbMText
 10
124.405724849286
 20
463.7061924684393
 30
0.0
 40
2.0
 41
0.0
 71
     5
 72
     1
  1
\A1;7.5
  7
dayus
 73
     1
 44
1.0
1001
ACAD
1000
MTEXTBEGIN
1070
    73
1070
     1
1070
    44
1040
1.0
1070
    74
1070
     0
1000
MTEXTEND
  0
POINT
  5
5500
330
518F
100
AcDbEntity
  8
Defpoints
 62
     0
100
AcDbPoint
 10
120.6557254900359
 20
438.4844943054893
 30
0.0
  0
POINT
  5
5501
330
518F
100
AcDbEntity
  8
Defpoints
 62
     0
100
AcDbPoint
 10
128.155724208536
 20
455.624615624363
 30
0.0
  0
POINT
  5
5502
330
518F
100
AcDbEntity
  8
Defpoints
 62
     0
100
AcDbPoint
 10
128.155724208536
 20
461.7061924684393
 30
0.0
  0
ENDBLK
  5
519A
330
518F
100
AcDbEntity
  8
0
100
AcDbBlockEnd
  0
BLOCK
  5
51A5
330
519B
100
AcDbEntity
  8
0
100
AcDbBlockBegin
  2
*D7
 70
     1
 10
0.0
 20
0.0
 30
0.0
  3
*D7
  1

  0
LINE
  5
558B
330
519B
100
AcDbEntity
  8
DIM
100
AcDbLine
 10
79.15572549003605
 20
457.1246156243631
 30
0.0
 11
79.15572549003605
 21
474.8623541162559
 31
0.0
  0
LINE
  5
558C
330
519B
100
AcDbEntity
  8
DIM
100
AcDbLine
 10
128.1557242085362
 20
457.1246156243629
 30
0.0
 11
128.1557242085362
 21
474.8623541162559
 31
0.0
  0
LINE
  5
558D
330
519B
100
AcDbEntity
  8
DIM
100
AcDbLine
 10
81.15572549003605
 20
473.3623541162558
 30
0.0
 11
126.1557242085362
 21
473.3623541162558
 31
0.0
  0
SOLID
  5
558E
330
519B
100
AcDbEntity
  8
DIM
100
AcDbTrace
 10
81.15572549003605
 20
473.6956874495892
 30
0.0
 11
81.15572549003605
 21
473.0290207829225
 31
0.0
 12
79.15572549003605
 22
473.3623541162558
 32
0.0
 13
79.15572549003605
 23
473.3623541162558
 33
0.0
  0
SOLID
  5
558F
330
519B
100
AcDbEntity
  8
DIM
100
AcDbTrace
 10
126.1557242085362
 20
473.6956874495892
 30
0.0
 11
126.1557242085362
 21
473.0290207829225
 31
0.0
 12
128.1557242085362
 22
473.3623541162558
 32
0.0
 13
128.1557242085362
 23
473.3623541162558
 33
0.0
  0
MTEXT
  5
5590
330
519B
100
AcDbEntity
  8
DIM
100
AcDbMText
 10
103.6557248492861
 20
475.3623541162559
 30
0.0
 40
2.0
 41
0.0
 71
     5
 72
     1
  1
\A1;44+stroke=49
  7
dayus
 73
     1
 44
1.0
1001
ACAD
1000
MTEXTBEGIN
1070
    73
1070
     1
1070
    44
1040
1.0
1070
    74
1070
     0
1000
MTEXTEND
  0
POINT
  5
5591
330
519B
100
AcDbEntity
  8
Defpoints
 62
     0
100
AcDbPoint
 10
79.15572549003605
 20
455.6246156243632
 30
0.0
  0
POINT
  5
5592
330
519B
100
AcDbEntity
  8
Defpoints
 62
     0
100
AcDbPoint
 10
128.1557242085362
 20
455.6246156243629
 30
0.0
  0
POINT
  5
5593
330
519B
100
AcDbEntity
  8
Defpoints
 62
     0
100
AcDbPoint
 10
128.1557242085362
 20
473.3623541162558
 30
0.0
  0
ENDBLK
  5
51A6
330
519B
100
AcDbEntity
  8
0
100
AcDbBlockEnd
  0
BLOCK
  5
51B1
330
51A7
100
AcDbEntity
  8
0
100
AcDbBlockBegin
  2
*D8
 70
     1
 10
0.0
 20
0.0
 30
0.0
  3
*D8
  1

  0
LINE
  5
55FA
330
51A7
100
AcDbEntity
  8
DIM
100
AcDbLine
 10
53.15572495359408
 20
437.6246166190157
 30
0.0
 11
53.15572495359408
 21
481.0525195206373
 31
0.0
  0
LINE
  5
55FB
330
51A7
100
AcDbEntity
  8
DIM
100
AcDbLine
 10
128.1557242085362
 20
457.1246156243629
 30
0.0
 11
128.1557242085362
 21
481.0525195206373
 31
0.0
  0
LINE
  5
55FC
330
51A7
100
AcDbEntity
  8
DIM
100
AcDbLine
 10
55.15572495359407
 20
479.5525195206373
 30
0.0
 11
126.1557242085362
 21
479.5525195206373
 31
0.0
  0
SOLID
  5
55FD
330
51A7
100
AcDbEntity
  8
DIM
100
AcDbTrace
 10
55.15572495359407
 20
479.8858528539707
 30
0.0
 11
55.15572495359407
 21
479.219186187304
 31
0.0
 12
53.15572495359408
 22
479.5525195206373
 32
0.0
 13
53.15572495359408
 23
479.5525195206373
 33
0.0
  0
SOLID
  5
55FE
330
51A7
100
AcDbEntity
  8
DIM
100
AcDbTrace
 10
126.1557242085362
 20
479.8858528539707
 30
0.0
 11
126.1557242085362
 21
479.219186187304
 31
0.0
 12
128.1557242085362
 22
479.5525195206373
 32
0.0
 13
128.1557242085362
 23
479.5525195206373
 33
0.0
  0
MTEXT
  5
55FF
330
51A7
100
AcDbEntity
  8
DIM
100
AcDbMText
 10
90.65572458106514
 20
481.5525195206373
 30
0.0
 40
2.0
 41
0.0
 71
     5
 72
     1
  1
\A1;70+stroke=75
  7
dayus
 73
     1
 44
1.0
1001
ACAD
1000
MTEXTBEGIN
1070
    73
1070
     1
1070
    44
1040
1.0
1070
    74
1070
     0
1000
MTEXTEND
  0
POINT
  5
5600
330
51A7
100
AcDbEntity
  8
Defpoints
 62
     0
100
AcDbPoint
 10
53.15572495359408
 20
436.1246166190157
 30
0.0
  0
POINT
  5
5601
330
51A7
100
AcDbEntity
  8
Defpoints
 62
     0
100
AcDbPoint
 10
128.1557242085362
 20
455.6246156243629
 30
0.0
  0
POINT
  5
5602
330
51A7
100
AcDbEntity
  8
Defpoints
 62
     0
100
AcDbPoint
 10
128.1557242085362
 20
479.5525195206373
 30
0.0
  0
ENDBLK
  5
51B2
330
51A7
100
AcDbEntity
  8
0
100
AcDbBlockEnd
  0
BLOCK
  5
51BD
330
51B3
100
AcDbEntity
  8
0
100
AcDbBlockBegin
  2
*D9
 70
     1
 10
0.0
 20
0.0
 30
0.0
  3
*D9
  1

  0
LINE
  5
55DC
330
51B3
100
AcDbEntity
  8
DIM
100
AcDbLine
 10
72.15572527396908
 20
438.6246163172671
 30
0.0
 11
72.15572527396908
 21
462.8807161118096
 31
0.0
  0
LINE
  5
55DD
330
51B3
100
AcDbEntity
  8
DIM
100
AcDbLine
 10
79.15572549003593
 20
457.1246156243631
 30
0.0
 11
79.15572549003593
 21
462.8807161118096
 31
0.0
  0
LINE
  5
55DE
330
51B3
100
AcDbEntity
  8
DIM
100
AcDbLine
 10
74.15572527396908
 20
461.3807161118097
 30
0.0
 11
77.15572549003593
 21
461.3807161118097
 31
0.0
  0
SOLID
  5
55DF
330
51B3
100
AcDbEntity
  8
DIM
100
AcDbTrace
 10
74.15572527396908
 20
461.714049445143
 30
0.0
 11
74.15572527396908
 21
461.0473827784764
 31
0.0
 12
72.15572527396908
 22
461.3807161118097
 32
0.0
 13
72.15572527396908
 23
461.3807161118097
 33
0.0
  0
SOLID
  5
55E0
330
51B3
100
AcDbEntity
  8
DIM
100
AcDbTrace
 10
77.15572549003593
 20
461.714049445143
 30
0.0
 11
77.15572549003593
 21
461.0473827784764
 31
0.0
 12
79.15572549003593
 22
461.3807161118097
 32
0.0
 13
79.15572549003593
 23
461.3807161118097
 33
0.0
  0
MTEXT
  5
55E1
330
51B3
100
AcDbEntity
  8
DIM
100
AcDbMText
 10
75.65572538200251
 20
463.3807161118097
 30
0.0
 40
2.0
 41
0.0
 71
     5
 72
     1
  1
\A1;7
  7
dayus
 73
     1
 44
1.0
1001
ACAD
1000
MTEXTBEGIN
1070
    73
1070
     1
1070
    44
1040
1.0
1070
    74
1070
     0
1000
MTEXTEND
  0
POINT
  5
55E2
330
51B3
100
AcDbEntity
  8
Defpoints
 62
     0
100
AcDbPoint
 10
72.15572527396908
 20
437.1246163172672
 30
0.0
  0
POINT
  5
55E3
330
51B3
100
AcDbEntity
  8
Defpoints
 62
     0
100
AcDbPoint
 10
79.15572549003593
 20
455.6246156243632
 30
0.0
  0
POINT
  5
55E4
330
51B3
100
AcDbEntity
  8
Defpoints
 62
     0
100
AcDbPoint
 10
79.15572549003593
 20
461.3807161118097
 30
0.0
  0
ENDBLK
  5
51BE
330
51B3
100
AcDbEntity
  8
0
100
AcDbBlockEnd
  0
BLOCK
  5
51C9
330
51BF
100
AcDbEntity
  8
0
100
AcDbBlockBegin
  2
*D10
 70
     1
 10
0.0
 20
0.0
 30
0.0
  3
*D10
  1

  0
LINE
  5
55C1
330
51BF
100
AcDbEntity
  8
DIM
100
AcDbLine
 10
53.15572495359408
 20
437.6246166190157
 30
0.0
 11
53.15572495359408
 21
462.8807161118096
 31
0.0
  0
LINE
  5
55C2
330
51BF
100
AcDbEntity
  8
DIM
100
AcDbLine
 10
72.15572527396908
 20
438.6246163172671
 30
0.0
 11
72.15572527396908
 21
462.8807161118096
 31
0.0
  0
LINE
  5
55C3
330
51BF
100
AcDbEntity
  8
DIM
100
AcDbLine
 10
55.15572495359407
 20
461.3807161118097
 30
0.0
 11
70.15572527396908
 21
461.3807161118097
 31
0.0
  0
SOLID
  5
55C4
330
51BF
100
AcDbEntity
  8
DIM
100
AcDbTrace
 10
55.15572495359407
 20
461.714049445143
 30
0.0
 11
55.15572495359407
 21
461.0473827784764
 31
0.0
 12
53.15572495359408
 22
461.3807161118097
 32
0.0
 13
53.15572495359408
 23
461.3807161118097
 33
0.0
  0
SOLID
  5
55C5
330
51BF
100
AcDbEntity
  8
DIM
100
AcDbTrace
 10
70.15572527396908
 20
461.714049445143
 30
0.0
 11
70.15572527396908
 21
461.0473827784764
 31
0.0
 12
72.15572527396908
 22
461.3807161118097
 32
0.0
 13
72.15572527396908
 23
461.3807161118097
 33
0.0
  0
MTEXT
  5
55C6
330
51BF
100
AcDbEntity
  8
DIM
100
AcDbMText
 10
62.65572511378158
 20
463.3807161118097
 30
0.0
 40
2.0
 41
0.0
 71
     5
 72
     1
  1
\A1;19
  7
dayus
 73
     1
 44
1.0
1001
ACAD
1000
MTEXTBEGIN
1070
    73
1070
     1
1070
    44
1040
1.0
1070
    74
1070
     0
1000
MTEXTEND
  0
POINT
  5
55C7
330
51BF
100
AcDbEntity
  8
Defpoints
 62
     0
100
AcDbPoint
 10
53.15572495359408
 20
436.1246166190157
 30
0.0
  0
POINT
  5
55C8
330
51BF
100
AcDbEntity
  8
Defpoints
 62
     0
100
AcDbPoint
 10
72.15572527396908
 20
437.1246163172672
 30
0.0
  0
POINT
  5
55C9
330
51BF
100
AcDbEntity
  8
Defpoints
 62
     0
100
AcDbPoint
 10
72.15572527396908
 20
461.3807161118097
 30
0.0
  0
ENDBLK
  5
51CA
330
51BF
100
AcDbEntity
  8
0
100
AcDbBlockEnd
  0
BLOCK
  5
51D5
330
51CB
100
AcDbEntity
  8
0
100
AcDbBlockBegin
  2
*D11
 70
     1
 10
0.0
 20
0.0
 30
0.0
  3
*D11
  1

  0
LINE
  5
5554
330
51CB
100
AcDbEntity
  8
DIM
100
AcDbLine
 10
79.15572549003593
 20
457.1246156243631
 30
0.0
 11
79.15572549003593
 21
468.62101607814
 31
0.0
  0
LINE
  5
5555
330
51CB
100
AcDbEntity
  8
DIM
100
AcDbLine
 10
93.15572592216961
 20
456.6246164737292
 30
0.0
 11
93.15572592216961
 21
468.62101607814
 31
0.0
  0
LINE
  5
5556
330
51CB
100
AcDbEntity
  8
DIM
100
AcDbLine
 10
81.15572549003593
 20
467.12101607814
 30
0.0
 11
91.15572592216961
 21
467.12101607814
 31
0.0
  0
SOLID
  5
5557
330
51CB
100
AcDbEntity
  8
DIM
100
AcDbTrace
 10
81.15572549003593
 20
467.4543494114733
 30
0.0
 11
81.15572549003593
 21
466.7876827448067
 31
0.0
 12
79.15572549003593
 22
467.12101607814
 32
0.0
 13
79.15572549003593
 23
467.12101607814
 33
0.0
  0
SOLID
  5
5558
330
51CB
100
AcDbEntity
  8
DIM
100
AcDbTrace
 10
91.15572592216961
 20
467.4543494114733
 30
0.0
 11
91.15572592216961
 21
466.7876827448067
 31
0.0
 12
93.15572592216961
 22
467.12101607814
 32
0.0
 13
93.15572592216961
 23
467.12101607814
 33
0.0
  0
MTEXT
  5
5559
330
51CB
100
AcDbEntity
  8
DIM
100
AcDbMText
 10
86.15572570610277
 20
469.1210160781401
 30
0.0
 40
2.0
 41
0.0
 71
     5
 72
     1
  1
\A1;14
  7
dayus
 73
     1
 44
1.0
1001
ACAD
1000
MTEXTBEGIN
1070
    73
1070
     1
1070
    44
1040
1.0
1070
    74
1070
     0
1000
MTEXTEND
  0
POINT
  5
555A
330
51CB
100
AcDbEntity
  8
Defpoints
 62
     0
100
AcDbPoint
 10
79.15572549003593
 20
455.6246156243632
 30
0.0
  0
POINT
  5
555B
330
51CB
100
AcDbEntity
  8
Defpoints
 62
     0
100
AcDbPoint
 10
93.15572592216961
 20
455.1246164737292
 30
0.0
  0
POINT
  5
555C
330
51CB
100
AcDbEntity
  8
Defpoints
 62
     0
100
AcDbPoint
 10
93.15572592216961
 20
467.12101607814
 30
0.0
  0
ENDBLK
  5
51D6
330
51CB
100
AcDbEntity
  8
0
100
AcDbBlockEnd
  0
BLOCK
  5
51E1
330
51D7
100
AcDbEntity
  8
0
100
AcDbBlockBegin
  2
*D12
 70
     1
 10
0.0
 20
0.0
 30
0.0
  3
*D12
  1

  0
LINE
  5
555D
330
51D7
100
AcDbEntity
  8
DIM
100
AcDbLine
 10
114.1557256390475
 20
457.124615624363
 30
0.0
 11
114.1557256390475
 21
468.62101607814
 31
0.0
  0
LINE
  5
555E
330
51D7
100
AcDbEntity
  8
DIM
100
AcDbLine
 10
128.155724208536
 20
457.124615624363
 30
0.0
 11
128.155724208536
 21
468.62101607814
 31
0.0
  0
LINE
  5
555F
330
51D7
100
AcDbEntity
  8
DIM
100
AcDbLine
 10
116.1557256390475
 20
467.12101607814
 30
0.0
 11
126.155724208536
 21
467.12101607814
 31
0.0
  0
SOLID
  5
5560
330
51D7
100
AcDbEntity
  8
DIM
100
AcDbTrace
 10
116.1557256390475
 20
467.4543494114733
 30
0.0
 11
116.1557256390475
 21
466.7876827448067
 31
0.0
 12
114.1557256390475
 22
467.12101607814
 32
0.0
 13
114.1557256390475
 23
467.12101607814
 33
0.0
  0
SOLID
  5
5561
330
51D7
100
AcDbEntity
  8
DIM
100
AcDbTrace
 10
126.155724208536
 20
467.4543494114733
 30
0.0
 11
126.155724208536
 21
466.7876827448067
 31
0.0
 12
128.155724208536
 22
467.12101607814
 32
0.0
 13
128.155724208536
 23
467.12101607814
 33
0.0
  0
MTEXT
  5
5562
330
51D7
100
AcDbEntity
  8
DIM
100
AcDbMText
 10
121.1557249237918
 20
469.12101607814
 30
0.0
 40
2.0
 41
0.0
 71
     5
 72
     1
  1
\A1;14
  7
dayus
 73
     1
 44
1.0
1001
ACAD
1000
MTEXTBEGIN
1070
    73
1070
     1
1070
    44
1040
1.0
1070
    74
1070
     0
1000
MTEXTEND
  0
POINT
  5
5563
330
51D7
100
AcDbEntity
  8
Defpoints
 62
     0
100
AcDbPoint
 10
114.1557256390475
 20
455.624615624363
 30
0.0
  0
POINT
  5
5564
330
51D7
100
AcDbEntity
  8
Defpoints
 62
     0
100
AcDbPoint
 10
128.155724208536
 20
455.624615624363
 30
0.0
  0
POINT
  5
5565
330
51D7
100
AcDbEntity
  8
Defpoints
 62
     0
100
AcDbPoint
 10
128.155724208536
 20
467.12101607814
 30
0.0
  0
ENDBLK
  5
51E2
330
51D7
100
AcDbEntity
  8
0
100
AcDbBlockEnd
  0
BLOCK
  5
5648
330
563E
100
AcDbEntity
  8
0
100
AcDbBlockBegin
  2
*D13
 70
     1
 10
0.0
 20
0.0
 30
0.0
  3
*D13
  1

  0
LINE
  5
5695
330
563E
100
AcDbEntity
  8
DIM
100
AcDbLine
 10
172.6531654467367
 20
454.5825196327676
 30
0.0
 11
172.6531654467367
 21
468.2876827448067
 31
0.0
  0
LINE
  5
5696
330
563E
100
AcDbEntity
  8
DIM
100
AcDbLine
 10
205.1531654467367
 20
454.5825196327675
 30
0.0
 11
205.1531654467367
 21
468.2876827448067
 31
0.0
  0
LINE
  5
5697
330
563E
100
AcDbEntity
  8
DIM
100
AcDbLine
 10
174.6531654467367
 20
466.7876827448067
 30
0.0
 11
203.1531654467367
 21
466.7876827448067
 31
0.0
  0
SOLID
  5
5698
330
563E
100
AcDbEntity
  8
DIM
100
AcDbTrace
 10
174.6531654467367
 20
467.12101607814
 30
0.0
 11
174.6531654467367
 21
466.4543494114734
 31
0.0
 12
172.6531654467367
 22
466.7876827448067
 32
0.0
 13
172.6531654467367
 23
466.7876827448067
 33
0.0
  0
SOLID
  5
5699
330
563E
100
AcDbEntity
  8
DIM
100
AcDbTrace
 10
203.1531654467367
 20
467.12101607814
 30
0.0
 11
203.1531654467367
 21
466.4543494114734
 31
0.0
 12
205.1531654467367
 22
466.7876827448067
 32
0.0
 13
205.1531654467367
 23
466.7876827448067
 33
0.0
  0
MTEXT
  5
569A
330
563E
100
AcDbEntity
  8
DIM
100
AcDbMText
 10
188.9031654467367
 20
468.7876827448067
 30
0.0
 40
2.0
 41
0.0
 71
     5
 72
     1
  1
\A1;□32.5
  7
dayus
 73
     1
 44
1.0
1001
ACAD
1000
MTEXTBEGIN
1070
    73
1070
     1
1070
    44
1040
1.0
1070
    74
1070
     0
1000
MTEXTEND
  0
POINT
  5
569B
330
563E
100
AcDbEntity
  8
Defpoints
 62
     0
100
AcDbPoint
 10
172.6531654467367
 20
453.0825196327675
 30
0.0
  0
POINT
  5
569C
330
563E
100
AcDbEntity
  8
Defpoints
 62
     0
100
AcDbPoint
 10
205.1531654467367
 20
453.0825196327675
 30
0.0
  0
POINT
  5
569D
330
563E
100
AcDbEntity
  8
Defpoints
 62
     0
100
AcDbPoint
 10
205.1531654467367
 20
466.7876827448067
 30
0.0
  0
ENDBLK
  5
5649
330
563E
100
AcDbEntity
  8
0
100
AcDbBlockEnd
  0
BLOCK
  5
5654
330
564A
100
AcDbEntity
  8
0
100
AcDbBlockBegin
  2
*D14
 70
     1
 10
0.0
 20
0.0
 30
0.0
  3
*D14
  1

  0
LINE
  5
567A
330
564A
100
AcDbEntity
  8
DIM
100
AcDbLine
 10
165.4031662513994
 20
450.1246163396103
 30
0.0
 11
165.4031662513994
 21
474.8623541162559
 31
0.0
  0
LINE
  5
567B
330
564A
100
AcDbEntity
  8
DIM
100
AcDbLine
 10
212.4031654467367
 20
450.1246164290172
 30
0.0
 11
212.4031654467367
 21
474.8623541162559
 31
0.0
  0
LINE
  5
567C
330
564A
100
AcDbEntity
  8
DIM
100
AcDbLine
 10
167.4031662513994
 20
473.3623541162558
 30
0.0
 11
210.4031654467367
 21
473.3623541162558
 31
0.0
  0
SOLID
  5
567D
330
564A
100
AcDbEntity
  8
DIM
100
AcDbTrace
 10
167.4031662513994
 20
473.6956874495892
 30
0.0
 11
167.4031662513994
 21
473.0290207829225
 31
0.0
 12
165.4031662513994
 22
473.3623541162558
 32
0.0
 13
165.4031662513994
 23
473.3623541162558
 33
0.0
  0
SOLID
  5
567E
330
564A
100
AcDbEntity
  8
DIM
100
AcDbTrace
 10
210.4031654467367
 20
473.6956874495892
 30
0.0
 11
210.4031654467367
 21
473.0290207829225
 31
0.0
 12
212.4031654467367
 22
473.3623541162558
 32
0.0
 13
212.4031654467367
 23
473.3623541162558
 33
0.0
  0
MTEXT
  5
567F
330
564A
100
AcDbEntity
  8
DIM
100
AcDbMText
 10
188.903165849068
 20
475.3623541162559
 30
0.0
 40
2.0
 41
0.0
 71
     5
 72
     1
  1
\A1;□47
  7
dayus
 73
     1
 44
1.0
1001
ACAD
1000
MTEXTBEGIN
1070
    73
1070
     1
1070
    44
1040
1.0
1070
    74
1070
     0
1000
MTEXTEND
  0
POINT
  5
5680
330
564A
100
AcDbEntity
  8
Defpoints
 62
     0
100
AcDbPoint
 10
165.4031662513994
 20
448.6246163396104
 30
0.0
  0
POINT
  5
5681
330
564A
100
AcDbEntity
  8
Defpoints
 62
     0
100
AcDbPoint
 10
212.4031654467367
 20
448.6246164290172
 30
0.0
  0
POINT
  5
5682
330
564A
100
AcDbEntity
  8
Defpoints
 62
     0
100
AcDbPoint
 10
212.4031654467367
 20
473.3623541162558
 30
0.0
  0
ENDBLK
  5
5655
330
564A
100
AcDbEntity
  8
0
100
AcDbBlockEnd
  0
BLOCK
  5
56B7
330
56AD
100
AcDbEntity
  8
0
100
AcDbBlockBegin
  2
*D15
 70
     1
 10
0.0
 20
0.0
 30
0.0
  3
*D15
  1

  0
LINE
  5
570D
330
56AD
100
AcDbEntity
  8
DIM
100
AcDbLine
 10
79.15572549003579
 20
326.3897688928879
 30
0.0
 11
79.15572549003579
 21
332.1458693803344
 31
0.0
  0
LINE
  5
570E
330
56AD
100
AcDbEntity
  8
DIM
100
AcDbLine
 10
86.65572549003579
 20
309.249647574014
 30
0.0
 11
86.65572549003579
 21
332.1458693803344
 31
0.0
  0
LINE
  5
570F
330
56AD
100
AcDbEntity
  8
DIM
100
AcDbLine
 10
81.15572549003578
 20
330.6458693803344
 30
0.0
 11
84.6557254900358
 21
330.6458693803344
 31
0.0
  0
SOLID
  5
5710
330
56AD
100
AcDbEntity
  8
DIM
100
AcDbTrace
 10
81.15572549003578
 20
330.9792027136678
 30
0.0
 11
81.15572549003578
 21
330.3125360470011
 31
0.0
 12
79.15572549003579
 22
330.6458693803344
 32
0.0
 13
79.15572549003579
 23
330.6458693803344
 33
0.0
  0
SOLID
  5
5711
330
56AD
100
AcDbEntity
  8
DIM
100
AcDbTrace
 10
84.6557254900358
 20
330.9792027136678
 30
0.0
 11
84.6557254900358
 21
330.3125360470011
 31
0.0
 12
86.65572549003579
 22
330.6458693803344
 32
0.0
 13
86.65572549003579
 23
330.6458693803344
 33
0.0
  0
MTEXT
  5
5712
330
56AD
100
AcDbEntity
  8
DIM
100
AcDbMText
 10
82.90572549003579
 20
332.6458693803344
 30
0.0
 40
2.0
 41
0.0
 71
     5
 72
     1
  1
\A1;7.5
  7
dayus
 73
     1
 44
1.0
1001
ACAD
1000
MTEXTBEGIN
1070
    73
1070
     1
1070
    44
1040
1.0
1070
    74
1070
     0
1000
MTEXTEND
  0
POINT
  5
5713
330
56AD
100
AcDbEntity
  8
Defpoints
 62
     0
100
AcDbPoint
 10
79.15572549003579
 20
324.8897688928879
 30
0.0
  0
POINT
  5
5714
330
56AD
100
AcDbEntity
  8
Defpoints
 62
     0
100
AcDbPoint
 10
86.65572549003579
 20
307.7496475740141
 30
0.0
  0
POINT
  5
5715
330
56AD
100
AcDbEntity
  8
Defpoints
 62
     0
100
AcDbPoint
 10
86.65572549003579
 20
330.6458693803344
 30
0.0
  0
ENDBLK
  5
56B8
330
56AD
100
AcDbEntity
  8
0
100
AcDbBlockEnd
  0
BLOCK
  5
56C3
330
56B9
100
AcDbEntity
  8
0
100
AcDbBlockBegin
  2
*D16
 70
     1
 10
0.0
 20
0.0
 30
0.0
  3
*D16
  1

  0
LINE
  5
5716
330
56B9
100
AcDbEntity
  8
DIM
100
AcDbLine
 10
120.6557254900358
 20
309.249647574014
 30
0.0
 11
120.6557254900358
 21
332.471345736964
 31
0.0
  0
LINE
  5
5717
330
56B9
100
AcDbEntity
  8
DIM
100
AcDbLine
 10
128.1557242085359
 20
326.3897688928878
 30
0.0
 11
128.1557242085359
 21
332.471345736964
 31
0.0
  0
LINE
  5
5718
330
56B9
100
AcDbEntity
  8
DIM
100
AcDbLine
 10
122.6557254900358
 20
330.9713457369641
 30
0.0
 11
126.1557242085359
 21
330.9713457369641
 31
0.0
  0
SOLID
  5
5719
330
56B9
100
AcDbEntity
  8
DIM
100
AcDbTrace
 10
122.6557254900358
 20
331.3046790702974
 30
0.0
 11
122.6557254900358
 21
330.6380124036307
 31
0.0
 12
120.6557254900358
 22
330.9713457369641
 32
0.0
 13
120.6557254900358
 23
330.9713457369641
 33
0.0
  0
SOLID
  5
571A
330
56B9
100
AcDbEntity
  8
DIM
100
AcDbTrace
 10
126.1557242085359
 20
331.3046790702974
 30
0.0
 11
126.1557242085359
 21
330.6380124036307
 31
0.0
 12
128.1557242085359
 22
330.9713457369641
 32
0.0
 13
128.1557242085359
 23
330.9713457369641
 33
0.0
  0
MTEXT
  5
571B
330
56B9
100
AcDbEntity
  8
DIM
100
AcDbMText
 10
124.4057248492858
 20
332.9713457369641
 30
0.0
 40
2.0
 41
0.0
 71
     5
 72
     1
  1
\A1;7.5
  7
dayus
 73
     1
 44
1.0
1001
ACAD
1000
MTEXTBEGIN
1070
    73
1070
     1
1070
    44
1040
1.0
1070
    74
1070
     0
1000
MTEXTEND
  0
POINT
  5
571C
330
56B9
100
AcDbEntity
  8
Defpoints
 62
     0
100
AcDbPoint
 10
120.6557254900358
 20
307.7496475740141
 30
0.0
  0
POINT
  5
571D
330
56B9
100
AcDbEntity
  8
Defpoints
 62
     0
100
AcDbPoint
 10
128.1557242085359
 20
324.8897688928878
 30
0.0
  0
POINT
  5
571E
330
56B9
100
AcDbEntity
  8
Defpoints
 62
     0
100
AcDbPoint
 10
128.1557242085359
 20
330.9713457369641
 30
0.0
  0
ENDBLK
  5
56C4
330
56B9
100
AcDbEntity
  8
0
100
AcDbBlockEnd
  0
BLOCK
  5
56CF
330
56C5
100
AcDbEntity
  8
0
100
AcDbBlockBegin
  2
*D17
 70
     1
 10
0.0
 20
0.0
 30
0.0
  3
*D17
  1

  0
LINE
  5
571F
330
56C5
100
AcDbEntity
  8
DIM
100
AcDbLine
 10
79.15572549003591
 20
326.3897688928879
 30
0.0
 11
79.15572549003591
 21
344.1275073847807
 31
0.0
  0
LINE
  5
5720
330
56C5
100
AcDbEntity
  8
DIM
100
AcDbLine
 10
128.155724208536
 20
326.3897688928877
 30
0.0
 11
128.155724208536
 21
344.1275073847807
 31
0.0
  0
LINE
  5
5721
330
56C5
100
AcDbEntity
  8
DIM
100
AcDbLine
 10
81.15572549003591
 20
342.6275073847806
 30
0.0
 11
126.155724208536
 21
342.6275073847806
 31
0.0
  0
SOLID
  5
5722
330
56C5
100
AcDbEntity
  8
DIM
100
AcDbTrace
 10
81.15572549003591
 20
342.9608407181139
 30
0.0
 11
81.15572549003591
 21
342.2941740514473
 31
0.0
 12
79.15572549003591
 22
342.6275073847806
 32
0.0
 13
79.15572549003591
 23
342.6275073847806
 33
0.0
  0
SOLID
  5
5723
330
56C5
100
AcDbEntity
  8
DIM
100
AcDbTrace
 10
126.155724208536
 20
342.9608407181139
 30
0.0
 11
126.155724208536
 21
342.2941740514473
 31
0.0
 12
128.155724208536
 22
342.6275073847806
 32
0.0
 13
128.155724208536
 23
342.6275073847806
 33
0.0
  0
MTEXT
  5
5724
330
56C5
100
AcDbEntity
  8
DIM
100
AcDbMText
 10
103.655724849286
 20
344.6275073847806
 30
0.0
 40
2.0
 41
0.0
 71
     5
 72
     1
  1
\A1;44+stroke=49
  7
dayus
 73
     1
 44
1.0
1001
ACAD
1000
MTEXTBEGIN
1070
    73
1070
     1
1070
    44
1040
1.0
1070
    74
1070
     0
1000
MTEXTEND
  0
POINT
  5
5725
330
56C5
100
AcDbEntity
  8
Defpoints
 62
     0
100
AcDbPoint
 10
79.15572549003591
 20
324.8897688928879
 30
0.0
  0
POINT
  5
5726
330
56C5
100
AcDbEntity
  8
Defpoints
 62
     0
100
AcDbPoint
 10
128.155724208536
 20
324.8897688928877
 30
0.0
  0
POINT
  5
5727
330
56C5
100
AcDbEntity
  8
Defpoints
 62
     0
100
AcDbPoint
 10
128.155724208536
 20
342.6275073847806
 30
0.0
  0
ENDBLK
  5
56D0
330
56C5
100
AcDbEntity
  8
0
100
AcDbBlockEnd
  0
BLOCK
  5
56DB
330
56D1
100
AcDbEntity
  8
0
100
AcDbBlockBegin
  2
*D18
 70
     1
 10
0.0
 20
0.0
 30
0.0
  3
*D18
  1

  0
LINE
  5
5769
330
56D1
100
AcDbEntity
  8
DIM
100
AcDbLine
 10
72.15572527396895
 20
307.889769585792
 30
0.0
 11
72.15572527396895
 21
350.3176727891621
 31
0.0
  0
LINE
  5
576A
330
56D1
100
AcDbEntity
  8
DIM
100
AcDbLine
 10
128.155724208536
 20
326.3897688928877
 30
0.0
 11
128.155724208536
 21
350.3176727891621
 31
0.0
  0
LINE
  5
576B
330
56D1
100
AcDbEntity
  8
DIM
100
AcDbLine
 10
74.15572527396895
 20
348.8176727891621
 30
0.0
 11
126.155724208536
 21
348.8176727891621
 31
0.0
  0
SOLID
  5
576C
330
56D1
100
AcDbEntity
  8
DIM
100
AcDbTrace
 10
74.15572527396895
 20
349.1510061224954
 30
0.0
 11
74.15572527396895
 21
348.4843394558288
 31
0.0
 12
72.15572527396895
 22
348.8176727891621
 32
0.0
 13
72.15572527396895
 23
348.8176727891621
 33
0.0
  0
SOLID
  5
576D
330
56D1
100
AcDbEntity
  8
DIM
100
AcDbTrace
 10
126.155724208536
 20
349.1510061224954
 30
0.0
 11
126.155724208536
 21
348.4843394558288
 31
0.0
 12
128.155724208536
 22
348.8176727891621
 32
0.0
 13
128.155724208536
 23
348.8176727891621
 33
0.0
  0
MTEXT
  5
576E
330
56D1
100
AcDbEntity
  8
DIM
100
AcDbMText
 10
100.1557247412525
 20
350.8176727891621
 30
0.0
 40
2.0
 41
0.0
 71
     5
 72
     1
  1
\A1;51+stroke=56
  7
dayus
 73
     1
 44
1.0
1001
ACAD
1000
MTEXTBEGIN
1070
    73
1070
     1
1070
    44
1040
1.0
1070
    74
1070
     0
1000
MTEXTEND
  0
POINT
  5
576F
330
56D1
100
AcDbEntity
  8
Defpoints
 62
     0
100
AcDbPoint
 10
72.15572527396895
 20
306.389769585792
 30
0.0
  0
POINT
  5
5770
330
56D1
100
AcDbEntity
  8
Defpoints
 62
     0
100
AcDbPoint
 10
128.155724208536
 20
324.8897688928877
 30
0.0
  0
POINT
  5
5771
330
56D1
100
AcDbEntity
  8
Defpoints
 62
     0
100
AcDbPoint
 10
128.155724208536
 20
348.8176727891621
 30
0.0
  0
ENDBLK
  5
56DC
330
56D1
100
AcDbEntity
  8
0
100
AcDbBlockEnd
  0
BLOCK
  5
56E7
330
56DD
100
AcDbEntity
  8
0
100
AcDbBlockBegin
  2
*D19
 70
     1
 10
0.0
 20
0.0
 30
0.0
  3
*D19
  1

  0
LINE
  5
575F
330
56DD
100
AcDbEntity
  8
DIM
100
AcDbLine
 10
72.15572527396894
 20
307.8897695857919
 30
0.0
 11
72.15572527396894
 21
343.960840718114
 31
0.0
  0
LINE
  5
5760
330
56DD
100
AcDbEntity
  8
DIM
100
AcDbLine
 10
79.15572549003579
 20
326.3897688928879
 30
0.0
 11
79.15572549003579
 21
343.960840718114
 31
0.0
  0
LINE
  5
5761
330
56DD
100
AcDbEntity
  8
DIM
100
AcDbLine
 10
74.15572527396894
 20
342.460840718114
 30
0.0
 11
77.15572549003579
 21
342.460840718114
 31
0.0
  0
SOLID
  5
5762
330
56DD
100
AcDbEntity
  8
DIM
100
AcDbTrace
 10
74.15572527396894
 20
342.7941740514473
 30
0.0
 11
74.15572527396894
 21
342.1275073847807
 31
0.0
 12
72.15572527396894
 22
342.460840718114
 32
0.0
 13
72.15572527396894
 23
342.460840718114
 33
0.0
  0
SOLID
  5
5763
330
56DD
100
AcDbEntity
  8
DIM
100
AcDbTrace
 10
77.15572549003579
 20
342.7941740514473
 30
0.0
 11
77.15572549003579
 21
342.1275073847807
 31
0.0
 12
79.15572549003579
 22
342.460840718114
 32
0.0
 13
79.15572549003579
 23
342.460840718114
 33
0.0
  0
MTEXT
  5
5764
330
56DD
100
AcDbEntity
  8
DIM
100
AcDbMText
 10
75.65572538200237
 20
344.460840718114
 30
0.0
 40
2.0
 41
0.0
 71
     5
 72
     1
  1
\A1;7
  7
dayus
 73
     1
 44
1.0
1001
ACAD
1000
MTEXTBEGIN
1070
    73
1070
     1
1070
    44
1040
1.0
1070
    74
1070
     0
1000
MTEXTEND
  0
POINT
  5
5765
330
56DD
100
AcDbEntity
  8
Defpoints
 62
     0
100
AcDbPoint
 10
72.15572527396894
 20
306.3897695857919
 30
0.0
  0
POINT
  5
5766
330
56DD
100
AcDbEntity
  8
Defpoints
 62
     0
100
AcDbPoint
 10
79.15572549003579
 20
324.8897688928879
 30
0.0
  0
POINT
  5
5767
330
56DD
100
AcDbEntity
  8
Defpoints
 62
     0
100
AcDbPoint
 10
79.15572549003579
 20
342.460840718114
 30
0.0
  0
ENDBLK
  5
56E8
330
56DD
100
AcDbEntity
  8
0
100
AcDbBlockEnd
  0
BLOCK
  5
56FF
330
56F5
100
AcDbEntity
  8
0
100
AcDbBlockBegin
  2
*D20
 70
     1
 10
0.0
 20
0.0
 30
0.0
  3
*D20
  1

  0
LINE
  5
5743
330
56F5
100
AcDbEntity
  8
DIM
100
AcDbLine
 10
79.15572549003579
 20
326.3897688928879
 30
0.0
 11
79.15572549003579
 21
337.8861693466648
 31
0.0
  0
LINE
  5
5744
330
56F5
100
AcDbEntity
  8
DIM
100
AcDbLine
 10
93.15572592216947
 20
325.889769742254
 30
0.0
 11
93.15572592216947
 21
337.8861693466648
 31
0.0
  0
LINE
  5
5745
330
56F5
100
AcDbEntity
  8
DIM
100
AcDbLine
 10
81.15572549003578
 20
336.3861693466648
 30
0.0
 11
91.15572592216947
 21
336.3861693466648
 31
0.0
  0
SOLID
  5
5746
330
56F5
100
AcDbEntity
  8
DIM
100
AcDbTrace
 10
81.15572549003578
 20
336.7195026799981
 30
0.0
 11
81.15572549003578
 21
336.0528360133315
 31
0.0
 12
79.15572549003579
 22
336.3861693466648
 32
0.0
 13
79.15572549003579
 23
336.3861693466648
 33
0.0
  0
SOLID
  5
5747
330
56F5
100
AcDbEntity
  8
DIM
100
AcDbTrace
 10
91.15572592216947
 20
336.7195026799981
 30
0.0
 11
91.15572592216947
 21
336.0528360133315
 31
0.0
 12
93.15572592216947
 22
336.3861693466648
 32
0.0
 13
93.15572592216947
 23
336.3861693466648
 33
0.0
  0
MTEXT
  5
5748
330
56F5
100
AcDbEntity
  8
DIM
100
AcDbMText
 10
86.15572570610263
 20
338.3861693466648
 30
0.0
 40
2.0
 41
0.0
 71
     5
 72
     1
  1
\A1;14
  7
dayus
 73
     1
 44
1.0
1001
ACAD
1000
MTEXTBEGIN
1070
    73
1070
     1
1070
    44
1040
1.0
1070
    74
1070
     0
1000
MTEXTEND
  0
POINT
  5
5749
330
56F5
100
AcDbEntity
  8
Defpoints
 62
     0
100
AcDbPoint
 10
79.15572549003579
 20
324.8897688928879
 30
0.0
  0
POINT
  5
574A
330
56F5
100
AcDbEntity
  8
Defpoints
 62
     0
100
AcDbPoint
 10
93.15572592216947
 20
324.389769742254
 30
0.0
  0
POINT
  5
574B
330
56F5
100
AcDbEntity
  8
Defpoints
 62
     0
100
AcDbPoint
 10
93.15572592216947
 20
336.3861693466648
 30
0.0
  0
ENDBLK
  5
5700
330
56F5
100
AcDbEntity
  8
0
100
AcDbBlockEnd
  0
BLOCK
  5
570B
330
5701
100
AcDbEntity
  8
0
100
AcDbBlockBegin
  2
*D21
 70
     1
 10
0.0
 20
0.0
 30
0.0
  3
*D21
  1

  0
LINE
  5
574C
330
5701
100
AcDbEntity
  8
DIM
100
AcDbLine
 10
114.1557256390474
 20
326.3897688928878
 30
0.0
 11
114.1557256390474
 21
337.8861693466648
 31
0.0
  0
LINE
  5
574D
330
5701
100
AcDbEntity
  8
DIM
100
AcDbLine
 10
128.1557242085359
 20
326.3897688928878
 30
0.0
 11
128.1557242085359
 21
337.8861693466648
 31
0.0
  0
LINE
  5
574E
330
5701
100
AcDbEntity
  8
DIM
100
AcDbLine
 10
116.1557256390474
 20
336.3861693466648
 30
0.0
 11
126.1557242085359
 21
336.3861693466648
 31
0.0
  0
SOLID
  5
574F
330
5701
100
AcDbEntity
  8
DIM
100
AcDbTrace
 10
116.1557256390474
 20
336.7195026799981
 30
0.0
 11
116.1557256390474
 21
336.0528360133315
 31
0.0
 12
114.1557256390474
 22
336.3861693466648
 32
0.0
 13
114.1557256390474
 23
336.3861693466648
 33
0.0
  0
SOLID
  5
5750
330
5701
100
AcDbEntity
  8
DIM
100
AcDbTrace
 10
126.1557242085359
 20
336.7195026799981
 30
0.0
 11
126.1557242085359
 21
336.0528360133315
 31
0.0
 12
128.1557242085359
 22
336.3861693466648
 32
0.0
 13
128.1557242085359
 23
336.3861693466648
 33
0.0
  0
MTEXT
  5
5751
330
5701
100
AcDbEntity
  8
DIM
100
AcDbMText
 10
121.1557249237916
 20
338.3861693466648
 30
0.0
 40
2.0
 41
0.0
 71
     5
 72
     1
  1
\A1;14
  7
dayus
 73
     1
 44
1.0
1001
ACAD
1000
MTEXTBEGIN
1070
    73
1070
     1
1070
    44
1040
1.0
1070
    74
1070
     0
1000
MTEXTEND
  0
POINT
  5
5752
330
5701
100
AcDbEntity
  8
Defpoints
 62
     0
100
AcDbPoint
 10
114.1557256390474
 20
324.8897688928878
 30
0.0
  0
POINT
  5
5753
330
5701
100
AcDbEntity
  8
Defpoints
 62
     0
100
AcDbPoint
 10
128.1557242085359
 20
324.8897688928878
 30
0.0
  0
POINT
  5
5754
330
5701
100
AcDbEntity
  8
Defpoints
 62
     0
100
AcDbPoint
 10
128.1557242085359
 20
336.3861693466648
 30
0.0
  0
ENDBLK
  5
570C
330
5701
100
AcDbEntity
  8
0
100
AcDbBlockEnd
  0
BLOCK
  5
5780
330
5776
100
AcDbEntity
  8
0
100
AcDbBlockBegin
  2
*D22
 70
     1
 10
0.0
 20
0.0
 30
0.0
  3
*D22
  1

  0
LINE
  5
578E
330
5776
100
AcDbEntity
  8
DIM
100
AcDbLine
 10
172.6531654467364
 20
323.847672901301
 30
0.0
 11
172.6531654467364
 21
337.5528360133401
 31
0.0
  0
LINE
  5
578F
330
5776
100
AcDbEntity
  8
DIM
100
AcDbLine
 10
205.1531654467364
 20
323.8476729013009
 30
0.0
 11
205.1531654467364
 21
337.5528360133401
 31
0.0
  0
LINE
  5
5790
330
5776
100
AcDbEntity
  8
DIM
100
AcDbLine
 10
174.6531654467364
 20
336.0528360133401
 30
0.0
 11
203.1531654467364
 21
336.0528360133401
 31
0.0
  0
SOLID
  5
5791
330
5776
100
AcDbEntity
  8
DIM
100
AcDbTrace
 10
174.6531654467364
 20
336.3861693466734
 30
0.0
 11
174.6531654467364
 21
335.7195026800068
 31
0.0
 12
172.6531654467364
 22
336.0528360133401
 32
0.0
 13
172.6531654467364
 23
336.0528360133401
 33
0.0
  0
SOLID
  5
5792
330
5776
100
AcDbEntity
  8
DIM
100
AcDbTrace
 10
203.1531654467364
 20
336.3861693466734
 30
0.0
 11
203.1531654467364
 21
335.7195026800068
 31
0.0
 12
205.1531654467364
 22
336.0528360133401
 32
0.0
 13
205.1531654467364
 23
336.0528360133401
 33
0.0
  0
MTEXT
  5
5793
330
5776
100
AcDbEntity
  8
DIM
100
AcDbMText
 10
188.9031654467364
 20
338.0528360133401
 30
0.0
 40
2.0
 41
0.0
 71
     5
 72
     1
  1
\A1;□32.5
  7
dayus
 73
     1
 44
1.0
1001
ACAD
1000
MTEXTBEGIN
1070
    73
1070
     1
1070
    44
1040
1.0
1070
    74
1070
     0
1000
MTEXTEND
  0
POINT
  5
5794
330
5776
100
AcDbEntity
  8
Defpoints
 62
     0
100
AcDbPoint
 10
172.6531654467364
 20
322.347672901301
 30
0.0
  0
POINT
  5
5795
330
5776
100
AcDbEntity
  8
Defpoints
 62
     0
100
AcDbPoint
 10
205.1531654467364
 20
322.3476729013009
 30
0.0
  0
POINT
  5
5796
330
5776
100
AcDbEntity
  8
Defpoints
 62
     0
100
AcDbPoint
 10
205.1531654467364
 20
336.0528360133401
 30
0.0
  0
ENDBLK
  5
5781
330
5776
100
AcDbEntity
  8
0
100
AcDbBlockEnd
  0
BLOCK
  5
578C
330
5782
100
AcDbEntity
  8
0
100
AcDbBlockBegin
  2
*D23
 70
     1
 10
0.0
 20
0.0
 30
0.0
  3
*D23
  1

  0
LINE
  5
5797
330
5782
100
AcDbEntity
  8
DIM
100
AcDbLine
 10
165.4031662513991
 20
319.3897696081438
 30
0.0
 11
165.4031662513991
 21
344.1275073847893
 31
0.0
  0
LINE
  5
5798
330
5782
100
AcDbEntity
  8
DIM
100
AcDbLine
 10
212.4031654467365
 20
319.3897696975506
 30
0.0
 11
212.4031654467365
 21
344.1275073847893
 31
0.0
  0
LINE
  5
5799
330
5782
100
AcDbEntity
  8
DIM
100
AcDbLine
 10
167.4031662513991
 20
342.6275073847893
 30
0.0
 11
210.4031654467365
 21
342.6275073847893
 31
0.0
  0
SOLID
  5
579A
330
5782
100
AcDbEntity
  8
DIM
100
AcDbTrace
 10
167.4031662513991
 20
342.9608407181226
 30
0.0
 11
167.4031662513991
 21
342.294174051456
 31
0.0
 12
165.4031662513991
 22
342.6275073847893
 32
0.0
 13
165.4031662513991
 23
342.6275073847893
 33
0.0
  0
SOLID
  5
579B
330
5782
100
AcDbEntity
  8
DIM
100
AcDbTrace
 10
210.4031654467365
 20
342.9608407181226
 30
0.0
 11
210.4031654467365
 21
342.294174051456
 31
0.0
 12
212.4031654467365
 22
342.6275073847893
 32
0.0
 13
212.4031654467365
 23
342.6275073847893
 33
0.0
  0
MTEXT
  5
579C
330
5782
100
AcDbEntity
  8
DIM
100
AcDbMText
 10
188.9031658490678
 20
344.6275073847893
 30
0.0
 40
2.0
 41
0.0
 71
     5
 72
     1
  1
\A1;□47
  7
dayus
 73
     1
 44
1.0
1001
ACAD
1000
MTEXTBEGIN
1070
    73
1070
     1
1070
    44
1040
1.0
1070
    74
1070
     0
1000
MTEXTEND
  0
POINT
  5
579D
330
5782
100
AcDbEntity
  8
Defpoints
 62
     0
100
AcDbPoint
 10
165.4031662513991
 20
317.8897696081437
 30
0.0
  0
POINT
  5
579E
330
5782
100
AcDbEntity
  8
Defpoints
 62
     0
100
AcDbPoint
 10
212.4031654467365
 20
317.8897696975506
 30
0.0
  0
POINT
  5
579F
330
5782
100
AcDbEntity
  8
Defpoints
 62
     0
100
AcDbPoint
 10
212.4031654467365
 20
342.6275073847893
 30
0.0
  0
ENDBLK
  5
578D
330
5782
100
AcDbEntity
  8
0
100
AcDbBlockEnd
  0
BLOCK
  5
57AC
330
57A2
100
AcDbEntity
  8
0
100
AcDbBlockBegin
  2
*D24
 70
     1
 10
0.0
 20
0.0
 30
0.0
  3
*D24
  1

  0
LINE
  5
5802
330
57A2
100
AcDbEntity
  8
DIM
100
AcDbLine
 10
75.65572539504088
 20
307.3897697497048
 30
0.0
 11
53.5217511241458
 21
307.3897697497048
 31
0.0
  0
LINE
  5
5803
330
57A2
100
AcDbEntity
  8
DIM
100
AcDbLine
 10
75.65572539504088
 20
295.3897696453966
 30
0.0
 11
53.52175112414579
 21
295.3897696453966
 31
0.0
  0
LINE
  5
5804
330
57A2
100
AcDbEntity
  8
DIM
100
AcDbLine
 10
55.0217511241458
 20
305.3897697497048
 30
0.0
 11
55.0217511241458
 21
297.3897696453967
 31
0.0
  0
SOLID
  5
5805
330
57A2
100
AcDbEntity
  8
DIM
100
AcDbTrace
 10
54.68841779081246
 20
305.3897697497048
 30
0.0
 11
55.35508445747914
 21
305.3897697497048
 31
0.0
 12
55.0217511241458
 22
307.3897697497048
 32
0.0
 13
55.0217511241458
 23
307.3897697497048
 33
0.0
  0
SOLID
  5
5806
330
57A2
100
AcDbEntity
  8
DIM
100
AcDbTrace
 10
54.68841779081246
 20
297.3897696453967
 30
0.0
 11
55.35508445747913
 21
297.3897696453967
 31
0.0
 12
55.0217511241458
 22
295.3897696453966
 32
0.0
 13
55.0217511241458
 23
295.3897696453966
 33
0.0
  0
MTEXT
  5
5807
330
57A2
100
AcDbEntity
  8
DIM
100
AcDbMText
 10
53.02175112414575
 20
301.3897696975507
 30
0.0
 40
2.0
 41
0.0
 71
     5
 72
     1
  1
\A1;%%C12
  7
dayus
 11
0.0000000000000001
 21
1.0
 31
0.0
 73
     1
 44
1.0
1001
ACAD
1000
MTEXTBEGIN
1070
    73
1070
     1
1070
    44
1040
1.0
1070
    74
1070
     0
1000
MTEXTEND
  0
POINT
  5
5808
330
57A2
100
AcDbEntity
  8
Defpoints
 62
     0
100
AcDbPoint
 10
77.15572539504089
 20
307.3897697497048
 30
0.0
  0
POINT
  5
5809
330
57A2
100
AcDbEntity
  8
Defpoints
 62
     0
100
AcDbPoint
 10
77.15572539504089
 20
295.3897696453966
 30
0.0
  0
POINT
  5
580A
330
57A2
100
AcDbEntity
  8
Defpoints
 62
     0
100
AcDbPoint
 10
55.0217511241458
 20
295.3897696453966
 30
0.0
  0
ENDBLK
  5
57AD
330
57A2
100
AcDbEntity
  8
0
100
AcDbBlockEnd
  0
BLOCK
  5
57B8
330
57AE
100
AcDbEntity
  8
0
100
AcDbBlockBegin
  2
*D25
 70
     1
 10
0.0
 20
0.0
 30
0.0
  3
*D25
  1

  0
LINE
  5
581D
330
57AE
100
AcDbEntity
  8
DIM
100
AcDbLine
 10
70.65572527396895
 20
306.389769585792
 30
0.0
 11
58.93901819710823
 21
306.389769585792
 31
0.0
  0
LINE
  5
581E
330
57AE
100
AcDbEntity
  8
DIM
100
AcDbLine
 10
70.65572527396895
 20
296.3897698093094
 30
0.0
 11
58.93901819710823
 21
296.3897698093094
 31
0.0
  0
LINE
  5
581F
330
57AE
100
AcDbEntity
  8
DIM
100
AcDbLine
 10
60.43901819710823
 20
304.389769585792
 30
0.0
 11
60.43901819710822
 21
298.3897698093094
 31
0.0
  0
SOLID
  5
5820
330
57AE
100
AcDbEntity
  8
DIM
100
AcDbTrace
 10
60.1056848637749
 20
304.389769585792
 30
0.0
 11
60.77235153044156
 21
304.389769585792
 31
0.0
 12
60.43901819710823
 22
306.389769585792
 32
0.0
 13
60.43901819710823
 23
306.389769585792
 33
0.0
  0
SOLID
  5
5821
330
57AE
100
AcDbEntity
  8
DIM
100
AcDbTrace
 10
60.10568486377489
 20
298.3897698093094
 30
0.0
 11
60.77235153044156
 21
298.3897698093094
 31
0.0
 12
60.43901819710822
 22
296.3897698093094
 32
0.0
 13
60.43901819710822
 23
296.3897698093094
 33
0.0
  0
MTEXT
  5
5822
330
57AE
100
AcDbEntity
  8
DIM
100
AcDbMText
 10
58.43901819710819
 20
301.3897696975507
 30
0.0
 40
2.0
 41
0.0
 71
     5
 72
     1
  1
\A1;10
  7
dayus
 11
0.0000000000000001
 21
1.0
 31
0.0
 73
     1
 44
1.0
1001
ACAD
1000
MTEXTBEGIN
1070
    73
1070
     1
1070
    44
1040
1.0
1070
    74
1070
     0
1000
MTEXTEND
  0
POINT
  5
5823
330
57AE
100
AcDbEntity
  8
Defpoints
 62
     0
100
AcDbPoint
 10
72.15572527396895
 20
306.389769585792
 30
0.0
  0
POINT
  5
5824
330
57AE
100
AcDbEntity
  8
Defpoints
 62
     0
100
AcDbPoint
 10
72.15572527396895
 20
296.3897698093094
 30
0.0
  0
POINT
  5
5825
330
57AE
100
AcDbEntity
  8
Defpoints
 62
     0
100
AcDbPoint
 10
60.43901819710822
 20
296.3897698093094
 30
0.0
  0
ENDBLK
  5
57B9
330
57AE
100
AcDbEntity
  8
0
100
AcDbBlockEnd
  0
ENDSEC
  0
SECTION
  2
ENTITIES
  0
MTEXT
  5
A9
330
1F
100
AcDbEntity
  8
0
100
AcDbMText
 10
-112.8858816556399
 20
179.1757813154577
 30
0.0
 40
3.0
 41
0.0
 71
     4
 72
     5
  1

 73
     1
 44
1.0
1001
ACAD
1000
MTEXTBEGIN
1070
    73
1070
     1
1070
    44
1040
1.0
1070
    74
1070
     0
1000
MTEXTEND
  0
MTEXT
  5
AA
330
1F
100
AcDbEntity
  8
0
100
AcDbMText
 10
-176.2667196970539
 20
189.9084924046809
 30
0.0
 40
1.799999999999999
 41
0.0
 71
     9
 72
     5
  1

 73
     1
 44
1.0
1001
ACAD
1000
MTEXTBEGIN
1070
    73
1070
     1
1070
    44
1040
1.0
1070
    74
1070
     0
1000
MTEXTEND
  0
MTEXT
  5
AB
330
1F
100
AcDbEntity
  8
0
100
AcDbMText
 10
82.64233389287733
 20
174.944592339129
 30
0.0
 40
3.0
 41
0.0
 71
     4
 72
     5
  1

 73
     1
 44
1.0
1001
ACAD
1000
MTEXTBEGIN
1070
    73
1070
     1
1070
    44
1040
1.0
1070
    74
1070
     0
1000
MTEXTEND
  0
MTEXT
  5
AC
330
1F
100
AcDbEntity
  8
0
100
AcDbMText
 10
19.26149585146331
 20
185.6773034283523
 30
0.0
 40
1.799999999999999
 41
0.0
 71
     9
 72
     5
  1

 73
     1
 44
1.0
1001
ACAD
1000
MTEXTBEGIN
1070
    73
1070
     1
1070
    44
1040
1.0
1070
    74
1070
     0
1000
MTEXTEND
  0
MTEXT
  5
B1
330
1F
100
AcDbEntity
  8
0
100
AcDbMText
 10
-211.0828086697475
 20
93.72900974557683
 30
0.0
 40
3.0
 41
59.51
 71
     1
 72
     5
  1

  7
CHINESET
 73
     1
 44
1.0
1001
ACAD
1000
MTEXTBEGIN
1070
    73
1070
     1
1070
    44
1040
1.0
1070
    74
1070
     0
1000
MTEXTEND
  0
MTEXT
  5
B2
330
1F
100
AcDbEntity
  8
0
100
AcDbMText
 10
-179.9099428209695
 20
86.93407807798587
 30
0.0
 40
3.0
 41
38.26
 71
     1
 72
     5
  1

  7
CHINESET
 73
     1
 44
1.0
1001
ACAD
1000
MTEXTBEGIN
1070
    73
1070
     1
1070
    44
1040
1.0
1070
    74
1070
     0
1000
MTEXTEND
  0
MTEXT
  5
10B3
330
1F
100
AcDbEntity
  8
0
100
AcDbMText
 10
81.67014302795905
 20
125.5492500028813
 30
0.0
 40
3.0
 41
0.0
 71
     7
 72
     5
  1

  7
CHINESET
 73
     1
 44
1.0
1001
ACAD
1000
MTEXTBEGIN
1070
    73
1070
     1
1070
    44
1040
1.0
1070
    74
1070
     0
1000
MTEXTEND
  0
LINE
  5
17B4
330
1F
100
AcDbEntity
  8
0
 62
     4
100
AcDbLine
 10
271.6277841472795
 20
236.5075700388601
 30
0.0
 11
271.6277841472795
 21
498.3383184385226
 31
0.0
  0
LINE
  5
17B5
330
1F
100
AcDbEntity
  8
0
 62
     4
100
AcDbLine
 10
-0.4706550713615343
 20
236.50757003886
 30
0.0
 11
-0.4706550713615343
 21
498.3383184385226
 31
0.0
  0
TEXT
  5
17BD
330
1F
100
AcDbEntity
  8
LOGO
  6
Continuous
 62
     7
100
AcDbText
 10
163.7998881591111
 20
224.513291959328
 30
0.0
 40
6.18625
  1
11/12
  7
CHINESET
 72
     1
 11
176.1723881591111
 21
227.6064169593281
 31
0.0
100
AcDbText
 73
     2
  0
TEXT
  5
17BE
330
1F
100
AcDbEntity
  8
LOGO
100
AcDbText
 10
166.6859331841524
 20
210.8529668610351
 30
0.0
 40
4.41875
  1
作動型式
  7
CHINESET
 72
     4
 11
175.4774045383191
 21
212.9492636130037
 31
0.0
100
AcDbText
  0
LINE
  5
17BF
330
1F
100
AcDbEntity
  8
0
 62
     4
100
AcDbLine
 10
271.6277841472795
 20
371.15811785134
 30
0.0
 11
-0.4706550713615343
 21
371.15811785134
 31
0.0
  0
LINE
  5
17C0
330
1F
100
AcDbEntity
  8
0
 62
     4
100
AcDbLine
 10
271.6277841472795
 20
236.50757003886
 30
0.0
 11
-0.4706550713615343
 21
236.50757003886
 31
0.0
  0
TEXT
  5
17C3
330
1F
100
AcDbEntity
  8
LOGO
  6
Continuous
100
AcDbText
 10
166.3874045383191
 20
206.1759370065396
 30
0.0
 40
2.65125
  1
Acting type
 41
0.8
  7
CHINESET
 72
     4
 11
175.4774045383191
 21
207.0596870065396
 31
0.0
100
AcDbText
  0
LINE
  5
17C4
330
1F
100
AcDbEntity
  8
LOGO
 62
     4
100
AcDbLine
 10
191.1208962336912
 20
222.3725861833462
 30
0.0
 11
162.4877053837787
 21
222.3725861833462
 31
0.0
  0
LINE
  5
17C5
330
1F
100
AcDbEntity
  8
LOGO
 62
     4
100
AcDbLine
 10
191.1208962336912
 20
217.0719672375286
 30
0.0
 11
162.4877053837787
 21
217.0719672375286
 31
0.0
  0
LINE
  5
17C6
330
1F
100
AcDbEntity
  8
LOGO
 62
     4
100
AcDbLine
 10
191.1208962336912
 20
204.1148987033075
 30
0.0
 11
162.4877053837787
 21
204.1148987033075
 31
0.0
  0
LINE
  5
17C7
330
1F
100
AcDbEntity
  8
LOGO
 62
     4
100
AcDbLine
 10
191.1208962336912
 20
232.9738240749817
 30
0.0
 11
162.4877053837787
 21
232.9738240749816
 31
0.0
  0
LINE
  5
1802
330
1F
100
AcDbEntity
  8
LOGO
 62
     4
100
AcDbLine
 10
151.7910005794783
 20
217.0719672375286
 30
0.0
 11
128.232694153622
 21
217.0719672375286
 31
0.0
  0
TEXT
  5
1803
330
1F
100
AcDbEntity
  8
LOGO
  6
Continuous
 62
     7
100
AcDbText
 10
131.0270556998834
 20
224.580080129164
 30
0.0
 40
6.18625
  1
MCJI
  7
CHINESET
 72
     1
 11
140.0118473665501
 21
227.6732051291639
 31
0.0
100
AcDbText
 73
     2
  0
LINE
  5
1804
330
1F
100
AcDbEntity
  8
LOGO
 62
     4
100
AcDbLine
 10
151.7910005794783
 20
204.1148987033075
 30
0.0
 11
128.232694153622
 21
204.1148987033075
 31
0.0
  0
TEXT
  5
1805
330
1F
100
AcDbEntity
  8
LOGO
  6
Continuous
100
AcDbText
 10
135.9718473665501
 20
205.7340620065396
 30
0.0
 40
2.65125
  1
Model
 41
0.8
  7
CHINESET
 72
     4
 11
140.0118473665501
 21
207.0596870065396
 31
0.0
100
AcDbText
  0
TEXT
  5
1806
330
1F
100
AcDbEntity
  8
LOGO
100
AcDbText
 10
135.5930973665501
 20
210.8529668610351
 30
0.0
 40
4.41875
  1
型式
  7
CHINESET
 72
     4
 11
140.0118473665501
 21
212.9492636130037
 31
0.0
100
AcDbText
  0
LINE
  5
1807
330
1F
100
AcDbEntity
  8
LOGO
 62
     4
100
AcDbLine
 10
154.1468312220639
 20
222.3725861833462
 30
0.0
 11
125.8768635110364
 21
222.3725861833462
 31
0.0
  0
LINE
  5
1808
330
1F
100
AcDbEntity
  8
LOGO
 62
     4
100
AcDbLine
 10
154.1468312220639
 20
232.9738240749816
 30
0.0
 11
125.8768635110364
 21
232.9738240749816
 31
0.0
  0
LINE
  5
1809
330
1F
100
AcDbEntity
  8
LOGO
 62
     4
100
AcDbLine
 10
140.0118473665501
 20
222.3725861833462
 30
0.0
 11
140.0118473665501
 21
217.0719672375286
 31
0.0
  0
LINE
  5
180A
330
1F
100
AcDbEntity
  8
LOGO
 62
     4
100
AcDbLine
 10
128.232694153622
 20
217.0719672375286
 30
0.0
 11
128.232694153622
 21
204.1148987033075
 31
0.0
  0
LINE
  5
180B
330
1F
100
AcDbEntity
  8
LOGO
 62
     4
100
AcDbLine
 10
125.8768635110364
 20
232.9738240749816
 30
0.0
 11
125.8768635110364
 21
222.3725861833462
 31
0.0
  0
LINE
  5
180C
330
1F
100
AcDbEntity
  8
LOGO
 62
     4
100
AcDbLine
 10
151.7910005794783
 20
217.0719672375286
 30
0.0
 11
151.7910005794783
 21
204.1148987033075
 31
0.0
  0
LINE
  5
180D
330
1F
100
AcDbEntity
  8
LOGO
 62
     4
100
AcDbLine
 10
162.4877053837787
 20
217.0719672375286
 30
0.0
 11
162.4877053837787
 21
204.1148987033075
 31
0.0
  0
LINE
  5
180E
330
1F
100
AcDbEntity
  8
LOGO
  6
Continuous
 62
     7
100
AcDbLine
 10
155.973265190149
 20
227.6356538691601
 30
0.0
 11
160.6543850211129
 21
227.6356538691601
 31
0.0
  0
LINE
  5
180F
330
1F
100
AcDbEntity
  8
LOGO
 62
     4
100
AcDbLine
 10
154.146831222064
 20
232.9738240749816
 30
0.0
 11
154.146831222064
 21
222.3725861833462
 31
0.0
  0
LINE
  5
1810
330
1F
100
AcDbEntity
  8
LOGO
 62
     4
100
AcDbLine
 10
162.4877053837787
 20
232.9738240749816
 30
0.0
 11
162.4877053837787
 21
222.3725861833462
 31
0.0
  0
LINE
  5
1868
330
1F
100
AcDbEntity
  8
LOGO
 62
     4
100
AcDbLine
 10
246.3367569172685
 20
232.9738240749816
 30
0.0
 11
226.7145509384445
 21
232.9738240749816
 31
0.0
  0
LINE
  5
1869
330
1F
100
AcDbEntity
  8
LOGO
 62
     4
100
AcDbLine
 10
246.3367569172685
 20
222.3725861833462
 30
0.0
 11
226.7145509384445
 21
222.3725861833462
 31
0.0
  0
LINE
  5
186A
330
1F
100
AcDbEntity
  8
LOGO
 62
     4
100
AcDbLine
 10
245.1588415959757
 20
217.0719672375286
 30
0.0
 11
227.8924662597372
 21
217.0719672375286
 31
0.0
  0
LINE
  5
186B
330
1F
100
AcDbEntity
  8
LOGO
 62
     4
100
AcDbLine
 10
245.1588415959757
 20
204.1148987033075
 30
0.0
 11
227.8924662597372
 21
204.1148987033075
 31
0.0
  0
LINE
  5
186C
330
1F
100
AcDbEntity
  8
LOGO
 62
     4
100
AcDbLine
 10
218.3736767767298
 20
222.3725861833463
 30
0.0
 11
199.4617703954059
 21
222.3725861833463
 31
0.0
  0
LINE
  5
186D
330
1F
100
AcDbEntity
  8
LOGO
 62
     4
100
AcDbLine
 10
218.3736767767298
 20
217.0719672375286
 30
0.0
 11
199.4617703954059
 21
217.0719672375286
 31
0.0
  0
LINE
  5
186E
330
1F
100
AcDbEntity
  8
LOGO
 62
     4
100
AcDbLine
 10
218.3736767767298
 20
232.9738240749817
 30
0.0
 11
199.4617703954059
 21
232.9738240749817
 31
0.0
  0
TEXT
  5
186F
330
1F
100
AcDbEntity
  8
LOGO
  6
Continuous
 62
     7
100
AcDbText
 10
204.4595008877091
 20
224.5132919593281
 30
0.0
 40
6.18625
  1
32
  7
CHINESET
 72
     1
 11
209.4674175543758
 21
227.6064169593281
 31
0.0
100
AcDbText
 73
     2
  0
LINE
  5
1870
330
1F
100
AcDbEntity
  8
LOGO
 62
     4
100
AcDbLine
 10
218.3736767767298
 20
204.1148987033076
 30
0.0
 11
199.4617703954059
 21
204.1148987033076
 31
0.0
  0
TEXT
  5
1871
330
1F
100
AcDbEntity
  8
LOGO
  6
Continuous
100
AcDbText
 10
205.6352235860679
 20
205.7340620065396
 30
0.0
 40
2.65125
  1
Bore
 41
0.8
  7
CHINESET
 72
     4
 11
208.917723586068
 21
207.0596870065396
 31
0.0
100
AcDbText
  0
TEXT
  5
1872
330
1F
100
AcDbEntity
  8
LOGO
100
AcDbText
 10
204.222801711068
 20
210.7398886130037
 30
0.0
 40
4.41875
  1
內徑
  7
CHINESET
 72
     4
 11
208.917723586068
 21
212.9492636130037
 31
0.0
100
AcDbText
  0
LINE
  5
1873
330
1F
100
AcDbEntity
  8
LOGO
 62
     4
100
AcDbLine
 10
208.917723314459
 20
222.3725861833463
 30
0.0
 11
208.917723314459
 21
217.0719672375286
 31
0.0
  0
LINE
  5
1874
330
1F
100
AcDbEntity
  8
LOGO
 62
     4
100
AcDbLine
 10
175.4774045383191
 20
222.3725861833462
 30
0.0
 11
175.4774045383191
 21
217.0719672375286
 31
0.0
  0
LINE
  5
1875
330
1F
100
AcDbEntity
  8
LOGO
 62
     4
100
AcDbLine
 10
191.1208962336912
 20
217.0719672375286
 30
0.0
 11
191.1208962336912
 21
204.1148987033076
 31
0.0
  0
LINE
  5
1876
330
1F
100
AcDbEntity
  8
LOGO
 62
     4
100
AcDbLine
 10
199.4617703954059
 20
217.0719672375286
 30
0.0
 11
199.4617703954059
 21
204.1148987033076
 31
0.0
  0
LINE
  5
1877
330
1F
100
AcDbEntity
  8
LOGO
 62
     4
100
AcDbLine
 10
191.1208962336912
 20
232.9738240749817
 30
0.0
 11
191.1208962336912
 21
222.3725861833462
 31
0.0
  0
LINE
  5
1878
330
1F
100
AcDbEntity
  8
LOGO
 62
     4
100
AcDbLine
 10
199.4617703954059
 20
232.9738240749817
 30
0.0
 11
199.4617703954059
 21
222.3725861833463
 31
0.0
  0
LINE
  5
1879
330
1F
100
AcDbEntity
  8
LOGO
  6
Continuous
 62
     7
100
AcDbLine
 10
192.9473302017762
 20
227.6356538691602
 30
0.0
 11
197.6284500327402
 21
227.6356538691602
 31
0.0
  0
LINE
  5
187A
330
1F
100
AcDbEntity
  8
LOGO
 62
     4
100
AcDbLine
 10
236.7751256976064
 20
222.3725861833462
 30
0.0
 11
236.7751256976064
 21
217.0719672375286
 31
0.0
  0
LINE
  5
187B
330
1F
100
AcDbEntity
  8
LOGO
 62
     4
100
AcDbLine
 10
218.3736767767298
 20
217.0719672375286
 30
0.0
 11
218.3736767767298
 21
204.1148987033076
 31
0.0
  0
LINE
  5
187C
330
1F
100
AcDbEntity
  8
LOGO
 62
     4
100
AcDbLine
 10
227.8924662597372
 20
217.0719672375286
 30
0.0
 11
227.8924662597372
 21
204.1148987033075
 31
0.0
  0
TEXT
  5
187D
330
1F
100
AcDbEntity
  8
LOGO
  6
Continuous
100
AcDbText
 10
231.7281539278565
 20
205.7340620065395
 30
0.0
 40
2.65125
  1
Stroke
 41
0.8
  7
CHINESET
 72
     4
 11
236.5256539278565
 21
207.0596870065395
 31
0.0
100
AcDbText
  0
TEXT
  5
187E
330
1F
100
AcDbEntity
  8
LOGO
100
AcDbText
 10
232.1069039278565
 20
210.7398886130037
 30
0.0
 40
4.41875
  1
行程
  7
CHINESET
 72
     4
 11
236.5256539278565
 21
212.9492636130037
 31
0.0
100
AcDbText
  0
LINE
  5
187F
330
1F
100
AcDbEntity
  8
LOGO
 62
     4
100
AcDbLine
 10
218.3736767767298
 20
232.9738240749817
 30
0.0
 11
218.3736767767298
 21
222.3725861833463
 31
0.0
  0
LINE
  5
1880
330
1F
100
AcDbEntity
  8
LOGO
  6
Continuous
 62
     7
100
AcDbLine
 10
220.2001107448149
 20
227.6356538691603
 30
0.0
 11
224.8812305757789
 21
227.6356538691603
 31
0.0
  0
LINE
  5
1881
330
1F
100
AcDbEntity
  8
LOGO
 62
     4
100
AcDbLine
 10
226.7145509384445
 20
232.9738240749816
 30
0.0
 11
226.7145509384445
 21
222.3725861833462
 31
0.0
  0
TEXT
  5
1882
330
1F
100
AcDbEntity
  8
LOGO
  6
Continuous
 62
     7
100
AcDbText
 10
235.0132645628311
 20
224.513291959328
 30
0.0
 40
6.18625
  1
5
  7
CHINESET
 72
     1
 11
237.0753478961644
 21
227.6064169593281
 31
0.0
100
AcDbText
 73
     2
  0
LINE
  5
1883
330
1F
100
AcDbEntity
  8
LOGO
 62
     4
100
AcDbLine
 10
256.5269702897401
 20
222.3725861833462
 30
0.0
 11
256.5269702897401
 21
217.0719672375286
 31
0.0
  0
LINE
  5
1885
330
1F
100
AcDbEntity
  8
LOGO
 62
     4
100
AcDbLine
 10
266.3223277385591
 20
204.1148987033075
 30
0.0
 11
247.893782621621
 21
204.1148987033075
 31
0.0
  0
LINE
  5
1886
330
1F
100
AcDbEntity
  8
LOGO
 62
     4
100
AcDbLine
 10
266.3223277385591
 20
217.0719672375286
 30
0.0
 11
247.893782621621
 21
217.0719672375286
 31
0.0
  0
TEXT
  5
1887
330
1F
100
AcDbEntity
  8
LOGO
  6
Continuous
100
AcDbText
 10
250.3659702897401
 20
205.7340620065395
 30
0.0
 40
2.65125
  1
MAGNET
 41
0.8
  7
CHINESET
 72
     4
 11
256.5269702897401
 21
207.0596870065395
 31
0.0
100
AcDbText
  0
TEXT
  5
1888
330
1F
100
AcDbEntity
  8
LOGO
100
AcDbText
 10
249.8988452897401
 20
210.785917258837
 30
0.0
 40
4.41875
  1
附磁石
  7
CHINESET
 72
     4
 11
256.5269702897401
 21
212.9492636130037
 31
0.0
100
AcDbText
  0
LINE
  5
1889
330
1F
100
AcDbEntity
  8
LOGO
 62
     4
100
AcDbLine
 10
247.893782621621
 20
217.0719672375286
 30
0.0
 11
247.893782621621
 21
204.1148987033075
 31
0.0
  0
LINE
  5
188A
330
1F
100
AcDbEntity
  8
LOGO
 62
     4
100
AcDbLine
 10
245.1588415959757
 20
217.0719672375286
 30
0.0
 11
245.1588415959757
 21
204.066041963386
 31
0.0
  0
LINE
  5
188B
330
1F
100
AcDbEntity
  8
LOGO
 62
     4
100
AcDbLine
 10
266.3223277385591
 20
217.0719672375286
 30
0.0
 11
266.3223277385591
 21
204.066041963386
 31
0.0
  0
TEXT
  5
188C
330
1F
100
AcDbEntity
  8
LOGO
  6
Continuous
 62
     7
100
AcDbText
 10
250.4485395296569
 20
224.513291959328
 30
0.0
 40
6.18625
  1
(M)
  7
CHINESET
 72
     1
 11
257.0766645296569
 21
227.6064169593281
 31
0.0
100
AcDbText
 73
     2
  0
LINE
  5
188D
330
1F
100
AcDbEntity
  8
LOGO
 62
     4
100
AcDbLine
 10
265.4280558876609
 20
222.3725861833462
 30
0.0
 11
248.7880544725191
 21
222.3725861833462
 31
0.0
  0
LINE
  5
188E
330
1F
100
AcDbEntity
  8
LOGO
 62
     4
100
AcDbLine
 10
265.4280558876609
 20
232.9738240749817
 30
0.0
 11
248.7880544725191
 21
232.9738240749816
 31
0.0
  0
LINE
  5
188F
330
1F
100
AcDbEntity
  8
LOGO
 62
     4
100
AcDbLine
 10
248.7880544725191
 20
232.9738240749816
 30
0.0
 11
248.7880544725191
 21
222.3725861833462
 31
0.0
  0
LINE
  5
1890
330
1F
100
AcDbEntity
  8
LOGO
 62
     4
100
AcDbLine
 10
246.3367569172685
 20
232.9738240749816
 30
0.0
 11
246.3367569172685
 21
222.3725861833462
 31
0.0
  0
LINE
  5
1891
330
1F
100
AcDbEntity
  8
LOGO
 62
     4
100
AcDbLine
 10
265.4280558876608
 20
232.9738240749817
 30
0.0
 11
265.4280558876609
 21
222.3725861833462
 31
0.0
  0
LINE
  5
18E7
330
1F
100
AcDbEntity
  8
0
 62
     4
100
AcDbLine
 10
271.6277841472795
 20
498.3383184385226
 30
0.0
 11
-0.4706550713615343
 21
498.3383184385226
 31
0.0
  0
TEXT
  5
18EA
330
1F
100
AcDbEntity
  8
0
100
AcDbText
 10
5.575756269376597
 20
489.3703000572422
 30
0.0
 40
4.0
  1
11 type
  7
CHINESET
100
AcDbText
  0
LWPOLYLINE
  5
4079
330
1F
100
AcDbEntity
  8
LOGO
 62
     4
100
AcDbPolyline
 90
        4
 70
     1
 43
0.0
 10
-0.4706550713615343
 20
236.50757003886
 10
271.6277841472795
 20
236.50757003886
 10
271.6277841472795
 20
201.1626885908956
 10
-0.4706550713615343
 20
201.1626885908956
1001
GENIUS_GENREC_14
1002
{
1000
PYDIR
1011
-0.4706550713615343
1021
201.1626885908956
1031
0.0
1002
}
1002
{
1000
PXDIR
1011
271.6277841472795
1021
236.50757003886
1031
0.0
1002
}
1002
{
1000
PORI
1011
-0.4706550713615343
1021
236.50757003886
1031
0.0
1002
}
1002
{
1000
PINS
1011
-0.4706550713615343
1021
236.50757003886
1031
0.0
1002
}
1002
{
1000
PINS2
1011
271.6277841472795
1021
201.1626885908956
1031
0.0
1002
}
1002
{
1000
C
1070
     1
1002
}
1001
GENIUS_GENOBJ-N-REC_13
1002
{
1000
OWNER
1000
GEN
1002
}
1001
GENIUS_GENODEF_13
1002
{
1000
HIER
1070
     0
1002
}
1002
{
1000
MANEDIT
1070
     0
1002
}
1002
{
1000
NOSEL
1070
     0
1002
}
1002
{
1000
BEHIND
1070
     0
1002
}
1002
{
1000
OTHER
1070
     0
1002
}
1002
{
1000
REACTOR
1002
}
  0
TEXT
  5
407A
330
1F
100
AcDbEntity
  8
LOGO
 62
     7
100
AcDbText
 10
79.33574689710372
 20
221.0235789210583
 30
0.0
 40
4.712650859728507
  1
Order example:
 41
0.8
  7
CHINESET
100
AcDbText
  0
TEXT
  5
407B
330
1F
100
AcDbEntity
  8
LOGO
 62
     7
100
AcDbText
 10
80.18123543337617
 20
227.6580155647448
 30
0.0
 40
7.068976289592759
  1
訂購代號：
  7
CHINESET
100
AcDbText
  0
LINE
  5
407C
330
1F
100
AcDbEntity
  8
LOGO
 62
     4
100
AcDbLine
 10
77.28808411415889
 20
201.162688590896
 30
0.0
 11
77.28808411415889
 21
236.50757003886
 31
0.0
  0
TEXT
  5
407D
330
1F
100
AcDbEntity
  8
LOGO
  6
Continuous
100
AcDbText
 10
12.2253852230632
 20
208.1061372112717
 30
0.0
 40
5.30173221719457
  1
金器工業股份有限公司
  7
CHINESET
100
AcDbText
  0
TEXT
  5
407E
330
1F
100
AcDbEntity
  8
LOGO
  6
Continuous
100
AcDbText
 10
2.487152036069915
 20
202.8033662702345
 30
0.0
 40
3.534488144796379
  1
MINDMAN INDUSTRIAL CO., LTD.
 41
0.85
  7
CHINESET
100
AcDbText
  0
LINE
  5
407F
330
1F
100
AcDbEntity
  8
LOGO
 62
     4
100
AcDbLine
 10
77.28808411415889
 20
229.4385937492672
 30
0.0
 11
25.44892465714503
 21
229.4385937492672
 31
0.0
  0
LINE
  5
4080
330
1F
100
AcDbEntity
  8
LOGO
 62
     4
100
AcDbLine
 10
77.28808411415889
 20
222.3696174596744
 30
0.0
 11
25.44892465714503
 21
222.3696174596744
 31
0.0
  0
LINE
  5
4081
330
1F
100
AcDbEntity
  8
LOGO
 62
     4
100
AcDbLine
 10
77.28808411415889
 20
215.300641170082
 30
0.0
 11
-0.4706550713615343
 21
215.300641170082
 31
0.0
  0
LINE
  5
4082
330
1F
100
AcDbEntity
  8
LOGO
 62
     4
100
AcDbLine
 10
25.44892465714503
 20
215.300641170082
 30
0.0
 11
25.44892465714503
 21
236.50757003886
 31
0.0
  0
TEXT
  5
4083
330
1F
100
AcDbEntity
  8
LOGO
100
AcDbText
 10
60.87854337495654
 20
217.0678852424796
 30
0.0
 40
3.534488144796379
  1
mm
  7
CHINESET
 72
     1
 11
65.25457631613301
 21
218.8351293148778
 31
0.0
100
AcDbText
 73
     2
  0
TEXT
  5
4084
330
1F
100
AcDbEntity
  8
LOGO
100
AcDbText
 10
59.02714482292034
 20
231.2058378216653
 30
0.0
 40
3.534488144796379
  1
1 : 1
  7
CHINESET
 72
     1
 11
65.25457631613301
 21
232.9730818940634
 31
0.0
100
AcDbText
 73
     2
  0
LINE
  5
4085
330
1F
100
AcDbEntity
  8
LOGO
 62
     4
100
AcDbLine
 10
53.72482981551621
 20
215.300641170082
 30
0.0
 11
53.72482981551621
 21
236.50757003886
 31
0.0
  0
CIRCLE
  5
4086
330
1F
100
AcDbEntity
  8
LOGO
  6
Continuous
100
AcDbCircle
 10
60.26937670239528
 20
225.9116659004774
 30
0.0
 40
2.052207009341716
  0
CIRCLE
  5
4087
330
1F
100
AcDbEntity
  8
LOGO
  6
Continuous
100
AcDbCircle
 10
60.26937670239528
 20
225.9116659004774
 30
0.0
 40
1.202411635866442
  0
LINE
  5
4088
330
1F
100
AcDbEntity
  8
LOGO
100
AcDbLine
 10
73.16568367712983
 20
223.8594588911353
 30
0.0
 11
73.16568367712983
 21
227.9638729098195
 31
0.0
  0
LINE
  5
4089
330
1F
100
AcDbEntity
  8
LOGO
100
AcDbLine
 10
66.73213250514709
 20
224.7092542646112
 30
0.0
 11
66.73213250514709
 21
227.114077536344
 31
0.0
  0
LINE
  5
408A
330
1F
100
AcDbEntity
  8
LOGO
  6
Continuous
100
AcDbLine
 10
66.73213250514709
 20
227.114077536344
 30
0.0
 11
73.16568367712983
 21
227.9638729098195
 31
0.0
  0
LINE
  5
408B
330
1F
100
AcDbEntity
  8
LOGO
  6
Continuous
100
AcDbLine
 10
66.73213250514709
 20
224.7092542646112
 30
0.0
 11
73.16568367712983
 21
223.8594588911353
 31
0.0
  0
TEXT
  5
408C
330
1F
100
AcDbEntity
  8
LOGO
100
AcDbText
 10
28.3632994801089
 20
231.2075772351223
 30
231.644530280888
 40
3.534488144796379
  1
比例 Scale:
 41
0.9
  7
CHINESET
 72
     4
 11
39.58687723633062
 21
232.9730818940634
 31
231.644530280888
100
AcDbText
  0
TEXT
  5
408D
330
1F
100
AcDbEntity
  8
LOGO
100
AcDbText
 10
28.15975083248447
 20
224.1865797667208
 30
231.644530280888
 40
3.534488144796379
  1
投影  View:
 41
0.9
  7
CHINESET
 72
     4
 11
39.58687723633062
 21
225.9041056044706
 31
231.644530280888
100
AcDbText
  0
TEXT
  5
408E
330
1F
100
AcDbEntity
  8
LOGO
100
AcDbText
 10
28.50531016449804
 20
217.0678852424796
 30
231.644530280888
 40
3.534488144796379
  1
單位  Unit:
 41
0.9
  7
CHINESET
 72
     4
 11
39.58687723633062
 21
218.8351293148778
 31
231.644530280888
100
AcDbText
  0
SOLID
  5
408F
330
1F
100
AcDbEntity
  8
LOGO
 62
     5
100
AcDbTrace
 10
3.196433103084757
 20
221.1762246160348
 30
0.0
 11
4.724653031925697
 21
221.1762246160344
 31
0.0
 12
11.10101894191734
 22
235.6679653205622
 32
0.0
 13
12.62923887075914
 23
235.6679653205614
 33
0.0
  0
SOLID
  5
4090
330
1F
100
AcDbEntity
  8
LOGO
 62
     5
100
AcDbTrace
 10
5.357019899034014
 20
221.1762246160348
 30
0.0
 11
6.885239827875011
 21
221.1762246160348
 31
0.0
 12
12.62923887075914
 22
234.5086260641994
 32
0.0
 13
11.10101894191734
 23
228.9051529917822
 33
0.0
  0
SOLID
  5
4091
330
1F
100
AcDbEntity
  8
LOGO
 62
     2
100
AcDbTrace
 10
4.724653031925697
 20
221.1762246160344
 30
0.0
 11
5.357019899034014
 21
221.1762246160348
 31
0.0
 12
12.62923887075914
 22
235.6679653205614
 32
0.0
 13
13.2616057378666
 23
235.6679653205614
 33
0.0
  0
SOLID
  5
4092
330
1F
100
AcDbEntity
  8
LOGO
 62
     5
100
AcDbTrace
 10
0.7463217917197654
 20
215.9065007234798
 30
0.0
 11
1.273294180975881
 21
215.9065007234798
 31
0.0
 12
2.757289445372236
 22
218.5413626697571
 32
0.0
 13
3.284261834626761
 23
218.5413626697571
 33
0.0
  0
SOLID
  5
4093
330
1F
100
AcDbEntity
  8
LOGO
 62
     5
100
AcDbTrace
 10
2.757289445372236
 20
218.5413626697571
 30
0.0
 11
3.284261834626761
 21
218.5413626697571
 31
0.0
 12
2.757289445372236
 22
215.9065007234798
 32
0.0
 13
3.284261834626761
 23
215.9065007234798
 33
0.0
  0
SOLID
  5
4094
330
1F
100
AcDbEntity
  8
LOGO
 62
     5
100
AcDbTrace
 10
2.757289445372236
 20
215.9065007234798
 30
0.0
 11
3.284261834626761
 21
215.9065007234798
 31
0.0
 12
4.768257099025504
 22
218.5413626697571
 32
0.0
 13
5.295229488280824
 23
218.5413626697571
 33
0.0
  0
SOLID
  5
4095
330
1F
100
AcDbEntity
  8
LOGO
 62
     5
100
AcDbTrace
 10
4.768257099025504
 20
218.5413626697571
 30
0.0
 11
5.295229488280824
 21
218.5413626697571
 31
0.0
 12
4.768257099025504
 22
215.9065007234798
 32
0.0
 13
5.295229488280824
 23
215.9065007234798
 33
0.0
  0
POLYLINE
  5
4096
330
1F
100
AcDbEntity
  8
LOGO
 62
     5
100
AcDb2dPolyline
 66
     1
 10
0.0
 20
0.0
 30
0.0
 40
0.5278168962895926
 41
0.5278168962895926
  0
VERTEX
  5
4097
330
4096
100
AcDbEntity
  8
LOGO
 62
     5
100
AcDbVertex
100
AcDb2dVertex
 10
22.43219207146376
 20
217.4874178912461
 30
0.0
 42
1.0
  0
VERTEX
  5
4098
330
4096
100
AcDbEntity
  8
LOGO
 62
     5
100
AcDbVertex
100
AcDb2dVertex
 10
20.84874138259465
 20
217.4874178912461
 30
0.0
 42
1.0
  0
SEQEND
  5
4099
330
4096
100
AcDbEntity
  8
LOGO
 62
     5
  0
POLYLINE
  5
409A
330
1F
100
AcDbEntity
  8
LOGO
 62
     5
100
AcDb2dPolyline
 66
     1
 10
0.0
 20
0.0
 30
0.0
 70
     1
  0
VERTEX
  5
409B
330
409A
100
AcDbEntity
  8
LOGO
 62
     5
100
AcDbVertex
100
AcDb2dVertex
 10
17.86386640218944
 20
217.2239316966181
 30
0.0
 42
1.000000057330635
  0
VERTEX
  5
409C
330
409A
100
AcDbEntity
  8
LOGO
 62
     5
100
AcDbVertex
100
AcDb2dVertex
 10
19.44478356995614
 20
217.2239316966181
 30
0.0
 42
1.000000057330635
  0
SEQEND
  5
409D
330
409A
100
AcDbEntity
  8
LOGO
 62
     5
  0
CIRCLE
  5
409E
330
1F
100
AcDbEntity
  8
LOGO
 62
     5
100
AcDbCircle
 10
18.65432498607401
 20
217.2239316966181
 30
0.0
 40
0.7904585838832942
  0
POLYLINE
  5
409F
330
1F
100
AcDbEntity
  8
LOGO
 62
     5
100
AcDb2dPolyline
 66
     1
 10
0.0
 20
0.0
 30
0.0
 70
     1
 40
0.5278168962895926
 41
0.5278168962895926
  0
VERTEX
  5
40A0
330
409F
100
AcDbEntity
  8
LOGO
 62
     5
100
AcDbVertex
100
AcDb2dVertex
 10
17.59869119349406
 20
217.2239316966181
 30
0.0
 42
1.0
  0
VERTEX
  5
40A1
330
409F
100
AcDbEntity
  8
LOGO
 62
     5
100
AcDbVertex
100
AcDb2dVertex
 10
19.70995877865232
 20
217.2239316966181
 30
0.0
 42
1.0
  0
SEQEND
  5
40A2
330
409F
100
AcDbEntity
  8
LOGO
 62
     5
  0
LINE
  5
40A3
330
1F
100
AcDbEntity
  8
LOGO
100
AcDbLine
 10
22.69441150553939
 20
215.9065007234798
 30
0.0
 11
22.69441150553939
 21
217.4874178912461
 31
0.0
  0
SOLID
  5
40A4
330
1F
100
AcDbEntity
  8
LOGO
 62
     5
100
AcDbTrace
 10
19.44473087271956
 20
218.5413626697571
 30
0.0
 11
19.97170326197408
 21
218.5413626697571
 31
0.0
 12
19.44473087271956
 22
215.9065007234798
 32
0.0
 13
19.97170326197408
 23
215.9065007234798
 33
0.0
  0
SOLID
  5
40A5
330
1F
100
AcDbEntity
  8
LOGO
 62
     5
100
AcDbTrace
 10
20.58652194851743
 20
215.9065007234798
 30
0.0
 11
21.11349433777355
 21
215.9065007234798
 31
0.0
 12
20.58652194851743
 22
218.5413626697571
 32
0.0
 13
21.11349433777355
 23
218.5413626697571
 33
0.0
  0
SOLID
  5
40A6
330
1F
100
AcDbEntity
  8
LOGO
 62
     5
100
AcDbTrace
 10
22.16743911628492
 20
217.4874178912461
 30
0.0
 11
22.69441150553939
 21
217.4874178912461
 31
0.0
 12
22.16743911628492
 22
215.9065007234798
 32
0.0
 13
22.69441150553939
 23
215.9065007234798
 33
0.0
  0
SOLID
  5
40A7
330
1F
100
AcDbEntity
  8
LOGO
 62
     5
100
AcDbTrace
 10
20.53382470959173
 20
234.5086260641994
 30
0.0
 11
19.00560478075158
 21
228.9051529917822
 31
0.0
 12
20.53382470959173
 22
221.1762246160344
 32
0.0
 13
19.00560478075158
 23
221.1762246160344
 33
0.0
  0
SOLID
  5
40A8
330
1F
100
AcDbEntity
  8
LOGO
 62
     5
100
AcDbTrace
 10
21.16619157669925
 20
221.1762246160344
 30
0.0
 11
22.69441150553939
 21
221.1762246160344
 31
0.0
 12
21.16619157669925
 22
235.6679653205614
 32
0.0
 13
22.69441150553939
 23
235.6679653205622
 33
0.0
  0
SOLID
  5
40A9
330
1F
100
AcDbEntity
  8
LOGO
 62
     2
100
AcDbTrace
 10
20.53382470959173
 20
235.6679653205622
 30
0.0
 11
21.16619157669925
 21
235.6679653205614
 31
0.0
 12
20.53382470959173
 22
221.1762246160344
 32
0.0
 13
21.16619157669925
 23
221.1762246160344
 33
0.0
  0
POLYLINE
  5
40AA
330
1F
100
AcDbEntity
  8
LOGO
 62
     5
100
AcDb2dPolyline
 66
     1
 10
0.0
 20
0.0
 30
0.0
 40
0.5278168962895926
 41
0.5278168962895926
  0
VERTEX
  5
40AB
330
40AA
100
AcDbEntity
  8
LOGO
 62
     5
100
AcDbVertex
100
AcDb2dVertex
 10
14.87888602730868
 20
217.4874178912461
 30
0.0
 42
1.0
  0
VERTEX
  5
40AC
330
40AA
100
AcDbEntity
  8
LOGO
 62
     5
100
AcDbVertex
100
AcDb2dVertex
 10
13.29543533843963
 20
217.4874178912461
 30
0.0
 42
1.0
  0
SEQEND
  5
40AD
330
40AA
100
AcDbEntity
  8
LOGO
 62
     5
  0
POLYLINE
  5
40AE
330
1F
100
AcDbEntity
  8
LOGO
 62
     5
100
AcDb2dPolyline
 66
     1
 10
0.0
 20
0.0
 30
0.0
 40
0.5278168962895926
 41
0.5278168962895926
  0
VERTEX
  5
40AF
330
40AE
100
AcDbEntity
  8
LOGO
 62
     5
100
AcDbVertex
100
AcDb2dVertex
 10
16.45980319507379
 20
217.4874178912461
 30
0.0
 42
1.0
  0
VERTEX
  5
40B0
330
40AE
100
AcDbEntity
  8
LOGO
 62
     5
100
AcDbVertex
100
AcDb2dVertex
 10
14.87635250620548
 20
217.4874178912461
 30
0.0
 42
1.0
  0
SEQEND
  5
40B1
330
40AE
100
AcDbEntity
  8
LOGO
 62
     5
  0
POLYLINE
  5
40B2
330
1F
100
AcDbEntity
  8
LOGO
 62
     5
100
AcDb2dPolyline
 66
     1
 10
0.0
 20
0.0
 30
0.0
 40
0.5278168962895926
 41
0.5278168962895926
  0
VERTEX
  5
40B3
330
40B2
100
AcDbEntity
  8
LOGO
 62
     5
100
AcDbVertex
100
AcDb2dVertex
 10
8.90649715091871
 20
217.4874178912461
 30
0.0
 42
1.0
  0
VERTEX
  5
40B4
330
40B2
100
AcDbEntity
  8
LOGO
 62
     5
100
AcDbVertex
100
AcDb2dVertex
 10
7.323046462050399
 20
217.4874178912461
 30
0.0
 42
1.0
  0
SEQEND
  5
40B5
330
40B2
100
AcDbEntity
  8
LOGO
 62
     5
  0
SOLID
  5
40B6
330
1F
100
AcDbEntity
  8
LOGO
 62
     5
100
AcDbTrace
 10
7.060827027973971
 20
218.5413626697571
 30
0.0
 11
7.587799417228438
 21
218.5413626697571
 31
0.0
 12
7.060827027973971
 22
215.9065007234798
 32
0.0
 13
7.587799417228438
 23
215.9065007234798
 33
0.0
  0
SOLID
  5
40B7
330
1F
100
AcDbEntity
  8
LOGO
 62
     5
100
AcDbTrace
 10
8.64174419574067
 20
217.4874178912461
 30
0.0
 11
9.16871658499673
 21
217.4874178912461
 31
0.0
 12
8.64174419574067
 22
215.9065007234798
 32
0.0
 13
9.16871658499673
 23
215.9065007234798
 33
0.0
  0
POLYLINE
  5
40B8
330
1F
100
AcDbEntity
  8
LOGO
 62
     5
100
AcDb2dPolyline
 66
     1
 10
0.0
 20
0.0
 30
0.0
 70
     1
 40
0.5278168962895926
 41
0.5278168962895926
  0
VERTEX
  5
40B9
330
40B8
100
AcDbEntity
  8
LOGO
 62
     5
100
AcDbVertex
100
AcDb2dVertex
 10
10.04538514933819
 20
217.2239316966181
 30
0.0
 42
1.0
  0
VERTEX
  5
40BA
330
40B8
100
AcDbEntity
  8
LOGO
 62
     5
100
AcDbVertex
100
AcDb2dVertex
 10
12.1566527344973
 20
217.2239316966181
 30
0.0
 42
1.0
  0
SEQEND
  5
40BB
330
40B8
100
AcDbEntity
  8
LOGO
 62
     5
  0
SOLID
  5
40BC
330
1F
100
AcDbEntity
  8
LOGO
 62
     5
100
AcDbTrace
 10
11.89142482856289
 20
219.3318212536409
 30
0.0
 11
12.41839721781821
 21
219.3318212536409
 31
0.0
 12
11.89142482856289
 22
215.9065007234798
 32
0.0
 13
12.41839721781821
 23
215.9065007234798
 33
0.0
  0
SOLID
  5
40BD
330
1F
100
AcDbEntity
  8
LOGO
 62
     5
100
AcDbTrace
 10
13.033215904364
 20
218.5413626697571
 30
0.0
 11
13.56018829361846
 21
218.5413626697571
 31
0.0
 12
13.033215904364
 22
215.9065007234798
 32
0.0
 13
13.56018829361846
 23
215.9065007234798
 33
0.0
  0
SOLID
  5
40BE
330
1F
100
AcDbEntity
  8
LOGO
 62
     5
100
AcDbTrace
 10
14.61413307212905
 20
217.4874178912461
 30
0.0
 11
15.14110546138516
 21
217.4874178912461
 31
0.0
 12
14.61413307212905
 22
215.9065007234798
 32
0.0
 13
15.14110546138516
 23
215.9065007234798
 33
0.0
  0
SOLID
  5
40BF
330
1F
100
AcDbEntity
  8
LOGO
 62
     5
100
AcDbTrace
 10
16.19505023989575
 20
217.4874178912461
 30
0.0
 11
16.72202262915101
 21
217.4874178912461
 31
0.0
 12
16.19505023989575
 22
215.9065007234791
 32
0.0
 13
16.72202262915101
 23
215.9065007234791
 33
0.0
  0
SOLID
  5
40C0
330
1F
100
AcDbEntity
  8
LOGO
 62
     5
100
AcDbTrace
 10
5.919035952173715
 20
218.9102433422361
 30
0.0
 11
6.446008341430626
 21
218.9102433422361
 31
0.0
 12
5.919035952173715
 22
219.3318212536409
 32
0.0
 13
6.446008341430626
 23
219.3318212536409
 33
0.0
  0
SOLID
  5
40C1
330
1F
100
AcDbEntity
  8
LOGO
 62
     5
100
AcDbTrace
 10
5.919035952173715
 20
218.5413626697571
 30
0.0
 11
6.446008341430626
 21
218.5413626697571
 31
0.0
 12
5.919035952173715
 22
215.9065007234791
 32
0.0
 13
6.446008341430626
 23
215.9065007234798
 33
0.0
  0
SOLID
  5
40C2
330
1F
100
AcDbEntity
  8
LOGO
 62
     5
100
AcDbTrace
 10
11.10101894191734
 20
221.1762246160348
 30
0.0
 11
12.62923887075914
 21
221.1762246160348
 31
0.0
 12
11.10101894191734
 22
228.9051529917822
 32
0.0
 13
12.62923887075914
 23
234.5086260641994
 33
0.0
  0
SOLID
  5
40C3
330
1F
100
AcDbEntity
  8
LOGO
 62
     5
100
AcDbTrace
 10
13.2616057378666
 20
235.6679653205614
 30
0.0
 11
14.7898256667068
 21
235.6679653205622
 31
0.0
 12
13.2616057378666
 22
222.3355638723967
 32
0.0
 13
14.7898256667068
 23
227.939036944814
 33
0.0
  0
SOLID
  5
40C4
330
1F
100
AcDbEntity
  8
LOGO
 62
     2
100
AcDbTrace
 10
12.62923887075914
 20
235.6679653205614
 30
0.0
 11
13.2616057378666
 21
235.6679653205614
 31
0.0
 12
12.62923887075914
 22
221.1762246160348
 32
0.0
 13
13.2616057378666
 23
221.1762246160348
 33
0.0
  0
SOLID
  5
40C5
330
1F
100
AcDbEntity
  8
LOGO
 62
     5
100
AcDbTrace
 10
13.2616057378666
 20
222.3355638723967
 30
0.0
 11
14.7898256667068
 21
227.939036944814
 31
0.0
 12
20.53382470959173
 22
235.6679653205622
 32
0.0
 13
19.00560478075158
 23
235.6679653205622
 33
0.0
  0
SOLID
  5
40C6
330
1F
100
AcDbEntity
  8
LOGO
 62
     5
100
AcDbTrace
 10
13.2616057378666
 20
221.1762246160348
 30
0.0
 11
14.7898256667068
 21
221.1762246160348
 31
0.0
 12
20.53382470959173
 22
234.5086260641994
 32
0.0
 13
19.00560478075158
 23
228.9051529917822
 33
0.0
  0
SOLID
  5
40C7
330
1F
100
AcDbEntity
  8
LOGO
 62
     2
100
AcDbTrace
 10
12.62923887075914
 20
221.1762246160348
 30
0.0
 11
13.2616057378666
 21
221.1762246160348
 31
0.0
 12
20.53382470959173
 22
235.6679653205622
 32
0.0
 13
21.16619157669925
 23
235.6679653205614
 33
0.0
  0
TEXT
  5
40C8
330
1F
100
AcDbEntity
  8
LOGO
100
AcDbText
 10
78.69006910500482
 20
203.043022333527
 30
0.0
 40
3.535
  1
10707265
 41
0.7
  7
CHINESET
 72
     1
 11
87.52756910500483
 21
203.043022333527
 31
0.0
100
AcDbText
  0
LINE
  5
40C9
330
1F
100
AcDbEntity
  8
LOGO
 62
     4
100
AcDbLine
 10
98.49808411415734
 20
208.2316648804896
 30
0.0
 11
98.49808411415892
 21
201.1626885908964
 31
0.0
  0
LINE
  5
40CA
330
1F
100
AcDbEntity
  8
LOGO
 62
     4
100
AcDbLine
 10
98.49808411415734
 20
208.2316648804896
 30
0.0
 11
77.28808411415889
 21
208.2316648804896
 31
0.0
  0
LINE
  5
40CB
330
1F
100
AcDbEntity
  8
LOGO
  6
AM_ISO08W050x2
 48
0.3
100
AcDbLine
 10
57.44037861063754
 20
225.9116659004774
 30
0.0
 11
63.09837479415302
 21
225.9116659004774
 31
0.0
1001
GENIUS_GENOREF_13
1005
40D0
  0
LINE
  5
40CC
330
1F
100
AcDbEntity
  8
LOGO
  6
AM_ISO08W050x2
 48
0.3
100
AcDbLine
 10
60.26937670239528
 20
223.0826678087197
 30
0.0
 11
60.26937670239528
 21
228.7406639922351
 31
0.0
1001
GENIUS_GENOREF_13
1005
40CF
  0
LINE
  5
40CD
330
1F
100
AcDbEntity
  8
LOGO
  6
CENTER
 48
0.5
100
AcDbLine
 10
66.21762723110663
 20
225.9116659004774
 30
0.0
 11
73.81352145366958
 21
225.9116659004774
 31
0.0
1001
GENIUS_GENOREF_13
1005
40CE
  0
POINT
  5
40CE
330
1F
100
AcDbEntity
  8
0
 60
     1
100
AcDbPoint
 10
-2072.811814811345
 20
-938.5982033876929
 30
0.0
1001
GENIUS_GENOBJ-N-CRS_13
1002
{
1000
OWNER
1000
GEN
1002
}
1001
GENIUS_GENOLIS_13
1002
{
1000
ENT
1005
0
1005
0
1005
0
1005
40CD
1002
}
1001
GENIUS_GENOENT_13
1002
{
1000
MYREF
1005
40CE
1002
}
1002
{
1000
GRP
1005
0
1002
}
1001
GENIUS_GENODEF_13
1002
{
1000
HIER
1070
    10
1002
}
1002
{
1000
MANEDIT
1070
     1
1002
}
1002
{
1000
NOSEL
1070
     0
1002
}
1002
{
1000
BEHIND
1070
     0
1002
}
1002
{
1000
OTHER
1070
     0
1002
}
1002
{
1000
REACTOR
1002
}
  0
POINT
  5
40CF
330
1F
100
AcDbEntity
  8
0
 60
     1
100
AcDbPoint
 10
-2084.136400034199
 20
-929.7226169090567
 30
0.0
1001
GENIUS_GENOBJ-N-CRS_13
1002
{
1000
OWNER
1000
GEN
1002
}
1001
GENIUS_GENOLIS_13
1002
{
1000
ENT
1005
0
1005
0
1005
0
1005
40CC
1002
}
1001
GENIUS_GENOENT_13
1002
{
1000
MYREF
1005
40CF
1002
}
1002
{
1000
GRP
1005
0
1002
}
1001
GENIUS_GENODEF_13
1002
{
1000
HIER
1070
    10
1002
}
1002
{
1000
MANEDIT
1070
     1
1002
}
1002
{
1000
NOSEL
1070
     0
1002
}
1002
{
1000
BEHIND
1070
     0
1002
}
1002
{
1000
OTHER
1070
     0
1002
}
1002
{
1000
REACTOR
1002
}
  0
POINT
  5
40D0
330
1F
100
AcDbEntity
  8
0
 60
     1
100
AcDbPoint
 10
-2077.777726336362
 20
-938.5982033876929
 30
0.0
1001
GENIUS_GENOBJ-N-CRS_13
1002
{
1000
OWNER
1000
GEN
1002
}
1001
GENIUS_GENOLIS_13
1002
{
1000
ENT
1005
0
1005
0
1005
0
1005
40CB
1002
}
1001
GENIUS_GENOENT_13
1002
{
1000
MYREF
1005
40D0
1002
}
1002
{
1000
GRP
1005
0
1002
}
1001
GENIUS_GENODEF_13
1002
{
1000
HIER
1070
    10
1002
}
1002
{
1000
MANEDIT
1070
     1
1002
}
1002
{
1000
NOSEL
1070
     0
1002
}
1002
{
1000
BEHIND
1070
     0
1002
}
1002
{
1000
OTHER
1070
     0
1002
}
1002
{
1000
REACTOR
1002
}
  0
TEXT
  5
451F
330
1F
100
AcDbEntity
  8
0
100
AcDbText
 10
5.575756269376597
 20
362.1900994700596
 30
0.0
 40
4.0
  1
12 type
  7
CHINESET
100
AcDbText
  0
SPLINE
  5
4ABD
330
1F
100
AcDbEntity
  8
0
  6
Continuous
 62
     7
370
    15
100
AcDbSpline
210
0.0
220
0.0
230
1.0
 70
    24
 71
     1
 72
     4
 73
     2
 74
     0
 42
0.0000000001
 43
0.0000000001
 40
0.0
 40
0.0
 40
1.0
 40
1.0
 10
77.15572539504103
 20
426.1246163768718
 30
0.0
 10
79.15572549003593
 20
426.1246163768717
 30
0.0
  0
SPLINE
  5
4ABE
330
1F
100
AcDbEntity
  8
0
  6
Continuous
 62
     7
370
    15
100
AcDbSpline
210
0.0
220
0.0
230
1.0
 70
    24
 71
     1
 72
     4
 73
     2
 74
     0
 42
0.0000000001
 43
0.0000000001
 40
0.0
 40
0.0
 40
1.0
 40
1.0
 10
79.15572549003605
 20
438.1246164811799
 30
0.0
 10
77.15572539504103
 20
438.1246164811799
 30
0.0
  0
SPLINE
  5
4ABF
330
1F
100
AcDbEntity
  8
0
  6
Continuous
 62
     7
370
    15
100
AcDbSpline
210
0.0
220
0.0
230
1.0
 70
    24
 71
     1
 72
     4
 73
     2
 74
     0
 42
0.0000000001
 43
0.0000000001
 40
0.0
 40
0.0
 40
1.0
 40
1.0
 10
54.15572511750685
 20
437.1246163172672
 30
0.0
 10
53.15572495359408
 20
436.1246166190157
 30
0.0
  0
SPLINE
  5
4AC0
330
1F
100
AcDbEntity
  8
0
  6
Continuous
 62
     7
370
    15
100
AcDbSpline
210
0.0
220
0.0
230
1.0
 70
    24
 71
     1
 72
     4
 73
     2
 74
     0
 42
0.0000000001
 43
0.0000000001
 40
0.0
 40
0.0
 40
1.0
 40
1.0
 10
53.15572495359408
 20
428.1246162390361
 30
0.0
 10
54.15572511750685
 20
427.1246165407846
 30
0.0
  0
SPLINE
  5
4AC1
330
1F
100
AcDbEntity
  8
0
  6
Continuous
 62
     7
370
    15
100
AcDbSpline
210
0.0
220
0.0
230
1.0
 70
    24
 71
     1
 72
     4
 73
     2
 74
     0
 42
0.0000000001
 43
0.0000000001
 40
0.0
 40
0.0
 40
1.0
 40
1.0
 10
54.15572511750685
 20
427.1246165407846
 30
0.0
 10
60.15572610098349
 20
427.1246165407846
 30
0.0
  0
SPLINE
  5
4AC2
330
1F
100
AcDbEntity
  8
0
  6
Continuous
 62
     7
370
    15
100
AcDbSpline
210
0.0
220
0.0
230
1.0
 70
    24
 71
     1
 72
     4
 73
     2
 74
     0
 42
0.0000000001
 43
0.0000000001
 40
0.0
 40
0.0
 40
1.0
 40
1.0
 10
65.15572505790226
 20
427.1246165407846
 30
0.0
 10
72.1557252739691
 20
427.1246165407846
 30
0.0
  0
SPLINE
  5
4AC3
330
1F
100
AcDbEntity
  8
0
  6
Continuous
 62
     7
370
    15
100
AcDbSpline
210
0.0
220
0.0
230
1.0
 70
    24
 71
     1
 72
     4
 73
     2
 74
     0
 42
0.0000000001
 43
0.0000000001
 40
0.0
 40
0.0
 40
1.0
 40
1.0
 10
72.1557252739691
 20
437.1246163172672
 30
0.0
 10
65.15572505790226
 20
437.1246163172672
 30
0.0
  0
SPLINE
  5
4AC4
330
1F
100
AcDbEntity
  8
0
  6
Continuous
 62
     7
370
    15
100
AcDbSpline
210
0.0
220
0.0
230
1.0
 70
    24
 71
     1
 72
     4
 73
     2
 74
     0
 42
0.0000000001
 43
0.0000000001
 40
0.0
 40
0.0
 40
1.0
 40
1.0
 10
60.15572610098349
 20
437.1246163172672
 30
0.0
 10
54.15572511750685
 20
437.1246163172672
 30
0.0
  0
LINE
  5
4AC5
330
1F
100
AcDbEntity
  8
0
  6
Continuous
 62
     7
370
    15
100
AcDbLine
 10
93.15572592216971
 20
455.624615624363
 30
0.0
 11
79.15572549003605
 21
455.6246156243631
 31
0.0
  0
LINE
  5
4AC6
330
1F
100
AcDbEntity
  8
0
  6
Continuous
 62
     7
370
    15
100
AcDbLine
 10
93.15572592216971
 20
448.6246163396187
 30
0.0
 11
93.15572592216971
 21
455.624615624363
 31
0.0
  0
LINE
  5
4AC7
330
1F
100
AcDbEntity
  8
0
  6
Continuous
 62
     7
370
    15
100
AcDbLine
 10
79.15572549003605
 20
448.6246163396187
 30
0.0
 11
93.15572592216971
 21
448.6246163396187
 31
0.0
  0
LINE
  5
4AC8
330
1F
100
AcDbEntity
  8
0
  6
Continuous
 62
     7
370
    15
100
AcDbLine
 10
79.15572549003605
 20
455.6246156243631
 30
0.0
 11
79.15572549003605
 21
448.6246163396187
 31
0.0
  0
CIRCLE
  5
4AC9
330
1F
100
AcDbEntity
  8
0
  6
Continuous
 62
     7
370
    15
100
AcDbCircle
 10
86.65572549003593
 20
432.1246164290257
 30
0.0
 40
5.349999999964438
  0
LINE
  5
4ACA
330
1F
100
AcDbEntity
  8
0
  6
Continuous
 62
     7
370
    15
100
AcDbLine
 10
93.15572592216971
 20
448.6246163396187
 30
0.0
 11
93.15572592216961
 21
415.6246165184326
 31
0.0
  0
LINE
  5
4ACB
330
1F
100
AcDbEntity
  8
0
  6
Continuous
 62
     7
370
    15
100
AcDbLine
 10
93.15572592216961
 20
415.6246165184326
 30
0.0
 11
79.15572549003593
 21
415.6246165184326
 31
0.0
  0
LINE
  5
4ACC
330
1F
100
AcDbEntity
  8
0
  6
Continuous
 62
     7
370
    15
100
AcDbLine
 10
79.15572549003605
 20
448.6246163396187
 30
0.0
 11
79.15572549003593
 21
415.6246165184326
 31
0.0
  0
LINE
  5
4ACD
330
1F
100
AcDbEntity
  8
0
  6
Continuous
 62
     7
370
    15
100
AcDbLine
 10
79.15572549003593
 20
408.6246172336884
 30
0.0
 11
93.15572592216961
 21
408.6246172336884
 31
0.0
  0
LINE
  5
4ACE
330
1F
100
AcDbEntity
  8
0
  6
Continuous
 62
     7
370
    15
100
AcDbLine
 10
93.15572592216961
 20
408.6246172336884
 30
0.0
 11
93.15572592216961
 21
415.6246165184326
 31
0.0
  0
LINE
  5
4ACF
330
1F
100
AcDbEntity
  8
0
  6
Continuous
 62
     7
370
    15
100
AcDbLine
 10
79.15572549003593
 20
415.6246165184326
 30
0.0
 11
79.15572549003593
 21
408.6246172336884
 31
0.0
  0
CIRCLE
  5
4AD0
330
1F
100
AcDbEntity
  8
0
  6
Continuous
 62
     7
370
    15
100
AcDbCircle
 10
86.65572549003593
 20
432.1246164290257
 30
0.0
 40
4.349999999988085
  0
LINE
  5
4AD1
330
1F
100
AcDbEntity
  8
0
  6
Continuous
 62
     7
370
    15
100
AcDbLine
 10
79.15572549003593
 20
448.6396422980377
 30
0.0
 11
79.15572549003593
 21
447.5681295989105
 31
0.0
  0
LINE
  5
4AD2
330
1F
100
AcDbEntity
  8
0
  6
Continuous
 62
     7
370
    15
100
AcDbLine
 10
79.15572549003593
 20
416.6811032591411
 30
0.0
 11
79.15572549003582
 21
414.3084658680507
 31
0.0
  0
LINE
  5
4AD3
330
1F
100
AcDbEntity
  8
0
  6
Continuous
 62
     7
370
    15
100
AcDbLine
 10
79.15572549003593
 20
448.477284833605
 30
0.0
 11
79.15572549003593
 21
448.8692524282286
 31
0.0
  0
LINE
  5
4AD4
330
1F
100
AcDbEntity
  8
0
  6
Continuous
 62
     7
370
    15
100
AcDbLine
 10
93.15572592216971
 20
455.624615624363
 30
0.0
 11
93.15572592216971
 21
455.1246164737292
 31
0.0
  0
LINE
  5
4AD5
330
1F
100
AcDbEntity
  8
0
  6
Continuous
 62
     7
370
    15
100
AcDbLine
 10
79.15572549003605
 20
455.6246156243632
 30
0.0
 11
79.15572549003605
 21
454.9332743881294
 31
0.0
  0
LINE
  5
4AD6
330
1F
100
AcDbEntity
  8
0
  6
Continuous
 62
     7
370
    15
100
AcDbLine
 10
93.1557259221695
 20
409.1246163843222
 30
0.0
 11
93.1557259221695
 21
408.6246172336884
 31
0.0
  0
LINE
  5
4AD7
330
1F
100
AcDbEntity
  8
0
  6
Continuous
 62
     7
370
    15
100
AcDbLine
 10
79.15572549003582
 20
409.3159584699222
 30
0.0
 11
79.15572549003582
 21
408.6246172336885
 31
0.0
  0
LINE
  5
4AD8
330
1F
100
AcDbEntity
  8
0
  6
Continuous
 62
     7
370
    15
100
AcDbLine
 10
79.15572549003593
 20
449.9407669900009
 30
0.0
 11
79.15572549003593
 21
448.8692524282286
 31
0.0
  0
LINE
  5
4AD9
330
1F
100
AcDbEntity
  8
0
  6
Continuous
 62
     7
370
    15
100
AcDbLine
 10
79.15572549003605
 20
454.9332743881294
 30
0.0
 11
79.15572549003605
 21
453.094525113518
 31
0.0
  0
LINE
  5
4ADA
330
1F
100
AcDbEntity
  8
0
  6
Continuous
 62
     7
370
    15
100
AcDbLine
 10
79.15572549003582
 20
411.1547077445337
 30
0.0
 11
79.15572549003582
 21
409.3159584699222
 31
0.0
  0
LINE
  5
4ADB
330
1F
100
AcDbEntity
  8
0
  6
Continuous
 62
     7
370
    15
100
AcDbLine
 10
79.15572549003605
 20
453.094525113518
 30
0.0
 11
79.15572549003605
 21
452.9710615424463
 31
0.0
  0
LINE
  5
4ADC
330
1F
100
AcDbEntity
  8
0
  6
Continuous
 62
     7
370
    15
100
AcDbLine
 10
79.15572549003582
 20
411.2781713156053
 30
0.0
 11
79.15572549003582
 21
411.1547077445337
 31
0.0
  0
LINE
  5
4ADD
330
1F
100
AcDbEntity
  8
0
  6
Continuous
 62
     7
370
    15
100
AcDbLine
 10
79.15572549003605
 20
452.9737176744291
 30
0.0
 11
79.15572549003593
 21
450.2020793406317
 31
0.0
  0
LINE
  5
4ADE
330
1F
100
AcDbEntity
  8
0
  6
Continuous
 62
     7
370
    15
100
AcDbLine
 10
79.15572549003582
 20
414.0471535174199
 30
0.0
 11
79.15572549003582
 21
411.2755151836225
 31
0.0
  0
LINE
  5
4ADF
330
1F
100
AcDbEntity
  8
0
  6
Continuous
 62
     7
370
    15
100
AcDbLine
 10
79.15572549003593
 20
453.0819578466961
 30
0.0
 11
79.15572549003593
 21
452.9862868038962
 31
0.0
  0
LINE
  5
4AE0
330
1F
100
AcDbEntity
  8
0
  6
Continuous
 62
     7
370
    15
100
AcDbLine
 10
79.15572549003582
 20
411.2629460541556
 30
0.0
 11
79.15572549003582
 21
411.1672750113556
 31
0.0
  0
LINE
  5
4AE1
330
1F
100
AcDbEntity
  8
0
  6
Continuous
 62
     7
370
    15
100
AcDbLine
 10
79.15572549003593
 20
450.448008104975
 30
0.0
 11
79.15572549003593
 21
447.6763688398549
 31
0.0
  0
LINE
  5
4AE2
330
1F
100
AcDbEntity
  8
0
  6
Continuous
 62
     7
370
    15
100
AcDbLine
 10
79.15572549003582
 20
416.5728640181968
 30
0.0
 11
79.15572549003582
 21
413.8012247530768
 31
0.0
  0
LINE
  5
4AE3
330
1F
100
AcDbEntity
  8
0
  6
Continuous
 62
     7
370
    15
100
AcDbLine
 10
79.15572549003593
 20
451.0663038490364
 30
0.0
 11
79.15572549003593
 21
450.8049914984057
 31
0.0
  0
LINE
  5
4AE4
330
1F
100
AcDbEntity
  8
0
  6
Continuous
 62
     7
370
    15
100
AcDbLine
 10
79.15572549003582
 20
413.4442413596461
 30
0.0
 11
79.15572549003582
 21
413.1829290090153
 31
0.0
  0
LINE
  5
4AE5
330
1F
100
AcDbEntity
  8
0
  6
Continuous
 62
     7
370
    15
100
AcDbLine
 10
93.15572592216961
 20
455.1246164737293
 30
0.0
 11
93.15572592216961
 21
455.3159585593292
 31
0.0
  0
LINE
  5
4AE6
330
1F
100
AcDbEntity
  8
0
  6
Continuous
 62
     7
370
    15
100
AcDbLine
 10
79.15572549003593
 20
455.3159585593292
 30
0.0
 11
79.15572549003593
 21
451.0663038490364
 31
0.0
  0
LINE
  5
4AE7
330
1F
100
AcDbEntity
  8
0
  6
Continuous
 62
     7
370
    15
100
AcDbLine
 10
93.1557259221695
 20
408.9332742987224
 30
0.0
 11
93.1557259221695
 21
409.1246163843223
 31
0.0
  0
LINE
  5
4AE8
330
1F
100
AcDbEntity
  8
0
  6
Continuous
 62
     7
370
    15
100
AcDbLine
 10
79.15572549003582
 20
413.1829290090153
 30
0.0
 11
79.15572549003582
 21
408.9332742987225
 31
0.0
  0
LINE
  5
4AE9
330
1F
100
AcDbEntity
  8
0
  6
Continuous
 62
     7
370
    15
100
AcDbLine
 10
79.15572549003593
 20
450.8049914984057
 30
0.0
 11
79.15572549003593
 21
450.7093204556057
 31
0.0
  0
LINE
  5
4AEA
330
1F
100
AcDbEntity
  8
0
  6
Continuous
 62
     7
370
    15
100
AcDbLine
 10
79.15572549003582
 20
413.539912402446
 30
0.0
 11
79.15572549003582
 21
413.4442413596461
 31
0.0
  0
LINE
  5
4AEB
330
1F
100
AcDbEntity
  8
0
  6
Continuous
 62
     7
370
    15
100
AcDbLine
 10
93.15572592216961
 20
455.6246156243632
 30
0.0
 11
93.15572592216961
 21
455.3159585593292
 31
0.0
  0
LINE
  5
4AEC
330
1F
100
AcDbEntity
  8
0
  6
Continuous
 62
     7
370
    15
100
AcDbLine
 10
79.15572549003593
 20
455.6246156243632
 30
0.0
 11
79.15572549003593
 21
455.3159585593292
 31
0.0
  0
LINE
  5
4AED
330
1F
100
AcDbEntity
  8
0
  6
Continuous
 62
     7
370
    15
100
AcDbLine
 10
93.1557259221695
 20
408.9332742987224
 30
0.0
 11
93.1557259221695
 21
408.6246172336885
 31
0.0
  0
LINE
  5
4AEE
330
1F
100
AcDbEntity
  8
0
  6
Continuous
 62
     7
370
    15
100
AcDbLine
 10
79.15572549003582
 20
408.9332742987225
 30
0.0
 11
79.15572549003582
 21
408.6246172336886
 31
0.0
  0
LINE
  5
4AEF
330
1F
100
AcDbEntity
  8
0
  6
Continuous
 62
     7
370
    15
100
AcDbLine
 10
64.39653604078523
 20
440.6246168909619
 30
0.0
 11
60.91491418677799
 21
440.6246159596393
 31
0.0
  0
SPLINE
  5
4AF0
330
1F
100
AcDbEntity
  8
0
  6
Continuous
 62
     7
370
    15
100
AcDbSpline
210
0.0
220
0.0
230
1.0
 70
     8
 71
     3
 72
    11
 73
     7
 74
     0
 42
0.0000000001
 43
0.0000000001
 40
0.0
 40
0.0
 40
0.0
 40
0.0
 40
0.2477111551643397
 40
0.4953654527336873
 40
0.7477053386740748
 40
1.0
 40
1.0
 40
1.0
 40
1.0
 10
64.39653604078523
 20
440.6246159596393
 30
0.0
 10
64.50521550920587
 20
440.2809385803209
 30
0.0
 10
64.72254950064962
 20
439.5936627065822
 30
0.0
 10
64.96156860534973
 20
438.5377462719876
 30
0.0
 10
65.12403928602066
 20
437.4634470278935
 30
0.0
 10
65.14516376499011
 20
436.7375384310027
 30
0.0
 10
65.15572505790226
 20
436.3746166599939
 30
0.0
  0
SPLINE
  5
4AF1
330
1F
100
AcDbEntity
  8
0
  6
Continuous
 62
     7
370
    15
100
AcDbSpline
210
0.0
220
0.0
230
1.0
 70
     8
 71
     3
 72
    11
 73
     7
 74
     0
 42
0.0000000001
 43
0.0000000001
 40
0.0
 40
0.0
 40
0.0
 40
0.0
 40
0.2472747586102364
 40
0.4945905418703501
 40
0.7472643810146309
 40
1.0
 40
1.0
 40
1.0
 40
1.0
 10
65.15572505790226
 20
436.3746166599939
 30
0.0
 10
65.14558778250659
 20
436.0189177444056
 30
0.0
 10
65.1253115498688
 20
435.3074609002369
 30
0.0
 10
64.96699361215473
 20
434.2400590212772
 30
0.0
 10
64.72882128259278
 20
433.176570898144
 30
0.0
 10
64.50730681382447
 20
432.4752964772138
 30
0.0
 10
64.39653604078523
 20
432.1246164058351
 30
0.0
  0
LINE
  5
4AF2
330
1F
100
AcDbEntity
  8
0
  6
Continuous
 62
     7
370
    15
100
AcDbLine
 10
64.39653604078523
 20
432.1246164145965
 30
0.0
 11
60.91491418677799
 21
432.124616417483
 31
0.0
  0
SPLINE
  5
4AF3
330
1F
100
AcDbEntity
  8
0
  6
Continuous
 62
     7
370
    15
100
AcDbSpline
210
0.0
220
0.0
230
1.0
 70
     8
 71
     3
 72
    11
 73
     7
 74
     0
 42
0.0000000001
 43
0.0000000001
 40
0.0
 40
0.0
 40
0.0
 40
0.0
 40
0.2477111426127035
 40
0.4953654871788304
 40
0.7477052249576764
 40
1.0
 40
1.0
 40
1.0
 40
1.0
 10
60.91491418677799
 20
432.1246164455669
 30
0.0
 10
60.80623526849291
 20
432.4682941147862
 30
0.0
 10
60.58890235106935
 20
433.1555706508744
 30
0.0
 10
60.34988060132156
 20
434.2114860196429
 30
0.0
 10
60.18741371517228
 20
435.2857860898284
 30
0.0
 10
60.16628801161584
 20
436.0116946959958
 30
0.0
 10
60.15572610098354
 20
436.3746166599939
 30
0.0
  0
SPLINE
  5
4AF4
330
1F
100
AcDbEntity
  8
0
  6
Continuous
 62
     7
370
    15
100
AcDbSpline
210
0.0
220
0.0
230
1.0
 70
     8
 71
     3
 72
    11
 73
     7
 74
     0
 42
0.0000000001
 43
0.0000000001
 40
0.0
 40
0.0
 40
0.0
 40
0.0
 40
0.2472747683534775
 40
0.4945905779562891
 40
0.7472644397761742
 40
1.0
 40
1.0
 40
1.0
 40
1.0
 10
60.15572610098354
 20
436.3746166599939
 30
0.0
 10
60.165863250357
 20
436.730315423425
 30
0.0
 10
60.18613923160995
 20
437.4417719871303
 30
0.0
 10
60.34445908420536
 20
438.5091733923448
 30
0.0
 10
60.58262966741205
 20
439.5726621635354
 30
0.0
 10
60.80414366646869
 20
440.2739361580099
 30
0.0
 10
60.91491418677799
 20
440.6246159596393
 30
0.0
  0
SPLINE
  5
4AF5
330
1F
100
AcDbEntity
  8
0
  6
Continuous
 62
     7
370
    15
100
AcDbSpline
210
0.0
220
0.0
230
1.0
 70
     8
 71
     3
 72
    11
 73
     7
 74
     0
 42
0.0000000001
 43
0.0000000001
 40
0.0
 40
0.0
 40
0.0
 40
0.0
 40
0.2477111703240604
 40
0.4953654689844966
 40
0.7477052831658974
 40
1.0
 40
1.0
 40
1.0
 40
1.0
 10
64.39653604078523
 20
432.124616353995
 30
0.0
 10
64.50521550911457
 20
431.7809387448779
 30
0.0
 10
64.72254949420506
 20
431.0936624311087
 30
0.0
 10
64.96156857043763
 20
430.0377465471208
 30
0.0
 10
65.12403931963524
 20
428.9634467861759
 30
0.0
 10
65.14516377441839
 20
428.2375381034935
 30
0.0
 10
65.15572505790226
 20
427.8746161980579
 30
0.0
  0
LINE
  5
4AF6
330
1F
100
AcDbEntity
  8
0
  6
Continuous
 62
     7
370
    15
100
AcDbLine
 10
65.15572505790226
 20
436.3746166599939
 30
0.0
 11
65.15572505790226
 21
427.8746161980579
 31
0.0
  0
SPLINE
  5
4AF7
330
1F
100
AcDbEntity
  8
0
  6
Continuous
 62
     7
370
    15
100
AcDbSpline
210
0.0
220
0.0
230
1.0
 70
     8
 71
     3
 72
    11
 73
     7
 74
     0
 42
0.0000000001
 43
0.0000000001
 40
0.0
 40
0.0
 40
0.0
 40
0.0
 40
0.2472747534184861
 40
0.4945905254964476
 40
0.7472644079828951
 40
1.0
 40
1.0
 40
1.0
 40
1.0
 10
65.15572505790226
 20
427.8746161980579
 30
0.0
 10
65.14558778465652
 20
427.518917448749
 30
0.0
 10
65.12531155656461
 20
426.8074609457821
 30
0.0
 10
64.9669935788695
 20
425.7400593077593
 30
0.0
 10
64.72882133318501
 20
424.6765706865105
 30
0.0
 10
64.50730682041797
 20
423.9752967025161
 30
0.0
 10
64.39653604078518
 20
423.6246168984124
 30
0.0
  0
LINE
  5
4AF8
330
1F
100
AcDbEntity
  8
0
  6
Continuous
 62
     7
370
    15
100
AcDbLine
 10
60.91491418677794
 20
423.6246159670899
 30
0.0
 11
64.39653604078518
 21
423.6246168984124
 31
0.0
  0
SPLINE
  5
4AF9
330
1F
100
AcDbEntity
  8
0
  6
Continuous
 62
     7
370
    15
100
AcDbSpline
210
0.0
220
0.0
230
1.0
 70
     8
 71
     3
 72
    11
 73
     7
 74
     0
 42
0.0000000001
 43
0.0000000001
 40
0.0
 40
0.0
 40
0.0
 40
0.0
 40
0.2477111201180407
 40
0.4953654660969366
 40
0.7477053183548846
 40
1.0
 40
1.0
 40
1.0
 40
1.0
 10
60.91491418677794
 20
423.6246168984124
 30
0.0
 10
60.80623526818044
 20
423.9682943189245
 30
0.0
 10
60.58890233964541
 20
424.6555703908175
 30
0.0
 10
60.34988054734532
 20
425.7114863276115
 30
0.0
 10
60.18741376962935
 20
426.7857860014919
 30
0.0
 10
60.16628802686625
 20
427.5116944582631
 30
0.0
 10
60.15572610098349
 20
427.8746161980579
 30
0.0
  0
SPLINE
  5
4AFA
330
1F
100
AcDbEntity
  8
0
  6
Continuous
 62
     7
370
    15
100
AcDbSpline
210
0.0
220
0.0
230
1.0
 70
     8
 71
     3
 72
    11
 73
     7
 74
     0
 42
0.0000000001
 43
0.0000000001
 40
0.0
 40
0.0
 40
0.0
 40
0.0
 40
0.2472747757016344
 40
0.4945905584632897
 40
0.7472644188666121
 40
1.0
 40
1.0
 40
1.0
 40
1.0
 10
60.15572610098349
 20
427.8746161980579
 30
0.0
 10
60.16586324788767
 20
428.2303151366294
 30
0.0
 10
60.18613922279985
 20
428.9417720014622
 30
0.0
 10
60.34445909474914
 20
430.0091735136654
 30
0.0
 10
60.58262968153894
 20
431.0726619163727
 30
0.0
 10
60.80414366791678
 20
431.7739363609235
 30
0.0
 10
60.91491418677799
 20
432.1246164031061
 30
0.0
  0
LINE
  5
4AFB
330
1F
100
AcDbEntity
  8
0
  6
Continuous
 62
     7
370
    15
100
AcDbLine
 10
60.15572610098354
 20
436.3746166599939
 30
0.0
 11
60.15572610098349
 21
427.8746161980579
 31
0.0
  0
SPLINE
  5
4AFC
330
1F
100
AcDbEntity
  8
0
  6
Continuous
 62
     7
370
    15
100
AcDbSpline
210
0.0
220
0.0
230
1.0
 70
     8
 71
     3
 72
    11
 73
     7
 74
     0
 42
0.0000000001
 43
0.0000000001
 40
0.0
 40
0.0
 40
0.0
 40
0.0
 40
0.2477111633840172
 40
0.4953654796818186
 40
0.7477052646399997
 40
0.9999999999999998
 40
0.9999999999999998
 40
0.9999999999999998
 40
0.9999999999999998
 10
60.91491418677799
 20
440.6246159596393
 30
0.0
 10
60.80623527368095
 20
440.6246158545354
 30
0.0
 10
60.58890238814536
 20
440.6246156443517
 30
0.0
 10
60.34988055865494
 20
440.6246172303908
 30
0.0
 10
60.18741374145872
 20
440.6246168054608
 30
0.0
 10
60.16628801916533
 20
440.6246168624632
 30
0.0
 10
60.15572610098354
 20
440.6246168909619
 30
0.0
  0
LINE
  5
4AFD
330
1F
100
AcDbEntity
  8
0
  6
Continuous
 62
     7
370
    15
100
AcDbLine
 10
60.15572610098354
 20
440.6246168909619
 30
0.0
 11
60.15572610098354
 21
436.3746166599939
 31
0.0
  0
SPLINE
  5
4AFE
330
1F
100
AcDbEntity
  8
0
  6
Continuous
 62
     7
370
    15
100
AcDbSpline
210
0.0
220
0.0
230
1.0
 70
    24
 71
     3
 72
    11
 73
     7
 74
     0
 42
0.0000000001
 43
0.0000000001
 40
0.0
 40
0.0
 40
0.0
 40
0.0
 40
0.247274775720205
 40
0.4945905265603437
 40
0.7472643918833061
 40
1.0
 40
1.0
 40
1.0
 40
1.0
 10
65.15572505790226
 20
440.6246168909619
 30
0.0
 10
65.14558778712023
 20
440.6246168909619
 30
0.0
 10
65.12531156574107
 20
440.6246168909619
 30
0.0
 10
64.96699357974728
 20
440.6246168909619
 30
0.0
 10
64.72882131062362
 20
440.6246168909619
 30
0.0
 10
64.50730681775633
 20
440.6246168909619
 30
0.0
 10
64.39653604078523
 20
440.6246168909619
 30
0.0
  0
LINE
  5
4AFF
330
1F
100
AcDbEntity
  8
0
  6
Continuous
 62
     7
370
    15
100
AcDbLine
 10
65.15572505790226
 20
440.6246168909619
 30
0.0
 11
65.15572505790226
 21
436.3746166599939
 31
0.0
  0
SPLINE
  5
4B00
330
1F
100
AcDbEntity
  8
0
  6
Continuous
 62
     7
370
    15
100
AcDbSpline
210
0.0
220
0.0
230
1.0
 70
    24
 71
     3
 72
    11
 73
     7
 74
     0
 42
0.0000000001
 43
0.0000000001
 40
0.0
 40
0.0
 40
0.0
 40
0.0
 40
0.2472747906551953
 40
0.4945905790201779
 40
0.747264423676577
 40
1.0
 40
1.0
 40
1.0
 40
1.0
 10
60.15572610098343
 20
423.6246159670899
 30
0.0
 10
60.16586324789329
 20
423.6246159670899
 30
0.0
 10
60.18613922243344
 20
423.6246159670899
 30
0.0
 10
60.34445908332759
 20
423.6246159670899
 30
0.0
 10
60.58262968997337
 20
423.6246159670899
 30
0.0
 10
60.80414366913027
 20
423.6246159670899
 30
0.0
 10
60.91491418677794
 20
423.6246159670899
 30
0.0
  0
LINE
  5
4B01
330
1F
100
AcDbEntity
  8
0
  6
Continuous
 62
     7
370
    15
100
AcDbLine
 10
60.15572610098349
 20
427.8746161980579
 30
0.0
 11
60.15572610098343
 21
423.6246159670899
 31
0.0
  0
SPLINE
  5
4B02
330
1F
100
AcDbEntity
  8
0
  6
Continuous
 62
     7
370
    15
100
AcDbSpline
210
0.0
220
0.0
230
1.0
 70
    24
 71
     3
 72
    11
 73
     7
 74
     0
 42
0.0000000001
 43
0.0000000001
 40
0.0
 40
0.0
 40
0.0
 40
0.0
 40
0.2477111984303173
 40
0.495365466318522
 40
0.7477052849591701
 40
1.0
 40
1.0
 40
1.0
 40
1.0
 10
64.39653604078518
 20
423.6246159670899
 30
0.0
 10
64.50521550370547
 20
423.6246159670899
 30
0.0
 10
64.72254945214979
 20
423.6246159670899
 30
0.0
 10
64.96156859404027
 20
423.6246159670899
 30
0.0
 10
65.12403931419147
 20
423.6246159670899
 30
0.0
 10
65.14516377269115
 20
423.6246159670899
 30
0.0
 10
65.15572505790214
 20
423.6246159670899
 30
0.0
  0
LINE
  5
4B03
330
1F
100
AcDbEntity
  8
0
  6
Continuous
 62
     7
370
    15
100
AcDbLine
 10
65.15572505790226
 20
427.8746161980579
 30
0.0
 11
65.15572505790214
 21
423.6246159670899
 31
0.0
  0
LINE
  5
4B04
330
1F
100
AcDbEntity
  8
0
  6
Continuous
 62
     7
370
    15
100
AcDbLine
 10
114.1557256390476
 20
448.6246163396186
 30
0.0
 11
128.1557242085362
 21
448.6246163396186
 31
0.0
  0
LINE
  5
4B05
330
1F
100
AcDbEntity
  8
0
  6
Continuous
 62
     7
370
    15
100
AcDbLine
 10
128.1557242085362
 20
455.6246156243629
 30
0.0
 11
114.1557256390476
 21
455.624615624363
 31
0.0
  0
LINE
  5
4B06
330
1F
100
AcDbEntity
  8
0
  6
Continuous
 62
     7
370
    15
100
AcDbLine
 10
128.1557242085362
 20
448.6246163396186
 30
0.0
 11
128.1557242085362
 21
455.6246156243629
 31
0.0
  0
LINE
  5
4B07
330
1F
100
AcDbEntity
  8
0
  6
Continuous
 62
     7
370
    15
100
AcDbLine
 10
114.1557256390476
 20
455.624615624363
 30
0.0
 11
114.1557256390476
 21
448.6246163396186
 31
0.0
  0
CIRCLE
  5
4B08
330
1F
100
AcDbEntity
  8
0
  6
Continuous
 62
     7
370
    15
100
AcDbCircle
 10
120.6557254900359
 20
432.1246164290256
 30
0.0
 40
5.349999999964438
  0
LINE
  5
4B09
330
1F
100
AcDbEntity
  8
0
  6
Continuous
 62
     7
370
    15
100
AcDbLine
 10
128.155724208536
 20
415.6246165184326
 30
0.0
 11
128.1557242085362
 21
448.6246163396186
 31
0.0
  0
LINE
  5
4B0A
330
1F
100
AcDbEntity
  8
0
  6
Continuous
 62
     7
370
    15
100
AcDbLine
 10
128.155724208536
 20
415.6246165184326
 30
0.0
 11
114.1557256390475
 21
415.6246165184326
 31
0.0
  0
LINE
  5
4B0B
330
1F
100
AcDbEntity
  8
0
  6
Continuous
 62
     7
370
    15
100
AcDbLine
 10
114.1557256390475
 20
415.6246165184326
 30
0.0
 11
114.1557256390476
 21
448.6246163396186
 31
0.0
  0
LINE
  5
4B0C
330
1F
100
AcDbEntity
  8
0
  6
Continuous
 62
     7
370
    15
100
AcDbLine
 10
114.1557256390475
 20
408.6246172336883
 30
0.0
 11
128.155724208536
 21
408.6246172336883
 31
0.0
  0
LINE
  5
4B0D
330
1F
100
AcDbEntity
  8
0
  6
Continuous
 62
     7
370
    15
100
AcDbLine
 10
128.155724208536
 20
408.6246172336883
 30
0.0
 11
128.155724208536
 21
415.6246165184326
 31
0.0
  0
LINE
  5
4B0E
330
1F
100
AcDbEntity
  8
0
  6
Continuous
 62
     7
370
    15
100
AcDbLine
 10
114.1557256390475
 20
415.6246165184326
 30
0.0
 11
114.1557256390475
 21
408.6246172336883
 31
0.0
  0
CIRCLE
  5
4B0F
330
1F
100
AcDbEntity
  8
0
  6
Continuous
 62
     7
370
    15
100
AcDbCircle
 10
120.6557254900359
 20
432.1246164290256
 30
0.0
 40
4.349999999988085
  0
LINE
  5
4B10
330
1F
100
AcDbEntity
  8
0
  6
Continuous
 62
     7
370
    15
100
AcDbLine
 10
128.155724208536
 20
447.5681295989103
 30
0.0
 11
128.155724208536
 21
448.6396422980375
 31
0.0
  0
LINE
  5
4B11
330
1F
100
AcDbEntity
  8
0
  6
Continuous
 62
     7
370
    15
100
AcDbLine
 10
128.1557242085359
 20
414.3084658680505
 30
0.0
 11
128.155724208536
 21
416.6811032591409
 31
0.0
  0
LINE
  5
4B12
330
1F
100
AcDbEntity
  8
0
  6
Continuous
 62
     7
370
    15
100
AcDbLine
 10
128.155724208536
 20
448.8692524282283
 30
0.0
 11
128.155724208536
 21
448.4772848336048
 31
0.0
  0
LINE
  5
4B13
330
1F
100
AcDbEntity
  8
0
  6
Continuous
 62
     7
370
    15
100
AcDbLine
 10
128.155724208536
 20
448.8692524282283
 30
0.0
 11
128.155724208536
 21
449.9407669900007
 31
0.0
  0
LINE
  5
4B14
330
1F
100
AcDbEntity
  8
0
  6
Continuous
 62
     7
370
    15
100
AcDbLine
 10
128.1557242085362
 20
454.9332743881292
 30
0.0
 11
128.1557242085362
 21
455.6246156243629
 31
0.0
  0
LINE
  5
4B15
330
1F
100
AcDbEntity
  8
0
  6
Continuous
 62
     7
370
    15
100
AcDbLine
 10
114.1557256390476
 20
455.1246164737292
 30
0.0
 11
114.1557256390476
 21
455.624615624363
 31
0.0
  0
LINE
  5
4B16
330
1F
100
AcDbEntity
  8
0
  6
Continuous
 62
     7
370
    15
100
AcDbLine
 10
128.1557242085359
 20
408.6246172336883
 30
0.0
 11
128.1557242085359
 21
409.315958469922
 31
0.0
  0
LINE
  5
4B17
330
1F
100
AcDbEntity
  8
0
  6
Continuous
 62
     7
370
    15
100
AcDbLine
 10
114.1557256390474
 20
408.6246172336884
 30
0.0
 11
114.1557256390474
 21
409.1246163843222
 31
0.0
  0
LINE
  5
4B18
330
1F
100
AcDbEntity
  8
0
  6
Continuous
 62
     7
370
    15
100
AcDbLine
 10
128.1557242085362
 20
453.1710612026996
 30
0.0
 11
128.1557242085362
 21
454.9332743881292
 31
0.0
  0
LINE
  5
4B19
330
1F
100
AcDbEntity
  8
0
  6
Continuous
 62
     7
370
    15
100
AcDbLine
 10
128.1557242085359
 20
409.315958469922
 30
0.0
 11
128.1557242085359
 21
411.0781716553516
 31
0.0
  0
LINE
  5
4B1A
330
1F
100
AcDbEntity
  8
0
  6
Continuous
 62
     7
370
    15
100
AcDbLine
 10
128.1557242085362
 20
453.0475994942731
 30
0.0
 11
128.1557242085362
 21
453.1710612026996
 31
0.0
  0
LINE
  5
4B1B
330
1F
100
AcDbEntity
  8
0
  6
Continuous
 62
     7
370
    15
100
AcDbLine
 10
128.1557242085359
 20
411.0781716553516
 30
0.0
 11
128.1557242085359
 21
411.2016333637781
 31
0.0
  0
LINE
  5
4B1C
330
1F
100
AcDbEntity
  8
0
  6
Continuous
 62
     7
370
    15
100
AcDbLine
 10
128.155724208536
 20
450.2020793406314
 30
0.0
 11
128.155724208536
 21
452.9737176744289
 31
0.0
  0
LINE
  5
4B1D
330
1F
100
AcDbEntity
  8
0
  6
Continuous
 62
     7
370
    15
100
AcDbLine
 10
128.1557242085359
 20
411.2755151836223
 30
0.0
 11
128.1557242085359
 21
414.0471535174198
 31
0.0
  0
LINE
  5
4B1E
330
1F
100
AcDbEntity
  8
0
  6
Continuous
 62
     7
370
    15
100
AcDbLine
 10
128.155724208536
 20
453.0628228930779
 30
0.0
 11
128.155724208536
 21
453.0819578466959
 31
0.0
  0
LINE
  5
4B1F
330
1F
100
AcDbEntity
  8
0
  6
Continuous
 62
     7
370
    15
100
AcDbLine
 10
128.1557242085359
 20
411.1672750113554
 30
0.0
 11
128.1557242085359
 21
411.1864099649735
 31
0.0
  0
LINE
  5
4B20
330
1F
100
AcDbEntity
  8
0
  6
Continuous
 62
     7
370
    15
100
AcDbLine
 10
128.155724208536
 20
453.0475994942732
 30
0.0
 11
128.155724208536
 21
453.0628228930779
 31
0.0
  0
LINE
  5
4B21
330
1F
100
AcDbEntity
  8
0
  6
Continuous
 62
     7
370
    15
100
AcDbLine
 10
128.1557242085359
 20
411.1864099649735
 30
0.0
 11
128.1557242085359
 21
411.2016333637781
 31
0.0
  0
LINE
  5
4B22
330
1F
100
AcDbEntity
  8
0
  6
Continuous
 62
     7
370
    15
100
AcDbLine
 10
128.155724208536
 20
447.6763688398547
 30
0.0
 11
128.155724208536
 21
450.4480081049748
 31
0.0
  0
LINE
  5
4B23
330
1F
100
AcDbEntity
  8
0
  6
Continuous
 62
     7
370
    15
100
AcDbLine
 10
128.1557242085359
 20
413.8012247530766
 30
0.0
 11
128.1557242085359
 21
416.5728640181966
 31
0.0
  0
LINE
  5
4B24
330
1F
100
AcDbEntity
  8
0
  6
Continuous
 62
     7
370
    15
100
AcDbLine
 10
128.155724208536
 20
450.7284535465784
 30
0.0
 11
128.155724208536
 21
450.9897658972092
 31
0.0
  0
LINE
  5
4B25
330
1F
100
AcDbEntity
  8
0
  6
Continuous
 62
     7
370
    15
100
AcDbLine
 10
128.1557242085359
 20
413.2594669608422
 30
0.0
 11
128.1557242085359
 21
413.5207793114729
 31
0.0
  0
LINE
  5
4B26
330
1F
100
AcDbEntity
  8
0
  6
Continuous
 62
     7
370
    15
100
AcDbLine
 10
128.155724208536
 20
450.9897658972092
 30
0.0
 11
128.155724208536
 21
455.3159585593291
 31
0.0
  0
LINE
  5
4B27
330
1F
100
AcDbEntity
  8
0
  6
Continuous
 62
     7
370
    15
100
AcDbLine
 10
114.1557256390475
 20
455.3159585593291
 30
0.0
 11
114.1557256390475
 21
455.1246164737292
 31
0.0
  0
LINE
  5
4B28
330
1F
100
AcDbEntity
  8
0
  6
Continuous
 62
     7
370
    15
100
AcDbLine
 10
128.1557242085359
 20
408.9332742987223
 30
0.0
 11
128.1557242085359
 21
413.2594669608422
 31
0.0
  0
LINE
  5
4B29
330
1F
100
AcDbEntity
  8
0
  6
Continuous
 62
     7
370
    15
100
AcDbLine
 10
114.1557256390474
 20
409.1246163843222
 30
0.0
 11
114.1557256390474
 21
408.9332742987223
 31
0.0
  0
LINE
  5
4B2A
330
1F
100
AcDbEntity
  8
0
  6
Continuous
 62
     7
370
    15
100
AcDbLine
 10
128.155724208536
 20
450.7093204556055
 30
0.0
 11
128.155724208536
 21
450.7284535465784
 31
0.0
  0
LINE
  5
4B2B
330
1F
100
AcDbEntity
  8
0
  6
Continuous
 62
     7
370
    15
100
AcDbLine
 10
128.1557242085359
 20
413.5207793114729
 30
0.0
 11
128.1557242085359
 21
413.5399124024458
 31
0.0
  0
LINE
  5
4B2C
330
1F
100
AcDbEntity
  8
0
  6
Continuous
 62
     7
370
    15
100
AcDbLine
 10
128.155724208536
 20
455.3159585593291
 30
0.0
 11
128.155724208536
 21
455.624615624363
 31
0.0
  0
LINE
  5
4B2D
330
1F
100
AcDbEntity
  8
0
  6
Continuous
 62
     7
370
    15
100
AcDbLine
 10
114.1557256390475
 20
455.3159585593291
 30
0.0
 11
114.1557256390475
 21
455.624615624363
 31
0.0
  0
LINE
  5
4B2E
330
1F
100
AcDbEntity
  8
0
  6
Continuous
 62
     7
370
    15
100
AcDbLine
 10
128.1557242085359
 20
408.6246172336884
 30
0.0
 11
128.1557242085359
 21
408.9332742987223
 31
0.0
  0
LINE
  5
4B2F
330
1F
100
AcDbEntity
  8
0
  6
Continuous
 62
     7
370
    15
100
AcDbLine
 10
114.1557256390474
 20
408.6246172336884
 30
0.0
 11
114.1557256390474
 21
408.9332742987223
 31
0.0
  0
LINE
  5
4B30
330
1F
100
AcDbEntity
  8
0
  6
Continuous
 62
     7
370
    15
100
AcDbLine
 10
114.1557256390476
 20
455.1246164737292
 30
0.0
 11
93.15572592216971
 21
455.1246164737292
 31
0.0
  0
LINE
  5
4B31
330
1F
100
AcDbEntity
  8
0
  6
Continuous
 62
     7
370
    15
100
AcDbLine
 10
93.15572592216971
 20
448.6246163396187
 30
0.0
 11
114.1557256390476
 21
448.6246163396186
 31
0.0
  0
LINE
  5
4B32
330
1F
100
AcDbEntity
  8
0
  6
Continuous
 62
     7
370
    15
100
AcDbLine
 10
114.1557256390476
 20
438.6324685437626
 30
0.0
 11
93.15572592216971
 21
438.6324685437627
 31
0.0
  0
LINE
  5
4B33
330
1F
100
AcDbEntity
  8
0
  6
Continuous
 62
     7
370
    15
100
AcDbLine
 10
93.15572592216971
 20
436.8198531119175
 30
0.0
 11
114.1557256390475
 21
436.8198531119174
 31
0.0
  0
LINE
  5
4B34
330
1F
100
AcDbEntity
  8
0
  6
Continuous
 62
     7
370
    15
100
AcDbLine
 10
114.1557256390475
 20
427.4293797461337
 30
0.0
 11
93.15572592216961
 21
427.4293797461338
 31
0.0
  0
LINE
  5
4B35
330
1F
100
AcDbEntity
  8
0
  6
Continuous
 62
     7
370
    15
100
AcDbLine
 10
93.15572592216961
 20
425.6167643142886
 30
0.0
 11
114.1557256390475
 21
425.6167643142886
 31
0.0
  0
LINE
  5
4B36
330
1F
100
AcDbEntity
  8
0
  6
Continuous
 62
     7
370
    15
100
AcDbLine
 10
114.1557256390475
 20
415.6246165184326
 30
0.0
 11
93.15572592216961
 21
415.6246165184326
 31
0.0
  0
LINE
  5
4B37
330
1F
100
AcDbEntity
  8
0
  6
Continuous
 62
     7
370
    15
100
AcDbLine
 10
93.15572592216961
 20
409.1246163843222
 30
0.0
 11
114.1557256390475
 21
409.1246163843221
 31
0.0
  0
LINE
  5
4B38
330
1F
100
AcDbEntity
  8
0
  6
Continuous
 62
     7
370
    15
100
AcDbLine
 10
114.1557256390475
 20
435.082007748822
 30
0.0
 11
93.15572592216961
 21
435.0820077488221
 31
0.0
  0
LINE
  5
4B39
330
1F
100
AcDbEntity
  8
0
  6
Continuous
 62
     7
370
    15
100
AcDbLine
 10
93.15572592216961
 20
429.1672251092292
 30
0.0
 11
114.1557256390475
 21
429.1672251092292
 31
0.0
  0
LINE
  5
4B3A
330
1F
100
AcDbEntity
  8
0
  6
Continuous
 62
     7
370
    15
100
AcDbLine
 10
114.1557256390475
 20
434.5611716525651
 30
0.0
 11
93.15572592216961
 21
434.5611716525652
 31
0.0
  0
LINE
  5
4B3B
330
1F
100
AcDbEntity
  8
0
  6
Continuous
 62
     7
370
    15
100
AcDbLine
 10
93.15572592216961
 20
429.6880612054862
 30
0.0
 11
114.1557256390475
 21
429.6880612054861
 31
0.0
  0
LINE
  5
4B3C
330
1F
100
AcDbEntity
  8
0
  6
Continuous
 62
     7
370
    15
100
AcDbLine
 10
72.1557252739691
 20
437.1246163172672
 30
0.0
 11
72.1557252739691
 21
427.1246165407846
 31
0.0
  0
SPLINE
  5
4B3D
330
1F
100
AcDbEntity
  8
0
  6
Continuous
 62
     7
370
    15
100
AcDbSpline
210
0.0
220
0.0
230
1.0
 70
    24
 71
     3
 72
     9
 73
     5
 74
     0
 42
0.0000000001
 43
0.0000000001
 40
0.0
 40
0.0
 40
0.0
 40
0.0
 40
0.4960844201691058
 40
1.0
 40
1.0
 40
1.0
 40
1.0
 10
73.45476380336515
 20
437.1246163172672
 30
0.0
 10
73.21106023031166
 20
437.1246163172672
 30
0.0
 10
72.71980599384448
 20
437.1246163172672
 30
0.0
 10
72.34473127060846
 20
437.1246163172672
 30
0.0
 10
72.1557252739691
 20
437.1246163172672
 30
0.0
  0
LINE
  5
4B3E
330
1F
100
AcDbEntity
  8
0
  6
Continuous
 62
     7
370
    15
100
AcDbLine
 10
73.45476380336515
 20
437.1246163172672
 30
0.0
 11
73.45476380336515
 21
427.1246165407846
 31
0.0
  0
SPLINE
  5
4B3F
330
1F
100
AcDbEntity
  8
0
  6
Continuous
 62
     7
370
    15
100
AcDbSpline
210
0.0
220
0.0
230
1.0
 70
    24
 71
     3
 72
     9
 73
     5
 74
     0
 42
0.0000000001
 43
0.0000000001
 40
0.0
 40
0.0
 40
0.0
 40
0.0
 40
0.4944687188728356
 40
1.0
 40
1.0
 40
1.0
 40
1.0
 10
72.1557252739691
 20
427.1246165407846
 30
0.0
 10
72.34088643126881
 20
427.1246165407846
 30
0.0
 10
72.71535128664311
 20
427.1246165407846
 30
0.0
 10
73.20648191009218
 20
427.1246165407846
 30
0.0
 10
73.45476380336515
 20
427.1246165407846
 30
0.0
  0
LINE
  5
4B40
330
1F
100
AcDbEntity
  8
0
  6
Continuous
 62
     7
370
    15
100
AcDbLine
 10
76.1557254639589
 20
437.1246163172672
 30
0.0
 11
73.45476380336515
 21
437.1246163172672
 31
0.0
  0
LWPOLYLINE
  5
4B41
330
1F
100
AcDbEntity
  8
0
  6
Continuous
 62
     7
370
    15
100
AcDbPolyline
 90
        8
 70
   128
 43
0.0
 10
77.15572539504103
 20
438.1246164811799
 10
77.14963733937077
 20
438.1185284255097
 10
77.1010055371695
 20
438.0698966233084
 10
77.00413704636924
 20
437.9730278996775
 10
76.85981720473103
 20
437.8287082908699
 10
76.66921715039245
 20
437.6381080037007
 10
76.43388357731931
 20
437.4027744306276
 10
76.1557254639589
 20
437.1246163172672
  0
LWPOLYLINE
  5
4B42
330
1F
100
AcDbEntity
  8
0
  6
Continuous
 62
     7
370
    15
100
AcDbPolyline
 90
        8
 70
   128
 43
0.0
 10
76.1557254639589
 20
427.1246165407845
 10
76.43388357731931
 20
426.8464584274241
 10
76.66921715039245
 20
426.6111248543509
 10
76.85981720473103
 20
426.4205245671817
 10
77.00413704636924
 20
426.2762049583741
 10
77.1010055371695
 20
426.1793362347432
 10
77.14963733937077
 20
426.1307044325421
 10
77.15572539504103
 20
426.1246163768718
  0
LINE
  5
4B43
330
1F
100
AcDbEntity
  8
0
  6
Continuous
 62
     7
370
    15
100
AcDbLine
 10
73.45476380336515
 20
427.1246165407846
 30
0.0
 11
76.1557254639589
 21
427.1246165407845
 31
0.0
  0
LINE
  5
4B44
330
1F
100
AcDbEntity
  8
0
  6
Continuous
 62
     7
370
    15
100
AcDbLine
 10
53.15572495359408
 20
436.1246166190157
 30
0.0
 11
53.15572495359408
 21
428.1246162390361
 31
0.0
  0
LINE
  5
4B45
330
1F
100
AcDbEntity
  8
0
  6
Continuous
 62
     7
370
    15
100
AcDbLine
 10
54.15572511750685
 20
437.1246163172672
 30
0.0
 11
54.15572511750685
 21
427.1246165407846
 31
0.0
  0
CIRCLE
  5
4B46
330
1F
100
AcDbEntity
  8
0
  6
Continuous
 62
     7
370
    15
100
AcDbCircle
 10
170.4031654467367
 20
423.8746164290173
 30
0.0
 40
4.050000000023814
  0
CIRCLE
  5
4B47
330
1F
100
AcDbEntity
  8
0
  6
Continuous
 62
     7
370
    15
100
AcDbCircle
 10
170.4031654467367
 20
440.3746164290173
 30
0.0
 40
4.050000000023814
  0
CIRCLE
  5
4B48
330
1F
100
AcDbEntity
  8
0
  6
Continuous
 62
     7
370
    15
100
AcDbCircle
 10
207.4031654467367
 20
423.8746164290172
 30
0.0
 40
4.049999999989267
  0
CIRCLE
  5
4B49
330
1F
100
AcDbEntity
  8
0
  6
Continuous
 62
     7
370
    15
100
AcDbCircle
 10
207.4031654467367
 20
440.3746164290172
 30
0.0
 40
4.049999999989267
  0
CIRCLE
  5
4B4A
330
1F
100
AcDbEntity
  8
0
  6
Continuous
 62
     7
370
    15
100
AcDbCircle
 10
172.6531654467367
 20
448.3746164290173
 30
0.0
 40
3.258499999972173
  0
CIRCLE
  5
4B4B
330
1F
100
AcDbEntity
  8
0
  6
Continuous
 62
     7
370
    15
100
AcDbCircle
 10
172.6531654467366
 20
415.8746164290173
 30
0.0
 40
3.258499999972173
  0
CIRCLE
  5
4B4C
330
1F
100
AcDbEntity
  8
0
  6
Continuous
 62
     7
370
    15
100
AcDbCircle
 10
205.1531654467367
 20
415.8746164290172
 30
0.0
 40
3.258499999944916
  0
CIRCLE
  5
4B4D
330
1F
100
AcDbEntity
  8
0
  6
Continuous
 62
     7
370
    15
100
AcDbCircle
 10
205.1531654467367
 20
448.3746164290172
 30
0.0
 40
3.258499999944888
  0
LINE
  5
4B4E
330
1F
100
AcDbEntity
  8
0
  6
Continuous
 62
     7
370
    15
100
AcDbLine
 10
195.0205419456145
 20
408.6246172336799
 30
0.0
 11
182.7857889478585
 21
408.6246172336799
 31
0.0
  0
ARC
  5
4B4F
330
1F
100
AcDbEntity
  8
0
  6
Continuous
 62
     7
370
    15
100
AcDbCircle
 10
182.7857889430764
 20
409.1246164290173
 30
0.0
 40
0.5000000000000142
100
AcDbArc
 50
157.500000000003
 51
270.0
  0
LINE
  5
4B50
330
1F
100
AcDbEntity
  8
0
  6
Continuous
 62
     7
370
    15
100
AcDbLine
 10
182.323849225559
 20
409.3159584699137
 30
0.0
 11
183.0854838957569
 21
411.1547077445251
 31
0.0
  0
ARC
  5
4B51
330
1F
100
AcDbEntity
  8
0
  6
Continuous
 62
     7
370
    15
100
AcDbCircle
 10
183.2702599753078
 20
411.078170744533
 30
0.0
 40
0.199999999999978
100
AcDbArc
 50
67.49999999999724
 51
157.5000000000015
  0
LINE
  5
4B52
330
1F
100
AcDbEntity
  8
0
  6
Continuous
 62
     7
370
    15
100
AcDbLine
 10
183.346796712049
 20
411.2629460541469
 30
0.0
 11
183.5777665731988
 21
411.167275011347
 31
0.0
  0
ARC
  5
4B53
330
1F
100
AcDbEntity
  8
0
  6
Continuous
 62
     7
370
    15
100
AcDbCircle
 10
183.6543032313817
 20
411.3520516994462
 30
0.0
 40
0.20000000000006
100
AcDbArc
 50
247.4999999999978
 51
337.4999999999869
  0
LINE
  5
4B54
330
1F
100
AcDbEntity
  8
0
  6
Continuous
 62
     7
370
    15
100
AcDbLine
 10
183.8390789238295
 20
411.275515183614
 30
0.0
 11
184.9871295747838
 21
414.0471535174114
 31
0.0
  0
ARC
  5
4B55
330
1F
100
AcDbEntity
  8
0
  6
Continuous
 62
     7
370
    15
100
AcDbCircle
 10
184.8023535284769
 20
414.1236902969801
 30
0.0
 40
0.1999999999999726
100
AcDbArc
 50
337.500000000006
 51
67.50000000000451
  0
LINE
  5
4B56
330
1F
100
AcDbEntity
  8
0
  6
Continuous
 62
     7
370
    15
100
AcDbLine
 10
184.8788903338394
 20
414.3084658680422
 30
0.0
 11
179.1508369391343
 21
416.6811032591327
 31
0.0
  0
ARC
  5
4B57
330
1F
100
AcDbEntity
  8
0
  6
Continuous
 62
     7
370
    15
100
AcDbCircle
 10
179.074300426907
 20
416.4963275776436
 30
0.0
 40
0.2000000000000468
100
AcDbArc
 50
67.49999999999724
 51
157.4999999999899
  0
LINE
  5
4B58
330
1F
100
AcDbEntity
  8
0
  6
Continuous
 62
     7
370
    15
100
AcDbLine
 10
178.8895245885036
 20
416.5728640181883
 30
0.0
 11
177.7414739375493
 21
413.8012247530682
 31
0.0
  0
ARC
  5
4B59
330
1F
100
AcDbEntity
  8
0
  6
Continuous
 62
     7
370
    15
100
AcDbCircle
 10
177.9262501298117
 20
413.7246889801097
 30
0.0
 40
0.2000000000000097
100
AcDbArc
 50
157.5
 51
247.5000000000052
  0
LINE
  5
4B5A
330
1F
100
AcDbEntity
  8
0
  6
Continuous
 62
     7
370
    15
100
AcDbLine
 10
177.8497131784937
 20
413.5399124024375
 30
0.0
 11
178.0806830396435
 21
413.4442413596375
 31
0.0
  0
ARC
  5
4B5B
330
1F
100
AcDbEntity
  8
0
  6
Continuous
 62
     7
370
    15
100
AcDbCircle
 10
178.0041466399936
 20
413.259466309014
 30
0.0
 40
0.2000000000000097
100
AcDbArc
 50
337.5000000000045
 51
67.5000000000015
  0
LINE
  5
4B5C
330
1F
100
AcDbEntity
  8
0
  6
Continuous
 62
     7
370
    15
100
AcDbLine
 10
178.1889222805879
 20
413.1829290090068
 30
0.0
 11
176.4286574219844
 21
408.933274298714
 31
0.0
  0
ARC
  5
4B5D
330
1F
100
AcDbEntity
  8
0
  6
Continuous
 62
     7
370
    15
100
AcDbCircle
 10
175.9667180812344
 20
409.1246164290173
 30
0.0
 40
0.5
100
AcDbArc
 50
270.0
 51
337.500000000003
  0
LINE
  5
4B5E
330
1F
100
AcDbEntity
  8
0
  6
Continuous
 62
     7
370
    15
100
AcDbLine
 10
175.9667176996848
 20
408.62461723368
 30
0.0
 11
172.4031655361435
 21
408.62461723368
 31
0.0
  0
ARC
  5
4B5F
330
1F
100
AcDbEntity
  8
0
  6
Continuous
 62
     7
370
    15
100
AcDbCircle
 10
172.4031654467365
 20
415.6246164290173
 30
0.0
 40
7.0
100
AcDbArc
 50
179.9999999999984
 51
270.0
  0
LINE
  5
4B60
330
1F
100
AcDbEntity
  8
0
  6
Continuous
 62
     7
370
    15
100
AcDbLine
 10
165.4031662513992
 20
415.6246165184243
 30
0.0
 11
165.4031662513994
 21
448.6246163396104
 31
0.0
  0
ARC
  5
4B61
330
1F
100
AcDbEntity
  8
0
  6
Continuous
 62
     7
370
    15
100
AcDbCircle
 10
172.4031654467367
 20
448.6246164290173
 30
0.0
 40
7.000000000000014
100
AcDbArc
 50
90.0
 51
179.9999999999984
  0
LINE
  5
4B62
330
1F
100
AcDbEntity
  8
0
  6
Continuous
 62
     7
370
    15
100
AcDbLine
 10
172.4031655361436
 20
455.6246156243546
 30
0.0
 11
175.9667176996849
 21
455.6246156243546
 31
0.0
  0
ARC
  5
4B63
330
1F
100
AcDbEntity
  8
0
  6
Continuous
 62
     7
370
    15
100
AcDbCircle
 10
175.9667180812345
 20
455.1246164290173
 30
0.0
 40
0.5000000000000167
100
AcDbArc
 50
22.50000000000126
 51
90.0
  0
LINE
  5
4B64
330
1F
100
AcDbEntity
  8
0
  6
Continuous
 62
     7
370
    15
100
AcDbLine
 10
176.4286574219845
 20
455.3159585593207
 30
0.0
 11
178.188922280588
 21
451.0663038490279
 31
0.0
  0
ARC
  5
4B65
330
1F
100
AcDbEntity
  8
0
  6
Continuous
 62
     7
370
    15
100
AcDbCircle
 10
178.0041466399937
 20
450.9897665490206
 30
0.0
 40
0.200000000000036
100
AcDbArc
 50
292.5000000000058
 51
22.499999999997
  0
LINE
  5
4B66
330
1F
100
AcDbEntity
  8
0
  6
Continuous
 62
     7
370
    15
100
AcDbLine
 10
178.0806830396436
 20
450.8049914983971
 30
0.0
 11
177.8497131784938
 21
450.7093204555972
 31
0.0
  0
ARC
  5
4B67
330
1F
100
AcDbEntity
  8
0
  6
Continuous
 62
     7
370
    15
100
AcDbCircle
 10
177.9262501298118
 20
450.5245438779248
 30
0.0
 40
0.1999999999999572
100
AcDbArc
 50
112.5000000000057
 51
202.5000000000058
  0
LINE
  5
4B68
330
1F
100
AcDbEntity
  8
0
  6
Continuous
 62
     7
370
    15
100
AcDbLine
 10
177.7414739375494
 20
450.4480081049664
 30
0.0
 11
178.8895245885037
 21
447.6763688398464
 31
0.0
  0
ARC
  5
4B69
330
1F
100
AcDbEntity
  8
0
  6
Continuous
 62
     7
370
    15
100
AcDbCircle
 10
179.0743004269071
 20
447.752905280391
 30
0.0
 40
0.2000000000000468
100
AcDbArc
 50
202.5000000000073
 51
292.5000000000058
  0
LINE
  5
4B6A
330
1F
100
AcDbEntity
  8
0
  6
Continuous
 62
     7
370
    15
100
AcDbLine
 10
179.1508369391344
 20
447.568129598902
 30
0.0
 11
184.8788903338395
 21
449.9407669899924
 31
0.0
  0
ARC
  5
4B6B
330
1F
100
AcDbEntity
  8
0
  6
Continuous
 62
     7
370
    15
100
AcDbCircle
 10
184.802353528477
 20
450.1255425610544
 30
0.0
 40
0.2000000000000097
100
AcDbArc
 50
292.5000000000058
 51
22.50000000000001
  0
LINE
  5
4B6C
330
1F
100
AcDbEntity
  8
0
  6
Continuous
 62
     7
370
    15
100
AcDbLine
 10
184.9871295747839
 20
450.2020793406232
 30
0.0
 11
183.8390789238296
 21
452.9737176744206
 31
0.0
  0
ARC
  5
4B6D
330
1F
100
AcDbEntity
  8
0
  6
Continuous
 62
     7
370
    15
100
AcDbCircle
 10
183.6543032313818
 20
452.8971811585883
 30
0.0
 40
0.2000000000000623
100
AcDbArc
 50
22.50000000000577
 51
112.4999999999918
  0
LINE
  5
4B6E
330
1F
100
AcDbEntity
  8
0
  6
Continuous
 62
     7
370
    15
100
AcDbLine
 10
183.5777665731989
 20
453.0819578466876
 30
0.0
 11
183.3467967120491
 21
452.9862868038876
 31
0.0
  0
ARC
  5
4B6F
330
1F
100
AcDbEntity
  8
0
  6
Continuous
 62
     7
370
    15
100
AcDbCircle
 10
183.270259975308
 20
453.1710621135016
 30
0.0
 40
0.1999999999999835
100
AcDbArc
 50
202.5000000000027
 51
292.5000000000058
  0
LINE
  5
4B70
330
1F
100
AcDbEntity
  8
0
  6
Continuous
 62
     7
370
    15
100
AcDbLine
 10
183.085483895757
 20
453.0945251135094
 30
0.0
 11
182.3238492255591
 21
454.9332743881209
 31
0.0
  0
ARC
  5
4B71
330
1F
100
AcDbEntity
  8
0
  6
Continuous
 62
     7
370
    15
100
AcDbCircle
 10
182.7857889430766
 20
455.1246164290173
 30
0.0
 40
0.5
100
AcDbArc
 50
90.0
 51
202.5
  0
LINE
  5
4B72
330
1F
100
AcDbEntity
  8
0
  6
Continuous
 62
     7
370
    15
100
AcDbLine
 10
182.7857889478586
 20
455.6246156243546
 30
0.0
 11
195.0205419456148
 21
455.6246156243545
 31
0.0
  0
ARC
  5
4B73
330
1F
100
AcDbEntity
  8
0
  6
Continuous
 62
     7
370
    15
100
AcDbCircle
 10
195.0205419503969
 20
455.1246164290172
 30
0.0
 40
0.5
100
AcDbArc
 50
337.500000000003
 51
90.0
  0
LINE
  5
4B74
330
1F
100
AcDbEntity
  8
0
  6
Continuous
 62
     7
370
    15
100
AcDbLine
 10
195.4824816679142
 20
454.9332743881208
 30
0.0
 11
194.7208469977163
 21
453.0945251135094
 31
0.0
  0
ARC
  5
4B75
330
1F
100
AcDbEntity
  8
0
  6
Continuous
 62
     7
370
    15
100
AcDbCircle
 10
194.5360709181655
 20
453.1710621135015
 30
0.0
 40
0.2000000000000097
100
AcDbArc
 50
247.4999999999978
 51
337.5000000000015
  0
LINE
  5
4B76
330
1F
100
AcDbEntity
  8
0
  6
Continuous
 62
     7
370
    15
100
AcDbLine
 10
194.4595341814242
 20
452.9862868038875
 30
0.0
 11
194.2285643202744
 21
453.0819578466875
 31
0.0
  0
ARC
  5
4B77
330
1F
100
AcDbEntity
  8
0
  6
Continuous
 62
     7
370
    15
100
AcDbCircle
 10
194.1520276620916
 20
452.8971811585883
 30
0.0
 40
0.2000000000000885
100
AcDbArc
 50
67.50000000000877
 51
157.4999999999942
  0
LINE
  5
4B78
330
1F
100
AcDbEntity
  8
0
  6
Continuous
 62
     7
370
    15
100
AcDbLine
 10
193.9672519696437
 20
452.9737176744205
 30
0.0
 11
192.8192013186894
 21
450.2020793406231
 31
0.0
  0
ARC
  5
4B79
330
1F
100
AcDbEntity
  8
0
  6
Continuous
 62
     7
370
    15
100
AcDbCircle
 10
193.0039773649963
 20
450.1255425610544
 30
0.0
 40
0.1999999999999726
100
AcDbArc
 50
157.5000000000045
 51
247.4999999999943
  0
LINE
  5
4B7A
330
1F
100
AcDbEntity
  8
0
  6
Continuous
 62
     7
370
    15
100
AcDbLine
 10
192.9274405596338
 20
449.9407669899923
 30
0.0
 11
198.6554937800933
 21
447.5681293738886
 31
0.0
  0
ARC
  5
4B7B
330
1F
100
AcDbEntity
  8
0
  6
Continuous
 62
     7
370
    15
100
AcDbCircle
 10
198.7320304665663
 20
447.7529052803909
 30
0.0
 40
0.2000000000000731
100
AcDbArc
 50
247.5000000000015
 51
337.5
  0
LINE
  5
4B7C
330
1F
100
AcDbEntity
  8
0
  6
Continuous
 62
     7
370
    15
100
AcDbLine
 10
198.9168063049696
 20
447.6763688398462
 30
0.0
 11
200.0648569559239
 21
450.4480081049663
 31
0.0
  0
ARC
  5
4B7D
330
1F
100
AcDbEntity
  8
0
  6
Continuous
 62
     7
370
    15
100
AcDbCircle
 10
199.8800807636617
 20
450.5245438779247
 30
0.0
 40
0.1999999999999835
100
AcDbArc
 50
337.4999999999988
 51
67.49999999999786
  0
LINE
  5
4B7E
330
1F
100
AcDbEntity
  8
0
  6
Continuous
 62
     7
370
    15
100
AcDbLine
 10
199.9566177149795
 20
450.709320455597
 30
0.0
 11
199.7256478538297
 21
450.804991498397
 31
0.0
  0
ARC
  5
4B7F
330
1F
100
AcDbEntity
  8
0
  6
Continuous
 62
     7
370
    15
100
AcDbCircle
 10
199.8021842534798
 20
450.9897665490206
 30
0.0
 40
0.2000000000000097
100
AcDbArc
 50
157.5000000000087
 51
247.5000000000015
  0
LINE
  5
4B80
330
1F
100
AcDbEntity
  8
0
  6
Continuous
 62
     7
370
    15
100
AcDbLine
 10
199.6174086128853
 20
451.0663038490277
 30
0.0
 11
201.3776734714889
 21
455.3159585593205
 31
0.0
  0
ARC
  5
4B81
330
1F
100
AcDbEntity
  8
0
  6
Continuous
 62
     7
370
    15
100
AcDbCircle
 10
201.839612812239
 20
455.1246164290172
 30
0.0
 40
0.5000000000000285
100
AcDbArc
 50
90.0
 51
157.4999999999987
  0
LINE
  5
4B82
330
1F
100
AcDbEntity
  8
0
  6
Continuous
 62
     7
370
    15
100
AcDbLine
 10
201.8396131937885
 20
455.6246156243545
 30
0.0
 11
205.4031653573298
 21
455.6246156243545
 31
0.0
  0
ARC
  5
4B83
330
1F
100
AcDbEntity
  8
0
  6
Continuous
 62
     7
370
    15
100
AcDbCircle
 10
205.4031654467367
 20
448.6246164290172
 30
0.0
 40
7.000000000000028
100
AcDbArc
 50
0.0
 51
90.0
  0
LINE
  5
4B84
330
1F
100
AcDbEntity
  8
0
  6
Continuous
 62
     7
370
    15
100
AcDbLine
 10
212.403164642074
 20
448.6246163396102
 30
0.0
 11
212.4031646420739
 21
415.6246165184241
 31
0.0
  0
ARC
  5
4B85
330
1F
100
AcDbEntity
  8
0
  6
Continuous
 62
     7
370
    15
100
AcDbCircle
 10
205.4031654467367
 20
415.6246164290172
 30
0.0
 40
7.0
100
AcDbArc
 50
270.0
 51
0.0
  0
LINE
  5
4B86
330
1F
100
AcDbEntity
  8
0
  6
Continuous
 62
     7
370
    15
100
AcDbLine
 10
205.4031653573296
 20
408.6246172336799
 30
0.0
 11
201.8396131937883
 21
408.6246172336799
 31
0.0
  0
ARC
  5
4B87
330
1F
100
AcDbEntity
  8
0
  6
Continuous
 62
     7
370
    15
100
AcDbCircle
 10
201.8396128122388
 20
409.1246164290172
 30
0.0
 40
0.5
100
AcDbArc
 50
202.5
 51
270.0
  0
LINE
  5
4B88
330
1F
100
AcDbEntity
  8
0
  6
Continuous
 62
     7
370
    15
100
AcDbLine
 10
201.3776734714887
 20
408.9332742987138
 30
0.0
 11
199.6174086128852
 21
413.1829290090066
 31
0.0
  0
ARC
  5
4B89
330
1F
100
AcDbEntity
  8
0
  6
Continuous
 62
     7
370
    15
100
AcDbCircle
 10
199.8021842534797
 20
413.259466309014
 30
0.0
 40
0.200000000000036
100
AcDbArc
 50
112.4999999999955
 51
202.499999999997
  0
LINE
  5
4B8A
330
1F
100
AcDbEntity
  8
0
  6
Continuous
 62
     7
370
    15
100
AcDbLine
 10
199.7256478538296
 20
413.4442413596373
 30
0.0
 11
199.9566177149794
 21
413.5399124024373
 31
0.0
  0
ARC
  5
4B8B
330
1F
100
AcDbEntity
  8
0
  6
Continuous
 62
     7
370
    15
100
AcDbCircle
 10
199.8800807636616
 20
413.7246889801097
 30
0.0
 40
0.1999999999999835
100
AcDbArc
 50
292.5000000000028
 51
22.499999999997
  0
LINE
  5
4B8C
330
1F
100
AcDbEntity
  8
0
  6
Continuous
 62
     7
370
    15
100
AcDbLine
 10
200.0648569559238
 20
413.8012247530681
 30
0.0
 11
198.9168063049695
 21
416.5728640181881
 31
0.0
  0
ARC
  5
4B8D
330
1F
100
AcDbEntity
  8
0
  6
Continuous
 62
     7
370
    15
100
AcDbCircle
 10
198.7320304665662
 20
416.4963275776435
 30
0.0
 40
0.2000000000000862
100
AcDbArc
 50
22.50000000001003
 51
112.4999999999985
  0
LINE
  5
4B8E
330
1F
100
AcDbEntity
  8
0
  6
Continuous
 62
     7
370
    15
100
AcDbLine
 10
198.6554939543388
 20
416.6811032591325
 30
0.0
 11
192.9274405596337
 21
414.3084658680422
 31
0.0
  0
ARC
  5
4B8F
330
1F
100
AcDbEntity
  8
0
  6
Continuous
 62
     7
370
    15
100
AcDbCircle
 10
193.0039773649962
 20
414.12369029698
 30
0.0
 40
0.1999999999999966
100
AcDbArc
 50
112.5000000000021
 51
202.5
  0
LINE
  5
4B90
330
1F
100
AcDbEntity
  8
0
  6
Continuous
 62
     7
370
    15
100
AcDbLine
 10
192.8192013186893
 20
414.0471535174114
 30
0.0
 11
193.9672519696436
 21
411.2755151836139
 31
0.0
  0
ARC
  5
4B91
330
1F
100
AcDbEntity
  8
0
  6
Continuous
 62
     7
370
    15
100
AcDbCircle
 10
194.1520276620915
 20
411.3520516994462
 30
0.0
 40
0.2000000000000491
100
AcDbArc
 50
202.5000000000115
 51
292.4999999999955
  0
LINE
  5
4B92
330
1F
100
AcDbEntity
  8
0
  6
Continuous
 62
     7
370
    15
100
AcDbLine
 10
194.2285643202743
 20
411.1672750113469
 30
0.0
 11
194.4595341814241
 21
411.2629460541469
 31
0.0
  0
ARC
  5
4B93
330
1F
100
AcDbEntity
  8
0
  6
Continuous
 62
     7
370
    15
100
AcDbCircle
 10
194.5360709181653
 20
411.0781707445329
 30
0.0
 40
0.2000000000000097
100
AcDbArc
 50
22.50000000000001
 51
112.5000000000027
  0
LINE
  5
4B94
330
1F
100
AcDbEntity
  8
0
  6
Continuous
 62
     7
370
    15
100
AcDbLine
 10
194.7208469977162
 20
411.154707744525
 30
0.0
 11
195.4824816679141
 21
409.3159584699136
 31
0.0
  0
ARC
  5
4B95
330
1F
100
AcDbEntity
  8
0
  6
Continuous
 62
     7
370
    15
100
AcDbCircle
 10
195.0205419503967
 20
409.1246164290172
 30
0.0
 40
0.5
100
AcDbArc
 50
270.0
 51
22.499999999997
  0
CIRCLE
  5
4B96
330
1F
100
AcDbEntity
  8
0
  6
Continuous
 62
     7
370
    15
100
AcDbCircle
 10
172.6531654467366
 20
415.8746164290173
 30
0.0
 40
2.458500000002459
  0
CIRCLE
  5
4B97
330
1F
100
AcDbEntity
  8
0
  6
Continuous
 62
     7
370
    15
100
AcDbCircle
 10
172.6531654467367
 20
448.3746164290173
 30
0.0
 40
2.45850000000243
  0
CIRCLE
  5
4B98
330
1F
100
AcDbEntity
  8
0
  6
Continuous
 62
     7
370
    15
100
AcDbCircle
 10
205.1531654467366
 20
415.8746164290172
 30
0.0
 40
2.458499999975174
  0
CIRCLE
  5
4B99
330
1F
100
AcDbEntity
  8
0
  6
Continuous
 62
     7
370
    15
100
AcDbCircle
 10
205.1531654467367
 20
448.3746164290172
 30
0.0
 40
2.458499999975174
  0
ARC
  5
4B9A
330
1F
100
AcDbEntity
  8
0
  6
Continuous
 62
     7
370
    15
100
AcDbCircle
 10
188.9031654467368
 20
432.1246164290173
 30
0.0
 40
8.500000000000014
100
AcDbArc
 50
270.0
 51
329.9999999999995
  0
ARC
  5
4B9B
330
1F
100
AcDbEntity
  8
0
  6
Continuous
 62
     7
370
    15
100
AcDbCircle
 10
188.9031654467368
 20
432.1246164290173
 30
0.0
 40
8.500000000000014
100
AcDbArc
 50
210.0000000000019
 51
270.0
  0
ARC
  5
4B9C
330
1F
100
AcDbEntity
  8
0
  6
Continuous
 62
     7
370
    15
100
AcDbCircle
 10
188.9031654467368
 20
432.1246164290173
 30
0.0
 40
8.500000000000008
100
AcDbArc
 50
149.9999999999994
 51
210.0000000000019
  0
ARC
  5
4B9D
330
1F
100
AcDbEntity
  8
0
  6
Continuous
 62
     7
370
    15
100
AcDbCircle
 10
188.9031654467368
 20
432.1246164290173
 30
0.0
 40
8.5
100
AcDbArc
 50
90.0
 51
149.9999999999994
  0
ARC
  5
4B9E
330
1F
100
AcDbEntity
  8
0
  6
Continuous
 62
     7
370
    15
100
AcDbCircle
 10
188.9031654467368
 20
432.1246164290173
 30
0.0
 40
8.5
100
AcDbArc
 50
30.00000000000055
 51
90.0
  0
ARC
  5
4B9F
330
1F
100
AcDbEntity
  8
0
  6
Continuous
 62
     7
370
    15
100
AcDbCircle
 10
188.9031654467368
 20
432.1246164290173
 30
0.0
 40
8.499999999999998
100
AcDbArc
 50
329.9999999999995
 51
30.00000000000055
  0
SPLINE
  5
4BA0
330
1F
100
AcDbEntity
  8
0
  6
Continuous
 62
     7
370
    15
100
AcDbSpline
210
0.0
220
0.0
230
1.0
 70
     8
 71
     3
 72
    11
 73
     7
 74
     0
 42
0.0000000001
 43
0.0000000001
 40
0.0
 40
0.0
 40
0.0
 40
0.0
 40
0.2472747777447973
 40
0.4945905625499541
 40
0.7472644250410504
 40
1.0
 40
1.0
 40
1.0
 40
1.0
 10
181.5419494417989
 20
436.3746166599853
 30
0.0
 10
181.3365866525311
 20
436.0189177213284
 30
0.0
 10
180.9258270174515
 20
435.3074608563249
 30
0.0
 10
180.309562839892
 20
434.2400593454116
 30
0.0
 10
179.6955567154458
 20
433.176570949373
 30
0.0
 10
179.290676106935
 20
432.4752965286052
 30
0.0
 10
179.0882110839271
 20
432.1246165040474
 30
0.0
  0
SPLINE
  5
4BA1
330
1F
100
AcDbEntity
  8
0
  6
Continuous
 62
     7
370
    15
100
AcDbSpline
210
0.0
220
0.0
230
1.0
 70
     8
 71
     3
 72
    11
 73
     7
 74
     0
 42
0.0000000001
 43
0.0000000001
 40
0.0
 40
0.0
 40
0.0
 40
0.0
 40
0.2477111303641036
 40
0.4953654922800136
 40
0.7477052275080406
 40
1.0
 40
1.0
 40
1.0
 40
1.0
 10
179.0882110839271
 20
432.1246164709653
 30
0.0
 10
179.2866333543187
 20
431.780938826146
 30
0.0
 10
179.6834324222787
 20
431.0936622977911
 30
0.0
 10
180.2930657580026
 20
430.0377468535552
 30
0.0
 10
180.9133131898986
 20
428.9634467715389
 30
0.0
 10
181.3324164718114
 20
428.2375381631554
 30
0.0
 10
181.5419494417989
 20
427.8746161980493
 30
0.0
  0
SPLINE
  5
4BA2
330
1F
100
AcDbEntity
  8
0
  6
Continuous
 62
     7
370
    15
100
AcDbSpline
210
0.0
220
0.0
230
1.0
 70
     8
 71
     3
 72
    11
 73
     7
 74
     0
 42
0.0000000001
 43
0.0000000001
 40
0.0
 40
0.0
 40
0.0
 40
0.0
 40
0.2477111633840178
 40
0.49536547968182
 40
0.7477052646400017
 40
1.0
 40
1.0
 40
1.0
 40
1.0
 10
183.995688265332
 20
423.6246168984039
 30
0.0
 10
184.392533012911
 20
423.6246170035078
 30
0.0
 10
185.1861314364063
 20
423.6246172136914
 30
0.0
 10
186.4053976927176
 20
423.6246156276523
 30
0.0
 10
187.645892477968
 20
423.6246160525824
 30
0.0
 10
188.4840993998754
 20
423.62461599558
 30
0.0
 10
188.9031654467368
 20
423.6246159670813
 30
0.0
  0
SPLINE
  5
4BA3
330
1F
100
AcDbEntity
  8
0
  6
Continuous
 62
     7
370
    15
100
AcDbSpline
210
0.0
220
0.0
230
1.0
 70
     8
 71
     3
 72
    11
 73
     7
 74
     0
 42
0.0000000001
 43
0.0000000001
 40
0.0
 40
0.0
 40
0.0
 40
0.0
 40
0.2472747683534775
 40
0.4945905779562891
 40
0.7472644397761742
 40
1.0
 40
1.0
 40
1.0
 40
1.0
 10
181.5419494417989
 20
427.8746161980493
 30
0.0
 10
181.7473124205455
 20
427.5189174346182
 30
0.0
 10
182.1580724630095
 20
426.8074608709128
 30
0.0
 10
182.7743366272069
 20
425.7400594656985
 30
0.0
 10
183.3883418791973
 20
424.6765706945078
 30
0.0
 10
183.7932229945198
 20
423.9752967000333
 30
0.0
 10
183.995688265332
 20
423.6246168984039
 30
0.0
  0
SPLINE
  5
4BA4
330
1F
100
AcDbEntity
  8
0
  6
Continuous
 62
     7
370
    15
100
AcDbSpline
210
0.0
220
0.0
230
1.0
 70
    24
 71
     3
 72
    11
 73
     7
 74
     0
 42
0.0000000001
 43
0.0000000001
 40
0.0
 40
0.0
 40
0.0
 40
0.0
 40
0.2472747675004602
 40
0.494590579257412
 40
0.7472643782448559
 40
1.0
 40
1.0
 40
1.0
 40
1.0
 10
188.9031654467368
 20
440.6246168909533
 30
0.0
 10
188.4924397611456
 20
440.6246168909533
 30
0.0
 10
187.670920215072
 20
440.6246168909533
 30
0.0
 10
186.4383913934799
 20
440.6246168909533
 30
0.0
 10
185.2103803991568
 20
440.6246168909533
 30
0.0
 10
184.4006186605396
 20
440.6246168909533
 30
0.0
 10
183.995688265332
 20
440.6246168909533
 30
0.0
  0
SPLINE
  5
4BA5
330
1F
100
AcDbEntity
  8
0
  6
Continuous
 62
     7
370
    15
100
AcDbSpline
210
0.0
220
0.0
230
1.0
 70
     8
 71
     3
 72
    11
 73
     7
 74
     0
 42
0.0000000001
 43
0.0000000001
 40
0.0
 40
0.0
 40
0.0
 40
0.0
 40
0.2477112379794895
 40
0.4953655451582638
 40
0.7477053578820098
 40
1.0
 40
1.0
 40
1.0
 40
1.0
 10
183.995688265332
 20
440.6246168909533
 30
0.0
 10
183.7972657782664
 20
440.2809391362045
 30
0.0
 10
183.4004664070364
 20
439.5936626132312
 30
0.0
 10
182.79083369219
 20
438.5377465509198
 30
0.0
 10
182.1705858250404
 20
437.4634468513904
 30
0.0
 10
181.7514823980154
 20
436.7375383980599
 30
0.0
 10
181.5419494417989
 20
436.3746166599853
 30
0.0
  0
SPLINE
  5
4BA6
330
1F
100
AcDbEntity
  8
0
  6
Continuous
 62
     7
370
    15
100
AcDbSpline
210
0.0
220
0.0
230
1.0
 70
     8
 71
     3
 72
    11
 73
     7
 74
     0
 42
0.0000000001
 43
0.0000000001
 40
0.0
 40
0.0
 40
0.0
 40
0.0
 40
0.2477111201180407
 40
0.4953654660969366
 40
0.7477053183548846
 40
1.0
 40
1.0
 40
1.0
 40
1.0
 10
193.8106426281416
 20
423.6246168984039
 30
0.0
 10
194.0090651494524
 20
423.9682943189158
 30
0.0
 10
194.4058647146333
 20
424.6555703908089
 30
0.0
 10
195.015497173931
 20
425.7114863276029
 30
0.0
 10
195.6357450753231
 20
426.7857860014833
 30
0.0
 10
196.0548484977547
 20
427.5116944582546
 30
0.0
 10
196.2643814516747
 20
427.8746161980493
 30
0.0
  0
SPLINE
  5
4BA7
330
1F
100
AcDbEntity
  8
0
  6
Continuous
 62
     7
370
    15
100
AcDbSpline
210
0.0
220
0.0
230
1.0
 70
    24
 71
     3
 72
    11
 73
     7
 74
     0
 42
0.0000000001
 43
0.0000000001
 40
0.0
 40
0.0
 40
0.0
 40
0.0
 40
0.2472747906551953
 40
0.4945905790201779
 40
0.747264423676577
 40
1.0
 40
1.0
 40
1.0
 40
1.0
 10
188.9031654467368
 20
423.6246159670813
 30
0.0
 10
189.3138911718034
 20
423.6246159670813
 30
0.0
 10
190.1354107195138
 20
423.6246159670813
 30
0.0
 10
191.3679396085822
 20
423.6246159670813
 30
0.0
 10
192.59595058686
 20
423.6246159670813
 30
0.0
 10
193.4057123124357
 20
423.6246159670813
 30
0.0
 10
193.8106426281416
 20
423.6246159670813
 30
0.0
  0
SPLINE
  5
4BA8
330
1F
100
AcDbEntity
  8
0
  6
Continuous
 62
     7
370
    15
100
AcDbSpline
210
0.0
220
0.0
230
1.0
 70
     8
 71
     3
 72
    11
 73
     7
 74
     0
 42
0.0000000001
 43
0.0000000001
 40
0.0
 40
0.0
 40
0.0
 40
0.0
 40
0.2472747683534775
 40
0.4945905779562891
 40
0.7472644397761742
 40
1.0
 40
1.0
 40
1.0
 40
1.0
 10
196.2643814516747
 20
436.3746166599853
 30
0.0
 10
196.059018472928
 20
436.7303154234165
 30
0.0
 10
195.6482584304641
 20
437.4417719871217
 30
0.0
 10
195.0319942662666
 20
438.5091733923362
 30
0.0
 10
194.4179890142762
 20
439.5726621635269
 30
0.0
 10
194.0131078989537
 20
440.2739361580014
 30
0.0
 10
193.8106426281416
 20
440.6246159596308
 30
0.0
  0
SPLINE
  5
4BA9
330
1F
100
AcDbEntity
  8
0
  6
Continuous
 62
     7
370
    15
100
AcDbSpline
210
0.0
220
0.0
230
1.0
 70
     8
 71
     3
 72
    11
 73
     7
 74
     0
 42
0.0000000001
 43
0.0000000001
 40
0.0
 40
0.0
 40
0.0
 40
0.0
 40
0.2477111633840172
 40
0.4953654796818186
 40
0.7477052646399997
 40
0.9999999999999998
 40
0.9999999999999998
 40
0.9999999999999998
 40
0.9999999999999998
 10
193.8106426281416
 20
440.6246159596308
 30
0.0
 10
193.4137978805626
 20
440.6246158545268
 30
0.0
 10
192.6201994570673
 20
440.6246156443431
 30
0.0
 10
191.4009332007559
 20
440.6246172303823
 30
0.0
 10
190.1604384155056
 20
440.6246168054522
 30
0.0
 10
189.3222314935982
 20
440.6246168624546
 30
0.0
 10
188.9031654467368
 20
440.6246168909533
 30
0.0
  0
SPLINE
  5
4BAA
330
1F
100
AcDbEntity
  8
0
  6
Continuous
 62
     7
370
    15
100
AcDbSpline
210
0.0
220
0.0
230
1.0
 70
     8
 71
     3
 72
    11
 73
     7
 74
     0
 42
0.0000000001
 43
0.0000000001
 40
0.0
 40
0.0
 40
0.0
 40
0.0
 40
0.2477111426127035
 40
0.4953654871788304
 40
0.7477052249576764
 40
1.0
 40
1.0
 40
1.0
 40
1.0
 10
198.7181198095465
 20
432.1246164455584
 30
0.0
 10
198.5196975467852
 20
432.4682941147777
 30
0.0
 10
198.1228985177905
 20
433.1555706508659
 30
0.0
 10
197.5132650997881
 20
434.2114860196343
 30
0.0
 10
196.8930177084401
 20
435.2857860898199
 30
0.0
 10
196.473914423284
 20
436.0116946959871
 30
0.0
 10
196.2643814516747
 20
436.3746166599853
 30
0.0
  0
SPLINE
  5
4BAB
330
1F
100
AcDbEntity
  8
0
  6
Continuous
 62
     7
370
    15
100
AcDbSpline
210
0.0
220
0.0
230
1.0
 70
     8
 71
     3
 72
    11
 73
     7
 74
     0
 42
0.0000000001
 43
0.0000000001
 40
0.0
 40
0.0
 40
0.0
 40
0.0
 40
0.2472747757016344
 40
0.4945905584632897
 40
0.7472644188666121
 40
1.0
 40
1.0
 40
1.0
 40
1.0
 10
196.2643814516747
 20
427.8746161980493
 30
0.0
 10
196.4697442410565
 20
428.2303151366209
 30
0.0
 10
196.8805038763641
 20
428.9417720014537
 30
0.0
 10
197.4967680522004
 20
430.0091735136569
 30
0.0
 10
198.1107741900729
 20
431.0726619163641
 30
0.0
 10
198.5156547883479
 20
431.773936360915
 30
0.0
 10
198.7181198095465
 20
432.1246164030976
 30
0.0
  0
LINE
  5
4BAC
330
1F
100
AcDbEntity
  8
0
  6
Continuous
 62
     7
370
    15
100
AcDbLine
 10
208.9031649997019
 20
424.7406416943234
 30
0.0
 11
207.4031656851553
 21
425.6066673805874
 31
0.0
  0
LINE
  5
4BAD
330
1F
100
AcDbEntity
  8
0
  6
Continuous
 62
     7
370
    15
100
AcDbLine
 10
205.9031663706087
 20
424.7406416943234
 30
0.0
 11
207.4031656851553
 21
425.6066673805874
 31
0.0
  0
LINE
  5
4BAE
330
1F
100
AcDbEntity
  8
0
  6
Continuous
 62
     7
370
    15
100
AcDbLine
 10
205.9031663706087
 20
423.0085907874566
 30
0.0
 11
205.9031663706087
 21
424.7406416943234
 31
0.0
  0
LINE
  5
4BAF
330
1F
100
AcDbEntity
  8
0
  6
Continuous
 62
     7
370
    15
100
AcDbLine
 10
207.4031656851553
 20
422.1425660325151
 30
0.0
 11
205.9031663706087
 21
423.0085907874566
 31
0.0
  0
LINE
  5
4BB0
330
1F
100
AcDbEntity
  8
0
  6
Continuous
 62
     7
370
    15
100
AcDbLine
 10
208.9031649997019
 20
423.0085907874566
 30
0.0
 11
207.4031656851553
 21
422.1425660325151
 31
0.0
  0
LINE
  5
4BB1
330
1F
100
AcDbEntity
  8
0
  6
Continuous
 62
     7
370
    15
100
AcDbLine
 10
208.9031649997019
 20
424.7406416943234
 30
0.0
 11
208.9031649997019
 21
423.0085907874566
 31
0.0
  0
CIRCLE
  5
4BB2
330
1F
100
AcDbEntity
  8
0
  6
Continuous
 62
     7
370
    15
100
AcDbCircle
 10
207.4031654467367
 20
423.8746164290172
 30
0.0
 40
3.5
  0
LINE
  5
4BB3
330
1F
100
AcDbEntity
  8
0
  6
Continuous
 62
     7
370
    15
100
AcDbLine
 10
171.9031645228647
 20
441.2406420705779
 30
0.0
 11
170.4031652083181
 21
442.1066668255194
 31
0.0
  0
LINE
  5
4BB4
330
1F
100
AcDbEntity
  8
0
  6
Continuous
 62
     7
370
    15
100
AcDbLine
 10
168.9031658937715
 20
441.2406420705779
 30
0.0
 11
170.4031652083181
 21
442.1066668255194
 31
0.0
  0
LINE
  5
4BB5
330
1F
100
AcDbEntity
  8
0
  6
Continuous
 62
     7
370
    15
100
AcDbLine
 10
168.9031658937715
 20
439.5085911637111
 30
0.0
 11
168.9031658937715
 21
441.2406420705779
 31
0.0
  0
LINE
  5
4BB6
330
1F
100
AcDbEntity
  8
0
  6
Continuous
 62
     7
370
    15
100
AcDbLine
 10
170.4031652083181
 20
438.6425654774471
 30
0.0
 11
168.9031658937715
 21
439.5085911637111
 31
0.0
  0
LINE
  5
4BB7
330
1F
100
AcDbEntity
  8
0
  6
Continuous
 62
     7
370
    15
100
AcDbLine
 10
171.9031645228647
 20
439.5085911637111
 30
0.0
 11
170.4031652083181
 21
438.6425654774471
 31
0.0
  0
LINE
  5
4BB8
330
1F
100
AcDbEntity
  8
0
  6
Continuous
 62
     7
370
    15
100
AcDbLine
 10
171.9031645228647
 20
441.2406420705779
 30
0.0
 11
171.9031645228647
 21
439.5085911637111
 31
0.0
  0
CIRCLE
  5
4BB9
330
1F
100
AcDbEntity
  8
0
  6
Continuous
 62
     7
370
    15
100
AcDbCircle
 10
170.4031654467367
 20
440.3746164290173
 30
0.0
 40
3.500000000000014
  0
LINE
  5
4BBA
330
1F
100
AcDbEntity
  8
0
  6
Continuous
 62
     7
370
    15
100
AcDbLine
 10
208.9031649997019
 20
441.2406420705777
 30
0.0
 11
207.4031656851553
 21
442.1066668255192
 31
0.0
  0
LINE
  5
4BBB
330
1F
100
AcDbEntity
  8
0
  6
Continuous
 62
     7
370
    15
100
AcDbLine
 10
205.9031663706087
 20
441.2406420705777
 30
0.0
 11
207.4031656851553
 21
442.1066668255192
 31
0.0
  0
LINE
  5
4BBC
330
1F
100
AcDbEntity
  8
0
  6
Continuous
 62
     7
370
    15
100
AcDbLine
 10
205.9031663706087
 20
439.5085911637109
 30
0.0
 11
205.9031663706087
 21
441.2406420705777
 31
0.0
  0
LINE
  5
4BBD
330
1F
100
AcDbEntity
  8
0
  6
Continuous
 62
     7
370
    15
100
AcDbLine
 10
207.4031656851553
 20
438.6425654774469
 30
0.0
 11
205.9031663706087
 21
439.5085911637109
 31
0.0
  0
LINE
  5
4BBE
330
1F
100
AcDbEntity
  8
0
  6
Continuous
 62
     7
370
    15
100
AcDbLine
 10
208.9031649997019
 20
439.5085911637109
 30
0.0
 11
207.4031656851553
 21
438.6425654774469
 31
0.0
  0
LINE
  5
4BBF
330
1F
100
AcDbEntity
  8
0
  6
Continuous
 62
     7
370
    15
100
AcDbLine
 10
208.9031649997019
 20
441.2406420705777
 30
0.0
 11
208.9031649997019
 21
439.5085911637109
 31
0.0
  0
CIRCLE
  5
4BC0
330
1F
100
AcDbEntity
  8
0
  6
Continuous
 62
     7
370
    15
100
AcDbCircle
 10
207.4031654467367
 20
440.3746164290172
 30
0.0
 40
3.5
  0
LINE
  5
4BC1
330
1F
100
AcDbEntity
  8
0
  6
Continuous
 62
     7
370
    15
100
AcDbLine
 10
171.9031645228647
 20
424.7406416943236
 30
0.0
 11
170.4031652083181
 21
425.6066673805876
 31
0.0
  0
LINE
  5
4BC2
330
1F
100
AcDbEntity
  8
0
  6
Continuous
 62
     7
370
    15
100
AcDbLine
 10
168.9031658937715
 20
424.7406416943236
 30
0.0
 11
170.4031652083181
 21
425.6066673805876
 31
0.0
  0
LINE
  5
4BC3
330
1F
100
AcDbEntity
  8
0
  6
Continuous
 62
     7
370
    15
100
AcDbLine
 10
168.9031658937715
 20
423.0085907874568
 30
0.0
 11
168.9031658937715
 21
424.7406416943236
 31
0.0
  0
LINE
  5
4BC4
330
1F
100
AcDbEntity
  8
0
  6
Continuous
 62
     7
370
    15
100
AcDbLine
 10
170.4031652083181
 20
422.1425660325153
 30
0.0
 11
168.9031658937715
 21
423.0085907874568
 31
0.0
  0
LINE
  5
4BC5
330
1F
100
AcDbEntity
  8
0
  6
Continuous
 62
     7
370
    15
100
AcDbLine
 10
171.9031645228647
 20
423.0085907874568
 30
0.0
 11
170.4031652083181
 21
422.1425660325153
 31
0.0
  0
LINE
  5
4BC6
330
1F
100
AcDbEntity
  8
0
  6
Continuous
 62
     7
370
    15
100
AcDbLine
 10
171.9031645228647
 20
424.7406416943236
 30
0.0
 11
171.9031645228647
 21
423.0085907874568
 31
0.0
  0
CIRCLE
  5
4BC7
330
1F
100
AcDbEntity
  8
0
  6
Continuous
 62
     7
370
    15
100
AcDbCircle
 10
170.4031654467367
 20
423.8746164290173
 30
0.0
 40
3.500000000000014
  0
CIRCLE
  5
4BC8
330
1F
100
AcDbEntity
  8
0
  6
Continuous
 62
     7
370
    15
100
AcDbCircle
 10
188.9031654467368
 20
432.1246164290173
 30
0.0
 40
3.999999999962255
  0
CIRCLE
  5
4BC9
330
1F
100
AcDbEntity
  8
0
  6
Continuous
 62
     7
370
    15
100
AcDbCircle
 10
188.9031654467368
 20
432.1246164290173
 30
0.0
 40
4.999999999999971
  0
SPLINE
  5
4BCA
330
1F
100
AcDbEntity
  8
0
  6
Continuous
 62
     7
370
    15
100
AcDbSpline
210
0.0
220
0.0
230
1.0
 70
    24
 71
     1
 72
     4
 73
     2
 74
     0
 42
0.0000000001
 43
0.0000000001
 40
0.0
 40
0.0
 40
1.0
 40
1.0
 10
77.15572539504089
 20
295.3897696453966
 30
0.0
 10
79.15572549003579
 20
295.3897696453966
 30
0.0
  0
SPLINE
  5
4BCB
330
1F
100
AcDbEntity
  8
0
  6
Continuous
 62
     7
370
    15
100
AcDbSpline
210
0.0
220
0.0
230
1.0
 70
    24
 71
     1
 72
     4
 73
     2
 74
     0
 42
0.0000000001
 43
0.0000000001
 40
0.0
 40
0.0
 40
1.0
 40
1.0
 10
79.15572549003591
 20
307.3897697497048
 30
0.0
 10
77.15572539504089
 20
307.3897697497048
 30
0.0
  0
LINE
  5
4BCC
330
1F
100
AcDbEntity
  8
0
  6
Continuous
 62
     7
370
    15
100
AcDbLine
 10
93.15572592216957
 20
324.8897688928879
 30
0.0
 11
79.15572549003591
 21
324.889768892888
 31
0.0
  0
LINE
  5
4BCD
330
1F
100
AcDbEntity
  8
0
  6
Continuous
 62
     7
370
    15
100
AcDbLine
 10
93.15572592216957
 20
317.8897696081436
 30
0.0
 11
93.15572592216957
 21
324.8897688928879
 31
0.0
  0
LINE
  5
4BCE
330
1F
100
AcDbEntity
  8
0
  6
Continuous
 62
     7
370
    15
100
AcDbLine
 10
79.15572549003591
 20
317.8897696081437
 30
0.0
 11
93.15572592216957
 21
317.8897696081436
 31
0.0
  0
LINE
  5
4BCF
330
1F
100
AcDbEntity
  8
0
  6
Continuous
 62
     7
370
    15
100
AcDbLine
 10
79.15572549003591
 20
324.889768892888
 30
0.0
 11
79.15572549003591
 21
317.8897696081437
 31
0.0
  0
CIRCLE
  5
4BD0
330
1F
100
AcDbEntity
  8
0
  6
Continuous
 62
     7
370
    15
100
AcDbCircle
 10
86.65572549003579
 20
301.3897696975506
 30
0.0
 40
5.349999999964438
  0
LINE
  5
4BD1
330
1F
100
AcDbEntity
  8
0
  6
Continuous
 62
     7
370
    15
100
AcDbLine
 10
93.15572592216957
 20
317.8897696081436
 30
0.0
 11
93.15572592216947
 21
284.8897697869576
 31
0.0
  0
LINE
  5
4BD2
330
1F
100
AcDbEntity
  8
0
  6
Continuous
 62
     7
370
    15
100
AcDbLine
 10
93.15572592216947
 20
284.8897697869576
 30
0.0
 11
79.15572549003579
 21
284.8897697869576
 31
0.0
  0
LINE
  5
4BD3
330
1F
100
AcDbEntity
  8
0
  6
Continuous
 62
     7
370
    15
100
AcDbLine
 10
79.15572549003591
 20
317.8897696081437
 30
0.0
 11
79.15572549003579
 21
284.8897697869576
 31
0.0
  0
LINE
  5
4BD4
330
1F
100
AcDbEntity
  8
0
  6
Continuous
 62
     7
370
    15
100
AcDbLine
 10
79.15572549003579
 20
277.8897705022133
 30
0.0
 11
93.15572592216947
 21
277.8897705022133
 31
0.0
  0
LINE
  5
4BD5
330
1F
100
AcDbEntity
  8
0
  6
Continuous
 62
     7
370
    15
100
AcDbLine
 10
93.15572592216947
 20
277.8897705022133
 30
0.0
 11
93.15572592216947
 21
284.8897697869576
 31
0.0
  0
LINE
  5
4BD6
330
1F
100
AcDbEntity
  8
0
  6
Continuous
 62
     7
370
    15
100
AcDbLine
 10
79.15572549003579
 20
284.8897697869576
 30
0.0
 11
79.15572549003579
 21
277.8897705022133
 31
0.0
  0
CIRCLE
  5
4BD7
330
1F
100
AcDbEntity
  8
0
  6
Continuous
 62
     7
370
    15
100
AcDbCircle
 10
86.65572549003579
 20
301.3897696975506
 30
0.0
 40
4.349999999988085
  0
LINE
  5
4BD8
330
1F
100
AcDbEntity
  8
0
  6
Continuous
 62
     7
370
    15
100
AcDbLine
 10
79.15572549003579
 20
317.9047955665625
 30
0.0
 11
79.15572549003579
 21
316.8332828674353
 31
0.0
  0
LINE
  5
4BD9
330
1F
100
AcDbEntity
  8
0
  6
Continuous
 62
     7
370
    15
100
AcDbLine
 10
79.15572549003579
 20
285.946256527666
 30
0.0
 11
79.15572549003567
 21
283.5736191365756
 31
0.0
  0
LINE
  5
4BDA
330
1F
100
AcDbEntity
  8
0
  6
Continuous
 62
     7
370
    15
100
AcDbLine
 10
79.15572549003579
 20
317.7424381021298
 30
0.0
 11
79.15572549003579
 21
318.1344056967534
 31
0.0
  0
LINE
  5
4BDB
330
1F
100
AcDbEntity
  8
0
  6
Continuous
 62
     7
370
    15
100
AcDbLine
 10
93.15572592216957
 20
324.889768892888
 30
0.0
 11
93.15572592216957
 21
324.3897697422541
 31
0.0
  0
LINE
  5
4BDC
330
1F
100
AcDbEntity
  8
0
  6
Continuous
 62
     7
370
    15
100
AcDbLine
 10
79.15572549003591
 20
324.889768892888
 30
0.0
 11
79.15572549003591
 21
324.1984276566542
 31
0.0
  0
LINE
  5
4BDD
330
1F
100
AcDbEntity
  8
0
  6
Continuous
 62
     7
370
    15
100
AcDbLine
 10
93.15572592216936
 20
278.3897696528471
 30
0.0
 11
93.15572592216936
 21
277.8897705022133
 31
0.0
  0
LINE
  5
4BDE
330
1F
100
AcDbEntity
  8
0
  6
Continuous
 62
     7
370
    15
100
AcDbLine
 10
79.15572549003567
 20
278.5811117384471
 30
0.0
 11
79.15572549003567
 21
277.8897705022134
 31
0.0
  0
LINE
  5
4BDF
330
1F
100
AcDbEntity
  8
0
  6
Continuous
 62
     7
370
    15
100
AcDbLine
 10
79.15572549003579
 20
319.2059202585257
 30
0.0
 11
79.15572549003579
 21
318.1344056967534
 31
0.0
  0
LINE
  5
4BE0
330
1F
100
AcDbEntity
  8
0
  6
Continuous
 62
     7
370
    15
100
AcDbLine
 10
79.15572549003591
 20
324.1984276566542
 30
0.0
 11
79.15572549003591
 21
322.3596783820428
 31
0.0
  0
LINE
  5
4BE1
330
1F
100
AcDbEntity
  8
0
  6
Continuous
 62
     7
370
    15
100
AcDbLine
 10
79.15572549003567
 20
280.4198610130585
 30
0.0
 11
79.15572549003567
 21
278.5811117384471
 31
0.0
  0
LINE
  5
4BE2
330
1F
100
AcDbEntity
  8
0
  6
Continuous
 62
     7
370
    15
100
AcDbLine
 10
79.15572549003591
 20
322.3596783820428
 30
0.0
 11
79.15572549003591
 21
322.2362148109711
 31
0.0
  0
LINE
  5
4BE3
330
1F
100
AcDbEntity
  8
0
  6
Continuous
 62
     7
370
    15
100
AcDbLine
 10
79.15572549003567
 20
280.5433245841302
 30
0.0
 11
79.15572549003567
 21
280.4198610130585
 31
0.0
  0
LINE
  5
4BE4
330
1F
100
AcDbEntity
  8
0
  6
Continuous
 62
     7
370
    15
100
AcDbLine
 10
79.15572549003591
 20
322.238870942954
 30
0.0
 11
79.15572549003579
 21
319.4672326091565
 31
0.0
  0
LINE
  5
4BE5
330
1F
100
AcDbEntity
  8
0
  6
Continuous
 62
     7
370
    15
100
AcDbLine
 10
79.15572549003567
 20
283.3123067859448
 30
0.0
 11
79.15572549003567
 21
280.5406684521474
 31
0.0
  0
LINE
  5
4BE6
330
1F
100
AcDbEntity
  8
0
  6
Continuous
 62
     7
370
    15
100
AcDbLine
 10
79.15572549003579
 20
322.347111115221
 30
0.0
 11
79.15572549003579
 21
322.251440072421
 31
0.0
  0
LINE
  5
4BE7
330
1F
100
AcDbEntity
  8
0
  6
Continuous
 62
     7
370
    15
100
AcDbLine
 10
79.15572549003567
 20
280.5280993226804
 30
0.0
 11
79.15572549003567
 21
280.4324282798805
 31
0.0
  0
LINE
  5
4BE8
330
1F
100
AcDbEntity
  8
0
  6
Continuous
 62
     7
370
    15
100
AcDbLine
 10
79.15572549003579
 20
319.7131613734999
 30
0.0
 11
79.15572549003579
 21
316.9415221083799
 31
0.0
  0
LINE
  5
4BE9
330
1F
100
AcDbEntity
  8
0
  6
Continuous
 62
     7
370
    15
100
AcDbLine
 10
79.15572549003567
 20
285.8380172867216
 30
0.0
 11
79.15572549003567
 21
283.0663780216016
 31
0.0
  0
LINE
  5
4BEA
330
1F
100
AcDbEntity
  8
0
  6
Continuous
 62
     7
370
    15
100
AcDbLine
 10
79.15572549003579
 20
320.3314571175614
 30
0.0
 11
79.15572549003579
 21
320.0701447669306
 31
0.0
  0
LINE
  5
4BEB
330
1F
100
AcDbEntity
  8
0
  6
Continuous
 62
     7
370
    15
100
AcDbLine
 10
79.15572549003567
 20
282.7093946281709
 30
0.0
 11
79.15572549003567
 21
282.4480822775401
 31
0.0
  0
LINE
  5
4BEC
330
1F
100
AcDbEntity
  8
0
  6
Continuous
 62
     7
370
    15
100
AcDbLine
 10
93.15572592216947
 20
324.3897697422541
 30
0.0
 11
93.15572592216947
 21
324.581111827854
 31
0.0
  0
LINE
  5
4BED
330
1F
100
AcDbEntity
  8
0
  6
Continuous
 62
     7
370
    15
100
AcDbLine
 10
79.15572549003579
 20
324.5811118278542
 30
0.0
 11
79.15572549003579
 21
320.3314571175614
 31
0.0
  0
LINE
  5
4BEE
330
1F
100
AcDbEntity
  8
0
  6
Continuous
 62
     7
370
    15
100
AcDbLine
 10
93.15572592216936
 20
278.1984275672473
 30
0.0
 11
93.15572592216936
 21
278.3897696528472
 31
0.0
  0
LINE
  5
4BEF
330
1F
100
AcDbEntity
  8
0
  6
Continuous
 62
     7
370
    15
100
AcDbLine
 10
79.15572549003567
 20
282.4480822775401
 30
0.0
 11
79.15572549003567
 21
278.1984275672473
 31
0.0
  0
LINE
  5
4BF0
330
1F
100
AcDbEntity
  8
0
  6
Continuous
 62
     7
370
    15
100
AcDbLine
 10
79.15572549003579
 20
320.0701447669306
 30
0.0
 11
79.15572549003579
 21
319.9744737241307
 31
0.0
  0
LINE
  5
4BF1
330
1F
100
AcDbEntity
  8
0
  6
Continuous
 62
     7
370
    15
100
AcDbLine
 10
79.15572549003567
 20
282.8050656709709
 30
0.0
 11
79.15572549003567
 21
282.7093946281709
 31
0.0
  0
LINE
  5
4BF2
330
1F
100
AcDbEntity
  8
0
  6
Continuous
 62
     7
370
    15
100
AcDbLine
 10
93.15572592216947
 20
324.889768892888
 30
0.0
 11
93.15572592216947
 21
324.581111827854
 31
0.0
  0
LINE
  5
4BF3
330
1F
100
AcDbEntity
  8
0
  6
Continuous
 62
     7
370
    15
100
AcDbLine
 10
79.15572549003579
 20
324.8897688928881
 30
0.0
 11
79.15572549003579
 21
324.5811118278542
 31
0.0
  0
LINE
  5
4BF4
330
1F
100
AcDbEntity
  8
0
  6
Continuous
 62
     7
370
    15
100
AcDbLine
 10
93.15572592216936
 20
278.1984275672473
 30
0.0
 11
93.15572592216936
 21
277.8897705022134
 31
0.0
  0
LINE
  5
4BF5
330
1F
100
AcDbEntity
  8
0
  6
Continuous
 62
     7
370
    15
100
AcDbLine
 10
79.15572549003567
 20
278.1984275672473
 30
0.0
 11
79.15572549003567
 21
277.8897705022134
 31
0.0
  0
LINE
  5
4BF6
330
1F
100
AcDbEntity
  8
0
  6
Continuous
 62
     7
370
    15
100
AcDbLine
 10
114.1557256390475
 20
317.8897696081436
 30
0.0
 11
128.155724208536
 21
317.8897696081435
 31
0.0
  0
LINE
  5
4BF7
330
1F
100
AcDbEntity
  8
0
  6
Continuous
 62
     7
370
    15
100
AcDbLine
 10
128.155724208536
 20
324.8897688928878
 30
0.0
 11
114.1557256390475
 21
324.8897688928878
 31
0.0
  0
LINE
  5
4BF8
330
1F
100
AcDbEntity
  8
0
  6
Continuous
 62
     7
370
    15
100
AcDbLine
 10
128.155724208536
 20
317.8897696081435
 30
0.0
 11
128.155724208536
 21
324.8897688928878
 31
0.0
  0
LINE
  5
4BF9
330
1F
100
AcDbEntity
  8
0
  6
Continuous
 62
     7
370
    15
100
AcDbLine
 10
114.1557256390475
 20
324.8897688928878
 30
0.0
 11
114.1557256390475
 21
317.8897696081436
 31
0.0
  0
CIRCLE
  5
4BFA
330
1F
100
AcDbEntity
  8
0
  6
Continuous
 62
     7
370
    15
100
AcDbCircle
 10
120.6557254900358
 20
301.3897696975505
 30
0.0
 40
5.349999999964438
  0
LINE
  5
4BFB
330
1F
100
AcDbEntity
  8
0
  6
Continuous
 62
     7
370
    15
100
AcDbLine
 10
128.1557242085359
 20
284.8897697869574
 30
0.0
 11
128.155724208536
 21
317.8897696081435
 31
0.0
  0
LINE
  5
4BFC
330
1F
100
AcDbEntity
  8
0
  6
Continuous
 62
     7
370
    15
100
AcDbLine
 10
128.1557242085359
 20
284.8897697869574
 30
0.0
 11
114.1557256390474
 21
284.8897697869574
 31
0.0
  0
LINE
  5
4BFD
330
1F
100
AcDbEntity
  8
0
  6
Continuous
 62
     7
370
    15
100
AcDbLine
 10
114.1557256390474
 20
284.8897697869574
 30
0.0
 11
114.1557256390475
 21
317.8897696081436
 31
0.0
  0
LINE
  5
4BFE
330
1F
100
AcDbEntity
  8
0
  6
Continuous
 62
     7
370
    15
100
AcDbLine
 10
114.1557256390474
 20
277.8897705022132
 30
0.0
 11
128.1557242085359
 21
277.8897705022132
 31
0.0
  0
LINE
  5
4BFF
330
1F
100
AcDbEntity
  8
0
  6
Continuous
 62
     7
370
    15
100
AcDbLine
 10
128.1557242085359
 20
277.8897705022132
 30
0.0
 11
128.1557242085359
 21
284.8897697869574
 31
0.0
  0
LINE
  5
4C00
330
1F
100
AcDbEntity
  8
0
  6
Continuous
 62
     7
370
    15
100
AcDbLine
 10
114.1557256390474
 20
284.8897697869574
 30
0.0
 11
114.1557256390474
 21
277.8897705022132
 31
0.0
  0
CIRCLE
  5
4C01
330
1F
100
AcDbEntity
  8
0
  6
Continuous
 62
     7
370
    15
100
AcDbCircle
 10
120.6557254900358
 20
301.3897696975505
 30
0.0
 40
4.349999999988085
  0
LINE
  5
4C02
330
1F
100
AcDbEntity
  8
0
  6
Continuous
 62
     7
370
    15
100
AcDbLine
 10
128.1557242085359
 20
316.8332828674352
 30
0.0
 11
128.1557242085359
 21
317.9047955665624
 31
0.0
  0
LINE
  5
4C03
330
1F
100
AcDbEntity
  8
0
  6
Continuous
 62
     7
370
    15
100
AcDbLine
 10
128.1557242085358
 20
283.5736191365754
 30
0.0
 11
128.1557242085359
 21
285.9462565276658
 31
0.0
  0
LINE
  5
4C04
330
1F
100
AcDbEntity
  8
0
  6
Continuous
 62
     7
370
    15
100
AcDbLine
 10
128.1557242085359
 20
318.1344056967533
 30
0.0
 11
128.1557242085359
 21
317.7424381021297
 31
0.0
  0
LINE
  5
4C05
330
1F
100
AcDbEntity
  8
0
  6
Continuous
 62
     7
370
    15
100
AcDbLine
 10
128.1557242085359
 20
318.1344056967533
 30
0.0
 11
128.1557242085359
 21
319.2059202585256
 31
0.0
  0
LINE
  5
4C06
330
1F
100
AcDbEntity
  8
0
  6
Continuous
 62
     7
370
    15
100
AcDbLine
 10
128.155724208536
 20
324.1984276566541
 30
0.0
 11
128.155724208536
 21
324.8897688928878
 31
0.0
  0
LINE
  5
4C07
330
1F
100
AcDbEntity
  8
0
  6
Continuous
 62
     7
370
    15
100
AcDbLine
 10
114.1557256390475
 20
324.389769742254
 30
0.0
 11
114.1557256390475
 21
324.8897688928878
 31
0.0
  0
LINE
  5
4C08
330
1F
100
AcDbEntity
  8
0
  6
Continuous
 62
     7
370
    15
100
AcDbLine
 10
128.1557242085358
 20
277.8897705022132
 30
0.0
 11
128.1557242085358
 21
278.5811117384469
 31
0.0
  0
LINE
  5
4C09
330
1F
100
AcDbEntity
  8
0
  6
Continuous
 62
     7
370
    15
100
AcDbLine
 10
114.1557256390473
 20
277.8897705022132
 30
0.0
 11
114.1557256390473
 21
278.389769652847
 31
0.0
  0
LINE
  5
4C0A
330
1F
100
AcDbEntity
  8
0
  6
Continuous
 62
     7
370
    15
100
AcDbLine
 10
128.155724208536
 20
322.4362144712245
 30
0.0
 11
128.155724208536
 21
324.1984276566541
 31
0.0
  0
LINE
  5
4C0B
330
1F
100
AcDbEntity
  8
0
  6
Continuous
 62
     7
370
    15
100
AcDbLine
 10
128.1557242085358
 20
278.5811117384469
 30
0.0
 11
128.1557242085358
 21
280.3433249238765
 31
0.0
  0
LINE
  5
4C0C
330
1F
100
AcDbEntity
  8
0
  6
Continuous
 62
     7
370
    15
100
AcDbLine
 10
128.155724208536
 20
322.3127527627981
 30
0.0
 11
128.155724208536
 21
322.4362144712245
 31
0.0
  0
LINE
  5
4C0D
330
1F
100
AcDbEntity
  8
0
  6
Continuous
 62
     7
370
    15
100
AcDbLine
 10
128.1557242085358
 20
280.3433249238765
 30
0.0
 11
128.1557242085358
 21
280.4667866323029
 31
0.0
  0
LINE
  5
4C0E
330
1F
100
AcDbEntity
  8
0
  6
Continuous
 62
     7
370
    15
100
AcDbLine
 10
128.1557242085359
 20
319.4672326091564
 30
0.0
 11
128.1557242085359
 21
322.2388709429538
 31
0.0
  0
LINE
  5
4C0F
330
1F
100
AcDbEntity
  8
0
  6
Continuous
 62
     7
370
    15
100
AcDbLine
 10
128.1557242085358
 20
280.5406684521472
 30
0.0
 11
128.1557242085358
 21
283.3123067859446
 31
0.0
  0
LINE
  5
4C10
330
1F
100
AcDbEntity
  8
0
  6
Continuous
 62
     7
370
    15
100
AcDbLine
 10
128.1557242085359
 20
322.3279761616027
 30
0.0
 11
128.1557242085359
 21
322.3471111152208
 31
0.0
  0
LINE
  5
4C11
330
1F
100
AcDbEntity
  8
0
  6
Continuous
 62
     7
370
    15
100
AcDbLine
 10
128.1557242085358
 20
280.4324282798803
 30
0.0
 11
128.1557242085358
 21
280.4515632334983
 31
0.0
  0
LINE
  5
4C12
330
1F
100
AcDbEntity
  8
0
  6
Continuous
 62
     7
370
    15
100
AcDbLine
 10
128.1557242085359
 20
322.3127527627981
 30
0.0
 11
128.1557242085359
 21
322.3279761616027
 31
0.0
  0
LINE
  5
4C13
330
1F
100
AcDbEntity
  8
0
  6
Continuous
 62
     7
370
    15
100
AcDbLine
 10
128.1557242085358
 20
280.4515632334983
 30
0.0
 11
128.1557242085358
 21
280.466786632303
 31
0.0
  0
LINE
  5
4C14
330
1F
100
AcDbEntity
  8
0
  6
Continuous
 62
     7
370
    15
100
AcDbLine
 10
128.1557242085359
 20
316.9415221083796
 30
0.0
 11
128.1557242085359
 21
319.7131613734996
 31
0.0
  0
LINE
  5
4C15
330
1F
100
AcDbEntity
  8
0
  6
Continuous
 62
     7
370
    15
100
AcDbLine
 10
128.1557242085358
 20
283.0663780216015
 30
0.0
 11
128.1557242085358
 21
285.8380172867215
 31
0.0
  0
LINE
  5
4C16
330
1F
100
AcDbEntity
  8
0
  6
Continuous
 62
     7
370
    15
100
AcDbLine
 10
128.1557242085359
 20
319.9936068151033
 30
0.0
 11
128.1557242085359
 21
320.254919165734
 31
0.0
  0
LINE
  5
4C17
330
1F
100
AcDbEntity
  8
0
  6
Continuous
 62
     7
370
    15
100
AcDbLine
 10
128.1557242085358
 20
282.5246202293671
 30
0.0
 11
128.1557242085358
 21
282.7859325799979
 31
0.0
  0
LINE
  5
4C18
330
1F
100
AcDbEntity
  8
0
  6
Continuous
 62
     7
370
    15
100
AcDbLine
 10
128.1557242085359
 20
320.254919165734
 30
0.0
 11
128.1557242085359
 21
324.5811118278539
 31
0.0
  0
LINE
  5
4C19
330
1F
100
AcDbEntity
  8
0
  6
Continuous
 62
     7
370
    15
100
AcDbLine
 10
114.1557256390474
 20
324.581111827854
 30
0.0
 11
114.1557256390474
 21
324.3897697422541
 31
0.0
  0
LINE
  5
4C1A
330
1F
100
AcDbEntity
  8
0
  6
Continuous
 62
     7
370
    15
100
AcDbLine
 10
128.1557242085358
 20
278.1984275672472
 30
0.0
 11
128.1557242085358
 21
282.5246202293671
 31
0.0
  0
LINE
  5
4C1B
330
1F
100
AcDbEntity
  8
0
  6
Continuous
 62
     7
370
    15
100
AcDbLine
 10
114.1557256390473
 20
278.3897696528471
 30
0.0
 11
114.1557256390473
 21
278.1984275672472
 31
0.0
  0
LINE
  5
4C1C
330
1F
100
AcDbEntity
  8
0
  6
Continuous
 62
     7
370
    15
100
AcDbLine
 10
128.1557242085359
 20
319.9744737241304
 30
0.0
 11
128.1557242085359
 21
319.9936068151033
 31
0.0
  0
LINE
  5
4C1D
330
1F
100
AcDbEntity
  8
0
  6
Continuous
 62
     7
370
    15
100
AcDbLine
 10
128.1557242085358
 20
282.7859325799979
 30
0.0
 11
128.1557242085358
 21
282.8050656709708
 31
0.0
  0
LINE
  5
4C1E
330
1F
100
AcDbEntity
  8
0
  6
Continuous
 62
     7
370
    15
100
AcDbLine
 10
128.1557242085359
 20
324.5811118278539
 30
0.0
 11
128.1557242085359
 21
324.8897688928878
 31
0.0
  0
LINE
  5
4C1F
330
1F
100
AcDbEntity
  8
0
  6
Continuous
 62
     7
370
    15
100
AcDbLine
 10
114.1557256390474
 20
324.581111827854
 30
0.0
 11
114.1557256390474
 21
324.889768892888
 31
0.0
  0
LINE
  5
4C20
330
1F
100
AcDbEntity
  8
0
  6
Continuous
 62
     7
370
    15
100
AcDbLine
 10
128.1557242085358
 20
277.8897705022133
 30
0.0
 11
128.1557242085358
 21
278.1984275672472
 31
0.0
  0
LINE
  5
4C21
330
1F
100
AcDbEntity
  8
0
  6
Continuous
 62
     7
370
    15
100
AcDbLine
 10
114.1557256390473
 20
277.8897705022133
 30
0.0
 11
114.1557256390473
 21
278.1984275672472
 31
0.0
  0
LINE
  5
4C22
330
1F
100
AcDbEntity
  8
0
  6
Continuous
 62
     7
370
    15
100
AcDbLine
 10
72.15572527396895
 20
306.389769585792
 30
0.0
 11
72.15572527396895
 21
296.3897698093094
 31
0.0
  0
SPLINE
  5
4C23
330
1F
100
AcDbEntity
  8
0
  6
Continuous
 62
     7
370
    15
100
AcDbSpline
210
0.0
220
0.0
230
1.0
 70
    24
 71
     3
 72
    10
 73
     6
 74
     0
 42
0.0000000001
 43
0.0000000001
 40
0.0
 40
0.0
 40
0.0
 40
0.0
 40
0.4958470460278132
 40
0.748008037330366
 40
1.0
 40
1.0
 40
1.0
 40
1.0
 10
73.45476380336501
 20
306.389769585792
 30
0.0
 10
73.21397169998758
 20
306.389769585792
 30
0.0
 10
72.850725755306
 20
306.389769585792
 30
0.0
 10
72.42552125863014
 20
306.389769585792
 30
0.0
 10
72.24563716545808
 20
306.389769585792
 30
0.0
 10
72.15572527396895
 20
306.389769585792
 30
0.0
  0
LINE
  5
4C24
330
1F
100
AcDbEntity
  8
0
  6
Continuous
 62
     7
370
    15
100
AcDbLine
 10
73.45476380336501
 20
306.389769585792
 30
0.0
 11
73.45476380336501
 21
296.3897698093094
 31
0.0
  0
SPLINE
  5
4C25
330
1F
100
AcDbEntity
  8
0
  6
Continuous
 62
     7
370
    15
100
AcDbSpline
210
0.0
220
0.0
230
1.0
 70
    24
 71
     3
 72
     9
 73
     5
 74
     0
 42
0.0000000001
 43
0.0000000001
 40
0.0
 40
0.0
 40
0.0
 40
0.0
 40
0.4944687188728356
 40
1.0
 40
1.0
 40
1.0
 40
1.0
 10
72.15572527396895
 20
296.3897698093094
 30
0.0
 10
72.34088643126867
 20
296.3897698093094
 30
0.0
 10
72.71535128664297
 20
296.3897698093094
 30
0.0
 10
73.20648191009204
 20
296.3897698093094
 30
0.0
 10
73.45476380336501
 20
296.3897698093094
 30
0.0
  0
LINE
  5
4C26
330
1F
100
AcDbEntity
  8
0
  6
Continuous
 62
     7
370
    15
100
AcDbLine
 10
76.15572546395876
 20
306.389769585792
 30
0.0
 11
73.45476380336501
 21
306.389769585792
 31
0.0
  0
LWPOLYLINE
  5
4C27
330
1F
100
AcDbEntity
  8
0
  6
Continuous
 62
     7
370
    15
100
AcDbPolyline
 90
        8
 70
   128
 43
0.0
 10
77.15572539504089
 20
307.3897697497048
 10
77.13473594534614
 20
307.3687800671794
 10
77.07191451239802
 20
307.3059586342313
 10
76.96770068045177
 20
307.2017450351157
 10
76.82282320942201
 20
307.0568675640859
 10
76.6382963095925
 20
306.8723404314257
 10
76.41541056122102
 20
306.6494549158849
 10
76.15572546395876
 20
306.389769585792
  0
LWPOLYLINE
  5
4C28
330
1F
100
AcDbEntity
  8
0
  6
Continuous
 62
     7
370
    15
100
AcDbPolyline
 90
        8
 70
   128
 43
0.0
 10
76.15572546395876
 20
296.3897698093094
 10
76.41541056122102
 20
296.1300844792165
 10
76.6382963095925
 20
295.9071989636756
 10
76.82282320942201
 20
295.7226718310155
 10
76.96770068045177
 20
295.5777943599857
 10
77.07191451239802
 20
295.4735807608701
 10
77.13473594534614
 20
295.410759327922
 10
77.15572539504089
 20
295.3897696453966
  0
LINE
  5
4C29
330
1F
100
AcDbEntity
  8
0
  6
Continuous
 62
     7
370
    15
100
AcDbLine
 10
73.45476380336501
 20
296.3897698093094
 30
0.0
 11
76.15572546395876
 21
296.3897698093094
 31
0.0
  0
LINE
  5
4C2A
330
1F
100
AcDbEntity
  8
0
  6
Continuous
 62
     7
370
    15
100
AcDbLine
 10
114.1557256390475
 20
324.389769742254
 30
0.0
 11
93.15572592216957
 21
324.3897697422541
 31
0.0
  0
LINE
  5
4C2B
330
1F
100
AcDbEntity
  8
0
  6
Continuous
 62
     7
370
    15
100
AcDbLine
 10
93.15572592216957
 20
317.8897696081436
 30
0.0
 11
114.1557256390475
 21
317.8897696081436
 31
0.0
  0
LINE
  5
4C2C
330
1F
100
AcDbEntity
  8
0
  6
Continuous
 62
     7
370
    15
100
AcDbLine
 10
114.1557256390475
 20
307.8976218122875
 30
0.0
 11
93.15572592216957
 21
307.8976218122877
 31
0.0
  0
LINE
  5
4C2D
330
1F
100
AcDbEntity
  8
0
  6
Continuous
 62
     7
370
    15
100
AcDbLine
 10
93.15572592216957
 20
306.0850063804425
 30
0.0
 11
114.1557256390474
 21
306.0850063804423
 31
0.0
  0
LINE
  5
4C2E
330
1F
100
AcDbEntity
  8
0
  6
Continuous
 62
     7
370
    15
100
AcDbLine
 10
114.1557256390474
 20
296.6945330146586
 30
0.0
 11
93.15572592216947
 21
296.6945330146588
 31
0.0
  0
LINE
  5
4C2F
330
1F
100
AcDbEntity
  8
0
  6
Continuous
 62
     7
370
    15
100
AcDbLine
 10
93.15572592216947
 20
294.8819175828136
 30
0.0
 11
114.1557256390474
 21
294.8819175828134
 31
0.0
  0
LINE
  5
4C30
330
1F
100
AcDbEntity
  8
0
  6
Continuous
 62
     7
370
    15
100
AcDbLine
 10
114.1557256390474
 20
284.8897697869574
 30
0.0
 11
93.15572592216947
 21
284.8897697869576
 31
0.0
  0
LINE
  5
4C31
330
1F
100
AcDbEntity
  8
0
  6
Continuous
 62
     7
370
    15
100
AcDbLine
 10
93.15572592216947
 20
278.3897696528471
 30
0.0
 11
114.1557256390474
 21
278.389769652847
 31
0.0
  0
LINE
  5
4C32
330
1F
100
AcDbEntity
  8
0
  6
Continuous
 62
     7
370
    15
100
AcDbLine
 10
114.1557256390474
 20
304.3471610173469
 30
0.0
 11
93.15572592216947
 21
304.3471610173471
 31
0.0
  0
LINE
  5
4C33
330
1F
100
AcDbEntity
  8
0
  6
Continuous
 62
     7
370
    15
100
AcDbLine
 10
93.15572592216947
 20
298.4323783777542
 30
0.0
 11
114.1557256390474
 21
298.432378377754
 31
0.0
  0
LINE
  5
4C34
330
1F
100
AcDbEntity
  8
0
  6
Continuous
 62
     7
370
    15
100
AcDbLine
 10
114.1557256390474
 20
303.82632492109
 30
0.0
 11
93.15572592216947
 21
303.8263249210901
 31
0.0
  0
LINE
  5
4C35
330
1F
100
AcDbEntity
  8
0
  6
Continuous
 62
     7
370
    15
100
AcDbLine
 10
93.15572592216947
 20
298.9532144740111
 30
0.0
 11
114.1557256390474
 21
298.953214474011
 31
0.0
  0
CIRCLE
  5
4C36
330
1F
100
AcDbEntity
  8
0
  6
Continuous
 62
     7
370
    15
100
AcDbCircle
 10
170.4031654467364
 20
293.1397696975508
 30
0.0
 40
4.050000000023814
  0
CIRCLE
  5
4C37
330
1F
100
AcDbEntity
  8
0
  6
Continuous
 62
     7
370
    15
100
AcDbCircle
 10
170.4031654467365
 20
309.6397696975508
 30
0.0
 40
4.050000000023814
  0
CIRCLE
  5
4C38
330
1F
100
AcDbEntity
  8
0
  6
Continuous
 62
     7
370
    15
100
AcDbCircle
 10
207.4031654467365
 20
293.1397696975507
 30
0.0
 40
4.049999999989267
  0
CIRCLE
  5
4C39
330
1F
100
AcDbEntity
  8
0
  6
Continuous
 62
     7
370
    15
100
AcDbCircle
 10
207.4031654467365
 20
309.6397696975507
 30
0.0
 40
4.049999999989267
  0
CIRCLE
  5
4C3A
330
1F
100
AcDbEntity
  8
0
  6
Continuous
 62
     7
370
    15
100
AcDbCircle
 10
172.6531654467365
 20
317.6397696975508
 30
0.0
 40
3.258499999972173
  0
CIRCLE
  5
4C3B
330
1F
100
AcDbEntity
  8
0
  6
Continuous
 62
     7
370
    15
100
AcDbCircle
 10
172.6531654467364
 20
285.1397696975507
 30
0.0
 40
3.258499999972173
  0
CIRCLE
  5
4C3C
330
1F
100
AcDbEntity
  8
0
  6
Continuous
 62
     7
370
    15
100
AcDbCircle
 10
205.1531654467365
 20
285.1397696975507
 30
0.0
 40
3.258499999944916
  0
CIRCLE
  5
4C3D
330
1F
100
AcDbEntity
  8
0
  6
Continuous
 62
     7
370
    15
100
AcDbCircle
 10
205.1531654467365
 20
317.6397696975507
 30
0.0
 40
3.258499999944888
  0
CIRCLE
  5
4C3E
330
1F
100
AcDbEntity
  8
0
  6
Continuous
 62
     7
370
    15
100
AcDbCircle
 10
188.9031654467365
 20
301.3897696975507
 30
0.0
 40
6.25
  0
LINE
  5
4C3F
330
1F
100
AcDbEntity
  8
0
  6
Continuous
 62
     7
370
    15
100
AcDbLine
 10
195.0205419456144
 20
277.8897705022134
 30
0.0
 11
182.7857889478584
 21
277.8897705022134
 31
0.0
  0
ARC
  5
4C40
330
1F
100
AcDbEntity
  8
0
  6
Continuous
 62
     7
370
    15
100
AcDbCircle
 10
182.7857889430763
 20
278.3897696975507
 30
0.0
 40
0.5000000000000142
100
AcDbArc
 50
157.500000000003
 51
270.0
  0
LINE
  5
4C41
330
1F
100
AcDbEntity
  8
0
  6
Continuous
 62
     7
370
    15
100
AcDbLine
 10
182.3238492255588
 20
278.5811117384471
 30
0.0
 11
183.0854838957568
 21
280.4198610130586
 31
0.0
  0
ARC
  5
4C42
330
1F
100
AcDbEntity
  8
0
  6
Continuous
 62
     7
370
    15
100
AcDbCircle
 10
183.2702599753076
 20
280.3433240130664
 30
0.0
 40
0.199999999999978
100
AcDbArc
 50
67.49999999999724
 51
157.5000000000015
  0
LINE
  5
4C43
330
1F
100
AcDbEntity
  8
0
  6
Continuous
 62
     7
370
    15
100
AcDbLine
 10
183.3467967120489
 20
280.5280993226804
 30
0.0
 11
183.5777665731986
 21
280.4324282798805
 31
0.0
  0
ARC
  5
4C44
330
1F
100
AcDbEntity
  8
0
  6
Continuous
 62
     7
370
    15
100
AcDbCircle
 10
183.6543032313816
 20
280.6172049679798
 30
0.0
 40
0.20000000000006
100
AcDbArc
 50
247.4999999999978
 51
337.4999999999869
  0
LINE
  5
4C45
330
1F
100
AcDbEntity
  8
0
  6
Continuous
 62
     7
370
    15
100
AcDbLine
 10
183.8390789238294
 20
280.5406684521474
 30
0.0
 11
184.9871295747836
 21
283.3123067859449
 31
0.0
  0
ARC
  5
4C46
330
1F
100
AcDbEntity
  8
0
  6
Continuous
 62
     7
370
    15
100
AcDbCircle
 10
184.8023535284768
 20
283.3888435655135
 30
0.0
 40
0.1999999999999726
100
AcDbArc
 50
337.5000000000045
 51
67.50000000000451
  0
LINE
  5
4C47
330
1F
100
AcDbEntity
  8
0
  6
Continuous
 62
     7
370
    15
100
AcDbLine
 10
184.8788903338393
 20
283.5736191365756
 30
0.0
 11
179.1508369391342
 21
285.946256527666
 31
0.0
  0
ARC
  5
4C48
330
1F
100
AcDbEntity
  8
0
  6
Continuous
 62
     7
370
    15
100
AcDbCircle
 10
179.0743004269069
 20
285.7614808461771
 30
0.0
 40
0.2000000000000468
100
AcDbArc
 50
67.49999999999724
 51
157.4999999999912
  0
LINE
  5
4C49
330
1F
100
AcDbEntity
  8
0
  6
Continuous
 62
     7
370
    15
100
AcDbLine
 10
178.8895245885034
 20
285.8380172867216
 30
0.0
 11
177.7414739375492
 21
283.0663780216016
 31
0.0
  0
ARC
  5
4C4A
330
1F
100
AcDbEntity
  8
0
  6
Continuous
 62
     7
370
    15
100
AcDbCircle
 10
177.9262501298115
 20
282.9898422486433
 30
0.0
 40
0.2000000000000097
100
AcDbArc
 50
157.5000000000015
 51
247.5000000000052
  0
LINE
  5
4C4B
330
1F
100
AcDbEntity
  8
0
  6
Continuous
 62
     7
370
    15
100
AcDbLine
 10
177.8497131784936
 20
282.8050656709709
 30
0.0
 11
178.0806830396434
 21
282.7093946281709
 31
0.0
  0
ARC
  5
4C4C
330
1F
100
AcDbEntity
  8
0
  6
Continuous
 62
     7
370
    15
100
AcDbCircle
 10
178.0041466399934
 20
282.5246195775475
 30
0.0
 40
0.2000000000000097
100
AcDbArc
 50
337.5000000000045
 51
67.50000000000088
  0
LINE
  5
4C4D
330
1F
100
AcDbEntity
  8
0
  6
Continuous
 62
     7
370
    15
100
AcDbLine
 10
178.1889222805878
 20
282.4480822775401
 30
0.0
 11
176.4286574219843
 21
278.1984275672473
 31
0.0
  0
ARC
  5
4C4E
330
1F
100
AcDbEntity
  8
0
  6
Continuous
 62
     7
370
    15
100
AcDbCircle
 10
175.9667180812342
 20
278.3897696975507
 30
0.0
 40
0.5
100
AcDbArc
 50
270.0
 51
337.500000000003
  0
LINE
  5
4C4F
330
1F
100
AcDbEntity
  8
0
  6
Continuous
 62
     7
370
    15
100
AcDbLine
 10
175.9667176996847
 20
277.8897705022134
 30
0.0
 11
172.4031655361434
 21
277.8897705022134
 31
0.0
  0
ARC
  5
4C50
330
1F
100
AcDbEntity
  8
0
  6
Continuous
 62
     7
370
    15
100
AcDbCircle
 10
172.4031654467364
 20
284.8897696975507
 30
0.0
 40
7.0
100
AcDbArc
 50
179.9999999999984
 51
270.0
  0
LINE
  5
4C51
330
1F
100
AcDbEntity
  8
0
  6
Continuous
 62
     7
370
    15
100
AcDbLine
 10
165.4031662513991
 20
284.8897697869578
 30
0.0
 11
165.4031662513992
 21
317.8897696081439
 31
0.0
  0
ARC
  5
4C52
330
1F
100
AcDbEntity
  8
0
  6
Continuous
 62
     7
370
    15
100
AcDbCircle
 10
172.4031654467365
 20
317.8897696975508
 30
0.0
 40
7.000000000000014
100
AcDbArc
 50
90.0
 51
179.9999999999984
  0
LINE
  5
4C53
330
1F
100
AcDbEntity
  8
0
  6
Continuous
 62
     7
370
    15
100
AcDbLine
 10
172.4031655361435
 20
324.8897688928881
 30
0.0
 11
175.9667176996848
 21
324.8897688928881
 31
0.0
  0
ARC
  5
4C54
330
1F
100
AcDbEntity
  8
0
  6
Continuous
 62
     7
370
    15
100
AcDbCircle
 10
175.9667180812343
 20
324.3897696975507
 30
0.0
 40
0.5000000000000167
100
AcDbArc
 50
22.50000000000001
 51
90.0
  0
LINE
  5
4C55
330
1F
100
AcDbEntity
  8
0
  6
Continuous
 62
     7
370
    15
100
AcDbLine
 10
176.4286574219844
 20
324.5811118278542
 30
0.0
 11
178.1889222805879
 21
320.3314571175614
 31
0.0
  0
ARC
  5
4C56
330
1F
100
AcDbEntity
  8
0
  6
Continuous
 62
     7
370
    15
100
AcDbCircle
 10
178.0041466399935
 20
320.2549198175541
 30
0.0
 40
0.200000000000036
100
AcDbArc
 50
292.5000000000058
 51
22.499999999997
  0
LINE
  5
4C57
330
1F
100
AcDbEntity
  8
0
  6
Continuous
 62
     7
370
    15
100
AcDbLine
 10
178.0806830396435
 20
320.0701447669306
 30
0.0
 11
177.8497131784937
 21
319.9744737241307
 31
0.0
  0
ARC
  5
4C58
330
1F
100
AcDbEntity
  8
0
  6
Continuous
 62
     7
370
    15
100
AcDbCircle
 10
177.9262501298117
 20
319.7896971464583
 30
0.0
 40
0.1999999999999572
100
AcDbArc
 50
112.5000000000057
 51
202.5000000000058
  0
LINE
  5
4C59
330
1F
100
AcDbEntity
  8
0
  6
Continuous
 62
     7
370
    15
100
AcDbLine
 10
177.7414739375493
 20
319.7131613734999
 30
0.0
 11
178.8895245885036
 21
316.9415221083799
 31
0.0
  0
ARC
  5
4C5A
330
1F
100
AcDbEntity
  8
0
  6
Continuous
 62
     7
370
    15
100
AcDbCircle
 10
179.074300426907
 20
317.0180585489245
 30
0.0
 40
0.2000000000000468
100
AcDbArc
 50
202.5000000000073
 51
292.5000000000058
  0
LINE
  5
4C5B
330
1F
100
AcDbEntity
  8
0
  6
Continuous
 62
     7
370
    15
100
AcDbLine
 10
179.1508369391343
 20
316.8332828674355
 30
0.0
 11
184.8788903338394
 21
319.2059202585258
 31
0.0
  0
ARC
  5
4C5C
330
1F
100
AcDbEntity
  8
0
  6
Continuous
 62
     7
370
    15
100
AcDbCircle
 10
184.8023535284769
 20
319.3906958295879
 30
0.0
 40
0.2000000000000097
100
AcDbArc
 50
292.5000000000058
 51
22.49999999999851
  0
LINE
  5
4C5D
330
1F
100
AcDbEntity
  8
0
  6
Continuous
 62
     7
370
    15
100
AcDbLine
 10
184.9871295747838
 20
319.4672326091565
 30
0.0
 11
183.8390789238295
 21
322.238870942954
 31
0.0
  0
ARC
  5
4C5E
330
1F
100
AcDbEntity
  8
0
  6
Continuous
 62
     7
370
    15
100
AcDbCircle
 10
183.6543032313817
 20
322.1623344271218
 30
0.0
 40
0.2000000000000623
100
AcDbArc
 50
22.50000000000728
 51
112.4999999999918
  0
LINE
  5
4C5F
330
1F
100
AcDbEntity
  8
0
  6
Continuous
 62
     7
370
    15
100
AcDbLine
 10
183.5777665731987
 20
322.347111115221
 30
0.0
 11
183.346796712049
 21
322.251440072421
 31
0.0
  0
ARC
  5
4C60
330
1F
100
AcDbEntity
  8
0
  6
Continuous
 62
     7
370
    15
100
AcDbCircle
 10
183.2702599753078
 20
322.436215382035
 30
0.0
 40
0.1999999999999835
100
AcDbArc
 50
202.5000000000042
 51
292.5000000000058
  0
LINE
  5
4C61
330
1F
100
AcDbEntity
  8
0
  6
Continuous
 62
     7
370
    15
100
AcDbLine
 10
183.0854838957569
 20
322.3596783820428
 30
0.0
 11
182.3238492255589
 21
324.1984276566543
 31
0.0
  0
ARC
  5
4C62
330
1F
100
AcDbEntity
  8
0
  6
Continuous
 62
     7
370
    15
100
AcDbCircle
 10
182.7857889430764
 20
324.3897696975507
 30
0.0
 40
0.5
100
AcDbArc
 50
90.0
 51
202.5
  0
LINE
  5
4C63
330
1F
100
AcDbEntity
  8
0
  6
Continuous
 62
     7
370
    15
100
AcDbLine
 10
182.7857889478585
 20
324.889768892888
 30
0.0
 11
195.0205419456146
 21
324.889768892888
 31
0.0
  0
ARC
  5
4C64
330
1F
100
AcDbEntity
  8
0
  6
Continuous
 62
     7
370
    15
100
AcDbCircle
 10
195.0205419503968
 20
324.3897696975507
 30
0.0
 40
0.5
100
AcDbArc
 50
337.500000000003
 51
90.0
  0
LINE
  5
4C65
330
1F
100
AcDbEntity
  8
0
  6
Continuous
 62
     7
370
    15
100
AcDbLine
 10
195.4824816679141
 20
324.1984276566543
 30
0.0
 11
194.7208469977161
 21
322.3596783820428
 31
0.0
  0
ARC
  5
4C66
330
1F
100
AcDbEntity
  8
0
  6
Continuous
 62
     7
370
    15
100
AcDbCircle
 10
194.5360709181653
 20
322.436215382035
 30
0.0
 40
0.2000000000000097
100
AcDbArc
 50
247.4999999999978
 51
337.5000000000015
  0
LINE
  5
4C67
330
1F
100
AcDbEntity
  8
0
  6
Continuous
 62
     7
370
    15
100
AcDbLine
 10
194.4595341814241
 20
322.251440072421
 30
0.0
 11
194.2285643202743
 21
322.347111115221
 31
0.0
  0
ARC
  5
4C68
330
1F
100
AcDbEntity
  8
0
  6
Continuous
 62
     7
370
    15
100
AcDbCircle
 10
194.1520276620915
 20
322.1623344271216
 30
0.0
 40
0.2000000000000885
100
AcDbArc
 50
67.50000000000877
 51
157.4999999999927
  0
LINE
  5
4C69
330
1F
100
AcDbEntity
  8
0
  6
Continuous
 62
     7
370
    15
100
AcDbLine
 10
193.9672519696435
 20
322.238870942954
 30
0.0
 11
192.8192013186893
 21
319.4672326091565
 31
0.0
  0
ARC
  5
4C6A
330
1F
100
AcDbEntity
  8
0
  6
Continuous
 62
     7
370
    15
100
AcDbCircle
 10
193.0039773649962
 20
319.3906958295879
 30
0.0
 40
0.1999999999999726
100
AcDbArc
 50
157.5000000000045
 51
247.4999999999943
  0
ARC
  5
4C6B
330
1F
100
AcDbEntity
  8
0
  6
Continuous
 62
     7
370
    15
100
AcDbCircle
 10
198.7320304665662
 20
317.0180585489244
 30
0.0
 40
0.2000000000000731
100
AcDbArc
 50
247.5000000000015
 51
337.5000000000015
  0
LINE
  5
4C6C
330
1F
100
AcDbEntity
  8
0
  6
Continuous
 62
     7
370
    15
100
AcDbLine
 10
198.9168063049695
 20
316.9415221083798
 30
0.0
 11
200.0648569559238
 21
319.7131613734998
 31
0.0
  0
ARC
  5
4C6D
330
1F
100
AcDbEntity
  8
0
  6
Continuous
 62
     7
370
    15
100
AcDbCircle
 10
199.8800807636615
 20
319.7896971464583
 30
0.0
 40
0.1999999999999835
100
AcDbArc
 50
337.5
 51
67.49999999999786
  0
LINE
  5
4C6E
330
1F
100
AcDbEntity
  8
0
  6
Continuous
 62
     7
370
    15
100
AcDbLine
 10
199.9566177149794
 20
319.9744737241306
 30
0.0
 11
199.7256478538296
 21
320.0701447669305
 31
0.0
  0
ARC
  5
4C6F
330
1F
100
AcDbEntity
  8
0
  6
Continuous
 62
     7
370
    15
100
AcDbCircle
 10
199.8021842534797
 20
320.254919817554
 30
0.0
 40
0.2000000000000097
100
AcDbArc
 50
157.5000000000087
 51
247.5000000000015
  0
LINE
  5
4C70
330
1F
100
AcDbEntity
  8
0
  6
Continuous
 62
     7
370
    15
100
AcDbLine
 10
199.6174086128852
 20
320.3314571175613
 30
0.0
 11
201.3776734714888
 21
324.5811118278541
 31
0.0
  0
ARC
  5
4C71
330
1F
100
AcDbEntity
  8
0
  6
Continuous
 62
     7
370
    15
100
AcDbCircle
 10
201.8396128122389
 20
324.3897696975507
 30
0.0
 40
0.5000000000000285
100
AcDbArc
 50
90.0
 51
157.5
  0
LINE
  5
4C72
330
1F
100
AcDbEntity
  8
0
  6
Continuous
 62
     7
370
    15
100
AcDbLine
 10
201.8396131937884
 20
324.889768892888
 30
0.0
 11
205.4031653573297
 21
324.889768892888
 31
0.0
  0
ARC
  5
4C73
330
1F
100
AcDbEntity
  8
0
  6
Continuous
 62
     7
370
    15
100
AcDbCircle
 10
205.4031654467365
 20
317.8897696975507
 30
0.0
 40
7.000000000000028
100
AcDbArc
 50
0.0
 51
90.0
  0
LINE
  5
4C74
330
1F
100
AcDbEntity
  8
0
  6
Continuous
 62
     7
370
    15
100
AcDbLine
 10
212.4031646420739
 20
317.8897696081437
 30
0.0
 11
212.4031646420737
 21
284.8897697869576
 31
0.0
  0
ARC
  5
4C75
330
1F
100
AcDbEntity
  8
0
  6
Continuous
 62
     7
370
    15
100
AcDbCircle
 10
205.4031654467365
 20
284.8897696975507
 30
0.0
 40
7.0
100
AcDbArc
 50
270.0
 51
0.0
  0
LINE
  5
4C76
330
1F
100
AcDbEntity
  8
0
  6
Continuous
 62
     7
370
    15
100
AcDbLine
 10
205.4031653573295
 20
277.8897705022134
 30
0.0
 11
201.8396131937882
 21
277.8897705022134
 31
0.0
  0
ARC
  5
4C77
330
1F
100
AcDbEntity
  8
0
  6
Continuous
 62
     7
370
    15
100
AcDbCircle
 10
201.8396128122387
 20
278.3897696975507
 30
0.0
 40
0.5
100
AcDbArc
 50
202.5
 51
270.0
  0
LINE
  5
4C78
330
1F
100
AcDbEntity
  8
0
  6
Continuous
 62
     7
370
    15
100
AcDbLine
 10
201.3776734714886
 20
278.1984275672473
 30
0.0
 11
199.6174086128851
 21
282.4480822775401
 31
0.0
  0
ARC
  5
4C79
330
1F
100
AcDbEntity
  8
0
  6
Continuous
 62
     7
370
    15
100
AcDbCircle
 10
199.8021842534796
 20
282.5246195775473
 30
0.0
 40
0.200000000000036
100
AcDbArc
 50
112.4999999999955
 51
202.499999999997
  0
LINE
  5
4C7A
330
1F
100
AcDbEntity
  8
0
  6
Continuous
 62
     7
370
    15
100
AcDbLine
 10
199.7256478538295
 20
282.7093946281709
 30
0.0
 11
199.9566177149793
 21
282.8050656709709
 31
0.0
  0
ARC
  5
4C7B
330
1F
100
AcDbEntity
  8
0
  6
Continuous
 62
     7
370
    15
100
AcDbCircle
 10
199.8800807636614
 20
282.9898422486432
 30
0.0
 40
0.1999999999999835
100
AcDbArc
 50
292.5000000000022
 51
22.49999999999851
  0
LINE
  5
4C7C
330
1F
100
AcDbEntity
  8
0
  6
Continuous
 62
     7
370
    15
100
AcDbLine
 10
200.0648569559237
 20
283.0663780216016
 30
0.0
 11
198.9168063049694
 21
285.8380172867216
 31
0.0
  0
ARC
  5
4C7D
330
1F
100
AcDbEntity
  8
0
  6
Continuous
 62
     7
370
    15
100
AcDbCircle
 10
198.7320304665661
 20
285.7614808461769
 30
0.0
 40
0.2000000000000862
100
AcDbArc
 50
22.50000000000878
 51
112.4999999999985
  0
LINE
  5
4C7E
330
1F
100
AcDbEntity
  8
0
  6
Continuous
 62
     7
370
    15
100
AcDbLine
 10
198.6554939543386
 20
285.946256527666
 30
0.0
 11
192.9274405596336
 21
283.5736191365756
 31
0.0
  0
ARC
  5
4C7F
330
1F
100
AcDbEntity
  8
0
  6
Continuous
 62
     7
370
    15
100
AcDbCircle
 10
193.003977364996
 20
283.3888435655135
 30
0.0
 40
0.1999999999999966
100
AcDbArc
 50
112.5000000000021
 51
202.4999999999985
  0
LINE
  5
4C80
330
1F
100
AcDbEntity
  8
0
  6
Continuous
 62
     7
370
    15
100
AcDbLine
 10
192.8192013186892
 20
283.3123067859449
 30
0.0
 11
193.9672519696434
 21
280.5406684521474
 31
0.0
  0
ARC
  5
4C81
330
1F
100
AcDbEntity
  8
0
  6
Continuous
 62
     7
370
    15
100
AcDbCircle
 10
194.1520276620914
 20
280.6172049679797
 30
0.0
 40
0.2000000000000491
100
AcDbArc
 50
202.5000000000115
 51
292.4999999999955
  0
LINE
  5
4C82
330
1F
100
AcDbEntity
  8
0
  6
Continuous
 62
     7
370
    15
100
AcDbLine
 10
194.2285643202742
 20
280.4324282798805
 30
0.0
 11
194.459534181424
 21
280.5280993226804
 31
0.0
  0
ARC
  5
4C83
330
1F
100
AcDbEntity
  8
0
  6
Continuous
 62
     7
370
    15
100
AcDbCircle
 10
194.5360709181652
 20
280.3433240130664
 30
0.0
 40
0.2000000000000097
100
AcDbArc
 50
22.49999999999851
 51
112.5000000000027
  0
LINE
  5
4C84
330
1F
100
AcDbEntity
  8
0
  6
Continuous
 62
     7
370
    15
100
AcDbLine
 10
194.720846997716
 20
280.4198610130586
 30
0.0
 11
195.482481667914
 21
278.5811117384471
 31
0.0
  0
ARC
  5
4C85
330
1F
100
AcDbEntity
  8
0
  6
Continuous
 62
     7
370
    15
100
AcDbCircle
 10
195.0205419503966
 20
278.3897696975507
 30
0.0
 40
0.5
100
AcDbArc
 50
270.0
 51
22.49999999999851
  0
CIRCLE
  5
4C86
330
1F
100
AcDbEntity
  8
0
  6
Continuous
 62
     7
370
    15
100
AcDbCircle
 10
172.6531654467364
 20
285.1397696975507
 30
0.0
 40
2.458500000002459
  0
CIRCLE
  5
4C87
330
1F
100
AcDbEntity
  8
0
  6
Continuous
 62
     7
370
    15
100
AcDbCircle
 10
172.6531654467365
 20
317.6397696975508
 30
0.0
 40
2.45850000000243
  0
CIRCLE
  5
4C88
330
1F
100
AcDbEntity
  8
0
  6
Continuous
 62
     7
370
    15
100
AcDbCircle
 10
205.1531654467364
 20
285.1397696975507
 30
0.0
 40
2.458499999975174
  0
CIRCLE
  5
4C89
330
1F
100
AcDbEntity
  8
0
  6
Continuous
 62
     7
370
    15
100
AcDbCircle
 10
205.1531654467365
 20
317.6397696975507
 30
0.0
 40
2.458499999975174
  0
CIRCLE
  5
4C8A
330
1F
100
AcDbEntity
  8
0
  6
Continuous
 62
     7
370
    15
100
AcDbCircle
 10
188.9031654467365
 20
301.3897696975507
 30
0.0
 40
4.400500000031129
  0
ARC
  5
4C8B
330
1F
100
AcDbEntity
  8
0
  6
Continuous
 62
     7
370
    15
100
AcDbCircle
 10
188.9031654467365
 20
301.3897696975507
 30
0.0
 40
5.249999999993244
100
AcDbArc
 50
107.7527901615301
 51
252.2472098382855
  0
LINE
  5
4C8C
330
1F
100
AcDbEntity
  8
0
  6
Continuous
 62
     7
370
    15
100
AcDbLine
 10
190.5039465531266
 20
306.389769585792
 30
0.0
 11
187.3023843403465
 21
306.389769585792
 31
0.0
  0
ARC
  5
4C8D
330
1F
100
AcDbEntity
  8
0
  6
Continuous
 62
     7
370
    15
100
AcDbCircle
 10
188.9031654467365
 20
301.3897696975507
 30
0.0
 40
5.249999999987855
100
AcDbArc
 50
287.7527901615333
 51
72.24720983846676
  0
LINE
  5
4C8E
330
1F
100
AcDbEntity
  8
0
  6
Continuous
 62
     7
370
    15
100
AcDbLine
 10
187.3023843403465
 20
296.3897698093094
 30
0.0
 11
190.5039465531266
 21
296.3897698093094
 31
0.0
  0
CIRCLE
  5
4C8F
330
1F
100
AcDbEntity
  8
0
  6
Continuous
 62
     7
370
    15
100
AcDbCircle
 10
188.9031654467365
 20
301.3897696975507
 30
0.0
 40
3.400499999997919
  0
SPLINE
  5
4C90
330
1F
100
AcDbEntity
  8
0
  6
Continuous
 62
     7
370
    15
100
AcDbSpline
210
0.0
220
0.0
230
1.0
 70
    24
 71
     3
 72
    10
 73
     6
 74
     0
 42
0.0000000001
 43
0.0000000001
 40
0.0
 40
0.0
 40
0.0
 40
0.0
 40
0.4958470460278132
 40
0.748008037330366
 40
1.0
 40
1.0
 40
1.0
 40
1.0
 10
185.5865406581691
 20
296.3897698093094
 30
0.0
 10
185.8500461860059
 20
296.3897698093094
 30
0.0
 10
186.2475563744439
 20
296.3897698093094
 30
0.0
 10
186.8296734936976
 20
296.3897698093094
 30
0.0
 10
187.1448492813907
 20
296.3897698093094
 30
0.0
 10
187.3023843403465
 20
296.3897698093094
 30
0.0
  0
ARC
  5
4C91
330
1F
100
AcDbEntity
  8
0
  6
Continuous
 62
     7
370
    15
100
AcDbCircle
 10
188.9031654467365
 20
301.3897696975507
 30
0.0
 40
5.99999999999911
100
AcDbArc
 50
123.5573097619076
 51
236.4426902380924
  0
SPLINE
  5
4C92
330
1F
100
AcDbEntity
  8
0
  6
Continuous
 62
     7
370
    15
100
AcDbSpline
210
0.0
220
0.0
230
1.0
 70
    24
 71
     3
 72
     9
 73
     5
 74
     0
 42
0.0000000001
 43
0.0000000001
 40
0.0
 40
0.0
 40
0.0
 40
0.0
 40
0.4944687188728356
 40
1.0
 40
1.0
 40
1.0
 40
1.0
 10
187.3023843403465
 20
306.389769585792
 30
0.0
 10
186.9976905094421
 20
306.389769585792
 30
0.0
 10
186.3814860474104
 20
306.389769585792
 30
0.0
 10
185.853469526461
 20
306.389769585792
 30
0.0
 10
185.5865406581691
 20
306.389769585792
 30
0.0
  0
ARC
  5
4C93
330
1F
100
AcDbEntity
  8
0
  6
Continuous
 62
     7
370
    15
100
AcDbCircle
 10
188.9031654467365
 20
301.3897696975507
 30
0.0
 40
5.999999999999118
100
AcDbArc
 50
303.5573097619076
 51
56.44269023812042
  0
SPLINE
  5
4C94
330
1F
100
AcDbEntity
  8
0
  6
Continuous
 62
     7
370
    15
100
AcDbSpline
210
0.0
220
0.0
230
1.0
 70
    24
 71
     3
 72
    10
 73
     6
 74
     0
 42
0.0000000001
 43
0.0000000001
 40
0.0
 40
0.0
 40
0.0
 40
0.0
 40
0.4958470460278132
 40
0.748008037330366
 40
1.0
 40
1.0
 40
1.0
 40
1.0
 10
192.2197902353039
 20
306.389769585792
 30
0.0
 10
191.9562847074671
 20
306.389769585792
 30
0.0
 10
191.5587745190291
 20
306.389769585792
 30
0.0
 10
190.9766573997755
 20
306.389769585792
 30
0.0
 10
190.6614816120823
 20
306.389769585792
 30
0.0
 10
190.5039465531266
 20
306.389769585792
 30
0.0
  0
SPLINE
  5
4C95
330
1F
100
AcDbEntity
  8
0
  6
Continuous
 62
     7
370
    15
100
AcDbSpline
210
0.0
220
0.0
230
1.0
 70
    24
 71
     3
 72
     9
 73
     5
 74
     0
 42
0.0000000001
 43
0.0000000001
 40
0.0
 40
0.0
 40
0.0
 40
0.0
 40
0.4944687188728356
 40
1.0
 40
1.0
 40
1.0
 40
1.0
 10
190.5039465531266
 20
296.3897698093094
 30
0.0
 10
190.8086403840311
 20
296.3897698093094
 30
0.0
 10
191.4248448460626
 20
296.3897698093094
 30
0.0
 10
191.9528613670121
 20
296.3897698093094
 30
0.0
 10
192.2197902353039
 20
296.3897698093094
 30
0.0
  0
ARC
  5
4C96
330
1F
100
AcDbEntity
  8
0
  6
Continuous
 62
     7
370
    15
100
AcDbCircle
 10
188.9031654467365
 20
301.3897696975507
 30
0.0
 40
6.000000000000046
100
AcDbArc
 50
236.4426902380807
 51
303.5573097619221
  0
ARC
  5
4C97
330
1F
100
AcDbEntity
  8
0
  6
Continuous
 62
     7
370
    15
100
AcDbCircle
 10
188.9031654467365
 20
301.3897696975507
 30
0.0
 40
6.000000000000018
100
AcDbArc
 50
56.44269023807796
 51
123.557309761922
  0
LINE
  5
4C98
330
1F
100
AcDbEntity
  8
0
  6
Continuous
 62
     7
370
    15
100
AcDbLine
 10
171.9031645228645
 20
310.5057953391114
 30
0.0
 11
170.4031652083179
 21
311.3718200940529
 31
0.0
  0
LINE
  5
4C99
330
1F
100
AcDbEntity
  8
0
  6
Continuous
 62
     7
370
    15
100
AcDbLine
 10
168.9031658937714
 20
310.5057953391114
 30
0.0
 11
170.4031652083179
 21
311.3718200940529
 31
0.0
  0
LINE
  5
4C9A
330
1F
100
AcDbEntity
  8
0
  6
Continuous
 62
     7
370
    15
100
AcDbLine
 10
168.9031658937714
 20
308.7737444322446
 30
0.0
 11
168.9031658937714
 21
310.5057953391114
 31
0.0
  0
LINE
  5
4C9B
330
1F
100
AcDbEntity
  8
0
  6
Continuous
 62
     7
370
    15
100
AcDbLine
 10
170.4031652083179
 20
307.9077187459806
 30
0.0
 11
168.9031658937714
 21
308.7737444322446
 31
0.0
  0
LINE
  5
4C9C
330
1F
100
AcDbEntity
  8
0
  6
Continuous
 62
     7
370
    15
100
AcDbLine
 10
171.9031645228645
 20
308.7737444322446
 30
0.0
 11
170.4031652083179
 21
307.9077187459806
 31
0.0
  0
LINE
  5
4C9D
330
1F
100
AcDbEntity
  8
0
  6
Continuous
 62
     7
370
    15
100
AcDbLine
 10
171.9031645228645
 20
310.5057953391114
 30
0.0
 11
171.9031645228645
 21
308.7737444322446
 31
0.0
  0
CIRCLE
  5
4C9E
330
1F
100
AcDbEntity
  8
0
  6
Continuous
 62
     7
370
    15
100
AcDbCircle
 10
170.4031654467365
 20
309.6397696975508
 30
0.0
 40
3.500000000000014
  0
LINE
  5
4C9F
330
1F
100
AcDbEntity
  8
0
  6
Continuous
 62
     7
370
    15
100
AcDbLine
 10
171.9031645228645
 20
294.0057949628569
 30
0.0
 11
170.4031652083179
 21
294.871820649121
 31
0.0
  0
LINE
  5
4CA0
330
1F
100
AcDbEntity
  8
0
  6
Continuous
 62
     7
370
    15
100
AcDbLine
 10
168.9031658937714
 20
294.005794962857
 30
0.0
 11
170.4031652083179
 21
294.871820649121
 31
0.0
  0
LINE
  5
4CA1
330
1F
100
AcDbEntity
  8
0
  6
Continuous
 62
     7
370
    15
100
AcDbLine
 10
168.9031658937714
 20
292.2737440559902
 30
0.0
 11
168.9031658937714
 21
294.005794962857
 31
0.0
  0
LINE
  5
4CA2
330
1F
100
AcDbEntity
  8
0
  6
Continuous
 62
     7
370
    15
100
AcDbLine
 10
170.4031652083179
 20
291.4077193010488
 30
0.0
 11
168.9031658937714
 21
292.2737440559902
 31
0.0
  0
LINE
  5
4CA3
330
1F
100
AcDbEntity
  8
0
  6
Continuous
 62
     7
370
    15
100
AcDbLine
 10
171.9031645228645
 20
292.2737440559902
 30
0.0
 11
170.4031652083179
 21
291.4077193010488
 31
0.0
  0
LINE
  5
4CA4
330
1F
100
AcDbEntity
  8
0
  6
Continuous
 62
     7
370
    15
100
AcDbLine
 10
171.9031645228645
 20
294.0057949628569
 30
0.0
 11
171.9031645228645
 21
292.2737440559902
 31
0.0
  0
CIRCLE
  5
4CA5
330
1F
100
AcDbEntity
  8
0
  6
Continuous
 62
     7
370
    15
100
AcDbCircle
 10
170.4031654467364
 20
293.1397696975508
 30
0.0
 40
3.500000000000014
  0
LINE
  5
4CA6
330
1F
100
AcDbEntity
  8
0
  6
Continuous
 62
     7
370
    15
100
AcDbLine
 10
208.9031649997017
 20
294.0057949628569
 30
0.0
 11
207.4031656851551
 21
294.8718206491209
 31
0.0
  0
LINE
  5
4CA7
330
1F
100
AcDbEntity
  8
0
  6
Continuous
 62
     7
370
    15
100
AcDbLine
 10
205.9031663706086
 20
294.0057949628569
 30
0.0
 11
207.4031656851551
 21
294.8718206491209
 31
0.0
  0
LINE
  5
4CA8
330
1F
100
AcDbEntity
  8
0
  6
Continuous
 62
     7
370
    15
100
AcDbLine
 10
205.9031663706086
 20
292.2737440559902
 30
0.0
 11
205.9031663706086
 21
294.0057949628569
 31
0.0
  0
LINE
  5
4CA9
330
1F
100
AcDbEntity
  8
0
  6
Continuous
 62
     7
370
    15
100
AcDbLine
 10
207.4031656851551
 20
291.4077193010486
 30
0.0
 11
205.9031663706086
 21
292.2737440559902
 31
0.0
  0
LINE
  5
4CAA
330
1F
100
AcDbEntity
  8
0
  6
Continuous
 62
     7
370
    15
100
AcDbLine
 10
208.9031649997017
 20
292.2737440559901
 30
0.0
 11
207.4031656851551
 21
291.4077193010486
 31
0.0
  0
LINE
  5
4CAB
330
1F
100
AcDbEntity
  8
0
  6
Continuous
 62
     7
370
    15
100
AcDbLine
 10
208.9031649997017
 20
294.0057949628569
 30
0.0
 11
208.9031649997017
 21
292.2737440559901
 31
0.0
  0
CIRCLE
  5
4CAC
330
1F
100
AcDbEntity
  8
0
  6
Continuous
 62
     7
370
    15
100
AcDbCircle
 10
207.4031654467365
 20
293.1397696975507
 30
0.0
 40
3.5
  0
LINE
  5
4CAD
330
1F
100
AcDbEntity
  8
0
  6
Continuous
 62
     7
370
    15
100
AcDbLine
 10
208.9031649997017
 20
310.5057953391113
 30
0.0
 11
207.4031656851551
 21
311.3718200940527
 31
0.0
  0
LINE
  5
4CAE
330
1F
100
AcDbEntity
  8
0
  6
Continuous
 62
     7
370
    15
100
AcDbLine
 10
205.9031663706086
 20
310.5057953391113
 30
0.0
 11
207.4031656851551
 21
311.3718200940527
 31
0.0
  0
LINE
  5
4CAF
330
1F
100
AcDbEntity
  8
0
  6
Continuous
 62
     7
370
    15
100
AcDbLine
 10
205.9031663706086
 20
308.7737444322444
 30
0.0
 11
205.9031663706086
 21
310.5057953391113
 31
0.0
  0
LINE
  5
4CB0
330
1F
100
AcDbEntity
  8
0
  6
Continuous
 62
     7
370
    15
100
AcDbLine
 10
207.4031656851551
 20
307.9077187459804
 30
0.0
 11
205.9031663706086
 21
308.7737444322444
 31
0.0
  0
LINE
  5
4CB1
330
1F
100
AcDbEntity
  8
0
  6
Continuous
 62
     7
370
    15
100
AcDbLine
 10
208.9031649997017
 20
308.7737444322444
 30
0.0
 11
207.4031656851551
 21
307.9077187459804
 31
0.0
  0
LINE
  5
4CB2
330
1F
100
AcDbEntity
  8
0
  6
Continuous
 62
     7
370
    15
100
AcDbLine
 10
208.9031649997017
 20
310.5057953391113
 30
0.0
 11
208.9031649997017
 21
308.7737444322444
 31
0.0
  0
CIRCLE
  5
4CB3
330
1F
100
AcDbEntity
  8
0
  6
Continuous
 62
     7
370
    15
100
AcDbCircle
 10
207.4031654467365
 20
309.6397696975507
 30
0.0
 40
3.5
  0
TEXT
  5
511C
330
1F
100
AcDbEntity
  8
0
100
AcDbText
 10
7.838788540737937
 20
479.1072624624538
 30
0.0
 40
4.0
  1
Stroke=5
  7
CHINESET
100
AcDbText
  0
TEXT
  5
511D
330
1F
100
AcDbEntity
  8
0
100
AcDbText
 10
7.838788540737933
 20
351.1959586141224
 30
0.0
 40
4.0
  1
Stroke=5
  7
CHINESET
100
AcDbText
  0
DIMENSION
  5
511F
330
1F
100
AcDbEntity
  8
DIM
100
AcDbDimension
  2
*D5
 10
86.65572549003593
 20
461.3807161118097
 30
0.0
 11
82.90572549003593
 21
463.3807161118097
 31
0.0
 70
    32
 71
     5
 42
7.5
  3
AM_ANSI
100
AcDbAlignedDimension
 13
79.15572549003593
 23
455.6246156243632
 33
0.0
 14
86.65572549003593
 24
438.4844943054893
 34
0.0
100
AcDbRotatedDimension
1001
ACAD
1000
DSTYLE
1002
{
1070
    41
1040
2.0
1070
    42
1040
1.5
1070
    43
1040
8.0
1070
    44
1040
1.5
1070
    73
1070
     0
1070
    74
1070
     0
1070
    77
1070
     3
1070
   140
1040
2.0
1070
   141
1040
3.0
1070
   146
1040
0.6
1070
   147
1040
1.0
1070
   172
1070
     1
1070
   178
1070
   256
1070
   272
1070
     8
1070
   274
1070
     2
1070
   340
1005
375C
1002
}
  0
DIMENSION
  5
5120
330
1F
100
AcDbEntity
  8
DIM
100
AcDbDimension
  2
*D6
 10
128.155724208536
 20
461.7061924684393
 30
0.0
 11
124.405724849286
 21
463.7061924684393
 31
0.0
 70
    32
 71
     5
 42
7.499998718500137
  3
AM_ANSI
100
AcDbAlignedDimension
 13
120.6557254900359
 23
438.4844943054893
 33
0.0
 14
128.155724208536
 24
455.624615624363
 34
0.0
100
AcDbRotatedDimension
1001
ACAD
1000
DSTYLE
1002
{
1070
    41
1040
2.0
1070
    42
1040
1.5
1070
    43
1040
8.0
1070
    44
1040
1.5
1070
    73
1070
     0
1070
    74
1070
     0
1070
    77
1070
     3
1070
   140
1040
2.0
1070
   141
1040
3.0
1070
   146
1040
0.6
1070
   147
1040
1.0
1070
   172
1070
     1
1070
   178
1070
   256
1070
   272
1070
     8
1070
   274
1070
     2
1070
   340
1005
375C
1002
}
  0
DIMENSION
  5
5121
330
1F
100
AcDbEntity
  8
DIM
100
AcDbDimension
  2
*D7
 10
128.1557242085362
 20
473.3623541162558
 30
0.0
 11
103.6557248492861
 21
475.3623541162559
 31
0.0
 70
    32
  1
44+stroke=<>
 71
     5
 42
48.99999871850013
  3
AM_ANSI
100
AcDbAlignedDimension
 13
79.15572549003605
 23
455.6246156243632
 33
0.0
 14
128.1557242085362
 24
455.6246156243629
 34
0.0
100
AcDbRotatedDimension
1001
ACAD
1000
DSTYLE
1002
{
1070
    41
1040
2.0
1070
    42
1040
1.5
1070
    43
1040
8.0
1070
    44
1040
1.5
1070
    73
1070
     0
1070
    74
1070
     0
1070
    77
1070
     3
1070
   140
1040
2.0
1070
   141
1040
3.0
1070
   146
1040
0.6
1070
   147
1040
1.0
1070
   172
1070
     1
1070
   178
1070
   256
1070
   272
1070
     8
1070
   274
1070
     2
1070
   340
1005
375C
1002
}
  0
DIMENSION
  5
5122
330
1F
100
AcDbEntity
  8
DIM
100
AcDbDimension
  2
*D8
 10
128.1557242085362
 20
479.5525195206373
 30
0.0
 11
90.65572458106514
 21
481.5525195206373
 31
0.0
 70
    32
  1
70+stroke=<>
 71
     5
 42
74.99999925494211
  3
AM_ANSI
100
AcDbAlignedDimension
 13
53.15572495359408
 23
436.1246166190157
 33
0.0
 14
128.1557242085362
 24
455.6246156243629
 34
0.0
100
AcDbRotatedDimension
1001
ACAD
1000
DSTYLE
1002
{
1070
    41
1040
2.0
1070
    42
1040
1.5
1070
    43
1040
8.0
1070
    44
1040
1.5
1070
    73
1070
     0
1070
    74
1070
     0
1070
    77
1070
     3
1070
   140
1040
2.0
1070
   141
1040
3.0
1070
   146
1040
0.6
1070
   147
1040
1.0
1070
   172
1070
     1
1070
   178
1070
   256
1070
   271
1070
     0
1070
   272
1070
     8
1070
   274
1070
     2
1070
   340
1005
375C
1002
}
  0
DIMENSION
  5
5127
330
1F
100
AcDbEntity
  8
DIM
100
AcDbDimension
  2
*D9
 10
79.15572549003593
 20
461.3807161118097
 30
0.0
 11
75.65572538200251
 21
463.3807161118097
 31
0.0
 70
    32
 71
     5
 42
7.000000216066851
  3
AM_ANSI
100
AcDbAlignedDimension
 13
72.15572527396908
 23
437.1246163172672
 33
0.0
 14
79.15572549003593
 24
455.6246156243632
 34
0.0
100
AcDbRotatedDimension
1001
ACAD
1000
DSTYLE
1002
{
1070
    41
1040
2.0
1070
    42
1040
1.5
1070
    43
1040
8.0
1070
    44
1040
1.5
1070
    73
1070
     0
1070
    74
1070
     0
1070
    77
1070
     3
1070
   140
1040
2.0
1070
   141
1040
3.0
1070
   146
1040
0.6
1070
   147
1040
1.0
1070
   172
1070
     1
1070
   178
1070
   256
1070
   272
1070
     8
1070
   274
1070
     2
1070
   340
1005
375C
1002
}
  0
DIMENSION
  5
512F
330
1F
100
AcDbEntity
  8
DIM
100
AcDbDimension
  2
*D10
 10
72.15572527396908
 20
461.3807161118097
 30
0.0
 11
62.65572511378158
 21
463.3807161118097
 31
0.0
 70
    32
 71
     5
 42
19.00000032037501
  3
AM_ANSI
100
AcDbAlignedDimension
 13
53.15572495359408
 23
436.1246166190157
 33
0.0
 14
72.15572527396908
 24
437.1246163172672
 34
0.0
100
AcDbRotatedDimension
1001
ACAD
1000
DSTYLE
1002
{
1070
    41
1040
2.0
1070
    42
1040
1.5
1070
    43
1040
8.0
1070
    44
1040
1.5
1070
    73
1070
     0
1070
    74
1070
     0
1070
    77
1070
     3
1070
   140
1040
2.0
1070
   141
1040
3.0
1070
   146
1040
0.6
1070
   147
1040
1.0
1070
   172
1070
     1
1070
   178
1070
   256
1070
   272
1070
     8
1070
   274
1070
     2
1070
   340
1005
375C
1002
}
  0
DIMENSION
  5
5130
330
1F
100
AcDbEntity
  8
DIM
100
AcDbDimension
  2
*D11
 10
93.15572592216961
 20
467.12101607814
 30
0.0
 11
86.15572570610277
 21
469.1210160781401
 31
0.0
 70
    32
 71
     5
 42
14.00000043213367
  3
AM_ANSI
100
AcDbAlignedDimension
 13
79.15572549003593
 23
455.6246156243632
 33
0.0
 14
93.15572592216961
 24
455.1246164737292
 34
0.0
100
AcDbRotatedDimension
1001
ACAD
1000
DSTYLE
1002
{
1070
    41
1040
2.0
1070
    42
1040
1.5
1070
    43
1040
8.0
1070
    44
1040
1.5
1070
    73
1070
     0
1070
    74
1070
     0
1070
    77
1070
     3
1070
   140
1040
2.0
1070
   141
1040
3.0
1070
   146
1040
0.6
1070
   147
1040
1.0
1070
   172
1070
     1
1070
   178
1070
   256
1070
   272
1070
     8
1070
   274
1070
     2
1070
   340
1005
375C
1002
}
  0
DIMENSION
  5
5131
330
1F
100
AcDbEntity
  8
DIM
100
AcDbDimension
  2
*D12
 10
128.155724208536
 20
467.12101607814
 30
0.0
 11
121.1557249237918
 21
469.12101607814
 31
0.0
 70
    32
 71
     5
 42
13.99999856948852
  3
AM_ANSI
100
AcDbAlignedDimension
 13
114.1557256390475
 23
455.624615624363
 33
0.0
 14
128.155724208536
 24
455.624615624363
 34
0.0
100
AcDbRotatedDimension
1001
ACAD
1000
DSTYLE
1002
{
1070
    41
1040
2.0
1070
    42
1040
1.5
1070
    43
1040
8.0
1070
    44
1040
1.5
1070
    73
1070
     0
1070
    74
1070
     0
1070
    77
1070
     3
1070
   140
1040
2.0
1070
   141
1040
3.0
1070
   146
1040
0.6
1070
   147
1040
1.0
1070
   172
1070
     1
1070
   178
1070
   256
1070
   272
1070
     8
1070
   274
1070
     2
1070
   340
1005
375C
1002
}
  0
SOLID
  5
5132
330
1F
100
AcDbEntity
  8
DIM
100
AcDbTrace
 10
56.40859301684867
 20
425.2397016884664
 30
0.0
 11
57.15572560924517
 21
427.1246165407846
 31
0.0
 12
55.83765482649659
 22
425.5839022509905
 32
0.0
 13
55.83765482649659
 23
425.5839022509905
 33
0.0
1001
ACAD
1000
DSTYLE
1002
{
1070
    41
1040
2.0
1070
    42
1040
1.5
1070
    43
1040
8.0
1070
    44
1040
1.5
1070
    73
1070
     0
1070
    74
1070
     0
1070
    77
1070
     3
1070
   140
1040
2.0
1070
   141
1040
3.0
1070
   146
1040
0.6
1070
   147
1040
1.0
1070
   172
1070
     1
1070
   178
1070
   256
1070
   272
1070
     2
1070
   274
1070
     2
1070
   340
1005
375C
1002
}
  0
LWPOLYLINE
  5
5133
330
1F
100
AcDbEntity
  8
DIM
100
AcDbPolyline
 90
        3
 70
     0
 43
0.0
 10
56.12312392167263
 20
425.4118019697284
 10
51.50163755935484
 20
417.7095380233318
 10
37.77519536912118
 20
417.7095380233318
1001
ACAD
1000
DSTYLE
1002
{
1070
    41
1040
2.0
1070
    42
1040
1.5
1070
    43
1040
8.0
1070
    44
1040
1.5
1070
    73
1070
     0
1070
    74
1070
     0
1070
    77
1070
     3
1070
   140
1040
2.0
1070
   141
1040
3.0
1070
   146
1040
0.6
1070
   147
1040
1.0
1070
   172
1070
     1
1070
   178
1070
   256
1070
   272
1070
     2
1070
   274
1070
     2
1070
   340
1005
375C
1002
}
  0
MTEXT
  5
5134
330
1F
100
AcDbEntity
  8
DIM
100
AcDbMText
 10
37.8292229365139
 20
420.6489410209045
 30
0.0
 40
2.0
 41
0.0
 71
     1
 72
     1
  1
M10*1.25
  7
dayus
 73
     1
 44
1.0
1001
ACAD
1000
MTEXTBEGIN
1070
    73
1070
     1
1070
    44
1040
1.0
1070
    74
1070
     0
1000
MTEXTEND
  0
SOLID
  5
5180
330
1F
100
AcDbEntity
  8
DIM
100
AcDbTrace
 10
126.1092095036501
 20
427.9707477428282
 30
0.0
 11
125.5272030360069
 21
429.9130092037887
 31
0.0
 12
126.7076723305754
 22
428.2644937031968
 32
0.0
 13
126.7076723305754
 23
428.2644937031968
 33
0.0
1001
ACAD
1000
DSTYLE
1002
{
1070
    41
1040
2.0
1070
    42
1040
1.5
1070
    43
1040
8.0
1070
    44
1040
1.5
1070
    73
1070
     0
1070
    74
1070
     0
1070
    77
1070
     2
1070
   140
1040
2.0
1070
   141
1040
3.0
1070
   146
1040
0.6
1070
   147
1040
1.0
1070
   172
1070
     1
1070
   178
1070
   256
1070
   272
1070
     2
1070
   274
1070
     2
1070
   340
1005
375C
1002
}
  0
LWPOLYLINE
  5
5181
330
1F
100
AcDbEntity
  8
DIM
100
AcDbPolyline
 90
        3
 70
     0
 43
0.0
 10
125.5272030360069
 20
429.9130092037887
 10
131.4465930491913
 20
419.2419148154877
 10
143.9204388492527
 20
419.2419148154877
1001
ACAD
1000
DSTYLE
1002
{
1070
    41
1040
2.0
1070
    42
1040
1.5
1070
    43
1040
8.0
1070
    44
1040
1.5
1070
    73
1070
     0
1070
    74
1070
     0
1070
    77
1070
     2
1070
   140
1040
2.0
1070
   141
1040
3.0
1070
   146
1040
0.6
1070
   147
1040
1.0
1070
   172
1070
     1
1070
   178
1070
   256
1070
   272
1070
     2
1070
   274
1070
     2
1070
   340
1005
375C
1002
}
  0
MTEXT
  5
5182
330
1F
100
AcDbEntity
  8
DIM
100
AcDbMText
 10
143.5529668465809
 20
419.9641774130723
 30
0.0
 40
2.0
 41
0.0
 71
     9
 72
     1
  1
2-G1/8
  7
dayus
 73
     1
 44
1.0
1001
ACAD
1000
MTEXTBEGIN
1070
    73
1070
     1
1070
    44
1040
1.0
1070
    74
1070
     0
1000
MTEXTEND
  0
LINE
  5
548B
330
1F
100
AcDbEntity
  8
CENTER
 48
0.8
100
AcDbLine
 10
86.65572549003579
 20
295.029891821087
 30
0.0
 11
86.65572549003579
 21
307.7496475740143
 31
0.0
  0
LINE
  5
548C
330
1F
100
AcDbEntity
  8
AM_7
  6
ACISOTGB
 62
     2
100
AcDbLine
 10
103.6516783661046
 20
328.9272534379606
 30
0.0
 11
103.6516783661046
 21
262.6033210475486
 31
0.0
1001
GENIUS_GENOBJ-N-CEN_13
1002
{
1000
OWNER
1000
GEN
1002
}
1001
GENIUS_GENODEF_13
1002
{
1000
HIER
1070
     0
1002
}
1002
{
1000
MANEDIT
1070
     0
1002
}
1002
{
1000
NOSEL
1070
     0
1002
}
1002
{
1000
BEHIND
1070
     0
1002
}
1002
{
1000
OTHER
1070
     0
1002
}
1002
{
1000
REACTOR
1002
}
1001
GENIUS_GENCEN_19
1002
{
1040
3.0
1002
}
  0
INSERT
  5
548D
330
1F
100
AcDbEntity
  8
0
100
AcDbBlockReference
  2
A$C1F6E6265
 10
103.651677901898
 20
263.7691403588064
 30
0.0
  0
LINE
  5
548E
330
1F
100
AcDbEntity
  8
CENTER
 48
1.3
100
AcDbLine
 10
63.0072053543623
 20
301.3897696975505
 30
0.0
 11
133.5139870112083
 21
301.3897696975505
 31
0.0
  0
LINE
  5
548F
330
1F
100
AcDbEntity
  8
CENTER
 48
1.3
100
AcDbLine
 10
50.33443939459115
 20
432.1246164290259
 30
0.0
 11
131.7264556669714
 21
432.1246164290257
 31
0.0
  0
LINE
  5
5490
330
1F
100
AcDbEntity
  8
AM_7
  6
ACISOTGB
 62
     2
100
AcDbLine
 10
104.7299739432997
 20
460.4632818798535
 30
0.0
 11
104.7299739432997
 21
399.0572105716956
 31
0.0
1001
GENIUS_GENOBJ-N-CEN_13
1002
{
1000
OWNER
1000
GEN
1002
}
1001
GENIUS_GENODEF_13
1002
{
1000
HIER
1070
     0
1002
}
1002
{
1000
MANEDIT
1070
     0
1002
}
1002
{
1000
NOSEL
1070
     0
1002
}
1002
{
1000
BEHIND
1070
     0
1002
}
1002
{
1000
OTHER
1070
     0
1002
}
1002
{
1000
REACTOR
1002
}
1001
GENIUS_GENCEN_19
1002
{
1040
3.0
1002
}
  0
INSERT
  5
5491
330
1F
100
AcDbEntity
  8
0
100
AcDbBlockReference
  2
A$C1F6E6265
 10
104.7299734790932
 20
400.2230298829533
 30
0.0
  0
LINE
  5
5492
330
1F
100
AcDbEntity
  8
CENTER
 48
0.8
100
AcDbLine
 10
120.6557254900358
 20
295.029891821087
 30
0.0
 11
120.6557254900358
 21
307.7496475740143
 31
0.0
  0
LINE
  5
5493
330
1F
100
AcDbEntity
  8
CENTER
 48
0.8
100
AcDbLine
 10
86.65572549003593
 20
425.764738552562
 30
0.0
 11
86.65572549003593
 21
438.4844943054893
 31
0.0
  0
LINE
  5
5494
330
1F
100
AcDbEntity
  8
CENTER
 48
0.8
100
AcDbLine
 10
120.6557254900359
 20
425.764738552562
 30
0.0
 11
120.6557254900359
 21
438.4844943054893
 31
0.0
  0
LINE
  5
5495
330
1F
100
AcDbEntity
  8
0
  6
Continuous
 62
     7
370
    15
100
AcDbLine
 10
198.6554939543388
 20
316.8332828674355
 30
0.0
 11
192.9274405596338
 21
319.2059202585258
 31
0.0
  0
LINE
  5
5605
330
1F
100
AcDbEntity
  8
CENTER
 48
0.8
100
AcDbLine
 10
163.6264528217406
 20
432.1246164290174
 30
0.0
 11
214.179878071733
 21
432.1246164290174
 31
0.0
  0
LINE
  5
5606
330
1F
100
AcDbEntity
  8
CENTER
 48
0.8
100
AcDbLine
 10
188.9031654467368
 20
406.8479038040213
 30
0.0
 11
188.9031654467368
 21
457.4013290540136
 31
0.0
  0
ARC
  5
5609
330
1F
100
AcDbEntity
  8
0
 62
     3
100
AcDbCircle
 10
188.9031654467368
 20
432.1246164290174
 30
0.0
 40
4.537609523404516
100
AcDbArc
 50
350.0000000000014
 51
279.9999999999986
  0
LINE
  5
560A
330
1F
100
AcDbEntity
  8
CENTER
 48
0.8
100
AcDbLine
 10
205.1531654467367
 20
443.666713225267
 30
0.0
 11
205.1531654467367
 21
453.0825196327675
 31
0.0
  0
LINE
  5
560B
330
1F
100
AcDbEntity
  8
CENTER
 48
0.8
100
AcDbLine
 10
209.8610686504869
 20
448.3746164290172
 30
0.0
 11
200.4452622429865
 21
448.3746164290172
 31
0.0
  0
LINE
  5
560C
330
1F
100
AcDbEntity
  8
CENTER
 48
0.8
100
AcDbLine
 10
207.4031654467367
 20
435.666713225267
 30
0.0
 11
207.4031654467367
 21
445.0825196327675
 31
0.0
  0
LINE
  5
560D
330
1F
100
AcDbEntity
  8
CENTER
 48
0.8
100
AcDbLine
 10
212.1110686504869
 20
440.3746164290172
 30
0.0
 11
202.6952622429865
 21
440.3746164290172
 31
0.0
  0
LINE
  5
560E
330
1F
100
AcDbEntity
  8
CENTER
 48
0.8
100
AcDbLine
 10
207.4031654467367
 20
419.166713225267
 30
0.0
 11
207.4031654467367
 21
428.5825196327675
 31
0.0
  0
LINE
  5
560F
330
1F
100
AcDbEntity
  8
CENTER
 48
0.8
100
AcDbLine
 10
212.1110686504869
 20
423.8746164290172
 30
0.0
 11
202.6952622429865
 21
423.8746164290172
 31
0.0
  0
LINE
  5
5610
330
1F
100
AcDbEntity
  8
CENTER
 48
0.8
100
AcDbLine
 10
205.1531654467366
 20
411.166713225267
 30
0.0
 11
205.1531654467366
 21
420.5825196327674
 31
0.0
  0
LINE
  5
5611
330
1F
100
AcDbEntity
  8
CENTER
 48
0.8
100
AcDbLine
 10
209.8610686504868
 20
415.8746164290172
 30
0.0
 11
200.4452622429864
 21
415.8746164290172
 31
0.0
  0
LINE
  5
5612
330
1F
100
AcDbEntity
  8
CENTER
 48
0.8
100
AcDbLine
 10
172.6531654467366
 20
411.1667132252671
 30
0.0
 11
172.6531654467366
 21
420.5825196327676
 31
0.0
  0
LINE
  5
5613
330
1F
100
AcDbEntity
  8
CENTER
 48
0.8
100
AcDbLine
 10
177.3610686504868
 20
415.8746164290173
 30
0.0
 11
167.9452622429863
 21
415.8746164290173
 31
0.0
  0
LINE
  5
5614
330
1F
100
AcDbEntity
  8
CENTER
 48
0.8
100
AcDbLine
 10
170.4031654467367
 20
419.1667132252671
 30
0.0
 11
170.4031654467367
 21
428.5825196327676
 31
0.0
  0
LINE
  5
5615
330
1F
100
AcDbEntity
  8
CENTER
 48
0.8
100
AcDbLine
 10
175.1110686504869
 20
423.8746164290173
 30
0.0
 11
165.6952622429864
 21
423.8746164290173
 31
0.0
  0
LINE
  5
5616
330
1F
100
AcDbEntity
  8
CENTER
 48
0.8
100
AcDbLine
 10
170.4031654467367
 20
435.6667132252671
 30
0.0
 11
170.4031654467367
 21
445.0825196327676
 31
0.0
  0
LINE
  5
5617
330
1F
100
AcDbEntity
  8
CENTER
 48
0.8
100
AcDbLine
 10
175.1110686504869
 20
440.3746164290173
 30
0.0
 11
165.6952622429864
 21
440.3746164290173
 31
0.0
  0
LINE
  5
5618
330
1F
100
AcDbEntity
  8
CENTER
 48
0.8
100
AcDbLine
 10
172.6531654467367
 20
443.6667132252671
 30
0.0
 11
172.6531654467367
 21
453.0825196327675
 31
0.0
  0
LINE
  5
5619
330
1F
100
AcDbEntity
  8
CENTER
 48
0.8
100
AcDbLine
 10
177.3610686504869
 20
448.3746164290173
 30
0.0
 11
167.9452622429864
 21
448.3746164290173
 31
0.0
  0
LINE
  5
561A
330
1F
100
AcDbEntity
  8
CENTER
 48
0.8
100
AcDbLine
 10
205.1531654467365
 20
312.9318664938006
 30
0.0
 11
205.1531654467365
 21
322.347672901301
 31
0.0
  0
LINE
  5
561B
330
1F
100
AcDbEntity
  8
CENTER
 48
0.8
100
AcDbLine
 10
209.8610686504868
 20
317.6397696975507
 30
0.0
 11
200.4452622429863
 21
317.6397696975507
 31
0.0
  0
LINE
  5
561C
330
1F
100
AcDbEntity
  8
CENTER
 48
0.8
100
AcDbLine
 10
207.4031654467365
 20
304.9318664938005
 30
0.0
 11
207.4031654467365
 21
314.347672901301
 31
0.0
  0
LINE
  5
561D
330
1F
100
AcDbEntity
  8
CENTER
 48
0.8
100
AcDbLine
 10
212.1110686504868
 20
309.6397696975507
 30
0.0
 11
202.6952622429863
 21
309.6397696975507
 31
0.0
  0
LINE
  5
561E
330
1F
100
AcDbEntity
  8
CENTER
 48
0.8
100
AcDbLine
 10
172.6531654467365
 20
312.9318664938007
 30
0.0
 11
172.6531654467365
 21
322.3476729013011
 31
0.0
  0
LINE
  5
561F
330
1F
100
AcDbEntity
  8
CENTER
 48
0.8
100
AcDbLine
 10
177.3610686504867
 20
317.6397696975508
 30
0.0
 11
167.9452622429863
 21
317.6397696975508
 31
0.0
  0
LINE
  5
5620
330
1F
100
AcDbEntity
  8
CENTER
 48
0.8
100
AcDbLine
 10
207.4031654467365
 20
288.4318664938005
 30
0.0
 11
207.4031654467365
 21
297.847672901301
 31
0.0
  0
LINE
  5
5621
330
1F
100
AcDbEntity
  8
CENTER
 48
0.8
100
AcDbLine
 10
212.1110686504868
 20
293.1397696975507
 30
0.0
 11
202.6952622429863
 21
293.1397696975507
 31
0.0
  0
LINE
  5
5622
330
1F
100
AcDbEntity
  8
CENTER
 48
0.8
100
AcDbLine
 10
205.1531654467365
 20
280.4318664938005
 30
0.0
 11
205.1531654467365
 21
289.847672901301
 31
0.0
  0
LINE
  5
5623
330
1F
100
AcDbEntity
  8
CENTER
 48
0.8
100
AcDbLine
 10
209.8610686504868
 20
285.1397696975507
 30
0.0
 11
200.4452622429863
 21
285.1397696975507
 31
0.0
  0
LINE
  5
5624
330
1F
100
AcDbEntity
  8
CENTER
 48
0.8
100
AcDbLine
 10
172.6531654467364
 20
280.4318664938005
 30
0.0
 11
172.6531654467364
 21
289.847672901301
 31
0.0
  0
LINE
  5
5625
330
1F
100
AcDbEntity
  8
CENTER
 48
0.8
100
AcDbLine
 10
177.3610686504866
 20
285.1397696975507
 30
0.0
 11
167.9452622429862
 21
285.1397696975507
 31
0.0
  0
LINE
  5
5626
330
1F
100
AcDbEntity
  8
CENTER
 48
0.8
100
AcDbLine
 10
170.4031654467364
 20
288.4318664938006
 30
0.0
 11
170.4031654467364
 21
297.847672901301
 31
0.0
  0
LINE
  5
5627
330
1F
100
AcDbEntity
  8
CENTER
 48
0.8
100
AcDbLine
 10
175.1110686504866
 20
293.1397696975508
 30
0.0
 11
165.6952622429862
 21
293.1397696975508
 31
0.0
  0
LINE
  5
5628
330
1F
100
AcDbEntity
  8
CENTER
 48
0.8
100
AcDbLine
 10
170.4031654467365
 20
304.9318664938006
 30
0.0
 11
170.4031654467365
 21
314.3476729013011
 31
0.0
  0
LINE
  5
5629
330
1F
100
AcDbEntity
  8
CENTER
 48
0.8
100
AcDbLine
 10
175.1110686504867
 20
309.6397696975508
 30
0.0
 11
165.6952622429863
 21
309.6397696975508
 31
0.0
  0
LINE
  5
562A
330
1F
100
AcDbEntity
  8
CENTER
 48
0.8
100
AcDbLine
 10
163.6264528217403
 20
301.3897696975507
 30
0.0
 11
214.1798780717327
 21
301.3897696975507
 31
0.0
  0
LINE
  5
562B
330
1F
100
AcDbEntity
  8
CENTER
 48
0.8
100
AcDbLine
 10
188.9031654467365
 20
276.1130570725546
 30
0.0
 11
188.9031654467365
 21
326.6664823225469
 31
0.0
  0
ARC
  5
562C
330
1F
100
AcDbEntity
  8
0
 62
     3
100
AcDbCircle
 10
188.9031654467365
 20
301.3897696975507
 30
0.0
 40
3.82267795184881
100
AcDbArc
 50
350.0000000000014
 51
279.9999999999986
  0
ARC
  5
562E
330
1F
100
AcDbEntity
  8
0
 62
     3
100
AcDbCircle
 10
205.1531654467366
 20
317.6397696975508
 30
0.0
 40
2.747519414585374
100
AcDbArc
 50
350.0000000000014
 51
279.9999999999986
  0
ARC
  5
562F
330
1F
100
AcDbEntity
  8
0
 62
     3
100
AcDbCircle
 10
205.1531654467366
 20
285.1397696975507
 30
0.0
 40
2.747519414585374
100
AcDbArc
 50
350.0000000000014
 51
279.9999999999986
  0
ARC
  5
5630
330
1F
100
AcDbEntity
  8
0
 62
     3
100
AcDbCircle
 10
172.6531654467365
 20
285.1397696975508
 30
0.0
 40
2.747519414585374
100
AcDbArc
 50
350.0000000000014
 51
279.9999999999986
  0
ARC
  5
5631
330
1F
100
AcDbEntity
  8
0
 62
     3
100
AcDbCircle
 10
172.6531654467366
 20
317.6397696975509
 30
0.0
 40
2.747519414585374
100
AcDbArc
 50
350.0000000000014
 51
279.9999999999986
  0
ARC
  5
5632
330
1F
100
AcDbEntity
  8
0
 62
     3
100
AcDbCircle
 10
172.6531654467367
 20
448.3746164290174
 30
0.0
 40
2.747519414585374
100
AcDbArc
 50
350.0000000000014
 51
279.9999999999986
  0
ARC
  5
5633
330
1F
100
AcDbEntity
  8
0
 62
     3
100
AcDbCircle
 10
172.6531654467366
 20
415.8746164290174
 30
0.0
 40
2.747519414585374
100
AcDbArc
 50
350.0000000000014
 51
279.9999999999986
  0
ARC
  5
5634
330
1F
100
AcDbEntity
  8
0
 62
     3
100
AcDbCircle
 10
205.1531654467366
 20
415.8746164290173
 30
0.0
 40
2.747519414585374
100
AcDbArc
 50
350.0000000000014
 51
279.9999999999986
  0
ARC
  5
5635
330
1F
100
AcDbEntity
  8
0
 62
     3
100
AcDbCircle
 10
205.1531654467367
 20
448.3746164290173
 30
0.0
 40
2.747519414585374
100
AcDbArc
 50
350.0000000000014
 51
279.9999999999986
  0
ARC
  5
5636
330
1F
100
AcDbEntity
  8
0
 62
     3
100
AcDbCircle
 10
86.65572549003583
 20
301.3897696975507
 30
0.0
 40
4.861990868404272
100
AcDbArc
 50
350.0000000000014
 51
279.9999999999986
  0
ARC
  5
5637
330
1F
100
AcDbEntity
  8
0
 62
     3
100
AcDbCircle
 10
120.6557254900358
 20
301.3897696975505
 30
0.0
 40
4.861990868404272
100
AcDbArc
 50
350.0000000000014
 51
279.9999999999986
  0
ARC
  5
5638
330
1F
100
AcDbEntity
  8
0
 62
     3
100
AcDbCircle
 10
86.65572549003593
 20
432.1246164290257
 30
0.0
 40
4.861990868404272
100
AcDbArc
 50
350.0000000000014
 51
279.9999999999986
  0
ARC
  5
5639
330
1F
100
AcDbEntity
  8
0
 62
     3
100
AcDbCircle
 10
120.6557254900359
 20
432.1246164290257
 30
0.0
 40
4.861990868404272
100
AcDbArc
 50
350.0000000000014
 51
279.9999999999986
  0
DIMENSION
  5
563A
330
1F
100
AcDbEntity
  8
DIM
100
AcDbDimension
  2
*D13
 10
205.1531654467367
 20
466.7876827448067
 30
0.0
 11
188.9031654467367
 21
468.7876827448067
 31
0.0
 70
    32
  1
□<>
 71
     5
 42
32.5
  3
AM_ANSI
100
AcDbAlignedDimension
 13
172.6531654467367
 23
453.0825196327675
 33
0.0
 14
205.1531654467367
 24
453.0825196327675
 34
0.0
100
AcDbRotatedDimension
1001
ACAD
1000
DSTYLE
1002
{
1070
    41
1040
2.0
1070
    42
1040
1.5
1070
    43
1040
8.0
1070
    44
1040
1.5
1070
    73
1070
     0
1070
    74
1070
     0
1070
    77
1070
     3
1070
   140
1040
2.0
1070
   141
1040
3.0
1070
   146
1040
0.6
1070
   147
1040
1.0
1070
   172
1070
     1
1070
   178
1070
   256
1070
   272
1070
     8
1070
   274
1070
     2
1070
   340
1005
375C
1002
}
  0
DIMENSION
  5
563B
330
1F
100
AcDbEntity
  8
DIM
100
AcDbDimension
  2
*D14
 10
212.4031654467367
 20
473.3623541162558
 30
0.0
 11
188.903165849068
 21
475.3623541162559
 31
0.0
 70
    32
  1
□<>
 71
     5
 42
46.99999919533732
  3
AM_ANSI
100
AcDbAlignedDimension
 13
165.4031662513994
 23
448.6246163396104
 33
0.0
 14
212.4031654467367
 24
448.6246164290172
 34
0.0
100
AcDbRotatedDimension
1001
ACAD
1000
DSTYLE
1002
{
1070
    41
1040
2.0
1070
    42
1040
1.5
1070
    43
1040
8.0
1070
    44
1040
1.5
1070
    73
1070
     0
1070
    74
1070
     0
1070
    77
1070
     3
1070
   140
1040
2.0
1070
   141
1040
3.0
1070
   146
1040
0.6
1070
   147
1040
1.0
1070
   172
1070
     1
1070
   178
1070
   256
1070
   272
1070
     8
1070
   274
1070
     2
1070
   340
1005
375C
1002
}
  0
LEADER
  5
563C
330
1F
100
AcDbEntity
  8
DIM
100
AcDbLeader
  3
AM_ANSI$7
 73
     0
 74
     0
 75
     1
 40
2.0
 41
17.52380952380952
 76
     3
 10
207.1501952636686
 20
450.6749396423226
 30
0.0
 10
213.8758666600359
 20
460.2803551025438
 30
0.0
 10
215.8758666600359
 20
460.2803551025438
 30
0.0
340
563D
213
1.061873878973585
223
0.1482579944929085
233
0.0
1001
ACAD
1000
DSTYLE
1002
{
1070
    41
1040
2.0
1070
    42
1040
1.5
1070
    43
1040
8.0
1070
    44
1040
1.5
1070
    73
1070
     0
1070
    74
1070
     0
1070
    77
1070
     3
1070
   140
1040
2.0
1070
   141
1040
3.0
1070
   146
1040
0.6
1070
   147
1040
1.0
1070
   172
1070
     1
1070
   178
1070
   256
1070
   272
1070
     2
1070
   274
1070
     2
1070
   340
1005
375C
1002
}
  0
MTEXT
  5
563D
102
{ACAD_REACTORS
330
563C
102
}
330
1F
100
AcDbEntity
  8
DIM
100
AcDbMText
 10
215.8139927810624
 20
463.1320971080509
 30
0.0
 40
2.0
 41
0.0
 71
     1
 72
     1
  1
2x4-M6x1.0
  7
dayus
 73
     1
 44
1.0
1001
ACAD
1000
MTEXTBEGIN
1070
    73
1070
     1
1070
    44
1040
1.0
1070
    74
1070
     0
1000
MTEXTEND
  0
DIMENSION
  5
569E
330
1F
100
AcDbEntity
  8
DIM
100
AcDbDimension
  2
*D15
 10
86.65572549003579
 20
330.6458693803344
 30
0.0
 11
82.90572549003579
 21
332.6458693803344
 31
0.0
 70
    32
 71
     5
 42
7.5
  3
AM_ANSI
100
AcDbAlignedDimension
 13
79.15572549003579
 23
324.8897688928879
 33
0.0
 14
86.65572549003579
 24
307.7496475740141
 34
0.0
100
AcDbRotatedDimension
1001
ACAD
1000
DSTYLE
1002
{
1070
    41
1040
2.0
1070
    42
1040
1.5
1070
    43
1040
8.0
1070
    44
1040
1.5
1070
    73
1070
     0
1070
    74
1070
     0
1070
    77
1070
     3
1070
   140
1040
2.0
1070
   141
1040
3.0
1070
   146
1040
0.6
1070
   147
1040
1.0
1070
   172
1070
     1
1070
   178
1070
   256
1070
   272
1070
     8
1070
   274
1070
     2
1070
   340
1005
375C
1002
}
  0
DIMENSION
  5
569F
330
1F
100
AcDbEntity
  8
DIM
100
AcDbDimension
  2
*D16
 10
128.1557242085359
 20
330.9713457369641
 30
0.0
 11
124.4057248492858
 21
332.9713457369641
 31
0.0
 70
    32
 71
     5
 42
7.499998718500137
  3
AM_ANSI
100
AcDbAlignedDimension
 13
120.6557254900358
 23
307.7496475740141
 33
0.0
 14
128.1557242085359
 24
324.8897688928878
 34
0.0
100
AcDbRotatedDimension
1001
ACAD
1000
DSTYLE
1002
{
1070
    41
1040
2.0
1070
    42
1040
1.5
1070
    43
1040
8.0
1070
    44
1040
1.5
1070
    73
1070
     0
1070
    74
1070
     0
1070
    77
1070
     3
1070
   140
1040
2.0
1070
   141
1040
3.0
1070
   146
1040
0.6
1070
   147
1040
1.0
1070
   172
1070
     1
1070
   178
1070
   256
1070
   272
1070
     8
1070
   274
1070
     2
1070
   340
1005
375C
1002
}
  0
DIMENSION
  5
56A0
330
1F
100
AcDbEntity
  8
DIM
100
AcDbDimension
  2
*D17
 10
128.155724208536
 20
342.6275073847806
 30
0.0
 11
103.655724849286
 21
344.6275073847806
 31
0.0
 70
    32
  1
44+stroke=<>
 71
     5
 42
48.99999871850013
  3
AM_ANSI
100
AcDbAlignedDimension
 13
79.15572549003591
 23
324.8897688928879
 33
0.0
 14
128.155724208536
 24
324.8897688928877
 34
0.0
100
AcDbRotatedDimension
1001
ACAD
1000
DSTYLE
1002
{
1070
    41
1040
2.0
1070
    42
1040
1.5
1070
    43
1040
8.0
1070
    44
1040
1.5
1070
    73
1070
     0
1070
    74
1070
     0
1070
    77
1070
     3
1070
   140
1040
2.0
1070
   141
1040
3.0
1070
   146
1040
0.6
1070
   147
1040
1.0
1070
   172
1070
     1
1070
   178
1070
   256
1070
   272
1070
     8
1070
   274
1070
     2
1070
   340
1005
375C
1002
}
  0
DIMENSION
  5
56A1
330
1F
100
AcDbEntity
  8
DIM
100
AcDbDimension
  2
*D18
 10
128.155724208536
 20
348.8176727891621
 30
0.0
 11
100.1557247412525
 21
350.8176727891621
 31
0.0
 70
    32
  1
51+stroke=<>
 71
     5
 42
55.99999893456709
  3
AM_ANSI
100
AcDbAlignedDimension
 13
72.15572527396895
 23
306.389769585792
 33
0.0
 14
128.155724208536
 24
324.8897688928877
 34
0.0
100
AcDbRotatedDimension
1001
ACAD
1000
DSTYLE
1002
{
1070
    41
1040
2.0
1070
    42
1040
1.5
1070
    43
1040
8.0
1070
    44
1040
1.5
1070
    73
1070
     0
1070
    74
1070
     0
1070
    77
1070
     3
1070
   140
1040
2.0
1070
   141
1040
3.0
1070
   146
1040
0.6
1070
   147
1040
1.0
1070
   172
1070
     1
1070
   178
1070
   256
1070
   271
1070
     0
1070
   272
1070
     8
1070
   274
1070
     2
1070
   340
1005
375C
1002
}
  0
DIMENSION
  5
56A2
330
1F
100
AcDbEntity
  8
DIM
100
AcDbDimension
  2
*D19
 10
79.15572549003579
 20
342.460840718114
 30
0.0
 11
75.65572538200237
 21
344.460840718114
 31
0.0
 70
    32
 71
     5
 42
7.000000216066851
  3
AM_ANSI
100
AcDbAlignedDimension
 13
72.15572527396894
 23
306.3897695857919
 33
0.0
 14
79.15572549003579
 24
324.8897688928879
 34
0.0
100
AcDbRotatedDimension
1001
ACAD
1000
DSTYLE
1002
{
1070
    41
1040
2.0
1070
    42
1040
1.5
1070
    43
1040
8.0
1070
    44
1040
1.5
1070
    73
1070
     0
1070
    74
1070
     0
1070
    77
1070
     3
1070
   140
1040
2.0
1070
   141
1040
3.0
1070
   146
1040
0.6
1070
   147
1040
1.0
1070
   172
1070
     1
1070
   178
1070
   256
1070
   272
1070
     8
1070
   274
1070
     2
1070
   340
1005
375C
1002
}
  0
DIMENSION
  5
56A4
330
1F
100
AcDbEntity
  8
DIM
100
AcDbDimension
  2
*D20
 10
93.15572592216947
 20
336.3861693466648
 30
0.0
 11
86.15572570610263
 21
338.3861693466648
 31
0.0
 70
    32
 71
     5
 42
14.00000043213367
  3
AM_ANSI
100
AcDbAlignedDimension
 13
79.15572549003579
 23
324.8897688928879
 33
0.0
 14
93.15572592216947
 24
324.389769742254
 34
0.0
100
AcDbRotatedDimension
1001
ACAD
1000
DSTYLE
1002
{
1070
    41
1040
2.0
1070
    42
1040
1.5
1070
    43
1040
8.0
1070
    44
1040
1.5
1070
    73
1070
     0
1070
    74
1070
     0
1070
    77
1070
     3
1070
   140
1040
2.0
1070
   141
1040
3.0
1070
   146
1040
0.6
1070
   147
1040
1.0
1070
   172
1070
     1
1070
   178
1070
   256
1070
   272
1070
     8
1070
   274
1070
     2
1070
   340
1005
375C
1002
}
  0
DIMENSION
  5
56A5
330
1F
100
AcDbEntity
  8
DIM
100
AcDbDimension
  2
*D21
 10
128.1557242085359
 20
336.3861693466648
 30
0.0
 11
121.1557249237916
 21
338.3861693466648
 31
0.0
 70
    32
 71
     5
 42
13.99999856948852
  3
AM_ANSI
100
AcDbAlignedDimension
 13
114.1557256390474
 23
324.8897688928878
 33
0.0
 14
128.1557242085359
 24
324.8897688928878
 34
0.0
100
AcDbRotatedDimension
1001
ACAD
1000
DSTYLE
1002
{
1070
    41
1040
2.0
1070
    42
1040
1.5
1070
    43
1040
8.0
1070
    44
1040
1.5
1070
    73
1070
     0
1070
    74
1070
     0
1070
    77
1070
     3
1070
   140
1040
2.0
1070
   141
1040
3.0
1070
   146
1040
0.6
1070
   147
1040
1.0
1070
   172
1070
     1
1070
   178
1070
   256
1070
   272
1070
     8
1070
   274
1070
     2
1070
   340
1005
375C
1002
}
  0
SOLID
  5
56A6
330
1F
100
AcDbEntity
  8
DIM
100
AcDbTrace
 10
71.82030040433236
 20
299.3901194111403
 30
0.0
 11
72.155725273969
 21
301.3897696975505
 31
0.0
 12
71.18989625034183
 22
299.6069950600177
 32
0.0
 13
71.18989625034183
 23
299.6069950600177
 33
0.0
1001
ACAD
1000
DSTYLE
1002
{
1070
    41
1040
2.0
1070
    42
1040
1.5
1070
    43
1040
8.0
1070
    44
1040
1.5
1070
    73
1070
     0
1070
    74
1070
     0
1070
    77
1070
     3
1070
   140
1040
2.0
1070
   141
1040
3.0
1070
   146
1040
0.6
1070
   147
1040
1.0
1070
   172
1070
     1
1070
   178
1070
   256
1070
   272
1070
     2
1070
   274
1070
     2
1070
   340
1005
375C
1002
}
  0
LWPOLYLINE
  5
56A7
330
1F
100
AcDbEntity
  8
DIM
100
AcDbPolyline
 90
        3
 70
     0
 43
0.0
 10
71.50509832733709
 20
299.498557235579
 10
66.50163722407862
 20
286.5248934565142
 10
52.77519503384496
 20
286.5248934565141
1001
ACAD
1000
DSTYLE
1002
{
1070
    41
1040
2.0
1070
    42
1040
1.5
1070
    43
1040
8.0
1070
    44
1040
1.5
1070
    73
1070
     0
1070
    74
1070
     0
1070
    77
1070
     3
1070
   140
1040
2.0
1070
   141
1040
3.0
1070
   146
1040
0.6
1070
   147
1040
1.0
1070
   172
1070
     1
1070
   178
1070
   256
1070
   272
1070
     2
1070
   274
1070
     2
1070
   340
1005
375C
1002
}
  0
MTEXT
  5
56A8
330
1F
100
AcDbEntity
  8
DIM
100
AcDbMText
 10
54.22076881997077
 20
289.6459307817904
 30
0.0
 40
2.0
 41
0.0
 71
     1
 72
     1
  1
M8*1.25
  7
dayus
 73
     1
 44
1.0
1001
ACAD
1000
MTEXTBEGIN
1070
    73
1070
     1
1070
    44
1040
1.0
1070
    74
1070
     0
1000
MTEXTEND
  0
LWPOLYLINE
  5
56A9
330
1F
100
AcDbEntity
  8
DIM
100
AcDbPolyline
 90
        3
 70
     0
 43
0.0
 10
125.5272030360067
 20
299.1781624723135
 10
131.4465930491912
 20
288.5070680840125
 10
143.9204388492526
 20
288.5070680840125
1001
ACAD
1000
DSTYLE
1002
{
1070
    41
1040
2.0
1070
    42
1040
1.5
1070
    43
1040
8.0
1070
    44
1040
1.5
1070
    73
1070
     0
1070
    74
1070
     0
1070
    77
1070
     2
1070
   140
1040
2.0
1070
   141
1040
3.0
1070
   146
1040
0.6
1070
   147
1040
1.0
1070
   172
1070
     1
1070
   178
1070
   256
1070
   272
1070
     2
1070
   274
1070
     2
1070
   340
1005
375C
1002
}
  0
MTEXT
  5
56AA
330
1F
100
AcDbEntity
  8
DIM
100
AcDbMText
 10
143.5529668465808
 20
289.2293306815971
 30
0.0
 40
2.0
 41
0.0
 71
     9
 72
     1
  1
2-G1/8
  7
dayus
 73
     1
 44
1.0
1001
ACAD
1000
MTEXTBEGIN
1070
    73
1070
     1
1070
    44
1040
1.0
1070
    74
1070
     0
1000
MTEXTEND
  0
SOLID
  5
5755
330
1F
100
AcDbEntity
  8
DIM
100
AcDbTrace
 10
126.10920950365
 20
297.2359010113528
 30
0.0
 11
125.5272030360068
 21
299.1781624723133
 31
0.0
 12
126.7076723305754
 22
297.5296469717214
 32
0.0
 13
126.7076723305754
 23
297.5296469717214
 33
0.0
1001
ACAD
1000
DSTYLE
1002
{
1070
    41
1040
2.0
1070
    42
1040
1.5
1070
    43
1040
8.0
1070
    44
1040
1.5
1070
    73
1070
     0
1070
    74
1070
     0
1070
    77
1070
     2
1070
   140
1040
2.0
1070
   141
1040
3.0
1070
   146
1040
0.6
1070
   147
1040
1.0
1070
   172
1070
     1
1070
   178
1070
   256
1070
   272
1070
     2
1070
   274
1070
     2
1070
   340
1005
375C
1002
}
  0
DIMENSION
  5
5772
330
1F
100
AcDbEntity
  8
DIM
100
AcDbDimension
  2
*D22
 10
205.1531654467364
 20
336.0528360133401
 30
0.0
 11
188.9031654467364
 21
338.0528360133401
 31
0.0
 70
    32
  1
□<>
 71
     5
 42
32.5
  3
AM_ANSI
100
AcDbAlignedDimension
 13
172.6531654467364
 23
322.347672901301
 33
0.0
 14
205.1531654467364
 24
322.3476729013009
 34
0.0
100
AcDbRotatedDimension
1001
ACAD
1000
DSTYLE
1002
{
1070
    41
1040
2.0
1070
    42
1040
1.5
1070
    43
1040
8.0
1070
    44
1040
1.5
1070
    73
1070
     0
1070
    74
1070
     0
1070
    77
1070
     3
1070
   140
1040
2.0
1070
   141
1040
3.0
1070
   146
1040
0.6
1070
   147
1040
1.0
1070
   172
1070
     1
1070
   178
1070
   256
1070
   272
1070
     8
1070
   274
1070
     2
1070
   340
1005
375C
1002
}
  0
DIMENSION
  5
5773
330
1F
100
AcDbEntity
  8
DIM
100
AcDbDimension
  2
*D23
 10
212.4031654467365
 20
342.6275073847893
 30
0.0
 11
188.9031658490678
 21
344.6275073847893
 31
0.0
 70
    32
  1
□<>
 71
     5
 42
46.99999919533732
  3
AM_ANSI
100
AcDbAlignedDimension
 13
165.4031662513991
 23
317.8897696081437
 33
0.0
 14
212.4031654467365
 24
317.8897696975506
 34
0.0
100
AcDbRotatedDimension
1001
ACAD
1000
DSTYLE
1002
{
1070
    41
1040
2.0
1070
    42
1040
1.5
1070
    43
1040
8.0
1070
    44
1040
1.5
1070
    73
1070
     0
1070
    74
1070
     0
1070
    77
1070
     3
1070
   140
1040
2.0
1070
   141
1040
3.0
1070
   146
1040
0.6
1070
   147
1040
1.0
1070
   172
1070
     1
1070
   178
1070
   256
1070
   272
1070
     8
1070
   274
1070
     2
1070
   340
1005
375C
1002
}
  0
LEADER
  5
5774
330
1F
100
AcDbEntity
  8
DIM
100
AcDbLeader
  3
AM_ANSI$7
 73
     0
 74
     0
 75
     1
 40
2.0
 41
17.52380952380952
 76
     3
 10
207.1501952636684
 20
319.940092910856
 30
0.0
 10
213.8758666600357
 20
329.5455083710773
 30
0.0
 10
215.8758666600357
 20
329.5455083710773
 30
0.0
340
5775
213
1.061873878973585
223
0.1482579944929085
233
0.0
1001
ACAD
1000
DSTYLE
1002
{
1070
    41
1040
2.0
1070
    42
1040
1.5
1070
    43
1040
8.0
1070
    44
1040
1.5
1070
    73
1070
     0
1070
    74
1070
     0
1070
    77
1070
     3
1070
   140
1040
2.0
1070
   141
1040
3.0
1070
   146
1040
0.6
1070
   147
1040
1.0
1070
   172
1070
     1
1070
   178
1070
   256
1070
   272
1070
     2
1070
   274
1070
     2
1070
   340
1005
375C
1002
}
  0
MTEXT
  5
5775
102
{ACAD_REACTORS
330
5774
102
}
330
1F
100
AcDbEntity
  8
DIM
100
AcDbMText
 10
215.8139927810621
 20
332.3972503765844
 30
0.0
 40
2.0
 41
0.0
 71
     1
 72
     1
  1
2x4-M6x1.0
  7
dayus
 73
     1
 44
1.0
1001
ACAD
1000
MTEXTBEGIN
1070
    73
1070
     1
1070
    44
1040
1.0
1070
    74
1070
     0
1000
MTEXTEND
  0
DIMENSION
  5
57A0
330
1F
100
AcDbEntity
  8
DIM
100
AcDbDimension
  2
*D24
 10
55.0217511241458
 20
295.3897696453966
 30
0.0
 11
53.02175112414575
 21
301.3897696975507
 31
0.0
 70
    32
  1
%%C<>
 71
     5
 42
12.00000010430813
  3
AM_ANSI
100
AcDbAlignedDimension
 13
77.15572539504089
 23
307.3897697497048
 33
0.0
 14
77.15572539504089
 24
295.3897696453966
 34
0.0
 50
90.0
100
AcDbRotatedDimension
1001
ACAD
1000
DSTYLE
1002
{
1070
    41
1040
2.0
1070
    42
1040
1.5
1070
    43
1040
8.0
1070
    44
1040
1.5
1070
    73
1070
     0
1070
    74
1070
     0
1070
    77
1070
     3
1070
   140
1040
2.0
1070
   141
1040
3.0
1070
   146
1040
0.6
1070
   147
1040
1.0
1070
   172
1070
     1
1070
   178
1070
   256
1070
   272
1070
     8
1070
   274
1070
     2
1070
   340
1005
375C
1002
}
  0
DIMENSION
  5
57A1
330
1F
100
AcDbEntity
  8
DIM
100
AcDbDimension
  2
*D25
 10
60.43901819710822
 20
296.3897698093094
 30
0.0
 11
58.43901819710819
 21
301.3897696975507
 31
0.0
 70
    32
 71
     5
 42
9.999999776482582
  3
AM_ANSI
100
AcDbAlignedDimension
 13
72.15572527396895
 23
306.389769585792
 33
0.0
 14
72.15572527396895
 24
296.3897698093094
 34
0.0
 50
90.0
100
AcDbRotatedDimension
1001
ACAD
1000
DSTYLE
1002
{
1070
    41
1040
2.0
1070
    42
1040
1.5
1070
    43
1040
8.0
1070
    44
1040
1.5
1070
    73
1070
     0
1070
    74
1070
     0
1070
    77
1070
     3
1070
   140
1040
2.0
1070
   141
1040
3.0
1070
   146
1040
0.6
1070
   147
1040
1.0
1070
   172
1070
     1
1070
   178
1070
   256
1070
   272
1070
     8
1070
   274
1070
     2
1070
   340
1005
375C
1002
}
  0
ENDSEC
  0
SECTION
  2
OBJECTS
  0
DICTIONARY
  5
C
330
0
100
AcDbDictionary
281
     1
  3
ACAD_COLOR
350
35CE
  3
ACAD_GROUP
350
D
  3
ACAD_LAYOUT
350
1A
  3
ACAD_MATERIAL
350
35CD
  3
ACAD_MLINESTYLE
350
17
  3
ACAD_PLOTSETTINGS
350
19
  3
ACAD_PLOTSTYLENAME
350
E
  3
ACAD_TABLESTYLE
350
35CF
  3
AcadDim
350
1E82
  3
ACDBHEADERROUNDTRIPXREC
350
58AA
  3
AcDbVariableDictionary
350
1488
  3
AcmDictionary
350
3505
  3
AMG
350
34EC
  3
AMGSNAPSETTINGS
350
3538
  3
DWGPROPS
350
58A9
  3
MAPISURF_MODULE
350
486B
  0
DICTIONARY
  5
3766
330
2
100
AcDbDictionary
280
     1
281
     1
  3
ACAD_LAYERSTATES
360
3767
  0
DICTIONARY
  5
344C
330
1F
100
AcDbDictionary
280
     1
281
     1
  3
ACAD_INDEX
360
4780
  3
ACAD_LAYOUTSELFREF
360
35B4
  0
DICTIONARY
  5
344E
330
1B
100
AcDbDictionary
280
     1
281
     1
  3
ACAD_LAYOUTSELFREF
360
35B3
  0
DICTIONARY
  5
3450
330
23
100
AcDbDictionary
280
     1
281
     1
  3
ACAD_LAYOUTSELFREF
360
35B5
  0
DICTIONARY
  5
438F
330
438E
100
AcDbDictionary
280
     1
281
     1
  0
DICTIONARY
  5
473F
330
473E
100
AcDbDictionary
280
     1
281
     1
  3
ACAD_SORTENTS
360
4F99
  0
DICTIONARY
  5
35CE
102
{ACAD_REACTORS
330
C
102
}
330
C
100
AcDbDictionary
281
     1
  0
DICTIONARY
  5
D
102
{ACAD_REACTORS
330
C
102
}
330
C
100
AcDbDictionary
281
     1
  0
DICTIONARY
  5
1A
102
{ACAD_REACTORS
330
C
102
}
330
C
100
AcDbDictionary
281
     1
  3
Layout1
350
1E
  3
Layout2
350
26
  3
Model
350
22
  0
DICTIONARY
  5
35CD
102
{ACAD_REACTORS
330
C
102
}
330
C
100
AcDbDictionary
281
     1
  0
DICTIONARY
  5
17
102
{ACAD_REACTORS
330
C
102
}
330
C
100
AcDbDictionary
281
     1
  3
Standard
350
18
  0
DICTIONARY
  5
19
102
{ACAD_REACTORS
330
C
102
}
330
C
100
AcDbDictionary
281
     1
  0
ACDBDICTIONARYWDFLT
  5
E
102
{ACAD_REACTORS
330
C
102
}
330
C
100
AcDbDictionary
281
     1
  3
Normal
350
F
100
AcDbDictionaryWithDefault
340
F
1001
ACAD
1000
TREAT_AS_HARD
1070
     0
  0
DICTIONARY
  5
35CF
102
{ACAD_REACTORS
330
C
102
}
330
C
100
AcDbDictionary
281
     1
  3
Standard
350
35D0
  0
XRECORD
  5
1E82
102
{ACAD_REACTORS
330
C
102
}
330
C
100
AcDbXrecord
280
     1
 90
   990106
  3

 60
     0
 61
     0
 62
     4
 63
     4
 64
     1
 65
     0
 66
     0
 67
     3
 68
     1
 69
     0
 70
     0
 71
     0
 72
     0
 40
0.0
170
     2
340
0
  0
DICTIONARY
  5
58AA
102
{ACAD_REACTORS
330
C
102
}
330
C
100
AcDbDictionary
281
     1
  0
DICTIONARY
  5
1488
102
{ACAD_REACTORS
330
C
102
}
330
C
100
AcDbDictionary
281
     1
  3
CTABLESTYLE
350
3D1D
  3
DIMASSOC
350
3548
  3
INDEXCTL
350
3547
  3
PROJECTNAME
350
42E5
  3
SORTENTS
350
1489
  0
DICTIONARY
  5
3505
102
{ACAD_REACTORS
330
C
102
}
330
C
100
AcDbDictionary
281
     1
  3
AcmStdDictionary
350
350B
  3
AMDTSECTSYM_ARROWCOLOR
350
3F31
  0
DICTIONARY
  5
34EC
102
{ACAD_REACTORS
330
C
102
}
330
C
100
AcDbDictionary
281
     1
  3
AcMgSettings
350
47E6
  0
DICTIONARY
  5
3538
102
{ACAD_REACTORS
330
C
102
}
330
C
100
AcDbDictionary
281
     1
  0
XRECORD
  5
58A9
102
{ACAD_REACTORS
330
C
102
}
330
C
100
AcDbXrecord
280
     1
  1
DWGPROPS COOKIE
  2

  3

  4

  6

  7

  8

  9

300
AmdtFileType=84
301
=
302
=
303
=
304
=
305
=
306
=
307
=
308
=
309
=
 40
0.7187603240740741
 41
2452019.631085301
 42
2456885.441473518
  1

 90
        1
  0
DICTIONARY
  5
3767
102
{ACAD_REACTORS
330
3766
102
}
330
3766
100
AcDbDictionary
281
     1
  0
DICTIONARY
  5
4780
102
{ACAD_REACTORS
330
344C
102
}
330
344C
100
AcDbDictionary
281
     1
  3
*A1
350
4781
  0
XRECORD
  5
35B4
102
{ACAD_REACTORS
330
344C
102
}
330
344C
100
AcDbXrecord
280
     1
340
1F
  0
XRECORD
  5
35B3
102
{ACAD_REACTORS
330
344E
102
}
330
344E
100
AcDbXrecord
280
     1
340
1B
  0
XRECORD
  5
35B5
102
{ACAD_REACTORS
330
3450
102
}
330
3450
100
AcDbXrecord
280
     1
340
23
  0
SORTENTSTABLE
  5
4F99
102
{ACAD_REACTORS
330
473F
102
}
330
473F
100
AcDbSortentsTable
330
473E
  0
LAYOUT
  5
1E
102
{ACAD_XDICTIONARY
360
58AB
102
}
102
{ACAD_REACTORS
330
1A
102
}
330
1A
100
AcDbPlotSettings
  1

  2

  4

  6

 40
0.0
 41
0.0
 42
0.0
 43
0.0
 44
0.0
 45
0.0
 46
0.0
 47
0.0
 48
0.0
 49
0.0
140
0.0
141
0.0
142
1.0
143
1.0
 70
   688
 72
     0
 73
     0
 74
     5
  7
彩色出圖.ctb
 75
    16
147
1.0
148
0.0
149
0.0
100
AcDbLayout
  1
Layout1
 70
     1
 71
     1
 10
0.0
 20
0.0
 11
12.0
 21
9.0
 12
0.0
 22
0.0
 32
0.0
 14
1.000000000000000E+20
 24
1.000000000000000E+20
 34
1.000000000000000E+20
 15
-1.000000000000000E+20
 25
-1.000000000000000E+20
 35
-1.000000000000000E+20
146
0.0
 13
0.0
 23
0.0
 33
0.0
 16
1.0
 26
0.0
 36
0.0
 17
0.0
 27
1.0
 37
0.0
 76
     0
330
1B
  0
LAYOUT
  5
26
102
{ACAD_XDICTIONARY
360
58AF
102
}
102
{ACAD_REACTORS
330
1A
102
}
330
1A
100
AcDbPlotSettings
  1

  2

  4

  6

 40
0.0
 41
0.0
 42
0.0
 43
0.0
 44
0.0
 45
0.0
 46
0.0
 47
0.0
 48
0.0
 49
0.0
140
0.0
141
0.0
142
1.0
143
1.0
 70
   688
 72
     0
 73
     0
 74
     5
  7
彩色出圖.ctb
 75
    16
147
1.0
148
0.0
149
0.0
100
AcDbLayout
  1
Layout2
 70
     1
 71
     2
 10
0.0
 20
0.0
 11
12.0
 21
9.0
 12
0.0
 22
0.0
 32
0.0
 14
0.0
 24
0.0
 34
0.0
 15
0.0
 25
0.0
 35
0.0
146
0.0
 13
0.0
 23
0.0
 33
0.0
 16
1.0
 26
0.0
 36
0.0
 17
0.0
 27
1.0
 37
0.0
 76
     0
330
23
  0
LAYOUT
  5
22
102
{ACAD_XDICTIONARY
360
58AD
102
}
102
{ACAD_REACTORS
330
1A
102
}
330
1A
100
AcDbPlotSettings
  1

  2
DWF Classic.pc3
  4
ISO_A3_(420.00_x_297.00_MM)
  6

 40
5.793749809265136
 41
17.79375076293945
 42
5.79376220703125
 43
17.79376220703125
 44
420.0
 45
297.0
 46
47.40999999999999
 47
0.0
 48
0.0
 49
0.0
140
0.0
141
0.0
142
1.0
143
1.040940642127927
 70
 11956
 72
     1
 73
     1
 74
     1
  7
彩色出圖.ctb
 75
     0
147
0.9606695708948064
148
0.4870947940048609
149
0.4894054010007949
100
AcDbLayout
  1
Model
 70
     1
 71
     0
 10
0.0
 20
0.0
 11
12.0
 21
9.0
 12
0.0
 22
0.0
 32
0.0
 14
0.0
 24
0.0
 34
0.0
 15
0.0
 25
0.0
 35
0.0
146
0.0
 13
0.0
 23
0.0
 33
0.0
 16
1.0
 26
0.0
 36
0.0
 17
0.0
 27
1.0
 37
0.0
 76
     0
330
1F
  0
MLINESTYLE
  5
18
102
{ACAD_REACTORS
330
17
102
}
330
17
100
AcDbMlineStyle
  2
STANDARD
 70
     0
  3

 62
   256
 51
90.0
 52
90.0
 71
     2
 49
0.5
 62
   256
  6
BYLAYER
 49
-0.5
 62
   256
  6
BYLAYER
  0
ACDBPLACEHOLDER
  5
F
102
{ACAD_REACTORS
330
E
102
}
330
E
  0
TABLESTYLE
  5
35D0
102
{ACAD_REACTORS
330
35CF
102
}
330
35CF
100
AcDbTableStyle
  3
Standard
 70
     0
 71
     0
 40
1.5
 41
1.5
280
     0
281
     0
  7
Standard
140
4.5
170
     2
 62
     0
 63
     7
283
     0
274
    -2
284
     1
 64
     0
275
    -2
285
     1
 65
     0
276
    -2
286
     1
 66
     0
277
    -2
287
     1
 67
     0
278
    -2
288
     1
 68
     0
279
    -2
289
     1
 69
     0
  7
Standard
140
6.0
170
     5
 62
     0
 63
     7
283
     0
274
    -2
284
     1
 64
     0
275
    -2
285
     1
 65
     0
276
    -2
286
     1
 66
     0
277
    -2
287
     1
 67
     0
278
    -2
288
     1
 68
     0
279
    -2
289
     1
 69
     0
  7
Standard
140
4.5
170
     5
 62
     0
 63
     7
283
     0
274
    -2
284
     1
 64
     0
275
    -2
285
     1
 65
     0
276
    -2
286
     1
 66
     0
277
    -2
287
     1
 67
     0
278
    -2
288
     1
 68
     0
279
    -2
289
     1
 69
     0
  0
DICTIONARYVAR
  5
3D1D
102
{ACAD_REACTORS
330
1488
102
}
330
1488
100
DictionaryVariables
280
     0
  1
STANDARD
  0
DICTIONARYVAR
  5
3548
102
{ACAD_REACTORS
330
1488
102
}
330
1488
100
DictionaryVariables
280
     0
  1
1
  0
DICTIONARYVAR
  5
3547
102
{ACAD_REACTORS
330
1488
102
}
330
1488
100
DictionaryVariables
280
     0
  1
1
  0
DICTIONARYVAR
  5
42E5
102
{ACAD_REACTORS
330
1488
102
}
330
1488
100
DictionaryVariables
280
     0
  1

  0
DICTIONARYVAR
  5
1489
102
{ACAD_REACTORS
330
1488
102
}
330
1488
100
DictionaryVariables
280
     0
  1
96
  0
DICTIONARY
  5
350B
102
{ACAD_REACTORS
330
3505
102
}
330
3505
100
AcDbDictionary
281
     1
  0
XRECORD
  5
3F31
102
{ACAD_REACTORS
330
3505
102
}
330
3505
100
AcDbXrecord
280
     1
 90
-1023410169
  0
DICTIONARY
  5
47E6
102
{ACAD_REACTORS
330
34EC
102
}
330
34EC
100
AcDbDictionary
281
     1
  3
DWGSETTINGS
350
47E7
  3
TRANSSETTINGS
350
47EA
  0
LAYER_INDEX
  5
4781
102
{ACAD_REACTORS
330
4780
102
}
330
4780
100
AcDbIndex
 40
2456885.441473518
100
AcDbLayerIndex
  8
0
360
4782
 90
      539
  8
DIM
360
4783
 90
       37
  8
CENTER
360
4784
 90
       42
  8
LOGO
360
4785
 90
      127
  8
Defpoints
360
4786
 90
        0
  8
AM_7
360
4787
 90
        2
  8
AM_5
360
4788
 90
        0
  0
DICTIONARY
  5
58AB
330
1E
100
AcDbDictionary
280
     1
281
     1
  3
ACAD_XREC_ROUNDTRIP
360
58AC
  0
DICTIONARY
  5
58AF
330
26
100
AcDbDictionary
280
     1
281
     1
  3
ACAD_XREC_ROUNDTRIP
360
58B0
  0
DICTIONARY
  5
58AD
330
22
100
AcDbDictionary
280
     1
281
     1
  3
ACAD_XREC_ROUNDTRIP
360
58AE
  0
IDBUFFER
  5
4782
330
0
100
AcDbIdBuffer
330
A9
330
AA
330
AB
330
AC
330
B1
330
B2
330
10B3
330
17B4
330
17B5
330
17BF
330
17C0
330
18E7
330
18EA
330
40CE
330
40CF
330
40D0
330
451F
330
4ABD
330
4ABE
330
4ABF
330
4AC0
330
4AC1
330
4AC2
330
4AC3
330
4AC4
330
4AC5
330
4AC6
330
4AC7
330
4AC8
330
4AC9
330
4ACA
330
4ACB
330
4ACC
330
4ACD
330
4ACE
330
4ACF
330
4AD0
330
4AD1
330
4AD2
330
4AD3
330
4AD4
330
4AD5
330
4AD6
330
4AD7
330
4AD8
330
4AD9
330
4ADA
330
4ADB
330
4ADC
330
4ADD
330
4ADE
330
4ADF
330
4AE0
330
4AE1
330
4AE2
330
4AE3
330
4AE4
330
4AE5
330
4AE6
330
4AE7
330
4AE8
330
4AE9
330
4AEA
330
4AEB
330
4AEC
330
4AED
330
4AEE
330
4AEF
330
4AF0
330
4AF1
330
4AF2
330
4AF3
330
4AF4
330
4AF5
330
4AF6
330
4AF7
330
4AF8
330
4AF9
330
4AFA
330
4AFB
330
4AFC
330
4AFD
330
4AFE
330
4AFF
330
4B00
330
4B01
330
4B02
330
4B03
330
4B04
330
4B05
330
4B06
330
4B07
330
4B08
330
4B09
330
4B0A
330
4B0B
330
4B0C
330
4B0D
330
4B0E
330
4B0F
330
4B10
330
4B11
330
4B12
330
4B13
330
4B14
330
4B15
330
4B16
330
4B17
330
4B18
330
4B19
330
4B1A
330
4B1B
330
4B1C
330
4B1D
330
4B1E
330
4B1F
330
4B20
330
4B21
330
4B22
330
4B23
330
4B24
330
4B25
330
4B26
330
4B27
330
4B28
330
4B29
330
4B2A
330
4B2B
330
4B2C
330
4B2D
330
4B2E
330
4B2F
330
4B30
330
4B31
330
4B32
330
4B33
330
4B34
330
4B35
330
4B36
330
4B37
330
4B38
330
4B39
330
4B3A
330
4B3B
330
4B3C
330
4B3D
330
4B3E
330
4B3F
330
4B40
330
4B41
330
4B42
330
4B43
330
4B44
330
4B45
330
4B46
330
4B47
330
4B48
330
4B49
330
4B4A
330
4B4B
330
4B4C
330
4B4D
330
4B4E
330
4B4F
330
4B50
330
4B51
330
4B52
330
4B53
330
4B54
330
4B55
330
4B56
330
4B57
330
4B58
330
4B59
330
4B5A
330
4B5B
330
4B5C
330
4B5D
330
4B5E
330
4B5F
330
4B60
330
4B61
330
4B62
330
4B63
330
4B64
330
4B65
330
4B66
330
4B67
330
4B68
330
4B69
330
4B6A
330
4B6B
330
4B6C
330
4B6D
330
4B6E
330
4B6F
330
4B70
330
4B71
330
4B72
330
4B73
330
4B74
330
4B75
330
4B76
330
4B77
330
4B78
330
4B79
330
4B7A
330
4B7B
330
4B7C
330
4B7D
330
4B7E
330
4B7F
330
4B80
330
4B81
330
4B82
330
4B83
330
4B84
330
4B85
330
4B86
330
4B87
330
4B88
330
4B89
330
4B8A
330
4B8B
330
4B8C
330
4B8D
330
4B8E
330
4B8F
330
4B90
330
4B91
330
4B92
330
4B93
330
4B94
330
4B95
330
4B96
330
4B97
330
4B98
330
4B99
330
4B9A
330
4B9B
330
4B9C
330
4B9D
330
4B9E
330
4B9F
330
4BA0
330
4BA1
330
4BA2
330
4BA3
330
4BA4
330
4BA5
330
4BA6
330
4BA7
330
4BA8
330
4BA9
330
4BAA
330
4BAB
330
4BAC
330
4BAD
330
4BAE
330
4BAF
330
4BB0
330
4BB1
330
4BB2
330
4BB3
330
4BB4
330
4BB5
330
4BB6
330
4BB7
330
4BB8
330
4BB9
330
4BBA
330
4BBB
330
4BBC
330
4BBD
330
4BBE
330
4BBF
330
4BC0
330
4BC1
330
4BC2
330
4BC3
330
4BC4
330
4BC5
330
4BC6
330
4BC7
330
4BC8
330
4BC9
330
4BCA
330
4BCB
330
4BCC
330
4BCD
330
4BCE
330
4BCF
330
4BD0
330
4BD1
330
4BD2
330
4BD3
330
4BD4
330
4BD5
330
4BD6
330
4BD7
330
4BD8
330
4BD9
330
4BDA
330
4BDB
330
4BDC
330
4BDD
330
4BDE
330
4BDF
330
4BE0
330
4BE1
330
4BE2
330
4BE3
330
4BE4
330
4BE5
330
4BE6
330
4BE7
330
4BE8
330
4BE9
330
4BEA
330
4BEB
330
4BEC
330
4BED
330
4BEE
330
4BEF
330
4BF0
330
4BF1
330
4BF2
330
4BF3
330
4BF4
330
4BF5
330
4BF6
330
4BF7
330
4BF8
330
4BF9
330
4BFA
330
4BFB
330
4BFC
330
4BFD
330
4BFE
330
4BFF
330
4C00
330
4C01
330
4C02
330
4C03
330
4C04
330
4C05
330
4C06
330
4C07
330
4C08
330
4C09
330
4C0A
330
4C0B
330
4C0C
330
4C0D
330
4C0E
330
4C0F
330
4C10
330
4C11
330
4C12
330
4C13
330
4C14
330
4C15
330
4C16
330
4C17
330
4C18
330
4C19
330
4C1A
330
4C1B
330
4C1C
330
4C1D
330
4C1E
330
4C1F
330
4C20
330
4C21
330
4C22
330
4C23
330
4C24
330
4C25
330
4C26
330
4C27
330
4C28
330
4C29
330
4C2A
330
4C2B
330
4C2C
330
4C2D
330
4C2E
330
4C2F
330
4C30
330
4C31
330
4C32
330
4C33
330
4C34
330
4C35
330
4C36
330
4C37
330
4C38
330
4C39
330
4C3A
330
4C3B
330
4C3C
330
4C3D
330
4C3E
330
4C3F
330
4C40
330
4C41
330
4C42
330
4C43
330
4C44
330
4C45
330
4C46
330
4C47
330
4C48
330
4C49
330
4C4A
330
4C4B
330
4C4C
330
4C4D
330
4C4E
330
4C4F
330
4C50
330
4C51
330
4C52
330
4C53
330
4C54
330
4C55
330
4C56
330
4C57
330
4C58
330
4C59
330
4C5A
330
4C5B
330
4C5C
330
4C5D
330
4C5E
330
4C5F
330
4C60
330
4C61
330
4C62
330
4C63
330
4C64
330
4C65
330
4C66
330
4C67
330
4C68
330
4C69
330
4C6A
330
4C6B
330
4C6C
330
4C6D
330
4C6E
330
4C6F
330
4C70
330
4C71
330
4C72
330
4C73
330
4C74
330
4C75
330
4C76
330
4C77
330
4C78
330
4C79
330
4C7A
330
4C7B
330
4C7C
330
4C7D
330
4C7E
330
4C7F
330
4C80
330
4C81
330
4C82
330
4C83
330
4C84
330
4C85
330
4C86
330
4C87
330
4C88
330
4C89
330
4C8A
330
4C8B
330
4C8C
330
4C8D
330
4C8E
330
4C8F
330
4C90
330
4C91
330
4C92
330
4C93
330
4C94
330
4C95
330
4C96
330
4C97
330
4C98
330
4C99
330
4C9A
330
4C9B
330
4C9C
330
4C9D
330
4C9E
330
4C9F
330
4CA0
330
4CA1
330
4CA2
330
4CA3
330
4CA4
330
4CA5
330
4CA6
330
4CA7
330
4CA8
330
4CA9
330
4CAA
330
4CAB
330
4CAC
330
4CAD
330
4CAE
330
4CAF
330
4CB0
330
4CB1
330
4CB2
330
4CB3
330
511C
330
511D
330
548D
330
5491
330
5495
330
5609
330
562C
330
562E
330
562F
330
5630
330
5631
330
5632
330
5633
330
5634
330
5635
330
5636
330
5637
330
5638
330
5639
  0
IDBUFFER
  5
4783
330
0
100
AcDbIdBuffer
330
511F
330
5120
330
5121
330
5122
330
5127
330
512F
330
5130
330
5131
330
5132
330
5133
330
5134
330
5180
330
5181
330
5182
330
563A
330
563B
330
563C
330
563D
330
569E
330
569F
330
56A0
330
56A1
330
56A2
330
56A4
330
56A5
330
56A6
330
56A7
330
56A8
330
56A9
330
56AA
330
5755
330
5772
330
5773
330
5774
330
5775
330
57A0
330
57A1
  0
IDBUFFER
  5
4784
330
0
100
AcDbIdBuffer
330
548B
330
548E
330
548F
330
5492
330
5493
330
5494
330
5605
330
5606
330
560A
330
560B
330
560C
330
560D
330
560E
330
560F
330
5610
330
5611
330
5612
330
5613
330
5614
330
5615
330
5616
330
5617
330
5618
330
5619
330
561A
330
561B
330
561C
330
561D
330
561E
330
561F
330
5620
330
5621
330
5622
330
5623
330
5624
330
5625
330
5626
330
5627
330
5628
330
5629
330
562A
330
562B
  0
IDBUFFER
  5
4785
330
0
100
AcDbIdBuffer
330
17BD
330
17BE
330
17C3
330
17C4
330
17C5
330
17C6
330
17C7
330
1802
330
1803
330
1804
330
1805
330
1806
330
1807
330
1808
330
1809
330
180A
330
180B
330
180C
330
180D
330
180E
330
180F
330
1810
330
1868
330
1869
330
186A
330
186B
330
186C
330
186D
330
186E
330
186F
330
1870
330
1871
330
1872
330
1873
330
1874
330
1875
330
1876
330
1877
330
1878
330
1879
330
187A
330
187B
330
187C
330
187D
330
187E
330
187F
330
1880
330
1881
330
1882
330
1883
330
1885
330
1886
330
1887
330
1888
330
1889
330
188A
330
188B
330
188C
330
188D
330
188E
330
188F
330
1890
330
1891
330
4079
330
407A
330
407B
330
407C
330
407D
330
407E
330
407F
330
4080
330
4081
330
4082
330
4083
330
4084
330
4085
330
4086
330
4087
330
4088
330
4089
330
408A
330
408B
330
408C
330
408D
330
408E
330
408F
330
4090
330
4091
330
4092
330
4093
330
4094
330
4095
330
4096
330
409A
330
409E
330
409F
330
40A3
330
40A4
330
40A5
330
40A6
330
40A7
330
40A8
330
40A9
330
40AA
330
40AE
330
40B2
330
40B6
330
40B7
330
40B8
330
40BC
330
40BD
330
40BE
330
40BF
330
40C0
330
40C1
330
40C2
330
40C3
330
40C4
330
40C5
330
40C6
330
40C7
330
40C8
330
40C9
330
40CA
330
40CB
330
40CC
330
40CD
  0
IDBUFFER
  5
4786
330
0
100
AcDbIdBuffer
  0
IDBUFFER
  5
4787
330
0
100
AcDbIdBuffer
330
548C
330
5490
  0
IDBUFFER
  5
4788
330
0
100
AcDbIdBuffer
  0
XRECORD
  5
58AC
102
{ACAD_REACTORS
330
58AB
102
}
330
58AB
100
AcDbXrecord
280
     1
102
SHADEPLOT
 70
     0
102
SHADEPLOTRESLEVEL
 70
     2
102
SHADEPLOTCUSTOMDPI
 70
   300
  0
XRECORD
  5
58B0
102
{ACAD_REACTORS
330
58AF
102
}
330
58AF
100
AcDbXrecord
280
     1
102
SHADEPLOT
 70
     0
102
SHADEPLOTRESLEVEL
 70
     2
102
SHADEPLOTCUSTOMDPI
 70
   300
  0
XRECORD
  5
58AE
102
{ACAD_REACTORS
330
58AD
102
}
330
58AD
100
AcDbXrecord
280
     1
102
SHADEPLOT
 70
     0
102
SHADEPLOTRESLEVEL
 70
     2
102
SHADEPLOTCUSTOMDPI
 70
   300
  0
ENDSEC
  0
EOF
