  0
SECTION
  2
HEADER
  9
$ACADVER
  1
AC1015
  9
$ACADMAINTVER
 70
    20
  9
$DWGCODEPAGE
  3
ANSI_950
  9
$INSBASE
 10
0.0
 20
0.0
 30
0.0
  9
$EXTMIN
 10
-15.48932901079763
 20
34.7548852516527
 30
0.0
  9
$EXTMAX
 10
314.9214976567959
 20
363.5310627458177
 30
254.8089833089768
  9
$LIMMIN
 10
0.0
 20
0.0
  9
$LIMMAX
 10
12.0
 20
9.0
  9
$ORTHOMODE
 70
     0
  9
$REGENMODE
 70
     1
  9
$FILLMODE
 70
     1
  9
$QTEXTMODE
 70
     0
  9
$MIRRTEXT
 70
     1
  9
$LTSCALE
 40
5.0
  9
$ATTMODE
 70
     1
  9
$TEXTSIZE
 40
4.5
  9
$TRACEWID
 40
0.05
  9
$TEXTSTYLE
  7
CHINESET
  9
$CLAYER
  8
0
  9
$CELTYPE
  6
ByLayer
  9
$CECOLOR
 62
   256
  9
$CELTSCALE
 40
1.0
  9
$DISPSILH
 70
     0
  9
$DIMSCALE
 40
1.0
  9
$DIMASZ
 40
3.0
  9
$DIMEXO
 40
3.0
  9
$DIMDLI
 40
2.0
  9
$DIMRND
 40
0.0
  9
$DIMDLE
 40
0.0
  9
$DIMEXE
 40
2.0
  9
$DIMTP
 40
0.0
  9
$DIMTM
 40
0.0
  9
$DIMTXT
 40
3.0
  9
$DIMCEN
 40
-3.0
  9
$DIMTSZ
 40
0.0
  9
$DIMTOL
 70
     0
  9
$DIMLIM
 70
     0
  9
$DIMTIH
 70
     0
  9
$DIMTOH
 70
     0
  9
$DIMSE1
 70
     0
  9
$DIMSE2
 70
     0
  9
$DIMTAD
 70
     1
  9
$DIMZIN
 70
     8
  9
$DIMBLK
  1

  9
$DIMASO
 70
     1
  9
$DIMSHO
 70
     1
  9
$DIMPOST
  1

  9
$DIMAPOST
  1

  9
$DIMALT
 70
     0
  9
$DIMALTD
 70
     2
  9
$DIMALTF
 40
25.4
  9
$DIMLFAC
 40
1.0
  9
$DIMTOFL
 70
     1
  9
$DIMTVP
 40
0.0
  9
$DIMTIX
 70
     0
  9
$DIMSOXD
 70
     0
  9
$DIMSAH
 70
     0
  9
$DIMBLK1
  1

  9
$DIMBLK2
  1

  9
$DIMSTYLE
  2
ISO-25-1
  9
$DIMCLRD
 70
   256
  9
$DIMCLRE
 70
   256
  9
$DIMCLRT
 70
   256
  9
$DIMTFAC
 40
0.7
  9
$DIMGAP
 40
1.0
  9
$DIMJUST
 70
     0
  9
$DIMSD1
 70
     0
  9
$DIMSD2
 70
     0
  9
$DIMTOLJ
 70
     1
  9
$DIMTZIN
 70
     8
  9
$DIMALTZ
 70
     0
  9
$DIMALTTZ
 70
     0
  9
$DIMUPT
 70
     0
  9
$DIMDEC
 70
     2
  9
$DIMTDEC
 70
     8
  9
$DIMALTU
 70
     2
  9
$DIMALTTD
 70
     2
  9
$DIMTXSTY
  7
CHINESET
  9
$DIMAUNIT
 70
     0
  9
$DIMADEC
 70
     0
  9
$DIMALTRND
 40
0.0
  9
$DIMAZIN
 70
     2
  9
$DIMDSEP
 70
    46
  9
$DIMATFIT
 70
     0
  9
$DIMFRAC
 70
     0
  9
$DIMLDRBLK
  1

  9
$DIMLUNIT
 70
     2
  9
$DIMLWD
 70
    -1
  9
$DIMLWE
 70
    -1
  9
$DIMTMOVE
 70
     0
  9
$LUNITS
 70
     2
  9
$LUPREC
 70
     2
  9
$SKETCHINC
 40
0.1
  9
$FILLETRAD
 40
0.5
  9
$AUNITS
 70
     0
  9
$AUPREC
 70
     0
  9
$MENU
  1
.
  9
$ELEVATION
 40
0.0
  9
$PELEVATION
 40
0.0
  9
$THICKNESS
 40
0.0
  9
$LIMCHECK
 70
     0
  9
$CHAMFERA
 40
1.199999999999999
  9
$CHAMFERB
 40
1.199999999999999
  9
$CHAMFERC
 40
1.0
  9
$CHAMFERD
 40
0.0
  9
$SKPOLY
 70
     0
  9
$TDCREATE
 40
2452019.631085301
  9
$TDUCREATE
 40
2452019.297751968
  9
$TDUPDATE
 40
2456885.442513554
  9
$TDUUPDATE
 40
2456885.109180220
  9
$TDINDWG
 40
0.4203202315
  9
$TDUSRTIMER
 40
0.4203202315
  9
$USRTIMER
 70
     1
  9
$ANGBASE
 50
0.0
  9
$ANGDIR
 70
     0
  9
$PDMODE
 70
     0
  9
$PDSIZE
 40
0.0
  9
$PLINEWID
 40
0.0
  9
$SPLFRAME
 70
     0
  9
$SPLINETYPE
 70
     6
  9
$SPLINESEGS
 70
     8
  9
$HANDSEED
  5
63FB
  9
$SURFTAB1
 70
     6
  9
$SURFTAB2
 70
     6
  9
$SURFTYPE
 70
     6
  9
$SURFU
 70
     6
  9
$SURFV
 70
     6
  9
$UCSBASE
  2

  9
$UCSNAME
  2

  9
$UCSORG
 10
0.0
 20
0.0
 30
0.0
  9
$UCSXDIR
 10
1.0
 20
0.0
 30
0.0
  9
$UCSYDIR
 10
0.0
 20
1.0
 30
0.0
  9
$UCSORTHOREF
  2

  9
$UCSORTHOVIEW
 70
     0
  9
$UCSORGTOP
 10
0.0
 20
0.0
 30
0.0
  9
$UCSORGBOTTOM
 10
0.0
 20
0.0
 30
0.0
  9
$UCSORGLEFT
 10
0.0
 20
0.0
 30
0.0
  9
$UCSORGRIGHT
 10
0.0
 20
0.0
 30
0.0
  9
$UCSORGFRONT
 10
0.0
 20
0.0
 30
0.0
  9
$UCSORGBACK
 10
0.0
 20
0.0
 30
0.0
  9
$PUCSBASE
  2

  9
$PUCSNAME
  2

  9
$PUCSORG
 10
0.0
 20
0.0
 30
0.0
  9
$PUCSXDIR
 10
1.0
 20
0.0
 30
0.0
  9
$PUCSYDIR
 10
0.0
 20
1.0
 30
0.0
  9
$PUCSORTHOREF
  2

  9
$PUCSORTHOVIEW
 70
     0
  9
$PUCSORGTOP
 10
0.0
 20
0.0
 30
0.0
  9
$PUCSORGBOTTOM
 10
0.0
 20
0.0
 30
0.0
  9
$PUCSORGLEFT
 10
0.0
 20
0.0
 30
0.0
  9
$PUCSORGRIGHT
 10
0.0
 20
0.0
 30
0.0
  9
$PUCSORGFRONT
 10
0.0
 20
0.0
 30
0.0
  9
$PUCSORGBACK
 10
0.0
 20
0.0
 30
0.0
  9
$USERI1
 70
     0
  9
$USERI2
 70
     0
  9
$USERI3
 70
     0
  9
$USERI4
 70
     0
  9
$USERI5
 70
     0
  9
$USERR1
 40
0.0
  9
$USERR2
 40
0.0
  9
$USERR3
 40
0.0
  9
$USERR4
 40
0.0
  9
$USERR5
 40
0.0
  9
$WORLDVIEW
 70
     1
  9
$SHADEDGE
 70
     3
  9
$SHADEDIF
 70
    70
  9
$TILEMODE
 70
     1
  9
$MAXACTVP
 70
    48
  9
$PINSBASE
 10
0.0
 20
0.0
 30
0.0
  9
$PLIMCHECK
 70
     0
  9
$PEXTMIN
 10
1.000000000000000E+20
 20
1.000000000000000E+20
 30
1.000000000000000E+20
  9
$PEXTMAX
 10
-1.000000000000000E+20
 20
-1.000000000000000E+20
 30
-1.000000000000000E+20
  9
$PLIMMIN
 10
0.0
 20
0.0
  9
$PLIMMAX
 10
12.0
 20
9.0
  9
$UNITMODE
 70
     0
  9
$VISRETAIN
 70
     1
  9
$PLINEGEN
 70
     0
  9
$PSLTSCALE
 70
     1
  9
$TREEDEPTH
 70
  3020
  9
$CMLSTYLE
  2
Standard
  9
$CMLJUST
 70
     0
  9
$CMLSCALE
 40
1.0
  9
$PROXYGRAPHICS
 70
     1
  9
$MEASUREMENT
 70
     1
  9
$CELWEIGHT
370
    -1
  9
$ENDCAPS
280
     0
  9
$JOINSTYLE
280
     0
  9
$LWDISPLAY
290
     0
  9
$INSUNITS
 70
     1
  9
$HYPERLINKBASE
  1

  9
$STYLESHEET
  1
彩色出圖.ctb
  9
$XEDIT
290
     1
  9
$CEPSNTYPE
380
     0
  9
$PSTYLEMODE
290
     1
  9
$FINGERPRINTGUID
  2
{FDEAD576-A652-11D2-9A35-0060089B3A3F}
  9
$VERSIONGUID
  2
{7D39B3A4-8AC2-47E2-A476-B922C3885982}
  9
$EXTNAMES
290
     1
  9
$PSVPSCALE
 40
0.0
  9
$OLESTARTUP
290
     0
  0
ENDSEC
  0
SECTION
  2
CLASSES
  0
CLASS
  1
ACDBDICTIONARYWDFLT
  2
AcDbDictionaryWithDefault
  3
ObjectDBX Classes
 90
        0
280
     0
281
     0
  0
CLASS
  1
ACDBPLACEHOLDER
  2
AcDbPlaceHolder
  3
ObjectDBX Classes
 90
        0
280
     0
281
     0
  0
CLASS
  1
LAYOUT
  2
AcDbLayout
  3
ObjectDBX Classes
 90
        0
280
     0
281
     0
  0
CLASS
  1
DICTIONARYVAR
  2
AcDbDictionaryVar
  3
ObjectDBX Classes
 90
        0
280
     0
281
     0
  0
CLASS
  1
ACME_DOCUMENT
  2
AcMeDbDoc
  3
AcMeServices
 90
        0
280
     0
281
     0
  0
CLASS
  1
AMGSETTINGSOBJ
  2
AmgSettingsObj
  3
"AcadM|Product Description: AutoCAD Mechanical 2000|Company: Autodesk"
 90
        0
280
     0
281
     0
  0
CLASS
  1
ACMESCOPE
  2
AcMeScope
  3
AcMeServices
 90
        0
280
     0
281
     0
  0
CLASS
  1
ACMECOMMANDHISTORY
  2
AcMeCommandHistory
  3
AcMeServices
 90
        0
280
     0
281
     0
  0
CLASS
  1
ACIMSYSVARMAN
  2
AcImSysVarManager
  3
AcMeServices
 90
        0
280
     0
281
     0
  0
CLASS
  1
ACIMREALSYSVAR
  2
AcImRealSysVar
  3
AcMeServices
 90
        0
280
     0
281
     0
  0
CLASS
  1
ACIMINTSYSVAR
  2
AcImIntSysVar
  3
AcMeServices
 90
        0
280
     0
281
     0
  0
CLASS
  1
ACMEDRAWINGMAN
  2
AcMeDrawingMan
  3
AcMeServices
 90
        0
280
     0
281
     0
  0
CLASS
  1
ACMEVIEW
  2
AcMeView
  3
AcMeServices
 90
        0
280
     0
281
     0
  0
CLASS
  1
ACDBENTITYCACHE
  2
AcMeEntityCache
  3
AcMeServices
 90
        0
280
     0
281
     0
  0
CLASS
  1
GSMANAGER
  2
AcMeGSManager
  3
AcMeServices
 90
        0
280
     0
281
     0
  0
CLASS
  1
AMDTINTERNALREACTOR
  2
AmdtInternalReactor
  3
AcMeServices
 90
        0
280
     0
281
     0
  0
CLASS
  1
ACMESTATEMGR
  2
AcMeStateMgr
  3
AcMeServices
 90
        0
280
     0
281
     0
  0
CLASS
  1
ACGREFMASTER
  2
AcGrefMaster
  3
AcAttribServices
 90
        0
280
     0
281
     0
  0
CLASS
  1
ACME_DATABASE
  2
AcMeDbDatabase
  3
AcMeServices
 90
        0
280
     0
281
     0
  0
CLASS
  1
ACRFINSADJUSTERMGR
  2
AcRfInsAdjusterMgr
  3
AcMeServices
 90
        0
280
     0
281
     0
  0
CLASS
  1
ACGREFACADMASTER
  2
AcGrefacadMaster
  3
AcGrefServices
 90
        0
280
     0
281
     0
  0
CLASS
  1
AMIMASTER
  2
AmiMaster
  3
AmiServices
 90
        0
280
     0
281
     0
  0
CLASS
  1
ACMDATADICTIONARY
  2
AcmDataDictionary
  3
"AcmSymBB|Product Description: AutoCAD Mechanical 2004 DX|Company: Autodesk"
 90
        0
280
     0
281
     0
  0
CLASS
  1
ACMDATAENTRYBLOCK
  2
AcmDataEntryBlock
  3
"AcmSymBB|Product Description: AutoCAD Mechanical 2004 DX|Company: Autodesk"
 90
        0
280
     0
281
     0
  0
CLASS
  1
ACIMSTRSYSVAR
  2
AcImStrSysVar
  3
AcMeServices
 90
        0
280
     0
281
     0
  0
CLASS
  1
ACMSTANDARDISO
  2
AcmStandardISO
  3
"Amdt_StdImp|Product Description: AutoCAD Mechanical 2004 DX|Company: Autodesk"
 90
        0
280
     0
281
     0
  0
CLASS
  1
AMGOBJPROPCFG
  2
AmgObjPropCfg
  3
"AmgLay|Product Description: AutoCAD Mechanical 2000|Company: Autodesk"
 90
        1
280
     0
281
     0
  0
CLASS
  1
AMDTEDGESTANDARDISO
  2
AmdtEdgeStdISO
  3
"Amdt_StdImp|Product Description: AutoCAD Mechanical 2004 DX|Company: Autodesk"
 90
    32768
280
     0
281
     0
  0
CLASS
  1
ACMSURFSTANDARDISO
  2
AcmSurfTextStdISO
  3
"Amdt_StdImp|Product Description: AutoCAD Mechanical 2004 DX|Company: Autodesk"
 90
        0
280
     0
281
     0
  0
CLASS
  1
ACMFCFSTANDARDISO
  2
AcmFCFStdISO
  3
"Amdt_StdImp|Product Description: AutoCAD Mechanical 2004 DX|Company: Autodesk"
 90
        0
280
     0
281
     0
  0
CLASS
  1
ACMWELDSTANDARDISO
  2
AcmWeldingStdISO
  3
"Amdt_StdImp|Product Description: AutoCAD Mechanical 2004 DX|Company: Autodesk"
 90
        0
280
     0
281
     0
  0
CLASS
  1
ACMIDSTANDARDISO
  2
AcmIdStdISO
  3
"Amdt_StdImp|Product Description: AutoCAD Mechanical 2004 DX|Company: Autodesk"
 90
        0
280
     0
281
     0
  0
CLASS
  1
ACMDATUMSTANDARDISO
  2
AcmDatumStdISO
  3
"Amdt_StdImp|Product Description: AutoCAD Mechanical 2004 DX|Company: Autodesk"
 90
        0
280
     0
281
     0
  0
CLASS
  1
ACMBOMSTANDARDISO
  2
AcmBOMStdISO
  3
"Amdt_StdImp|Product Description: AutoCAD Mechanical 2004 DX|Company: Autodesk"
 90
        0
280
     0
281
     0
  0
CLASS
  1
ACMDETAILSTANDARDISO
  2
AmdtDetailSymStdISO
  3
"Amdt_StdImp|Product Description: AutoCAD Mechanical 2004 DX|Company: Autodesk"
 90
        0
280
     0
281
     0
  0
CLASS
  1
ACMSECTIONSTANDARDISO
  2
AmdtSectionSymStdISO
  3
"Amdt_StdImp|Product Description: AutoCAD Mechanical 2004 DX|Company: Autodesk"
 90
        0
280
     0
281
     0
  0
CLASS
  1
ACMCENTERLINESTANDARDISO
  2
AmdtCenterLineStdISO
  3
"Amdt_StdImp|Product Description: AutoCAD Mechanical 2004 DX|Company: Autodesk"
 90
        0
280
     0
281
     0
  0
CLASS
  1
ACMNOTESTANDARDISO
  2
AmdtNoteStdISO
  3
"Amdt_StdImp|Product Description: AutoCAD Mechanical 2004 DX|Company: Autodesk"
 90
        0
280
     0
281
     0
  0
CLASS
  1
ACAMGLAYSTD
  2
AcAmgLayStd
  3
"AcAmgLayStd|Product Description: AutoCAD Mechanical 2000|Company: Autodesk"
 90
        0
280
     0
281
     0
  0
CLASS
  1
ACAMGDIMSTD
  2
AcAmgDimStd
  3
"AcAmgDimStd|Product Description: AutoCAD Mechanical 2000|Company: Autodesk"
 90
        0
280
     0
281
     0
  0
CLASS
  1
ACAMGHOLECHARTSTDISO
  2
AcAmgHoleChartStdISO
  3
ACMSYMBB_MODULE_NAME
 90
        0
280
     0
281
     0
  0
CLASS
  1
ACAMGTITLESTD
  2
AcAmgTitleStd
  3
"TITLEAPP"
 90
        0
280
     0
281
     0
  0
CLASS
  1
ACAMGFILTERDAT
  2
AcAmgFilterDat
  3
"AcadM|Product Description: AutoCAD Mechanical 2000|Company: Autodesk"
 90
    32768
280
     0
281
     0
  0
CLASS
  1
LAYER_INDEX
  2
AcDbLayerIndex
  3
ObjectDBX Classes
 90
        0
280
     0
281
     0
  0
CLASS
  1
IDBUFFER
  2
AcDbIdBuffer
  3
ObjectDBX Classes
 90
        0
280
     0
281
     0
  0
CLASS
  1
TABLESTYLE
  2
AcDbTableStyle
  3
ObjectDBX Classes
 90
     2047
280
     0
281
     0
  0
CLASS
  1
DIMASSOC
  2
AcDbDimAssoc
  3
"AcDbDimAssoc|Product Desc:     AcDim ARX App For Dimension|Company:          Autodesk, Inc.|WEB Address:      www.autodesk.com"
 90
    32768
280
     0
281
     0
  0
CLASS
  1
SORTENTSTABLE
  2
AcDbSortentsTable
  3
ObjectDBX Classes
 90
        0
280
     0
281
     0
  0
CLASS
  1
AM_DRAWING_MGR
  2
AcDmDwgMgr
  3
AcMechDwgViewMgmt
 90
        0
280
     0
281
     0
  0
CLASS
  1
AM_DWG_DOCUMENT
  2
AcDmDwgDocument
  3
AcMechDwgViewMgmt
 90
        0
280
     0
281
     0
  0
CLASS
  1
AM_DWG_SHEET
  2
AcDmSheet
  3
AcMechDwgViewMgmt
 90
        0
280
     0
281
     0
  0
CLASS
  1
AM_VIEWDIMPARMAP
  2
AcDmViewDimParMap
  3
AcMechDwgViewMgmt
 90
        0
280
     0
281
     0
  0
CLASS
  1
AM_DWGMGR_NAME
  2
AcDmDwgMgrName
  3
AcMechDwgViewMgmt
 90
        0
280
     0
281
     0
  0
CLASS
  1
AMDTMENUSTATEMGR
  2
AmdtMenuStateMgr
  3
McadcomServices
 90
        0
280
     0
281
     0
  0
CLASS
  1
AMDTMCOMMENUSTATE
  2
AmdtMcomMenuState
  3
McadcomServices
 90
        0
280
     0
281
     0
  0
CLASS
  1
MAPIAMMOUDLE
  2
MApiAmModule
  3
MApiAmServices
 90
        0
280
     0
281
     0
  0
CLASS
  1
AMDTADMENUSTATE
  2
AmdtAdMenuState
  3
DesignerServices
 90
        0
280
     0
281
     0
  0
CLASS
  1
ADAPPL
  2
AcAdAppl
  3
DesignerServices
 90
        0
280
     0
281
     0
  0
CLASS
  1
DEPMGR
  2
AcAdDepMgr
  3
DesignerServices
 90
        0
280
     0
281
     0
  0
CLASS
  1
PARAMMGR
  2
AcAdParamMgr
  3
DesignerServices
 90
        0
280
     0
281
     0
  0
CLASS
  1
PARAMSCOPE
  2
AcAdParamScope
  3
DesignerServices
 90
        0
280
     0
281
     0
  0
CLASS
  1
NAMEDAPPL
  2
AcAdNamedAppl
  3
DesignerServices
 90
        0
280
     0
281
     0
  0
CLASS
  1
AMDTDMMENUSTATE
  2
AmdtDmMenuState
  3
AcMechDwgViewMgmt
 90
        0
280
     0
281
     0
  0
CLASS
  1
AMDTAMMENUSTATE
  2
AmdtAmMenuState
  3
DesignerAssemblies
 90
        0
280
     0
281
     0
  0
CLASS
  1
ACAMPROJECT
  2
AcAmProject
  3
DesignerAssemblies
 90
        0
280
     0
281
     0
  0
CLASS
  1
ACAMGRCOMPDEF
  2
AcAmGrCompDef
  3
DesignerAssemblies
 90
        0
280
     0
281
     0
  0
CLASS
  1
ACCMCONTEXT
  2
AcCmContext
  3
DesignerAssemblies
 90
        0
280
     0
281
     0
  0
CLASS
  1
ACAMCOMPDEF
  2
AcAmCompDef
  3
DesignerAssemblies
 90
        0
280
     0
281
     0
  0
CLASS
  1
ACAMCOMPDEFMGR
  2
AcAmCompDefMgr
  3
DesignerAssemblies
 90
        0
280
     0
281
     0
  0
CLASS
  1
AMCONTEXTMGR
  2
AcAmContextMgr
  3
DesignerAssemblies
 90
        0
280
     0
281
     0
  0
CLASS
  1
ACAMCONTEXTMODELER
  2
AcAmContextModeler
  3
DesignerAssemblies
 90
        0
280
     0
281
     0
  0
CLASS
  1
CATALOGSTATE
  2
AcAmCatalogState
  3
DesignerAssemblies
 90
        0
280
     0
281
     0
  0
CLASS
  1
ACAMGRCOMPDEFSET
  2
AcAmGrCompDefSet
  3
DesignerAssemblies
 90
        0
280
     0
281
     0
  0
CLASS
  1
AMDTBROWSERDBTAB
  2
AmdtBrowserDbTab
  3
McadcomServices
 90
        0
280
     0
281
     0
  0
CLASS
  1
CBROWSERAPPOBJECT
  2
CBrowserAppObject
  3
McadcomServices
 90
        0
280
     0
281
     0
  0
CLASS
  1
DM_PLACEHOLDER
  2
AcDmSelsetPlaceholder
  3
AcMechDwgViewMgmt
 90
        0
280
     0
281
     0
  0
CLASS
  1
AMDTEDGESTANDARDISO13715
  2
AmdtEdgeStdISO13715
  3
"Amdt_StdImp|Product Description: AutoCAD Mechanical 2004 DX|Company: Autodesk"
 90
        0
280
     0
281
     0
  0
CLASS
  1
ACMTHREADLINESTANDARDISO
  2
AmdtThreadLineStdISO
  3
"Amdt_StdImp|Product Description: AutoCAD Mechanical 2004 DX|Company: Autodesk"
 90
        0
280
     0
281
     0
  0
CLASS
  1
AMDTNOTETEMPLATEDB
  2
AmdtNoteTemplateDB
  3
AMDT_STDIMP_MODULE_NAME
 90
        0
280
     0
281
     0
  0
CLASS
  1
ACMSTANDARDANSI
  2
AcmStandardANSI
  3
"Amdt_StdImp|Product Description: AutoCAD Mechanical 2004 DX|Company: Autodesk"
 90
    32768
280
     0
281
     0
  0
CLASS
  1
ACMSURFSTANDARDANSI
  2
AcmSurfTextStdANSI
  3
"Amdt_StdImp|Product Description: AutoCAD Mechanical 2004 DX|Company: Autodesk"
 90
    32768
280
     0
281
     0
  0
CLASS
  1
ACMFCFSTANDARDANSI
  2
AcmFCFStdANSI
  3
"Amdt_StdImp|Product Description: AutoCAD Mechanical 2004 DX|Company: Autodesk"
 90
    32768
280
     0
281
     0
  0
CLASS
  1
ACMWELDSTANDARDANSI
  2
AcmWeldingStdANSI
  3
"Amdt_StdImp|Product Description: AutoCAD Mechanical 2004 DX|Company: Autodesk"
 90
    32768
280
     0
281
     0
  0
CLASS
  1
ACMIDSTANDARDANSI
  2
AcmIdStdANSI
  3
"Amdt_StdImp|Product Description: AutoCAD Mechanical 2004 DX|Company: Autodesk"
 90
    32768
280
     0
281
     0
  0
CLASS
  1
ACMDATUMSTANDARDANSI
  2
AcmDatumStdANSI
  3
"Amdt_StdImp|Product Description: AutoCAD Mechanical 2004 DX|Company: Autodesk"
 90
    32768
280
     0
281
     0
  0
CLASS
  1
ACMBOMSTANDARDANSI
  2
AcmBOMStdANSI
  3
"Amdt_StdImp|Product Description: AutoCAD Mechanical 2004 DX|Company: Autodesk"
 90
    32768
280
     0
281
     0
  0
CLASS
  1
ACMDETAILSTANDARDANSI
  2
AmdtDetailSymStdANSI
  3
"Amdt_StdImp|Product Description: AutoCAD Mechanical 2004 DX|Company: Autodesk"
 90
    32768
280
     0
281
     0
  0
CLASS
  1
ACMSECTIONSTANDARDANSI
  2
AmdtSectionSymStdANSI
  3
"Amdt_StdImp|Product Description: AutoCAD Mechanical 2004 DX|Company: Autodesk"
 90
    32768
280
     0
281
     0
  0
CLASS
  1
ACMCENTERLINESTANDARDANSI
  2
AmdtCenterLineStdANSI
  3
"Amdt_StdImp|Product Description: AutoCAD Mechanical 2004 DX|Company: Autodesk"
 90
    32768
280
     0
281
     0
  0
CLASS
  1
ACMTHREADLINESTANDARDANSI
  2
AmdtThreadLineStdANSI
  3
"Amdt_StdImp|Product Description: AutoCAD Mechanical 2004 DX|Company: Autodesk"
 90
    32768
280
     0
281
     0
  0
CLASS
  1
ACMNOTESTANDARDANSI
  2
AmdtNoteStdANSI
  3
"Amdt_StdImp|Product Description: AutoCAD Mechanical 2004 DX|Company: Autodesk"
 90
    32768
280
     0
281
     0
  0
CLASS
  1
ACAMGHOLECHARTSTDANSI
  2
AcAmgHoleChartStdANSI
  3
ACMSYMBB_MODULE_NAME
 90
    32768
280
     0
281
     0
  0
CLASS
  1
ACDBLINERES
  2
AcDbLineRes
  3
AcGrefServices
 90
    32768
280
     0
281
     0
  0
CLASS
  1
AMDTNOTE
  2
AmdtNote
  3
"AcmSymBB|Product Description: AutoCAD Mechanical 2004 DX|Company: Autodesk"
 90
    33791
280
     0
281
     1
  0
CLASS
  1
AMDTFORMULAUPDATEDISPATCHER
  2
AmdtFormulaUpdateDispatcher
  3
AcMeServices
 90
    32768
280
     0
281
     0
  0
CLASS
  1
ASAPP
  2
AcAsAppObject
  3
AutoSurfServices
 90
        0
280
     0
281
     0
  0
CLASS
  1
IM_STATIC_MAN
  2
AcImStaticVarManager
  3
AcMeServices
 90
        0
280
     0
281
     0
  0
CLASS
  1
ACIMDBLSTATICVAR
  2
AcImDblStaticVar
  3
AcMeServices
 90
        0
280
     0
281
     0
  0
CLASS
  1
ACIMSTRSTATICVAR
  2
AcImStrStaticVar
  3
AcMeServices
 90
        0
280
     0
281
     0
  0
CLASS
  1
ACIMINTSTATICVAR
  2
AcImIntStaticVar
  3
AcMeServices
 90
        0
280
     0
281
     0
  0
CLASS
  1
ACASGREFMASTER
  2
AcAsGrefMaster
  3
AutoSurfResolverServices
 90
        0
280
     0
281
     0
  0
CLASS
  1
ACADGREFMODULE
  2
AcAdGrefModule
  3
AdGrefServices
 90
        0
280
     0
281
     0
  0
CLASS
  1
AMDTMAPISURFMOUDULE
  2
AmdtMApiSurfModule
  3
MApiSurfServices
 90
        0
280
     0
281
     0
  0
CLASS
  1
MAPIADMODULE
  2
MApiAdModule
  3
MApiAdServices
 90
        0
280
     0
281
     0
  0
ENDSEC
  0
SECTION
  2
TABLES
  0
TABLE
  2
VPORT
  5
8
330
0
100
AcDbSymbolTable
 70
     3
  0
VPORT
  5
63F2
330
8
100
AcDbSymbolTableRecord
100
AcDbViewportTableRecord
  2
*Active
 70
     0
 10
0.0
 20
0.0
 11
1.0
 21
1.0
 12
-7.962951612906778
 22
-10.32175866010743
 13
0.0
 23
0.0
 14
0.5
 24
0.5
 15
0.5
 25
0.5
 16
0.0
 26
0.0
 36
1.0
 17
149.7160850922968
 27
215.3673000316101
 37
0.0
 40
291.5374645614597
 41
1.263157894736842
 42
50.0
 43
0.0
 44
0.0
 50
0.0
 51
0.0
 71
     0
 72
   100
 73
     1
 74
     3
 75
     0
 76
     0
 77
     0
 78
     0
281
     0
 65
     0
110
0.0
120
0.0
130
0.0
111
1.0
121
0.0
131
0.0
112
0.0
122
1.0
132
0.0
 79
     0
146
0.0
  0
ENDTAB
  0
TABLE
  2
LTYPE
  5
5
330
0
100
AcDbSymbolTable
 70
    21
  0
LTYPE
  5
14
330
5
100
AcDbSymbolTableRecord
100
AcDbLinetypeTableRecord
  2
ByBlock
 70
     0
  3

 72
    65
 73
     0
 40
0.0
  0
LTYPE
  5
15
330
5
100
AcDbSymbolTableRecord
100
AcDbLinetypeTableRecord
  2
ByLayer
 70
     0
  3

 72
    65
 73
     0
 40
0.0
  0
LTYPE
  5
16
330
5
100
AcDbSymbolTableRecord
100
AcDbLinetypeTableRecord
  2
Continuous
 70
     0
  3
Solid line
 72
    65
 73
     0
 40
0.0
  0
LTYPE
  5
4F
330
5
100
AcDbSymbolTableRecord
100
AcDbLinetypeTableRecord
  2
CENTER
 70
     0
  3
Center ____ _ ____ _ ____ _ ____ _ ____ _ ____
 72
    65
 73
     4
 40
2.0
 49
1.25
 74
     0
 49
-0.25
 74
     0
 49
0.25
 74
     0
 49
-0.25
 74
     0
  0
LTYPE
  5
3DDE
330
5
100
AcDbSymbolTableRecord
100
AcDbLinetypeTableRecord
  2
AM_ISO02W050
 70
     0
  3
__ __ __ __ __ __ __ __ __ __ __ __ __ __ __
 72
    65
 73
     2
 40
7.5
 49
6.0
 74
     0
 49
-1.5
 74
     0
  0
LTYPE
  5
3DDF
330
5
100
AcDbSymbolTableRecord
100
AcDbLinetypeTableRecord
  2
AM_ISO08W050
 70
     0
  3
____ . ____ . ____ . ____ . ____ . ____ . ____
 72
    65
 73
     4
 40
18.0
 49
12.0
 74
     0
 49
-1.5
 74
     0
 49
3.0
 74
     0
 49
-1.5
 74
     0
  0
LTYPE
  5
3DE0
330
5
100
AcDbSymbolTableRecord
100
AcDbLinetypeTableRecord
  2
AM_ISO09W050
 70
     0
  3
_____ . . _____ . . _____ . . ____ .. ____
 72
    65
 73
     6
 40
22.5
 49
12.0
 74
     0
 49
-1.5
 74
     0
 49
3.0
 74
     0
 49
-1.5
 74
     0
 49
3.0
 74
     0
 49
-1.5
 74
     0
  0
LTYPE
  5
3DE1
330
5
100
AcDbSymbolTableRecord
100
AcDbLinetypeTableRecord
  2
Amconstr
 70
     0
  3
_______________________
 72
    65
 73
     2
 40
9999.0
 49
9999.0
 74
     0
 49
0.0
 74
     0
  0
LTYPE
  5
3DE2
330
5
100
AcDbSymbolTableRecord
100
AcDbLinetypeTableRecord
  2
AM_ISO08W050x2
 70
     0
  3
__ . __ . __ . __ . __ . __
 72
    65
 73
     4
 40
9.0
 49
6.0
 74
     0
 49
-0.75
 74
     0
 49
1.5
 74
     0
 49
-0.75
 74
     0
  0
LTYPE
  5
3DE3
330
5
100
AcDbSymbolTableRecord
100
AcDbLinetypeTableRecord
  2
AM_ISO02W050x2
 70
     0
  3
 _ _ _ _ _ _ _ _ _ _ _ _
 72
    65
 73
     2
 40
3.75
 49
3.0
 74
     0
 49
-0.75
 74
     0
  0
LTYPE
  5
3DE6
330
5
100
AcDbSymbolTableRecord
100
AcDbLinetypeTableRecord
  2
Amzigzag
 70
     0
  3
/\/-/\/-/\/-/\/-/\/-/\/
 72
    65
 73
     2
 40
11.0001
 49
0.0001
 74
     4
 75
   135
340
3DE5
 46
0.04
 50
0.0
 44
0.0
 45
0.0
 49
-11.0
 74
     0
  0
LTYPE
  5
3DF4
330
5
100
AcDbSymbolTableRecord
100
AcDbLinetypeTableRecord
  2
ACISOWELD
 70
     0
  3
_ _ _ _ _
 72
    65
 73
     2
 40
2.0
 49
2.0
 74
     0
 49
-1.0
 74
     0
  0
LTYPE
  5
3DF5
330
5
100
AcDbSymbolTableRecord
100
AcDbLinetypeTableRecord
  2
ACISOTGB
 70
     0
  3
__ . . __ . .
 72
    65
 73
     6
 40
9.0
 49
4.0
 74
     0
 49
-1.0
 74
     0
 49
1.0
 74
     0
 49
-1.0
 74
     0
 49
1.0
 74
     0
 49
-1.0
 74
     0
  0
LTYPE
  5
3DF6
330
5
100
AcDbSymbolTableRecord
100
AcDbLinetypeTableRecord
  2
ACISOTGL
 70
     0
  3
_ _ _ _ _
 72
    65
 73
     2
 40
3.0
 49
2.0
 74
     0
 49
-1.0
 74
     0
  0
LTYPE
  5
3FFC
330
5
100
AcDbSymbolTableRecord
100
AcDbLinetypeTableRecord
  2
HIDDEN
 70
     0
  3
__ __ __ __ __ __ __ __ __ __ __ __ __ __ __ __
 72
    65
 73
     2
 40
0.375
 49
0.25
 74
     0
 49
-0.125
 74
     0
  0
LTYPE
  5
3FFD
330
5
100
AcDbSymbolTableRecord
100
AcDbLinetypeTableRecord
  2
PHANTOM2
 70
     0
  3
___ _ _ ___ _ _ ___ _ _ ___ _ _ ___ _ _ ___ _ _
 72
    65
 73
     6
 40
1.25
 49
0.625
 74
     0
 49
-0.125
 74
     0
 49
0.125
 74
     0
 49
-0.125
 74
     0
 49
0.125
 74
     0
 49
-0.125
 74
     0
  0
LTYPE
  5
5255
330
5
100
AcDbSymbolTableRecord
100
AcDbLinetypeTableRecord
  2
CENTER2
 70
     0
  3
Center (.5x) ___ _ ___ _ ___ _ ___ _ ___ _ ___
 72
    65
 73
     4
 40
1.125
 49
0.75
 74
     0
 49
-0.125
 74
     0
 49
0.125
 74
     0
 49
-0.125
 74
     0
  0
LTYPE
  5
5256
330
5
100
AcDbSymbolTableRecord
100
AcDbLinetypeTableRecord
  2
HIDDEN2
 70
     0
  3
Hidden (.5x) _ _ _ _ _ _ _ _ _ _ _ _ _ _ _ _ _
 72
    65
 73
     2
 40
0.1875
 49
0.125
 74
     0
 49
-0.0625
 74
     0
  0
LTYPE
  5
5257
330
5
100
AcDbSymbolTableRecord
100
AcDbLinetypeTableRecord
  2
Amzigzag2
 70
     0
  3
/\/-/\/-/\/-/\/-/\/-/\/
 72
    65
 73
     2
 40
0.4401
 49
0.0001
 74
     4
 75
   135
340
3DE5
 46
0.0016
 50
0.0
 44
0.0
 45
0.0
 49
-0.4400000000000001
 74
     0
  0
LTYPE
  5
5258
330
5
100
AcDbSymbolTableRecord
100
AcDbLinetypeTableRecord
  2
ACANSTGB
 70
     0
  3
__ . . __ . .
 72
    65
 73
     6
 40
0.35433070866
 49
0.15748031496
 74
     0
 49
-0.03937007874
 74
     0
 49
0.03937007874
 74
     0
 49
-0.03937007874
 74
     0
 49
0.03937007874
 74
     0
 49
-0.03937007874
 74
     0
  0
LTYPE
  5
5259
330
5
100
AcDbSymbolTableRecord
100
AcDbLinetypeTableRecord
  2
ACANSTGL
 70
     0
  3
_ _ _ _ _
 72
    65
 73
     2
 40
0.11811023622
 49
0.07874015748
 74
     0
 49
-0.03937007874
 74
     0
  0
LTYPE
  5
53B4
330
5
100
AcDbSymbolTableRecord
100
AcDbLinetypeTableRecord
  2
ASULTYPE
 70
     0
  3
實線
 72
    65
 73
     2
 40
3.0
 49
2.5
 74
     0
 49
0.5
 74
     0
  0
LTYPE
  5
53B5
330
5
100
AcDbSymbolTableRecord
100
AcDbLinetypeTableRecord
  2
ASVLTYPE
 70
     0
  3
__ __ __ __ __ __ __ __ __ __ __ __ __ __ __ __ __ __ __ __ __
 72
    65
 73
     2
 40
0.75
 49
0.5
 74
     0
 49
-0.25
 74
     0
  0
ENDTAB
  0
TABLE
  2
LAYER
  5
2
102
{ACAD_XDICTIONARY
360
400D
102
}
330
0
100
AcDbSymbolTable
 70
     8
  0
LAYER
  5
10
330
2
100
AcDbSymbolTableRecord
100
AcDbLayerTableRecord
  2
0
 70
     0
 62
     7
  6
Continuous
370
    -3
390
F
  0
LAYER
  5
48
330
2
100
AcDbSymbolTableRecord
100
AcDbLayerTableRecord
  2
DIM
 70
     0
 62
     5
  6
Continuous
370
    -3
390
F
  0
LAYER
  5
4A
330
2
100
AcDbSymbolTableRecord
100
AcDbLayerTableRecord
  2
CENTER
 70
     0
 62
     1
  6
CENTER
370
    -3
390
F
  0
LAYER
  5
1545
330
2
100
AcDbSymbolTableRecord
100
AcDbLayerTableRecord
  2
LOGO
 70
     0
 62
     7
  6
Continuous
370
    -3
390
F
  0
LAYER
  5
1A52
330
2
100
AcDbSymbolTableRecord
100
AcDbLayerTableRecord
  2
Defpoints
 70
     0
 62
     7
  6
Continuous
290
     0
370
    -3
390
F
  0
LAYER
  5
522E
330
2
100
AcDbSymbolTableRecord
100
AcDbLayerTableRecord
  2
AM_CL
 70
     0
 62
     1
  6
Amconstr
370
    25
390
F
  0
LAYER
  5
523F
330
2
100
AcDbSymbolTableRecord
100
AcDbLayerTableRecord
  2
AM_7
 70
     0
 62
     4
  6
AM_ISO08W050
370
    25
390
F
  0
LAYER
  5
5280
330
2
100
AcDbSymbolTableRecord
100
AcDbLayerTableRecord
  2
AM_5
 70
     0
 62
     3
  6
Continuous
370
    25
390
F
  0
ENDTAB
  0
TABLE
  2
STYLE
  5
3
330
0
100
AcDbSymbolTable
 70
     9
  0
STYLE
  5
11
330
3
100
AcDbSymbolTableRecord
100
AcDbTextStyleTableRecord
  2
Standard
 70
     0
 40
3.0
 41
1.0
 50
0.0
 71
     0
 42
3.0
  3
KAIU.TTF
  4

1001
ACAD
1000
DFKai-SB
1071
    34865
  0
STYLE
  5
5C
330
3
100
AcDbSymbolTableRecord
100
AcDbTextStyleTableRecord
  2
CHINESET
 70
     0
 40
3.0
 41
1.0
 50
0.0
 71
     0
 42
4.5
  3
simplex.shx
  4
CHINESET.shx
  0
STYLE
  5
3DE5
330
3
100
AcDbSymbolTableRecord
100
AcDbTextStyleTableRecord
  2

 70
     1
 40
0.0
 41
1.0
 50
0.0
 71
     0
 42
4.5
  3
ltypeshp.shx
  4

  0
STYLE
  5
3DE7
330
3
100
AcDbSymbolTableRecord
100
AcDbTextStyleTableRecord
  2
ACISOTS
 70
     0
 40
1.0
 41
1.0
 50
0.0
 71
     0
 42
4.5
  3
isocp.shx
  4
chineset.shx
  0
STYLE
  5
3DF3
330
3
100
AcDbSymbolTableRecord
100
AcDbTextStyleTableRecord
  2
ACISOGDT
 70
     0
 40
0.0
 41
1.0
 50
0.0
 71
     0
 42
4.5
  3
amgdt.shx
  4

  0
STYLE
  5
4003
330
3
100
AcDbSymbolTableRecord
100
AcDbTextStyleTableRecord
  2
dayus
 70
     0
 40
2.5
 41
1.0
 50
0.0
 71
     0
 42
6.0
  3
simplex.shx
  4
dayus.shx
  0
STYLE
  5
525A
330
3
100
AcDbSymbolTableRecord
100
AcDbTextStyleTableRecord
  2
AAA
 70
     0
 40
0.0
 41
1.0
 50
0.0
 71
     0
 42
3.2
  3
TXT
  4

  0
STYLE
  5
525B
330
3
100
AcDbSymbolTableRecord
100
AcDbTextStyleTableRecord
  2
ACANSTS
 70
     0
 40
1.0
 41
1.0
 50
0.0
 71
     0
 42
0.2
  3
romans.shx
  4
chineset.shx
  0
STYLE
  5
525C
330
3
100
AcDbSymbolTableRecord
100
AcDbTextStyleTableRecord
  2
ACANSGDT
 70
     0
 40
0.0
 41
1.0
 50
0.0
 71
     0
 42
0.2
  3
amgdtans.shx
  4

  0
ENDTAB
  0
TABLE
  2
VIEW
  5
6
330
0
100
AcDbSymbolTable
 70
     0
  0
ENDTAB
  0
TABLE
  2
UCS
  5
7
330
0
100
AcDbSymbolTable
 70
     0
  0
ENDTAB
  0
TABLE
  2
APPID
  5
9
330
0
100
AcDbSymbolTable
 70
    25
  0
APPID
  5
12
330
9
100
AcDbSymbolTableRecord
100
AcDbRegAppTableRecord
  2
ACAD
 70
     0
  0
APPID
  5
5F
330
9
100
AcDbSymbolTableRecord
100
AcDbRegAppTableRecord
  2
AD_DRAW
 70
     0
  0
APPID
  5
60
330
9
100
AcDbSymbolTableRecord
100
AcDbRegAppTableRecord
  2
DESIGNERASSEMBLIES
 70
     0
  0
APPID
  5
61
330
9
100
AcDbSymbolTableRecord
100
AcDbRegAppTableRecord
  2
MCAD_NO_VIS
 70
     0
  0
APPID
  5
62
330
9
100
AcDbSymbolTableRecord
100
AcDbRegAppTableRecord
  2
ASURF_PCURVE_APPNAME
 70
     0
  0
APPID
  5
11A1
330
9
100
AcDbSymbolTableRecord
100
AcDbRegAppTableRecord
  2
CONTENTBLOCKICON
 70
     0
  0
APPID
  5
31CE
330
9
100
AcDbSymbolTableRecord
100
AcDbRegAppTableRecord
  2
GENIUS_GENODEF_13
 70
     0
  0
APPID
  5
31CF
330
9
100
AcDbSymbolTableRecord
100
AcDbRegAppTableRecord
  2
GENIUS_GENOBJ-N-FIL_13
 70
     0
  0
APPID
  5
3DC1
330
9
100
AcDbSymbolTableRecord
100
AcDbRegAppTableRecord
  2
ACAD_TEMP_GRAPHIC
 70
     0
  0
APPID
  5
3DD2
330
9
100
AcDbSymbolTableRecord
100
AcDbRegAppTableRecord
  2
ACATTRIBSERVICES
 70
     0
  0
APPID
  5
400C
330
9
100
AcDbSymbolTableRecord
100
AcDbRegAppTableRecord
  2
GENIUS_GENDTOL_13
 70
     0
  0
APPID
  5
4B0F
330
9
100
AcDbSymbolTableRecord
100
AcDbRegAppTableRecord
  2
ACADM_DIM_EDIT
 70
     0
  0
APPID
  5
4B10
330
9
100
AcDbSymbolTableRecord
100
AcDbRegAppTableRecord
  2
AMDT_DM_ADJ
 70
     0
  0
APPID
  5
4B32
330
9
100
AcDbSymbolTableRecord
100
AcDbRegAppTableRecord
  2
GENIUS_GENOENT_13
 70
     0
  0
APPID
  5
4B33
330
9
100
AcDbSymbolTableRecord
100
AcDbRegAppTableRecord
  2
GENIUS_GENOBJ-N-CRS_13
 70
     0
  0
APPID
  5
4B34
330
9
100
AcDbSymbolTableRecord
100
AcDbRegAppTableRecord
  2
GENIUS_GENOLIS_13
 70
     0
  0
APPID
  5
4B35
330
9
100
AcDbSymbolTableRecord
100
AcDbRegAppTableRecord
  2
GENIUS_GENOREF_13
 70
     0
  0
APPID
  5
4B36
330
9
100
AcDbSymbolTableRecord
100
AcDbRegAppTableRecord
  2
ACAD_PSEXT
 70
     0
  0
APPID
  5
4B37
330
9
100
AcDbSymbolTableRecord
100
AcDbRegAppTableRecord
  2
GENIUS_GENREC_14
 70
     0
  0
APPID
  5
4B38
330
9
100
AcDbSymbolTableRecord
100
AcDbRegAppTableRecord
  2
GENIUS_GENOBJ-N-REC_13
 70
     0
  0
APPID
  5
5241
330
9
100
AcDbSymbolTableRecord
100
AcDbRegAppTableRecord
  2
GENIUS_GENOBJ-N-CEN_13
 70
     0
  0
APPID
  5
5242
330
9
100
AcDbSymbolTableRecord
100
AcDbRegAppTableRecord
  2
GENIUS_GENCEN_19
 70
     0
  0
APPID
  5
5335
330
9
100
AcDbSymbolTableRecord
100
AcDbRegAppTableRecord
  2
GENIUS_GENDIM_13
 70
     0
  0
APPID
  5
5336
330
9
100
AcDbSymbolTableRecord
100
AcDbRegAppTableRecord
  2
GENIUS_GE3DTOL_13
 70
     0
  0
APPID
  5
53BA
330
9
100
AcDbSymbolTableRecord
100
AcDbRegAppTableRecord
  2
AMG_3D2D_5.0
 70
     0
  0
ENDTAB
  0
TABLE
  2
DIMSTYLE
  5
A
330
0
100
AcDbSymbolTable
 70
    18
100
AcDbDimStyleTable
 71
     2
340
4006
340
1A4
  0
DIMSTYLE
105
1A4
330
A
100
AcDbSymbolTableRecord
100
AcDbDimStyleTableRecord
  2
ISO-25-1
 70
     0
 41
3.0
 42
3.0
 43
2.0
 44
2.0
 73
     0
 74
     0
 77
     1
 78
     8
 79
     2
140
3.0
141
-3.0
146
0.7
147
1.0
172
     1
176
   256
177
   256
178
   256
271
     2
272
     2
284
     8
289
     0
340
5C
371
    -1
372
    -1
  0
DIMSTYLE
105
3DFA
330
A
100
AcDbSymbolTableRecord
100
AcDbDimStyleTableRecord
  2
AM_ISO
 70
     0
  4
"
 41
2.5
 42
1.0
 43
10.0
 44
1.0
 47
0.1
 48
0.1
 73
     0
 74
     0
 77
     1
 78
     8
 79
     2
140
3.5
141
0.0
143
0.0393701
146
0.71
147
1.5
172
     1
176
   256
177
   256
178
     2
271
     2
272
     3
274
     4
283
     0
284
     8
340
11
371
    -1
372
    -1
  0
DIMSTYLE
105
3DFB
330
A
100
AcDbSymbolTableRecord
100
AcDbDimStyleTableRecord
  2
AM_ISO$3
 70
     0
  4
"
 41
2.5
 42
1.0
 43
10.0
 44
1.0
 47
0.1
 48
0.1
 73
     0
 77
     1
 78
     8
 79
     2
140
3.5
141
0.0
143
0.0393701
146
0.71
147
1.5
176
   256
177
   256
178
     2
271
     2
272
     3
274
     4
283
     0
284
     8
288
     1
289
     0
340
11
371
    -1
372
    -1
  0
DIMSTYLE
105
3DFC
330
A
100
AcDbSymbolTableRecord
100
AcDbDimStyleTableRecord
  2
AM_ISO$4
 70
     0
  4
"
 41
2.5
 42
1.0
 43
10.0
 44
1.0
 47
0.1
 48
0.1
 73
     0
 77
     1
 78
     8
 79
     2
140
3.5
141
0.0
143
0.0393701
146
0.71
147
1.5
176
   256
177
   256
178
     2
271
     2
272
     3
274
     4
283
     0
284
     8
288
     1
289
     0
340
11
371
    -1
372
    -1
  0
DIMSTYLE
105
3DFD
330
A
100
AcDbSymbolTableRecord
100
AcDbDimStyleTableRecord
  2
AM_ISO$6
 70
     0
  4
"
 41
2.5
 42
1.0
 43
10.0
 44
1.0
 47
0.1
 48
0.1
 73
     0
 74
     0
 78
     8
 79
     2
140
3.5
141
0.0
143
0.0393701
146
0.71
147
1.5
172
     1
176
   256
177
   256
178
     2
271
     2
272
     3
274
     4
283
     0
284
     8
340
11
371
    -1
372
    -1
  0
DIMSTYLE
105
3DFE
330
A
100
AcDbSymbolTableRecord
100
AcDbDimStyleTableRecord
  2
AM_ISO$7
 70
     0
  4
"
 41
2.5
 42
1.0
 43
10.0
 44
1.0
 47
0.1
 48
0.1
 73
     0
 74
     0
 77
     1
 78
     8
 79
     2
140
5.0
141
0.0
143
0.0393701
146
0.71
147
1.5
172
     1
176
   256
177
   256
178
     2
271
     2
272
     3
274
     4
283
     0
284
     8
340
11
371
    -1
372
    -1
  0
DIMSTYLE
105
3DFF
330
A
100
AcDbSymbolTableRecord
100
AcDbDimStyleTableRecord
  2
AM_ISO$SF
 70
     0
  4
"
 41
2.5
 42
1.0
 43
10.0
 44
1.0
 47
0.1
 48
0.1
 73
     0
 74
     0
 75
     1
 76
     1
 77
     1
 78
     8
 79
     2
140
3.5
141
0.0
143
0.0393701
146
0.71
147
1.5
172
     1
176
   256
177
   256
178
     2
271
     2
272
     3
274
     4
283
     0
284
     8
340
11
371
    -1
372
    -1
  0
DIMSTYLE
105
3E04
330
A
100
AcDbSymbolTableRecord
100
AcDbDimStyleTableRecord
  2
AM_ISO$SH
 70
     0
  4
"
 41
2.5
 42
1.0
 43
10.0
 44
1.0
 47
0.1
 48
0.1
 73
     0
 74
     0
 75
     1
 76
     1
 77
     1
 78
     8
 79
     2
140
3.5
141
0.0
143
0.0393701
144
2.0
146
0.71
147
1.5
172
     1
173
     1
176
   256
177
   256
178
     2
271
     2
272
     3
274
     4
283
     0
284
     8
340
11
341
3E00
343
3E00
371
    -1
372
    -1
  0
DIMSTYLE
105
4006
102
{ACAD_REACTORS
330
5DBB
330
5DBC
330
5DBD
330
5DBE
330
5DBF
330
5DC0
330
5DC1
330
5DC2
330
61BF
330
61C0
330
6224
330
6225
330
6252
330
6253
330
6254
330
6255
330
6256
330
6258
330
6259
330
6331
330
6388
102
}
330
A
100
AcDbSymbolTableRecord
100
AcDbDimStyleTableRecord
  2
AM_ANSI
 70
     0
  4
"
 41
2.5
 42
1.0
 43
10.0
 44
1.0
 47
0.1
 48
0.1
 78
     8
 79
     2
140
3.5
141
0.0
143
0.0393701
146
0.71
147
1.5
176
   256
177
   256
178
     2
271
     2
272
     3
274
     4
284
     8
340
11
371
    -1
372
    -1
  0
DIMSTYLE
105
4009
330
A
100
AcDbSymbolTableRecord
100
AcDbDimStyleTableRecord
  2
AM_ANSI$7
 70
     0
  4
"
 41
2.5
 42
1.0
 43
10.0
 44
1.0
 47
0.1
 48
0.1
 78
     8
 79
     2
140
5.0
141
0.0
143
0.0393701
146
0.71
147
1.5
176
   256
177
   256
178
     2
271
     2
272
     3
274
     4
284
     8
340
11
371
    -1
372
    -1
  0
DIMSTYLE
105
525D
330
A
100
AcDbSymbolTableRecord
100
AcDbDimStyleTableRecord
  2
Standard
 70
     0
340
11
  0
DIMSTYLE
105
525E
330
A
100
AcDbSymbolTableRecord
100
AcDbDimStyleTableRecord
  2
AM_ANSI$3
 70
     0
  4
mm
 41
0.1
 42
0.05
 43
0.5
 44
0.1
 47
0.1
 48
0.1
 78
     7
 79
     2
140
0.12
141
0.0
146
0.71
147
0.06
176
   256
177
   256
178
     2
274
     4
284
     7
288
     1
289
     0
340
11
371
    -1
372
    -1
  0
DIMSTYLE
105
525F
330
A
100
AcDbSymbolTableRecord
100
AcDbDimStyleTableRecord
  2
AM_ANSI$4
 70
     0
  4
mm
 41
0.1
 42
0.05
 43
0.5
 44
0.1
 47
0.1
 48
0.1
 78
     7
 79
     2
140
0.12
141
0.0
146
0.71
147
0.06
176
   256
177
   256
178
     2
274
     4
284
     7
288
     1
289
     0
340
11
371
    -1
372
    -1
  0
DIMSTYLE
105
5260
330
A
100
AcDbSymbolTableRecord
100
AcDbDimStyleTableRecord
  2
AM_ANSI$SF
 70
     0
  4
mm
 41
0.1
 42
0.05
 43
0.5
 44
0.1
 47
0.1
 48
0.1
 75
     1
 76
     1
 78
     7
 79
     2
140
0.12
141
0.0
146
0.71
147
0.06
176
   256
177
   256
178
     2
274
     4
284
     7
340
11
371
    -1
372
    -1
  0
DIMSTYLE
105
5261
330
A
100
AcDbSymbolTableRecord
100
AcDbDimStyleTableRecord
  2
AM_ANSI$SH
 70
     0
  4
mm
 41
0.1
 42
0.05
 43
0.5
 44
0.1
 47
0.1
 48
0.1
 75
     1
 76
     1
 78
     7
 79
     2
140
0.12
141
0.0
146
0.71
147
0.06
173
     1
176
   256
177
   256
178
     2
274
     4
284
     7
340
11
343
3E00
371
    -1
372
    -1
  0
DIMSTYLE
105
540D
330
A
100
AcDbSymbolTableRecord
100
AcDbDimStyleTableRecord
  2
ISO-25
 70
     0
 41
2.5
 42
0.625
 43
3.75
 44
1.25
 73
     0
 74
     0
 77
     1
 78
     8
140
2.5
141
2.5
143
0.03937007874016
147
0.625
171
     3
172
     1
271
     2
272
     2
274
     3
278
    44
283
     0
284
     8
340
11
  0
DIMSTYLE
105
540E
330
A
100
AcDbSymbolTableRecord
100
AcDbDimStyleTableRecord
  2
ISO-25$0
 70
     0
 41
2.5
 42
0.625
 43
3.75
 44
1.25
 73
     0
 74
     0
 77
     1
 78
     8
140
2.5
141
2.5
143
0.03937007874016
147
0.625
171
     3
172
     1
271
     2
272
     2
274
     3
278
    44
283
     0
284
     8
340
11
  0
DIMSTYLE
105
6384
330
A
100
AcDbSymbolTableRecord
100
AcDbDimStyleTableRecord
  2
ISO-25-1$0
 70
     0
 41
3.0
 42
3.0
 43
2.0
 44
2.0
 73
     0
 74
     0
 77
     1
 78
     8
 79
     2
140
3.0
141
-3.0
146
0.7
147
1.0
172
     1
176
   256
177
   256
178
   256
271
     2
272
     2
284
     8
289
     0
340
5C
371
    -1
372
    -1
  0
ENDTAB
  0
TABLE
  2
BLOCK_RECORD
  5
1
330
0
100
AcDbSymbolTable
 70
    93
  0
BLOCK_RECORD
  5
1F
102
{ACAD_XDICTIONARY
360
3D23
102
}
330
1
100
AcDbSymbolTableRecord
100
AcDbBlockTableRecord
  2
*Model_Space
340
22
  0
BLOCK_RECORD
  5
1B
102
{ACAD_XDICTIONARY
360
3D25
102
}
330
1
100
AcDbSymbolTableRecord
100
AcDbBlockTableRecord
  2
*Paper_Space
340
1E
  0
BLOCK_RECORD
  5
23
102
{ACAD_XDICTIONARY
360
3D27
102
}
330
1
100
AcDbSymbolTableRecord
100
AcDbBlockTableRecord
  2
*Paper_Space0
340
26
  0
BLOCK_RECORD
  5
3E00
330
1
100
AcDbSymbolTableRecord
100
AcDbBlockTableRecord
  2
GENAXEH
340
0
  0
BLOCK_RECORD
  5
4F6A
102
{ACAD_XDICTIONARY
360
4F6B
102
}
330
1
100
AcDbSymbolTableRecord
100
AcDbBlockTableRecord
  2
A$C5ECF147B
340
0
  0
BLOCK_RECORD
  5
528B
102
{ACAD_XDICTIONARY
360
5290
102
}
330
1
100
AcDbSymbolTableRecord
100
AcDbBlockTableRecord
  2
A$C1F6E6265
340
0
102
{BLKREFS
331
5DCF
331
6261
102
}
  0
BLOCK_RECORD
  5
5EB9
330
1
100
AcDbSymbolTableRecord
100
AcDbBlockTableRecord
  2
*D70
340
0
  0
BLOCK_RECORD
  5
5EC5
330
1
100
AcDbSymbolTableRecord
100
AcDbBlockTableRecord
  2
*D71
340
0
  0
BLOCK_RECORD
  5
5ED1
330
1
100
AcDbSymbolTableRecord
100
AcDbBlockTableRecord
  2
*D72
340
0
  0
BLOCK_RECORD
  5
5EDD
330
1
100
AcDbSymbolTableRecord
100
AcDbBlockTableRecord
  2
*D73
340
0
  0
BLOCK_RECORD
  5
5EE9
330
1
100
AcDbSymbolTableRecord
100
AcDbBlockTableRecord
  2
*D74
340
0
  0
BLOCK_RECORD
  5
5EF5
330
1
100
AcDbSymbolTableRecord
100
AcDbBlockTableRecord
  2
*D75
340
0
  0
BLOCK_RECORD
  5
5F01
330
1
100
AcDbSymbolTableRecord
100
AcDbBlockTableRecord
  2
*D76
340
0
  0
BLOCK_RECORD
  5
5F0D
330
1
100
AcDbSymbolTableRecord
100
AcDbBlockTableRecord
  2
*D77
340
0
  0
BLOCK_RECORD
  5
61C2
330
1
100
AcDbSymbolTableRecord
100
AcDbBlockTableRecord
  2
*D78
340
0
  0
BLOCK_RECORD
  5
61CE
330
1
100
AcDbSymbolTableRecord
100
AcDbBlockTableRecord
  2
*D79
340
0
  0
BLOCK_RECORD
  5
6228
330
1
100
AcDbSymbolTableRecord
100
AcDbBlockTableRecord
  2
*D80
340
0
  0
BLOCK_RECORD
  5
6234
330
1
100
AcDbSymbolTableRecord
100
AcDbBlockTableRecord
  2
*D81
340
0
  0
BLOCK_RECORD
  5
6262
330
1
100
AcDbSymbolTableRecord
100
AcDbBlockTableRecord
  2
*D82
340
0
  0
BLOCK_RECORD
  5
626E
330
1
100
AcDbSymbolTableRecord
100
AcDbBlockTableRecord
  2
*D83
340
0
  0
BLOCK_RECORD
  5
627A
330
1
100
AcDbSymbolTableRecord
100
AcDbBlockTableRecord
  2
*D84
340
0
  0
BLOCK_RECORD
  5
6286
330
1
100
AcDbSymbolTableRecord
100
AcDbBlockTableRecord
  2
*D85
340
0
  0
BLOCK_RECORD
  5
6292
330
1
100
AcDbSymbolTableRecord
100
AcDbBlockTableRecord
  2
*D86
340
0
  0
BLOCK_RECORD
  5
62AA
330
1
100
AcDbSymbolTableRecord
100
AcDbBlockTableRecord
  2
*D88
340
0
  0
BLOCK_RECORD
  5
62B6
330
1
100
AcDbSymbolTableRecord
100
AcDbBlockTableRecord
  2
*D89
340
0
  0
BLOCK_RECORD
  5
6333
330
1
100
AcDbSymbolTableRecord
100
AcDbBlockTableRecord
  2
*D90
340
0
  0
BLOCK_RECORD
  5
6389
330
1
100
AcDbSymbolTableRecord
100
AcDbBlockTableRecord
  2
*D92
340
0
  0
ENDTAB
  0
ENDSEC
  0
SECTION
  2
BLOCKS
  0
BLOCK
  5
20
330
1F
100
AcDbEntity
  8
0
100
AcDbBlockBegin
  2
*Model_Space
 70
     0
 10
0.0
 20
0.0
 30
0.0
  3
*Model_Space
  1

  0
ENDBLK
  5
21
330
1F
100
AcDbEntity
  8
0
100
AcDbBlockEnd
  0
BLOCK
  5
1C
330
1B
100
AcDbEntity
 67
     1
  8
0
100
AcDbBlockBegin
  2
*Paper_Space
 70
     0
 10
0.0
 20
0.0
 30
0.0
  3
*Paper_Space
  1

  0
ENDBLK
  5
1D
330
1B
100
AcDbEntity
 67
     1
  8
0
100
AcDbBlockEnd
  0
BLOCK
  5
24
330
23
100
AcDbEntity
  8
0
100
AcDbBlockBegin
  2
*Paper_Space0
 70
     0
 10
0.0
 20
0.0
 30
0.0
  3
*Paper_Space0
  1

  0
ENDBLK
  5
25
330
23
100
AcDbEntity
  8
0
100
AcDbBlockEnd
  0
BLOCK
  5
3E02
330
3E00
100
AcDbEntity
  8
0
100
AcDbBlockBegin
  2
GENAXEH
 70
     0
 10
0.0
 20
0.0
 30
0.0
  3
GENAXEH
  1

  0
LINE
  5
3E01
330
3E00
100
AcDbEntity
  8
0
100
AcDbLine
 10
-1.0
 20
0.0
 30
0.0
 11
1.0
 21
0.0
 31
0.0
  0
ENDBLK
  5
3E03
330
3E00
100
AcDbEntity
  8
0
100
AcDbBlockEnd
  0
BLOCK
  5
4F6C
330
4F6A
100
AcDbEntity
  8
0
100
AcDbBlockBegin
  2
A$C5ECF147B
 70
     0
 10
0.0
 20
0.0
 30
0.0
  3
A$C5ECF147B
  1

  0
CIRCLE
  5
4F6D
330
4F6A
100
AcDbEntity
  8
0
100
AcDbCircle
 10
-3.079240456948355
 20
2.061381943681453
 30
0.0
 40
1.25
  0
CIRCLE
  5
4F6E
330
4F6A
100
AcDbEntity
  8
0
100
AcDbCircle
 10
-3.079240456948355
 20
2.061381943681453
 30
0.0
 40
0.75
  0
ENDBLK
  5
4F6F
330
4F6A
100
AcDbEntity
  8
0
100
AcDbBlockEnd
  0
BLOCK
  5
5292
330
528B
100
AcDbEntity
  8
0
100
AcDbBlockBegin
  2
A$C1F6E6265
 70
     0
 10
0.0
 20
0.0
 30
0.0
  3
A$C1F6E6265
  1

  0
LINE
  5
528C
330
528B
100
AcDbEntity
  8
AM_5
 62
     5
100
AcDbLine
 10
12.57846733029419
 20
0.460783587398737
 30
0.0
 11
7.091423997858555
 21
0.460783587398737
 31
0.0
  0
LINE
  5
528D
330
528B
100
AcDbEntity
  8
AM_5
 62
     5
100
AcDbLine
 10
7.091423997858555
 20
0.460783587398737
 30
0.0
 11
3.50000046420655
 21
0.460783587398737
 31
0.0
  0
TRACE
  5
528E
330
528B
100
AcDbEntity
  8
AM_5
 62
     5
370
    35
100
AcDbTrace
 10
3.50000046420655
 20
0.9215673268987245
 30
0.0
 11
3.50000046420655
 21
-0.0000001521012507
 31
0.0
 12
0.0000004642065505
 22
0.460783587398737
 32
0.0
 13
0.0000004642065505
 23
0.460783587398737
 33
0.0
  0
MTEXT
  5
528F
330
528B
100
AcDbEntity
  8
AM_5
 62
     5
100
AcDbMText
 10
6.603782167567317
 20
1.421084835219261
 30
0.0
 40
2.449999999999999
 41
0.0
 71
     7
 72
     5
  1
SL
  7
ACISOTS
 73
     1
 44
1.0
1001
ACAD
1000
MTEXTBEGIN
1070
    73
1070
     1
1070
    44
1040
1.0
1070
    74
1070
     0
1000
MTEXTEND
  0
ENDBLK
  5
5293
330
528B
100
AcDbEntity
  8
0
100
AcDbBlockEnd
  0
BLOCK
  5
5EC3
330
5EB9
100
AcDbEntity
  8
0
100
AcDbBlockBegin
  2
*D70
 70
     1
 10
0.0
 20
0.0
 30
0.0
  3
*D70
  1

  0
LINE
  5
6151
330
5EB9
100
AcDbEntity
  8
DIM
100
AcDbLine
 10
73.81160699621466
 20
298.721831176012
 30
0.0
 11
73.81160699621466
 21
303.6628358288516
 31
0.0
  0
LINE
  5
6152
330
5EB9
100
AcDbEntity
  8
DIM
100
AcDbLine
 10
81.31160699621455
 20
279.3317097081264
 30
0.0
 11
81.31160699621455
 21
303.6628358288516
 31
0.0
  0
LINE
  5
6153
330
5EB9
100
AcDbEntity
  8
DIM
100
AcDbLine
 10
75.81160699621467
 20
302.1628358288516
 30
0.0
 11
79.31160699621455
 21
302.1628358288516
 31
0.0
  0
SOLID
  5
6154
330
5EB9
100
AcDbEntity
  8
DIM
100
AcDbTrace
 10
75.81160699621467
 20
302.4961691621849
 30
0.0
 11
75.81160699621467
 21
301.8295024955183
 31
0.0
 12
73.81160699621466
 22
302.1628358288516
 32
0.0
 13
73.81160699621466
 23
302.1628358288516
 33
0.0
  0
SOLID
  5
6155
330
5EB9
100
AcDbEntity
  8
DIM
100
AcDbTrace
 10
79.31160699621455
 20
302.4961691621849
 30
0.0
 11
79.31160699621455
 21
301.8295024955183
 31
0.0
 12
81.31160699621455
 22
302.1628358288516
 32
0.0
 13
81.31160699621455
 23
302.1628358288516
 33
0.0
  0
MTEXT
  5
6156
330
5EB9
100
AcDbEntity
  8
DIM
100
AcDbMText
 10
77.5616069962146
 20
304.4128358288516
 30
0.0
 40
2.5
 41
0.0
 71
     5
 72
     1
  1
\A1;7.5
  7
dayus
 73
     1
 44
1.0
1001
ACAD
1000
MTEXTBEGIN
1070
    73
1070
     1
1070
    44
1040
1.0
1070
    74
1070
     0
1000
MTEXTEND
  0
POINT
  5
6157
330
5EB9
100
AcDbEntity
  8
Defpoints
 62
     0
100
AcDbPoint
 10
73.81160699621466
 20
297.221831176012
 30
0.0
  0
POINT
  5
6158
330
5EB9
100
AcDbEntity
  8
Defpoints
 62
     0
100
AcDbPoint
 10
81.31160699621455
 20
277.8317097081264
 30
0.0
  0
POINT
  5
6159
330
5EB9
100
AcDbEntity
  8
Defpoints
 62
     0
100
AcDbPoint
 10
81.31160699621455
 20
302.1628358288516
 30
0.0
  0
ENDBLK
  5
5EC4
330
5EB9
100
AcDbEntity
  8
0
100
AcDbBlockEnd
  0
BLOCK
  5
5ECF
330
5EC5
100
AcDbEntity
  8
0
100
AcDbBlockBegin
  2
*D71
 70
     1
 10
0.0
 20
0.0
 30
0.0
  3
*D71
  1

  0
LINE
  5
613F
330
5EC5
100
AcDbEntity
  8
DIM
100
AcDbLine
 10
116.3116069962145
 20
277.8317097081264
 30
0.0
 11
116.3116069962145
 21
303.6628358288516
 31
0.0
  0
LINE
  5
6140
330
5EC5
100
AcDbEntity
  8
DIM
100
AcDbLine
 10
123.8116077412726
 20
298.7218311760118
 30
0.0
 11
123.8116077412726
 21
303.6628358288516
 31
0.0
  0
LINE
  5
6141
330
5EC5
100
AcDbEntity
  8
DIM
100
AcDbLine
 10
118.3116069962145
 20
302.1628358288516
 30
0.0
 11
121.8116077412726
 21
302.1628358288516
 31
0.0
  0
SOLID
  5
6142
330
5EC5
100
AcDbEntity
  8
DIM
100
AcDbTrace
 10
118.3116069962145
 20
302.4961691621849
 30
0.0
 11
118.3116069962145
 21
301.8295024955183
 31
0.0
 12
116.3116069962145
 22
302.1628358288516
 32
0.0
 13
116.3116069962145
 23
302.1628358288516
 33
0.0
  0
SOLID
  5
6143
330
5EC5
100
AcDbEntity
  8
DIM
100
AcDbTrace
 10
121.8116077412726
 20
302.4961691621849
 30
0.0
 11
121.8116077412726
 21
301.8295024955183
 31
0.0
 12
123.8116077412726
 22
302.1628358288516
 32
0.0
 13
123.8116077412726
 23
302.1628358288516
 33
0.0
  0
MTEXT
  5
6144
330
5EC5
100
AcDbEntity
  8
DIM
100
AcDbMText
 10
120.0616073687436
 20
304.4128358288516
 30
0.0
 40
2.5
 41
0.0
 71
     5
 72
     1
  1
\A1;7.5
  7
dayus
 73
     1
 44
1.0
1001
ACAD
1000
MTEXTBEGIN
1070
    73
1070
     1
1070
    44
1040
1.0
1070
    74
1070
     0
1000
MTEXTEND
  0
POINT
  5
6145
330
5EC5
100
AcDbEntity
  8
Defpoints
 62
     0
100
AcDbPoint
 10
116.3116069962145
 20
276.3317097081264
 30
0.0
  0
POINT
  5
6146
330
5EC5
100
AcDbEntity
  8
Defpoints
 62
     0
100
AcDbPoint
 10
123.8116077412726
 20
297.2218311760118
 30
0.0
  0
POINT
  5
6147
330
5EC5
100
AcDbEntity
  8
Defpoints
 62
     0
100
AcDbPoint
 10
123.8116077412726
 20
302.1628358288516
 30
0.0
  0
ENDBLK
  5
5ED0
330
5EC5
100
AcDbEntity
  8
0
100
AcDbBlockEnd
  0
BLOCK
  5
5EDB
330
5ED1
100
AcDbEntity
  8
0
100
AcDbBlockBegin
  2
*D72
 70
     1
 10
0.0
 20
0.0
 30
0.0
  3
*D72
  1

  0
LINE
  5
616E
330
5ED1
100
AcDbEntity
  8
DIM
100
AcDbLine
 10
73.8116069962145
 20
298.7218311760121
 30
0.0
 11
73.8116069962145
 21
317.955032839627
 31
0.0
  0
LINE
  5
616F
330
5ED1
100
AcDbEntity
  8
DIM
100
AcDbLine
 10
123.8116077412725
 20
298.7218311760119
 30
0.0
 11
123.8116077412725
 21
317.955032839627
 31
0.0
  0
LINE
  5
6170
330
5ED1
100
AcDbEntity
  8
DIM
100
AcDbLine
 10
75.81160699621449
 20
316.455032839627
 30
0.0
 11
121.8116077412725
 21
316.455032839627
 31
0.0
  0
SOLID
  5
6171
330
5ED1
100
AcDbEntity
  8
DIM
100
AcDbTrace
 10
75.81160699621449
 20
316.7883661729604
 30
0.0
 11
75.81160699621449
 21
316.1216995062937
 31
0.0
 12
73.8116069962145
 22
316.455032839627
 32
0.0
 13
73.8116069962145
 23
316.455032839627
 33
0.0
  0
SOLID
  5
6172
330
5ED1
100
AcDbEntity
  8
DIM
100
AcDbTrace
 10
121.8116077412725
 20
316.7883661729604
 30
0.0
 11
121.8116077412725
 21
316.1216995062937
 31
0.0
 12
123.8116077412725
 22
316.455032839627
 32
0.0
 13
123.8116077412725
 23
316.455032839627
 33
0.0
  0
MTEXT
  5
6173
330
5ED1
100
AcDbEntity
  8
DIM
100
AcDbMText
 10
98.81160736874353
 20
318.7050328396271
 30
0.0
 40
2.5
 41
0.0
 71
     5
 72
     1
  1
\A1;45+stroke=50
  7
dayus
 73
     1
 44
1.0
1001
ACAD
1000
MTEXTBEGIN
1070
    73
1070
     1
1070
    44
1040
1.0
1070
    74
1070
     0
1000
MTEXTEND
  0
POINT
  5
6174
330
5ED1
100
AcDbEntity
  8
Defpoints
 62
     0
100
AcDbPoint
 10
73.8116069962145
 20
297.2218311760121
 30
0.0
  0
POINT
  5
6175
330
5ED1
100
AcDbEntity
  8
Defpoints
 62
     0
100
AcDbPoint
 10
123.8116077412725
 20
297.2218311760119
 30
0.0
  0
POINT
  5
6176
330
5ED1
100
AcDbEntity
  8
Defpoints
 62
     0
100
AcDbPoint
 10
123.8116077412725
 20
316.455032839627
 30
0.0
  0
ENDBLK
  5
5EDC
330
5ED1
100
AcDbEntity
  8
0
100
AcDbBlockEnd
  0
BLOCK
  5
5EE7
330
5EDD
100
AcDbEntity
  8
0
100
AcDbBlockBegin
  2
*D73
 70
     1
 10
0.0
 20
0.0
 30
0.0
  3
*D73
  1

  0
LINE
  5
6182
330
5EDD
100
AcDbEntity
  8
DIM
100
AcDbLine
 10
47.81160645977275
 20
275.4718320216529
 30
0.0
 11
47.81160645977275
 21
327.4145223743488
 31
0.0
  0
LINE
  5
6183
330
5EDD
100
AcDbEntity
  8
DIM
100
AcDbLine
 10
123.8116077412725
 20
298.7218311760119
 30
0.0
 11
123.8116077412725
 21
327.4145223743488
 31
0.0
  0
LINE
  5
6184
330
5EDD
100
AcDbEntity
  8
DIM
100
AcDbLine
 10
49.81160645977275
 20
325.9145223743488
 30
0.0
 11
121.8116077412725
 21
325.9145223743488
 31
0.0
  0
SOLID
  5
6185
330
5EDD
100
AcDbEntity
  8
DIM
100
AcDbTrace
 10
49.81160645977275
 20
326.2478557076822
 30
0.0
 11
49.81160645977275
 21
325.5811890410155
 31
0.0
 12
47.81160645977275
 22
325.9145223743488
 32
0.0
 13
47.81160645977275
 23
325.9145223743488
 33
0.0
  0
SOLID
  5
6186
330
5EDD
100
AcDbEntity
  8
DIM
100
AcDbTrace
 10
121.8116077412725
 20
326.2478557076822
 30
0.0
 11
121.8116077412725
 21
325.5811890410155
 31
0.0
 12
123.8116077412725
 22
325.9145223743488
 32
0.0
 13
123.8116077412725
 23
325.9145223743488
 33
0.0
  0
MTEXT
  5
6187
330
5EDD
100
AcDbEntity
  8
DIM
100
AcDbMText
 10
85.81160710052264
 20
328.1645223743489
 30
0.0
 40
2.5
 41
0.0
 71
     5
 72
     1
  1
\A1;71+stroke=76
  7
dayus
 73
     1
 44
1.0
1001
ACAD
1000
MTEXTBEGIN
1070
    73
1070
     1
1070
    44
1040
1.0
1070
    74
1070
     0
1000
MTEXTEND
  0
POINT
  5
6188
330
5EDD
100
AcDbEntity
  8
Defpoints
 62
     0
100
AcDbPoint
 10
47.81160645977275
 20
273.9718320216529
 30
0.0
  0
POINT
  5
6189
330
5EDD
100
AcDbEntity
  8
Defpoints
 62
     0
100
AcDbPoint
 10
123.8116077412725
 20
297.2218311760119
 30
0.0
  0
POINT
  5
618A
330
5EDD
100
AcDbEntity
  8
Defpoints
 62
     0
100
AcDbPoint
 10
123.8116077412725
 20
325.9145223743488
 30
0.0
  0
ENDBLK
  5
5EE8
330
5EDD
100
AcDbEntity
  8
0
100
AcDbBlockEnd
  0
BLOCK
  5
5EF3
330
5EE9
100
AcDbEntity
  8
0
100
AcDbBlockBegin
  2
*D74
 70
     1
 10
0.0
 20
0.0
 30
0.0
  3
*D74
  1

  0
LINE
  5
615A
330
5EE9
100
AcDbEntity
  8
DIM
100
AcDbLine
 10
66.81160678014771
 20
276.4718317199043
 30
0.0
 11
66.81160678014771
 21
309.8384320078196
 31
0.0
  0
LINE
  5
615B
330
5EE9
100
AcDbEntity
  8
DIM
100
AcDbLine
 10
73.8116069962146
 20
298.721831176012
 30
0.0
 11
73.8116069962146
 21
309.8384320078196
 31
0.0
  0
LINE
  5
615C
330
5EE9
100
AcDbEntity
  8
DIM
100
AcDbLine
 10
68.81160678014771
 20
308.3384320078196
 30
0.0
 11
71.81160699621461
 21
308.3384320078196
 31
0.0
  0
SOLID
  5
615D
330
5EE9
100
AcDbEntity
  8
DIM
100
AcDbTrace
 10
68.81160678014771
 20
308.6717653411529
 30
0.0
 11
68.81160678014771
 21
308.0050986744863
 31
0.0
 12
66.81160678014771
 22
308.3384320078196
 32
0.0
 13
66.81160678014771
 23
308.3384320078196
 33
0.0
  0
SOLID
  5
615E
330
5EE9
100
AcDbEntity
  8
DIM
100
AcDbTrace
 10
71.81160699621461
 20
308.6717653411529
 30
0.0
 11
71.81160699621461
 21
308.0050986744863
 31
0.0
 12
73.8116069962146
 22
308.3384320078196
 32
0.0
 13
73.8116069962146
 23
308.3384320078196
 33
0.0
  0
MTEXT
  5
615F
330
5EE9
100
AcDbEntity
  8
DIM
100
AcDbMText
 10
70.31160688818116
 20
310.5884320078196
 30
0.0
 40
2.5
 41
0.0
 71
     5
 72
     1
  1
\A1;7
  7
dayus
 73
     1
 44
1.0
1001
ACAD
1000
MTEXTBEGIN
1070
    73
1070
     1
1070
    44
1040
1.0
1070
    74
1070
     0
1000
MTEXTEND
  0
POINT
  5
6160
330
5EE9
100
AcDbEntity
  8
Defpoints
 62
     0
100
AcDbPoint
 10
66.81160678014771
 20
274.9718317199043
 30
0.0
  0
POINT
  5
6161
330
5EE9
100
AcDbEntity
  8
Defpoints
 62
     0
100
AcDbPoint
 10
73.8116069962146
 20
297.221831176012
 30
0.0
  0
POINT
  5
6162
330
5EE9
100
AcDbEntity
  8
Defpoints
 62
     0
100
AcDbPoint
 10
73.8116069962146
 20
308.3384320078196
 30
0.0
  0
ENDBLK
  5
5EF4
330
5EE9
100
AcDbEntity
  8
0
100
AcDbBlockEnd
  0
BLOCK
  5
5EFF
330
5EF5
100
AcDbEntity
  8
0
100
AcDbBlockBegin
  2
*D75
 70
     1
 10
0.0
 20
0.0
 30
0.0
  3
*D75
  1

  0
LINE
  5
6163
330
5EF5
100
AcDbEntity
  8
DIM
100
AcDbLine
 10
47.81160645977275
 20
275.4718320216529
 30
0.0
 11
47.81160645977275
 21
309.8384320078196
 31
0.0
  0
LINE
  5
6164
330
5EF5
100
AcDbEntity
  8
DIM
100
AcDbLine
 10
66.81160678014771
 20
276.4718317199043
 30
0.0
 11
66.81160678014771
 21
309.8384320078196
 31
0.0
  0
LINE
  5
6165
330
5EF5
100
AcDbEntity
  8
DIM
100
AcDbLine
 10
49.81160645977275
 20
308.3384320078196
 30
0.0
 11
64.81160678014771
 21
308.3384320078196
 31
0.0
  0
SOLID
  5
6166
330
5EF5
100
AcDbEntity
  8
DIM
100
AcDbTrace
 10
49.81160645977275
 20
308.6717653411529
 30
0.0
 11
49.81160645977275
 21
308.0050986744863
 31
0.0
 12
47.81160645977275
 22
308.3384320078196
 32
0.0
 13
47.81160645977275
 23
308.3384320078196
 33
0.0
  0
SOLID
  5
6167
330
5EF5
100
AcDbEntity
  8
DIM
100
AcDbTrace
 10
64.81160678014771
 20
308.6717653411529
 30
0.0
 11
64.81160678014771
 21
308.0050986744863
 31
0.0
 12
66.81160678014771
 22
308.3384320078196
 32
0.0
 13
66.81160678014771
 23
308.3384320078196
 33
0.0
  0
MTEXT
  5
6168
330
5EF5
100
AcDbEntity
  8
DIM
100
AcDbMText
 10
57.31160661996023
 20
310.5884320078196
 30
0.0
 40
2.5
 41
0.0
 71
     5
 72
     1
  1
\A1;19
  7
dayus
 73
     1
 44
1.0
1001
ACAD
1000
MTEXTBEGIN
1070
    73
1070
     1
1070
    44
1040
1.0
1070
    74
1070
     0
1000
MTEXTEND
  0
POINT
  5
6169
330
5EF5
100
AcDbEntity
  8
Defpoints
 62
     0
100
AcDbPoint
 10
47.81160645977275
 20
273.9718320216529
 30
0.0
  0
POINT
  5
616A
330
5EF5
100
AcDbEntity
  8
Defpoints
 62
     0
100
AcDbPoint
 10
66.81160678014771
 20
274.9718317199043
 30
0.0
  0
POINT
  5
616B
330
5EF5
100
AcDbEntity
  8
Defpoints
 62
     0
100
AcDbPoint
 10
66.81160678014771
 20
308.3384320078196
 30
0.0
  0
ENDBLK
  5
5F00
330
5EF5
100
AcDbEntity
  8
0
100
AcDbBlockEnd
  0
BLOCK
  5
5F0B
330
5F01
100
AcDbEntity
  8
0
100
AcDbBlockBegin
  2
*D76
 70
     1
 10
0.0
 20
0.0
 30
0.0
  3
*D76
  1

  0
LINE
  5
6148
330
5F01
100
AcDbEntity
  8
DIM
100
AcDbLine
 10
73.8116069962145
 20
298.7218311760121
 30
0.0
 11
73.8116069962145
 21
309.8384320078195
 31
0.0
  0
LINE
  5
6149
330
5F01
100
AcDbEntity
  8
DIM
100
AcDbLine
 10
87.81160742834817
 20
298.7218311760121
 30
0.0
 11
87.81160742834817
 21
309.8384320078195
 31
0.0
  0
LINE
  5
614A
330
5F01
100
AcDbEntity
  8
DIM
100
AcDbLine
 10
75.81160699621449
 20
308.3384320078195
 30
0.0
 11
85.81160742834816
 21
308.3384320078195
 31
0.0
  0
SOLID
  5
614B
330
5F01
100
AcDbEntity
  8
DIM
100
AcDbTrace
 10
75.81160699621449
 20
308.6717653411528
 30
0.0
 11
75.81160699621449
 21
308.0050986744862
 31
0.0
 12
73.8116069962145
 22
308.3384320078195
 32
0.0
 13
73.8116069962145
 23
308.3384320078195
 33
0.0
  0
SOLID
  5
614C
330
5F01
100
AcDbEntity
  8
DIM
100
AcDbTrace
 10
85.81160742834816
 20
308.6717653411528
 30
0.0
 11
85.81160742834816
 21
308.0050986744862
 31
0.0
 12
87.81160742834817
 22
308.3384320078195
 32
0.0
 13
87.81160742834817
 23
308.3384320078195
 33
0.0
  0
MTEXT
  5
614D
330
5F01
100
AcDbEntity
  8
DIM
100
AcDbMText
 10
80.81160721228133
 20
310.5884320078195
 30
0.0
 40
2.5
 41
0.0
 71
     5
 72
     1
  1
\A1;14
  7
dayus
 73
     1
 44
1.0
1001
ACAD
1000
MTEXTBEGIN
1070
    73
1070
     1
1070
    44
1040
1.0
1070
    74
1070
     0
1000
MTEXTEND
  0
POINT
  5
614E
330
5F01
100
AcDbEntity
  8
Defpoints
 62
     0
100
AcDbPoint
 10
73.8116069962145
 20
297.2218311760121
 30
0.0
  0
POINT
  5
614F
330
5F01
100
AcDbEntity
  8
Defpoints
 62
     0
100
AcDbPoint
 10
87.81160742834817
 20
297.2218311760121
 30
0.0
  0
POINT
  5
6150
330
5F01
100
AcDbEntity
  8
Defpoints
 62
     0
100
AcDbPoint
 10
87.81160742834817
 20
308.3384320078195
 30
0.0
  0
ENDBLK
  5
5F0C
330
5F01
100
AcDbEntity
  8
0
100
AcDbBlockEnd
  0
BLOCK
  5
5F17
330
5F0D
100
AcDbEntity
  8
0
100
AcDbBlockBegin
  2
*D77
 70
     1
 10
0.0
 20
0.0
 30
0.0
  3
*D77
  1

  0
LINE
  5
6136
330
5F0D
100
AcDbEntity
  8
DIM
100
AcDbLine
 10
109.8116054464937
 20
298.721831176012
 30
0.0
 11
109.8116054464937
 21
309.8384320078195
 31
0.0
  0
LINE
  5
6137
330
5F0D
100
AcDbEntity
  8
DIM
100
AcDbLine
 10
123.8116077412725
 20
298.7218311760119
 30
0.0
 11
123.8116077412725
 21
309.8384320078195
 31
0.0
  0
LINE
  5
6138
330
5F0D
100
AcDbEntity
  8
DIM
100
AcDbLine
 10
111.8116054464937
 20
308.3384320078195
 30
0.0
 11
121.8116077412725
 21
308.3384320078195
 31
0.0
  0
SOLID
  5
6139
330
5F0D
100
AcDbEntity
  8
DIM
100
AcDbTrace
 10
111.8116054464937
 20
308.6717653411528
 30
0.0
 11
111.8116054464937
 21
308.0050986744862
 31
0.0
 12
109.8116054464937
 22
308.3384320078195
 32
0.0
 13
109.8116054464937
 23
308.3384320078195
 33
0.0
  0
SOLID
  5
613A
330
5F0D
100
AcDbEntity
  8
DIM
100
AcDbTrace
 10
121.8116077412725
 20
308.6717653411528
 30
0.0
 11
121.8116077412725
 21
308.0050986744862
 31
0.0
 12
123.8116077412725
 22
308.3384320078195
 32
0.0
 13
123.8116077412725
 23
308.3384320078195
 33
0.0
  0
MTEXT
  5
613B
330
5F0D
100
AcDbEntity
  8
DIM
100
AcDbMText
 10
116.8116065938831
 20
310.5884320078195
 30
0.0
 40
2.5
 41
0.0
 71
     5
 72
     1
  1
\A1;14
  7
dayus
 73
     1
 44
1.0
1001
ACAD
1000
MTEXTBEGIN
1070
    73
1070
     1
1070
    44
1040
1.0
1070
    74
1070
     0
1000
MTEXTEND
  0
POINT
  5
613C
330
5F0D
100
AcDbEntity
  8
Defpoints
 62
     0
100
AcDbPoint
 10
109.8116054464937
 20
297.221831176012
 30
0.0
  0
POINT
  5
613D
330
5F0D
100
AcDbEntity
  8
Defpoints
 62
     0
100
AcDbPoint
 10
123.8116077412725
 20
297.2218311760119
 30
0.0
  0
POINT
  5
613E
330
5F0D
100
AcDbEntity
  8
Defpoints
 62
     0
100
AcDbPoint
 10
123.8116077412725
 20
308.3384320078195
 30
0.0
  0
ENDBLK
  5
5F18
330
5F0D
100
AcDbEntity
  8
0
100
AcDbBlockEnd
  0
BLOCK
  5
61CC
330
61C2
100
AcDbEntity
  8
0
100
AcDbBlockBegin
  2
*D78
 70
     1
 10
0.0
 20
0.0
 30
0.0
  3
*D78
  1

  0
LINE
  5
61F5
330
61C2
100
AcDbEntity
  8
DIM
100
AcDbLine
 10
201.915605758421
 20
295.1797350354135
 30
0.0
 11
201.915605758421
 21
306.1348981474529
 31
0.0
  0
LINE
  5
61F6
330
61C2
100
AcDbEntity
  8
DIM
100
AcDbLine
 10
239.9156057584209
 20
295.1797350354135
 30
0.0
 11
239.9156057584209
 21
306.1348981474529
 31
0.0
  0
LINE
  5
61F7
330
61C2
100
AcDbEntity
  8
DIM
100
AcDbLine
 10
203.915605758421
 20
304.6348981474529
 30
0.0
 11
237.9156057584209
 21
304.6348981474529
 31
0.0
  0
SOLID
  5
61F8
330
61C2
100
AcDbEntity
  8
DIM
100
AcDbTrace
 10
203.915605758421
 20
304.9682314807862
 30
0.0
 11
203.915605758421
 21
304.3015648141196
 31
0.0
 12
201.915605758421
 22
304.6348981474529
 32
0.0
 13
201.915605758421
 23
304.6348981474529
 33
0.0
  0
SOLID
  5
61F9
330
61C2
100
AcDbEntity
  8
DIM
100
AcDbTrace
 10
237.9156057584209
 20
304.9682314807862
 30
0.0
 11
237.9156057584209
 21
304.3015648141196
 31
0.0
 12
239.9156057584209
 22
304.6348981474529
 32
0.0
 13
239.9156057584209
 23
304.6348981474529
 33
0.0
  0
MTEXT
  5
61FA
330
61C2
100
AcDbEntity
  8
DIM
100
AcDbMText
 10
220.9156057584209
 20
306.8848981474529
 30
0.0
 40
2.5
 41
0.0
 71
     5
 72
     1
  1
\A1;□38
  7
dayus
 73
     1
 44
1.0
1001
ACAD
1000
MTEXTBEGIN
1070
    73
1070
     1
1070
    44
1040
1.0
1070
    74
1070
     0
1000
MTEXTEND
  0
POINT
  5
61FB
330
61C2
100
AcDbEntity
  8
Defpoints
 62
     0
100
AcDbPoint
 10
201.915605758421
 20
293.6797350354136
 30
0.0
  0
POINT
  5
61FC
330
61C2
100
AcDbEntity
  8
Defpoints
 62
     0
100
AcDbPoint
 10
239.9156057584209
 20
293.6797350354135
 30
0.0
  0
POINT
  5
61FD
330
61C2
100
AcDbEntity
  8
Defpoints
 62
     0
100
AcDbPoint
 10
239.9156057584209
 20
304.6348981474529
 30
0.0
  0
ENDBLK
  5
61CD
330
61C2
100
AcDbEntity
  8
0
100
AcDbBlockEnd
  0
BLOCK
  5
61D8
330
61CE
100
AcDbEntity
  8
0
100
AcDbBlockBegin
  2
*D79
 70
     1
 10
0.0
 20
0.0
 30
0.0
  3
*D79
  1

  0
LINE
  5
6219
330
61CE
100
AcDbEntity
  8
DIM
100
AcDbLine
 10
193.665605758421
 20
292.7218318316635
 30
0.0
 11
193.665605758421
 21
312.7095695189021
 31
0.0
  0
LINE
  5
621A
330
61CE
100
AcDbEntity
  8
DIM
100
AcDbLine
 10
248.165605758421
 20
292.7218318316633
 30
0.0
 11
248.165605758421
 21
312.7095695189021
 31
0.0
  0
LINE
  5
621B
330
61CE
100
AcDbEntity
  8
DIM
100
AcDbLine
 10
195.665605758421
 20
311.2095695189021
 30
0.0
 11
246.165605758421
 21
311.2095695189021
 31
0.0
  0
SOLID
  5
621C
330
61CE
100
AcDbEntity
  8
DIM
100
AcDbTrace
 10
195.665605758421
 20
311.5429028522354
 30
0.0
 11
195.665605758421
 21
310.8762361855688
 31
0.0
 12
193.665605758421
 22
311.2095695189021
 32
0.0
 13
193.665605758421
 23
311.2095695189021
 33
0.0
  0
SOLID
  5
621D
330
61CE
100
AcDbEntity
  8
DIM
100
AcDbTrace
 10
246.165605758421
 20
311.5429028522354
 30
0.0
 11
246.165605758421
 21
310.8762361855688
 31
0.0
 12
248.165605758421
 22
311.2095695189021
 32
0.0
 13
248.165605758421
 23
311.2095695189021
 33
0.0
  0
MTEXT
  5
621E
330
61CE
100
AcDbEntity
  8
DIM
100
AcDbMText
 10
220.915605758421
 20
313.4595695189021
 30
0.0
 40
2.5
 41
0.0
 71
     5
 72
     1
  1
\A1;□54.5
  7
dayus
 73
     1
 44
1.0
1001
ACAD
1000
MTEXTBEGIN
1070
    73
1070
     1
1070
    44
1040
1.0
1070
    74
1070
     0
1000
MTEXTEND
  0
POINT
  5
621F
330
61CE
100
AcDbEntity
  8
Defpoints
 62
     0
100
AcDbPoint
 10
193.665605758421
 20
291.2218318316635
 30
0.0
  0
POINT
  5
6220
330
61CE
100
AcDbEntity
  8
Defpoints
 62
     0
100
AcDbPoint
 10
248.165605758421
 20
291.2218318316632
 30
0.0
  0
POINT
  5
6221
330
61CE
100
AcDbEntity
  8
Defpoints
 62
     0
100
AcDbPoint
 10
248.165605758421
 20
311.2095695189021
 30
0.0
  0
ENDBLK
  5
61D9
330
61CE
100
AcDbEntity
  8
0
100
AcDbBlockEnd
  0
BLOCK
  5
6232
330
6228
100
AcDbEntity
  8
0
100
AcDbBlockBegin
  2
*D80
 70
     1
 10
0.0
 20
0.0
 30
0.0
  3
*D80
  1

  0
LINE
  5
6240
330
6228
100
AcDbEntity
  8
DIM
100
AcDbLine
 10
201.9156057584228
 20
163.2640355633798
 30
0.0
 11
201.9156057584228
 21
174.2191986754191
 31
0.0
  0
LINE
  5
6241
330
6228
100
AcDbEntity
  8
DIM
100
AcDbLine
 10
239.9156057584227
 20
163.2640355633796
 30
0.0
 11
239.9156057584227
 21
174.2191986754191
 31
0.0
  0
LINE
  5
6242
330
6228
100
AcDbEntity
  8
DIM
100
AcDbLine
 10
203.9156057584228
 20
172.7191986754191
 30
0.0
 11
237.9156057584227
 21
172.7191986754191
 31
0.0
  0
SOLID
  5
6243
330
6228
100
AcDbEntity
  8
DIM
100
AcDbTrace
 10
203.9156057584228
 20
173.0525320087524
 30
0.0
 11
203.9156057584228
 21
172.3858653420857
 31
0.0
 12
201.9156057584228
 22
172.7191986754191
 32
0.0
 13
201.9156057584228
 23
172.7191986754191
 33
0.0
  0
SOLID
  5
6244
330
6228
100
AcDbEntity
  8
DIM
100
AcDbTrace
 10
237.9156057584227
 20
173.0525320087524
 30
0.0
 11
237.9156057584227
 21
172.3858653420857
 31
0.0
 12
239.9156057584227
 22
172.7191986754191
 32
0.0
 13
239.9156057584227
 23
172.7191986754191
 33
0.0
  0
MTEXT
  5
6245
330
6228
100
AcDbEntity
  8
DIM
100
AcDbMText
 10
220.9156057584227
 20
174.9691986754191
 30
0.0
 40
2.5
 41
0.0
 71
     5
 72
     1
  1
\A1;□38
  7
dayus
 73
     1
 44
1.0
1001
ACAD
1000
MTEXTBEGIN
1070
    73
1070
     1
1070
    44
1040
1.0
1070
    74
1070
     0
1000
MTEXTEND
  0
POINT
  5
6246
330
6228
100
AcDbEntity
  8
Defpoints
 62
     0
100
AcDbPoint
 10
201.9156057584228
 20
161.7640355633798
 30
0.0
  0
POINT
  5
6247
330
6228
100
AcDbEntity
  8
Defpoints
 62
     0
100
AcDbPoint
 10
239.9156057584227
 20
161.7640355633797
 30
0.0
  0
POINT
  5
6248
330
6228
100
AcDbEntity
  8
Defpoints
 62
     0
100
AcDbPoint
 10
239.9156057584227
 20
172.7191986754191
 30
0.0
  0
ENDBLK
  5
6233
330
6228
100
AcDbEntity
  8
0
100
AcDbBlockEnd
  0
BLOCK
  5
623E
330
6234
100
AcDbEntity
  8
0
100
AcDbBlockBegin
  2
*D81
 70
     1
 10
0.0
 20
0.0
 30
0.0
  3
*D81
  1

  0
LINE
  5
6249
330
6234
100
AcDbEntity
  8
DIM
100
AcDbLine
 10
193.6656057584228
 20
160.8061323596297
 30
0.0
 11
193.6656057584228
 21
180.7938700468683
 31
0.0
  0
LINE
  5
624A
330
6234
100
AcDbEntity
  8
DIM
100
AcDbLine
 10
248.1656057584228
 20
160.8061323596294
 30
0.0
 11
248.1656057584228
 21
180.7938700468683
 31
0.0
  0
LINE
  5
624B
330
6234
100
AcDbEntity
  8
DIM
100
AcDbLine
 10
195.6656057584227
 20
179.2938700468683
 30
0.0
 11
246.1656057584228
 21
179.2938700468683
 31
0.0
  0
SOLID
  5
624C
330
6234
100
AcDbEntity
  8
DIM
100
AcDbTrace
 10
195.6656057584227
 20
179.6272033802016
 30
0.0
 11
195.6656057584227
 21
178.9605367135349
 31
0.0
 12
193.6656057584228
 22
179.2938700468683
 32
0.0
 13
193.6656057584228
 23
179.2938700468683
 33
0.0
  0
SOLID
  5
624D
330
6234
100
AcDbEntity
  8
DIM
100
AcDbTrace
 10
246.1656057584228
 20
179.6272033802016
 30
0.0
 11
246.1656057584228
 21
178.9605367135349
 31
0.0
 12
248.1656057584228
 22
179.2938700468683
 32
0.0
 13
248.1656057584228
 23
179.2938700468683
 33
0.0
  0
MTEXT
  5
624E
330
6234
100
AcDbEntity
  8
DIM
100
AcDbMText
 10
220.9156057584228
 20
181.5438700468683
 30
0.0
 40
2.5
 41
0.0
 71
     5
 72
     1
  1
\A1;□54.5
  7
dayus
 73
     1
 44
1.0
1001
ACAD
1000
MTEXTBEGIN
1070
    73
1070
     1
1070
    44
1040
1.0
1070
    74
1070
     0
1000
MTEXTEND
  0
POINT
  5
624F
330
6234
100
AcDbEntity
  8
Defpoints
 62
     0
100
AcDbPoint
 10
193.6656057584228
 20
159.3061323596297
 30
0.0
  0
POINT
  5
6250
330
6234
100
AcDbEntity
  8
Defpoints
 62
     0
100
AcDbPoint
 10
248.1656057584228
 20
159.3061323596294
 30
0.0
  0
POINT
  5
6251
330
6234
100
AcDbEntity
  8
Defpoints
 62
     0
100
AcDbPoint
 10
248.1656057584228
 20
179.2938700468683
 30
0.0
  0
ENDBLK
  5
623F
330
6234
100
AcDbEntity
  8
0
100
AcDbBlockEnd
  0
BLOCK
  5
626C
330
6262
100
AcDbEntity
  8
0
100
AcDbBlockBegin
  2
*D82
 70
     1
 10
0.0
 20
0.0
 30
0.0
  3
*D82
  1

  0
LINE
  5
62C2
330
6262
100
AcDbEntity
  8
DIM
100
AcDbLine
 10
73.81160699621459
 20
166.8061317039783
 30
0.0
 11
73.81160699621459
 21
171.7471363568178
 31
0.0
  0
LINE
  5
62C3
330
6262
100
AcDbEntity
  8
DIM
100
AcDbLine
 10
81.31160699621448
 20
147.4160102360927
 30
0.0
 11
81.31160699621448
 21
171.7471363568178
 31
0.0
  0
LINE
  5
62C4
330
6262
100
AcDbEntity
  8
DIM
100
AcDbLine
 10
75.81160699621459
 20
170.2471363568179
 30
0.0
 11
79.31160699621448
 21
170.2471363568179
 31
0.0
  0
SOLID
  5
62C5
330
6262
100
AcDbEntity
  8
DIM
100
AcDbTrace
 10
75.81160699621459
 20
170.5804696901512
 30
0.0
 11
75.81160699621459
 21
169.9138030234845
 31
0.0
 12
73.81160699621459
 22
170.2471363568179
 32
0.0
 13
73.81160699621459
 23
170.2471363568179
 33
0.0
  0
SOLID
  5
62C6
330
6262
100
AcDbEntity
  8
DIM
100
AcDbTrace
 10
79.31160699621448
 20
170.5804696901512
 30
0.0
 11
79.31160699621448
 21
169.9138030234845
 31
0.0
 12
81.31160699621448
 22
170.2471363568179
 32
0.0
 13
81.31160699621448
 23
170.2471363568179
 33
0.0
  0
MTEXT
  5
62C7
330
6262
100
AcDbEntity
  8
DIM
100
AcDbMText
 10
77.56160699621453
 20
172.4971363568178
 30
0.0
 40
2.5
 41
0.0
 71
     5
 72
     1
  1
\A1;7.5
  7
dayus
 73
     1
 44
1.0
1001
ACAD
1000
MTEXTBEGIN
1070
    73
1070
     1
1070
    44
1040
1.0
1070
    74
1070
     0
1000
MTEXTEND
  0
POINT
  5
62C8
330
6262
100
AcDbEntity
  8
Defpoints
 62
     0
100
AcDbPoint
 10
73.81160699621459
 20
165.3061317039782
 30
0.0
  0
POINT
  5
62C9
330
6262
100
AcDbEntity
  8
Defpoints
 62
     0
100
AcDbPoint
 10
81.31160699621448
 20
145.9160102360927
 30
0.0
  0
POINT
  5
62CA
330
6262
100
AcDbEntity
  8
Defpoints
 62
     0
100
AcDbPoint
 10
81.31160699621448
 20
170.2471363568179
 30
0.0
  0
ENDBLK
  5
626D
330
6262
100
AcDbEntity
  8
0
100
AcDbBlockEnd
  0
BLOCK
  5
6278
330
626E
100
AcDbEntity
  8
0
100
AcDbBlockBegin
  2
*D83
 70
     1
 10
0.0
 20
0.0
 30
0.0
  3
*D83
  1

  0
LINE
  5
62CB
330
626E
100
AcDbEntity
  8
DIM
100
AcDbLine
 10
116.3116069962145
 20
145.9160102360927
 30
0.0
 11
116.3116069962145
 21
171.7471363568178
 31
0.0
  0
LINE
  5
62CC
330
626E
100
AcDbEntity
  8
DIM
100
AcDbLine
 10
123.8116077412726
 20
166.806131703978
 30
0.0
 11
123.8116077412726
 21
171.7471363568178
 31
0.0
  0
LINE
  5
62CD
330
626E
100
AcDbEntity
  8
DIM
100
AcDbLine
 10
118.3116069962145
 20
170.2471363568179
 30
0.0
 11
121.8116077412726
 21
170.2471363568179
 31
0.0
  0
SOLID
  5
62CE
330
626E
100
AcDbEntity
  8
DIM
100
AcDbTrace
 10
118.3116069962145
 20
170.5804696901512
 30
0.0
 11
118.3116069962145
 21
169.9138030234845
 31
0.0
 12
116.3116069962145
 22
170.2471363568179
 32
0.0
 13
116.3116069962145
 23
170.2471363568179
 33
0.0
  0
SOLID
  5
62CF
330
626E
100
AcDbEntity
  8
DIM
100
AcDbTrace
 10
121.8116077412726
 20
170.5804696901512
 30
0.0
 11
121.8116077412726
 21
169.9138030234845
 31
0.0
 12
123.8116077412726
 22
170.2471363568179
 32
0.0
 13
123.8116077412726
 23
170.2471363568179
 33
0.0
  0
MTEXT
  5
62D0
330
626E
100
AcDbEntity
  8
DIM
100
AcDbMText
 10
120.0616073687435
 20
172.4971363568178
 30
0.0
 40
2.5
 41
0.0
 71
     5
 72
     1
  1
\A1;7.5
  7
dayus
 73
     1
 44
1.0
1001
ACAD
1000
MTEXTBEGIN
1070
    73
1070
     1
1070
    44
1040
1.0
1070
    74
1070
     0
1000
MTEXTEND
  0
POINT
  5
62D1
330
626E
100
AcDbEntity
  8
Defpoints
 62
     0
100
AcDbPoint
 10
116.3116069962145
 20
144.4160102360927
 30
0.0
  0
POINT
  5
62D2
330
626E
100
AcDbEntity
  8
Defpoints
 62
     0
100
AcDbPoint
 10
123.8116077412726
 20
165.306131703978
 30
0.0
  0
POINT
  5
62D3
330
626E
100
AcDbEntity
  8
Defpoints
 62
     0
100
AcDbPoint
 10
123.8116077412726
 20
170.2471363568179
 30
0.0
  0
ENDBLK
  5
6279
330
626E
100
AcDbEntity
  8
0
100
AcDbBlockEnd
  0
BLOCK
  5
6284
330
627A
100
AcDbEntity
  8
0
100
AcDbBlockBegin
  2
*D84
 70
     1
 10
0.0
 20
0.0
 30
0.0
  3
*D84
  1

  0
LINE
  5
62D4
330
627A
100
AcDbEntity
  8
DIM
100
AcDbLine
 10
73.81160699621442
 20
166.8061317039784
 30
0.0
 11
73.81160699621442
 21
186.0393333675933
 31
0.0
  0
LINE
  5
62D5
330
627A
100
AcDbEntity
  8
DIM
100
AcDbLine
 10
123.8116077412725
 20
166.8061317039781
 30
0.0
 11
123.8116077412725
 21
186.0393333675933
 31
0.0
  0
LINE
  5
62D6
330
627A
100
AcDbEntity
  8
DIM
100
AcDbLine
 10
75.81160699621442
 20
184.5393333675933
 30
0.0
 11
121.8116077412725
 21
184.5393333675933
 31
0.0
  0
SOLID
  5
62D7
330
627A
100
AcDbEntity
  8
DIM
100
AcDbTrace
 10
75.81160699621442
 20
184.8726667009266
 30
0.0
 11
75.81160699621442
 21
184.2060000342599
 31
0.0
 12
73.81160699621442
 22
184.5393333675933
 32
0.0
 13
73.81160699621442
 23
184.5393333675933
 33
0.0
  0
SOLID
  5
62D8
330
627A
100
AcDbEntity
  8
DIM
100
AcDbTrace
 10
121.8116077412725
 20
184.8726667009266
 30
0.0
 11
121.8116077412725
 21
184.2060000342599
 31
0.0
 12
123.8116077412725
 22
184.5393333675933
 32
0.0
 13
123.8116077412725
 23
184.5393333675933
 33
0.0
  0
MTEXT
  5
62D9
330
627A
100
AcDbEntity
  8
DIM
100
AcDbMText
 10
98.81160736874345
 20
186.7893333675933
 30
0.0
 40
2.5
 41
0.0
 71
     5
 72
     1
  1
\A1;45+stroke=50
  7
dayus
 73
     1
 44
1.0
1001
ACAD
1000
MTEXTBEGIN
1070
    73
1070
     1
1070
    44
1040
1.0
1070
    74
1070
     0
1000
MTEXTEND
  0
POINT
  5
62DA
330
627A
100
AcDbEntity
  8
Defpoints
 62
     0
100
AcDbPoint
 10
73.81160699621442
 20
165.3061317039784
 30
0.0
  0
POINT
  5
62DB
330
627A
100
AcDbEntity
  8
Defpoints
 62
     0
100
AcDbPoint
 10
123.8116077412725
 20
165.3061317039781
 30
0.0
  0
POINT
  5
62DC
330
627A
100
AcDbEntity
  8
Defpoints
 62
     0
100
AcDbPoint
 10
123.8116077412725
 20
184.5393333675933
 30
0.0
  0
ENDBLK
  5
6285
330
627A
100
AcDbEntity
  8
0
100
AcDbBlockEnd
  0
BLOCK
  5
6290
330
6286
100
AcDbEntity
  8
0
100
AcDbBlockBegin
  2
*D85
 70
     1
 10
0.0
 20
0.0
 30
0.0
  3
*D85
  1

  0
LINE
  5
6315
330
6286
100
AcDbEntity
  8
DIM
100
AcDbLine
 10
66.81160678014951
 20
144.806132288849
 30
0.0
 11
66.81160678014951
 21
195.4988229023151
 31
0.0
  0
LINE
  5
6316
330
6286
100
AcDbEntity
  8
DIM
100
AcDbLine
 10
123.8116077412725
 20
166.8061317039781
 30
0.0
 11
123.8116077412725
 21
195.4988229023151
 31
0.0
  0
LINE
  5
6317
330
6286
100
AcDbEntity
  8
DIM
100
AcDbLine
 10
68.8116067801495
 20
193.9988229023151
 30
0.0
 11
121.8116077412725
 21
193.9988229023151
 31
0.0
  0
SOLID
  5
6318
330
6286
100
AcDbEntity
  8
DIM
100
AcDbTrace
 10
68.8116067801495
 20
194.3321562356484
 30
0.0
 11
68.8116067801495
 21
193.6654895689818
 31
0.0
 12
66.81160678014951
 22
193.9988229023151
 32
0.0
 13
66.81160678014951
 23
193.9988229023151
 33
0.0
  0
SOLID
  5
6319
330
6286
100
AcDbEntity
  8
DIM
100
AcDbTrace
 10
121.8116077412725
 20
194.3321562356484
 30
0.0
 11
121.8116077412725
 21
193.6654895689818
 31
0.0
 12
123.8116077412725
 22
193.9988229023151
 32
0.0
 13
123.8116077412725
 23
193.9988229023151
 33
0.0
  0
MTEXT
  5
631A
330
6286
100
AcDbEntity
  8
DIM
100
AcDbMText
 10
95.31160726071098
 20
196.2488229023151
 30
0.0
 40
2.5
 41
0.0
 71
     5
 72
     1
  1
\A1;52+stroke=57
  7
dayus
 73
     1
 44
1.0
1001
ACAD
1000
MTEXTBEGIN
1070
    73
1070
     1
1070
    44
1040
1.0
1070
    74
1070
     0
1000
MTEXTEND
  0
POINT
  5
631B
330
6286
100
AcDbEntity
  8
Defpoints
 62
     0
100
AcDbPoint
 10
66.81160678014951
 20
143.306132288849
 30
0.0
  0
POINT
  5
631C
330
6286
100
AcDbEntity
  8
Defpoints
 62
     0
100
AcDbPoint
 10
123.8116077412725
 20
165.3061317039781
 30
0.0
  0
POINT
  5
631D
330
6286
100
AcDbEntity
  8
Defpoints
 62
     0
100
AcDbPoint
 10
123.8116077412725
 20
193.9988229023151
 30
0.0
  0
ENDBLK
  5
6291
330
6286
100
AcDbEntity
  8
0
100
AcDbBlockEnd
  0
BLOCK
  5
629C
330
6292
100
AcDbEntity
  8
0
100
AcDbBlockBegin
  2
*D86
 70
     1
 10
0.0
 20
0.0
 30
0.0
  3
*D86
  1

  0
LINE
  5
631E
330
6292
100
AcDbEntity
  8
DIM
100
AcDbLine
 10
66.81160678014764
 20
144.5561322478705
 30
0.0
 11
66.81160678014764
 21
186.0393333675933
 31
0.0
  0
LINE
  5
631F
330
6292
100
AcDbEntity
  8
DIM
100
AcDbLine
 10
73.81160699621453
 20
166.8061317039783
 30
0.0
 11
73.81160699621453
 21
186.0393333675933
 31
0.0
  0
LINE
  5
6320
330
6292
100
AcDbEntity
  8
DIM
100
AcDbLine
 10
68.81160678014764
 20
184.5393333675933
 30
0.0
 11
71.81160699621454
 21
184.5393333675933
 31
0.0
  0
SOLID
  5
6321
330
6292
100
AcDbEntity
  8
DIM
100
AcDbTrace
 10
68.81160678014764
 20
184.8726667009266
 30
0.0
 11
68.81160678014764
 21
184.2060000342599
 31
0.0
 12
66.81160678014764
 22
184.5393333675933
 32
0.0
 13
66.81160678014764
 23
184.5393333675933
 33
0.0
  0
SOLID
  5
6322
330
6292
100
AcDbEntity
  8
DIM
100
AcDbTrace
 10
71.81160699621454
 20
184.8726667009266
 30
0.0
 11
71.81160699621454
 21
184.2060000342599
 31
0.0
 12
73.81160699621453
 22
184.5393333675933
 32
0.0
 13
73.81160699621453
 23
184.5393333675933
 33
0.0
  0
MTEXT
  5
6323
330
6292
100
AcDbEntity
  8
DIM
100
AcDbMText
 10
70.31160688818109
 20
186.7893333675933
 30
0.0
 40
2.5
 41
0.0
 71
     5
 72
     1
  1
\A1;7
  7
dayus
 73
     1
 44
1.0
1001
ACAD
1000
MTEXTBEGIN
1070
    73
1070
     1
1070
    44
1040
1.0
1070
    74
1070
     0
1000
MTEXTEND
  0
POINT
  5
6324
330
6292
100
AcDbEntity
  8
Defpoints
 62
     0
100
AcDbPoint
 10
66.81160678014764
 20
143.0561322478705
 30
0.0
  0
POINT
  5
6325
330
6292
100
AcDbEntity
  8
Defpoints
 62
     0
100
AcDbPoint
 10
73.81160699621453
 20
165.3061317039782
 30
0.0
  0
POINT
  5
6326
330
6292
100
AcDbEntity
  8
Defpoints
 62
     0
100
AcDbPoint
 10
73.81160699621453
 20
184.5393333675933
 30
0.0
  0
ENDBLK
  5
629D
330
6292
100
AcDbEntity
  8
0
100
AcDbBlockEnd
  0
BLOCK
  5
62B4
330
62AA
100
AcDbEntity
  8
0
100
AcDbBlockBegin
  2
*D88
 70
     1
 10
0.0
 20
0.0
 30
0.0
  3
*D88
  1

  0
LINE
  5
62F8
330
62AA
100
AcDbEntity
  8
DIM
100
AcDbLine
 10
73.81160699621442
 20
166.8061317039784
 30
0.0
 11
73.81160699621442
 21
177.9227325357857
 31
0.0
  0
LINE
  5
62F9
330
62AA
100
AcDbEntity
  8
DIM
100
AcDbLine
 10
87.8116074283481
 20
166.8061317039784
 30
0.0
 11
87.8116074283481
 21
177.9227325357857
 31
0.0
  0
LINE
  5
62FA
330
62AA
100
AcDbEntity
  8
DIM
100
AcDbLine
 10
75.81160699621442
 20
176.4227325357857
 30
0.0
 11
85.81160742834809
 21
176.4227325357857
 31
0.0
  0
SOLID
  5
62FB
330
62AA
100
AcDbEntity
  8
DIM
100
AcDbTrace
 10
75.81160699621442
 20
176.7560658691191
 30
0.0
 11
75.81160699621442
 21
176.0893992024524
 31
0.0
 12
73.81160699621442
 22
176.4227325357857
 32
0.0
 13
73.81160699621442
 23
176.4227325357857
 33
0.0
  0
SOLID
  5
62FC
330
62AA
100
AcDbEntity
  8
DIM
100
AcDbTrace
 10
85.81160742834809
 20
176.7560658691191
 30
0.0
 11
85.81160742834809
 21
176.0893992024524
 31
0.0
 12
87.8116074283481
 22
176.4227325357857
 32
0.0
 13
87.8116074283481
 23
176.4227325357857
 33
0.0
  0
MTEXT
  5
62FD
330
62AA
100
AcDbEntity
  8
DIM
100
AcDbMText
 10
80.81160721228126
 20
178.6727325357857
 30
0.0
 40
2.5
 41
0.0
 71
     5
 72
     1
  1
\A1;14
  7
dayus
 73
     1
 44
1.0
1001
ACAD
1000
MTEXTBEGIN
1070
    73
1070
     1
1070
    44
1040
1.0
1070
    74
1070
     0
1000
MTEXTEND
  0
POINT
  5
62FE
330
62AA
100
AcDbEntity
  8
Defpoints
 62
     0
100
AcDbPoint
 10
73.81160699621442
 20
165.3061317039784
 30
0.0
  0
POINT
  5
62FF
330
62AA
100
AcDbEntity
  8
Defpoints
 62
     0
100
AcDbPoint
 10
87.8116074283481
 20
165.3061317039784
 30
0.0
  0
POINT
  5
6300
330
62AA
100
AcDbEntity
  8
Defpoints
 62
     0
100
AcDbPoint
 10
87.8116074283481
 20
176.4227325357857
 30
0.0
  0
ENDBLK
  5
62B5
330
62AA
100
AcDbEntity
  8
0
100
AcDbBlockEnd
  0
BLOCK
  5
62C0
330
62B6
100
AcDbEntity
  8
0
100
AcDbBlockBegin
  2
*D89
 70
     1
 10
0.0
 20
0.0
 30
0.0
  3
*D89
  1

  0
LINE
  5
6301
330
62B6
100
AcDbEntity
  8
DIM
100
AcDbLine
 10
109.8116054464936
 20
166.8061317039783
 30
0.0
 11
109.8116054464936
 21
177.9227325357857
 31
0.0
  0
LINE
  5
6302
330
62B6
100
AcDbEntity
  8
DIM
100
AcDbLine
 10
123.8116077412725
 20
166.8061317039781
 30
0.0
 11
123.8116077412725
 21
177.9227325357857
 31
0.0
  0
LINE
  5
6303
330
62B6
100
AcDbEntity
  8
DIM
100
AcDbLine
 10
111.8116054464936
 20
176.4227325357857
 30
0.0
 11
121.8116077412725
 21
176.4227325357857
 31
0.0
  0
SOLID
  5
6304
330
62B6
100
AcDbEntity
  8
DIM
100
AcDbTrace
 10
111.8116054464936
 20
176.7560658691191
 30
0.0
 11
111.8116054464936
 21
176.0893992024524
 31
0.0
 12
109.8116054464936
 22
176.4227325357857
 32
0.0
 13
109.8116054464936
 23
176.4227325357857
 33
0.0
  0
SOLID
  5
6305
330
62B6
100
AcDbEntity
  8
DIM
100
AcDbTrace
 10
121.8116077412725
 20
176.7560658691191
 30
0.0
 11
121.8116077412725
 21
176.0893992024524
 31
0.0
 12
123.8116077412725
 22
176.4227325357857
 32
0.0
 13
123.8116077412725
 23
176.4227325357857
 33
0.0
  0
MTEXT
  5
6306
330
62B6
100
AcDbEntity
  8
DIM
100
AcDbMText
 10
116.811606593883
 20
178.6727325357857
 30
0.0
 40
2.5
 41
0.0
 71
     5
 72
     1
  1
\A1;14
  7
dayus
 73
     1
 44
1.0
1001
ACAD
1000
MTEXTBEGIN
1070
    73
1070
     1
1070
    44
1040
1.0
1070
    74
1070
     0
1000
MTEXTEND
  0
POINT
  5
6307
330
62B6
100
AcDbEntity
  8
Defpoints
 62
     0
100
AcDbPoint
 10
109.8116054464936
 20
165.3061317039782
 30
0.0
  0
POINT
  5
6308
330
62B6
100
AcDbEntity
  8
Defpoints
 62
     0
100
AcDbPoint
 10
123.8116077412725
 20
165.3061317039781
 30
0.0
  0
POINT
  5
6309
330
62B6
100
AcDbEntity
  8
Defpoints
 62
     0
100
AcDbPoint
 10
123.8116077412725
 20
176.4227325357857
 30
0.0
  0
ENDBLK
  5
62C1
330
62B6
100
AcDbEntity
  8
0
100
AcDbBlockEnd
  0
BLOCK
  5
633D
330
6333
100
AcDbEntity
  8
0
100
AcDbBlockBegin
  2
*D90
 70
     1
 10
0.0
 20
0.0
 30
0.0
  3
*D90
  1

  0
LINE
  5
636F
330
6333
100
AcDbEntity
  8
DIM
100
AcDbLine
 10
66.61064530954599
 20
144.0561324117838
 30
0.0
 11
57.28067281369699
 21
144.0561324117838
 31
0.0
  0
LINE
  5
6370
330
6333
100
AcDbEntity
  8
DIM
100
AcDbLine
 10
66.61064530954556
 20
132.0561323074754
 30
0.0
 11
57.28067281369698
 21
132.0561323074755
 31
0.0
  0
LINE
  5
6371
330
6333
100
AcDbEntity
  8
DIM
100
AcDbLine
 10
58.78067281369698
 20
142.0561324117838
 30
0.0
 11
58.78067281369698
 21
134.0561323074755
 31
0.0
  0
SOLID
  5
6372
330
6333
100
AcDbEntity
  8
DIM
100
AcDbTrace
 10
58.44733948036364
 20
142.0561324117838
 30
0.0
 11
59.11400614703032
 21
142.0561324117838
 31
0.0
 12
58.78067281369698
 22
144.0561324117838
 32
0.0
 13
58.78067281369698
 23
144.0561324117838
 33
0.0
  0
SOLID
  5
6373
330
6333
100
AcDbEntity
  8
DIM
100
AcDbTrace
 10
58.44733948036364
 20
134.0561323074755
 30
0.0
 11
59.11400614703032
 21
134.0561323074755
 31
0.0
 12
58.78067281369698
 22
132.0561323074755
 32
0.0
 13
58.78067281369698
 23
132.0561323074755
 33
0.0
  0
MTEXT
  5
6374
330
6333
100
AcDbEntity
  8
DIM
100
AcDbMText
 10
56.53067281369696
 20
138.0561323596296
 30
0.0
 40
2.5
 41
0.0
 71
     5
 72
     1
  1
\A1;%%C12
  7
dayus
 11
0.0000000000000001
 21
1.0
 31
0.0
 73
     1
 44
1.0
1001
ACAD
1000
MTEXTBEGIN
1070
    73
1070
     1
1070
    44
1040
1.0
1070
    74
1070
     0
1000
MTEXTEND
  0
POINT
  5
6375
330
6333
100
AcDbEntity
  8
Defpoints
 62
     0
100
AcDbPoint
 10
68.11064530954599
 20
144.0561324117838
 30
0.0
  0
POINT
  5
6376
330
6333
100
AcDbEntity
  8
Defpoints
 62
     0
100
AcDbPoint
 10
68.11064530954556
 20
132.0561323074754
 30
0.0
  0
POINT
  5
6377
330
6333
100
AcDbEntity
  8
Defpoints
 62
     0
100
AcDbPoint
 10
58.78067281369698
 20
132.0561323074755
 30
0.0
  0
ENDBLK
  5
633E
330
6333
100
AcDbEntity
  8
0
100
AcDbBlockEnd
  0
BLOCK
  5
6393
330
6389
100
AcDbEntity
  8
0
100
AcDbBlockBegin
  2
*D92
 70
     1
 10
0.0
 20
0.0
 30
0.0
  3
*D92
  1

  0
LINE
  5
63C5
330
6389
100
AcDbEntity
  8
DIM
100
AcDbLine
 10
215.9156058701813
 20
133.2395075710621
 30
0.0
 11
215.9156058701813
 21
100.1353230542457
 31
0.0
  0
LINE
  5
63C6
330
6389
100
AcDbEntity
  8
DIM
100
AcDbLine
 10
225.9156057584245
 20
133.2395075692784
 30
0.0
 11
225.9156057584245
 21
100.1353230542457
 31
0.0
  0
LINE
  5
63C7
330
6389
100
AcDbEntity
  8
DIM
100
AcDbLine
 10
217.9156058701813
 20
101.6353230542457
 30
0.0
 11
223.9156057584245
 21
101.6353230542457
 31
0.0
  0
SOLID
  5
63C8
330
6389
100
AcDbEntity
  8
DIM
100
AcDbTrace
 10
217.9156058701813
 20
101.968656387579
 30
0.0
 11
217.9156058701813
 21
101.3019897209124
 31
0.0
 12
215.9156058701813
 22
101.6353230542457
 32
0.0
 13
215.9156058701813
 23
101.6353230542457
 33
0.0
  0
SOLID
  5
63C9
330
6389
100
AcDbEntity
  8
DIM
100
AcDbTrace
 10
223.9156057584245
 20
101.968656387579
 30
0.0
 11
223.9156057584245
 21
101.3019897209124
 31
0.0
 12
225.9156057584245
 22
101.6353230542457
 32
0.0
 13
225.9156057584245
 23
101.6353230542457
 33
0.0
  0
MTEXT
  5
63CA
330
6389
100
AcDbEntity
  8
DIM
100
AcDbMText
 10
220.9156058143029
 20
103.8853230542457
 30
0.0
 40
2.5
 41
0.0
 71
     5
 72
     1
  1
\A1;10
  7
dayus
 73
     1
 44
1.0
1001
ACAD
1000
MTEXTBEGIN
1070
    73
1070
     1
1070
    44
1040
1.0
1070
    74
1070
     0
1000
MTEXTEND
  0
POINT
  5
63CB
330
6389
100
AcDbEntity
  8
Defpoints
 62
     0
100
AcDbPoint
 10
215.9156058701813
 20
134.7395075710621
 30
0.0
  0
POINT
  5
63CC
330
6389
100
AcDbEntity
  8
Defpoints
 62
     0
100
AcDbPoint
 10
225.9156057584245
 20
134.7395075692784
 30
0.0
  0
POINT
  5
63CD
330
6389
100
AcDbEntity
  8
Defpoints
 62
     0
100
AcDbPoint
 10
225.9156057584245
 20
101.6353230542457
 30
0.0
  0
ENDBLK
  5
6394
330
6389
100
AcDbEntity
  8
0
100
AcDbBlockEnd
  0
ENDSEC
  0
SECTION
  2
ENTITIES
  0
MTEXT
  5
A9
330
1F
100
AcDbEntity
  8
0
100
AcDbMText
 10
-112.8858816556399
 20
179.1757813154577
 30
0.0
 40
3.0
 41
0.0
 71
     4
 72
     5
  1

 73
     1
 44
1.0
1001
ACAD
1000
MTEXTBEGIN
1070
    73
1070
     1
1070
    44
1040
1.0
1070
    74
1070
     0
1000
MTEXTEND
  0
MTEXT
  5
AA
330
1F
100
AcDbEntity
  8
0
100
AcDbMText
 10
-176.2667196970539
 20
189.9084924046809
 30
0.0
 40
1.799999999999999
 41
0.0
 71
     9
 72
     5
  1

 73
     1
 44
1.0
1001
ACAD
1000
MTEXTBEGIN
1070
    73
1070
     1
1070
    44
1040
1.0
1070
    74
1070
     0
1000
MTEXTEND
  0
MTEXT
  5
AB
330
1F
100
AcDbEntity
  8
0
100
AcDbMText
 10
82.64233389287733
 20
174.944592339129
 30
0.0
 40
3.0
 41
0.0
 71
     4
 72
     5
  1

 73
     1
 44
1.0
1001
ACAD
1000
MTEXTBEGIN
1070
    73
1070
     1
1070
    44
1040
1.0
1070
    74
1070
     0
1000
MTEXTEND
  0
MTEXT
  5
AC
330
1F
100
AcDbEntity
  8
0
100
AcDbMText
 10
19.26149585146331
 20
185.6773034283523
 30
0.0
 40
1.799999999999999
 41
0.0
 71
     9
 72
     5
  1

 73
     1
 44
1.0
1001
ACAD
1000
MTEXTBEGIN
1070
    73
1070
     1
1070
    44
1040
1.0
1070
    74
1070
     0
1000
MTEXTEND
  0
MTEXT
  5
B1
330
1F
100
AcDbEntity
  8
0
100
AcDbMText
 10
-211.0828086697475
 20
93.72900974557683
 30
0.0
 40
3.0
 41
59.51
 71
     1
 72
     5
  1

  7
CHINESET
 73
     1
 44
1.0
1001
ACAD
1000
MTEXTBEGIN
1070
    73
1070
     1
1070
    44
1040
1.0
1070
    74
1070
     0
1000
MTEXTEND
  0
MTEXT
  5
B2
330
1F
100
AcDbEntity
  8
0
100
AcDbMText
 10
-179.9099428209695
 20
86.93407807798587
 30
0.0
 40
3.0
 41
38.26
 71
     1
 72
     5
  1

  7
CHINESET
 73
     1
 44
1.0
1001
ACAD
1000
MTEXTBEGIN
1070
    73
1070
     1
1070
    44
1040
1.0
1070
    74
1070
     0
1000
MTEXTEND
  0
MTEXT
  5
10B3
330
1F
100
AcDbEntity
  8
0
100
AcDbMText
 10
81.67014302795905
 20
125.5492500028813
 30
0.0
 40
3.0
 41
0.0
 71
     7
 72
     5
  1

  7
CHINESET
 73
     1
 44
1.0
1001
ACAD
1000
MTEXTBEGIN
1070
    73
1070
     1
1070
    44
1040
1.0
1070
    74
1070
     0
1000
MTEXTEND
  0
LINE
  5
17B4
330
1F
100
AcDbEntity
  8
0
 62
     4
100
AcDbLine
 10
314.9214976567959
 20
73.63425484441359
 30
0.0
 11
314.9214976567959
 21
363.5310627458177
 31
0.0
  0
LINE
  5
17B5
330
1F
100
AcDbEntity
  8
0
 62
     4
100
AcDbLine
 10
-15.48932901079763
 20
73.63425484441356
 30
0.0
 11
-15.48932901079763
 21
363.5310627458177
 31
0.0
  0
TEXT
  5
17BD
330
1F
100
AcDbEntity
  8
LOGO
  6
Continuous
 62
     7
100
AcDbText
 10
164.9594802425685
 20
60.44054895692834
 30
0.0
 40
6.804875
  1
11/12
  7
CHINESET
 72
     1
 11
178.5692302425685
 21
63.84298645692834
 31
0.0
100
AcDbText
 73
     2
  0
TEXT
  5
17BE
330
1F
100
AcDbEntity
  8
LOGO
100
AcDbText
 10
168.3829180702677
 20
45.41419134880618
 30
0.0
 40
4.860625
  1
作動型式
  7
CHINESET
 72
     4
 11
178.053536559851
 21
47.72011777597154
 31
0.0
100
AcDbText
  0
LINE
  5
17BF
330
1F
100
AcDbEntity
  8
0
 62
     4
100
AcDbLine
 10
314.9214976567959
 20
216.1807817456062
 30
0.0
 11
-15.48932901079763
 21
216.1807817456063
 31
0.0
  0
TEXT
  5
17C3
330
1F
100
AcDbEntity
  8
LOGO
  6
Continuous
100
AcDbText
 10
168.054536559851
 20
40.26945850886108
 30
0.0
 40
2.916375
  1
Acting type
 41
0.8
  7
CHINESET
 72
     4
 11
178.053536559851
 21
41.24158350886108
 31
0.0
100
AcDbText
  0
LINE
  5
17C4
330
1F
100
AcDbEntity
  8
LOGO
 62
     4
100
AcDbLine
 10
194.5499980655695
 20
58.08577260334837
 30
0.0
 11
163.7648674898566
 21
58.08577260334837
 31
0.0
  0
LINE
  5
17C5
330
1F
100
AcDbEntity
  8
LOGO
 62
     4
100
AcDbLine
 10
194.5499980655695
 20
52.25509176294892
 30
0.0
 11
163.7648674898566
 21
52.25509176294892
 31
0.0
  0
LINE
  5
17C6
330
1F
100
AcDbEntity
  8
LOGO
 62
     4
100
AcDbLine
 10
194.5499980655695
 20
38.00231637530581
 30
0.0
 11
163.7648674898566
 21
38.00231637530578
 31
0.0
  0
LINE
  5
17C7
330
1F
100
AcDbEntity
  8
LOGO
 62
     4
100
AcDbLine
 10
194.5499980655695
 20
69.74713428414736
 30
0.0
 11
163.7648674898566
 21
69.74713428414725
 31
0.0
  0
LINE
  5
1802
330
1F
100
AcDbEntity
  8
LOGO
 62
     4
100
AcDbLine
 10
151.9984922051262
 20
52.25509176294892
 30
0.0
 11
126.0843551366843
 21
52.25509176294892
 31
0.0
  0
TEXT
  5
1803
330
1F
100
AcDbEntity
  8
LOGO
  6
Continuous
 62
     7
100
AcDbText
 10
129.1581528375718
 20
60.51401594374783
 30
0.0
 40
6.804875
  1
MCJI
  7
CHINESET
 72
     1
 11
139.0414236709052
 21
63.91645344374783
 31
0.0
100
AcDbText
 73
     2
  0
LINE
  5
1804
330
1F
100
AcDbEntity
  8
LOGO
 62
     4
100
AcDbLine
 10
151.9984922051262
 20
38.00231637530581
 30
0.0
 11
126.0843551366843
 21
38.00231637530578
 31
0.0
  0
TEXT
  5
1805
330
1F
100
AcDbEntity
  8
LOGO
  6
Continuous
100
AcDbText
 10
134.5974236709052
 20
39.78339600886108
 30
0.0
 40
2.916375
  1
Model
 41
0.8
  7
CHINESET
 72
     4
 11
139.0414236709052
 21
41.24158350886108
 31
0.0
100
AcDbText
  0
TEXT
  5
1806
330
1F
100
AcDbEntity
  8
LOGO
100
AcDbText
 10
134.1807986709052
 20
45.41419134880618
 30
0.0
 40
4.860625
  1
型式
  7
CHINESET
 72
     4
 11
139.0414236709052
 21
47.72011777597154
 31
0.0
100
AcDbText
  0
LINE
  5
1807
330
1F
100
AcDbEntity
  8
LOGO
 62
     4
100
AcDbLine
 10
154.5899059119704
 20
58.08577260334837
 30
0.0
 11
123.4929414298401
 21
58.08577260334837
 31
0.0
  0
LINE
  5
1808
330
1F
100
AcDbEntity
  8
LOGO
 62
     4
100
AcDbLine
 10
154.5899059119704
 20
69.74713428414725
 30
0.0
 11
123.4929414298401
 21
69.74713428414725
 31
0.0
  0
LINE
  5
1809
330
1F
100
AcDbEntity
  8
LOGO
 62
     4
100
AcDbLine
 10
139.0414236709052
 20
58.08577260334837
 30
0.0
 11
139.0414236709052
 21
52.25509176294892
 31
0.0
  0
LINE
  5
180A
330
1F
100
AcDbEntity
  8
LOGO
 62
     4
100
AcDbLine
 10
126.0843551366843
 20
52.25509176294892
 30
0.0
 11
126.0843551366843
 21
38.00231637530578
 31
0.0
  0
LINE
  5
180B
330
1F
100
AcDbEntity
  8
LOGO
 62
     4
100
AcDbLine
 10
123.4929414298401
 20
69.74713428414725
 30
0.0
 11
123.4929414298401
 21
58.08577260334837
 31
0.0
  0
LINE
  5
180C
330
1F
100
AcDbEntity
  8
LOGO
 62
     4
100
AcDbLine
 10
151.9984922051262
 20
52.25509176294892
 30
0.0
 11
151.9984922051262
 21
38.00231637530581
 31
0.0
  0
LINE
  5
180D
330
1F
100
AcDbEntity
  8
LOGO
 62
     4
100
AcDbLine
 10
163.7648674898566
 20
52.25509176294892
 30
0.0
 11
163.7648674898566
 21
38.00231637530581
 31
0.0
  0
LINE
  5
180E
330
1F
100
AcDbEntity
  8
LOGO
  6
Continuous
 62
     7
100
AcDbLine
 10
156.598983276864
 20
63.87514705774364
 30
0.0
 11
161.7482150909243
 21
63.87514705774364
 31
0.0
  0
LINE
  5
180F
330
1F
100
AcDbEntity
  8
LOGO
 62
     4
100
AcDbLine
 10
154.5899059119705
 20
69.74713428414725
 30
0.0
 11
154.5899059119705
 21
58.08577260334837
 31
0.0
  0
LINE
  5
1810
330
1F
100
AcDbEntity
  8
LOGO
 62
     4
100
AcDbLine
 10
163.7648674898566
 20
69.74713428414725
 30
0.0
 11
163.7648674898566
 21
58.08577260334837
 31
0.0
  0
LINE
  5
1868
330
1F
100
AcDbEntity
  8
LOGO
 62
     4
100
AcDbLine
 10
255.2874448175045
 20
69.74713428414725
 30
0.0
 11
233.7030182407981
 21
69.74713428414725
 31
0.0
  0
LINE
  5
1869
330
1F
100
AcDbEntity
  8
LOGO
 62
     4
100
AcDbLine
 10
255.2874448175045
 20
58.08577260334837
 30
0.0
 11
233.7030182407981
 21
58.08577260334837
 31
0.0
  0
LINE
  5
186A
330
1F
100
AcDbEntity
  8
LOGO
 62
     4
100
AcDbLine
 10
253.9917379640824
 20
52.25509176294892
 30
0.0
 11
234.9987250942201
 21
52.25509176294892
 31
0.0
  0
LINE
  5
186B
330
1F
100
AcDbEntity
  8
LOGO
 62
     4
100
AcDbLine
 10
253.9917379640824
 20
38.00231637530581
 30
0.0
 11
234.9987250942201
 21
38.00231637530578
 31
0.0
  0
LINE
  5
186C
330
1F
100
AcDbEntity
  8
LOGO
 62
     4
100
AcDbLine
 10
224.5280566629119
 20
58.08577260334843
 30
0.0
 11
203.7249596434556
 21
58.08577260334843
 31
0.0
  0
LINE
  5
186D
330
1F
100
AcDbEntity
  8
LOGO
 62
     4
100
AcDbLine
 10
224.5280566629119
 20
52.25509176294898
 30
0.0
 11
203.7249596434556
 21
52.25509176294898
 31
0.0
  0
LINE
  5
186E
330
1F
100
AcDbEntity
  8
LOGO
 62
     4
100
AcDbLine
 10
224.5280566629119
 20
69.74713428414742
 30
0.0
 11
203.7249596434556
 21
69.74713428414736
 31
0.0
  0
TEXT
  5
186F
330
1F
100
AcDbEntity
  8
LOGO
  6
Continuous
 62
     7
100
AcDbText
 10
209.222463184989
 20
60.44054895692843
 30
0.0
 40
6.804875
  1
40
  7
CHINESET
 72
     1
 11
214.7311715183224
 21
63.84298645692843
 31
0.0
100
AcDbText
 73
     2
  0
LINE
  5
1870
330
1F
100
AcDbEntity
  8
LOGO
 62
     4
100
AcDbLine
 10
224.5280566629119
 20
38.0023163753059
 30
0.0
 11
203.7249596434556
 21
38.00231637530584
 31
0.0
  0
TEXT
  5
1871
330
1F
100
AcDbEntity
  8
LOGO
  6
Continuous
100
AcDbText
 10
210.5157581531838
 20
39.78339600886111
 30
0.0
 40
2.916375
  1
Bore
 41
0.8
  7
CHINESET
 72
     4
 11
214.1265081531838
 21
41.24158350886111
 31
0.0
100
AcDbText
  0
TEXT
  5
1872
330
1F
100
AcDbEntity
  8
LOGO
100
AcDbText
 10
208.9620940906839
 20
45.2898052759716
 30
0.0
 40
4.860625
  1
內徑
  7
CHINESET
 72
     4
 11
214.1265081531838
 21
47.72011777597159
 31
0.0
100
AcDbText
  0
LINE
  5
1873
330
1F
100
AcDbEntity
  8
LOGO
 62
     4
100
AcDbLine
 10
214.1265078544139
 20
58.08577260334843
 30
0.0
 11
214.1265078544139
 21
52.25509176294898
 31
0.0
  0
LINE
  5
1874
330
1F
100
AcDbEntity
  8
LOGO
 62
     4
100
AcDbLine
 10
178.053536559851
 20
58.08577260334837
 30
0.0
 11
178.053536559851
 21
52.25509176294892
 31
0.0
  0
LINE
  5
1875
330
1F
100
AcDbEntity
  8
LOGO
 62
     4
100
AcDbLine
 10
194.5499980655695
 20
52.25509176294892
 30
0.0
 11
194.5499980655695
 21
38.00231637530584
 31
0.0
  0
LINE
  5
1876
330
1F
100
AcDbEntity
  8
LOGO
 62
     4
100
AcDbLine
 10
203.7249596434556
 20
52.25509176294898
 30
0.0
 11
203.7249596434556
 21
38.0023163753059
 31
0.0
  0
LINE
  5
1877
330
1F
100
AcDbEntity
  8
LOGO
 62
     4
100
AcDbLine
 10
194.5499980655695
 20
69.74713428414736
 30
0.0
 11
194.5499980655695
 21
58.08577260334837
 31
0.0
  0
LINE
  5
1878
330
1F
100
AcDbEntity
  8
LOGO
 62
     4
100
AcDbLine
 10
203.7249596434556
 20
69.74713428414736
 30
0.0
 11
203.7249596434556
 21
58.08577260334843
 31
0.0
  0
LINE
  5
1879
330
1F
100
AcDbEntity
  8
LOGO
  6
Continuous
 62
     7
100
AcDbLine
 10
196.559075430463
 20
63.87514705774373
 30
0.0
 11
201.7083072445234
 21
63.87514705774373
 31
0.0
  0
LINE
  5
187A
330
1F
100
AcDbEntity
  8
LOGO
 62
     4
100
AcDbLine
 10
244.7696504758762
 20
58.08577260334837
 30
0.0
 11
244.7696504758762
 21
52.25509176294892
 31
0.0
  0
LINE
  5
187B
330
1F
100
AcDbEntity
  8
LOGO
 62
     4
100
AcDbLine
 10
224.5280566629119
 20
52.25509176294898
 30
0.0
 11
224.5280566629119
 21
38.0023163753059
 31
0.0
  0
LINE
  5
187C
330
1F
100
AcDbEntity
  8
LOGO
 62
     4
100
AcDbLine
 10
234.9987250942201
 20
52.25509176294892
 30
0.0
 11
234.9987250942201
 21
38.00231637530578
 31
0.0
  0
TEXT
  5
187D
330
1F
100
AcDbEntity
  8
LOGO
  6
Continuous
100
AcDbText
 10
239.2179815291513
 20
39.783396008861
 30
0.0
 40
2.916375
  1
Stroke
 41
0.8
  7
CHINESET
 72
     4
 11
244.4952315291513
 21
41.241583508861
 31
0.0
100
AcDbText
  0
TEXT
  5
187E
330
1F
100
AcDbEntity
  8
LOGO
100
AcDbText
 10
239.6346065291513
 20
45.28980527597155
 30
0.0
 40
4.860625
  1
行程
  7
CHINESET
 72
     4
 11
244.4952315291513
 21
47.72011777597154
 31
0.0
100
AcDbText
  0
LINE
  5
187F
330
1F
100
AcDbEntity
  8
LOGO
 62
     4
100
AcDbLine
 10
224.5280566629119
 20
69.74713428414742
 30
0.0
 11
224.5280566629119
 21
58.08577260334843
 31
0.0
  0
LINE
  5
1880
330
1F
100
AcDbEntity
  8
LOGO
  6
Continuous
 62
     7
100
AcDbLine
 10
226.5371340278055
 20
63.87514705774382
 30
0.0
 11
231.6863658418659
 21
63.87514705774382
 31
0.0
  0
LINE
  5
1881
330
1F
100
AcDbEntity
  8
LOGO
 62
     4
100
AcDbLine
 10
233.7030182407981
 20
69.74713428414725
 30
0.0
 11
233.7030182407981
 21
58.08577260334837
 31
0.0
  0
TEXT
  5
1882
330
1F
100
AcDbEntity
  8
LOGO
  6
Continuous
 62
     7
100
AcDbText
 10
242.8316032276233
 20
60.44054895692834
 30
0.0
 40
6.804875
  1
5
  7
CHINESET
 72
     1
 11
245.09989489429
 21
63.84298645692834
 31
0.0
100
AcDbText
 73
     2
  0
LINE
  5
1883
330
1F
100
AcDbEntity
  8
LOGO
 62
     4
100
AcDbLine
 10
266.4966795272233
 20
58.08577260334837
 30
0.0
 11
266.4966795272233
 21
52.25509176294892
 31
0.0
  0
LINE
  5
1885
330
1F
100
AcDbEntity
  8
LOGO
 62
     4
100
AcDbLine
 10
275.9931859621544
 20
38.00231637530581
 30
0.0
 11
257.0001730922921
 21
38.00231637530578
 31
0.0
  0
LINE
  5
1886
330
1F
100
AcDbEntity
  8
LOGO
 62
     4
100
AcDbLine
 10
275.9931859621544
 20
52.25509176294892
 30
0.0
 11
257.0001730922921
 21
52.25509176294892
 31
0.0
  0
TEXT
  5
1887
330
1F
100
AcDbEntity
  8
LOGO
  6
Continuous
100
AcDbText
 10
260.5528295272232
 20
40.26945850886099
 30
0.0
 40
2.916375
  1
Magnet
 41
0.8
  7
CHINESET
 72
     4
 11
266.4966795272233
 21
41.241583508861
 31
0.0
100
AcDbText
  0
TEXT
  5
1888
330
1F
100
AcDbEntity
  8
LOGO
100
AcDbText
 10
259.2057420272233
 20
45.34043678638821
 30
0.0
 40
4.860625
  1
附磁石
  7
CHINESET
 72
     4
 11
266.4966795272233
 21
47.72011777597154
 31
0.0
100
AcDbText
  0
LINE
  5
1889
330
1F
100
AcDbEntity
  8
LOGO
 62
     4
100
AcDbLine
 10
257.0001730922921
 20
52.25509176294892
 30
0.0
 11
257.0001730922921
 21
38.00231637530578
 31
0.0
  0
LINE
  5
188A
330
1F
100
AcDbEntity
  8
LOGO
 62
     4
100
AcDbLine
 10
253.9917379640824
 20
52.25509176294892
 30
0.0
 11
253.9917379640824
 21
37.9485739613921
 31
0.0
  0
LINE
  5
188B
330
1F
100
AcDbEntity
  8
LOGO
 62
     4
100
AcDbLine
 10
275.9931859621544
 20
52.25509176294892
 30
0.0
 11
275.9931859621544
 21
37.9485739613921
 31
0.0
  0
TEXT
  5
188C
330
1F
100
AcDbEntity
  8
LOGO
  6
Continuous
 62
     7
100
AcDbText
 10
259.8104056911317
 20
60.44054895692834
 30
0.0
 40
6.804875
  1
(M)
  7
CHINESET
 72
     1
 11
267.1013431911317
 21
63.84298645692834
 31
0.0
100
AcDbText
 73
     2
  0
LINE
  5
188D
330
1F
100
AcDbEntity
  8
LOGO
 62
     4
100
AcDbLine
 10
275.0094869261663
 20
58.08577260334837
 30
0.0
 11
257.9838721282801
 21
58.08577260334837
 31
0.0
  0
LINE
  5
188E
330
1F
100
AcDbEntity
  8
LOGO
 62
     4
100
AcDbLine
 10
275.0094869261663
 20
69.74713428414736
 30
0.0
 11
257.9838721282801
 21
69.74713428414725
 31
0.0
  0
LINE
  5
188F
330
1F
100
AcDbEntity
  8
LOGO
 62
     4
100
AcDbLine
 10
257.9838721282801
 20
69.74713428414725
 30
0.0
 11
257.9838721282801
 21
58.08577260334837
 31
0.0
  0
LINE
  5
1890
330
1F
100
AcDbEntity
  8
LOGO
 62
     4
100
AcDbLine
 10
255.2874448175045
 20
69.74713428414725
 30
0.0
 11
255.2874448175045
 21
58.08577260334837
 31
0.0
  0
LINE
  5
1891
330
1F
100
AcDbEntity
  8
LOGO
 62
     4
100
AcDbLine
 10
275.0094869261662
 20
69.74713428414736
 30
0.0
 11
275.0094869261663
 21
58.08577260334837
 31
0.0
  0
LINE
  5
18E7
330
1F
100
AcDbEntity
  8
0
 62
     4
100
AcDbLine
 10
314.9214976567959
 20
363.5310627458177
 30
0.0
 11
-15.48932901079763
 21
363.5310627458177
 31
0.0
  0
TEXT
  5
18EA
330
1F
100
AcDbEntity
  8
0
100
AcDbText
 10
-8.383230530107766
 20
351.0669189555061
 30
0.0
 40
6.0
  1
11 type
  7
CHINESET
100
AcDbText
  0
LWPOLYLINE
  5
4C6C
330
1F
100
AcDbEntity
  8
LOGO
 62
     4
100
AcDbPolyline
 90
        4
 70
     1
 43
0.0
 10
-15.48932901079761
 20
73.63425484441356
 10
314.9214976567958
 20
73.63425484441356
 10
314.9214976567958
 20
34.7548852516527
 10
-15.48932901079761
 20
34.7548852516527
1001
GENIUS_GENREC_14
1002
{
1000
PYDIR
1011
-15.48932901079761
1021
34.7548852516527
1031
0.0
1002
}
1002
{
1000
PXDIR
1011
314.9214976567958
1021
73.63425484441356
1031
0.0
1002
}
1002
{
1000
PORI
1011
-15.48932901079761
1021
73.63425484441356
1031
0.0
1002
}
1002
{
1000
PINS
1011
-15.48932901079761
1021
73.63425484441356
1031
0.0
1002
}
1002
{
1000
PINS2
1011
314.9214976567958
1021
34.7548852516527
1031
0.0
1002
}
1002
{
1000
C
1070
     1
1002
}
1001
GENIUS_GENOBJ-N-REC_13
1002
{
1000
OWNER
1000
GEN
1002
}
1001
GENIUS_GENODEF_13
1002
{
1000
HIER
1070
     0
1002
}
1002
{
1000
MANEDIT
1070
     0
1002
}
1002
{
1000
NOSEL
1070
     0
1002
}
1002
{
1000
BEHIND
1070
     0
1002
}
1002
{
1000
OTHER
1070
     0
1002
}
1002
{
1000
REACTOR
1002
}
  0
TEXT
  5
4C6D
330
1F
100
AcDbEntity
  8
LOGO
 62
     7
100
AcDbText
 10
72.29771315451415
 20
56.60186461483158
 30
0.0
 40
5.183915945701357
  1
Order example:
 41
0.8
  7
CHINESET
100
AcDbText
  0
TEXT
  5
4C6E
330
1F
100
AcDbEntity
  8
LOGO
 62
     7
100
AcDbText
 10
73.22775054441388
 20
63.89974492288678
 30
0.0
 40
7.775873918552036
  1
訂購代號：
  7
CHINESET
100
AcDbText
  0
LINE
  5
4C6F
330
1F
100
AcDbEntity
  8
LOGO
 62
     4
100
AcDbLine
 10
70.04528409327486
 20
34.75488525165315
 30
0.0
 11
70.04528409327486
 21
73.63425484441356
 31
0.0
  0
TEXT
  5
4C70
330
1F
100
AcDbEntity
  8
LOGO
  6
Continuous
100
AcDbText
 10
-1.523684686930437
 20
42.39267873406638
 30
0.0
 40
5.831905438914027
  1
金器工業股份有限公司
  7
CHINESET
100
AcDbText
  0
TEXT
  5
4C71
330
1F
100
AcDbEntity
  8
LOGO
  6
Continuous
100
AcDbText
 10
-12.23574119262298
 20
36.55963069892542
 30
0.0
 40
3.887936959276018
  1
MINDMAN INDUSTRIAL CO., LTD.
 41
0.85
  7
CHINESET
100
AcDbText
  0
LINE
  5
4C72
330
1F
100
AcDbEntity
  8
LOGO
 62
     4
100
AcDbLine
 10
70.04528409327486
 20
65.8583809258615
 30
0.0
 11
13.02220869055964
 21
65.8583809258615
 31
0.0
  0
LINE
  5
4C73
330
1F
100
AcDbEntity
  8
LOGO
 62
     4
100
AcDbLine
 10
70.04528409327486
 20
58.08250700730937
 30
0.0
 11
13.02220869055964
 21
58.08250700730937
 31
0.0
  0
LINE
  5
4C74
330
1F
100
AcDbEntity
  8
LOGO
 62
     4
100
AcDbLine
 10
70.04528409327486
 20
50.30663308875773
 30
0.0
 11
-15.48932901079763
 21
50.30663308875773
 31
0.0
  0
LINE
  5
4C75
330
1F
100
AcDbEntity
  8
LOGO
 62
     4
100
AcDbLine
 10
13.02220869055964
 20
50.30663308875773
 30
0.0
 11
13.02220869055964
 21
73.63425484441356
 31
0.0
  0
TEXT
  5
4C76
330
1F
100
AcDbEntity
  8
LOGO
100
AcDbText
 10
51.99478928015228
 20
52.25060156839511
 30
0.0
 40
3.887936959276018
  1
mm
  7
CHINESET
 72
     1
 11
56.8084255154464
 21
54.19457004803311
 31
0.0
100
AcDbText
 73
     2
  0
TEXT
  5
4C77
330
1F
100
AcDbEntity
  8
LOGO
100
AcDbText
 10
49.95825087291247
 20
67.8023494054993
 30
0.0
 40
3.887936959276018
  1
1 : 1
  7
CHINESET
 72
     1
 11
56.8084255154464
 21
69.7463178851373
 31
0.0
100
AcDbText
 73
     2
  0
LINE
  5
4C78
330
1F
100
AcDbEntity
  8
LOGO
 62
     4
100
AcDbLine
 10
44.1257043647679
 20
50.30663308875773
 30
0.0
 11
44.1257043647679
 21
73.63425484441356
 31
0.0
  0
CIRCLE
  5
4C79
330
1F
100
AcDbEntity
  8
LOGO
  6
Continuous
100
AcDbCircle
 10
51.32470594033486
 20
61.97876029219265
 30
0.0
 40
2.257427710275888
  0
CIRCLE
  5
4C7A
330
1F
100
AcDbEntity
  8
LOGO
  6
Continuous
100
AcDbCircle
 10
51.32470594033486
 20
61.97876029219265
 30
0.0
 40
1.322652799453087
  0
LINE
  5
4C7B
330
1F
100
AcDbEntity
  8
LOGO
100
AcDbLine
 10
65.51064361254294
 20
59.72133258191632
 30
0.0
 11
65.51064361254294
 21
64.23618800246896
 31
0.0
  0
LINE
  5
4C7C
330
1F
100
AcDbEntity
  8
LOGO
100
AcDbLine
 10
58.43373732336186
 20
60.65610749273981
 30
0.0
 11
58.43373732336186
 21
63.30141309164594
 31
0.0
  0
LINE
  5
4C7D
330
1F
100
AcDbEntity
  8
LOGO
  6
Continuous
100
AcDbLine
 10
58.43373732336186
 20
63.30141309164594
 30
0.0
 11
65.51064361254294
 21
64.23618800246896
 31
0.0
  0
LINE
  5
4C7E
330
1F
100
AcDbEntity
  8
LOGO
  6
Continuous
100
AcDbLine
 10
58.43373732336186
 20
60.65610749273981
 30
0.0
 11
65.51064361254294
 21
59.72133258191632
 31
0.0
  0
TEXT
  5
4C7F
330
1F
100
AcDbEntity
  8
LOGO
100
AcDbText
 10
16.22802099581987
 20
67.80426276030208
 30
254.8089833089768
 40
3.887936959276018
  1
比例 Scale:
 41
0.9
  7
CHINESET
 72
     4
 11
28.57395652766377
 21
69.7463178851373
 31
254.8089833089768
100
AcDbText
  0
TEXT
  5
4C80
330
1F
100
AcDbEntity
  8
LOGO
100
AcDbText
 10
16.004117483433
 20
60.08116554506041
 30
254.8089833089768
 40
3.887936959276018
  1
投影  View:
 41
0.9
  7
CHINESET
 72
     4
 11
28.57395652766377
 21
61.97044396658523
 31
254.8089833089768
100
AcDbText
  0
TEXT
  5
4C81
330
1F
100
AcDbEntity
  8
LOGO
100
AcDbText
 10
16.38423274864793
 20
52.25060156839511
 30
254.8089833089768
 40
3.887936959276018
  1
單位  Unit:
 41
0.9
  7
CHINESET
 72
     4
 11
28.57395652766377
 21
54.19457004803311
 31
254.8089833089768
100
AcDbText
  0
SOLID
  5
4C82
330
1F
100
AcDbEntity
  8
LOGO
 62
     5
100
AcDbTrace
 10
-11.45553201890669
 20
56.76977487930574
 30
0.0
 11
-9.774490097181683
 21
56.76977487930532
 31
0.0
 12
-2.760487596190841
 22
72.71068965428589
 32
0.0
 13
-1.079445674464864
 23
72.71068965428501
 33
0.0
  0
SOLID
  5
4C83
330
1F
100
AcDbEntity
  8
LOGO
 62
     5
100
AcDbTrace
 10
-9.0788865433625
 20
56.76977487930574
 30
0.0
 11
-7.397844621637432
 21
56.76977487930574
 31
0.0
 12
-1.079445674464864
 22
71.43541647228684
 32
0.0
 13
-2.760487596190841
 23
65.27159609262787
 33
0.0
  0
SOLID
  5
4C84
330
1F
100
AcDbEntity
  8
LOGO
 62
     2
100
AcDbTrace
 10
-9.774490097181683
 20
56.76977487930532
 30
0.0
 11
-9.0788865433625
 21
56.76977487930574
 31
0.0
 12
-1.079445674464864
 22
72.71068965428501
 32
0.0
 13
-0.3838421206466478
 23
72.71068965428501
 33
0.0
  0
SOLID
  5
4C85
330
1F
100
AcDbEntity
  8
LOGO
 62
     5
100
AcDbTrace
 10
-14.15065446140818
 20
50.97307859749531
 30
0.0
 11
-13.57098483322647
 21
50.97307859749531
 31
0.0
 12
-11.9385900423905
 22
53.87142673840035
 32
0.0
 13
-11.3589204142105
 23
53.87142673840035
 33
0.0
  0
SOLID
  5
4C86
330
1F
100
AcDbEntity
  8
LOGO
 62
     5
100
AcDbTrace
 10
-11.9385900423905
 20
53.87142673840035
 30
0.0
 11
-11.3589204142105
 21
53.87142673840035
 31
0.0
 12
-11.9385900423905
 22
50.97307859749531
 32
0.0
 13
-11.3589204142105
 23
50.97307859749531
 33
0.0
  0
SOLID
  5
4C87
330
1F
100
AcDbEntity
  8
LOGO
 62
     5
100
AcDbTrace
 10
-11.9385900423905
 20
50.97307859749531
 30
0.0
 11
-11.3589204142105
 21
50.97307859749531
 31
0.0
 12
-9.726525623371855
 22
53.87142673840035
 32
0.0
 13
-9.146855995191003
 23
53.87142673840035
 33
0.0
  0
SOLID
  5
4C88
330
1F
100
AcDbEntity
  8
LOGO
 62
     5
100
AcDbTrace
 10
-9.726525623371855
 20
53.87142673840035
 30
0.0
 11
-9.146855995191003
 21
53.87142673840035
 31
0.0
 12
-9.726525623371855
 22
50.97307859749531
 32
0.0
 13
-9.146855995191003
 23
50.97307859749531
 33
0.0
  0
POLYLINE
  5
4C89
330
1F
100
AcDbEntity
  8
LOGO
 62
     5
100
AcDb2dPolyline
 66
     1
 10
0.0
 20
0.0
 30
0.0
 40
0.580598585918552
 41
0.580598585918552
  0
VERTEX
  5
4C8A
330
4C89
100
AcDbEntity
  8
LOGO
 62
     5
100
AcDbVertex
100
AcDb2dVertex
 10
9.703802846310225
 20
52.71208748203822
 30
0.0
 42
1.0
  0
VERTEX
  5
4C8B
330
4C89
100
AcDbEntity
  8
LOGO
 62
     5
100
AcDbVertex
100
AcDb2dVertex
 10
7.962007088554173
 20
52.71208748203822
 30
0.0
 42
1.0
  0
SEQEND
  5
4C8C
330
4C89
100
AcDbEntity
  8
LOGO
 62
     5
  0
POLYLINE
  5
4C8D
330
1F
100
AcDbEntity
  8
LOGO
 62
     5
100
AcDb2dPolyline
 66
     1
 10
0.0
 20
0.0
 30
0.0
 70
     1
  0
VERTEX
  5
4C8E
330
4C8D
100
AcDbEntity
  8
LOGO
 62
     5
100
AcDbVertex
100
AcDb2dVertex
 10
4.678644610108449
 20
52.42225266794739
 30
0.0
 42
1.000000057330635
  0
VERTEX
  5
4C8F
330
4C8D
100
AcDbEntity
  8
LOGO
 62
     5
100
AcDbVertex
100
AcDb2dVertex
 10
6.417653494651858
 20
52.42225266794739
 30
0.0
 42
1.000000057330635
  0
SEQEND
  5
4C90
330
4C8D
100
AcDbEntity
  8
LOGO
 62
     5
  0
CIRCLE
  5
4C91
330
1F
100
AcDbEntity
  8
LOGO
 62
     5
100
AcDbCircle
 10
5.548149052381518
 20
52.42225266794739
 30
0.0
 40
0.8695044422716236
  0
POLYLINE
  5
4C92
330
1F
100
AcDbEntity
  8
LOGO
 62
     5
100
AcDb2dPolyline
 66
     1
 10
0.0
 20
0.0
 30
0.0
 70
     1
 40
0.580598585918552
 41
0.580598585918552
  0
VERTEX
  5
4C93
330
4C92
100
AcDbEntity
  8
LOGO
 62
     5
100
AcDbVertex
100
AcDb2dVertex
 10
4.386951880543506
 20
52.42225266794739
 30
0.0
 42
1.0
  0
VERTEX
  5
4C94
330
4C92
100
AcDbEntity
  8
LOGO
 62
     5
100
AcDbVertex
100
AcDb2dVertex
 10
6.709346224217597
 20
52.42225266794739
 30
0.0
 42
1.0
  0
SEQEND
  5
4C95
330
4C92
100
AcDbEntity
  8
LOGO
 62
     5
  0
LINE
  5
4C96
330
1F
100
AcDbEntity
  8
LOGO
100
AcDbLine
 10
9.99224422379342
 20
50.97307859749531
 30
0.0
 11
9.99224422379342
 21
52.71208748203822
 31
0.0
  0
SOLID
  5
4C97
330
1F
100
AcDbEntity
  8
LOGO
 62
     5
100
AcDbTrace
 10
6.41759552769156
 20
53.87142673840035
 30
0.0
 11
6.997265155871559
 21
53.87142673840035
 31
0.0
 12
6.41759552769156
 22
50.97307859749531
 32
0.0
 13
6.997265155871559
 23
50.97307859749531
 33
0.0
  0
SOLID
  5
4C98
330
1F
100
AcDbEntity
  8
LOGO
 62
     5
100
AcDbTrace
 10
7.673565711069272
 20
50.97307859749531
 30
0.0
 11
8.253235339250977
 21
50.97307859749531
 31
0.0
 12
7.673565711069272
 22
53.87142673840035
 32
0.0
 13
8.253235339250977
 23
53.87142673840035
 33
0.0
  0
SOLID
  5
4C99
330
1F
100
AcDbEntity
  8
LOGO
 62
     5
100
AcDbTrace
 10
9.412574595613477
 20
52.71208748203822
 30
0.0
 11
9.99224422379342
 21
52.71208748203822
 31
0.0
 12
9.412574595613477
 22
50.97307859749531
 32
0.0
 13
9.99224422379342
 23
50.97307859749531
 33
0.0
  0
SOLID
  5
4C9A
330
1F
100
AcDbEntity
  8
LOGO
 62
     5
100
AcDbTrace
 10
7.615598748250988
 20
71.43541647228684
 30
0.0
 11
5.934556826526829
 21
65.27159609262787
 31
0.0
 12
7.615598748250988
 22
56.76977487930532
 32
0.0
 13
5.934556826526829
 23
56.76977487930532
 33
0.0
  0
SOLID
  5
4C9B
330
1F
100
AcDbEntity
  8
LOGO
 62
     5
100
AcDbTrace
 10
8.311202302069261
 20
56.76977487930532
 30
0.0
 11
9.99224422379342
 21
56.76977487930532
 31
0.0
 12
8.311202302069261
 22
72.71068965428501
 32
0.0
 13
9.99224422379342
 23
72.71068965428589
 33
0.0
  0
SOLID
  5
4C9C
330
1F
100
AcDbEntity
  8
LOGO
 62
     2
100
AcDbTrace
 10
7.615598748250988
 20
72.71068965428589
 30
0.0
 11
8.311202302069261
 21
72.71068965428501
 31
0.0
 12
7.615598748250988
 22
56.76977487930532
 32
0.0
 13
8.311202302069261
 23
56.76977487930532
 33
0.0
  0
POLYLINE
  5
4C9D
330
1F
100
AcDbEntity
  8
LOGO
 62
     5
100
AcDb2dPolyline
 66
     1
 10
0.0
 20
0.0
 30
0.0
 40
0.580598585918552
 41
0.580598585918552
  0
VERTEX
  5
4C9E
330
4C9D
100
AcDbEntity
  8
LOGO
 62
     5
100
AcDbVertex
100
AcDb2dVertex
 10
1.395166197739627
 20
52.71208748203822
 30
0.0
 42
1.0
  0
VERTEX
  5
4C9F
330
4C9D
100
AcDbEntity
  8
LOGO
 62
     5
100
AcDbVertex
100
AcDb2dVertex
 10
-0.3466295600163676
 20
52.71208748203822
 30
0.0
 42
1.0
  0
SEQEND
  5
4CA0
330
4C9D
100
AcDbEntity
  8
LOGO
 62
     5
  0
POLYLINE
  5
4CA1
330
1F
100
AcDbEntity
  8
LOGO
 62
     5
100
AcDb2dPolyline
 66
     1
 10
0.0
 20
0.0
 30
0.0
 40
0.580598585918552
 41
0.580598585918552
  0
VERTEX
  5
4CA2
330
4CA1
100
AcDbEntity
  8
LOGO
 62
     5
100
AcDbVertex
100
AcDb2dVertex
 10
3.134175082281217
 20
52.71208748203822
 30
0.0
 42
1.0
  0
VERTEX
  5
4CA3
330
4CA1
100
AcDbEntity
  8
LOGO
 62
     5
100
AcDbVertex
100
AcDb2dVertex
 10
1.392379324526132
 20
52.71208748203822
 30
0.0
 42
1.0
  0
SEQEND
  5
4CA4
330
4CA1
100
AcDbEntity
  8
LOGO
 62
     5
  0
POLYLINE
  5
4CA5
330
1F
100
AcDbEntity
  8
LOGO
 62
     5
100
AcDb2dPolyline
 66
     1
 10
0.0
 20
0.0
 30
0.0
 40
0.580598585918552
 41
0.580598585918552
  0
VERTEX
  5
4CA6
330
4CA5
100
AcDbEntity
  8
LOGO
 62
     5
100
AcDbVertex
100
AcDb2dVertex
 10
-5.174461566289323
 20
52.71208748203822
 30
0.0
 42
1.0
  0
VERTEX
  5
4CA7
330
4CA5
100
AcDbEntity
  8
LOGO
 62
     5
100
AcDbVertex
100
AcDb2dVertex
 10
-6.916257324044522
 20
52.71208748203822
 30
0.0
 42
1.0
  0
SEQEND
  5
4CA8
330
4CA5
100
AcDbEntity
  8
LOGO
 62
     5
  0
SOLID
  5
4CA9
330
1F
100
AcDbEntity
  8
LOGO
 62
     5
100
AcDbTrace
 10
-7.204698701528513
 20
53.87142673840035
 30
0.0
 11
-6.625029073348628
 21
53.87142673840035
 31
0.0
 12
-7.204698701528513
 22
50.97307859749531
 32
0.0
 13
-6.625029073348628
 23
50.97307859749531
 33
0.0
  0
SOLID
  5
4CAA
330
1F
100
AcDbEntity
  8
LOGO
 62
     5
100
AcDbTrace
 10
-5.465689816985218
 20
52.71208748203822
 30
0.0
 11
-4.886020188803513
 21
52.71208748203822
 31
0.0
 12
-5.465689816985218
 22
50.97307859749531
 32
0.0
 13
-4.886020188803513
 23
50.97307859749531
 33
0.0
  0
POLYLINE
  5
4CAB
330
1F
100
AcDbEntity
  8
LOGO
 62
     5
100
AcDb2dPolyline
 66
     1
 10
0.0
 20
0.0
 30
0.0
 70
     1
 40
0.580598585918552
 41
0.580598585918552
  0
VERTEX
  5
4CAC
330
4CAB
100
AcDbEntity
  8
LOGO
 62
     5
100
AcDbVertex
100
AcDb2dVertex
 10
-3.921684768027944
 20
52.42225266794739
 30
0.0
 42
1.0
  0
VERTEX
  5
4CAD
330
4CAB
100
AcDbEntity
  8
LOGO
 62
     5
100
AcDbVertex
100
AcDb2dVertex
 10
-1.599290424352886
 20
52.42225266794739
 30
0.0
 42
1.0
  0
SEQEND
  5
4CAE
330
4CAB
100
AcDbEntity
  8
LOGO
 62
     5
  0
SOLID
  5
4CAF
330
1F
100
AcDbEntity
  8
LOGO
 62
     5
100
AcDbTrace
 10
-1.891041120880743
 20
54.74093118067242
 30
0.0
 11
-1.31137149269989
 21
54.74093118067242
 31
0.0
 12
-1.891041120880743
 22
50.97307859749531
 32
0.0
 13
-1.31137149269989
 23
50.97307859749531
 33
0.0
  0
SOLID
  5
4CB0
330
1F
100
AcDbEntity
  8
LOGO
 62
     5
100
AcDbTrace
 10
-0.6350709374995632
 20
53.87142673840035
 30
0.0
 11
-0.0554013093196204
 21
53.87142673840035
 31
0.0
 12
-0.6350709374995632
 22
50.97307859749531
 32
0.0
 13
-0.0554013093196204
 23
50.97307859749531
 33
0.0
  0
SOLID
  5
4CB1
330
1F
100
AcDbEntity
  8
LOGO
 62
     5
100
AcDbTrace
 10
1.103937947042027
 20
52.71208748203822
 30
0.0
 11
1.683607575223732
 21
52.71208748203822
 31
0.0
 12
1.103937947042027
 22
50.97307859749531
 32
0.0
 13
1.683607575223732
 23
50.97307859749531
 33
0.0
  0
SOLID
  5
4CB2
330
1F
100
AcDbEntity
  8
LOGO
 62
     5
100
AcDbTrace
 10
2.842946831585436
 20
52.71208748203822
 30
0.0
 11
3.422616459766231
 21
52.71208748203822
 31
0.0
 12
2.842946831585436
 22
50.97307859749446
 32
0.0
 13
3.422616459766231
 23
50.97307859749446
 33
0.0
  0
SOLID
  5
4CB3
330
1F
100
AcDbEntity
  8
LOGO
 62
     5
100
AcDbTrace
 10
-8.460668884908841
 20
54.27719547812725
 30
0.0
 11
-7.880999256726227
 21
54.27719547812725
 31
0.0
 12
-8.460668884908841
 22
54.74093118067242
 32
0.0
 13
-7.880999256726227
 23
54.74093118067242
 33
0.0
  0
SOLID
  5
4CB4
330
1F
100
AcDbEntity
  8
LOGO
 62
     5
100
AcDbTrace
 10
-8.460668884908841
 20
53.87142673840035
 30
0.0
 11
-7.880999256726227
 21
53.87142673840035
 31
0.0
 12
-8.460668884908841
 22
50.97307859749446
 32
0.0
 13
-7.880999256726227
 23
50.97307859749531
 33
0.0
  0
SOLID
  5
4CB5
330
1F
100
AcDbEntity
  8
LOGO
 62
     5
100
AcDbTrace
 10
-2.760487596190841
 20
56.76977487930574
 30
0.0
 11
-1.079445674464864
 21
56.76977487930574
 31
0.0
 12
-2.760487596190841
 22
65.27159609262787
 32
0.0
 13
-1.079445674464864
 23
71.43541647228684
 33
0.0
  0
SOLID
  5
4CB6
330
1F
100
AcDbEntity
  8
LOGO
 62
     5
100
AcDbTrace
 10
-0.3838421206466478
 20
72.71068965428501
 30
0.0
 11
1.297199801077567
 21
72.71068965428589
 31
0.0
 12
-0.3838421206466478
 22
58.0450480613039
 32
0.0
 13
1.297199801077567
 23
64.20886844096287
 33
0.0
  0
SOLID
  5
4CB7
330
1F
100
AcDbEntity
  8
LOGO
 62
     2
100
AcDbTrace
 10
-1.079445674464864
 20
72.71068965428501
 30
0.0
 11
-0.3838421206466478
 21
72.71068965428501
 31
0.0
 12
-1.079445674464864
 22
56.76977487930574
 32
0.0
 13
-0.3838421206466478
 23
56.76977487930574
 33
0.0
  0
SOLID
  5
4CB8
330
1F
100
AcDbEntity
  8
LOGO
 62
     5
100
AcDbTrace
 10
-0.3838421206466478
 20
58.0450480613039
 30
0.0
 11
1.297199801077567
 21
64.20886844096287
 31
0.0
 12
7.615598748250988
 22
72.71068965428589
 32
0.0
 13
5.934556826526829
 23
72.71068965428589
 33
0.0
  0
SOLID
  5
4CB9
330
1F
100
AcDbEntity
  8
LOGO
 62
     5
100
AcDbTrace
 10
-0.3838421206466478
 20
56.76977487930574
 30
0.0
 11
1.297199801077567
 21
56.76977487930574
 31
0.0
 12
7.615598748250988
 22
71.43541647228684
 32
0.0
 13
5.934556826526829
 23
65.27159609262787
 33
0.0
  0
SOLID
  5
4CBA
330
1F
100
AcDbEntity
  8
LOGO
 62
     2
100
AcDbTrace
 10
-1.079445674464864
 20
56.76977487930574
 30
0.0
 11
-0.3838421206466478
 21
56.76977487930574
 31
0.0
 12
7.615598748250988
 22
72.71068965428589
 32
0.0
 13
8.311202302069261
 23
72.71068965428501
 33
0.0
  0
TEXT
  5
4CBB
330
1F
100
AcDbEntity
  8
LOGO
100
AcDbText
 10
72.94844258320541
 20
36.8232523685472
 30
0.0
 40
3.8885
  1
1070266
 41
0.7
  7
CHINESET
 72
     1
 11
81.30871758320541
 21
36.8232523685472
 31
0.0
100
AcDbText
  0
LINE
  5
4CBC
330
1F
100
AcDbEntity
  8
LOGO
 62
     4
100
AcDbLine
 10
93.37628409327317
 20
42.53075917020609
 30
0.0
 11
93.37628409327487
 21
34.75488525165358
 31
0.0
  0
LINE
  5
4CBD
330
1F
100
AcDbEntity
  8
LOGO
 62
     4
100
AcDbLine
 10
93.37628409327317
 20
42.53075917020609
 30
0.0
 11
70.04528409327486
 21
42.53075917020609
 31
0.0
  0
LINE
  5
4CBE
330
1F
100
AcDbEntity
  8
LOGO
  6
AM_ISO08W050x2
 48
0.3
100
AcDbLine
 10
48.21280803940135
 20
61.97876029219265
 30
0.0
 11
54.43660384126838
 21
61.97876029219265
 31
0.0
1001
GENIUS_GENOREF_13
1005
4CC3
  0
LINE
  5
4CBF
330
1F
100
AcDbEntity
  8
LOGO
  6
AM_ISO08W050x2
 48
0.3
100
AcDbLine
 10
51.32470594033486
 20
58.86686239125916
 30
0.0
 11
51.32470594033486
 21
65.09065819312616
 31
0.0
1001
GENIUS_GENOREF_13
1005
4CC2
  0
LINE
  5
4CC0
330
1F
100
AcDbEntity
  8
LOGO
  6
CENTER
 48
0.5
100
AcDbLine
 10
57.86778152191738
 20
61.97876029219265
 30
0.0
 11
66.22326516673661
 21
61.97876029219265
 31
0.0
1001
GENIUS_GENOREF_13
1005
4CC1
  0
POINT
  5
4CC1
330
1F
100
AcDbEntity
  8
0
 60
     1
100
AcDbPoint
 10
-2072.811814811345
 20
-923.250426012127
 30
0.0
1001
GENIUS_GENOBJ-N-CRS_13
1002
{
1000
OWNER
1000
GEN
1002
}
1001
GENIUS_GENOLIS_13
1002
{
1000
ENT
1005
0
1005
0
1005
0
1005
4CC0
1002
}
1001
GENIUS_GENOENT_13
1002
{
1000
MYREF
1005
4CC1
1002
}
1002
{
1000
GRP
1005
0
1002
}
1001
GENIUS_GENODEF_13
1002
{
1000
HIER
1070
    10
1002
}
1002
{
1000
MANEDIT
1070
     1
1002
}
1002
{
1000
NOSEL
1070
     0
1002
}
1002
{
1000
BEHIND
1070
     0
1002
}
1002
{
1000
OTHER
1070
     0
1002
}
1002
{
1000
REACTOR
1002
}
  0
POINT
  5
4CC2
330
1F
100
AcDbEntity
  8
0
 60
     1
100
AcDbPoint
 10
-2084.136400034199
 20
-914.3748395334908
 30
0.0
1001
GENIUS_GENOBJ-N-CRS_13
1002
{
1000
OWNER
1000
GEN
1002
}
1001
GENIUS_GENOLIS_13
1002
{
1000
ENT
1005
0
1005
0
1005
0
1005
4CBF
1002
}
1001
GENIUS_GENOENT_13
1002
{
1000
MYREF
1005
4CC2
1002
}
1002
{
1000
GRP
1005
0
1002
}
1001
GENIUS_GENODEF_13
1002
{
1000
HIER
1070
    10
1002
}
1002
{
1000
MANEDIT
1070
     1
1002
}
1002
{
1000
NOSEL
1070
     0
1002
}
1002
{
1000
BEHIND
1070
     0
1002
}
1002
{
1000
OTHER
1070
     0
1002
}
1002
{
1000
REACTOR
1002
}
  0
POINT
  5
4CC3
330
1F
100
AcDbEntity
  8
0
 60
     1
100
AcDbPoint
 10
-2077.777726336362
 20
-923.250426012127
 30
0.0
1001
GENIUS_GENOBJ-N-CRS_13
1002
{
1000
OWNER
1000
GEN
1002
}
1001
GENIUS_GENOLIS_13
1002
{
1000
ENT
1005
0
1005
0
1005
0
1005
4CBE
1002
}
1001
GENIUS_GENOENT_13
1002
{
1000
MYREF
1005
4CC3
1002
}
1002
{
1000
GRP
1005
0
1002
}
1001
GENIUS_GENODEF_13
1002
{
1000
HIER
1070
    10
1002
}
1002
{
1000
MANEDIT
1070
     1
1002
}
1002
{
1000
NOSEL
1070
     0
1002
}
1002
{
1000
BEHIND
1070
     0
1002
}
1002
{
1000
OTHER
1070
     0
1002
}
1002
{
1000
REACTOR
1002
}
  0
TEXT
  5
4F67
330
1F
100
AcDbEntity
  8
0
100
AcDbText
 10
-8.383230530107766
 20
203.7166379552947
 30
0.0
 40
6.0
  1
12 type
  7
CHINESET
100
AcDbText
  0
SPLINE
  5
5638
330
1F
100
AcDbEntity
  8
0
  6
Continuous
 62
     7
370
    15
100
AcDbSpline
210
0.0
220
0.0
230
1.0
 70
    24
 71
     1
 72
     4
 73
     2
 74
     0
 42
0.0000000001
 43
0.0000000001
 40
0.0
 40
0.0
 40
1.0
 40
1.0
 10
68.11064530954556
 20
132.0561323074754
 30
0.0
 10
73.81160699621634
 20
132.0561323074754
 30
0.0
  0
SPLINE
  5
5639
330
1F
100
AcDbEntity
  8
0
  6
Continuous
 62
     7
370
    15
100
AcDbSpline
210
0.0
220
0.0
230
1.0
 70
    24
 71
     1
 72
     4
 73
     2
 74
     0
 42
0.0000000001
 43
0.0000000001
 40
0.0
 40
0.0
 40
1.0
 40
1.0
 10
73.81160699621645
 20
144.0561324117836
 30
0.0
 10
68.11064530954556
 20
144.0561324117836
 30
0.0
  0
SPLINE
  5
563A
330
1F
100
AcDbEntity
  8
0
  6
Continuous
 62
     7
370
    15
100
AcDbSpline
210
0.0
220
0.0
230
1.0
 70
    24
 71
     1
 72
     4
 73
     2
 74
     0
 42
0.0000000001
 43
0.0000000001
 40
0.0
 40
0.0
 40
1.0
 40
1.0
 10
68.11064530954556
 20
144.0561324117836
 30
0.0
 10
66.81160678014951
 20
143.306132288849
 30
0.0
  0
SPLINE
  5
563B
330
1F
100
AcDbEntity
  8
0
  6
Continuous
 62
     7
370
    15
100
AcDbSpline
210
0.0
220
0.0
230
1.0
 70
    24
 71
     1
 72
     4
 73
     2
 74
     0
 42
0.0000000001
 43
0.0000000001
 40
0.0
 40
0.0
 40
1.0
 40
1.0
 10
66.81160678014951
 20
132.80613243041
 30
0.0
 10
68.11064530954556
 20
132.0561323074754
 30
0.0
  0
CIRCLE
  5
563C
330
1F
100
AcDbEntity
  8
0
  6
Continuous
 62
     7
370
    15
100
AcDbCircle
 10
81.31160699621645
 20
138.0561323596293
 30
0.0
 40
5.350000000021282
  0
LINE
  5
563D
330
1F
100
AcDbEntity
  8
0
  6
Continuous
 62
     7
370
    15
100
AcDbLine
 10
87.81160742835012
 20
159.3061325831468
 30
0.0
 11
87.81160742835002
 21
116.8061321361119
 31
0.0
  0
LINE
  5
563E
330
1F
100
AcDbEntity
  8
0
  6
Continuous
 62
     7
370
    15
100
AcDbLine
 10
87.81160742835002
 20
116.8061321361119
 30
0.0
 11
73.81160699621634
 21
116.806132136112
 31
0.0
  0
LINE
  5
563F
330
1F
100
AcDbEntity
  8
0
  6
Continuous
 62
     7
370
    15
100
AcDbLine
 10
73.81160699621645
 20
159.3061325831468
 30
0.0
 11
73.81160699621634
 21
116.806132136112
 31
0.0
  0
LINE
  5
5640
330
1F
100
AcDbEntity
  8
0
  6
Continuous
 62
     7
370
    15
100
AcDbLine
 10
73.81160699621645
 20
159.3061325831468
 30
0.0
 11
87.81160742835012
 21
159.3061325831468
 31
0.0
  0
CIRCLE
  5
5641
330
1F
100
AcDbEntity
  8
0
  6
Continuous
 62
     7
370
    15
100
AcDbCircle
 10
81.31160699621645
 20
138.0561323596294
 30
0.0
 40
4.350000000044929
  0
LINE
  5
5642
330
1F
100
AcDbEntity
  8
0
  6
Continuous
 62
     7
370
    15
100
AcDbLine
 10
87.81160742835012
 20
165.3061317039782
 30
0.0
 11
73.81160699621645
 21
165.3061317039783
 31
0.0
  0
LINE
  5
5643
330
1F
100
AcDbEntity
  8
0
  6
Continuous
 62
     7
370
    15
100
AcDbLine
 10
87.81160742835012
 20
159.3061325831468
 30
0.0
 11
87.81160742835012
 21
165.3061317039782
 31
0.0
  0
LINE
  5
5644
330
1F
100
AcDbEntity
  8
0
  6
Continuous
 62
     7
370
    15
100
AcDbLine
 10
73.81160699621645
 20
165.3061317039783
 30
0.0
 11
73.81160699621645
 21
159.3061325831468
 31
0.0
  0
LINE
  5
5645
330
1F
100
AcDbEntity
  8
0
  6
Continuous
 62
     7
370
    15
100
AcDbLine
 10
73.81160699621634
 20
110.8061330152805
 30
0.0
 11
87.81160742835002
 21
110.8061330152804
 31
0.0
  0
LINE
  5
5646
330
1F
100
AcDbEntity
  8
0
  6
Continuous
 62
     7
370
    15
100
AcDbLine
 10
87.81160742835002
 20
110.8061330152804
 30
0.0
 11
87.81160742835002
 21
116.8061321361119
 31
0.0
  0
LINE
  5
5647
330
1F
100
AcDbEntity
  8
0
  6
Continuous
 62
     7
370
    15
100
AcDbLine
 10
73.81160699621634
 20
116.806132136112
 30
0.0
 11
73.81160699621634
 21
110.8061330152805
 31
0.0
  0
LINE
  5
5648
330
1F
100
AcDbEntity
  8
0
  6
Continuous
 62
     7
370
    15
100
AcDbLine
 10
73.81160699621645
 20
157.8681183738764
 30
0.0
 11
73.81160699621645
 21
156.6847873611505
 31
0.0
  0
LINE
  5
5649
330
1F
100
AcDbEntity
  8
0
  6
Continuous
 62
     7
370
    15
100
AcDbLine
 10
73.81160699621634
 20
119.4274773581083
 30
0.0
 11
73.81160699621634
 21
116.8072441352661
 31
0.0
  0
LINE
  5
564A
330
1F
100
AcDbEntity
  8
0
  6
Continuous
 62
     7
370
    15
100
AcDbLine
 10
87.81160742835012
 20
165.3061317039783
 30
0.0
 11
87.81160742835012
 21
164.5948229117449
 31
0.0
  0
LINE
  5
564B
330
1F
100
AcDbEntity
  8
0
  6
Continuous
 62
     7
370
    15
100
AcDbLine
 10
73.81160699621645
 20
165.3061317039784
 30
0.0
 11
73.81160699621645
 21
164.5948229117449
 31
0.0
  0
LINE
  5
564C
330
1F
100
AcDbEntity
  8
0
  6
Continuous
 62
     7
370
    15
100
AcDbLine
 10
87.81160742834989
 20
111.517441807514
 30
0.0
 11
87.81160742834989
 21
110.8061330152805
 31
0.0
  0
LINE
  5
564D
330
1F
100
AcDbEntity
  8
0
  6
Continuous
 62
     7
370
    15
100
AcDbLine
 10
73.81160699621634
 20
111.517441807514
 30
0.0
 11
73.81160699621634
 21
110.8061330152805
 31
0.0
  0
LINE
  5
564E
330
1F
100
AcDbEntity
  8
0
  6
Continuous
 62
     7
370
    15
100
AcDbLine
 10
87.81160742835012
 20
164.556132046705
 30
0.0
 11
87.81160742835012
 21
164.5948229117449
 31
0.0
  0
LINE
  5
564F
330
1F
100
AcDbEntity
  8
0
  6
Continuous
 62
     7
370
    15
100
AcDbLine
 10
73.81160699621645
 20
164.5948229117449
 30
0.0
 11
73.81160699621645
 21
162.377550615197
 31
0.0
  0
LINE
  5
5650
330
1F
100
AcDbEntity
  8
0
  6
Continuous
 62
     7
370
    15
100
AcDbLine
 10
87.81160742834989
 20
111.517441807514
 30
0.0
 11
87.81160742834989
 21
111.5561326725538
 31
0.0
  0
LINE
  5
5651
330
1F
100
AcDbEntity
  8
0
  6
Continuous
 62
     7
370
    15
100
AcDbLine
 10
73.81160699621634
 20
113.7347141040619
 30
0.0
 11
73.81160699621634
 21
111.517441807514
 31
0.0
  0
LINE
  5
5652
330
1F
100
AcDbEntity
  8
0
  6
Continuous
 62
     7
370
    15
100
AcDbLine
 10
73.81160699621645
 20
157.7230108661707
 30
0.0
 11
73.81160699621645
 21
158.1216895712669
 31
0.0
  0
LINE
  5
5653
330
1F
100
AcDbEntity
  8
0
  6
Continuous
 62
     7
370
    15
100
AcDbLine
 10
73.81160699621645
 20
159.3050205839928
 30
0.0
 11
73.81160699621645
 21
158.1216895712669
 31
0.0
  0
LINE
  5
5654
330
1F
100
AcDbEntity
  8
0
  6
Continuous
 62
     7
370
    15
100
AcDbLine
 10
73.81160699621645
 20
162.377550615197
 30
0.0
 11
73.81160699621645
 21
162.2620740665253
 31
0.0
  0
LINE
  5
5655
330
1F
100
AcDbEntity
  8
0
  6
Continuous
 62
     7
370
    15
100
AcDbLine
 10
73.81160699621634
 20
113.8501906527336
 30
0.0
 11
73.81160699621634
 21
113.7347141040619
 31
0.0
  0
LINE
  5
5656
330
1F
100
AcDbEntity
  8
0
  6
Continuous
 62
     7
370
    15
100
AcDbLine
 10
73.81160699621645
 20
162.2897287590559
 30
0.0
 11
73.81160699621645
 21
159.5708051456268
 31
0.0
  0
LINE
  5
5657
330
1F
100
AcDbEntity
  8
0
  6
Continuous
 62
     7
370
    15
100
AcDbLine
 10
73.81160699621634
 20
116.5414595736321
 30
0.0
 11
73.81160699621634
 21
113.822535960203
 31
0.0
  0
LINE
  5
5658
330
1F
100
AcDbEntity
  8
0
  6
Continuous
 62
     7
370
    15
100
AcDbLine
 10
73.81160699621634
 20
162.3864670975264
 30
0.0
 11
73.81160699621634
 21
162.2808122767266
 31
0.0
  0
LINE
  5
5659
330
1F
100
AcDbEntity
  8
0
  6
Continuous
 62
     7
370
    15
100
AcDbLine
 10
73.81160699621623
 20
113.8314524425324
 30
0.0
 11
73.81160699621623
 21
113.7257976217326
 31
0.0
  0
LINE
  5
565A
330
1F
100
AcDbEntity
  8
0
  6
Continuous
 62
     7
370
    15
100
AcDbLine
 10
73.81160699621634
 20
162.2808122767266
 30
0.0
 11
73.81160699621634
 21
162.2620740665253
 31
0.0
  0
LINE
  5
565B
330
1F
100
AcDbEntity
  8
0
  6
Continuous
 62
     7
370
    15
100
AcDbLine
 10
73.81160699621623
 20
113.8501906527337
 30
0.0
 11
73.81160699621623
 21
113.8314524425324
 31
0.0
  0
LINE
  5
565C
330
1F
100
AcDbEntity
  8
0
  6
Continuous
 62
     7
370
    15
100
AcDbLine
 10
73.81160699621634
 20
159.500447450405
 30
0.0
 11
73.81160699621634
 21
156.7815256996211
 31
0.0
  0
LINE
  5
565D
330
1F
100
AcDbEntity
  8
0
  6
Continuous
 62
     7
370
    15
100
AcDbLine
 10
73.81160699621623
 20
119.3307390196379
 30
0.0
 11
73.81160699621623
 21
116.611817268854
 31
0.0
  0
LINE
  5
565E
330
1F
100
AcDbEntity
  8
0
  6
Continuous
 62
     7
370
    15
100
AcDbLine
 10
73.81160699621634
 20
160.1376732571181
 30
0.0
 11
73.81160699621634
 21
159.871888695484
 31
0.0
  0
LINE
  5
565F
330
1F
100
AcDbEntity
  8
0
  6
Continuous
 62
     7
370
    15
100
AcDbLine
 10
73.81160699621623
 20
116.240376023775
 30
0.0
 11
73.81160699621623
 21
115.9745914621409
 31
0.0
  0
LINE
  5
5660
330
1F
100
AcDbEntity
  8
0
  6
Continuous
 62
     7
370
    15
100
AcDbLine
 10
87.81160742835002
 20
164.5561320467051
 30
0.0
 11
87.81160742835002
 21
165.0174421949443
 31
0.0
  0
LINE
  5
5661
330
1F
100
AcDbEntity
  8
0
  6
Continuous
 62
     7
370
    15
100
AcDbLine
 10
73.81160699621634
 20
165.0174421949443
 30
0.0
 11
73.81160699621634
 21
160.1376732571181
 31
0.0
  0
LINE
  5
5662
330
1F
100
AcDbEntity
  8
0
  6
Continuous
 62
     7
370
    15
100
AcDbLine
 10
87.81160742834989
 20
111.0948225243147
 30
0.0
 11
87.81160742834989
 21
111.5561326725539
 31
0.0
  0
LINE
  5
5663
330
1F
100
AcDbEntity
  8
0
  6
Continuous
 62
     7
370
    15
100
AcDbLine
 10
73.81160699621623
 20
115.9745914621409
 30
0.0
 11
73.81160699621623
 21
111.0948225243148
 31
0.0
  0
LINE
  5
5664
330
1F
100
AcDbEntity
  8
0
  6
Continuous
 62
     7
370
    15
100
AcDbLine
 10
73.81160699621634
 20
159.871888695484
 30
0.0
 11
73.81160699621634
 21
159.7662338746842
 31
0.0
  0
LINE
  5
5665
330
1F
100
AcDbEntity
  8
0
  6
Continuous
 62
     7
370
    15
100
AcDbLine
 10
73.81160699621623
 20
116.3460308445748
 30
0.0
 11
73.81160699621623
 21
116.240376023775
 31
0.0
  0
LINE
  5
5666
330
1F
100
AcDbEntity
  8
0
  6
Continuous
 62
     7
370
    15
100
AcDbLine
 10
87.81160742835002
 20
165.3061317039784
 30
0.0
 11
87.81160742835002
 21
165.0174421949443
 31
0.0
  0
LINE
  5
5667
330
1F
100
AcDbEntity
  8
0
  6
Continuous
 62
     7
370
    15
100
AcDbLine
 10
73.81160699621634
 20
165.3061317039784
 30
0.0
 11
73.81160699621634
 21
165.0174421949443
 31
0.0
  0
LINE
  5
5668
330
1F
100
AcDbEntity
  8
0
  6
Continuous
 62
     7
370
    15
100
AcDbLine
 10
87.81160742834989
 20
111.0948225243147
 30
0.0
 11
87.81160742834989
 21
110.8061330152806
 31
0.0
  0
LINE
  5
5669
330
1F
100
AcDbEntity
  8
0
  6
Continuous
 62
     7
370
    15
100
AcDbLine
 10
73.81160699621623
 20
111.0948225243148
 30
0.0
 11
73.81160699621623
 21
110.8061330152806
 31
0.0
  0
LINE
  5
566A
330
1F
100
AcDbEntity
  8
0
  6
Continuous
 62
     7
370
    15
100
AcDbLine
 10
109.8116054464957
 20
164.5561320467049
 30
0.0
 11
87.81160742835012
 21
164.556132046705
 31
0.0
  0
LINE
  5
566B
330
1F
100
AcDbEntity
  8
0
  6
Continuous
 62
     7
370
    15
100
AcDbLine
 10
87.81160742835012
 20
159.5561330897862
 30
0.0
 11
109.8116054464957
 21
159.5561330897862
 31
0.0
  0
LINE
  5
566C
330
1F
100
AcDbEntity
  8
0
  6
Continuous
 62
     7
370
    15
100
AcDbLine
 10
109.8116054464957
 20
147.2544161362701
 30
0.0
 11
87.81160742835012
 21
147.2544161362702
 31
0.0
  0
LINE
  5
566D
330
1F
100
AcDbEntity
  8
0
  6
Continuous
 62
     7
370
    15
100
AcDbLine
 10
87.81160742835012
 20
145.4418002387638
 30
0.0
 11
109.8116054464957
 21
145.4418002387637
 31
0.0
  0
LINE
  5
566E
330
1F
100
AcDbEntity
  8
0
  6
Continuous
 62
     7
370
    15
100
AcDbLine
 10
109.8116054464955
 20
130.6704644804948
 30
0.0
 11
87.81160742835002
 21
130.6704644804949
 31
0.0
  0
LINE
  5
566F
330
1F
100
AcDbEntity
  8
0
  6
Continuous
 62
     7
370
    15
100
AcDbLine
 10
87.81160742835002
 20
128.8578485829884
 30
0.0
 11
109.8116054464955
 21
128.8578485829884
 31
0.0
  0
LINE
  5
5670
330
1F
100
AcDbEntity
  8
0
  6
Continuous
 62
     7
370
    15
100
AcDbLine
 10
109.8116054464955
 20
116.5561316294724
 30
0.0
 11
87.81160742835002
 21
116.5561316294724
 31
0.0
  0
LINE
  5
5671
330
1F
100
AcDbEntity
  8
0
  6
Continuous
 62
     7
370
    15
100
AcDbLine
 10
87.81160742835002
 20
111.5561326725537
 30
0.0
 11
109.8116054464955
 21
111.5561326725537
 31
0.0
  0
LINE
  5
5672
330
1F
100
AcDbEntity
  8
0
  6
Continuous
 62
     7
370
    15
100
AcDbLine
 10
109.8116054464957
 20
143.9009754678363
 30
0.0
 11
87.81160742835012
 21
143.9009754678363
 31
0.0
  0
LINE
  5
5673
330
1F
100
AcDbEntity
  8
0
  6
Continuous
 62
     7
370
    15
100
AcDbLine
 10
87.81160742835002
 20
132.2112892514224
 30
0.0
 11
109.8116054464955
 21
132.2112892514223
 31
0.0
  0
LINE
  5
5674
330
1F
100
AcDbEntity
  8
0
  6
Continuous
 62
     7
370
    15
100
AcDbLine
 10
109.8116054464957
 20
142.7799490040297
 30
0.0
 11
87.81160742835012
 21
142.7799490040297
 31
0.0
  0
LINE
  5
5675
330
1F
100
AcDbEntity
  8
0
  6
Continuous
 62
     7
370
    15
100
AcDbLine
 10
87.81160742835002
 20
133.332315715229
 30
0.0
 11
109.8116054464955
 21
133.3323157152289
 31
0.0
  0
CIRCLE
  5
5676
330
1F
100
AcDbEntity
  8
0
  6
Continuous
 62
     7
370
    15
100
AcDbCircle
 10
116.3116069962164
 20
138.0561323596292
 30
0.0
 40
5.350000000021282
  0
LINE
  5
5677
330
1F
100
AcDbEntity
  8
0
  6
Continuous
 62
     7
370
    15
100
AcDbLine
 10
109.8116054464955
 20
116.8061321361118
 30
0.0
 11
109.8116054464957
 21
159.3061325831467
 31
0.0
  0
LINE
  5
5678
330
1F
100
AcDbEntity
  8
0
  6
Continuous
 62
     7
370
    15
100
AcDbLine
 10
109.8116054464957
 20
159.3061325831467
 30
0.0
 11
123.8116077412745
 21
159.3061325831467
 31
0.0
  0
LINE
  5
5679
330
1F
100
AcDbEntity
  8
0
  6
Continuous
 62
     7
370
    15
100
AcDbLine
 10
123.8116077412744
 20
116.8061321361118
 30
0.0
 11
123.8116077412745
 21
159.3061325831467
 31
0.0
  0
LINE
  5
567A
330
1F
100
AcDbEntity
  8
0
  6
Continuous
 62
     7
370
    15
100
AcDbLine
 10
123.8116077412744
 20
116.8061321361118
 30
0.0
 11
109.8116054464955
 21
116.8061321361118
 31
0.0
  0
CIRCLE
  5
567B
330
1F
100
AcDbEntity
  8
0
  6
Continuous
 62
     7
370
    15
100
AcDbCircle
 10
116.3116069962164
 20
138.0561323596292
 30
0.0
 40
4.350000000044929
  0
LINE
  5
567C
330
1F
100
AcDbEntity
  8
0
  6
Continuous
 62
     7
370
    15
100
AcDbLine
 10
123.8116077412745
 20
165.3061317039781
 30
0.0
 11
109.8116054464957
 21
165.3061317039782
 31
0.0
  0
LINE
  5
567D
330
1F
100
AcDbEntity
  8
0
  6
Continuous
 62
     7
370
    15
100
AcDbLine
 10
123.8116077412745
 20
159.3061325831467
 30
0.0
 11
123.8116077412745
 21
165.3061317039781
 31
0.0
  0
LINE
  5
567E
330
1F
100
AcDbEntity
  8
0
  6
Continuous
 62
     7
370
    15
100
AcDbLine
 10
109.8116054464957
 20
165.3061317039782
 30
0.0
 11
109.8116054464957
 21
159.3061325831467
 31
0.0
  0
LINE
  5
567F
330
1F
100
AcDbEntity
  8
0
  6
Continuous
 62
     7
370
    15
100
AcDbLine
 10
109.8116054464955
 20
110.8061330152804
 30
0.0
 11
123.8116077412744
 21
110.8061330152803
 31
0.0
  0
LINE
  5
5680
330
1F
100
AcDbEntity
  8
0
  6
Continuous
 62
     7
370
    15
100
AcDbLine
 10
123.8116077412744
 20
110.8061330152803
 30
0.0
 11
123.8116077412744
 21
116.8061321361118
 31
0.0
  0
LINE
  5
5681
330
1F
100
AcDbEntity
  8
0
  6
Continuous
 62
     7
370
    15
100
AcDbLine
 10
109.8116054464955
 20
116.8061321361118
 30
0.0
 11
109.8116054464955
 21
110.8061330152804
 31
0.0
  0
LINE
  5
5682
330
1F
100
AcDbEntity
  8
0
  6
Continuous
 62
     7
370
    15
100
AcDbLine
 10
123.8116077412745
 20
156.6847873611504
 30
0.0
 11
123.8116077412745
 21
157.8681183738762
 31
0.0
  0
LINE
  5
5683
330
1F
100
AcDbEntity
  8
0
  6
Continuous
 62
     7
370
    15
100
AcDbLine
 10
123.8116077412743
 20
116.807244135266
 30
0.0
 11
123.8116077412744
 21
119.4274773581081
 31
0.0
  0
LINE
  5
5684
330
1F
100
AcDbEntity
  8
0
  6
Continuous
 62
     7
370
    15
100
AcDbLine
 10
123.8116077412745
 20
164.5948229117447
 30
0.0
 11
123.8116077412745
 21
165.3061317039782
 31
0.0
  0
LINE
  5
5685
330
1F
100
AcDbEntity
  8
0
  6
Continuous
 62
     7
370
    15
100
AcDbLine
 10
109.8116054464957
 20
164.5948229117448
 30
0.0
 11
109.8116054464957
 21
165.3061317039782
 31
0.0
  0
LINE
  5
5686
330
1F
100
AcDbEntity
  8
0
  6
Continuous
 62
     7
370
    15
100
AcDbLine
 10
123.8116077412743
 20
110.8061330152804
 30
0.0
 11
123.8116077412743
 21
111.5174418075139
 31
0.0
  0
LINE
  5
5687
330
1F
100
AcDbEntity
  8
0
  6
Continuous
 62
     7
370
    15
100
AcDbLine
 10
109.8116054464954
 20
110.8061330152804
 30
0.0
 11
109.8116054464954
 21
111.5174418075139
 31
0.0
  0
LINE
  5
5688
330
1F
100
AcDbEntity
  8
0
  6
Continuous
 62
     7
370
    15
100
AcDbLine
 10
123.8116077412745
 20
162.1962891651446
 30
0.0
 11
123.8116077412745
 21
164.5948229117447
 31
0.0
  0
LINE
  5
5689
330
1F
100
AcDbEntity
  8
0
  6
Continuous
 62
     7
370
    15
100
AcDbLine
 10
109.8116054464957
 20
164.5948229117448
 30
0.0
 11
109.8116054464957
 21
164.5561320467049
 31
0.0
  0
LINE
  5
568A
330
1F
100
AcDbEntity
  8
0
  6
Continuous
 62
     7
370
    15
100
AcDbLine
 10
123.8116077412743
 20
111.5174418075139
 30
0.0
 11
123.8116077412743
 21
113.915975554114
 31
0.0
  0
LINE
  5
568B
330
1F
100
AcDbEntity
  8
0
  6
Continuous
 62
     7
370
    15
100
AcDbLine
 10
109.8116054464954
 20
111.5561326725537
 30
0.0
 11
109.8116054464954
 21
111.5174418075139
 31
0.0
  0
LINE
  5
568C
330
1F
100
AcDbEntity
  8
0
  6
Continuous
 62
     7
370
    15
100
AcDbLine
 10
123.8116077412745
 20
158.1216895712668
 30
0.0
 11
123.8116077412745
 21
157.7230108661705
 31
0.0
  0
LINE
  5
568D
330
1F
100
AcDbEntity
  8
0
  6
Continuous
 62
     7
370
    15
100
AcDbLine
 10
123.8116077412745
 20
158.1216895712668
 30
0.0
 11
123.8116077412745
 21
159.3050205839926
 31
0.0
  0
LINE
  5
568E
330
1F
100
AcDbEntity
  8
0
  6
Continuous
 62
     7
370
    15
100
AcDbLine
 10
123.8116077412745
 20
159.5708051456267
 30
0.0
 11
123.8116077412745
 21
162.470990209108
 31
0.0
  0
LINE
  5
568F
330
1F
100
AcDbEntity
  8
0
  6
Continuous
 62
     7
370
    15
100
AcDbLine
 10
123.8116077412743
 20
113.6412745101506
 30
0.0
 11
123.8116077412743
 21
116.5414595736319
 31
0.0
  0
LINE
  5
5690
330
1F
100
AcDbEntity
  8
0
  6
Continuous
 62
     7
370
    15
100
AcDbLine
 10
123.8116077412744
 20
162.1962891651446
 30
0.0
 11
123.8116077412744
 21
162.4709902091081
 31
0.0
  0
LINE
  5
5691
330
1F
100
AcDbEntity
  8
0
  6
Continuous
 62
     7
370
    15
100
AcDbLine
 10
123.8116077412743
 20
113.6412745101506
 30
0.0
 11
123.8116077412743
 21
113.9159755541141
 31
0.0
  0
LINE
  5
5692
330
1F
100
AcDbEntity
  8
0
  6
Continuous
 62
     7
370
    15
100
AcDbLine
 10
123.8116077412744
 20
156.7815256996209
 30
0.0
 11
123.8116077412744
 21
159.6817107631022
 31
0.0
  0
LINE
  5
5693
330
1F
100
AcDbEntity
  8
0
  6
Continuous
 62
     7
370
    15
100
AcDbLine
 10
123.8116077412743
 20
116.4305539561564
 30
0.0
 11
123.8116077412743
 21
119.3307390196378
 31
0.0
  0
LINE
  5
5694
330
1F
100
AcDbEntity
  8
0
  6
Continuous
 62
     7
370
    15
100
AcDbLine
 10
123.8116077412744
 20
159.9564118070657
 30
0.0
 11
123.8116077412744
 21
165.0174421949441
 31
0.0
  0
LINE
  5
5695
330
1F
100
AcDbEntity
  8
0
  6
Continuous
 62
     7
370
    15
100
AcDbLine
 10
109.8116054464955
 20
165.0174421949442
 30
0.0
 11
109.8116054464955
 21
164.556132046705
 31
0.0
  0
LINE
  5
5696
330
1F
100
AcDbEntity
  8
0
  6
Continuous
 62
     7
370
    15
100
AcDbLine
 10
123.8116077412744
 20
159.6817107631022
 30
0.0
 11
123.8116077412744
 21
159.9564118070657
 31
0.0
  0
LINE
  5
5697
330
1F
100
AcDbEntity
  8
0
  6
Continuous
 62
     7
370
    15
100
AcDbLine
 10
123.8116077412743
 20
116.155852912193
 30
0.0
 11
123.8116077412743
 21
116.4305539561564
 31
0.0
  0
LINE
  5
5698
330
1F
100
AcDbEntity
  8
0
  6
Continuous
 62
     7
370
    15
100
AcDbLine
 10
123.8116077412743
 20
111.0948225243146
 30
0.0
 11
123.8116077412743
 21
116.155852912193
 31
0.0
  0
LINE
  5
5699
330
1F
100
AcDbEntity
  8
0
  6
Continuous
 62
     7
370
    15
100
AcDbLine
 10
109.8116054464954
 20
111.5561326725538
 30
0.0
 11
109.8116054464954
 21
111.0948225243147
 31
0.0
  0
LINE
  5
569A
330
1F
100
AcDbEntity
  8
0
  6
Continuous
 62
     7
370
    15
100
AcDbLine
 10
123.8116077412744
 20
165.0174421949441
 30
0.0
 11
123.8116077412744
 21
165.3061317039782
 31
0.0
  0
LINE
  5
569B
330
1F
100
AcDbEntity
  8
0
  6
Continuous
 62
     7
370
    15
100
AcDbLine
 10
109.8116054464955
 20
165.0174421949442
 30
0.0
 11
109.8116054464955
 21
165.3061317039783
 31
0.0
  0
LINE
  5
569C
330
1F
100
AcDbEntity
  8
0
  6
Continuous
 62
     7
370
    15
100
AcDbLine
 10
123.8116077412743
 20
110.8061330152804
 30
0.0
 11
123.8116077412743
 21
111.0948225243146
 31
0.0
  0
LINE
  5
569D
330
1F
100
AcDbEntity
  8
0
  6
Continuous
 62
     7
370
    15
100
AcDbLine
 10
109.8116054464954
 20
110.8061330152805
 30
0.0
 11
109.8116054464954
 21
111.0948225243147
 31
0.0
  0
LINE
  5
569E
330
1F
100
AcDbEntity
  8
0
  6
Continuous
 62
     7
370
    15
100
AcDbLine
 10
68.11064530954556
 20
134.7395075710621
 30
0.0
 11
68.11064530954556
 21
132.0561323074754
 31
0.0
  0
LINE
  5
569F
330
1F
100
AcDbEntity
  8
0
  6
Continuous
 62
     7
370
    15
100
AcDbLine
 10
70.81160697013931
 20
134.739507571062
 30
0.0
 11
68.11064530954556
 21
134.7395075710621
 31
0.0
  0
ARC
  5
56A0
330
1F
100
AcDbEntity
  8
0
  6
Continuous
 62
     7
370
    15
100
AcDbCircle
 10
65.81160699621634
 20
138.0561323596295
 30
0.0
 40
6.00000000000001
100
AcDbArc
 50
326.4426902380816
 51
33.55730976192159
  0
LINE
  5
56A1
330
1F
100
AcDbEntity
  8
0
  6
Continuous
 62
     7
370
    15
100
AcDbLine
 10
68.11064530954556
 20
141.3727571481969
 30
0.0
 11
70.81160697013931
 21
141.3727571481969
 31
0.0
  0
LINE
  5
56A2
330
1F
100
AcDbEntity
  8
0
  6
Continuous
 62
     7
370
    15
100
AcDbLine
 10
68.11064530954556
 20
144.0561324117836
 30
0.0
 11
68.11064530954556
 21
141.3727571481969
 31
0.0
  0
LINE
  5
56A3
330
1F
100
AcDbEntity
  8
0
  6
Continuous
 62
     7
370
    15
100
AcDbLine
 10
70.81160697013931
 20
141.3727571481969
 30
0.0
 11
70.81160697013931
 21
134.739507571062
 31
0.0
  0
LINE
  5
56A4
330
1F
100
AcDbEntity
  8
0
  6
Continuous
 62
     7
370
    15
100
AcDbLine
 10
66.81160678014951
 20
143.306132288849
 30
0.0
 11
66.81160678014951
 21
139.6569134660196
 31
0.0
  0
SPLINE
  5
56A5
330
1F
100
AcDbEntity
  8
0
  6
Continuous
 62
     7
370
    15
100
AcDbSpline
210
0.0
220
0.0
230
1.0
 70
     8
 71
     3
 72
     9
 73
     5
 74
     0
 42
0.0000000001
 43
0.0000000001
 40
0.0
 40
0.0
 40
0.0
 40
0.0
 40
0.4944687188728356
 40
1.0
 40
1.0
 40
1.0
 40
1.0
 10
66.81160678014951
 20
139.6569134660196
 30
0.0
 10
66.99676793744933
 20
139.961607296924
 30
0.0
 10
67.37123279282352
 20
140.5778117589556
 30
0.0
 10
67.86236341627258
 20
141.105828279905
 30
0.0
 10
68.11064530954556
 20
141.3727571481969
 30
0.0
  0
SPLINE
  5
56A6
330
1F
100
AcDbEntity
  8
0
  6
Continuous
 62
     7
370
    15
100
AcDbSpline
210
0.0
220
0.0
230
1.0
 70
     8
 71
     3
 72
     9
 73
     5
 74
     0
 42
0.0000000001
 43
0.0000000001
 40
0.0
 40
0.0
 40
0.0
 40
0.0
 40
0.4960844201691058
 40
1.0
 40
1.0
 40
1.0
 40
1.0
 10
68.11064530954556
 20
134.7395075710621
 30
0.0
 10
67.86694173649218
 20
135.001343715937
 30
0.0
 10
67.37568750002489
 20
135.5291493357661
 30
0.0
 10
67.00061277678898
 20
136.145009647272
 30
0.0
 10
66.81160678014951
 20
136.4553512532394
 30
0.0
  0
LINE
  5
56A7
330
1F
100
AcDbEntity
  8
0
  6
Continuous
 62
     7
370
    15
100
AcDbLine
 10
66.81160678014951
 20
136.4553512532394
 30
0.0
 11
66.81160678014951
 21
139.6569134660196
 31
0.0
  0
LINE
  5
56A8
330
1F
100
AcDbEntity
  8
0
  6
Continuous
 62
     7
370
    15
100
AcDbLine
 10
66.81160678014951
 20
136.4553512532394
 30
0.0
 11
66.81160678014951
 21
132.80613243041
 31
0.0
  0
CIRCLE
  5
56A9
330
1F
100
AcDbEntity
  8
0
  6
Continuous
 62
     7
370
    15
100
AcDbCircle
 10
199.4156057584227
 20
149.0561323596296
 30
0.0
 40
4.799999999935153
  0
CIRCLE
  5
56AA
330
1F
100
AcDbEntity
  8
0
  6
Continuous
 62
     7
370
    15
100
AcDbCircle
 10
199.4156057584225
 20
127.0561323596296
 30
0.0
 40
4.799999999935167
  0
CIRCLE
  5
56AB
330
1F
100
AcDbEntity
  8
0
  6
Continuous
 62
     7
370
    15
100
AcDbCircle
 10
242.4156057584225
 20
127.0561323596294
 30
0.0
 40
4.799999999985629
  0
CIRCLE
  5
56AC
330
1F
100
AcDbEntity
  8
0
  6
Continuous
 62
     7
370
    15
100
AcDbCircle
 10
242.4156057584228
 20
149.0561323596294
 30
0.0
 40
4.799999999985629
  0
CIRCLE
  5
56AD
330
1F
100
AcDbEntity
  8
0
  6
Continuous
 62
     7
370
    15
100
AcDbCircle
 10
201.9156057584227
 20
157.0561323596296
 30
0.0
 40
3.258500000077674
  0
CIRCLE
  5
56AE
330
1F
100
AcDbEntity
  8
0
  6
Continuous
 62
     7
370
    15
100
AcDbCircle
 10
201.9156057584225
 20
119.0561323596295
 30
0.0
 40
3.258500000077688
  0
CIRCLE
  5
56AF
330
1F
100
AcDbEntity
  8
0
  6
Continuous
 62
     7
370
    15
100
AcDbCircle
 10
239.9156057584225
 20
119.0561323596294
 30
0.0
 40
3.258499999953073
  0
CIRCLE
  5
56B0
330
1F
100
AcDbEntity
  8
0
  6
Continuous
 62
     7
370
    15
100
AcDbCircle
 10
239.9156057584228
 20
157.0561323596294
 30
0.0
 40
3.258499999953073
  0
CIRCLE
  5
56B1
330
1F
100
AcDbEntity
  8
0
  6
Continuous
 62
     7
370
    15
100
AcDbCircle
 10
220.9156057584225
 20
138.0561323596295
 30
0.0
 40
6.249999999999971
  0
LINE
  5
56B2
330
1F
100
AcDbEntity
  8
0
  6
Continuous
 62
     7
370
    15
100
AcDbLine
 10
229.9136952283918
 20
110.8061330152805
 30
0.0
 11
211.9175162884532
 21
110.8061330152806
 31
0.0
  0
ARC
  5
56B3
330
1F
100
AcDbEntity
  8
0
  6
Continuous
 62
     7
370
    15
100
AcDbCircle
 10
211.9175163475081
 20
111.3061323596295
 30
0.0
 40
0.500000000000005
100
AcDbArc
 50
154.9999999999933
 51
270.0
  0
LINE
  5
56B4
330
1F
100
AcDbEntity
  8
0
  6
Continuous
 62
     7
370
    15
100
AcDbLine
 10
211.4643626633226
 20
111.5174418075141
 30
0.0
 11
212.4982937025963
 21
113.734714104062
 31
0.0
  0
ARC
  5
56B5
330
1F
100
AcDbEntity
  8
0
  6
Continuous
 62
     7
370
    15
100
AcDbCircle
 10
212.679555450915
 20
113.65019096553
 30
0.0
 40
0.2000000000000396
100
AcDbArc
 50
65.00000000000065
 51
155.0000000000006
  0
LINE
  5
56B6
330
1F
100
AcDbEntity
  8
0
  6
Continuous
 62
     7
370
    15
100
AcDbLine
 10
212.764079195553
 20
113.8314524425324
 30
0.0
 11
212.9906560081183
 21
113.7257976217326
 31
0.0
  0
ARC
  5
56B7
330
1F
100
AcDbEntity
  8
0
  6
Continuous
 62
     7
370
    15
100
AcDbCircle
 10
213.0751797023704
 20
113.9070595149095
 30
0.0
 40
0.1999999999999958
100
AcDbArc
 50
245.0000000000073
 51
335.0000000000094
  0
LINE
  5
56B8
330
1F
100
AcDbEntity
  8
0
  6
Continuous
 62
     7
370
    15
100
AcDbLine
 10
213.2564410354136
 20
113.822535960203
 30
0.0
 11
214.5242960910438
 21
116.5414595736321
 31
0.0
  0
ARC
  5
56B9
330
1F
100
AcDbEntity
  8
0
  6
Continuous
 62
     7
370
    15
100
AcDbCircle
 10
214.3430344875926
 20
116.6259828760197
 30
0.0
 40
0.199999999999995
100
AcDbArc
 50
335.0000000000006
 51
64.99999999998974
  0
LINE
  5
56BA
330
1F
100
AcDbEntity
  8
0
  6
Continuous
 62
     7
370
    15
100
AcDbLine
 10
214.4275582182347
 20
116.8072441352662
 30
0.0
 11
208.8084495413243
 21
119.4274773581084
 31
0.0
  0
ARC
  5
56BB
330
1F
100
AcDbEntity
  8
0
  6
Continuous
 62
     7
370
    15
100
AcDbCircle
 10
208.7239262079654
 20
119.2462160988122
 30
0.0
 40
0.1999999999999743
100
AcDbArc
 50
64.99999999998244
 51
155.0000000000079
  0
LINE
  5
56BC
330
1F
100
AcDbEntity
  8
0
  6
Continuous
 62
     7
370
    15
100
AcDbLine
 10
208.5426649796902
 20
119.3307390196379
 30
0.0
 11
207.27480992406
 21
116.611817268854
 31
0.0
  0
ARC
  5
56BD
330
1F
100
AcDbEntity
  8
0
  6
Continuous
 62
     7
370
    15
100
AcDbCircle
 10
207.4560714227434
 20
116.5272927377021
 30
0.0
 40
0.2000000000000207
100
AcDbArc
 50
155.0000000000036
 51
244.9999999999573
  0
LINE
  5
56BE
330
1F
100
AcDbEntity
  8
0
  6
Continuous
 62
     7
370
    15
100
AcDbLine
 10
207.3715473312079
 20
116.3460308445748
 30
0.0
 11
207.5981250750958
 21
116.240376023775
 31
0.0
  0
ARC
  5
56BF
330
1F
100
AcDbEntity
  8
0
  6
Continuous
 62
     7
370
    15
100
AcDbCircle
 10
207.5136010648061
 20
116.0591150574521
 30
0.0
 40
0.1999999999999923
100
AcDbArc
 50
334.9999999999992
 51
64.99999999997154
  0
LINE
  5
56C0
330
1F
100
AcDbEntity
  8
0
  6
Continuous
 62
     7
370
    15
100
AcDbLine
 10
207.6948624822437
 20
115.9745914621409
 30
0.0
 11
205.4193890440403
 21
111.0948225243148
 31
0.0
  0
ARC
  5
56C1
330
1F
100
AcDbEntity
  8
0
  6
Continuous
 62
     7
370
    15
100
AcDbCircle
 10
204.9662354580445
 20
111.3061323596295
 30
0.0
 40
0.5000000000000187
100
AcDbArc
 50
270.0
 51
334.9999999999992
  0
LINE
  5
56C2
330
1F
100
AcDbEntity
  8
0
  6
Continuous
 62
     7
370
    15
100
AcDbLine
 10
204.9662354189097
 20
110.8061330152806
 30
0.0
 11
199.6656055349051
 21
110.8061330152806
 31
0.0
  0
ARC
  5
56C3
330
1F
100
AcDbEntity
  8
0
  6
Continuous
 62
     7
370
    15
100
AcDbCircle
 10
199.6656057584225
 20
116.8061323596295
 30
0.0
 40
6.0
100
AcDbArc
 50
180.0
 51
270.0
  0
LINE
  5
56C4
330
1F
100
AcDbEntity
  8
0
  6
Continuous
 62
     7
370
    15
100
AcDbLine
 10
193.6656064140736
 20
116.8061321361122
 30
0.0
 11
193.6656064140738
 21
159.306132583147
 31
0.0
  0
ARC
  5
56C5
330
1F
100
AcDbEntity
  8
0
  6
Continuous
 62
     7
370
    15
100
AcDbCircle
 10
199.6656057584227
 20
159.3061323596296
 30
0.0
 40
6.0
100
AcDbArc
 50
90.0
 51
180.0
  0
LINE
  5
56C6
330
1F
100
AcDbEntity
  8
0
  6
Continuous
 62
     7
370
    15
100
AcDbLine
 10
199.6656055349053
 20
165.3061317039784
 30
0.0
 11
204.9662354189099
 21
165.3061317039784
 31
0.0
  0
ARC
  5
56C7
330
1F
100
AcDbEntity
  8
0
  6
Continuous
 62
     7
370
    15
100
AcDbCircle
 10
204.9662354580445
 20
164.8061323596295
 30
0.0
 40
0.5000000000000702
100
AcDbArc
 50
24.99999999999935
 51
90.0
  0
LINE
  5
56C8
330
1F
100
AcDbEntity
  8
0
  6
Continuous
 62
     7
370
    15
100
AcDbLine
 10
205.4193890440406
 20
165.0174421949443
 30
0.0
 11
207.6948624822439
 21
160.1376732571181
 31
0.0
  0
ARC
  5
56C9
330
1F
100
AcDbEntity
  8
0
  6
Continuous
 62
     7
370
    15
100
AcDbCircle
 10
207.5136010648063
 20
160.0531496618069
 30
0.0
 40
0.2000000000000164
100
AcDbArc
 50
295.000000000043
 51
24.99999999999935
  0
LINE
  5
56CA
330
1F
100
AcDbEntity
  8
0
  6
Continuous
 62
     7
370
    15
100
AcDbLine
 10
207.598125075096
 20
159.871888695484
 30
0.0
 11
207.3715473312081
 21
159.7662338746842
 31
0.0
  0
ARC
  5
56CB
330
1F
100
AcDbEntity
  8
0
  6
Continuous
 62
     7
370
    15
100
AcDbCircle
 10
207.4560714227434
 20
159.5849719815569
 30
0.0
 40
0.2000000000000593
100
AcDbArc
 50
115.000000000043
 51
204.9999999999921
  0
LINE
  5
56CC
330
1F
100
AcDbEntity
  8
0
  6
Continuous
 62
     7
370
    15
100
AcDbLine
 10
207.2748099240602
 20
159.500447450405
 30
0.0
 11
208.5426649796904
 21
156.7815256996211
 31
0.0
  0
ARC
  5
56CD
330
1F
100
AcDbEntity
  8
0
  6
Continuous
 62
     7
370
    15
100
AcDbCircle
 10
208.7239262079656
 20
156.8660486204468
 30
0.0
 40
0.1999999999999941
100
AcDbArc
 50
204.9999999999949
 51
295.0000000000106
  0
LINE
  5
56CE
330
1F
100
AcDbEntity
  8
0
  6
Continuous
 62
     7
370
    15
100
AcDbLine
 10
208.8084495413245
 20
156.6847873611506
 30
0.0
 11
214.4275582182349
 21
159.3050205839928
 31
0.0
  0
ARC
  5
56CF
330
1F
100
AcDbEntity
  8
0
  6
Continuous
 62
     7
370
    15
100
AcDbCircle
 10
214.3430344875928
 20
159.4862818432393
 30
0.0
 40
0.1999999999999821
100
AcDbArc
 50
295.0000000000033
 51
25.00000000000083
  0
LINE
  5
56D0
330
1F
100
AcDbEntity
  8
0
  6
Continuous
 62
     7
370
    15
100
AcDbLine
 10
214.5242960910441
 20
159.5708051456269
 30
0.0
 11
213.2564410354139
 21
162.289728759056
 31
0.0
  0
ARC
  5
56D1
330
1F
100
AcDbEntity
  8
0
  6
Continuous
 62
     7
370
    15
100
AcDbCircle
 10
213.0751797023706
 20
162.2052052043495
 30
0.0
 40
0.2000000000000019
100
AcDbArc
 50
24.99999999999935
 51
114.999999999996
  0
LINE
  5
56D2
330
1F
100
AcDbEntity
  8
0
  6
Continuous
 62
     7
370
    15
100
AcDbLine
 10
212.9906560081185
 20
162.3864670975264
 30
0.0
 11
212.7640791955532
 21
162.2808122767266
 31
0.0
  0
ARC
  5
56D3
330
1F
100
AcDbEntity
  8
0
  6
Continuous
 62
     7
370
    15
100
AcDbCircle
 10
212.6795554509151
 20
162.462073753729
 30
0.0
 40
0.2000000000000456
100
AcDbArc
 50
204.9999999999994
 51
295.0000000000033
  0
LINE
  5
56D4
330
1F
100
AcDbEntity
  8
0
  6
Continuous
 62
     7
370
    15
100
AcDbLine
 10
212.4982937025965
 20
162.3775506151971
 30
0.0
 11
211.4643626633228
 21
164.594822911745
 31
0.0
  0
ARC
  5
56D5
330
1F
100
AcDbEntity
  8
0
  6
Continuous
 62
     7
370
    15
100
AcDbCircle
 10
211.9175163475083
 20
164.8061323596295
 30
0.0
 40
0.5000000000000308
100
AcDbArc
 50
90.0
 51
205.0000000000066
  0
LINE
  5
56D6
330
1F
100
AcDbEntity
  8
0
  6
Continuous
 62
     7
370
    15
100
AcDbLine
 10
211.9175162884535
 20
165.3061317039784
 30
0.0
 11
229.913695228392
 21
165.3061317039784
 31
0.0
  0
ARC
  5
56D7
330
1F
100
AcDbEntity
  8
0
  6
Continuous
 62
     7
370
    15
100
AcDbCircle
 10
229.9136951693371
 20
164.8061323596295
 30
0.0
 40
0.5000000000000308
100
AcDbArc
 50
334.9999999999948
 51
90.0
  0
LINE
  5
56D8
330
1F
100
AcDbEntity
  8
0
  6
Continuous
 62
     7
370
    15
100
AcDbLine
 10
230.3668488535226
 20
164.5948229117449
 30
0.0
 11
229.3329178142489
 21
162.377550615197
 31
0.0
  0
ARC
  5
56D9
330
1F
100
AcDbEntity
  8
0
  6
Continuous
 62
     7
370
    15
100
AcDbCircle
 10
229.1516560659303
 20
162.462073753729
 30
0.0
 40
0.2000000000000336
100
AcDbArc
 50
245.0000000000073
 51
335.0000000000021
  0
LINE
  5
56DA
330
1F
100
AcDbEntity
  8
0
  6
Continuous
 62
     7
370
    15
100
AcDbLine
 10
229.0671323212923
 20
162.2808122767265
 30
0.0
 11
228.8405555087269
 21
162.3864670975264
 31
0.0
  0
ARC
  5
56DB
330
1F
100
AcDbEntity
  8
0
  6
Continuous
 62
     7
370
    15
100
AcDbCircle
 10
228.7560318144749
 20
162.2052052043495
 30
0.0
 40
0.1999999999999958
100
AcDbArc
 50
65.00000000000724
 51
155.0000000000093
  0
LINE
  5
56DC
330
1F
100
AcDbEntity
  8
0
  6
Continuous
 62
     7
370
    15
100
AcDbLine
 10
228.5747704814316
 20
162.2897287590559
 30
0.0
 11
227.3069154258014
 21
159.5708051456268
 31
0.0
  0
ARC
  5
56DD
330
1F
100
AcDbEntity
  8
0
  6
Continuous
 62
     7
370
    15
100
AcDbCircle
 10
227.4881770292527
 20
159.4862818432393
 30
0.0
 40
0.2000000000000456
100
AcDbArc
 50
154.9999999999992
 51
244.999999999997
  0
LINE
  5
56DE
330
1F
100
AcDbEntity
  8
0
  6
Continuous
 62
     7
370
    15
100
AcDbLine
 10
227.4036532986106
 20
159.3050205839928
 30
0.0
 11
229.9413154619874
 21
158.1216895712669
 31
0.0
  0
LINE
  5
56DF
330
1F
100
AcDbEntity
  8
0
  6
Continuous
 62
     7
370
    15
100
AcDbLine
 10
230.0864220383705
 20
157.7230108661707
 30
0.0
 11
229.9413154619874
 21
158.1216895712669
 31
0.0
  0
LINE
  5
56E0
330
1F
100
AcDbEntity
  8
0
  6
Continuous
 62
     7
370
    15
100
AcDbLine
 10
230.4850998121442
 20
157.8681183738764
 30
0.0
 11
230.0864220383705
 21
157.7230108661707
 31
0.0
  0
LINE
  5
56E1
330
1F
100
AcDbEntity
  8
0
  6
Continuous
 62
     7
370
    15
100
AcDbLine
 10
230.4850998121442
 20
157.8681183738764
 30
0.0
 11
233.022761975521
 21
156.6847873611505
 31
0.0
  0
ARC
  5
56E2
330
1F
100
AcDbEntity
  8
0
  6
Continuous
 62
     7
370
    15
100
AcDbCircle
 10
233.1072853088798
 20
156.8660486204467
 30
0.0
 40
0.1999999999999941
100
AcDbArc
 50
244.9999999999898
 51
335.0000000000094
  0
LINE
  5
56E3
330
1F
100
AcDbEntity
  8
0
  6
Continuous
 62
     7
370
    15
100
AcDbLine
 10
233.288546537155
 20
156.781525699621
 30
0.0
 11
234.5564015927852
 21
159.5004474504049
 31
0.0
  0
ARC
  5
56E4
330
1F
100
AcDbEntity
  8
0
  6
Continuous
 62
     7
370
    15
100
AcDbCircle
 10
234.3751400941019
 20
159.5849719815568
 30
0.0
 40
0.2000000000000078
100
AcDbArc
 50
335.0000000000021
 51
64.99999999996096
  0
LINE
  5
56E5
330
1F
100
AcDbEntity
  8
0
  6
Continuous
 62
     7
370
    15
100
AcDbLine
 10
234.4596641856373
 20
159.7662338746841
 30
0.0
 11
234.2330864417494
 21
159.871888695484
 31
0.0
  0
ARC
  5
56E6
330
1F
100
AcDbEntity
  8
0
  6
Continuous
 62
     7
370
    15
100
AcDbCircle
 10
234.3176104520392
 20
160.0531496618068
 30
0.0
 40
0.2000000000000078
100
AcDbArc
 50
155.0000000000021
 51
244.9999999999719
  0
LINE
  5
56E7
330
1F
100
AcDbEntity
  8
0
  6
Continuous
 62
     7
370
    15
100
AcDbLine
 10
234.1363490346016
 20
160.137673257118
 30
0.0
 11
236.4118224728049
 21
165.0174421949442
 31
0.0
  0
ARC
  5
56E8
330
1F
100
AcDbEntity
  8
0
  6
Continuous
 62
     7
370
    15
100
AcDbCircle
 10
236.8649760588008
 20
164.8061323596294
 30
0.0
 40
0.5000000000000702
100
AcDbArc
 50
90.0
 51
155.0000000000006
  0
LINE
  5
56E9
330
1F
100
AcDbEntity
  8
0
  6
Continuous
 62
     7
370
    15
100
AcDbLine
 10
236.8649760979355
 20
165.3061317039783
 30
0.0
 11
242.1656059819401
 21
165.3061317039783
 31
0.0
  0
ARC
  5
56EA
330
1F
100
AcDbEntity
  8
0
  6
Continuous
 62
     7
370
    15
100
AcDbCircle
 10
242.1656057584228
 20
159.3061323596294
 30
0.0
 40
6.0
100
AcDbArc
 50
0.0
 51
90.0
  0
LINE
  5
56EB
330
1F
100
AcDbEntity
  8
0
  6
Continuous
 62
     7
370
    15
100
AcDbLine
 10
248.1656051027716
 20
159.3061325831468
 30
0.0
 11
248.1656051027714
 21
116.806132136112
 31
0.0
  0
ARC
  5
56EC
330
1F
100
AcDbEntity
  8
0
  6
Continuous
 62
     7
370
    15
100
AcDbCircle
 10
242.1656057584225
 20
116.8061323596294
 30
0.0
 40
6.0
100
AcDbArc
 50
270.0
 51
0.0
  0
LINE
  5
56ED
330
1F
100
AcDbEntity
  8
0
  6
Continuous
 62
     7
370
    15
100
AcDbLine
 10
242.1656059819399
 20
110.8061330152805
 30
0.0
 11
236.8649760979353
 21
110.8061330152805
 31
0.0
  0
ARC
  5
56EE
330
1F
100
AcDbEntity
  8
0
  6
Continuous
 62
     7
370
    15
100
AcDbCircle
 10
236.8649760588007
 20
111.3061323596294
 30
0.0
 40
0.5000000000000582
100
AcDbArc
 50
204.9999999999979
 51
270.0
  0
LINE
  5
56EF
330
1F
100
AcDbEntity
  8
0
  6
Continuous
 62
     7
370
    15
100
AcDbLine
 10
236.4118224728047
 20
111.0948225243147
 30
0.0
 11
234.1363490346013
 21
115.9745914621408
 31
0.0
  0
ARC
  5
56F0
330
1F
100
AcDbEntity
  8
0
  6
Continuous
 62
     7
370
    15
100
AcDbCircle
 10
234.3176104520389
 20
116.059115057452
 30
0.0
 40
0.2000000000000078
100
AcDbArc
 50
115.0000000000463
 51
204.9999999999994
  0
LINE
  5
56F1
330
1F
100
AcDbEntity
  8
0
  6
Continuous
 62
     7
370
    15
100
AcDbLine
 10
234.2330864417492
 20
116.2403760237749
 30
0.0
 11
234.4596641856371
 21
116.3460308445747
 31
0.0
  0
ARC
  5
56F2
330
1F
100
AcDbEntity
  8
0
  6
Continuous
 62
     7
370
    15
100
AcDbCircle
 10
234.3751400941019
 20
116.527292737702
 30
0.0
 40
0.2000000000000164
100
AcDbArc
 50
295.000000000043
 51
25.00000000000083
  0
LINE
  5
56F3
330
1F
100
AcDbEntity
  8
0
  6
Continuous
 62
     7
370
    15
100
AcDbLine
 10
234.556401592785
 20
116.6118172688539
 30
0.0
 11
233.2885465371548
 21
119.3307390196379
 31
0.0
  0
ARC
  5
56F4
330
1F
100
AcDbEntity
  8
0
  6
Continuous
 62
     7
370
    15
100
AcDbCircle
 10
233.1072853088797
 20
119.2462160988121
 30
0.0
 40
0.1999999999999958
100
AcDbArc
 50
24.99999999999059
 51
115.0000000000102
  0
LINE
  5
56F5
330
1F
100
AcDbEntity
  8
0
  6
Continuous
 62
     7
370
    15
100
AcDbLine
 10
233.0227619755207
 20
119.4274773581083
 30
0.0
 11
227.4036532986103
 21
116.8072441352661
 31
0.0
  0
ARC
  5
56F6
330
1F
100
AcDbEntity
  8
0
  6
Continuous
 62
     7
370
    15
100
AcDbCircle
 10
227.4881770292525
 20
116.6259828760197
 30
0.0
 40
0.1999999999999821
100
AcDbArc
 50
115.000000000003
 51
205.0000000000037
  0
LINE
  5
56F7
330
1F
100
AcDbEntity
  8
0
  6
Continuous
 62
     7
370
    15
100
AcDbLine
 10
227.3069154258012
 20
116.5414595736321
 30
0.0
 11
228.5747704814314
 21
113.822535960203
 31
0.0
  0
ARC
  5
56F8
330
1F
100
AcDbEntity
  8
0
  6
Continuous
 62
     7
370
    15
100
AcDbCircle
 10
228.7560318144747
 20
113.9070595149094
 30
0.0
 40
0.1999999999999958
100
AcDbArc
 50
204.9999999999921
 51
294.9999999999961
  0
LINE
  5
56F9
330
1F
100
AcDbEntity
  8
0
  6
Continuous
 62
     7
370
    15
100
AcDbLine
 10
228.8405555087267
 20
113.7257976217325
 30
0.0
 11
229.067132321292
 21
113.8314524425324
 31
0.0
  0
ARC
  5
56FA
330
1F
100
AcDbEntity
  8
0
  6
Continuous
 62
     7
370
    15
100
AcDbCircle
 10
229.1516560659302
 20
113.6501909655299
 30
0.0
 40
0.2000000000000336
100
AcDbArc
 50
24.99999999999788
 51
114.999999999996
  0
LINE
  5
56FB
330
1F
100
AcDbEntity
  8
0
  6
Continuous
 62
     7
370
    15
100
AcDbLine
 10
229.3329178142487
 20
113.7347141040619
 30
0.0
 11
230.3668488535224
 21
111.517441807514
 31
0.0
  0
ARC
  5
56FC
330
1F
100
AcDbEntity
  8
0
  6
Continuous
 62
     7
370
    15
100
AcDbCircle
 10
229.9136951693369
 20
111.3061323596294
 30
0.0
 40
0.5000000000000308
100
AcDbArc
 50
270.0
 51
25.00000000000516
  0
CIRCLE
  5
56FD
330
1F
100
AcDbEntity
  8
0
  6
Continuous
 62
     7
370
    15
100
AcDbCircle
 10
201.9156057584225
 20
119.0561323596295
 30
0.0
 40
2.458500000051117
  0
CIRCLE
  5
56FE
330
1F
100
AcDbEntity
  8
0
  6
Continuous
 62
     7
370
    15
100
AcDbCircle
 10
201.9156057584227
 20
157.0561323596296
 30
0.0
 40
2.458500000051103
  0
CIRCLE
  5
56FF
330
1F
100
AcDbEntity
  8
0
  6
Continuous
 62
     7
370
    15
100
AcDbCircle
 10
239.9156057584225
 20
119.0561323596294
 30
0.0
 40
2.458499999983388
  0
CIRCLE
  5
5700
330
1F
100
AcDbEntity
  8
0
  6
Continuous
 62
     7
370
    15
100
AcDbCircle
 10
239.9156057584228
 20
157.0561323596294
 30
0.0
 40
2.458499999983359
  0
SPLINE
  5
5701
330
1F
100
AcDbEntity
  8
0
  6
Continuous
 62
     7
370
    15
100
AcDbSpline
210
0.0
220
0.0
230
1.0
 70
    24
 71
     1
 72
     4
 73
     2
 74
     0
 42
0.0000000001
 43
0.0000000001
 40
0.0
 40
0.0
 40
1.0
 40
1.0
 10
244.290142764443
 20
153.1179029254372
 30
0.0
 10
244.3713261532723
 20
153.1280934570486
 30
0.0
  0
SPLINE
  5
5702
330
1F
100
AcDbEntity
  8
0
  6
Continuous
 62
     7
370
    15
100
AcDbSpline
210
0.0
220
0.0
230
1.0
 70
    24
 71
     1
 72
     4
 73
     2
 74
     0
 42
0.0000000001
 43
0.0000000001
 40
0.0
 40
0.0
 40
1.0
 40
1.0
 10
244.3713261532723
 20
122.9841712622101
 30
0.0
 10
244.2866372662722
 20
122.9948013780767
 30
0.0
  0
SPLINE
  5
5703
330
1F
100
AcDbEntity
  8
0
  6
Continuous
 62
     7
370
    15
100
AcDbSpline
210
0.0
220
0.0
230
1.0
 70
    24
 71
     1
 72
     4
 73
     2
 74
     0
 42
0.0000000001
 43
0.0000000001
 40
0.0
 40
0.0
 40
1.0
 40
1.0
 10
197.4598853635727
 20
153.1280934570488
 30
0.0
 10
197.5428941446482
 20
153.117673820084
 30
0.0
  0
LINE
  5
5705
330
1F
100
AcDbEntity
  8
0
  6
Continuous
 62
     7
370
    15
100
AcDbLine
 10
234.051824991697
 20
159.9564118070657
 30
0.0
 11
234.2034294056832
 21
159.8857169730717
 31
0.0
  0
LINE
  5
5706
330
1F
100
AcDbEntity
  8
0
  6
Continuous
 62
     7
370
    15
100
AcDbLine
 10
234.051824991697
 20
159.9564118070657
 30
0.0
 11
234.1363490346013
 21
160.1376732571179
 31
0.0
  0
LINE
  5
5707
330
1F
100
AcDbEntity
  8
0
  6
Continuous
 62
     7
370
    15
100
AcDbLine
 10
234.1363490346011
 20
115.9745914621407
 30
0.0
 11
234.0518249916967
 21
116.155852912193
 31
0.0
  0
LINE
  5
5708
330
1F
100
AcDbEntity
  8
0
  6
Continuous
 62
     7
370
    15
100
AcDbLine
 10
234.2034294056829
 20
116.2265477461869
 30
0.0
 11
234.0518249916967
 21
116.155852912193
 31
0.0
  0
LINE
  5
5709
330
1F
100
AcDbEntity
  8
0
  6
Continuous
 62
     7
370
    15
100
AcDbLine
 10
229.2483937713441
 20
113.915975554114
 30
0.0
 11
229.0967893573579
 21
113.8452825827653
 31
0.0
  0
LINE
  5
570A
330
1F
100
AcDbEntity
  8
0
  6
Continuous
 62
     7
370
    15
100
AcDbLine
 10
229.2483937713441
 20
113.915975554114
 30
0.0
 11
229.319088605338
 21
113.7643711401278
 31
0.0
  0
LINE
  5
570B
330
1F
100
AcDbEntity
  8
0
  6
Continuous
 62
     7
370
    15
100
AcDbLine
 10
212.5121229115066
 20
113.7643711401279
 30
0.0
 11
212.5828177455005
 21
113.9159755541141
 31
0.0
  0
LINE
  5
570C
330
1F
100
AcDbEntity
  8
0
  6
Continuous
 62
     7
370
    15
100
AcDbLine
 10
212.7344221594867
 20
113.8452825827653
 30
0.0
 11
212.5828177455005
 21
113.9159755541141
 31
0.0
  0
LINE
  5
570D
330
1F
100
AcDbEntity
  8
0
  6
Continuous
 62
     7
370
    15
100
AcDbLine
 10
207.7793865251478
 20
116.1558529121931
 30
0.0
 11
207.6277821111616
 21
116.226547746187
 31
0.0
  0
LINE
  5
570E
330
1F
100
AcDbEntity
  8
0
  6
Continuous
 62
     7
370
    15
100
AcDbLine
 10
207.7793865251478
 20
116.1558529121931
 30
0.0
 11
207.6948624822434
 21
115.9745914621408
 31
0.0
  0
LINE
  5
570F
330
1F
100
AcDbEntity
  8
0
  6
Continuous
 62
     7
370
    15
100
AcDbLine
 10
207.6948624822437
 20
160.137673257118
 30
0.0
 11
207.779386525148
 21
159.9564118070657
 31
0.0
  0
LINE
  5
5710
330
1F
100
AcDbEntity
  8
0
  6
Continuous
 62
     7
370
    15
100
AcDbLine
 10
207.6277821111618
 20
159.8857169730718
 30
0.0
 11
207.779386525148
 21
159.9564118070657
 31
0.0
  0
LINE
  5
5711
330
1F
100
AcDbEntity
  8
0
  6
Continuous
 62
     7
370
    15
100
AcDbLine
 10
212.5828177455007
 20
162.1962891651447
 30
0.0
 11
212.7344221594869
 21
162.2669821364934
 31
0.0
  0
LINE
  5
5712
330
1F
100
AcDbEntity
  8
0
  6
Continuous
 62
     7
370
    15
100
AcDbLine
 10
212.5828177455007
 20
162.1962891651447
 30
0.0
 11
212.5121229115068
 21
162.3478935791309
 31
0.0
  0
LINE
  5
5713
330
1F
100
AcDbEntity
  8
0
  6
Continuous
 62
     7
370
    15
100
AcDbLine
 10
229.3190886053382
 20
162.3478935791308
 30
0.0
 11
229.2483937713443
 21
162.1962891651446
 31
0.0
  0
LINE
  5
5714
330
1F
100
AcDbEntity
  8
0
  6
Continuous
 62
     7
370
    15
100
AcDbLine
 10
229.0967893573581
 20
162.2669821364934
 30
0.0
 11
229.2483937713443
 21
162.1962891651446
 31
0.0
  0
CIRCLE
  5
5715
330
1F
100
AcDbEntity
  8
0
  6
Continuous
 62
     7
370
    15
100
AcDbCircle
 10
220.9156057584227
 20
138.0561323596295
 30
0.0
 40
4.400500000031101
  0
ARC
  5
5716
330
1F
100
AcDbEntity
  8
0
  6
Continuous
 62
     7
370
    15
100
AcDbCircle
 10
220.9156057584227
 20
138.0561323596295
 30
0.0
 40
5.249999999993239
100
AcDbArc
 50
17.75279016153119
 51
162.2472098382819
  0
LINE
  5
5717
330
1F
100
AcDbEntity
  8
0
  6
Continuous
 62
     7
370
    15
100
AcDbLine
 10
225.915605646664
 20
136.4553512532394
 30
0.0
 11
225.915605646664
 21
139.6569134660196
 31
0.0
  0
ARC
  5
5718
330
1F
100
AcDbEntity
  8
0
  6
Continuous
 62
     7
370
    15
100
AcDbCircle
 10
220.9156057584227
 20
138.0561323596295
 30
0.0
 40
5.249999999987868
100
AcDbArc
 50
197.7527901615327
 51
342.2472098384688
  0
LINE
  5
5719
330
1F
100
AcDbEntity
  8
0
  6
Continuous
 62
     7
370
    15
100
AcDbLine
 10
215.9156058701814
 20
139.6569134660196
 30
0.0
 11
215.9156058701814
 21
136.4553512532395
 31
0.0
  0
CIRCLE
  5
571A
330
1F
100
AcDbEntity
  8
0
  6
Continuous
 62
     7
370
    15
100
AcDbCircle
 10
220.9156057584227
 20
138.0561323596295
 30
0.0
 40
3.400499999997919
  0
SPLINE
  5
571B
330
1F
100
AcDbEntity
  8
0
  6
Continuous
 62
     7
370
    15
100
AcDbSpline
210
0.0
220
0.0
230
1.0
 70
    24
 71
     3
 72
     9
 73
     5
 74
     0
 42
0.0000000001
 43
0.0000000001
 40
0.0
 40
0.0
 40
0.0
 40
0.0
 40
0.4960844201691058
 40
1.0
 40
1.0
 40
1.0
 40
1.0
 10
225.9156056466639
 20
134.7395075710621
 30
0.0
 10
225.9156056466639
 20
135.001343715937
 30
0.0
 10
225.915605646664
 20
135.5291493357661
 30
0.0
 10
225.915605646664
 20
136.145009647272
 30
0.0
 10
225.915605646664
 20
136.4553512532394
 30
0.0
  0
ARC
  5
571C
330
1F
100
AcDbEntity
  8
0
  6
Continuous
 62
     7
370
    15
100
AcDbCircle
 10
220.9156057584227
 20
138.0561323596295
 30
0.0
 40
5.999999999999094
100
AcDbArc
 50
213.5573097619098
 51
326.4426902381227
  0
SPLINE
  5
571D
330
1F
100
AcDbEntity
  8
0
  6
Continuous
 62
     7
370
    15
100
AcDbSpline
210
0.0
220
0.0
230
1.0
 70
    24
 71
     3
 72
     9
 73
     5
 74
     0
 42
0.0000000001
 43
0.0000000001
 40
0.0
 40
0.0
 40
0.0
 40
0.0
 40
0.4944687188728356
 40
1.0
 40
1.0
 40
1.0
 40
1.0
 10
215.9156058701814
 20
136.4553512532395
 30
0.0
 10
215.9156058701814
 20
136.150657422335
 30
0.0
 10
215.9156058701814
 20
135.5344529603034
 30
0.0
 10
215.9156058701814
 20
135.006436439354
 30
0.0
 10
215.9156058701813
 20
134.7395075710621
 30
0.0
  0
ARC
  5
571E
330
1F
100
AcDbEntity
  8
0
  6
Continuous
 62
     7
370
    15
100
AcDbCircle
 10
220.9156057584227
 20
138.0561323596295
 30
0.0
 40
5.99999999999913
100
AcDbArc
 50
33.55730976190669
 51
146.4426902380933
  0
SPLINE
  5
571F
330
1F
100
AcDbEntity
  8
0
  6
Continuous
 62
     7
370
    15
100
AcDbSpline
210
0.0
220
0.0
230
1.0
 70
    24
 71
     3
 72
     9
 73
     5
 74
     0
 42
0.0000000001
 43
0.0000000001
 40
0.0
 40
0.0
 40
0.0
 40
0.0
 40
0.4944687188728356
 40
1.0
 40
1.0
 40
1.0
 40
1.0
 10
225.915605646664
 20
139.6569134660196
 30
0.0
 10
225.915605646664
 20
139.961607296924
 30
0.0
 10
225.915605646664
 20
140.5778117589556
 30
0.0
 10
225.915605646664
 20
141.105828279905
 30
0.0
 10
225.915605646664
 20
141.3727571481969
 30
0.0
  0
SPLINE
  5
5720
330
1F
100
AcDbEntity
  8
0
  6
Continuous
 62
     7
370
    15
100
AcDbSpline
210
0.0
220
0.0
230
1.0
 70
    24
 71
     3
 72
     9
 73
     5
 74
     0
 42
0.0000000001
 43
0.0000000001
 40
0.0
 40
0.0
 40
0.0
 40
0.0
 40
0.4960844201691058
 40
1.0
 40
1.0
 40
1.0
 40
1.0
 10
215.9156058701814
 20
141.3727571481969
 30
0.0
 10
215.9156058701814
 20
141.110921003322
 30
0.0
 10
215.9156058701814
 20
140.5831153834929
 30
0.0
 10
215.9156058701814
 20
139.967255071987
 30
0.0
 10
215.9156058701814
 20
139.6569134660196
 30
0.0
  0
ARC
  5
5721
330
1F
100
AcDbEntity
  8
0
  6
Continuous
 62
     7
370
    15
100
AcDbCircle
 10
220.9156057584227
 20
138.0561323596295
 30
0.0
 40
6.000000000000007
100
AcDbArc
 50
146.4426902380784
 51
213.5573097619216
  0
ARC
  5
5722
330
1F
100
AcDbEntity
  8
0
  6
Continuous
 62
     7
370
    15
100
AcDbCircle
 10
220.9156057584227
 20
138.0561323596295
 30
0.0
 40
6.000000000000002
100
AcDbArc
 50
326.4426902380816
 51
33.55730976192159
  0
LINE
  5
5723
330
1F
100
AcDbEntity
  8
0
  6
Continuous
 62
     7
370
    15
100
AcDbLine
 10
201.4156053560914
 20
150.2108325941619
 30
0.0
 11
199.4156050282658
 21
151.3655338196215
 31
0.0
  0
LINE
  5
5724
330
1F
100
AcDbEntity
  8
0
  6
Continuous
 62
     7
370
    15
100
AcDbLine
 10
199.4156050282658
 20
151.3655338196215
 30
0.0
 11
197.4156065630854
 21
150.2108325941619
 31
0.0
  0
LINE
  5
5725
330
1F
100
AcDbEntity
  8
0
  6
Continuous
 62
     7
370
    15
100
AcDbLine
 10
197.4156065630854
 20
150.2108325941619
 30
0.0
 11
197.4156065630854
 21
147.9014320058879
 31
0.0
  0
LINE
  5
5726
330
1F
100
AcDbEntity
  8
0
  6
Continuous
 62
     7
370
    15
100
AcDbLine
 10
197.4156065630854
 20
147.9014320058879
 30
0.0
 11
199.4156050282658
 21
146.7467317117509
 31
0.0
  0
LINE
  5
5727
330
1F
100
AcDbEntity
  8
0
  6
Continuous
 62
     7
370
    15
100
AcDbLine
 10
199.4156050282658
 20
146.7467317117509
 30
0.0
 11
201.4156053560914
 21
147.9014320058879
 31
0.0
  0
LINE
  5
5728
330
1F
100
AcDbEntity
  8
0
  6
Continuous
 62
     7
370
    15
100
AcDbLine
 10
201.4156053560914
 20
147.9014320058879
 30
0.0
 11
201.4156053560914
 21
150.2108325941619
 31
0.0
  0
CIRCLE
  5
5729
330
1F
100
AcDbEntity
  8
0
  6
Continuous
 62
     7
370
    15
100
AcDbCircle
 10
199.4156057584227
 20
149.0561323596296
 30
0.0
 40
4.25
  0
LINE
  5
572A
330
1F
100
AcDbEntity
  8
0
  6
Continuous
 62
     7
370
    15
100
AcDbLine
 10
244.41560495376
 20
150.2108325941618
 30
0.0
 11
242.4156064885796
 21
151.3655338196213
 31
0.0
  0
LINE
  5
572B
330
1F
100
AcDbEntity
  8
0
  6
Continuous
 62
     7
370
    15
100
AcDbLine
 10
242.4156064885796
 20
151.3655338196213
 30
0.0
 11
240.4156061607541
 21
150.2108325941618
 31
0.0
  0
LINE
  5
572C
330
1F
100
AcDbEntity
  8
0
  6
Continuous
 62
     7
370
    15
100
AcDbLine
 10
240.4156061607541
 20
150.2108325941618
 30
0.0
 11
240.4156061607541
 21
147.9014320058878
 31
0.0
  0
LINE
  5
572D
330
1F
100
AcDbEntity
  8
0
  6
Continuous
 62
     7
370
    15
100
AcDbLine
 10
240.4156061607541
 20
147.9014320058878
 30
0.0
 11
242.4156064885795
 21
146.7467317117508
 31
0.0
  0
LINE
  5
572E
330
1F
100
AcDbEntity
  8
0
  6
Continuous
 62
     7
370
    15
100
AcDbLine
 10
242.4156064885795
 20
146.7467317117508
 30
0.0
 11
244.41560495376
 21
147.9014320058878
 31
0.0
  0
LINE
  5
572F
330
1F
100
AcDbEntity
  8
0
  6
Continuous
 62
     7
370
    15
100
AcDbLine
 10
244.41560495376
 20
147.9014320058878
 30
0.0
 11
244.41560495376
 21
150.2108325941618
 31
0.0
  0
CIRCLE
  5
5730
330
1F
100
AcDbEntity
  8
0
  6
Continuous
 62
     7
370
    15
100
AcDbCircle
 10
242.4156057584228
 20
149.0561323596294
 30
0.0
 40
4.25
  0
LINE
  5
5731
330
1F
100
AcDbEntity
  8
0
  6
Continuous
 62
     7
370
    15
100
AcDbLine
 10
201.4156053560911
 20
128.2108327133712
 30
0.0
 11
199.4156050282656
 21
129.3655330075082
 31
0.0
  0
LINE
  5
5732
330
1F
100
AcDbEntity
  8
0
  6
Continuous
 62
     7
370
    15
100
AcDbLine
 10
199.4156050282656
 20
129.3655330075082
 30
0.0
 11
197.4156065630852
 21
128.2108327133712
 31
0.0
  0
LINE
  5
5733
330
1F
100
AcDbEntity
  8
0
  6
Continuous
 62
     7
370
    15
100
AcDbLine
 10
197.4156065630852
 20
128.2108327133712
 30
0.0
 11
197.4156065630852
 21
125.9014321250972
 31
0.0
  0
LINE
  5
5734
330
1F
100
AcDbEntity
  8
0
  6
Continuous
 62
     7
370
    15
100
AcDbLine
 10
197.4156065630852
 20
125.9014321250972
 30
0.0
 11
199.4156050282656
 21
124.7467308996376
 31
0.0
  0
LINE
  5
5735
330
1F
100
AcDbEntity
  8
0
  6
Continuous
 62
     7
370
    15
100
AcDbLine
 10
199.4156050282656
 20
124.7467308996376
 30
0.0
 11
201.4156053560911
 21
125.9014321250972
 31
0.0
  0
LINE
  5
5736
330
1F
100
AcDbEntity
  8
0
  6
Continuous
 62
     7
370
    15
100
AcDbLine
 10
201.4156053560911
 20
125.9014321250972
 30
0.0
 11
201.4156053560911
 21
128.2108327133712
 31
0.0
  0
CIRCLE
  5
5737
330
1F
100
AcDbEntity
  8
0
  6
Continuous
 62
     7
370
    15
100
AcDbCircle
 10
199.4156057584225
 20
127.0561323596296
 30
0.0
 40
4.25
  0
LINE
  5
5738
330
1F
100
AcDbEntity
  8
0
  6
Continuous
 62
     7
370
    15
100
AcDbLine
 10
244.4156049537598
 20
128.2108327133711
 30
0.0
 11
242.4156064885794
 21
129.3655330075081
 31
0.0
  0
LINE
  5
5739
330
1F
100
AcDbEntity
  8
0
  6
Continuous
 62
     7
370
    15
100
AcDbLine
 10
242.4156064885794
 20
129.3655330075081
 30
0.0
 11
240.4156061607539
 21
128.2108327133711
 31
0.0
  0
LINE
  5
573A
330
1F
100
AcDbEntity
  8
0
  6
Continuous
 62
     7
370
    15
100
AcDbLine
 10
240.4156061607539
 20
128.2108327133711
 30
0.0
 11
240.4156061607539
 21
125.9014321250971
 31
0.0
  0
LINE
  5
573B
330
1F
100
AcDbEntity
  8
0
  6
Continuous
 62
     7
370
    15
100
AcDbLine
 10
240.4156061607539
 20
125.9014321250971
 30
0.0
 11
242.4156064885794
 21
124.7467308996375
 31
0.0
  0
LINE
  5
573C
330
1F
100
AcDbEntity
  8
0
  6
Continuous
 62
     7
370
    15
100
AcDbLine
 10
242.4156064885794
 20
124.7467308996375
 30
0.0
 11
244.4156049537598
 21
125.9014321250971
 31
0.0
  0
LINE
  5
573D
330
1F
100
AcDbEntity
  8
0
  6
Continuous
 62
     7
370
    15
100
AcDbLine
 10
244.4156049537598
 20
125.9014321250971
 30
0.0
 11
244.4156049537598
 21
128.2108327133711
 31
0.0
  0
CIRCLE
  5
573E
330
1F
100
AcDbEntity
  8
0
  6
Continuous
 62
     7
370
    15
100
AcDbCircle
 10
242.4156057584225
 20
127.0561323596294
 30
0.0
 40
4.25
  0
SPLINE
  5
573F
330
1F
100
AcDbEntity
  8
0
  6
Continuous
 62
     7
370
    15
100
AcDbSpline
210
0.0
220
0.0
230
1.0
 70
    24
 71
     1
 72
     4
 73
     2
 74
     0
 42
0.0000000001
 43
0.0000000001
 40
0.0
 40
0.0
 40
1.0
 40
1.0
 10
71.81160690121948
 20
263.9718317795092
 30
0.0
 10
73.8116069962145
 20
263.971831779509
 30
0.0
  0
SPLINE
  5
5740
330
1F
100
AcDbEntity
  8
0
  6
Continuous
 62
     7
370
    15
100
AcDbSpline
210
0.0
220
0.0
230
1.0
 70
    24
 71
     1
 72
     4
 73
     2
 74
     0
 42
0.0000000001
 43
0.0000000001
 40
0.0
 40
0.0
 40
1.0
 40
1.0
 10
73.8116069962145
 20
275.9718318838172
 30
0.0
 10
71.81160690121959
 20
275.9718318838173
 30
0.0
  0
SPLINE
  5
5741
330
1F
100
AcDbEntity
  8
0
  6
Continuous
 62
     7
370
    15
100
AcDbSpline
210
0.0
220
0.0
230
1.0
 70
    24
 71
     1
 72
     4
 73
     2
 74
     0
 42
0.0000000001
 43
0.0000000001
 40
0.0
 40
0.0
 40
1.0
 40
1.0
 10
48.81160662368547
 20
274.9718317199045
 30
0.0
 10
47.81160645977268
 20
273.971832021653
 30
0.0
  0
SPLINE
  5
5742
330
1F
100
AcDbEntity
  8
0
  6
Continuous
 62
     7
370
    15
100
AcDbSpline
210
0.0
220
0.0
230
1.0
 70
    24
 71
     1
 72
     4
 73
     2
 74
     0
 42
0.0000000001
 43
0.0000000001
 40
0.0
 40
0.0
 40
1.0
 40
1.0
 10
47.81160645977258
 20
265.9718316416734
 30
0.0
 10
48.81160662368535
 20
264.9718319434219
 30
0.0
  0
SPLINE
  5
5743
330
1F
100
AcDbEntity
  8
0
  6
Continuous
 62
     7
370
    15
100
AcDbSpline
210
0.0
220
0.0
230
1.0
 70
    24
 71
     1
 72
     4
 73
     2
 74
     0
 42
0.0000000001
 43
0.0000000001
 40
0.0
 40
0.0
 40
1.0
 40
1.0
 10
48.81160662368535
 20
264.9718319434219
 30
0.0
 10
54.81160760716199
 20
264.9718319434219
 30
0.0
  0
SPLINE
  5
5744
330
1F
100
AcDbEntity
  8
0
  6
Continuous
 62
     7
370
    15
100
AcDbSpline
210
0.0
220
0.0
230
1.0
 70
    24
 71
     1
 72
     4
 73
     2
 74
     0
 42
0.0000000001
 43
0.0000000001
 40
0.0
 40
0.0
 40
1.0
 40
1.0
 10
59.81160656408071
 20
264.9718319434219
 30
0.0
 10
66.81160678014754
 20
264.9718319434219
 30
0.0
  0
SPLINE
  5
5745
330
1F
100
AcDbEntity
  8
0
  6
Continuous
 62
     7
370
    15
100
AcDbSpline
210
0.0
220
0.0
230
1.0
 70
    24
 71
     1
 72
     4
 73
     2
 74
     0
 42
0.0000000001
 43
0.0000000001
 40
0.0
 40
0.0
 40
1.0
 40
1.0
 10
66.81160678014766
 20
274.9718317199045
 30
0.0
 10
59.81160656408082
 20
274.9718317199045
 30
0.0
  0
SPLINE
  5
5746
330
1F
100
AcDbEntity
  8
0
  6
Continuous
 62
     7
370
    15
100
AcDbSpline
210
0.0
220
0.0
230
1.0
 70
    24
 71
     1
 72
     4
 73
     2
 74
     0
 42
0.0000000001
 43
0.0000000001
 40
0.0
 40
0.0
 40
1.0
 40
1.0
 10
54.8116076071621
 20
274.9718317199045
 30
0.0
 10
48.81160662368547
 20
274.9718317199045
 30
0.0
  0
CIRCLE
  5
5747
330
1F
100
AcDbEntity
  8
0
  6
Continuous
 62
     7
370
    15
100
AcDbCircle
 10
81.3116069962145
 20
269.971831831663
 30
0.0
 40
5.350000000021282
  0
LINE
  5
5748
330
1F
100
AcDbEntity
  8
0
  6
Continuous
 62
     7
370
    15
100
AcDbLine
 10
87.81160742834828
 20
291.2218320551804
 30
0.0
 11
87.81160742834817
 21
248.7218316081456
 31
0.0
  0
LINE
  5
5749
330
1F
100
AcDbEntity
  8
0
  6
Continuous
 62
     7
370
    15
100
AcDbLine
 10
87.81160742834817
 20
248.7218316081456
 30
0.0
 11
73.8116069962145
 21
248.7218316081457
 31
0.0
  0
LINE
  5
574A
330
1F
100
AcDbEntity
  8
0
  6
Continuous
 62
     7
370
    15
100
AcDbLine
 10
73.8116069962146
 20
291.2218320551805
 30
0.0
 11
73.8116069962145
 21
248.7218316081457
 31
0.0
  0
LINE
  5
574B
330
1F
100
AcDbEntity
  8
0
  6
Continuous
 62
     7
370
    15
100
AcDbLine
 10
73.8116069962146
 20
291.2218320551805
 30
0.0
 11
87.81160742834828
 21
291.2218320551804
 31
0.0
  0
CIRCLE
  5
574C
330
1F
100
AcDbEntity
  8
0
  6
Continuous
 62
     7
370
    15
100
AcDbCircle
 10
81.3116069962145
 20
269.971831831663
 30
0.0
 40
4.350000000044957
  0
LINE
  5
574D
330
1F
100
AcDbEntity
  8
0
  6
Continuous
 62
     7
370
    15
100
AcDbLine
 10
87.81160742834828
 20
297.2218311760119
 30
0.0
 11
73.8116069962146
 21
297.221831176012
 31
0.0
  0
LINE
  5
574E
330
1F
100
AcDbEntity
  8
0
  6
Continuous
 62
     7
370
    15
100
AcDbLine
 10
87.81160742834828
 20
291.2218320551804
 30
0.0
 11
87.81160742834828
 21
297.2218311760119
 31
0.0
  0
LINE
  5
574F
330
1F
100
AcDbEntity
  8
0
  6
Continuous
 62
     7
370
    15
100
AcDbLine
 10
73.8116069962146
 20
297.221831176012
 30
0.0
 11
73.8116069962146
 21
291.2218320551805
 31
0.0
  0
LINE
  5
5750
330
1F
100
AcDbEntity
  8
0
  6
Continuous
 62
     7
370
    15
100
AcDbLine
 10
73.81160699621438
 20
242.7218324873142
 30
0.0
 11
87.81160742834805
 21
242.7218324873142
 31
0.0
  0
LINE
  5
5751
330
1F
100
AcDbEntity
  8
0
  6
Continuous
 62
     7
370
    15
100
AcDbLine
 10
87.81160742834805
 20
242.7218324873142
 30
0.0
 11
87.81160742834817
 21
248.7218316081456
 31
0.0
  0
LINE
  5
5752
330
1F
100
AcDbEntity
  8
0
  6
Continuous
 62
     7
370
    15
100
AcDbLine
 10
73.8116069962145
 20
248.7218316081457
 30
0.0
 11
73.81160699621438
 21
242.7218324873142
 31
0.0
  0
LINE
  5
5753
330
1F
100
AcDbEntity
  8
0
  6
Continuous
 62
     7
370
    15
100
AcDbLine
 10
73.8116069962145
 20
289.78381784591
 30
0.0
 11
73.8116069962145
 21
288.6004868331842
 31
0.0
  0
LINE
  5
5754
330
1F
100
AcDbEntity
  8
0
  6
Continuous
 62
     7
370
    15
100
AcDbLine
 10
73.81160699621438
 20
251.343176830142
 30
0.0
 11
73.81160699621438
 21
248.7229436072998
 31
0.0
  0
LINE
  5
5755
330
1F
100
AcDbEntity
  8
0
  6
Continuous
 62
     7
370
    15
100
AcDbLine
 10
87.81160742834817
 20
297.221831176012
 30
0.0
 11
87.81160742834817
 21
296.5105223837785
 31
0.0
  0
LINE
  5
5756
330
1F
100
AcDbEntity
  8
0
  6
Continuous
 62
     7
370
    15
100
AcDbLine
 10
73.8116069962145
 20
297.221831176012
 30
0.0
 11
73.8116069962145
 21
296.5105223837785
 31
0.0
  0
LINE
  5
5757
330
1F
100
AcDbEntity
  8
0
  6
Continuous
 62
     7
370
    15
100
AcDbLine
 10
87.81160742834805
 20
243.4331412795477
 30
0.0
 11
87.81160742834805
 21
242.7218324873142
 31
0.0
  0
LINE
  5
5758
330
1F
100
AcDbEntity
  8
0
  6
Continuous
 62
     7
370
    15
100
AcDbLine
 10
73.81160699621438
 20
243.4331412795477
 30
0.0
 11
73.81160699621438
 21
242.7218324873142
 31
0.0
  0
LINE
  5
5759
330
1F
100
AcDbEntity
  8
0
  6
Continuous
 62
     7
370
    15
100
AcDbLine
 10
87.81160742834817
 20
296.4718315187387
 30
0.0
 11
87.81160742834817
 21
296.5105223837785
 31
0.0
  0
LINE
  5
575A
330
1F
100
AcDbEntity
  8
0
  6
Continuous
 62
     7
370
    15
100
AcDbLine
 10
73.8116069962145
 20
296.5105223837785
 30
0.0
 11
73.8116069962145
 21
294.2932500872307
 31
0.0
  0
LINE
  5
575B
330
1F
100
AcDbEntity
  8
0
  6
Continuous
 62
     7
370
    15
100
AcDbLine
 10
87.81160742834805
 20
243.4331412795477
 30
0.0
 11
87.81160742834805
 21
243.4718321445875
 31
0.0
  0
LINE
  5
575C
330
1F
100
AcDbEntity
  8
0
  6
Continuous
 62
     7
370
    15
100
AcDbLine
 10
73.81160699621438
 20
245.6504135760956
 30
0.0
 11
73.81160699621438
 21
243.4331412795477
 31
0.0
  0
LINE
  5
575D
330
1F
100
AcDbEntity
  8
0
  6
Continuous
 62
     7
370
    15
100
AcDbLine
 10
73.8116069962145
 20
289.6387103382044
 30
0.0
 11
73.8116069962145
 21
290.0373890433006
 31
0.0
  0
LINE
  5
575E
330
1F
100
AcDbEntity
  8
0
  6
Continuous
 62
     7
370
    15
100
AcDbLine
 10
73.8116069962145
 20
291.2207200560264
 30
0.0
 11
73.8116069962145
 21
290.0373890433006
 31
0.0
  0
LINE
  5
575F
330
1F
100
AcDbEntity
  8
0
  6
Continuous
 62
     7
370
    15
100
AcDbLine
 10
73.8116069962145
 20
294.2932500872307
 30
0.0
 11
73.8116069962145
 21
294.1777735385589
 31
0.0
  0
LINE
  5
5760
330
1F
100
AcDbEntity
  8
0
  6
Continuous
 62
     7
370
    15
100
AcDbLine
 10
73.81160699621438
 20
245.7658901247673
 30
0.0
 11
73.81160699621438
 21
245.6504135760956
 31
0.0
  0
LINE
  5
5761
330
1F
100
AcDbEntity
  8
0
  6
Continuous
 62
     7
370
    15
100
AcDbLine
 10
73.8116069962145
 20
294.2054282310896
 30
0.0
 11
73.8116069962145
 21
291.4865046176605
 31
0.0
  0
LINE
  5
5762
330
1F
100
AcDbEntity
  8
0
  6
Continuous
 62
     7
370
    15
100
AcDbLine
 10
73.81160699621438
 20
248.4571590456657
 30
0.0
 11
73.81160699621438
 21
245.7382354322366
 31
0.0
  0
LINE
  5
5763
330
1F
100
AcDbEntity
  8
0
  6
Continuous
 62
     7
370
    15
100
AcDbLine
 10
73.8116069962145
 20
294.3021665695601
 30
0.0
 11
73.8116069962145
 21
294.1965117487603
 31
0.0
  0
LINE
  5
5764
330
1F
100
AcDbEntity
  8
0
  6
Continuous
 62
     7
370
    15
100
AcDbLine
 10
73.81160699621426
 20
245.7471519145661
 30
0.0
 11
73.81160699621426
 21
245.6414970937663
 31
0.0
  0
LINE
  5
5765
330
1F
100
AcDbEntity
  8
0
  6
Continuous
 62
     7
370
    15
100
AcDbLine
 10
73.8116069962145
 20
294.1965117487603
 30
0.0
 11
73.8116069962145
 21
294.1777735385591
 31
0.0
  0
LINE
  5
5766
330
1F
100
AcDbEntity
  8
0
  6
Continuous
 62
     7
370
    15
100
AcDbLine
 10
73.81160699621438
 20
245.7658901247674
 30
0.0
 11
73.81160699621426
 21
245.7471519145661
 31
0.0
  0
LINE
  5
5767
330
1F
100
AcDbEntity
  8
0
  6
Continuous
 62
     7
370
    15
100
AcDbLine
 10
73.8116069962145
 20
291.4161469224387
 30
0.0
 11
73.8116069962145
 21
288.6972251716548
 31
0.0
  0
LINE
  5
5768
330
1F
100
AcDbEntity
  8
0
  6
Continuous
 62
     7
370
    15
100
AcDbLine
 10
73.81160699621438
 20
251.2464384916717
 30
0.0
 11
73.81160699621426
 21
248.5275167408877
 31
0.0
  0
LINE
  5
5769
330
1F
100
AcDbEntity
  8
0
  6
Continuous
 62
     7
370
    15
100
AcDbLine
 10
73.8116069962145
 20
292.0533727291518
 30
0.0
 11
73.8116069962145
 21
291.7875881675178
 31
0.0
  0
LINE
  5
576A
330
1F
100
AcDbEntity
  8
0
  6
Continuous
 62
     7
370
    15
100
AcDbLine
 10
73.81160699621426
 20
248.1560754958087
 30
0.0
 11
73.81160699621426
 21
247.8902909341746
 31
0.0
  0
LINE
  5
576B
330
1F
100
AcDbEntity
  8
0
  6
Continuous
 62
     7
370
    15
100
AcDbLine
 10
87.81160742834817
 20
296.4718315187388
 30
0.0
 11
87.81160742834817
 21
296.933141666978
 31
0.0
  0
LINE
  5
576C
330
1F
100
AcDbEntity
  8
0
  6
Continuous
 62
     7
370
    15
100
AcDbLine
 10
73.8116069962145
 20
296.933141666978
 30
0.0
 11
73.8116069962145
 21
292.0533727291518
 31
0.0
  0
LINE
  5
576D
330
1F
100
AcDbEntity
  8
0
  6
Continuous
 62
     7
370
    15
100
AcDbLine
 10
87.81160742834794
 20
243.0105219963484
 30
0.0
 11
87.81160742834794
 21
243.4718321445875
 31
0.0
  0
LINE
  5
576E
330
1F
100
AcDbEntity
  8
0
  6
Continuous
 62
     7
370
    15
100
AcDbLine
 10
73.81160699621426
 20
247.8902909341746
 30
0.0
 11
73.81160699621426
 21
243.0105219963485
 31
0.0
  0
LINE
  5
576F
330
1F
100
AcDbEntity
  8
0
  6
Continuous
 62
     7
370
    15
100
AcDbLine
 10
73.8116069962145
 20
291.7875881675178
 30
0.0
 11
73.8116069962145
 21
291.6819333467179
 31
0.0
  0
LINE
  5
5770
330
1F
100
AcDbEntity
  8
0
  6
Continuous
 62
     7
370
    15
100
AcDbLine
 10
73.81160699621426
 20
248.2617303166085
 30
0.0
 11
73.81160699621426
 21
248.1560754958087
 31
0.0
  0
LINE
  5
5771
330
1F
100
AcDbEntity
  8
0
  6
Continuous
 62
     7
370
    15
100
AcDbLine
 10
87.81160742834817
 20
297.2218311760121
 30
0.0
 11
87.81160742834817
 21
296.933141666978
 31
0.0
  0
LINE
  5
5772
330
1F
100
AcDbEntity
  8
0
  6
Continuous
 62
     7
370
    15
100
AcDbLine
 10
73.8116069962145
 20
297.2218311760121
 30
0.0
 11
73.8116069962145
 21
296.933141666978
 31
0.0
  0
LINE
  5
5773
330
1F
100
AcDbEntity
  8
0
  6
Continuous
 62
     7
370
    15
100
AcDbLine
 10
87.81160742834794
 20
243.0105219963484
 30
0.0
 11
87.81160742834794
 21
242.7218324873142
 31
0.0
  0
LINE
  5
5774
330
1F
100
AcDbEntity
  8
0
  6
Continuous
 62
     7
370
    15
100
AcDbLine
 10
73.81160699621426
 20
243.0105219963485
 30
0.0
 11
73.81160699621426
 21
242.7218324873143
 31
0.0
  0
LINE
  5
5775
330
1F
100
AcDbEntity
  8
0
  6
Continuous
 62
     7
370
    15
100
AcDbLine
 10
109.8116054464938
 20
296.4718315187386
 30
0.0
 11
87.81160742834828
 21
296.4718315187386
 31
0.0
  0
LINE
  5
5776
330
1F
100
AcDbEntity
  8
0
  6
Continuous
 62
     7
370
    15
100
AcDbLine
 10
87.81160742834828
 20
291.4718325618199
 30
0.0
 11
109.8116054464938
 21
291.4718325618199
 31
0.0
  0
LINE
  5
5777
330
1F
100
AcDbEntity
  8
0
  6
Continuous
 62
     7
370
    15
100
AcDbLine
 10
109.8116054464937
 20
279.1701156083039
 30
0.0
 11
87.81160742834817
 21
279.1701156083039
 31
0.0
  0
LINE
  5
5778
330
1F
100
AcDbEntity
  8
0
  6
Continuous
 62
     7
370
    15
100
AcDbLine
 10
87.81160742834817
 20
277.3574997107974
 30
0.0
 11
109.8116054464937
 21
277.3574997107974
 31
0.0
  0
LINE
  5
5779
330
1F
100
AcDbEntity
  8
0
  6
Continuous
 62
     7
370
    15
100
AcDbLine
 10
109.8116054464937
 20
262.5861639525286
 30
0.0
 11
87.81160742834817
 21
262.5861639525286
 31
0.0
  0
LINE
  5
577A
330
1F
100
AcDbEntity
  8
0
  6
Continuous
 62
     7
370
    15
100
AcDbLine
 10
87.81160742834817
 20
260.7735480550222
 30
0.0
 11
109.8116054464937
 21
260.7735480550221
 31
0.0
  0
LINE
  5
577B
330
1F
100
AcDbEntity
  8
0
  6
Continuous
 62
     7
370
    15
100
AcDbLine
 10
109.8116054464937
 20
248.4718311015061
 30
0.0
 11
87.81160742834817
 21
248.4718311015061
 31
0.0
  0
LINE
  5
577C
330
1F
100
AcDbEntity
  8
0
  6
Continuous
 62
     7
370
    15
100
AcDbLine
 10
87.81160742834805
 20
243.4718321445874
 30
0.0
 11
109.8116054464936
 21
243.4718321445874
 31
0.0
  0
LINE
  5
577D
330
1F
100
AcDbEntity
  8
0
  6
Continuous
 62
     7
370
    15
100
AcDbLine
 10
109.8116054464937
 20
275.81667493987
 30
0.0
 11
87.81160742834817
 21
275.81667493987
 31
0.0
  0
LINE
  5
577E
330
1F
100
AcDbEntity
  8
0
  6
Continuous
 62
     7
370
    15
100
AcDbLine
 10
87.81160742834817
 20
264.126988723456
 30
0.0
 11
109.8116054464937
 21
264.126988723456
 31
0.0
  0
LINE
  5
577F
330
1F
100
AcDbEntity
  8
0
  6
Continuous
 62
     7
370
    15
100
AcDbLine
 10
109.8116054464937
 20
274.6956484760634
 30
0.0
 11
87.81160742834817
 21
274.6956484760634
 31
0.0
  0
LINE
  5
5780
330
1F
100
AcDbEntity
  8
0
  6
Continuous
 62
     7
370
    15
100
AcDbLine
 10
87.81160742834817
 20
265.2480151872627
 30
0.0
 11
109.8116054464937
 21
265.2480151872627
 31
0.0
  0
CIRCLE
  5
5781
330
1F
100
AcDbEntity
  8
0
  6
Continuous
 62
     7
370
    15
100
AcDbCircle
 10
116.3116069962145
 20
269.9718318316629
 30
0.0
 40
5.350000000021282
  0
LINE
  5
5782
330
1F
100
AcDbEntity
  8
0
  6
Continuous
 62
     7
370
    15
100
AcDbLine
 10
109.8116054464937
 20
248.7218316081456
 30
0.0
 11
109.8116054464938
 21
291.2218320551804
 31
0.0
  0
LINE
  5
5783
330
1F
100
AcDbEntity
  8
0
  6
Continuous
 62
     7
370
    15
100
AcDbLine
 10
109.8116054464938
 20
291.2218320551804
 30
0.0
 11
123.8116077412726
 21
291.2218320551803
 31
0.0
  0
LINE
  5
5784
330
1F
100
AcDbEntity
  8
0
  6
Continuous
 62
     7
370
    15
100
AcDbLine
 10
123.8116077412725
 20
248.7218316081455
 30
0.0
 11
123.8116077412726
 21
291.2218320551803
 31
0.0
  0
LINE
  5
5785
330
1F
100
AcDbEntity
  8
0
  6
Continuous
 62
     7
370
    15
100
AcDbLine
 10
123.8116077412725
 20
248.7218316081455
 30
0.0
 11
109.8116054464937
 21
248.7218316081456
 31
0.0
  0
CIRCLE
  5
5786
330
1F
100
AcDbEntity
  8
0
  6
Continuous
 62
     7
370
    15
100
AcDbCircle
 10
116.3116069962145
 20
269.9718318316629
 30
0.0
 40
4.350000000044929
  0
LINE
  5
5787
330
1F
100
AcDbEntity
  8
0
  6
Continuous
 62
     7
370
    15
100
AcDbLine
 10
109.8116054464938
 20
297.2218311760119
 30
0.0
 11
109.8116054464938
 21
291.2218320551804
 31
0.0
  0
LINE
  5
5788
330
1F
100
AcDbEntity
  8
0
  6
Continuous
 62
     7
370
    15
100
AcDbLine
 10
123.8116077412726
 20
297.2218311760118
 30
0.0
 11
109.8116054464938
 21
297.2218311760119
 31
0.0
  0
LINE
  5
5789
330
1F
100
AcDbEntity
  8
0
  6
Continuous
 62
     7
370
    15
100
AcDbLine
 10
123.8116077412726
 20
291.2218320551803
 30
0.0
 11
123.8116077412726
 21
297.2218311760118
 31
0.0
  0
LINE
  5
578A
330
1F
100
AcDbEntity
  8
0
  6
Continuous
 62
     7
370
    15
100
AcDbLine
 10
109.8116054464936
 20
242.7218324873141
 30
0.0
 11
123.8116077412724
 21
242.721832487314
 31
0.0
  0
LINE
  5
578B
330
1F
100
AcDbEntity
  8
0
  6
Continuous
 62
     7
370
    15
100
AcDbLine
 10
123.8116077412724
 20
242.721832487314
 30
0.0
 11
123.8116077412725
 21
248.7218316081455
 31
0.0
  0
LINE
  5
578C
330
1F
100
AcDbEntity
  8
0
  6
Continuous
 62
     7
370
    15
100
AcDbLine
 10
109.8116054464937
 20
248.7218316081456
 30
0.0
 11
109.8116054464936
 21
242.7218324873141
 31
0.0
  0
LINE
  5
578D
330
1F
100
AcDbEntity
  8
0
  6
Continuous
 62
     7
370
    15
100
AcDbLine
 10
123.8116077412725
 20
288.6004868331841
 30
0.0
 11
123.8116077412725
 21
289.78381784591
 31
0.0
  0
LINE
  5
578E
330
1F
100
AcDbEntity
  8
0
  6
Continuous
 62
     7
370
    15
100
AcDbLine
 10
123.8116077412724
 20
248.7229436072997
 30
0.0
 11
123.8116077412724
 21
251.3431768301419
 31
0.0
  0
LINE
  5
578F
330
1F
100
AcDbEntity
  8
0
  6
Continuous
 62
     7
370
    15
100
AcDbLine
 10
123.8116077412725
 20
296.5105223837785
 30
0.0
 11
123.8116077412725
 21
297.2218311760119
 31
0.0
  0
LINE
  5
5790
330
1F
100
AcDbEntity
  8
0
  6
Continuous
 62
     7
370
    15
100
AcDbLine
 10
109.8116054464937
 20
296.5105223837785
 30
0.0
 11
109.8116054464937
 21
297.2218311760119
 31
0.0
  0
LINE
  5
5791
330
1F
100
AcDbEntity
  8
0
  6
Continuous
 62
     7
370
    15
100
AcDbLine
 10
123.8116077412724
 20
242.7218324873141
 30
0.0
 11
123.8116077412724
 21
243.4331412795476
 31
0.0
  0
LINE
  5
5792
330
1F
100
AcDbEntity
  8
0
  6
Continuous
 62
     7
370
    15
100
AcDbLine
 10
109.8116054464936
 20
242.7218324873141
 30
0.0
 11
109.8116054464936
 21
243.4331412795476
 31
0.0
  0
LINE
  5
5793
330
1F
100
AcDbEntity
  8
0
  6
Continuous
 62
     7
370
    15
100
AcDbLine
 10
123.8116077412725
 20
294.1119886371783
 30
0.0
 11
123.8116077412725
 21
296.5105223837785
 31
0.0
  0
LINE
  5
5794
330
1F
100
AcDbEntity
  8
0
  6
Continuous
 62
     7
370
    15
100
AcDbLine
 10
109.8116054464937
 20
296.5105223837785
 30
0.0
 11
109.8116054464937
 21
296.4718315187386
 31
0.0
  0
LINE
  5
5795
330
1F
100
AcDbEntity
  8
0
  6
Continuous
 62
     7
370
    15
100
AcDbLine
 10
123.8116077412724
 20
243.4331412795476
 30
0.0
 11
123.8116077412724
 21
245.8316750261477
 31
0.0
  0
LINE
  5
5796
330
1F
100
AcDbEntity
  8
0
  6
Continuous
 62
     7
370
    15
100
AcDbLine
 10
109.8116054464936
 20
243.4718321445874
 30
0.0
 11
109.8116054464936
 21
243.4331412795476
 31
0.0
  0
LINE
  5
5797
330
1F
100
AcDbEntity
  8
0
  6
Continuous
 62
     7
370
    15
100
AcDbLine
 10
123.8116077412725
 20
290.0373890433005
 30
0.0
 11
123.8116077412725
 21
289.6387103382043
 31
0.0
  0
LINE
  5
5798
330
1F
100
AcDbEntity
  8
0
  6
Continuous
 62
     7
370
    15
100
AcDbLine
 10
123.8116077412725
 20
290.0373890433005
 30
0.0
 11
123.8116077412725
 21
291.2207200560263
 31
0.0
  0
LINE
  5
5799
330
1F
100
AcDbEntity
  8
0
  6
Continuous
 62
     7
370
    15
100
AcDbLine
 10
123.8116077412725
 20
291.4865046176604
 30
0.0
 11
123.8116077412725
 21
294.3866896811417
 31
0.0
  0
LINE
  5
579A
330
1F
100
AcDbEntity
  8
0
  6
Continuous
 62
     7
370
    15
100
AcDbLine
 10
123.8116077412724
 20
245.5569739821843
 30
0.0
 11
123.8116077412724
 21
248.4571590456656
 31
0.0
  0
LINE
  5
579B
330
1F
100
AcDbEntity
  8
0
  6
Continuous
 62
     7
370
    15
100
AcDbLine
 10
123.8116077412725
 20
294.1119886371783
 30
0.0
 11
123.8116077412725
 21
294.3866896811417
 31
0.0
  0
LINE
  5
579C
330
1F
100
AcDbEntity
  8
0
  6
Continuous
 62
     7
370
    15
100
AcDbLine
 10
123.8116077412724
 20
245.5569739821843
 30
0.0
 11
123.8116077412724
 21
245.8316750261477
 31
0.0
  0
LINE
  5
579D
330
1F
100
AcDbEntity
  8
0
  6
Continuous
 62
     7
370
    15
100
AcDbLine
 10
123.8116077412725
 20
288.6972251716546
 30
0.0
 11
123.8116077412725
 21
291.5974102351359
 31
0.0
  0
LINE
  5
579E
330
1F
100
AcDbEntity
  8
0
  6
Continuous
 62
     7
370
    15
100
AcDbLine
 10
123.8116077412723
 20
248.3462534281902
 30
0.0
 11
123.8116077412724
 21
251.2464384916715
 31
0.0
  0
LINE
  5
579F
330
1F
100
AcDbEntity
  8
0
  6
Continuous
 62
     7
370
    15
100
AcDbLine
 10
123.8116077412725
 20
291.8721112790993
 30
0.0
 11
123.8116077412725
 21
296.9331416669778
 31
0.0
  0
LINE
  5
57A0
330
1F
100
AcDbEntity
  8
0
  6
Continuous
 62
     7
370
    15
100
AcDbLine
 10
109.8116054464937
 20
296.9331416669779
 30
0.0
 11
109.8116054464937
 21
296.4718315187387
 31
0.0
  0
LINE
  5
57A1
330
1F
100
AcDbEntity
  8
0
  6
Continuous
 62
     7
370
    15
100
AcDbLine
 10
123.8116077412725
 20
291.5974102351359
 30
0.0
 11
123.8116077412725
 21
291.8721112790993
 31
0.0
  0
LINE
  5
57A2
330
1F
100
AcDbEntity
  8
0
  6
Continuous
 62
     7
370
    15
100
AcDbLine
 10
123.8116077412723
 20
248.0715523842267
 30
0.0
 11
123.8116077412723
 21
248.3462534281902
 31
0.0
  0
LINE
  5
57A3
330
1F
100
AcDbEntity
  8
0
  6
Continuous
 62
     7
370
    15
100
AcDbLine
 10
123.8116077412723
 20
243.0105219963483
 30
0.0
 11
123.8116077412723
 21
248.0715523842267
 31
0.0
  0
LINE
  5
57A4
330
1F
100
AcDbEntity
  8
0
  6
Continuous
 62
     7
370
    15
100
AcDbLine
 10
109.8116054464935
 20
243.4718321445875
 30
0.0
 11
109.8116054464935
 21
243.0105219963484
 31
0.0
  0
LINE
  5
57A5
330
1F
100
AcDbEntity
  8
0
  6
Continuous
 62
     7
370
    15
100
AcDbLine
 10
123.8116077412725
 20
296.9331416669778
 30
0.0
 11
123.8116077412725
 21
297.2218311760119
 31
0.0
  0
LINE
  5
57A6
330
1F
100
AcDbEntity
  8
0
  6
Continuous
 62
     7
370
    15
100
AcDbLine
 10
109.8116054464937
 20
296.9331416669779
 30
0.0
 11
109.8116054464937
 21
297.221831176012
 31
0.0
  0
LINE
  5
57A7
330
1F
100
AcDbEntity
  8
0
  6
Continuous
 62
     7
370
    15
100
AcDbLine
 10
123.8116077412723
 20
242.7218324873142
 30
0.0
 11
123.8116077412723
 21
243.0105219963483
 31
0.0
  0
LINE
  5
57A8
330
1F
100
AcDbEntity
  8
0
  6
Continuous
 62
     7
370
    15
100
AcDbLine
 10
109.8116054464935
 20
242.7218324873142
 30
0.0
 11
109.8116054464935
 21
243.0105219963484
 31
0.0
  0
LINE
  5
57A9
330
1F
100
AcDbEntity
  8
0
  6
Continuous
 62
     7
370
    15
100
AcDbLine
 10
59.0524175469638
 20
278.4718322935992
 30
0.0
 11
55.57079569295655
 21
278.4718313622767
 31
0.0
  0
SPLINE
  5
57AA
330
1F
100
AcDbEntity
  8
0
  6
Continuous
 62
     7
370
    15
100
AcDbSpline
210
0.0
220
0.0
230
1.0
 70
     8
 71
     3
 72
    11
 73
     7
 74
     0
 42
0.0000000001
 43
0.0000000001
 40
0.0
 40
0.0
 40
0.0
 40
0.0
 40
0.2477111551643397
 40
0.4953654527336873
 40
0.7477053386740748
 40
1.0
 40
1.0
 40
1.0
 40
1.0
 10
59.0524175469638
 20
278.4718313622767
 30
0.0
 10
59.16109701538431
 20
278.1281539829583
 30
0.0
 10
59.37843100682818
 20
277.4408781092196
 30
0.0
 10
59.6174501115284
 20
276.384961674625
 30
0.0
 10
59.77992079219922
 20
275.3106624305309
 30
0.0
 10
59.80104527116868
 20
274.58475383364
 30
0.0
 10
59.81160656408082
 20
274.2218320626312
 30
0.0
  0
SPLINE
  5
57AB
330
1F
100
AcDbEntity
  8
0
  6
Continuous
 62
     7
370
    15
100
AcDbSpline
210
0.0
220
0.0
230
1.0
 70
     8
 71
     3
 72
    11
 73
     7
 74
     0
 42
0.0000000001
 43
0.0000000001
 40
0.0
 40
0.0
 40
0.0
 40
0.0
 40
0.2472747586102363
 40
0.4945905418703499
 40
0.7472643810146306
 40
1.0
 40
1.0
 40
1.0
 40
1.0
 10
59.81160656408082
 20
274.2218320626312
 30
0.0
 10
59.80146928868515
 20
273.8661331470431
 30
0.0
 10
59.78119305604735
 20
273.1546763028743
 30
0.0
 10
59.6228751183333
 20
272.0872744239146
 30
0.0
 10
59.38470278877133
 20
271.0237863007814
 30
0.0
 10
59.16318832000303
 20
270.3225118798511
 30
0.0
 10
59.0524175469638
 20
269.9718318084724
 30
0.0
  0
LINE
  5
57AC
330
1F
100
AcDbEntity
  8
0
  6
Continuous
 62
     7
370
    15
100
AcDbLine
 10
59.0524175469638
 20
269.9718318172338
 30
0.0
 11
55.57079569295655
 21
269.9718318201204
 31
0.0
  0
SPLINE
  5
57AD
330
1F
100
AcDbEntity
  8
0
  6
Continuous
 62
     7
370
    15
100
AcDbSpline
210
0.0
220
0.0
230
1.0
 70
     8
 71
     3
 72
    11
 73
     7
 74
     0
 42
0.0000000001
 43
0.0000000001
 40
0.0
 40
0.0
 40
0.0
 40
0.0
 40
0.2477111426127039
 40
0.4953654871788307
 40
0.7477052249576765
 40
1.0
 40
1.0
 40
1.0
 40
1.0
 10
55.57079569295655
 20
269.9718318482043
 30
0.0
 10
55.46211677467141
 20
270.3155095174235
 30
0.0
 10
55.2447838572479
 20
271.0027860535118
 30
0.0
 10
55.00576210750006
 20
272.0587014222802
 30
0.0
 10
54.84329522135084
 20
273.1330014924658
 30
0.0
 10
54.82216951779441
 20
273.8589100986331
 30
0.0
 10
54.8116076071621
 20
274.2218320626312
 30
0.0
  0
SPLINE
  5
57AE
330
1F
100
AcDbEntity
  8
0
  6
Continuous
 62
     7
370
    15
100
AcDbSpline
210
0.0
220
0.0
230
1.0
 70
     8
 71
     3
 72
    11
 73
     7
 74
     0
 42
0.0000000001
 43
0.0000000001
 40
0.0
 40
0.0
 40
0.0
 40
0.0
 40
0.2472747683534775
 40
0.4945905779562891
 40
0.7472644397761742
 40
1.0
 40
1.0
 40
1.0
 40
1.0
 10
54.8116076071621
 20
274.2218320626312
 30
0.0
 10
54.82174475653557
 20
274.5775308260624
 30
0.0
 10
54.84202073778857
 20
275.2889873897677
 30
0.0
 10
55.00034059038393
 20
276.356388794982
 30
0.0
 10
55.23851117359055
 20
277.4198775661728
 30
0.0
 10
55.46002517264724
 20
278.1211515606472
 30
0.0
 10
55.57079569295655
 20
278.4718313622767
 30
0.0
  0
SPLINE
  5
57AF
330
1F
100
AcDbEntity
  8
0
  6
Continuous
 62
     7
370
    15
100
AcDbSpline
210
0.0
220
0.0
230
1.0
 70
     8
 71
     3
 72
    11
 73
     7
 74
     0
 42
0.0000000001
 43
0.0000000001
 40
0.0
 40
0.0
 40
0.0
 40
0.0
 40
0.2477111703240604
 40
0.4953654689844966
 40
0.7477052831658974
 40
1.0
 40
1.0
 40
1.0
 40
1.0
 10
59.0524175469638
 20
269.9718317566324
 30
0.0
 10
59.16109701529314
 20
269.6281541475152
 30
0.0
 10
59.37843100038361
 20
268.940877833746
 30
0.0
 10
59.61745007661619
 20
267.8849619497582
 30
0.0
 10
59.7799208258138
 20
266.8106621888133
 30
0.0
 10
59.80104528059695
 20
266.0847535061309
 30
0.0
 10
59.81160656408082
 20
265.7218316006952
 30
0.0
  0
LINE
  5
57B0
330
1F
100
AcDbEntity
  8
0
  6
Continuous
 62
     7
370
    15
100
AcDbLine
 10
59.81160656408082
 20
274.2218320626312
 30
0.0
 11
59.81160656408082
 21
265.7218316006952
 31
0.0
  0
SPLINE
  5
57B1
330
1F
100
AcDbEntity
  8
0
  6
Continuous
 62
     7
370
    15
100
AcDbSpline
210
0.0
220
0.0
230
1.0
 70
     8
 71
     3
 72
    11
 73
     7
 74
     0
 42
0.0000000001
 43
0.0000000001
 40
0.0
 40
0.0
 40
0.0
 40
0.0
 40
0.2472747534184861
 40
0.4945905254964476
 40
0.7472644079828951
 40
1.0
 40
1.0
 40
1.0
 40
1.0
 10
59.81160656408082
 20
265.7218316006952
 30
0.0
 10
59.80146929083509
 20
265.3661328513863
 30
0.0
 10
59.78119306274317
 20
264.6546763484194
 30
0.0
 10
59.62287508504807
 20
263.5872747103967
 30
0.0
 10
59.38470283936357
 20
262.5237860891479
 30
0.0
 10
59.16318832659652
 20
261.8225121051534
 30
0.0
 10
59.05241754696368
 20
261.4718323010498
 30
0.0
  0
LINE
  5
57B2
330
1F
100
AcDbEntity
  8
0
  6
Continuous
 62
     7
370
    15
100
AcDbLine
 10
55.57079569295644
 20
261.4718313697272
 30
0.0
 11
59.05241754696368
 21
261.4718323010498
 31
0.0
  0
SPLINE
  5
57B3
330
1F
100
AcDbEntity
  8
0
  6
Continuous
 62
     7
370
    15
100
AcDbSpline
210
0.0
220
0.0
230
1.0
 70
     8
 71
     3
 72
    11
 73
     7
 74
     0
 42
0.0000000001
 43
0.0000000001
 40
0.0
 40
0.0
 40
0.0
 40
0.0
 40
0.2477111201180407
 40
0.4953654660969366
 40
0.7477053183548846
 40
1.0
 40
1.0
 40
1.0
 40
1.0
 10
55.57079569295644
 20
261.4718323010498
 30
0.0
 10
55.462116774359
 20
261.8155097215618
 30
0.0
 10
55.24478384582398
 20
262.5027857934548
 30
0.0
 10
55.00576205352382
 20
263.5587017302488
 30
0.0
 10
54.84329527580786
 20
264.6330014041292
 30
0.0
 10
54.82216953304481
 20
265.3589098609005
 30
0.0
 10
54.8116076071621
 20
265.7218316006952
 30
0.0
  0
SPLINE
  5
57B4
330
1F
100
AcDbEntity
  8
0
  6
Continuous
 62
     7
370
    15
100
AcDbSpline
210
0.0
220
0.0
230
1.0
 70
     8
 71
     3
 72
    11
 73
     7
 74
     0
 42
0.0000000001
 43
0.0000000001
 40
0.0
 40
0.0
 40
0.0
 40
0.0
 40
0.2472747757016346
 40
0.4945905584632902
 40
0.7472644188666128
 40
1.0
 40
1.0
 40
1.0
 40
1.0
 10
54.8116076071621
 20
265.7218316006952
 30
0.0
 10
54.82174475406617
 20
266.0775305392668
 30
0.0
 10
54.84202072897841
 20
266.7889874040995
 30
0.0
 10
55.0003406009277
 20
267.8563889163028
 30
0.0
 10
55.23851118771751
 20
268.91987731901
 30
0.0
 10
55.46002517409539
 20
269.6211517635609
 30
0.0
 10
55.57079569295655
 20
269.9718318057435
 30
0.0
  0
LINE
  5
57B5
330
1F
100
AcDbEntity
  8
0
  6
Continuous
 62
     7
370
    15
100
AcDbLine
 10
54.8116076071621
 20
274.2218320626312
 30
0.0
 11
54.8116076071621
 21
265.7218316006952
 31
0.0
  0
SPLINE
  5
57B6
330
1F
100
AcDbEntity
  8
0
  6
Continuous
 62
     7
370
    15
100
AcDbSpline
210
0.0
220
0.0
230
1.0
 70
     8
 71
     3
 72
    11
 73
     7
 74
     0
 42
0.0000000001
 43
0.0000000001
 40
0.0
 40
0.0
 40
0.0
 40
0.0
 40
0.2477111633840176
 40
0.4953654796818194
 40
0.7477052646400009
 40
1.0
 40
1.0
 40
1.0
 40
1.0
 10
55.57079569295655
 20
278.4718313622767
 30
0.0
 10
55.4621167798594
 20
278.4718312571727
 30
0.0
 10
55.24478389432392
 20
278.471831046989
 30
0.0
 10
55.0057620648335
 20
278.4718326330282
 30
0.0
 10
54.84329524763729
 20
278.4718322080981
 30
0.0
 10
54.8221695253439
 20
278.4718322651006
 30
0.0
 10
54.8116076071621
 20
278.4718322935992
 30
0.0
  0
LINE
  5
57B7
330
1F
100
AcDbEntity
  8
0
  6
Continuous
 62
     7
370
    15
100
AcDbLine
 10
54.8116076071621
 20
278.4718322935992
 30
0.0
 11
54.8116076071621
 21
274.2218320626312
 31
0.0
  0
SPLINE
  5
57B8
330
1F
100
AcDbEntity
  8
0
  6
Continuous
 62
     7
370
    15
100
AcDbSpline
210
0.0
220
0.0
230
1.0
 70
    24
 71
     3
 72
    11
 73
     7
 74
     0
 42
0.0000000001
 43
0.0000000001
 40
0.0
 40
0.0
 40
0.0
 40
0.0
 40
0.247274775720204
 40
0.4945905265603431
 40
0.7472643918833058
 40
1.0
 40
1.0
 40
1.0
 40
1.0
 10
59.81160656408082
 20
278.4718322935992
 30
0.0
 10
59.80146929329868
 20
278.4718322935992
 30
0.0
 10
59.78119307191963
 20
278.4718322935992
 30
0.0
 10
59.62287508592573
 20
278.4718322935992
 30
0.0
 10
59.38470281680219
 20
278.4718322935992
 30
0.0
 10
59.16318832393489
 20
278.4718322935992
 30
0.0
 10
59.0524175469638
 20
278.4718322935992
 30
0.0
  0
LINE
  5
57B9
330
1F
100
AcDbEntity
  8
0
  6
Continuous
 62
     7
370
    15
100
AcDbLine
 10
59.81160656408082
 20
278.4718322935992
 30
0.0
 11
59.81160656408082
 21
274.2218320626312
 31
0.0
  0
SPLINE
  5
57BA
330
1F
100
AcDbEntity
  8
0
  6
Continuous
 62
     7
370
    15
100
AcDbSpline
210
0.0
220
0.0
230
1.0
 70
    24
 71
     3
 72
    11
 73
     7
 74
     0
 42
0.0000000001
 43
0.0000000001
 40
0.0
 40
0.0
 40
0.0
 40
0.0
 40
0.2472747906551942
 40
0.4945905790201772
 40
0.7472644236765765
 40
1.0
 40
1.0
 40
1.0
 40
1.0
 10
54.81160760716199
 20
261.4718313697272
 30
0.0
 10
54.82174475407186
 20
261.4718313697272
 30
0.0
 10
54.842020728612
 20
261.4718313697272
 30
0.0
 10
55.00034058950615
 20
261.4718313697272
 30
0.0
 10
55.23851119615193
 20
261.4718313697272
 30
0.0
 10
55.46002517530888
 20
261.4718313697272
 30
0.0
 10
55.57079569295644
 20
261.4718313697272
 30
0.0
  0
LINE
  5
57BB
330
1F
100
AcDbEntity
  8
0
  6
Continuous
 62
     7
370
    15
100
AcDbLine
 10
54.8116076071621
 20
265.7218316006952
 30
0.0
 11
54.81160760716199
 21
261.4718313697272
 31
0.0
  0
SPLINE
  5
57BC
330
1F
100
AcDbEntity
  8
0
  6
Continuous
 62
     7
370
    15
100
AcDbSpline
210
0.0
220
0.0
230
1.0
 70
    24
 71
     3
 72
    11
 73
     7
 74
     0
 42
0.0000000001
 43
0.0000000001
 40
0.0
 40
0.0
 40
0.0
 40
0.0
 40
0.2477111984303177
 40
0.4953654663185227
 40
0.7477052849591713
 40
1.0
 40
1.0
 40
1.0
 40
1.0
 10
59.05241754696368
 20
261.4718313697272
 30
0.0
 10
59.16109700988392
 20
261.4718313697272
 30
0.0
 10
59.37843095832824
 20
261.4718313697272
 30
0.0
 10
59.61745010021883
 20
261.4718313697272
 30
0.0
 10
59.77992082037002
 20
261.4718313697272
 30
0.0
 10
59.80104527886971
 20
261.4718313697272
 30
0.0
 10
59.81160656408071
 20
261.4718313697272
 30
0.0
  0
LINE
  5
57BD
330
1F
100
AcDbEntity
  8
0
  6
Continuous
 62
     7
370
    15
100
AcDbLine
 10
59.81160656408082
 20
265.7218316006952
 30
0.0
 11
59.81160656408071
 21
261.4718313697272
 31
0.0
  0
LINE
  5
57BE
330
1F
100
AcDbEntity
  8
0
  6
Continuous
 62
     7
370
    15
100
AcDbLine
 10
66.81160678014766
 20
274.9718317199045
 30
0.0
 11
66.81160678014754
 21
264.9718319434219
 31
0.0
  0
SPLINE
  5
57BF
330
1F
100
AcDbEntity
  8
0
  6
Continuous
 62
     7
370
    15
100
AcDbSpline
210
0.0
220
0.0
230
1.0
 70
    24
 71
     3
 72
     9
 73
     5
 74
     0
 42
0.0000000001
 43
0.0000000001
 40
0.0
 40
0.0
 40
0.0
 40
0.0
 40
0.4960844201691058
 40
1.0
 40
1.0
 40
1.0
 40
1.0
 10
68.11064530954372
 20
274.9718317199045
 30
0.0
 10
67.86694173649022
 20
274.9718317199045
 30
0.0
 10
67.37568750002305
 20
274.9718317199045
 30
0.0
 10
67.00061277678702
 20
274.9718317199045
 30
0.0
 10
66.81160678014766
 20
274.9718317199045
 30
0.0
  0
LINE
  5
57C0
330
1F
100
AcDbEntity
  8
0
  6
Continuous
 62
     7
370
    15
100
AcDbLine
 10
68.11064530954372
 20
274.9718317199045
 30
0.0
 11
68.1106453095436
 21
264.9718319434219
 31
0.0
  0
SPLINE
  5
57C1
330
1F
100
AcDbEntity
  8
0
  6
Continuous
 62
     7
370
    15
100
AcDbSpline
210
0.0
220
0.0
230
1.0
 70
    24
 71
     3
 72
     9
 73
     5
 74
     0
 42
0.0000000001
 43
0.0000000001
 40
0.0
 40
0.0
 40
0.0
 40
0.0
 40
0.4944687188728356
 40
1.0
 40
1.0
 40
1.0
 40
1.0
 10
66.81160678014754
 20
264.9718319434219
 30
0.0
 10
66.99676793744737
 20
264.9718319434219
 30
0.0
 10
67.37123279282167
 20
264.9718319434219
 30
0.0
 10
67.86236341627073
 20
264.9718319434219
 30
0.0
 10
68.1106453095436
 20
264.9718319434219
 30
0.0
  0
LINE
  5
57C2
330
1F
100
AcDbEntity
  8
0
  6
Continuous
 62
     7
370
    15
100
AcDbLine
 10
70.81160697013746
 20
274.9718317199044
 30
0.0
 11
68.11064530954372
 21
274.9718317199045
 31
0.0
  0
LWPOLYLINE
  5
57C3
330
1F
100
AcDbEntity
  8
0
  6
Continuous
 62
     7
370
    15
100
AcDbPolyline
 90
        7
 70
   128
 43
0.0
 10
71.81160690121959
 20
275.9718318838173
 10
71.78304416917871
 20
275.9432686861151
 10
71.69762722075592
 20
275.857851970523
 10
71.55616956622015
 20
275.7163943159871
 10
71.36001813084494
 20
275.5202428806119
 10
71.11104044922303
 20
275.2712654318206
 10
70.81160697013746
 20
274.9718317199044
  0
LWPOLYLINE
  5
57C4
330
1F
100
AcDbEntity
  8
0
  6
Continuous
 62
     7
370
    15
100
AcDbPolyline
 90
        7
 70
   128
 43
0.0
 10
70.81160697013735
 20
264.9718319434218
 10
71.11104044922291
 20
264.6723982315056
 10
71.36001813084482
 20
264.4234207827143
 10
71.55616956622004
 20
264.2272693473391
 10
71.69762722075581
 20
264.0858116928035
 10
71.7830441691786
 20
264.0003949772113
 10
71.81160690121948
 20
263.9718317795092
  0
LINE
  5
57C5
330
1F
100
AcDbEntity
  8
0
  6
Continuous
 62
     7
370
    15
100
AcDbLine
 10
68.1106453095436
 20
264.9718319434219
 30
0.0
 11
70.81160697013735
 21
264.9718319434218
 31
0.0
  0
LINE
  5
57C6
330
1F
100
AcDbEntity
  8
0
  6
Continuous
 62
     7
370
    15
100
AcDbLine
 10
47.81160645977268
 20
273.971832021653
 30
0.0
 11
47.81160645977258
 21
265.9718316416734
 31
0.0
  0
LINE
  5
57C7
330
1F
100
AcDbEntity
  8
0
  6
Continuous
 62
     7
370
    15
100
AcDbLine
 10
48.81160662368547
 20
274.9718317199045
 30
0.0
 11
48.81160662368535
 21
264.9718319434219
 31
0.0
  0
CIRCLE
  5
57C8
330
1F
100
AcDbEntity
  8
0
  6
Continuous
 62
     7
370
    15
100
AcDbCircle
 10
199.4156057584209
 20
280.9718318316633
 30
0.0
 40
4.799999999935153
  0
CIRCLE
  5
57C9
330
1F
100
AcDbEntity
  8
0
  6
Continuous
 62
     7
370
    15
100
AcDbCircle
 10
199.4156057584208
 20
258.9718318316633
 30
0.0
 40
4.799999999935153
  0
CIRCLE
  5
57CA
330
1F
100
AcDbEntity
  8
0
  6
Continuous
 62
     7
370
    15
100
AcDbCircle
 10
242.4156057584208
 20
258.9718318316632
 30
0.0
 40
4.799999999985629
  0
CIRCLE
  5
57CB
330
1F
100
AcDbEntity
  8
0
  6
Continuous
 62
     7
370
    15
100
AcDbCircle
 10
242.4156057584209
 20
280.9718318316632
 30
0.0
 40
4.799999999985629
  0
CIRCLE
  5
57CC
330
1F
100
AcDbEntity
  8
0
  6
Continuous
 62
     7
370
    15
100
AcDbCircle
 10
201.915605758421
 20
288.9718318316633
 30
0.0
 40
3.258500000077674
  0
CIRCLE
  5
57CD
330
1F
100
AcDbEntity
  8
0
  6
Continuous
 62
     7
370
    15
100
AcDbCircle
 10
201.9156057584208
 20
250.9718318316633
 30
0.0
 40
3.258500000077731
  0
CIRCLE
  5
57CE
330
1F
100
AcDbEntity
  8
0
  6
Continuous
 62
     7
370
    15
100
AcDbCircle
 10
239.9156057584208
 20
250.9718318316632
 30
0.0
 40
3.258499999953073
  0
CIRCLE
  5
57CF
330
1F
100
AcDbEntity
  8
0
  6
Continuous
 62
     7
370
    15
100
AcDbCircle
 10
239.9156057584209
 20
288.9718318316632
 30
0.0
 40
3.258499999953016
  0
LINE
  5
57D0
330
1F
100
AcDbEntity
  8
0
  6
Continuous
 62
     7
370
    15
100
AcDbLine
 10
229.91369522839
 20
242.7218324873143
 30
0.0
 11
211.9175162884515
 21
242.7218324873144
 31
0.0
  0
ARC
  5
57D1
330
1F
100
AcDbEntity
  8
0
  6
Continuous
 62
     7
370
    15
100
AcDbCircle
 10
211.9175163475063
 20
243.2218318316633
 30
0.0
 40
0.5000000000000247
100
AcDbArc
 50
154.9999999999948
 51
270.0
  0
LINE
  5
57D2
330
1F
100
AcDbEntity
  8
0
  6
Continuous
 62
     7
370
    15
100
AcDbLine
 10
211.4643626633208
 20
243.4331412795478
 30
0.0
 11
212.4982937025946
 21
245.6504135760957
 31
0.0
  0
ARC
  5
57D3
330
1F
100
AcDbEntity
  8
0
  6
Continuous
 62
     7
370
    15
100
AcDbCircle
 10
212.6795554509131
 20
245.5658904375638
 30
0.0
 40
0.2000000000000448
100
AcDbArc
 50
64.9999999999861
 51
155.0000000000021
  0
LINE
  5
57D4
330
1F
100
AcDbEntity
  8
0
  6
Continuous
 62
     7
370
    15
100
AcDbLine
 10
212.7640791955512
 20
245.7471519145662
 30
0.0
 11
212.9906560081165
 21
245.6414970937664
 31
0.0
  0
ARC
  5
57D5
330
1F
100
AcDbEntity
  8
0
  6
Continuous
 62
     7
370
    15
100
AcDbCircle
 10
213.0751797023687
 20
245.8227589869433
 30
0.0
 40
0.2000000000000156
100
AcDbArc
 50
245.0000000000145
 51
335.0000000000167
  0
LINE
  5
57D6
330
1F
100
AcDbEntity
  8
0
  6
Continuous
 62
     7
370
    15
100
AcDbLine
 10
213.2564410354119
 20
245.7382354322368
 30
0.0
 11
214.5242960910421
 21
248.4571590456659
 31
0.0
  0
ARC
  5
57D7
330
1F
100
AcDbEntity
  8
0
  6
Continuous
 62
     7
370
    15
100
AcDbCircle
 10
214.3430344875909
 20
248.5416823480535
 30
0.0
 40
0.2000000000000319
100
AcDbArc
 50
335.0000000000021
 51
64.9999999999861
  0
LINE
  5
57D8
330
1F
100
AcDbEntity
  8
0
  6
Continuous
 62
     7
370
    15
100
AcDbLine
 10
214.4275582182329
 20
248.7229436073
 30
0.0
 11
208.8084495413225
 21
251.3431768301422
 31
0.0
  0
ARC
  5
57D9
330
1F
100
AcDbEntity
  8
0
  6
Continuous
 62
     7
370
    15
100
AcDbCircle
 10
208.7239262079636
 20
251.161915570846
 30
0.0
 40
0.2000000000000061
100
AcDbArc
 50
64.99999999998244
 51
154.9999999999992
  0
LINE
  5
57DA
330
1F
100
AcDbEntity
  8
0
  6
Continuous
 62
     7
370
    15
100
AcDbLine
 10
208.5426649796885
 20
251.2464384916717
 30
0.0
 11
207.2748099240583
 21
248.5275167408878
 31
0.0
  0
ARC
  5
57DB
330
1F
100
AcDbEntity
  8
0
  6
Continuous
 62
     7
370
    15
100
AcDbCircle
 10
207.4560714227416
 20
248.4429922097359
 30
0.0
 40
0.1999999999999915
100
AcDbArc
 50
155.0000000000021
 51
244.9999999999643
  0
LINE
  5
57DC
330
1F
100
AcDbEntity
  8
0
  6
Continuous
 62
     7
370
    15
100
AcDbLine
 10
207.3715473312061
 20
248.2617303166086
 30
0.0
 11
207.598125075094
 21
248.1560754958088
 31
0.0
  0
ARC
  5
57DD
330
1F
100
AcDbEntity
  8
0
  6
Continuous
 62
     7
370
    15
100
AcDbCircle
 10
207.5136010648044
 20
247.9748145294859
 30
0.0
 40
0.1999999999999804
100
AcDbArc
 50
335.0000000000021
 51
64.99999999997915
  0
LINE
  5
57DE
330
1F
100
AcDbEntity
  8
0
  6
Continuous
 62
     7
370
    15
100
AcDbLine
 10
207.6948624822419
 20
247.8902909341747
 30
0.0
 11
205.4193890440386
 21
243.0105219963485
 31
0.0
  0
ARC
  5
57DF
330
1F
100
AcDbEntity
  8
0
  6
Continuous
 62
     7
370
    15
100
AcDbCircle
 10
204.9662354580427
 20
243.2218318316633
 30
0.0
 40
0.5
100
AcDbArc
 50
270.0
 51
334.9999999999948
  0
LINE
  5
57E0
330
1F
100
AcDbEntity
  8
0
  6
Continuous
 62
     7
370
    15
100
AcDbLine
 10
204.9662354189079
 20
242.7218324873144
 30
0.0
 11
199.6656055349033
 21
242.7218324873144
 31
0.0
  0
ARC
  5
57E1
330
1F
100
AcDbEntity
  8
0
  6
Continuous
 62
     7
370
    15
100
AcDbCircle
 10
199.6656057584208
 20
248.7218318316633
 30
0.0
 40
6.0
100
AcDbArc
 50
179.9999999999984
 51
270.0
  0
LINE
  5
57E2
330
1F
100
AcDbEntity
  8
0
  6
Continuous
 62
     7
370
    15
100
AcDbLine
 10
193.6656064140719
 20
248.7218316081459
 30
0.0
 11
193.6656064140721
 21
291.2218320551808
 31
0.0
  0
ARC
  5
57E3
330
1F
100
AcDbEntity
  8
0
  6
Continuous
 62
     7
370
    15
100
AcDbCircle
 10
199.665605758421
 20
291.2218318316633
 30
0.0
 40
6.000000000000028
100
AcDbArc
 50
90.0
 51
179.9999999999984
  0
LINE
  5
57E4
330
1F
100
AcDbEntity
  8
0
  6
Continuous
 62
     7
370
    15
100
AcDbLine
 10
199.6656055349036
 20
297.2218311760122
 30
0.0
 11
204.9662354189082
 21
297.2218311760122
 31
0.0
  0
ARC
  5
57E5
330
1F
100
AcDbEntity
  8
0
  6
Continuous
 62
     7
370
    15
100
AcDbCircle
 10
204.9662354580428
 20
296.7218318316633
 30
0.0
 40
0.5000000000000187
100
AcDbArc
 50
25.00000000000083
 51
90.0
  0
LINE
  5
57E6
330
1F
100
AcDbEntity
  8
0
  6
Continuous
 62
     7
370
    15
100
AcDbLine
 10
205.4193890440388
 20
296.9331416669781
 30
0.0
 11
207.6948624822422
 21
292.0533727291519
 31
0.0
  0
ARC
  5
57E7
330
1F
100
AcDbEntity
  8
0
  6
Continuous
 62
     7
370
    15
100
AcDbCircle
 10
207.5136010648046
 20
291.9688491338407
 30
0.0
 40
0.2000000000000043
100
AcDbArc
 50
295.0000000000358
 51
24.99999999999492
  0
LINE
  5
57E8
330
1F
100
AcDbEntity
  8
0
  6
Continuous
 62
     7
370
    15
100
AcDbLine
 10
207.5981250750943
 20
291.7875881675179
 30
0.0
 11
207.3715473312064
 21
291.681933346718
 31
0.0
  0
ARC
  5
57E9
330
1F
100
AcDbEntity
  8
0
  6
Continuous
 62
     7
370
    15
100
AcDbCircle
 10
207.4560714227417
 20
291.5006714535906
 30
0.0
 40
0.2000000000000301
100
AcDbArc
 50
115.0000000000321
 51
204.9999999999891
  0
LINE
  5
57EA
330
1F
100
AcDbEntity
  8
0
  6
Continuous
 62
     7
370
    15
100
AcDbLine
 10
207.2748099240585
 20
291.4161469224388
 30
0.0
 11
208.5426649796887
 21
288.6972251716549
 31
0.0
  0
ARC
  5
57EB
330
1F
100
AcDbEntity
  8
0
  6
Continuous
 62
     7
370
    15
100
AcDbCircle
 10
208.7239262079639
 20
288.7817480924807
 30
0.0
 40
0.2000000000000061
100
AcDbArc
 50
205.0000000000037
 51
295.0000000000176
  0
LINE
  5
57EC
330
1F
100
AcDbEntity
  8
0
  6
Continuous
 62
     7
370
    15
100
AcDbLine
 10
208.8084495413228
 20
288.6004868331844
 30
0.0
 11
214.4275582182332
 21
291.2207200560267
 31
0.0
  0
ARC
  5
57ED
330
1F
100
AcDbEntity
  8
0
  6
Continuous
 62
     7
370
    15
100
AcDbCircle
 10
214.3430344875911
 20
291.401981315273
 30
0.0
 40
0.2000000000000061
100
AcDbArc
 50
295.0000000000176
 51
24.99999999999492
  0
LINE
  5
57EE
330
1F
100
AcDbEntity
  8
0
  6
Continuous
 62
     7
370
    15
100
AcDbLine
 10
214.5242960910423
 20
291.4865046176607
 30
0.0
 11
213.2564410354121
 21
294.2054282310898
 31
0.0
  0
ARC
  5
57EF
330
1F
100
AcDbEntity
  8
0
  6
Continuous
 62
     7
370
    15
100
AcDbCircle
 10
213.0751797023689
 20
294.1209046763833
 30
0.0
 40
0.2000000000000336
100
AcDbArc
 50
24.99999999999492
 51
114.9999999999822
  0
LINE
  5
57F0
330
1F
100
AcDbEntity
  8
0
  6
Continuous
 62
     7
370
    15
100
AcDbLine
 10
212.9906560081168
 20
294.3021665695603
 30
0.0
 11
212.7640791955514
 21
294.1965117487604
 31
0.0
  0
ARC
  5
57F1
330
1F
100
AcDbEntity
  8
0
  6
Continuous
 62
     7
370
    15
100
AcDbCircle
 10
212.6795554509134
 20
294.3777732257629
 30
0.0
 40
0.2000000000000319
100
AcDbArc
 50
204.9999999999949
 51
295.0000000000139
  0
LINE
  5
57F2
330
1F
100
AcDbEntity
  8
0
  6
Continuous
 62
     7
370
    15
100
AcDbLine
 10
212.4982937025948
 20
294.2932500872309
 30
0.0
 11
211.4643626633211
 21
296.5105223837788
 31
0.0
  0
ARC
  5
57F3
330
1F
100
AcDbEntity
  8
0
  6
Continuous
 62
     7
370
    15
100
AcDbCircle
 10
211.9175163475066
 20
296.7218318316633
 30
0.0
 40
0.5000000000000187
100
AcDbArc
 50
90.0
 51
205.0000000000037
  0
LINE
  5
57F4
330
1F
100
AcDbEntity
  8
0
  6
Continuous
 62
     7
370
    15
100
AcDbLine
 10
211.9175162884517
 20
297.2218311760122
 30
0.0
 11
229.9136952283903
 21
297.2218311760121
 31
0.0
  0
ARC
  5
57F5
330
1F
100
AcDbEntity
  8
0
  6
Continuous
 62
     7
370
    15
100
AcDbCircle
 10
229.9136951693353
 20
296.7218318316632
 30
0.0
 40
0.5000000000000187
100
AcDbArc
 50
334.9999999999992
 51
90.0
  0
LINE
  5
57F6
330
1F
100
AcDbEntity
  8
0
  6
Continuous
 62
     7
370
    15
100
AcDbLine
 10
230.3668488535209
 20
296.5105223837787
 30
0.0
 11
229.3329178142472
 21
294.2932500872308
 31
0.0
  0
ARC
  5
57F7
330
1F
100
AcDbEntity
  8
0
  6
Continuous
 62
     7
370
    15
100
AcDbCircle
 10
229.1516560659285
 20
294.3777732257627
 30
0.0
 40
0.2000000000000319
100
AcDbArc
 50
244.9999999999861
 51
335.0000000000051
  0
LINE
  5
57F8
330
1F
100
AcDbEntity
  8
0
  6
Continuous
 62
     7
370
    15
100
AcDbLine
 10
229.0671323212905
 20
294.1965117487603
 30
0.0
 11
228.8405555087252
 21
294.3021665695601
 31
0.0
  0
ARC
  5
57F9
330
1F
100
AcDbEntity
  8
0
  6
Continuous
 62
     7
370
    15
100
AcDbCircle
 10
228.7560318144731
 20
294.1209046763832
 30
0.0
 40
0.2000000000000336
100
AcDbArc
 50
65.00000000001782
 51
155.000000000005
  0
LINE
  5
57FA
330
1F
100
AcDbEntity
  8
0
  6
Continuous
 62
     7
370
    15
100
AcDbLine
 10
228.5747704814299
 20
294.2054282310897
 30
0.0
 11
227.3069154257997
 21
291.4865046176606
 31
0.0
  0
ARC
  5
57FB
330
1F
100
AcDbEntity
  8
0
  6
Continuous
 62
     7
370
    15
100
AcDbCircle
 10
227.4881770292509
 20
291.401981315273
 30
0.0
 40
0.2000000000000336
100
AcDbArc
 50
155.000000000005
 51
245.0000000000073
  0
LINE
  5
57FC
330
1F
100
AcDbEntity
  8
0
  6
Continuous
 62
     7
370
    15
100
AcDbLine
 10
227.4036532986088
 20
291.2207200560266
 30
0.0
 11
233.0227616299786
 21
288.6004865474543
 31
0.0
  0
ARC
  5
57FD
330
1F
100
AcDbEntity
  8
0
  6
Continuous
 62
     7
370
    15
100
AcDbCircle
 10
233.107285308878
 20
288.7817480924805
 30
0.0
 40
0.2000000000000319
100
AcDbArc
 50
244.9999999999861
 51
334.9999999999992
  0
LINE
  5
57FE
330
1F
100
AcDbEntity
  8
0
  6
Continuous
 62
     7
370
    15
100
AcDbLine
 10
233.2885465371533
 20
288.6972251716548
 30
0.0
 11
234.5564015927835
 21
291.4161469224387
 31
0.0
  0
ARC
  5
57FF
330
1F
100
AcDbEntity
  8
0
  6
Continuous
 62
     7
370
    15
100
AcDbCircle
 10
234.3751400941001
 20
291.5006714535906
 30
0.0
 40
0.2000000000000043
100
AcDbArc
 50
335.0000000000051
 51
64.99999999996425
  0
LINE
  5
5800
330
1F
100
AcDbEntity
  8
0
  6
Continuous
 62
     7
370
    15
100
AcDbLine
 10
234.4596641856356
 20
291.6819333467179
 30
0.0
 11
234.2330864417477
 21
291.7875881675178
 31
0.0
  0
ARC
  5
5801
330
1F
100
AcDbEntity
  8
0
  6
Continuous
 62
     7
370
    15
100
AcDbCircle
 10
234.3176104520374
 20
291.9688491338406
 30
0.0
 40
0.1999999999999804
100
AcDbArc
 50
155.000000000005
 51
244.9999999999792
  0
LINE
  5
5802
330
1F
100
AcDbEntity
  8
0
  6
Continuous
 62
     7
370
    15
100
AcDbLine
 10
234.1363490345998
 20
292.0533727291518
 30
0.0
 11
236.4118224728032
 21
296.933141666978
 31
0.0
  0
ARC
  5
5803
330
1F
100
AcDbEntity
  8
0
  6
Continuous
 62
     7
370
    15
100
AcDbCircle
 10
236.8649760587991
 20
296.7218318316632
 30
0.0
 40
0.5000000000000582
100
AcDbArc
 50
90.0
 51
155.0000000000021
  0
LINE
  5
5804
330
1F
100
AcDbEntity
  8
0
  6
Continuous
 62
     7
370
    15
100
AcDbLine
 10
236.8649760979338
 20
297.2218311760121
 30
0.0
 11
242.1656059819384
 21
297.2218311760121
 31
0.0
  0
ARC
  5
5805
330
1F
100
AcDbEntity
  8
0
  6
Continuous
 62
     7
370
    15
100
AcDbCircle
 10
242.165605758421
 20
291.2218318316632
 30
0.0
 40
6.000000000000028
100
AcDbArc
 50
0.0
 51
90.0
  0
LINE
  5
5806
330
1F
100
AcDbEntity
  8
0
  6
Continuous
 62
     7
370
    15
100
AcDbLine
 10
248.1656051027699
 20
291.2218320551806
 30
0.0
 11
248.1656051027697
 21
248.7218316081457
 31
0.0
  0
ARC
  5
5807
330
1F
100
AcDbEntity
  8
0
  6
Continuous
 62
     7
370
    15
100
AcDbCircle
 10
242.1656057584208
 20
248.7218318316632
 30
0.0
 40
5.999999999999985
100
AcDbArc
 50
270.0
 51
0.0
  0
LINE
  5
5808
330
1F
100
AcDbEntity
  8
0
  6
Continuous
 62
     7
370
    15
100
AcDbLine
 10
242.1656059819382
 20
242.7218324873143
 30
0.0
 11
236.8649760979336
 21
242.7218324873143
 31
0.0
  0
ARC
  5
5809
330
1F
100
AcDbEntity
  8
0
  6
Continuous
 62
     7
370
    15
100
AcDbCircle
 10
236.8649760587989
 20
243.2218318316632
 30
0.0
 40
0.5000000000000187
100
AcDbArc
 50
205.0000000000037
 51
270.0
  0
LINE
  5
580A
330
1F
100
AcDbEntity
  8
0
  6
Continuous
 62
     7
370
    15
100
AcDbLine
 10
236.4118224728029
 20
243.0105219963485
 30
0.0
 11
234.1363490345996
 21
247.8902909341746
 31
0.0
  0
ARC
  5
580B
330
1F
100
AcDbEntity
  8
0
  6
Continuous
 62
     7
370
    15
100
AcDbCircle
 10
234.3176104520372
 20
247.9748145294858
 30
0.0
 40
0.1999999999999915
100
AcDbArc
 50
115.0000000000361
 51
205.0000000000051
  0
LINE
  5
580C
330
1F
100
AcDbEntity
  8
0
  6
Continuous
 62
     7
370
    15
100
AcDbLine
 10
234.2330864417475
 20
248.1560754958087
 30
0.0
 11
234.4596641856354
 21
248.2617303166085
 31
0.0
  0
ARC
  5
580D
330
1F
100
AcDbEntity
  8
0
  6
Continuous
 62
     7
370
    15
100
AcDbCircle
 10
234.3751400941
 20
248.4429922097358
 30
0.0
 40
0.2000000000000336
100
AcDbArc
 50
295.0000000000358
 51
24.99999999999492
  0
LINE
  5
580E
330
1F
100
AcDbEntity
  8
0
  6
Continuous
 62
     7
370
    15
100
AcDbLine
 10
234.5564015927833
 20
248.5275167408877
 30
0.0
 11
233.2885465371531
 21
251.2464384916717
 31
0.0
  0
ARC
  5
580F
330
1F
100
AcDbEntity
  8
0
  6
Continuous
 62
     7
370
    15
100
AcDbCircle
 10
233.1072853088779
 20
251.1619155708459
 30
0.0
 40
0.2000000000000061
100
AcDbArc
 50
24.99999999999788
 51
115.0000000000175
  0
LINE
  5
5810
330
1F
100
AcDbEntity
  8
0
  6
Continuous
 62
     7
370
    15
100
AcDbLine
 10
233.022761975519
 20
251.3431768301421
 30
0.0
 11
227.4036532986086
 21
248.7229436072999
 31
0.0
  0
ARC
  5
5811
330
1F
100
AcDbEntity
  8
0
  6
Continuous
 62
     7
370
    15
100
AcDbCircle
 10
227.4881770292507
 20
248.5416823480534
 30
0.0
 40
0.200000000000019
100
AcDbArc
 50
115.0000000000175
 51
204.9999999999949
  0
LINE
  5
5812
330
1F
100
AcDbEntity
  8
0
  6
Continuous
 62
     7
370
    15
100
AcDbLine
 10
227.3069154257994
 20
248.4571590456658
 30
0.0
 11
228.5747704814296
 21
245.7382354322368
 31
0.0
  0
ARC
  5
5813
330
1F
100
AcDbEntity
  8
0
  6
Continuous
 62
     7
370
    15
100
AcDbCircle
 10
228.7560318144729
 20
245.8227589869433
 30
0.0
 40
0.2000000000000216
100
AcDbArc
 50
204.9999999999891
 51
294.9999999999855
  0
LINE
  5
5814
330
1F
100
AcDbEntity
  8
0
  6
Continuous
 62
     7
370
    15
100
AcDbLine
 10
228.840555508725
 20
245.6414970937663
 30
0.0
 11
229.0671323212903
 21
245.7471519145661
 31
0.0
  0
ARC
  5
5815
330
1F
100
AcDbEntity
  8
0
  6
Continuous
 62
     7
370
    15
100
AcDbCircle
 10
229.1516560659284
 20
245.5658904375637
 30
0.0
 40
0.2000000000000448
100
AcDbArc
 50
24.99999999999788
 51
115.0000000000139
  0
LINE
  5
5816
330
1F
100
AcDbEntity
  8
0
  6
Continuous
 62
     7
370
    15
100
AcDbLine
 10
229.332917814247
 20
245.6504135760957
 30
0.0
 11
230.3668488535207
 21
243.4331412795478
 31
0.0
  0
ARC
  5
5817
330
1F
100
AcDbEntity
  8
0
  6
Continuous
 62
     7
370
    15
100
AcDbCircle
 10
229.9136951693352
 20
243.2218318316632
 30
0.0
 40
0.5
100
AcDbArc
 50
270.0
 51
25.00000000000663
  0
CIRCLE
  5
5818
330
1F
100
AcDbEntity
  8
0
  6
Continuous
 62
     7
370
    15
100
AcDbCircle
 10
201.9156057584208
 20
250.9718318316633
 30
0.0
 40
2.45850000005106
  0
CIRCLE
  5
5819
330
1F
100
AcDbEntity
  8
0
  6
Continuous
 62
     7
370
    15
100
AcDbCircle
 10
201.915605758421
 20
288.9718318316633
 30
0.0
 40
2.45850000005106
  0
CIRCLE
  5
581A
330
1F
100
AcDbEntity
  8
0
  6
Continuous
 62
     7
370
    15
100
AcDbCircle
 10
239.9156057584208
 20
250.9718318316632
 30
0.0
 40
2.458499999983416
  0
CIRCLE
  5
581B
330
1F
100
AcDbEntity
  8
0
  6
Continuous
 62
     7
370
    15
100
AcDbCircle
 10
239.9156057584209
 20
288.9718318316632
 30
0.0
 40
2.458499999983416
  0
LINE
  5
581C
330
1F
100
AcDbEntity
  8
0
  6
Continuous
 62
     7
370
    15
100
AcDbLine
 10
234.0518249916951
 20
291.8721112790994
 30
0.0
 11
234.1996007385771
 21
291.8032027218036
 31
0.0
  0
LINE
  5
581D
330
1F
100
AcDbEntity
  8
0
  6
Continuous
 62
     7
370
    15
100
AcDbLine
 10
234.0518249916951
 20
291.8721112790994
 30
0.0
 11
234.1363490345995
 21
292.0533727291517
 31
0.0
  0
LINE
  5
581E
330
1F
100
AcDbEntity
  8
0
  6
Continuous
 62
     7
370
    15
100
AcDbLine
 10
234.1363490345994
 20
247.8902909341745
 30
0.0
 11
234.051824991695
 21
248.0715523842268
 31
0.0
  0
LINE
  5
581F
330
1F
100
AcDbEntity
  8
0
  6
Continuous
 62
     7
370
    15
100
AcDbLine
 10
234.199600738577
 20
248.1404609415226
 30
0.0
 11
234.051824991695
 21
248.0715523842268
 31
0.0
  0
LINE
  5
5820
330
1F
100
AcDbEntity
  8
0
  6
Continuous
 62
     7
370
    15
100
AcDbLine
 10
229.2483937713424
 20
245.8316750261478
 30
0.0
 11
229.100618955783
 21
245.762766468852
 31
0.0
  0
LINE
  5
5821
330
1F
100
AcDbEntity
  8
0
  6
Continuous
 62
     7
370
    15
100
AcDbLine
 10
229.2483937713424
 20
245.8316750261478
 30
0.0
 11
229.3173023286382
 21
245.6839002105884
 31
0.0
  0
LINE
  5
5822
330
1F
100
AcDbEntity
  8
0
  6
Continuous
 62
     7
370
    15
100
AcDbLine
 10
212.5139091882029
 20
245.6839002105885
 30
0.0
 11
212.5828177454987
 21
245.8316750261479
 31
0.0
  0
LINE
  5
5823
330
1F
100
AcDbEntity
  8
0
  6
Continuous
 62
     7
370
    15
100
AcDbLine
 10
212.7305925610581
 20
245.7627664688521
 30
0.0
 11
212.5828177454987
 21
245.8316750261479
 31
0.0
  0
LINE
  5
5824
330
1F
100
AcDbEntity
  8
0
  6
Continuous
 62
     7
370
    15
100
AcDbLine
 10
207.7793865251461
 20
248.0715523842268
 30
0.0
 11
207.6316107782641
 21
248.1404609415226
 31
0.0
  0
LINE
  5
5825
330
1F
100
AcDbEntity
  8
0
  6
Continuous
 62
     7
370
    15
100
AcDbLine
 10
207.7793865251461
 20
248.0715523842268
 30
0.0
 11
207.6948624822417
 21
247.8902909341746
 31
0.0
  0
LINE
  5
5826
330
1F
100
AcDbEntity
  8
0
  6
Continuous
 62
     7
370
    15
100
AcDbLine
 10
207.6948624822418
 20
292.0533727291518
 30
0.0
 11
207.7793865251462
 21
291.8721112790996
 31
0.0
  0
LINE
  5
5827
330
1F
100
AcDbEntity
  8
0
  6
Continuous
 62
     7
370
    15
100
AcDbLine
 10
207.6316107782643
 20
291.8032027218038
 30
0.0
 11
207.7793865251462
 21
291.8721112790996
 31
0.0
  0
LINE
  5
5828
330
1F
100
AcDbEntity
  8
0
  6
Continuous
 62
     7
370
    15
100
AcDbLine
 10
212.582817745499
 20
294.1119886371785
 30
0.0
 11
212.7305925610583
 21
294.1808971944743
 31
0.0
  0
LINE
  5
5829
330
1F
100
AcDbEntity
  8
0
  6
Continuous
 62
     7
370
    15
100
AcDbLine
 10
212.582817745499
 20
294.1119886371785
 30
0.0
 11
212.5139091882032
 21
294.2597634527379
 31
0.0
  0
LINE
  5
582A
330
1F
100
AcDbEntity
  8
0
  6
Continuous
 62
     7
370
    15
100
AcDbLine
 10
229.3173023286384
 20
294.2597634527378
 30
0.0
 11
229.2483937713426
 21
294.1119886371784
 31
0.0
  0
LINE
  5
582B
330
1F
100
AcDbEntity
  8
0
  6
Continuous
 62
     7
370
    15
100
AcDbLine
 10
229.1006189557832
 20
294.1808971944742
 30
0.0
 11
229.2483937713426
 21
294.1119886371784
 31
0.0
  0
LINE
  5
582C
330
1F
100
AcDbEntity
  8
0
  6
Continuous
 62
     7
370
    15
100
AcDbLine
 10
201.4156053560895
 20
282.1265320661957
 30
0.0
 11
199.415605028264
 21
283.2812332916553
 31
0.0
  0
LINE
  5
582D
330
1F
100
AcDbEntity
  8
0
  6
Continuous
 62
     7
370
    15
100
AcDbLine
 10
199.415605028264
 20
283.2812332916553
 30
0.0
 11
197.4156065630836
 21
282.1265320661957
 31
0.0
  0
LINE
  5
582E
330
1F
100
AcDbEntity
  8
0
  6
Continuous
 62
     7
370
    15
100
AcDbLine
 10
197.4156065630836
 20
282.1265320661957
 30
0.0
 11
197.4156065630836
 21
279.8171314779217
 31
0.0
  0
LINE
  5
582F
330
1F
100
AcDbEntity
  8
0
  6
Continuous
 62
     7
370
    15
100
AcDbLine
 10
197.4156065630836
 20
279.8171314779217
 30
0.0
 11
199.415605028264
 21
278.6624311837847
 31
0.0
  0
LINE
  5
5830
330
1F
100
AcDbEntity
  8
0
  6
Continuous
 62
     7
370
    15
100
AcDbLine
 10
199.415605028264
 20
278.6624311837847
 30
0.0
 11
201.4156053560895
 21
279.8171314779217
 31
0.0
  0
LINE
  5
5831
330
1F
100
AcDbEntity
  8
0
  6
Continuous
 62
     7
370
    15
100
AcDbLine
 10
201.4156053560895
 20
279.8171314779217
 30
0.0
 11
201.4156053560895
 21
282.1265320661957
 31
0.0
  0
CIRCLE
  5
5832
330
1F
100
AcDbEntity
  8
0
  6
Continuous
 62
     7
370
    15
100
AcDbCircle
 10
199.4156057584209
 20
280.9718318316633
 30
0.0
 40
4.25
  0
LINE
  5
5833
330
1F
100
AcDbEntity
  8
0
  6
Continuous
 62
     7
370
    15
100
AcDbLine
 10
201.4156053560894
 20
260.126532185405
 30
0.0
 11
199.4156050282639
 21
261.281232479542
 31
0.0
  0
LINE
  5
5834
330
1F
100
AcDbEntity
  8
0
  6
Continuous
 62
     7
370
    15
100
AcDbLine
 10
199.4156050282639
 20
261.281232479542
 30
0.0
 11
197.4156065630835
 21
260.126532185405
 31
0.0
  0
LINE
  5
5835
330
1F
100
AcDbEntity
  8
0
  6
Continuous
 62
     7
370
    15
100
AcDbLine
 10
197.4156065630835
 20
260.126532185405
 30
0.0
 11
197.4156065630835
 21
257.817131597131
 31
0.0
  0
LINE
  5
5836
330
1F
100
AcDbEntity
  8
0
  6
Continuous
 62
     7
370
    15
100
AcDbLine
 10
197.4156065630835
 20
257.817131597131
 30
0.0
 11
199.4156050282639
 21
256.6624303716714
 31
0.0
  0
LINE
  5
5837
330
1F
100
AcDbEntity
  8
0
  6
Continuous
 62
     7
370
    15
100
AcDbLine
 10
199.4156050282639
 20
256.6624303716714
 30
0.0
 11
201.4156053560894
 21
257.817131597131
 31
0.0
  0
LINE
  5
5838
330
1F
100
AcDbEntity
  8
0
  6
Continuous
 62
     7
370
    15
100
AcDbLine
 10
201.4156053560894
 20
257.817131597131
 30
0.0
 11
201.4156053560894
 21
260.126532185405
 31
0.0
  0
CIRCLE
  5
5839
330
1F
100
AcDbEntity
  8
0
  6
Continuous
 62
     7
370
    15
100
AcDbCircle
 10
199.4156057584208
 20
258.9718318316633
 30
0.0
 40
4.25
  0
LINE
  5
583A
330
1F
100
AcDbEntity
  8
0
  6
Continuous
 62
     7
370
    15
100
AcDbLine
 10
244.4156049537582
 20
282.1265320661956
 30
0.0
 11
242.4156064885778
 21
283.2812332916552
 31
0.0
  0
LINE
  5
583B
330
1F
100
AcDbEntity
  8
0
  6
Continuous
 62
     7
370
    15
100
AcDbLine
 10
242.4156064885778
 20
283.2812332916552
 30
0.0
 11
240.4156061607523
 21
282.1265320661956
 31
0.0
  0
LINE
  5
583C
330
1F
100
AcDbEntity
  8
0
  6
Continuous
 62
     7
370
    15
100
AcDbLine
 10
240.4156061607523
 20
282.1265320661956
 30
0.0
 11
240.4156061607523
 21
279.8171314779216
 31
0.0
  0
LINE
  5
583D
330
1F
100
AcDbEntity
  8
0
  6
Continuous
 62
     7
370
    15
100
AcDbLine
 10
240.4156061607523
 20
279.8171314779216
 30
0.0
 11
242.4156064885778
 21
278.6624311837846
 31
0.0
  0
LINE
  5
583E
330
1F
100
AcDbEntity
  8
0
  6
Continuous
 62
     7
370
    15
100
AcDbLine
 10
242.4156064885778
 20
278.6624311837846
 30
0.0
 11
244.4156049537582
 21
279.8171314779216
 31
0.0
  0
LINE
  5
583F
330
1F
100
AcDbEntity
  8
0
  6
Continuous
 62
     7
370
    15
100
AcDbLine
 10
244.4156049537582
 20
279.8171314779216
 30
0.0
 11
244.4156049537582
 21
282.1265320661956
 31
0.0
  0
CIRCLE
  5
5840
330
1F
100
AcDbEntity
  8
0
  6
Continuous
 62
     7
370
    15
100
AcDbCircle
 10
242.4156057584209
 20
280.9718318316632
 30
0.0
 40
4.25
  0
LINE
  5
5841
330
1F
100
AcDbEntity
  8
0
  6
Continuous
 62
     7
370
    15
100
AcDbLine
 10
244.4156049537581
 20
260.1265321854049
 30
0.0
 11
242.4156064885777
 21
261.2812324795419
 31
0.0
  0
LINE
  5
5842
330
1F
100
AcDbEntity
  8
0
  6
Continuous
 62
     7
370
    15
100
AcDbLine
 10
242.4156064885777
 20
261.2812324795419
 30
0.0
 11
240.4156061607521
 21
260.1265321854049
 31
0.0
  0
LINE
  5
5843
330
1F
100
AcDbEntity
  8
0
  6
Continuous
 62
     7
370
    15
100
AcDbLine
 10
240.4156061607521
 20
260.1265321854049
 30
0.0
 11
240.4156061607521
 21
257.8171315971309
 31
0.0
  0
LINE
  5
5844
330
1F
100
AcDbEntity
  8
0
  6
Continuous
 62
     7
370
    15
100
AcDbLine
 10
240.4156061607521
 20
257.8171315971309
 30
0.0
 11
242.4156064885777
 21
256.6624303716713
 31
0.0
  0
LINE
  5
5845
330
1F
100
AcDbEntity
  8
0
  6
Continuous
 62
     7
370
    15
100
AcDbLine
 10
242.4156064885777
 20
256.6624303716713
 30
0.0
 11
244.4156049537581
 21
257.8171315971309
 31
0.0
  0
LINE
  5
5846
330
1F
100
AcDbEntity
  8
0
  6
Continuous
 62
     7
370
    15
100
AcDbLine
 10
244.4156049537581
 20
257.8171315971309
 30
0.0
 11
244.4156049537581
 21
260.1265321854049
 31
0.0
  0
CIRCLE
  5
5847
330
1F
100
AcDbEntity
  8
0
  6
Continuous
 62
     7
370
    15
100
AcDbCircle
 10
242.4156057584208
 20
258.9718318316632
 30
0.0
 40
4.250000000000056
  0
ARC
  5
5848
330
1F
100
AcDbEntity
  8
0
  6
Continuous
 62
     7
370
    15
100
AcDbCircle
 10
220.915605758421
 20
269.9718318316633
 30
0.0
 40
8.500000000000028
100
AcDbArc
 50
270.0
 51
329.9999999999995
  0
ARC
  5
5849
330
1F
100
AcDbEntity
  8
0
  6
Continuous
 62
     7
370
    15
100
AcDbCircle
 10
220.915605758421
 20
269.9718318316633
 30
0.0
 40
8.500000000000042
100
AcDbArc
 50
210.0000000000005
 51
270.0
  0
ARC
  5
584A
330
1F
100
AcDbEntity
  8
0
  6
Continuous
 62
     7
370
    15
100
AcDbCircle
 10
220.915605758421
 20
269.9718318316633
 30
0.0
 40
8.500000000000042
100
AcDbArc
 50
149.9999999999994
 51
210.0000000000005
  0
ARC
  5
584B
330
1F
100
AcDbEntity
  8
0
  6
Continuous
 62
     7
370
    15
100
AcDbCircle
 10
220.915605758421
 20
269.9718318316633
 30
0.0
 40
8.500000000000008
100
AcDbArc
 50
90.0
 51
149.9999999999994
  0
ARC
  5
584C
330
1F
100
AcDbEntity
  8
0
  6
Continuous
 62
     7
370
    15
100
AcDbCircle
 10
220.915605758421
 20
269.9718318316633
 30
0.0
 40
8.499999999999971
100
AcDbArc
 50
30.00000000000055
 51
90.0
  0
ARC
  5
584D
330
1F
100
AcDbEntity
  8
0
  6
Continuous
 62
     7
370
    15
100
AcDbCircle
 10
220.915605758421
 20
269.9718318316633
 30
0.0
 40
8.499999999999973
100
AcDbArc
 50
329.9999999999995
 51
30.00000000000055
  0
SPLINE
  5
584E
330
1F
100
AcDbEntity
  8
0
  6
Continuous
 62
     7
370
    15
100
AcDbSpline
210
0.0
220
0.0
230
1.0
 70
     8
 71
     3
 72
    11
 73
     7
 74
     0
 42
0.0000000001
 43
0.0000000001
 40
0.0
 40
0.0
 40
0.0
 40
0.0
 40
0.2472747777447969
 40
0.4945905625499535
 40
0.7472644250410495
 40
0.9999999999999998
 40
0.9999999999999998
 40
0.9999999999999998
 40
0.9999999999999998
 10
213.5543897534831
 20
274.2218320626313
 30
0.0
 10
213.3490269642153
 20
273.8661331239744
 30
0.0
 10
212.9382673291357
 20
273.1546762589709
 30
0.0
 10
212.3220031515762
 20
272.0872747480576
 30
0.0
 10
211.7079970271301
 20
271.0237863520191
 30
0.0
 10
211.3031164186192
 20
270.3225119312512
 30
0.0
 10
211.1006513956113
 20
269.9718319066934
 30
0.0
  0
SPLINE
  5
584F
330
1F
100
AcDbEntity
  8
0
  6
Continuous
 62
     7
370
    15
100
AcDbSpline
210
0.0
220
0.0
230
1.0
 70
     8
 71
     3
 72
    11
 73
     7
 74
     0
 42
0.0000000001
 43
0.0000000001
 40
0.0
 40
0.0
 40
0.0
 40
0.0
 40
0.2477111303641031
 40
0.4953654922800133
 40
0.7477052275080406
 40
1.0
 40
1.0
 40
1.0
 40
1.0
 10
211.1006513956113
 20
269.9718318736113
 30
0.0
 10
211.2990736660029
 20
269.6281542287921
 30
0.0
 10
211.695872733963
 20
268.940877700437
 30
0.0
 10
212.3055060696868
 20
267.8849622562013
 30
0.0
 10
212.925753501583
 20
266.8106621741848
 30
0.0
 10
213.3448567834956
 20
266.0847535658014
 30
0.0
 10
213.5543897534831
 20
265.7218316006953
 30
0.0
  0
SPLINE
  5
5850
330
1F
100
AcDbEntity
  8
0
  6
Continuous
 62
     7
370
    15
100
AcDbSpline
210
0.0
220
0.0
230
1.0
 70
     8
 71
     3
 72
    11
 73
     7
 74
     0
 42
0.0000000001
 43
0.0000000001
 40
0.0
 40
0.0
 40
0.0
 40
0.0
 40
0.2477111633840175
 40
0.4953654796818192
 40
0.7477052646400006
 40
1.0
 40
1.0
 40
1.0
 40
1.0
 10
216.0081285770162
 20
261.4718323010499
 30
0.0
 10
216.4049733245952
 20
261.4718324061538
 30
0.0
 10
217.1985717480905
 20
261.4718326163375
 30
0.0
 10
218.4178380044019
 20
261.4718310302984
 30
0.0
 10
219.6583327896522
 20
261.4718314552284
 30
0.0
 10
220.4965397115596
 20
261.471831398226
 30
0.0
 10
220.915605758421
 20
261.4718313697273
 30
0.0
  0
SPLINE
  5
5851
330
1F
100
AcDbEntity
  8
0
  6
Continuous
 62
     7
370
    15
100
AcDbSpline
210
0.0
220
0.0
230
1.0
 70
     8
 71
     3
 72
    11
 73
     7
 74
     0
 42
0.0000000001
 43
0.0000000001
 40
0.0
 40
0.0
 40
0.0
 40
0.0
 40
0.2472747683534775
 40
0.4945905779562891
 40
0.7472644397761742
 40
1.0
 40
1.0
 40
1.0
 40
1.0
 10
213.5543897534831
 20
265.7218316006953
 30
0.0
 10
213.7597527322297
 20
265.3661328372642
 30
0.0
 10
214.1705127746937
 20
264.6546762735589
 30
0.0
 10
214.7867769388911
 20
263.5872748683445
 30
0.0
 10
215.4007821908816
 20
262.5237860971537
 30
0.0
 10
215.8056633062041
 20
261.8225121026792
 30
0.0
 10
216.0081285770162
 20
261.4718323010499
 30
0.0
  0
SPLINE
  5
5852
330
1F
100
AcDbEntity
  8
0
  6
Continuous
 62
     7
370
    15
100
AcDbSpline
210
0.0
220
0.0
230
1.0
 70
    24
 71
     3
 72
    11
 73
     7
 74
     0
 42
0.0000000001
 43
0.0000000001
 40
0.0
 40
0.0
 40
0.0
 40
0.0
 40
0.2472747675004613
 40
0.4945905792574128
 40
0.7472643782448564
 40
1.0
 40
1.0
 40
1.0
 40
1.0
 10
220.915605758421
 20
278.4718322935993
 30
0.0
 10
220.5048800728298
 20
278.4718322935993
 30
0.0
 10
219.6833605267562
 20
278.4718322935993
 30
0.0
 10
218.4508317051641
 20
278.4718322935993
 30
0.0
 10
217.222820710841
 20
278.4718322935993
 30
0.0
 10
216.4130589722238
 20
278.4718322935993
 30
0.0
 10
216.0081285770162
 20
278.4718322935993
 30
0.0
  0
SPLINE
  5
5853
330
1F
100
AcDbEntity
  8
0
  6
Continuous
 62
     7
370
    15
100
AcDbSpline
210
0.0
220
0.0
230
1.0
 70
     8
 71
     3
 72
    11
 73
     7
 74
     0
 42
0.0000000001
 43
0.0000000001
 40
0.0
 40
0.0
 40
0.0
 40
0.0
 40
0.2477112379794895
 40
0.4953655451582638
 40
0.7477053578820098
 40
1.0
 40
1.0
 40
1.0
 40
1.0
 10
216.0081285770162
 20
278.4718322935993
 30
0.0
 10
215.8097060899507
 20
278.1281545388504
 30
0.0
 10
215.4129067187207
 20
277.4408780158772
 30
0.0
 10
214.8032740038742
 20
276.3849619535658
 30
0.0
 10
214.1830261367246
 20
275.3106622540364
 30
0.0
 10
213.7639227096995
 20
274.5847538007059
 30
0.0
 10
213.5543897534831
 20
274.2218320626313
 30
0.0
  0
SPLINE
  5
5854
330
1F
100
AcDbEntity
  8
0
  6
Continuous
 62
     7
370
    15
100
AcDbSpline
210
0.0
220
0.0
230
1.0
 70
     8
 71
     3
 72
    11
 73
     7
 74
     0
 42
0.0000000001
 43
0.0000000001
 40
0.0
 40
0.0
 40
0.0
 40
0.0
 40
0.2477111201180407
 40
0.4953654660969366
 40
0.7477053183548846
 40
1.0
 40
1.0
 40
1.0
 40
1.0
 10
225.8230829398258
 20
261.4718323010499
 30
0.0
 10
226.0215054611368
 20
261.8155097215619
 30
0.0
 10
226.4183050263176
 20
262.5027857934548
 30
0.0
 10
227.0279374856153
 20
263.558701730249
 30
0.0
 10
227.6481853870073
 20
264.6330014041293
 30
0.0
 10
228.067288809439
 20
265.3589098609006
 30
0.0
 10
228.2768217633589
 20
265.7218316006953
 30
0.0
  0
SPLINE
  5
5855
330
1F
100
AcDbEntity
  8
0
  6
Continuous
 62
     7
370
    15
100
AcDbSpline
210
0.0
220
0.0
230
1.0
 70
    24
 71
     3
 72
    11
 73
     7
 74
     0
 42
0.0000000001
 43
0.0000000001
 40
0.0
 40
0.0
 40
0.0
 40
0.0
 40
0.2472747906551942
 40
0.4945905790201772
 40
0.7472644236765765
 40
1.0
 40
1.0
 40
1.0
 40
1.0
 10
220.915605758421
 20
261.4718313697273
 30
0.0
 10
221.3263314834876
 20
261.4718313697273
 30
0.0
 10
222.147851031198
 20
261.4718313697273
 30
0.0
 10
223.3803799202663
 20
261.4718313697273
 30
0.0
 10
224.6083908985441
 20
261.4718313697273
 30
0.0
 10
225.4181526241199
 20
261.4718313697273
 30
0.0
 10
225.8230829398258
 20
261.4718313697273
 30
0.0
  0
SPLINE
  5
5856
330
1F
100
AcDbEntity
  8
0
  6
Continuous
 62
     7
370
    15
100
AcDbSpline
210
0.0
220
0.0
230
1.0
 70
     8
 71
     3
 72
    11
 73
     7
 74
     0
 42
0.0000000001
 43
0.0000000001
 40
0.0
 40
0.0
 40
0.0
 40
0.0
 40
0.2472747683534775
 40
0.4945905779562891
 40
0.7472644397761742
 40
1.0
 40
1.0
 40
1.0
 40
1.0
 10
228.2768217633589
 20
274.2218320626313
 30
0.0
 10
228.0714587846123
 20
274.5775308260625
 30
0.0
 10
227.6606987421483
 20
275.2889873897678
 30
0.0
 10
227.0444345779509
 20
276.3563887949821
 30
0.0
 10
226.4304293259605
 20
277.419877566173
 30
0.0
 10
226.025548210638
 20
278.1211515606473
 30
0.0
 10
225.8230829398258
 20
278.4718313622768
 30
0.0
  0
SPLINE
  5
5857
330
1F
100
AcDbEntity
  8
0
  6
Continuous
 62
     7
370
    15
100
AcDbSpline
210
0.0
220
0.0
230
1.0
 70
     8
 71
     3
 72
    11
 73
     7
 74
     0
 42
0.0000000001
 43
0.0000000001
 40
0.0
 40
0.0
 40
0.0
 40
0.0
 40
0.2477111633840176
 40
0.4953654796818194
 40
0.7477052646400009
 40
1.0
 40
1.0
 40
1.0
 40
1.0
 10
225.8230829398258
 20
278.4718313622768
 30
0.0
 10
225.4262381922468
 20
278.4718312571728
 30
0.0
 10
224.6326397687515
 20
278.4718310469892
 30
0.0
 10
223.4133735124402
 20
278.4718326330283
 30
0.0
 10
222.1728787271898
 20
278.4718322080982
 30
0.0
 10
221.3346718052824
 20
278.4718322651007
 30
0.0
 10
220.915605758421
 20
278.4718322935993
 30
0.0
  0
SPLINE
  5
5858
330
1F
100
AcDbEntity
  8
0
  6
Continuous
 62
     7
370
    15
100
AcDbSpline
210
0.0
220
0.0
230
1.0
 70
     8
 71
     3
 72
    11
 73
     7
 74
     0
 42
0.0000000001
 43
0.0000000001
 40
0.0
 40
0.0
 40
0.0
 40
0.0
 40
0.2477111426127039
 40
0.4953654871788307
 40
0.7477052249576765
 40
1.0
 40
1.0
 40
1.0
 40
1.0
 10
230.7305601212306
 20
269.9718318482045
 30
0.0
 10
230.5321378584693
 20
270.3155095174237
 30
0.0
 10
230.1353388294747
 20
271.0027860535119
 30
0.0
 10
229.5257054114723
 20
272.0587014222803
 30
0.0
 10
228.9054580201244
 20
273.1330014924659
 30
0.0
 10
228.4863547349681
 20
273.8589100986332
 30
0.0
 10
228.2768217633589
 20
274.2218320626313
 30
0.0
  0
SPLINE
  5
5859
330
1F
100
AcDbEntity
  8
0
  6
Continuous
 62
     7
370
    15
100
AcDbSpline
210
0.0
220
0.0
230
1.0
 70
     8
 71
     3
 72
    11
 73
     7
 74
     0
 42
0.0000000001
 43
0.0000000001
 40
0.0
 40
0.0
 40
0.0
 40
0.0
 40
0.2472747757016346
 40
0.4945905584632902
 40
0.7472644188666128
 40
1.0
 40
1.0
 40
1.0
 40
1.0
 10
228.2768217633589
 20
265.7218316006953
 30
0.0
 10
228.4821845527408
 20
266.0775305392669
 30
0.0
 10
228.8929441880484
 20
266.7889874040996
 30
0.0
 10
229.5092083638847
 20
267.8563889163029
 30
0.0
 10
230.1232145017571
 20
268.9198773190101
 30
0.0
 10
230.5280951000321
 20
269.621151763561
 30
0.0
 10
230.7305601212306
 20
269.9718318057437
 30
0.0
  0
CIRCLE
  5
585A
330
1F
100
AcDbEntity
  8
0
  6
Continuous
 62
     7
370
    15
100
AcDbCircle
 10
220.915605758421
 20
269.9718318316633
 30
0.0
 40
3.999999999962255
  0
CIRCLE
  5
585B
330
1F
100
AcDbEntity
  8
0
  6
Continuous
 62
     7
370
    15
100
AcDbCircle
 10
220.915605758421
 20
269.9718318316633
 30
0.0
 40
5.0
  0
TEXT
  5
5DB9
330
1F
100
AcDbEntity
  8
0
100
AcDbText
 10
-7.179885398698159
 20
336.0644892407268
 30
0.0
 40
4.0
  1
Stroke=5
  7
CHINESET
100
AcDbText
  0
TEXT
  5
5DBA
330
1F
100
AcDbEntity
  8
0
100
AcDbText
 10
-7.179885398698161
 20
188.147941205133
 30
0.0
 40
4.0
  1
Stroke=5
  7
CHINESET
100
AcDbText
  0
DIMENSION
  5
5DBB
330
1F
100
AcDbEntity
  8
DIM
100
AcDbDimension
  2
*D70
 10
81.31160699621455
 20
302.1628358288516
 30
0.0
 11
77.5616069962146
 21
304.4128358288516
 31
0.0
 70
    32
 71
     5
 42
7.499999999999886
  3
AM_ANSI
100
AcDbAlignedDimension
 13
73.81160699621466
 23
297.221831176012
 33
0.0
 14
81.31160699621455
 24
277.8317097081264
 34
0.0
100
AcDbRotatedDimension
1001
ACAD
1000
DSTYLE
1002
{
1070
    41
1040
2.0
1070
    42
1040
1.5
1070
    43
1040
8.0
1070
    44
1040
1.5
1070
    73
1070
     0
1070
    74
1070
     0
1070
    77
1070
     3
1070
   140
1040
2.0
1070
   141
1040
3.0
1070
   146
1040
0.6
1070
   147
1040
1.0
1070
   172
1070
     1
1070
   178
1070
   256
1070
   272
1070
     8
1070
   274
1070
     2
1070
   340
1005
4003
1002
}
  0
DIMENSION
  5
5DBC
330
1F
100
AcDbEntity
  8
DIM
100
AcDbDimension
  2
*D71
 10
123.8116077412726
 20
302.1628358288516
 30
0.0
 11
120.0616073687436
 21
304.4128358288516
 31
0.0
 70
    32
 71
     5
 42
7.500000745058116
  3
AM_ANSI
100
AcDbAlignedDimension
 13
116.3116069962145
 23
276.3317097081264
 33
0.0
 14
123.8116077412726
 24
297.2218311760118
 34
0.0
100
AcDbRotatedDimension
1001
ACAD
1000
DSTYLE
1002
{
1070
    41
1040
2.0
1070
    42
1040
1.5
1070
    43
1040
8.0
1070
    44
1040
1.5
1070
    73
1070
     0
1070
    74
1070
     0
1070
    77
1070
     3
1070
   140
1040
2.0
1070
   141
1040
3.0
1070
   146
1040
0.6
1070
   147
1040
1.0
1070
   172
1070
     1
1070
   178
1070
   256
1070
   272
1070
     8
1070
   274
1070
     2
1070
   340
1005
4003
1002
}
  0
DIMENSION
  5
5DBD
330
1F
100
AcDbEntity
  8
DIM
100
AcDbDimension
  2
*D72
 10
123.8116077412725
 20
316.455032839627
 30
0.0
 11
98.81160736874353
 21
318.7050328396271
 31
0.0
 70
    32
  1
45+stroke=<>
 71
     5
 42
50.00000074505805
  3
AM_ANSI
100
AcDbAlignedDimension
 13
73.8116069962145
 23
297.2218311760121
 33
0.0
 14
123.8116077412725
 24
297.2218311760119
 34
0.0
100
AcDbRotatedDimension
1001
ACAD
1000
DSTYLE
1002
{
1070
    41
1040
2.0
1070
    42
1040
1.5
1070
    43
1040
8.0
1070
    44
1040
1.5
1070
    73
1070
     0
1070
    74
1070
     0
1070
    77
1070
     3
1070
   140
1040
2.0
1070
   141
1040
3.0
1070
   146
1040
0.6
1070
   147
1040
1.0
1070
   172
1070
     1
1070
   178
1070
   256
1070
   272
1070
     8
1070
   274
1070
     2
1070
   340
1005
4003
1002
}
  0
DIMENSION
  5
5DBE
330
1F
100
AcDbEntity
  8
DIM
100
AcDbDimension
  2
*D73
 10
123.8116077412725
 20
325.9145223743488
 30
0.0
 11
85.81160710052264
 21
328.1645223743489
 31
0.0
 70
    32
  1
71+stroke=<>
 71
     5
 42
76.0000012814998
  3
AM_ANSI
100
AcDbAlignedDimension
 13
47.81160645977275
 23
273.9718320216529
 33
0.0
 14
123.8116077412725
 24
297.2218311760119
 34
0.0
100
AcDbRotatedDimension
1001
ACAD
1000
DSTYLE
1002
{
1070
    41
1040
2.0
1070
    42
1040
1.5
1070
    43
1040
8.0
1070
    44
1040
1.5
1070
    73
1070
     0
1070
    74
1070
     0
1070
    77
1070
     3
1070
   140
1040
2.0
1070
   141
1040
3.0
1070
   146
1040
0.6
1070
   147
1040
1.0
1070
   172
1070
     1
1070
   178
1070
   256
1070
   271
1070
     0
1070
   272
1070
     8
1070
   274
1070
     2
1070
   340
1005
4003
1002
}
  0
DIMENSION
  5
5DBF
330
1F
100
AcDbEntity
  8
DIM
100
AcDbDimension
  2
*D74
 10
73.8116069962146
 20
308.3384320078196
 30
0.0
 11
70.31160688818116
 21
310.5884320078196
 31
0.0
 70
    32
 71
     5
 42
7.000000216066894
  3
AM_ANSI
100
AcDbAlignedDimension
 13
66.81160678014771
 23
274.9718317199043
 33
0.0
 14
73.8116069962146
 24
297.221831176012
 34
0.0
100
AcDbRotatedDimension
1001
ACAD
1000
DSTYLE
1002
{
1070
    41
1040
2.0
1070
    42
1040
1.5
1070
    43
1040
8.0
1070
    44
1040
1.5
1070
    73
1070
     0
1070
    74
1070
     0
1070
    77
1070
     3
1070
   140
1040
2.0
1070
   141
1040
3.0
1070
   146
1040
0.6
1070
   147
1040
1.0
1070
   172
1070
     1
1070
   178
1070
   256
1070
   272
1070
     8
1070
   274
1070
     2
1070
   340
1005
4003
1002
}
  0
DIMENSION
  5
5DC0
330
1F
100
AcDbEntity
  8
DIM
100
AcDbDimension
  2
*D75
 10
66.81160678014771
 20
308.3384320078196
 30
0.0
 11
57.31160661996023
 21
310.5884320078196
 31
0.0
 70
    32
 71
     5
 42
19.00000032037496
  3
AM_ANSI
100
AcDbAlignedDimension
 13
47.81160645977275
 23
273.9718320216529
 33
0.0
 14
66.81160678014771
 24
274.9718317199043
 34
0.0
100
AcDbRotatedDimension
1001
ACAD
1000
DSTYLE
1002
{
1070
    41
1040
2.0
1070
    42
1040
1.5
1070
    43
1040
8.0
1070
    44
1040
1.5
1070
    73
1070
     0
1070
    74
1070
     0
1070
    77
1070
     3
1070
   140
1040
2.0
1070
   141
1040
3.0
1070
   146
1040
0.6
1070
   147
1040
1.0
1070
   172
1070
     1
1070
   178
1070
   256
1070
   272
1070
     8
1070
   274
1070
     2
1070
   340
1005
4003
1002
}
  0
DIMENSION
  5
5DC1
330
1F
100
AcDbEntity
  8
DIM
100
AcDbDimension
  2
*D76
 10
87.81160742834817
 20
308.3384320078195
 30
0.0
 11
80.81160721228133
 21
310.5884320078195
 31
0.0
 70
    32
 71
     5
 42
14.00000043213367
  3
AM_ANSI
100
AcDbAlignedDimension
 13
73.8116069962145
 23
297.2218311760121
 33
0.0
 14
87.81160742834817
 24
297.2218311760121
 34
0.0
100
AcDbRotatedDimension
1001
ACAD
1000
DSTYLE
1002
{
1070
    41
1040
2.0
1070
    42
1040
1.5
1070
    43
1040
8.0
1070
    44
1040
1.5
1070
    73
1070
     0
1070
    74
1070
     0
1070
    77
1070
     3
1070
   140
1040
2.0
1070
   141
1040
3.0
1070
   146
1040
0.6
1070
   147
1040
1.0
1070
   172
1070
     1
1070
   178
1070
   256
1070
   272
1070
     8
1070
   274
1070
     2
1070
   340
1005
4003
1002
}
  0
DIMENSION
  5
5DC2
330
1F
100
AcDbEntity
  8
DIM
100
AcDbDimension
  2
*D77
 10
123.8116077412725
 20
308.3384320078195
 30
0.0
 11
116.8116065938831
 21
310.5884320078195
 31
0.0
 70
    32
 71
     5
 42
14.00000229477882
  3
AM_ANSI
100
AcDbAlignedDimension
 13
109.8116054464937
 23
297.221831176012
 33
0.0
 14
123.8116077412725
 24
297.2218311760119
 34
0.0
100
AcDbRotatedDimension
1001
ACAD
1000
DSTYLE
1002
{
1070
    41
1040
2.0
1070
    42
1040
1.5
1070
    43
1040
8.0
1070
    44
1040
1.5
1070
    73
1070
     0
1070
    74
1070
     0
1070
    77
1070
     3
1070
   140
1040
2.0
1070
   141
1040
3.0
1070
   146
1040
0.6
1070
   147
1040
1.0
1070
   172
1070
     1
1070
   178
1070
   256
1070
   272
1070
     8
1070
   274
1070
     2
1070
   340
1005
4003
1002
}
  0
SOLID
  5
5DC3
330
1F
100
AcDbEntity
  8
DIM
100
AcDbTrace
 10
51.06447452302735
 20
263.0869170911036
 30
0.0
 11
51.81160711542384
 21
264.9718319434218
 31
0.0
 12
50.49353633267526
 22
263.4311176536277
 32
0.0
 13
50.49353633267526
 23
263.4311176536277
 33
0.0
1001
ACAD
1000
DSTYLE
1002
{
1070
    41
1040
2.0
1070
    42
1040
1.5
1070
    43
1040
8.0
1070
    44
1040
1.5
1070
    73
1070
     0
1070
    74
1070
     0
1070
    77
1070
     3
1070
   140
1040
2.0
1070
   141
1040
3.0
1070
   146
1040
0.6
1070
   147
1040
1.0
1070
   172
1070
     1
1070
   178
1070
   256
1070
   272
1070
     2
1070
   274
1070
     2
1070
   340
1005
4003
1002
}
  0
LWPOLYLINE
  5
5DC4
330
1F
100
AcDbEntity
  8
DIM
100
AcDbPolyline
 90
        3
 70
     0
 43
0.0
 10
50.7790054278513
 20
263.2590173723656
 10
46.1575190655335
 20
255.5567534259689
 10
32.43107687529982
 20
255.5567534259689
1001
ACAD
1000
DSTYLE
1002
{
1070
    41
1040
2.0
1070
    42
1040
1.5
1070
    43
1040
8.0
1070
    44
1040
1.5
1070
    73
1070
     0
1070
    74
1070
     0
1070
    77
1070
     3
1070
   140
1040
2.0
1070
   141
1040
3.0
1070
   146
1040
0.6
1070
   147
1040
1.0
1070
   172
1070
     1
1070
   178
1070
   256
1070
   272
1070
     2
1070
   274
1070
     2
1070
   340
1005
4003
1002
}
  0
MTEXT
  5
5DC5
330
1F
100
AcDbEntity
  8
DIM
100
AcDbMText
 10
33.03790167390429
 20
258.1139978299292
 30
0.0
 40
2.0
 41
0.0
 71
     1
 72
     1
  1
M10*1.25
  7
dayus
 73
     1
 44
1.0
1001
ACAD
1000
MTEXTBEGIN
1070
    73
1070
     1
1070
    44
1040
1.0
1070
    74
1070
     0
1000
MTEXTEND
  0
SOLID
  5
5DC6
330
1F
100
AcDbEntity
  8
DIM
100
AcDbTrace
 10
120.7650910098039
 20
265.817963145548
 30
0.0
 11
120.1830845421607
 21
267.7602246065085
 31
0.0
 12
121.3635538367292
 22
266.1117091059166
 32
0.0
 13
121.3635538367292
 23
266.1117091059166
 33
0.0
1001
ACAD
1000
DSTYLE
1002
{
1070
    41
1040
2.0
1070
    42
1040
1.5
1070
    43
1040
8.0
1070
    44
1040
1.5
1070
    73
1070
     0
1070
    74
1070
     0
1070
    77
1070
     2
1070
   140
1040
2.0
1070
   141
1040
3.0
1070
   146
1040
0.6
1070
   147
1040
1.0
1070
   172
1070
     1
1070
   178
1070
   256
1070
   272
1070
     2
1070
   274
1070
     2
1070
   340
1005
4003
1002
}
  0
LWPOLYLINE
  5
5DC7
330
1F
100
AcDbEntity
  8
DIM
100
AcDbPolyline
 90
        3
 70
     0
 43
0.0
 10
120.1830845421855
 20
267.7602246064259
 10
126.10247455537
 20
257.0891302181249
 10
138.5763203554313
 20
257.0891302181249
1001
ACAD
1000
DSTYLE
1002
{
1070
    41
1040
2.0
1070
    42
1040
1.5
1070
    43
1040
8.0
1070
    44
1040
1.5
1070
    73
1070
     0
1070
    74
1070
     0
1070
    77
1070
     2
1070
   140
1040
2.0
1070
   141
1040
3.0
1070
   146
1040
0.6
1070
   147
1040
1.0
1070
   172
1070
     1
1070
   178
1070
   256
1070
   272
1070
     2
1070
   274
1070
     2
1070
   340
1005
4003
1002
}
  0
MTEXT
  5
5DC8
330
1F
100
AcDbEntity
  8
DIM
100
AcDbMText
 10
138.2088483527595
 20
257.8113928157096
 30
0.0
 40
2.0
 41
0.0
 71
     9
 72
     1
  1
2-G1/8
  7
dayus
 73
     1
 44
1.0
1001
ACAD
1000
MTEXTBEGIN
1070
    73
1070
     1
1070
    44
1040
1.0
1070
    74
1070
     0
1000
MTEXTEND
  0
LINE
  5
5DCD
330
1F
100
AcDbEntity
  8
CENTER
 48
1.3
100
AcDbLine
 10
45.9903209007698
 20
269.971831831663
 30
0.0
 11
127.38233717315
 21
269.9718318316629
 31
0.0
  0
LINE
  5
5DCE
330
1F
100
AcDbEntity
  8
AM_7
  6
ACISOTGB
 62
     2
100
AcDbLine
 10
99.38585544947841
 20
298.3104972824907
 30
0.0
 11
99.38585544947841
 21
236.9044259743327
 31
0.0
1001
GENIUS_GENOBJ-N-CEN_13
1002
{
1000
OWNER
1000
GEN
1002
}
1001
GENIUS_GENODEF_13
1002
{
1000
HIER
1070
     0
1002
}
1002
{
1000
MANEDIT
1070
     0
1002
}
1002
{
1000
NOSEL
1070
     0
1002
}
1002
{
1000
BEHIND
1070
     0
1002
}
1002
{
1000
OTHER
1070
     0
1002
}
1002
{
1000
REACTOR
1002
}
1001
GENIUS_GENCEN_19
1002
{
1040
3.0
1002
}
  0
INSERT
  5
5DCF
330
1F
100
AcDbEntity
  8
0
100
AcDbBlockReference
  2
A$C1F6E6265
 10
99.38585498527187
 20
238.0702452855905
 30
0.0
  0
LINE
  5
5DD1
330
1F
100
AcDbEntity
  8
CENTER
 48
0.8
100
AcDbLine
 10
81.3116069962145
 20
263.6119539551994
 30
0.0
 11
81.3116069962145
 21
276.3317097081266
 31
0.0
  0
LINE
  5
5DD2
330
1F
100
AcDbEntity
  8
CENTER
 48
0.8
100
AcDbLine
 10
116.3116069962145
 20
263.6119539551991
 30
0.0
 11
116.3116069962145
 21
276.3317097081264
 31
0.0
  0
ARC
  5
5E05
330
1F
100
AcDbEntity
  8
0
 62
     3
100
AcDbCircle
 10
116.3116069962145
 20
269.9718318316629
 30
0.0
 40
4.861990868404272
100
AcDbArc
 50
350.0000000000014
 51
279.9999999999986
  0
ARC
  5
618B
330
1F
100
AcDbEntity
  8
0
 62
     3
100
AcDbCircle
 10
81.3116069962145
 20
269.971831831663
 30
0.0
 40
4.861990868404272
100
AcDbArc
 50
350.0000000000014
 51
279.9999999999986
  0
ARC
  5
618C
330
1F
100
AcDbEntity
  8
0
 62
     3
100
AcDbCircle
 10
81.31160699621645
 20
138.0561323596295
 30
0.0
 40
4.861990868404272
100
AcDbArc
 50
350.0000000000014
 51
279.9999999999986
  0
ARC
  5
618D
330
1F
100
AcDbEntity
  8
0
 62
     3
100
AcDbCircle
 10
116.3116069962164
 20
138.0561323596293
 30
0.0
 40
4.861990868404272
100
AcDbArc
 50
350.0000000000014
 51
279.9999999999986
  0
ARC
  5
618E
330
1F
100
AcDbEntity
  8
0
 62
     3
100
AcDbCircle
 10
220.9156057584227
 20
138.0561323596296
 30
0.0
 40
3.826229677218405
100
AcDbArc
 50
350.0000000000014
 51
279.9999999999986
  0
ARC
  5
618F
330
1F
100
AcDbEntity
  8
0
 62
     3
100
AcDbCircle
 10
220.915605758421
 20
269.9718318316635
 30
0.0
 40
4.448622963448654
100
AcDbArc
 50
350.0000000000014
 51
279.9999999999986
  0
LINE
  5
6190
330
1F
100
AcDbEntity
  8
CENTER
 48
0.8
100
AcDbLine
 10
189.3042476344106
 20
269.9718318316632
 30
0.0
 11
252.5269638824312
 21
269.9718318316633
 31
0.0
  0
LINE
  5
6191
330
1F
100
AcDbEntity
  8
CENTER
 48
0.8
100
AcDbLine
 10
220.9156057584209
 20
238.3604737076531
 30
0.0
 11
220.9156057584209
 21
301.5831899556737
 31
0.0
  0
LINE
  5
6192
330
1F
100
AcDbEntity
  8
CENTER
 48
0.8
100
AcDbLine
 10
239.9156057584209
 20
284.2639286279131
 30
0.0
 11
239.9156057584209
 21
293.6797350354135
 31
0.0
  0
LINE
  5
6193
330
1F
100
AcDbEntity
  8
CENTER
 48
0.8
100
AcDbLine
 10
244.6235089621711
 20
288.9718318316632
 30
0.0
 11
235.2077025546707
 21
288.9718318316632
 31
0.0
  0
LINE
  5
619A
330
1F
100
AcDbEntity
  8
CENTER
 48
0.8
100
AcDbLine
 10
239.9156057584208
 20
246.2639286279131
 30
0.0
 11
239.9156057584208
 21
255.6797350354135
 31
0.0
  0
LINE
  5
619B
330
1F
100
AcDbEntity
  8
CENTER
 48
0.8
100
AcDbLine
 10
244.623508962171
 20
250.9718318316632
 30
0.0
 11
235.2077025546706
 21
250.9718318316632
 31
0.0
  0
LINE
  5
619C
330
1F
100
AcDbEntity
  8
CENTER
 48
0.8
100
AcDbLine
 10
201.9156057584208
 20
246.2639286279132
 30
0.0
 11
201.9156057584208
 21
255.6797350354135
 31
0.0
  0
LINE
  5
619D
330
1F
100
AcDbEntity
  8
CENTER
 48
0.8
100
AcDbLine
 10
206.623508962171
 20
250.9718318316633
 30
0.0
 11
197.2077025546705
 21
250.9718318316633
 31
0.0
  0
LINE
  5
61A0
330
1F
100
AcDbEntity
  8
CENTER
 48
0.8
100
AcDbLine
 10
199.4156057584209
 20
275.3223479871631
 30
0.0
 11
199.4156057584209
 21
286.6213156761636
 31
0.0
  0
LINE
  5
61A1
330
1F
100
AcDbEntity
  8
CENTER
 48
0.8
100
AcDbLine
 10
205.0650896029211
 20
280.9718318316633
 30
0.0
 11
193.7661219139206
 21
280.9718318316633
 31
0.0
  0
LINE
  5
61A2
330
1F
100
AcDbEntity
  8
CENTER
 48
0.8
100
AcDbLine
 10
201.915605758421
 20
284.2639286279132
 30
0.0
 11
201.915605758421
 21
293.6797350354136
 31
0.0
  0
LINE
  5
61A3
330
1F
100
AcDbEntity
  8
CENTER
 48
0.8
100
AcDbLine
 10
206.6235089621712
 20
288.9718318316633
 30
0.0
 11
197.2077025546708
 21
288.9718318316633
 31
0.0
  0
LINE
  5
61A4
330
1F
100
AcDbEntity
  8
CENTER
 48
0.8
100
AcDbLine
 10
199.4156057584208
 20
253.3223479871631
 30
0.0
 11
199.4156057584208
 21
264.6213156761636
 31
0.0
  0
LINE
  5
61A5
330
1F
100
AcDbEntity
  8
CENTER
 48
0.8
100
AcDbLine
 10
205.065089602921
 20
258.9718318316633
 30
0.0
 11
193.7661219139205
 21
258.9718318316633
 31
0.0
  0
LINE
  5
61A6
330
1F
100
AcDbEntity
  8
CENTER
 48
0.8
100
AcDbLine
 10
242.4156057584208
 20
253.3223479871629
 30
0.0
 11
242.4156057584208
 21
264.6213156761634
 31
0.0
  0
LINE
  5
61A7
330
1F
100
AcDbEntity
  8
CENTER
 48
0.8
100
AcDbLine
 10
248.065089602921
 20
258.9718318316631
 30
0.0
 11
236.7661219139205
 21
258.9718318316631
 31
0.0
  0
LINE
  5
61A8
330
1F
100
AcDbEntity
  8
CENTER
 48
0.8
100
AcDbLine
 10
242.4156057584209
 20
275.322347987163
 30
0.0
 11
242.4156057584209
 21
286.6213156761634
 31
0.0
  0
LINE
  5
61A9
330
1F
100
AcDbEntity
  8
CENTER
 48
0.8
100
AcDbLine
 10
248.0650896029211
 20
280.9718318316632
 30
0.0
 11
236.7661219139206
 21
280.9718318316632
 31
0.0
  0
LINE
  5
61AA
330
1F
100
AcDbEntity
  8
CENTER
 48
0.8
100
AcDbLine
 10
199.4156057584227
 20
143.4066485151293
 30
0.0
 11
199.4156057584227
 21
154.7056162041297
 31
0.0
  0
LINE
  5
61AB
330
1F
100
AcDbEntity
  8
CENTER
 48
0.8
100
AcDbLine
 10
205.065089602923
 20
149.0561323596295
 30
0.0
 11
193.7661219139225
 21
149.0561323596295
 31
0.0
  0
LINE
  5
61AC
330
1F
100
AcDbEntity
  8
CENTER
 48
0.8
100
AcDbLine
 10
199.4156057584225
 20
121.4066485151293
 30
0.0
 11
199.4156057584225
 21
132.7056162041297
 31
0.0
  0
LINE
  5
61AD
330
1F
100
AcDbEntity
  8
CENTER
 48
0.8
100
AcDbLine
 10
205.0650896029228
 20
127.0561323596295
 30
0.0
 11
193.7661219139222
 21
127.0561323596295
 31
0.0
  0
LINE
  5
61AE
330
1F
100
AcDbEntity
  8
CENTER
 48
0.8
100
AcDbLine
 10
242.4156057584225
 20
121.4066485151292
 30
0.0
 11
242.4156057584225
 21
132.7056162041296
 31
0.0
  0
LINE
  5
61AF
330
1F
100
AcDbEntity
  8
CENTER
 48
0.8
100
AcDbLine
 10
248.0650896029228
 20
127.0561323596294
 30
0.0
 11
236.7661219139223
 21
127.0561323596294
 31
0.0
  0
LINE
  5
61B0
330
1F
100
AcDbEntity
  8
CENTER
 48
0.8
100
AcDbLine
 10
242.4156057584228
 20
143.4066485151292
 30
0.0
 11
242.4156057584228
 21
154.7056162041296
 31
0.0
  0
LINE
  5
61B1
330
1F
100
AcDbEntity
  8
CENTER
 48
0.8
100
AcDbLine
 10
248.065089602923
 20
149.0561323596294
 30
0.0
 11
236.7661219139225
 21
149.0561323596294
 31
0.0
  0
LINE
  5
61B2
330
1F
100
AcDbEntity
  8
CENTER
 48
0.8
100
AcDbLine
 10
201.9156057584227
 20
152.3482291558794
 30
0.0
 11
201.9156057584227
 21
161.7640355633798
 31
0.0
  0
LINE
  5
61B3
330
1F
100
AcDbEntity
  8
CENTER
 48
0.8
100
AcDbLine
 10
206.623508962173
 20
157.0561323596296
 30
0.0
 11
197.2077025546725
 21
157.0561323596296
 31
0.0
  0
LINE
  5
61B4
330
1F
100
AcDbEntity
  8
CENTER
 48
0.8
100
AcDbLine
 10
201.9156057584225
 20
114.3482291558794
 30
0.0
 11
201.9156057584225
 21
123.7640355633797
 31
0.0
  0
LINE
  5
61B5
330
1F
100
AcDbEntity
  8
CENTER
 48
0.8
100
AcDbLine
 10
206.6235089621727
 20
119.0561323596295
 30
0.0
 11
197.2077025546723
 21
119.0561323596295
 31
0.0
  0
LINE
  5
61B6
330
1F
100
AcDbEntity
  8
CENTER
 48
0.8
100
AcDbLine
 10
239.9156057584225
 20
114.3482291558792
 30
0.0
 11
239.9156057584225
 21
123.7640355633796
 31
0.0
  0
LINE
  5
61B7
330
1F
100
AcDbEntity
  8
CENTER
 48
0.8
100
AcDbLine
 10
244.6235089621727
 20
119.0561323596294
 30
0.0
 11
235.2077025546723
 21
119.0561323596294
 31
0.0
  0
LINE
  5
61B8
330
1F
100
AcDbEntity
  8
CENTER
 48
0.8
100
AcDbLine
 10
239.9156057584228
 20
152.3482291558793
 30
0.0
 11
239.9156057584228
 21
161.7640355633797
 31
0.0
  0
LINE
  5
61B9
330
1F
100
AcDbEntity
  8
CENTER
 48
0.8
100
AcDbLine
 10
244.623508962173
 20
157.0561323596294
 30
0.0
 11
235.2077025546725
 21
157.0561323596294
 31
0.0
  0
LINE
  5
61BA
330
1F
100
AcDbEntity
  8
CENTER
 48
0.8
100
AcDbLine
 10
189.3042476344124
 20
138.0561323596294
 30
0.0
 11
252.526963882433
 21
138.0561323596295
 31
0.0
  0
LINE
  5
61BB
330
1F
100
AcDbEntity
  8
CENTER
 48
0.8
100
AcDbLine
 10
220.9156057584227
 20
106.4447742356193
 30
0.0
 11
220.9156057584227
 21
169.6674904836399
 31
0.0
  0
LINE
  5
61BC
330
1F
100
AcDbEntity
  8
CENTER
 48
1.3
100
AcDbLine
 10
63.03901510525378
 20
138.0561323596295
 30
0.0
 11
127.3823371731519
 21
138.0561323596293
 31
0.0
  0
LINE
  5
61BD
330
1F
100
AcDbEntity
  8
CENTER
 48
0.8
100
AcDbLine
 10
81.3116069962164
 20
131.6962544831658
 30
0.0
 11
81.3116069962164
 21
144.4160102360931
 31
0.0
  0
LINE
  5
61BE
330
1F
100
AcDbEntity
  8
CENTER
 48
0.8
100
AcDbLine
 10
116.3116069962164
 20
131.6962544831656
 30
0.0
 11
116.3116069962164
 21
144.4160102360929
 31
0.0
  0
DIMENSION
  5
61BF
330
1F
100
AcDbEntity
  8
DIM
100
AcDbDimension
  2
*D78
 10
239.9156057584209
 20
304.6348981474529
 30
0.0
 11
220.9156057584209
 21
306.8848981474529
 31
0.0
 70
    32
  1
□<>
 71
     5
 42
37.99999999999989
  3
AM_ANSI
100
AcDbAlignedDimension
 13
201.915605758421
 23
293.6797350354136
 33
0.0
 14
239.9156057584209
 24
293.6797350354135
 34
0.0
100
AcDbRotatedDimension
1001
ACAD
1000
DSTYLE
1002
{
1070
    41
1040
2.0
1070
    42
1040
1.5
1070
    43
1040
8.0
1070
    44
1040
1.5
1070
    73
1070
     0
1070
    74
1070
     0
1070
    77
1070
     3
1070
   140
1040
2.0
1070
   141
1040
3.0
1070
   146
1040
0.6
1070
   147
1040
1.0
1070
   172
1070
     1
1070
   178
1070
   256
1070
   272
1070
     8
1070
   274
1070
     2
1070
   340
1005
4003
1002
}
  0
DIMENSION
  5
61C0
330
1F
100
AcDbEntity
  8
DIM
100
AcDbDimension
  2
*D79
 10
248.165605758421
 20
311.2095695189021
 30
0.0
 11
220.915605758421
 21
313.4595695189021
 31
0.0
 70
    32
  1
□<>
 71
     5
 42
54.50000000000006
  3
AM_ANSI
100
AcDbAlignedDimension
 13
193.665605758421
 23
291.2218318316635
 33
0.0
 14
248.165605758421
 24
291.2218318316632
 34
0.0
100
AcDbRotatedDimension
1001
ACAD
1000
DSTYLE
1002
{
1070
    41
1040
2.0
1070
    42
1040
1.5
1070
    43
1040
8.0
1070
    44
1040
1.5
1070
    73
1070
     0
1070
    74
1070
     0
1070
    77
1070
     3
1070
   140
1040
2.0
1070
   141
1040
3.0
1070
   146
1040
0.6
1070
   147
1040
1.0
1070
   172
1070
     1
1070
   178
1070
   256
1070
   272
1070
     8
1070
   274
1070
     2
1070
   340
1005
4003
1002
}
  0
MTEXT
  5
61C1
330
1F
100
AcDbEntity
  8
DIM
100
AcDbMText
 10
249.4917747198844
 20
303.4757311608561
 30
0.0
 40
2.0
 41
0.0
 71
     1
 72
     1
  1
2x4-M6x1.0
  7
dayus
 73
     1
 44
1.0
1001
ACAD
1000
MTEXTBEGIN
1070
    73
1070
     1
1070
    44
1040
1.0
1070
    74
1070
     0
1000
MTEXTEND
  0
LEADER
  5
6222
330
1F
100
AcDbEntity
  8
DIM
100
AcDbLeader
  3
AM_ANSI$7
 73
     0
 74
     0
 75
     1
 40
2.0
 41
17.52380952380952
 76
     3
 10
242.2517443365757
 20
290.9356763484354
 30
0.0
 10
248.977415732943
 20
300.5410918086566
 30
0.0
 10
250.977415732943
 20
300.5410918086566
 30
0.0
213
1.061873878973585
223
0.1482579944929085
233
0.0
1001
ACAD
1000
DSTYLE
1002
{
1070
    41
1040
2.0
1070
    42
1040
1.5
1070
    43
1040
8.0
1070
    44
1040
1.5
1070
    73
1070
     0
1070
    74
1070
     0
1070
    77
1070
     3
1070
   140
1040
2.0
1070
   141
1040
3.0
1070
   146
1040
0.6
1070
   147
1040
1.0
1070
   172
1070
     1
1070
   178
1070
   256
1070
   272
1070
     2
1070
   274
1070
     2
1070
   340
1005
4003
1002
}
  0
DIMENSION
  5
6224
330
1F
100
AcDbEntity
  8
DIM
100
AcDbDimension
  2
*D80
 10
239.9156057584227
 20
172.7191986754191
 30
0.0
 11
220.9156057584227
 21
174.9691986754191
 31
0.0
 70
    32
  1
□<>
 71
     5
 42
37.99999999999989
  3
AM_ANSI
100
AcDbAlignedDimension
 13
201.9156057584228
 23
161.7640355633798
 33
0.0
 14
239.9156057584227
 24
161.7640355633797
 34
0.0
100
AcDbRotatedDimension
1001
ACAD
1000
DSTYLE
1002
{
1070
    41
1040
2.0
1070
    42
1040
1.5
1070
    43
1040
8.0
1070
    44
1040
1.5
1070
    73
1070
     0
1070
    74
1070
     0
1070
    77
1070
     3
1070
   140
1040
2.0
1070
   141
1040
3.0
1070
   146
1040
0.6
1070
   147
1040
1.0
1070
   172
1070
     1
1070
   178
1070
   256
1070
   272
1070
     8
1070
   274
1070
     2
1070
   340
1005
4003
1002
}
  0
DIMENSION
  5
6225
330
1F
100
AcDbEntity
  8
DIM
100
AcDbDimension
  2
*D81
 10
248.1656057584228
 20
179.2938700468683
 30
0.0
 11
220.9156057584228
 21
181.5438700468683
 31
0.0
 70
    32
  1
□<>
 71
     5
 42
54.50000000000006
  3
AM_ANSI
100
AcDbAlignedDimension
 13
193.6656057584228
 23
159.3061323596297
 33
0.0
 14
248.1656057584228
 24
159.3061323596294
 34
0.0
100
AcDbRotatedDimension
1001
ACAD
1000
DSTYLE
1002
{
1070
    41
1040
2.0
1070
    42
1040
1.5
1070
    43
1040
8.0
1070
    44
1040
1.5
1070
    73
1070
     0
1070
    74
1070
     0
1070
    77
1070
     3
1070
   140
1040
2.0
1070
   141
1040
3.0
1070
   146
1040
0.6
1070
   147
1040
1.0
1070
   172
1070
     1
1070
   178
1070
   256
1070
   272
1070
     8
1070
   274
1070
     2
1070
   340
1005
4003
1002
}
  0
MTEXT
  5
6226
330
1F
100
AcDbEntity
  8
DIM
100
AcDbMText
 10
249.4917747198862
 20
171.5600316888223
 30
0.0
 40
2.0
 41
0.0
 71
     1
 72
     1
  1
2x4-M6x1.0
  7
dayus
 73
     1
 44
1.0
1001
ACAD
1000
MTEXTBEGIN
1070
    73
1070
     1
1070
    44
1040
1.0
1070
    74
1070
     0
1000
MTEXTEND
  0
LEADER
  5
6227
330
1F
100
AcDbEntity
  8
DIM
100
AcDbLeader
  3
AM_ANSI$7
 73
     0
 74
     0
 75
     1
 40
2.0
 41
17.52380952380952
 76
     3
 10
242.2517443365775
 20
159.0199768764016
 30
0.0
 10
248.9774157329448
 20
168.6253923366228
 30
0.0
 10
250.9774157329448
 20
168.6253923366228
 30
0.0
213
1.061873878973585
223
0.1482579944929085
233
0.0
1001
ACAD
1000
DSTYLE
1002
{
1070
    41
1040
2.0
1070
    42
1040
1.5
1070
    43
1040
8.0
1070
    44
1040
1.5
1070
    73
1070
     0
1070
    74
1070
     0
1070
    77
1070
     3
1070
   140
1040
2.0
1070
   141
1040
3.0
1070
   146
1040
0.6
1070
   147
1040
1.0
1070
   172
1070
     1
1070
   178
1070
   256
1070
   272
1070
     2
1070
   274
1070
     2
1070
   340
1005
4003
1002
}
  0
DIMENSION
  5
6252
330
1F
100
AcDbEntity
  8
DIM
100
AcDbDimension
  2
*D82
 10
81.31160699621448
 20
170.2471363568179
 30
0.0
 11
77.56160699621453
 21
172.4971363568178
 31
0.0
 70
    32
 71
     5
 42
7.499999999999886
  3
AM_ANSI
100
AcDbAlignedDimension
 13
73.81160699621459
 23
165.3061317039782
 33
0.0
 14
81.31160699621448
 24
145.9160102360927
 34
0.0
100
AcDbRotatedDimension
1001
ACAD
1000
DSTYLE
1002
{
1070
    41
1040
2.0
1070
    42
1040
1.5
1070
    43
1040
8.0
1070
    44
1040
1.5
1070
    73
1070
     0
1070
    74
1070
     0
1070
    77
1070
     3
1070
   140
1040
2.0
1070
   141
1040
3.0
1070
   146
1040
0.6
1070
   147
1040
1.0
1070
   172
1070
     1
1070
   178
1070
   256
1070
   272
1070
     8
1070
   274
1070
     2
1070
   340
1005
4003
1002
}
  0
DIMENSION
  5
6253
330
1F
100
AcDbEntity
  8
DIM
100
AcDbDimension
  2
*D83
 10
123.8116077412726
 20
170.2471363568179
 30
0.0
 11
120.0616073687435
 21
172.4971363568178
 31
0.0
 70
    32
 71
     5
 42
7.500000745058116
  3
AM_ANSI
100
AcDbAlignedDimension
 13
116.3116069962145
 23
144.4160102360927
 33
0.0
 14
123.8116077412726
 24
165.306131703978
 34
0.0
100
AcDbRotatedDimension
1001
ACAD
1000
DSTYLE
1002
{
1070
    41
1040
2.0
1070
    42
1040
1.5
1070
    43
1040
8.0
1070
    44
1040
1.5
1070
    73
1070
     0
1070
    74
1070
     0
1070
    77
1070
     3
1070
   140
1040
2.0
1070
   141
1040
3.0
1070
   146
1040
0.6
1070
   147
1040
1.0
1070
   172
1070
     1
1070
   178
1070
   256
1070
   272
1070
     8
1070
   274
1070
     2
1070
   340
1005
4003
1002
}
  0
DIMENSION
  5
6254
330
1F
100
AcDbEntity
  8
DIM
100
AcDbDimension
  2
*D84
 10
123.8116077412725
 20
184.5393333675933
 30
0.0
 11
98.81160736874345
 21
186.7893333675933
 31
0.0
 70
    32
  1
45+stroke=<>
 71
     5
 42
50.00000074505805
  3
AM_ANSI
100
AcDbAlignedDimension
 13
73.81160699621442
 23
165.3061317039784
 33
0.0
 14
123.8116077412725
 24
165.3061317039781
 34
0.0
100
AcDbRotatedDimension
1001
ACAD
1000
DSTYLE
1002
{
1070
    41
1040
2.0
1070
    42
1040
1.5
1070
    43
1040
8.0
1070
    44
1040
1.5
1070
    73
1070
     0
1070
    74
1070
     0
1070
    77
1070
     3
1070
   140
1040
2.0
1070
   141
1040
3.0
1070
   146
1040
0.6
1070
   147
1040
1.0
1070
   172
1070
     1
1070
   178
1070
   256
1070
   272
1070
     8
1070
   274
1070
     2
1070
   340
1005
4003
1002
}
  0
DIMENSION
  5
6255
330
1F
100
AcDbEntity
  8
DIM
100
AcDbDimension
  2
*D85
 10
123.8116077412725
 20
193.9988229023151
 30
0.0
 11
95.31160726071098
 21
196.2488229023151
 31
0.0
 70
    32
  1
52+stroke=<>
 71
     5
 42
57.00000096112297
  3
AM_ANSI
100
AcDbAlignedDimension
 13
66.81160678014951
 23
143.306132288849
 33
0.0
 14
123.8116077412725
 24
165.3061317039781
 34
0.0
100
AcDbRotatedDimension
1001
ACAD
1000
DSTYLE
1002
{
1070
    41
1040
2.0
1070
    42
1040
1.5
1070
    43
1040
8.0
1070
    44
1040
1.5
1070
    73
1070
     0
1070
    74
1070
     0
1070
    77
1070
     3
1070
   140
1040
2.0
1070
   141
1040
3.0
1070
   146
1040
0.6
1070
   147
1040
1.0
1070
   172
1070
     1
1070
   178
1070
   256
1070
   271
1070
     0
1070
   272
1070
     8
1070
   274
1070
     2
1070
   340
1005
4003
1002
}
  0
DIMENSION
  5
6256
330
1F
100
AcDbEntity
  8
DIM
100
AcDbDimension
  2
*D86
 10
73.81160699621453
 20
184.5393333675933
 30
0.0
 11
70.31160688818109
 21
186.7893333675933
 31
0.0
 70
    32
 71
     5
 42
7.000000216066894
  3
AM_ANSI
100
AcDbAlignedDimension
 13
66.81160678014764
 23
143.0561322478705
 33
0.0
 14
73.81160699621453
 24
165.3061317039782
 34
0.0
100
AcDbRotatedDimension
1001
ACAD
1000
DSTYLE
1002
{
1070
    41
1040
2.0
1070
    42
1040
1.5
1070
    43
1040
8.0
1070
    44
1040
1.5
1070
    73
1070
     0
1070
    74
1070
     0
1070
    77
1070
     3
1070
   140
1040
2.0
1070
   141
1040
3.0
1070
   146
1040
0.6
1070
   147
1040
1.0
1070
   172
1070
     1
1070
   178
1070
   256
1070
   272
1070
     8
1070
   274
1070
     2
1070
   340
1005
4003
1002
}
  0
DIMENSION
  5
6258
330
1F
100
AcDbEntity
  8
DIM
100
AcDbDimension
  2
*D88
 10
87.8116074283481
 20
176.4227325357857
 30
0.0
 11
80.81160721228126
 21
178.6727325357857
 31
0.0
 70
    32
 71
     5
 42
14.00000043213367
  3
AM_ANSI
100
AcDbAlignedDimension
 13
73.81160699621442
 23
165.3061317039784
 33
0.0
 14
87.8116074283481
 24
165.3061317039784
 34
0.0
100
AcDbRotatedDimension
1001
ACAD
1000
DSTYLE
1002
{
1070
    41
1040
2.0
1070
    42
1040
1.5
1070
    43
1040
8.0
1070
    44
1040
1.5
1070
    73
1070
     0
1070
    74
1070
     0
1070
    77
1070
     3
1070
   140
1040
2.0
1070
   141
1040
3.0
1070
   146
1040
0.6
1070
   147
1040
1.0
1070
   172
1070
     1
1070
   178
1070
   256
1070
   272
1070
     8
1070
   274
1070
     2
1070
   340
1005
4003
1002
}
  0
DIMENSION
  5
6259
330
1F
100
AcDbEntity
  8
DIM
100
AcDbDimension
  2
*D89
 10
123.8116077412725
 20
176.4227325357857
 30
0.0
 11
116.811606593883
 21
178.6727325357857
 31
0.0
 70
    32
 71
     5
 42
14.00000229477882
  3
AM_ANSI
100
AcDbAlignedDimension
 13
109.8116054464936
 23
165.3061317039782
 33
0.0
 14
123.8116077412725
 24
165.3061317039781
 34
0.0
100
AcDbRotatedDimension
1001
ACAD
1000
DSTYLE
1002
{
1070
    41
1040
2.0
1070
    42
1040
1.5
1070
    43
1040
8.0
1070
    44
1040
1.5
1070
    73
1070
     0
1070
    74
1070
     0
1070
    77
1070
     3
1070
   140
1040
2.0
1070
   141
1040
3.0
1070
   146
1040
0.6
1070
   147
1040
1.0
1070
   172
1070
     1
1070
   178
1070
   256
1070
   272
1070
     8
1070
   274
1070
     2
1070
   340
1005
4003
1002
}
  0
SOLID
  5
625A
330
1F
100
AcDbEntity
  8
DIM
100
AcDbTrace
 10
66.5646085076328
 20
136.0436455983103
 30
0.0
 11
66.81160678014951
 21
138.0561323596295
 31
0.0
 12
65.92526135653016
 22
136.2325362143329
 32
0.0
 13
65.92526135653016
 23
136.2325362143329
 33
0.0
1001
ACAD
1000
DSTYLE
1002
{
1070
    41
1040
2.0
1070
    42
1040
1.5
1070
    43
1040
8.0
1070
    44
1040
1.5
1070
    73
1070
     0
1070
    74
1070
     0
1070
    77
1070
     3
1070
   140
1040
2.0
1070
   141
1040
3.0
1070
   146
1040
0.6
1070
   147
1040
1.0
1070
   172
1070
     1
1070
   178
1070
   256
1070
   272
1070
     2
1070
   274
1070
     2
1070
   340
1005
4003
1002
}
  0
LWPOLYLINE
  5
625B
330
1F
100
AcDbEntity
  8
DIM
100
AcDbPolyline
 90
        3
 70
     0
 43
0.0
 10
66.24493493208148
 20
136.1380909063216
 10
61.62344856976368
 20
124.9562428114372
 10
47.89700637952999
 20
124.9562428114372
1001
ACAD
1000
DSTYLE
1002
{
1070
    41
1040
2.0
1070
    42
1040
1.5
1070
    43
1040
8.0
1070
    44
1040
1.5
1070
    73
1070
     0
1070
    74
1070
     0
1070
    77
1070
     3
1070
   140
1040
2.0
1070
   141
1040
3.0
1070
   146
1040
0.6
1070
   147
1040
1.0
1070
   172
1070
     1
1070
   178
1070
   256
1070
   272
1070
     2
1070
   274
1070
     2
1070
   340
1005
4003
1002
}
  0
MTEXT
  5
625C
330
1F
100
AcDbEntity
  8
DIM
100
AcDbMText
 10
48.50383117813446
 20
127.5134872153975
 30
0.0
 40
2.0
 41
0.0
 71
     1
 72
     1
  1
M8*1.25
  7
dayus
 73
     1
 44
1.0
1001
ACAD
1000
MTEXTBEGIN
1070
    73
1070
     1
1070
    44
1040
1.0
1070
    74
1070
     0
1000
MTEXTEND
  0
SOLID
  5
625D
330
1F
100
AcDbEntity
  8
DIM
100
AcDbTrace
 10
120.7650910098038
 20
133.9022636735142
 30
0.0
 11
120.1830845421606
 21
135.8445251344747
 31
0.0
 12
121.3635538367292
 22
134.1960096338828
 32
0.0
 13
121.3635538367292
 23
134.1960096338828
 33
0.0
1001
ACAD
1000
DSTYLE
1002
{
1070
    41
1040
2.0
1070
    42
1040
1.5
1070
    43
1040
8.0
1070
    44
1040
1.5
1070
    73
1070
     0
1070
    74
1070
     0
1070
    77
1070
     2
1070
   140
1040
2.0
1070
   141
1040
3.0
1070
   146
1040
0.6
1070
   147
1040
1.0
1070
   172
1070
     1
1070
   178
1070
   256
1070
   272
1070
     2
1070
   274
1070
     2
1070
   340
1005
4003
1002
}
  0
LWPOLYLINE
  5
625E
330
1F
100
AcDbEntity
  8
DIM
100
AcDbPolyline
 90
        3
 70
     0
 43
0.0
 10
120.1830845421854
 20
135.8445251343921
 10
126.1024745553699
 20
125.1734307460912
 10
138.5763203554313
 20
125.1734307460912
1001
ACAD
1000
DSTYLE
1002
{
1070
    41
1040
2.0
1070
    42
1040
1.5
1070
    43
1040
8.0
1070
    44
1040
1.5
1070
    73
1070
     0
1070
    74
1070
     0
1070
    77
1070
     2
1070
   140
1040
2.0
1070
   141
1040
3.0
1070
   146
1040
0.6
1070
   147
1040
1.0
1070
   172
1070
     1
1070
   178
1070
   256
1070
   272
1070
     2
1070
   274
1070
     2
1070
   340
1005
4003
1002
}
  0
MTEXT
  5
625F
330
1F
100
AcDbEntity
  8
DIM
100
AcDbMText
 10
138.2088483527595
 20
125.8956933436758
 30
0.0
 40
2.0
 41
0.0
 71
     9
 72
     1
  1
2-G1/8
  7
dayus
 73
     1
 44
1.0
1001
ACAD
1000
MTEXTBEGIN
1070
    73
1070
     1
1070
    44
1040
1.0
1070
    74
1070
     0
1000
MTEXTEND
  0
LINE
  5
6260
330
1F
100
AcDbEntity
  8
AM_7
  6
ACISOTGB
 62
     2
100
AcDbLine
 10
99.38585544947834
 20
166.3947978104569
 30
0.0
 11
99.38585544947834
 21
104.988726502299
 31
0.0
1001
GENIUS_GENOBJ-N-CEN_13
1002
{
1000
OWNER
1000
GEN
1002
}
1001
GENIUS_GENODEF_13
1002
{
1000
HIER
1070
     0
1002
}
1002
{
1000
MANEDIT
1070
     0
1002
}
1002
{
1000
NOSEL
1070
     0
1002
}
1002
{
1000
BEHIND
1070
     0
1002
}
1002
{
1000
OTHER
1070
     0
1002
}
1002
{
1000
REACTOR
1002
}
1001
GENIUS_GENCEN_19
1002
{
1040
3.0
1002
}
  0
INSERT
  5
6261
330
1F
100
AcDbEntity
  8
0
100
AcDbBlockReference
  2
A$C1F6E6265
 10
99.3858549852718
 20
106.1545458135568
 30
0.0
  0
ARC
  5
6328
330
1F
100
AcDbEntity
  8
0
 62
     3
100
AcDbCircle
 10
201.915605758421
 20
288.9718318316635
 30
0.0
 40
2.747519414585374
100
AcDbArc
 50
350.0000000000014
 51
279.9999999999986
  0
ARC
  5
6329
330
1F
100
AcDbEntity
  8
0
 62
     3
100
AcDbCircle
 10
239.9156057584209
 20
288.9718318316634
 30
0.0
 40
2.747519414585374
100
AcDbArc
 50
350.0000000000014
 51
279.9999999999986
  0
ARC
  5
632A
330
1F
100
AcDbEntity
  8
0
 62
     3
100
AcDbCircle
 10
239.9156057584207
 20
250.9718318316634
 30
0.0
 40
2.747519414585374
100
AcDbArc
 50
350.0000000000014
 51
279.9999999999986
  0
ARC
  5
632B
330
1F
100
AcDbEntity
  8
0
 62
     3
100
AcDbCircle
 10
201.9156057584207
 20
250.9718318316635
 30
0.0
 40
2.747519414585374
100
AcDbArc
 50
350.0000000000014
 51
279.9999999999986
  0
ARC
  5
632C
330
1F
100
AcDbEntity
  8
0
 62
     3
100
AcDbCircle
 10
201.9156057584228
 20
157.0561323596297
 30
0.0
 40
2.747519414585374
100
AcDbArc
 50
350.0000000000014
 51
279.9999999999986
  0
ARC
  5
632D
330
1F
100
AcDbEntity
  8
0
 62
     3
100
AcDbCircle
 10
239.9156057584228
 20
157.0561323596296
 30
0.0
 40
2.747519414585374
100
AcDbArc
 50
350.0000000000014
 51
279.9999999999986
  0
ARC
  5
632E
330
1F
100
AcDbEntity
  8
0
 62
     3
100
AcDbCircle
 10
239.9156057584225
 20
119.0561323596295
 30
0.0
 40
2.747519414585374
100
AcDbArc
 50
350.0000000000014
 51
279.9999999999986
  0
ARC
  5
632F
330
1F
100
AcDbEntity
  8
0
 62
     3
100
AcDbCircle
 10
201.9156057584226
 20
119.0561323596296
 30
0.0
 40
2.747519414585374
100
AcDbArc
 50
350.0000000000014
 51
279.9999999999986
  0
DIMENSION
  5
6331
330
1F
100
AcDbEntity
  8
DIM
100
AcDbDimension
  2
*D90
 10
58.78067281369698
 20
132.0561323074755
 30
0.0
 11
56.53067281369696
 21
138.0561323596296
 31
0.0
 70
    32
  1
%%C<>
 71
     5
 42
12.00000010430835
  3
AM_ANSI
100
AcDbAlignedDimension
 13
68.11064530954599
 23
144.0561324117838
 33
0.0
 14
68.11064530954556
 24
132.0561323074754
 34
0.0
 50
90.0
100
AcDbRotatedDimension
1001
ACAD
1000
DSTYLE
1002
{
1070
    41
1040
2.0
1070
    42
1040
1.5
1070
    43
1040
8.0
1070
    44
1040
1.5
1070
    73
1070
     0
1070
    74
1070
     0
1070
    77
1070
     3
1070
   140
1040
2.0
1070
   141
1040
3.0
1070
   146
1040
0.6
1070
   147
1040
1.0
1070
   172
1070
     1
1070
   178
1070
   256
1070
   272
1070
     8
1070
   274
1070
     2
1070
   340
1005
4003
1002
}
  0
DIMENSION
  5
6388
330
1F
100
AcDbEntity
  8
DIM
100
AcDbDimension
  2
*D92
 10
225.9156057584245
 20
101.6353230542457
 30
0.0
 11
220.9156058143029
 21
103.8853230542457
 31
0.0
 70
    32
 71
     5
 42
9.999999888243166
  3
AM_ANSI
100
AcDbAlignedDimension
 13
215.9156058701813
 23
134.7395075710621
 33
0.0
 14
225.9156057584245
 24
134.7395075692784
 34
0.0
 50
0.0000000000001132
100
AcDbRotatedDimension
1001
ACAD
1000
DSTYLE
1002
{
1070
    41
1040
2.0
1070
    42
1040
1.5
1070
    43
1040
8.0
1070
    44
1040
1.5
1070
    73
1070
     0
1070
    74
1070
     0
1070
    77
1070
     3
1070
   140
1040
2.0
1070
   141
1040
3.0
1070
   146
1040
0.6
1070
   147
1040
1.0
1070
   172
1070
     1
1070
   178
1070
   256
1070
   272
1070
     8
1070
   274
1070
     2
1070
   340
1005
4003
1002
}
  0
ENDSEC
  0
SECTION
  2
OBJECTS
  0
DICTIONARY
  5
C
330
0
100
AcDbDictionary
281
     1
  3
ACAD_COLOR
350
3E77
  3
ACAD_GROUP
350
D
  3
ACAD_LAYOUT
350
1A
  3
ACAD_MATERIAL
350
3E76
  3
ACAD_MLINESTYLE
350
17
  3
ACAD_PLOTSETTINGS
350
19
  3
ACAD_PLOTSTYLENAME
350
E
  3
ACAD_TABLESTYLE
350
3E78
  3
AcadDim
350
1E82
  3
ACDBHEADERROUNDTRIPXREC
350
63F4
  3
AcDbVariableDictionary
350
1488
  3
AcmDictionary
350
3DD5
  3
AMG
350
3DBC
  3
AMGSNAPSETTINGS
350
3E08
  3
DWGPROPS
350
63F3
  3
MAPISURF_MODULE
350
53B8
  0
DICTIONARY
  5
400D
330
2
100
AcDbDictionary
280
     1
281
     1
  3
ACAD_LAYERSTATES
360
400E
  0
DICTIONARY
  5
3D23
330
1F
100
AcDbDictionary
280
     1
281
     1
  3
ACAD_INDEX
360
52C0
  3
ACAD_LAYOUTSELFREF
360
3E5B
  3
ACAD_SORTENTS
360
46BD
  0
DICTIONARY
  5
3D25
330
1B
100
AcDbDictionary
280
     1
281
     1
  3
ACAD_LAYOUTSELFREF
360
3E5A
  0
DICTIONARY
  5
3D27
330
23
100
AcDbDictionary
280
     1
281
     1
  3
ACAD_LAYOUTSELFREF
360
3E5C
  0
DICTIONARY
  5
4F6B
330
4F6A
100
AcDbDictionary
280
     1
281
     1
  0
DICTIONARY
  5
5290
330
528B
100
AcDbDictionary
280
     1
281
     1
  3
ACAD_SORTENTS
360
5BBA
  0
DICTIONARY
  5
3E77
102
{ACAD_REACTORS
330
C
102
}
330
C
100
AcDbDictionary
281
     1
  0
DICTIONARY
  5
D
102
{ACAD_REACTORS
330
C
102
}
330
C
100
AcDbDictionary
281
     1
  0
DICTIONARY
  5
1A
102
{ACAD_REACTORS
330
C
102
}
330
C
100
AcDbDictionary
281
     1
  3
Layout1
350
1E
  3
Layout2
350
26
  3
Model
350
22
  0
DICTIONARY
  5
3E76
102
{ACAD_REACTORS
330
C
102
}
330
C
100
AcDbDictionary
281
     1
  0
DICTIONARY
  5
17
102
{ACAD_REACTORS
330
C
102
}
330
C
100
AcDbDictionary
281
     1
  3
Standard
350
18
  0
DICTIONARY
  5
19
102
{ACAD_REACTORS
330
C
102
}
330
C
100
AcDbDictionary
281
     1
  0
ACDBDICTIONARYWDFLT
  5
E
102
{ACAD_REACTORS
330
C
102
}
330
C
100
AcDbDictionary
281
     1
  3
Normal
350
F
100
AcDbDictionaryWithDefault
340
F
1001
ACAD
1000
TREAT_AS_HARD
1070
     0
  0
DICTIONARY
  5
3E78
102
{ACAD_REACTORS
330
C
102
}
330
C
100
AcDbDictionary
281
     1
  3
Standard
350
3E79
  0
XRECORD
  5
1E82
102
{ACAD_REACTORS
330
C
102
}
330
C
100
AcDbXrecord
280
     1
 90
   990106
  3

 60
     0
 61
     0
 62
     4
 63
     4
 64
     1
 65
     0
 66
     0
 67
     3
 68
     1
 69
     0
 70
     0
 71
     0
 72
     0
 40
0.0
170
     2
340
0
  0
DICTIONARY
  5
63F4
102
{ACAD_REACTORS
330
C
102
}
330
C
100
AcDbDictionary
281
     1
  0
DICTIONARY
  5
1488
102
{ACAD_REACTORS
330
C
102
}
330
C
100
AcDbDictionary
281
     1
  3
CTABLESTYLE
350
457C
  3
DIMASSOC
350
3E74
  3
INDEXCTL
350
3E73
  3
PROJECTNAME
350
4D8B
  3
SORTENTS
350
1489
  0
DICTIONARY
  5
3DD5
102
{ACAD_REACTORS
330
C
102
}
330
C
100
AcDbDictionary
281
     1
  3
AcmStdDictionary
350
3DDB
  3
AMDTSECTSYM_ARROWCOLOR
350
4B25
  0
DICTIONARY
  5
3DBC
102
{ACAD_REACTORS
330
C
102
}
330
C
100
AcDbDictionary
281
     1
  3
AcMgSettings
350
5333
  0
DICTIONARY
  5
3E08
102
{ACAD_REACTORS
330
C
102
}
330
C
100
AcDbDictionary
281
     1
  0
XRECORD
  5
63F3
102
{ACAD_REACTORS
330
C
102
}
330
C
100
AcDbXrecord
280
     1
  1
DWGPROPS COOKIE
  2

  3

  4

  6

  7

  8

  9

300
AmdtFileType=84
301
=
302
=
303
=
304
=
305
=
306
=
307
=
308
=
309
=
 40
0.4203193287037037
 41
2452019.631085301
 42
2456885.442513554
  1

 90
        1
  0
DICTIONARY
  5
400E
102
{ACAD_REACTORS
330
400D
102
}
330
400D
100
AcDbDictionary
281
     1
  0
DICTIONARY
  5
52C0
102
{ACAD_REACTORS
330
3D23
102
}
330
3D23
100
AcDbDictionary
281
     1
  3
*A1
350
52C1
  0
XRECORD
  5
3E5B
102
{ACAD_REACTORS
330
3D23
102
}
330
3D23
100
AcDbXrecord
280
     1
340
1F
  0
SORTENTSTABLE
  5
46BD
102
{ACAD_REACTORS
330
3D23
102
}
330
3D23
100
AcDbSortentsTable
330
1F
331
4CB8
  5
4CB8
331
4C81
  5
4C81
331
4CC0
  5
4CC0
331
4C89
  5
4C89
331
4C91
  5
4C91
331
180C
  5
180C
331
186C
  5
186C
331
1874
  5
1874
331
4C99
  5
4C99
331
4CA1
  5
4CA1
331
4CA9
  5
4CA9
331
4C72
  5
4C72
331
4CB1
  5
4CB1
331
4C7A
  5
4C7A
331
17B5
  5
17B5
331
187C
  5
187C
331
17BD
  5
17BD
331
188C
  5
188C
331
17C5
  5
17C5
331
1805
  5
1805
331
4CB9
  5
4CB9
331
4C82
  5
4C82
331
4C92
  5
4C92
331
180D
  5
180D
331
186D
  5
186D
331
1875
  5
1875
331
4C9A
  5
4C9A
331
4CAA
  5
4CAA
331
4C73
  5
4C73
331
4CB2
  5
4CB2
331
4C7B
  5
4C7B
331
187D
  5
187D
331
1885
  5
1885
331
17BE
  5
17BE
331
188D
  5
188D
331
17C6
  5
17C6
331
1806
  5
1806
331
4CBA
  5
4CBA
331
4C83
  5
4C83
331
180E
  5
180E
331
186E
  5
186E
331
1876
  5
1876
331
4C9B
  5
4C9B
331
4C6C
  5
4C6C
331
4CAB
  5
4CAB
331
4C74
  5
4C74
331
4CB3
  5
4CB3
331
4C7C
  5
4C7C
331
187E
  5
187E
331
1886
  5
1886
331
17BF
  5
17BF
331
188E
  5
188E
331
17C7
  5
17C7
331
1807
  5
1807
331
4CBB
  5
4CBB
331
4C84
  5
4C84
331
180F
  5
180F
331
186F
  5
186F
331
1877
  5
1877
331
4C9C
  5
4C9C
331
A9
  5
A9
331
4C6D
  5
4C6D
331
B1
  5
B1
331
4C75
  5
4C75
331
4CB4
  5
4CB4
331
4C7D
  5
4C7D
331
187F
  5
187F
331
1887
  5
1887
331
188F
  5
188F
331
4CBC
  5
4CBC
331
4C85
  5
4C85
331
4C8D
  5
4C8D
331
1808
  5
1808
331
18E7
  5
18E7
331
1810
  5
1810
331
1868
  5
1868
331
1870
  5
1870
331
4C9D
  5
4C9D
331
AA
  5
AA
331
4C6E
  5
4C6E
331
4CA5
  5
4CA5
331
B2
  5
B2
331
4C76
  5
4C76
331
4CB5
  5
4CB5
331
4C7E
  5
4C7E
331
1878
  5
1878
331
1880
  5
1880
331
1888
  5
1888
331
1890
  5
1890
331
4CBD
  5
4CBD
331
4C86
  5
4C86
331
4C96
  5
4C96
331
1809
  5
1809
331
1869
  5
1869
331
1871
  5
1871
331
AB
  5
AB
331
4C6F
  5
4C6F
331
4C77
  5
4C77
331
4CB6
  5
4CB6
331
4C7F
  5
4C7F
331
10B3
  5
10B3
331
1879
  5
1879
331
1881
  5
1881
331
1889
  5
1889
331
1891
  5
1891
331
1802
  5
1802
331
4CBE
  5
4CBE
331
4C87
  5
4C87
331
4C97
  5
4C97
331
180A
  5
180A
331
186A
  5
186A
331
1872
  5
1872
331
4C70
  5
4C70
331
AC
  5
AC
331
4CAF
  5
4CAF
331
4C78
  5
4C78
331
4CB7
  5
4CB7
331
187A
  5
187A
331
1882
  5
1882
331
188A
  5
188A
331
17C3
  5
17C3
331
1803
  5
1803
331
4C80
  5
4C80
331
4CBF
  5
4CBF
331
4C88
  5
4C88
331
4F67
  5
4F67
331
180B
  5
180B
331
18EA
  5
18EA
331
186B
  5
186B
331
1873
  5
1873
331
4C98
  5
4C98
331
4C71
  5
4C71
331
4CB0
  5
4CB0
331
4C79
  5
4C79
331
17B4
  5
17B4
331
187B
  5
187B
331
1883
  5
1883
331
188B
  5
188B
331
17C4
  5
17C4
331
1804
  5
1804
  0
XRECORD
  5
3E5A
102
{ACAD_REACTORS
330
3D25
102
}
330
3D25
100
AcDbXrecord
280
     1
340
1B
  0
XRECORD
  5
3E5C
102
{ACAD_REACTORS
330
3D27
102
}
330
3D27
100
AcDbXrecord
280
     1
340
23
  0
SORTENTSTABLE
  5
5BBA
102
{ACAD_REACTORS
330
5290
102
}
330
5290
100
AcDbSortentsTable
330
528B
  0
LAYOUT
  5
1E
102
{ACAD_XDICTIONARY
360
63F5
102
}
102
{ACAD_REACTORS
330
1A
102
}
330
1A
100
AcDbPlotSettings
  1

  2

  4

  6

 40
0.0
 41
0.0
 42
0.0
 43
0.0
 44
0.0
 45
0.0
 46
0.0
 47
0.0
 48
0.0
 49
0.0
140
0.0
141
0.0
142
1.0
143
1.0
 70
   688
 72
     0
 73
     0
 74
     5
  7

 75
    16
147
1.0
148
0.0
149
0.0
100
AcDbLayout
  1
Layout1
 70
     1
 71
     1
 10
0.0
 20
0.0
 11
12.0
 21
9.0
 12
0.0
 22
0.0
 32
0.0
 14
1.000000000000000E+20
 24
1.000000000000000E+20
 34
1.000000000000000E+20
 15
-1.000000000000000E+20
 25
-1.000000000000000E+20
 35
-1.000000000000000E+20
146
0.0
 13
0.0
 23
0.0
 33
0.0
 16
1.0
 26
0.0
 36
0.0
 17
0.0
 27
1.0
 37
0.0
 76
     0
330
1B
  0
LAYOUT
  5
26
102
{ACAD_XDICTIONARY
360
63F9
102
}
102
{ACAD_REACTORS
330
1A
102
}
330
1A
100
AcDbPlotSettings
  1

  2

  4

  6

 40
0.0
 41
0.0
 42
0.0
 43
0.0
 44
0.0
 45
0.0
 46
0.0
 47
0.0
 48
0.0
 49
0.0
140
0.0
141
0.0
142
1.0
143
1.0
 70
   688
 72
     0
 73
     0
 74
     5
  7

 75
    16
147
1.0
148
0.0
149
0.0
100
AcDbLayout
  1
Layout2
 70
     1
 71
     2
 10
0.0
 20
0.0
 11
12.0
 21
9.0
 12
0.0
 22
0.0
 32
0.0
 14
0.0
 24
0.0
 34
0.0
 15
0.0
 25
0.0
 35
0.0
146
0.0
 13
0.0
 23
0.0
 33
0.0
 16
1.0
 26
0.0
 36
0.0
 17
0.0
 27
1.0
 37
0.0
 76
     0
330
23
  0
LAYOUT
  5
22
102
{ACAD_XDICTIONARY
360
63F7
102
}
102
{ACAD_REACTORS
330
1A
102
}
330
1A
100
AcDbPlotSettings
  1

  2
DWF Classic.pc3
  4
ISO_A3_(420.00_x_297.00_MM)
  6

 40
5.793749809265136
 41
17.79375076293945
 42
5.79376220703125
 43
17.79376220703125
 44
420.0
 45
297.0
 46
58.62
 47
0.0
 48
0.0
 49
0.0
140
0.0
141
0.0
142
1.0
143
1.040956525863997
 70
 11956
 72
     1
 73
     1
 74
     1
  7

 75
     0
147
0.9606549122404478
148
0.4787910136826668
149
0.4766328058566387
100
AcDbLayout
  1
Model
 70
     1
 71
     0
 10
0.0
 20
0.0
 11
12.0
 21
9.0
 12
0.0
 22
0.0
 32
0.0
 14
0.0
 24
0.0
 34
0.0
 15
0.0
 25
0.0
 35
0.0
146
0.0
 13
0.0
 23
0.0
 33
0.0
 16
1.0
 26
0.0
 36
0.0
 17
0.0
 27
1.0
 37
0.0
 76
     0
330
1F
  0
MLINESTYLE
  5
18
102
{ACAD_REACTORS
330
17
102
}
330
17
100
AcDbMlineStyle
  2
STANDARD
 70
     0
  3

 62
   256
 51
90.0
 52
90.0
 71
     2
 49
0.5
 62
   256
  6
BYLAYER
 49
-0.5
 62
   256
  6
BYLAYER
  0
ACDBPLACEHOLDER
  5
F
102
{ACAD_REACTORS
330
E
102
}
330
E
  0
TABLESTYLE
  5
3E79
102
{ACAD_REACTORS
330
3E78
102
}
330
3E78
100
AcDbTableStyle
  3
Standard
 70
     0
 71
     0
 40
1.5
 41
1.5
280
     0
281
     0
  7
Standard
140
4.5
170
     2
 62
     0
 63
     7
283
     0
274
    -2
284
     1
 64
     0
275
    -2
285
     1
 65
     0
276
    -2
286
     1
 66
     0
277
    -2
287
     1
 67
     0
278
    -2
288
     1
 68
     0
279
    -2
289
     1
 69
     0
  7
Standard
140
6.0
170
     5
 62
     0
 63
     7
283
     0
274
    -2
284
     1
 64
     0
275
    -2
285
     1
 65
     0
276
    -2
286
     1
 66
     0
277
    -2
287
     1
 67
     0
278
    -2
288
     1
 68
     0
279
    -2
289
     1
 69
     0
  7
Standard
140
4.5
170
     5
 62
     0
 63
     7
283
     0
274
    -2
284
     1
 64
     0
275
    -2
285
     1
 65
     0
276
    -2
286
     1
 66
     0
277
    -2
287
     1
 67
     0
278
    -2
288
     1
 68
     0
279
    -2
289
     1
 69
     0
  0
DICTIONARYVAR
  5
457C
102
{ACAD_REACTORS
330
1488
102
}
330
1488
100
DictionaryVariables
280
     0
  1
STANDARD
  0
DICTIONARYVAR
  5
3E74
102
{ACAD_REACTORS
330
1488
102
}
330
1488
100
DictionaryVariables
280
     0
  1
1
  0
DICTIONARYVAR
  5
3E73
102
{ACAD_REACTORS
330
1488
102
}
330
1488
100
DictionaryVariables
280
     0
  1
1
  0
DICTIONARYVAR
  5
4D8B
102
{ACAD_REACTORS
330
1488
102
}
330
1488
100
DictionaryVariables
280
     0
  1

  0
DICTIONARYVAR
  5
1489
102
{ACAD_REACTORS
330
1488
102
}
330
1488
100
DictionaryVariables
280
     0
  1
96
  0
DICTIONARY
  5
3DDB
102
{ACAD_REACTORS
330
3DD5
102
}
330
3DD5
100
AcDbDictionary
281
     1
  0
XRECORD
  5
4B25
102
{ACAD_REACTORS
330
3DD5
102
}
330
3DD5
100
AcDbXrecord
280
     1
 90
-1023410169
  0
DICTIONARY
  5
5333
102
{ACAD_REACTORS
330
3DBC
102
}
330
3DBC
100
AcDbDictionary
281
     1
  3
DWGSETTINGS
350
5334
  3
TRANSSETTINGS
350
5337
  0
LAYER_INDEX
  5
52C1
102
{ACAD_REACTORS
330
52C0
102
}
330
52C0
100
AcDbIndex
 40
2456885.442513554
100
AcDbLayerIndex
  8
0
360
52C2
 90
      581
  8
DIM
360
52C3
 90
       37
  8
CENTER
360
52C4
 90
       42
  8
LOGO
360
52C5
 90
      127
  8
Defpoints
360
52C6
 90
        0
  8
AM_CL
360
52C7
 90
        0
  8
AM_7
360
52C8
 90
        2
  8
AM_5
360
52C9
 90
        0
  0
DICTIONARY
  5
63F5
330
1E
100
AcDbDictionary
280
     1
281
     1
  3
ACAD_XREC_ROUNDTRIP
360
63F6
  0
DICTIONARY
  5
63F9
330
26
100
AcDbDictionary
280
     1
281
     1
  3
ACAD_XREC_ROUNDTRIP
360
63FA
  0
DICTIONARY
  5
63F7
330
22
100
AcDbDictionary
280
     1
281
     1
  3
ACAD_XREC_ROUNDTRIP
360
63F8
  0
IDBUFFER
  5
52C2
330
0
100
AcDbIdBuffer
330
57B6
330
57B7
330
57B8
330
57B9
330
57BA
330
57BB
330
57BC
330
57BD
330
57BE
330
57BF
330
57C0
330
57C1
330
57C2
330
57C3
330
57C4
330
57C5
330
57C6
330
57C7
330
57C8
330
57C9
330
57CA
330
57CB
330
57CC
330
57CD
330
57CE
330
57CF
330
57D0
330
57D1
330
57D2
330
57D3
330
57D4
330
57D5
330
57D6
330
57D7
330
57D8
330
57D9
330
57DA
330
57DB
330
57DC
330
57DD
330
57DE
330
57DF
330
57E0
330
57E1
330
57E2
330
57E3
330
57E4
330
57E5
330
57E6
330
57E7
330
57E8
330
57E9
330
57EA
330
57EB
330
57EC
330
57ED
330
57EE
330
57EF
330
57F0
330
57F1
330
57F2
330
57F3
330
57F4
330
57F5
330
57F6
330
57F7
330
57F8
330
57F9
330
57FA
330
57FB
330
57FC
330
57FD
330
57FE
330
57FF
330
5800
330
5801
330
5802
330
5803
330
5804
330
5805
330
5806
330
5807
330
5808
330
5809
330
580A
330
580B
330
580C
330
580D
330
580E
330
580F
330
5810
330
5811
330
5812
330
5813
330
5814
330
5815
330
5816
330
5817
330
5818
330
5819
330
581A
330
581B
330
581C
330
581D
330
581E
330
581F
330
5820
330
5821
330
5822
330
5823
330
5824
330
5825
330
5826
330
5827
330
5828
330
5829
330
582A
330
582B
330
582C
330
582D
330
582E
330
582F
330
5830
330
5831
330
5832
330
5833
330
5834
330
5835
330
5836
330
5837
330
5838
330
5839
330
583A
330
583B
330
583C
330
583D
330
583E
330
583F
330
5840
330
5841
330
5842
330
5843
330
5844
330
5845
330
5846
330
5847
330
5848
330
5849
330
584A
330
584B
330
584C
330
584D
330
584E
330
584F
330
5850
330
5851
330
5852
330
5853
330
5854
330
5855
330
5856
330
5857
330
5858
330
5859
330
585A
330
585B
330
632F
330
632E
330
632D
330
632C
330
632B
330
632A
330
6329
330
6328
330
6261
330
618F
330
618E
330
618D
330
618C
330
618B
330
5E05
330
5DCF
330
5DBA
330
5DB9
330
A9
330
AA
330
AB
330
AC
330
B1
330
B2
330
10B3
330
17B4
330
17B5
330
17BF
330
18E7
330
18EA
330
4CC1
330
4CC2
330
4CC3
330
4F67
330
5638
330
5639
330
563A
330
563B
330
563C
330
563D
330
563E
330
563F
330
5640
330
5641
330
5642
330
5643
330
5644
330
5645
330
5646
330
5647
330
5648
330
5649
330
564A
330
564B
330
564C
330
564D
330
564E
330
564F
330
5650
330
5651
330
5652
330
5653
330
5654
330
5655
330
5656
330
5657
330
5658
330
5659
330
565A
330
565B
330
565C
330
565D
330
565E
330
565F
330
5660
330
5661
330
5662
330
5663
330
5664
330
5665
330
5666
330
5667
330
5668
330
5669
330
566A
330
566B
330
566C
330
566D
330
566E
330
566F
330
5670
330
5671
330
5672
330
5673
330
5674
330
5675
330
5676
330
5677
330
5678
330
5679
330
567A
330
567B
330
567C
330
567D
330
567E
330
567F
330
5680
330
5681
330
5682
330
5683
330
5684
330
5685
330
5686
330
5687
330
5688
330
5689
330
568A
330
568B
330
568C
330
568D
330
568E
330
568F
330
5690
330
5691
330
5692
330
5693
330
5694
330
5695
330
5696
330
5697
330
5698
330
5699
330
569A
330
569B
330
569C
330
569D
330
569E
330
569F
330
56A0
330
56A1
330
56A2
330
56A3
330
56A4
330
56A5
330
56A6
330
56A7
330
56A8
330
56A9
330
56AA
330
56AB
330
56AC
330
56AD
330
56AE
330
56AF
330
56B0
330
56B1
330
56B2
330
56B3
330
56B4
330
56B5
330
56B6
330
56B7
330
56B8
330
56B9
330
56BA
330
56BB
330
56BC
330
56BD
330
56BE
330
56BF
330
56C0
330
56C1
330
56C2
330
56C3
330
56C4
330
56C5
330
56C6
330
56C7
330
56C8
330
56C9
330
56CA
330
56CB
330
56CC
330
56CD
330
56CE
330
56CF
330
56D0
330
56D1
330
56D2
330
56D3
330
56D4
330
56D5
330
56D6
330
56D7
330
56D8
330
56D9
330
56DA
330
56DB
330
56DC
330
56DD
330
56DE
330
56DF
330
56E0
330
56E1
330
56E2
330
56E3
330
56E4
330
56E5
330
56E6
330
56E7
330
56E8
330
56E9
330
56EA
330
56EB
330
56EC
330
56ED
330
56EE
330
56EF
330
56F0
330
56F1
330
56F2
330
56F3
330
56F4
330
56F5
330
56F6
330
56F7
330
56F8
330
56F9
330
56FA
330
56FB
330
56FC
330
56FD
330
56FE
330
56FF
330
5700
330
5701
330
5702
330
5703
330
57B5
330
5705
330
5706
330
5707
330
5708
330
5709
330
570A
330
570B
330
570C
330
570D
330
570E
330
570F
330
5710
330
5711
330
5712
330
5713
330
5714
330
5715
330
5716
330
5717
330
5718
330
5719
330
571A
330
571B
330
571C
330
571D
330
571E
330
571F
330
5720
330
5721
330
5722
330
5723
330
5724
330
5725
330
5726
330
5727
330
5728
330
5729
330
572A
330
572B
330
572C
330
572D
330
572E
330
572F
330
5730
330
5731
330
5732
330
5733
330
5734
330
5735
330
5736
330
5737
330
5738
330
5739
330
573A
330
573B
330
573C
330
573D
330
573E
330
573F
330
5740
330
5741
330
5742
330
5743
330
5744
330
5745
330
5746
330
5747
330
5748
330
5749
330
574A
330
574B
330
574C
330
574D
330
574E
330
574F
330
5750
330
5751
330
5752
330
5753
330
5754
330
5755
330
5756
330
5757
330
5758
330
5759
330
575A
330
575B
330
575C
330
575D
330
575E
330
575F
330
5760
330
5761
330
5762
330
5763
330
5764
330
5765
330
5766
330
5767
330
5768
330
5769
330
576A
330
576B
330
576C
330
576D
330
576E
330
576F
330
5770
330
5771
330
5772
330
5773
330
5774
330
5775
330
5776
330
5777
330
5778
330
5779
330
577A
330
577B
330
577C
330
577D
330
577E
330
577F
330
5780
330
5781
330
5782
330
5783
330
5784
330
5785
330
5786
330
5787
330
5788
330
5789
330
578A
330
578B
330
578C
330
578D
330
578E
330
578F
330
5790
330
5791
330
5792
330
5793
330
5794
330
5795
330
5796
330
5797
330
5798
330
5799
330
579A
330
579B
330
579C
330
579D
330
579E
330
579F
330
57A0
330
57A1
330
57A2
330
57A3
330
57A4
330
57A5
330
57A6
330
57A7
330
57A8
330
57A9
330
57AA
330
57AB
330
57AC
330
57AD
330
57AE
330
57AF
330
57B0
330
57B1
330
57B2
330
57B3
330
57B4
  0
IDBUFFER
  5
52C3
330
0
100
AcDbIdBuffer
330
6252
330
6253
330
6254
330
6255
330
6256
330
625F
330
6258
330
6259
330
625A
330
625B
330
625C
330
625D
330
625E
330
6331
330
6388
330
5DBB
330
5DBC
330
5DBD
330
5DBE
330
5DBF
330
5DC0
330
5DC1
330
5DC2
330
5DC3
330
5DC4
330
5DC5
330
5DC6
330
5DC7
330
5DC8
330
6227
330
6226
330
6225
330
6224
330
6222
330
61C1
330
61C0
330
61BF
  0
IDBUFFER
  5
52C4
330
0
100
AcDbIdBuffer
330
61BC
330
61BD
330
61BE
330
5DD2
330
5DD1
330
5DCD
330
61BB
330
61BA
330
61B9
330
61B8
330
61B7
330
61B6
330
61B5
330
61B4
330
61B3
330
61B2
330
61B1
330
61B0
330
61AF
330
61AE
330
61AD
330
61AC
330
6190
330
6191
330
6192
330
6193
330
619A
330
619B
330
619C
330
619D
330
61A0
330
61A1
330
61A2
330
61A3
330
61A4
330
61A5
330
61A6
330
61A7
330
61A8
330
61A9
330
61AA
330
61AB
  0
IDBUFFER
  5
52C5
330
0
100
AcDbIdBuffer
330
17BD
330
17BE
330
17C3
330
17C4
330
17C5
330
17C6
330
17C7
330
1802
330
1803
330
1804
330
1805
330
1806
330
1807
330
1808
330
1809
330
180A
330
180B
330
180C
330
180D
330
180E
330
180F
330
1810
330
1868
330
1869
330
186A
330
186B
330
186C
330
186D
330
186E
330
186F
330
1870
330
1871
330
1872
330
1873
330
1874
330
1875
330
1876
330
1877
330
1878
330
1879
330
187A
330
187B
330
187C
330
187D
330
187E
330
187F
330
1880
330
1881
330
1882
330
1883
330
1885
330
1886
330
1887
330
1888
330
1889
330
188A
330
188B
330
188C
330
188D
330
188E
330
188F
330
1890
330
1891
330
4C6C
330
4C6D
330
4C6E
330
4C6F
330
4C70
330
4C71
330
4C72
330
4C73
330
4C74
330
4C75
330
4C76
330
4C77
330
4C78
330
4C79
330
4C7A
330
4C7B
330
4C7C
330
4C7D
330
4C7E
330
4C7F
330
4C80
330
4C81
330
4C82
330
4C83
330
4C84
330
4C85
330
4C86
330
4C87
330
4C88
330
4C89
330
4C8D
330
4C91
330
4C92
330
4C96
330
4C97
330
4C98
330
4C99
330
4C9A
330
4C9B
330
4C9C
330
4C9D
330
4CA1
330
4CA5
330
4CA9
330
4CAA
330
4CAB
330
4CAF
330
4CB0
330
4CB1
330
4CB2
330
4CB3
330
4CB4
330
4CB5
330
4CB6
330
4CB7
330
4CB8
330
4CB9
330
4CBA
330
4CBB
330
4CBC
330
4CBD
330
4CBE
330
4CBF
330
4CC0
  0
IDBUFFER
  5
52C6
330
0
100
AcDbIdBuffer
  0
IDBUFFER
  5
52C7
330
0
100
AcDbIdBuffer
  0
IDBUFFER
  5
52C8
330
0
100
AcDbIdBuffer
330
6260
330
5DCE
  0
IDBUFFER
  5
52C9
330
0
100
AcDbIdBuffer
  0
XRECORD
  5
63F6
102
{ACAD_REACTORS
330
63F5
102
}
330
63F5
100
AcDbXrecord
280
     1
102
SHADEPLOT
 70
     0
102
SHADEPLOTRESLEVEL
 70
     2
102
SHADEPLOTCUSTOMDPI
 70
   300
  0
XRECORD
  5
63FA
102
{ACAD_REACTORS
330
63F9
102
}
330
63F9
100
AcDbXrecord
280
     1
102
SHADEPLOT
 70
     0
102
SHADEPLOTRESLEVEL
 70
     2
102
SHADEPLOTCUSTOMDPI
 70
   300
  0
XRECORD
  5
63F8
102
{ACAD_REACTORS
330
63F7
102
}
330
63F7
100
AcDbXrecord
280
     1
102
SHADEPLOT
 70
     0
102
SHADEPLOTRESLEVEL
 70
     2
102
SHADEPLOTCUSTOMDPI
 70
   300
  0
ENDSEC
  0
EOF
