  0
SECTION
  2
HEADER
  9
$ACADVER
  1
AC1015
  9
$ACADMAINTVER
 70
    20
  9
$DWGCODEPAGE
  3
ANSI_950
  9
$INSBASE
 10
0.0
 20
0.0
 30
0.0
  9
$EXTMIN
 10
5.16183393303017
 20
39.17661572076799
 30
0.0
  9
$EXTMAX
 10
342.6061282506338
 20
429.3352408078676
 30
241.4738597128918
  9
$LIMMIN
 10
0.0
 20
0.0
  9
$LIMMAX
 10
12.0
 20
9.0
  9
$ORTHOMODE
 70
     0
  9
$REGENMODE
 70
     1
  9
$FILLMODE
 70
     1
  9
$QTEXTMODE
 70
     0
  9
$MIRRTEXT
 70
     1
  9
$LTSCALE
 40
5.0
  9
$ATTMODE
 70
     1
  9
$TEXTSIZE
 40
4.5
  9
$TRACEWID
 40
0.05
  9
$TEXTSTYLE
  7
CHINESET
  9
$CLAYER
  8
0
  9
$CELTYPE
  6
ByLayer
  9
$CECOLOR
 62
   256
  9
$CELTSCALE
 40
1.0
  9
$DISPSILH
 70
     0
  9
$DIMSCALE
 40
1.0
  9
$DIMASZ
 40
3.0
  9
$DIMEXO
 40
3.0
  9
$DIMDLI
 40
2.0
  9
$DIMRND
 40
0.0
  9
$DIMDLE
 40
0.0
  9
$DIMEXE
 40
2.0
  9
$DIMTP
 40
0.0
  9
$DIMTM
 40
0.0
  9
$DIMTXT
 40
3.0
  9
$DIMCEN
 40
-3.0
  9
$DIMTSZ
 40
0.0
  9
$DIMTOL
 70
     0
  9
$DIMLIM
 70
     0
  9
$DIMTIH
 70
     0
  9
$DIMTOH
 70
     0
  9
$DIMSE1
 70
     0
  9
$DIMSE2
 70
     0
  9
$DIMTAD
 70
     1
  9
$DIMZIN
 70
     8
  9
$DIMBLK
  1

  9
$DIMASO
 70
     1
  9
$DIMSHO
 70
     1
  9
$DIMPOST
  1

  9
$DIMAPOST
  1

  9
$DIMALT
 70
     0
  9
$DIMALTD
 70
     2
  9
$DIMALTF
 40
25.4
  9
$DIMLFAC
 40
1.0
  9
$DIMTOFL
 70
     1
  9
$DIMTVP
 40
0.0
  9
$DIMTIX
 70
     0
  9
$DIMSOXD
 70
     0
  9
$DIMSAH
 70
     0
  9
$DIMBLK1
  1

  9
$DIMBLK2
  1

  9
$DIMSTYLE
  2
ISO-25-1
  9
$DIMCLRD
 70
   256
  9
$DIMCLRE
 70
   256
  9
$DIMCLRT
 70
   256
  9
$DIMTFAC
 40
0.7
  9
$DIMGAP
 40
1.0
  9
$DIMJUST
 70
     0
  9
$DIMSD1
 70
     0
  9
$DIMSD2
 70
     0
  9
$DIMTOLJ
 70
     1
  9
$DIMTZIN
 70
     8
  9
$DIMALTZ
 70
     0
  9
$DIMALTTZ
 70
     0
  9
$DIMUPT
 70
     0
  9
$DIMDEC
 70
     2
  9
$DIMTDEC
 70
     8
  9
$DIMALTU
 70
     2
  9
$DIMALTTD
 70
     2
  9
$DIMTXSTY
  7
CHINESET
  9
$DIMAUNIT
 70
     0
  9
$DIMADEC
 70
     0
  9
$DIMALTRND
 40
0.0
  9
$DIMAZIN
 70
     2
  9
$DIMDSEP
 70
    46
  9
$DIMATFIT
 70
     0
  9
$DIMFRAC
 70
     0
  9
$DIMLDRBLK
  1

  9
$DIMLUNIT
 70
     2
  9
$DIMLWD
 70
    -1
  9
$DIMLWE
 70
    -1
  9
$DIMTMOVE
 70
     0
  9
$LUNITS
 70
     2
  9
$LUPREC
 70
     2
  9
$SKETCHINC
 40
0.1
  9
$FILLETRAD
 40
0.5
  9
$AUNITS
 70
     0
  9
$AUPREC
 70
     0
  9
$MENU
  1
.
  9
$ELEVATION
 40
0.0
  9
$PELEVATION
 40
0.0
  9
$THICKNESS
 40
0.0
  9
$LIMCHECK
 70
     0
  9
$CHAMFERA
 40
1.0
  9
$CHAMFERB
 40
1.0
  9
$CHAMFERC
 40
1.0
  9
$CHAMFERD
 40
0.0
  9
$SKPOLY
 70
     0
  9
$TDCREATE
 40
2452019.631085301
  9
$TDUCREATE
 40
2452019.297751968
  9
$TDUPDATE
 40
2456885.443725220
  9
$TDUUPDATE
 40
2456885.110391886
  9
$TDINDWG
 40
0.6625920718
  9
$TDUSRTIMER
 40
0.6625920718
  9
$USRTIMER
 70
     1
  9
$ANGBASE
 50
0.0
  9
$ANGDIR
 70
     0
  9
$PDMODE
 70
     0
  9
$PDSIZE
 40
0.0
  9
$PLINEWID
 40
0.0
  9
$SPLFRAME
 70
     0
  9
$SPLINETYPE
 70
     6
  9
$SPLINESEGS
 70
     8
  9
$HANDSEED
  5
6F3F
  9
$SURFTAB1
 70
     6
  9
$SURFTAB2
 70
     6
  9
$SURFTYPE
 70
     6
  9
$SURFU
 70
     6
  9
$SURFV
 70
     6
  9
$UCSBASE
  2

  9
$UCSNAME
  2

  9
$UCSORG
 10
0.0
 20
0.0
 30
0.0
  9
$UCSXDIR
 10
1.0
 20
0.0
 30
0.0
  9
$UCSYDIR
 10
0.0
 20
1.0
 30
0.0
  9
$UCSORTHOREF
  2

  9
$UCSORTHOVIEW
 70
     0
  9
$UCSORGTOP
 10
0.0
 20
0.0
 30
0.0
  9
$UCSORGBOTTOM
 10
0.0
 20
0.0
 30
0.0
  9
$UCSORGLEFT
 10
0.0
 20
0.0
 30
0.0
  9
$UCSORGRIGHT
 10
0.0
 20
0.0
 30
0.0
  9
$UCSORGFRONT
 10
0.0
 20
0.0
 30
0.0
  9
$UCSORGBACK
 10
0.0
 20
0.0
 30
0.0
  9
$PUCSBASE
  2

  9
$PUCSNAME
  2

  9
$PUCSORG
 10
0.0
 20
0.0
 30
0.0
  9
$PUCSXDIR
 10
1.0
 20
0.0
 30
0.0
  9
$PUCSYDIR
 10
0.0
 20
1.0
 30
0.0
  9
$PUCSORTHOREF
  2

  9
$PUCSORTHOVIEW
 70
     0
  9
$PUCSORGTOP
 10
0.0
 20
0.0
 30
0.0
  9
$PUCSORGBOTTOM
 10
0.0
 20
0.0
 30
0.0
  9
$PUCSORGLEFT
 10
0.0
 20
0.0
 30
0.0
  9
$PUCSORGRIGHT
 10
0.0
 20
0.0
 30
0.0
  9
$PUCSORGFRONT
 10
0.0
 20
0.0
 30
0.0
  9
$PUCSORGBACK
 10
0.0
 20
0.0
 30
0.0
  9
$USERI1
 70
     0
  9
$USERI2
 70
     0
  9
$USERI3
 70
     0
  9
$USERI4
 70
     0
  9
$USERI5
 70
     0
  9
$USERR1
 40
0.0
  9
$USERR2
 40
0.0
  9
$USERR3
 40
0.0
  9
$USERR4
 40
0.0
  9
$USERR5
 40
0.0
  9
$WORLDVIEW
 70
     1
  9
$SHADEDGE
 70
     3
  9
$SHADEDIF
 70
    70
  9
$TILEMODE
 70
     1
  9
$MAXACTVP
 70
    48
  9
$PINSBASE
 10
0.0
 20
0.0
 30
0.0
  9
$PLIMCHECK
 70
     0
  9
$PEXTMIN
 10
1.000000000000000E+20
 20
1.000000000000000E+20
 30
1.000000000000000E+20
  9
$PEXTMAX
 10
-1.000000000000000E+20
 20
-1.000000000000000E+20
 30
-1.000000000000000E+20
  9
$PLIMMIN
 10
0.0
 20
0.0
  9
$PLIMMAX
 10
12.0
 20
9.0
  9
$UNITMODE
 70
     0
  9
$VISRETAIN
 70
     1
  9
$PLINEGEN
 70
     0
  9
$PSLTSCALE
 70
     1
  9
$TREEDEPTH
 70
  3020
  9
$CMLSTYLE
  2
Standard
  9
$CMLJUST
 70
     0
  9
$CMLSCALE
 40
1.0
  9
$PROXYGRAPHICS
 70
     1
  9
$MEASUREMENT
 70
     1
  9
$CELWEIGHT
370
    -1
  9
$ENDCAPS
280
     0
  9
$JOINSTYLE
280
     0
  9
$LWDISPLAY
290
     0
  9
$INSUNITS
 70
     1
  9
$HYPERLINKBASE
  1

  9
$STYLESHEET
  1
彩色出圖.ctb
  9
$XEDIT
290
     1
  9
$CEPSNTYPE
380
     0
  9
$PSTYLEMODE
290
     1
  9
$FINGERPRINTGUID
  2
{FDEAD576-A652-11D2-9A35-0060089B3A3F}
  9
$VERSIONGUID
  2
{CA65D341-37BE-455C-A55F-DD7A9ED5B56A}
  9
$EXTNAMES
290
     1
  9
$PSVPSCALE
 40
0.0
  9
$OLESTARTUP
290
     0
  0
ENDSEC
  0
SECTION
  2
CLASSES
  0
CLASS
  1
ACDBDICTIONARYWDFLT
  2
AcDbDictionaryWithDefault
  3
ObjectDBX Classes
 90
        0
280
     0
281
     0
  0
CLASS
  1
ACDBPLACEHOLDER
  2
AcDbPlaceHolder
  3
ObjectDBX Classes
 90
        0
280
     0
281
     0
  0
CLASS
  1
LAYOUT
  2
AcDbLayout
  3
ObjectDBX Classes
 90
        0
280
     0
281
     0
  0
CLASS
  1
DICTIONARYVAR
  2
AcDbDictionaryVar
  3
ObjectDBX Classes
 90
        0
280
     0
281
     0
  0
CLASS
  1
ACME_DOCUMENT
  2
AcMeDbDoc
  3
AcMeServices
 90
        0
280
     0
281
     0
  0
CLASS
  1
AMGSETTINGSOBJ
  2
AmgSettingsObj
  3
"AcadM|Product Description: AutoCAD Mechanical 2000|Company: Autodesk"
 90
        0
280
     0
281
     0
  0
CLASS
  1
ACMESCOPE
  2
AcMeScope
  3
AcMeServices
 90
        0
280
     0
281
     0
  0
CLASS
  1
ACMECOMMANDHISTORY
  2
AcMeCommandHistory
  3
AcMeServices
 90
        0
280
     0
281
     0
  0
CLASS
  1
ACIMSYSVARMAN
  2
AcImSysVarManager
  3
AcMeServices
 90
        0
280
     0
281
     0
  0
CLASS
  1
ACIMREALSYSVAR
  2
AcImRealSysVar
  3
AcMeServices
 90
        0
280
     0
281
     0
  0
CLASS
  1
ACIMINTSYSVAR
  2
AcImIntSysVar
  3
AcMeServices
 90
        0
280
     0
281
     0
  0
CLASS
  1
ACMEDRAWINGMAN
  2
AcMeDrawingMan
  3
AcMeServices
 90
        0
280
     0
281
     0
  0
CLASS
  1
ACMEVIEW
  2
AcMeView
  3
AcMeServices
 90
        0
280
     0
281
     0
  0
CLASS
  1
ACDBENTITYCACHE
  2
AcMeEntityCache
  3
AcMeServices
 90
        0
280
     0
281
     0
  0
CLASS
  1
GSMANAGER
  2
AcMeGSManager
  3
AcMeServices
 90
        0
280
     0
281
     0
  0
CLASS
  1
AMDTINTERNALREACTOR
  2
AmdtInternalReactor
  3
AcMeServices
 90
        0
280
     0
281
     0
  0
CLASS
  1
ACMESTATEMGR
  2
AcMeStateMgr
  3
AcMeServices
 90
        0
280
     0
281
     0
  0
CLASS
  1
ACGREFMASTER
  2
AcGrefMaster
  3
AcAttribServices
 90
        0
280
     0
281
     0
  0
CLASS
  1
ACME_DATABASE
  2
AcMeDbDatabase
  3
AcMeServices
 90
        0
280
     0
281
     0
  0
CLASS
  1
ACRFINSADJUSTERMGR
  2
AcRfInsAdjusterMgr
  3
AcMeServices
 90
        0
280
     0
281
     0
  0
CLASS
  1
ACGREFACADMASTER
  2
AcGrefacadMaster
  3
AcGrefServices
 90
        0
280
     0
281
     0
  0
CLASS
  1
AMIMASTER
  2
AmiMaster
  3
AmiServices
 90
        0
280
     0
281
     0
  0
CLASS
  1
ACMDATADICTIONARY
  2
AcmDataDictionary
  3
"AcmSymBB|Product Description: AutoCAD Mechanical 2004 DX|Company: Autodesk"
 90
        0
280
     0
281
     0
  0
CLASS
  1
ACMDATAENTRYBLOCK
  2
AcmDataEntryBlock
  3
"AcmSymBB|Product Description: AutoCAD Mechanical 2004 DX|Company: Autodesk"
 90
        0
280
     0
281
     0
  0
CLASS
  1
ACIMSTRSYSVAR
  2
AcImStrSysVar
  3
AcMeServices
 90
        0
280
     0
281
     0
  0
CLASS
  1
ACMSTANDARDISO
  2
AcmStandardISO
  3
"Amdt_StdImp|Product Description: AutoCAD Mechanical 2004 DX|Company: Autodesk"
 90
        0
280
     0
281
     0
  0
CLASS
  1
AMGOBJPROPCFG
  2
AmgObjPropCfg
  3
"AmgLay|Product Description: AutoCAD Mechanical 2000|Company: Autodesk"
 90
        1
280
     0
281
     0
  0
CLASS
  1
AMDTEDGESTANDARDISO
  2
AmdtEdgeStdISO
  3
"Amdt_StdImp|Product Description: AutoCAD Mechanical 2004 DX|Company: Autodesk"
 90
    32768
280
     0
281
     0
  0
CLASS
  1
ACMSURFSTANDARDISO
  2
AcmSurfTextStdISO
  3
"Amdt_StdImp|Product Description: AutoCAD Mechanical 2004 DX|Company: Autodesk"
 90
        0
280
     0
281
     0
  0
CLASS
  1
ACMFCFSTANDARDISO
  2
AcmFCFStdISO
  3
"Amdt_StdImp|Product Description: AutoCAD Mechanical 2004 DX|Company: Autodesk"
 90
        0
280
     0
281
     0
  0
CLASS
  1
ACMWELDSTANDARDISO
  2
AcmWeldingStdISO
  3
"Amdt_StdImp|Product Description: AutoCAD Mechanical 2004 DX|Company: Autodesk"
 90
        0
280
     0
281
     0
  0
CLASS
  1
ACMIDSTANDARDISO
  2
AcmIdStdISO
  3
"Amdt_StdImp|Product Description: AutoCAD Mechanical 2004 DX|Company: Autodesk"
 90
        0
280
     0
281
     0
  0
CLASS
  1
ACMDATUMSTANDARDISO
  2
AcmDatumStdISO
  3
"Amdt_StdImp|Product Description: AutoCAD Mechanical 2004 DX|Company: Autodesk"
 90
        0
280
     0
281
     0
  0
CLASS
  1
ACMBOMSTANDARDISO
  2
AcmBOMStdISO
  3
"Amdt_StdImp|Product Description: AutoCAD Mechanical 2004 DX|Company: Autodesk"
 90
        0
280
     0
281
     0
  0
CLASS
  1
ACMDETAILSTANDARDISO
  2
AmdtDetailSymStdISO
  3
"Amdt_StdImp|Product Description: AutoCAD Mechanical 2004 DX|Company: Autodesk"
 90
        0
280
     0
281
     0
  0
CLASS
  1
ACMSECTIONSTANDARDISO
  2
AmdtSectionSymStdISO
  3
"Amdt_StdImp|Product Description: AutoCAD Mechanical 2004 DX|Company: Autodesk"
 90
        0
280
     0
281
     0
  0
CLASS
  1
ACMCENTERLINESTANDARDISO
  2
AmdtCenterLineStdISO
  3
"Amdt_StdImp|Product Description: AutoCAD Mechanical 2004 DX|Company: Autodesk"
 90
        0
280
     0
281
     0
  0
CLASS
  1
ACMNOTESTANDARDISO
  2
AmdtNoteStdISO
  3
"Amdt_StdImp|Product Description: AutoCAD Mechanical 2004 DX|Company: Autodesk"
 90
        0
280
     0
281
     0
  0
CLASS
  1
ACAMGLAYSTD
  2
AcAmgLayStd
  3
"AcAmgLayStd|Product Description: AutoCAD Mechanical 2000|Company: Autodesk"
 90
        0
280
     0
281
     0
  0
CLASS
  1
ACAMGDIMSTD
  2
AcAmgDimStd
  3
"AcAmgDimStd|Product Description: AutoCAD Mechanical 2000|Company: Autodesk"
 90
        0
280
     0
281
     0
  0
CLASS
  1
ACAMGHOLECHARTSTDISO
  2
AcAmgHoleChartStdISO
  3
ACMSYMBB_MODULE_NAME
 90
        0
280
     0
281
     0
  0
CLASS
  1
ACAMGTITLESTD
  2
AcAmgTitleStd
  3
"TITLEAPP"
 90
        0
280
     0
281
     0
  0
CLASS
  1
ACAMGFILTERDAT
  2
AcAmgFilterDat
  3
"AcadM|Product Description: AutoCAD Mechanical 2000|Company: Autodesk"
 90
    32768
280
     0
281
     0
  0
CLASS
  1
LAYER_INDEX
  2
AcDbLayerIndex
  3
ObjectDBX Classes
 90
        0
280
     0
281
     0
  0
CLASS
  1
IDBUFFER
  2
AcDbIdBuffer
  3
ObjectDBX Classes
 90
        0
280
     0
281
     0
  0
CLASS
  1
TABLESTYLE
  2
AcDbTableStyle
  3
ObjectDBX Classes
 90
     2047
280
     0
281
     0
  0
CLASS
  1
DIMASSOC
  2
AcDbDimAssoc
  3
"AcDbDimAssoc|Product Desc:     AcDim ARX App For Dimension|Company:          Autodesk, Inc.|WEB Address:      www.autodesk.com"
 90
    32768
280
     0
281
     0
  0
CLASS
  1
SORTENTSTABLE
  2
AcDbSortentsTable
  3
ObjectDBX Classes
 90
        0
280
     0
281
     0
  0
CLASS
  1
AM_DRAWING_MGR
  2
AcDmDwgMgr
  3
AcMechDwgViewMgmt
 90
        0
280
     0
281
     0
  0
CLASS
  1
AM_DWG_DOCUMENT
  2
AcDmDwgDocument
  3
AcMechDwgViewMgmt
 90
        0
280
     0
281
     0
  0
CLASS
  1
AM_DWG_SHEET
  2
AcDmSheet
  3
AcMechDwgViewMgmt
 90
        0
280
     0
281
     0
  0
CLASS
  1
AM_VIEWDIMPARMAP
  2
AcDmViewDimParMap
  3
AcMechDwgViewMgmt
 90
        0
280
     0
281
     0
  0
CLASS
  1
AM_DWGMGR_NAME
  2
AcDmDwgMgrName
  3
AcMechDwgViewMgmt
 90
        0
280
     0
281
     0
  0
CLASS
  1
AMDTMENUSTATEMGR
  2
AmdtMenuStateMgr
  3
McadcomServices
 90
        0
280
     0
281
     0
  0
CLASS
  1
AMDTMCOMMENUSTATE
  2
AmdtMcomMenuState
  3
McadcomServices
 90
        0
280
     0
281
     0
  0
CLASS
  1
MAPIAMMOUDLE
  2
MApiAmModule
  3
MApiAmServices
 90
        0
280
     0
281
     0
  0
CLASS
  1
AMDTADMENUSTATE
  2
AmdtAdMenuState
  3
DesignerServices
 90
        0
280
     0
281
     0
  0
CLASS
  1
ADAPPL
  2
AcAdAppl
  3
DesignerServices
 90
        0
280
     0
281
     0
  0
CLASS
  1
DEPMGR
  2
AcAdDepMgr
  3
DesignerServices
 90
        0
280
     0
281
     0
  0
CLASS
  1
PARAMMGR
  2
AcAdParamMgr
  3
DesignerServices
 90
        0
280
     0
281
     0
  0
CLASS
  1
PARAMSCOPE
  2
AcAdParamScope
  3
DesignerServices
 90
        0
280
     0
281
     0
  0
CLASS
  1
NAMEDAPPL
  2
AcAdNamedAppl
  3
DesignerServices
 90
        0
280
     0
281
     0
  0
CLASS
  1
AMDTDMMENUSTATE
  2
AmdtDmMenuState
  3
AcMechDwgViewMgmt
 90
        0
280
     0
281
     0
  0
CLASS
  1
AMDTAMMENUSTATE
  2
AmdtAmMenuState
  3
DesignerAssemblies
 90
        0
280
     0
281
     0
  0
CLASS
  1
ACAMPROJECT
  2
AcAmProject
  3
DesignerAssemblies
 90
        0
280
     0
281
     0
  0
CLASS
  1
ACAMGRCOMPDEF
  2
AcAmGrCompDef
  3
DesignerAssemblies
 90
        0
280
     0
281
     0
  0
CLASS
  1
ACCMCONTEXT
  2
AcCmContext
  3
DesignerAssemblies
 90
        0
280
     0
281
     0
  0
CLASS
  1
ACAMCOMPDEF
  2
AcAmCompDef
  3
DesignerAssemblies
 90
        0
280
     0
281
     0
  0
CLASS
  1
ACAMCOMPDEFMGR
  2
AcAmCompDefMgr
  3
DesignerAssemblies
 90
        0
280
     0
281
     0
  0
CLASS
  1
AMCONTEXTMGR
  2
AcAmContextMgr
  3
DesignerAssemblies
 90
        0
280
     0
281
     0
  0
CLASS
  1
ACAMCONTEXTMODELER
  2
AcAmContextModeler
  3
DesignerAssemblies
 90
        0
280
     0
281
     0
  0
CLASS
  1
CATALOGSTATE
  2
AcAmCatalogState
  3
DesignerAssemblies
 90
        0
280
     0
281
     0
  0
CLASS
  1
ACAMGRCOMPDEFSET
  2
AcAmGrCompDefSet
  3
DesignerAssemblies
 90
        0
280
     0
281
     0
  0
CLASS
  1
AMDTBROWSERDBTAB
  2
AmdtBrowserDbTab
  3
McadcomServices
 90
        0
280
     0
281
     0
  0
CLASS
  1
CBROWSERAPPOBJECT
  2
CBrowserAppObject
  3
McadcomServices
 90
        0
280
     0
281
     0
  0
CLASS
  1
DM_PLACEHOLDER
  2
AcDmSelsetPlaceholder
  3
AcMechDwgViewMgmt
 90
        0
280
     0
281
     0
  0
CLASS
  1
AMDTEDGESTANDARDISO13715
  2
AmdtEdgeStdISO13715
  3
"Amdt_StdImp|Product Description: AutoCAD Mechanical 2004 DX|Company: Autodesk"
 90
        0
280
     0
281
     0
  0
CLASS
  1
ACMTHREADLINESTANDARDISO
  2
AmdtThreadLineStdISO
  3
"Amdt_StdImp|Product Description: AutoCAD Mechanical 2004 DX|Company: Autodesk"
 90
        0
280
     0
281
     0
  0
CLASS
  1
AMDTNOTETEMPLATEDB
  2
AmdtNoteTemplateDB
  3
AMDT_STDIMP_MODULE_NAME
 90
        0
280
     0
281
     0
  0
CLASS
  1
ASAPP
  2
AcAsAppObject
  3
AutoSurfServices
 90
        0
280
     0
281
     0
  0
CLASS
  1
IM_STATIC_MAN
  2
AcImStaticVarManager
  3
AcMeServices
 90
        0
280
     0
281
     0
  0
CLASS
  1
ACIMDBLSTATICVAR
  2
AcImDblStaticVar
  3
AcMeServices
 90
        0
280
     0
281
     0
  0
CLASS
  1
ACIMSTRSTATICVAR
  2
AcImStrStaticVar
  3
AcMeServices
 90
        0
280
     0
281
     0
  0
CLASS
  1
ACIMINTSTATICVAR
  2
AcImIntStaticVar
  3
AcMeServices
 90
        0
280
     0
281
     0
  0
CLASS
  1
ACASGREFMASTER
  2
AcAsGrefMaster
  3
AutoSurfResolverServices
 90
        0
280
     0
281
     0
  0
CLASS
  1
ACADGREFMODULE
  2
AcAdGrefModule
  3
AdGrefServices
 90
        0
280
     0
281
     0
  0
CLASS
  1
AMDTMAPISURFMOUDULE
  2
AmdtMApiSurfModule
  3
MApiSurfServices
 90
        0
280
     0
281
     0
  0
CLASS
  1
MAPIADMODULE
  2
MApiAdModule
  3
MApiAdServices
 90
        0
280
     0
281
     0
  0
ENDSEC
  0
SECTION
  2
TABLES
  0
TABLE
  2
VPORT
  5
8
330
0
100
AcDbSymbolTable
 70
     3
  0
VPORT
  5
6F36
330
8
100
AcDbSymbolTableRecord
100
AcDbViewportTableRecord
  2
*Active
 70
     0
 10
0.0
 20
0.0
 11
1.0
 21
1.0
 12
26.51630258067661
 22
-95.45966590654529
 13
0.0
 23
0.0
 14
0.5
 24
0.5
 15
0.5
 25
0.5
 16
0.0
 26
0.0
 36
1.0
 17
173.8777340874356
 27
296.3084935250268
 37
0.0
 40
494.644965996963
 41
1.263157894736842
 42
50.0
 43
0.0
 44
0.0
 50
0.0
 51
0.0
 71
     0
 72
   100
 73
     1
 74
     3
 75
     0
 76
     0
 77
     0
 78
     0
281
     0
 65
     0
110
0.0
120
0.0
130
0.0
111
1.0
121
0.0
131
0.0
112
0.0
122
1.0
132
0.0
 79
     0
146
0.0
  0
ENDTAB
  0
TABLE
  2
LTYPE
  5
5
330
0
100
AcDbSymbolTable
 70
    16
  0
LTYPE
  5
14
330
5
100
AcDbSymbolTableRecord
100
AcDbLinetypeTableRecord
  2
ByBlock
 70
     0
  3

 72
    65
 73
     0
 40
0.0
  0
LTYPE
  5
15
330
5
100
AcDbSymbolTableRecord
100
AcDbLinetypeTableRecord
  2
ByLayer
 70
     0
  3

 72
    65
 73
     0
 40
0.0
  0
LTYPE
  5
16
330
5
100
AcDbSymbolTableRecord
100
AcDbLinetypeTableRecord
  2
Continuous
 70
     0
  3
Solid line
 72
    65
 73
     0
 40
0.0
  0
LTYPE
  5
4F
330
5
100
AcDbSymbolTableRecord
100
AcDbLinetypeTableRecord
  2
CENTER
 70
     0
  3
Center ____ _ ____ _ ____ _ ____ _ ____ _ ____
 72
    65
 73
     4
 40
2.0
 49
1.25
 74
     0
 49
-0.25
 74
     0
 49
0.25
 74
     0
 49
-0.25
 74
     0
  0
LTYPE
  5
472E
330
5
100
AcDbSymbolTableRecord
100
AcDbLinetypeTableRecord
  2
AM_ISO02W050
 70
     0
  3
__ __ __ __ __ __ __ __ __ __ __ __ __ __ __
 72
    65
 73
     2
 40
7.5
 49
6.0
 74
     0
 49
-1.5
 74
     0
  0
LTYPE
  5
472F
330
5
100
AcDbSymbolTableRecord
100
AcDbLinetypeTableRecord
  2
AM_ISO08W050
 70
     0
  3
____ . ____ . ____ . ____ . ____ . ____ . ____
 72
    65
 73
     4
 40
18.0
 49
12.0
 74
     0
 49
-1.5
 74
     0
 49
3.0
 74
     0
 49
-1.5
 74
     0
  0
LTYPE
  5
4730
330
5
100
AcDbSymbolTableRecord
100
AcDbLinetypeTableRecord
  2
AM_ISO09W050
 70
     0
  3
_____ . . _____ . . _____ . . ____ .. ____
 72
    65
 73
     6
 40
22.5
 49
12.0
 74
     0
 49
-1.5
 74
     0
 49
3.0
 74
     0
 49
-1.5
 74
     0
 49
3.0
 74
     0
 49
-1.5
 74
     0
  0
LTYPE
  5
4731
330
5
100
AcDbSymbolTableRecord
100
AcDbLinetypeTableRecord
  2
Amconstr
 70
     0
  3
_______________________
 72
    65
 73
     2
 40
9999.0
 49
9999.0
 74
     0
 49
0.0
 74
     0
  0
LTYPE
  5
4732
330
5
100
AcDbSymbolTableRecord
100
AcDbLinetypeTableRecord
  2
AM_ISO08W050x2
 70
     0
  3
__ . __ . __ . __ . __ . __
 72
    65
 73
     4
 40
9.0
 49
6.0
 74
     0
 49
-0.75
 74
     0
 49
1.5
 74
     0
 49
-0.75
 74
     0
  0
LTYPE
  5
4733
330
5
100
AcDbSymbolTableRecord
100
AcDbLinetypeTableRecord
  2
AM_ISO02W050x2
 70
     0
  3
 _ _ _ _ _ _ _ _ _ _ _ _
 72
    65
 73
     2
 40
3.75
 49
3.0
 74
     0
 49
-0.75
 74
     0
  0
LTYPE
  5
4736
330
5
100
AcDbSymbolTableRecord
100
AcDbLinetypeTableRecord
  2
Amzigzag
 70
     0
  3
/\/-/\/-/\/-/\/-/\/-/\/
 72
    65
 73
     2
 40
11.0001
 49
0.0001
 74
     4
 75
   135
340
4735
 46
0.04
 50
0.0
 44
0.0
 45
0.0
 49
-11.0
 74
     0
  0
LTYPE
  5
4744
330
5
100
AcDbSymbolTableRecord
100
AcDbLinetypeTableRecord
  2
ACISOWELD
 70
     0
  3
_ _ _ _ _
 72
    65
 73
     2
 40
2.0
 49
2.0
 74
     0
 49
-1.0
 74
     0
  0
LTYPE
  5
4745
330
5
100
AcDbSymbolTableRecord
100
AcDbLinetypeTableRecord
  2
ACISOTGB
 70
     0
  3
__ . . __ . .
 72
    65
 73
     6
 40
9.0
 49
4.0
 74
     0
 49
-1.0
 74
     0
 49
1.0
 74
     0
 49
-1.0
 74
     0
 49
1.0
 74
     0
 49
-1.0
 74
     0
  0
LTYPE
  5
4746
330
5
100
AcDbSymbolTableRecord
100
AcDbLinetypeTableRecord
  2
ACISOTGL
 70
     0
  3
_ _ _ _ _
 72
    65
 73
     2
 40
3.0
 49
2.0
 74
     0
 49
-1.0
 74
     0
  0
LTYPE
  5
4A60
330
5
100
AcDbSymbolTableRecord
100
AcDbLinetypeTableRecord
  2
HIDDEN
 70
     0
  3
__ __ __ __ __ __ __ __ __ __ __ __ __ __ __ __
 72
    65
 73
     2
 40
0.375
 49
0.25
 74
     0
 49
-0.125
 74
     0
  0
LTYPE
  5
4A61
330
5
100
AcDbSymbolTableRecord
100
AcDbLinetypeTableRecord
  2
PHANTOM2
 70
     0
  3
___ _ _ ___ _ _ ___ _ _ ___ _ _ ___ _ _ ___ _ _
 72
    65
 73
     6
 40
1.25
 49
0.625
 74
     0
 49
-0.125
 74
     0
 49
0.125
 74
     0
 49
-0.125
 74
     0
 49
0.125
 74
     0
 49
-0.125
 74
     0
  0
LTYPE
  5
5EED
330
5
100
AcDbSymbolTableRecord
100
AcDbLinetypeTableRecord
  2
ASULTYPE
 70
     0
  3
實線
 72
    65
 73
     2
 40
3.0
 49
2.5
 74
     0
 49
0.5
 74
     0
  0
LTYPE
  5
5EEE
330
5
100
AcDbSymbolTableRecord
100
AcDbLinetypeTableRecord
  2
ASVLTYPE
 70
     0
  3
__ __ __ __ __ __ __ __ __ __ __ __ __ __ __ __ __ __ __ __ __
 72
    65
 73
     2
 40
0.75
 49
0.5
 74
     0
 49
-0.25
 74
     0
  0
ENDTAB
  0
TABLE
  2
LAYER
  5
2
102
{ACAD_XDICTIONARY
360
4A71
102
}
330
0
100
AcDbSymbolTable
 70
     7
  0
LAYER
  5
10
330
2
100
AcDbSymbolTableRecord
100
AcDbLayerTableRecord
  2
0
 70
     0
 62
     7
  6
Continuous
370
    -3
390
F
  0
LAYER
  5
48
330
2
100
AcDbSymbolTableRecord
100
AcDbLayerTableRecord
  2
DIM
 70
     0
 62
     5
  6
Continuous
370
    -3
390
F
  0
LAYER
  5
4A
330
2
100
AcDbSymbolTableRecord
100
AcDbLayerTableRecord
  2
CENTER
 70
     0
 62
     1
  6
CENTER
370
    -3
390
F
  0
LAYER
  5
1545
330
2
100
AcDbSymbolTableRecord
100
AcDbLayerTableRecord
  2
LOGO
 70
     0
 62
     7
  6
Continuous
370
    -3
390
F
  0
LAYER
  5
1A52
330
2
100
AcDbSymbolTableRecord
100
AcDbLayerTableRecord
  2
Defpoints
 70
     0
 62
     7
  6
Continuous
290
     0
370
    -3
390
F
  0
LAYER
  5
5DCF
330
2
100
AcDbSymbolTableRecord
100
AcDbLayerTableRecord
  2
AM_7
 70
     0
 62
     4
  6
AM_ISO08W050
370
    25
390
F
  0
LAYER
  5
5DD0
330
2
100
AcDbSymbolTableRecord
100
AcDbLayerTableRecord
  2
AM_5
 70
     0
 62
     3
  6
Continuous
370
    25
390
F
  0
ENDTAB
  0
TABLE
  2
STYLE
  5
3
330
0
100
AcDbSymbolTable
 70
     6
  0
STYLE
  5
11
330
3
100
AcDbSymbolTableRecord
100
AcDbTextStyleTableRecord
  2
Standard
 70
     0
 40
3.0
 41
1.0
 50
0.0
 71
     0
 42
3.0
  3
KAIU.TTF
  4

1001
ACAD
1000
DFKai-SB
1071
    34865
  0
STYLE
  5
5C
330
3
100
AcDbSymbolTableRecord
100
AcDbTextStyleTableRecord
  2
CHINESET
 70
     0
 40
3.0
 41
1.0
 50
0.0
 71
     0
 42
4.5
  3
simplex.shx
  4
CHINESET.shx
  0
STYLE
  5
4735
330
3
100
AcDbSymbolTableRecord
100
AcDbTextStyleTableRecord
  2

 70
     1
 40
0.0
 41
1.0
 50
0.0
 71
     0
 42
4.5
  3
ltypeshp.shx
  4

  0
STYLE
  5
4737
330
3
100
AcDbSymbolTableRecord
100
AcDbTextStyleTableRecord
  2
ACISOTS
 70
     0
 40
1.0
 41
1.0
 50
0.0
 71
     0
 42
4.5
  3
isocp.shx
  4
chineset.shx
  0
STYLE
  5
4743
330
3
100
AcDbSymbolTableRecord
100
AcDbTextStyleTableRecord
  2
ACISOGDT
 70
     0
 40
0.0
 41
1.0
 50
0.0
 71
     0
 42
4.5
  3
amgdt.shx
  4

  0
STYLE
  5
4A67
330
3
100
AcDbSymbolTableRecord
100
AcDbTextStyleTableRecord
  2
dayus
 70
     0
 40
3.0
 41
1.0
 50
0.0
 71
     0
 42
6.0
  3
simplex.shx
  4
dayus.shx
  0
ENDTAB
  0
TABLE
  2
VIEW
  5
6
330
0
100
AcDbSymbolTable
 70
     0
  0
ENDTAB
  0
TABLE
  2
UCS
  5
7
330
0
100
AcDbSymbolTable
 70
     0
  0
ENDTAB
  0
TABLE
  2
APPID
  5
9
330
0
100
AcDbSymbolTable
 70
    27
  0
APPID
  5
12
330
9
100
AcDbSymbolTableRecord
100
AcDbRegAppTableRecord
  2
ACAD
 70
     0
  0
APPID
  5
5F
330
9
100
AcDbSymbolTableRecord
100
AcDbRegAppTableRecord
  2
AD_DRAW
 70
     0
  0
APPID
  5
60
330
9
100
AcDbSymbolTableRecord
100
AcDbRegAppTableRecord
  2
DESIGNERASSEMBLIES
 70
     0
  0
APPID
  5
61
330
9
100
AcDbSymbolTableRecord
100
AcDbRegAppTableRecord
  2
MCAD_NO_VIS
 70
     0
  0
APPID
  5
62
330
9
100
AcDbSymbolTableRecord
100
AcDbRegAppTableRecord
  2
ASURF_PCURVE_APPNAME
 70
     0
  0
APPID
  5
11A1
330
9
100
AcDbSymbolTableRecord
100
AcDbRegAppTableRecord
  2
CONTENTBLOCKICON
 70
     0
  0
APPID
  5
31CE
330
9
100
AcDbSymbolTableRecord
100
AcDbRegAppTableRecord
  2
GENIUS_GENODEF_13
 70
     0
  0
APPID
  5
31CF
330
9
100
AcDbSymbolTableRecord
100
AcDbRegAppTableRecord
  2
GENIUS_GENOBJ-N-FIL_13
 70
     0
  0
APPID
  5
3922
330
9
100
AcDbSymbolTableRecord
100
AcDbRegAppTableRecord
  2
GENIUS_GENFIL_13
 70
     0
  0
APPID
  5
3923
330
9
100
AcDbSymbolTableRecord
100
AcDbRegAppTableRecord
  2
GENIUS_GENOBJ-N-CHA_13
 70
     0
  0
APPID
  5
4711
330
9
100
AcDbSymbolTableRecord
100
AcDbRegAppTableRecord
  2
ACAD_TEMP_GRAPHIC
 70
     0
  0
APPID
  5
4722
330
9
100
AcDbSymbolTableRecord
100
AcDbRegAppTableRecord
  2
ACATTRIBSERVICES
 70
     0
  0
APPID
  5
47C2
330
9
100
AcDbSymbolTableRecord
100
AcDbRegAppTableRecord
  2
GENIUS_GENOLIS_13
 70
     0
  0
APPID
  5
47C3
330
9
100
AcDbSymbolTableRecord
100
AcDbRegAppTableRecord
  2
GENIUS_GENOENT_13
 70
     0
  0
APPID
  5
47C4
330
9
100
AcDbSymbolTableRecord
100
AcDbRegAppTableRecord
  2
GENIUS_GENOBJ-N-CRS_13
 70
     0
  0
APPID
  5
47C5
330
9
100
AcDbSymbolTableRecord
100
AcDbRegAppTableRecord
  2
GENIUS_GENOREF_13
 70
     0
  0
APPID
  5
4A70
330
9
100
AcDbSymbolTableRecord
100
AcDbRegAppTableRecord
  2
GENIUS_GENDTOL_13
 70
     0
  0
APPID
  5
562A
330
9
100
AcDbSymbolTableRecord
100
AcDbRegAppTableRecord
  2
ACADM_DIM_EDIT
 70
     0
  0
APPID
  5
562B
330
9
100
AcDbSymbolTableRecord
100
AcDbRegAppTableRecord
  2
AMDT_DM_ADJ
 70
     0
  0
APPID
  5
564D
330
9
100
AcDbSymbolTableRecord
100
AcDbRegAppTableRecord
  2
ACAD_PSEXT
 70
     0
  0
APPID
  5
564E
330
9
100
AcDbSymbolTableRecord
100
AcDbRegAppTableRecord
  2
GENIUS_GENREC_14
 70
     0
  0
APPID
  5
564F
330
9
100
AcDbSymbolTableRecord
100
AcDbRegAppTableRecord
  2
GENIUS_GENOBJ-N-REC_13
 70
     0
  0
APPID
  5
5DD1
330
9
100
AcDbSymbolTableRecord
100
AcDbRegAppTableRecord
  2
GENIUS_GENOBJ-N-CEN_13
 70
     0
  0
APPID
  5
5DD2
330
9
100
AcDbSymbolTableRecord
100
AcDbRegAppTableRecord
  2
GENIUS_GENCEN_19
 70
     0
  0
APPID
  5
5E6E
330
9
100
AcDbSymbolTableRecord
100
AcDbRegAppTableRecord
  2
GENIUS_GENDIM_13
 70
     0
  0
APPID
  5
5E6F
330
9
100
AcDbSymbolTableRecord
100
AcDbRegAppTableRecord
  2
GENIUS_GE3DTOL_13
 70
     0
  0
APPID
  5
5EF3
330
9
100
AcDbSymbolTableRecord
100
AcDbRegAppTableRecord
  2
AMG_3D2D_5.0
 70
     0
  0
ENDTAB
  0
TABLE
  2
DIMSTYLE
  5
A
330
0
100
AcDbSymbolTable
 70
    12
100
AcDbDimStyleTable
 71
     1
340
1A4
  0
DIMSTYLE
105
1A4
330
A
100
AcDbSymbolTableRecord
100
AcDbDimStyleTableRecord
  2
ISO-25-1
 70
     0
 41
3.0
 42
3.0
 43
2.0
 44
2.0
 73
     0
 74
     0
 77
     1
 78
     8
 79
     2
140
3.0
141
-3.0
146
0.7
147
1.0
172
     1
176
   256
177
   256
178
   256
271
     2
272
     2
284
     8
289
     0
340
5C
371
    -1
372
    -1
  0
DIMSTYLE
105
474A
330
A
100
AcDbSymbolTableRecord
100
AcDbDimStyleTableRecord
  2
AM_ISO
 70
     0
  4
"
 41
2.5
 42
1.0
 43
10.0
 44
1.0
 47
0.1
 48
0.1
 73
     0
 74
     0
 77
     1
 78
     8
 79
     2
140
3.5
141
0.0
143
0.0393701
146
0.71
147
1.5
172
     1
176
   256
177
   256
178
     2
271
     2
272
     3
274
     4
283
     0
284
     8
340
11
371
    -1
372
    -1
  0
DIMSTYLE
105
474B
330
A
100
AcDbSymbolTableRecord
100
AcDbDimStyleTableRecord
  2
AM_ISO$3
 70
     0
  4
"
 41
2.5
 42
1.0
 43
10.0
 44
1.0
 47
0.1
 48
0.1
 73
     0
 77
     1
 78
     8
 79
     2
140
3.5
141
0.0
143
0.0393701
146
0.71
147
1.5
176
   256
177
   256
178
     2
271
     2
272
     3
274
     4
283
     0
284
     8
288
     1
289
     0
340
11
371
    -1
372
    -1
  0
DIMSTYLE
105
474C
330
A
100
AcDbSymbolTableRecord
100
AcDbDimStyleTableRecord
  2
AM_ISO$4
 70
     0
  4
"
 41
2.5
 42
1.0
 43
10.0
 44
1.0
 47
0.1
 48
0.1
 73
     0
 77
     1
 78
     8
 79
     2
140
3.5
141
0.0
143
0.0393701
146
0.71
147
1.5
176
   256
177
   256
178
     2
271
     2
272
     3
274
     4
283
     0
284
     8
288
     1
289
     0
340
11
371
    -1
372
    -1
  0
DIMSTYLE
105
474D
330
A
100
AcDbSymbolTableRecord
100
AcDbDimStyleTableRecord
  2
AM_ISO$6
 70
     0
  4
"
 41
2.5
 42
1.0
 43
10.0
 44
1.0
 47
0.1
 48
0.1
 73
     0
 74
     0
 78
     8
 79
     2
140
3.5
141
0.0
143
0.0393701
146
0.71
147
1.5
172
     1
176
   256
177
   256
178
     2
271
     2
272
     3
274
     4
283
     0
284
     8
340
11
371
    -1
372
    -1
  0
DIMSTYLE
105
474E
330
A
100
AcDbSymbolTableRecord
100
AcDbDimStyleTableRecord
  2
AM_ISO$7
 70
     0
  4
"
 41
2.5
 42
1.0
 43
10.0
 44
1.0
 47
0.1
 48
0.1
 73
     0
 74
     0
 77
     1
 78
     8
 79
     2
140
5.0
141
0.0
143
0.0393701
146
0.71
147
1.5
172
     1
176
   256
177
   256
178
     2
271
     2
272
     3
274
     4
283
     0
284
     8
340
11
371
    -1
372
    -1
  0
DIMSTYLE
105
474F
330
A
100
AcDbSymbolTableRecord
100
AcDbDimStyleTableRecord
  2
AM_ISO$SF
 70
     0
  4
"
 41
2.5
 42
1.0
 43
10.0
 44
1.0
 47
0.1
 48
0.1
 73
     0
 74
     0
 75
     1
 76
     1
 77
     1
 78
     8
 79
     2
140
3.5
141
0.0
143
0.0393701
146
0.71
147
1.5
172
     1
176
   256
177
   256
178
     2
271
     2
272
     3
274
     4
283
     0
284
     8
340
11
371
    -1
372
    -1
  0
DIMSTYLE
105
4754
330
A
100
AcDbSymbolTableRecord
100
AcDbDimStyleTableRecord
  2
AM_ISO$SH
 70
     0
  4
"
 41
2.5
 42
1.0
 43
10.0
 44
1.0
 47
0.1
 48
0.1
 73
     0
 74
     0
 75
     1
 76
     1
 77
     1
 78
     8
 79
     2
140
3.5
141
0.0
143
0.0393701
144
2.0
146
0.71
147
1.5
172
     1
173
     1
176
   256
177
   256
178
     2
271
     2
272
     3
274
     4
283
     0
284
     8
340
11
341
4750
343
4750
371
    -1
372
    -1
  0
DIMSTYLE
105
4A6A
102
{ACAD_REACTORS
330
6B0A
330
6B0B
330
6B0C
330
6B0D
330
6B0E
330
6B0F
330
6B10
330
6B11
330
6C3C
330
6C3D
330
6D74
330
6D75
330
6D76
330
6D77
330
6D78
330
6D7A
330
6D7B
330
6E49
330
6E4A
330
6EA3
330
6ED4
102
}
330
A
100
AcDbSymbolTableRecord
100
AcDbDimStyleTableRecord
  2
AM_ANSI
 70
     0
  4
"
 41
2.5
 42
1.0
 43
10.0
 44
1.0
 47
0.1
 48
0.1
 78
     8
 79
     2
140
3.5
141
0.0
143
0.0393701
146
0.71
147
1.5
176
   256
177
   256
178
     2
271
     2
272
     3
274
     4
284
     8
340
11
371
    -1
372
    -1
  0
DIMSTYLE
105
4A6D
330
A
100
AcDbSymbolTableRecord
100
AcDbDimStyleTableRecord
  2
AM_ANSI$7
 70
     0
  4
"
 41
2.5
 42
1.0
 43
10.0
 44
1.0
 47
0.1
 48
0.1
 78
     8
 79
     2
140
5.0
141
0.0
143
0.0393701
146
0.71
147
1.5
176
   256
177
   256
178
     2
271
     2
272
     3
274
     4
284
     8
340
11
371
    -1
372
    -1
  0
DIMSTYLE
105
6042
330
A
100
AcDbSymbolTableRecord
100
AcDbDimStyleTableRecord
  2
ISO-25-1$0
 70
     0
 41
3.0
 42
3.0
 43
2.0
 44
2.0
 73
     0
 74
     0
 77
     1
 78
     8
 79
     2
140
3.0
141
-3.0
146
0.7
147
1.0
172
     1
176
   256
177
   256
178
   256
271
     2
272
     2
284
     8
289
     0
340
5C
371
    -1
372
    -1
  0
DIMSTYLE
105
6714
330
A
100
AcDbSymbolTableRecord
100
AcDbDimStyleTableRecord
  2
ISO-25
 70
     0
 41
2.5
 42
0.625
 43
3.75
 44
1.25
 73
     0
 74
     0
 77
     1
 78
     8
140
2.5
141
2.5
143
0.03937007874016
147
0.625
171
     3
172
     1
271
     2
272
     2
274
     3
278
    44
283
     0
284
     8
340
11
  0
ENDTAB
  0
TABLE
  2
BLOCK_RECORD
  5
1
330
0
100
AcDbSymbolTable
 70
    48
  0
BLOCK_RECORD
  5
1F
102
{ACAD_XDICTIONARY
360
4673
102
}
330
1
100
AcDbSymbolTableRecord
100
AcDbBlockTableRecord
  2
*Model_Space
340
22
  0
BLOCK_RECORD
  5
1B
102
{ACAD_XDICTIONARY
360
4675
102
}
330
1
100
AcDbSymbolTableRecord
100
AcDbBlockTableRecord
  2
*Paper_Space
340
1E
  0
BLOCK_RECORD
  5
23
102
{ACAD_XDICTIONARY
360
4677
102
}
330
1
100
AcDbSymbolTableRecord
100
AcDbBlockTableRecord
  2
*Paper_Space0
340
26
  0
BLOCK_RECORD
  5
4750
330
1
100
AcDbSymbolTableRecord
100
AcDbBlockTableRecord
  2
GENAXEH
340
0
  0
BLOCK_RECORD
  5
5D57
102
{ACAD_XDICTIONARY
360
5D58
102
}
330
1
100
AcDbSymbolTableRecord
100
AcDbBlockTableRecord
  2
A$C5ECF147B
340
0
  0
BLOCK_RECORD
  5
5DC6
102
{ACAD_XDICTIONARY
360
5DC7
102
}
330
1
100
AcDbSymbolTableRecord
100
AcDbBlockTableRecord
  2
A$C1F6E6265
340
0
102
{BLKREFS
331
6C32
331
6C3B
102
}
  0
BLOCK_RECORD
  5
6B12
330
1
100
AcDbSymbolTableRecord
100
AcDbBlockTableRecord
  2
*D26
340
0
  0
BLOCK_RECORD
  5
6B1F
330
1
100
AcDbSymbolTableRecord
100
AcDbBlockTableRecord
  2
*D27
340
0
  0
BLOCK_RECORD
  5
6B2C
330
1
100
AcDbSymbolTableRecord
100
AcDbBlockTableRecord
  2
*D28
340
0
  0
BLOCK_RECORD
  5
6B38
330
1
100
AcDbSymbolTableRecord
100
AcDbBlockTableRecord
  2
*D29
340
0
  0
BLOCK_RECORD
  5
6B44
330
1
100
AcDbSymbolTableRecord
100
AcDbBlockTableRecord
  2
*D30
340
0
  0
BLOCK_RECORD
  5
6B50
330
1
100
AcDbSymbolTableRecord
100
AcDbBlockTableRecord
  2
*D31
340
0
  0
BLOCK_RECORD
  5
6B5C
330
1
100
AcDbSymbolTableRecord
100
AcDbBlockTableRecord
  2
*D32
340
0
  0
BLOCK_RECORD
  5
6B68
330
1
100
AcDbSymbolTableRecord
100
AcDbBlockTableRecord
  2
*D33
340
0
  0
BLOCK_RECORD
  5
6C40
330
1
100
AcDbSymbolTableRecord
100
AcDbBlockTableRecord
  2
*D34
340
0
  0
BLOCK_RECORD
  5
6C4C
330
1
100
AcDbSymbolTableRecord
100
AcDbBlockTableRecord
  2
*D35
340
0
  0
BLOCK_RECORD
  5
6D7E
330
1
100
AcDbSymbolTableRecord
100
AcDbBlockTableRecord
  2
*D36
340
0
  0
BLOCK_RECORD
  5
6D8A
330
1
100
AcDbSymbolTableRecord
100
AcDbBlockTableRecord
  2
*D37
340
0
  0
BLOCK_RECORD
  5
6D96
330
1
100
AcDbSymbolTableRecord
100
AcDbBlockTableRecord
  2
*D38
340
0
  0
BLOCK_RECORD
  5
6DA2
330
1
100
AcDbSymbolTableRecord
100
AcDbBlockTableRecord
  2
*D39
340
0
  0
BLOCK_RECORD
  5
6DAE
330
1
100
AcDbSymbolTableRecord
100
AcDbBlockTableRecord
  2
*D40
340
0
  0
BLOCK_RECORD
  5
6DC6
330
1
100
AcDbSymbolTableRecord
100
AcDbBlockTableRecord
  2
*D42
340
0
  0
BLOCK_RECORD
  5
6DD2
330
1
100
AcDbSymbolTableRecord
100
AcDbBlockTableRecord
  2
*D43
340
0
  0
BLOCK_RECORD
  5
6E4D
330
1
100
AcDbSymbolTableRecord
100
AcDbBlockTableRecord
  2
*D44
340
0
  0
BLOCK_RECORD
  5
6E59
330
1
100
AcDbSymbolTableRecord
100
AcDbBlockTableRecord
  2
*D45
340
0
  0
BLOCK_RECORD
  5
6EA4
330
1
100
AcDbSymbolTableRecord
100
AcDbBlockTableRecord
  2
*D46
340
0
  0
BLOCK_RECORD
  5
6ED5
330
1
100
AcDbSymbolTableRecord
100
AcDbBlockTableRecord
  2
*D47
340
0
  0
ENDTAB
  0
ENDSEC
  0
SECTION
  2
BLOCKS
  0
BLOCK
  5
20
330
1F
100
AcDbEntity
  8
0
100
AcDbBlockBegin
  2
*Model_Space
 70
     0
 10
0.0
 20
0.0
 30
0.0
  3
*Model_Space
  1

  0
ENDBLK
  5
21
330
1F
100
AcDbEntity
  8
0
100
AcDbBlockEnd
  0
BLOCK
  5
1C
330
1B
100
AcDbEntity
 67
     1
  8
0
100
AcDbBlockBegin
  2
*Paper_Space
 70
     0
 10
0.0
 20
0.0
 30
0.0
  3
*Paper_Space
  1

  0
ENDBLK
  5
1D
330
1B
100
AcDbEntity
 67
     1
  8
0
100
AcDbBlockEnd
  0
BLOCK
  5
24
330
23
100
AcDbEntity
  8
0
100
AcDbBlockBegin
  2
*Paper_Space0
 70
     0
 10
0.0
 20
0.0
 30
0.0
  3
*Paper_Space0
  1

  0
ENDBLK
  5
25
330
23
100
AcDbEntity
  8
0
100
AcDbBlockEnd
  0
BLOCK
  5
4752
330
4750
100
AcDbEntity
  8
0
100
AcDbBlockBegin
  2
GENAXEH
 70
     0
 10
0.0
 20
0.0
 30
0.0
  3
GENAXEH
  1

  0
LINE
  5
4751
330
4750
100
AcDbEntity
  8
0
100
AcDbLine
 10
-1.0
 20
0.0
 30
0.0
 11
1.0
 21
0.0
 31
0.0
  0
ENDBLK
  5
4753
330
4750
100
AcDbEntity
  8
0
100
AcDbBlockEnd
  0
BLOCK
  5
5D59
330
5D57
100
AcDbEntity
  8
0
100
AcDbBlockBegin
  2
A$C5ECF147B
 70
     0
 10
0.0
 20
0.0
 30
0.0
  3
A$C5ECF147B
  1

  0
CIRCLE
  5
5D5A
330
5D57
100
AcDbEntity
  8
0
100
AcDbCircle
 10
-3.079240456948355
 20
2.061381943681453
 30
0.0
 40
1.25
  0
CIRCLE
  5
5D5B
330
5D57
100
AcDbEntity
  8
0
100
AcDbCircle
 10
-3.079240456948355
 20
2.061381943681453
 30
0.0
 40
0.75
  0
ENDBLK
  5
5D5C
330
5D57
100
AcDbEntity
  8
0
100
AcDbBlockEnd
  0
BLOCK
  5
5DC9
330
5DC6
100
AcDbEntity
  8
0
100
AcDbBlockBegin
  2
A$C1F6E6265
 70
     0
 10
0.0
 20
0.0
 30
0.0
  3
A$C1F6E6265
  1

  0
LINE
  5
5DCA
330
5DC6
100
AcDbEntity
  8
AM_5
 62
     5
100
AcDbLine
 10
12.57846733029419
 20
0.460783587398737
 30
0.0
 11
7.091423997858555
 21
0.460783587398737
 31
0.0
  0
LINE
  5
5DCB
330
5DC6
100
AcDbEntity
  8
AM_5
 62
     5
100
AcDbLine
 10
7.091423997858555
 20
0.460783587398737
 30
0.0
 11
3.50000046420655
 21
0.460783587398737
 31
0.0
  0
TRACE
  5
5DCC
330
5DC6
100
AcDbEntity
  8
AM_5
 62
     5
370
    35
100
AcDbTrace
 10
3.50000046420655
 20
0.9215673268987245
 30
0.0
 11
3.50000046420655
 21
-0.0000001521012507
 31
0.0
 12
0.0000004642065505
 22
0.460783587398737
 32
0.0
 13
0.0000004642065505
 23
0.460783587398737
 33
0.0
  0
MTEXT
  5
5DCD
330
5DC6
100
AcDbEntity
  8
AM_5
 62
     5
100
AcDbMText
 10
6.603782167567317
 20
1.421084835219261
 30
0.0
 40
2.449999999999999
 41
0.0
 71
     7
 72
     5
  1
SL
  7
ACISOTS
 73
     1
 44
1.0
1001
ACAD
1000
MTEXTBEGIN
1070
    73
1070
     1
1070
    44
1040
1.0
1070
    74
1070
     0
1000
MTEXTEND
  0
ENDBLK
  5
5DCE
330
5DC6
100
AcDbEntity
  8
0
100
AcDbBlockEnd
  0
BLOCK
  5
6B1D
330
6B12
100
AcDbEntity
  8
0
100
AcDbBlockBegin
  2
*D26
 70
     1
 10
0.0
 20
0.0
 30
0.0
  3
*D26
  1

  0
LINE
  5
6BF9
330
6B12
100
AcDbEntity
  8
DIM
100
AcDbLine
 10
92.74479897277604
 20
363.7053254285675
 30
0.0
 11
92.74479897277604
 21
368.6463300814071
 31
0.0
  0
LINE
  5
6BFA
330
6B12
100
AcDbEntity
  8
DIM
100
AcDbLine
 10
100.244798972776
 20
337.3152039904844
 30
0.0
 11
100.244798972776
 21
368.6463300814071
 31
0.0
  0
LINE
  5
6BFB
330
6B12
100
AcDbEntity
  8
DIM
100
AcDbLine
 10
94.74479897277603
 20
367.1463300814071
 30
0.0
 11
98.24479897277605
 21
367.1463300814071
 31
0.0
  0
SOLID
  5
6BFC
330
6B12
100
AcDbEntity
  8
DIM
100
AcDbTrace
 10
94.74479897277603
 20
367.4796634147404
 30
0.0
 11
94.74479897277603
 21
366.8129967480738
 31
0.0
 12
92.74479897277604
 22
367.1463300814071
 32
0.0
 13
92.74479897277604
 23
367.1463300814071
 33
0.0
  0
SOLID
  5
6BFD
330
6B12
100
AcDbEntity
  8
DIM
100
AcDbTrace
 10
98.24479897277605
 20
367.4796634147404
 30
0.0
 11
98.24479897277605
 21
366.8129967480738
 31
0.0
 12
100.244798972776
 22
367.1463300814071
 32
0.0
 13
100.244798972776
 23
367.1463300814071
 33
0.0
  0
MTEXT
  5
6BFE
330
6B12
100
AcDbEntity
  8
DIM
100
AcDbMText
 10
96.49479897277604
 20
369.6463300814071
 30
0.0
 40
3.0
 41
0.0
 71
     5
 72
     1
  1
\A1;7.5
  7
dayus
 73
     1
 44
1.0
1001
ACAD
1000
MTEXTBEGIN
1070
    73
1070
     1
1070
    44
1040
1.0
1070
    74
1070
     0
1000
MTEXTEND
  0
POINT
  5
6BFF
330
6B12
100
AcDbEntity
  8
Defpoints
 62
     0
100
AcDbPoint
 10
92.74479897277604
 20
362.2053254285676
 30
0.0
  0
POINT
  5
6C00
330
6B12
100
AcDbEntity
  8
Defpoints
 62
     0
100
AcDbPoint
 10
100.244798972776
 20
335.8152039904844
 30
0.0
  0
POINT
  5
6C01
330
6B12
100
AcDbEntity
  8
Defpoints
 62
     0
100
AcDbPoint
 10
100.244798972776
 20
367.1463300814071
 30
0.0
  0
ENDBLK
  5
6B1E
330
6B12
100
AcDbEntity
  8
0
100
AcDbBlockEnd
  0
BLOCK
  5
6B2A
330
6B1F
100
AcDbEntity
  8
0
100
AcDbBlockBegin
  2
*D27
 70
     1
 10
0.0
 20
0.0
 30
0.0
  3
*D27
  1

  0
LINE
  5
6C02
330
6B1F
100
AcDbEntity
  8
DIM
100
AcDbLine
 10
135.2447989727761
 20
337.3152039904842
 30
0.0
 11
135.2447989727761
 21
368.6463300814071
 31
0.0
  0
LINE
  5
6C03
330
6B1F
100
AcDbEntity
  8
DIM
100
AcDbLine
 10
142.7447997178341
 20
363.7053254285673
 30
0.0
 11
142.7447997178341
 21
368.6463300814071
 31
0.0
  0
LINE
  5
6C04
330
6B1F
100
AcDbEntity
  8
DIM
100
AcDbLine
 10
137.2447989727761
 20
367.1463300814071
 30
0.0
 11
140.7447997178341
 21
367.1463300814071
 31
0.0
  0
SOLID
  5
6C05
330
6B1F
100
AcDbEntity
  8
DIM
100
AcDbTrace
 10
137.2447989727761
 20
367.4796634147404
 30
0.0
 11
137.2447989727761
 21
366.8129967480738
 31
0.0
 12
135.2447989727761
 22
367.1463300814071
 32
0.0
 13
135.2447989727761
 23
367.1463300814071
 33
0.0
  0
SOLID
  5
6C06
330
6B1F
100
AcDbEntity
  8
DIM
100
AcDbTrace
 10
140.7447997178341
 20
367.4796634147404
 30
0.0
 11
140.7447997178341
 21
366.8129967480738
 31
0.0
 12
142.7447997178341
 22
367.1463300814071
 32
0.0
 13
142.7447997178341
 23
367.1463300814071
 33
0.0
  0
MTEXT
  5
6C07
330
6B1F
100
AcDbEntity
  8
DIM
100
AcDbMText
 10
138.9947993453051
 20
369.6463300814071
 30
0.0
 40
3.0
 41
0.0
 71
     5
 72
     1
  1
\A1;7.5
  7
dayus
 73
     1
 44
1.0
1001
ACAD
1000
MTEXTBEGIN
1070
    73
1070
     1
1070
    44
1040
1.0
1070
    74
1070
     0
1000
MTEXTEND
  0
POINT
  5
6C08
330
6B1F
100
AcDbEntity
  8
Defpoints
 62
     0
100
AcDbPoint
 10
135.2447989727761
 20
335.8152039904842
 30
0.0
  0
POINT
  5
6C09
330
6B1F
100
AcDbEntity
  8
Defpoints
 62
     0
100
AcDbPoint
 10
142.7447997178341
 20
362.2053254285674
 30
0.0
  0
POINT
  5
6C0A
330
6B1F
100
AcDbEntity
  8
Defpoints
 62
     0
100
AcDbPoint
 10
142.7447997178341
 20
367.1463300814071
 30
0.0
  0
ENDBLK
  5
6B2B
330
6B1F
100
AcDbEntity
  8
0
100
AcDbBlockEnd
  0
BLOCK
  5
6B36
330
6B2C
100
AcDbEntity
  8
0
100
AcDbBlockBegin
  2
*D28
 70
     1
 10
0.0
 20
0.0
 30
0.0
  3
*D28
  1

  0
LINE
  5
6D47
330
6B2C
100
AcDbEntity
  8
DIM
100
AcDbLine
 10
92.74479897277592
 20
363.7053254285677
 30
0.0
 11
92.74479897277592
 21
385.9385270921825
 31
0.0
  0
LINE
  5
6D48
330
6B2C
100
AcDbEntity
  8
DIM
100
AcDbLine
 10
142.7447997178339
 20
363.7053254285675
 30
0.0
 11
142.7447997178339
 21
385.9385270921825
 31
0.0
  0
LINE
  5
6D49
330
6B2C
100
AcDbEntity
  8
DIM
100
AcDbLine
 10
94.74479897277593
 20
384.4385270921825
 30
0.0
 11
140.744799717834
 21
384.4385270921825
 31
0.0
  0
SOLID
  5
6D4A
330
6B2C
100
AcDbEntity
  8
DIM
100
AcDbTrace
 10
94.74479897277593
 20
384.7718604255159
 30
0.0
 11
94.74479897277593
 21
384.1051937588492
 31
0.0
 12
92.74479897277592
 22
384.4385270921825
 32
0.0
 13
92.74479897277592
 23
384.4385270921825
 33
0.0
  0
SOLID
  5
6D4B
330
6B2C
100
AcDbEntity
  8
DIM
100
AcDbTrace
 10
140.744799717834
 20
384.7718604255159
 30
0.0
 11
140.744799717834
 21
384.1051937588492
 31
0.0
 12
142.7447997178339
 22
384.4385270921825
 32
0.0
 13
142.7447997178339
 23
384.4385270921825
 33
0.0
  0
MTEXT
  5
6D4C
330
6B2C
100
AcDbEntity
  8
DIM
100
AcDbMText
 10
117.7447993453049
 20
386.9385270921825
 30
0.0
 40
3.0
 41
0.0
 71
     5
 72
     1
  1
\A1;45+stroke=50
  7
dayus
 73
     1
 44
1.0
1001
ACAD
1000
MTEXTBEGIN
1070
    73
1070
     1
1070
    44
1040
1.0
1070
    74
1070
     0
1000
MTEXTEND
  0
POINT
  5
6D4D
330
6B2C
100
AcDbEntity
  8
Defpoints
 62
     0
100
AcDbPoint
 10
92.74479897277592
 20
362.2053254285677
 30
0.0
  0
POINT
  5
6D4E
330
6B2C
100
AcDbEntity
  8
Defpoints
 62
     0
100
AcDbPoint
 10
142.7447997178339
 20
362.2053254285674
 30
0.0
  0
POINT
  5
6D4F
330
6B2C
100
AcDbEntity
  8
Defpoints
 62
     0
100
AcDbPoint
 10
142.7447997178339
 20
384.4385270921825
 30
0.0
  0
ENDBLK
  5
6B37
330
6B2C
100
AcDbEntity
  8
0
100
AcDbBlockEnd
  0
BLOCK
  5
6B42
330
6B38
100
AcDbEntity
  8
0
100
AcDbBlockBegin
  2
*D29
 70
     1
 10
0.0
 20
0.0
 30
0.0
  3
*D29
  1

  0
LINE
  5
6D35
330
6B38
100
AcDbEntity
  8
DIM
100
AcDbLine
 10
62.74479882376431
 20
335.9553260022622
 30
0.0
 11
62.74479882376432
 21
397.4246224855341
 31
0.0
  0
LINE
  5
6D36
330
6B38
100
AcDbEntity
  8
DIM
100
AcDbLine
 10
142.7447997178339
 20
363.7053254285675
 30
0.0
 11
142.7447997178339
 21
397.4246224855341
 31
0.0
  0
LINE
  5
6D37
330
6B38
100
AcDbEntity
  8
DIM
100
AcDbLine
 10
64.74479882376432
 20
395.9246224855341
 30
0.0
 11
140.744799717834
 21
395.9246224855341
 31
0.0
  0
SOLID
  5
6D38
330
6B38
100
AcDbEntity
  8
DIM
100
AcDbTrace
 10
64.74479882376432
 20
396.2579558188674
 30
0.0
 11
64.74479882376432
 21
395.5912891522008
 31
0.0
 12
62.74479882376432
 22
395.9246224855341
 32
0.0
 13
62.74479882376432
 23
395.9246224855341
 33
0.0
  0
SOLID
  5
6D39
330
6B38
100
AcDbEntity
  8
DIM
100
AcDbTrace
 10
140.744799717834
 20
396.2579558188674
 30
0.0
 11
140.744799717834
 21
395.5912891522008
 31
0.0
 12
142.7447997178339
 22
395.9246224855341
 32
0.0
 13
142.7447997178339
 23
395.9246224855341
 33
0.0
  0
MTEXT
  5
6D3A
330
6B38
100
AcDbEntity
  8
DIM
100
AcDbMText
 10
102.7447992707991
 20
398.4246224855341
 30
0.0
 40
3.0
 41
0.0
 71
     5
 72
     1
  1
\A1;75+stroke=80
  7
dayus
 73
     1
 44
1.0
1001
ACAD
1000
MTEXTBEGIN
1070
    73
1070
     1
1070
    44
1040
1.0
1070
    74
1070
     0
1000
MTEXTEND
  0
POINT
  5
6D3B
330
6B38
100
AcDbEntity
  8
Defpoints
 62
     0
100
AcDbPoint
 10
62.74479882376431
 20
334.4553260022621
 30
0.0
  0
POINT
  5
6D3C
330
6B38
100
AcDbEntity
  8
Defpoints
 62
     0
100
AcDbPoint
 10
142.7447997178339
 20
362.2053254285674
 30
0.0
  0
POINT
  5
6D3D
330
6B38
100
AcDbEntity
  8
Defpoints
 62
     0
100
AcDbPoint
 10
142.7447997178339
 20
395.9246224855341
 30
0.0
  0
ENDBLK
  5
6B43
330
6B38
100
AcDbEntity
  8
0
100
AcDbBlockEnd
  0
BLOCK
  5
6B4E
330
6B44
100
AcDbEntity
  8
0
100
AcDbBlockBegin
  2
*D30
 70
     1
 10
0.0
 20
0.0
 30
0.0
  3
*D30
  1

  0
LINE
  5
6D59
330
6B44
100
AcDbEntity
  8
DIM
100
AcDbLine
 10
84.74479870455501
 20
337.9553263300876
 30
0.0
 11
84.74479870455501
 21
385.9385270921825
 31
0.0
  0
LINE
  5
6D5A
330
6B44
100
AcDbEntity
  8
DIM
100
AcDbLine
 10
92.74479897277604
 20
363.7053254285675
 30
0.0
 11
92.74479897277604
 21
385.9385270921825
 31
0.0
  0
LINE
  5
6D5B
330
6B44
100
AcDbEntity
  8
DIM
100
AcDbLine
 10
86.74479870455503
 20
384.4385270921825
 30
0.0
 11
90.74479897277603
 21
384.4385270921825
 31
0.0
  0
SOLID
  5
6D5C
330
6B44
100
AcDbEntity
  8
DIM
100
AcDbTrace
 10
86.74479870455503
 20
384.7718604255159
 30
0.0
 11
86.74479870455503
 21
384.1051937588492
 31
0.0
 12
84.74479870455501
 22
384.4385270921825
 32
0.0
 13
84.74479870455501
 23
384.4385270921825
 33
0.0
  0
SOLID
  5
6D5D
330
6B44
100
AcDbEntity
  8
DIM
100
AcDbTrace
 10
90.74479897277603
 20
384.7718604255159
 30
0.0
 11
90.74479897277603
 21
384.1051937588492
 31
0.0
 12
92.74479897277604
 22
384.4385270921825
 32
0.0
 13
92.74479897277604
 23
384.4385270921825
 33
0.0
  0
MTEXT
  5
6D5E
330
6B44
100
AcDbEntity
  8
DIM
100
AcDbMText
 10
88.74479883866554
 20
386.9385270921825
 30
0.0
 40
3.0
 41
0.0
 71
     5
 72
     1
  1
\A1;8
  7
dayus
 73
     1
 44
1.0
1001
ACAD
1000
MTEXTBEGIN
1070
    73
1070
     1
1070
    44
1040
1.0
1070
    74
1070
     0
1000
MTEXTEND
  0
POINT
  5
6D5F
330
6B44
100
AcDbEntity
  8
Defpoints
 62
     0
100
AcDbPoint
 10
84.74479870455501
 20
336.4553263300876
 30
0.0
  0
POINT
  5
6D60
330
6B44
100
AcDbEntity
  8
Defpoints
 62
     0
100
AcDbPoint
 10
92.74479897277604
 20
362.2053254285676
 30
0.0
  0
POINT
  5
6D61
330
6B44
100
AcDbEntity
  8
Defpoints
 62
     0
100
AcDbPoint
 10
92.74479897277604
 20
384.4385270921825
 30
0.0
  0
ENDBLK
  5
6B4F
330
6B44
100
AcDbEntity
  8
0
100
AcDbBlockEnd
  0
BLOCK
  5
6B5A
330
6B50
100
AcDbEntity
  8
0
100
AcDbBlockBegin
  2
*D31
 70
     1
 10
0.0
 20
0.0
 30
0.0
  3
*D31
  1

  0
LINE
  5
6D50
330
6B50
100
AcDbEntity
  8
DIM
100
AcDbLine
 10
62.74479882376431
 20
335.9553260022622
 30
0.0
 11
62.74479882376431
 21
385.9385270921825
 31
0.0
  0
LINE
  5
6D51
330
6B50
100
AcDbEntity
  8
DIM
100
AcDbLine
 10
84.74479870455501
 20
337.9553263300876
 30
0.0
 11
84.74479870455501
 21
385.9385270921825
 31
0.0
  0
LINE
  5
6D52
330
6B50
100
AcDbEntity
  8
DIM
100
AcDbLine
 10
64.74479882376432
 20
384.4385270921825
 30
0.0
 11
82.74479870455502
 21
384.4385270921825
 31
0.0
  0
SOLID
  5
6D53
330
6B50
100
AcDbEntity
  8
DIM
100
AcDbTrace
 10
64.74479882376432
 20
384.7718604255159
 30
0.0
 11
64.74479882376432
 21
384.1051937588492
 31
0.0
 12
62.74479882376431
 22
384.4385270921825
 32
0.0
 13
62.74479882376431
 23
384.4385270921825
 33
0.0
  0
SOLID
  5
6D54
330
6B50
100
AcDbEntity
  8
DIM
100
AcDbTrace
 10
82.74479870455502
 20
384.7718604255159
 30
0.0
 11
82.74479870455502
 21
384.1051937588492
 31
0.0
 12
84.74479870455501
 22
384.4385270921825
 32
0.0
 13
84.74479870455501
 23
384.4385270921825
 33
0.0
  0
MTEXT
  5
6D55
330
6B50
100
AcDbEntity
  8
DIM
100
AcDbMText
 10
73.74479876415967
 20
386.9385270921825
 30
0.0
 40
3.0
 41
0.0
 71
     5
 72
     1
  1
\A1;22
  7
dayus
 73
     1
 44
1.0
1001
ACAD
1000
MTEXTBEGIN
1070
    73
1070
     1
1070
    44
1040
1.0
1070
    74
1070
     0
1000
MTEXTEND
  0
POINT
  5
6D56
330
6B50
100
AcDbEntity
  8
Defpoints
 62
     0
100
AcDbPoint
 10
62.74479882376431
 20
334.4553260022621
 30
0.0
  0
POINT
  5
6D57
330
6B50
100
AcDbEntity
  8
Defpoints
 62
     0
100
AcDbPoint
 10
84.74479870455501
 20
336.4553263300876
 30
0.0
  0
POINT
  5
6D58
330
6B50
100
AcDbEntity
  8
Defpoints
 62
     0
100
AcDbPoint
 10
84.74479870455501
 20
384.4385270921825
 30
0.0
  0
ENDBLK
  5
6B5B
330
6B50
100
AcDbEntity
  8
0
100
AcDbBlockEnd
  0
BLOCK
  5
6B66
330
6B5C
100
AcDbEntity
  8
0
100
AcDbBlockBegin
  2
*D32
 70
     1
 10
0.0
 20
0.0
 30
0.0
  3
*D32
  1

  0
LINE
  5
6D62
330
6B5C
100
AcDbEntity
  8
DIM
100
AcDbLine
 10
92.74479897277592
 20
363.7053254285677
 30
0.0
 11
92.74479897277592
 21
376.321926260375
 31
0.0
  0
LINE
  5
6D63
330
6B5C
100
AcDbEntity
  8
DIM
100
AcDbLine
 10
106.7447994049096
 20
363.7053254285677
 30
0.0
 11
106.7447994049096
 21
376.321926260375
 31
0.0
  0
LINE
  5
6D64
330
6B5C
100
AcDbEntity
  8
DIM
100
AcDbLine
 10
94.74479897277593
 20
374.821926260375
 30
0.0
 11
104.7447994049096
 21
374.821926260375
 31
0.0
  0
SOLID
  5
6D65
330
6B5C
100
AcDbEntity
  8
DIM
100
AcDbTrace
 10
94.74479897277593
 20
375.1552595937083
 30
0.0
 11
94.74479897277593
 21
374.4885929270417
 31
0.0
 12
92.74479897277592
 22
374.821926260375
 32
0.0
 13
92.74479897277592
 23
374.821926260375
 33
0.0
  0
SOLID
  5
6D66
330
6B5C
100
AcDbEntity
  8
DIM
100
AcDbTrace
 10
104.7447994049096
 20
375.1552595937083
 30
0.0
 11
104.7447994049096
 21
374.4885929270417
 31
0.0
 12
106.7447994049096
 22
374.821926260375
 32
0.0
 13
106.7447994049096
 23
374.821926260375
 33
0.0
  0
MTEXT
  5
6D67
330
6B5C
100
AcDbEntity
  8
DIM
100
AcDbMText
 10
99.74479918884277
 20
377.321926260375
 30
0.0
 40
3.0
 41
0.0
 71
     5
 72
     1
  1
\A1;14
  7
dayus
 73
     1
 44
1.0
1001
ACAD
1000
MTEXTBEGIN
1070
    73
1070
     1
1070
    44
1040
1.0
1070
    74
1070
     0
1000
MTEXTEND
  0
POINT
  5
6D68
330
6B5C
100
AcDbEntity
  8
Defpoints
 62
     0
100
AcDbPoint
 10
92.74479897277592
 20
362.2053254285677
 30
0.0
  0
POINT
  5
6D69
330
6B5C
100
AcDbEntity
  8
Defpoints
 62
     0
100
AcDbPoint
 10
106.7447994049096
 20
362.2053254285677
 30
0.0
  0
POINT
  5
6D6A
330
6B5C
100
AcDbEntity
  8
Defpoints
 62
     0
100
AcDbPoint
 10
106.7447994049096
 20
374.821926260375
 30
0.0
  0
ENDBLK
  5
6B67
330
6B5C
100
AcDbEntity
  8
0
100
AcDbBlockEnd
  0
BLOCK
  5
6B72
330
6B68
100
AcDbEntity
  8
0
100
AcDbBlockBegin
  2
*D33
 70
     1
 10
0.0
 20
0.0
 30
0.0
  3
*D33
  1

  0
LINE
  5
6D6B
330
6B68
100
AcDbEntity
  8
DIM
100
AcDbLine
 10
128.7447974230551
 20
363.7053254285675
 30
0.0
 11
128.7447974230551
 21
376.321926260375
 31
0.0
  0
LINE
  5
6D6C
330
6B68
100
AcDbEntity
  8
DIM
100
AcDbLine
 10
142.7447997178339
 20
363.7053254285675
 30
0.0
 11
142.7447997178339
 21
376.321926260375
 31
0.0
  0
LINE
  5
6D6D
330
6B68
100
AcDbEntity
  8
DIM
100
AcDbLine
 10
130.7447974230551
 20
374.821926260375
 30
0.0
 11
140.744799717834
 21
374.821926260375
 31
0.0
  0
SOLID
  5
6D6E
330
6B68
100
AcDbEntity
  8
DIM
100
AcDbTrace
 10
130.7447974230551
 20
375.1552595937083
 30
0.0
 11
130.7447974230551
 21
374.4885929270417
 31
0.0
 12
128.7447974230551
 22
374.821926260375
 32
0.0
 13
128.7447974230551
 23
374.821926260375
 33
0.0
  0
SOLID
  5
6D6F
330
6B68
100
AcDbEntity
  8
DIM
100
AcDbTrace
 10
140.744799717834
 20
375.1552595937083
 30
0.0
 11
140.744799717834
 21
374.4885929270417
 31
0.0
 12
142.7447997178339
 22
374.821926260375
 32
0.0
 13
142.7447997178339
 23
374.821926260375
 33
0.0
  0
MTEXT
  5
6D70
330
6B68
100
AcDbEntity
  8
DIM
100
AcDbMText
 10
135.7447985704445
 20
377.321926260375
 30
0.0
 40
3.0
 41
0.0
 71
     5
 72
     1
  1
\A1;14
  7
dayus
 73
     1
 44
1.0
1001
ACAD
1000
MTEXTBEGIN
1070
    73
1070
     1
1070
    44
1040
1.0
1070
    74
1070
     0
1000
MTEXTEND
  0
POINT
  5
6D71
330
6B68
100
AcDbEntity
  8
Defpoints
 62
     0
100
AcDbPoint
 10
128.7447974230551
 20
362.2053254285676
 30
0.0
  0
POINT
  5
6D72
330
6B68
100
AcDbEntity
  8
Defpoints
 62
     0
100
AcDbPoint
 10
142.7447997178339
 20
362.2053254285674
 30
0.0
  0
POINT
  5
6D73
330
6B68
100
AcDbEntity
  8
Defpoints
 62
     0
100
AcDbPoint
 10
142.7447997178339
 20
374.821926260375
 30
0.0
  0
ENDBLK
  5
6B73
330
6B68
100
AcDbEntity
  8
0
100
AcDbBlockEnd
  0
BLOCK
  5
6C4A
330
6C40
100
AcDbEntity
  8
0
100
AcDbBlockBegin
  2
*D34
 70
     1
 10
0.0
 20
0.0
 30
0.0
  3
*D34
  1

  0
LINE
  5
6CAA
330
6C40
100
AcDbEntity
  8
DIM
100
AcDbLine
 10
229.3129016468494
 20
358.9132293177713
 30
0.0
 11
229.3129016468494
 21
374.8531547024805
 31
0.0
  0
LINE
  5
6CAB
330
6C40
100
AcDbEntity
  8
DIM
100
AcDbLine
 10
275.8129016468491
 20
358.913229317771
 30
0.0
 11
275.8129016468491
 21
374.8531547024805
 31
0.0
  0
LINE
  5
6CAC
330
6C40
100
AcDbEntity
  8
DIM
100
AcDbLine
 10
231.3129016468494
 20
373.3531547024806
 30
0.0
 11
273.8129016468491
 21
373.3531547024806
 31
0.0
  0
SOLID
  5
6CAD
330
6C40
100
AcDbEntity
  8
DIM
100
AcDbTrace
 10
231.3129016468494
 20
373.6864880358139
 30
0.0
 11
231.3129016468494
 21
373.0198213691472
 31
0.0
 12
229.3129016468494
 22
373.3531547024806
 32
0.0
 13
229.3129016468494
 23
373.3531547024806
 33
0.0
  0
SOLID
  5
6CAE
330
6C40
100
AcDbEntity
  8
DIM
100
AcDbTrace
 10
273.8129016468491
 20
373.6864880358139
 30
0.0
 11
273.8129016468491
 21
373.0198213691472
 31
0.0
 12
275.8129016468491
 22
373.3531547024806
 32
0.0
 13
275.8129016468491
 23
373.3531547024806
 33
0.0
  0
MTEXT
  5
6CAF
330
6C40
100
AcDbEntity
  8
DIM
100
AcDbMText
 10
252.5629016468492
 20
375.8531547024805
 30
0.0
 40
3.0
 41
0.0
 71
     5
 72
     1
  1
\A1;□46.5
  7
dayus
 73
     1
 44
1.0
1001
ACAD
1000
MTEXTBEGIN
1070
    73
1070
     1
1070
    44
1040
1.0
1070
    74
1070
     0
1000
MTEXTEND
  0
POINT
  5
6CB0
330
6C40
100
AcDbEntity
  8
Defpoints
 62
     0
100
AcDbPoint
 10
229.3129016468494
 20
357.4132293177713
 30
0.0
  0
POINT
  5
6CB1
330
6C40
100
AcDbEntity
  8
Defpoints
 62
     0
100
AcDbPoint
 10
275.8129016468491
 20
357.413229317771
 30
0.0
  0
POINT
  5
6CB2
330
6C40
100
AcDbEntity
  8
Defpoints
 62
     0
100
AcDbPoint
 10
275.8129016468491
 20
373.3531547024806
 30
0.0
  0
ENDBLK
  5
6C4B
330
6C40
100
AcDbEntity
  8
0
100
AcDbBlockEnd
  0
BLOCK
  5
6C56
330
6C4C
100
AcDbEntity
  8
0
100
AcDbBlockBegin
  2
*D35
 70
     1
 10
0.0
 20
0.0
 30
0.0
  3
*D35
  1

  0
LINE
  5
6CA0
330
6C4C
100
AcDbEntity
  8
DIM
100
AcDbLine
 10
219.8129016468493
 20
356.7053261140213
 30
0.0
 11
219.8129016468493
 21
383.629949044136
 31
0.0
  0
LINE
  5
6CA1
330
6C4C
100
AcDbEntity
  8
DIM
100
AcDbLine
 10
285.3129016468493
 20
356.7053261140209
 30
0.0
 11
285.3129016468493
 21
383.629949044136
 31
0.0
  0
LINE
  5
6CA2
330
6C4C
100
AcDbEntity
  8
DIM
100
AcDbLine
 10
221.8129016468493
 20
382.129949044136
 30
0.0
 11
283.3129016468493
 21
382.129949044136
 31
0.0
  0
SOLID
  5
6CA3
330
6C4C
100
AcDbEntity
  8
DIM
100
AcDbTrace
 10
221.8129016468493
 20
382.4632823774693
 30
0.0
 11
221.8129016468493
 21
381.7966157108027
 31
0.0
 12
219.8129016468493
 22
382.129949044136
 32
0.0
 13
219.8129016468493
 23
382.129949044136
 33
0.0
  0
SOLID
  5
6CA4
330
6C4C
100
AcDbEntity
  8
DIM
100
AcDbTrace
 10
283.3129016468493
 20
382.4632823774693
 30
0.0
 11
283.3129016468493
 21
381.7966157108027
 31
0.0
 12
285.3129016468493
 22
382.129949044136
 32
0.0
 13
285.3129016468493
 23
382.129949044136
 33
0.0
  0
MTEXT
  5
6CA5
330
6C4C
100
AcDbEntity
  8
DIM
100
AcDbMText
 10
252.5629016468493
 20
384.629949044136
 30
0.0
 40
3.0
 41
0.0
 71
     5
 72
     1
  1
\A1;□65.5
  7
dayus
 73
     1
 44
1.0
1001
ACAD
1000
MTEXTBEGIN
1070
    73
1070
     1
1070
    44
1040
1.0
1070
    74
1070
     0
1000
MTEXTEND
  0
POINT
  5
6CA6
330
6C4C
100
AcDbEntity
  8
Defpoints
 62
     0
100
AcDbPoint
 10
219.8129016468493
 20
355.2053261140213
 30
0.0
  0
POINT
  5
6CA7
330
6C4C
100
AcDbEntity
  8
Defpoints
 62
     0
100
AcDbPoint
 10
285.3129016468493
 20
355.2053261140209
 30
0.0
  0
POINT
  5
6CA8
330
6C4C
100
AcDbEntity
  8
Defpoints
 62
     0
100
AcDbPoint
 10
285.3129016468493
 20
382.129949044136
 30
0.0
  0
ENDBLK
  5
6C57
330
6C4C
100
AcDbEntity
  8
0
100
AcDbBlockEnd
  0
BLOCK
  5
6D88
330
6D7E
100
AcDbEntity
  8
0
100
AcDbBlockBegin
  2
*D36
 70
     1
 10
0.0
 20
0.0
 30
0.0
  3
*D36
  1

  0
LINE
  5
6DDE
330
6D7E
100
AcDbEntity
  8
DIM
100
AcDbLine
 10
93.29725367199873
 20
184.0993251543148
 30
0.0
 11
93.29725367199873
 21
189.0403298071544
 31
0.0
  0
LINE
  5
6DDF
330
6D7E
100
AcDbEntity
  8
DIM
100
AcDbLine
 10
100.7972536719987
 20
157.7092037162317
 30
0.0
 11
100.7972536719987
 21
189.0403298071544
 31
0.0
  0
LINE
  5
6DE0
330
6D7E
100
AcDbEntity
  8
DIM
100
AcDbLine
 10
95.29725367199873
 20
187.5403298071544
 30
0.0
 11
98.79725367199874
 21
187.5403298071544
 31
0.0
  0
SOLID
  5
6DE1
330
6D7E
100
AcDbEntity
  8
DIM
100
AcDbTrace
 10
95.29725367199873
 20
187.8736631404877
 30
0.0
 11
95.29725367199873
 21
187.206996473821
 31
0.0
 12
93.29725367199873
 22
187.5403298071544
 32
0.0
 13
93.29725367199873
 23
187.5403298071544
 33
0.0
  0
SOLID
  5
6DE2
330
6D7E
100
AcDbEntity
  8
DIM
100
AcDbTrace
 10
98.79725367199874
 20
187.8736631404877
 30
0.0
 11
98.79725367199874
 21
187.206996473821
 31
0.0
 12
100.7972536719987
 22
187.5403298071544
 32
0.0
 13
100.7972536719987
 23
187.5403298071544
 33
0.0
  0
MTEXT
  5
6DE3
330
6D7E
100
AcDbEntity
  8
DIM
100
AcDbMText
 10
97.04725367199873
 20
190.0403298071544
 30
0.0
 40
3.0
 41
0.0
 71
     5
 72
     1
  1
\A1;7.5
  7
dayus
 73
     1
 44
1.0
1001
ACAD
1000
MTEXTBEGIN
1070
    73
1070
     1
1070
    44
1040
1.0
1070
    74
1070
     0
1000
MTEXTEND
  0
POINT
  5
6DE4
330
6D7E
100
AcDbEntity
  8
Defpoints
 62
     0
100
AcDbPoint
 10
93.29725367199873
 20
182.5993251543149
 30
0.0
  0
POINT
  5
6DE5
330
6D7E
100
AcDbEntity
  8
Defpoints
 62
     0
100
AcDbPoint
 10
100.7972536719987
 20
156.2092037162317
 30
0.0
  0
POINT
  5
6DE6
330
6D7E
100
AcDbEntity
  8
Defpoints
 62
     0
100
AcDbPoint
 10
100.7972536719987
 20
187.5403298071544
 30
0.0
  0
ENDBLK
  5
6D89
330
6D7E
100
AcDbEntity
  8
0
100
AcDbBlockEnd
  0
BLOCK
  5
6D94
330
6D8A
100
AcDbEntity
  8
0
100
AcDbBlockBegin
  2
*D37
 70
     1
 10
0.0
 20
0.0
 30
0.0
  3
*D37
  1

  0
LINE
  5
6DE7
330
6D8A
100
AcDbEntity
  8
DIM
100
AcDbLine
 10
135.7972536719988
 20
157.7092037162315
 30
0.0
 11
135.7972536719988
 21
189.0403298071544
 31
0.0
  0
LINE
  5
6DE8
330
6D8A
100
AcDbEntity
  8
DIM
100
AcDbLine
 10
143.2972544170568
 20
184.0993251543146
 30
0.0
 11
143.2972544170568
 21
189.0403298071544
 31
0.0
  0
LINE
  5
6DE9
330
6D8A
100
AcDbEntity
  8
DIM
100
AcDbLine
 10
137.7972536719988
 20
187.5403298071544
 30
0.0
 11
141.2972544170568
 21
187.5403298071544
 31
0.0
  0
SOLID
  5
6DEA
330
6D8A
100
AcDbEntity
  8
DIM
100
AcDbTrace
 10
137.7972536719988
 20
187.8736631404877
 30
0.0
 11
137.7972536719988
 21
187.206996473821
 31
0.0
 12
135.7972536719988
 22
187.5403298071544
 32
0.0
 13
135.7972536719988
 23
187.5403298071544
 33
0.0
  0
SOLID
  5
6DEB
330
6D8A
100
AcDbEntity
  8
DIM
100
AcDbTrace
 10
141.2972544170568
 20
187.8736631404877
 30
0.0
 11
141.2972544170568
 21
187.206996473821
 31
0.0
 12
143.2972544170568
 22
187.5403298071544
 32
0.0
 13
143.2972544170568
 23
187.5403298071544
 33
0.0
  0
MTEXT
  5
6DEC
330
6D8A
100
AcDbEntity
  8
DIM
100
AcDbMText
 10
139.5472540445278
 20
190.0403298071544
 30
0.0
 40
3.0
 41
0.0
 71
     5
 72
     1
  1
\A1;7.5
  7
dayus
 73
     1
 44
1.0
1001
ACAD
1000
MTEXTBEGIN
1070
    73
1070
     1
1070
    44
1040
1.0
1070
    74
1070
     0
1000
MTEXTEND
  0
POINT
  5
6DED
330
6D8A
100
AcDbEntity
  8
Defpoints
 62
     0
100
AcDbPoint
 10
135.7972536719988
 20
156.2092037162314
 30
0.0
  0
POINT
  5
6DEE
330
6D8A
100
AcDbEntity
  8
Defpoints
 62
     0
100
AcDbPoint
 10
143.2972544170568
 20
182.5993251543146
 30
0.0
  0
POINT
  5
6DEF
330
6D8A
100
AcDbEntity
  8
Defpoints
 62
     0
100
AcDbPoint
 10
143.2972544170568
 20
187.5403298071544
 30
0.0
  0
ENDBLK
  5
6D95
330
6D8A
100
AcDbEntity
  8
0
100
AcDbBlockEnd
  0
BLOCK
  5
6DA0
330
6D96
100
AcDbEntity
  8
0
100
AcDbBlockBegin
  2
*D38
 70
     1
 10
0.0
 20
0.0
 30
0.0
  3
*D38
  1

  0
LINE
  5
6DF0
330
6D96
100
AcDbEntity
  8
DIM
100
AcDbLine
 10
93.29725367199861
 20
184.099325154315
 30
0.0
 11
93.29725367199861
 21
206.3325268179299
 31
0.0
  0
LINE
  5
6DF1
330
6D96
100
AcDbEntity
  8
DIM
100
AcDbLine
 10
143.2972544170566
 20
184.0993251543147
 30
0.0
 11
143.2972544170566
 21
206.3325268179299
 31
0.0
  0
LINE
  5
6DF2
330
6D96
100
AcDbEntity
  8
DIM
100
AcDbLine
 10
95.29725367199862
 20
204.8325268179298
 30
0.0
 11
141.2972544170566
 21
204.8325268179298
 31
0.0
  0
SOLID
  5
6DF3
330
6D96
100
AcDbEntity
  8
DIM
100
AcDbTrace
 10
95.29725367199862
 20
205.1658601512632
 30
0.0
 11
95.29725367199862
 21
204.4991934845965
 31
0.0
 12
93.29725367199861
 22
204.8325268179298
 32
0.0
 13
93.29725367199861
 23
204.8325268179298
 33
0.0
  0
SOLID
  5
6DF4
330
6D96
100
AcDbEntity
  8
DIM
100
AcDbTrace
 10
141.2972544170566
 20
205.1658601512632
 30
0.0
 11
141.2972544170566
 21
204.4991934845965
 31
0.0
 12
143.2972544170566
 22
204.8325268179298
 32
0.0
 13
143.2972544170566
 23
204.8325268179298
 33
0.0
  0
MTEXT
  5
6DF5
330
6D96
100
AcDbEntity
  8
DIM
100
AcDbMText
 10
118.2972540445276
 20
207.3325268179298
 30
0.0
 40
3.0
 41
0.0
 71
     5
 72
     1
  1
\A1;45+stroke=50
  7
dayus
 73
     1
 44
1.0
1001
ACAD
1000
MTEXTBEGIN
1070
    73
1070
     1
1070
    44
1040
1.0
1070
    74
1070
     0
1000
MTEXTEND
  0
POINT
  5
6DF6
330
6D96
100
AcDbEntity
  8
Defpoints
 62
     0
100
AcDbPoint
 10
93.29725367199861
 20
182.599325154315
 30
0.0
  0
POINT
  5
6DF7
330
6D96
100
AcDbEntity
  8
Defpoints
 62
     0
100
AcDbPoint
 10
143.2972544170566
 20
182.5993251543147
 30
0.0
  0
POINT
  5
6DF8
330
6D96
100
AcDbEntity
  8
Defpoints
 62
     0
100
AcDbPoint
 10
143.2972544170566
 20
204.8325268179298
 30
0.0
  0
ENDBLK
  5
6DA1
330
6D96
100
AcDbEntity
  8
0
100
AcDbBlockEnd
  0
BLOCK
  5
6DAC
330
6DA2
100
AcDbEntity
  8
0
100
AcDbBlockBegin
  2
*D39
 70
     1
 10
0.0
 20
0.0
 30
0.0
  3
*D39
  1

  0
LINE
  5
6E3D
330
6DA2
100
AcDbEntity
  8
DIM
100
AcDbLine
 10
85.297253292019
 20
158.349326055835
 30
0.0
 11
85.297253292019
 21
217.8186222112814
 31
0.0
  0
LINE
  5
6E3E
330
6DA2
100
AcDbEntity
  8
DIM
100
AcDbLine
 10
143.2972544170566
 20
184.0993251543147
 30
0.0
 11
143.2972544170566
 21
217.8186222112814
 31
0.0
  0
LINE
  5
6E3F
330
6DA2
100
AcDbEntity
  8
DIM
100
AcDbLine
 10
87.29725329201901
 20
216.3186222112814
 30
0.0
 11
141.2972544170566
 21
216.3186222112814
 31
0.0
  0
SOLID
  5
6E40
330
6DA2
100
AcDbEntity
  8
DIM
100
AcDbTrace
 10
87.29725329201901
 20
216.6519555446147
 30
0.0
 11
87.29725329201901
 21
215.9852888779481
 31
0.0
 12
85.297253292019
 22
216.3186222112814
 32
0.0
 13
85.297253292019
 23
216.3186222112814
 33
0.0
  0
SOLID
  5
6E41
330
6DA2
100
AcDbEntity
  8
DIM
100
AcDbTrace
 10
141.2972544170566
 20
216.6519555446147
 30
0.0
 11
141.2972544170566
 21
215.9852888779481
 31
0.0
 12
143.2972544170566
 22
216.3186222112814
 32
0.0
 13
143.2972544170566
 23
216.3186222112814
 33
0.0
  0
MTEXT
  5
6E42
330
6DA2
100
AcDbEntity
  8
DIM
100
AcDbMText
 10
114.2972538545378
 20
218.8186222112814
 30
0.0
 40
3.0
 41
0.0
 71
     5
 72
     1
  1
\A1;53+stroke=58
  7
dayus
 73
     1
 44
1.0
1001
ACAD
1000
MTEXTBEGIN
1070
    73
1070
     1
1070
    44
1040
1.0
1070
    74
1070
     0
1000
MTEXTEND
  0
POINT
  5
6E43
330
6DA2
100
AcDbEntity
  8
Defpoints
 62
     0
100
AcDbPoint
 10
85.297253292019
 20
156.849326055835
 30
0.0
  0
POINT
  5
6E44
330
6DA2
100
AcDbEntity
  8
Defpoints
 62
     0
100
AcDbPoint
 10
143.2972544170566
 20
182.5993251543147
 30
0.0
  0
POINT
  5
6E45
330
6DA2
100
AcDbEntity
  8
Defpoints
 62
     0
100
AcDbPoint
 10
143.2972544170566
 20
216.3186222112814
 30
0.0
  0
ENDBLK
  5
6DAD
330
6DA2
100
AcDbEntity
  8
0
100
AcDbBlockEnd
  0
BLOCK
  5
6DB8
330
6DAE
100
AcDbEntity
  8
0
100
AcDbBlockBegin
  2
*D40
 70
     1
 10
0.0
 20
0.0
 30
0.0
  3
*D40
  1

  0
LINE
  5
6E02
330
6DAE
100
AcDbEntity
  8
DIM
100
AcDbLine
 10
85.29725340377771
 20
158.3493260558349
 30
0.0
 11
85.29725340377771
 21
206.3325268179299
 31
0.0
  0
LINE
  5
6E03
330
6DAE
100
AcDbEntity
  8
DIM
100
AcDbLine
 10
93.29725367199873
 20
184.0993251543148
 30
0.0
 11
93.29725367199873
 21
206.3325268179299
 31
0.0
  0
LINE
  5
6E04
330
6DAE
100
AcDbEntity
  8
DIM
100
AcDbLine
 10
87.29725340377772
 20
204.8325268179298
 30
0.0
 11
91.29725367199872
 21
204.8325268179298
 31
0.0
  0
SOLID
  5
6E05
330
6DAE
100
AcDbEntity
  8
DIM
100
AcDbTrace
 10
87.29725340377772
 20
205.1658601512632
 30
0.0
 11
87.29725340377772
 21
204.4991934845965
 31
0.0
 12
85.29725340377771
 22
204.8325268179298
 32
0.0
 13
85.29725340377771
 23
204.8325268179298
 33
0.0
  0
SOLID
  5
6E06
330
6DAE
100
AcDbEntity
  8
DIM
100
AcDbTrace
 10
91.29725367199872
 20
205.1658601512632
 30
0.0
 11
91.29725367199872
 21
204.4991934845965
 31
0.0
 12
93.29725367199873
 22
204.8325268179298
 32
0.0
 13
93.29725367199873
 23
204.8325268179298
 33
0.0
  0
MTEXT
  5
6E07
330
6DAE
100
AcDbEntity
  8
DIM
100
AcDbMText
 10
89.29725353788823
 20
207.3325268179298
 30
0.0
 40
3.0
 41
0.0
 71
     5
 72
     1
  1
\A1;8
  7
dayus
 73
     1
 44
1.0
1001
ACAD
1000
MTEXTBEGIN
1070
    73
1070
     1
1070
    44
1040
1.0
1070
    74
1070
     0
1000
MTEXTEND
  0
POINT
  5
6E08
330
6DAE
100
AcDbEntity
  8
Defpoints
 62
     0
100
AcDbPoint
 10
85.29725340377771
 20
156.8493260558349
 30
0.0
  0
POINT
  5
6E09
330
6DAE
100
AcDbEntity
  8
Defpoints
 62
     0
100
AcDbPoint
 10
93.29725367199873
 20
182.5993251543149
 30
0.0
  0
POINT
  5
6E0A
330
6DAE
100
AcDbEntity
  8
Defpoints
 62
     0
100
AcDbPoint
 10
93.29725367199873
 20
204.8325268179298
 30
0.0
  0
ENDBLK
  5
6DB9
330
6DAE
100
AcDbEntity
  8
0
100
AcDbBlockEnd
  0
BLOCK
  5
6DD0
330
6DC6
100
AcDbEntity
  8
0
100
AcDbBlockBegin
  2
*D42
 70
     1
 10
0.0
 20
0.0
 30
0.0
  3
*D42
  1

  0
LINE
  5
6E14
330
6DC6
100
AcDbEntity
  8
DIM
100
AcDbLine
 10
93.29725367199861
 20
184.099325154315
 30
0.0
 11
93.29725367199861
 21
196.7159259861223
 31
0.0
  0
LINE
  5
6E15
330
6DC6
100
AcDbEntity
  8
DIM
100
AcDbLine
 10
107.2972541041323
 20
184.099325154315
 30
0.0
 11
107.2972541041323
 21
196.7159259861223
 31
0.0
  0
LINE
  5
6E16
330
6DC6
100
AcDbEntity
  8
DIM
100
AcDbLine
 10
95.29725367199862
 20
195.2159259861223
 30
0.0
 11
105.2972541041323
 21
195.2159259861223
 31
0.0
  0
SOLID
  5
6E17
330
6DC6
100
AcDbEntity
  8
DIM
100
AcDbTrace
 10
95.29725367199862
 20
195.5492593194556
 30
0.0
 11
95.29725367199862
 21
194.8825926527889
 31
0.0
 12
93.29725367199861
 22
195.2159259861223
 32
0.0
 13
93.29725367199861
 23
195.2159259861223
 33
0.0
  0
SOLID
  5
6E18
330
6DC6
100
AcDbEntity
  8
DIM
100
AcDbTrace
 10
105.2972541041323
 20
195.5492593194556
 30
0.0
 11
105.2972541041323
 21
194.8825926527889
 31
0.0
 12
107.2972541041323
 22
195.2159259861223
 32
0.0
 13
107.2972541041323
 23
195.2159259861223
 33
0.0
  0
MTEXT
  5
6E19
330
6DC6
100
AcDbEntity
  8
DIM
100
AcDbMText
 10
100.2972538880654
 20
197.7159259861223
 30
0.0
 40
3.0
 41
0.0
 71
     5
 72
     1
  1
\A1;14
  7
dayus
 73
     1
 44
1.0
1001
ACAD
1000
MTEXTBEGIN
1070
    73
1070
     1
1070
    44
1040
1.0
1070
    74
1070
     0
1000
MTEXTEND
  0
POINT
  5
6E1A
330
6DC6
100
AcDbEntity
  8
Defpoints
 62
     0
100
AcDbPoint
 10
93.29725367199861
 20
182.599325154315
 30
0.0
  0
POINT
  5
6E1B
330
6DC6
100
AcDbEntity
  8
Defpoints
 62
     0
100
AcDbPoint
 10
107.2972541041323
 20
182.599325154315
 30
0.0
  0
POINT
  5
6E1C
330
6DC6
100
AcDbEntity
  8
Defpoints
 62
     0
100
AcDbPoint
 10
107.2972541041323
 20
195.2159259861223
 30
0.0
  0
ENDBLK
  5
6DD1
330
6DC6
100
AcDbEntity
  8
0
100
AcDbBlockEnd
  0
BLOCK
  5
6DDC
330
6DD2
100
AcDbEntity
  8
0
100
AcDbBlockBegin
  2
*D43
 70
     1
 10
0.0
 20
0.0
 30
0.0
  3
*D43
  1

  0
LINE
  5
6E1D
330
6DD2
100
AcDbEntity
  8
DIM
100
AcDbLine
 10
129.2972521222778
 20
184.0993251543148
 30
0.0
 11
129.2972521222778
 21
196.7159259861223
 31
0.0
  0
LINE
  5
6E1E
330
6DD2
100
AcDbEntity
  8
DIM
100
AcDbLine
 10
143.2972544170566
 20
184.0993251543147
 30
0.0
 11
143.2972544170566
 21
196.7159259861223
 31
0.0
  0
LINE
  5
6E1F
330
6DD2
100
AcDbEntity
  8
DIM
100
AcDbLine
 10
131.2972521222778
 20
195.2159259861223
 30
0.0
 11
141.2972544170566
 21
195.2159259861223
 31
0.0
  0
SOLID
  5
6E20
330
6DD2
100
AcDbEntity
  8
DIM
100
AcDbTrace
 10
131.2972521222778
 20
195.5492593194556
 30
0.0
 11
131.2972521222778
 21
194.8825926527889
 31
0.0
 12
129.2972521222778
 22
195.2159259861223
 32
0.0
 13
129.2972521222778
 23
195.2159259861223
 33
0.0
  0
SOLID
  5
6E21
330
6DD2
100
AcDbEntity
  8
DIM
100
AcDbTrace
 10
141.2972544170566
 20
195.5492593194556
 30
0.0
 11
141.2972544170566
 21
194.8825926527889
 31
0.0
 12
143.2972544170566
 22
195.2159259861223
 32
0.0
 13
143.2972544170566
 23
195.2159259861223
 33
0.0
  0
MTEXT
  5
6E22
330
6DD2
100
AcDbEntity
  8
DIM
100
AcDbMText
 10
136.2972532696672
 20
197.7159259861223
 30
0.0
 40
3.0
 41
0.0
 71
     5
 72
     1
  1
\A1;14
  7
dayus
 73
     1
 44
1.0
1001
ACAD
1000
MTEXTBEGIN
1070
    73
1070
     1
1070
    44
1040
1.0
1070
    74
1070
     0
1000
MTEXTEND
  0
POINT
  5
6E23
330
6DD2
100
AcDbEntity
  8
Defpoints
 62
     0
100
AcDbPoint
 10
129.2972521222778
 20
182.5993251543149
 30
0.0
  0
POINT
  5
6E24
330
6DD2
100
AcDbEntity
  8
Defpoints
 62
     0
100
AcDbPoint
 10
143.2972544170566
 20
182.5993251543147
 30
0.0
  0
POINT
  5
6E25
330
6DD2
100
AcDbEntity
  8
Defpoints
 62
     0
100
AcDbPoint
 10
143.2972544170566
 20
195.2159259861223
 30
0.0
  0
ENDBLK
  5
6DDD
330
6DD2
100
AcDbEntity
  8
0
100
AcDbBlockEnd
  0
BLOCK
  5
6E57
330
6E4D
100
AcDbEntity
  8
0
100
AcDbBlockBegin
  2
*D44
 70
     1
 10
0.0
 20
0.0
 30
0.0
  3
*D44
  1

  0
LINE
  5
6E65
330
6E4D
100
AcDbEntity
  8
DIM
100
AcDbLine
 10
229.8653563460719
 20
179.3072290435186
 30
0.0
 11
229.8653563460719
 21
195.2471544282279
 31
0.0
  0
LINE
  5
6E66
330
6E4D
100
AcDbEntity
  8
DIM
100
AcDbLine
 10
276.3653563460717
 20
179.3072290435183
 30
0.0
 11
276.3653563460717
 21
195.2471544282279
 31
0.0
  0
LINE
  5
6E67
330
6E4D
100
AcDbEntity
  8
DIM
100
AcDbLine
 10
231.8653563460719
 20
193.7471544282279
 30
0.0
 11
274.3653563460717
 21
193.7471544282279
 31
0.0
  0
SOLID
  5
6E68
330
6E4D
100
AcDbEntity
  8
DIM
100
AcDbTrace
 10
231.8653563460719
 20
194.0804877615612
 30
0.0
 11
231.8653563460719
 21
193.4138210948945
 31
0.0
 12
229.8653563460719
 22
193.7471544282279
 32
0.0
 13
229.8653563460719
 23
193.7471544282279
 33
0.0
  0
SOLID
  5
6E69
330
6E4D
100
AcDbEntity
  8
DIM
100
AcDbTrace
 10
274.3653563460717
 20
194.0804877615612
 30
0.0
 11
274.3653563460717
 21
193.4138210948945
 31
0.0
 12
276.3653563460717
 22
193.7471544282279
 32
0.0
 13
276.3653563460717
 23
193.7471544282279
 33
0.0
  0
MTEXT
  5
6E6A
330
6E4D
100
AcDbEntity
  8
DIM
100
AcDbMText
 10
253.1153563460719
 20
196.2471544282279
 30
0.0
 40
3.0
 41
0.0
 71
     5
 72
     1
  1
\A1;□46.5
  7
dayus
 73
     1
 44
1.0
1001
ACAD
1000
MTEXTBEGIN
1070
    73
1070
     1
1070
    44
1040
1.0
1070
    74
1070
     0
1000
MTEXTEND
  0
POINT
  5
6E6B
330
6E4D
100
AcDbEntity
  8
Defpoints
 62
     0
100
AcDbPoint
 10
229.8653563460719
 20
177.8072290435186
 30
0.0
  0
POINT
  5
6E6C
330
6E4D
100
AcDbEntity
  8
Defpoints
 62
     0
100
AcDbPoint
 10
276.3653563460717
 20
177.8072290435183
 30
0.0
  0
POINT
  5
6E6D
330
6E4D
100
AcDbEntity
  8
Defpoints
 62
     0
100
AcDbPoint
 10
276.3653563460717
 20
193.7471544282279
 30
0.0
  0
ENDBLK
  5
6E58
330
6E4D
100
AcDbEntity
  8
0
100
AcDbBlockEnd
  0
BLOCK
  5
6E63
330
6E59
100
AcDbEntity
  8
0
100
AcDbBlockBegin
  2
*D45
 70
     1
 10
0.0
 20
0.0
 30
0.0
  3
*D45
  1

  0
LINE
  5
6E6E
330
6E59
100
AcDbEntity
  8
DIM
100
AcDbLine
 10
220.3653563460719
 20
177.0993258397686
 30
0.0
 11
220.3653563460719
 21
204.0239487698833
 31
0.0
  0
LINE
  5
6E6F
330
6E59
100
AcDbEntity
  8
DIM
100
AcDbLine
 10
285.8653563460718
 20
177.0993258397682
 30
0.0
 11
285.8653563460718
 21
204.0239487698833
 31
0.0
  0
LINE
  5
6E70
330
6E59
100
AcDbEntity
  8
DIM
100
AcDbLine
 10
222.3653563460719
 20
202.5239487698833
 30
0.0
 11
283.8653563460718
 21
202.5239487698833
 31
0.0
  0
SOLID
  5
6E71
330
6E59
100
AcDbEntity
  8
DIM
100
AcDbTrace
 10
222.3653563460719
 20
202.8572821032166
 30
0.0
 11
222.3653563460719
 21
202.1906154365499
 31
0.0
 12
220.3653563460719
 22
202.5239487698833
 32
0.0
 13
220.3653563460719
 23
202.5239487698833
 33
0.0
  0
SOLID
  5
6E72
330
6E59
100
AcDbEntity
  8
DIM
100
AcDbTrace
 10
283.8653563460718
 20
202.8572821032166
 30
0.0
 11
283.8653563460718
 21
202.1906154365499
 31
0.0
 12
285.8653563460718
 22
202.5239487698833
 32
0.0
 13
285.8653563460718
 23
202.5239487698833
 33
0.0
  0
MTEXT
  5
6E73
330
6E59
100
AcDbEntity
  8
DIM
100
AcDbMText
 10
253.1153563460719
 20
205.0239487698833
 30
0.0
 40
3.0
 41
0.0
 71
     5
 72
     1
  1
\A1;□65.5
  7
dayus
 73
     1
 44
1.0
1001
ACAD
1000
MTEXTBEGIN
1070
    73
1070
     1
1070
    44
1040
1.0
1070
    74
1070
     0
1000
MTEXTEND
  0
POINT
  5
6E74
330
6E59
100
AcDbEntity
  8
Defpoints
 62
     0
100
AcDbPoint
 10
220.3653563460719
 20
175.5993258397686
 30
0.0
  0
POINT
  5
6E75
330
6E59
100
AcDbEntity
  8
Defpoints
 62
     0
100
AcDbPoint
 10
285.8653563460718
 20
175.5993258397682
 30
0.0
  0
POINT
  5
6E76
330
6E59
100
AcDbEntity
  8
Defpoints
 62
     0
100
AcDbPoint
 10
285.8653563460718
 20
202.5239487698833
 30
0.0
  0
ENDBLK
  5
6E64
330
6E59
100
AcDbEntity
  8
0
100
AcDbBlockEnd
  0
BLOCK
  5
6EAE
330
6EA4
100
AcDbEntity
  8
0
100
AcDbBlockBegin
  2
*D46
 70
     1
 10
0.0
 20
0.0
 30
0.0
  3
*D46
  1

  0
LINE
  5
6ECB
330
6EA4
100
AcDbEntity
  8
DIM
100
AcDbLine
 10
89.79725357700372
 20
157.8493262197478
 30
0.0
 11
72.13218015122663
 21
157.8493262197478
 31
0.0
  0
LINE
  5
6ECC
330
6EA4
100
AcDbEntity
  8
DIM
100
AcDbLine
 10
89.79725357700372
 20
141.8493254597886
 30
0.0
 11
72.13218015122663
 21
141.8493254597886
 31
0.0
  0
LINE
  5
6ECD
330
6EA4
100
AcDbEntity
  8
DIM
100
AcDbLine
 10
73.63218015122663
 20
155.8493262197478
 30
0.0
 11
73.63218015122663
 21
143.8493254597886
 31
0.0
  0
SOLID
  5
6ECE
330
6EA4
100
AcDbEntity
  8
DIM
100
AcDbTrace
 10
73.2988468178933
 20
155.8493262197478
 30
0.0
 11
73.96551348455997
 21
155.8493262197478
 31
0.0
 12
73.63218015122663
 22
157.8493262197478
 32
0.0
 13
73.63218015122663
 23
157.8493262197478
 33
0.0
  0
SOLID
  5
6ECF
330
6EA4
100
AcDbEntity
  8
DIM
100
AcDbTrace
 10
73.2988468178933
 20
143.8493254597886
 30
0.0
 11
73.96551348455997
 21
143.8493254597886
 31
0.0
 12
73.63218015122663
 22
141.8493254597886
 32
0.0
 13
73.63218015122663
 23
141.8493254597886
 33
0.0
  0
MTEXT
  5
6ED0
330
6EA4
100
AcDbEntity
  8
DIM
100
AcDbMText
 10
71.13218015122662
 20
149.8493258397682
 30
0.0
 40
3.0
 41
0.0
 71
     5
 72
     1
  1
\A1;%%C16
  7
dayus
 11
0.0000000000000001
 21
1.0
 31
0.0
 73
     1
 44
1.0
1001
ACAD
1000
MTEXTBEGIN
1070
    73
1070
     1
1070
    44
1040
1.0
1070
    74
1070
     0
1000
MTEXTEND
  0
POINT
  5
6ED1
330
6EA4
100
AcDbEntity
  8
Defpoints
 62
     0
100
AcDbPoint
 10
91.29725357700371
 20
157.8493262197478
 30
0.0
  0
POINT
  5
6ED2
330
6EA4
100
AcDbEntity
  8
Defpoints
 62
     0
100
AcDbPoint
 10
91.29725357700371
 20
141.8493254597886
 30
0.0
  0
POINT
  5
6ED3
330
6EA4
100
AcDbEntity
  8
Defpoints
 62
     0
100
AcDbPoint
 10
73.63218015122663
 20
141.8493254597886
 30
0.0
  0
ENDBLK
  5
6EAF
330
6EA4
100
AcDbEntity
  8
0
100
AcDbBlockEnd
  0
BLOCK
  5
6EDF
330
6ED5
100
AcDbEntity
  8
0
100
AcDbBlockBegin
  2
*D47
 70
     1
 10
0.0
 20
0.0
 30
0.0
  3
*D47
  1

  0
LINE
  5
6F06
330
6ED5
100
AcDbEntity
  8
DIM
100
AcDbLine
 10
83.79725329201901
 20
156.849326055835
 30
0.0
 11
77.44118918154015
 21
156.849326055835
 31
0.0
  0
LINE
  5
6F07
330
6ED5
100
AcDbEntity
  8
DIM
100
AcDbLine
 10
83.79725329201901
 20
142.8493256237013
 30
0.0
 11
77.44118918154015
 21
142.8493256237013
 31
0.0
  0
LINE
  5
6F08
330
6ED5
100
AcDbEntity
  8
DIM
100
AcDbLine
 10
78.94118918154015
 20
154.849326055835
 30
0.0
 11
78.94118918154015
 21
144.8493256237013
 31
0.0
  0
SOLID
  5
6F09
330
6ED5
100
AcDbEntity
  8
DIM
100
AcDbTrace
 10
78.60785584820682
 20
154.849326055835
 30
0.0
 11
79.27452251487348
 21
154.849326055835
 31
0.0
 12
78.94118918154015
 22
156.849326055835
 32
0.0
 13
78.94118918154015
 23
156.849326055835
 33
0.0
  0
SOLID
  5
6F0A
330
6ED5
100
AcDbEntity
  8
DIM
100
AcDbTrace
 10
78.60785584820682
 20
144.8493256237013
 30
0.0
 11
79.27452251487348
 21
144.8493256237013
 31
0.0
 12
78.94118918154015
 22
142.8493256237013
 32
0.0
 13
78.94118918154015
 23
142.8493256237013
 33
0.0
  0
MTEXT
  5
6F0B
330
6ED5
100
AcDbEntity
  8
DIM
100
AcDbMText
 10
76.44118918154013
 20
149.8493258397682
 30
0.0
 40
3.0
 41
0.0
 71
     5
 72
     1
  1
\A1;14
  7
dayus
 11
0.0000000000000001
 21
1.0
 31
0.0
 73
     1
 44
1.0
1001
ACAD
1000
MTEXTBEGIN
1070
    73
1070
     1
1070
    44
1040
1.0
1070
    74
1070
     0
1000
MTEXTEND
  0
POINT
  5
6F0C
330
6ED5
100
AcDbEntity
  8
Defpoints
 62
     0
100
AcDbPoint
 10
85.297253292019
 20
156.849326055835
 30
0.0
  0
POINT
  5
6F0D
330
6ED5
100
AcDbEntity
  8
Defpoints
 62
     0
100
AcDbPoint
 10
85.297253292019
 20
142.8493256237013
 30
0.0
  0
POINT
  5
6F0E
330
6ED5
100
AcDbEntity
  8
Defpoints
 62
     0
100
AcDbPoint
 10
78.94118918154015
 20
142.8493256237013
 30
0.0
  0
ENDBLK
  5
6EE0
330
6ED5
100
AcDbEntity
  8
0
100
AcDbBlockEnd
  0
ENDSEC
  0
SECTION
  2
ENTITIES
  0
MTEXT
  5
A9
330
1F
100
AcDbEntity
  8
0
100
AcDbMText
 10
-112.8858816556399
 20
179.1757813154577
 30
0.0
 40
3.0
 41
0.0
 71
     4
 72
     5
  1

 73
     1
 44
1.0
1001
ACAD
1000
MTEXTBEGIN
1070
    73
1070
     1
1070
    44
1040
1.0
1070
    74
1070
     0
1000
MTEXTEND
  0
MTEXT
  5
AA
330
1F
100
AcDbEntity
  8
0
100
AcDbMText
 10
-176.2667196970539
 20
189.9084924046809
 30
0.0
 40
1.799999999999999
 41
0.0
 71
     9
 72
     5
  1

 73
     1
 44
1.0
1001
ACAD
1000
MTEXTBEGIN
1070
    73
1070
     1
1070
    44
1040
1.0
1070
    74
1070
     0
1000
MTEXTEND
  0
MTEXT
  5
AB
330
1F
100
AcDbEntity
  8
0
100
AcDbMText
 10
82.64233389287733
 20
174.944592339129
 30
0.0
 40
3.0
 41
0.0
 71
     4
 72
     5
  1

 73
     1
 44
1.0
1001
ACAD
1000
MTEXTBEGIN
1070
    73
1070
     1
1070
    44
1040
1.0
1070
    74
1070
     0
1000
MTEXTEND
  0
MTEXT
  5
AC
330
1F
100
AcDbEntity
  8
0
100
AcDbMText
 10
19.26149585146331
 20
185.6773034283523
 30
0.0
 40
1.799999999999999
 41
0.0
 71
     9
 72
     5
  1

 73
     1
 44
1.0
1001
ACAD
1000
MTEXTBEGIN
1070
    73
1070
     1
1070
    44
1040
1.0
1070
    74
1070
     0
1000
MTEXTEND
  0
MTEXT
  5
B1
330
1F
100
AcDbEntity
  8
0
100
AcDbMText
 10
-211.0828086697475
 20
93.72900974557683
 30
0.0
 40
3.0
 41
59.51
 71
     1
 72
     5
  1

  7
CHINESET
 73
     1
 44
1.0
1001
ACAD
1000
MTEXTBEGIN
1070
    73
1070
     1
1070
    44
1040
1.0
1070
    74
1070
     0
1000
MTEXTEND
  0
MTEXT
  5
B2
330
1F
100
AcDbEntity
  8
0
100
AcDbMText
 10
-179.9099428209695
 20
86.93407807798587
 30
0.0
 40
3.0
 41
38.26
 71
     1
 72
     5
  1

  7
CHINESET
 73
     1
 44
1.0
1001
ACAD
1000
MTEXTBEGIN
1070
    73
1070
     1
1070
    44
1040
1.0
1070
    74
1070
     0
1000
MTEXTEND
  0
MTEXT
  5
10B3
330
1F
100
AcDbEntity
  8
0
100
AcDbMText
 10
81.67014302795905
 20
125.5492500028813
 30
0.0
 40
3.0
 41
0.0
 71
     7
 72
     5
  1

  7
CHINESET
 73
     1
 44
1.0
1001
ACAD
1000
MTEXTBEGIN
1070
    73
1070
     1
1070
    44
1040
1.0
1070
    74
1070
     0
1000
MTEXTEND
  0
LINE
  5
17B4
330
1F
100
AcDbEntity
  8
0
 62
     4
100
AcDbLine
 10
342.6061282506338
 20
76.02127997416236
 30
0.0
 11
342.6061282506338
 21
429.3352408078675
 31
0.0
  0
LINE
  5
17B5
330
1F
100
AcDbEntity
  8
0
 62
     4
100
AcDbLine
 10
5.16183393303018
 20
76.02127997416229
 30
0.0
 11
5.16183393303018
 21
429.3352408078675
 31
0.0
  0
TEXT
  5
17BD
330
1F
100
AcDbEntity
  8
LOGO
  6
Continuous
 62
     7
100
AcDbText
 10
187.5402065144314
 20
64.52186397599708
 30
0.0
 40
6.44875
  1
11/12
  7
CHINESET
 72
     1
 11
200.4377065144314
 21
67.74623897599707
 31
0.0
100
AcDbText
 73
     2
  0
TEXT
  5
17BE
330
1F
100
AcDbEntity
  8
LOGO
100
AcDbText
 10
189.5401812745122
 20
49.43812177141822
 30
0.0
 40
4.60625
  1
作動型式
  7
CHINESET
 72
     4
 11
198.7046995036789
 21
51.62337029504027
 31
0.0
100
AcDbText
  0
LINE
  5
17BF
330
1F
100
AcDbEntity
  8
0
 62
     4
100
AcDbLine
 10
342.6061282506338
 20
246.0546577368494
 30
0.0
 11
5.16183393303018
 21
246.0546577368494
 31
0.0
  0
TEXT
  5
17C3
330
1F
100
AcDbEntity
  8
LOGO
  6
Continuous
100
AcDbText
 10
189.2289852179646
 20
44.22358602792981
 30
0.0
 40
2.76375
  1
Acting type
 41
0.8
  7
CHINESET
 72
     4
 11
198.7046995036789
 21
45.14483602792981
 31
0.0
100
AcDbText
  0
LINE
  5
17C4
330
1F
100
AcDbEntity
  8
LOGO
 62
     4
100
AcDbLine
 10
216.2668256002886
 20
61.9890251224171
 30
0.0
 11
184.4160304336844
 21
61.9890251224171
 31
0.0
  0
LINE
  5
17C5
330
1F
100
AcDbEntity
  8
LOGO
 62
     4
100
AcDbLine
 10
216.2668256002886
 20
56.15834428201765
 30
0.0
 11
184.4160304336844
 21
56.15834428201765
 31
0.0
  0
LINE
  5
17C6
330
1F
100
AcDbEntity
  8
LOGO
 62
     4
100
AcDbLine
 10
216.2668256002886
 20
41.90556889437454
 30
0.0
 11
184.4160304336844
 21
41.90556889437451
 31
0.0
  0
LINE
  5
17C7
330
1F
100
AcDbEntity
  8
LOGO
 62
     4
100
AcDbLine
 10
216.2668256002886
 20
73.65038680321609
 30
0.0
 11
184.4160304336844
 21
73.65038680321598
 31
0.0
  0
LINE
  5
1802
330
1F
100
AcDbEntity
  8
LOGO
 62
     4
100
AcDbLine
 10
172.649655148954
 20
56.15834428201765
 30
0.0
 11
146.735518080512
 21
56.15834428201765
 31
0.0
  0
TEXT
  5
1803
330
1F
100
AcDbEntity
  8
LOGO
  6
Continuous
 62
     7
100
AcDbText
 10
150.3265449480663
 20
64.59533096281656
 30
0.0
 40
6.44875
  1
MCJI
  7
CHINESET
 72
     1
 11
159.692586614733
 21
67.81970596281656
 31
0.0
100
AcDbText
 73
     2
  0
LINE
  5
1804
330
1F
100
AcDbEntity
  8
LOGO
 62
     4
100
AcDbLine
 10
172.649655148954
 20
41.90556889437454
 30
0.0
 11
146.735518080512
 21
41.90556889437451
 31
0.0
  0
TEXT
  5
1805
330
1F
100
AcDbEntity
  8
LOGO
  6
Continuous
100
AcDbText
 10
155.4811580433044
 20
43.76296102792981
 30
0.0
 40
2.76375
  1
Model
 41
0.8
  7
CHINESET
 72
     4
 11
159.692586614733
 21
45.14483602792981
 31
0.0
100
AcDbText
  0
TEXT
  5
1806
330
1F
100
AcDbEntity
  8
LOGO
100
AcDbText
 10
155.086336614733
 20
49.43812177141822
 30
0.0
 40
4.60625
  1
型式
  7
CHINESET
 72
     4
 11
159.692586614733
 21
51.62337029504027
 31
0.0
100
AcDbText
  0
LINE
  5
1807
330
1F
100
AcDbEntity
  8
LOGO
 62
     4
100
AcDbLine
 10
175.2410688557982
 20
61.9890251224171
 30
0.0
 11
144.1441043736679
 21
61.9890251224171
 31
0.0
  0
LINE
  5
1808
330
1F
100
AcDbEntity
  8
LOGO
 62
     4
100
AcDbLine
 10
175.2410688557982
 20
73.65038680321598
 30
0.0
 11
144.1441043736679
 21
73.65038680321598
 31
0.0
  0
LINE
  5
1809
330
1F
100
AcDbEntity
  8
LOGO
 62
     4
100
AcDbLine
 10
159.692586614733
 20
61.9890251224171
 30
0.0
 11
159.692586614733
 21
56.15834428201765
 31
0.0
  0
LINE
  5
180A
330
1F
100
AcDbEntity
  8
LOGO
 62
     4
100
AcDbLine
 10
146.735518080512
 20
56.15834428201765
 30
0.0
 11
146.735518080512
 21
41.90556889437451
 31
0.0
  0
LINE
  5
180B
330
1F
100
AcDbEntity
  8
LOGO
 62
     4
100
AcDbLine
 10
144.1441043736679
 20
73.65038680321598
 30
0.0
 11
144.1441043736679
 21
61.9890251224171
 31
0.0
  0
LINE
  5
180C
330
1F
100
AcDbEntity
  8
LOGO
 62
     4
100
AcDbLine
 10
172.649655148954
 20
56.15834428201765
 30
0.0
 11
172.649655148954
 21
41.90556889437454
 31
0.0
  0
LINE
  5
180D
330
1F
100
AcDbEntity
  8
LOGO
 62
     4
100
AcDbLine
 10
184.4160304336844
 20
56.15834428201765
 30
0.0
 11
184.4160304336844
 21
41.90556889437454
 31
0.0
  0
LINE
  5
180E
330
1F
100
AcDbEntity
  8
LOGO
  6
Continuous
 62
     7
100
AcDbLine
 10
177.2501462206918
 20
67.77839957681237
 30
0.0
 11
182.3993780347521
 21
67.77839957681237
 31
0.0
  0
LINE
  5
180F
330
1F
100
AcDbEntity
  8
LOGO
 62
     4
100
AcDbLine
 10
175.2410688557983
 20
73.65038680321598
 30
0.0
 11
175.2410688557983
 21
61.9890251224171
 31
0.0
  0
LINE
  5
1810
330
1F
100
AcDbEntity
  8
LOGO
 62
     4
100
AcDbLine
 10
184.4160304336844
 20
73.65038680321598
 30
0.0
 11
184.4160304336844
 21
61.9890251224171
 31
0.0
  0
LINE
  5
1868
330
1F
100
AcDbEntity
  8
LOGO
 62
     4
100
AcDbLine
 10
277.0042723522236
 20
73.65038680321598
 30
0.0
 11
255.4198457755172
 21
73.65038680321598
 31
0.0
  0
LINE
  5
1869
330
1F
100
AcDbEntity
  8
LOGO
 62
     4
100
AcDbLine
 10
277.0042723522236
 20
61.9890251224171
 30
0.0
 11
255.4198457755172
 21
61.9890251224171
 31
0.0
  0
LINE
  5
186A
330
1F
100
AcDbEntity
  8
LOGO
 62
     4
100
AcDbLine
 10
275.7085654988015
 20
56.15834428201765
 30
0.0
 11
256.7155526289393
 21
56.15834428201765
 31
0.0
  0
LINE
  5
186B
330
1F
100
AcDbEntity
  8
LOGO
 62
     4
100
AcDbLine
 10
275.7085654988015
 20
41.90556889437454
 30
0.0
 11
256.7155526289393
 21
41.90556889437451
 31
0.0
  0
LINE
  5
186C
330
1F
100
AcDbEntity
  8
LOGO
 62
     4
100
AcDbLine
 10
246.244884197631
 20
61.98902512241716
 30
0.0
 11
225.4417871781747
 21
61.98902512241716
 31
0.0
  0
LINE
  5
186D
330
1F
100
AcDbEntity
  8
LOGO
 62
     4
100
AcDbLine
 10
246.244884197631
 20
56.15834428201771
 30
0.0
 11
225.4417871781747
 21
56.15834428201771
 31
0.0
  0
LINE
  5
186E
330
1F
100
AcDbEntity
  8
LOGO
 62
     4
100
AcDbLine
 10
246.244884197631
 20
73.65038680321615
 30
0.0
 11
225.4417871781747
 21
73.65038680321609
 31
0.0
  0
TEXT
  5
186F
330
1F
100
AcDbEntity
  8
LOGO
  6
Continuous
 62
     7
100
AcDbText
 10
231.2275823863749
 20
64.52186397599716
 30
0.0
 40
6.44875
  1
50
  7
CHINESET
 72
     1
 11
236.4479990530416
 21
67.74623897599716
 31
0.0
100
AcDbText
 73
     2
  0
LINE
  5
1870
330
1F
100
AcDbEntity
  8
LOGO
 62
     4
100
AcDbLine
 10
246.244884197631
 20
41.90556889437462
 30
0.0
 11
225.4417871781747
 21
41.90556889437456
 31
0.0
  0
TEXT
  5
1871
330
1F
100
AcDbEntity
  8
LOGO
  6
Continuous
100
AcDbText
 10
232.4215499736173
 20
43.76296102792983
 30
0.0
 40
2.76375
  1
Bore
 41
0.8
  7
CHINESET
 72
     4
 11
235.843335687903
 21
45.14483602792984
 31
0.0
100
AcDbText
  0
TEXT
  5
1872
330
1F
100
AcDbEntity
  8
LOGO
100
AcDbText
 10
230.949195062903
 20
49.32024529504033
 30
0.0
 40
4.60625
  1
內徑
  7
CHINESET
 72
     4
 11
235.843335687903
 21
51.62337029504033
 31
0.0
100
AcDbText
  0
LINE
  5
1873
330
1F
100
AcDbEntity
  8
LOGO
 62
     4
100
AcDbLine
 10
235.8433353891331
 20
61.98902512241716
 30
0.0
 11
235.8433353891331
 21
56.15834428201771
 31
0.0
  0
LINE
  5
1874
330
1F
100
AcDbEntity
  8
LOGO
 62
     4
100
AcDbLine
 10
198.7046995036789
 20
61.9890251224171
 30
0.0
 11
198.7046995036789
 21
56.15834428201765
 31
0.0
  0
LINE
  5
1875
330
1F
100
AcDbEntity
  8
LOGO
 62
     4
100
AcDbLine
 10
216.2668256002886
 20
56.15834428201765
 30
0.0
 11
216.2668256002886
 21
41.90556889437456
 31
0.0
  0
LINE
  5
1876
330
1F
100
AcDbEntity
  8
LOGO
 62
     4
100
AcDbLine
 10
225.4417871781747
 20
56.15834428201771
 30
0.0
 11
225.4417871781747
 21
41.90556889437462
 31
0.0
  0
LINE
  5
1877
330
1F
100
AcDbEntity
  8
LOGO
 62
     4
100
AcDbLine
 10
216.2668256002886
 20
73.65038680321609
 30
0.0
 11
216.2668256002886
 21
61.9890251224171
 31
0.0
  0
LINE
  5
1878
330
1F
100
AcDbEntity
  8
LOGO
 62
     4
100
AcDbLine
 10
225.4417871781747
 20
73.65038680321609
 30
0.0
 11
225.4417871781747
 21
61.98902512241716
 31
0.0
  0
LINE
  5
1879
330
1F
100
AcDbEntity
  8
LOGO
  6
Continuous
 62
     7
100
AcDbLine
 10
218.2759029651821
 20
67.77839957681246
 30
0.0
 11
223.4251347792425
 21
67.77839957681246
 31
0.0
  0
LINE
  5
187A
330
1F
100
AcDbEntity
  8
LOGO
 62
     4
100
AcDbLine
 10
266.4864780105953
 20
61.9890251224171
 30
0.0
 11
266.4864780105953
 21
56.15834428201765
 31
0.0
  0
LINE
  5
187B
330
1F
100
AcDbEntity
  8
LOGO
 62
     4
100
AcDbLine
 10
246.244884197631
 20
56.15834428201771
 30
0.0
 11
246.244884197631
 21
41.90556889437462
 31
0.0
  0
LINE
  5
187C
330
1F
100
AcDbEntity
  8
LOGO
 62
     4
100
AcDbLine
 10
256.7155526289393
 20
56.15834428201765
 30
0.0
 11
256.7155526289393
 21
41.90556889437451
 31
0.0
  0
TEXT
  5
187D
330
1F
100
AcDbEntity
  8
LOGO
  6
Continuous
100
AcDbText
 10
261.210987635299
 20
43.76296102792973
 30
0.0
 40
2.76375
  1
Stroke
 41
0.8
  7
CHINESET
 72
     4
 11
266.2120590638704
 21
45.14483602792973
 31
0.0
100
AcDbText
  0
TEXT
  5
187E
330
1F
100
AcDbEntity
  8
LOGO
100
AcDbText
 10
261.6058090638704
 20
49.32024529504027
 30
0.0
 40
4.60625
  1
行程
  7
CHINESET
 72
     4
 11
266.2120590638704
 21
51.62337029504027
 31
0.0
100
AcDbText
  0
LINE
  5
187F
330
1F
100
AcDbEntity
  8
LOGO
 62
     4
100
AcDbLine
 10
246.244884197631
 20
73.65038680321615
 30
0.0
 11
246.244884197631
 21
61.98902512241716
 31
0.0
  0
LINE
  5
1880
330
1F
100
AcDbEntity
  8
LOGO
  6
Continuous
 62
     7
100
AcDbLine
 10
248.2539615625246
 20
67.77839957681255
 30
0.0
 11
253.403193376585
 21
67.77839957681255
 31
0.0
  0
LINE
  5
1881
330
1F
100
AcDbEntity
  8
LOGO
 62
     4
100
AcDbLine
 10
255.4198457755172
 20
73.65038680321598
 30
0.0
 11
255.4198457755172
 21
61.9890251224171
 31
0.0
  0
TEXT
  5
1882
330
1F
100
AcDbEntity
  8
LOGO
  6
Continuous
 62
     7
100
AcDbText
 10
264.6671390956758
 20
64.52186397599708
 30
0.0
 40
6.44875
  1
5
  7
CHINESET
 72
     1
 11
266.8167224290091
 21
67.74623897599707
 31
0.0
100
AcDbText
 73
     2
  0
LINE
  5
1883
330
1F
100
AcDbEntity
  8
LOGO
 62
     4
100
AcDbLine
 10
288.2135070619424
 20
61.9890251224171
 30
0.0
 11
288.2135070619424
 21
56.15834428201765
 31
0.0
  0
LINE
  5
1885
330
1F
100
AcDbEntity
  8
LOGO
 62
     4
100
AcDbLine
 10
297.7100134968736
 20
41.90556889437454
 30
0.0
 11
278.7170006270113
 21
41.90556889437451
 31
0.0
  0
LINE
  5
1886
330
1F
100
AcDbEntity
  8
LOGO
 62
     4
100
AcDbLine
 10
297.7100134968736
 20
56.15834428201765
 30
0.0
 11
278.7170006270113
 21
56.15834428201765
 31
0.0
  0
TEXT
  5
1887
330
1F
100
AcDbEntity
  8
LOGO
  6
Continuous
100
AcDbText
 10
281.7910784905138
 20
43.76296102792973
 30
0.0
 40
2.76375
  1
MAGNET
 41
0.8
  7
CHINESET
 72
     4
 11
288.2135070619424
 21
45.14483602792973
 31
0.0
100
AcDbText
  0
TEXT
  5
1888
330
1F
100
AcDbEntity
  8
LOGO
100
AcDbText
 10
281.3041320619424
 20
49.3682270658736
 30
0.0
 40
4.60625
  1
附磁石
  7
CHINESET
 72
     4
 11
288.2135070619424
 21
51.62337029504027
 31
0.0
100
AcDbText
  0
LINE
  5
1889
330
1F
100
AcDbEntity
  8
LOGO
 62
     4
100
AcDbLine
 10
278.7170006270113
 20
56.15834428201765
 30
0.0
 11
278.7170006270113
 21
41.90556889437451
 31
0.0
  0
LINE
  5
188A
330
1F
100
AcDbEntity
  8
LOGO
 62
     4
100
AcDbLine
 10
275.7085654988015
 20
56.15834428201765
 30
0.0
 11
275.7085654988015
 21
41.85182648046082
 31
0.0
  0
LINE
  5
188B
330
1F
100
AcDbEntity
  8
LOGO
 62
     4
100
AcDbLine
 10
297.7100134968736
 20
56.15834428201765
 30
0.0
 11
297.7100134968736
 21
41.85182648046082
 31
0.0
  0
TEXT
  5
188C
330
1F
100
AcDbEntity
  8
LOGO
  6
Continuous
 62
     7
100
AcDbText
 10
281.9087957258508
 20
64.52186397599708
 30
0.0
 40
6.44875
  1
(M)
  7
CHINESET
 72
     1
 11
288.8181707258508
 21
67.74623897599707
 31
0.0
100
AcDbText
 73
     2
  0
LINE
  5
188D
330
1F
100
AcDbEntity
  8
LOGO
 62
     4
100
AcDbLine
 10
296.7263144608855
 20
61.9890251224171
 30
0.0
 11
279.7006996629992
 21
61.9890251224171
 31
0.0
  0
LINE
  5
188E
330
1F
100
AcDbEntity
  8
LOGO
 62
     4
100
AcDbLine
 10
296.7263144608855
 20
73.65038680321609
 30
0.0
 11
279.7006996629992
 21
73.65038680321598
 31
0.0
  0
LINE
  5
188F
330
1F
100
AcDbEntity
  8
LOGO
 62
     4
100
AcDbLine
 10
279.7006996629992
 20
73.65038680321598
 30
0.0
 11
279.7006996629992
 21
61.9890251224171
 31
0.0
  0
LINE
  5
1890
330
1F
100
AcDbEntity
  8
LOGO
 62
     4
100
AcDbLine
 10
277.0042723522236
 20
73.65038680321598
 30
0.0
 11
277.0042723522236
 21
61.9890251224171
 31
0.0
  0
LINE
  5
1891
330
1F
100
AcDbEntity
  8
LOGO
 62
     4
100
AcDbLine
 10
296.7263144608854
 20
73.65038680321609
 30
0.0
 11
296.7263144608855
 21
61.9890251224171
 31
0.0
  0
LINE
  5
18E7
330
1F
100
AcDbEntity
  8
0
 62
     4
100
AcDbLine
 10
342.6061282506338
 20
429.3352408078675
 30
0.0
 11
5.16183393303018
 21
429.3352408078676
 31
0.0
  0
TEXT
  5
18EA
330
1F
100
AcDbEntity
  8
0
100
AcDbText
 10
14.62918886324269
 20
417.568873690408
 30
0.0
 40
6.0
  1
11 type
  7
CHINESET
100
AcDbText
  0
LWPOLYLINE
  5
5784
330
1F
100
AcDbEntity
  8
LOGO
 62
     4
100
AcDbPolyline
 90
        4
 70
     1
 43
0.0
 10
5.16183393303017
 20
76.02127997416231
 10
342.6061282506338
 20
76.02127997416234
 10
342.6061282506338
 20
39.17661572076803
 10
5.16183393303017
 20
39.17661572076799
1001
GENIUS_GENREC_14
1002
{
1000
PYDIR
1011
5.16183393303017
1021
39.17661572076799
1031
0.0
1002
}
1002
{
1000
PXDIR
1011
342.6061282506338
1021
76.02127997416234
1031
0.0
1002
}
1002
{
1000
PORI
1011
5.16183393303017
1021
76.02127997416231
1031
0.0
1002
}
1002
{
1000
PINS
1011
5.16183393303017
1021
76.02127997416231
1031
0.0
1002
}
1002
{
1000
PINS2
1011
342.6061282506338
1021
39.17661572076803
1031
0.0
1002
}
1002
{
1000
C
1070
     1
1002
}
1001
GENIUS_GENOBJ-N-REC_13
1002
{
1000
OWNER
1000
GEN
1002
}
1001
GENIUS_GENODEF_13
1002
{
1000
HIER
1070
     0
1002
}
1002
{
1000
MANEDIT
1070
     0
1002
}
1002
{
1000
NOSEL
1070
     0
1002
}
1002
{
1000
BEHIND
1070
     0
1002
}
1002
{
1000
OTHER
1070
     0
1002
}
1002
{
1000
REACTOR
1002
}
  0
TEXT
  5
5785
330
1F
100
AcDbEntity
  8
LOGO
 62
     7
100
AcDbText
 10
88.35464616889845
 20
59.88025953028688
 30
0.0
 40
4.912621900452489
  1
Order example:
 41
0.8
  7
CHINESET
100
AcDbText
  0
TEXT
  5
5786
330
1F
100
AcDbEntity
  8
LOGO
 62
     7
100
AcDbText
 10
89.23601116357007
 20
66.79621399478051
 30
0.0
 40
7.368932850678733
  1
訂購代號：
  7
CHINESET
100
AcDbText
  0
LINE
  5
5787
330
1F
100
AcDbEntity
  8
LOGO
 62
     4
100
AcDbLine
 10
86.22009529049636
 20
39.17661572076841
 30
0.0
 11
86.22009529049636
 21
76.02127997416229
 31
0.0
  0
TEXT
  5
5788
330
1F
100
AcDbEntity
  8
LOGO
  6
Continuous
100
AcDbText
 10
18.39660295281951
 20
46.41469440990118
 30
0.0
 40
5.526699638009049
  1
金器工業股份有限公司
  7
CHINESET
100
AcDbText
  0
TEXT
  5
5789
330
1F
100
AcDbEntity
  8
LOGO
  6
Continuous
100
AcDbText
 10
8.24514912139935
 20
40.88691197207313
 30
0.0
 40
3.684466425339366
  1
MINDMAN INDUSTRIAL CO., LTD.
 41
0.85
  7
CHINESET
100
AcDbText
  0
LINE
  5
578A
330
1F
100
AcDbEntity
  8
LOGO
 62
     4
100
AcDbLine
 10
86.22009529049636
 20
68.65234712348351
 30
0.0
 11
32.1812543855186
 21
68.65234712348351
 31
0.0
  0
LINE
  5
578B
330
1F
100
AcDbEntity
  8
LOGO
 62
     4
100
AcDbLine
 10
86.22009529049636
 20
61.28341427280474
 30
0.0
 11
32.1812543855186
 21
61.28341427280474
 31
0.0
  0
LINE
  5
578C
330
1F
100
AcDbEntity
  8
LOGO
 62
     4
100
AcDbLine
 10
86.22009529049636
 20
53.91448142212635
 30
0.0
 11
5.16183393303018
 21
53.91448142212635
 31
0.0
  0
LINE
  5
578D
330
1F
100
AcDbEntity
  8
LOGO
 62
     4
100
AcDbLine
 10
32.1812543855186
 20
53.91448142212635
 30
0.0
 11
32.1812543855186
 21
76.02127997416229
 31
0.0
  0
TEXT
  5
578E
330
1F
100
AcDbEntity
  8
LOGO
100
AcDbText
 10
69.11425154963052
 20
55.75671463479547
 30
0.0
 40
3.684466425339366
  1
mm
  7
CHINESET
 72
     1
 11
73.67597188576498
 21
57.59894784746515
 31
0.0
100
AcDbText
 73
     2
  0
TEXT
  5
578F
330
1F
100
AcDbEntity
  8
LOGO
100
AcDbText
 10
67.18429294588133
 20
70.49458033615302
 30
0.0
 40
3.684466425339366
  1
1 : 1
  7
CHINESET
 72
     1
 11
73.67597188576498
 21
72.3368135488227
 31
0.0
100
AcDbText
 73
     2
  0
LINE
  5
5790
330
1F
100
AcDbEntity
  8
LOGO
 62
     4
100
AcDbLine
 10
61.65698578823375
 20
53.91448142212635
 30
0.0
 11
61.65698578823375
 21
76.02127997416229
 31
0.0
  0
CIRCLE
  5
5791
330
1F
100
AcDbEntity
  8
LOGO
  6
Continuous
100
AcDbCircle
 10
68.47923622052492
 20
64.97576179879027
 30
0.0
 40
2.139287929115763
  0
CIRCLE
  5
5792
330
1F
100
AcDbEntity
  8
LOGO
  6
Continuous
100
AcDbCircle
 10
68.47923622052492
 20
64.97576179879027
 30
0.0
 40
1.253433346016362
  0
LINE
  5
5793
330
1F
100
AcDbEntity
  8
LOGO
100
AcDbLine
 10
81.92276979956218
 20
62.83647386967413
 30
0.0
 11
81.92276979956218
 21
67.11504972790646
 31
0.0
  0
LINE
  5
5794
330
1F
100
AcDbEntity
  8
LOGO
100
AcDbLine
 10
75.21622494277114
 20
63.72232845277418
 30
0.0
 11
75.21622494277114
 21
66.22919514480688
 31
0.0
  0
LINE
  5
5795
330
1F
100
AcDbEntity
  8
LOGO
  6
Continuous
100
AcDbLine
 10
75.21622494277114
 20
66.22919514480688
 30
0.0
 11
81.92276979956218
 21
67.11504972790646
 31
0.0
  0
LINE
  5
5796
330
1F
100
AcDbEntity
  8
LOGO
  6
Continuous
100
AcDbLine
 10
75.21622494277114
 20
63.72232845277418
 30
0.0
 11
81.92276979956218
 21
62.83647386967413
 31
0.0
  0
TEXT
  5
5797
330
1F
100
AcDbEntity
  8
LOGO
100
AcDbText
 10
35.21929433534095
 20
70.49639355781903
 30
241.4738597128918
 40
3.684466425339366
  1
比例 Scale:
 41
0.9
  7
CHINESET
 72
     4
 11
46.91912008687618
 21
72.3368135488227
 31
241.4738597128918
100
AcDbText
  0
TEXT
  5
5798
330
1F
100
AcDbEntity
  8
LOGO
100
AcDbText
 10
35.00710854566739
 20
63.17747540476112
 30
241.4738597128918
 40
3.684466425339366
  1
投影  View:
 41
0.9
  7
CHINESET
 72
     4
 11
46.91912008687618
 21
64.96788069814392
 31
241.4738597128918
100
AcDbText
  0
TEXT
  5
5799
330
1F
100
AcDbEntity
  8
LOGO
100
AcDbText
 10
35.36733093278762
 20
55.75671463479547
 30
241.4738597128918
 40
3.684466425339366
  1
單位  Unit:
 41
0.9
  7
CHINESET
 72
     4
 11
46.91912008687618
 21
57.59894784746515
 31
241.4738597128918
100
AcDbText
  0
SOLID
  5
579A
330
1F
100
AcDbEntity
  8
LOGO
 62
     5
100
AcDbTrace
 10
8.984526980508093
 20
60.03938241175465
 30
0.0
 11
10.57759358242577
 21
60.03938241175418
 31
0.0
 12
17.22452664559952
 22
75.14604846442321
 32
0.0
 13
18.81759324751803
 23
75.14604846442236
 33
0.0
  0
SOLID
  5
579B
330
1F
100
AcDbEntity
  8
LOGO
 62
     5
100
AcDbTrace
 10
11.23679355563484
 20
60.03938241175465
 30
0.0
 11
12.82986015755253
 21
60.03938241175465
 31
0.0
 12
18.81759324751803
 22
73.93751518020912
 32
0.0
 13
17.22452664559952
 23
68.09627097317727
 33
0.0
  0
SOLID
  5
579C
330
1F
100
AcDbEntity
  8
LOGO
 62
     2
100
AcDbTrace
 10
10.57759358242577
 20
60.03938241175418
 30
0.0
 11
11.23679355563484
 21
60.03938241175465
 31
0.0
 12
18.81759324751803
 22
75.14604846442236
 32
0.0
 13
19.4767932207263
 23
75.14604846442236
 33
0.0
  0
SOLID
  5
579D
330
1F
100
AcDbEntity
  8
LOGO
 62
     5
100
AcDbTrace
 10
6.430450549849012
 20
54.54604930169384
 30
0.0
 11
6.979783860855746
 21
54.54604930169384
 31
0.0
 12
8.526749221336814
 22
57.29271585672401
 32
0.0
 13
9.076082532341871
 23
57.29271585672401
 33
0.0
  0
SOLID
  5
579E
330
1F
100
AcDbEntity
  8
LOGO
 62
     5
100
AcDbTrace
 10
8.526749221336814
 20
57.29271585672401
 30
0.0
 11
9.076082532341871
 21
57.29271585672401
 31
0.0
 12
8.526749221336814
 22
54.54604930169384
 32
0.0
 13
9.076082532341871
 23
54.54604930169384
 33
0.0
  0
SOLID
  5
579F
330
1F
100
AcDbEntity
  8
LOGO
 62
     5
100
AcDbTrace
 10
8.526749221336814
 20
54.54604930169384
 30
0.0
 11
9.076082532341871
 21
54.54604930169384
 31
0.0
 12
10.62304789282547
 22
57.29271585672401
 32
0.0
 13
11.17238120383132
 23
57.29271585672401
 33
0.0
  0
SOLID
  5
57A0
330
1F
100
AcDbEntity
  8
LOGO
 62
     5
100
AcDbTrace
 10
10.62304789282547
 20
57.29271585672401
 30
0.0
 11
11.17238120383132
 21
57.29271585672401
 31
0.0
 12
10.62304789282547
 22
54.54604930169384
 32
0.0
 13
11.17238120383132
 23
54.54604930169384
 33
0.0
  0
POLYLINE
  5
57A1
330
1F
100
AcDbEntity
  8
LOGO
 62
     5
100
AcDb2dPolyline
 66
     1
 10
0.0
 20
0.0
 30
0.0
 40
0.5502136528506787
 41
0.5502136528506787
  0
VERTEX
  5
57A2
330
57A1
100
AcDbEntity
  8
LOGO
 62
     5
100
AcDbVertex
100
AcDb2dVertex
 10
29.0365133449994
 20
56.19404923471188
 30
0.0
 42
1.0
  0
VERTEX
  5
57A3
330
57A1
100
AcDbEntity
  8
LOGO
 62
     5
100
AcDbVertex
100
AcDb2dVertex
 10
27.38587238644706
 20
56.19404923471188
 30
0.0
 42
1.0
  0
SEQEND
  5
57A4
330
57A1
100
AcDbEntity
  8
LOGO
 62
     5
  0
POLYLINE
  5
57A5
330
1F
100
AcDbEntity
  8
LOGO
 62
     5
100
AcDb2dPolyline
 66
     1
 10
0.0
 20
0.0
 30
0.0
 70
     1
  0
VERTEX
  5
57A6
330
57A5
100
AcDbEntity
  8
LOGO
 62
     5
100
AcDbVertex
100
AcDb2dVertex
 10
24.27434075906564
 20
55.9193825792085
 30
0.0
 42
1.000000057330635
  0
VERTEX
  5
57A7
330
57A5
100
AcDbEntity
  8
LOGO
 62
     5
100
AcDbVertex
100
AcDb2dVertex
 10
25.92234069208408
 20
55.9193825792085
 30
0.0
 42
1.000000057330635
  0
SEQEND
  5
57A8
330
57A5
100
AcDbEntity
  8
LOGO
 62
     5
  0
CIRCLE
  5
57A9
330
1F
100
AcDbEntity
  8
LOGO
 62
     5
100
AcDbCircle
 10
25.09834072557615
 20
55.9193825792085
 30
0.0
 40
0.8239999665091765
  0
POLYLINE
  5
57AA
330
1F
100
AcDbEntity
  8
LOGO
 62
     5
100
AcDb2dPolyline
 66
     1
 10
0.0
 20
0.0
 30
0.0
 70
     1
 40
0.5502136528506787
 41
0.5502136528506787
  0
VERTEX
  5
57AB
330
57AA
100
AcDbEntity
  8
LOGO
 62
     5
100
AcDbVertex
100
AcDb2dVertex
 10
23.99791341987401
 20
55.9193825792085
 30
0.0
 42
1.0
  0
VERTEX
  5
57AC
330
57AA
100
AcDbEntity
  8
LOGO
 62
     5
100
AcDbVertex
100
AcDb2dVertex
 10
26.19876803127659
 20
55.9193825792085
 30
0.0
 42
1.0
  0
SEQEND
  5
57AD
330
57AA
100
AcDbEntity
  8
LOGO
 62
     5
  0
LINE
  5
57AE
330
1F
100
AcDbEntity
  8
LOGO
100
AcDbLine
 10
29.30985948773454
 20
54.54604930169384
 30
0.0
 11
29.30985948773454
 21
56.19404923471188
 31
0.0
  0
SOLID
  5
57AF
330
1F
100
AcDbEntity
  8
LOGO
 62
     5
100
AcDbTrace
 10
25.92228575875547
 20
57.29271585672401
 30
0.0
 11
26.47161906976049
 21
57.29271585672401
 31
0.0
 12
25.92228575875547
 22
54.54604930169384
 32
0.0
 13
26.47161906976049
 23
54.54604930169384
 33
0.0
  0
SOLID
  5
57B0
330
1F
100
AcDbEntity
  8
LOGO
 62
     5
100
AcDbTrace
 10
27.11252624371025
 20
54.54604930169384
 30
0.0
 11
27.66185955471693
 21
54.54604930169384
 31
0.0
 12
27.11252624371025
 22
57.29271585672401
 32
0.0
 13
27.66185955471693
 23
57.29271585672401
 33
0.0
  0
SOLID
  5
57B1
330
1F
100
AcDbEntity
  8
LOGO
 62
     5
100
AcDbTrace
 10
28.76052617672952
 20
56.19404923471188
 30
0.0
 11
29.30985948773454
 21
56.19404923471188
 31
0.0
 12
28.76052617672952
 22
54.54604930169384
 32
0.0
 13
29.30985948773454
 23
54.54604930169384
 33
0.0
  0
SOLID
  5
57B2
330
1F
100
AcDbEntity
  8
LOGO
 62
     5
100
AcDbTrace
 10
27.05759291260946
 20
73.93751518020912
 30
0.0
 11
25.46452631069261
 21
68.09627097317727
 31
0.0
 12
27.05759291260946
 22
60.03938241175418
 32
0.0
 13
25.46452631069261
 23
60.03938241175418
 33
0.0
  0
SOLID
  5
57B3
330
1F
100
AcDbEntity
  8
LOGO
 62
     5
100
AcDbTrace
 10
27.71679288581768
 20
60.03938241175418
 30
0.0
 11
29.30985948773454
 21
60.03938241175418
 31
0.0
 12
27.71679288581768
 22
75.14604846442236
 32
0.0
 13
29.30985948773454
 23
75.14604846442321
 33
0.0
  0
SOLID
  5
57B4
330
1F
100
AcDbEntity
  8
LOGO
 62
     2
100
AcDbTrace
 10
27.05759291260946
 20
75.14604846442321
 30
0.0
 11
27.71679288581768
 21
75.14604846442236
 31
0.0
 12
27.05759291260946
 22
60.03938241175418
 32
0.0
 13
27.71679288581768
 23
60.03938241175418
 33
0.0
  0
POLYLINE
  5
57B5
330
1F
100
AcDbEntity
  8
LOGO
 62
     5
100
AcDb2dPolyline
 66
     1
 10
0.0
 20
0.0
 30
0.0
 40
0.5502136528506787
 41
0.5502136528506787
  0
VERTEX
  5
57B6
330
57B5
100
AcDbEntity
  8
LOGO
 62
     5
100
AcDbVertex
100
AcDb2dVertex
 10
21.16269926502448
 20
56.19404923471188
 30
0.0
 42
1.0
  0
VERTEX
  5
57B7
330
57B5
100
AcDbEntity
  8
LOGO
 62
     5
100
AcDbVertex
100
AcDb2dVertex
 10
19.51205830647208
 20
56.19404923471188
 30
0.0
 42
1.0
  0
SEQEND
  5
57B8
330
57B5
100
AcDbEntity
  8
LOGO
 62
     5
  0
POLYLINE
  5
57B9
330
1F
100
AcDbEntity
  8
LOGO
 62
     5
100
AcDb2dPolyline
 66
     1
 10
0.0
 20
0.0
 30
0.0
 40
0.5502136528506787
 41
0.5502136528506787
  0
VERTEX
  5
57BA
330
57B9
100
AcDbEntity
  8
LOGO
 62
     5
100
AcDbVertex
100
AcDb2dVertex
 10
22.81069919804125
 20
56.19404923471188
 30
0.0
 42
1.0
  0
VERTEX
  5
57BB
330
57B9
100
AcDbEntity
  8
LOGO
 62
     5
100
AcDbVertex
100
AcDb2dVertex
 10
21.16005823948973
 20
56.19404923471188
 30
0.0
 42
1.0
  0
SEQEND
  5
57BC
330
57B9
100
AcDbEntity
  8
LOGO
 62
     5
  0
POLYLINE
  5
57BD
330
1F
100
AcDbEntity
  8
LOGO
 62
     5
100
AcDb2dPolyline
 66
     1
 10
0.0
 20
0.0
 30
0.0
 40
0.5502136528506787
 41
0.5502136528506787
  0
VERTEX
  5
57BE
330
57BD
100
AcDbEntity
  8
LOGO
 62
     5
100
AcDbVertex
100
AcDb2dVertex
 10
14.93688511806627
 20
56.19404923471188
 30
0.0
 42
1.0
  0
VERTEX
  5
57BF
330
57BD
100
AcDbEntity
  8
LOGO
 62
     5
100
AcDbVertex
100
AcDb2dVertex
 10
13.28624415951475
 20
56.19404923471188
 30
0.0
 42
1.0
  0
SEQEND
  5
57C0
330
57BD
100
AcDbEntity
  8
LOGO
 62
     5
  0
SOLID
  5
57C1
330
1F
100
AcDbEntity
  8
LOGO
 62
     5
100
AcDbTrace
 10
13.01289801677879
 20
57.29271585672401
 30
0.0
 11
13.56223132778385
 21
57.29271585672401
 31
0.0
 12
13.01289801677879
 22
54.54604930169384
 32
0.0
 13
13.56223132778385
 23
54.54604930169384
 33
0.0
  0
SOLID
  5
57C2
330
1F
100
AcDbEntity
  8
LOGO
 62
     5
100
AcDbTrace
 10
14.66089794979723
 20
56.19404923471188
 30
0.0
 11
15.21023126080396
 21
56.19404923471188
 31
0.0
 12
14.66089794979723
 22
54.54604930169384
 32
0.0
 13
15.21023126080396
 23
54.54604930169384
 33
0.0
  0
POLYLINE
  5
57C3
330
1F
100
AcDbEntity
  8
LOGO
 62
     5
100
AcDb2dPolyline
 66
     1
 10
0.0
 20
0.0
 30
0.0
 70
     1
 40
0.5502136528506787
 41
0.5502136528506787
  0
VERTEX
  5
57C4
330
57C3
100
AcDbEntity
  8
LOGO
 62
     5
100
AcDbVertex
100
AcDb2dVertex
 10
16.12409933989821
 20
55.9193825792085
 30
0.0
 42
1.0
  0
VERTEX
  5
57C5
330
57C3
100
AcDbEntity
  8
LOGO
 62
     5
100
AcDbVertex
100
AcDb2dVertex
 10
18.32495395130166
 20
55.9193825792085
 30
0.0
 42
1.0
  0
SEQEND
  5
57C6
330
57C3
100
AcDbEntity
  8
LOGO
 62
     5
  0
SOLID
  5
57C7
330
1F
100
AcDbEntity
  8
LOGO
 62
     5
100
AcDbTrace
 10
18.04847167877884
 20
58.11671582323365
 30
0.0
 11
18.59780498978469
 21
58.11671582323365
 31
0.0
 12
18.04847167877884
 22
54.54604930169384
 32
0.0
 13
18.59780498978469
 23
54.54604930169384
 33
0.0
  0
SOLID
  5
57C8
330
1F
100
AcDbEntity
  8
LOGO
 62
     5
100
AcDbTrace
 10
19.23871216373695
 20
57.29271585672401
 30
0.0
 11
19.788045474742
 21
57.29271585672401
 31
0.0
 12
19.23871216373695
 22
54.54604930169384
 32
0.0
 13
19.788045474742
 23
54.54604930169384
 33
0.0
  0
SOLID
  5
57C9
330
1F
100
AcDbEntity
  8
LOGO
 62
     5
100
AcDbTrace
 10
20.88671209675371
 20
56.19404923471188
 30
0.0
 11
21.43604540776045
 21
56.19404923471188
 31
0.0
 12
20.88671209675371
 22
54.54604930169384
 32
0.0
 13
21.43604540776045
 23
54.54604930169384
 33
0.0
  0
SOLID
  5
57CA
330
1F
100
AcDbEntity
  8
LOGO
 62
     5
100
AcDbTrace
 10
22.53471202977215
 20
56.19404923471188
 30
0.0
 11
23.08404534077809
 21
56.19404923471188
 31
0.0
 12
22.53471202977215
 22
54.54604930169299
 32
0.0
 13
23.08404534077809
 23
54.54604930169299
 33
0.0
  0
SOLID
  5
57CB
330
1F
100
AcDbEntity
  8
LOGO
 62
     5
100
AcDbTrace
 10
11.8226575318215
 20
57.67724917442845
 30
0.0
 11
12.37199084282903
 21
57.67724917442845
 31
0.0
 12
11.8226575318215
 22
58.11671582323365
 32
0.0
 13
12.37199084282903
 23
58.11671582323365
 33
0.0
  0
SOLID
  5
57CC
330
1F
100
AcDbEntity
  8
LOGO
 62
     5
100
AcDbTrace
 10
11.8226575318215
 20
57.29271585672401
 30
0.0
 11
12.37199084282903
 21
57.29271585672401
 31
0.0
 12
11.8226575318215
 22
54.54604930169299
 32
0.0
 13
12.37199084282903
 23
54.54604930169384
 33
0.0
  0
SOLID
  5
57CD
330
1F
100
AcDbEntity
  8
LOGO
 62
     5
100
AcDbTrace
 10
17.22452664559952
 20
60.03938241175465
 30
0.0
 11
18.81759324751803
 21
60.03938241175465
 31
0.0
 12
17.22452664559952
 22
68.09627097317727
 32
0.0
 13
18.81759324751803
 23
73.93751518020912
 33
0.0
  0
SOLID
  5
57CE
330
1F
100
AcDbEntity
  8
LOGO
 62
     5
100
AcDbTrace
 10
19.4767932207263
 20
75.14604846442236
 30
0.0
 11
21.06985982264311
 21
75.14604846442321
 31
0.0
 12
19.4767932207263
 22
61.24791569596789
 32
0.0
 13
21.06985982264311
 23
67.08915990299971
 33
0.0
  0
SOLID
  5
57CF
330
1F
100
AcDbEntity
  8
LOGO
 62
     2
100
AcDbTrace
 10
18.81759324751803
 20
75.14604846442236
 30
0.0
 11
19.4767932207263
 21
75.14604846442236
 31
0.0
 12
18.81759324751803
 22
60.03938241175465
 32
0.0
 13
19.4767932207263
 23
60.03938241175465
 33
0.0
  0
SOLID
  5
57D0
330
1F
100
AcDbEntity
  8
LOGO
 62
     5
100
AcDbTrace
 10
19.4767932207263
 20
61.24791569596789
 30
0.0
 11
21.06985982264311
 21
67.08915990299971
 31
0.0
 12
27.05759291260946
 22
75.14604846442321
 32
0.0
 13
25.46452631069261
 23
75.14604846442321
 33
0.0
  0
SOLID
  5
57D1
330
1F
100
AcDbEntity
  8
LOGO
 62
     5
100
AcDbTrace
 10
19.4767932207263
 20
60.03938241175465
 30
0.0
 11
21.06985982264311
 21
60.03938241175465
 31
0.0
 12
27.05759291260946
 22
73.93751518020912
 32
0.0
 13
25.46452631069261
 23
68.09627097317727
 33
0.0
  0
SOLID
  5
57D2
330
1F
100
AcDbEntity
  8
LOGO
 62
     2
100
AcDbTrace
 10
18.81759324751803
 20
60.03938241175465
 30
0.0
 11
19.4767932207263
 21
60.03938241175465
 31
0.0
 12
27.05759291260946
 22
75.14604846442321
 32
0.0
 13
27.71679288581768
 23
75.14604846442236
 33
0.0
  0
TEXT
  5
57D3
330
1F
100
AcDbEntity
  8
LOGO
100
AcDbText
 10
87.68157045068509
 20
41.13673731669348
 30
0.0
 40
3.685
  1
10707267
 41
0.7
  7
CHINESET
 72
     1
 11
96.89407045068509
 21
41.13673731669348
 31
0.0
100
AcDbText
  0
LINE
  5
57D4
330
1F
100
AcDbEntity
  8
LOGO
 62
     4
100
AcDbLine
 10
108.3300952904946
 20
46.54554857144804
 30
0.0
 11
108.3300952904963
 21
39.17661572076881
 31
0.0
  0
LINE
  5
57D5
330
1F
100
AcDbEntity
  8
LOGO
 62
     4
100
AcDbLine
 10
108.3300952904946
 20
46.54554857144804
 30
0.0
 11
86.22009529049636
 21
46.54554857144804
 31
0.0
  0
LINE
  5
57D6
330
1F
100
AcDbEntity
  8
LOGO
  6
AM_ISO08W050x2
 48
0.3
100
AcDbLine
 10
65.53019577692454
 20
64.97576179879027
 30
0.0
 11
71.42827666412523
 21
64.97576179879027
 31
0.0
1001
GENIUS_GENOREF_13
1005
57DB
  0
LINE
  5
57D7
330
1F
100
AcDbEntity
  8
LOGO
  6
AM_ISO08W050x2
 48
0.3
100
AcDbLine
 10
68.47923622052492
 20
62.02672135518998
 30
0.0
 11
68.47923622052492
 21
67.92480224239065
 31
0.0
1001
GENIUS_GENOREF_13
1005
57DA
  0
LINE
  5
57D8
330
1F
100
AcDbEntity
  8
LOGO
  6
CENTER
 48
0.5
100
AcDbLine
 10
74.67988776176996
 20
64.97576179879027
 30
0.0
 11
82.59809715643601
 21
64.97576179879027
 31
0.0
1001
GENIUS_GENOREF_13
1005
57D9
  0
POINT
  5
57D9
330
1F
100
AcDbEntity
  8
0
 60
     1
100
AcDbPoint
 10
-2072.811814811345
 20
-923.250426012127
 30
0.0
1001
GENIUS_GENOBJ-N-CRS_13
1002
{
1000
OWNER
1000
GEN
1002
}
1001
GENIUS_GENOLIS_13
1002
{
1000
ENT
1005
0
1005
0
1005
0
1005
57D8
1002
}
1001
GENIUS_GENOENT_13
1002
{
1000
MYREF
1005
57D9
1002
}
1002
{
1000
GRP
1005
0
1002
}
1001
GENIUS_GENODEF_13
1002
{
1000
HIER
1070
    10
1002
}
1002
{
1000
MANEDIT
1070
     1
1002
}
1002
{
1000
NOSEL
1070
     0
1002
}
1002
{
1000
BEHIND
1070
     0
1002
}
1002
{
1000
OTHER
1070
     0
1002
}
1002
{
1000
REACTOR
1002
}
  0
POINT
  5
57DA
330
1F
100
AcDbEntity
  8
0
 60
     1
100
AcDbPoint
 10
-2084.136400034199
 20
-914.3748395334908
 30
0.0
1001
GENIUS_GENOBJ-N-CRS_13
1002
{
1000
OWNER
1000
GEN
1002
}
1001
GENIUS_GENOLIS_13
1002
{
1000
ENT
1005
0
1005
0
1005
0
1005
57D7
1002
}
1001
GENIUS_GENOENT_13
1002
{
1000
MYREF
1005
57DA
1002
}
1002
{
1000
GRP
1005
0
1002
}
1001
GENIUS_GENODEF_13
1002
{
1000
HIER
1070
    10
1002
}
1002
{
1000
MANEDIT
1070
     1
1002
}
1002
{
1000
NOSEL
1070
     0
1002
}
1002
{
1000
BEHIND
1070
     0
1002
}
1002
{
1000
OTHER
1070
     0
1002
}
1002
{
1000
REACTOR
1002
}
  0
POINT
  5
57DB
330
1F
100
AcDbEntity
  8
0
 60
     1
100
AcDbPoint
 10
-2077.777726336362
 20
-923.250426012127
 30
0.0
1001
GENIUS_GENOBJ-N-CRS_13
1002
{
1000
OWNER
1000
GEN
1002
}
1001
GENIUS_GENOLIS_13
1002
{
1000
ENT
1005
0
1005
0
1005
0
1005
57D6
1002
}
1001
GENIUS_GENOENT_13
1002
{
1000
MYREF
1005
57DB
1002
}
1002
{
1000
GRP
1005
0
1002
}
1001
GENIUS_GENODEF_13
1002
{
1000
HIER
1070
    10
1002
}
1002
{
1000
MANEDIT
1070
     1
1002
}
1002
{
1000
NOSEL
1070
     0
1002
}
1002
{
1000
BEHIND
1070
     0
1002
}
1002
{
1000
OTHER
1070
     0
1002
}
1002
{
1000
REACTOR
1002
}
  0
TEXT
  5
5CCE
330
1F
100
AcDbEntity
  8
0
100
AcDbText
 10
14.62918886324269
 20
234.2882906193899
 30
0.0
 40
6.0
  1
12 type
  7
CHINESET
100
AcDbText
  0
SPLINE
  5
6912
330
1F
100
AcDbEntity
  8
0
  6
Continuous
 62
     7
370
    15
100
AcDbSpline
210
0.0
220
0.0
230
1.0
 70
    24
 71
     1
 72
     4
 73
     2
 74
     0
 42
0.0000000001
 43
0.0000000001
 40
0.0
 40
0.0
 40
0.2857143077619295
 40
0.2857143077619295
 10
90.74479875670908
 20
321.4553257340412
 30
0.0
 10
92.74479897277601
 20
321.4553257340412
 30
0.0
  0
SPLINE
  5
6913
330
1F
100
AcDbEntity
  8
0
  6
Continuous
 62
     7
370
    15
100
AcDbSpline
210
0.0
220
0.0
230
1.0
 70
    24
 71
     1
 72
     4
 73
     2
 74
     0
 42
0.0000000001
 43
0.0000000001
 40
0.7142856922380673
 40
0.7142856922380673
 40
1.0
 40
1.0
 10
92.74479897277606
 20
337.4553264940004
 30
0.0
 10
90.74479875670908
 20
337.4553264940004
 30
0.0
  0
SPLINE
  5
6914
330
1F
100
AcDbEntity
  8
0
  6
Continuous
 62
     7
370
    15
100
AcDbSpline
210
0.0
220
0.0
230
1.0
 70
    24
 71
     1
 72
     4
 73
     2
 74
     0
 42
0.0000000001
 43
0.0000000001
 40
0.0
 40
0.0
 40
1.0
 40
1.0
 10
63.74479712503194
 20
335.4553261661749
 30
0.0
 10
62.74479882376431
 20
334.4553260022621
 30
0.0
  0
SPLINE
  5
6915
330
1F
100
AcDbEntity
  8
0
  6
Continuous
 62
     7
370
    15
100
AcDbSpline
210
0.0
220
0.0
230
1.0
 70
    24
 71
     1
 72
     4
 73
     2
 74
     0
 42
0.0000000001
 43
0.0000000001
 40
0.0
 40
0.0
 40
1.0
 40
1.0
 10
62.74479882376431
 20
324.4553262257796
 30
0.0
 10
63.74479712503194
 20
323.4553260618668
 30
0.0
  0
SPLINE
  5
6916
330
1F
100
AcDbEntity
  8
0
  6
Continuous
 62
     7
370
    15
100
AcDbSpline
210
0.0
220
0.0
230
1.0
 70
    24
 71
     1
 72
     4
 73
     2
 74
     0
 42
0.0000000001
 43
0.0000000001
 40
0.0
 40
0.0
 40
1.0
 40
1.0
 10
63.74479712503194
 20
323.4553260618668
 30
0.0
 10
71.74479843633412
 20
323.4553260618668
 30
0.0
  0
SPLINE
  5
6917
330
1F
100
AcDbEntity
  8
0
  6
Continuous
 62
     7
370
    15
100
AcDbSpline
210
0.0
220
0.0
230
1.0
 70
    24
 71
     1
 72
     4
 73
     2
 74
     0
 42
0.0000000001
 43
0.0000000001
 40
0.0
 40
0.0
 40
1.0
 40
1.0
 10
77.74479941981076
 20
323.4553260618667
 30
0.0
 10
84.74479870455501
 20
323.4553260618667
 30
0.0
  0
SPLINE
  5
6918
330
1F
100
AcDbEntity
  8
0
  6
Continuous
 62
     7
370
    15
100
AcDbSpline
210
0.0
220
0.0
230
1.0
 70
    24
 71
     1
 72
     4
 73
     2
 74
     0
 42
0.0000000001
 43
0.0000000001
 40
0.0
 40
0.0
 40
1.0
 40
1.0
 10
84.74479870455501
 20
335.4553261661748
 30
0.0
 10
77.74479941981076
 20
335.4553261661749
 30
0.0
  0
SPLINE
  5
6919
330
1F
100
AcDbEntity
  8
0
  6
Continuous
 62
     7
370
    15
100
AcDbSpline
210
0.0
220
0.0
230
1.0
 70
    24
 71
     1
 72
     4
 73
     2
 74
     0
 42
0.0000000001
 43
0.0000000001
 40
0.0
 40
0.0
 40
1.0
 40
1.0
 10
71.74479843633412
 20
335.4553261661749
 30
0.0
 10
63.74479712503194
 20
335.4553261661749
 30
0.0
  0
CIRCLE
  5
691A
330
1F
100
AcDbEntity
  8
0
  6
Continuous
 62
     7
370
    15
100
AcDbCircle
 10
135.244798972776
 20
329.4553261140206
 30
0.0
 40
5.350000000021282
  0
LINE
  5
691B
330
1F
100
AcDbEntity
  8
0
  6
Continuous
 62
     7
370
    15
100
AcDbLine
 10
128.7447974230551
 20
303.7053260842183
 30
0.0
 11
128.7447974230554
 21
355.205326143823
 31
0.0
  0
LINE
  5
691C
330
1F
100
AcDbEntity
  8
0
  6
Continuous
 62
     7
370
    15
100
AcDbLine
 10
128.7447974230554
 20
355.205326143823
 30
0.0
 11
142.7447997178342
 21
355.205326143823
 31
0.0
  0
LINE
  5
691D
330
1F
100
AcDbEntity
  8
0
  6
Continuous
 62
     7
370
    15
100
AcDbLine
 10
142.7447997178339
 20
303.7053260842183
 30
0.0
 11
142.7447997178342
 21
355.205326143823
 31
0.0
  0
LINE
  5
691E
330
1F
100
AcDbEntity
  8
0
  6
Continuous
 62
     7
370
    15
100
AcDbLine
 10
142.7447997178339
 20
303.7053260842183
 30
0.0
 11
128.7447974230551
 21
303.7053260842183
 31
0.0
  0
CIRCLE
  5
691F
330
1F
100
AcDbEntity
  8
0
  6
Continuous
 62
     7
370
    15
100
AcDbCircle
 10
135.244798972776
 20
329.4553261140206
 30
0.0
 40
4.349999999988085
  0
LINE
  5
6920
330
1F
100
AcDbEntity
  8
0
  6
Continuous
 62
     7
370
    15
100
AcDbLine
 10
128.7447974230554
 20
362.2053254285673
 30
0.0
 11
128.7447974230554
 21
355.205326143823
 31
0.0
  0
LINE
  5
6921
330
1F
100
AcDbEntity
  8
0
  6
Continuous
 62
     7
370
    15
100
AcDbLine
 10
142.7447997178342
 20
362.2053254285672
 30
0.0
 11
128.7447974230554
 21
362.2053254285673
 31
0.0
  0
LINE
  5
6922
330
1F
100
AcDbEntity
  8
0
  6
Continuous
 62
     7
370
    15
100
AcDbLine
 10
142.7447997178342
 20
355.205326143823
 30
0.0
 11
142.7447997178342
 21
362.2053254285672
 31
0.0
  0
LINE
  5
6923
330
1F
100
AcDbEntity
  8
0
  6
Continuous
 62
     7
370
    15
100
AcDbLine
 10
128.7447974230551
 20
296.7053267994741
 30
0.0
 11
142.7447997178339
 21
296.7053267994741
 31
0.0
  0
LINE
  5
6924
330
1F
100
AcDbEntity
  8
0
  6
Continuous
 62
     7
370
    15
100
AcDbLine
 10
142.7447997178339
 20
296.7053267994741
 30
0.0
 11
142.7447997178339
 21
303.7053260842183
 31
0.0
  0
LINE
  5
6925
330
1F
100
AcDbEntity
  8
0
  6
Continuous
 62
     7
370
    15
100
AcDbLine
 10
128.7447974230551
 20
303.7053260842183
 30
0.0
 11
128.7447974230551
 21
296.7053267994741
 31
0.0
  0
LINE
  5
6926
330
1F
100
AcDbEntity
  8
0
  6
Continuous
 62
     7
370
    15
100
AcDbLine
 10
142.7447997178342
 20
353.5429581889728
 30
0.0
 11
142.7447997178342
 21
354.7051593551258
 31
0.0
  0
LINE
  5
6927
330
1F
100
AcDbEntity
  8
0
  6
Continuous
 62
     7
370
    15
100
AcDbLine
 10
142.7447997178339
 20
302.7897223720172
 30
0.0
 11
142.7447997178339
 21
305.3676940390685
 31
0.0
  0
LINE
  5
6928
330
1F
100
AcDbEntity
  8
0
  6
Continuous
 62
     7
370
    15
100
AcDbLine
 10
142.7447997178342
 20
361.4940184989789
 30
0.0
 11
142.7447997178342
 21
362.2053254285673
 31
0.0
  0
LINE
  5
6929
330
1F
100
AcDbEntity
  8
0
  6
Continuous
 62
     7
370
    15
100
AcDbLine
 10
128.7447974230554
 20
361.7053244152884
 30
0.0
 11
128.7447974230554
 21
362.2053254285674
 31
0.0
  0
LINE
  5
692A
330
1F
100
AcDbEntity
  8
0
  6
Continuous
 62
     7
370
    15
100
AcDbLine
 10
142.7447997178339
 20
296.7053267994741
 30
0.0
 11
142.7447997178339
 21
297.4166337290624
 31
0.0
  0
LINE
  5
692B
330
1F
100
AcDbEntity
  8
0
  6
Continuous
 62
     7
370
    15
100
AcDbLine
 10
128.7447974230551
 20
296.7053267994742
 30
0.0
 11
128.7447974230551
 21
297.205327812753
 31
0.0
  0
LINE
  5
692C
330
1F
100
AcDbEntity
  8
0
  6
Continuous
 62
     7
370
    15
100
AcDbLine
 10
142.7447997178342
 20
359.2145897338012
 30
0.0
 11
142.7447997178342
 21
361.4940184989789
 31
0.0
  0
LINE
  5
692D
330
1F
100
AcDbEntity
  8
0
  6
Continuous
 62
     7
370
    15
100
AcDbLine
 10
142.7447997178339
 20
297.4166337290624
 30
0.0
 11
142.7447997178339
 21
299.6960624942401
 31
0.0
  0
LINE
  5
692E
330
1F
100
AcDbEntity
  8
0
  6
Continuous
 62
     7
370
    15
100
AcDbLine
 10
142.7447997178342
 20
354.9587305525163
 30
0.0
 11
142.7447997178342
 21
354.5600518474201
 31
0.0
  0
LINE
  5
692F
330
1F
100
AcDbEntity
  8
0
  6
Continuous
 62
     7
370
    15
100
AcDbLine
 10
142.7447997178342
 20
354.9587305525163
 30
0.0
 11
142.7447997178342
 21
356.1209298560241
 31
0.0
  0
LINE
  5
6930
330
1F
100
AcDbEntity
  8
0
  6
Continuous
 62
     7
370
    15
100
AcDbLine
 10
142.7447997178342
 20
359.0991150477746
 30
0.0
 11
142.7447997178342
 21
359.2145897338012
 31
0.0
  0
LINE
  5
6931
330
1F
100
AcDbEntity
  8
0
  6
Continuous
 62
     7
370
    15
100
AcDbLine
 10
142.7447997178339
 20
299.6960624942401
 30
0.0
 11
142.7447997178339
 21
299.8115371802667
 31
0.0
  0
LINE
  5
6932
330
1F
100
AcDbEntity
  8
0
  6
Continuous
 62
     7
370
    15
100
AcDbLine
 10
142.7447997178342
 20
356.3867144176582
 30
0.0
 11
142.7447997178342
 21
359.1056380310873
 31
0.0
  0
LINE
  5
6933
330
1F
100
AcDbEntity
  8
0
  6
Continuous
 62
     7
370
    15
100
AcDbLine
 10
142.7447997178339
 20
299.8050141969541
 30
0.0
 11
142.7447997178339
 21
302.5239378103832
 31
0.0
  0
LINE
  5
6934
330
1F
100
AcDbEntity
  8
0
  6
Continuous
 62
     7
370
    15
100
AcDbLine
 10
142.7447997178341
 20
359.117853257976
 30
0.0
 11
142.7447997178341
 21
359.2023763695578
 31
0.0
  0
LINE
  5
6935
330
1F
100
AcDbEntity
  8
0
  6
Continuous
 62
     7
370
    15
100
AcDbLine
 10
142.7447997178338
 20
299.7082758584837
 30
0.0
 11
142.7447997178338
 21
299.7927989700655
 31
0.0
  0
LINE
  5
6936
330
1F
100
AcDbEntity
  8
0
  6
Continuous
 62
     7
370
    15
100
AcDbLine
 10
142.7447997178339
 20
353.6396965274434
 30
0.0
 11
142.7447997178341
 21
356.3586201408724
 31
0.0
  0
LINE
  5
6937
330
1F
100
AcDbEntity
  8
0
  6
Continuous
 62
     7
370
    15
100
AcDbLine
 10
142.7447997178338
 20
302.5520320871691
 30
0.0
 11
142.7447997178338
 21
305.2709557005982
 31
0.0
  0
LINE
  5
6938
330
1F
100
AcDbEntity
  8
0
  6
Continuous
 62
     7
370
    15
100
AcDbLine
 10
142.7447997178341
 20
356.7089278140883
 30
0.0
 11
142.7447997178341
 21
356.9747142383675
 31
0.0
  0
LINE
  5
6939
330
1F
100
AcDbEntity
  8
0
  6
Continuous
 62
     7
370
    15
100
AcDbLine
 10
142.7447997178338
 20
301.935937989674
 30
0.0
 11
142.7447997178338
 21
302.2017244139532
 31
0.0
  0
LINE
  5
693A
330
1F
100
AcDbEntity
  8
0
  6
Continuous
 62
     7
370
    15
100
AcDbLine
 10
142.7447997178341
 20
356.9747142383675
 30
0.0
 11
142.7447997178341
 21
361.916634056888
 31
0.0
  0
LINE
  5
693B
330
1F
100
AcDbEntity
  8
0
  6
Continuous
 62
     7
370
    15
100
AcDbLine
 10
128.7447974230552
 20
361.9166340568881
 30
0.0
 11
128.7447974230552
 21
361.7053244152885
 31
0.0
  0
LINE
  5
693C
330
1F
100
AcDbEntity
  8
0
  6
Continuous
 62
     7
370
    15
100
AcDbLine
 10
142.7447997178338
 20
296.9940181711535
 30
0.0
 11
142.7447997178338
 21
301.935937989674
 31
0.0
  0
LINE
  5
693D
330
1F
100
AcDbEntity
  8
0
  6
Continuous
 62
     7
370
    15
100
AcDbLine
 10
128.744797423055
 20
297.2053278127532
 30
0.0
 11
128.744797423055
 21
296.9940181711535
 31
0.0
  0
LINE
  5
693E
330
1F
100
AcDbEntity
  8
0
  6
Continuous
 62
     7
370
    15
100
AcDbLine
 10
142.7447997178341
 20
356.6244047025065
 30
0.0
 11
142.7447997178341
 21
356.7089278140883
 31
0.0
  0
LINE
  5
693F
330
1F
100
AcDbEntity
  8
0
  6
Continuous
 62
     7
370
    15
100
AcDbLine
 10
142.7447997178338
 20
302.2017244139532
 30
0.0
 11
142.7447997178338
 21
302.2862475255351
 31
0.0
  0
LINE
  5
6940
330
1F
100
AcDbEntity
  8
0
  6
Continuous
 62
     7
370
    15
100
AcDbLine
 10
142.7447997178341
 20
361.916634056888
 30
0.0
 11
142.7447997178341
 21
362.2053254285674
 31
0.0
  0
LINE
  5
6941
330
1F
100
AcDbEntity
  8
0
  6
Continuous
 62
     7
370
    15
100
AcDbLine
 10
128.7447974230552
 20
361.9166340568881
 30
0.0
 11
128.7447974230552
 21
362.2053254285674
 31
0.0
  0
LINE
  5
6942
330
1F
100
AcDbEntity
  8
0
  6
Continuous
 62
     7
370
    15
100
AcDbLine
 10
142.7447997178338
 20
296.7053267994742
 30
0.0
 11
142.7447997178338
 21
296.9940181711535
 31
0.0
  0
LINE
  5
6943
330
1F
100
AcDbEntity
  8
0
  6
Continuous
 62
     7
370
    15
100
AcDbLine
 10
128.744797423055
 20
296.7053267994742
 30
0.0
 11
128.744797423055
 21
296.9940181711535
 31
0.0
  0
CIRCLE
  5
6944
330
1F
100
AcDbEntity
  8
0
  6
Continuous
 62
     7
370
    15
100
AcDbCircle
 10
100.244798972776
 20
329.4553261140208
 30
0.0
 40
5.350000000021282
  0
LINE
  5
6945
330
1F
100
AcDbEntity
  8
0
  6
Continuous
 62
     7
370
    15
100
AcDbLine
 10
106.7447994049098
 20
355.2053261438231
 30
0.0
 11
106.7447994049096
 21
303.7053260842184
 31
0.0
  0
LINE
  5
6946
330
1F
100
AcDbEntity
  8
0
  6
Continuous
 62
     7
370
    15
100
AcDbLine
 10
106.7447994049096
 20
303.7053260842184
 30
0.0
 11
92.74479897277592
 21
303.7053260842184
 31
0.0
  0
LINE
  5
6947
330
1F
100
AcDbEntity
  8
0
  6
Continuous
 62
     7
370
    15
100
AcDbLine
 10
92.74479897277615
 20
355.2053261438231
 30
0.0
 11
92.74479897277592
 21
303.7053260842184
 31
0.0
  0
LINE
  5
6948
330
1F
100
AcDbEntity
  8
0
  6
Continuous
 62
     7
370
    15
100
AcDbLine
 10
92.74479897277615
 20
355.2053261438231
 30
0.0
 11
106.7447994049098
 21
355.2053261438231
 31
0.0
  0
CIRCLE
  5
6949
330
1F
100
AcDbEntity
  8
0
  6
Continuous
 62
     7
370
    15
100
AcDbCircle
 10
100.244798972776
 20
329.4553261140208
 30
0.0
 40
4.349999999988085
  0
LINE
  5
694A
330
1F
100
AcDbEntity
  8
0
  6
Continuous
 62
     7
370
    15
100
AcDbLine
 10
106.7447994049098
 20
362.2053254285674
 30
0.0
 11
92.74479897277615
 21
362.2053254285674
 31
0.0
  0
LINE
  5
694B
330
1F
100
AcDbEntity
  8
0
  6
Continuous
 62
     7
370
    15
100
AcDbLine
 10
106.7447994049098
 20
355.2053261438231
 30
0.0
 11
106.7447994049098
 21
362.2053254285674
 31
0.0
  0
LINE
  5
694C
330
1F
100
AcDbEntity
  8
0
  6
Continuous
 62
     7
370
    15
100
AcDbLine
 10
92.74479897277615
 20
362.2053254285674
 30
0.0
 11
92.74479897277615
 21
355.2053261438231
 31
0.0
  0
LINE
  5
694D
330
1F
100
AcDbEntity
  8
0
  6
Continuous
 62
     7
370
    15
100
AcDbLine
 10
92.74479897277592
 20
296.7053267994742
 30
0.0
 11
106.7447994049096
 21
296.7053267994742
 31
0.0
  0
LINE
  5
694E
330
1F
100
AcDbEntity
  8
0
  6
Continuous
 62
     7
370
    15
100
AcDbLine
 10
106.7447994049096
 20
296.7053267994742
 30
0.0
 11
106.7447994049096
 21
303.7053260842184
 31
0.0
  0
LINE
  5
694F
330
1F
100
AcDbEntity
  8
0
  6
Continuous
 62
     7
370
    15
100
AcDbLine
 10
92.74479897277592
 20
303.7053260842184
 30
0.0
 11
92.74479897277592
 21
296.7053267994742
 31
0.0
  0
LINE
  5
6950
330
1F
100
AcDbEntity
  8
0
  6
Continuous
 62
     7
370
    15
100
AcDbLine
 10
92.74479897277615
 20
354.7051593551259
 30
0.0
 11
92.74479897277615
 21
353.4373033681732
 31
0.0
  0
LINE
  5
6951
330
1F
100
AcDbEntity
  8
0
  6
Continuous
 62
     7
370
    15
100
AcDbLine
 10
92.74479897277592
 20
305.4733488598685
 30
0.0
 11
92.74479897277592
 21
302.6840675512176
 31
0.0
  0
LINE
  5
6952
330
1F
100
AcDbEntity
  8
0
  6
Continuous
 62
     7
370
    15
100
AcDbLine
 10
106.7447994049098
 20
362.2053254285674
 30
0.0
 11
106.7447994049098
 21
361.7053244152884
 31
0.0
  0
LINE
  5
6953
330
1F
100
AcDbEntity
  8
0
  6
Continuous
 62
     7
370
    15
100
AcDbLine
 10
92.74479897277615
 20
362.2053254285674
 30
0.0
 11
92.74479897277615
 21
361.4940184989791
 31
0.0
  0
LINE
  5
6954
330
1F
100
AcDbEntity
  8
0
  6
Continuous
 62
     7
370
    15
100
AcDbLine
 10
106.7447994049096
 20
297.2053278127532
 30
0.0
 11
106.7447994049096
 21
296.7053267994742
 31
0.0
  0
LINE
  5
6955
330
1F
100
AcDbEntity
  8
0
  6
Continuous
 62
     7
370
    15
100
AcDbLine
 10
92.74479897277592
 20
297.4166337290626
 30
0.0
 11
92.74479897277592
 21
296.7053267994743
 31
0.0
  0
LINE
  5
6956
330
1F
100
AcDbEntity
  8
0
  6
Continuous
 62
     7
370
    15
100
AcDbLine
 10
92.74479897277615
 20
361.4940184989791
 30
0.0
 11
92.74479897277615
 21
359.2145897338014
 31
0.0
  0
LINE
  5
6957
330
1F
100
AcDbEntity
  8
0
  6
Continuous
 62
     7
370
    15
100
AcDbLine
 10
92.74479897277592
 20
299.6960624942403
 30
0.0
 11
92.74479897277592
 21
297.4166337290626
 31
0.0
  0
LINE
  5
6958
330
1F
100
AcDbEntity
  8
0
  6
Continuous
 62
     7
370
    15
100
AcDbLine
 10
92.74479897277615
 20
354.5600518474202
 30
0.0
 11
92.74479897277615
 21
354.9587305525165
 31
0.0
  0
LINE
  5
6959
330
1F
100
AcDbEntity
  8
0
  6
Continuous
 62
     7
370
    15
100
AcDbLine
 10
92.74479897277615
 20
356.2265846768241
 30
0.0
 11
92.74479897277615
 21
354.9587305525165
 31
0.0
  0
LINE
  5
695A
330
1F
100
AcDbEntity
  8
0
  6
Continuous
 62
     7
370
    15
100
AcDbLine
 10
92.74479897277615
 20
359.2145897338014
 30
0.0
 11
92.74479897277615
 21
359.0991150477748
 31
0.0
  0
LINE
  5
695B
330
1F
100
AcDbEntity
  8
0
  6
Continuous
 62
     7
370
    15
100
AcDbLine
 10
92.74479897277592
 20
299.8115371802669
 30
0.0
 11
92.74479897277592
 21
299.6960624942403
 31
0.0
  0
LINE
  5
695C
330
1F
100
AcDbEntity
  8
0
  6
Continuous
 62
     7
370
    15
100
AcDbLine
 10
92.74479897277615
 20
359.2112928518873
 30
0.0
 11
92.74479897277615
 21
356.4923692384582
 31
0.0
  0
LINE
  5
695D
330
1F
100
AcDbEntity
  8
0
  6
Continuous
 62
     7
370
    15
100
AcDbLine
 10
92.74479897277592
 20
302.4182829895835
 30
0.0
 11
92.74479897277592
 21
299.6993593761544
 31
0.0
  0
LINE
  5
695E
330
1F
100
AcDbEntity
  8
0
  6
Continuous
 62
     7
370
    15
100
AcDbLine
 10
92.74479897277604
 20
359.3080311903577
 30
0.0
 11
92.74479897277604
 21
359.1178532579761
 31
0.0
  0
LINE
  5
695F
330
1F
100
AcDbEntity
  8
0
  6
Continuous
 62
     7
370
    15
100
AcDbLine
 10
92.74479897277581
 20
299.7927989700657
 30
0.0
 11
92.74479897277581
 21
299.602621037684
 31
0.0
  0
LINE
  5
6960
330
1F
100
AcDbEntity
  8
0
  6
Continuous
 62
     7
370
    15
100
AcDbLine
 10
92.74479897277604
 20
359.1178532579761
 30
0.0
 11
92.74479897277604
 21
359.0991150477748
 31
0.0
  0
LINE
  5
6961
330
1F
100
AcDbEntity
  8
0
  6
Continuous
 62
     7
370
    15
100
AcDbLine
 10
92.74479897277581
 20
299.8115371802669
 30
0.0
 11
92.74479897277581
 21
299.7927989700657
 31
0.0
  0
LINE
  5
6962
330
1F
100
AcDbEntity
  8
0
  6
Continuous
 62
     7
370
    15
100
AcDbLine
 10
92.74479897277604
 20
356.2529653200727
 30
0.0
 11
92.74479897277604
 21
353.5340417066437
 31
0.0
  0
LINE
  5
6963
330
1F
100
AcDbEntity
  8
0
  6
Continuous
 62
     7
370
    15
100
AcDbLine
 10
92.74479897277581
 20
305.3766105213981
 30
0.0
 11
92.74479897277581
 21
302.6576869079691
 31
0.0
  0
LINE
  5
6964
330
1F
100
AcDbEntity
  8
0
  6
Continuous
 62
     7
370
    15
100
AcDbLine
 10
92.74479897277604
 20
356.9747142383676
 30
0.0
 11
92.74479897277604
 21
356.7089278140884
 31
0.0
  0
LINE
  5
6965
330
1F
100
AcDbEntity
  8
0
  6
Continuous
 62
     7
370
    15
100
AcDbLine
 10
92.74479897277581
 20
302.2017244139534
 30
0.0
 11
92.74479897277581
 21
301.9359379896742
 31
0.0
  0
LINE
  5
6966
330
1F
100
AcDbEntity
  8
0
  6
Continuous
 62
     7
370
    15
100
AcDbLine
 10
106.7447994049097
 20
361.7053244152885
 30
0.0
 11
106.7447994049097
 21
361.9166340568881
 31
0.0
  0
LINE
  5
6967
330
1F
100
AcDbEntity
  8
0
  6
Continuous
 62
     7
370
    15
100
AcDbLine
 10
92.74479897277604
 20
361.9166340568882
 30
0.0
 11
92.74479897277604
 21
356.9747142383676
 31
0.0
  0
LINE
  5
6968
330
1F
100
AcDbEntity
  8
0
  6
Continuous
 62
     7
370
    15
100
AcDbLine
 10
106.7447994049095
 20
296.9940181711536
 30
0.0
 11
106.7447994049095
 21
297.2053278127532
 31
0.0
  0
LINE
  5
6969
330
1F
100
AcDbEntity
  8
0
  6
Continuous
 62
     7
370
    15
100
AcDbLine
 10
92.74479897277581
 20
301.9359379896742
 30
0.0
 11
92.74479897277581
 21
296.9940181711536
 31
0.0
  0
LINE
  5
696A
330
1F
100
AcDbEntity
  8
0
  6
Continuous
 62
     7
370
    15
100
AcDbLine
 10
92.74479897277604
 20
356.7089278140884
 30
0.0
 11
92.74479897277604
 21
356.5187498817068
 31
0.0
  0
LINE
  5
696B
330
1F
100
AcDbEntity
  8
0
  6
Continuous
 62
     7
370
    15
100
AcDbLine
 10
92.74479897277581
 20
302.391902346335
 30
0.0
 11
92.74479897277581
 21
302.2017244139534
 31
0.0
  0
LINE
  5
696C
330
1F
100
AcDbEntity
  8
0
  6
Continuous
 62
     7
370
    15
100
AcDbLine
 10
106.7447994049097
 20
362.2053254285674
 30
0.0
 11
106.7447994049097
 21
361.9166340568881
 31
0.0
  0
LINE
  5
696D
330
1F
100
AcDbEntity
  8
0
  6
Continuous
 62
     7
370
    15
100
AcDbLine
 10
92.74479897277604
 20
362.2053254285675
 30
0.0
 11
92.74479897277604
 21
361.9166340568882
 31
0.0
  0
LINE
  5
696E
330
1F
100
AcDbEntity
  8
0
  6
Continuous
 62
     7
370
    15
100
AcDbLine
 10
106.7447994049095
 20
296.9940181711536
 30
0.0
 11
106.7447994049095
 21
296.7053267994743
 31
0.0
  0
LINE
  5
696F
330
1F
100
AcDbEntity
  8
0
  6
Continuous
 62
     7
370
    15
100
AcDbLine
 10
92.74479897277581
 20
296.9940181711536
 30
0.0
 11
92.74479897277581
 21
296.7053267994743
 31
0.0
  0
LINE
  5
6970
330
1F
100
AcDbEntity
  8
0
  6
Continuous
 62
     7
370
    15
100
AcDbLine
 10
84.74479870455501
 20
336.4553263300876
 30
0.0
 11
84.74479870455501
 21
322.4553258979539
 31
0.0
  0
SPLINE
  5
6971
330
1F
100
AcDbEntity
  8
0
  6
Continuous
 62
     7
370
    15
100
AcDbSpline
210
0.0
220
0.0
230
1.0
 70
    24
 71
     3
 72
    12
 73
     8
 74
     0
 42
0.0000000001
 43
0.0000000001
 40
0.0
 40
0.0
 40
0.0
 40
0.0
 40
0.308620782521084
 40
0.4667847998752868
 40
0.6248199751599996
 40
0.8093844589139777
 40
1.0
 40
1.0
 40
1.0
 40
1.0
 10
86.47685007708322
 20
336.4553263300876
 30
0.0
 10
86.19965829175795
 20
336.4553263300876
 30
0.0
 10
85.78040942917937
 20
336.4553263300876
 30
0.0
 10
85.32453458322004
 20
336.4553263300876
 30
0.0
 10
85.02453700893932
 20
336.4553263300876
 30
0.0
 10
84.79380648996061
 20
336.4553263300876
 30
0.0
 10
84.76130934213347
 20
336.4553263300876
 30
0.0
 10
84.74479870455501
 20
336.4553263300876
 30
0.0
  0
LINE
  5
6972
330
1F
100
AcDbEntity
  8
0
  6
Continuous
 62
     7
370
    15
100
AcDbLine
 10
86.47685007708322
 20
336.4553263300876
 30
0.0
 11
86.47685007708309
 21
322.4553258979539
 31
0.0
  0
SPLINE
  5
6973
330
1F
100
AcDbEntity
  8
0
  6
Continuous
 62
     7
370
    15
100
AcDbSpline
210
0.0
220
0.0
230
1.0
 70
    24
 71
     3
 72
    12
 73
     8
 74
     0
 42
0.0000000001
 43
0.0000000001
 40
0.0
 40
0.0
 40
0.0
 40
0.0
 40
0.1867040440870396
 40
0.3803385304912106
 40
0.6478011453903872
 40
0.9222032259469543
 40
1.0
 40
1.0
 40
1.0
 40
1.0
 10
84.74479870455501
 20
322.4553258979539
 30
0.0
 10
84.7607256731568
 20
322.4553258979539
 30
0.0
 10
84.79317081842816
 20
322.4553258979539
 30
0.0
 10
85.07395999404435
 20
322.4553258979539
 30
0.0
 10
85.56036502546794
 20
322.4553258979539
 30
0.0
 10
86.08220656354808
 20
322.4553258979539
 30
0.0
 10
86.4054493692446
 20
322.4553258979539
 30
0.0
 10
86.47685007708309
 20
322.4553258979539
 30
0.0
  0
LINE
  5
6974
330
1F
100
AcDbEntity
  8
0
  6
Continuous
 62
     7
370
    15
100
AcDbLine
 10
89.74479859279643
 20
336.4553263300876
 30
0.0
 11
86.47685007708322
 21
336.4553263300876
 31
0.0
  0
LWPOLYLINE
  5
6975
330
1F
100
AcDbEntity
  8
0
  6
Continuous
 62
     7
370
    15
100
AcDbPolyline
 90
        7
 70
   128
 43
0.0
 10
90.74479875670908
 20
337.4553264940004
 10
90.73635771455405
 20
337.4468849861841
 10
90.66893554808746
 20
337.3794628197174
 10
90.53465978758584
 20
337.2451870592157
 10
90.33466385262261
 20
337.0451906585912
 10
90.07063436838041
 20
336.781161174349
 10
89.74479859279643
 20
336.4553263300876
  0
LWPOLYLINE
  5
6976
330
1F
100
AcDbEntity
  8
0
  6
Continuous
 62
     7
370
    15
100
AcDbPolyline
 90
        7
 70
   128
 43
0.0
 10
89.74479859279631
 20
322.4553258979539
 10
90.07063436838029
 20
322.1294910536925
 10
90.33466385262249
 20
321.8654615694503
 10
90.53465978758572
 20
321.6654651688258
 10
90.66893554808734
 20
321.5311894083242
 10
90.73635771455405
 20
321.4637672418575
 10
90.74479875670908
 20
321.4553257340412
  0
LINE
  5
6977
330
1F
100
AcDbEntity
  8
0
  6
Continuous
 62
     7
370
    15
100
AcDbLine
 10
86.47685007708309
 20
322.4553258979539
 30
0.0
 11
89.74479859279631
 21
322.4553258979539
 31
0.0
  0
LINE
  5
6978
330
1F
100
AcDbEntity
  8
0
  6
Continuous
 62
     7
370
    15
100
AcDbLine
 10
62.74479882376431
 20
334.4553260022621
 30
0.0
 11
62.74479882376431
 21
324.4553262257796
 31
0.0
  0
LINE
  5
6979
330
1F
100
AcDbEntity
  8
0
  6
Continuous
 62
     7
370
    15
100
AcDbLine
 10
63.74479712503194
 20
335.4553261661749
 30
0.0
 11
63.74479712503194
 21
323.4553260618668
 31
0.0
  0
LINE
  5
697A
330
1F
100
AcDbEntity
  8
0
  6
Continuous
 62
     7
370
    15
100
AcDbLine
 10
128.7447974230554
 20
361.7053244152883
 30
0.0
 11
106.7447994049098
 21
361.7053244152884
 31
0.0
  0
LINE
  5
697B
330
1F
100
AcDbEntity
  8
0
  6
Continuous
 62
     7
370
    15
100
AcDbLine
 10
106.7447994049098
 20
355.7053252944569
 30
0.0
 11
128.7447974230554
 21
355.7053252944568
 31
0.0
  0
LINE
  5
697C
330
1F
100
AcDbEntity
  8
0
  6
Continuous
 62
     7
370
    15
100
AcDbLine
 10
128.7447974230554
 20
340.4065508285382
 30
0.0
 11
106.7447994049098
 21
340.4065508285384
 31
0.0
  0
LINE
  5
697D
330
1F
100
AcDbEntity
  8
0
  6
Continuous
 62
     7
370
    15
100
AcDbLine
 10
106.7447994049098
 20
338.5939353966932
 30
0.0
 11
128.7447974230554
 21
338.593935396693
 31
0.0
  0
LINE
  5
697E
330
1F
100
AcDbEntity
  8
0
  6
Continuous
 62
     7
370
    15
100
AcDbLine
 10
128.7447974230552
 20
320.3167168313482
 30
0.0
 11
106.7447994049097
 21
320.3167168313484
 31
0.0
  0
LINE
  5
697F
330
1F
100
AcDbEntity
  8
0
  6
Continuous
 62
     7
370
    15
100
AcDbLine
 10
106.7447994049097
 20
318.5041013995032
 30
0.0
 11
128.7447974230552
 21
318.504101399503
 31
0.0
  0
LINE
  5
6980
330
1F
100
AcDbEntity
  8
0
  6
Continuous
 62
     7
370
    15
100
AcDbLine
 10
128.7447974230551
 20
303.2053269335845
 30
0.0
 11
106.7447994049096
 21
303.2053269335846
 31
0.0
  0
LINE
  5
6981
330
1F
100
AcDbEntity
  8
0
  6
Continuous
 62
     7
370
    15
100
AcDbLine
 10
106.7447994049096
 20
297.2053278127532
 30
0.0
 11
128.7447974230551
 21
297.205327812753
 31
0.0
  0
LINE
  5
6982
330
1F
100
AcDbEntity
  8
0
  6
Continuous
 62
     7
370
    15
100
AcDbLine
 10
128.7447974230554
 20
337.0547474251905
 30
0.0
 11
106.7447994049098
 21
337.0547474251906
 31
0.0
  0
LINE
  5
6983
330
1F
100
AcDbEntity
  8
0
  6
Continuous
 62
     7
370
    15
100
AcDbLine
 10
106.7447994049097
 20
321.8559048028509
 30
0.0
 11
128.7447974230552
 21
321.8559048028508
 31
0.0
  0
LINE
  5
6984
330
1F
100
AcDbEntity
  8
0
  6
Continuous
 62
     7
370
    15
100
AcDbLine
 10
106.7447994049097
 20
322.9930096195857
 30
0.0
 11
128.7447974230552
 21
322.9930096195856
 31
0.0
  0
LINE
  5
6985
330
1F
100
AcDbEntity
  8
0
  6
Continuous
 62
     7
370
    15
100
AcDbLine
 10
128.7447974230554
 20
335.9176426084558
 30
0.0
 11
106.7447994049098
 21
335.9176426084558
 31
0.0
  0
LINE
  5
6986
330
1F
100
AcDbEntity
  8
0
  6
Continuous
 62
     7
370
    15
100
AcDbLine
 10
76.8962937738205
 20
338.955325808547
 30
0.0
 11
72.59330408232461
 21
338.955325808547
 31
0.0
  0
SPLINE
  5
6987
330
1F
100
AcDbEntity
  8
0
  6
Continuous
 62
     7
370
    15
100
AcDbSpline
210
0.0
220
0.0
230
1.0
 70
     8
 71
     3
 72
    11
 73
     7
 74
     0
 42
0.0000000001
 43
0.0000000001
 40
0.0
 40
0.0
 40
0.0
 40
0.0
 40
0.2477111358013705
 40
0.4953654788056516
 40
0.7477052254075306
 40
1.0
 40
1.0
 40
1.0
 40
1.0
 10
76.8962937738205
 20
338.955325808547
 30
0.0
 10
77.01775806412377
 20
338.5712153651854
 30
0.0
 10
77.26065879658063
 20
337.8030825435642
 30
0.0
 10
77.52780190969133
 20
336.6229424415678
 30
0.0
 10
77.70938236705319
 20
335.4222541942698
 30
0.0
 10
77.73299443697829
 20
334.6109446048552
 30
0.0
 10
77.74479941981088
 20
334.2053259612839
 30
0.0
  0
SPLINE
  5
6988
330
1F
100
AcDbEntity
  8
0
  6
Continuous
 62
     7
370
    15
100
AcDbSpline
210
0.0
220
0.0
230
1.0
 70
     8
 71
     3
 72
    11
 73
     7
 74
     0
 42
0.0000000001
 43
0.0000000001
 40
0.0
 40
0.0
 40
0.0
 40
0.0
 40
0.247274753647204
 40
0.4945905238923836
 40
0.7472643052242973
 40
1.0
 40
1.0
 40
1.0
 40
1.0
 10
77.74479941981088
 20
334.2053259612839
 30
0.0
 10
77.73346980336066
 20
333.8077801712795
 30
0.0
 10
77.71080869116497
 20
333.0126226485264
 30
0.0
 10
77.53386156783858
 20
331.8196446406223
 30
0.0
 10
77.26767216297616
 20
330.6310394380566
 30
0.0
 10
77.02009667966581
 20
329.8472625407551
 30
0.0
 10
76.8962937738205
 20
329.4553260851622
 30
0.0
  0
LINE
  5
6989
330
1F
100
AcDbEntity
  8
0
  6
Continuous
 62
     7
370
    15
100
AcDbLine
 10
76.8962937738205
 20
329.4553260995915
 30
0.0
 11
72.59330408232461
 21
329.4553261024778
 31
0.0
  0
SPLINE
  5
698A
330
1F
100
AcDbEntity
  8
0
  6
Continuous
 62
     7
370
    15
100
AcDbSpline
210
0.0
220
0.0
230
1.0
 70
     8
 71
     3
 72
    11
 73
     7
 74
     0
 42
0.0000000001
 43
0.0000000001
 40
0.0
 40
0.0
 40
0.0
 40
0.0
 40
0.2477110757771835
 40
0.4953654725256307
 40
0.7477052555305807
 40
1.0
 40
1.0
 40
1.0
 40
1.0
 10
72.59330408232461
 20
329.4553261305619
 30
0.0
 10
72.47183978117755
 20
329.8394365360838
 30
0.0
 10
72.22893897125652
 20
330.6075694584264
 30
0.0
 10
71.96179596913146
 20
331.787709667147
 30
0.0
 10
71.78021550124867
 20
332.9883981871296
 30
0.0
 10
71.75660342218112
 20
333.7997075062999
 30
0.0
 10
71.74479843633424
 20
334.2053259612839
 30
0.0
  0
SPLINE
  5
698B
330
1F
100
AcDbEntity
  8
0
  6
Continuous
 62
     7
370
    15
100
AcDbSpline
210
0.0
220
0.0
230
1.0
 70
     8
 71
     3
 72
    11
 73
     7
 74
     0
 42
0.0000000001
 43
0.0000000001
 40
0.0
 40
0.0
 40
0.0
 40
0.0
 40
0.2472747379249752
 40
0.4945906116968619
 40
0.7472644251395464
 40
1.0
 40
1.0
 40
1.0
 40
1.0
 10
71.74479843633424
 20
334.2053259612839
 30
0.0
 10
71.75612812571819
 20
334.6028717774108
 30
0.0
 10
71.77878938925755
 20
335.398029544135
 30
0.0
 10
71.95573548449829
 20
336.5910074225541
 30
0.0
 10
72.22192857619098
 20
337.779612185846
 30
0.0
 10
72.46950216238554
 20
338.5633893415886
 30
0.0
 10
72.59330408232461
 20
338.955325808547
 30
0.0
  0
SPLINE
  5
698C
330
1F
100
AcDbEntity
  8
0
  6
Continuous
 62
     7
370
    15
100
AcDbSpline
210
0.0
220
0.0
230
1.0
 70
     8
 71
     3
 72
    11
 73
     7
 74
     0
 42
0.0000000001
 43
0.0000000001
 40
0.0
 40
0.0
 40
0.0
 40
0.0
 40
0.2477110691543582
 40
0.4953654680830473
 40
0.7477052533094872
 40
1.0
 40
1.0
 40
1.0
 40
1.0
 10
76.8962937738205
 20
329.4553260389904
 30
0.0
 10
77.01775807578497
 20
329.0712156544594
 30
0.0
 10
77.26065889165647
 20
328.3030827604457
 30
0.0
 10
77.52780188602719
 20
327.122942559608
 30
0.0
 10
77.70938235514484
 20
325.9222540412361
 30
0.0
 10
77.73299443404664
 20
325.1109447218497
 30
0.0
 10
77.74479941981076
 20
324.7053262667577
 30
0.0
  0
LINE
  5
698D
330
1F
100
AcDbEntity
  8
0
  6
Continuous
 62
     7
370
    15
100
AcDbLine
 10
77.74479941981088
 20
334.2053259612839
 30
0.0
 11
77.74479941981076
 21
324.7053262667577
 31
0.0
  0
SPLINE
  5
698E
330
1F
100
AcDbEntity
  8
0
  6
Continuous
 62
     7
370
    15
100
AcDbSpline
210
0.0
220
0.0
230
1.0
 70
     8
 71
     3
 72
    11
 73
     7
 74
     0
 42
0.0000000001
 43
0.0000000001
 40
0.0
 40
0.0
 40
0.0
 40
0.0
 40
0.2472747329998696
 40
0.4945906018458313
 40
0.7472643459642788
 40
1.0
 40
1.0
 40
1.0
 40
1.0
 10
77.74479941981076
 20
324.7053262667577
 30
0.0
 10
77.73346979188875
 20
324.3077804396496
 30
0.0
 10
77.71080865128329
 20
323.5126226509611
 30
0.0
 10
77.53386164248479
 20
322.3196450411241
 30
0.0
 10
77.26767215878806
 20
321.131039600828
 30
0.0
 10
77.02009667769539
 20
320.3472628160778
 30
0.0
 10
76.89629377382039
 20
319.9553264194946
 30
0.0
  0
LINE
  5
698F
330
1F
100
AcDbEntity
  8
0
  6
Continuous
 62
     7
370
    15
100
AcDbLine
 10
72.59330408232449
 20
319.9553264194946
 30
0.0
 11
76.89629377382039
 21
319.9553264194946
 31
0.0
  0
SPLINE
  5
6990
330
1F
100
AcDbEntity
  8
0
  6
Continuous
 62
     7
370
    15
100
AcDbSpline
210
0.0
220
0.0
230
1.0
 70
     8
 71
     3
 72
    11
 73
     7
 74
     0
 42
0.0000000001
 43
0.0000000001
 40
0.0
 40
0.0
 40
0.0
 40
0.0
 40
0.2477111358013705
 40
0.4953654788056516
 40
0.7477052254075306
 40
1.0
 40
1.0
 40
1.0
 40
1.0
 10
72.59330408232449
 20
319.9553264194946
 30
0.0
 10
72.47183979202123
 20
320.3394368628563
 30
0.0
 10
72.22893905956436
 20
321.1075696844775
 30
0.0
 10
71.96179594645366
 20
322.2877097864738
 30
0.0
 10
71.78021548909192
 20
323.4883980337718
 30
0.0
 10
71.75660341916682
 20
324.2997076231865
 30
0.0
 10
71.74479843633412
 20
324.7053262667577
 30
0.0
  0
SPLINE
  5
6991
330
1F
100
AcDbEntity
  8
0
  6
Continuous
 62
     7
370
    15
100
AcDbSpline
210
0.0
220
0.0
230
1.0
 70
     8
 71
     3
 72
    11
 73
     7
 74
     0
 42
0.0000000001
 43
0.0000000001
 40
0.0
 40
0.0
 40
0.0
 40
0.0
 40
0.2472747806268316
 40
0.4945905778561141
 40
0.7472644510483137
 40
1.0
 40
1.0
 40
1.0
 40
1.0
 10
71.74479843633412
 20
324.7053262667577
 30
0.0
 10
71.75612811345627
 20
325.1028720437135
 30
0.0
 10
71.77878934700572
 20
325.8980295403673
 30
0.0
 10
71.95573556871261
 20
327.091007848094
 30
0.0
 10
72.22192850371062
 20
328.2796121116025
 30
0.0
 10
72.46950215221
 20
329.0633895474798
 30
0.0
 10
72.59330408232461
 20
329.455326088101
 30
0.0
  0
LINE
  5
6992
330
1F
100
AcDbEntity
  8
0
  6
Continuous
 62
     7
370
    15
100
AcDbLine
 10
71.74479843633424
 20
334.2053259612839
 30
0.0
 11
71.74479843633412
 21
324.7053262667577
 31
0.0
  0
SPLINE
  5
6993
330
1F
100
AcDbEntity
  8
0
  6
Continuous
 62
     7
370
    15
100
AcDbSpline
210
0.0
220
0.0
230
1.0
 70
    24
 71
     3
 72
    11
 73
     7
 74
     0
 42
0.0000000001
 43
0.0000000001
 40
0.0
 40
0.0
 40
0.0
 40
0.0
 40
0.2477111367865294
 40
0.4953655023901119
 40
0.7477052725690852
 40
1.0
 40
1.0
 40
1.0
 40
1.0
 10
72.59330408232461
 20
338.955325808547
 30
0.0
 10
72.47183979004034
 20
338.955325808547
 30
0.0
 10
72.2289390430235
 20
338.955325808547
 30
0.0
 10
71.96179594835894
 20
338.9553258085471
 30
0.0
 10
71.78021550641574
 20
338.9553258085471
 30
0.0
 10
71.75660342383764
 20
338.9553258085471
 30
0.0
 10
71.74479843633412
 20
338.9553258085471
 30
0.0
  0
LINE
  5
6994
330
1F
100
AcDbEntity
  8
0
  6
Continuous
 62
     7
370
    15
100
AcDbLine
 10
71.74479843633412
 20
338.9553258085471
 30
0.0
 11
71.74479843633424
 21
334.2053259612839
 31
0.0
  0
SPLINE
  5
6995
330
1F
100
AcDbEntity
  8
0
  6
Continuous
 62
     7
370
    15
100
AcDbSpline
210
0.0
220
0.0
230
1.0
 70
    24
 71
     3
 72
    11
 73
     7
 74
     0
 42
0.0000000001
 43
0.0000000001
 40
0.0
 40
0.0
 40
0.0
 40
0.0
 40
0.2472747539850598
 40
0.4945905672078175
 40
0.7472643459150348
 40
1.0
 40
1.0
 40
1.0
 40
1.0
 10
77.74479941981076
 20
338.955325808547
 30
0.0
 10
77.73346979965504
 20
338.955325808547
 30
0.0
 10
77.71080867809349
 20
338.955325808547
 30
0.0
 10
77.53386158906948
 20
338.955325808547
 30
0.0
 10
77.26767218979944
 20
338.955325808547
 30
0.0
 10
77.02009668239316
 20
338.955325808547
 30
0.0
 10
76.8962937738205
 20
338.955325808547
 30
0.0
  0
LINE
  5
6996
330
1F
100
AcDbEntity
  8
0
  6
Continuous
 62
     7
370
    15
100
AcDbLine
 10
77.74479941981088
 20
338.955325808547
 30
0.0
 11
77.74479941981088
 21
334.2053259612839
 31
0.0
  0
SPLINE
  5
6997
330
1F
100
AcDbEntity
  8
0
  6
Continuous
 62
     7
370
    15
100
AcDbSpline
210
0.0
220
0.0
230
1.0
 70
    24
 71
     3
 72
    11
 73
     7
 74
     0
 42
0.0000000001
 43
0.0000000001
 40
0.0
 40
0.0
 40
0.0
 40
0.0
 40
0.2472747589101654
 40
0.4945905770588487
 40
0.7472644250902845
 40
1.0
 40
1.0
 40
1.0
 40
1.0
 10
71.74479843633412
 20
319.9553264194947
 30
0.0
 10
71.7561281179519
 20
319.9553264194947
 30
0.0
 10
71.77878936244724
 20
319.9553264194947
 30
0.0
 10
71.95573553791382
 20
319.9553264194947
 30
0.0
 10
72.2219285451796
 20
319.9553264194946
 30
0.0
 10
72.46950215768766
 20
319.9553264194946
 30
0.0
 10
72.59330408232449
 20
319.9553264194946
 30
0.0
  0
LINE
  5
6998
330
1F
100
AcDbEntity
  8
0
  6
Continuous
 62
     7
370
    15
100
AcDbLine
 10
71.74479843633412
 20
324.7053262667577
 30
0.0
 11
71.74479843633412
 21
319.9553264194947
 31
0.0
  0
SPLINE
  5
6999
330
1F
100
AcDbEntity
  8
0
  6
Continuous
 62
     7
370
    15
100
AcDbSpline
210
0.0
220
0.0
230
1.0
 70
    24
 71
     3
 72
    11
 73
     7
 74
     0
 42
0.0000000001
 43
0.0000000001
 40
0.0
 40
0.0
 40
0.0
 40
0.0
 40
0.2477111367865304
 40
0.495365502390114
 40
0.7477052725690882
 40
1.0
 40
1.0
 40
1.0
 40
1.0
 10
76.89629377382039
 20
319.9553264194946
 30
0.0
 10
77.01775806610465
 20
319.9553264194946
 30
0.0
 10
77.26065881312138
 20
319.9553264194946
 30
0.0
 10
77.52780190778605
 20
319.9553264194946
 30
0.0
 10
77.70938234972925
 20
319.9553264194946
 30
0.0
 10
77.73299443230735
 20
319.9553264194946
 30
0.0
 10
77.74479941981076
 20
319.9553264194946
 30
0.0
  0
LINE
  5
699A
330
1F
100
AcDbEntity
  8
0
  6
Continuous
 62
     7
370
    15
100
AcDbLine
 10
77.74479941981076
 20
324.7053262667577
 30
0.0
 11
77.74479941981076
 21
319.9553264194946
 31
0.0
  0
CIRCLE
  5
699B
330
1F
100
AcDbEntity
  8
0
  6
Continuous
 62
     7
370
    15
100
AcDbCircle
 10
225.8129016468493
 20
342.9553261140211
 30
0.0
 40
5.800000000014733
  0
CIRCLE
  5
699C
330
1F
100
AcDbEntity
  8
0
  6
Continuous
 62
     7
370
    15
100
AcDbCircle
 10
225.8129016468493
 20
315.9553261140211
 30
0.0
 40
5.800000000014733
  0
CIRCLE
  5
699D
330
1F
100
AcDbEntity
  8
0
  6
Continuous
 62
     7
370
    15
100
AcDbCircle
 10
279.3129016468492
 20
315.9553261140209
 30
0.0
 40
5.799999999972442
  0
CIRCLE
  5
699E
330
1F
100
AcDbEntity
  8
0
  6
Continuous
 62
     7
370
    15
100
AcDbCircle
 10
279.3129016468492
 20
342.9553261140209
 30
0.0
 40
5.799999999972385
  0
CIRCLE
  5
699F
330
1F
100
AcDbEntity
  8
0
  6
Continuous
 62
     7
370
    15
100
AcDbCircle
 10
229.3129016468494
 20
352.7053261140211
 30
0.0
 40
4.400499999992916
  0
CIRCLE
  5
69A0
330
1F
100
AcDbEntity
  8
0
  6
Continuous
 62
     7
370
    15
100
AcDbCircle
 10
229.3129016468491
 20
306.2053261140211
 30
0.0
 40
4.400499999992916
  0
CIRCLE
  5
69A1
330
1F
100
AcDbEntity
  8
0
  6
Continuous
 62
     7
370
    15
100
AcDbCircle
 10
275.8129016468491
 20
306.2053261140209
 30
0.0
 40
4.40049999995557
  0
CIRCLE
  5
69A2
330
1F
100
AcDbEntity
  8
0
  6
Continuous
 62
     7
370
    15
100
AcDbCircle
 10
275.8129016468493
 20
352.7053261140209
 30
0.0
 40
4.400500000012414
  0
LINE
  5
69A3
330
1F
100
AcDbEntity
  8
0
  6
Continuous
 62
     7
370
    15
100
AcDbLine
 10
264.1256830552783
 20
296.7053267994744
 30
0.0
 11
241.00012023842
 21
296.7053267994744
 31
0.0
  0
ARC
  5
69A4
330
1F
100
AcDbEntity
  8
0
  6
Continuous
 62
     7
370
    15
100
AcDbCircle
 10
241.0001201160822
 20
297.205326114021
 30
0.0
 40
0.5
100
AcDbArc
 50
154.9999999999977
 51
270.0
  0
LINE
  5
69A5
330
1F
100
AcDbEntity
  8
0
  6
Continuous
 62
     7
370
    15
100
AcDbLine
 10
240.5469666132893
 20
297.4166337290628
 30
0.0
 11
241.6098804110851
 21
299.6960624942405
 31
0.0
  0
ARC
  5
69A6
330
1F
100
AcDbEntity
  8
0
  6
Continuous
 62
     7
370
    15
100
AcDbCircle
 10
241.7911417688974
 20
299.6115379977018
 30
0.0
 40
0.2000000000000448
100
AcDbArc
 50
64.9999999999861
 51
154.9999999999905
  0
LINE
  5
69A7
330
1F
100
AcDbEntity
  8
0
  6
Continuous
 62
     7
370
    15
100
AcDbLine
 10
241.8756649727192
 20
299.7927989700658
 30
0.0
 11
242.2835041666593
 21
299.6026210376842
 31
0.0
  0
ARC
  5
69A8
330
1F
100
AcDbEntity
  8
0
  6
Continuous
 62
     7
370
    15
100
AcDbCircle
 10
242.3680275777603
 20
299.7838828947332
 30
0.0
 40
0.2000000000000216
100
AcDbArc
 50
245.0000000000006
 51
335.0000000000137
  0
LINE
  5
69A9
330
1F
100
AcDbEntity
  8
0
  6
Continuous
 62
     7
370
    15
100
AcDbLine
 10
242.5492887282934
 20
299.6993593761546
 30
0.0
 11
243.8171437839236
 21
302.4182829895837
 31
0.0
  0
ARC
  5
69AA
330
1F
100
AcDbEntity
  8
0
  6
Continuous
 62
     7
370
    15
100
AcDbCircle
 10
243.6358823629823
 20
302.502806255843
 30
0.0
 40
0.1999999999999941
100
AcDbArc
 50
334.9999999999905
 51
65.00000000000793
  0
LINE
  5
69AB
330
1F
100
AcDbEntity
  8
0
  6
Continuous
 62
     7
370
    15
100
AcDbLine
 10
243.7204063767757
 20
302.6840675512178
 30
0.0
 11
237.7387747997608
 21
305.4733488598687
 31
0.0
  0
ARC
  5
69AC
330
1F
100
AcDbEntity
  8
0
  6
Continuous
 62
     7
370
    15
100
AcDbCircle
 10
237.6542509685404
 20
305.2920867833317
 30
0.0
 40
0.2000000000000576
100
AcDbArc
 50
64.99999999999268
 51
154.9999999999905
  0
LINE
  5
69AD
330
1F
100
AcDbEntity
  8
0
  6
Continuous
 62
     7
370
    15
100
AcDbLine
 10
237.4729893068042
 20
305.3766105213983
 30
0.0
 11
236.2051351824965
 21
302.6576869079692
 31
0.0
  0
ARC
  5
69AE
330
1F
100
AcDbEntity
  8
0
  6
Continuous
 62
     7
370
    15
100
AcDbCircle
 10
236.3863961833184
 20
302.5731634222219
 30
0.0
 40
0.2000000000000336
100
AcDbArc
 50
155.0000000000036
 51
245.0000000000006
  0
LINE
  5
69AF
330
1F
100
AcDbEntity
  8
0
  6
Continuous
 62
     7
370
    15
100
AcDbLine
 10
236.3018716583218
 20
302.3919023463351
 30
0.0
 11
236.709710852262
 21
302.2017244139535
 31
0.0
  0
ARC
  5
69B0
330
1F
100
AcDbEntity
  8
0
  6
Continuous
 62
     7
370
    15
100
AcDbCircle
 10
236.6251873827887
 20
302.0204620896238
 30
0.0
 40
0.1999999999999838
100
AcDbArc
 50
334.9999999999905
 51
65.00000000001522
  0
LINE
  5
69B1
330
1F
100
AcDbEntity
  8
0
  6
Continuous
 62
     7
370
    15
100
AcDbLine
 10
236.8064491907325
 20
301.9359379896743
 30
0.0
 11
234.5019939253297
 21
296.9940181711537
 31
0.0
  0
ARC
  5
69B2
330
1F
100
AcDbEntity
  8
0
  6
Continuous
 62
     7
370
    15
100
AcDbCircle
 10
234.0488392266185
 20
297.205326114021
 30
0.0
 40
0.5000000000000523
100
AcDbArc
 50
270.0
 51
335.0000000000051
  0
LINE
  5
69B3
330
1F
100
AcDbEntity
  8
0
  6
Continuous
 62
     7
370
    15
100
AcDbLine
 10
234.0488384375539
 20
296.7053267994744
 30
0.0
 11
226.8129016170468
 21
296.7053267994745
 31
0.0
  0
ARC
  5
69B4
330
1F
100
AcDbEntity
  8
0
  6
Continuous
 62
     7
370
    15
100
AcDbCircle
 10
226.8129016468491
 20
303.7053261140211
 30
0.0
 40
7.0
100
AcDbArc
 50
179.9999999999984
 51
270.0
  0
LINE
  5
69B5
330
1F
100
AcDbEntity
  8
0
  6
Continuous
 62
     7
370
    15
100
AcDbLine
 10
219.8129023323025
 20
303.7053260842188
 30
0.0
 11
219.8129023323028
 21
355.2053261438234
 31
0.0
  0
ARC
  5
69B6
330
1F
100
AcDbEntity
  8
0
  6
Continuous
 62
     7
370
    15
100
AcDbCircle
 10
226.8129016468494
 20
355.2053261140211
 30
0.0
 40
7.0
100
AcDbArc
 50
90.0
 51
179.9999999999984
  0
LINE
  5
69B7
330
1F
100
AcDbEntity
  8
0
  6
Continuous
 62
     7
370
    15
100
AcDbLine
 10
226.812901617047
 20
362.2053254285677
 30
0.0
 11
234.0488384375541
 21
362.2053254285676
 31
0.0
  0
ARC
  5
69B8
330
1F
100
AcDbEntity
  8
0
  6
Continuous
 62
     7
370
    15
100
AcDbCircle
 10
234.0488392266187
 20
361.705326114021
 30
0.0
 40
0.5000000000000067
100
AcDbArc
 50
24.99999999999935
 51
90.0
  0
LINE
  5
69B9
330
1F
100
AcDbEntity
  8
0
  6
Continuous
 62
     7
370
    15
100
AcDbLine
 10
234.5019939253299
 20
361.9166340568883
 30
0.0
 11
236.8064491907327
 21
356.9747142383678
 31
0.0
  0
ARC
  5
69BA
330
1F
100
AcDbEntity
  8
0
  6
Continuous
 62
     7
370
    15
100
AcDbCircle
 10
236.6251873827888
 20
356.8901901384182
 30
0.0
 40
0.1999999999999821
100
AcDbArc
 50
295.0
 51
25.00000000000949
  0
LINE
  5
69BB
330
1F
100
AcDbEntity
  8
0
  6
Continuous
 62
     7
370
    15
100
AcDbLine
 10
236.7097108522622
 20
356.7089278140886
 30
0.0
 11
236.3018716583221
 21
356.5187498817069
 31
0.0
  0
ARC
  5
69BC
330
1F
100
AcDbEntity
  8
0
  6
Continuous
 62
     7
370
    15
100
AcDbCircle
 10
236.3863961833185
 20
356.3374888058203
 30
0.0
 40
0.2000000000000336
100
AcDbArc
 50
114.9999999999993
 51
204.9999999999964
  0
LINE
  5
69BD
330
1F
100
AcDbEntity
  8
0
  6
Continuous
 62
     7
370
    15
100
AcDbLine
 10
236.2051351824967
 20
356.2529653200729
 30
0.0
 11
237.4729893068044
 21
353.5340417066438
 31
0.0
  0
ARC
  5
69BE
330
1F
100
AcDbEntity
  8
0
  6
Continuous
 62
     7
370
    15
100
AcDbCircle
 10
237.6542509685406
 20
353.6185654447103
 30
0.0
 40
0.2000000000000833
100
AcDbArc
 50
205.000000000011
 51
295.0000000000066
  0
LINE
  5
69BF
330
1F
100
AcDbEntity
  8
0
  6
Continuous
 62
     7
370
    15
100
AcDbLine
 10
237.738774799761
 20
353.4373033681733
 30
0.0
 11
243.7204063767759
 21
356.2265846768243
 31
0.0
  0
ARC
  5
69C0
330
1F
100
AcDbEntity
  8
0
  6
Continuous
 62
     7
370
    15
100
AcDbCircle
 10
243.6358823629825
 20
356.407845972199
 30
0.0
 40
0.2000000000000078
100
AcDbArc
 50
294.9999999999994
 51
25.00000000000083
  0
LINE
  5
69C1
330
1F
100
AcDbEntity
  8
0
  6
Continuous
 62
     7
370
    15
100
AcDbLine
 10
243.8171437839238
 20
356.4923692384583
 30
0.0
 11
242.5492887282936
 21
359.2112928518874
 31
0.0
  0
ARC
  5
69C2
330
1F
100
AcDbEntity
  8
0
  6
Continuous
 62
     7
370
    15
100
AcDbCircle
 10
242.3680275777605
 20
359.1267693333088
 30
0.0
 40
0.2000000000000061
100
AcDbArc
 50
24.99999999999492
 51
115.0000000000146
  0
LINE
  5
69C3
330
1F
100
AcDbEntity
  8
0
  6
Continuous
 62
     7
370
    15
100
AcDbLine
 10
242.2835041666596
 20
359.3080311903579
 30
0.0
 11
241.8756649727194
 21
359.1178532579762
 31
0.0
  0
ARC
  5
69C4
330
1F
100
AcDbEntity
  8
0
  6
Continuous
 62
     7
370
    15
100
AcDbCircle
 10
241.7911417688976
 20
359.2991142303402
 30
0.0
 40
0.2000000000000576
100
AcDbArc
 50
205.000000000011
 51
294.9999999999994
  0
LINE
  5
69C5
330
1F
100
AcDbEntity
  8
0
  6
Continuous
 62
     7
370
    15
100
AcDbLine
 10
241.6098804110853
 20
359.2145897338015
 30
0.0
 11
240.5469666132896
 21
361.4940184989793
 31
0.0
  0
ARC
  5
69C6
330
1F
100
AcDbEntity
  8
0
  6
Continuous
 62
     7
370
    15
100
AcDbCircle
 10
241.0001201160824
 20
361.705326114021
 30
0.0
 40
0.5000000000000285
100
AcDbArc
 50
90.0
 51
204.9999999999979
  0
LINE
  5
69C7
330
1F
100
AcDbEntity
  8
0
  6
Continuous
 62
     7
370
    15
100
AcDbLine
 10
241.0001202384202
 20
362.2053254285676
 30
0.0
 11
264.1256830552785
 21
362.2053254285676
 31
0.0
  0
ARC
  5
69C8
330
1F
100
AcDbEntity
  8
0
  6
Continuous
 62
     7
370
    15
100
AcDbCircle
 10
264.1256831776161
 20
361.705326114021
 30
0.0
 40
0.5000000000000187
100
AcDbArc
 50
334.9999999999992
 51
90.0
  0
LINE
  5
69C9
330
1F
100
AcDbEntity
  8
0
  6
Continuous
 62
     7
370
    15
100
AcDbLine
 10
264.5788366804092
 20
361.4940184989793
 30
0.0
 11
263.5159228826134
 21
359.2145897338015
 31
0.0
  0
ARC
  5
69CA
330
1F
100
AcDbEntity
  8
0
  6
Continuous
 62
     7
370
    15
100
AcDbCircle
 10
263.3346615248009
 20
359.2991142303401
 30
0.0
 40
0.2000000000000456
100
AcDbArc
 50
245.0000000000006
 51
334.9999999999992
  0
LINE
  5
69CB
330
1F
100
AcDbEntity
  8
0
  6
Continuous
 62
     7
370
    15
100
AcDbLine
 10
263.2501383209793
 20
359.1178532579762
 30
0.0
 11
262.8422991270392
 21
359.3080311903579
 31
0.0
  0
ARC
  5
69CC
330
1F
100
AcDbEntity
  8
0
  6
Continuous
 62
     7
370
    15
100
AcDbCircle
 10
262.7577757159382
 20
359.1267693333088
 30
0.0
 40
0.2000000000000216
100
AcDbArc
 50
64.99999999999996
 51
155.0000000000123
  0
LINE
  5
69CD
330
1F
100
AcDbEntity
  8
0
  6
Continuous
 62
     7
370
    15
100
AcDbLine
 10
262.5765145654051
 20
359.2112928518874
 30
0.0
 11
261.3086595097749
 21
356.4923692384583
 31
0.0
  0
ARC
  5
69CE
330
1F
100
AcDbEntity
  8
0
  6
Continuous
 62
     7
370
    15
100
AcDbCircle
 10
261.4899209307162
 20
356.407845972199
 30
0.0
 40
0.2000000000000336
100
AcDbArc
 50
155.0000000000036
 51
244.9999999999854
  0
LINE
  5
69CF
330
1F
100
AcDbEntity
  8
0
  6
Continuous
 62
     7
370
    15
100
AcDbLine
 10
261.4053969169228
 20
356.2265846768243
 30
0.0
 11
267.3870286330151
 21
353.4373039058595
 31
0.0
  0
ARC
  5
69D0
330
1F
100
AcDbEntity
  8
0
  6
Continuous
 62
     7
370
    15
100
AcDbCircle
 10
267.471552325158
 20
353.6185654447103
 30
0.0
 40
0.2000000000000576
100
AcDbArc
 50
244.9999999999927
 51
334.9999999999992
  0
LINE
  5
69D1
330
1F
100
AcDbEntity
  8
0
  6
Continuous
 62
     7
370
    15
100
AcDbLine
 10
267.6528139868943
 20
353.5340417066437
 30
0.0
 11
268.920668111202
 21
356.2529653200728
 31
0.0
  0
ARC
  5
69D2
330
1F
100
AcDbEntity
  8
0
  6
Continuous
 62
     7
370
    15
100
AcDbCircle
 10
268.73940711038
 20
356.3374888058202
 30
0.0
 40
0.2000000000000336
100
AcDbArc
 50
335.0000000000051
 51
64.9999999999861
  0
LINE
  5
69D3
330
1F
100
AcDbEntity
  8
0
  6
Continuous
 62
     7
370
    15
100
AcDbLine
 10
268.8239316353767
 20
356.5187498817069
 30
0.0
 11
268.4160924414365
 21
356.7089278140885
 31
0.0
  0
ARC
  5
69D4
330
1F
100
AcDbEntity
  8
0
  6
Continuous
 62
     7
370
    15
100
AcDbCircle
 10
268.5006159109098
 20
356.8901901384181
 30
0.0
 40
0.1999999999999838
100
AcDbArc
 50
154.9999999999992
 51
245.0000000000152
  0
LINE
  5
69D5
330
1F
100
AcDbEntity
  8
0
  6
Continuous
 62
     7
370
    15
100
AcDbLine
 10
268.319354102966
 20
356.9747142383677
 30
0.0
 11
270.6238093683688
 21
361.9166340568883
 31
0.0
  0
ARC
  5
69D6
330
1F
100
AcDbEntity
  8
0
  6
Continuous
 62
     7
370
    15
100
AcDbCircle
 10
271.0769640670799
 20
361.705326114021
 30
0.0
 40
0.5000000000000462
100
AcDbArc
 50
90.0
 51
155.000000000005
  0
LINE
  5
69D7
330
1F
100
AcDbEntity
  8
0
  6
Continuous
 62
     7
370
    15
100
AcDbLine
 10
271.0769648561446
 20
362.2053254285676
 30
0.0
 11
278.3129016766517
 21
362.2053254285675
 31
0.0
  0
ARC
  5
69D8
330
1F
100
AcDbEntity
  8
0
  6
Continuous
 62
     7
370
    15
100
AcDbCircle
 10
278.3129016468492
 20
355.2053261140209
 30
0.0
 40
7.000000000000056
100
AcDbArc
 50
0.0
 51
90.0
  0
LINE
  5
69D9
330
1F
100
AcDbEntity
  8
0
  6
Continuous
 62
     7
370
    15
100
AcDbLine
 10
285.3129009613959
 20
355.2053261438232
 30
0.0
 11
285.3129009613957
 21
303.7053260842185
 31
0.0
  0
ARC
  5
69DA
330
1F
100
AcDbEntity
  8
0
  6
Continuous
 62
     7
370
    15
100
AcDbCircle
 10
278.3129016468491
 20
303.7053261140209
 30
0.0
 40
7.0
100
AcDbArc
 50
270.0
 51
0.0
  0
LINE
  5
69DB
330
1F
100
AcDbEntity
  8
0
  6
Continuous
 62
     7
370
    15
100
AcDbLine
 10
278.3129016766515
 20
296.7053267994743
 30
0.0
 11
271.0769648561444
 21
296.7053267994743
 31
0.0
  0
ARC
  5
69DC
330
1F
100
AcDbEntity
  8
0
  6
Continuous
 62
     7
370
    15
100
AcDbCircle
 10
271.0769640670798
 20
297.2053261140209
 30
0.0
 40
0.5000000000000523
100
AcDbArc
 50
204.9999999999964
 51
270.0
  0
LINE
  5
69DD
330
1F
100
AcDbEntity
  8
0
  6
Continuous
 62
     7
370
    15
100
AcDbLine
 10
270.6238093683686
 20
296.9940181711536
 30
0.0
 11
268.3193541029658
 21
301.9359379896742
 31
0.0
  0
ARC
  5
69DE
330
1F
100
AcDbEntity
  8
0
  6
Continuous
 62
     7
370
    15
100
AcDbCircle
 10
268.5006159109096
 20
302.0204620896237
 30
0.0
 40
0.1999999999999709
100
AcDbArc
 50
114.9999999999854
 51
205.0000000000023
  0
LINE
  5
69DF
330
1F
100
AcDbEntity
  8
0
  6
Continuous
 62
     7
370
    15
100
AcDbLine
 10
268.4160924414363
 20
302.2017244139534
 30
0.0
 11
268.8239316353764
 21
302.391902346335
 31
0.0
  0
ARC
  5
69E0
330
1F
100
AcDbEntity
  8
0
  6
Continuous
 62
     7
370
    15
100
AcDbCircle
 10
268.7394071103798
 20
302.5731634222217
 30
0.0
 40
0.2000000000000791
100
AcDbArc
 50
295.0000000000285
 51
24.99999999998479
  0
LINE
  5
69E1
330
1F
100
AcDbEntity
  8
0
  6
Continuous
 62
     7
370
    15
100
AcDbLine
 10
268.9206681112017
 20
302.6576869079691
 30
0.0
 11
267.6528139868941
 21
305.3766105213981
 31
0.0
  0
ARC
  5
69E2
330
1F
100
AcDbEntity
  8
0
  6
Continuous
 62
     7
370
    15
100
AcDbCircle
 10
267.4715523251578
 20
305.2920867833316
 30
0.0
 40
0.2000000000000593
100
AcDbArc
 50
25.0000000000023
 51
114.999999999992
  0
LINE
  5
69E3
330
1F
100
AcDbEntity
  8
0
  6
Continuous
 62
     7
370
    15
100
AcDbLine
 10
267.3870284939375
 20
305.4733488598686
 30
0.0
 11
261.4053969169225
 21
302.6840675512177
 31
0.0
  0
ARC
  5
69E4
330
1F
100
AcDbEntity
  8
0
  6
Continuous
 62
     7
370
    15
100
AcDbCircle
 10
261.489920930716
 20
302.502806255843
 30
0.0
 40
0.2000000000000456
100
AcDbArc
 50
115.0000000000146
 51
205.0000000000023
  0
LINE
  5
69E5
330
1F
100
AcDbEntity
  8
0
  6
Continuous
 62
     7
370
    15
100
AcDbLine
 10
261.3086595097747
 20
302.4182829895837
 30
0.0
 11
262.5765145654049
 21
299.6993593761546
 31
0.0
  0
ARC
  5
69E6
330
1F
100
AcDbEntity
  8
0
  6
Continuous
 62
     7
370
    15
100
AcDbCircle
 10
262.757775715938
 20
299.7838828947331
 30
0.0
 40
0.2000000000000207
100
AcDbArc
 50
204.9999999999994
 51
294.9999999999994
  0
LINE
  5
69E7
330
1F
100
AcDbEntity
  8
0
  6
Continuous
 62
     7
370
    15
100
AcDbLine
 10
262.8422991270389
 20
299.6026210376841
 30
0.0
 11
263.2501383209791
 21
299.7927989700658
 31
0.0
  0
ARC
  5
69E8
330
1F
100
AcDbEntity
  8
0
  6
Continuous
 62
     7
370
    15
100
AcDbCircle
 10
263.3346615248007
 20
299.6115379977018
 30
0.0
 40
0.2000000000000576
100
AcDbArc
 50
25.00000000001096
 51
114.9999999999927
  0
LINE
  5
69E9
330
1F
100
AcDbEntity
  8
0
  6
Continuous
 62
     7
370
    15
100
AcDbLine
 10
263.5159228826132
 20
299.6960624942405
 30
0.0
 11
264.5788366804089
 21
297.4166337290627
 31
0.0
  0
ARC
  5
69EA
330
1F
100
AcDbEntity
  8
0
  6
Continuous
 62
     7
370
    15
100
AcDbCircle
 10
264.1256831776159
 20
297.205326114021
 30
0.0
 40
0.5
100
AcDbArc
 50
270.0
 51
24.9999999999964
  0
CIRCLE
  5
69EB
330
1F
100
AcDbEntity
  8
0
  6
Continuous
 62
     7
370
    15
100
AcDbCircle
 10
229.3129016468494
 20
352.7053261140211
 30
0.0
 40
3.400499999959663
  0
CIRCLE
  5
69EC
330
1F
100
AcDbEntity
  8
0
  6
Continuous
 62
     7
370
    15
100
AcDbCircle
 10
229.3129016468491
 20
306.205326114021
 30
0.0
 40
3.400500000016563
  0
CIRCLE
  5
69ED
330
1F
100
AcDbEntity
  8
0
  6
Continuous
 62
     7
370
    15
100
AcDbCircle
 10
275.8129016468491
 20
306.2053261140209
 30
0.0
 40
3.400499999979274
  0
CIRCLE
  5
69EE
330
1F
100
AcDbEntity
  8
0
  6
Continuous
 62
     7
370
    15
100
AcDbCircle
 10
275.8129016468493
 20
352.7053261140209
 30
0.0
 40
3.400500000036117
  0
LINE
  5
69EF
330
1F
100
AcDbEntity
  8
0
  6
Continuous
 62
     7
370
    15
100
AcDbLine
 10
281.8129013190237
 20
317.3987015971762
 30
0.0
 11
279.3129018405643
 21
318.8420774305087
 31
0.0
  0
LINE
  5
69F0
330
1F
100
AcDbEntity
  8
0
  6
Continuous
 62
     7
370
    15
100
AcDbLine
 10
279.3129018405643
 20
318.8420774305087
 30
0.0
 11
276.812902362105
 21
317.3987015971762
 31
0.0
  0
LINE
  5
69F1
330
1F
100
AcDbEntity
  8
0
  6
Continuous
 62
     7
370
    15
100
AcDbLine
 10
276.812902362105
 20
317.3987015971762
 30
0.0
 11
276.812902362105
 21
314.5119508618337
 31
0.0
  0
LINE
  5
69F2
330
1F
100
AcDbEntity
  8
0
  6
Continuous
 62
     7
370
    15
100
AcDbLine
 10
276.812902362105
 20
314.5119508618337
 30
0.0
 11
279.3129018405642
 21
313.0685750285011
 31
0.0
  0
LINE
  5
69F3
330
1F
100
AcDbEntity
  8
0
  6
Continuous
 62
     7
370
    15
100
AcDbLine
 10
279.3129018405642
 20
313.0685750285011
 30
0.0
 11
281.8129013190237
 21
314.5119508618337
 31
0.0
  0
LINE
  5
69F4
330
1F
100
AcDbEntity
  8
0
  6
Continuous
 62
     7
370
    15
100
AcDbLine
 10
281.8129013190237
 20
314.5119508618337
 30
0.0
 11
281.8129013190237
 21
317.3987015971762
 31
0.0
  0
CIRCLE
  5
69F5
330
1F
100
AcDbEntity
  8
0
  6
Continuous
 62
     7
370
    15
100
AcDbCircle
 10
279.3129016468492
 20
315.9553261140209
 30
0.0
 40
5.0
  0
LINE
  5
69F6
330
1F
100
AcDbEntity
  8
0
  6
Continuous
 62
     7
370
    15
100
AcDbLine
 10
228.3129009315935
 20
344.3987013662083
 30
0.0
 11
225.8129014531341
 21
345.8420771995409
 31
0.0
  0
LINE
  5
69F7
330
1F
100
AcDbEntity
  8
0
  6
Continuous
 62
     7
370
    15
100
AcDbLine
 10
225.8129014531341
 20
345.8420771995409
 30
0.0
 11
223.3129019746748
 21
344.3987013662083
 31
0.0
  0
LINE
  5
69F8
330
1F
100
AcDbEntity
  8
0
  6
Continuous
 62
     7
370
    15
100
AcDbLine
 10
223.3129019746748
 20
344.3987013662083
 30
0.0
 11
223.3129019746748
 21
341.5119506308658
 31
0.0
  0
LINE
  5
69F9
330
1F
100
AcDbEntity
  8
0
  6
Continuous
 62
     7
370
    15
100
AcDbLine
 10
223.3129019746748
 20
341.5119506308658
 30
0.0
 11
225.8129014531341
 21
340.0685747975333
 31
0.0
  0
LINE
  5
69FA
330
1F
100
AcDbEntity
  8
0
  6
Continuous
 62
     7
370
    15
100
AcDbLine
 10
225.8129014531341
 20
340.0685747975333
 30
0.0
 11
228.3129009315935
 21
341.5119506308658
 31
0.0
  0
LINE
  5
69FB
330
1F
100
AcDbEntity
  8
0
  6
Continuous
 62
     7
370
    15
100
AcDbLine
 10
228.3129009315935
 20
341.5119506308658
 30
0.0
 11
228.3129009315935
 21
344.3987013662083
 31
0.0
  0
CIRCLE
  5
69FC
330
1F
100
AcDbEntity
  8
0
  6
Continuous
 62
     7
370
    15
100
AcDbCircle
 10
225.8129016468493
 20
342.9553261140211
 30
0.0
 40
5.0
  0
LINE
  5
69FD
330
1F
100
AcDbEntity
  8
0
  6
Continuous
 62
     7
370
    15
100
AcDbLine
 10
228.3129009315935
 20
317.3987015971763
 30
0.0
 11
225.8129014531341
 21
318.8420774305089
 31
0.0
  0
LINE
  5
69FE
330
1F
100
AcDbEntity
  8
0
  6
Continuous
 62
     7
370
    15
100
AcDbLine
 10
225.8129014531341
 20
318.8420774305089
 30
0.0
 11
223.3129019746748
 21
317.3987015971763
 31
0.0
  0
LINE
  5
69FF
330
1F
100
AcDbEntity
  8
0
  6
Continuous
 62
     7
370
    15
100
AcDbLine
 10
223.3129019746748
 20
317.3987015971763
 30
0.0
 11
223.3129019746748
 21
314.5119508618338
 31
0.0
  0
LINE
  5
6A00
330
1F
100
AcDbEntity
  8
0
  6
Continuous
 62
     7
370
    15
100
AcDbLine
 10
223.3129019746748
 20
314.5119508618338
 30
0.0
 11
225.812901453134
 21
313.0685750285013
 31
0.0
  0
LINE
  5
6A01
330
1F
100
AcDbEntity
  8
0
  6
Continuous
 62
     7
370
    15
100
AcDbLine
 10
225.812901453134
 20
313.0685750285013
 30
0.0
 11
228.3129009315935
 21
314.5119508618338
 31
0.0
  0
LINE
  5
6A02
330
1F
100
AcDbEntity
  8
0
  6
Continuous
 62
     7
370
    15
100
AcDbLine
 10
228.3129009315935
 20
314.5119508618338
 30
0.0
 11
228.3129009315935
 21
317.3987015971763
 31
0.0
  0
CIRCLE
  5
6A03
330
1F
100
AcDbEntity
  8
0
  6
Continuous
 62
     7
370
    15
100
AcDbCircle
 10
225.8129016468493
 20
315.9553261140211
 30
0.0
 40
4.999999999999943
  0
LINE
  5
6A04
330
1F
100
AcDbEntity
  8
0
  6
Continuous
 62
     7
370
    15
100
AcDbLine
 10
281.8129013190237
 20
344.3987013662082
 30
0.0
 11
279.3129018405643
 21
345.8420771995407
 31
0.0
  0
LINE
  5
6A05
330
1F
100
AcDbEntity
  8
0
  6
Continuous
 62
     7
370
    15
100
AcDbLine
 10
279.3129018405643
 20
345.8420771995407
 30
0.0
 11
276.812902362105
 21
344.3987013662082
 31
0.0
  0
LINE
  5
6A06
330
1F
100
AcDbEntity
  8
0
  6
Continuous
 62
     7
370
    15
100
AcDbLine
 10
276.812902362105
 20
344.3987013662082
 30
0.0
 11
276.812902362105
 21
341.5119506308657
 31
0.0
  0
LINE
  5
6A07
330
1F
100
AcDbEntity
  8
0
  6
Continuous
 62
     7
370
    15
100
AcDbLine
 10
276.812902362105
 20
341.5119506308657
 30
0.0
 11
279.3129018405643
 21
340.0685747975331
 31
0.0
  0
LINE
  5
6A08
330
1F
100
AcDbEntity
  8
0
  6
Continuous
 62
     7
370
    15
100
AcDbLine
 10
279.3129018405643
 20
340.0685747975331
 30
0.0
 11
281.8129013190237
 21
341.5119506308657
 31
0.0
  0
LINE
  5
6A09
330
1F
100
AcDbEntity
  8
0
  6
Continuous
 62
     7
370
    15
100
AcDbLine
 10
281.8129013190237
 20
341.5119506308657
 30
0.0
 11
281.8129013190237
 21
344.3987013662082
 31
0.0
  0
CIRCLE
  5
6A0A
330
1F
100
AcDbEntity
  8
0
  6
Continuous
 62
     7
370
    15
100
AcDbCircle
 10
279.3129016468492
 20
342.9553261140209
 30
0.0
 40
5.000000000000056
  0
CIRCLE
  5
6A0B
330
1F
100
AcDbEntity
  8
0
  6
Continuous
 62
     7
370
    15
100
AcDbCircle
 10
252.5629016468494
 20
329.455326114021
 30
0.0
 40
5.000000000052295
  0
CIRCLE
  5
6A0C
330
1F
100
AcDbEntity
  8
0
  6
Continuous
 62
     7
370
    15
100
AcDbCircle
 10
252.5629016468494
 20
329.455326114021
 30
0.0
 40
6.000000000000028
  0
ARC
  5
6A0D
330
1F
100
AcDbEntity
  8
0
  6
Continuous
 62
     7
370
    15
100
AcDbCircle
 10
252.5629016468494
 20
329.455326114021
 30
0.0
 40
9.499999999999971
100
AcDbArc
 50
270.0
 51
329.9999999999995
  0
ARC
  5
6A0E
330
1F
100
AcDbEntity
  8
0
  6
Continuous
 62
     7
370
    15
100
AcDbCircle
 10
252.5629016468494
 20
329.455326114021
 30
0.0
 40
9.500000000000026
100
AcDbArc
 50
210.0000000000005
 51
270.0
  0
ARC
  5
6A0F
330
1F
100
AcDbEntity
  8
0
  6
Continuous
 62
     7
370
    15
100
AcDbCircle
 10
252.5629016468494
 20
329.455326114021
 30
0.0
 40
9.500000000000026
100
AcDbArc
 50
149.9999999999994
 51
210.0000000000005
  0
ARC
  5
6A10
330
1F
100
AcDbEntity
  8
0
  6
Continuous
 62
     7
370
    15
100
AcDbCircle
 10
252.5629016468494
 20
329.455326114021
 30
0.0
 40
9.500000000000028
100
AcDbArc
 50
90.0
 51
149.9999999999994
  0
ARC
  5
6A11
330
1F
100
AcDbEntity
  8
0
  6
Continuous
 62
     7
370
    15
100
AcDbCircle
 10
252.5629016468494
 20
329.455326114021
 30
0.0
 40
9.500000000000028
100
AcDbArc
 50
30.00000000000055
 51
90.0
  0
ARC
  5
6A12
330
1F
100
AcDbEntity
  8
0
  6
Continuous
 62
     7
370
    15
100
AcDbCircle
 10
252.5629016468494
 20
329.455326114021
 30
0.0
 40
9.499999999999943
100
AcDbArc
 50
329.9999999999995
 51
30.00000000000055
  0
SPLINE
  5
6A13
330
1F
100
AcDbEntity
  8
0
  6
Continuous
 62
     7
370
    15
100
AcDbSpline
210
0.0
220
0.0
230
1.0
 70
     8
 71
     3
 72
    11
 73
     7
 74
     0
 42
0.0000000001
 43
0.0000000001
 40
0.0
 40
0.0
 40
0.0
 40
0.0
 40
0.2472747824549234
 40
0.494590581512601
 40
0.7472644565728075
 40
1.0
 40
1.0
 40
1.0
 40
1.0
 10
244.3356604213087
 20
334.2053259612842
 30
0.0
 10
244.1061371452718
 20
333.807780184243
 30
0.0
 10
243.647052521119
 20
333.0126226874185
 30
0.0
 10
242.9582869043369
 20
331.8196443809818
 30
0.0
 10
242.2720451080684
 20
330.6310401241419
 30
0.0
 10
241.8195314340263
 20
329.8472627120477
 30
0.0
 10
241.5932469899027
 20
329.4553261890513
 30
0.0
  0
SPLINE
  5
6A14
330
1F
100
AcDbEntity
  8
0
  6
Continuous
 62
     7
370
    15
100
AcDbSpline
210
0.0
220
0.0
230
1.0
 70
     8
 71
     3
 72
    11
 73
     7
 74
     0
 42
0.0000000001
 43
0.0000000001
 40
0.0
 40
0.0
 40
0.0
 40
0.0
 40
0.2477110648179089
 40
0.4953654770898452
 40
0.7477052578124842
 40
1.0
 40
1.0
 40
1.0
 40
1.0
 10
241.5932469899027
 20
329.455326155969
 30
0.0
 10
241.815012804737
 20
329.0712157748473
 30
0.0
 10
242.2584937156456
 20
328.3030828602378
 30
0.0
 10
242.9398489972813
 20
327.1229425760499
 30
0.0
 10
243.6330664490238
 20
325.9222540442364
 30
0.0
 10
244.1014763657124
 20
325.11094472285
 30
0.0
 10
244.3356604213087
 20
324.705326266758
 30
0.0
  0
SPLINE
  5
6A15
330
1F
100
AcDbEntity
  8
0
  6
Continuous
 62
     7
370
    15
100
AcDbSpline
210
0.0
220
0.0
230
1.0
 70
    24
 71
     3
 72
    11
 73
     7
 74
     0
 42
0.0000000001
 43
0.0000000001
 40
0.0
 40
0.0
 40
0.0
 40
0.0
 40
0.2477111367865333
 40
0.4953655023901197
 40
0.747705272569097
 40
0.9999999999999998
 40
0.9999999999999998
 40
0.9999999999999998
 40
0.9999999999999998
 10
247.0780738527147
 20
319.9553264194949
 30
0.0
 10
247.5216062908572
 20
319.9553264194949
 30
0.0
 10
248.4085695170445
 20
319.9553264194949
 30
0.0
 10
249.7712787488656
 20
319.9553264194949
 30
0.0
 10
251.1577142427498
 20
319.9553264194949
 30
0.0
 10
252.0945337184112
 20
319.9553264194949
 30
0.0
 10
252.5629016468494
 20
319.9553264194949
 30
0.0
  0
SPLINE
  5
6A16
330
1F
100
AcDbEntity
  8
0
  6
Continuous
 62
     7
370
    15
100
AcDbSpline
210
0.0
220
0.0
230
1.0
 70
     8
 71
     3
 72
    11
 73
     7
 74
     0
 42
0.0000000001
 43
0.0000000001
 40
0.0
 40
0.0
 40
0.0
 40
0.0
 40
0.2472747379249752
 40
0.4945906116968619
 40
0.7472644251395464
 40
1.0
 40
1.0
 40
1.0
 40
1.0
 10
244.3356604213087
 20
324.705326266758
 30
0.0
 10
244.5651834715016
 20
324.3077804506311
 30
0.0
 10
245.024267754619
 20
323.5126226839069
 30
0.0
 10
245.713034063449
 20
322.3196448054878
 30
0.0
 10
246.3992751194171
 20
321.131040042196
 30
0.0
 10
246.8517891757597
 20
320.3472628864533
 30
0.0
 10
247.0780738527147
 20
319.9553264194949
 30
0.0
  0
SPLINE
  5
6A17
330
1F
100
AcDbEntity
  8
0
  6
Continuous
 62
     7
370
    15
100
AcDbSpline
210
0.0
220
0.0
230
1.0
 70
    24
 71
     3
 72
    11
 73
     7
 74
     0
 42
0.0000000001
 43
0.0000000001
 40
0.0
 40
0.0
 40
0.0
 40
0.0
 40
0.2472747793229772
 40
0.4945905763757216
 40
0.7472644042266601
 40
1.0
 40
1.0
 40
1.0
 40
1.0
 10
252.5629016468494
 20
338.9553258085473
 30
0.0
 10
252.1038552618328
 20
338.9553258085473
 30
0.0
 10
251.1856863455763
 20
338.9553258085473
 30
0.0
 10
249.8081540739407
 20
338.9553258085473
 30
0.0
 10
248.4356716779536
 20
338.9553258085473
 30
0.0
 10
247.5306436404904
 20
338.9553258085473
 30
0.0
 10
247.078074318376
 20
338.9553258085473
 30
0.0
  0
SPLINE
  5
6A18
330
1F
100
AcDbEntity
  8
0
  6
Continuous
 62
     7
370
    15
100
AcDbSpline
210
0.0
220
0.0
230
1.0
 70
     8
 71
     3
 72
    11
 73
     7
 74
     0
 42
0.0000000001
 43
0.0000000001
 40
0.0
 40
0.0
 40
0.0
 40
0.0
 40
0.2477110254686725
 40
0.4953654589399262
 40
0.7477052362240157
 40
1.0
 40
1.0
 40
1.0
 40
1.0
 10
247.078074318376
 20
338.9553258085473
 30
0.0
 10
246.8563080244615
 20
338.5712157732021
 30
0.0
 10
246.4128261013028
 20
337.8030834561921
 30
0.0
 10
245.7314723373985
 20
336.6229422676956
 30
0.0
 10
245.0382535352322
 20
335.4222543787391
 30
0.0
 10
244.5698441985459
 20
334.6109446441023
 30
0.0
 10
244.3356604213087
 20
334.2053259612842
 30
0.0
  0
SPLINE
  5
6A19
330
1F
100
AcDbEntity
  8
0
  6
Continuous
 62
     7
370
    15
100
AcDbSpline
210
0.0
220
0.0
230
1.0
 70
     8
 71
     3
 72
    11
 73
     7
 74
     0
 42
0.0000000001
 43
0.0000000001
 40
0.0
 40
0.0
 40
0.0
 40
0.0
 40
0.2477111358013705
 40
0.4953654788056516
 40
0.7477052254075306
 40
1.0
 40
1.0
 40
1.0
 40
1.0
 10
258.047729440984
 20
319.9553264194948
 30
0.0
 10
258.2694954197615
 20
320.3394368628565
 30
0.0
 10
258.7129765329724
 20
321.1075696844777
 30
0.0
 10
259.3943319233408
 20
322.287709786474
 30
0.0
 10
260.0875495960886
 20
323.488398033772
 30
0.0
 10
260.5559590281904
 20
324.2997076231867
 30
0.0
 10
260.79014287239
 20
324.7053262667579
 30
0.0
  0
SPLINE
  5
6A1A
330
1F
100
AcDbEntity
  8
0
  6
Continuous
 62
     7
370
    15
100
AcDbSpline
210
0.0
220
0.0
230
1.0
 70
    24
 71
     3
 72
    11
 73
     7
 74
     0
 42
0.0000000001
 43
0.0000000001
 40
0.0
 40
0.0
 40
0.0
 40
0.0
 40
0.2472747589101654
 40
0.4945905770588487
 40
0.7472644250902845
 40
1.0
 40
1.0
 40
1.0
 40
1.0
 10
252.5629016468494
 20
319.9553264194949
 30
0.0
 10
253.0219480316958
 20
319.9553264194949
 30
0.0
 10
253.9401170246763
 20
319.9553264194949
 30
0.0
 10
255.3176494502446
 20
319.9553264194949
 30
0.0
 10
256.6901320102322
 20
319.9553264194948
 30
0.0
 10
257.5951601196409
 20
319.9553264194948
 30
0.0
 10
258.047729440984
 20
319.9553264194948
 30
0.0
  0
SPLINE
  5
6A1B
330
1F
100
AcDbEntity
  8
0
  6
Continuous
 62
     7
370
    15
100
AcDbSpline
210
0.0
220
0.0
230
1.0
 70
     8
 71
     3
 72
    11
 73
     7
 74
     0
 42
0.0000000001
 43
0.0000000001
 40
0.0
 40
0.0
 40
0.0
 40
0.0
 40
0.2472747379249752
 40
0.4945906116968619
 40
0.7472644251395464
 40
1.0
 40
1.0
 40
1.0
 40
1.0
 10
260.79014287239
 20
334.2053259612841
 30
0.0
 10
260.5606198221973
 20
334.602871777411
 30
0.0
 10
260.1015355390797
 20
335.3980295441352
 30
0.0
 10
259.4127692302499
 20
336.5910074225543
 30
0.0
 10
258.7265281742817
 20
337.7796121858462
 30
0.0
 10
258.274014117939
 20
338.5633893415889
 30
0.0
 10
258.047729440984
 20
338.9553258085472
 30
0.0
  0
SPLINE
  5
6A1C
330
1F
100
AcDbEntity
  8
0
  6
Continuous
 62
     7
370
    15
100
AcDbSpline
210
0.0
220
0.0
230
1.0
 70
    24
 71
     3
 72
    11
 73
     7
 74
     0
 42
0.0000000001
 43
0.0000000001
 40
0.0
 40
0.0
 40
0.0
 40
0.0
 40
0.2477111367865294
 40
0.4953655023901119
 40
0.7477052725690852
 40
1.0
 40
1.0
 40
1.0
 40
1.0
 10
258.047729440984
 20
338.9553258085472
 30
0.0
 10
257.6041970028416
 20
338.9553258085472
 30
0.0
 10
256.7172337766542
 20
338.9553258085472
 30
0.0
 10
255.3545245448331
 20
338.9553258085473
 30
0.0
 10
253.9680890509489
 20
338.9553258085473
 30
0.0
 10
253.0312695752875
 20
338.9553258085473
 30
0.0
 10
252.5629016468494
 20
338.9553258085473
 30
0.0
  0
SPLINE
  5
6A1D
330
1F
100
AcDbEntity
  8
0
  6
Continuous
 62
     7
370
    15
100
AcDbSpline
210
0.0
220
0.0
230
1.0
 70
     8
 71
     3
 72
    11
 73
     7
 74
     0
 42
0.0000000001
 43
0.0000000001
 40
0.0
 40
0.0
 40
0.0
 40
0.0
 40
0.2477110757771835
 40
0.4953654725256307
 40
0.7477052555305807
 40
1.0
 40
1.0
 40
1.0
 40
1.0
 10
263.532556303796
 20
329.4553261305622
 30
0.0
 10
263.3107904965919
 20
329.839436536084
 30
0.0
 10
262.8673096246489
 20
330.6075694584266
 30
0.0
 10
262.1859542607345
 20
331.7877096671472
 30
0.0
 10
261.4927368495401
 20
332.9883981871298
 30
0.0
 10
261.0243269296081
 20
333.7997075063001
 30
0.0
 10
260.79014287239
 20
334.2053259612841
 30
0.0
  0
SPLINE
  5
6A1E
330
1F
100
AcDbEntity
  8
0
  6
Continuous
 62
     7
370
    15
100
AcDbSpline
210
0.0
220
0.0
230
1.0
 70
     8
 71
     3
 72
    11
 73
     7
 74
     0
 42
0.0000000001
 43
0.0000000001
 40
0.0
 40
0.0
 40
0.0
 40
0.0
 40
0.2472747806268316
 40
0.4945905778561141
 40
0.7472644510483137
 40
1.0
 40
1.0
 40
1.0
 40
1.0
 10
260.79014287239
 20
324.7053262667579
 30
0.0
 10
261.019666148541
 20
325.1028720437138
 30
0.0
 10
261.478750772922
 20
325.8980295403675
 30
0.0
 10
262.1675163879808
 20
327.0910078480942
 30
0.0
 10
262.8537581976756
 20
328.2796121116028
 30
0.0
 10
263.3062718614818
 20
329.06338954748
 30
0.0
 10
263.532556303796
 20
329.4553260881012
 30
0.0
  0
SPLINE
  5
6A1F
330
1F
100
AcDbEntity
  8
0
  6
Continuous
 62
     7
370
    15
100
AcDbSpline
210
0.0
220
0.0
230
1.0
 70
    24
 71
     1
 72
     4
 73
     2
 74
     0
 42
0.0000000001
 43
0.0000000001
 40
0.0
 40
0.0
 40
1.0
 40
1.0
 10
91.29725357700371
 20
141.8493254597886
 30
0.0
 10
93.29725367199873
 20
141.8493254597886
 30
0.0
  0
SPLINE
  5
6A20
330
1F
100
AcDbEntity
  8
0
  6
Continuous
 62
     7
370
    15
100
AcDbSpline
210
0.0
220
0.0
230
1.0
 70
    24
 71
     1
 72
     4
 73
     2
 74
     0
 42
0.0000000001
 43
0.0000000001
 40
0.0
 40
0.0
 40
1.0
 40
1.0
 10
93.29725367199873
 20
157.8493262197478
 30
0.0
 10
91.29725357700371
 20
157.8493262197478
 30
0.0
  0
CIRCLE
  5
6A21
330
1F
100
AcDbEntity
  8
0
  6
Continuous
 62
     7
370
    15
100
AcDbCircle
 10
135.7972536719987
 20
149.8493258397679
 30
0.0
 40
5.350000000021282
  0
LINE
  5
6A22
330
1F
100
AcDbEntity
  8
0
  6
Continuous
 62
     7
370
    15
100
AcDbLine
 10
129.2972521222778
 20
124.0993258099656
 30
0.0
 11
129.2972521222781
 21
175.5993258695703
 31
0.0
  0
LINE
  5
6A23
330
1F
100
AcDbEntity
  8
0
  6
Continuous
 62
     7
370
    15
100
AcDbLine
 10
129.2972521222781
 20
175.5993258695703
 30
0.0
 11
143.2972544170569
 21
175.5993258695703
 31
0.0
  0
LINE
  5
6A24
330
1F
100
AcDbEntity
  8
0
  6
Continuous
 62
     7
370
    15
100
AcDbLine
 10
143.2972544170566
 20
124.0993258099656
 30
0.0
 11
143.2972544170569
 21
175.5993258695703
 31
0.0
  0
LINE
  5
6A25
330
1F
100
AcDbEntity
  8
0
  6
Continuous
 62
     7
370
    15
100
AcDbLine
 10
143.2972544170566
 20
124.0993258099656
 30
0.0
 11
129.2972521222778
 21
124.0993258099656
 31
0.0
  0
CIRCLE
  5
6A26
330
1F
100
AcDbEntity
  8
0
  6
Continuous
 62
     7
370
    15
100
AcDbCircle
 10
135.7972536719987
 20
149.8493258397679
 30
0.0
 40
4.349999999988085
  0
LINE
  5
6A27
330
1F
100
AcDbEntity
  8
0
  6
Continuous
 62
     7
370
    15
100
AcDbLine
 10
129.2972521222781
 20
182.5993251543146
 30
0.0
 11
129.2972521222781
 21
175.5993258695703
 31
0.0
  0
LINE
  5
6A28
330
1F
100
AcDbEntity
  8
0
  6
Continuous
 62
     7
370
    15
100
AcDbLine
 10
143.2972544170569
 20
182.5993251543145
 30
0.0
 11
129.2972521222781
 21
182.5993251543146
 31
0.0
  0
LINE
  5
6A29
330
1F
100
AcDbEntity
  8
0
  6
Continuous
 62
     7
370
    15
100
AcDbLine
 10
143.2972544170569
 20
175.5993258695703
 30
0.0
 11
143.2972544170569
 21
182.5993251543145
 31
0.0
  0
LINE
  5
6A2A
330
1F
100
AcDbEntity
  8
0
  6
Continuous
 62
     7
370
    15
100
AcDbLine
 10
129.2972521222778
 20
117.0993265252214
 30
0.0
 11
143.2972544170566
 21
117.0993265252214
 31
0.0
  0
LINE
  5
6A2B
330
1F
100
AcDbEntity
  8
0
  6
Continuous
 62
     7
370
    15
100
AcDbLine
 10
143.2972544170566
 20
117.0993265252214
 30
0.0
 11
143.2972544170566
 21
124.0993258099656
 31
0.0
  0
LINE
  5
6A2C
330
1F
100
AcDbEntity
  8
0
  6
Continuous
 62
     7
370
    15
100
AcDbLine
 10
129.2972521222778
 20
124.0993258099656
 30
0.0
 11
129.2972521222778
 21
117.0993265252214
 31
0.0
  0
LINE
  5
6A2D
330
1F
100
AcDbEntity
  8
0
  6
Continuous
 62
     7
370
    15
100
AcDbLine
 10
143.2972544170568
 20
173.9369579147201
 30
0.0
 11
143.2972544170568
 21
175.0991590808731
 31
0.0
  0
LINE
  5
6A2E
330
1F
100
AcDbEntity
  8
0
  6
Continuous
 62
     7
370
    15
100
AcDbLine
 10
143.2972544170566
 20
123.1837220977646
 30
0.0
 11
143.2972544170566
 21
125.7616937648158
 31
0.0
  0
LINE
  5
6A2F
330
1F
100
AcDbEntity
  8
0
  6
Continuous
 62
     7
370
    15
100
AcDbLine
 10
143.2972544170569
 20
181.8880182247263
 30
0.0
 11
143.2972544170569
 21
182.5993251543146
 31
0.0
  0
LINE
  5
6A30
330
1F
100
AcDbEntity
  8
0
  6
Continuous
 62
     7
370
    15
100
AcDbLine
 10
129.2972521222781
 20
182.0993241410357
 30
0.0
 11
129.2972521222781
 21
182.5993251543146
 31
0.0
  0
LINE
  5
6A31
330
1F
100
AcDbEntity
  8
0
  6
Continuous
 62
     7
370
    15
100
AcDbLine
 10
143.2972544170566
 20
117.0993265252214
 30
0.0
 11
143.2972544170566
 21
117.8106334548097
 31
0.0
  0
LINE
  5
6A32
330
1F
100
AcDbEntity
  8
0
  6
Continuous
 62
     7
370
    15
100
AcDbLine
 10
129.2972521222778
 20
117.0993265252215
 30
0.0
 11
129.2972521222778
 21
117.5993275385004
 31
0.0
  0
LINE
  5
6A33
330
1F
100
AcDbEntity
  8
0
  6
Continuous
 62
     7
370
    15
100
AcDbLine
 10
143.2972544170568
 20
179.6085894595485
 30
0.0
 11
143.2972544170569
 21
181.8880182247263
 31
0.0
  0
LINE
  5
6A34
330
1F
100
AcDbEntity
  8
0
  6
Continuous
 62
     7
370
    15
100
AcDbLine
 10
143.2972544170566
 20
117.8106334548097
 30
0.0
 11
143.2972544170566
 21
120.0900622199875
 31
0.0
  0
LINE
  5
6A35
330
1F
100
AcDbEntity
  8
0
  6
Continuous
 62
     7
370
    15
100
AcDbLine
 10
143.2972544170568
 20
175.3527302782636
 30
0.0
 11
143.2972544170568
 21
174.9540515731674
 31
0.0
  0
LINE
  5
6A36
330
1F
100
AcDbEntity
  8
0
  6
Continuous
 62
     7
370
    15
100
AcDbLine
 10
143.2972544170568
 20
175.3527302782636
 30
0.0
 11
143.2972544170568
 21
176.5149295817714
 31
0.0
  0
LINE
  5
6A37
330
1F
100
AcDbEntity
  8
0
  6
Continuous
 62
     7
370
    15
100
AcDbLine
 10
143.2972544170568
 20
179.493114773522
 30
0.0
 11
143.2972544170568
 21
179.6085894595485
 31
0.0
  0
LINE
  5
6A38
330
1F
100
AcDbEntity
  8
0
  6
Continuous
 62
     7
370
    15
100
AcDbLine
 10
143.2972544170566
 20
120.0900622199875
 30
0.0
 11
143.2972544170566
 21
120.205536906014
 31
0.0
  0
LINE
  5
6A39
330
1F
100
AcDbEntity
  8
0
  6
Continuous
 62
     7
370
    15
100
AcDbLine
 10
143.2972544170568
 20
176.7807141434055
 30
0.0
 11
143.2972544170568
 21
179.4996377568346
 31
0.0
  0
LINE
  5
6A3A
330
1F
100
AcDbEntity
  8
0
  6
Continuous
 62
     7
370
    15
100
AcDbLine
 10
143.2972544170566
 20
120.1990139227014
 30
0.0
 11
143.2972544170566
 21
122.9179375361305
 31
0.0
  0
LINE
  5
6A3B
330
1F
100
AcDbEntity
  8
0
  6
Continuous
 62
     7
370
    15
100
AcDbLine
 10
143.2972544170568
 20
179.5118529837233
 30
0.0
 11
143.2972544170568
 21
179.5963760953051
 31
0.0
  0
LINE
  5
6A3C
330
1F
100
AcDbEntity
  8
0
  6
Continuous
 62
     7
370
    15
100
AcDbLine
 10
143.2972544170565
 20
120.102275584231
 30
0.0
 11
143.2972544170565
 21
120.1867986958128
 31
0.0
  0
LINE
  5
6A3D
330
1F
100
AcDbEntity
  8
0
  6
Continuous
 62
     7
370
    15
100
AcDbLine
 10
143.2972544170566
 20
174.0336962531906
 30
0.0
 11
143.2972544170566
 21
176.7526198666197
 31
0.0
  0
LINE
  5
6A3E
330
1F
100
AcDbEntity
  8
0
  6
Continuous
 62
     7
370
    15
100
AcDbLine
 10
143.2972544170565
 20
122.9460318129164
 30
0.0
 11
143.2972544170565
 21
125.6649554263455
 31
0.0
  0
LINE
  5
6A3F
330
1F
100
AcDbEntity
  8
0
  6
Continuous
 62
     7
370
    15
100
AcDbLine
 10
143.2972544170566
 20
177.1029275398356
 30
0.0
 11
143.2972544170566
 21
177.3687139641148
 31
0.0
  0
LINE
  5
6A40
330
1F
100
AcDbEntity
  8
0
  6
Continuous
 62
     7
370
    15
100
AcDbLine
 10
143.2972544170565
 20
122.3299377154213
 30
0.0
 11
143.2972544170565
 21
122.5957241397005
 31
0.0
  0
LINE
  5
6A41
330
1F
100
AcDbEntity
  8
0
  6
Continuous
 62
     7
370
    15
100
AcDbLine
 10
143.2972544170566
 20
177.3687139641148
 30
0.0
 11
143.2972544170566
 21
182.3106337826353
 31
0.0
  0
LINE
  5
6A42
330
1F
100
AcDbEntity
  8
0
  6
Continuous
 62
     7
370
    15
100
AcDbLine
 10
129.2972521222778
 20
182.3106337826354
 30
0.0
 11
129.2972521222778
 21
182.0993241410358
 31
0.0
  0
LINE
  5
6A43
330
1F
100
AcDbEntity
  8
0
  6
Continuous
 62
     7
370
    15
100
AcDbLine
 10
143.2972544170565
 20
117.3880178969008
 30
0.0
 11
143.2972544170565
 21
122.3299377154213
 31
0.0
  0
LINE
  5
6A44
330
1F
100
AcDbEntity
  8
0
  6
Continuous
 62
     7
370
    15
100
AcDbLine
 10
129.2972521222777
 20
117.5993275385005
 30
0.0
 11
129.2972521222777
 21
117.3880178969008
 31
0.0
  0
LINE
  5
6A45
330
1F
100
AcDbEntity
  8
0
  6
Continuous
 62
     7
370
    15
100
AcDbLine
 10
143.2972544170566
 20
177.0184044282538
 30
0.0
 11
143.2972544170566
 21
177.1029275398356
 31
0.0
  0
LINE
  5
6A46
330
1F
100
AcDbEntity
  8
0
  6
Continuous
 62
     7
370
    15
100
AcDbLine
 10
143.2972544170565
 20
122.5957241397005
 30
0.0
 11
143.2972544170565
 21
122.6802472512823
 31
0.0
  0
LINE
  5
6A47
330
1F
100
AcDbEntity
  8
0
  6
Continuous
 62
     7
370
    15
100
AcDbLine
 10
143.2972544170566
 20
182.3106337826353
 30
0.0
 11
143.2972544170566
 21
182.5993251543146
 31
0.0
  0
LINE
  5
6A48
330
1F
100
AcDbEntity
  8
0
  6
Continuous
 62
     7
370
    15
100
AcDbLine
 10
129.2972521222778
 20
182.3106337826354
 30
0.0
 11
129.2972521222778
 21
182.5993251543147
 31
0.0
  0
LINE
  5
6A49
330
1F
100
AcDbEntity
  8
0
  6
Continuous
 62
     7
370
    15
100
AcDbLine
 10
143.2972544170565
 20
117.0993265252215
 30
0.0
 11
143.2972544170565
 21
117.3880178969008
 31
0.0
  0
LINE
  5
6A4A
330
1F
100
AcDbEntity
  8
0
  6
Continuous
 62
     7
370
    15
100
AcDbLine
 10
129.2972521222777
 20
117.0993265252215
 30
0.0
 11
129.2972521222777
 21
117.3880178969008
 31
0.0
  0
CIRCLE
  5
6A4B
330
1F
100
AcDbEntity
  8
0
  6
Continuous
 62
     7
370
    15
100
AcDbCircle
 10
100.7972536719987
 20
149.8493258397681
 30
0.0
 40
5.350000000021282
  0
LINE
  5
6A4C
330
1F
100
AcDbEntity
  8
0
  6
Continuous
 62
     7
370
    15
100
AcDbLine
 10
107.2972541041325
 20
175.5993258695704
 30
0.0
 11
107.2972541041323
 21
124.0993258099657
 31
0.0
  0
LINE
  5
6A4D
330
1F
100
AcDbEntity
  8
0
  6
Continuous
 62
     7
370
    15
100
AcDbLine
 10
107.2972541041323
 20
124.0993258099657
 30
0.0
 11
93.29725367199861
 21
124.0993258099657
 31
0.0
  0
LINE
  5
6A4E
330
1F
100
AcDbEntity
  8
0
  6
Continuous
 62
     7
370
    15
100
AcDbLine
 10
93.29725367199884
 20
175.5993258695704
 30
0.0
 11
93.29725367199861
 21
124.0993258099657
 31
0.0
  0
LINE
  5
6A4F
330
1F
100
AcDbEntity
  8
0
  6
Continuous
 62
     7
370
    15
100
AcDbLine
 10
93.29725367199884
 20
175.5993258695704
 30
0.0
 11
107.2972541041325
 21
175.5993258695704
 31
0.0
  0
CIRCLE
  5
6A50
330
1F
100
AcDbEntity
  8
0
  6
Continuous
 62
     7
370
    15
100
AcDbCircle
 10
100.7972536719987
 20
149.8493258397681
 30
0.0
 40
4.349999999988085
  0
LINE
  5
6A51
330
1F
100
AcDbEntity
  8
0
  6
Continuous
 62
     7
370
    15
100
AcDbLine
 10
107.2972541041325
 20
182.5993251543146
 30
0.0
 11
93.29725367199884
 21
182.5993251543147
 31
0.0
  0
LINE
  5
6A52
330
1F
100
AcDbEntity
  8
0
  6
Continuous
 62
     7
370
    15
100
AcDbLine
 10
107.2972541041325
 20
175.5993258695704
 30
0.0
 11
107.2972541041325
 21
182.5993251543146
 31
0.0
  0
LINE
  5
6A53
330
1F
100
AcDbEntity
  8
0
  6
Continuous
 62
     7
370
    15
100
AcDbLine
 10
93.29725367199884
 20
182.5993251543147
 30
0.0
 11
93.29725367199884
 21
175.5993258695704
 31
0.0
  0
LINE
  5
6A54
330
1F
100
AcDbEntity
  8
0
  6
Continuous
 62
     7
370
    15
100
AcDbLine
 10
93.29725367199861
 20
117.0993265252215
 30
0.0
 11
107.2972541041323
 21
117.0993265252215
 31
0.0
  0
LINE
  5
6A55
330
1F
100
AcDbEntity
  8
0
  6
Continuous
 62
     7
370
    15
100
AcDbLine
 10
107.2972541041323
 20
117.0993265252215
 30
0.0
 11
107.2972541041323
 21
124.0993258099657
 31
0.0
  0
LINE
  5
6A56
330
1F
100
AcDbEntity
  8
0
  6
Continuous
 62
     7
370
    15
100
AcDbLine
 10
93.29725367199861
 20
124.0993258099657
 30
0.0
 11
93.29725367199861
 21
117.0993265252215
 31
0.0
  0
LINE
  5
6A57
330
1F
100
AcDbEntity
  8
0
  6
Continuous
 62
     7
370
    15
100
AcDbLine
 10
93.29725367199873
 20
175.0991590808733
 30
0.0
 11
93.29725367199873
 21
173.8313030939205
 31
0.0
  0
LINE
  5
6A58
330
1F
100
AcDbEntity
  8
0
  6
Continuous
 62
     7
370
    15
100
AcDbLine
 10
93.29725367199861
 20
125.8673485856158
 30
0.0
 11
93.29725367199861
 21
123.0780672769649
 31
0.0
  0
LINE
  5
6A59
330
1F
100
AcDbEntity
  8
0
  6
Continuous
 62
     7
370
    15
100
AcDbLine
 10
107.2972541041325
 20
182.5993251543147
 30
0.0
 11
107.2972541041325
 21
182.0993241410358
 31
0.0
  0
LINE
  5
6A5A
330
1F
100
AcDbEntity
  8
0
  6
Continuous
 62
     7
370
    15
100
AcDbLine
 10
93.29725367199884
 20
182.5993251543147
 30
0.0
 11
93.29725367199884
 21
181.8880182247264
 31
0.0
  0
LINE
  5
6A5B
330
1F
100
AcDbEntity
  8
0
  6
Continuous
 62
     7
370
    15
100
AcDbLine
 10
107.2972541041323
 20
117.5993275385005
 30
0.0
 11
107.2972541041323
 21
117.0993265252215
 31
0.0
  0
LINE
  5
6A5C
330
1F
100
AcDbEntity
  8
0
  6
Continuous
 62
     7
370
    15
100
AcDbLine
 10
93.29725367199861
 20
117.8106334548099
 30
0.0
 11
93.29725367199861
 21
117.0993265252216
 31
0.0
  0
LINE
  5
6A5D
330
1F
100
AcDbEntity
  8
0
  6
Continuous
 62
     7
370
    15
100
AcDbLine
 10
93.29725367199884
 20
181.8880182247264
 30
0.0
 11
93.29725367199873
 21
179.6085894595487
 31
0.0
  0
LINE
  5
6A5E
330
1F
100
AcDbEntity
  8
0
  6
Continuous
 62
     7
370
    15
100
AcDbLine
 10
93.29725367199861
 20
120.0900622199876
 30
0.0
 11
93.29725367199861
 21
117.8106334548099
 31
0.0
  0
LINE
  5
6A5F
330
1F
100
AcDbEntity
  8
0
  6
Continuous
 62
     7
370
    15
100
AcDbLine
 10
93.29725367199873
 20
174.9540515731676
 30
0.0
 11
93.29725367199873
 21
175.3527302782638
 31
0.0
  0
LINE
  5
6A60
330
1F
100
AcDbEntity
  8
0
  6
Continuous
 62
     7
370
    15
100
AcDbLine
 10
93.29725367199873
 20
176.6205844025714
 30
0.0
 11
93.29725367199873
 21
175.3527302782638
 31
0.0
  0
LINE
  5
6A61
330
1F
100
AcDbEntity
  8
0
  6
Continuous
 62
     7
370
    15
100
AcDbLine
 10
93.29725367199873
 20
179.6085894595487
 30
0.0
 11
93.29725367199873
 21
179.4931147735221
 31
0.0
  0
LINE
  5
6A62
330
1F
100
AcDbEntity
  8
0
  6
Continuous
 62
     7
370
    15
100
AcDbLine
 10
93.29725367199861
 20
120.2055369060142
 30
0.0
 11
93.29725367199861
 21
120.0900622199876
 31
0.0
  0
LINE
  5
6A63
330
1F
100
AcDbEntity
  8
0
  6
Continuous
 62
     7
370
    15
100
AcDbLine
 10
93.29725367199873
 20
179.6052925776346
 30
0.0
 11
93.29725367199873
 21
176.8863689642055
 31
0.0
  0
LINE
  5
6A64
330
1F
100
AcDbEntity
  8
0
  6
Continuous
 62
     7
370
    15
100
AcDbLine
 10
93.29725367199861
 20
122.8122827153308
 30
0.0
 11
93.29725367199861
 21
120.0933591019018
 31
0.0
  0
LINE
  5
6A65
330
1F
100
AcDbEntity
  8
0
  6
Continuous
 62
     7
370
    15
100
AcDbLine
 10
93.29725367199873
 20
179.702030916105
 30
0.0
 11
93.29725367199873
 21
179.5118529837234
 31
0.0
  0
LINE
  5
6A66
330
1F
100
AcDbEntity
  8
0
  6
Continuous
 62
     7
370
    15
100
AcDbLine
 10
93.2972536719985
 20
120.186798695813
 30
0.0
 11
93.2972536719985
 21
119.9966207634314
 31
0.0
  0
LINE
  5
6A67
330
1F
100
AcDbEntity
  8
0
  6
Continuous
 62
     7
370
    15
100
AcDbLine
 10
93.29725367199873
 20
179.5118529837234
 30
0.0
 11
93.29725367199873
 21
179.4931147735221
 31
0.0
  0
LINE
  5
6A68
330
1F
100
AcDbEntity
  8
0
  6
Continuous
 62
     7
370
    15
100
AcDbLine
 10
93.2972536719985
 20
120.2055369060143
 30
0.0
 11
93.2972536719985
 21
120.186798695813
 31
0.0
  0
LINE
  5
6A69
330
1F
100
AcDbEntity
  8
0
  6
Continuous
 62
     7
370
    15
100
AcDbLine
 10
93.29725367199861
 20
176.6469650458201
 30
0.0
 11
93.29725367199861
 21
173.928041432391
 31
0.0
  0
LINE
  5
6A6A
330
1F
100
AcDbEntity
  8
0
  6
Continuous
 62
     7
370
    15
100
AcDbLine
 10
93.2972536719985
 20
125.7706102471455
 30
0.0
 11
93.2972536719985
 21
123.0516866337164
 31
0.0
  0
LINE
  5
6A6B
330
1F
100
AcDbEntity
  8
0
  6
Continuous
 62
     7
370
    15
100
AcDbLine
 10
93.29725367199861
 20
177.368713964115
 30
0.0
 11
93.29725367199861
 21
177.1029275398358
 31
0.0
  0
LINE
  5
6A6C
330
1F
100
AcDbEntity
  8
0
  6
Continuous
 62
     7
370
    15
100
AcDbLine
 10
93.2972536719985
 20
122.5957241397007
 30
0.0
 11
93.2972536719985
 21
122.3299377154215
 31
0.0
  0
LINE
  5
6A6D
330
1F
100
AcDbEntity
  8
0
  6
Continuous
 62
     7
370
    15
100
AcDbLine
 10
107.2972541041323
 20
182.0993241410358
 30
0.0
 11
107.2972541041323
 21
182.3106337826354
 31
0.0
  0
LINE
  5
6A6E
330
1F
100
AcDbEntity
  8
0
  6
Continuous
 62
     7
370
    15
100
AcDbLine
 10
93.29725367199861
 20
182.3106337826355
 30
0.0
 11
93.29725367199861
 21
177.368713964115
 31
0.0
  0
LINE
  5
6A6F
330
1F
100
AcDbEntity
  8
0
  6
Continuous
 62
     7
370
    15
100
AcDbLine
 10
107.2972541041322
 20
117.3880178969009
 30
0.0
 11
107.2972541041322
 21
117.5993275385005
 31
0.0
  0
LINE
  5
6A70
330
1F
100
AcDbEntity
  8
0
  6
Continuous
 62
     7
370
    15
100
AcDbLine
 10
93.2972536719985
 20
122.3299377154215
 30
0.0
 11
93.2972536719985
 21
117.388017896901
 31
0.0
  0
LINE
  5
6A71
330
1F
100
AcDbEntity
  8
0
  6
Continuous
 62
     7
370
    15
100
AcDbLine
 10
93.29725367199861
 20
177.1029275398358
 30
0.0
 11
93.29725367199861
 21
176.9127496074541
 31
0.0
  0
LINE
  5
6A72
330
1F
100
AcDbEntity
  8
0
  6
Continuous
 62
     7
370
    15
100
AcDbLine
 10
93.2972536719985
 20
122.7859020720823
 30
0.0
 11
93.2972536719985
 21
122.5957241397007
 31
0.0
  0
LINE
  5
6A73
330
1F
100
AcDbEntity
  8
0
  6
Continuous
 62
     7
370
    15
100
AcDbLine
 10
107.2972541041323
 20
182.5993251543147
 30
0.0
 11
107.2972541041323
 21
182.3106337826354
 31
0.0
  0
LINE
  5
6A74
330
1F
100
AcDbEntity
  8
0
  6
Continuous
 62
     7
370
    15
100
AcDbLine
 10
93.29725367199861
 20
182.5993251543148
 30
0.0
 11
93.29725367199861
 21
182.3106337826355
 31
0.0
  0
LINE
  5
6A75
330
1F
100
AcDbEntity
  8
0
  6
Continuous
 62
     7
370
    15
100
AcDbLine
 10
107.2972541041322
 20
117.3880178969009
 30
0.0
 11
107.297254104132
 21
117.0993265252216
 31
0.0
  0
LINE
  5
6A76
330
1F
100
AcDbEntity
  8
0
  6
Continuous
 62
     7
370
    15
100
AcDbLine
 10
93.2972536719985
 20
117.388017896901
 30
0.0
 11
93.2972536719984
 21
117.0993265252217
 31
0.0
  0
LINE
  5
6A77
330
1F
100
AcDbEntity
  8
0
  6
Continuous
 62
     7
370
    15
100
AcDbLine
 10
129.2972521222781
 20
182.0993241410356
 30
0.0
 11
107.2972541041325
 21
182.0993241410357
 31
0.0
  0
LINE
  5
6A78
330
1F
100
AcDbEntity
  8
0
  6
Continuous
 62
     7
370
    15
100
AcDbLine
 10
107.2972541041325
 20
176.0993250202042
 30
0.0
 11
129.2972521222781
 21
176.0993250202041
 31
0.0
  0
LINE
  5
6A79
330
1F
100
AcDbEntity
  8
0
  6
Continuous
 62
     7
370
    15
100
AcDbLine
 10
129.2972521222779
 20
160.8005505542855
 30
0.0
 11
107.2972541041325
 21
160.8005505542856
 31
0.0
  0
LINE
  5
6A7A
330
1F
100
AcDbEntity
  8
0
  6
Continuous
 62
     7
370
    15
100
AcDbLine
 10
107.2972541041324
 20
158.9879351224405
 30
0.0
 11
129.2972521222779
 21
158.9879351224404
 31
0.0
  0
LINE
  5
6A7B
330
1F
100
AcDbEntity
  8
0
  6
Continuous
 62
     7
370
    15
100
AcDbLine
 10
129.2972521222779
 20
140.7107165570955
 30
0.0
 11
107.2972541041324
 21
140.7107165570957
 31
0.0
  0
LINE
  5
6A7C
330
1F
100
AcDbEntity
  8
0
  6
Continuous
 62
     7
370
    15
100
AcDbLine
 10
107.2972541041324
 20
138.8981011252505
 30
0.0
 11
129.2972521222779
 21
138.8981011252504
 31
0.0
  0
LINE
  5
6A7D
330
1F
100
AcDbEntity
  8
0
  6
Continuous
 62
     7
370
    15
100
AcDbLine
 10
129.2972521222778
 20
123.5993266593318
 30
0.0
 11
107.2972541041323
 21
123.5993266593319
 31
0.0
  0
LINE
  5
6A7E
330
1F
100
AcDbEntity
  8
0
  6
Continuous
 62
     7
370
    15
100
AcDbLine
 10
107.2972541041323
 20
117.5993275385004
 30
0.0
 11
129.2972521222778
 21
117.5993275385004
 31
0.0
  0
LINE
  5
6A7F
330
1F
100
AcDbEntity
  8
0
  6
Continuous
 62
     7
370
    15
100
AcDbLine
 10
129.2972521222779
 20
157.4487471509378
 30
0.0
 11
107.2972541041324
 21
157.4487471509379
 31
0.0
  0
LINE
  5
6A80
330
1F
100
AcDbEntity
  8
0
  6
Continuous
 62
     7
370
    15
100
AcDbLine
 10
107.2972541041324
 20
142.2499045285982
 30
0.0
 11
129.2972521222779
 21
142.2499045285981
 31
0.0
  0
LINE
  5
6A81
330
1F
100
AcDbEntity
  8
0
  6
Continuous
 62
     7
370
    15
100
AcDbLine
 10
107.2972541041324
 20
143.387009345333
 30
0.0
 11
129.2972521222779
 21
143.3870093453329
 31
0.0
  0
LINE
  5
6A82
330
1F
100
AcDbEntity
  8
0
  6
Continuous
 62
     7
370
    15
100
AcDbLine
 10
129.2972521222779
 20
156.3116423342031
 30
0.0
 11
107.2972541041324
 21
156.3116423342031
 31
0.0
  0
LINE
  5
6A83
330
1F
100
AcDbEntity
  8
0
  6
Continuous
 62
     7
370
    15
100
AcDbLine
 10
86.16327897828304
 20
156.849326055835
 30
0.0
 11
86.16327897828304
 21
142.8493256237013
 31
0.0
  0
LINE
  5
6A84
330
1F
100
AcDbEntity
  8
0
  6
Continuous
 62
     7
370
    15
100
AcDbLine
 10
90.29725364592158
 20
156.849326055835
 30
0.0
 11
86.16327897828304
 21
156.849326055835
 31
0.0
  0
LWPOLYLINE
  5
6A85
330
1F
100
AcDbEntity
  8
0
  6
Continuous
 62
     7
370
    15
100
AcDbPolyline
 90
        7
 70
   128
 43
0.0
 10
91.29725357700371
 20
157.8493262197478
 10
91.26889387328409
 20
157.8209655847056
 10
91.18401546214007
 20
157.7360876392229
 10
91.04322044361614
 20
157.5952926206989
 10
90.847506729851
 20
157.3995789069338
 10
90.59826199148082
 20
157.1503341685636
 10
90.29725364592158
 20
156.849326055835
  0
LWPOLYLINE
  5
6A86
330
1F
100
AcDbEntity
  8
0
  6
Continuous
 62
     7
370
    15
100
AcDbPolyline
 90
        7
 70
   128
 43
0.0
 10
90.29725364592158
 20
142.8493256237013
 10
90.59826199148082
 20
142.5483175109727
 10
90.847506729851
 20
142.2990727726026
 10
91.04322044361614
 20
142.1033590588374
 10
91.18401546214007
 20
141.9625640403135
 10
91.26889387328409
 20
141.8776860948308
 10
91.29725357700371
 20
141.8493254597886
  0
LINE
  5
6A87
330
1F
100
AcDbEntity
  8
0
  6
Continuous
 62
     7
370
    15
100
AcDbLine
 10
86.16327897828304
 20
142.8493256237013
 30
0.0
 11
90.29725364592158
 21
142.8493256237013
 31
0.0
  0
LINE
  5
6A88
330
1F
100
AcDbEntity
  8
0
  6
Continuous
 62
     7
370
    15
100
AcDbLine
 10
85.297253292019
 20
156.849326055835
 30
0.0
 11
85.297253292019
 21
142.8493256237013
 31
0.0
  0
SPLINE
  5
6A89
330
1F
100
AcDbEntity
  8
0
  6
Continuous
 62
     7
370
    15
100
AcDbSpline
210
0.0
220
0.0
230
1.0
 70
    24
 71
     1
 72
     4
 73
     2
 74
     0
 42
0.0000000001
 43
0.0000000001
 40
0.0
 40
0.0
 40
1.0
 40
1.0
 10
86.16327897828304
 20
156.849326055835
 30
0.0
 10
85.297253292019
 20
156.849326055835
 30
0.0
  0
SPLINE
  5
6A8A
330
1F
100
AcDbEntity
  8
0
  6
Continuous
 62
     7
370
    15
100
AcDbSpline
210
0.0
220
0.0
230
1.0
 70
    24
 71
     1
 72
     4
 73
     2
 74
     0
 42
0.0000000001
 43
0.0000000001
 40
0.0
 40
0.0
 40
1.0
 40
1.0
 10
85.297253292019
 20
142.8493256237013
 30
0.0
 10
86.16327897828304
 20
142.8493256237013
 30
0.0
  0
CIRCLE
  5
6A8B
330
1F
100
AcDbEntity
  8
0
  6
Continuous
 62
     7
370
    15
100
AcDbCircle
 10
226.3653563460719
 20
163.3493258397684
 30
0.0
 40
5.800000000014733
  0
CIRCLE
  5
6A8C
330
1F
100
AcDbEntity
  8
0
  6
Continuous
 62
     7
370
    15
100
AcDbCircle
 10
226.3653563460718
 20
136.3493258397684
 30
0.0
 40
5.800000000014733
  0
CIRCLE
  5
6A8D
330
1F
100
AcDbEntity
  8
0
  6
Continuous
 62
     7
370
    15
100
AcDbCircle
 10
279.8653563460718
 20
136.3493258397682
 30
0.0
 40
5.799999999972442
  0
CIRCLE
  5
6A8E
330
1F
100
AcDbEntity
  8
0
  6
Continuous
 62
     7
370
    15
100
AcDbCircle
 10
279.8653563460718
 20
163.3493258397682
 30
0.0
 40
5.799999999972385
  0
CIRCLE
  5
6A8F
330
1F
100
AcDbEntity
  8
0
  6
Continuous
 62
     7
370
    15
100
AcDbCircle
 10
229.8653563460719
 20
173.0993258397684
 30
0.0
 40
4.400499999992916
  0
CIRCLE
  5
6A90
330
1F
100
AcDbEntity
  8
0
  6
Continuous
 62
     7
370
    15
100
AcDbCircle
 10
229.8653563460718
 20
126.5993258397684
 30
0.0
 40
4.400499999992916
  0
CIRCLE
  5
6A91
330
1F
100
AcDbEntity
  8
0
  6
Continuous
 62
     7
370
    15
100
AcDbCircle
 10
276.3653563460717
 20
126.5993258397682
 30
0.0
 40
4.40049999995557
  0
CIRCLE
  5
6A92
330
1F
100
AcDbEntity
  8
0
  6
Continuous
 62
     7
370
    15
100
AcDbCircle
 10
276.3653563460719
 20
173.0993258397682
 30
0.0
 40
4.400500000012414
  0
CIRCLE
  5
6A93
330
1F
100
AcDbEntity
  8
0
  6
Continuous
 62
     7
370
    15
100
AcDbCircle
 10
253.1153563460718
 20
149.8493258397683
 30
0.0
 40
8.25
  0
LINE
  5
6A94
330
1F
100
AcDbEntity
  8
0
  6
Continuous
 62
     7
370
    15
100
AcDbLine
 10
264.678137754501
 20
117.0993265252217
 30
0.0
 11
241.5525749376427
 21
117.0993265252218
 31
0.0
  0
ARC
  5
6A95
330
1F
100
AcDbEntity
  8
0
  6
Continuous
 62
     7
370
    15
100
AcDbCircle
 10
241.5525748153048
 20
117.5993258397683
 30
0.0
 40
0.5
100
AcDbArc
 50
154.9999999999977
 51
270.0
  0
LINE
  5
6A96
330
1F
100
AcDbEntity
  8
0
  6
Continuous
 62
     7
370
    15
100
AcDbLine
 10
241.099421312512
 20
117.8106334548101
 30
0.0
 11
242.1623351103078
 21
120.0900622199878
 31
0.0
  0
ARC
  5
6A97
330
1F
100
AcDbEntity
  8
0
  6
Continuous
 62
     7
370
    15
100
AcDbCircle
 10
242.34359646812
 20
120.0055377234491
 30
0.0
 40
0.2000000000000448
100
AcDbArc
 50
64.9999999999861
 51
154.9999999999905
  0
LINE
  5
6A98
330
1F
100
AcDbEntity
  8
0
  6
Continuous
 62
     7
370
    15
100
AcDbLine
 10
242.4281196719419
 20
120.1867986958131
 30
0.0
 11
242.835958865882
 21
119.9966207634315
 31
0.0
  0
ARC
  5
6A99
330
1F
100
AcDbEntity
  8
0
  6
Continuous
 62
     7
370
    15
100
AcDbCircle
 10
242.9204822769828
 20
120.1778826204805
 30
0.0
 40
0.2000000000000216
100
AcDbArc
 50
245.0
 51
335.0000000000137
  0
LINE
  5
6A9A
330
1F
100
AcDbEntity
  8
0
  6
Continuous
 62
     7
370
    15
100
AcDbLine
 10
243.1017434275161
 20
120.0933591019019
 30
0.0
 11
244.3695984831463
 21
122.812282715331
 31
0.0
  0
ARC
  5
6A9B
330
1F
100
AcDbEntity
  8
0
  6
Continuous
 62
     7
370
    15
100
AcDbCircle
 10
244.1883370622049
 20
122.8968059815903
 30
0.0
 40
0.1999999999999941
100
AcDbArc
 50
334.9999999999905
 51
65.00000000000793
  0
LINE
  5
6A9C
330
1F
100
AcDbEntity
  8
0
  6
Continuous
 62
     7
370
    15
100
AcDbLine
 10
244.2728610759984
 20
123.0780672769651
 30
0.0
 11
238.2912294989835
 21
125.8673485856161
 31
0.0
  0
ARC
  5
6A9D
330
1F
100
AcDbEntity
  8
0
  6
Continuous
 62
     7
370
    15
100
AcDbCircle
 10
238.2067056677631
 20
125.6860865090791
 30
0.0
 40
0.2000000000000576
100
AcDbArc
 50
64.99999999999268
 51
154.9999999999905
  0
LINE
  5
6A9E
330
1F
100
AcDbEntity
  8
0
  6
Continuous
 62
     7
370
    15
100
AcDbLine
 10
238.0254440060268
 20
125.7706102471456
 30
0.0
 11
236.7575898817192
 21
123.0516866337165
 31
0.0
  0
ARC
  5
6A9F
330
1F
100
AcDbEntity
  8
0
  6
Continuous
 62
     7
370
    15
100
AcDbCircle
 10
236.938850882541
 20
122.9671631479692
 30
0.0
 40
0.2000000000000336
100
AcDbArc
 50
155.000000000005
 51
245.0000000000006
  0
LINE
  5
6AA0
330
1F
100
AcDbEntity
  8
0
  6
Continuous
 62
     7
370
    15
100
AcDbLine
 10
236.8543263575445
 20
122.7859020720825
 30
0.0
 11
237.2621655514847
 21
122.5957241397008
 31
0.0
  0
ARC
  5
6AA1
330
1F
100
AcDbEntity
  8
0
  6
Continuous
 62
     7
370
    15
100
AcDbCircle
 10
237.1776420820113
 20
122.4144618153711
 30
0.0
 40
0.1999999999999838
100
AcDbArc
 50
334.9999999999905
 51
65.00000000001522
  0
LINE
  5
6AA2
330
1F
100
AcDbEntity
  8
0
  6
Continuous
 62
     7
370
    15
100
AcDbLine
 10
237.3589038899551
 20
122.3299377154216
 30
0.0
 11
235.0544486245524
 21
117.3880178969011
 31
0.0
  0
ARC
  5
6AA3
330
1F
100
AcDbEntity
  8
0
  6
Continuous
 62
     7
370
    15
100
AcDbCircle
 10
234.6012939258412
 20
117.5993258397683
 30
0.0
 40
0.5000000000000523
100
AcDbArc
 50
270.0
 51
335.0000000000051
  0
LINE
  5
6AA4
330
1F
100
AcDbEntity
  8
0
  6
Continuous
 62
     7
370
    15
100
AcDbLine
 10
234.6012931367766
 20
117.0993265252218
 30
0.0
 11
227.3653563162695
 21
117.0993265252218
 31
0.0
  0
ARC
  5
6AA5
330
1F
100
AcDbEntity
  8
0
  6
Continuous
 62
     7
370
    15
100
AcDbCircle
 10
227.3653563460718
 20
124.0993258397684
 30
0.0
 40
7.0
100
AcDbArc
 50
179.9999999999984
 51
270.0
  0
LINE
  5
6AA6
330
1F
100
AcDbEntity
  8
0
  6
Continuous
 62
     7
370
    15
100
AcDbLine
 10
220.3653570315252
 20
124.0993258099661
 30
0.0
 11
220.3653570315253
 21
175.5993258695707
 31
0.0
  0
ARC
  5
6AA7
330
1F
100
AcDbEntity
  8
0
  6
Continuous
 62
     7
370
    15
100
AcDbCircle
 10
227.3653563460719
 20
175.5993258397684
 30
0.0
 40
7.0
100
AcDbArc
 50
90.0
 51
179.9999999999984
  0
LINE
  5
6AA8
330
1F
100
AcDbEntity
  8
0
  6
Continuous
 62
     7
370
    15
100
AcDbLine
 10
227.3653563162696
 20
182.599325154315
 30
0.0
 11
234.6012931367766
 21
182.5993251543149
 31
0.0
  0
ARC
  5
6AA9
330
1F
100
AcDbEntity
  8
0
  6
Continuous
 62
     7
370
    15
100
AcDbCircle
 10
234.6012939258414
 20
182.0993258397684
 30
0.0
 40
0.5000000000000067
100
AcDbArc
 50
24.99999999999935
 51
90.0
  0
LINE
  5
6AAA
330
1F
100
AcDbEntity
  8
0
  6
Continuous
 62
     7
370
    15
100
AcDbLine
 10
235.0544486245524
 20
182.3106337826356
 30
0.0
 11
237.3589038899552
 21
177.3687139641151
 31
0.0
  0
ARC
  5
6AAB
330
1F
100
AcDbEntity
  8
0
  6
Continuous
 62
     7
370
    15
100
AcDbCircle
 10
237.1776420820115
 20
177.2841898641655
 30
0.0
 40
0.1999999999999821
100
AcDbArc
 50
295.0
 51
25.00000000000949
  0
LINE
  5
6AAC
330
1F
100
AcDbEntity
  8
0
  6
Continuous
 62
     7
370
    15
100
AcDbLine
 10
237.2621655514848
 20
177.1029275398359
 30
0.0
 11
236.8543263575446
 21
176.9127496074542
 31
0.0
  0
ARC
  5
6AAD
330
1F
100
AcDbEntity
  8
0
  6
Continuous
 62
     7
370
    15
100
AcDbCircle
 10
236.9388508825412
 20
176.7314885315676
 30
0.0
 40
0.2000000000000336
100
AcDbArc
 50
114.9999999999993
 51
204.9999999999964
  0
LINE
  5
6AAE
330
1F
100
AcDbEntity
  8
0
  6
Continuous
 62
     7
370
    15
100
AcDbLine
 10
236.7575898817193
 20
176.6469650458202
 30
0.0
 11
238.0254440060269
 21
173.9280414323911
 31
0.0
  0
ARC
  5
6AAF
330
1F
100
AcDbEntity
  8
0
  6
Continuous
 62
     7
370
    15
100
AcDbCircle
 10
238.2067056677632
 20
174.0125651704576
 30
0.0
 40
0.2000000000000833
100
AcDbArc
 50
205.000000000011
 51
295.0000000000066
  0
LINE
  5
6AB0
330
1F
100
AcDbEntity
  8
0
  6
Continuous
 62
     7
370
    15
100
AcDbLine
 10
238.2912294989836
 20
173.8313030939206
 30
0.0
 11
244.2728610759985
 21
176.6205844025716
 31
0.0
  0
ARC
  5
6AB1
330
1F
100
AcDbEntity
  8
0
  6
Continuous
 62
     7
370
    15
100
AcDbCircle
 10
244.1883370622051
 20
176.8018456979463
 30
0.0
 40
0.2000000000000078
100
AcDbArc
 50
295.0
 51
25.00000000000083
  0
LINE
  5
6AB2
330
1F
100
AcDbEntity
  8
0
  6
Continuous
 62
     7
370
    15
100
AcDbLine
 10
244.3695984831464
 20
176.8863689642056
 30
0.0
 11
243.1017434275162
 21
179.6052925776347
 31
0.0
  0
ARC
  5
6AB3
330
1F
100
AcDbEntity
  8
0
  6
Continuous
 62
     7
370
    15
100
AcDbCircle
 10
242.920482276983
 20
179.5207690590562
 30
0.0
 40
0.2000000000000061
100
AcDbArc
 50
24.99999999999492
 51
115.0000000000146
  0
LINE
  5
6AB4
330
1F
100
AcDbEntity
  8
0
  6
Continuous
 62
     7
370
    15
100
AcDbLine
 10
242.8359588658821
 20
179.7020309161051
 30
0.0
 11
242.4281196719419
 21
179.5118529837235
 31
0.0
  0
ARC
  5
6AB5
330
1F
100
AcDbEntity
  8
0
  6
Continuous
 62
     7
370
    15
100
AcDbCircle
 10
242.3435964681203
 20
179.6931139560876
 30
0.0
 40
0.2000000000000576
100
AcDbArc
 50
205.000000000011
 51
295.0
  0
LINE
  5
6AB6
330
1F
100
AcDbEntity
  8
0
  6
Continuous
 62
     7
370
    15
100
AcDbLine
 10
242.1623351103079
 20
179.6085894595488
 30
0.0
 11
241.0994213125121
 21
181.8880182247266
 31
0.0
  0
ARC
  5
6AB7
330
1F
100
AcDbEntity
  8
0
  6
Continuous
 62
     7
370
    15
100
AcDbCircle
 10
241.5525748153051
 20
182.0993258397683
 30
0.0
 40
0.5000000000000285
100
AcDbArc
 50
90.0
 51
204.9999999999979
  0
LINE
  5
6AB8
330
1F
100
AcDbEntity
  8
0
  6
Continuous
 62
     7
370
    15
100
AcDbLine
 10
241.5525749376428
 20
182.5993251543149
 30
0.0
 11
264.6781377545011
 21
182.5993251543149
 31
0.0
  0
ARC
  5
6AB9
330
1F
100
AcDbEntity
  8
0
  6
Continuous
 62
     7
370
    15
100
AcDbCircle
 10
264.6781378768388
 20
182.0993258397683
 30
0.0
 40
0.5000000000000187
100
AcDbArc
 50
334.9999999999992
 51
90.0
  0
LINE
  5
6ABA
330
1F
100
AcDbEntity
  8
0
  6
Continuous
 62
     7
370
    15
100
AcDbLine
 10
265.1312913796318
 20
181.8880182247266
 30
0.0
 11
264.068377581836
 21
179.6085894595488
 31
0.0
  0
ARC
  5
6ABB
330
1F
100
AcDbEntity
  8
0
  6
Continuous
 62
     7
370
    15
100
AcDbCircle
 10
263.8871162240235
 20
179.6931139560874
 30
0.0
 40
0.2000000000000456
100
AcDbArc
 50
245.0000000000006
 51
334.9999999999992
  0
LINE
  5
6ABC
330
1F
100
AcDbEntity
  8
0
  6
Continuous
 62
     7
370
    15
100
AcDbLine
 10
263.8025930202019
 20
179.5118529837235
 30
0.0
 11
263.3947538262618
 21
179.7020309161051
 31
0.0
  0
ARC
  5
6ABD
330
1F
100
AcDbEntity
  8
0
  6
Continuous
 62
     7
370
    15
100
AcDbCircle
 10
263.3102304151608
 20
179.5207690590561
 30
0.0
 40
0.2000000000000216
100
AcDbArc
 50
64.99999999999996
 51
155.0000000000137
  0
LINE
  5
6ABE
330
1F
100
AcDbEntity
  8
0
  6
Continuous
 62
     7
370
    15
100
AcDbLine
 10
263.1289692646277
 20
179.6052925776347
 30
0.0
 11
261.8611142089975
 21
176.8863689642056
 31
0.0
  0
ARC
  5
6ABF
330
1F
100
AcDbEntity
  8
0
  6
Continuous
 62
     7
370
    15
100
AcDbCircle
 10
262.0423756299389
 20
176.8018456979463
 30
0.0
 40
0.2000000000000336
100
AcDbArc
 50
155.000000000005
 51
244.9999999999854
  0
LINE
  5
6AC0
330
1F
100
AcDbEntity
  8
0
  6
Continuous
 62
     7
370
    15
100
AcDbLine
 10
261.9578516161454
 20
176.6205844025716
 30
0.0
 11
267.9394833322378
 21
173.8313036316068
 31
0.0
  0
ARC
  5
6AC1
330
1F
100
AcDbEntity
  8
0
  6
Continuous
 62
     7
370
    15
100
AcDbCircle
 10
268.0240070243807
 20
174.0125651704576
 30
0.0
 40
0.2000000000000576
100
AcDbArc
 50
244.9999999999927
 51
334.9999999999992
  0
LINE
  5
6AC2
330
1F
100
AcDbEntity
  8
0
  6
Continuous
 62
     7
370
    15
100
AcDbLine
 10
268.2052686861169
 20
173.928041432391
 30
0.0
 11
269.4731228104246
 21
176.6469650458201
 31
0.0
  0
ARC
  5
6AC3
330
1F
100
AcDbEntity
  8
0
  6
Continuous
 62
     7
370
    15
100
AcDbCircle
 10
269.2918618096026
 20
176.7314885315675
 30
0.0
 40
0.2000000000000336
100
AcDbArc
 50
335.0000000000051
 51
64.9999999999861
  0
LINE
  5
6AC4
330
1F
100
AcDbEntity
  8
0
  6
Continuous
 62
     7
370
    15
100
AcDbLine
 10
269.3763863345993
 20
176.9127496074542
 30
0.0
 11
268.9685471406591
 21
177.1029275398358
 31
0.0
  0
ARC
  5
6AC5
330
1F
100
AcDbEntity
  8
0
  6
Continuous
 62
     7
370
    15
100
AcDbCircle
 10
269.0530706101324
 20
177.2841898641654
 30
0.0
 40
0.1999999999999838
100
AcDbArc
 50
154.9999999999992
 51
245.0000000000152
  0
LINE
  5
6AC6
330
1F
100
AcDbEntity
  8
0
  6
Continuous
 62
     7
370
    15
100
AcDbLine
 10
268.8718088021886
 20
177.368713964115
 30
0.0
 11
271.1762640675914
 21
182.3106337826356
 31
0.0
  0
ARC
  5
6AC7
330
1F
100
AcDbEntity
  8
0
  6
Continuous
 62
     7
370
    15
100
AcDbCircle
 10
271.6294187663026
 20
182.0993258397683
 30
0.0
 40
0.5000000000000462
100
AcDbArc
 50
90.0
 51
155.000000000005
  0
LINE
  5
6AC8
330
1F
100
AcDbEntity
  8
0
  6
Continuous
 62
     7
370
    15
100
AcDbLine
 10
271.6294195553672
 20
182.5993251543149
 30
0.0
 11
278.8653563758743
 21
182.5993251543148
 31
0.0
  0
ARC
  5
6AC9
330
1F
100
AcDbEntity
  8
0
  6
Continuous
 62
     7
370
    15
100
AcDbCircle
 10
278.8653563460719
 20
175.5993258397682
 30
0.0
 40
7.000000000000056
100
AcDbArc
 50
0.0
 51
90.0
  0
LINE
  5
6ACA
330
1F
100
AcDbEntity
  8
0
  6
Continuous
 62
     7
370
    15
100
AcDbLine
 10
285.8653556606185
 20
175.5993258695705
 30
0.0
 11
285.8653556606185
 21
124.0993258099658
 31
0.0
  0
ARC
  5
6ACB
330
1F
100
AcDbEntity
  8
0
  6
Continuous
 62
     7
370
    15
100
AcDbCircle
 10
278.8653563460719
 20
124.0993258397682
 30
0.0
 40
7.0
100
AcDbArc
 50
270.0
 51
0.0
  0
LINE
  5
6ACC
330
1F
100
AcDbEntity
  8
0
  6
Continuous
 62
     7
370
    15
100
AcDbLine
 10
278.8653563758742
 20
117.0993265252217
 30
0.0
 11
271.6294195553671
 21
117.0993265252217
 31
0.0
  0
ARC
  5
6ACD
330
1F
100
AcDbEntity
  8
0
  6
Continuous
 62
     7
370
    15
100
AcDbCircle
 10
271.6294187663024
 20
117.5993258397682
 30
0.0
 40
0.5000000000000523
100
AcDbArc
 50
204.9999999999964
 51
270.0
  0
LINE
  5
6ACE
330
1F
100
AcDbEntity
  8
0
  6
Continuous
 62
     7
370
    15
100
AcDbLine
 10
271.1762640675913
 20
117.388017896901
 30
0.0
 11
268.8718088021885
 21
122.3299377154215
 31
0.0
  0
ARC
  5
6ACF
330
1F
100
AcDbEntity
  8
0
  6
Continuous
 62
     7
370
    15
100
AcDbCircle
 10
269.0530706101323
 20
122.414461815371
 30
0.0
 40
0.1999999999999709
100
AcDbArc
 50
114.9999999999854
 51
205.0000000000008
  0
LINE
  5
6AD0
330
1F
100
AcDbEntity
  8
0
  6
Continuous
 62
     7
370
    15
100
AcDbLine
 10
268.968547140659
 20
122.5957241397007
 30
0.0
 11
269.3763863345992
 21
122.7859020720823
 31
0.0
  0
ARC
  5
6AD1
330
1F
100
AcDbEntity
  8
0
  6
Continuous
 62
     7
370
    15
100
AcDbCircle
 10
269.2918618096024
 20
122.967163147969
 30
0.0
 40
0.2000000000000791
100
AcDbArc
 50
295.0000000000285
 51
24.99999999998479
  0
LINE
  5
6AD2
330
1F
100
AcDbEntity
  8
0
  6
Continuous
 62
     7
370
    15
100
AcDbLine
 10
269.4731228104245
 20
123.0516866337164
 30
0.0
 11
268.2052686861168
 21
125.7706102471455
 31
0.0
  0
ARC
  5
6AD3
330
1F
100
AcDbEntity
  8
0
  6
Continuous
 62
     7
370
    15
100
AcDbCircle
 10
268.0240070243804
 20
125.6860865090789
 30
0.0
 40
0.2000000000000593
100
AcDbArc
 50
25.00000000000083
 51
114.9999999999927
  0
LINE
  5
6AD4
330
1F
100
AcDbEntity
  8
0
  6
Continuous
 62
     7
370
    15
100
AcDbLine
 10
267.9394831931602
 20
125.8673485856159
 30
0.0
 11
261.9578516161453
 21
123.078067276965
 31
0.0
  0
ARC
  5
6AD5
330
1F
100
AcDbEntity
  8
0
  6
Continuous
 62
     7
370
    15
100
AcDbCircle
 10
262.0423756299386
 20
122.8968059815903
 30
0.0
 40
0.2000000000000456
100
AcDbArc
 50
115.0000000000146
 51
205.0000000000023
  0
LINE
  5
6AD6
330
1F
100
AcDbEntity
  8
0
  6
Continuous
 62
     7
370
    15
100
AcDbLine
 10
261.8611142089974
 20
122.812282715331
 30
0.0
 11
263.1289692646276
 21
120.0933591019019
 31
0.0
  0
ARC
  5
6AD7
330
1F
100
AcDbEntity
  8
0
  6
Continuous
 62
     7
370
    15
100
AcDbCircle
 10
263.3102304151606
 20
120.1778826204805
 30
0.0
 40
0.2000000000000207
100
AcDbArc
 50
204.9999999999979
 51
294.9999999999994
  0
LINE
  5
6AD8
330
1F
100
AcDbEntity
  8
0
  6
Continuous
 62
     7
370
    15
100
AcDbLine
 10
263.3947538262617
 20
119.9966207634314
 30
0.0
 11
263.8025930202018
 21
120.1867986958131
 31
0.0
  0
ARC
  5
6AD9
330
1F
100
AcDbEntity
  8
0
  6
Continuous
 62
     7
370
    15
100
AcDbCircle
 10
263.8871162240234
 20
120.0055377234491
 30
0.0
 40
0.2000000000000576
100
AcDbArc
 50
25.00000000000949
 51
114.9999999999927
  0
LINE
  5
6ADA
330
1F
100
AcDbEntity
  8
0
  6
Continuous
 62
     7
370
    15
100
AcDbLine
 10
264.0683775818359
 20
120.0900622199877
 30
0.0
 11
265.1312913796317
 21
117.81063345481
 31
0.0
  0
ARC
  5
6ADB
330
1F
100
AcDbEntity
  8
0
  6
Continuous
 62
     7
370
    15
100
AcDbCircle
 10
264.6781378768386
 20
117.5993258397683
 30
0.0
 40
0.5
100
AcDbArc
 50
270.0
 51
24.9999999999964
  0
CIRCLE
  5
6ADC
330
1F
100
AcDbEntity
  8
0
  6
Continuous
 62
     7
370
    15
100
AcDbCircle
 10
229.8653563460719
 20
173.0993258397684
 30
0.0
 40
3.400499999959663
  0
CIRCLE
  5
6ADD
330
1F
100
AcDbEntity
  8
0
  6
Continuous
 62
     7
370
    15
100
AcDbCircle
 10
229.8653563460718
 20
126.5993258397683
 30
0.0
 40
3.400500000016563
  0
CIRCLE
  5
6ADE
330
1F
100
AcDbEntity
  8
0
  6
Continuous
 62
     7
370
    15
100
AcDbCircle
 10
276.3653563460717
 20
126.5993258397682
 30
0.0
 40
3.400499999979274
  0
CIRCLE
  5
6ADF
330
1F
100
AcDbEntity
  8
0
  6
Continuous
 62
     7
370
    15
100
AcDbCircle
 10
276.3653563460719
 20
173.0993258397682
 30
0.0
 40
3.400500000036117
  0
LINE
  5
6AE0
330
1F
100
AcDbEntity
  8
0
  6
Continuous
 62
     7
370
    15
100
AcDbLine
 10
282.3653560182463
 20
137.7927013229235
 30
0.0
 11
279.865356539787
 21
139.236077156256
 31
0.0
  0
LINE
  5
6AE1
330
1F
100
AcDbEntity
  8
0
  6
Continuous
 62
     7
370
    15
100
AcDbLine
 10
279.865356539787
 20
139.236077156256
 30
0.0
 11
277.3653570613276
 21
137.7927013229235
 31
0.0
  0
LINE
  5
6AE2
330
1F
100
AcDbEntity
  8
0
  6
Continuous
 62
     7
370
    15
100
AcDbLine
 10
277.3653570613276
 20
137.7927013229235
 30
0.0
 11
277.3653570613276
 21
134.905950587581
 31
0.0
  0
LINE
  5
6AE3
330
1F
100
AcDbEntity
  8
0
  6
Continuous
 62
     7
370
    15
100
AcDbLine
 10
277.3653570613276
 20
134.905950587581
 30
0.0
 11
279.865356539787
 21
133.4625747542484
 31
0.0
  0
LINE
  5
6AE4
330
1F
100
AcDbEntity
  8
0
  6
Continuous
 62
     7
370
    15
100
AcDbLine
 10
279.865356539787
 20
133.4625747542484
 30
0.0
 11
282.3653560182463
 21
134.905950587581
 31
0.0
  0
LINE
  5
6AE5
330
1F
100
AcDbEntity
  8
0
  6
Continuous
 62
     7
370
    15
100
AcDbLine
 10
282.3653560182463
 20
134.905950587581
 30
0.0
 11
282.3653560182463
 21
137.7927013229235
 31
0.0
  0
CIRCLE
  5
6AE6
330
1F
100
AcDbEntity
  8
0
  6
Continuous
 62
     7
370
    15
100
AcDbCircle
 10
279.8653563460718
 20
136.3493258397682
 30
0.0
 40
5.0
  0
LINE
  5
6AE7
330
1F
100
AcDbEntity
  8
0
  6
Continuous
 62
     7
370
    15
100
AcDbLine
 10
228.8653556308162
 20
164.7927010919556
 30
0.0
 11
226.3653561523568
 21
166.2360769252882
 31
0.0
  0
LINE
  5
6AE8
330
1F
100
AcDbEntity
  8
0
  6
Continuous
 62
     7
370
    15
100
AcDbLine
 10
226.3653561523568
 20
166.2360769252882
 30
0.0
 11
223.8653566738975
 21
164.7927010919556
 31
0.0
  0
LINE
  5
6AE9
330
1F
100
AcDbEntity
  8
0
  6
Continuous
 62
     7
370
    15
100
AcDbLine
 10
223.8653566738975
 20
164.7927010919556
 30
0.0
 11
223.8653566738975
 21
161.9059503566131
 31
0.0
  0
LINE
  5
6AEA
330
1F
100
AcDbEntity
  8
0
  6
Continuous
 62
     7
370
    15
100
AcDbLine
 10
223.8653566738975
 20
161.9059503566131
 30
0.0
 11
226.3653561523568
 21
160.4625745232806
 31
0.0
  0
LINE
  5
6AEB
330
1F
100
AcDbEntity
  8
0
  6
Continuous
 62
     7
370
    15
100
AcDbLine
 10
226.3653561523568
 20
160.4625745232806
 30
0.0
 11
228.8653556308162
 21
161.9059503566131
 31
0.0
  0
LINE
  5
6AEC
330
1F
100
AcDbEntity
  8
0
  6
Continuous
 62
     7
370
    15
100
AcDbLine
 10
228.8653556308162
 20
161.9059503566131
 30
0.0
 11
228.8653556308162
 21
164.7927010919556
 31
0.0
  0
CIRCLE
  5
6AED
330
1F
100
AcDbEntity
  8
0
  6
Continuous
 62
     7
370
    15
100
AcDbCircle
 10
226.3653563460719
 20
163.3493258397684
 30
0.0
 40
5.0
  0
LINE
  5
6AEE
330
1F
100
AcDbEntity
  8
0
  6
Continuous
 62
     7
370
    15
100
AcDbLine
 10
228.8653556308161
 20
137.7927013229236
 30
0.0
 11
226.3653561523567
 21
139.2360771562562
 31
0.0
  0
LINE
  5
6AEF
330
1F
100
AcDbEntity
  8
0
  6
Continuous
 62
     7
370
    15
100
AcDbLine
 10
226.3653561523567
 20
139.2360771562562
 30
0.0
 11
223.8653566738974
 21
137.7927013229236
 31
0.0
  0
LINE
  5
6AF0
330
1F
100
AcDbEntity
  8
0
  6
Continuous
 62
     7
370
    15
100
AcDbLine
 10
223.8653566738974
 20
137.7927013229236
 30
0.0
 11
223.8653566738974
 21
134.9059505875811
 31
0.0
  0
LINE
  5
6AF1
330
1F
100
AcDbEntity
  8
0
  6
Continuous
 62
     7
370
    15
100
AcDbLine
 10
223.8653566738974
 20
134.9059505875811
 30
0.0
 11
226.3653561523567
 21
133.4625747542486
 31
0.0
  0
LINE
  5
6AF2
330
1F
100
AcDbEntity
  8
0
  6
Continuous
 62
     7
370
    15
100
AcDbLine
 10
226.3653561523567
 20
133.4625747542486
 30
0.0
 11
228.8653556308161
 21
134.9059505875811
 31
0.0
  0
LINE
  5
6AF3
330
1F
100
AcDbEntity
  8
0
  6
Continuous
 62
     7
370
    15
100
AcDbLine
 10
228.8653556308161
 20
134.9059505875811
 30
0.0
 11
228.8653556308161
 21
137.7927013229236
 31
0.0
  0
CIRCLE
  5
6AF4
330
1F
100
AcDbEntity
  8
0
  6
Continuous
 62
     7
370
    15
100
AcDbCircle
 10
226.3653563460718
 20
136.3493258397684
 30
0.0
 40
4.999999999999943
  0
LINE
  5
6AF5
330
1F
100
AcDbEntity
  8
0
  6
Continuous
 62
     7
370
    15
100
AcDbLine
 10
282.3653560182464
 20
164.7927010919555
 30
0.0
 11
279.8653565397871
 21
166.236076925288
 31
0.0
  0
LINE
  5
6AF6
330
1F
100
AcDbEntity
  8
0
  6
Continuous
 62
     7
370
    15
100
AcDbLine
 10
279.8653565397871
 20
166.236076925288
 30
0.0
 11
277.3653570613277
 21
164.7927010919555
 31
0.0
  0
LINE
  5
6AF7
330
1F
100
AcDbEntity
  8
0
  6
Continuous
 62
     7
370
    15
100
AcDbLine
 10
277.3653570613277
 20
164.7927010919555
 30
0.0
 11
277.3653570613277
 21
161.905950356613
 31
0.0
  0
LINE
  5
6AF8
330
1F
100
AcDbEntity
  8
0
  6
Continuous
 62
     7
370
    15
100
AcDbLine
 10
277.3653570613277
 20
161.905950356613
 30
0.0
 11
279.8653565397871
 21
160.4625745232804
 31
0.0
  0
LINE
  5
6AF9
330
1F
100
AcDbEntity
  8
0
  6
Continuous
 62
     7
370
    15
100
AcDbLine
 10
279.8653565397871
 20
160.4625745232804
 30
0.0
 11
282.3653560182464
 21
161.905950356613
 31
0.0
  0
LINE
  5
6AFA
330
1F
100
AcDbEntity
  8
0
  6
Continuous
 62
     7
370
    15
100
AcDbLine
 10
282.3653560182464
 20
161.905950356613
 30
0.0
 11
282.3653560182464
 21
164.7927010919555
 31
0.0
  0
CIRCLE
  5
6AFB
330
1F
100
AcDbEntity
  8
0
  6
Continuous
 62
     7
370
    15
100
AcDbCircle
 10
279.8653563460718
 20
163.3493258397682
 30
0.0
 40
5.000000000000056
  0
CIRCLE
  5
6AFC
330
1F
100
AcDbEntity
  8
0
  6
Continuous
 62
     7
370
    15
100
AcDbCircle
 10
253.1153563460719
 20
149.8493258397683
 30
0.0
 40
5.185000000039963
  0
ARC
  5
6AFD
330
1F
100
AcDbEntity
  8
0
  6
Continuous
 62
     7
370
    15
100
AcDbCircle
 10
253.1153563460719
 20
149.8493258397683
 30
0.0
 40
7.500000000000069
100
AcDbArc
 50
111.0394697813147
 51
248.9605302186853
  0
LINE
  5
6AFE
330
1F
100
AcDbEntity
  8
0
  6
Continuous
 62
     7
370
    15
100
AcDbLine
 10
255.8079386646312
 20
156.8493260558351
 30
0.0
 11
250.4227740275126
 21
156.8493260558351
 31
0.0
  0
ARC
  5
6AFF
330
1F
100
AcDbEntity
  8
0
  6
Continuous
 62
     7
370
    15
100
AcDbCircle
 10
253.1153563460719
 20
149.8493258397683
 30
0.0
 40
7.500000000000028
100
AcDbArc
 50
291.0394697813147
 51
68.96053021868524
  0
LINE
  5
6B00
330
1F
100
AcDbEntity
  8
0
  6
Continuous
 62
     7
370
    15
100
AcDbLine
 10
250.4227740275126
 20
142.8493256237014
 30
0.0
 11
255.8079386646312
 21
142.8493256237014
 31
0.0
  0
CIRCLE
  5
6B01
330
1F
100
AcDbEntity
  8
0
  6
Continuous
 62
     7
370
    15
100
AcDbCircle
 10
253.1153563460719
 20
149.8493258397683
 30
0.0
 40
4.184999999949923
  0
SPLINE
  5
6B02
330
1F
100
AcDbEntity
  8
0
  6
Continuous
 62
     7
370
    15
100
AcDbSpline
210
0.0
220
0.0
230
1.0
 70
    24
 71
     1
 72
     4
 73
     2
 74
     0
 42
0.0000000001
 43
0.0000000001
 40
0.0
 40
0.0
 40
1.0
 40
1.0
 10
249.2423729556065
 20
142.8493256237014
 30
0.0
 10
250.4227740275126
 20
142.8493256237014
 30
0.0
  0
ARC
  5
6B03
330
1F
100
AcDbEntity
  8
0
  6
Continuous
 62
     7
370
    15
100
AcDbCircle
 10
253.1153563460719
 20
149.8493258397683
 30
0.0
 40
8.00000000000006
100
AcDbArc
 50
118.9550243718606
 51
241.0449756281393
  0
SPLINE
  5
6B04
330
1F
100
AcDbEntity
  8
0
  6
Continuous
 62
     7
370
    15
100
AcDbSpline
210
0.0
220
0.0
230
1.0
 70
    24
 71
     1
 72
     4
 73
     2
 74
     0
 42
0.0000000001
 43
0.0000000001
 40
0.0
 40
0.0
 40
1.0
 40
1.0
 10
250.4227740275126
 20
156.8493260558351
 30
0.0
 10
249.2423729556065
 20
156.8493260558351
 30
0.0
  0
ARC
  5
6B05
330
1F
100
AcDbEntity
  8
0
  6
Continuous
 62
     7
370
    15
100
AcDbCircle
 10
253.1153563460719
 20
149.8493258397683
 30
0.0
 40
8.000000000000005
100
AcDbArc
 50
298.9550243718607
 51
61.04497562813933
  0
SPLINE
  5
6B06
330
1F
100
AcDbEntity
  8
0
  6
Continuous
 62
     7
370
    15
100
AcDbSpline
210
0.0
220
0.0
230
1.0
 70
    24
 71
     1
 72
     4
 73
     2
 74
     0
 42
0.0000000001
 43
0.0000000001
 40
0.0
 40
0.0
 40
1.0
 40
1.0
 10
256.9883397365373
 20
156.8493260558351
 30
0.0
 10
255.8079386646312
 20
156.8493260558351
 30
0.0
  0
SPLINE
  5
6B07
330
1F
100
AcDbEntity
  8
0
  6
Continuous
 62
     7
370
    15
100
AcDbSpline
210
0.0
220
0.0
230
1.0
 70
    24
 71
     1
 72
     4
 73
     2
 74
     0
 42
0.0000000001
 43
0.0000000001
 40
0.0
 40
0.0
 40
1.0
 40
1.0
 10
255.8079386646312
 20
142.8493256237014
 30
0.0
 10
256.9883397365373
 20
142.8493256237014
 30
0.0
  0
ARC
  5
6B08
330
1F
100
AcDbEntity
  8
0
  6
Continuous
 62
     7
370
    15
100
AcDbCircle
 10
253.1153563460719
 20
149.8493258397683
 30
0.0
 40
8.00000000000006
100
AcDbArc
 50
241.0449756281393
 51
298.9550243718607
  0
ARC
  5
6B09
330
1F
100
AcDbEntity
  8
0
  6
Continuous
 62
     7
370
    15
100
AcDbCircle
 10
253.1153563460719
 20
149.8493258397683
 30
0.0
 40
8.000000000000035
100
AcDbArc
 50
61.04497562813933
 51
118.9550243718606
  0
DIMENSION
  5
6B0A
330
1F
100
AcDbEntity
  8
DIM
100
AcDbDimension
  2
*D26
 10
100.244798972776
 20
367.1463300814071
 30
0.0
 11
96.49479897277604
 21
367.1463300814071
 31
0.0
 70
   160
 71
     5
 42
7.5
  3
AM_ANSI
100
AcDbAlignedDimension
 13
92.74479897277604
 23
362.2053254285676
 33
0.0
 14
100.244798972776
 24
335.8152039904844
 34
0.0
100
AcDbRotatedDimension
1001
ACAD
1000
DSTYLE
1002
{
1070
    41
1040
2.0
1070
    42
1040
1.5
1070
    43
1040
8.0
1070
    44
1040
1.5
1070
    73
1070
     0
1070
    74
1070
     0
1070
    77
1070
     3
1070
   140
1040
2.0
1070
   141
1040
3.0
1070
   146
1040
0.6
1070
   147
1040
1.0
1070
   172
1070
     1
1070
   178
1070
   256
1070
   272
1070
     8
1070
   274
1070
     2
1070
   340
1005
4A67
1002
}
  0
DIMENSION
  5
6B0B
330
1F
100
AcDbEntity
  8
DIM
100
AcDbDimension
  2
*D27
 10
142.7447997178341
 20
367.1463300814071
 30
0.0
 11
138.9947993453051
 21
367.1463300814071
 31
0.0
 70
   160
 71
     5
 42
7.500000745057946
  3
AM_ANSI
100
AcDbAlignedDimension
 13
135.2447989727761
 23
335.8152039904842
 33
0.0
 14
142.7447997178341
 24
362.2053254285674
 34
0.0
100
AcDbRotatedDimension
1001
ACAD
1000
DSTYLE
1002
{
1070
    41
1040
2.0
1070
    42
1040
1.5
1070
    43
1040
8.0
1070
    44
1040
1.5
1070
    73
1070
     0
1070
    74
1070
     0
1070
    77
1070
     3
1070
   140
1040
2.0
1070
   141
1040
3.0
1070
   146
1040
0.6
1070
   147
1040
1.0
1070
   172
1070
     1
1070
   178
1070
   256
1070
   272
1070
     8
1070
   274
1070
     2
1070
   340
1005
4A67
1002
}
  0
DIMENSION
  5
6B0C
330
1F
100
AcDbEntity
  8
DIM
100
AcDbDimension
  2
*D28
 10
142.7447997178339
 20
384.4385270921825
 30
0.0
 11
117.7447993453049
 21
386.9385270921825
 31
0.0
 70
    32
  1
45+stroke=<>
 71
     5
 42
50.00000074505805
  3
AM_ANSI
100
AcDbAlignedDimension
 13
92.74479897277592
 23
362.2053254285677
 33
0.0
 14
142.7447997178339
 24
362.2053254285674
 34
0.0
100
AcDbRotatedDimension
1001
ACAD
1000
DSTYLE
1002
{
1070
    41
1040
2.0
1070
    42
1040
1.5
1070
    43
1040
8.0
1070
    44
1040
1.5
1070
    73
1070
     0
1070
    74
1070
     0
1070
    77
1070
     3
1070
   140
1040
2.0
1070
   141
1040
3.0
1070
   146
1040
0.6
1070
   147
1040
1.0
1070
   172
1070
     1
1070
   178
1070
   256
1070
   272
1070
     8
1070
   274
1070
     2
1070
   340
1005
4A67
1002
}
  0
DIMENSION
  5
6B0D
330
1F
100
AcDbEntity
  8
DIM
100
AcDbDimension
  2
*D29
 10
142.7447997178339
 20
395.9246224855341
 30
0.0
 11
102.7447992707991
 21
398.4246224855341
 31
0.0
 70
    32
  1
75+stroke=<>
 71
     5
 42
80.00000089406967
  3
AM_ANSI
100
AcDbAlignedDimension
 13
62.74479882376431
 23
334.4553260022621
 33
0.0
 14
142.7447997178339
 24
362.2053254285674
 34
0.0
100
AcDbRotatedDimension
1001
ACAD
1000
DSTYLE
1002
{
1070
    41
1040
2.0
1070
    42
1040
1.5
1070
    43
1040
8.0
1070
    44
1040
1.5
1070
    73
1070
     0
1070
    74
1070
     0
1070
    77
1070
     3
1070
   140
1040
2.0
1070
   141
1040
3.0
1070
   146
1040
0.6
1070
   147
1040
1.0
1070
   172
1070
     1
1070
   178
1070
   256
1070
   271
1070
     0
1070
   272
1070
     8
1070
   274
1070
     2
1070
   340
1005
4A67
1002
}
  0
DIMENSION
  5
6B0E
330
1F
100
AcDbEntity
  8
DIM
100
AcDbDimension
  2
*D30
 10
92.74479897277604
 20
384.4385270921825
 30
0.0
 11
88.74479883866554
 21
386.9385270921825
 31
0.0
 70
    32
 71
     5
 42
8.000000268221015
  3
AM_ANSI
100
AcDbAlignedDimension
 13
84.74479870455501
 23
336.4553263300876
 33
0.0
 14
92.74479897277604
 24
362.2053254285676
 34
0.0
100
AcDbRotatedDimension
1001
ACAD
1000
DSTYLE
1002
{
1070
    41
1040
2.0
1070
    42
1040
1.5
1070
    43
1040
8.0
1070
    44
1040
1.5
1070
    73
1070
     0
1070
    74
1070
     0
1070
    77
1070
     3
1070
   140
1040
2.0
1070
   141
1040
3.0
1070
   146
1040
0.6
1070
   147
1040
1.0
1070
   172
1070
     1
1070
   178
1070
   256
1070
   272
1070
     8
1070
   274
1070
     2
1070
   340
1005
4A67
1002
}
  0
DIMENSION
  5
6B0F
330
1F
100
AcDbEntity
  8
DIM
100
AcDbDimension
  2
*D31
 10
84.74479870455501
 20
384.4385270921825
 30
0.0
 11
73.74479876415967
 21
386.9385270921825
 31
0.0
 70
    32
 71
     5
 42
21.99999988079071
  3
AM_ANSI
100
AcDbAlignedDimension
 13
62.74479882376431
 23
334.4553260022621
 33
0.0
 14
84.74479870455501
 24
336.4553263300876
 34
0.0
100
AcDbRotatedDimension
1001
ACAD
1000
DSTYLE
1002
{
1070
    41
1040
2.0
1070
    42
1040
1.5
1070
    43
1040
8.0
1070
    44
1040
1.5
1070
    73
1070
     0
1070
    74
1070
     0
1070
    77
1070
     3
1070
   140
1040
2.0
1070
   141
1040
3.0
1070
   146
1040
0.6
1070
   147
1040
1.0
1070
   172
1070
     1
1070
   178
1070
   256
1070
   272
1070
     8
1070
   274
1070
     2
1070
   340
1005
4A67
1002
}
  0
DIMENSION
  5
6B10
330
1F
100
AcDbEntity
  8
DIM
100
AcDbDimension
  2
*D32
 10
106.7447994049096
 20
374.821926260375
 30
0.0
 11
99.74479918884277
 21
377.321926260375
 31
0.0
 70
    32
 71
     5
 42
14.00000043213367
  3
AM_ANSI
100
AcDbAlignedDimension
 13
92.74479897277592
 23
362.2053254285677
 33
0.0
 14
106.7447994049096
 24
362.2053254285677
 34
0.0
100
AcDbRotatedDimension
1001
ACAD
1000
DSTYLE
1002
{
1070
    41
1040
2.0
1070
    42
1040
1.5
1070
    43
1040
8.0
1070
    44
1040
1.5
1070
    73
1070
     0
1070
    74
1070
     0
1070
    77
1070
     3
1070
   140
1040
2.0
1070
   141
1040
3.0
1070
   146
1040
0.6
1070
   147
1040
1.0
1070
   172
1070
     1
1070
   178
1070
   256
1070
   272
1070
     8
1070
   274
1070
     2
1070
   340
1005
4A67
1002
}
  0
DIMENSION
  5
6B11
330
1F
100
AcDbEntity
  8
DIM
100
AcDbDimension
  2
*D33
 10
142.7447997178339
 20
374.821926260375
 30
0.0
 11
135.7447985704445
 21
377.321926260375
 31
0.0
 70
    32
 71
     5
 42
14.00000229477882
  3
AM_ANSI
100
AcDbAlignedDimension
 13
128.7447974230551
 23
362.2053254285676
 33
0.0
 14
142.7447997178339
 24
362.2053254285674
 34
0.0
100
AcDbRotatedDimension
1001
ACAD
1000
DSTYLE
1002
{
1070
    41
1040
2.0
1070
    42
1040
1.5
1070
    43
1040
8.0
1070
    44
1040
1.5
1070
    73
1070
     0
1070
    74
1070
     0
1070
    77
1070
     3
1070
   140
1040
2.0
1070
   141
1040
3.0
1070
   146
1040
0.6
1070
   147
1040
1.0
1070
   172
1070
     1
1070
   178
1070
   256
1070
   272
1070
     8
1070
   274
1070
     2
1070
   340
1005
4A67
1002
}
  0
ARC
  5
6BBE
330
1F
100
AcDbEntity
  8
0
 62
     3
100
AcDbCircle
 10
252.5629016468494
 20
329.4553261140213
 30
0.0
 40
5.536375712719665
100
AcDbArc
 50
350.0000000000014
 51
279.9999999999986
  0
LINE
  5
6BBF
330
1F
100
AcDbEntity
  8
CENTER
 48
0.8
100
AcDbLine
 10
213.2221085965474
 20
329.455326114021
 30
0.0
 11
291.9036946971511
 21
329.455326114021
 31
0.0
  0
LINE
  5
6BC0
330
1F
100
AcDbEntity
  8
CENTER
 48
0.8
100
AcDbLine
 10
252.5629016468494
 20
290.1145330637193
 30
0.0
 11
252.5629016468494
 21
368.7961191643229
 31
0.0
  0
LINE
  5
6BC1
330
1F
100
AcDbEntity
  8
CENTER
 48
0.8
100
AcDbLine
 10
275.8129016468491
 20
347.9974229102705
 30
0.0
 11
275.8129016468491
 21
357.413229317771
 31
0.0
  0
LINE
  5
6BC2
330
1F
100
AcDbEntity
  8
CENTER
 48
0.8
100
AcDbLine
 10
280.5208048505993
 20
352.7053261140208
 30
0.0
 11
271.1049984430989
 21
352.7053261140208
 31
0.0
  0
LINE
  5
6BC3
330
1F
100
AcDbEntity
  8
CENTER
 48
0.8
100
AcDbLine
 10
279.3129016468492
 20
336.1759455006206
 30
0.0
 11
279.3129016468492
 21
349.7347067274211
 31
0.0
  0
LINE
  5
6BC4
330
1F
100
AcDbEntity
  8
CENTER
 48
0.8
100
AcDbLine
 10
286.0922822602495
 20
342.9553261140208
 30
0.0
 11
272.533521033449
 21
342.9553261140208
 31
0.0
  0
ARC
  5
6BC5
330
1F
100
AcDbEntity
  8
0
 62
     3
100
AcDbCircle
 10
275.8129016468493
 20
352.7053261140209
 30
0.0
 40
3.839448867088006
100
AcDbArc
 50
350.0000000000014
 51
279.9999999999986
  0
LINE
  5
6BC6
330
1F
100
AcDbEntity
  8
CENTER
 48
0.8
100
AcDbLine
 10
229.3129016468494
 20
347.9974229102709
 30
0.0
 11
229.3129016468494
 21
357.4132293177713
 31
0.0
  0
LINE
  5
6BC7
330
1F
100
AcDbEntity
  8
CENTER
 48
0.8
100
AcDbLine
 10
234.0208048505996
 20
352.7053261140211
 30
0.0
 11
224.6049984430992
 21
352.7053261140211
 31
0.0
  0
ARC
  5
6BC8
330
1F
100
AcDbEntity
  8
0
 62
     3
100
AcDbCircle
 10
229.3129016468494
 20
352.7053261140212
 30
0.0
 40
3.839448867088006
100
AcDbArc
 50
350.0000000000014
 51
279.9999999999986
  0
LINE
  5
6BC9
330
1F
100
AcDbEntity
  8
CENTER
 48
0.8
100
AcDbLine
 10
229.3129016468491
 20
301.4974229102709
 30
0.0
 11
229.3129016468491
 21
310.9132293177713
 31
0.0
  0
LINE
  5
6BCA
330
1F
100
AcDbEntity
  8
CENTER
 48
0.8
100
AcDbLine
 10
234.0208048505993
 20
306.2053261140211
 30
0.0
 11
224.6049984430989
 21
306.2053261140211
 31
0.0
  0
ARC
  5
6BCB
330
1F
100
AcDbEntity
  8
0
 62
     3
100
AcDbCircle
 10
229.3129016468492
 20
306.2053261140212
 30
0.0
 40
3.839448867088006
100
AcDbArc
 50
350.0000000000014
 51
279.9999999999986
  0
LINE
  5
6BCC
330
1F
100
AcDbEntity
  8
CENTER
 48
0.8
100
AcDbLine
 10
275.8129016468491
 20
301.4974229102707
 30
0.0
 11
275.8129016468491
 21
310.9132293177712
 31
0.0
  0
LINE
  5
6BCD
330
1F
100
AcDbEntity
  8
CENTER
 48
0.8
100
AcDbLine
 10
280.5208048505993
 20
306.2053261140209
 30
0.0
 11
271.1049984430989
 21
306.2053261140209
 31
0.0
  0
ARC
  5
6BCE
330
1F
100
AcDbEntity
  8
0
 62
     3
100
AcDbCircle
 10
275.8129016468493
 20
306.205326114021
 30
0.0
 40
3.839448867088006
100
AcDbArc
 50
350.0000000000014
 51
279.9999999999986
  0
LINE
  5
6BCF
330
1F
100
AcDbEntity
  8
CENTER
 48
0.8
100
AcDbLine
 10
229.8653563460719
 20
168.3914226360182
 30
0.0
 11
229.8653563460719
 21
177.8072290435186
 31
0.0
  0
LINE
  5
6BD0
330
1F
100
AcDbEntity
  8
CENTER
 48
0.8
100
AcDbLine
 10
234.5732595498222
 20
173.0993258397684
 30
0.0
 11
225.1574531423217
 21
173.0993258397684
 31
0.0
  0
ARC
  5
6BD1
330
1F
100
AcDbEntity
  8
0
 62
     3
100
AcDbCircle
 10
229.8653563460721
 20
173.0993258397685
 30
0.0
 40
3.839448867088006
100
AcDbArc
 50
350.0000000000014
 51
279.9999999999986
  0
LINE
  5
6BD2
330
1F
100
AcDbEntity
  8
CENTER
 48
0.8
100
AcDbLine
 10
276.3653563460719
 20
168.391422636018
 30
0.0
 11
276.3653563460719
 21
177.8072290435184
 31
0.0
  0
LINE
  5
6BD3
330
1F
100
AcDbEntity
  8
CENTER
 48
0.8
100
AcDbLine
 10
281.0732595498222
 20
173.0993258397682
 30
0.0
 11
271.6574531423217
 21
173.0993258397682
 31
0.0
  0
ARC
  5
6BD4
330
1F
100
AcDbEntity
  8
0
 62
     3
100
AcDbCircle
 10
276.3653563460721
 20
173.0993258397683
 30
0.0
 40
3.839448867088006
100
AcDbArc
 50
350.0000000000014
 51
279.9999999999986
  0
LINE
  5
6BD5
330
1F
100
AcDbEntity
  8
CENTER
 48
0.8
100
AcDbLine
 10
276.3653563460717
 20
121.891422636018
 30
0.0
 11
276.3653563460717
 21
131.3072290435185
 31
0.0
  0
LINE
  5
6BD6
330
1F
100
AcDbEntity
  8
CENTER
 48
0.8
100
AcDbLine
 10
281.0732595498219
 20
126.5993258397682
 30
0.0
 11
271.6574531423215
 21
126.5993258397682
 31
0.0
  0
ARC
  5
6BD7
330
1F
100
AcDbEntity
  8
0
 62
     3
100
AcDbCircle
 10
276.3653563460719
 20
126.5993258397683
 30
0.0
 40
3.839448867088006
100
AcDbArc
 50
350.0000000000014
 51
279.9999999999986
  0
LINE
  5
6BD8
330
1F
100
AcDbEntity
  8
CENTER
 48
0.8
100
AcDbLine
 10
229.8653563460718
 20
121.8914226360182
 30
0.0
 11
229.8653563460718
 21
131.3072290435186
 31
0.0
  0
LINE
  5
6BD9
330
1F
100
AcDbEntity
  8
CENTER
 48
0.8
100
AcDbLine
 10
234.573259549822
 20
126.5993258397684
 30
0.0
 11
225.1574531423216
 21
126.5993258397684
 31
0.0
  0
ARC
  5
6BDA
330
1F
100
AcDbEntity
  8
0
 62
     3
100
AcDbCircle
 10
229.8653563460719
 20
126.5993258397685
 30
0.0
 40
3.839448867088006
100
AcDbArc
 50
350.0000000000014
 51
279.9999999999986
  0
LINE
  5
6BDB
330
1F
100
AcDbEntity
  8
CENTER
 48
1.3
100
AcDbLine
 10
54.6143397495872
 20
329.4553261140208
 30
0.0
 11
146.3155291497116
 21
329.4553261140206
 31
0.0
  0
LINE
  5
6BDC
330
1F
100
AcDbEntity
  8
CENTER
 48
0.8
100
AcDbLine
 10
100.244798972776
 20
323.0954482375571
 30
0.0
 11
100.244798972776
 21
335.8152039904844
 31
0.0
  0
LINE
  5
6BDD
330
1F
100
AcDbEntity
  8
CENTER
 48
0.8
100
AcDbLine
 10
135.2447989727761
 20
323.0954482375569
 30
0.0
 11
135.2447989727761
 21
335.8152039904842
 31
0.0
  0
ARC
  5
6BDE
330
1F
100
AcDbEntity
  8
0
 62
     3
100
AcDbCircle
 10
135.2447989727761
 20
329.4553261140206
 30
0.0
 40
4.861990868404272
100
AcDbArc
 50
350.0000000000014
 51
279.9999999999986
  0
LINE
  5
6BDF
330
1F
100
AcDbEntity
  8
CENTER
 48
1.3
100
AcDbLine
 10
81.13663159306055
 20
149.849325839768
 30
0.0
 11
146.8679838489343
 21
149.8493258397679
 31
0.0
  0
LINE
  5
6BE0
330
1F
100
AcDbEntity
  8
CENTER
 48
0.8
100
AcDbLine
 10
100.7972536719987
 20
143.4894479633044
 30
0.0
 11
100.7972536719987
 21
156.2092037162317
 31
0.0
  0
LINE
  5
6BE1
330
1F
100
AcDbEntity
  8
CENTER
 48
0.8
100
AcDbLine
 10
135.7972536719988
 20
143.4894479633042
 30
0.0
 11
135.7972536719988
 21
156.2092037162315
 31
0.0
  0
ARC
  5
6BE2
330
1F
100
AcDbEntity
  8
0
 62
     3
100
AcDbCircle
 10
135.7972536719988
 20
149.8493258397679
 30
0.0
 40
4.861990868404272
100
AcDbArc
 50
350.0000000000014
 51
279.9999999999986
  0
ARC
  5
6BE3
330
1F
100
AcDbEntity
  8
0
 62
     3
100
AcDbCircle
 10
100.7972536719988
 20
149.8493258397681
 30
0.0
 40
4.861990868404272
100
AcDbArc
 50
350.0000000000014
 51
279.9999999999986
  0
ARC
  5
6BE4
330
1F
100
AcDbEntity
  8
0
 62
     3
100
AcDbCircle
 10
100.2447989727761
 20
329.4553261140208
 30
0.0
 40
4.861990868404272
100
AcDbArc
 50
350.0000000000014
 51
279.9999999999986
  0
LINE
  5
6C31
330
1F
100
AcDbEntity
  8
AM_7
  6
ACISOTGB
 62
     2
100
AcDbLine
 10
117.7447984139825
 20
365.0108262974549
 30
0.0
 11
117.7447984139825
 21
285.4366955421729
 31
0.0
1001
GENIUS_GENOBJ-N-CEN_13
1002
{
1000
OWNER
1000
GEN
1002
}
1001
GENIUS_GENODEF_13
1002
{
1000
HIER
1070
     0
1002
}
1002
{
1000
MANEDIT
1070
     0
1002
}
1002
{
1000
NOSEL
1070
     0
1002
}
1002
{
1000
BEHIND
1070
     0
1002
}
1002
{
1000
OTHER
1070
     0
1002
}
1002
{
1000
REACTOR
1002
}
1001
GENIUS_GENCEN_19
1002
{
1040
3.0
1002
}
  0
INSERT
  5
6C32
330
1F
100
AcDbEntity
  8
0
100
AcDbBlockReference
  2
A$C1F6E6265
 10
117.7447979497759
 20
286.6025148534307
 30
0.0
  0
SOLID
  5
6C33
330
1F
100
AcDbEntity
  8
DIM
100
AcDbTrace
 10
66.99766518828642
 20
321.5704112095485
 30
0.0
 11
67.74479778068303
 21
323.4553260618668
 31
0.0
 12
66.42672699793433
 22
321.9146117720727
 32
0.0
 13
66.42672699793433
 23
321.9146117720727
 33
0.0
1001
ACAD
1000
DSTYLE
1002
{
1070
    41
1040
2.0
1070
    42
1040
1.5
1070
    43
1040
8.0
1070
    44
1040
1.5
1070
    73
1070
     0
1070
    74
1070
     0
1070
    77
1070
     3
1070
   140
1040
2.0
1070
   141
1040
3.0
1070
   146
1040
0.6
1070
   147
1040
1.0
1070
   172
1070
     1
1070
   178
1070
   256
1070
   272
1070
     2
1070
   274
1070
     2
1070
   340
1005
4A67
1002
}
  0
LWPOLYLINE
  5
6C34
330
1F
100
AcDbEntity
  8
DIM
100
AcDbPolyline
 90
        3
 70
     0
 43
0.0
 10
66.71219609311037
 20
321.7425114908106
 10
62.0907097307927
 20
314.0402475444139
 10
48.36426754055901
 20
314.0402475444139
1001
ACAD
1000
DSTYLE
1002
{
1070
    41
1040
2.0
1070
    42
1040
1.5
1070
    43
1040
8.0
1070
    44
1040
1.5
1070
    73
1070
     0
1070
    74
1070
     0
1070
    77
1070
     3
1070
   140
1040
2.0
1070
   141
1040
3.0
1070
   146
1040
0.6
1070
   147
1040
1.0
1070
   172
1070
     1
1070
   178
1070
   256
1070
   272
1070
     2
1070
   274
1070
     2
1070
   340
1005
4A67
1002
}
  0
MTEXT
  5
6C35
330
1F
100
AcDbEntity
  8
DIM
100
AcDbMText
 10
48.97109233916342
 20
316.5974919483741
 30
0.0
 40
2.0
 41
0.0
 71
     1
 72
     1
  1
M12*1.25
  7
dayus
 73
     1
 44
1.0
1001
ACAD
1000
MTEXTBEGIN
1070
    73
1070
     1
1070
    44
1040
1.0
1070
    74
1070
     0
1000
MTEXTEND
  0
SOLID
  5
6C36
330
1F
100
AcDbEntity
  8
DIM
100
AcDbTrace
 10
138.8695517931648
 20
323.1125880158317
 30
0.0
 11
138.2875453255216
 21
325.0548494767922
 31
0.0
 12
139.4680146200901
 22
323.4063339762003
 32
0.0
 13
139.4680146200901
 23
323.4063339762003
 33
0.0
1001
ACAD
1000
DSTYLE
1002
{
1070
    41
1040
2.0
1070
    42
1040
1.5
1070
    43
1040
8.0
1070
    44
1040
1.5
1070
    73
1070
     0
1070
    74
1070
     0
1070
    77
1070
     2
1070
   140
1040
2.0
1070
   141
1040
3.0
1070
   146
1040
0.6
1070
   147
1040
1.0
1070
   172
1070
     1
1070
   178
1070
   256
1070
   272
1070
     2
1070
   274
1070
     2
1070
   340
1005
4A67
1002
}
  0
LWPOLYLINE
  5
6C37
330
1F
100
AcDbEntity
  8
DIM
100
AcDbPolyline
 90
        3
 70
     0
 43
0.0
 10
138.2875453255464
 20
325.0548494767096
 10
144.2069353387309
 20
314.3837550884087
 10
156.6807811387922
 20
314.3837550884087
1001
ACAD
1000
DSTYLE
1002
{
1070
    41
1040
2.0
1070
    42
1040
1.5
1070
    43
1040
8.0
1070
    44
1040
1.5
1070
    73
1070
     0
1070
    74
1070
     0
1070
    77
1070
     2
1070
   140
1040
2.0
1070
   141
1040
3.0
1070
   146
1040
0.6
1070
   147
1040
1.0
1070
   172
1070
     1
1070
   178
1070
   256
1070
   272
1070
     2
1070
   274
1070
     2
1070
   340
1005
4A67
1002
}
  0
MTEXT
  5
6C38
330
1F
100
AcDbEntity
  8
DIM
100
AcDbMText
 10
156.3133091361204
 20
315.1060176859933
 30
0.0
 40
2.0
 41
0.0
 71
     9
 72
     1
  1
2-G1/8
  7
dayus
 73
     1
 44
1.0
1001
ACAD
1000
MTEXTBEGIN
1070
    73
1070
     1
1070
    44
1040
1.0
1070
    74
1070
     0
1000
MTEXTEND
  0
LINE
  5
6C3A
330
1F
100
AcDbEntity
  8
AM_7
  6
ACISOTGB
 62
     2
100
AcDbLine
 10
118.2972531132052
 20
187.3652797838234
 30
0.0
 11
118.2972531132052
 21
107.6433106997654
 31
0.0
1001
GENIUS_GENOBJ-N-CEN_13
1002
{
1000
OWNER
1000
GEN
1002
}
1001
GENIUS_GENODEF_13
1002
{
1000
HIER
1070
     0
1002
}
1002
{
1000
MANEDIT
1070
     0
1002
}
1002
{
1000
NOSEL
1070
     0
1002
}
1002
{
1000
BEHIND
1070
     0
1002
}
1002
{
1000
OTHER
1070
     0
1002
}
1002
{
1000
REACTOR
1002
}
1001
GENIUS_GENCEN_19
1002
{
1040
3.0
1002
}
  0
INSERT
  5
6C3B
330
1F
100
AcDbEntity
  8
0
100
AcDbBlockReference
  2
A$C1F6E6265
 10
118.2972526489986
 20
108.8091300110231
 30
0.0
  0
DIMENSION
  5
6C3C
330
1F
100
AcDbEntity
  8
DIM
100
AcDbDimension
  2
*D34
 10
275.8129016468491
 20
373.3531547024806
 30
0.0
 11
252.5629016468492
 21
375.8531547024805
 31
0.0
 70
    32
  1
□<>
 71
     5
 42
46.49999999999977
  3
AM_ANSI
100
AcDbAlignedDimension
 13
229.3129016468494
 23
357.4132293177713
 33
0.0
 14
275.8129016468491
 24
357.413229317771
 34
0.0
100
AcDbRotatedDimension
1001
ACAD
1000
DSTYLE
1002
{
1070
    41
1040
2.0
1070
    42
1040
1.5
1070
    43
1040
8.0
1070
    44
1040
1.5
1070
    73
1070
     0
1070
    74
1070
     0
1070
    77
1070
     3
1070
   140
1040
2.0
1070
   141
1040
3.0
1070
   146
1040
0.6
1070
   147
1040
1.0
1070
   172
1070
     1
1070
   178
1070
   256
1070
   272
1070
     8
1070
   274
1070
     2
1070
   340
1005
4A67
1002
}
  0
DIMENSION
  5
6C3D
330
1F
100
AcDbEntity
  8
DIM
100
AcDbDimension
  2
*D35
 10
285.3129016468493
 20
382.129949044136
 30
0.0
 11
252.5629016468493
 21
384.629949044136
 31
0.0
 70
    32
  1
□<>
 71
     5
 42
65.49999999999994
  3
AM_ANSI
100
AcDbAlignedDimension
 13
219.8129016468493
 23
355.2053261140213
 33
0.0
 14
285.3129016468493
 24
355.2053261140209
 34
0.0
100
AcDbRotatedDimension
1001
ACAD
1000
DSTYLE
1002
{
1070
    41
1040
2.0
1070
    42
1040
1.5
1070
    43
1040
8.0
1070
    44
1040
1.5
1070
    73
1070
     0
1070
    74
1070
     0
1070
    77
1070
     3
1070
   140
1040
2.0
1070
   141
1040
3.0
1070
   146
1040
0.6
1070
   147
1040
1.0
1070
   172
1070
     1
1070
   178
1070
   256
1070
   272
1070
     8
1070
   274
1070
     2
1070
   340
1005
4A67
1002
}
  0
MTEXT
  5
6C3E
330
1F
100
AcDbEntity
  8
DIM
100
AcDbMText
 10
288.7536370910101
 20
368.7922924242195
 30
0.0
 40
3.0
 41
0.0
 71
     1
 72
     1
  1
2x4-M8x1.25
  7
dayus
 73
     1
 44
1.0
1001
ACAD
1000
MTEXTBEGIN
1070
    73
1070
     1
1070
    44
1040
1.0
1070
    74
1070
     0
1000
MTEXTEND
  0
DIMENSION
  5
6D74
330
1F
100
AcDbEntity
  8
DIM
100
AcDbDimension
  2
*D36
 10
100.7972536719987
 20
187.5403298071544
 30
0.0
 11
97.04725367199873
 21
187.5403298071544
 31
0.0
 70
   160
 71
     5
 42
7.5
  3
AM_ANSI
100
AcDbAlignedDimension
 13
93.29725367199873
 23
182.5993251543149
 33
0.0
 14
100.7972536719987
 24
156.2092037162317
 34
0.0
100
AcDbRotatedDimension
1001
ACAD
1000
DSTYLE
1002
{
1070
    41
1040
2.0
1070
    42
1040
1.5
1070
    43
1040
8.0
1070
    44
1040
1.5
1070
    73
1070
     0
1070
    74
1070
     0
1070
    77
1070
     3
1070
   140
1040
2.0
1070
   141
1040
3.0
1070
   146
1040
0.6
1070
   147
1040
1.0
1070
   172
1070
     1
1070
   178
1070
   256
1070
   272
1070
     8
1070
   274
1070
     2
1070
   340
1005
4A67
1002
}
  0
DIMENSION
  5
6D75
330
1F
100
AcDbEntity
  8
DIM
100
AcDbDimension
  2
*D37
 10
143.2972544170568
 20
187.5403298071544
 30
0.0
 11
139.5472540445278
 21
187.5403298071544
 31
0.0
 70
   160
 71
     5
 42
7.500000745057946
  3
AM_ANSI
100
AcDbAlignedDimension
 13
135.7972536719988
 23
156.2092037162314
 33
0.0
 14
143.2972544170568
 24
182.5993251543146
 34
0.0
100
AcDbRotatedDimension
1001
ACAD
1000
DSTYLE
1002
{
1070
    41
1040
2.0
1070
    42
1040
1.5
1070
    43
1040
8.0
1070
    44
1040
1.5
1070
    73
1070
     0
1070
    74
1070
     0
1070
    77
1070
     3
1070
   140
1040
2.0
1070
   141
1040
3.0
1070
   146
1040
0.6
1070
   147
1040
1.0
1070
   172
1070
     1
1070
   178
1070
   256
1070
   272
1070
     8
1070
   274
1070
     2
1070
   340
1005
4A67
1002
}
  0
DIMENSION
  5
6D76
330
1F
100
AcDbEntity
  8
DIM
100
AcDbDimension
  2
*D38
 10
143.2972544170566
 20
204.8325268179298
 30
0.0
 11
118.2972540445276
 21
207.3325268179298
 31
0.0
 70
    32
  1
45+stroke=<>
 71
     5
 42
50.00000074505805
  3
AM_ANSI
100
AcDbAlignedDimension
 13
93.29725367199861
 23
182.599325154315
 33
0.0
 14
143.2972544170566
 24
182.5993251543147
 34
0.0
100
AcDbRotatedDimension
1001
ACAD
1000
DSTYLE
1002
{
1070
    41
1040
2.0
1070
    42
1040
1.5
1070
    43
1040
8.0
1070
    44
1040
1.5
1070
    73
1070
     0
1070
    74
1070
     0
1070
    77
1070
     3
1070
   140
1040
2.0
1070
   141
1040
3.0
1070
   146
1040
0.6
1070
   147
1040
1.0
1070
   172
1070
     1
1070
   178
1070
   256
1070
   272
1070
     8
1070
   274
1070
     2
1070
   340
1005
4A67
1002
}
  0
DIMENSION
  5
6D77
330
1F
100
AcDbEntity
  8
DIM
100
AcDbDimension
  2
*D39
 10
143.2972544170566
 20
216.3186222112814
 30
0.0
 11
114.2972538545378
 21
218.8186222112814
 31
0.0
 70
    32
  1
53+stroke=<>
 71
     5
 42
58.00000112503767
  3
AM_ANSI
100
AcDbAlignedDimension
 13
85.297253292019
 23
156.849326055835
 33
0.0
 14
143.2972544170566
 24
182.5993251543147
 34
0.0
100
AcDbRotatedDimension
1001
ACAD
1000
DSTYLE
1002
{
1070
    41
1040
2.0
1070
    42
1040
1.5
1070
    43
1040
8.0
1070
    44
1040
1.5
1070
    73
1070
     0
1070
    74
1070
     0
1070
    77
1070
     3
1070
   140
1040
2.0
1070
   141
1040
3.0
1070
   146
1040
0.6
1070
   147
1040
1.0
1070
   172
1070
     1
1070
   178
1070
   256
1070
   271
1070
     0
1070
   272
1070
     8
1070
   274
1070
     2
1070
   340
1005
4A67
1002
}
  0
DIMENSION
  5
6D78
330
1F
100
AcDbEntity
  8
DIM
100
AcDbDimension
  2
*D40
 10
93.29725367199873
 20
204.8325268179298
 30
0.0
 11
89.29725353788823
 21
207.3325268179298
 31
0.0
 70
    32
 71
     5
 42
8.000000268221015
  3
AM_ANSI
100
AcDbAlignedDimension
 13
85.29725340377771
 23
156.8493260558349
 33
0.0
 14
93.29725367199873
 24
182.5993251543149
 34
0.0
100
AcDbRotatedDimension
1001
ACAD
1000
DSTYLE
1002
{
1070
    41
1040
2.0
1070
    42
1040
1.5
1070
    43
1040
8.0
1070
    44
1040
1.5
1070
    73
1070
     0
1070
    74
1070
     0
1070
    77
1070
     3
1070
   140
1040
2.0
1070
   141
1040
3.0
1070
   146
1040
0.6
1070
   147
1040
1.0
1070
   172
1070
     1
1070
   178
1070
   256
1070
   272
1070
     8
1070
   274
1070
     2
1070
   340
1005
4A67
1002
}
  0
DIMENSION
  5
6D7A
330
1F
100
AcDbEntity
  8
DIM
100
AcDbDimension
  2
*D42
 10
107.2972541041323
 20
195.2159259861223
 30
0.0
 11
100.2972538880654
 21
197.7159259861223
 31
0.0
 70
    32
 71
     5
 42
14.00000043213367
  3
AM_ANSI
100
AcDbAlignedDimension
 13
93.29725367199861
 23
182.599325154315
 33
0.0
 14
107.2972541041323
 24
182.599325154315
 34
0.0
100
AcDbRotatedDimension
1001
ACAD
1000
DSTYLE
1002
{
1070
    41
1040
2.0
1070
    42
1040
1.5
1070
    43
1040
8.0
1070
    44
1040
1.5
1070
    73
1070
     0
1070
    74
1070
     0
1070
    77
1070
     3
1070
   140
1040
2.0
1070
   141
1040
3.0
1070
   146
1040
0.6
1070
   147
1040
1.0
1070
   172
1070
     1
1070
   178
1070
   256
1070
   272
1070
     8
1070
   274
1070
     2
1070
   340
1005
4A67
1002
}
  0
DIMENSION
  5
6D7B
330
1F
100
AcDbEntity
  8
DIM
100
AcDbDimension
  2
*D43
 10
143.2972544170566
 20
195.2159259861223
 30
0.0
 11
136.2972532696672
 21
197.7159259861223
 31
0.0
 70
    32
 71
     5
 42
14.00000229477882
  3
AM_ANSI
100
AcDbAlignedDimension
 13
129.2972521222778
 23
182.5993251543149
 33
0.0
 14
143.2972544170566
 24
182.5993251543147
 34
0.0
100
AcDbRotatedDimension
1001
ACAD
1000
DSTYLE
1002
{
1070
    41
1040
2.0
1070
    42
1040
1.5
1070
    43
1040
8.0
1070
    44
1040
1.5
1070
    73
1070
     0
1070
    74
1070
     0
1070
    77
1070
     3
1070
   140
1040
2.0
1070
   141
1040
3.0
1070
   146
1040
0.6
1070
   147
1040
1.0
1070
   172
1070
     1
1070
   178
1070
   256
1070
   272
1070
     8
1070
   274
1070
     2
1070
   340
1005
4A67
1002
}
  0
LWPOLYLINE
  5
6D7C
330
1F
100
AcDbEntity
  8
DIM
100
AcDbPolyline
 90
        3
 70
     0
 43
0.0
 10
84.47157162992676
 20
148.0277194627247
 10
79.77965748581834
 20
137.701863874155
 10
68.80919600774257
 20
137.701863874155
1001
ACAD
1000
DSTYLE
1002
{
1070
    41
1040
2.0
1070
    42
1040
1.5
1070
    43
1040
8.0
1070
    44
1040
1.5
1070
    73
1070
     0
1070
    74
1070
     0
1070
    77
1070
     3
1070
   140
1040
2.0
1070
   141
1040
3.0
1070
   146
1040
0.6
1070
   147
1040
1.0
1070
   172
1070
     1
1070
   178
1070
   256
1070
   272
1070
     2
1070
   274
1070
     2
1070
   340
1005
4A67
1002
}
  0
MTEXT
  5
6D7D
330
1F
100
AcDbEntity
  8
DIM
100
AcDbMText
 10
68.55211834202529
 20
140.5098338796411
 30
0.0
 40
2.0
 41
0.0
 71
     1
 72
     1
  1
M10*1.5
  7
dayus
 73
     1
 44
1.0
1001
ACAD
1000
MTEXTBEGIN
1070
    73
1070
     1
1070
    44
1040
1.0
1070
    74
1070
     0
1000
MTEXTEND
  0
SOLID
  5
6E28
330
1F
100
AcDbEntity
  8
DIM
100
AcDbTrace
 10
84.77517269276729
 20
147.890105852376
 30
0.0
 11
85.29725329201902
 21
149.849325839768
 31
0.0
 12
84.1679705670862
 22
148.1653330730734
 32
0.0
 13
84.1679705670862
 23
148.1653330730734
 33
0.0
1001
ACAD
1000
DSTYLE
1002
{
1070
    41
1040
2.0
1070
    42
1040
1.5
1070
    43
1040
8.0
1070
    44
1040
1.5
1070
    73
1070
     0
1070
    74
1070
     0
1070
    77
1070
     3
1070
   140
1040
2.0
1070
   141
1040
3.0
1070
   146
1040
0.6
1070
   147
1040
1.0
1070
   172
1070
     1
1070
   178
1070
   256
1070
   272
1070
     2
1070
   274
1070
     2
1070
   340
1005
4A67
1002
}
  0
SOLID
  5
6E46
330
1F
100
AcDbEntity
  8
DIM
100
AcDbTrace
 10
140.7797367767156
 20
144.8643180262378
 30
0.0
 11
140.1977303090724
 21
146.8065794871983
 31
0.0
 12
141.3781996036409
 22
145.1580639866064
 32
0.0
 13
141.3781996036409
 23
145.1580639866064
 33
0.0
1001
ACAD
1000
DSTYLE
1002
{
1070
    41
1040
2.0
1070
    42
1040
1.5
1070
    43
1040
8.0
1070
    44
1040
1.5
1070
    73
1070
     0
1070
    74
1070
     0
1070
    77
1070
     2
1070
   140
1040
2.0
1070
   141
1040
3.0
1070
   146
1040
0.6
1070
   147
1040
1.0
1070
   172
1070
     1
1070
   178
1070
   256
1070
   272
1070
     2
1070
   274
1070
     2
1070
   340
1005
4A67
1002
}
  0
LWPOLYLINE
  5
6E47
330
1F
100
AcDbEntity
  8
DIM
100
AcDbPolyline
 90
        3
 70
     0
 43
0.0
 10
140.1977303090972
 20
146.8065794871158
 10
146.1171203222817
 20
136.1354850988148
 10
158.590966122343
 20
136.1354850988148
1001
ACAD
1000
DSTYLE
1002
{
1070
    41
1040
2.0
1070
    42
1040
1.5
1070
    43
1040
8.0
1070
    44
1040
1.5
1070
    73
1070
     0
1070
    74
1070
     0
1070
    77
1070
     2
1070
   140
1040
2.0
1070
   141
1040
3.0
1070
   146
1040
0.6
1070
   147
1040
1.0
1070
   172
1070
     1
1070
   178
1070
   256
1070
   272
1070
     2
1070
   274
1070
     2
1070
   340
1005
4A67
1002
}
  0
MTEXT
  5
6E48
330
1F
100
AcDbEntity
  8
DIM
100
AcDbMText
 10
158.2234941196712
 20
136.8577476963994
 30
0.0
 40
2.0
 41
0.0
 71
     9
 72
     1
  1
2-G1/8
  7
dayus
 73
     1
 44
1.0
1001
ACAD
1000
MTEXTBEGIN
1070
    73
1070
     1
1070
    44
1040
1.0
1070
    74
1070
     0
1000
MTEXTEND
  0
DIMENSION
  5
6E49
330
1F
100
AcDbEntity
  8
DIM
100
AcDbDimension
  2
*D44
 10
276.3653563460717
 20
193.7471544282279
 30
0.0
 11
253.1153563460719
 21
196.2471544282279
 31
0.0
 70
    32
  1
□<>
 71
     5
 42
46.49999999999979
  3
AM_ANSI
100
AcDbAlignedDimension
 13
229.8653563460719
 23
177.8072290435186
 33
0.0
 14
276.3653563460717
 24
177.8072290435183
 34
0.0
100
AcDbRotatedDimension
1001
ACAD
1000
DSTYLE
1002
{
1070
    41
1040
2.0
1070
    42
1040
1.5
1070
    43
1040
8.0
1070
    44
1040
1.5
1070
    73
1070
     0
1070
    74
1070
     0
1070
    77
1070
     3
1070
   140
1040
2.0
1070
   141
1040
3.0
1070
   146
1040
0.6
1070
   147
1040
1.0
1070
   172
1070
     1
1070
   178
1070
   256
1070
   272
1070
     8
1070
   274
1070
     2
1070
   340
1005
4A67
1002
}
  0
DIMENSION
  5
6E4A
330
1F
100
AcDbEntity
  8
DIM
100
AcDbDimension
  2
*D45
 10
285.8653563460718
 20
202.5239487698833
 30
0.0
 11
253.1153563460719
 21
205.0239487698833
 31
0.0
 70
    32
  1
□<>
 71
     5
 42
65.49999999999991
  3
AM_ANSI
100
AcDbAlignedDimension
 13
220.3653563460719
 23
175.5993258397686
 33
0.0
 14
285.8653563460718
 24
175.5993258397682
 34
0.0
100
AcDbRotatedDimension
1001
ACAD
1000
DSTYLE
1002
{
1070
    41
1040
2.0
1070
    42
1040
1.5
1070
    43
1040
8.0
1070
    44
1040
1.5
1070
    73
1070
     0
1070
    74
1070
     0
1070
    77
1070
     3
1070
   140
1040
2.0
1070
   141
1040
3.0
1070
   146
1040
0.6
1070
   147
1040
1.0
1070
   172
1070
     1
1070
   178
1070
   256
1070
   272
1070
     8
1070
   274
1070
     2
1070
   340
1005
4A67
1002
}
  0
MTEXT
  5
6E4B
330
1F
100
AcDbEntity
  8
DIM
100
AcDbMText
 10
289.3060917902327
 20
189.1862921499668
 30
0.0
 40
3.0
 41
0.0
 71
     1
 72
     1
  1
2x4-M8x1.25
  7
dayus
 73
     1
 44
1.0
1001
ACAD
1000
MTEXTBEGIN
1070
    73
1070
     1
1070
    44
1040
1.0
1070
    74
1070
     0
1000
MTEXTEND
  0
ARC
  5
6E88
330
1F
100
AcDbEntity
  8
0
 62
     3
100
AcDbCircle
 10
253.1153563460719
 20
149.8493258397683
 30
0.0
 40
5.536375712719665
100
AcDbArc
 50
350.0000000000014
 51
279.9999999999986
  0
LINE
  5
6E89
330
1F
100
AcDbEntity
  8
CENTER
 48
0.8
100
AcDbLine
 10
213.7745632957699
 20
149.849325839768
 30
0.0
 11
292.4561493963736
 21
149.849325839768
 31
0.0
  0
LINE
  5
6E8A
330
1F
100
AcDbEntity
  8
CENTER
 48
0.8
100
AcDbLine
 10
253.1153563460719
 20
110.5085327894663
 30
0.0
 11
253.1153563460719
 21
189.19011889007
 31
0.0
  0
LINE
  5
6E8B
330
1F
100
AcDbEntity
  8
CENTER
 48
0.8
100
AcDbLine
 10
225.8129016468493
 20
336.1759455006208
 30
0.0
 11
225.8129016468493
 21
349.7347067274214
 31
0.0
  0
LINE
  5
6E8C
330
1F
100
AcDbEntity
  8
CENTER
 48
0.8
100
AcDbLine
 10
232.5922822602495
 20
342.955326114021
 30
0.0
 11
219.033521033449
 21
342.955326114021
 31
0.0
  0
LINE
  5
6E8D
330
1F
100
AcDbEntity
  8
CENTER
 48
0.8
100
AcDbLine
 10
225.8129016468493
 20
309.1759455006208
 30
0.0
 11
225.8129016468493
 21
322.7347067274214
 31
0.0
  0
LINE
  5
6E8E
330
1F
100
AcDbEntity
  8
CENTER
 48
0.8
100
AcDbLine
 10
232.5922822602495
 20
315.9553261140211
 30
0.0
 11
219.033521033449
 21
315.9553261140211
 31
0.0
  0
LINE
  5
6E8F
330
1F
100
AcDbEntity
  8
CENTER
 48
0.8
100
AcDbLine
 10
279.3129016468492
 20
309.1759455006206
 30
0.0
 11
279.3129016468492
 21
322.7347067274211
 31
0.0
  0
LINE
  5
6E90
330
1F
100
AcDbEntity
  8
CENTER
 48
0.8
100
AcDbLine
 10
286.0922822602495
 20
315.9553261140208
 30
0.0
 11
272.533521033449
 21
315.9553261140208
 31
0.0
  0
LINE
  5
6E91
330
1F
100
AcDbEntity
  8
CENTER
 48
0.8
100
AcDbLine
 10
279.8653563460718
 20
156.5699452263679
 30
0.0
 11
279.8653563460718
 21
170.1287064531685
 31
0.0
  0
LINE
  5
6E92
330
1F
100
AcDbEntity
  8
CENTER
 48
0.8
100
AcDbLine
 10
286.6447369594721
 20
163.3493258397681
 30
0.0
 11
273.0859757326716
 21
163.3493258397681
 31
0.0
  0
LINE
  5
6E93
330
1F
100
AcDbEntity
  8
CENTER
 48
0.8
100
AcDbLine
 10
279.8653563460718
 20
129.5699452263679
 30
0.0
 11
279.8653563460718
 21
143.1287064531685
 31
0.0
  0
LINE
  5
6E94
330
1F
100
AcDbEntity
  8
CENTER
 48
0.8
100
AcDbLine
 10
286.6447369594721
 20
136.3493258397681
 30
0.0
 11
273.0859757326716
 21
136.3493258397681
 31
0.0
  0
LINE
  5
6E95
330
1F
100
AcDbEntity
  8
CENTER
 48
0.8
100
AcDbLine
 10
226.3653563460718
 20
129.5699452263681
 30
0.0
 11
226.3653563460718
 21
143.1287064531687
 31
0.0
  0
LINE
  5
6E96
330
1F
100
AcDbEntity
  8
CENTER
 48
0.8
100
AcDbLine
 10
233.144736959472
 20
136.3493258397683
 30
0.0
 11
219.5859757326716
 21
136.3493258397683
 31
0.0
  0
LINE
  5
6E97
330
1F
100
AcDbEntity
  8
CENTER
 48
0.8
100
AcDbLine
 10
226.3653563460719
 20
156.5699452263681
 30
0.0
 11
226.3653563460719
 21
170.1287064531687
 31
0.0
  0
LINE
  5
6E98
330
1F
100
AcDbEntity
  8
CENTER
 48
0.8
100
AcDbLine
 10
233.1447369594722
 20
163.3493258397684
 30
0.0
 11
219.5859757326717
 21
163.3493258397684
 31
0.0
  0
SOLID
  5
6E9C
330
1F
100
AcDbEntity
  8
DIM
100
AcDbTrace
 10
280.5921739597201
 20
356.9460391663348
 30
0.0
 11
278.8732743682643
 21
355.8706344492147
 31
0.0
 12
280.1504805600349
 22
357.4453901302058
 32
0.0
 13
280.1504805600349
 23
357.4453901302058
 33
0.0
1001
ACAD
1000
DSTYLE
1002
{
1070
    41
1040
2.0
1070
    42
1040
1.5
1070
    43
1040
8.0
1070
    44
1040
1.5
1070
    73
1070
     0
1070
    74
1070
     0
1070
    77
1070
     3
1070
   140
1040
2.0
1070
   141
1040
3.0
1070
   146
1040
0.6
1070
   147
1040
1.0
1070
   172
1070
     1
1070
   178
1070
   256
1070
   272
1070
     2
1070
   274
1070
     2
1070
   340
1005
4A67
1002
}
  0
LWPOLYLINE
  5
6E9D
330
1F
100
AcDbEntity
  8
DIM
100
AcDbPolyline
 90
        3
 70
     0
 43
0.0
 10
280.3713272598775
 20
357.1957146482703
 10
288.3672230271969
 20
364.268364228472
 10
318.53766039055
 20
364.268364228472
1001
ACAD
1000
DSTYLE
1002
{
1070
    41
1040
2.0
1070
    42
1040
1.5
1070
    43
1040
8.0
1070
    44
1040
1.5
1070
    73
1070
     0
1070
    74
1070
     0
1070
    77
1070
     3
1070
   140
1040
2.0
1070
   141
1040
3.0
1070
   146
1040
0.6
1070
   147
1040
1.0
1070
   172
1070
     1
1070
   178
1070
   256
1070
   272
1070
     2
1070
   274
1070
     2
1070
   340
1005
4A67
1002
}
  0
SOLID
  5
6E9F
330
1F
100
AcDbEntity
  8
DIM
100
AcDbTrace
 10
281.1446286589427
 20
177.3400388920821
 30
0.0
 11
279.4257290674869
 21
176.264634174962
 31
0.0
 12
280.7029352592575
 22
177.8393898559532
 32
0.0
 13
280.7029352592575
 23
177.8393898559532
 33
0.0
1001
ACAD
1000
DSTYLE
1002
{
1070
    41
1040
2.0
1070
    42
1040
1.5
1070
    43
1040
8.0
1070
    44
1040
1.5
1070
    73
1070
     0
1070
    74
1070
     0
1070
    77
1070
     3
1070
   140
1040
2.0
1070
   141
1040
3.0
1070
   146
1040
0.6
1070
   147
1040
1.0
1070
   172
1070
     1
1070
   178
1070
   256
1070
   272
1070
     2
1070
   274
1070
     2
1070
   340
1005
4A67
1002
}
  0
LWPOLYLINE
  5
6EA0
330
1F
100
AcDbEntity
  8
DIM
100
AcDbPolyline
 90
        3
 70
     0
 43
0.0
 10
280.9237819591001
 20
177.5897143740176
 10
288.9196777264195
 20
184.6623639542193
 10
319.9860236702183
 20
184.6623639542193
1001
ACAD
1000
DSTYLE
1002
{
1070
    41
1040
2.0
1070
    42
1040
1.5
1070
    43
1040
8.0
1070
    44
1040
1.5
1070
    73
1070
     0
1070
    74
1070
     0
1070
    77
1070
     3
1070
   140
1040
2.0
1070
   141
1040
3.0
1070
   146
1040
0.6
1070
   147
1040
1.0
1070
   172
1070
     1
1070
   178
1070
   256
1070
   272
1070
     2
1070
   274
1070
     2
1070
   340
1005
4A67
1002
}
  0
DIMENSION
  5
6EA3
330
1F
100
AcDbEntity
  8
DIM
100
AcDbDimension
  2
*D46
 10
73.63218015122663
 20
141.8493254597886
 30
0.0
 11
71.13218015122662
 21
149.8493258397682
 31
0.0
 70
    32
  1
%%C<>
 71
     5
 42
16.00000075995922
  3
AM_ANSI
100
AcDbAlignedDimension
 13
91.29725357700371
 23
157.8493262197478
 33
0.0
 14
91.29725357700371
 24
141.8493254597886
 34
0.0
 50
90.0
100
AcDbRotatedDimension
1001
ACAD
1000
DSTYLE
1002
{
1070
    41
1040
2.0
1070
    42
1040
1.5
1070
    43
1040
8.0
1070
    44
1040
1.5
1070
    73
1070
     0
1070
    74
1070
     0
1070
    77
1070
     3
1070
   140
1040
2.0
1070
   141
1040
3.0
1070
   146
1040
0.6
1070
   147
1040
1.0
1070
   172
1070
     1
1070
   178
1070
   256
1070
   272
1070
     8
1070
   274
1070
     2
1070
   340
1005
4A67
1002
}
  0
DIMENSION
  5
6ED4
330
1F
100
AcDbEntity
  8
DIM
100
AcDbDimension
  2
*D47
 10
78.94118918154015
 20
142.8493256237013
 30
0.0
 11
76.44118918154013
 21
149.8493258397682
 31
0.0
 70
    32
  1
<>
 71
     5
 42
14.00000043213367
  3
AM_ANSI
100
AcDbAlignedDimension
 13
85.297253292019
 23
156.849326055835
 33
0.0
 14
85.297253292019
 24
142.8493256237013
 34
0.0
 50
90.0
100
AcDbRotatedDimension
1001
ACAD
1000
DSTYLE
1002
{
1070
    41
1040
2.0
1070
    42
1040
1.5
1070
    43
1040
8.0
1070
    44
1040
1.5
1070
    73
1070
     0
1070
    74
1070
     0
1070
    77
1070
     3
1070
   140
1040
2.0
1070
   141
1040
3.0
1070
   146
1040
0.6
1070
   147
1040
1.0
1070
   172
1070
     1
1070
   178
1070
   256
1070
   272
1070
     8
1070
   274
1070
     2
1070
   340
1005
4A67
1002
}
  0
TEXT
  5
6F10
330
1F
100
AcDbEntity
  8
0
100
AcDbText
 10
14.62918886324268
 20
400.0797806841768
 30
0.0
 40
6.0
  1
Stroke=5
  7
CHINESET
100
AcDbText
  0
TEXT
  5
6F14
330
1F
100
AcDbEntity
  8
0
100
AcDbText
 10
14.62918886324268
 20
216.7991976131588
 30
0.0
 40
6.0
  1
Stroke=5
  7
CHINESET
100
AcDbText
  0
ENDSEC
  0
SECTION
  2
OBJECTS
  0
DICTIONARY
  5
C
330
0
100
AcDbDictionary
281
     1
  3
ACAD_COLOR
350
48DB
  3
ACAD_GROUP
350
D
  3
ACAD_LAYOUT
350
1A
  3
ACAD_MATERIAL
350
48DA
  3
ACAD_MLINESTYLE
350
17
  3
ACAD_PLOTSETTINGS
350
19
  3
ACAD_PLOTSTYLENAME
350
E
  3
ACAD_TABLESTYLE
350
48DC
  3
AcadDim
350
1E82
  3
ACDBHEADERROUNDTRIPXREC
350
6F38
  3
AcDbVariableDictionary
350
1488
  3
AcmDictionary
350
4725
  3
AMG
350
470C
  3
AMGSNAPSETTINGS
350
4758
  3
DWGPROPS
350
6F37
  3
MAPISURF_MODULE
350
5EF1
  0
DICTIONARY
  5
4A71
330
2
100
AcDbDictionary
280
     1
281
     1
  3
ACAD_LAYERSTATES
360
4A72
  0
DICTIONARY
  5
4673
330
1F
100
AcDbDictionary
280
     1
281
     1
  3
ACAD_INDEX
360
5DBD
  3
ACAD_LAYOUTSELFREF
360
48BD
  3
ACAD_SORTENTS
360
6E9E
  0
DICTIONARY
  5
4675
330
1B
100
AcDbDictionary
280
     1
281
     1
  3
ACAD_LAYOUTSELFREF
360
48BC
  0
DICTIONARY
  5
4677
330
23
100
AcDbDictionary
280
     1
281
     1
  3
ACAD_LAYOUTSELFREF
360
48BE
  0
DICTIONARY
  5
5D58
330
5D57
100
AcDbDictionary
280
     1
281
     1
  0
DICTIONARY
  5
5DC7
330
5DC6
100
AcDbDictionary
280
     1
281
     1
  3
ACAD_SORTENTS
360
62C9
  0
DICTIONARY
  5
48DB
102
{ACAD_REACTORS
330
C
102
}
330
C
100
AcDbDictionary
281
     1
  0
DICTIONARY
  5
D
102
{ACAD_REACTORS
330
C
102
}
330
C
100
AcDbDictionary
281
     1
  0
DICTIONARY
  5
1A
102
{ACAD_REACTORS
330
C
102
}
330
C
100
AcDbDictionary
281
     1
  3
Layout1
350
1E
  3
Layout2
350
26
  3
Model
350
22
  0
DICTIONARY
  5
48DA
102
{ACAD_REACTORS
330
C
102
}
330
C
100
AcDbDictionary
281
     1
  0
DICTIONARY
  5
17
102
{ACAD_REACTORS
330
C
102
}
330
C
100
AcDbDictionary
281
     1
  3
Standard
350
18
  0
DICTIONARY
  5
19
102
{ACAD_REACTORS
330
C
102
}
330
C
100
AcDbDictionary
281
     1
  0
ACDBDICTIONARYWDFLT
  5
E
102
{ACAD_REACTORS
330
C
102
}
330
C
100
AcDbDictionary
281
     1
  3
Normal
350
F
100
AcDbDictionaryWithDefault
340
F
1001
ACAD
1000
TREAT_AS_HARD
1070
     0
  0
DICTIONARY
  5
48DC
102
{ACAD_REACTORS
330
C
102
}
330
C
100
AcDbDictionary
281
     1
  3
Standard
350
48DD
  0
XRECORD
  5
1E82
102
{ACAD_REACTORS
330
C
102
}
330
C
100
AcDbXrecord
280
     1
 90
   990106
  3

 60
     0
 61
     0
 62
     4
 63
     4
 64
     1
 65
     0
 66
     0
 67
     3
 68
     1
 69
     0
 70
     0
 71
     0
 72
     0
 40
0.0
170
     2
340
0
  0
DICTIONARY
  5
6F38
102
{ACAD_REACTORS
330
C
102
}
330
C
100
AcDbDictionary
281
     1
  0
DICTIONARY
  5
1488
102
{ACAD_REACTORS
330
C
102
}
330
C
100
AcDbDictionary
281
     1
  3
CTABLESTYLE
350
55C0
  3
DIMASSOC
350
47AE
  3
INDEXCTL
350
47AD
  3
PROJECTNAME
350
5BF5
  3
SORTENTS
350
1489
  0
DICTIONARY
  5
4725
102
{ACAD_REACTORS
330
C
102
}
330
C
100
AcDbDictionary
281
     1
  3
AcmStdDictionary
350
472B
  3
AMDTSECTSYM_ARROWCOLOR
350
5640
  0
DICTIONARY
  5
470C
102
{ACAD_REACTORS
330
C
102
}
330
C
100
AcDbDictionary
281
     1
  3
AcMgSettings
350
5E6C
  0
DICTIONARY
  5
4758
102
{ACAD_REACTORS
330
C
102
}
330
C
100
AcDbDictionary
281
     1
  0
XRECORD
  5
6F37
102
{ACAD_REACTORS
330
C
102
}
330
C
100
AcDbXrecord
280
     1
  1
DWGPROPS COOKIE
  2

  3

  4

  6

  7

  8

  9

300
AmdtFileType=84
301
=
302
=
303
=
304
=
305
=
306
=
307
=
308
=
309
=
 40
0.6625893634259259
 41
2452019.631085301
 42
2456885.44372522
  1

 90
        1
  0
DICTIONARY
  5
4A72
102
{ACAD_REACTORS
330
4A71
102
}
330
4A71
100
AcDbDictionary
281
     1
  0
DICTIONARY
  5
5DBD
102
{ACAD_REACTORS
330
4673
102
}
330
4673
100
AcDbDictionary
281
     1
  3
*A1
350
5DBE
  0
XRECORD
  5
48BD
102
{ACAD_REACTORS
330
4673
102
}
330
4673
100
AcDbXrecord
280
     1
340
1F
  0
SORTENTSTABLE
  5
6E9E
102
{ACAD_REACTORS
330
4673
102
}
330
4673
100
AcDbSortentsTable
330
1F
331
6BE1
  5
6BE1
331
6B06
  5
6B06
331
6AB1
  5
6AB1
331
6AC8
  5
6AC8
331
6A73
  5
6A73
331
6A54
  5
6A54
331
6A92
  5
6A92
331
6AE7
  5
6AE7
331
6BC2
  5
6BC2
331
6BC3
  5
6BC3
331
6AE8
  5
6AE8
331
6A93
  5
6A93
331
6A55
  5
6A55
331
6A74
  5
6A74
331
6AB2
  5
6AB2
331
6AC9
  5
6AC9
331
6B07
  5
6B07
331
6BE2
  5
6BE2
331
6BC4
  5
6BC4
331
6B08
  5
6B08
331
6BE3
  5
6BE3
331
6AB3
  5
6AB3
331
6ACA
  5
6ACA
331
6A75
  5
6A75
331
6A56
  5
6A56
331
6A94
  5
6A94
331
6AE9
  5
6AE9
331
6918
  5
6918
331
6BC5
  5
6BC5
331
6AEA
  5
6AEA
331
6A95
  5
6A95
331
6A57
  5
6A57
331
6A76
  5
6A76
331
6AB4
  5
6AB4
331
6ACB
  5
6ACB
331
6B09
  5
6B09
331
6BE4
  5
6BE4
331
6919
  5
6919
331
6938
  5
6938
331
6BC6
  5
6BC6
331
6B0A
  5
6B0A
331
6AB5
  5
6AB5
331
6ACC
  5
6ACC
331
6A77
  5
6A77
331
6A58
  5
6A58
331
6A96
  5
6A96
331
6AEB
  5
6AEB
331
6939
  5
6939
331
6950
  5
6950
331
691A
  5
691A
331
6B0B
  5
6B0B
331
6AEC
  5
6AEC
331
6BC7
  5
6BC7
331
6A97
  5
6A97
331
6A59
  5
6A59
331
10B3
  5
10B3
331
6A78
  5
6A78
331
6AB6
  5
6AB6
331
6ACD
  5
6ACD
331
6951
  5
6951
331
6970
  5
6970
331
691B
  5
691B
331
693A
  5
693A
331
6BC8
  5
6BC8
331
6B0C
  5
6B0C
331
6AB7
  5
6AB7
331
6ACE
  5
6ACE
331
6A79
  5
6A79
331
6A5A
  5
6A5A
331
6A98
  5
6A98
331
6AED
  5
6AED
331
6971
  5
6971
331
691C
  5
691C
331
693B
  5
693B
331
6952
  5
6952
331
6990
  5
6990
331
6B0D
  5
6B0D
331
6ACF
  5
6ACF
331
6A99
  5
6A99
331
6AEE
  5
6AEE
331
6BC9
  5
6BC9
331
6A5B
  5
6A5B
331
6A7A
  5
6A7A
331
6991
  5
6991
331
6953
  5
6953
331
6972
  5
6972
331
69B0
  5
69B0
331
691D
  5
691D
331
693C
  5
693C
331
6BCA
  5
6BCA
331
6B0E
  5
6B0E
331
6AD0
  5
6AD0
331
6A7B
  5
6A7B
331
6A5C
  5
6A5C
331
6A9A
  5
6A9A
331
6AEF
  5
6AEF
331
69B1
  5
69B1
331
69C8
  5
69C8
331
6973
  5
6973
331
691E
  5
691E
331
693D
  5
693D
331
6954
  5
6954
331
6992
  5
6992
331
6C31
  5
6C31
331
6B0F
  5
6B0F
331
6AD1
  5
6AD1
331
6A9B
  5
6A9B
331
6AF0
  5
6AF0
331
6BCB
  5
6BCB
331
6A5D
  5
6A5D
331
6A7C
  5
6A7C
331
69E8
  5
69E8
331
6993
  5
6993
331
693E
  5
693E
331
6955
  5
6955
331
6974
  5
6974
331
691F
  5
691F
331
69B2
  5
69B2
331
69C9
  5
69C9
331
6C32
  5
6C32
331
6BCC
  5
6BCC
331
6AF1
  5
6AF1
331
6A9C
  5
6A9C
331
6A7D
  5
6A7D
331
6AD2
  5
6AD2
331
6B10
  5
6B10
331
6A5E
  5
6A5E
331
6A08
  5
6A08
331
69B3
  5
69B3
331
69CA
  5
69CA
331
69E9
  5
69E9
331
6975
  5
6975
331
6920
  5
6920
331
693F
  5
693F
331
6956
  5
6956
331
6994
  5
6994
331
6C33
  5
6C33
331
6B11
  5
6B11
331
6AD3
  5
6AD3
331
6A9D
  5
6A9D
331
6AF2
  5
6AF2
331
6BCD
  5
6BCD
331
6A5F
  5
6A5F
331
6A7E
  5
6A7E
331
6A28
  5
6A28
331
69EA
  5
69EA
331
6995
  5
6995
331
6940
  5
6940
331
6957
  5
6957
331
6976
  5
6976
331
6921
  5
6921
331
69B4
  5
69B4
331
69CB
  5
69CB
331
6A09
  5
6A09
331
6C34
  5
6C34
331
6AF3
  5
6AF3
331
6BCE
  5
6BCE
331
6A9E
  5
6A9E
331
6A7F
  5
6A7F
331
6AD4
  5
6AD4
331
6A0A
  5
6A0A
331
69B5
  5
69B5
331
69CC
  5
69CC
331
69EB
  5
69EB
331
6977
  5
6977
331
6922
  5
6922
331
6941
  5
6941
331
6958
  5
6958
331
6996
  5
6996
331
6A29
  5
6A29
331
1808
  5
1808
331
6C35
  5
6C35
331
6AD5
  5
6AD5
331
6A9F
  5
6A9F
331
6AF4
  5
6AF4
331
6BCF
  5
6BCF
331
6A0B
  5
6A0B
331
69EC
  5
69EC
331
6A2A
  5
6A2A
331
6997
  5
6997
331
6942
  5
6942
331
6959
  5
6959
331
6923
  5
6923
331
6978
  5
6978
331
69B6
  5
69B6
331
69CD
  5
69CD
331
6D78
  5
6D7B
331
1878
  5
1878
331
1809
  5
1809
331
6C36
  5
6C36
331
6AF5
  5
6AF5
331
6BD0
  5
6BD0
331
6AD6
  5
6AD6
331
6A0C
  5
6A0C
331
69B7
  5
69B7
331
69CE
  5
69CE
331
69ED
  5
69ED
331
6979
  5
6979
331
6924
  5
6924
331
6943
  5
6943
331
695A
  5
695A
331
6998
  5
6998
331
6A2B
  5
6A2B
331
180A
  5
180A
331
1879
  5
1879
331
6C37
  5
6C37
331
6AD7
  5
6AD7
331
6AF6
  5
6AF6
331
6BD1
  5
6BD1
331
6D7A
  5
6D7C
331
6A0D
  5
6A0D
331
69CF
  5
69CF
331
69EE
  5
69EE
331
6A2C
  5
6A2C
331
6999
  5
6999
331
6944
  5
6944
331
695B
  5
695B
331
6925
  5
6925
331
697A
  5
697A
331
69B8
  5
69B8
331
187A
  5
187A
331
17B4
  5
17B4
331
180B
  5
180B
331
6C38
  5
6C38
331
6AF7
  5
6AF7
331
6BD2
  5
6BD2
331
6A2D
  5
6A2D
331
6D7B
  5
6D7D
331
6A0E
  5
6A0E
331
69B9
  5
69B9
331
69D0
  5
69D0
331
69EF
  5
69EF
331
697B
  5
697B
331
6926
  5
6926
331
6945
  5
6945
331
695C
  5
695C
331
699A
  5
699A
331
180C
  5
180C
331
187B
  5
187B
331
17B5
  5
17B5
331
6BD3
  5
6BD3
331
6D7C
  5
6E28
331
6A0F
  5
6A0F
331
69D1
  5
69D1
331
69F0
  5
69F0
331
6A2E
  5
6A2E
331
699B
  5
699B
331
6946
  5
6946
331
695D
  5
695D
331
6927
  5
6927
331
697C
  5
697C
331
69BA
  5
69BA
331
187C
  5
187C
331
180D
  5
180D
331
6C3A
  5
6C3A
331
6BD4
  5
6BD4
331
6A2F
  5
6A2F
331
6D7D
  5
6E46
331
69F1
  5
69F1
331
699C
  5
699C
331
697D
  5
697D
331
69BB
  5
69BB
331
69D2
  5
69D2
331
6A10
  5
6A10
331
6928
  5
6928
331
6947
  5
6947
331
695E
  5
695E
331
180E
  5
180E
331
187D
  5
187D
331
6BD5
  5
6BD5
331
6C3B
  5
6C3B
331
6A11
  5
6A11
331
69D3
  5
69D3
331
69F2
  5
69F2
331
6A30
  5
6A30
331
699D
  5
699D
331
6948
  5
6948
331
695F
  5
695F
331
6929
  5
6929
331
697E
  5
697E
331
69BC
  5
69BC
331
187E
  5
187E
331
180F
  5
180F
331
6C3C
  5
6C3C
331
6BD6
  5
6BD6
331
6A31
  5
6A31
331
69F3
  5
69F3
331
699E
  5
699E
331
6960
  5
6960
331
697F
  5
697F
331
69BD
  5
69BD
331
69D4
  5
69D4
331
6A12
  5
6A12
331
692A
  5
692A
331
6949
  5
6949
331
1810
  5
1810
331
187F
  5
187F
331
6BD7
  5
6BD7
331
6C3D
  5
6C3D
331
6A13
  5
6A13
331
69BE
  5
69BE
331
69D5
  5
69D5
331
699F
  5
699F
331
69F4
  5
69F4
331
6A32
  5
6A32
331
6EA0
  5
6E8B
331
694A
  5
694A
331
6961
  5
6961
331
692B
  5
692B
331
6980
  5
6980
331
1880
  5
1880
331
18E7
  5
18E7
331
6C3E
  5
6C3E
331
6A33
  5
6A33
331
69F5
  5
69F5
331
69A0
  5
69A0
331
6962
  5
6962
331
6981
  5
6981
331
69BF
  5
69BF
331
69D6
  5
69D6
331
6A14
  5
6A14
331
692C
  5
692C
331
694B
  5
694B
331
1881
  5
1881
331
5798
  5
5798
331
6A15
  5
6A15
331
69C0
  5
69C0
331
69D7
  5
69D7
331
6982
  5
6982
331
692D
  5
692D
331
694C
  5
694C
331
6963
  5
6963
331
69A1
  5
69A1
331
69F6
  5
69F6
331
6A34
  5
6A34
331
1882
  5
1882
331
5799
  5
5799
331
57B0
  5
57B0
331
6A35
  5
6A35
331
69F7
  5
69F7
331
69A2
  5
69A2
331
6964
  5
6964
331
6983
  5
6983
331
69C1
  5
69C1
331
69D8
  5
69D8
331
6A16
  5
6A16
331
692E
  5
692E
331
694D
  5
694D
331
57B1
  5
57B1
331
57D0
  5
57D0
331
18EA
  5
18EA
331
17BD
  5
17BD
331
1883
  5
1883
331
579A
  5
579A
331
6A17
  5
6A17
331
69C2
  5
69C2
331
69D9
  5
69D9
331
6984
  5
6984
331
692F
  5
692F
331
694E
  5
694E
331
6965
  5
6965
331
69A3
  5
69A3
331
69F8
  5
69F8
331
6A36
  5
6A36
331
57D1
  5
57D1
331
579B
  5
579B
331
17BE
  5
17BE
331
57B2
  5
57B2
331
6A37
  5
6A37
331
69F9
  5
69F9
331
69A4
  5
69A4
331
694F
  5
694F
331
6966
  5
6966
331
6930
  5
6930
331
6985
  5
6985
331
69C3
  5
69C3
331
69DA
  5
69DA
331
6A18
  5
6A18
331
1885
  5
1885
331
579C
  5
579C
331
17BF
  5
17BF
331
57B3
  5
57B3
331
57D2
  5
57D2
331
6A19
  5
6A19
331
69C4
  5
69C4
331
69DB
  5
69DB
331
6986
  5
6986
331
6931
  5
6931
331
6912
  5
6912
331
6967
  5
6967
331
69A5
  5
69A5
331
69FA
  5
69FA
331
6A38
  5
6A38
331
57D3
  5
57D3
331
1886
  5
1886
331
579D
  5
579D
331
57B4
  5
57B4
331
6E88
  5
6E8C
331
6A39
  5
6A39
331
69FB
  5
69FB
331
69A6
  5
69A6
331
6968
  5
6968
331
6913
  5
6913
331
6932
  5
6932
331
6987
  5
6987
331
69C5
  5
69C5
331
69DC
  5
69DC
331
6A1A
  5
6A1A
331
1887
  5
1887
331
579E
  5
579E
331
57B5
  5
57B5
331
1868
  5
1868
331
57D4
  5
57D4
331
6E89
  5
6E8D
331
6A1B
  5
6A1B
331
69C6
  5
69C6
331
69DD
  5
69DD
331
6988
  5
6988
331
6933
  5
6933
331
6914
  5
6914
331
6969
  5
6969
331
69A7
  5
69A7
331
69FC
  5
69FC
331
6A3A
  5
6A3A
331
57D5
  5
57D5
331
1869
  5
1869
331
1888
  5
1888
331
579F
  5
579F
331
6E8A
  5
6E8E
331
6A1C
  5
6A1C
331
69FD
  5
69FD
331
6A3B
  5
6A3B
331
69A8
  5
69A8
331
696A
  5
696A
331
6915
  5
6915
331
6934
  5
6934
331
6989
  5
6989
331
69C7
  5
69C7
331
69DE
  5
69DE
331
1889
  5
1889
331
57A0
  5
57A0
331
17C3
  5
17C3
331
186A
  5
186A
331
57D6
  5
57D6
331
6E8B
  5
6E8F
331
6A1D
  5
6A1D
331
69DF
  5
69DF
331
698A
  5
698A
331
6935
  5
6935
331
6916
  5
6916
331
696B
  5
696B
331
69A9
  5
69A9
331
69FE
  5
69FE
331
6A3C
  5
6A3C
331
57D7
  5
57D7
331
186B
  5
186B
331
188A
  5
188A
331
57A1
  5
57A1
331
17C4
  5
17C4
331
6E8C
  5
6E90
331
6A1E
  5
6A1E
331
69E0
  5
69E0
331
69AA
  5
69AA
331
69FF
  5
69FF
331
6A3D
  5
6A3D
331
696C
  5
696C
331
6917
  5
6917
331
6936
  5
6936
331
698B
  5
698B
331
6E46
  5
6E48
331
57D8
  5
57D8
331
188B
  5
188B
331
57B9
  5
57B9
331
17C5
  5
17C5
331
186C
  5
186C
331
6A3E
  5
6A3E
331
6E47
  5
6E49
331
6A1F
  5
6A1F
331
6E8D
  5
6E91
331
69E1
  5
69E1
331
698C
  5
698C
331
6937
  5
6937
331
696D
  5
696D
331
69AB
  5
69AB
331
6A00
  5
6A00
331
5784
  5
5784
331
186D
  5
186D
331
188C
  5
188C
331
17C6
  5
17C6
331
6E48
  5
6E4A
331
6E8E
  5
6E92
331
6A20
  5
6A20
331
69E2
  5
69E2
331
69AC
  5
69AC
331
6A01
  5
6A01
331
6A3F
  5
6A3F
331
696E
  5
696E
331
698D
  5
698D
331
188D
  5
188D
331
17C7
  5
17C7
331
186E
  5
186E
331
5785
  5
5785
331
6A02
  5
6A02
331
69AD
  5
69AD
331
698E
  5
698E
331
69E3
  5
69E3
331
6A21
  5
6A21
331
6E49
  5
6E4B
331
6E8F
  5
6E93
331
696F
  5
696F
331
5786
  5
5786
331
186F
  5
186F
331
188E
  5
188E
331
57A5
  5
57A5
331
6A22
  5
6A22
331
6E4A
  5
6E4C
331
6E90
  5
6E94
331
69E4
  5
69E4
331
69AE
  5
69AE
331
6A03
  5
6A03
331
698F
  5
698F
331
57BD
  5
57BD
331
188F
  5
188F
331
1870
  5
1870
331
5787
  5
5787
331
6A04
  5
6A04
331
69AF
  5
69AF
331
69E5
  5
69E5
331
6A23
  5
6A23
331
6E4B
  5
6E88
331
6E91
  5
6E95
331
5788
  5
5788
331
1802
  5
1802
331
1871
  5
1871
331
1890
  5
1890
331
6A24
  5
6A24
331
6E92
  5
6E96
331
69E6
  5
69E6
331
6A05
  5
6A05
331
1891
  5
1891
331
1803
  5
1803
331
1872
  5
1872
331
5789
  5
5789
331
6A06
  5
6A06
331
69E7
  5
69E7
331
6A25
  5
6A25
331
6E93
  5
6E97
331
1804
  5
1804
331
1873
  5
1873
331
578A
  5
578A
331
57A9
  5
57A9
331
6E94
  5
6E98
331
6A26
  5
6A26
331
6A07
  5
6A07
331
6D74
  5
6D76
331
1874
  5
1874
331
578B
  5
578B
331
57AA
  5
57AA
331
1805
  5
1805
331
57C1
  5
57C1
331
6E95
  5
6E9C
331
6D75
  5
6D77
331
6A27
  5
6A27
331
6E28
  5
6E47
331
57C2
  5
57C2
331
1806
  5
1806
331
1875
  5
1875
331
578C
  5
578C
331
6E96
  5
6E9D
331
6D76
  5
6D78
331
A9
  5
A9
331
1876
  5
1876
331
578D
  5
578D
331
1807
  5
1807
331
57C3
  5
57C3
331
6D77
  5
6D7A
331
6E97
  5
6E9F
331
6A40
  5
6A40
331
AA
  5
AA
331
1877
  5
1877
331
578E
  5
578E
331
6E98
  5
6EA0
331
6A60
  5
6A60
331
6A41
  5
6A41
331
578F
  5
578F
331
57AE
  5
57AE
331
AB
  5
AB
331
6A80
  5
6A80
331
6A42
  5
6A42
331
57AF
  5
57AF
331
AC
  5
AC
331
6A61
  5
6A61
331
5790
  5
5790
331
6AA0
  5
6AA0
331
6A62
  5
6A62
331
57C7
  5
57C7
331
5791
  5
5791
331
6A43
  5
6A43
331
6A81
  5
6A81
331
6A82
  5
6A82
331
6A44
  5
6A44
331
57C8
  5
57C8
331
6A63
  5
6A63
331
6AA1
  5
6AA1
331
5792
  5
5792
331
6AB8
  5
6AB8
331
6E9C
  5
6D74
331
6AA2
  5
6AA2
331
6AB9
  5
6AB9
331
6AD8
  5
6AD8
331
6A64
  5
6A64
331
57C9
  5
57C9
331
5793
  5
5793
331
6A45
  5
6A45
331
6A83
  5
6A83
331
6E9D
  5
6D75
331
6AD9
  5
6AD9
331
6A84
  5
6A84
331
6A46
  5
6A46
331
57CA
  5
57CA
331
6A65
  5
6A65
331
6AA3
  5
6AA3
331
5794
  5
5794
331
6ABA
  5
6ABA
331
6AF8
  5
6AF8
331
6AF9
  5
6AF9
331
6AA4
  5
6AA4
331
6ABB
  5
6ABB
331
6ADA
  5
6ADA
331
6A66
  5
6A66
331
B1
  5
B1
331
57CB
  5
57CB
331
5795
  5
5795
331
6A47
  5
6A47
331
6A85
  5
6A85
331
6E9F
  5
6E8A
331
6AFA
  5
6AFA
331
6ADB
  5
6ADB
331
6A86
  5
6A86
331
6A48
  5
6A48
331
B2
  5
B2
331
57CC
  5
57CC
331
6A67
  5
6A67
331
6AA5
  5
6AA5
331
5796
  5
5796
331
6ABC
  5
6ABC
331
6AFB
  5
6AFB
331
6AA6
  5
6AA6
331
6ABD
  5
6ABD
331
6ADC
  5
6ADC
331
6A68
  5
6A68
331
57CD
  5
57CD
331
5797
  5
5797
331
6A49
  5
6A49
331
6A87
  5
6A87
331
6AFC
  5
6AFC
331
6ABE
  5
6ABE
331
6ADD
  5
6ADD
331
6A88
  5
6A88
331
6A4A
  5
6A4A
331
57CE
  5
57CE
331
6A69
  5
6A69
331
6AA7
  5
6AA7
331
6AFD
  5
6AFD
331
6BD8
  5
6BD8
331
6AA8
  5
6AA8
331
6ABF
  5
6ABF
331
6ADE
  5
6ADE
331
6A6A
  5
6A6A
331
5CCE
  5
5CCE
331
57CF
  5
57CF
331
6A4B
  5
6A4B
331
6A89
  5
6A89
331
6AFE
  5
6AFE
331
6BD9
  5
6BD9
331
6AC0
  5
6AC0
331
6ADF
  5
6ADF
331
6A8A
  5
6A8A
331
6A4C
  5
6A4C
331
6A6B
  5
6A6B
331
6AA9
  5
6AA9
331
6AE0
  5
6AE0
331
6A8B
  5
6A8B
331
6A6C
  5
6A6C
331
6AAA
  5
6AAA
331
6AC1
  5
6AC1
331
6AFF
  5
6AFF
331
6BDA
  5
6BDA
331
6A4D
  5
6A4D
331
6B00
  5
6B00
331
6BDB
  5
6BDB
331
6AC2
  5
6AC2
331
6AE1
  5
6AE1
331
6A8C
  5
6A8C
331
6A4E
  5
6A4E
331
6A6D
  5
6A6D
331
6AAB
  5
6AAB
331
6AE2
  5
6AE2
331
6A8D
  5
6A8D
331
6A4F
  5
6A4F
331
6A6E
  5
6A6E
331
6AAC
  5
6AAC
331
6AC3
  5
6AC3
331
6B01
  5
6B01
331
6BDC
  5
6BDC
331
6BDD
  5
6BDD
331
6B02
  5
6B02
331
6AAD
  5
6AAD
331
6AC4
  5
6AC4
331
6A8E
  5
6A8E
331
6AE3
  5
6AE3
331
6BBE
  5
6BBE
331
6A50
  5
6A50
331
6A6F
  5
6A6F
331
6BBF
  5
6BBF
331
6AE4
  5
6AE4
331
6A8F
  5
6A8F
331
6A51
  5
6A51
331
6A70
  5
6A70
331
6AAE
  5
6AAE
331
6AC5
  5
6AC5
331
6B03
  5
6B03
331
6BDE
  5
6BDE
331
6BDF
  5
6BDF
331
6B04
  5
6B04
331
6AAF
  5
6AAF
331
6AC6
  5
6AC6
331
6A71
  5
6A71
331
6A52
  5
6A52
331
6A90
  5
6A90
331
6AE5
  5
6AE5
331
6BC0
  5
6BC0
331
6BC1
  5
6BC1
331
6AE6
  5
6AE6
331
6A91
  5
6A91
331
6A53
  5
6A53
331
6A72
  5
6A72
331
6AB0
  5
6AB0
331
6AC7
  5
6AC7
331
6B05
  5
6B05
331
6BE0
  5
6BE0
  0
XRECORD
  5
48BC
102
{ACAD_REACTORS
330
4675
102
}
330
4675
100
AcDbXrecord
280
     1
340
1B
  0
XRECORD
  5
48BE
102
{ACAD_REACTORS
330
4677
102
}
330
4677
100
AcDbXrecord
280
     1
340
23
  0
SORTENTSTABLE
  5
62C9
102
{ACAD_REACTORS
330
5DC7
102
}
330
5DC7
100
AcDbSortentsTable
330
5DC6
  0
LAYOUT
  5
1E
102
{ACAD_XDICTIONARY
360
6F39
102
}
102
{ACAD_REACTORS
330
1A
102
}
330
1A
100
AcDbPlotSettings
  1

  2

  4

  6

 40
0.0
 41
0.0
 42
0.0
 43
0.0
 44
0.0
 45
0.0
 46
0.0
 47
0.0
 48
0.0
 49
0.0
140
0.0
141
0.0
142
1.0
143
1.0
 70
   688
 72
     0
 73
     0
 74
     5
  7

 75
    16
147
1.0
148
0.0
149
0.0
100
AcDbLayout
  1
Layout1
 70
     1
 71
     1
 10
0.0
 20
0.0
 11
12.0
 21
9.0
 12
0.0
 22
0.0
 32
0.0
 14
1.000000000000000E+20
 24
1.000000000000000E+20
 34
1.000000000000000E+20
 15
-1.000000000000000E+20
 25
-1.000000000000000E+20
 35
-1.000000000000000E+20
146
0.0
 13
0.0
 23
0.0
 33
0.0
 16
1.0
 26
0.0
 36
0.0
 17
0.0
 27
1.0
 37
0.0
 76
     0
330
1B
  0
LAYOUT
  5
26
102
{ACAD_XDICTIONARY
360
6F3D
102
}
102
{ACAD_REACTORS
330
1A
102
}
330
1A
100
AcDbPlotSettings
  1

  2

  4

  6

 40
0.0
 41
0.0
 42
0.0
 43
0.0
 44
0.0
 45
0.0
 46
0.0
 47
0.0
 48
0.0
 49
0.0
140
0.0
141
0.0
142
1.0
143
1.0
 70
   688
 72
     0
 73
     0
 74
     5
  7

 75
    16
147
1.0
148
0.0
149
0.0
100
AcDbLayout
  1
Layout2
 70
     1
 71
     2
 10
0.0
 20
0.0
 11
12.0
 21
9.0
 12
0.0
 22
0.0
 32
0.0
 14
0.0
 24
0.0
 34
0.0
 15
0.0
 25
0.0
 35
0.0
146
0.0
 13
0.0
 23
0.0
 33
0.0
 16
1.0
 26
0.0
 36
0.0
 17
0.0
 27
1.0
 37
0.0
 76
     0
330
23
  0
LAYOUT
  5
22
102
{ACAD_XDICTIONARY
360
6F3B
102
}
102
{ACAD_REACTORS
330
1A
102
}
330
1A
100
AcDbPlotSettings
  1

  2
DWF Classic.pc3
  4
ISO_A3_(420.00_x_297.00_MM)
  6

 40
5.793749809265136
 41
17.79375076293945
 42
5.79376220703125
 43
17.79376220703125
 44
420.0
 45
297.0
 46
31.5
 47
0.0
 48
0.0
 49
0.0
140
0.0
141
0.0
142
1.0
143
1.040956525863997
 70
 11956
 72
     1
 73
     1
 74
     1
  7

 75
     0
147
0.9606549122404478
148
0.4787910136826668
149
0.4766328058566387
100
AcDbLayout
  1
Model
 70
     1
 71
     0
 10
0.0
 20
0.0
 11
12.0
 21
9.0
 12
0.0
 22
0.0
 32
0.0
 14
0.0
 24
0.0
 34
0.0
 15
0.0
 25
0.0
 35
0.0
146
0.0
 13
0.0
 23
0.0
 33
0.0
 16
1.0
 26
0.0
 36
0.0
 17
0.0
 27
1.0
 37
0.0
 76
     0
330
1F
  0
MLINESTYLE
  5
18
102
{ACAD_REACTORS
330
17
102
}
330
17
100
AcDbMlineStyle
  2
STANDARD
 70
     0
  3

 62
   256
 51
90.0
 52
90.0
 71
     2
 49
0.5
 62
   256
  6
BYLAYER
 49
-0.5
 62
   256
  6
BYLAYER
  0
ACDBPLACEHOLDER
  5
F
102
{ACAD_REACTORS
330
E
102
}
330
E
  0
TABLESTYLE
  5
48DD
102
{ACAD_REACTORS
330
48DC
102
}
330
48DC
100
AcDbTableStyle
  3
Standard
 70
     0
 71
     0
 40
1.5
 41
1.5
280
     0
281
     0
  7
Standard
140
4.5
170
     2
 62
     0
 63
     7
283
     0
274
    -2
284
     1
 64
     0
275
    -2
285
     1
 65
     0
276
    -2
286
     1
 66
     0
277
    -2
287
     1
 67
     0
278
    -2
288
     1
 68
     0
279
    -2
289
     1
 69
     0
  7
Standard
140
6.0
170
     5
 62
     0
 63
     7
283
     0
274
    -2
284
     1
 64
     0
275
    -2
285
     1
 65
     0
276
    -2
286
     1
 66
     0
277
    -2
287
     1
 67
     0
278
    -2
288
     1
 68
     0
279
    -2
289
     1
 69
     0
  7
Standard
140
4.5
170
     5
 62
     0
 63
     7
283
     0
274
    -2
284
     1
 64
     0
275
    -2
285
     1
 65
     0
276
    -2
286
     1
 66
     0
277
    -2
287
     1
 67
     0
278
    -2
288
     1
 68
     0
279
    -2
289
     1
 69
     0
  0
DICTIONARYVAR
  5
55C0
102
{ACAD_REACTORS
330
1488
102
}
330
1488
100
DictionaryVariables
280
     0
  1
STANDARD
  0
DICTIONARYVAR
  5
47AE
102
{ACAD_REACTORS
330
1488
102
}
330
1488
100
DictionaryVariables
280
     0
  1
1
  0
DICTIONARYVAR
  5
47AD
102
{ACAD_REACTORS
330
1488
102
}
330
1488
100
DictionaryVariables
280
     0
  1
1
  0
DICTIONARYVAR
  5
5BF5
102
{ACAD_REACTORS
330
1488
102
}
330
1488
100
DictionaryVariables
280
     0
  1

  0
DICTIONARYVAR
  5
1489
102
{ACAD_REACTORS
330
1488
102
}
330
1488
100
DictionaryVariables
280
     0
  1
96
  0
DICTIONARY
  5
472B
102
{ACAD_REACTORS
330
4725
102
}
330
4725
100
AcDbDictionary
281
     1
  0
XRECORD
  5
5640
102
{ACAD_REACTORS
330
4725
102
}
330
4725
100
AcDbXrecord
280
     1
 90
-1023410169
  0
DICTIONARY
  5
5E6C
102
{ACAD_REACTORS
330
470C
102
}
330
470C
100
AcDbDictionary
281
     1
  3
DWGSETTINGS
350
5E6D
  3
TRANSSETTINGS
350
5E70
  0
LAYER_INDEX
  5
5DBE
102
{ACAD_REACTORS
330
5DBD
102
}
330
5DBD
100
AcDbIndex
 40
2456885.44372522
100
AcDbLayerIndex
  8
0
360
5DBF
 90
      538
  8
DIM
360
5DC0
 90
       39
  8
CENTER
360
5DC1
 90
       42
  8
LOGO
360
5DC2
 90
      127
  8
Defpoints
360
5DC3
 90
        0
  8
AM_7
360
5DEB
 90
        2
  8
AM_5
360
5DEC
 90
        0
  0
DICTIONARY
  5
6F39
330
1E
100
AcDbDictionary
280
     1
281
     1
  3
ACAD_XREC_ROUNDTRIP
360
6F3A
  0
DICTIONARY
  5
6F3D
330
26
100
AcDbDictionary
280
     1
281
     1
  3
ACAD_XREC_ROUNDTRIP
360
6F3E
  0
DICTIONARY
  5
6F3B
330
22
100
AcDbDictionary
280
     1
281
     1
  3
ACAD_XREC_ROUNDTRIP
360
6F3C
  0
IDBUFFER
  5
5DBF
330
0
100
AcDbIdBuffer
330
A9
330
AA
330
AB
330
AC
330
B1
330
B2
330
10B3
330
17B4
330
17B5
330
17BF
330
18E7
330
18EA
330
57D9
330
57DA
330
57DB
330
5CCE
330
6912
330
6913
330
6914
330
6915
330
6916
330
6917
330
6918
330
6919
330
691A
330
691B
330
691C
330
691D
330
691E
330
691F
330
6920
330
6921
330
6922
330
6923
330
6924
330
6925
330
6926
330
6927
330
6928
330
6929
330
692A
330
692B
330
692C
330
692D
330
692E
330
692F
330
6930
330
6931
330
6932
330
6933
330
6934
330
6935
330
6936
330
6937
330
6938
330
6939
330
693A
330
693B
330
693C
330
693D
330
693E
330
693F
330
6940
330
6941
330
6942
330
6943
330
6944
330
6945
330
6946
330
6947
330
6948
330
6949
330
694A
330
694B
330
694C
330
694D
330
694E
330
694F
330
6950
330
6951
330
6952
330
6953
330
6954
330
6955
330
6956
330
6957
330
6958
330
6959
330
695A
330
695B
330
695C
330
695D
330
695E
330
695F
330
6960
330
6961
330
6962
330
6963
330
6964
330
6965
330
6966
330
6967
330
6968
330
6969
330
696A
330
696B
330
696C
330
696D
330
696E
330
696F
330
6970
330
6971
330
6972
330
6973
330
6974
330
6975
330
6976
330
6977
330
6978
330
6979
330
697A
330
697B
330
697C
330
697D
330
697E
330
697F
330
6980
330
6981
330
6982
330
6983
330
6984
330
6985
330
6986
330
6987
330
6988
330
6989
330
698A
330
698B
330
698C
330
698D
330
698E
330
698F
330
6990
330
6991
330
6992
330
6993
330
6994
330
6995
330
6996
330
6997
330
6998
330
6999
330
699A
330
699B
330
699C
330
699D
330
699E
330
699F
330
69A0
330
69A1
330
69A2
330
69A3
330
69A4
330
69A5
330
69A6
330
69A7
330
69A8
330
69A9
330
69AA
330
69AB
330
69AC
330
69AD
330
69AE
330
69AF
330
69B0
330
69B1
330
69B2
330
69B3
330
69B4
330
69B5
330
69B6
330
69B7
330
69B8
330
69B9
330
69BA
330
69BB
330
69BC
330
69BD
330
69BE
330
69BF
330
69C0
330
69C1
330
69C2
330
69C3
330
69C4
330
69C5
330
69C6
330
69C7
330
69C8
330
69C9
330
69CA
330
69CB
330
69CC
330
69CD
330
69CE
330
69CF
330
69D0
330
69D1
330
69D2
330
69D3
330
69D4
330
69D5
330
69D6
330
69D7
330
69D8
330
69D9
330
69DA
330
69DB
330
69DC
330
69DD
330
69DE
330
69DF
330
69E0
330
69E1
330
69E2
330
69E3
330
69E4
330
69E5
330
69E6
330
69E7
330
69E8
330
69E9
330
69EA
330
69EB
330
69EC
330
69ED
330
69EE
330
69EF
330
69F0
330
69F1
330
69F2
330
69F3
330
69F4
330
69F5
330
69F6
330
69F7
330
69F8
330
69F9
330
69FA
330
69FB
330
69FC
330
69FD
330
69FE
330
69FF
330
6A00
330
6A01
330
6A02
330
6A03
330
6A04
330
6A05
330
6A06
330
6A07
330
6A08
330
6A09
330
6A0A
330
6A0B
330
6A0C
330
6A0D
330
6A0E
330
6A0F
330
6A10
330
6A11
330
6A12
330
6A13
330
6A14
330
6A15
330
6A16
330
6A17
330
6A18
330
6A19
330
6A1A
330
6A1B
330
6A1C
330
6A1D
330
6A1E
330
6A1F
330
6A20
330
6A21
330
6A22
330
6A23
330
6A24
330
6A25
330
6A26
330
6A27
330
6A28
330
6A29
330
6A2A
330
6A2B
330
6A2C
330
6A2D
330
6A2E
330
6A2F
330
6A30
330
6A31
330
6A32
330
6A33
330
6A34
330
6A35
330
6A36
330
6A37
330
6A38
330
6A39
330
6A3A
330
6A3B
330
6A3C
330
6A3D
330
6A3E
330
6A3F
330
6A40
330
6A41
330
6A42
330
6A43
330
6A44
330
6A45
330
6A46
330
6A47
330
6A48
330
6A49
330
6A4A
330
6A4B
330
6A4C
330
6A4D
330
6A4E
330
6A4F
330
6A50
330
6A51
330
6A52
330
6A53
330
6A54
330
6A55
330
6A56
330
6A57
330
6A58
330
6A59
330
6A5A
330
6A5B
330
6A5C
330
6A5D
330
6A5E
330
6A5F
330
6A60
330
6A61
330
6A62
330
6A63
330
6A64
330
6A65
330
6A66
330
6A67
330
6A68
330
6A69
330
6A6A
330
6A6B
330
6A6C
330
6A6D
330
6A6E
330
6A6F
330
6A70
330
6A71
330
6A72
330
6A73
330
6A74
330
6A75
330
6A76
330
6A77
330
6A78
330
6A79
330
6A7A
330
6A7B
330
6A7C
330
6A7D
330
6A7E
330
6A7F
330
6A80
330
6A81
330
6A82
330
6A83
330
6A84
330
6A85
330
6A86
330
6A87
330
6A88
330
6A89
330
6A8A
330
6A8B
330
6A8C
330
6A8D
330
6A8E
330
6A8F
330
6A90
330
6A91
330
6A92
330
6A93
330
6A94
330
6A95
330
6A96
330
6A97
330
6A98
330
6A99
330
6A9A
330
6A9B
330
6A9C
330
6A9D
330
6A9E
330
6A9F
330
6AA0
330
6AA1
330
6AA2
330
6AA3
330
6AA4
330
6AA5
330
6AA6
330
6AA7
330
6AA8
330
6AA9
330
6AAA
330
6AAB
330
6AAC
330
6AAD
330
6AAE
330
6AAF
330
6AB0
330
6AB1
330
6AB2
330
6AB3
330
6AB4
330
6AB5
330
6AB6
330
6AB7
330
6AB8
330
6AB9
330
6ABA
330
6ABB
330
6ABC
330
6ABD
330
6ABE
330
6ABF
330
6AC0
330
6AC1
330
6AC2
330
6AC3
330
6AC4
330
6AC5
330
6AC6
330
6AC7
330
6AC8
330
6AC9
330
6ACA
330
6ACB
330
6ACC
330
6ACD
330
6ACE
330
6ACF
330
6AD0
330
6AD1
330
6AD2
330
6AD3
330
6AD4
330
6AD5
330
6AD6
330
6AD7
330
6AD8
330
6AD9
330
6ADA
330
6ADB
330
6ADC
330
6ADD
330
6ADE
330
6ADF
330
6AE0
330
6AE1
330
6AE2
330
6AE3
330
6AE4
330
6AE5
330
6AE6
330
6AE7
330
6AE8
330
6AE9
330
6AEA
330
6AEB
330
6AEC
330
6AED
330
6AEE
330
6AEF
330
6AF0
330
6AF1
330
6AF2
330
6AF3
330
6AF4
330
6AF5
330
6AF6
330
6AF7
330
6AF8
330
6AF9
330
6AFA
330
6AFB
330
6AFC
330
6AFD
330
6AFE
330
6AFF
330
6B00
330
6B01
330
6B02
330
6B03
330
6B04
330
6B05
330
6B06
330
6B07
330
6B08
330
6B09
330
6BBE
330
6BC5
330
6BC8
330
6BCB
330
6BCE
330
6BD1
330
6BD4
330
6BD7
330
6BDA
330
6BDE
330
6BE2
330
6BE3
330
6BE4
330
6C32
330
6C3B
330
6E88
330
6F10
330
6F14
  0
IDBUFFER
  5
5DC0
330
0
100
AcDbIdBuffer
330
6B0A
330
6B0B
330
6B0C
330
6B0D
330
6B0E
330
6B0F
330
6B10
330
6B11
330
6C33
330
6C34
330
6C35
330
6C36
330
6C37
330
6C38
330
6C3C
330
6C3D
330
6C3E
330
6D74
330
6D75
330
6D76
330
6D77
330
6D78
330
6D7A
330
6D7B
330
6D7C
330
6D7D
330
6E28
330
6E46
330
6E47
330
6E48
330
6E49
330
6E4A
330
6E4B
330
6E9C
330
6E9D
330
6E9F
330
6EA0
330
6EA3
330
6ED4
  0
IDBUFFER
  5
5DC1
330
0
100
AcDbIdBuffer
330
6BBF
330
6BC0
330
6BC1
330
6BC2
330
6BC3
330
6BC4
330
6BC6
330
6BC7
330
6BC9
330
6BCA
330
6BCC
330
6BCD
330
6BCF
330
6BD0
330
6BD2
330
6BD3
330
6BD5
330
6BD6
330
6BD8
330
6BD9
330
6BDB
330
6BDC
330
6BDD
330
6BDF
330
6BE0
330
6BE1
330
6E89
330
6E8A
330
6E8B
330
6E8C
330
6E8D
330
6E8E
330
6E8F
330
6E90
330
6E91
330
6E92
330
6E93
330
6E94
330
6E95
330
6E96
330
6E97
330
6E98
  0
IDBUFFER
  5
5DC2
330
0
100
AcDbIdBuffer
330
17BD
330
17BE
330
17C3
330
17C4
330
17C5
330
17C6
330
17C7
330
1802
330
1803
330
1804
330
1805
330
1806
330
1807
330
1808
330
1809
330
180A
330
180B
330
180C
330
180D
330
180E
330
180F
330
1810
330
1868
330
1869
330
186A
330
186B
330
186C
330
186D
330
186E
330
186F
330
1870
330
1871
330
1872
330
1873
330
1874
330
1875
330
1876
330
1877
330
1878
330
1879
330
187A
330
187B
330
187C
330
187D
330
187E
330
187F
330
1880
330
1881
330
1882
330
1883
330
1885
330
1886
330
1887
330
1888
330
1889
330
188A
330
188B
330
188C
330
188D
330
188E
330
188F
330
1890
330
1891
330
5784
330
5785
330
5786
330
5787
330
5788
330
5789
330
578A
330
578B
330
578C
330
578D
330
578E
330
578F
330
5790
330
5791
330
5792
330
5793
330
5794
330
5795
330
5796
330
5797
330
5798
330
5799
330
579A
330
579B
330
579C
330
579D
330
579E
330
579F
330
57A0
330
57A1
330
57A5
330
57A9
330
57AA
330
57AE
330
57AF
330
57B0
330
57B1
330
57B2
330
57B3
330
57B4
330
57B5
330
57B9
330
57BD
330
57C1
330
57C2
330
57C3
330
57C7
330
57C8
330
57C9
330
57CA
330
57CB
330
57CC
330
57CD
330
57CE
330
57CF
330
57D0
330
57D1
330
57D2
330
57D3
330
57D4
330
57D5
330
57D6
330
57D7
330
57D8
  0
IDBUFFER
  5
5DC3
330
0
100
AcDbIdBuffer
  0
IDBUFFER
  5
5DEB
330
0
100
AcDbIdBuffer
330
6C31
330
6C3A
  0
IDBUFFER
  5
5DEC
330
0
100
AcDbIdBuffer
  0
XRECORD
  5
6F3A
102
{ACAD_REACTORS
330
6F39
102
}
330
6F39
100
AcDbXrecord
280
     1
102
SHADEPLOT
 70
     0
102
SHADEPLOTRESLEVEL
 70
     2
102
SHADEPLOTCUSTOMDPI
 70
   300
  0
XRECORD
  5
6F3E
102
{ACAD_REACTORS
330
6F3D
102
}
330
6F3D
100
AcDbXrecord
280
     1
102
SHADEPLOT
 70
     0
102
SHADEPLOTRESLEVEL
 70
     2
102
SHADEPLOTCUSTOMDPI
 70
   300
  0
XRECORD
  5
6F3C
102
{ACAD_REACTORS
330
6F3B
102
}
330
6F3B
100
AcDbXrecord
280
     1
102
SHADEPLOT
 70
     0
102
SHADEPLOTRESLEVEL
 70
     2
102
SHADEPLOTCUSTOMDPI
 70
   300
  0
ENDSEC
  0
EOF
