  0
SECTION
  2
HEADER
  9
$ACADVER
  1
AC1015
  9
$ACADMAINTVER
 70
    20
  9
$DWGCODEPAGE
  3
ANSI_950
  9
$INSBASE
 10
0.0
 20
0.0
 30
0.0
  9
$EXTMIN
 10
142.8282962176434
 20
99.68489732624114
 30
0.0
  9
$EXTMAX
 10
521.10131402209
 20
622.0829076569732
 30
277.9734363370656
  9
$LIMMIN
 10
0.0
 20
0.0
  9
$LIMMAX
 10
12.0
 20
9.0
  9
$ORTHOMODE
 70
     0
  9
$REGENMODE
 70
     1
  9
$FILLMODE
 70
     1
  9
$QTEXTMODE
 70
     0
  9
$MIRRTEXT
 70
     1
  9
$LTSCALE
 40
5.0
  9
$ATTMODE
 70
     1
  9
$TEXTSIZE
 40
4.5
  9
$TRACEWID
 40
0.05
  9
$TEXTSTYLE
  7
CHINESET
  9
$CLAYER
  8
0
  9
$CELTYPE
  6
ByLayer
  9
$CECOLOR
 62
   256
  9
$CELTSCALE
 40
1.0
  9
$DISPSILH
 70
     0
  9
$DIMSCALE
 40
1.0
  9
$DIMASZ
 40
3.0
  9
$DIMEXO
 40
3.0
  9
$DIMDLI
 40
2.0
  9
$DIMRND
 40
0.0
  9
$DIMDLE
 40
0.0
  9
$DIMEXE
 40
2.0
  9
$DIMTP
 40
0.0
  9
$DIMTM
 40
0.0
  9
$DIMTXT
 40
3.0
  9
$DIMCEN
 40
-3.0
  9
$DIMTSZ
 40
0.0
  9
$DIMTOL
 70
     0
  9
$DIMLIM
 70
     0
  9
$DIMTIH
 70
     0
  9
$DIMTOH
 70
     0
  9
$DIMSE1
 70
     0
  9
$DIMSE2
 70
     0
  9
$DIMTAD
 70
     1
  9
$DIMZIN
 70
     8
  9
$DIMBLK
  1

  9
$DIMASO
 70
     1
  9
$DIMSHO
 70
     1
  9
$DIMPOST
  1

  9
$DIMAPOST
  1

  9
$DIMALT
 70
     0
  9
$DIMALTD
 70
     2
  9
$DIMALTF
 40
25.4
  9
$DIMLFAC
 40
1.0
  9
$DIMTOFL
 70
     1
  9
$DIMTVP
 40
0.0
  9
$DIMTIX
 70
     0
  9
$DIMSOXD
 70
     0
  9
$DIMSAH
 70
     0
  9
$DIMBLK1
  1

  9
$DIMBLK2
  1

  9
$DIMSTYLE
  2
ISO-25-1
  9
$DIMCLRD
 70
   256
  9
$DIMCLRE
 70
   256
  9
$DIMCLRT
 70
   256
  9
$DIMTFAC
 40
0.7
  9
$DIMGAP
 40
1.0
  9
$DIMJUST
 70
     0
  9
$DIMSD1
 70
     0
  9
$DIMSD2
 70
     0
  9
$DIMTOLJ
 70
     1
  9
$DIMTZIN
 70
     8
  9
$DIMALTZ
 70
     0
  9
$DIMALTTZ
 70
     0
  9
$DIMUPT
 70
     0
  9
$DIMDEC
 70
     2
  9
$DIMTDEC
 70
     8
  9
$DIMALTU
 70
     2
  9
$DIMALTTD
 70
     2
  9
$DIMTXSTY
  7
CHINESET
  9
$DIMAUNIT
 70
     0
  9
$DIMADEC
 70
     0
  9
$DIMALTRND
 40
0.0
  9
$DIMAZIN
 70
     2
  9
$DIMDSEP
 70
    46
  9
$DIMATFIT
 70
     0
  9
$DIMFRAC
 70
     0
  9
$DIMLDRBLK
  1

  9
$DIMLUNIT
 70
     2
  9
$DIMLWD
 70
    -1
  9
$DIMLWE
 70
    -1
  9
$DIMTMOVE
 70
     0
  9
$LUNITS
 70
     2
  9
$LUPREC
 70
     2
  9
$SKETCHINC
 40
0.1
  9
$FILLETRAD
 40
0.5
  9
$AUNITS
 70
     0
  9
$AUPREC
 70
     0
  9
$MENU
  1
.
  9
$ELEVATION
 40
0.0
  9
$PELEVATION
 40
0.0
  9
$THICKNESS
 40
0.0
  9
$LIMCHECK
 70
     0
  9
$CHAMFERA
 40
1.5
  9
$CHAMFERB
 40
1.5
  9
$CHAMFERC
 40
1.0
  9
$CHAMFERD
 40
0.0
  9
$SKPOLY
 70
     0
  9
$TDCREATE
 40
2452019.631085301
  9
$TDUCREATE
 40
2452019.297751968
  9
$TDUPDATE
 40
2456885.448240011
  9
$TDUUPDATE
 40
2456885.114906679
  9
$TDINDWG
 40
0.4592931481
  9
$TDUSRTIMER
 40
0.4592931481
  9
$USRTIMER
 70
     1
  9
$ANGBASE
 50
0.0
  9
$ANGDIR
 70
     0
  9
$PDMODE
 70
     0
  9
$PDSIZE
 40
0.0
  9
$PLINEWID
 40
0.0
  9
$SPLFRAME
 70
     0
  9
$SPLINETYPE
 70
     6
  9
$SPLINESEGS
 70
     8
  9
$HANDSEED
  5
8455
  9
$SURFTAB1
 70
     6
  9
$SURFTAB2
 70
     6
  9
$SURFTYPE
 70
     6
  9
$SURFU
 70
     6
  9
$SURFV
 70
     6
  9
$UCSBASE
  2

  9
$UCSNAME
  2

  9
$UCSORG
 10
0.0
 20
0.0
 30
0.0
  9
$UCSXDIR
 10
1.0
 20
0.0
 30
0.0
  9
$UCSYDIR
 10
0.0
 20
1.0
 30
0.0
  9
$UCSORTHOREF
  2

  9
$UCSORTHOVIEW
 70
     0
  9
$UCSORGTOP
 10
0.0
 20
0.0
 30
0.0
  9
$UCSORGBOTTOM
 10
0.0
 20
0.0
 30
0.0
  9
$UCSORGLEFT
 10
0.0
 20
0.0
 30
0.0
  9
$UCSORGRIGHT
 10
0.0
 20
0.0
 30
0.0
  9
$UCSORGFRONT
 10
0.0
 20
0.0
 30
0.0
  9
$UCSORGBACK
 10
0.0
 20
0.0
 30
0.0
  9
$PUCSBASE
  2

  9
$PUCSNAME
  2

  9
$PUCSORG
 10
0.0
 20
0.0
 30
0.0
  9
$PUCSXDIR
 10
1.0
 20
0.0
 30
0.0
  9
$PUCSYDIR
 10
0.0
 20
1.0
 30
0.0
  9
$PUCSORTHOREF
  2

  9
$PUCSORTHOVIEW
 70
     0
  9
$PUCSORGTOP
 10
0.0
 20
0.0
 30
0.0
  9
$PUCSORGBOTTOM
 10
0.0
 20
0.0
 30
0.0
  9
$PUCSORGLEFT
 10
0.0
 20
0.0
 30
0.0
  9
$PUCSORGRIGHT
 10
0.0
 20
0.0
 30
0.0
  9
$PUCSORGFRONT
 10
0.0
 20
0.0
 30
0.0
  9
$PUCSORGBACK
 10
0.0
 20
0.0
 30
0.0
  9
$USERI1
 70
     0
  9
$USERI2
 70
     0
  9
$USERI3
 70
     0
  9
$USERI4
 70
     0
  9
$USERI5
 70
     0
  9
$USERR1
 40
0.0
  9
$USERR2
 40
0.0
  9
$USERR3
 40
0.0
  9
$USERR4
 40
0.0
  9
$USERR5
 40
0.0
  9
$WORLDVIEW
 70
     1
  9
$SHADEDGE
 70
     3
  9
$SHADEDIF
 70
    70
  9
$TILEMODE
 70
     1
  9
$MAXACTVP
 70
    48
  9
$PINSBASE
 10
0.0
 20
0.0
 30
0.0
  9
$PLIMCHECK
 70
     0
  9
$PEXTMIN
 10
1.000000000000000E+20
 20
1.000000000000000E+20
 30
1.000000000000000E+20
  9
$PEXTMAX
 10
-1.000000000000000E+20
 20
-1.000000000000000E+20
 30
-1.000000000000000E+20
  9
$PLIMMIN
 10
0.0
 20
0.0
  9
$PLIMMAX
 10
12.0
 20
9.0
  9
$UNITMODE
 70
     0
  9
$VISRETAIN
 70
     1
  9
$PLINEGEN
 70
     0
  9
$PSLTSCALE
 70
     1
  9
$TREEDEPTH
 70
  3020
  9
$CMLSTYLE
  2
Standard
  9
$CMLJUST
 70
     0
  9
$CMLSCALE
 40
1.0
  9
$PROXYGRAPHICS
 70
     1
  9
$MEASUREMENT
 70
     1
  9
$CELWEIGHT
370
    -1
  9
$ENDCAPS
280
     0
  9
$JOINSTYLE
280
     0
  9
$LWDISPLAY
290
     0
  9
$INSUNITS
 70
     1
  9
$HYPERLINKBASE
  1

  9
$STYLESHEET
  1
彩色出圖.ctb
  9
$XEDIT
290
     1
  9
$CEPSNTYPE
380
     0
  9
$PSTYLEMODE
290
     1
  9
$FINGERPRINTGUID
  2
{FDEAD576-A652-11D2-9A35-0060089B3A3F}
  9
$VERSIONGUID
  2
{B9170C91-AB2F-47D0-B08A-C83096D422AE}
  9
$EXTNAMES
290
     1
  9
$PSVPSCALE
 40
0.0
  9
$OLESTARTUP
290
     0
  0
ENDSEC
  0
SECTION
  2
CLASSES
  0
CLASS
  1
ACDBDICTIONARYWDFLT
  2
AcDbDictionaryWithDefault
  3
ObjectDBX Classes
 90
        0
280
     0
281
     0
  0
CLASS
  1
ACDBPLACEHOLDER
  2
AcDbPlaceHolder
  3
ObjectDBX Classes
 90
        0
280
     0
281
     0
  0
CLASS
  1
LAYOUT
  2
AcDbLayout
  3
ObjectDBX Classes
 90
        0
280
     0
281
     0
  0
CLASS
  1
DICTIONARYVAR
  2
AcDbDictionaryVar
  3
ObjectDBX Classes
 90
        0
280
     0
281
     0
  0
CLASS
  1
TABLESTYLE
  2
AcDbTableStyle
  3
ObjectDBX Classes
 90
     2047
280
     0
281
     0
  0
CLASS
  1
DIMASSOC
  2
AcDbDimAssoc
  3
"AcDbDimAssoc|Product Desc:     AcDim ARX App For Dimension|Company:          Autodesk, Inc.|WEB Address:      www.autodesk.com"
 90
    32768
280
     0
281
     0
  0
CLASS
  1
SORTENTSTABLE
  2
AcDbSortentsTable
  3
ObjectDBX Classes
 90
        0
280
     0
281
     0
  0
CLASS
  1
ACME_DOCUMENT
  2
AcMeDbDoc
  3
AcMeServices
 90
        0
280
     0
281
     0
  0
CLASS
  1
AMGSETTINGSOBJ
  2
AmgSettingsObj
  3
"AcadM|Product Description: AutoCAD Mechanical 2000|Company: Autodesk"
 90
        0
280
     0
281
     0
  0
CLASS
  1
ACMESCOPE
  2
AcMeScope
  3
AcMeServices
 90
        0
280
     0
281
     0
  0
CLASS
  1
ACMECOMMANDHISTORY
  2
AcMeCommandHistory
  3
AcMeServices
 90
        0
280
     0
281
     0
  0
CLASS
  1
ACIMSYSVARMAN
  2
AcImSysVarManager
  3
AcMeServices
 90
        0
280
     0
281
     0
  0
CLASS
  1
ACIMINTSYSVAR
  2
AcImIntSysVar
  3
AcMeServices
 90
        0
280
     0
281
     0
  0
CLASS
  1
ACMEDRAWINGMAN
  2
AcMeDrawingMan
  3
AcMeServices
 90
        0
280
     0
281
     0
  0
CLASS
  1
ACMEVIEW
  2
AcMeView
  3
AcMeServices
 90
        0
280
     0
281
     0
  0
CLASS
  1
ACDBENTITYCACHE
  2
AcMeEntityCache
  3
AcMeServices
 90
        0
280
     0
281
     0
  0
CLASS
  1
GSMANAGER
  2
AcMeGSManager
  3
AcMeServices
 90
        0
280
     0
281
     0
  0
CLASS
  1
AMDTINTERNALREACTOR
  2
AmdtInternalReactor
  3
AcMeServices
 90
        0
280
     0
281
     0
  0
CLASS
  1
ACMESTATEMGR
  2
AcMeStateMgr
  3
AcMeServices
 90
        0
280
     0
281
     0
  0
CLASS
  1
ACGREFMASTER
  2
AcGrefMaster
  3
AcAttribServices
 90
        0
280
     0
281
     0
  0
CLASS
  1
AM_DRAWING_MGR
  2
AcDmDwgMgr
  3
AcMechDwgViewMgmt
 90
        0
280
     0
281
     0
  0
CLASS
  1
AM_DWG_DOCUMENT
  2
AcDmDwgDocument
  3
AcMechDwgViewMgmt
 90
        0
280
     0
281
     0
  0
CLASS
  1
AM_DWG_SHEET
  2
AcDmSheet
  3
AcMechDwgViewMgmt
 90
        0
280
     0
281
     0
  0
CLASS
  1
AM_VIEWDIMPARMAP
  2
AcDmViewDimParMap
  3
AcMechDwgViewMgmt
 90
        0
280
     0
281
     0
  0
CLASS
  1
ACIMREALSYSVAR
  2
AcImRealSysVar
  3
AcMeServices
 90
        0
280
     0
281
     0
  0
CLASS
  1
AM_DWGMGR_NAME
  2
AcDmDwgMgrName
  3
AcMechDwgViewMgmt
 90
        0
280
     0
281
     0
  0
CLASS
  1
ACME_DATABASE
  2
AcMeDbDatabase
  3
AcMeServices
 90
        0
280
     0
281
     0
  0
CLASS
  1
ACRFINSADJUSTERMGR
  2
AcRfInsAdjusterMgr
  3
AcMeServices
 90
        0
280
     0
281
     0
  0
CLASS
  1
ACGREFACADMASTER
  2
AcGrefacadMaster
  3
AcGrefServices
 90
        0
280
     0
281
     0
  0
CLASS
  1
AMDTMENUSTATEMGR
  2
AmdtMenuStateMgr
  3
McadcomServices
 90
        0
280
     0
281
     0
  0
CLASS
  1
AMDTMCOMMENUSTATE
  2
AmdtMcomMenuState
  3
McadcomServices
 90
        0
280
     0
281
     0
  0
CLASS
  1
AMIMASTER
  2
AmiMaster
  3
AmiServices
 90
        0
280
     0
281
     0
  0
CLASS
  1
MAPIAMMOUDLE
  2
MApiAmModule
  3
MApiAmServices
 90
        0
280
     0
281
     0
  0
CLASS
  1
AMDTADMENUSTATE
  2
AmdtAdMenuState
  3
DesignerServices
 90
        0
280
     0
281
     0
  0
CLASS
  1
ADAPPL
  2
AcAdAppl
  3
DesignerServices
 90
        0
280
     0
281
     0
  0
CLASS
  1
DEPMGR
  2
AcAdDepMgr
  3
DesignerServices
 90
        0
280
     0
281
     0
  0
CLASS
  1
PARAMMGR
  2
AcAdParamMgr
  3
DesignerServices
 90
        0
280
     0
281
     0
  0
CLASS
  1
PARAMSCOPE
  2
AcAdParamScope
  3
DesignerServices
 90
        0
280
     0
281
     0
  0
CLASS
  1
NAMEDAPPL
  2
AcAdNamedAppl
  3
DesignerServices
 90
        0
280
     0
281
     0
  0
CLASS
  1
AMDTDMMENUSTATE
  2
AmdtDmMenuState
  3
AcMechDwgViewMgmt
 90
        0
280
     0
281
     0
  0
CLASS
  1
AMDTAMMENUSTATE
  2
AmdtAmMenuState
  3
DesignerAssemblies
 90
        0
280
     0
281
     0
  0
CLASS
  1
ACIMSTRSYSVAR
  2
AcImStrSysVar
  3
AcMeServices
 90
        0
280
     0
281
     0
  0
CLASS
  1
ACAMPROJECT
  2
AcAmProject
  3
DesignerAssemblies
 90
        0
280
     0
281
     0
  0
CLASS
  1
ACAMGRCOMPDEF
  2
AcAmGrCompDef
  3
DesignerAssemblies
 90
        0
280
     0
281
     0
  0
CLASS
  1
ACCMCONTEXT
  2
AcCmContext
  3
DesignerAssemblies
 90
        0
280
     0
281
     0
  0
CLASS
  1
ACAMCOMPDEF
  2
AcAmCompDef
  3
DesignerAssemblies
 90
        0
280
     0
281
     0
  0
CLASS
  1
ACAMCOMPDEFMGR
  2
AcAmCompDefMgr
  3
DesignerAssemblies
 90
        0
280
     0
281
     0
  0
CLASS
  1
AMCONTEXTMGR
  2
AcAmContextMgr
  3
DesignerAssemblies
 90
        0
280
     0
281
     0
  0
CLASS
  1
ACAMCONTEXTMODELER
  2
AcAmContextModeler
  3
DesignerAssemblies
 90
        0
280
     0
281
     0
  0
CLASS
  1
ACMDATADICTIONARY
  2
AcmDataDictionary
  3
"AcmSymBB|Product Description: AutoCAD Mechanical 2004 DX|Company: Autodesk"
 90
        0
280
     0
281
     0
  0
CLASS
  1
CATALOGSTATE
  2
AcAmCatalogState
  3
DesignerAssemblies
 90
        0
280
     0
281
     0
  0
CLASS
  1
ACAMGRCOMPDEFSET
  2
AcAmGrCompDefSet
  3
DesignerAssemblies
 90
        0
280
     0
281
     0
  0
CLASS
  1
AMDTBROWSERDBTAB
  2
AmdtBrowserDbTab
  3
McadcomServices
 90
        0
280
     0
281
     0
  0
CLASS
  1
CBROWSERAPPOBJECT
  2
CBrowserAppObject
  3
McadcomServices
 90
        0
280
     0
281
     0
  0
CLASS
  1
DM_PLACEHOLDER
  2
AcDmSelsetPlaceholder
  3
AcMechDwgViewMgmt
 90
        0
280
     0
281
     0
  0
CLASS
  1
ACMSTANDARDISO
  2
AcmStandardISO
  3
"Amdt_StdImp|Product Description: AutoCAD Mechanical 2004 DX|Company: Autodesk"
 90
        0
280
     0
281
     0
  0
CLASS
  1
AMGOBJPROPCFG
  2
AmgObjPropCfg
  3
"AmgLay|Product Description: AutoCAD Mechanical 2000|Company: Autodesk"
 90
        1
280
     0
281
     0
  0
CLASS
  1
AMDTEDGESTANDARDISO13715
  2
AmdtEdgeStdISO13715
  3
"Amdt_StdImp|Product Description: AutoCAD Mechanical 2004 DX|Company: Autodesk"
 90
        0
280
     0
281
     0
  0
CLASS
  1
ACMSURFSTANDARDISO
  2
AcmSurfTextStdISO
  3
"Amdt_StdImp|Product Description: AutoCAD Mechanical 2004 DX|Company: Autodesk"
 90
        0
280
     0
281
     0
  0
CLASS
  1
ACMFCFSTANDARDISO
  2
AcmFCFStdISO
  3
"Amdt_StdImp|Product Description: AutoCAD Mechanical 2004 DX|Company: Autodesk"
 90
        0
280
     0
281
     0
  0
CLASS
  1
ACMWELDSTANDARDISO
  2
AcmWeldingStdISO
  3
"Amdt_StdImp|Product Description: AutoCAD Mechanical 2004 DX|Company: Autodesk"
 90
        0
280
     0
281
     0
  0
CLASS
  1
ACMIDSTANDARDISO
  2
AcmIdStdISO
  3
"Amdt_StdImp|Product Description: AutoCAD Mechanical 2004 DX|Company: Autodesk"
 90
        0
280
     0
281
     0
  0
CLASS
  1
ACMDATUMSTANDARDISO
  2
AcmDatumStdISO
  3
"Amdt_StdImp|Product Description: AutoCAD Mechanical 2004 DX|Company: Autodesk"
 90
        0
280
     0
281
     0
  0
CLASS
  1
ACMBOMSTANDARDISO
  2
AcmBOMStdISO
  3
"Amdt_StdImp|Product Description: AutoCAD Mechanical 2004 DX|Company: Autodesk"
 90
        0
280
     0
281
     0
  0
CLASS
  1
ACMDETAILSTANDARDISO
  2
AmdtDetailSymStdISO
  3
"Amdt_StdImp|Product Description: AutoCAD Mechanical 2004 DX|Company: Autodesk"
 90
        0
280
     0
281
     0
  0
CLASS
  1
ACMSECTIONSTANDARDISO
  2
AmdtSectionSymStdISO
  3
"Amdt_StdImp|Product Description: AutoCAD Mechanical 2004 DX|Company: Autodesk"
 90
        0
280
     0
281
     0
  0
CLASS
  1
ACMCENTERLINESTANDARDISO
  2
AmdtCenterLineStdISO
  3
"Amdt_StdImp|Product Description: AutoCAD Mechanical 2004 DX|Company: Autodesk"
 90
        0
280
     0
281
     0
  0
CLASS
  1
ACMTHREADLINESTANDARDISO
  2
AmdtThreadLineStdISO
  3
"Amdt_StdImp|Product Description: AutoCAD Mechanical 2004 DX|Company: Autodesk"
 90
        0
280
     0
281
     0
  0
CLASS
  1
ACMNOTESTANDARDISO
  2
AmdtNoteStdISO
  3
"Amdt_StdImp|Product Description: AutoCAD Mechanical 2004 DX|Company: Autodesk"
 90
        0
280
     0
281
     0
  0
CLASS
  1
AMDTNOTETEMPLATEDB
  2
AmdtNoteTemplateDB
  3
AMDT_STDIMP_MODULE_NAME
 90
        0
280
     0
281
     0
  0
CLASS
  1
ACAMGLAYSTD
  2
AcAmgLayStd
  3
"AcAmgLayStd|Product Description: AutoCAD Mechanical 2000|Company: Autodesk"
 90
        0
280
     0
281
     0
  0
CLASS
  1
ACAMGDIMSTD
  2
AcAmgDimStd
  3
"AcAmgDimStd|Product Description: AutoCAD Mechanical 2000|Company: Autodesk"
 90
        0
280
     0
281
     0
  0
CLASS
  1
ACAMGHOLECHARTSTDISO
  2
AcAmgHoleChartStdISO
  3
ACMSYMBB_MODULE_NAME
 90
        0
280
     0
281
     0
  0
CLASS
  1
ACAMGTITLESTD
  2
AcAmgTitleStd
  3
"TITLEAPP"
 90
        0
280
     0
281
     0
  0
CLASS
  1
ACAMGFILTERDAT
  2
AcAmgFilterDat
  3
"AcadM|Product Description: AutoCAD Mechanical 2000|Company: Autodesk"
 90
    32768
280
     0
281
     0
  0
CLASS
  1
ASAPP
  2
AcAsAppObject
  3
AutoSurfServices
 90
        0
280
     0
281
     0
  0
CLASS
  1
IM_STATIC_MAN
  2
AcImStaticVarManager
  3
AcMeServices
 90
        0
280
     0
281
     0
  0
CLASS
  1
ACIMDBLSTATICVAR
  2
AcImDblStaticVar
  3
AcMeServices
 90
        0
280
     0
281
     0
  0
CLASS
  1
ACIMSTRSTATICVAR
  2
AcImStrStaticVar
  3
AcMeServices
 90
        0
280
     0
281
     0
  0
CLASS
  1
ACIMINTSTATICVAR
  2
AcImIntStaticVar
  3
AcMeServices
 90
        0
280
     0
281
     0
  0
CLASS
  1
ACASGREFMASTER
  2
AcAsGrefMaster
  3
AutoSurfResolverServices
 90
        0
280
     0
281
     0
  0
CLASS
  1
ACADGREFMODULE
  2
AcAdGrefModule
  3
AdGrefServices
 90
        0
280
     0
281
     0
  0
CLASS
  1
AMDTMAPISURFMOUDULE
  2
AmdtMApiSurfModule
  3
MApiSurfServices
 90
        0
280
     0
281
     0
  0
CLASS
  1
MAPIADMODULE
  2
MApiAdModule
  3
MApiAdServices
 90
        0
280
     0
281
     0
  0
CLASS
  1
ACMDATAENTRYBLOCK
  2
AcmDataEntryBlock
  3
"AcmSymBB|Product Description: AutoCAD Mechanical 2004 DX|Company: Autodesk"
 90
        0
280
     0
281
     0
  0
CLASS
  1
LAYER_INDEX
  2
AcDbLayerIndex
  3
ObjectDBX Classes
 90
        0
280
     0
281
     0
  0
CLASS
  1
IDBUFFER
  2
AcDbIdBuffer
  3
ObjectDBX Classes
 90
        0
280
     0
281
     0
  0
CLASS
  1
ACRFATTGENMGR
  2
AcRfAttGeneralMgr
  3
AcAttribServices
 90
    32768
280
     0
281
     0
  0
ENDSEC
  0
SECTION
  2
TABLES
  0
TABLE
  2
VPORT
  5
8
330
0
100
AcDbSymbolTable
 70
     5
  0
VPORT
  5
844C
330
8
100
AcDbSymbolTableRecord
100
AcDbViewportTableRecord
  2
*Active
 70
     0
 10
0.0
 20
0.0
 11
1.0
 21
1.0
 12
164.8514360130234
 22
-48.27606837753546
 13
0.0
 23
0.0
 14
0.5
 24
0.5
 15
0.5
 25
0.5
 16
0.0
 26
0.0
 36
1.0
 17
146.4605214795485
 27
341.9154733156002
 37
0.0
 40
499.9308708553203
 41
1.263157894736842
 42
50.0
 43
0.0
 44
0.0
 50
0.0
 51
0.0
 71
     0
 72
   100
 73
     1
 74
     3
 75
     0
 76
     0
 77
     0
 78
     0
281
     0
 65
     0
110
0.0
120
0.0
130
0.0
111
1.0
121
0.0
131
0.0
112
0.0
122
1.0
132
0.0
 79
     0
146
0.0
  0
ENDTAB
  0
TABLE
  2
LTYPE
  5
5
330
0
100
AcDbSymbolTable
 70
    16
  0
LTYPE
  5
14
330
5
100
AcDbSymbolTableRecord
100
AcDbLinetypeTableRecord
  2
ByBlock
 70
     0
  3

 72
    65
 73
     0
 40
0.0
  0
LTYPE
  5
15
330
5
100
AcDbSymbolTableRecord
100
AcDbLinetypeTableRecord
  2
ByLayer
 70
     0
  3

 72
    65
 73
     0
 40
0.0
  0
LTYPE
  5
16
330
5
100
AcDbSymbolTableRecord
100
AcDbLinetypeTableRecord
  2
Continuous
 70
     0
  3
Solid line
 72
    65
 73
     0
 40
0.0
  0
LTYPE
  5
4F
330
5
100
AcDbSymbolTableRecord
100
AcDbLinetypeTableRecord
  2
CENTER
 70
     0
  3
Center ____ _ ____ _ ____ _ ____ _ ____ _ ____
 72
    65
 73
     4
 40
2.0
 49
1.25
 74
     0
 49
-0.25
 74
     0
 49
0.25
 74
     0
 49
-0.25
 74
     0
  0
LTYPE
  5
59AC
330
5
100
AcDbSymbolTableRecord
100
AcDbLinetypeTableRecord
  2
HIDDEN
 70
     0
  3
__ __ __ __ __ __ __ __ __ __ __ __ __ __ __ __
 72
    65
 73
     2
 40
0.375
 49
0.25
 74
     0
 49
-0.125
 74
     0
  0
LTYPE
  5
59AD
330
5
100
AcDbSymbolTableRecord
100
AcDbLinetypeTableRecord
  2
PHANTOM2
 70
     0
  3
___ _ _ ___ _ _ ___ _ _ ___ _ _ ___ _ _ ___ _ _
 72
    65
 73
     6
 40
1.25
 49
0.625
 74
     0
 49
-0.125
 74
     0
 49
0.125
 74
     0
 49
-0.125
 74
     0
 49
0.125
 74
     0
 49
-0.125
 74
     0
  0
LTYPE
  5
59B2
330
5
100
AcDbSymbolTableRecord
100
AcDbLinetypeTableRecord
  2
Amconstr
 70
     0
  3
_______________________
 72
    65
 73
     2
 40
9999.0
 49
9999.0
 74
     0
 49
0.0
 74
     0
  0
LTYPE
  5
6690
330
5
100
AcDbSymbolTableRecord
100
AcDbLinetypeTableRecord
  2
AM_ISO02W050
 70
     0
  3
__ __ __ __ __ __ __ __ __ __ __ __ __ __ __
 72
    65
 73
     2
 40
7.5
 49
6.0
 74
     0
 49
-1.5
 74
     0
  0
LTYPE
  5
6691
330
5
100
AcDbSymbolTableRecord
100
AcDbLinetypeTableRecord
  2
AM_ISO08W050
 70
     0
  3
____ . ____ . ____ . ____ . ____ . ____ . ____
 72
    65
 73
     4
 40
18.0
 49
12.0
 74
     0
 49
-1.5
 74
     0
 49
3.0
 74
     0
 49
-1.5
 74
     0
  0
LTYPE
  5
6692
330
5
100
AcDbSymbolTableRecord
100
AcDbLinetypeTableRecord
  2
AM_ISO09W050
 70
     0
  3
_____ . . _____ . . _____ . . ____ .. ____
 72
    65
 73
     6
 40
22.5
 49
12.0
 74
     0
 49
-1.5
 74
     0
 49
3.0
 74
     0
 49
-1.5
 74
     0
 49
3.0
 74
     0
 49
-1.5
 74
     0
  0
LTYPE
  5
6693
330
5
100
AcDbSymbolTableRecord
100
AcDbLinetypeTableRecord
  2
AM_ISO08W050x2
 70
     0
  3
__ . __ . __ . __ . __ . __
 72
    65
 73
     4
 40
9.0
 49
6.0
 74
     0
 49
-0.75
 74
     0
 49
1.5
 74
     0
 49
-0.75
 74
     0
  0
LTYPE
  5
6694
330
5
100
AcDbSymbolTableRecord
100
AcDbLinetypeTableRecord
  2
AM_ISO02W050x2
 70
     0
  3
 _ _ _ _ _ _ _ _ _ _ _ _
 72
    65
 73
     2
 40
3.75
 49
3.0
 74
     0
 49
-0.75
 74
     0
  0
LTYPE
  5
6695
330
5
100
AcDbSymbolTableRecord
100
AcDbLinetypeTableRecord
  2
Amzigzag
 70
     0
  3
/\/-/\/-/\/-/\/-/\/-/\/
 72
    65
 73
     2
 40
11.0001
 49
0.0001
 74
     4
 75
   135
340
59B4
 46
0.04
 50
0.0
 44
0.0
 45
0.0
 49
-11.0
 74
     0
  0
LTYPE
  5
66A4
330
5
100
AcDbSymbolTableRecord
100
AcDbLinetypeTableRecord
  2
ACISOWELD
 70
     0
  3
_ _ _ _ _
 72
    65
 73
     2
 40
2.0
 49
2.0
 74
     0
 49
-1.0
 74
     0
  0
LTYPE
  5
66A5
330
5
100
AcDbSymbolTableRecord
100
AcDbLinetypeTableRecord
  2
ACISOTGB
 70
     0
  3
__ . . __ . .
 72
    65
 73
     6
 40
9.0
 49
4.0
 74
     0
 49
-1.0
 74
     0
 49
1.0
 74
     0
 49
-1.0
 74
     0
 49
1.0
 74
     0
 49
-1.0
 74
     0
  0
LTYPE
  5
66A6
330
5
100
AcDbSymbolTableRecord
100
AcDbLinetypeTableRecord
  2
ACISOTGL
 70
     0
  3
_ _ _ _ _
 72
    65
 73
     2
 40
3.0
 49
2.0
 74
     0
 49
-1.0
 74
     0
  0
LTYPE
  5
7373
330
5
100
AcDbSymbolTableRecord
100
AcDbLinetypeTableRecord
  2
ASULTYPE
 70
     0
  3
實線
 72
    65
 73
     2
 40
3.0
 49
2.5
 74
     0
 49
0.5
 74
     0
  0
LTYPE
  5
7374
330
5
100
AcDbSymbolTableRecord
100
AcDbLinetypeTableRecord
  2
ASVLTYPE
 70
     0
  3
__ __ __ __ __ __ __ __ __ __ __ __ __ __ __ __ __ __ __ __ __
 72
    65
 73
     2
 40
0.75
 49
0.5
 74
     0
 49
-0.25
 74
     0
  0
ENDTAB
  0
TABLE
  2
LAYER
  5
2
102
{ACAD_XDICTIONARY
360
59BF
102
}
330
0
100
AcDbSymbolTable
 70
     7
  0
LAYER
  5
10
330
2
100
AcDbSymbolTableRecord
100
AcDbLayerTableRecord
  2
0
 70
     0
 62
     7
  6
Continuous
370
    -3
390
F
  0
LAYER
  5
48
330
2
100
AcDbSymbolTableRecord
100
AcDbLayerTableRecord
  2
DIM
 70
     0
 62
     5
  6
Continuous
370
    -3
390
F
  0
LAYER
  5
4A
330
2
100
AcDbSymbolTableRecord
100
AcDbLayerTableRecord
  2
CENTER
 70
     0
 62
     1
  6
CENTER
370
    -3
390
F
  0
LAYER
  5
1545
330
2
100
AcDbSymbolTableRecord
100
AcDbLayerTableRecord
  2
LOGO
 70
     0
 62
     7
  6
Continuous
370
    -3
390
F
  0
LAYER
  5
1A52
330
2
100
AcDbSymbolTableRecord
100
AcDbLayerTableRecord
  2
Defpoints
 70
     0
 62
     7
  6
Continuous
290
     0
370
    -3
390
F
  0
LAYER
  5
70C2
330
2
100
AcDbSymbolTableRecord
100
AcDbLayerTableRecord
  2
AM_7
 70
     0
 62
     4
  6
AM_ISO08W050
370
    25
390
F
  0
LAYER
  5
70C3
330
2
100
AcDbSymbolTableRecord
100
AcDbLayerTableRecord
  2
AM_5
 70
     0
 62
     3
  6
Continuous
370
    25
390
F
  0
ENDTAB
  0
TABLE
  2
STYLE
  5
3
330
0
100
AcDbSymbolTable
 70
     6
  0
STYLE
  5
11
330
3
100
AcDbSymbolTableRecord
100
AcDbTextStyleTableRecord
  2
Standard
 70
     0
 40
3.0
 41
1.0
 50
0.0
 71
     0
 42
3.0
  3
KAIU.TTF
  4

1001
ACAD
1000
DFKai-SB
1071
    34865
  0
STYLE
  5
5C
330
3
100
AcDbSymbolTableRecord
100
AcDbTextStyleTableRecord
  2
CHINESET
 70
     0
 40
3.0
 41
1.0
 50
0.0
 71
     0
 42
4.5
  3
simplex.shx
  4
CHINESET.shx
  0
STYLE
  5
59B4
330
3
100
AcDbSymbolTableRecord
100
AcDbTextStyleTableRecord
  2

 70
     1
 40
0.0
 41
1.0
 50
0.0
 71
     0
 42
0.12
  3
ltypeshp.shx
  4

  0
STYLE
  5
59B5
330
3
100
AcDbSymbolTableRecord
100
AcDbTextStyleTableRecord
  2
dayus
 70
     0
 40
3.5
 41
1.0
 50
0.0
 71
     0
 42
6.0
  3
simplex.shx
  4
dayus.shx
  0
STYLE
  5
6696
330
3
100
AcDbSymbolTableRecord
100
AcDbTextStyleTableRecord
  2
ACISOTS
 70
     0
 40
1.0
 41
1.0
 50
0.0
 71
     0
 42
4.5
  3
isocp.shx
  4
chineset.shx
  0
STYLE
  5
66A3
330
3
100
AcDbSymbolTableRecord
100
AcDbTextStyleTableRecord
  2
ACISOGDT
 70
     0
 40
0.0
 41
1.0
 50
0.0
 71
     0
 42
4.5
  3
amgdt.shx
  4

  0
ENDTAB
  0
TABLE
  2
VIEW
  5
6
330
0
100
AcDbSymbolTable
 70
     0
  0
ENDTAB
  0
TABLE
  2
UCS
  5
7
330
0
100
AcDbSymbolTable
 70
     0
  0
ENDTAB
  0
TABLE
  2
APPID
  5
9
330
0
100
AcDbSymbolTable
 70
    27
  0
APPID
  5
12
330
9
100
AcDbSymbolTableRecord
100
AcDbRegAppTableRecord
  2
ACAD
 70
     0
  0
APPID
  5
5F
330
9
100
AcDbSymbolTableRecord
100
AcDbRegAppTableRecord
  2
AD_DRAW
 70
     0
  0
APPID
  5
60
330
9
100
AcDbSymbolTableRecord
100
AcDbRegAppTableRecord
  2
DESIGNERASSEMBLIES
 70
     0
  0
APPID
  5
61
330
9
100
AcDbSymbolTableRecord
100
AcDbRegAppTableRecord
  2
MCAD_NO_VIS
 70
     0
  0
APPID
  5
62
330
9
100
AcDbSymbolTableRecord
100
AcDbRegAppTableRecord
  2
ASURF_PCURVE_APPNAME
 70
     0
  0
APPID
  5
11A1
330
9
100
AcDbSymbolTableRecord
100
AcDbRegAppTableRecord
  2
CONTENTBLOCKICON
 70
     0
  0
APPID
  5
31CE
330
9
100
AcDbSymbolTableRecord
100
AcDbRegAppTableRecord
  2
GENIUS_GENODEF_13
 70
     0
  0
APPID
  5
31CF
330
9
100
AcDbSymbolTableRecord
100
AcDbRegAppTableRecord
  2
GENIUS_GENOBJ-N-FIL_13
 70
     0
  0
APPID
  5
3922
330
9
100
AcDbSymbolTableRecord
100
AcDbRegAppTableRecord
  2
GENIUS_GENFIL_13
 70
     0
  0
APPID
  5
3923
330
9
100
AcDbSymbolTableRecord
100
AcDbRegAppTableRecord
  2
GENIUS_GENOBJ-N-CHA_13
 70
     0
  0
APPID
  5
59BE
330
9
100
AcDbSymbolTableRecord
100
AcDbRegAppTableRecord
  2
GENIUS_GENDTOL_13
 70
     0
  0
APPID
  5
6631
330
9
100
AcDbSymbolTableRecord
100
AcDbRegAppTableRecord
  2
ACAD_TEMP_GRAPHIC
 70
     0
  0
APPID
  5
6662
330
9
100
AcDbSymbolTableRecord
100
AcDbRegAppTableRecord
  2
ACATTRIBSERVICES
 70
     0
  0
APPID
  5
6685
330
9
100
AcDbSymbolTableRecord
100
AcDbRegAppTableRecord
  2
ACADM_DIM_EDIT
 70
     0
  0
APPID
  5
6686
330
9
100
AcDbSymbolTableRecord
100
AcDbRegAppTableRecord
  2
AMDT_DM_ADJ
 70
     0
  0
APPID
  5
66BC
330
9
100
AcDbSymbolTableRecord
100
AcDbRegAppTableRecord
  2
GENIUS_GENOENT_13
 70
     0
  0
APPID
  5
66BD
330
9
100
AcDbSymbolTableRecord
100
AcDbRegAppTableRecord
  2
GENIUS_GENOBJ-N-CRS_13
 70
     0
  0
APPID
  5
66BE
330
9
100
AcDbSymbolTableRecord
100
AcDbRegAppTableRecord
  2
GENIUS_GENOLIS_13
 70
     0
  0
APPID
  5
66BF
330
9
100
AcDbSymbolTableRecord
100
AcDbRegAppTableRecord
  2
GENIUS_GENOREF_13
 70
     0
  0
APPID
  5
66C0
330
9
100
AcDbSymbolTableRecord
100
AcDbRegAppTableRecord
  2
ACAD_PSEXT
 70
     0
  0
APPID
  5
66C1
330
9
100
AcDbSymbolTableRecord
100
AcDbRegAppTableRecord
  2
GENIUS_GENREC_14
 70
     0
  0
APPID
  5
66C2
330
9
100
AcDbSymbolTableRecord
100
AcDbRegAppTableRecord
  2
GENIUS_GENOBJ-N-REC_13
 70
     0
  0
APPID
  5
70C4
330
9
100
AcDbSymbolTableRecord
100
AcDbRegAppTableRecord
  2
GENIUS_GENOBJ-N-CEN_13
 70
     0
  0
APPID
  5
70C5
330
9
100
AcDbSymbolTableRecord
100
AcDbRegAppTableRecord
  2
GENIUS_GENCEN_19
 70
     0
  0
APPID
  5
7213
330
9
100
AcDbSymbolTableRecord
100
AcDbRegAppTableRecord
  2
GENIUS_GENDIM_13
 70
     0
  0
APPID
  5
7214
330
9
100
AcDbSymbolTableRecord
100
AcDbRegAppTableRecord
  2
GENIUS_GE3DTOL_13
 70
     0
  0
APPID
  5
7269
330
9
100
AcDbSymbolTableRecord
100
AcDbRegAppTableRecord
  2
AMG_3D2D_5.0
 70
     0
  0
ENDTAB
  0
TABLE
  2
DIMSTYLE
  5
A
330
0
100
AcDbSymbolTable
 70
    11
100
AcDbDimStyleTable
 71
     1
340
1A4
  0
DIMSTYLE
105
1A4
330
A
100
AcDbSymbolTableRecord
100
AcDbDimStyleTableRecord
  2
ISO-25-1
 70
     0
 41
3.0
 42
3.0
 43
2.0
 44
2.0
 73
     0
 74
     0
 77
     1
 78
     8
 79
     2
140
3.0
141
-3.0
146
0.7
147
1.0
172
     1
176
   256
177
   256
178
   256
271
     2
272
     2
284
     8
289
     0
340
5C
371
    -1
372
    -1
  0
DIMSTYLE
105
59B8
102
{ACAD_REACTORS
330
7F99
330
7F9A
330
7F9B
330
7F9C
330
7F9D
330
7F9E
330
7F9F
330
7FA0
330
816F
330
8170
330
81E3
330
81E4
330
81E5
330
81E6
330
81E7
330
81E9
330
81EA
330
82B4
330
82B5
330
8346
330
8347
102
}
330
A
100
AcDbSymbolTableRecord
100
AcDbDimStyleTableRecord
  2
AM_ANSI
 70
     0
  4
"
 41
2.5
 42
1.0
 43
10.0
 44
1.0
 47
0.1
 48
0.1
 78
     8
 79
     2
140
3.5
141
0.0
143
0.0393701
146
0.71
147
1.5
176
   256
177
   256
178
     2
271
     2
272
     3
274
     4
284
     8
340
11
371
    -1
372
    -1
  0
DIMSTYLE
105
59BB
330
A
100
AcDbSymbolTableRecord
100
AcDbDimStyleTableRecord
  2
AM_ANSI$7
 70
     0
  4
"
 41
2.5
 42
1.0
 43
10.0
 44
1.0
 47
0.1
 48
0.1
 78
     8
 79
     2
140
5.0
141
0.0
143
0.0393701
146
0.71
147
1.5
176
   256
177
   256
178
     2
271
     2
272
     3
274
     4
284
     8
340
11
371
    -1
372
    -1
  0
DIMSTYLE
105
66B0
330
A
100
AcDbSymbolTableRecord
100
AcDbDimStyleTableRecord
  2
AM_ISO
 70
     0
  4
"
 41
2.5
 42
1.0
 43
10.0
 44
1.0
 47
0.1
 48
0.1
 73
     0
 74
     0
 77
     1
 78
     8
 79
     2
140
3.5
141
0.0
143
0.0393701
146
0.71
147
1.5
172
     1
176
   256
177
   256
178
     2
271
     2
272
     3
274
     4
283
     0
284
     8
340
11
371
    -1
372
    -1
  0
DIMSTYLE
105
66B1
330
A
100
AcDbSymbolTableRecord
100
AcDbDimStyleTableRecord
  2
AM_ISO$3
 70
     0
  4
"
 41
2.5
 42
1.0
 43
10.0
 44
1.0
 47
0.1
 48
0.1
 73
     0
 77
     1
 78
     8
 79
     2
140
3.5
141
0.0
143
0.0393701
146
0.71
147
1.5
176
   256
177
   256
178
     2
271
     2
272
     3
274
     4
283
     0
284
     8
288
     1
289
     0
340
11
371
    -1
372
    -1
  0
DIMSTYLE
105
66B2
330
A
100
AcDbSymbolTableRecord
100
AcDbDimStyleTableRecord
  2
AM_ISO$4
 70
     0
  4
"
 41
2.5
 42
1.0
 43
10.0
 44
1.0
 47
0.1
 48
0.1
 73
     0
 77
     1
 78
     8
 79
     2
140
3.5
141
0.0
143
0.0393701
146
0.71
147
1.5
176
   256
177
   256
178
     2
271
     2
272
     3
274
     4
283
     0
284
     8
288
     1
289
     0
340
11
371
    -1
372
    -1
  0
DIMSTYLE
105
66B3
330
A
100
AcDbSymbolTableRecord
100
AcDbDimStyleTableRecord
  2
AM_ISO$6
 70
     0
  4
"
 41
2.5
 42
1.0
 43
10.0
 44
1.0
 47
0.1
 48
0.1
 73
     0
 74
     0
 78
     8
 79
     2
140
3.5
141
0.0
143
0.0393701
146
0.71
147
1.5
172
     1
176
   256
177
   256
178
     2
271
     2
272
     3
274
     4
283
     0
284
     8
340
11
371
    -1
372
    -1
  0
DIMSTYLE
105
66B4
330
A
100
AcDbSymbolTableRecord
100
AcDbDimStyleTableRecord
  2
AM_ISO$7
 70
     0
  4
"
 41
2.5
 42
1.0
 43
10.0
 44
1.0
 47
0.1
 48
0.1
 73
     0
 74
     0
 77
     1
 78
     8
 79
     2
140
5.0
141
0.0
143
0.0393701
146
0.71
147
1.5
172
     1
176
   256
177
   256
178
     2
271
     2
272
     3
274
     4
283
     0
284
     8
340
11
371
    -1
372
    -1
  0
DIMSTYLE
105
66B5
330
A
100
AcDbSymbolTableRecord
100
AcDbDimStyleTableRecord
  2
AM_ISO$SF
 70
     0
  4
"
 41
2.5
 42
1.0
 43
10.0
 44
1.0
 47
0.1
 48
0.1
 73
     0
 74
     0
 75
     1
 76
     1
 77
     1
 78
     8
 79
     2
140
3.5
141
0.0
143
0.0393701
146
0.71
147
1.5
172
     1
176
   256
177
   256
178
     2
271
     2
272
     3
274
     4
283
     0
284
     8
340
11
371
    -1
372
    -1
  0
DIMSTYLE
105
66B6
330
A
100
AcDbSymbolTableRecord
100
AcDbDimStyleTableRecord
  2
AM_ISO$SH
 70
     0
  4
"
 41
2.5
 42
1.0
 43
10.0
 44
1.0
 47
0.1
 48
0.1
 73
     0
 74
     0
 75
     1
 76
     1
 77
     1
 78
     8
 79
     2
140
3.5
141
0.0
143
0.0393701
144
2.0
146
0.71
147
1.5
172
     1
173
     1
176
   256
177
   256
178
     2
271
     2
272
     3
274
     4
283
     0
284
     8
340
11
343
582C
371
    -1
372
    -1
  0
DIMSTYLE
105
73C9
330
A
100
AcDbSymbolTableRecord
100
AcDbDimStyleTableRecord
  2
ISO-25
 70
     0
 41
2.5
 42
0.625
 43
3.75
 44
1.25
 73
     0
 74
     0
 77
     1
 78
     8
140
2.5
141
2.5
143
0.03937007874016
147
0.625
171
     3
172
     1
271
     2
272
     2
274
     3
278
    44
283
     0
284
     8
340
11
  0
ENDTAB
  0
TABLE
  2
BLOCK_RECORD
  5
1
330
0
100
AcDbSymbolTable
 70
   109
  0
BLOCK_RECORD
  5
1F
102
{ACAD_XDICTIONARY
360
5790
102
}
330
1
100
AcDbSymbolTableRecord
100
AcDbBlockTableRecord
  2
*Model_Space
340
22
  0
BLOCK_RECORD
  5
1B
102
{ACAD_XDICTIONARY
360
5792
102
}
330
1
100
AcDbSymbolTableRecord
100
AcDbBlockTableRecord
  2
*Paper_Space
340
1E
  0
BLOCK_RECORD
  5
23
102
{ACAD_XDICTIONARY
360
5794
102
}
330
1
100
AcDbSymbolTableRecord
100
AcDbBlockTableRecord
  2
*Paper_Space0
340
26
  0
BLOCK_RECORD
  5
582C
330
1
100
AcDbSymbolTableRecord
100
AcDbBlockTableRecord
  2
GENAXEH
340
0
  0
BLOCK_RECORD
  5
7059
102
{ACAD_XDICTIONARY
360
705A
102
}
330
1
100
AcDbSymbolTableRecord
100
AcDbBlockTableRecord
  2
A$C5ECF147B
340
0
  0
BLOCK_RECORD
  5
70E2
102
{ACAD_XDICTIONARY
360
70E7
102
}
330
1
100
AcDbSymbolTableRecord
100
AcDbBlockTableRecord
  2
A$C56E90040
340
0
  0
BLOCK_RECORD
  5
781C
102
{ACAD_XDICTIONARY
360
781D
102
}
330
1
100
AcDbSymbolTableRecord
100
AcDbBlockTableRecord
  2
A$C1F6E6265
340
0
102
{BLKREFS
331
7FA9
331
81F3
102
}
  0
BLOCK_RECORD
  5
7FAA
330
1
100
AcDbSymbolTableRecord
100
AcDbBlockTableRecord
  2
*D86
340
0
  0
BLOCK_RECORD
  5
7FB6
330
1
100
AcDbSymbolTableRecord
100
AcDbBlockTableRecord
  2
*D87
340
0
  0
BLOCK_RECORD
  5
7FC2
330
1
100
AcDbSymbolTableRecord
100
AcDbBlockTableRecord
  2
*D88
340
0
  0
BLOCK_RECORD
  5
7FCE
330
1
100
AcDbSymbolTableRecord
100
AcDbBlockTableRecord
  2
*D89
340
0
  0
BLOCK_RECORD
  5
7FDA
330
1
100
AcDbSymbolTableRecord
100
AcDbBlockTableRecord
  2
*D90
340
0
  0
BLOCK_RECORD
  5
7FE6
330
1
100
AcDbSymbolTableRecord
100
AcDbBlockTableRecord
  2
*D91
340
0
  0
BLOCK_RECORD
  5
7FF2
330
1
100
AcDbSymbolTableRecord
100
AcDbBlockTableRecord
  2
*D92
340
0
  0
BLOCK_RECORD
  5
7FFE
330
1
100
AcDbSymbolTableRecord
100
AcDbBlockTableRecord
  2
*D93
340
0
  0
BLOCK_RECORD
  5
8177
330
1
100
AcDbSymbolTableRecord
100
AcDbBlockTableRecord
  2
*D94
340
0
  0
BLOCK_RECORD
  5
8183
330
1
100
AcDbSymbolTableRecord
100
AcDbBlockTableRecord
  2
*D95
340
0
  0
BLOCK_RECORD
  5
81F4
330
1
100
AcDbSymbolTableRecord
100
AcDbBlockTableRecord
  2
*D96
340
0
  0
BLOCK_RECORD
  5
8200
330
1
100
AcDbSymbolTableRecord
100
AcDbBlockTableRecord
  2
*D97
340
0
  0
BLOCK_RECORD
  5
820C
330
1
100
AcDbSymbolTableRecord
100
AcDbBlockTableRecord
  2
*D98
340
0
  0
BLOCK_RECORD
  5
8218
330
1
100
AcDbSymbolTableRecord
100
AcDbBlockTableRecord
  2
*D99
340
0
  0
BLOCK_RECORD
  5
8224
330
1
100
AcDbSymbolTableRecord
100
AcDbBlockTableRecord
  2
*D100
340
0
  0
BLOCK_RECORD
  5
823C
330
1
100
AcDbSymbolTableRecord
100
AcDbBlockTableRecord
  2
*D102
340
0
  0
BLOCK_RECORD
  5
8248
330
1
100
AcDbSymbolTableRecord
100
AcDbBlockTableRecord
  2
*D103
340
0
  0
BLOCK_RECORD
  5
82C2
330
1
100
AcDbSymbolTableRecord
100
AcDbBlockTableRecord
  2
*D104
340
0
  0
BLOCK_RECORD
  5
82CE
330
1
100
AcDbSymbolTableRecord
100
AcDbBlockTableRecord
  2
*D105
340
0
  0
BLOCK_RECORD
  5
8348
330
1
100
AcDbSymbolTableRecord
100
AcDbBlockTableRecord
  2
*D106
340
0
  0
BLOCK_RECORD
  5
8354
330
1
100
AcDbSymbolTableRecord
100
AcDbBlockTableRecord
  2
*D107
340
0
  0
ENDTAB
  0
ENDSEC
  0
SECTION
  2
BLOCKS
  0
BLOCK
  5
20
330
1F
100
AcDbEntity
  8
0
100
AcDbBlockBegin
  2
*Model_Space
 70
     0
 10
0.0
 20
0.0
 30
0.0
  3
*Model_Space
  1

  0
ENDBLK
  5
21
330
1F
100
AcDbEntity
  8
0
100
AcDbBlockEnd
  0
BLOCK
  5
1C
330
1B
100
AcDbEntity
 67
     1
  8
0
100
AcDbBlockBegin
  2
*Paper_Space
 70
     0
 10
0.0
 20
0.0
 30
0.0
  3
*Paper_Space
  1

  0
ENDBLK
  5
1D
330
1B
100
AcDbEntity
 67
     1
  8
0
100
AcDbBlockEnd
  0
BLOCK
  5
24
330
23
100
AcDbEntity
  8
0
100
AcDbBlockBegin
  2
*Paper_Space0
 70
     0
 10
0.0
 20
0.0
 30
0.0
  3
*Paper_Space0
  1

  0
ENDBLK
  5
25
330
23
100
AcDbEntity
  8
0
100
AcDbBlockEnd
  0
BLOCK
  5
582D
330
582C
100
AcDbEntity
  8
0
100
AcDbBlockBegin
  2
GENAXEH
 70
     0
 10
0.0
 20
0.0
 30
0.0
  3
GENAXEH
  1

  0
LINE
  5
582E
330
582C
100
AcDbEntity
  8
0
100
AcDbLine
 10
-1.0
 20
0.0
 30
0.0
 11
1.0
 21
0.0
 31
0.0
  0
ENDBLK
  5
582F
330
582C
100
AcDbEntity
  8
0
100
AcDbBlockEnd
  0
BLOCK
  5
705B
330
7059
100
AcDbEntity
  8
0
100
AcDbBlockBegin
  2
A$C5ECF147B
 70
     0
 10
0.0
 20
0.0
 30
0.0
  3
A$C5ECF147B
  1

  0
CIRCLE
  5
705C
330
7059
100
AcDbEntity
  8
0
100
AcDbCircle
 10
-3.079240456948355
 20
2.061381943681453
 30
0.0
 40
1.25
  0
CIRCLE
  5
705D
330
7059
100
AcDbEntity
  8
0
100
AcDbCircle
 10
-3.079240456948355
 20
2.061381943681453
 30
0.0
 40
0.75
  0
ENDBLK
  5
705E
330
7059
100
AcDbEntity
  8
0
100
AcDbBlockEnd
  0
BLOCK
  5
70E9
330
70E2
100
AcDbEntity
  8
0
100
AcDbBlockBegin
  2
A$C56E90040
 70
     0
 10
0.0
 20
0.0
 30
0.0
  3
A$C56E90040
  1

  0
LINE
  5
70E3
330
70E2
100
AcDbEntity
  8
AM_5
 62
     5
100
AcDbLine
 10
15.09416023930511
 20
0.0
 30
0.0
 11
8.509708240382373
 21
0.0
 31
0.0
  0
LINE
  5
70E4
330
70E2
100
AcDbEntity
  8
AM_5
 62
     5
100
AcDbLine
 10
8.509708240382373
 20
0.0
 30
0.0
 11
4.199999999999981
 21
0.0
 31
0.0
  0
TRACE
  5
70E5
330
70E2
100
AcDbEntity
  8
AM_5
 62
     5
370
    35
100
AcDbTrace
 10
4.199999999999981
 20
0.5529404874000079
 30
0.0
 11
4.199999999999981
 21
-0.5529404873999511
 31
0.0
 12
0.0
 22
0.0
 32
0.0
 13
0.0
 23
0.0
 33
0.0
  0
MTEXT
  5
70E6
330
70E2
100
AcDbEntity
  8
AM_5
 62
     5
100
AcDbMText
 10
7.924538044032892
 20
1.152361497384617
 30
0.0
 40
4.0
 41
0.0
 71
     7
 72
     5
  1
SL
  7
ACISOTS
 73
     1
 44
1.0
1001
ACAD
1000
MTEXTBEGIN
1070
    73
1070
     1
1070
    44
1040
1.0
1070
    74
1070
     0
1000
MTEXTEND
  0
ENDBLK
  5
70EA
330
70E2
100
AcDbEntity
  8
0
100
AcDbBlockEnd
  0
BLOCK
  5
781F
330
781C
100
AcDbEntity
  8
0
100
AcDbBlockBegin
  2
A$C1F6E6265
 70
     0
 10
0.0
 20
0.0
 30
0.0
  3
A$C1F6E6265
  1

  0
LINE
  5
7820
330
781C
100
AcDbEntity
  8
AM_5
 62
     5
100
AcDbLine
 10
12.57846733029419
 20
0.460783587398737
 30
0.0
 11
7.091423997858555
 21
0.460783587398737
 31
0.0
  0
LINE
  5
7821
330
781C
100
AcDbEntity
  8
AM_5
 62
     5
100
AcDbLine
 10
7.091423997858555
 20
0.460783587398737
 30
0.0
 11
3.50000046420655
 21
0.460783587398737
 31
0.0
  0
TRACE
  5
7822
330
781C
100
AcDbEntity
  8
AM_5
 62
     5
370
    35
100
AcDbTrace
 10
3.50000046420655
 20
0.9215673268987245
 30
0.0
 11
3.50000046420655
 21
-0.0000001521012507
 31
0.0
 12
0.0000004642065505
 22
0.460783587398737
 32
0.0
 13
0.0000004642065505
 23
0.460783587398737
 33
0.0
  0
MTEXT
  5
7823
330
781C
100
AcDbEntity
  8
AM_5
 62
     5
100
AcDbMText
 10
6.603782167567317
 20
1.421084835219261
 30
0.0
 40
2.449999999999999
 41
0.0
 71
     7
 72
     5
  1
SL
  7
ACISOTS
 73
     1
 44
1.0
1001
ACAD
1000
MTEXTBEGIN
1070
    73
1070
     1
1070
    44
1040
1.0
1070
    74
1070
     0
1000
MTEXTEND
  0
ENDBLK
  5
7824
330
781C
100
AcDbEntity
  8
0
100
AcDbBlockEnd
  0
BLOCK
  5
7FB4
330
7FAA
100
AcDbEntity
  8
0
100
AcDbBlockBegin
  2
*D86
 70
     1
 10
0.0
 20
0.0
 30
0.0
  3
*D86
  1

  0
LINE
  5
8120
330
7FAA
100
AcDbEntity
  8
DIM
100
AcDbLine
 10
231.082623534833
 20
541.592091215451
 30
0.0
 11
231.082623534833
 21
546.980415353773
 31
0.0
  0
LINE
  5
8121
330
7FAA
100
AcDbEntity
  8
DIM
100
AcDbLine
 10
239.0826235348331
 20
500.2019691813215
 30
0.0
 11
239.0826235348331
 21
546.980415353773
 31
0.0
  0
LINE
  5
8122
330
7FAA
100
AcDbEntity
  8
DIM
100
AcDbLine
 10
233.082623534833
 20
545.4804153537731
 30
0.0
 11
237.0826235348331
 21
545.4804153537731
 31
0.0
  0
SOLID
  5
8123
330
7FAA
100
AcDbEntity
  8
DIM
100
AcDbTrace
 10
233.082623534833
 20
545.8137486871065
 30
0.0
 11
233.082623534833
 21
545.1470820204397
 31
0.0
 12
231.082623534833
 22
545.4804153537731
 32
0.0
 13
231.082623534833
 23
545.4804153537731
 33
0.0
  0
SOLID
  5
8124
330
7FAA
100
AcDbEntity
  8
DIM
100
AcDbTrace
 10
237.0826235348331
 20
545.8137486871065
 30
0.0
 11
237.0826235348331
 21
545.1470820204397
 31
0.0
 12
239.0826235348331
 22
545.4804153537731
 32
0.0
 13
239.0826235348331
 23
545.4804153537731
 33
0.0
  0
MTEXT
  5
8125
330
7FAA
100
AcDbEntity
  8
DIM
100
AcDbMText
 10
235.0826235348331
 20
548.2304153537731
 30
0.0
 40
3.5
 41
0.0
 71
     5
 72
     1
  1
\A1;8
  7
dayus
 73
     1
 44
1.0
1001
ACAD
1000
MTEXTBEGIN
1070
    73
1070
     1
1070
    44
1040
1.0
1070
    74
1070
     0
1000
MTEXTEND
  0
POINT
  5
8126
330
7FAA
100
AcDbEntity
  8
Defpoints
 62
     0
100
AcDbPoint
 10
231.082623534833
 20
540.0920912154511
 30
0.0
  0
POINT
  5
8127
330
7FAA
100
AcDbEntity
  8
Defpoints
 62
     0
100
AcDbPoint
 10
239.0826235348331
 20
498.7019691813215
 30
0.0
  0
POINT
  5
8128
330
7FAA
100
AcDbEntity
  8
Defpoints
 62
     0
100
AcDbPoint
 10
239.0826235348331
 20
545.4804153537731
 30
0.0
  0
ENDBLK
  5
7FB5
330
7FAA
100
AcDbEntity
  8
0
100
AcDbBlockEnd
  0
BLOCK
  5
7FC0
330
7FB6
100
AcDbEntity
  8
0
100
AcDbBlockBegin
  2
*D87
 70
     1
 10
0.0
 20
0.0
 30
0.0
  3
*D87
  1

  0
LINE
  5
80CB
330
7FB6
100
AcDbEntity
  8
DIM
100
AcDbLine
 10
282.0826235348331
 20
500.2019691813213
 30
0.0
 11
282.0826235348331
 21
546.9804153537729
 31
0.0
  0
LINE
  5
80CC
330
7FB6
100
AcDbEntity
  8
DIM
100
AcDbLine
 10
290.0826238924608
 20
541.5920912154506
 30
0.0
 11
290.0826238924608
 21
546.9804153537729
 31
0.0
  0
LINE
  5
80CD
330
7FB6
100
AcDbEntity
  8
DIM
100
AcDbLine
 10
284.0826235348331
 20
545.4804153537729
 30
0.0
 11
288.0826238924608
 21
545.4804153537729
 31
0.0
  0
SOLID
  5
80CE
330
7FB6
100
AcDbEntity
  8
DIM
100
AcDbTrace
 10
284.0826235348331
 20
545.8137486871063
 30
0.0
 11
284.0826235348331
 21
545.1470820204396
 31
0.0
 12
282.0826235348331
 22
545.4804153537729
 32
0.0
 13
282.0826235348331
 23
545.4804153537729
 33
0.0
  0
SOLID
  5
80CF
330
7FB6
100
AcDbEntity
  8
DIM
100
AcDbTrace
 10
288.0826238924608
 20
545.8137486871063
 30
0.0
 11
288.0826238924608
 21
545.1470820204396
 31
0.0
 12
290.0826238924608
 22
545.4804153537729
 32
0.0
 13
290.0826238924608
 23
545.4804153537729
 33
0.0
  0
MTEXT
  5
80D0
330
7FB6
100
AcDbEntity
  8
DIM
100
AcDbMText
 10
286.082623713647
 20
548.230415353773
 30
0.0
 40
3.5
 41
0.0
 71
     5
 72
     1
  1
\A1;8
  7
dayus
 73
     1
 44
1.0
1001
ACAD
1000
MTEXTBEGIN
1070
    73
1070
     1
1070
    44
1040
1.0
1070
    74
1070
     0
1000
MTEXTEND
  0
POINT
  5
80D1
330
7FB6
100
AcDbEntity
  8
Defpoints
 62
     0
100
AcDbPoint
 10
282.0826235348331
 20
498.7019691813213
 30
0.0
  0
POINT
  5
80D2
330
7FB6
100
AcDbEntity
  8
Defpoints
 62
     0
100
AcDbPoint
 10
290.0826238924608
 20
540.0920912154506
 30
0.0
  0
POINT
  5
80D3
330
7FB6
100
AcDbEntity
  8
Defpoints
 62
     0
100
AcDbPoint
 10
290.0826238924608
 20
545.4804153537729
 30
0.0
  0
ENDBLK
  5
7FC1
330
7FB6
100
AcDbEntity
  8
0
100
AcDbBlockEnd
  0
BLOCK
  5
7FCC
330
7FC2
100
AcDbEntity
  8
0
100
AcDbBlockBegin
  2
*D88
 70
     1
 10
0.0
 20
0.0
 30
0.0
  3
*D88
  1

  0
LINE
  5
830D
330
7FC2
100
AcDbEntity
  8
DIM
100
AcDbLine
 10
231.082623534833
 20
541.592091215451
 30
0.0
 11
231.082623534833
 21
564.0254597800283
 31
0.0
  0
LINE
  5
830E
330
7FC2
100
AcDbEntity
  8
DIM
100
AcDbLine
 10
290.0826238924611
 20
541.5920912154506
 30
0.0
 11
290.0826238924611
 21
564.0254597800283
 31
0.0
  0
LINE
  5
830F
330
7FC2
100
AcDbEntity
  8
DIM
100
AcDbLine
 10
233.082623534833
 20
562.5254597800283
 30
0.0
 11
288.0826238924611
 21
562.5254597800283
 31
0.0
  0
SOLID
  5
8310
330
7FC2
100
AcDbEntity
  8
DIM
100
AcDbTrace
 10
233.082623534833
 20
562.8587931133616
 30
0.0
 11
233.082623534833
 21
562.1921264466949
 31
0.0
 12
231.082623534833
 22
562.5254597800283
 32
0.0
 13
231.082623534833
 23
562.5254597800283
 33
0.0
  0
SOLID
  5
8311
330
7FC2
100
AcDbEntity
  8
DIM
100
AcDbTrace
 10
288.0826238924611
 20
562.8587931133616
 30
0.0
 11
288.0826238924611
 21
562.1921264466949
 31
0.0
 12
290.0826238924611
 22
562.5254597800283
 32
0.0
 13
290.0826238924611
 23
562.5254597800283
 33
0.0
  0
MTEXT
  5
8312
330
7FC2
100
AcDbEntity
  8
DIM
100
AcDbMText
 10
260.582623713647
 20
565.2754597800282
 30
0.0
 40
3.5
 41
0.0
 71
     5
 72
     1
  1
\A1;54+stroke=59
  7
dayus
 73
     1
 44
1.0
1001
ACAD
1000
MTEXTBEGIN
1070
    73
1070
     1
1070
    44
1040
1.0
1070
    74
1070
     0
1000
MTEXTEND
  0
POINT
  5
8313
330
7FC2
100
AcDbEntity
  8
Defpoints
 62
     0
100
AcDbPoint
 10
231.082623534833
 20
540.0920912154511
 30
0.0
  0
POINT
  5
8314
330
7FC2
100
AcDbEntity
  8
Defpoints
 62
     0
100
AcDbPoint
 10
290.0826238924611
 20
540.0920912154506
 30
0.0
  0
POINT
  5
8315
330
7FC2
100
AcDbEntity
  8
Defpoints
 62
     0
100
AcDbPoint
 10
290.0826238924611
 20
562.5254597800283
 30
0.0
  0
ENDBLK
  5
7FCD
330
7FC2
100
AcDbEntity
  8
0
100
AcDbBlockEnd
  0
BLOCK
  5
7FD8
330
7FCE
100
AcDbEntity
  8
0
100
AcDbBlockBegin
  2
*D89
 70
     1
 10
0.0
 20
0.0
 30
0.0
  3
*D89
  1

  0
LINE
  5
8303
330
7FCE
100
AcDbEntity
  8
DIM
100
AcDbLine
 10
193.0826247567282
 20
500.3420911930994
 30
0.0
 11
193.0826247567282
 21
575.7913900815417
 31
0.0
  0
LINE
  5
8304
330
7FCE
100
AcDbEntity
  8
DIM
100
AcDbLine
 10
290.0826238924608
 20
541.5920912154509
 30
0.0
 11
290.0826238924608
 21
575.7913900815417
 31
0.0
  0
LINE
  5
8305
330
7FCE
100
AcDbEntity
  8
DIM
100
AcDbLine
 10
195.0826247567282
 20
574.2913900815417
 30
0.0
 11
288.0826238924608
 21
574.2913900815417
 31
0.0
  0
SOLID
  5
8306
330
7FCE
100
AcDbEntity
  8
DIM
100
AcDbTrace
 10
195.0826247567282
 20
574.6247234148751
 30
0.0
 11
195.0826247567282
 21
573.9580567482083
 31
0.0
 12
193.0826247567282
 22
574.2913900815417
 32
0.0
 13
193.0826247567282
 23
574.2913900815417
 33
0.0
  0
SOLID
  5
8307
330
7FCE
100
AcDbEntity
  8
DIM
100
AcDbTrace
 10
288.0826238924608
 20
574.6247234148751
 30
0.0
 11
288.0826238924608
 21
573.9580567482083
 31
0.0
 12
290.0826238924608
 22
574.2913900815417
 32
0.0
 13
290.0826238924608
 23
574.2913900815417
 33
0.0
  0
MTEXT
  5
8308
330
7FCE
100
AcDbEntity
  8
DIM
100
AcDbMText
 10
241.5826243245946
 20
577.0413900815417
 30
0.0
 40
3.5
 41
0.0
 71
     5
 72
     1
  1
\A1;92+stroke=97
  7
dayus
 73
     1
 44
1.0
1001
ACAD
1000
MTEXTBEGIN
1070
    73
1070
     1
1070
    44
1040
1.0
1070
    74
1070
     0
1000
MTEXTEND
  0
POINT
  5
8309
330
7FCE
100
AcDbEntity
  8
Defpoints
 62
     0
100
AcDbPoint
 10
193.0826247567282
 20
498.8420911930994
 30
0.0
  0
POINT
  5
830A
330
7FCE
100
AcDbEntity
  8
Defpoints
 62
     0
100
AcDbPoint
 10
290.0826238924608
 20
540.0920912154508
 30
0.0
  0
POINT
  5
830B
330
7FCE
100
AcDbEntity
  8
Defpoints
 62
     0
100
AcDbPoint
 10
290.0826238924608
 20
574.2913900815417
 30
0.0
  0
ENDBLK
  5
7FD9
330
7FCE
100
AcDbEntity
  8
0
100
AcDbBlockEnd
  0
BLOCK
  5
7FE4
330
7FDA
100
AcDbEntity
  8
0
100
AcDbBlockBegin
  2
*D90
 70
     1
 10
0.0
 20
0.0
 30
0.0
  3
*D90
  1

  0
LINE
  5
8316
330
7FDA
100
AcDbEntity
  8
DIM
100
AcDbLine
 10
221.0826237583504
 20
502.342091766794
 30
0.0
 11
221.0826237583504
 21
564.0254597800283
 31
0.0
  0
LINE
  5
8317
330
7FDA
100
AcDbEntity
  8
DIM
100
AcDbLine
 10
231.082623534833
 20
541.592091215451
 30
0.0
 11
231.082623534833
 21
564.0254597800283
 31
0.0
  0
LINE
  5
8318
330
7FDA
100
AcDbEntity
  8
DIM
100
AcDbLine
 10
223.0826237583504
 20
562.5254597800283
 30
0.0
 11
229.082623534833
 21
562.5254597800283
 31
0.0
  0
SOLID
  5
8319
330
7FDA
100
AcDbEntity
  8
DIM
100
AcDbTrace
 10
223.0826237583504
 20
562.8587931133616
 30
0.0
 11
223.0826237583504
 21
562.1921264466949
 31
0.0
 12
221.0826237583504
 22
562.5254597800283
 32
0.0
 13
221.0826237583504
 23
562.5254597800283
 33
0.0
  0
SOLID
  5
831A
330
7FDA
100
AcDbEntity
  8
DIM
100
AcDbTrace
 10
229.082623534833
 20
562.8587931133616
 30
0.0
 11
229.082623534833
 21
562.1921264466949
 31
0.0
 12
231.082623534833
 22
562.5254597800283
 32
0.0
 13
231.082623534833
 23
562.5254597800283
 33
0.0
  0
MTEXT
  5
831B
330
7FDA
100
AcDbEntity
  8
DIM
100
AcDbMText
 10
226.0826236465917
 20
565.2754597800282
 30
0.0
 40
3.5
 41
0.0
 71
     5
 72
     1
  1
\A1;10
  7
dayus
 73
     1
 44
1.0
1001
ACAD
1000
MTEXTBEGIN
1070
    73
1070
     1
1070
    44
1040
1.0
1070
    74
1070
     0
1000
MTEXTEND
  0
POINT
  5
831C
330
7FDA
100
AcDbEntity
  8
Defpoints
 62
     0
100
AcDbPoint
 10
221.0826237583504
 20
500.8420917667939
 30
0.0
  0
POINT
  5
831D
330
7FDA
100
AcDbEntity
  8
Defpoints
 62
     0
100
AcDbPoint
 10
231.082623534833
 20
540.0920912154511
 30
0.0
  0
POINT
  5
831E
330
7FDA
100
AcDbEntity
  8
Defpoints
 62
     0
100
AcDbPoint
 10
231.082623534833
 20
562.5254597800283
 30
0.0
  0
ENDBLK
  5
7FE5
330
7FDA
100
AcDbEntity
  8
0
100
AcDbBlockEnd
  0
BLOCK
  5
7FF0
330
7FE6
100
AcDbEntity
  8
0
100
AcDbBlockBegin
  2
*D91
 70
     1
 10
0.0
 20
0.0
 30
0.0
  3
*D91
  1

  0
LINE
  5
831F
330
7FE6
100
AcDbEntity
  8
DIM
100
AcDbLine
 10
193.0826247567282
 20
500.3420914389685
 30
0.0
 11
193.0826247567282
 21
564.0254597800283
 31
0.0
  0
LINE
  5
8320
330
7FE6
100
AcDbEntity
  8
DIM
100
AcDbLine
 10
221.0826237583504
 20
502.342091766794
 30
0.0
 11
221.0826237583504
 21
564.0254597800283
 31
0.0
  0
LINE
  5
8321
330
7FE6
100
AcDbEntity
  8
DIM
100
AcDbLine
 10
195.0826247567282
 20
562.5254597800283
 30
0.0
 11
219.0826237583504
 21
562.5254597800283
 31
0.0
  0
SOLID
  5
8322
330
7FE6
100
AcDbEntity
  8
DIM
100
AcDbTrace
 10
195.0826247567282
 20
562.8587931133616
 30
0.0
 11
195.0826247567282
 21
562.1921264466949
 31
0.0
 12
193.0826247567282
 22
562.5254597800283
 32
0.0
 13
193.0826247567282
 23
562.5254597800283
 33
0.0
  0
SOLID
  5
8323
330
7FE6
100
AcDbEntity
  8
DIM
100
AcDbTrace
 10
219.0826237583504
 20
562.8587931133616
 30
0.0
 11
219.0826237583504
 21
562.1921264466949
 31
0.0
 12
221.0826237583504
 22
562.5254597800283
 32
0.0
 13
221.0826237583504
 23
562.5254597800283
 33
0.0
  0
MTEXT
  5
8324
330
7FE6
100
AcDbEntity
  8
DIM
100
AcDbMText
 10
207.0826242575393
 20
565.2754597800282
 30
0.0
 40
3.5
 41
0.0
 71
     5
 72
     1
  1
\A1;28
  7
dayus
 73
     1
 44
1.0
1001
ACAD
1000
MTEXTBEGIN
1070
    73
1070
     1
1070
    44
1040
1.0
1070
    74
1070
     0
1000
MTEXTEND
  0
POINT
  5
8325
330
7FE6
100
AcDbEntity
  8
Defpoints
 62
     0
100
AcDbPoint
 10
193.0826247567282
 20
498.8420914389685
 30
0.0
  0
POINT
  5
8326
330
7FE6
100
AcDbEntity
  8
Defpoints
 62
     0
100
AcDbPoint
 10
221.0826237583504
 20
500.8420917667939
 30
0.0
  0
POINT
  5
8327
330
7FE6
100
AcDbEntity
  8
Defpoints
 62
     0
100
AcDbPoint
 10
221.0826237583504
 20
562.5254597800283
 30
0.0
  0
ENDBLK
  5
7FF1
330
7FE6
100
AcDbEntity
  8
0
100
AcDbBlockEnd
  0
BLOCK
  5
7FFC
330
7FF2
100
AcDbEntity
  8
0
100
AcDbBlockBegin
  2
*D92
 70
     1
 10
0.0
 20
0.0
 30
0.0
  3
*D92
  1

  0
LINE
  5
80F8
330
7FF2
100
AcDbEntity
  8
DIM
100
AcDbLine
 10
231.082623534833
 20
541.592091215451
 30
0.0
 11
231.082623534833
 21
554.3087754977395
 31
0.0
  0
LINE
  5
80F9
330
7FF2
100
AcDbEntity
  8
DIM
100
AcDbLine
 10
246.5826232815132
 20
541.4477455296114
 30
0.0
 11
246.5826232815132
 21
554.3087754977395
 31
0.0
  0
LINE
  5
80FA
330
7FF2
100
AcDbEntity
  8
DIM
100
AcDbLine
 10
233.082623534833
 20
552.8087754977394
 30
0.0
 11
244.5826232815132
 21
552.8087754977394
 31
0.0
  0
SOLID
  5
80FB
330
7FF2
100
AcDbEntity
  8
DIM
100
AcDbTrace
 10
233.082623534833
 20
553.1421088310728
 30
0.0
 11
233.082623534833
 21
552.475442164406
 31
0.0
 12
231.082623534833
 22
552.8087754977394
 32
0.0
 13
231.082623534833
 23
552.8087754977394
 33
0.0
  0
SOLID
  5
80FC
330
7FF2
100
AcDbEntity
  8
DIM
100
AcDbTrace
 10
244.5826232815132
 20
553.1421088310728
 30
0.0
 11
244.5826232815132
 21
552.475442164406
 31
0.0
 12
246.5826232815132
 22
552.8087754977394
 32
0.0
 13
246.5826232815132
 23
552.8087754977394
 33
0.0
  0
MTEXT
  5
80FD
330
7FF2
100
AcDbEntity
  8
DIM
100
AcDbMText
 10
238.8326234081731
 20
555.5587754977394
 30
0.0
 40
3.5
 41
0.0
 71
     5
 72
     1
  1
\A1;15.5
  7
dayus
 73
     1
 44
1.0
1001
ACAD
1000
MTEXTBEGIN
1070
    73
1070
     1
1070
    44
1040
1.0
1070
    74
1070
     0
1000
MTEXTEND
  0
POINT
  5
80FE
330
7FF2
100
AcDbEntity
  8
Defpoints
 62
     0
100
AcDbPoint
 10
231.082623534833
 20
540.0920912154511
 30
0.0
  0
POINT
  5
80FF
330
7FF2
100
AcDbEntity
  8
Defpoints
 62
     0
100
AcDbPoint
 10
246.5826232815132
 20
539.9477455296114
 30
0.0
  0
POINT
  5
8100
330
7FF2
100
AcDbEntity
  8
Defpoints
 62
     0
100
AcDbPoint
 10
246.5826232815132
 20
552.8087754977394
 30
0.0
  0
ENDBLK
  5
7FFD
330
7FF2
100
AcDbEntity
  8
0
100
AcDbBlockEnd
  0
BLOCK
  5
8008
330
7FFE
100
AcDbEntity
  8
0
100
AcDbBlockBegin
  2
*D93
 70
     1
 10
0.0
 20
0.0
 30
0.0
  3
*D93
  1

  0
LINE
  5
809D
330
7FFE
100
AcDbEntity
  8
DIM
100
AcDbLine
 10
274.5826222831354
 20
541.5920912154509
 30
0.0
 11
274.5826222831354
 21
554.3087754977395
 31
0.0
  0
LINE
  5
809E
330
7FFE
100
AcDbEntity
  8
DIM
100
AcDbLine
 10
290.0826238924608
 20
541.5920912154509
 30
0.0
 11
290.0826238924608
 21
554.3087754977395
 31
0.0
  0
LINE
  5
809F
330
7FFE
100
AcDbEntity
  8
DIM
100
AcDbLine
 10
276.5826222831354
 20
552.8087754977394
 30
0.0
 11
288.0826238924608
 21
552.8087754977394
 31
0.0
  0
SOLID
  5
80A0
330
7FFE
100
AcDbEntity
  8
DIM
100
AcDbTrace
 10
276.5826222831354
 20
553.1421088310728
 30
0.0
 11
276.5826222831354
 21
552.475442164406
 31
0.0
 12
274.5826222831354
 22
552.8087754977394
 32
0.0
 13
274.5826222831354
 23
552.8087754977394
 33
0.0
  0
SOLID
  5
80A1
330
7FFE
100
AcDbEntity
  8
DIM
100
AcDbTrace
 10
288.0826238924608
 20
553.1421088310728
 30
0.0
 11
288.0826238924608
 21
552.475442164406
 31
0.0
 12
290.0826238924608
 22
552.8087754977394
 32
0.0
 13
290.0826238924608
 23
552.8087754977394
 33
0.0
  0
MTEXT
  5
80A2
330
7FFE
100
AcDbEntity
  8
DIM
100
AcDbMText
 10
282.3326230877981
 20
555.5587754977394
 30
0.0
 40
3.5
 41
0.0
 71
     5
 72
     1
  1
\A1;15.5
  7
dayus
 73
     1
 44
1.0
1001
ACAD
1000
MTEXTBEGIN
1070
    73
1070
     1
1070
    44
1040
1.0
1070
    74
1070
     0
1000
MTEXTEND
  0
POINT
  5
80A3
330
7FFE
100
AcDbEntity
  8
Defpoints
 62
     0
100
AcDbPoint
 10
274.5826222831354
 20
540.0920912154508
 30
0.0
  0
POINT
  5
80A4
330
7FFE
100
AcDbEntity
  8
Defpoints
 62
     0
100
AcDbPoint
 10
290.0826238924608
 20
540.0920912154508
 30
0.0
  0
POINT
  5
80A5
330
7FFE
100
AcDbEntity
  8
Defpoints
 62
     0
100
AcDbPoint
 10
290.0826238924608
 20
552.8087754977394
 30
0.0
  0
ENDBLK
  5
8009
330
7FFE
100
AcDbEntity
  8
0
100
AcDbBlockEnd
  0
BLOCK
  5
8181
330
8177
100
AcDbEntity
  8
0
100
AcDbBlockBegin
  2
*D94
 70
     1
 10
0.0
 20
0.0
 30
0.0
  3
*D94
  1

  0
LINE
  5
81D0
330
8177
100
AcDbEntity
  8
DIM
100
AcDbLine
 10
382.8069087578668
 20
536.0812340343165
 30
0.0
 11
382.8069087578668
 21
552.6835628791811
 31
0.0
  0
LINE
  5
81D1
330
8177
100
AcDbEntity
  8
DIM
100
AcDbLine
 10
454.8069087578666
 20
536.0812340343163
 30
0.0
 11
454.8069087578666
 21
552.6835628791811
 31
0.0
  0
LINE
  5
81D2
330
8177
100
AcDbEntity
  8
DIM
100
AcDbLine
 10
384.8069087578668
 20
551.1835628791811
 30
0.0
 11
452.8069087578667
 21
551.1835628791811
 31
0.0
  0
SOLID
  5
81D3
330
8177
100
AcDbEntity
  8
DIM
100
AcDbTrace
 10
384.8069087578668
 20
551.5168962125145
 30
0.0
 11
384.8069087578668
 21
550.8502295458478
 31
0.0
 12
382.8069087578668
 22
551.1835628791811
 32
0.0
 13
382.8069087578668
 23
551.1835628791811
 33
0.0
  0
SOLID
  5
81D4
330
8177
100
AcDbEntity
  8
DIM
100
AcDbTrace
 10
452.8069087578667
 20
551.5168962125145
 30
0.0
 11
452.8069087578667
 21
550.8502295458478
 31
0.0
 12
454.8069087578666
 22
551.1835628791811
 32
0.0
 13
454.8069087578666
 23
551.1835628791811
 33
0.0
  0
MTEXT
  5
81D5
330
8177
100
AcDbEntity
  8
DIM
100
AcDbMText
 10
418.8069087578667
 20
553.9335628791811
 30
0.0
 40
3.5
 41
0.0
 71
     5
 72
     1
  1
\A1;□72
  7
dayus
 73
     1
 44
1.0
1001
ACAD
1000
MTEXTBEGIN
1070
    73
1070
     1
1070
    44
1040
1.0
1070
    74
1070
     0
1000
MTEXTEND
  0
POINT
  5
81D6
330
8177
100
AcDbEntity
  8
Defpoints
 62
     0
100
AcDbPoint
 10
382.8069087578668
 20
534.5812340343164
 30
0.0
  0
POINT
  5
81D7
330
8177
100
AcDbEntity
  8
Defpoints
 62
     0
100
AcDbPoint
 10
454.8069087578666
 20
534.5812340343163
 30
0.0
  0
POINT
  5
81D8
330
8177
100
AcDbEntity
  8
Defpoints
 62
     0
100
AcDbPoint
 10
454.8069087578666
 20
551.1835628791811
 30
0.0
  0
ENDBLK
  5
8182
330
8177
100
AcDbEntity
  8
0
100
AcDbBlockEnd
  0
BLOCK
  5
818D
330
8183
100
AcDbEntity
  8
0
100
AcDbBlockBegin
  2
*D95
 70
     1
 10
0.0
 20
0.0
 30
0.0
  3
*D95
  1

  0
LINE
  5
81B5
330
8183
100
AcDbEntity
  8
DIM
100
AcDbLine
 10
371.0569088472738
 20
531.5920895763231
 30
0.0
 11
371.0569088472738
 21
564.0254597800284
 31
0.0
  0
LINE
  5
81B6
330
8183
100
AcDbEntity
  8
DIM
100
AcDbLine
 10
466.5569086684598
 20
531.5920895763229
 30
0.0
 11
466.5569086684598
 21
564.0254597800284
 31
0.0
  0
LINE
  5
81B7
330
8183
100
AcDbEntity
  8
DIM
100
AcDbLine
 10
373.0569088472738
 20
562.5254597800284
 30
0.0
 11
464.5569086684599
 21
562.5254597800284
 31
0.0
  0
SOLID
  5
81B8
330
8183
100
AcDbEntity
  8
DIM
100
AcDbTrace
 10
373.0569088472738
 20
562.8587931133617
 30
0.0
 11
373.0569088472738
 21
562.192126446695
 31
0.0
 12
371.0569088472738
 22
562.5254597800284
 32
0.0
 13
371.0569088472738
 23
562.5254597800284
 33
0.0
  0
SOLID
  5
81B9
330
8183
100
AcDbEntity
  8
DIM
100
AcDbTrace
 10
464.5569086684599
 20
562.8587931133617
 30
0.0
 11
464.5569086684599
 21
562.192126446695
 31
0.0
 12
466.5569086684598
 22
562.5254597800284
 32
0.0
 13
466.5569086684598
 23
562.5254597800284
 33
0.0
  0
MTEXT
  5
81BA
330
8183
100
AcDbEntity
  8
DIM
100
AcDbMText
 10
418.8069087578668
 20
565.2754597800284
 30
0.0
 40
3.5
 41
0.0
 71
     5
 72
     1
  1
\A1;□95.5
  7
dayus
 73
     1
 44
1.0
1001
ACAD
1000
MTEXTBEGIN
1070
    73
1070
     1
1070
    44
1040
1.0
1070
    74
1070
     0
1000
MTEXTEND
  0
POINT
  5
81BB
330
8183
100
AcDbEntity
  8
Defpoints
 62
     0
100
AcDbPoint
 10
371.0569088472738
 20
530.0920895763231
 30
0.0
  0
POINT
  5
81BC
330
8183
100
AcDbEntity
  8
Defpoints
 62
     0
100
AcDbPoint
 10
466.5569086684598
 20
530.0920895763229
 30
0.0
  0
POINT
  5
81BD
330
8183
100
AcDbEntity
  8
Defpoints
 62
     0
100
AcDbPoint
 10
466.5569086684598
 20
562.5254597800284
 30
0.0
  0
ENDBLK
  5
818E
330
8183
100
AcDbEntity
  8
0
100
AcDbBlockEnd
  0
BLOCK
  5
81FE
330
81F4
100
AcDbEntity
  8
0
100
AcDbBlockBegin
  2
*D96
 70
     1
 10
0.0
 20
0.0
 30
0.0
  3
*D96
  1

  0
LINE
  5
83A8
330
81F4
100
AcDbEntity
  8
DIM
100
AcDbLine
 10
231.0826235348329
 20
293.4404425020886
 30
0.0
 11
231.0826235348329
 21
298.8287666404106
 31
0.0
  0
LINE
  5
83A9
330
81F4
100
AcDbEntity
  8
DIM
100
AcDbLine
 10
239.082623534833
 20
252.0503204679591
 30
0.0
 11
239.082623534833
 21
298.8287666404106
 31
0.0
  0
LINE
  5
83AA
330
81F4
100
AcDbEntity
  8
DIM
100
AcDbLine
 10
233.0826235348329
 20
297.3287666404106
 30
0.0
 11
237.082623534833
 21
297.3287666404106
 31
0.0
  0
SOLID
  5
83AB
330
81F4
100
AcDbEntity
  8
DIM
100
AcDbTrace
 10
233.0826235348329
 20
297.6620999737439
 30
0.0
 11
233.0826235348329
 21
296.9954333070773
 31
0.0
 12
231.0826235348329
 22
297.3287666404106
 32
0.0
 13
231.0826235348329
 23
297.3287666404106
 33
0.0
  0
SOLID
  5
83AC
330
81F4
100
AcDbEntity
  8
DIM
100
AcDbTrace
 10
237.082623534833
 20
297.6620999737439
 30
0.0
 11
237.082623534833
 21
296.9954333070773
 31
0.0
 12
239.082623534833
 22
297.3287666404106
 32
0.0
 13
239.082623534833
 23
297.3287666404106
 33
0.0
  0
MTEXT
  5
83AD
330
81F4
100
AcDbEntity
  8
DIM
100
AcDbMText
 10
235.082623534833
 20
300.0787666404106
 30
0.0
 40
3.5
 41
0.0
 71
     5
 72
     1
  1
\A1;8
  7
dayus
 73
     1
 44
1.0
1001
ACAD
1000
MTEXTBEGIN
1070
    73
1070
     1
1070
    44
1040
1.0
1070
    74
1070
     0
1000
MTEXTEND
  0
POINT
  5
83AE
330
81F4
100
AcDbEntity
  8
Defpoints
 62
     0
100
AcDbPoint
 10
231.0826235348329
 20
291.9404425020886
 30
0.0
  0
POINT
  5
83AF
330
81F4
100
AcDbEntity
  8
Defpoints
 62
     0
100
AcDbPoint
 10
239.082623534833
 20
250.5503204679591
 30
0.0
  0
POINT
  5
83B0
330
81F4
100
AcDbEntity
  8
Defpoints
 62
     0
100
AcDbPoint
 10
239.082623534833
 20
297.3287666404106
 30
0.0
  0
ENDBLK
  5
81FF
330
81F4
100
AcDbEntity
  8
0
100
AcDbBlockEnd
  0
BLOCK
  5
820A
330
8200
100
AcDbEntity
  8
0
100
AcDbBlockBegin
  2
*D97
 70
     1
 10
0.0
 20
0.0
 30
0.0
  3
*D97
  1

  0
LINE
  5
83B1
330
8200
100
AcDbEntity
  8
DIM
100
AcDbLine
 10
282.082623534833
 20
252.0503204679588
 30
0.0
 11
282.082623534833
 21
298.8287666404105
 31
0.0
  0
LINE
  5
83B2
330
8200
100
AcDbEntity
  8
DIM
100
AcDbLine
 10
290.0826238924608
 20
293.4404425020882
 30
0.0
 11
290.0826238924608
 21
298.8287666404105
 31
0.0
  0
LINE
  5
83B3
330
8200
100
AcDbEntity
  8
DIM
100
AcDbLine
 10
284.082623534833
 20
297.3287666404105
 30
0.0
 11
288.0826238924608
 21
297.3287666404105
 31
0.0
  0
SOLID
  5
83B4
330
8200
100
AcDbEntity
  8
DIM
100
AcDbTrace
 10
284.082623534833
 20
297.6620999737438
 30
0.0
 11
284.082623534833
 21
296.9954333070772
 31
0.0
 12
282.082623534833
 22
297.3287666404105
 32
0.0
 13
282.082623534833
 23
297.3287666404105
 33
0.0
  0
SOLID
  5
83B5
330
8200
100
AcDbEntity
  8
DIM
100
AcDbTrace
 10
288.0826238924608
 20
297.6620999737438
 30
0.0
 11
288.0826238924608
 21
296.9954333070772
 31
0.0
 12
290.0826238924608
 22
297.3287666404105
 32
0.0
 13
290.0826238924608
 23
297.3287666404105
 33
0.0
  0
MTEXT
  5
83B6
330
8200
100
AcDbEntity
  8
DIM
100
AcDbMText
 10
286.0826237136469
 20
300.0787666404105
 30
0.0
 40
3.5
 41
0.0
 71
     5
 72
     1
  1
\A1;8
  7
dayus
 73
     1
 44
1.0
1001
ACAD
1000
MTEXTBEGIN
1070
    73
1070
     1
1070
    44
1040
1.0
1070
    74
1070
     0
1000
MTEXTEND
  0
POINT
  5
83B7
330
8200
100
AcDbEntity
  8
Defpoints
 62
     0
100
AcDbPoint
 10
282.082623534833
 20
250.5503204679588
 30
0.0
  0
POINT
  5
83B8
330
8200
100
AcDbEntity
  8
Defpoints
 62
     0
100
AcDbPoint
 10
290.0826238924608
 20
291.9404425020882
 30
0.0
  0
POINT
  5
83B9
330
8200
100
AcDbEntity
  8
Defpoints
 62
     0
100
AcDbPoint
 10
290.0826238924608
 20
297.3287666404105
 30
0.0
  0
ENDBLK
  5
820B
330
8200
100
AcDbEntity
  8
0
100
AcDbBlockEnd
  0
BLOCK
  5
8216
330
820C
100
AcDbEntity
  8
0
100
AcDbBlockBegin
  2
*D98
 70
     1
 10
0.0
 20
0.0
 30
0.0
  3
*D98
  1

  0
LINE
  5
83BA
330
820C
100
AcDbEntity
  8
DIM
100
AcDbLine
 10
231.0826235348329
 20
293.4404425020886
 30
0.0
 11
231.0826235348329
 21
315.8738110666658
 31
0.0
  0
LINE
  5
83BB
330
820C
100
AcDbEntity
  8
DIM
100
AcDbLine
 10
290.082623892461
 20
293.4404425020882
 30
0.0
 11
290.082623892461
 21
315.8738110666658
 31
0.0
  0
LINE
  5
83BC
330
820C
100
AcDbEntity
  8
DIM
100
AcDbLine
 10
233.0826235348329
 20
314.3738110666658
 30
0.0
 11
288.082623892461
 21
314.3738110666658
 31
0.0
  0
SOLID
  5
83BD
330
820C
100
AcDbEntity
  8
DIM
100
AcDbTrace
 10
233.0826235348329
 20
314.7071443999991
 30
0.0
 11
233.0826235348329
 21
314.0404777333325
 31
0.0
 12
231.0826235348329
 22
314.3738110666658
 32
0.0
 13
231.0826235348329
 23
314.3738110666658
 33
0.0
  0
SOLID
  5
83BE
330
820C
100
AcDbEntity
  8
DIM
100
AcDbTrace
 10
288.082623892461
 20
314.7071443999991
 30
0.0
 11
288.082623892461
 21
314.0404777333325
 31
0.0
 12
290.082623892461
 22
314.3738110666658
 32
0.0
 13
290.082623892461
 23
314.3738110666658
 33
0.0
  0
MTEXT
  5
83BF
330
820C
100
AcDbEntity
  8
DIM
100
AcDbMText
 10
260.5826237136469
 20
317.1238110666658
 30
0.0
 40
3.5
 41
0.0
 71
     5
 72
     1
  1
\A1;54+stroke=59
  7
dayus
 73
     1
 44
1.0
1001
ACAD
1000
MTEXTBEGIN
1070
    73
1070
     1
1070
    44
1040
1.0
1070
    74
1070
     0
1000
MTEXTEND
  0
POINT
  5
83C0
330
820C
100
AcDbEntity
  8
Defpoints
 62
     0
100
AcDbPoint
 10
231.0826235348329
 20
291.9404425020886
 30
0.0
  0
POINT
  5
83C1
330
820C
100
AcDbEntity
  8
Defpoints
 62
     0
100
AcDbPoint
 10
290.082623892461
 20
291.9404425020882
 30
0.0
  0
POINT
  5
83C2
330
820C
100
AcDbEntity
  8
Defpoints
 62
     0
100
AcDbPoint
 10
290.082623892461
 20
314.3738110666658
 30
0.0
  0
ENDBLK
  5
8217
330
820C
100
AcDbEntity
  8
0
100
AcDbBlockEnd
  0
BLOCK
  5
8222
330
8218
100
AcDbEntity
  8
0
100
AcDbBlockBegin
  2
*D99
 70
     1
 10
0.0
 20
0.0
 30
0.0
  3
*D99
  1

  0
LINE
  5
83C3
330
8218
100
AcDbEntity
  8
DIM
100
AcDbLine
 10
221.0826237583503
 20
253.6904424797369
 30
0.0
 11
221.0826237583503
 21
327.6397413681793
 31
0.0
  0
LINE
  5
83C4
330
8218
100
AcDbEntity
  8
DIM
100
AcDbLine
 10
290.0826238924608
 20
293.4404425020884
 30
0.0
 11
290.0826238924608
 21
327.6397413681793
 31
0.0
  0
LINE
  5
83C5
330
8218
100
AcDbEntity
  8
DIM
100
AcDbLine
 10
223.0826237583503
 20
326.1397413681793
 30
0.0
 11
288.0826238924608
 21
326.1397413681793
 31
0.0
  0
SOLID
  5
83C6
330
8218
100
AcDbEntity
  8
DIM
100
AcDbTrace
 10
223.0826237583503
 20
326.4730747015126
 30
0.0
 11
223.0826237583503
 21
325.8064080348459
 31
0.0
 12
221.0826237583503
 22
326.1397413681793
 32
0.0
 13
221.0826237583503
 23
326.1397413681793
 33
0.0
  0
SOLID
  5
83C7
330
8218
100
AcDbEntity
  8
DIM
100
AcDbTrace
 10
288.0826238924608
 20
326.4730747015126
 30
0.0
 11
288.0826238924608
 21
325.8064080348459
 31
0.0
 12
290.0826238924608
 22
326.1397413681793
 32
0.0
 13
290.0826238924608
 23
326.1397413681793
 33
0.0
  0
MTEXT
  5
83C8
330
8218
100
AcDbEntity
  8
DIM
100
AcDbMText
 10
255.5826238254056
 20
328.8897413681793
 30
0.0
 40
3.5
 41
0.0
 71
     5
 72
     1
  1
\A1;64+stroke=69
  7
dayus
 73
     1
 44
1.0
1001
ACAD
1000
MTEXTBEGIN
1070
    73
1070
     1
1070
    44
1040
1.0
1070
    74
1070
     0
1000
MTEXTEND
  0
POINT
  5
83C9
330
8218
100
AcDbEntity
  8
Defpoints
 62
     0
100
AcDbPoint
 10
221.0826237583503
 20
252.1904424797369
 30
0.0
  0
POINT
  5
83CA
330
8218
100
AcDbEntity
  8
Defpoints
 62
     0
100
AcDbPoint
 10
290.0826238924608
 20
291.9404425020884
 30
0.0
  0
POINT
  5
83CB
330
8218
100
AcDbEntity
  8
Defpoints
 62
     0
100
AcDbPoint
 10
290.0826238924608
 20
326.1397413681793
 30
0.0
  0
ENDBLK
  5
8223
330
8218
100
AcDbEntity
  8
0
100
AcDbBlockEnd
  0
BLOCK
  5
822E
330
8224
100
AcDbEntity
  8
0
100
AcDbBlockBegin
  2
*D100
 70
     1
 10
0.0
 20
0.0
 30
0.0
  3
*D100
  1

  0
LINE
  5
83CC
330
8224
100
AcDbEntity
  8
DIM
100
AcDbLine
 10
221.0826237583503
 20
254.1904430534315
 30
0.0
 11
221.0826237583503
 21
315.8738110666658
 31
0.0
  0
LINE
  5
83CD
330
8224
100
AcDbEntity
  8
DIM
100
AcDbLine
 10
231.0826235348329
 20
293.4404425020886
 30
0.0
 11
231.0826235348329
 21
315.8738110666658
 31
0.0
  0
LINE
  5
83CE
330
8224
100
AcDbEntity
  8
DIM
100
AcDbLine
 10
223.0826237583503
 20
314.3738110666658
 30
0.0
 11
229.0826235348329
 21
314.3738110666658
 31
0.0
  0
SOLID
  5
83CF
330
8224
100
AcDbEntity
  8
DIM
100
AcDbTrace
 10
223.0826237583503
 20
314.7071443999991
 30
0.0
 11
223.0826237583503
 21
314.0404777333325
 31
0.0
 12
221.0826237583503
 22
314.3738110666658
 32
0.0
 13
221.0826237583503
 23
314.3738110666658
 33
0.0
  0
SOLID
  5
83D0
330
8224
100
AcDbEntity
  8
DIM
100
AcDbTrace
 10
229.0826235348329
 20
314.7071443999991
 30
0.0
 11
229.0826235348329
 21
314.0404777333325
 31
0.0
 12
231.0826235348329
 22
314.3738110666658
 32
0.0
 13
231.0826235348329
 23
314.3738110666658
 33
0.0
  0
MTEXT
  5
83D1
330
8224
100
AcDbEntity
  8
DIM
100
AcDbMText
 10
226.0826236465916
 20
317.1238110666658
 30
0.0
 40
3.5
 41
0.0
 71
     5
 72
     1
  1
\A1;10
  7
dayus
 73
     1
 44
1.0
1001
ACAD
1000
MTEXTBEGIN
1070
    73
1070
     1
1070
    44
1040
1.0
1070
    74
1070
     0
1000
MTEXTEND
  0
POINT
  5
83D2
330
8224
100
AcDbEntity
  8
Defpoints
 62
     0
100
AcDbPoint
 10
221.0826237583503
 20
252.6904430534315
 30
0.0
  0
POINT
  5
83D3
330
8224
100
AcDbEntity
  8
Defpoints
 62
     0
100
AcDbPoint
 10
231.0826235348329
 20
291.9404425020886
 30
0.0
  0
POINT
  5
83D4
330
8224
100
AcDbEntity
  8
Defpoints
 62
     0
100
AcDbPoint
 10
231.0826235348329
 20
314.3738110666658
 30
0.0
  0
ENDBLK
  5
822F
330
8224
100
AcDbEntity
  8
0
100
AcDbBlockEnd
  0
BLOCK
  5
8246
330
823C
100
AcDbEntity
  8
0
100
AcDbBlockBegin
  2
*D102
 70
     1
 10
0.0
 20
0.0
 30
0.0
  3
*D102
  1

  0
LINE
  5
83D5
330
823C
100
AcDbEntity
  8
DIM
100
AcDbLine
 10
231.0826235348329
 20
293.4404425020886
 30
0.0
 11
231.0826235348329
 21
306.157126784377
 31
0.0
  0
LINE
  5
83D6
330
823C
100
AcDbEntity
  8
DIM
100
AcDbLine
 10
246.5826232815132
 20
293.296096816249
 30
0.0
 11
246.5826232815132
 21
306.157126784377
 31
0.0
  0
LINE
  5
83D7
330
823C
100
AcDbEntity
  8
DIM
100
AcDbLine
 10
233.0826235348329
 20
304.657126784377
 30
0.0
 11
244.5826232815132
 21
304.657126784377
 31
0.0
  0
SOLID
  5
83D8
330
823C
100
AcDbEntity
  8
DIM
100
AcDbTrace
 10
233.0826235348329
 20
304.9904601177103
 30
0.0
 11
233.0826235348329
 21
304.3237934510437
 31
0.0
 12
231.0826235348329
 22
304.657126784377
 32
0.0
 13
231.0826235348329
 23
304.657126784377
 33
0.0
  0
SOLID
  5
83D9
330
823C
100
AcDbEntity
  8
DIM
100
AcDbTrace
 10
244.5826232815132
 20
304.9904601177103
 30
0.0
 11
244.5826232815132
 21
304.3237934510437
 31
0.0
 12
246.5826232815132
 22
304.657126784377
 32
0.0
 13
246.5826232815132
 23
304.657126784377
 33
0.0
  0
MTEXT
  5
83DA
330
823C
100
AcDbEntity
  8
DIM
100
AcDbMText
 10
238.8326234081731
 20
307.407126784377
 30
0.0
 40
3.5
 41
0.0
 71
     5
 72
     1
  1
\A1;15.5
  7
dayus
 73
     1
 44
1.0
1001
ACAD
1000
MTEXTBEGIN
1070
    73
1070
     1
1070
    44
1040
1.0
1070
    74
1070
     0
1000
MTEXTEND
  0
POINT
  5
83DB
330
823C
100
AcDbEntity
  8
Defpoints
 62
     0
100
AcDbPoint
 10
231.0826235348329
 20
291.9404425020886
 30
0.0
  0
POINT
  5
83DC
330
823C
100
AcDbEntity
  8
Defpoints
 62
     0
100
AcDbPoint
 10
246.5826232815132
 20
291.7960968162489
 30
0.0
  0
POINT
  5
83DD
330
823C
100
AcDbEntity
  8
Defpoints
 62
     0
100
AcDbPoint
 10
246.5826232815132
 20
304.657126784377
 30
0.0
  0
ENDBLK
  5
8247
330
823C
100
AcDbEntity
  8
0
100
AcDbBlockEnd
  0
BLOCK
  5
8252
330
8248
100
AcDbEntity
  8
0
100
AcDbBlockBegin
  2
*D103
 70
     1
 10
0.0
 20
0.0
 30
0.0
  3
*D103
  1

  0
LINE
  5
83DE
330
8248
100
AcDbEntity
  8
DIM
100
AcDbLine
 10
274.5826222831354
 20
293.4404425020884
 30
0.0
 11
274.5826222831354
 21
306.157126784377
 31
0.0
  0
LINE
  5
83DF
330
8248
100
AcDbEntity
  8
DIM
100
AcDbLine
 10
290.0826238924608
 20
293.4404425020884
 30
0.0
 11
290.0826238924608
 21
306.157126784377
 31
0.0
  0
LINE
  5
83E0
330
8248
100
AcDbEntity
  8
DIM
100
AcDbLine
 10
276.5826222831354
 20
304.657126784377
 30
0.0
 11
288.0826238924608
 21
304.657126784377
 31
0.0
  0
SOLID
  5
83E1
330
8248
100
AcDbEntity
  8
DIM
100
AcDbTrace
 10
276.5826222831354
 20
304.9904601177103
 30
0.0
 11
276.5826222831354
 21
304.3237934510437
 31
0.0
 12
274.5826222831354
 22
304.657126784377
 32
0.0
 13
274.5826222831354
 23
304.657126784377
 33
0.0
  0
SOLID
  5
83E2
330
8248
100
AcDbEntity
  8
DIM
100
AcDbTrace
 10
288.0826238924608
 20
304.9904601177103
 30
0.0
 11
288.0826238924608
 21
304.3237934510437
 31
0.0
 12
290.0826238924608
 22
304.657126784377
 32
0.0
 13
290.0826238924608
 23
304.657126784377
 33
0.0
  0
MTEXT
  5
83E3
330
8248
100
AcDbEntity
  8
DIM
100
AcDbMText
 10
282.3326230877981
 20
307.407126784377
 30
0.0
 40
3.5
 41
0.0
 71
     5
 72
     1
  1
\A1;15.5
  7
dayus
 73
     1
 44
1.0
1001
ACAD
1000
MTEXTBEGIN
1070
    73
1070
     1
1070
    44
1040
1.0
1070
    74
1070
     0
1000
MTEXTEND
  0
POINT
  5
83E4
330
8248
100
AcDbEntity
  8
Defpoints
 62
     0
100
AcDbPoint
 10
274.5826222831354
 20
291.9404425020884
 30
0.0
  0
POINT
  5
83E5
330
8248
100
AcDbEntity
  8
Defpoints
 62
     0
100
AcDbPoint
 10
290.0826238924608
 20
291.9404425020884
 30
0.0
  0
POINT
  5
83E6
330
8248
100
AcDbEntity
  8
Defpoints
 62
     0
100
AcDbPoint
 10
290.0826238924608
 20
304.657126784377
 30
0.0
  0
ENDBLK
  5
8253
330
8248
100
AcDbEntity
  8
0
100
AcDbBlockEnd
  0
BLOCK
  5
82CC
330
82C2
100
AcDbEntity
  8
0
100
AcDbBlockBegin
  2
*D104
 70
     1
 10
0.0
 20
0.0
 30
0.0
  3
*D104
  1

  0
LINE
  5
83E7
330
82C2
100
AcDbEntity
  8
DIM
100
AcDbLine
 10
382.806908757866
 20
287.9295853209534
 30
0.0
 11
382.806908757866
 21
304.5319141658181
 31
0.0
  0
LINE
  5
83E8
330
82C2
100
AcDbEntity
  8
DIM
100
AcDbLine
 10
454.8069087578658
 20
287.9295853209533
 30
0.0
 11
454.8069087578658
 21
304.5319141658181
 31
0.0
  0
LINE
  5
83E9
330
82C2
100
AcDbEntity
  8
DIM
100
AcDbLine
 10
384.806908757866
 20
303.0319141658182
 30
0.0
 11
452.8069087578658
 21
303.0319141658182
 31
0.0
  0
SOLID
  5
83EA
330
82C2
100
AcDbEntity
  8
DIM
100
AcDbTrace
 10
384.806908757866
 20
303.3652474991515
 30
0.0
 11
384.806908757866
 21
302.6985808324848
 31
0.0
 12
382.806908757866
 22
303.0319141658182
 32
0.0
 13
382.806908757866
 23
303.0319141658182
 33
0.0
  0
SOLID
  5
83EB
330
82C2
100
AcDbEntity
  8
DIM
100
AcDbTrace
 10
452.8069087578658
 20
303.3652474991515
 30
0.0
 11
452.8069087578658
 21
302.6985808324848
 31
0.0
 12
454.8069087578658
 22
303.0319141658182
 32
0.0
 13
454.8069087578658
 23
303.0319141658182
 33
0.0
  0
MTEXT
  5
83EC
330
82C2
100
AcDbEntity
  8
DIM
100
AcDbMText
 10
418.8069087578659
 20
305.7819141658181
 30
0.0
 40
3.5
 41
0.0
 71
     5
 72
     1
  1
\A1;□72
  7
dayus
 73
     1
 44
1.0
1001
ACAD
1000
MTEXTBEGIN
1070
    73
1070
     1
1070
    44
1040
1.0
1070
    74
1070
     0
1000
MTEXTEND
  0
POINT
  5
83ED
330
82C2
100
AcDbEntity
  8
Defpoints
 62
     0
100
AcDbPoint
 10
382.806908757866
 20
286.4295853209534
 30
0.0
  0
POINT
  5
83EE
330
82C2
100
AcDbEntity
  8
Defpoints
 62
     0
100
AcDbPoint
 10
454.8069087578658
 20
286.4295853209533
 30
0.0
  0
POINT
  5
83EF
330
82C2
100
AcDbEntity
  8
Defpoints
 62
     0
100
AcDbPoint
 10
454.8069087578658
 20
303.0319141658182
 30
0.0
  0
ENDBLK
  5
82CD
330
82C2
100
AcDbEntity
  8
0
100
AcDbBlockEnd
  0
BLOCK
  5
82D8
330
82CE
100
AcDbEntity
  8
0
100
AcDbBlockBegin
  2
*D105
 70
     1
 10
0.0
 20
0.0
 30
0.0
  3
*D105
  1

  0
LINE
  5
83F0
330
82CE
100
AcDbEntity
  8
DIM
100
AcDbLine
 10
371.056908847273
 20
283.4404408629601
 30
0.0
 11
371.056908847273
 21
315.8738110666654
 31
0.0
  0
LINE
  5
83F1
330
82CE
100
AcDbEntity
  8
DIM
100
AcDbLine
 10
466.556908668459
 20
283.4404408629599
 30
0.0
 11
466.556908668459
 21
315.8738110666654
 31
0.0
  0
LINE
  5
83F2
330
82CE
100
AcDbEntity
  8
DIM
100
AcDbLine
 10
373.056908847273
 20
314.3738110666654
 30
0.0
 11
464.556908668459
 21
314.3738110666654
 31
0.0
  0
SOLID
  5
83F3
330
82CE
100
AcDbEntity
  8
DIM
100
AcDbTrace
 10
373.056908847273
 20
314.7071443999987
 30
0.0
 11
373.056908847273
 21
314.0404777333321
 31
0.0
 12
371.056908847273
 22
314.3738110666654
 32
0.0
 13
371.056908847273
 23
314.3738110666654
 33
0.0
  0
SOLID
  5
83F4
330
82CE
100
AcDbEntity
  8
DIM
100
AcDbTrace
 10
464.556908668459
 20
314.7071443999987
 30
0.0
 11
464.556908668459
 21
314.0404777333321
 31
0.0
 12
466.556908668459
 22
314.3738110666654
 32
0.0
 13
466.556908668459
 23
314.3738110666654
 33
0.0
  0
MTEXT
  5
83F5
330
82CE
100
AcDbEntity
  8
DIM
100
AcDbMText
 10
418.8069087578659
 20
317.1238110666654
 30
0.0
 40
3.5
 41
0.0
 71
     5
 72
     1
  1
\A1;□95.5
  7
dayus
 73
     1
 44
1.0
1001
ACAD
1000
MTEXTBEGIN
1070
    73
1070
     1
1070
    44
1040
1.0
1070
    74
1070
     0
1000
MTEXTEND
  0
POINT
  5
83F6
330
82CE
100
AcDbEntity
  8
Defpoints
 62
     0
100
AcDbPoint
 10
371.056908847273
 20
281.9404408629601
 30
0.0
  0
POINT
  5
83F7
330
82CE
100
AcDbEntity
  8
Defpoints
 62
     0
100
AcDbPoint
 10
466.556908668459
 20
281.9404408629599
 30
0.0
  0
POINT
  5
83F8
330
82CE
100
AcDbEntity
  8
Defpoints
 62
     0
100
AcDbPoint
 10
466.556908668459
 20
314.3738110666654
 30
0.0
  0
ENDBLK
  5
82D9
330
82CE
100
AcDbEntity
  8
0
100
AcDbBlockEnd
  0
BLOCK
  5
8352
330
8348
100
AcDbEntity
  8
0
100
AcDbBlockBegin
  2
*D106
 70
     1
 10
0.0
 20
0.0
 30
0.0
  3
*D106
  1

  0
LINE
  5
83F9
330
8348
100
AcDbEntity
  8
DIM
100
AcDbLine
 10
226.0826234267995
 20
254.1904423679782
 30
0.0
 11
202.417550014061
 21
254.1904423679782
 31
0.0
  0
LINE
  5
83FA
330
8348
100
AcDbEntity
  8
DIM
100
AcDbLine
 10
226.0826234267994
 20
234.190442815013
 30
0.0
 11
202.417550014061
 21
234.190442815013
 31
0.0
  0
LINE
  5
83FB
330
8348
100
AcDbEntity
  8
DIM
100
AcDbLine
 10
203.917550014061
 20
252.1904423679782
 30
0.0
 11
203.917550014061
 21
236.190442815013
 31
0.0
  0
SOLID
  5
83FC
330
8348
100
AcDbEntity
  8
DIM
100
AcDbTrace
 10
203.5842166807277
 20
252.1904423679782
 30
0.0
 11
204.2508833473944
 21
252.1904423679782
 31
0.0
 12
203.917550014061
 22
254.1904423679782
 32
0.0
 13
203.917550014061
 23
254.1904423679782
 33
0.0
  0
SOLID
  5
83FD
330
8348
100
AcDbEntity
  8
DIM
100
AcDbTrace
 10
203.5842166807277
 20
236.190442815013
 30
0.0
 11
204.2508833473944
 21
236.190442815013
 31
0.0
 12
203.917550014061
 22
234.190442815013
 32
0.0
 13
203.917550014061
 23
234.190442815013
 33
0.0
  0
MTEXT
  5
83FE
330
8348
100
AcDbEntity
  8
DIM
100
AcDbMText
 10
201.167550014061
 20
244.1904425914957
 30
0.0
 40
3.5
 41
0.0
 71
     5
 72
     1
  1
\A1;%%C20
  7
dayus
 11
0.0000000000000001
 21
1.0
 31
0.0
 73
     1
 44
1.0
1001
ACAD
1000
MTEXTBEGIN
1070
    73
1070
     1
1070
    44
1040
1.0
1070
    74
1070
     0
1000
MTEXTEND
  0
POINT
  5
83FF
330
8348
100
AcDbEntity
  8
Defpoints
 62
     0
100
AcDbPoint
 10
227.5826234267995
 20
254.1904423679782
 30
0.0
  0
POINT
  5
8400
330
8348
100
AcDbEntity
  8
Defpoints
 62
     0
100
AcDbPoint
 10
227.5826234267994
 20
234.190442815013
 30
0.0
  0
POINT
  5
8401
330
8348
100
AcDbEntity
  8
Defpoints
 62
     0
100
AcDbPoint
 10
203.917550014061
 20
234.190442815013
 30
0.0
  0
ENDBLK
  5
8353
330
8348
100
AcDbEntity
  8
0
100
AcDbBlockEnd
  0
BLOCK
  5
835E
330
8354
100
AcDbEntity
  8
0
100
AcDbBlockBegin
  2
*D107
 70
     1
 10
0.0
 20
0.0
 30
0.0
  3
*D107
  1

  0
LINE
  5
8402
330
8354
100
AcDbEntity
  8
DIM
100
AcDbLine
 10
219.5826237583503
 20
252.6904430534316
 30
0.0
 11
211.0761477756457
 21
252.6904430534316
 31
0.0
  0
LINE
  5
8403
330
8354
100
AcDbEntity
  8
DIM
100
AcDbLine
 10
219.5826237583502
 20
235.6904421295596
 30
0.0
 11
211.0761477756457
 21
235.6904421295596
 31
0.0
  0
LINE
  5
8404
330
8354
100
AcDbEntity
  8
DIM
100
AcDbLine
 10
212.5761477756457
 20
250.6904430534316
 30
0.0
 11
212.5761477756457
 21
237.6904421295596
 31
0.0
  0
SOLID
  5
8405
330
8354
100
AcDbEntity
  8
DIM
100
AcDbTrace
 10
212.2428144423124
 20
250.6904430534316
 30
0.0
 11
212.9094811089791
 21
250.6904430534316
 31
0.0
 12
212.5761477756457
 22
252.6904430534316
 32
0.0
 13
212.5761477756457
 23
252.6904430534316
 33
0.0
  0
SOLID
  5
8406
330
8354
100
AcDbEntity
  8
DIM
100
AcDbTrace
 10
212.2428144423124
 20
237.6904421295596
 30
0.0
 11
212.9094811089791
 21
237.6904421295596
 31
0.0
 12
212.5761477756457
 22
235.6904421295596
 32
0.0
 13
212.5761477756457
 23
235.6904421295596
 33
0.0
  0
MTEXT
  5
8407
330
8354
100
AcDbEntity
  8
DIM
100
AcDbMText
 10
209.8261477756457
 20
244.1904425914957
 30
0.0
 40
3.5
 41
0.0
 71
     5
 72
     1
  1
\A1;17
  7
dayus
 11
0.0000000000000001
 21
1.0
 31
0.0
 73
     1
 44
1.0
1001
ACAD
1000
MTEXTBEGIN
1070
    73
1070
     1
1070
    44
1040
1.0
1070
    74
1070
     0
1000
MTEXTEND
  0
POINT
  5
8408
330
8354
100
AcDbEntity
  8
Defpoints
 62
     0
100
AcDbPoint
 10
221.0826237583503
 20
252.6904430534316
 30
0.0
  0
POINT
  5
8409
330
8354
100
AcDbEntity
  8
Defpoints
 62
     0
100
AcDbPoint
 10
221.0826237583502
 20
235.6904421295596
 30
0.0
  0
POINT
  5
840A
330
8354
100
AcDbEntity
  8
Defpoints
 62
     0
100
AcDbPoint
 10
212.5761477756457
 20
235.6904421295596
 30
0.0
  0
ENDBLK
  5
835F
330
8354
100
AcDbEntity
  8
0
100
AcDbBlockEnd
  0
ENDSEC
  0
SECTION
  2
ENTITIES
  0
MTEXT
  5
A9
330
1F
100
AcDbEntity
  8
0
100
AcDbMText
 10
-112.8858816556399
 20
179.1757813154577
 30
0.0
 40
3.0
 41
0.0
 71
     4
 72
     5
  1

 73
     1
 44
1.0
1001
ACAD
1000
MTEXTBEGIN
1070
    73
1070
     1
1070
    44
1040
1.0
1070
    74
1070
     0
1000
MTEXTEND
  0
MTEXT
  5
AA
330
1F
100
AcDbEntity
  8
0
100
AcDbMText
 10
-176.2667196970539
 20
189.9084924046809
 30
0.0
 40
1.799999999999999
 41
0.0
 71
     9
 72
     5
  1

 73
     1
 44
1.0
1001
ACAD
1000
MTEXTBEGIN
1070
    73
1070
     1
1070
    44
1040
1.0
1070
    74
1070
     0
1000
MTEXTEND
  0
MTEXT
  5
AB
330
1F
100
AcDbEntity
  8
0
100
AcDbMText
 10
82.64233389287733
 20
174.944592339129
 30
0.0
 40
3.0
 41
0.0
 71
     4
 72
     5
  1

 73
     1
 44
1.0
1001
ACAD
1000
MTEXTBEGIN
1070
    73
1070
     1
1070
    44
1040
1.0
1070
    74
1070
     0
1000
MTEXTEND
  0
MTEXT
  5
AC
330
1F
100
AcDbEntity
  8
0
100
AcDbMText
 10
19.26149585146331
 20
185.6773034283523
 30
0.0
 40
1.799999999999999
 41
0.0
 71
     9
 72
     5
  1

 73
     1
 44
1.0
1001
ACAD
1000
MTEXTBEGIN
1070
    73
1070
     1
1070
    44
1040
1.0
1070
    74
1070
     0
1000
MTEXTEND
  0
MTEXT
  5
B1
330
1F
100
AcDbEntity
  8
0
100
AcDbMText
 10
-211.0828086697475
 20
93.72900974557683
 30
0.0
 40
3.0
 41
59.51
 71
     1
 72
     5
  1

  7
CHINESET
 73
     1
 44
1.0
1001
ACAD
1000
MTEXTBEGIN
1070
    73
1070
     1
1070
    44
1040
1.0
1070
    74
1070
     0
1000
MTEXTEND
  0
MTEXT
  5
B2
330
1F
100
AcDbEntity
  8
0
100
AcDbMText
 10
-179.9099428209695
 20
86.93407807798587
 30
0.0
 40
3.0
 41
38.26
 71
     1
 72
     5
  1

  7
CHINESET
 73
     1
 44
1.0
1001
ACAD
1000
MTEXTBEGIN
1070
    73
1070
     1
1070
    44
1040
1.0
1070
    74
1070
     0
1000
MTEXTEND
  0
MTEXT
  5
10B3
330
1F
100
AcDbEntity
  8
0
100
AcDbMText
 10
81.67014302795905
 20
125.5492500028813
 30
0.0
 40
3.0
 41
0.0
 71
     7
 72
     5
  1

  7
CHINESET
 73
     1
 44
1.0
1001
ACAD
1000
MTEXTBEGIN
1070
    73
1070
     1
1070
    44
1040
1.0
1070
    74
1070
     0
1000
MTEXTEND
  0
LINE
  5
17B4
330
1F
100
AcDbEntity
  8
0
 62
     4
100
AcDbLine
 10
521.10131402209
 20
142.0987550637984
 30
0.0
 11
521.10131402209
 21
622.0829076569732
 31
0.0
  0
LINE
  5
17B5
330
1F
100
AcDbEntity
  8
0
 62
     4
100
AcDbLine
 10
142.8282962176434
 20
142.0987550637984
 30
0.0
 11
142.8282962176434
 21
622.0829076569732
 31
0.0
  0
TEXT
  5
17BD
330
1F
100
AcDbEntity
  8
LOGO
  6
Continuous
 62
     7
100
AcDbText
 10
340.3906996186035
 20
127.70562136836
 30
0.0
 40
7.423499999999999
  1
11/12
  7
CHINESET
 72
     1
 11
355.2376996186035
 21
131.41737136836
 31
0.0
100
AcDbText
 73
     2
  0
TEXT
  5
17BE
330
1F
100
AcDbEntity
  8
LOGO
100
AcDbText
 10
343.4162021242602
 20
111.3132312504085
 30
0.0
 40
5.3025
  1
作動型式
  7
CHINESET
 72
     4
 11
353.9659677492602
 21
113.8287873527707
 31
0.0
100
AcDbText
  0
LINE
  5
17BF
330
1F
100
AcDbEntity
  8
0
 62
     4
100
AcDbLine
 10
521.10131402209
 20
382.6736800976616
 30
0.0
 11
142.8282962176434
 21
382.6736800976616
 31
0.0
  0
LINE
  5
17C0
330
1F
100
AcDbEntity
  8
0
 62
     4
100
AcDbLine
 10
521.10131402209
 20
142.0987550637984
 30
0.0
 11
142.8282962176434
 21
142.0987550637984
 31
0.0
  0
TEXT
  5
17C3
330
1F
100
AcDbEntity
  8
LOGO
  6
Continuous
100
AcDbText
 10
343.0579677492602
 20
105.7007954250139
 30
0.0
 40
3.1815
  1
Acting type
 41
0.8
  7
CHINESET
 72
     4
 11
353.9659677492602
 21
106.7612954250139
 31
0.0
100
AcDbText
  0
LINE
  5
17C4
330
1F
100
AcDbEntity
  8
LOGO
 62
     4
100
AcDbLine
 10
372.9448923839061
 20
125.1367744371818
 30
0.0
 11
338.3783287638117
 21
125.1367744371818
 31
0.0
  0
LINE
  5
17C5
330
1F
100
AcDbEntity
  8
LOGO
 62
     4
100
AcDbLine
 10
372.9448923839061
 20
118.7760317022006
 30
0.0
 11
338.3783287638117
 21
118.7760317022006
 31
0.0
  0
LINE
  5
17C6
330
1F
100
AcDbEntity
  8
LOGO
 62
     4
100
AcDbLine
 10
372.9448923839061
 20
103.2275494611354
 30
0.0
 11
338.3783287638117
 21
103.2275494611354
 31
0.0
  0
LINE
  5
17C7
330
1F
100
AcDbEntity
  8
LOGO
 62
     4
100
AcDbLine
 10
372.9448923839061
 20
137.8582599071443
 30
0.0
 11
338.3783287638117
 21
137.8582599071442
 31
0.0
  0
LINE
  5
1802
330
1F
100
AcDbEntity
  8
LOGO
 62
     4
100
AcDbLine
 10
325.5422829986513
 20
118.7760317022006
 30
0.0
 11
297.2723152876237
 21
118.7760317022006
 31
0.0
  0
TEXT
  5
1803
330
1F
100
AcDbEntity
  8
LOGO
  6
Continuous
 62
     7
100
AcDbText
 10
300.6255491431375
 20
127.7857671721631
 30
0.0
 40
7.423499999999999
  1
MCJI
  7
CHINESET
 72
     1
 11
311.4072991431374
 21
131.497517172163
 31
0.0
100
AcDbText
 73
     2
  0
LINE
  5
1804
330
1F
100
AcDbEntity
  8
LOGO
 62
     4
100
AcDbLine
 10
325.5422829986513
 20
103.2275494611354
 30
0.0
 11
297.2723152876237
 21
103.2275494611354
 31
0.0
  0
TEXT
  5
1805
330
1F
100
AcDbEntity
  8
LOGO
  6
Continuous
100
AcDbText
 10
306.5592991431374
 20
105.1705454250139
 30
0.0
 40
3.1815
  1
Model
 41
0.8
  7
CHINESET
 72
     4
 11
311.4072991431374
 21
106.7612954250139
 31
0.0
100
AcDbText
  0
TEXT
  5
1806
330
1F
100
AcDbEntity
  8
LOGO
100
AcDbText
 10
306.1047991431374
 20
111.3132312504085
 30
0.0
 40
5.3025
  1
型式
  7
CHINESET
 72
     4
 11
311.4072991431374
 21
113.8287873527707
 31
0.0
100
AcDbText
  0
LINE
  5
1807
330
1F
100
AcDbEntity
  8
LOGO
 62
     4
100
AcDbLine
 10
328.369279769754
 20
125.1367744371818
 30
0.0
 11
294.445318516521
 21
125.1367744371818
 31
0.0
  0
LINE
  5
1808
330
1F
100
AcDbEntity
  8
LOGO
 62
     4
100
AcDbLine
 10
328.369279769754
 20
137.8582599071442
 30
0.0
 11
294.445318516521
 21
137.8582599071442
 31
0.0
  0
LINE
  5
1809
330
1F
100
AcDbEntity
  8
LOGO
 62
     4
100
AcDbLine
 10
311.4072991431374
 20
125.1367744371818
 30
0.0
 11
311.4072991431374
 21
118.7760317022006
 31
0.0
  0
LINE
  5
180A
330
1F
100
AcDbEntity
  8
LOGO
 62
     4
100
AcDbLine
 10
297.2723152876237
 20
118.7760317022006
 30
0.0
 11
297.2723152876237
 21
103.2275494611354
 31
0.0
  0
LINE
  5
180B
330
1F
100
AcDbEntity
  8
LOGO
 62
     4
100
AcDbLine
 10
294.445318516521
 20
137.8582599071442
 30
0.0
 11
294.445318516521
 21
125.1367744371818
 31
0.0
  0
LINE
  5
180C
330
1F
100
AcDbEntity
  8
LOGO
 62
     4
100
AcDbLine
 10
325.5422829986513
 20
118.7760317022006
 30
0.0
 11
325.5422829986513
 21
103.2275494611354
 31
0.0
  0
LINE
  5
180D
330
1F
100
AcDbEntity
  8
LOGO
 62
     4
100
AcDbLine
 10
338.3783287638117
 20
118.7760317022006
 30
0.0
 11
338.3783287638117
 21
103.2275494611354
 31
0.0
  0
LINE
  5
180E
330
1F
100
AcDbEntity
  8
LOGO
  6
Continuous
 62
     7
100
AcDbLine
 10
330.5610005314562
 20
131.4524556601585
 30
0.0
 11
336.1783443286129
 21
131.4524556601585
 31
0.0
  0
LINE
  5
180F
330
1F
100
AcDbEntity
  8
LOGO
 62
     4
100
AcDbLine
 10
328.3692797697542
 20
137.8582599071442
 30
0.0
 11
328.3692797697542
 21
125.1367744371818
 31
0.0
  0
LINE
  5
1810
330
1F
100
AcDbEntity
  8
LOGO
 62
     4
100
AcDbLine
 10
338.3783287638117
 20
137.8582599071442
 30
0.0
 11
338.3783287638117
 21
125.1367744371818
 31
0.0
  0
LINE
  5
1868
330
1F
100
AcDbEntity
  8
LOGO
 62
     4
100
AcDbLine
 10
439.2039252041987
 20
137.8582599071442
 30
0.0
 11
415.65727802961
 21
137.8582599071442
 31
0.0
  0
LINE
  5
1869
330
1F
100
AcDbEntity
  8
LOGO
 62
     4
100
AcDbLine
 10
439.2039252041987
 20
125.1367744371818
 30
0.0
 11
415.65727802961
 21
125.1367744371818
 31
0.0
  0
LINE
  5
186A
330
1F
100
AcDbEntity
  8
LOGO
 62
     4
100
AcDbLine
 10
437.7904268186473
 20
118.7760317022006
 30
0.0
 11
417.0707764151613
 21
118.7760317022006
 31
0.0
  0
LINE
  5
186B
330
1F
100
AcDbEntity
  8
LOGO
 62
     4
100
AcDbLine
 10
437.7904268186473
 20
103.2275494611354
 30
0.0
 11
417.0707764151613
 21
103.2275494611354
 31
0.0
  0
LINE
  5
186C
330
1F
100
AcDbEntity
  8
LOGO
 62
     4
100
AcDbLine
 10
405.6482290355522
 20
125.1367744371819
 30
0.0
 11
382.9539413779636
 21
125.1367744371819
 31
0.0
  0
LINE
  5
186D
330
1F
100
AcDbEntity
  8
LOGO
 62
     4
100
AcDbLine
 10
405.6482290355522
 20
118.7760317022007
 30
0.0
 11
382.9539413779636
 21
118.7760317022007
 31
0.0
  0
LINE
  5
186E
330
1F
100
AcDbEntity
  8
LOGO
 62
     4
100
AcDbLine
 10
405.6482290355522
 20
137.8582599071444
 30
0.0
 11
382.9539413779636
 21
137.8582599071443
 31
0.0
  0
TEXT
  5
186F
330
1F
100
AcDbEntity
  8
LOGO
  6
Continuous
 62
     7
100
AcDbText
 10
388.9512179687274
 20
127.7056213683601
 30
0.0
 40
7.423499999999999
  1
80
  7
CHINESET
 72
     1
 11
394.9607179687274
 21
131.4173713683601
 31
0.0
100
AcDbText
 73
     2
  0
LINE
  5
1870
330
1F
100
AcDbEntity
  8
LOGO
 62
     4
100
AcDbLine
 10
405.6482290355522
 20
103.2275494611355
 30
0.0
 11
382.9539413779636
 21
103.2275494611354
 31
0.0
  0
TEXT
  5
1871
330
1F
100
AcDbEntity
  8
LOGO
  6
Continuous
100
AcDbText
 10
390.3620852067581
 20
105.1705454250139
 30
0.0
 40
3.1815
  1
Bore
 41
0.8
  7
CHINESET
 72
     4
 11
394.3010852067581
 21
106.7612954250139
 31
0.0
100
AcDbText
  0
TEXT
  5
1872
330
1F
100
AcDbEntity
  8
LOGO
100
AcDbText
 10
388.6671789567581
 20
111.1775373527708
 30
0.0
 40
5.3025
  1
內徑
  7
CHINESET
 72
     4
 11
394.3010852067581
 21
113.8287873527708
 31
0.0
100
AcDbText
  0
LINE
  5
1873
330
1F
100
AcDbEntity
  8
LOGO
 62
     4
100
AcDbLine
 10
394.3010848808273
 20
125.1367744371819
 30
0.0
 11
394.3010848808273
 21
118.7760317022007
 31
0.0
  0
LINE
  5
1874
330
1F
100
AcDbEntity
  8
LOGO
 62
     4
100
AcDbLine
 10
353.9659677492602
 20
125.1367744371818
 30
0.0
 11
353.9659677492602
 21
118.7760317022006
 31
0.0
  0
LINE
  5
1875
330
1F
100
AcDbEntity
  8
LOGO
 62
     4
100
AcDbLine
 10
372.9448923839061
 20
118.7760317022006
 30
0.0
 11
372.9448923839061
 21
103.2275494611354
 31
0.0
  0
LINE
  5
1876
330
1F
100
AcDbEntity
  8
LOGO
 62
     4
100
AcDbLine
 10
382.9539413779636
 20
118.7760317022007
 30
0.0
 11
382.9539413779636
 21
103.2275494611355
 31
0.0
  0
LINE
  5
1877
330
1F
100
AcDbEntity
  8
LOGO
 62
     4
100
AcDbLine
 10
372.9448923839061
 20
137.8582599071443
 30
0.0
 11
372.9448923839061
 21
125.1367744371818
 31
0.0
  0
LINE
  5
1878
330
1F
100
AcDbEntity
  8
LOGO
 62
     4
100
AcDbLine
 10
382.9539413779636
 20
137.8582599071443
 30
0.0
 11
382.9539413779636
 21
125.1367744371819
 31
0.0
  0
LINE
  5
1879
330
1F
100
AcDbEntity
  8
LOGO
  6
Continuous
 62
     7
100
AcDbLine
 10
375.1366131456081
 20
131.4524556601586
 30
0.0
 11
380.7539569427648
 21
131.4524556601586
 31
0.0
  0
LINE
  5
187A
330
1F
100
AcDbEntity
  8
LOGO
 62
     4
100
AcDbLine
 10
427.7299677406042
 20
125.1367744371818
 30
0.0
 11
427.7299677406042
 21
118.7760317022006
 31
0.0
  0
LINE
  5
187B
330
1F
100
AcDbEntity
  8
LOGO
 62
     4
100
AcDbLine
 10
405.6482290355522
 20
118.7760317022007
 30
0.0
 11
405.6482290355522
 21
103.2275494611355
 31
0.0
  0
LINE
  5
187C
330
1F
100
AcDbEntity
  8
LOGO
 62
     4
100
AcDbLine
 10
417.0707764151613
 20
118.7760317022006
 30
0.0
 11
417.0707764151613
 21
103.2275494611354
 31
0.0
  0
TEXT
  5
187D
330
1F
100
AcDbEntity
  8
LOGO
  6
Continuous
100
AcDbText
 10
421.6736016169043
 20
105.1705454250138
 30
0.0
 40
3.1815
  1
Stroke
 41
0.8
  7
CHINESET
 72
     4
 11
427.4306016169044
 21
106.7612954250138
 31
0.0
100
AcDbText
  0
TEXT
  5
187E
330
1F
100
AcDbEntity
  8
LOGO
100
AcDbText
 10
422.1281016169043
 20
111.1775373527708
 30
0.0
 40
5.3025
  1
行程
  7
CHINESET
 72
     4
 11
427.4306016169044
 21
113.8287873527707
 31
0.0
100
AcDbText
  0
LINE
  5
187F
330
1F
100
AcDbEntity
  8
LOGO
 62
     4
100
AcDbLine
 10
405.6482290355522
 20
137.8582599071444
 30
0.0
 11
405.6482290355522
 21
125.1367744371819
 31
0.0
  0
LINE
  5
1880
330
1F
100
AcDbEntity
  8
LOGO
  6
Continuous
 62
     7
100
AcDbLine
 10
407.8399497972544
 20
131.4524556601587
 30
0.0
 11
413.4572935944111
 21
131.4524556601587
 31
0.0
  0
LINE
  5
1881
330
1F
100
AcDbEntity
  8
LOGO
 62
     4
100
AcDbLine
 10
415.65727802961
 20
137.8582599071442
 30
0.0
 11
415.65727802961
 21
125.1367744371818
 31
0.0
  0
TEXT
  5
1882
330
1F
100
AcDbEntity
  8
LOGO
  6
Continuous
 62
     7
100
AcDbText
 10
425.6157343788738
 20
127.70562136836
 30
0.0
 40
7.423499999999999
  1
5
  7
CHINESET
 72
     1
 11
428.0902343788738
 21
131.41737136836
 31
0.0
100
AcDbText
 73
     2
  0
LINE
  5
1883
330
1F
100
AcDbEntity
  8
LOGO
 62
     4
100
AcDbLine
 10
451.4321812511647
 20
125.1367744371818
 30
0.0
 11
451.4321812511647
 21
118.7760317022006
 31
0.0
  0
LINE
  5
1885
330
1F
100
AcDbEntity
  8
LOGO
 62
     4
100
AcDbLine
 10
461.7920064529077
 20
103.2275494611354
 30
0.0
 11
441.0723560494217
 21
103.2275494611354
 31
0.0
  0
LINE
  5
1886
330
1F
100
AcDbEntity
  8
LOGO
 62
     4
100
AcDbLine
 10
461.7920064529077
 20
118.7760317022006
 30
0.0
 11
441.0723560494217
 21
118.7760317022006
 31
0.0
  0
TEXT
  5
1887
330
1F
100
AcDbEntity
  8
LOGO
  6
Continuous
100
AcDbText
 10
444.9479812511647
 20
105.7007954250138
 30
0.0
 40
3.1815
  1
Magnet
 41
0.8
  7
CHINESET
 72
     4
 11
451.4321812511647
 21
106.7612954250138
 31
0.0
100
AcDbText
  0
TEXT
  5
1888
330
1F
100
AcDbEntity
  8
LOGO
100
AcDbText
 10
443.4784312511647
 20
111.2327717277707
 30
0.0
 40
5.3025
  1
附磁石
  7
CHINESET
 72
     4
 11
451.4321812511647
 21
113.8287873527707
 31
0.0
100
AcDbText
  0
LINE
  5
1889
330
1F
100
AcDbEntity
  8
LOGO
 62
     4
100
AcDbLine
 10
441.0723560494217
 20
118.7760317022006
 30
0.0
 11
441.0723560494217
 21
103.2275494611354
 31
0.0
  0
LINE
  5
188A
330
1F
100
AcDbEntity
  8
LOGO
 62
     4
100
AcDbLine
 10
437.7904268186473
 20
118.7760317022006
 30
0.0
 11
437.7904268186473
 21
103.1689213732295
 31
0.0
  0
LINE
  5
188B
330
1F
100
AcDbEntity
  8
LOGO
 62
     4
100
AcDbLine
 10
461.7920064529077
 20
118.7760317022006
 30
0.0
 11
461.7920064529077
 21
103.1689213732295
 31
0.0
  0
TEXT
  5
188C
330
1F
100
AcDbEntity
  8
LOGO
  6
Continuous
 62
     7
100
AcDbText
 10
444.1380643390648
 20
127.70562136836
 30
0.0
 40
7.423499999999999
  1
(M)
  7
CHINESET
 72
     1
 11
452.0918143390648
 21
131.41737136836
 31
0.0
100
AcDbText
 73
     2
  0
LINE
  5
188D
330
1F
100
AcDbEntity
  8
LOGO
 62
     4
100
AcDbLine
 10
460.7188802318299
 20
125.1367744371818
 30
0.0
 11
442.1454822704994
 21
125.1367744371818
 31
0.0
  0
LINE
  5
188E
330
1F
100
AcDbEntity
  8
LOGO
 62
     4
100
AcDbLine
 10
460.7188802318299
 20
137.8582599071443
 30
0.0
 11
442.1454822704994
 21
137.8582599071442
 31
0.0
  0
LINE
  5
188F
330
1F
100
AcDbEntity
  8
LOGO
 62
     4
100
AcDbLine
 10
442.1454822704994
 20
137.8582599071442
 30
0.0
 11
442.1454822704994
 21
125.1367744371818
 31
0.0
  0
LINE
  5
1890
330
1F
100
AcDbEntity
  8
LOGO
 62
     4
100
AcDbLine
 10
439.2039252041987
 20
137.8582599071442
 30
0.0
 11
439.2039252041987
 21
125.1367744371818
 31
0.0
  0
LINE
  5
1891
330
1F
100
AcDbEntity
  8
LOGO
 62
     4
100
AcDbLine
 10
460.7188802318297
 20
137.8582599071443
 30
0.0
 11
460.7188802318299
 21
125.1367744371818
 31
0.0
  0
LINE
  5
18E7
330
1F
100
AcDbEntity
  8
0
 62
     4
100
AcDbLine
 10
521.10131402209
 20
622.0829076569732
 30
0.0
 11
142.8282962176434
 21
622.0829076569732
 31
0.0
  0
LWPOLYLINE
  5
6767
330
1F
100
AcDbEntity
  8
LOGO
 62
     4
100
AcDbPolyline
 90
        4
 70
     1
 43
0.0
 10
142.8282962176434
 20
142.0987550637984
 10
521.10131402209
 20
142.0987550637984
 10
521.10131402209
 20
99.68489732624114
 10
142.8282962176434
 20
99.68489732624114
1001
GENIUS_GENREC_14
1002
{
1000
PYDIR
1011
142.8282962176434
1021
99.68489732624114
1031
0.0
1002
}
1002
{
1000
PXDIR
1011
521.10131402209
1021
142.0987550637984
1031
0.0
1002
}
1002
{
1000
PORI
1011
142.8282962176434
1021
142.0987550637984
1031
0.0
1002
}
1002
{
1000
PINS
1011
142.8282962176434
1021
142.0987550637984
1031
0.0
1002
}
1002
{
1000
PINS2
1011
521.10131402209
1021
99.68489732624114
1031
0.0
1002
}
1002
{
1000
C
1070
     1
1002
}
1001
GENIUS_GENOBJ-N-REC_13
1002
{
1000
OWNER
1000
GEN
1002
}
1001
GENIUS_GENODEF_13
1002
{
1000
HIER
1070
     0
1002
}
1002
{
1000
MANEDIT
1070
     0
1002
}
1002
{
1000
NOSEL
1070
     0
1002
}
1002
{
1000
BEHIND
1070
     0
1002
}
1002
{
1000
OTHER
1070
     0
1002
}
1002
{
1000
REACTOR
1002
}
  0
TEXT
  5
6768
330
1F
100
AcDbEntity
  8
LOGO
 62
     7
100
AcDbText
 10
238.5959785798018
 20
123.5179657224363
 30
0.0
 40
5.655181031674207
  1
Order example:
 41
0.8
  7
CHINESET
100
AcDbText
  0
TEXT
  5
6769
330
1F
100
AcDbEntity
  8
LOGO
 62
     7
100
AcDbText
 10
239.6105648233287
 20
131.4792896948601
 30
0.0
 40
8.48277154751131
  1
訂購代號：
  7
CHINESET
100
AcDbText
  0
LINE
  5
676A
330
1F
100
AcDbEntity
  8
LOGO
 62
     4
100
AcDbLine
 10
236.138783240268
 20
99.68489732624162
 30
0.0
 11
236.138783240268
 21
142.0987550637984
 31
0.0
  0
TEXT
  5
676B
330
1F
100
AcDbEntity
  8
LOGO
  6
Continuous
100
AcDbText
 10
158.0635445709531
 20
108.0170356706924
 30
0.0
 40
6.362078660633484
  1
金器工業股份有限公司
  7
CHINESET
100
AcDbText
  0
TEXT
  5
676C
330
1F
100
AcDbEntity
  8
LOGO
  6
Continuous
100
AcDbText
 10
146.3776647465612
 20
101.6537105414478
 30
0.0
 40
4.241385773755655
  1
MINDMAN INDUSTRIAL CO., LTD.
 41
0.85
  7
CHINESET
100
AcDbText
  0
LINE
  5
676D
330
1F
100
AcDbEntity
  8
LOGO
 62
     4
100
AcDbLine
 10
236.138783240268
 20
133.615983516287
 30
0.0
 11
173.9317918918513
 21
133.615983516287
 31
0.0
  0
LINE
  5
676E
330
1F
100
AcDbEntity
  8
LOGO
 62
     4
100
AcDbLine
 10
236.138783240268
 20
125.1332119687756
 30
0.0
 11
173.9317918918513
 21
125.1332119687756
 31
0.0
  0
LINE
  5
676F
330
1F
100
AcDbEntity
  8
LOGO
 62
     4
100
AcDbLine
 10
236.138783240268
 20
116.6504404212648
 30
0.0
 11
142.8282962176434
 21
116.6504404212648
 31
0.0
  0
LINE
  5
6770
330
1F
100
AcDbEntity
  8
LOGO
 62
     4
100
AcDbLine
 10
173.9317918918513
 20
116.6504404212648
 30
0.0
 11
173.9317918918513
 21
142.0987550637984
 31
0.0
  0
TEXT
  5
6771
330
1F
100
AcDbEntity
  8
LOGO
100
AcDbText
 10
216.4473343532252
 20
118.7711333081419
 30
0.0
 40
4.241385773755655
  1
mm
  7
CHINESET
 72
     1
 11
221.698573882637
 21
120.8918261950197
 31
0.0
100
AcDbText
 73
     2
  0
TEXT
  5
6772
330
1F
100
AcDbEntity
  8
LOGO
100
AcDbText
 10
214.2256560907817
 20
135.7366764031646
 30
0.0
 40
4.241385773755655
  1
1 : 1
  7
CHINESET
 72
     1
 11
221.698573882637
 21
137.8573692900425
 31
0.0
100
AcDbText
 73
     2
  0
LINE
  5
6773
330
1F
100
AcDbEntity
  8
LOGO
 62
     4
100
AcDbLine
 10
207.8628780818968
 20
116.6504404212648
 30
0.0
 11
207.8628780818968
 21
142.0987550637984
 31
0.0
  0
CIRCLE
  5
6774
330
1F
100
AcDbEntity
  8
LOGO
  6
Continuous
100
AcDbCircle
 10
215.7163343461517
 20
129.3836700977393
 30
0.0
 40
2.462648411210059
  0
CIRCLE
  5
6775
330
1F
100
AcDbEntity
  8
LOGO
  6
Continuous
100
AcDbCircle
 10
215.7163343461517
 20
129.3836700977393
 30
0.0
 40
1.442893963039731
  0
LINE
  5
6776
330
1F
100
AcDbEntity
  8
LOGO
100
AcDbLine
 10
231.1919027158331
 20
126.9210216865287
 30
0.0
 11
231.1919027158331
 21
131.8463185089498
 31
0.0
  0
LINE
  5
6777
330
1F
100
AcDbEntity
  8
LOGO
100
AcDbLine
 10
223.4716413094538
 20
127.9407761346997
 30
0.0
 11
223.4716413094538
 21
130.8265640607792
 31
0.0
  0
LINE
  5
6778
330
1F
100
AcDbEntity
  8
LOGO
  6
Continuous
100
AcDbLine
 10
223.4716413094538
 20
130.8265640607792
 30
0.0
 11
231.1919027158331
 21
131.8463185089498
 31
0.0
  0
LINE
  5
6779
330
1F
100
AcDbEntity
  8
LOGO
  6
Continuous
100
AcDbLine
 10
223.4716413094538
 20
127.9407761346997
 30
0.0
 11
231.1919027158331
 21
126.9210216865287
 31
0.0
  0
TEXT
  5
677A
330
1F
100
AcDbEntity
  8
LOGO
100
AcDbText
 10
177.429041679408
 20
135.7387636993132
 30
277.9734363370656
 40
4.241385773755655
  1
比例 Scale:
 41
0.9
  7
CHINESET
 72
     4
 11
190.897334986874
 21
137.8573692900425
 31
277.9734363370656
100
AcDbText
  0
TEXT
  5
677B
330
1F
100
AcDbEntity
  8
LOGO
100
AcDbText
 10
177.1847833022586
 20
127.3135667372313
 30
277.9734363370656
 40
4.241385773755655
  1
投影  View:
 41
0.9
  7
CHINESET
 72
     4
 11
190.897334986874
 21
129.3745977425311
 31
277.9734363370656
100
AcDbText
  0
TEXT
  5
677C
330
1F
100
AcDbEntity
  8
LOGO
100
AcDbText
 10
177.5994545006749
 20
118.7711333081419
 30
277.9734363370656
 40
4.241385773755655
  1
單位  Unit:
 41
0.9
  7
CHINESET
 72
     4
 11
190.897334986874
 21
120.8918261950197
 31
277.9734363370656
100
AcDbText
  0
SOLID
  5
677D
330
1F
100
AcDbEntity
  8
LOGO
 62
     5
100
AcDbTrace
 10
147.228802026979
 20
123.7011405564081
 30
0.0
 11
149.0626659415881
 21
123.7011405564076
 31
0.0
 12
156.7143050335781
 22
141.091229401841
 32
0.0
 13
158.5481689481883
 23
141.09122940184
 33
0.0
  0
SOLID
  5
677E
330
1F
100
AcDbEntity
  8
LOGO
 62
     5
100
AcDbTrace
 10
149.8215061821181
 20
123.7011405564081
 30
0.0
 11
151.6553700967273
 21
123.7011405564081
 31
0.0
 12
158.5481689481883
 22
139.7000222942056
 32
0.0
 13
156.7143050335781
 23
132.975854607305
 33
0.0
  0
SOLID
  5
677F
330
1F
100
AcDbEntity
  8
LOGO
 62
     2
100
AcDbTrace
 10
149.0626659415881
 20
123.7011405564076
 30
0.0
 11
149.8215061821181
 21
123.7011405564081
 31
0.0
 12
158.5481689481883
 22
141.09122940184
 32
0.0
 13
159.3070091887172
 23
141.09122940184
 33
0.0
  0
SOLID
  5
6780
330
1F
100
AcDbEntity
  8
LOGO
 62
     5
100
AcDbTrace
 10
144.288668453341
 20
117.3774718853421
 30
0.0
 11
144.9210353204484
 21
117.3774718853421
 31
0.0
 12
146.701829637724
 22
120.5393062208749
 32
0.0
 13
147.3341965048293
 23
120.5393062208749
 33
0.0
  0
SOLID
  5
6781
330
1F
100
AcDbEntity
  8
LOGO
 62
     5
100
AcDbTrace
 10
146.701829637724
 20
120.5393062208749
 30
0.0
 11
147.3341965048293
 21
120.5393062208749
 31
0.0
 12
146.701829637724
 22
117.3774718853421
 32
0.0
 13
147.3341965048293
 23
117.3774718853421
 33
0.0
  0
SOLID
  5
6782
330
1F
100
AcDbEntity
  8
LOGO
 62
     5
100
AcDbTrace
 10
146.701829637724
 20
117.3774718853421
 30
0.0
 11
147.3341965048293
 21
117.3774718853421
 31
0.0
 12
149.1149908221078
 22
120.5393062208749
 32
0.0
 13
149.7473576892142
 23
120.5393062208749
 33
0.0
  0
SOLID
  5
6783
330
1F
100
AcDbEntity
  8
LOGO
 62
     5
100
AcDbTrace
 10
149.1149908221078
 20
120.5393062208749
 30
0.0
 11
149.7473576892142
 21
120.5393062208749
 31
0.0
 12
149.1149908221078
 22
117.3774718853421
 32
0.0
 13
149.7473576892142
 23
117.3774718853421
 33
0.0
  0
POLYLINE
  5
6784
330
1F
100
AcDbEntity
  8
LOGO
 62
     5
100
AcDb2dPolyline
 66
     1
 10
0.0
 20
0.0
 30
0.0
 40
0.6333802755475111
 41
0.6333802755475111
  0
VERTEX
  5
6785
330
6784
100
AcDbEntity
  8
LOGO
 62
     5
100
AcDbVertex
100
AcDb2dVertex
 10
170.3117127890338
 20
119.2745724866617
 30
0.0
 42
1.0
  0
VERTEX
  5
6786
330
6784
100
AcDbEntity
  8
LOGO
 62
     5
100
AcDbVertex
100
AcDb2dVertex
 10
168.4115719623909
 20
119.2745724866617
 30
0.0
 42
1.0
  0
SEQEND
  5
6787
330
6784
100
AcDbEntity
  8
LOGO
 62
     5
  0
POLYLINE
  5
6788
330
1F
100
AcDbEntity
  8
LOGO
 62
     5
100
AcDb2dPolyline
 66
     1
 10
0.0
 20
0.0
 30
0.0
 70
     1
  0
VERTEX
  5
6789
330
6788
100
AcDbEntity
  8
LOGO
 62
     5
100
AcDbVertex
100
AcDb2dVertex
 10
164.8297219859046
 20
118.958389053108
 30
0.0
 42
1.000000057330635
  0
VERTEX
  5
678A
330
6788
100
AcDbEntity
  8
LOGO
 62
     5
100
AcDbVertex
100
AcDb2dVertex
 10
166.7268225872246
 20
118.958389053108
 30
0.0
 42
1.000000057330635
  0
SEQEND
  5
678B
330
6788
100
AcDbEntity
  8
LOGO
 62
     5
  0
CIRCLE
  5
678C
330
1F
100
AcDbEntity
  8
LOGO
 62
     5
100
AcDbCircle
 10
165.7782722865661
 20
118.958389053108
 30
0.0
 40
0.9485503006599529
  0
POLYLINE
  5
678D
330
1F
100
AcDbEntity
  8
LOGO
 62
     5
100
AcDb2dPolyline
 66
     1
 10
0.0
 20
0.0
 30
0.0
 70
     1
 40
0.6333802755475111
 41
0.6333802755475111
  0
VERTEX
  5
678E
330
678D
100
AcDbEntity
  8
LOGO
 62
     5
100
AcDbVertex
100
AcDb2dVertex
 10
164.5115117354702
 20
118.958389053108
 30
0.0
 42
1.0
  0
VERTEX
  5
678F
330
678D
100
AcDbEntity
  8
LOGO
 62
     5
100
AcDbVertex
100
AcDb2dVertex
 10
167.0450328376601
 20
118.958389053108
 30
0.0
 42
1.0
  0
SEQEND
  5
6790
330
678D
100
AcDbEntity
  8
LOGO
 62
     5
  0
LINE
  5
6791
330
1F
100
AcDbEntity
  8
LOGO
100
AcDbLine
 10
170.6263761099245
 20
117.3774718853421
 30
0.0
 11
170.6263761099245
 21
119.2745724866617
 31
0.0
  0
SOLID
  5
6792
330
1F
100
AcDbEntity
  8
LOGO
 62
     5
100
AcDbTrace
 10
166.7267593505407
 20
120.5393062208749
 30
0.0
 11
167.3591262176462
 21
120.5393062208749
 31
0.0
 12
166.7267593505407
 22
117.3774718853421
 32
0.0
 13
167.3591262176462
 23
117.3774718853421
 33
0.0
  0
SOLID
  5
6793
330
1F
100
AcDbEntity
  8
LOGO
 62
     5
100
AcDbTrace
 10
168.0969086414982
 20
117.3774718853421
 30
0.0
 11
168.7292755086055
 21
117.3774718853421
 31
0.0
 12
168.0969086414982
 22
120.5393062208749
 32
0.0
 13
168.7292755086055
 23
120.5393062208749
 33
0.0
  0
SOLID
  5
6794
330
1F
100
AcDbEntity
  8
LOGO
 62
     5
100
AcDbTrace
 10
169.9940092428191
 20
119.2745724866617
 30
0.0
 11
170.6263761099245
 21
119.2745724866617
 31
0.0
 12
169.9940092428191
 22
117.3774718853421
 32
0.0
 13
170.6263761099245
 23
117.3774718853421
 33
0.0
  0
SOLID
  5
6795
330
1F
100
AcDbEntity
  8
LOGO
 62
     5
100
AcDbTrace
 10
168.0336719547873
 20
139.7000222942056
 30
0.0
 11
166.1998080401791
 21
132.975854607305
 31
0.0
 12
168.0336719547873
 22
123.7011405564076
 32
0.0
 13
166.1998080401791
 23
123.7011405564076
 33
0.0
  0
SOLID
  5
6796
330
1F
100
AcDbEntity
  8
LOGO
 62
     5
100
AcDbTrace
 10
168.7925121953163
 20
123.7011405564076
 30
0.0
 11
170.6263761099245
 21
123.7011405564076
 31
0.0
 12
168.7925121953163
 22
141.09122940184
 32
0.0
 13
170.6263761099245
 23
141.091229401841
 33
0.0
  0
SOLID
  5
6797
330
1F
100
AcDbEntity
  8
LOGO
 62
     2
100
AcDbTrace
 10
168.0336719547873
 20
141.091229401841
 30
0.0
 11
168.7925121953163
 21
141.09122940184
 31
0.0
 12
168.0336719547873
 22
123.7011405564076
 32
0.0
 13
168.7925121953163
 23
123.7011405564076
 33
0.0
  0
POLYLINE
  5
6798
330
1F
100
AcDbEntity
  8
LOGO
 62
     5
100
AcDb2dPolyline
 66
     1
 10
0.0
 20
0.0
 30
0.0
 40
0.6333802755475111
 41
0.6333802755475111
  0
VERTEX
  5
6799
330
6798
100
AcDbEntity
  8
LOGO
 62
     5
100
AcDbVertex
100
AcDb2dVertex
 10
161.2477455360477
 20
119.2745724866617
 30
0.0
 42
1.0
  0
VERTEX
  5
679A
330
6798
100
AcDbEntity
  8
LOGO
 62
     5
100
AcDbVertex
100
AcDb2dVertex
 10
159.3476047094049
 20
119.2745724866617
 30
0.0
 42
1.0
  0
SEQEND
  5
679B
330
6798
100
AcDbEntity
  8
LOGO
 62
     5
  0
POLYLINE
  5
679C
330
1F
100
AcDbEntity
  8
LOGO
 62
     5
100
AcDb2dPolyline
 66
     1
 10
0.0
 20
0.0
 30
0.0
 40
0.6333802755475111
 41
0.6333802755475111
  0
VERTEX
  5
679D
330
679C
100
AcDbEntity
  8
LOGO
 62
     5
100
AcDbVertex
100
AcDb2dVertex
 10
163.1448461373658
 20
119.2745724866617
 30
0.0
 42
1.0
  0
VERTEX
  5
679E
330
679C
100
AcDbEntity
  8
LOGO
 62
     5
100
AcDbVertex
100
AcDb2dVertex
 10
161.2447053107239
 20
119.2745724866617
 30
0.0
 42
1.0
  0
SEQEND
  5
679F
330
679C
100
AcDbEntity
  8
LOGO
 62
     5
  0
POLYLINE
  5
67A0
330
1F
100
AcDbEntity
  8
LOGO
 62
     5
100
AcDb2dPolyline
 66
     1
 10
0.0
 20
0.0
 30
0.0
 40
0.6333802755475111
 41
0.6333802755475111
  0
VERTEX
  5
67A1
330
67A0
100
AcDbEntity
  8
LOGO
 62
     5
100
AcDbVertex
100
AcDb2dVertex
 10
154.0808788843798
 20
119.2745724866617
 30
0.0
 42
1.0
  0
VERTEX
  5
67A2
330
67A0
100
AcDbEntity
  8
LOGO
 62
     5
100
AcDbVertex
100
AcDb2dVertex
 10
152.1807380577378
 20
119.2745724866617
 30
0.0
 42
1.0
  0
SEQEND
  5
67A3
330
67A0
100
AcDbEntity
  8
LOGO
 62
     5
  0
SOLID
  5
67A4
330
1F
100
AcDbEntity
  8
LOGO
 62
     5
100
AcDbTrace
 10
151.866074736846
 20
120.5393062208749
 30
0.0
 11
152.4984416039514
 21
120.5393062208749
 31
0.0
 12
151.866074736846
 22
117.3774718853421
 32
0.0
 13
152.4984416039514
 23
117.3774718853421
 33
0.0
  0
SOLID
  5
67A5
330
1F
100
AcDbEntity
  8
LOGO
 62
     5
100
AcDbTrace
 10
153.7631753381661
 20
119.2745724866617
 30
0.0
 11
154.3955422052734
 21
119.2745724866617
 31
0.0
 12
153.7631753381661
 22
117.3774718853421
 32
0.0
 13
154.3955422052734
 23
117.3774718853421
 33
0.0
  0
POLYLINE
  5
67A6
330
1F
100
AcDbEntity
  8
LOGO
 62
     5
100
AcDb2dPolyline
 66
     1
 10
0.0
 20
0.0
 30
0.0
 70
     1
 40
0.6333802755475111
 41
0.6333802755475111
  0
VERTEX
  5
67A7
330
67A6
100
AcDbEntity
  8
LOGO
 62
     5
100
AcDbVertex
100
AcDb2dVertex
 10
155.4475444824831
 20
118.958389053108
 30
0.0
 42
1.0
  0
VERTEX
  5
67A8
330
67A6
100
AcDbEntity
  8
LOGO
 62
     5
100
AcDbVertex
100
AcDb2dVertex
 10
157.981065584674
 20
118.958389053108
 30
0.0
 42
1.0
  0
SEQEND
  5
67A9
330
67A6
100
AcDbEntity
  8
LOGO
 62
     5
  0
SOLID
  5
67AA
330
1F
100
AcDbEntity
  8
LOGO
 62
     5
100
AcDbTrace
 10
157.6627920975527
 20
121.4878565215353
 30
0.0
 11
158.2951589646591
 21
121.4878565215353
 31
0.0
 12
157.6627920975527
 22
117.3774718853421
 32
0.0
 13
158.2951589646591
 23
117.3774718853421
 33
0.0
  0
SOLID
  5
67AB
330
1F
100
AcDbEntity
  8
LOGO
 62
     5
100
AcDbTrace
 10
159.0329413885141
 20
120.5393062208749
 30
0.0
 11
159.6653082556195
 21
120.5393062208749
 31
0.0
 12
159.0329413885141
 22
117.3774718853421
 32
0.0
 13
159.6653082556195
 23
117.3774718853421
 33
0.0
  0
SOLID
  5
67AC
330
1F
100
AcDbEntity
  8
LOGO
 62
     5
100
AcDbTrace
 10
160.9300419898321
 20
119.2745724866617
 30
0.0
 11
161.5624088569395
 21
119.2745724866617
 31
0.0
 12
160.9300419898321
 22
117.3774718853421
 32
0.0
 13
161.5624088569395
 23
117.3774718853421
 33
0.0
  0
SOLID
  5
67AD
330
1F
100
AcDbEntity
  8
LOGO
 62
     5
100
AcDbTrace
 10
162.8271425911522
 20
119.2745724866617
 30
0.0
 11
163.4595094582585
 21
119.2745724866617
 31
0.0
 12
162.8271425911522
 22
117.3774718853412
 32
0.0
 13
163.4595094582585
 23
117.3774718853412
 33
0.0
  0
SOLID
  5
67AE
330
1F
100
AcDbEntity
  8
LOGO
 62
     5
100
AcDbTrace
 10
150.4959254458857
 20
120.9819630278497
 30
0.0
 11
151.128292312994
 21
120.9819630278497
 31
0.0
 12
150.4959254458857
 22
121.4878565215353
 32
0.0
 13
151.128292312994
 23
121.4878565215353
 33
0.0
  0
SOLID
  5
67AF
330
1F
100
AcDbEntity
  8
LOGO
 62
     5
100
AcDbTrace
 10
150.4959254458857
 20
120.5393062208749
 30
0.0
 11
151.128292312994
 21
120.5393062208749
 31
0.0
 12
150.4959254458857
 22
117.3774718853412
 32
0.0
 13
151.128292312994
 23
117.3774718853421
 33
0.0
  0
SOLID
  5
67B0
330
1F
100
AcDbEntity
  8
LOGO
 62
     5
100
AcDbTrace
 10
156.7143050335781
 20
123.7011405564081
 30
0.0
 11
158.5481689481883
 21
123.7011405564081
 31
0.0
 12
156.7143050335781
 22
132.975854607305
 32
0.0
 13
158.5481689481883
 23
139.7000222942056
 33
0.0
  0
SOLID
  5
67B1
330
1F
100
AcDbEntity
  8
LOGO
 62
     5
100
AcDbTrace
 10
159.3070091887172
 20
141.09122940184
 30
0.0
 11
161.1408731033255
 21
141.091229401841
 31
0.0
 12
159.3070091887172
 22
125.0923476640424
 32
0.0
 13
161.1408731033255
 23
131.8165153509432
 33
0.0
  0
SOLID
  5
67B2
330
1F
100
AcDbEntity
  8
LOGO
 62
     2
100
AcDbTrace
 10
158.5481689481883
 20
141.09122940184
 30
0.0
 11
159.3070091887172
 21
141.09122940184
 31
0.0
 12
158.5481689481883
 22
123.7011405564081
 32
0.0
 13
159.3070091887172
 23
123.7011405564081
 33
0.0
  0
SOLID
  5
67B3
330
1F
100
AcDbEntity
  8
LOGO
 62
     5
100
AcDbTrace
 10
159.3070091887172
 20
125.0923476640424
 30
0.0
 11
161.1408731033255
 21
131.8165153509432
 31
0.0
 12
168.0336719547873
 22
141.091229401841
 32
0.0
 13
166.1998080401791
 23
141.091229401841
 33
0.0
  0
SOLID
  5
67B4
330
1F
100
AcDbEntity
  8
LOGO
 62
     5
100
AcDbTrace
 10
159.3070091887172
 20
123.7011405564081
 30
0.0
 11
161.1408731033255
 21
123.7011405564081
 31
0.0
 12
168.0336719547873
 22
139.7000222942056
 32
0.0
 13
166.1998080401791
 23
132.975854607305
 33
0.0
  0
SOLID
  5
67B5
330
1F
100
AcDbEntity
  8
LOGO
 62
     2
100
AcDbTrace
 10
158.5481689481883
 20
123.7011405564081
 30
0.0
 11
159.3070091887172
 21
123.7011405564081
 31
0.0
 12
168.0336719547873
 22
141.091229401841
 32
0.0
 13
168.7925121953163
 23
141.09122940184
 33
0.0
  0
TEXT
  5
67F5
330
1F
100
AcDbEntity
  8
LOGO
100
AcDbText
 10
237.8918652292831
 20
101.9412978173987
 30
0.0
 40
4.241999999999999
  1
10707269
 41
0.7
  7
CHINESET
 72
     1
 11
248.4261652292831
 21
101.9412978173987
 31
0.0
100
AcDbText
  0
LINE
  5
67F6
330
1F
100
AcDbEntity
  8
LOGO
 62
     4
100
AcDbLine
 10
261.5907832402661
 20
108.1676688737539
 30
0.0
 11
261.590783240268
 21
99.68489732624206
 31
0.0
  0
LINE
  5
67F7
330
1F
100
AcDbEntity
  8
LOGO
 62
     4
100
AcDbLine
 10
261.5907832402661
 20
108.1676688737539
 30
0.0
 11
236.138783240268
 21
108.1676688737539
 31
0.0
  0
LINE
  5
67F8
330
1F
100
AcDbEntity
  8
LOGO
  6
AM_ISO08W050x2
 48
0.3
100
AcDbLine
 10
212.3215366360424
 20
129.3836700977393
 30
0.0
 11
219.111132056261
 21
129.3836700977393
 31
0.0
1001
GENIUS_GENOREF_13
1005
67FD
  0
LINE
  5
67F9
330
1F
100
AcDbEntity
  8
LOGO
  6
AM_ISO08W050x2
 48
0.3
100
AcDbLine
 10
215.7163343461517
 20
125.98887238763
 30
0.0
 11
215.7163343461517
 21
132.7784678078485
 31
0.0
1001
GENIUS_GENOREF_13
1005
67FC
  0
LINE
  5
67FA
330
1F
100
AcDbEntity
  8
LOGO
  6
CENTER
 48
0.5
100
AcDbLine
 10
222.8542349806053
 20
129.3836700977393
 30
0.0
 11
231.9693080476808
 21
129.3836700977393
 31
0.0
1001
GENIUS_GENOREF_13
1005
67FB
  0
POINT
  5
67FB
330
1F
100
AcDbEntity
  8
0
 60
     1
100
AcDbPoint
 10
-1750.493197803881
 20
-910.4717086676414
 30
0.0
1001
GENIUS_GENOBJ-N-CRS_13
1002
{
1000
OWNER
1000
GEN
1002
}
1001
GENIUS_GENOLIS_13
1002
{
1000
ENT
1005
0
1005
0
1005
0
1005
67FA
1002
}
1001
GENIUS_GENOENT_13
1002
{
1000
MYREF
1005
67FB
1002
}
1002
{
1000
GRP
1005
0
1002
}
1001
GENIUS_GENODEF_13
1002
{
1000
HIER
1070
    10
1002
}
1002
{
1000
MANEDIT
1070
     1
1002
}
1002
{
1000
NOSEL
1070
     0
1002
}
1002
{
1000
BEHIND
1070
     0
1002
}
1002
{
1000
OTHER
1070
     0
1002
}
1002
{
1000
REACTOR
1002
}
  0
POINT
  5
67FC
330
1F
100
AcDbEntity
  8
0
 60
     1
100
AcDbPoint
 10
-1761.817783026735
 20
-901.5961221890052
 30
0.0
1001
GENIUS_GENOBJ-N-CRS_13
1002
{
1000
OWNER
1000
GEN
1002
}
1001
GENIUS_GENOLIS_13
1002
{
1000
ENT
1005
0
1005
0
1005
0
1005
67F9
1002
}
1001
GENIUS_GENOENT_13
1002
{
1000
MYREF
1005
67FC
1002
}
1002
{
1000
GRP
1005
0
1002
}
1001
GENIUS_GENODEF_13
1002
{
1000
HIER
1070
    10
1002
}
1002
{
1000
MANEDIT
1070
     1
1002
}
1002
{
1000
NOSEL
1070
     0
1002
}
1002
{
1000
BEHIND
1070
     0
1002
}
1002
{
1000
OTHER
1070
     0
1002
}
1002
{
1000
REACTOR
1002
}
  0
POINT
  5
67FD
330
1F
100
AcDbEntity
  8
0
 60
     1
100
AcDbPoint
 10
-1755.459109328899
 20
-910.4717086676414
 30
0.0
1001
GENIUS_GENOBJ-N-CRS_13
1002
{
1000
OWNER
1000
GEN
1002
}
1001
GENIUS_GENOLIS_13
1002
{
1000
ENT
1005
0
1005
0
1005
0
1005
67F8
1002
}
1001
GENIUS_GENOENT_13
1002
{
1000
MYREF
1005
67FD
1002
}
1002
{
1000
GRP
1005
0
1002
}
1001
GENIUS_GENODEF_13
1002
{
1000
HIER
1070
    10
1002
}
1002
{
1000
MANEDIT
1070
     1
1002
}
1002
{
1000
NOSEL
1070
     0
1002
}
1002
{
1000
BEHIND
1070
     0
1002
}
1002
{
1000
OTHER
1070
     0
1002
}
1002
{
1000
REACTOR
1002
}
  0
TEXT
  5
6E72
330
1F
100
AcDbEntity
  8
0
100
AcDbText
 10
152.1395369502654
 20
369.4003044843846
 30
0.0
 40
5.599999999999999
  1
12 type
  7
CHINESET
100
AcDbText
  0
TEXT
  5
6E74
330
1F
100
AcDbEntity
  8
0
100
AcDbText
 10
152.1395369502654
 20
609.3923807809722
 30
0.0
 40
5.599999999999999
  1
11 type
  7
CHINESET
100
AcDbText
  0
SPLINE
  5
75F5
330
1F
100
AcDbEntity
  8
0
  6
Continuous
 62
     7
370
    15
100
AcDbSpline
210
0.0
220
0.0
230
1.0
 70
    24
 71
     1
 72
     4
 73
     2
 74
     0
 42
0.0000000001
 43
0.0000000001
 40
0.0
 40
0.0
 40
1.0
 40
1.0
 10
227.5826234267994
 20
234.190442815013
 30
0.0
 10
231.082623534833
 20
234.190442815013
 30
0.0
  0
SPLINE
  5
75F6
330
1F
100
AcDbEntity
  8
0
  6
Continuous
 62
     7
370
    15
100
AcDbSpline
210
0.0
220
0.0
230
1.0
 70
    24
 71
     1
 72
     4
 73
     2
 74
     0
 42
0.0000000001
 43
0.0000000001
 40
0.0
 40
0.0
 40
1.0
 40
1.0
 10
231.082623534833
 20
254.1904423679782
 30
0.0
 10
227.5826234267995
 20
254.1904423679782
 30
0.0
  0
LINE
  5
75F7
330
1F
100
AcDbEntity
  8
0
  6
Continuous
 62
     7
370
    15
100
AcDbLine
 10
221.0826237583503
 20
252.6904430534316
 30
0.0
 11
221.0826237583502
 21
235.6904421295596
 31
0.0
  0
SPLINE
  5
75F8
330
1F
100
AcDbEntity
  8
0
  6
Continuous
 62
     7
370
    15
100
AcDbSpline
210
0.0
220
0.0
230
1.0
 70
    24
 71
     3
 72
     9
 73
     5
 74
     0
 42
0.0000000001
 43
0.0000000001
 40
0.0
 40
0.0
 40
0.0
 40
0.0
 40
0.4973698882472278
 40
1.0
 40
1.0
 40
1.0
 40
1.0
 10
222.8146741995558
 20
252.6904430534316
 30
0.0
 10
222.496065243086
 20
252.6904430534316
 30
0.0
 10
221.8554776964763
 20
252.6904430534316
 30
0.0
 10
221.3411435752038
 20
252.6904430534316
 30
0.0
 10
221.0826237583503
 20
252.6904430534316
 30
0.0
  0
LINE
  5
75F9
330
1F
100
AcDbEntity
  8
0
  6
Continuous
 62
     7
370
    15
100
AcDbLine
 10
222.8146741995558
 20
252.6904430534316
 30
0.0
 11
222.8146741995558
 21
235.6904421295596
 31
0.0
  0
SPLINE
  5
75FA
330
1F
100
AcDbEntity
  8
0
  6
Continuous
 62
     7
370
    15
100
AcDbSpline
210
0.0
220
0.0
230
1.0
 70
    24
 71
     3
 72
     9
 73
     5
 74
     0
 42
0.0000000001
 43
0.0000000001
 40
0.0
 40
0.0
 40
0.0
 40
0.0
 40
0.4965449618957037
 40
1.0
 40
1.0
 40
1.0
 40
1.0
 10
221.0826237583502
 20
235.6904421295596
 30
0.0
 10
221.3378192397625
 20
235.6904421295596
 30
0.0
 10
221.8517615833479
 20
235.6904421295596
 30
0.0
 10
222.4922281033324
 20
235.6904421295596
 30
0.0
 10
222.8146741995558
 20
235.6904421295596
 30
0.0
  0
LINE
  5
75FB
330
1F
100
AcDbEntity
  8
0
  6
Continuous
 62
     7
370
    15
100
AcDbLine
 10
226.0826236465916
 20
252.6904430534316
 30
0.0
 11
222.8146741995558
 21
252.6904430534316
 31
0.0
  0
LWPOLYLINE
  5
75FC
330
1F
100
AcDbEntity
  8
0
  6
Continuous
 62
     7
370
    15
100
AcDbPolyline
 90
        7
 70
   128
 43
0.0
 10
227.5826234267995
 20
254.1904423679782
 10
227.5399017976567
 20
254.1477207388354
 10
227.4121019886777
 20
254.0199209298564
 10
227.2003155099199
 20
253.8081344510985
 10
226.9063523868069
 20
253.5141717936469
 10
226.5327243963227
 20
253.1405438031627
 10
226.0826236465916
 20
252.6904430534316
  0
LWPOLYLINE
  5
75FD
330
1F
100
AcDbEntity
  8
0
  6
Continuous
 62
     7
370
    15
100
AcDbPolyline
 90
        7
 70
   128
 43
0.0
 10
226.0826236465916
 20
235.6904421295596
 10
226.5327243963227
 20
235.2403413798286
 10
226.9063523868069
 20
234.8667133893443
 10
227.2003155099197
 20
234.5727507318927
 10
227.4121019886776
 20
234.3609642531348
 10
227.5399017976566
 20
234.2331644441558
 10
227.5826234267994
 20
234.190442815013
  0
LINE
  5
75FE
330
1F
100
AcDbEntity
  8
0
  6
Continuous
 62
     7
370
    15
100
AcDbLine
 10
222.8146741995558
 20
235.6904421295596
 30
0.0
 11
226.0826236465916
 21
235.6904421295596
 31
0.0
  0
CIRCLE
  5
75FF
330
1F
100
AcDbEntity
  8
0
  6
Continuous
 62
     7
370
    15
100
AcDbCircle
 10
282.082623534833
 20
244.1904425914953
 30
0.0
 40
4.999999999995452
  0
LINE
  5
7600
330
1F
100
AcDbEntity
  8
0
  6
Continuous
 62
     7
370
    15
100
AcDbLine
 10
274.5826222831354
 20
206.44044432003
 30
0.0
 11
274.5826222831356
 21
281.9404408629606
 31
0.0
  0
LINE
  5
7601
330
1F
100
AcDbEntity
  8
0
  6
Continuous
 62
     7
370
    15
100
AcDbLine
 10
274.5826222831356
 20
281.9404408629606
 30
0.0
 11
290.082623892461
 21
281.9404408629606
 31
0.0
  0
LINE
  5
7602
330
1F
100
AcDbEntity
  8
0
  6
Continuous
 62
     7
370
    15
100
AcDbLine
 10
290.0826238924608
 20
206.44044432003
 30
0.0
 11
290.082623892461
 21
281.9404408629606
 31
0.0
  0
LINE
  5
7603
330
1F
100
AcDbEntity
  8
0
  6
Continuous
 62
     7
370
    15
100
AcDbLine
 10
290.0826238924608
 20
206.44044432003
 30
0.0
 11
274.5826222831354
 21
206.44044432003
 31
0.0
  0
CIRCLE
  5
7604
330
1F
100
AcDbEntity
  8
0
  6
Continuous
 62
     7
370
    15
100
AcDbCircle
 10
282.082623534833
 20
244.1904425914953
 30
0.0
 40
4.349999999988085
  0
LINE
  5
7605
330
1F
100
AcDbEntity
  8
0
  6
Continuous
 62
     7
370
    15
100
AcDbLine
 10
290.082623892461
 20
291.9404425020884
 30
0.0
 11
274.5826222831356
 21
291.9404425020884
 31
0.0
  0
LINE
  5
7606
330
1F
100
AcDbEntity
  8
0
  6
Continuous
 62
     7
370
    15
100
AcDbLine
 10
290.082623892461
 20
281.9404408629606
 30
0.0
 11
290.082623892461
 21
291.9404425020884
 31
0.0
  0
LINE
  5
7607
330
1F
100
AcDbEntity
  8
0
  6
Continuous
 62
     7
370
    15
100
AcDbLine
 10
274.5826222831356
 20
291.9404425020884
 30
0.0
 11
274.5826222831356
 21
281.9404408629606
 31
0.0
  0
LINE
  5
7608
330
1F
100
AcDbEntity
  8
0
  6
Continuous
 62
     7
370
    15
100
AcDbLine
 10
274.5826222831353
 20
196.4404426809024
 30
0.0
 11
290.0826238924607
 21
196.4404426809022
 31
0.0
  0
LINE
  5
7609
330
1F
100
AcDbEntity
  8
0
  6
Continuous
 62
     7
370
    15
100
AcDbLine
 10
290.0826238924607
 20
196.4404426809022
 30
0.0
 11
290.0826238924608
 21
206.44044432003
 31
0.0
  0
LINE
  5
760A
330
1F
100
AcDbEntity
  8
0
  6
Continuous
 62
     7
370
    15
100
AcDbLine
 10
274.5826222831354
 20
206.44044432003
 30
0.0
 11
274.5826222831353
 21
196.4404426809024
 31
0.0
  0
LINE
  5
760B
330
1F
100
AcDbEntity
  8
0
  6
Continuous
 62
     7
370
    15
100
AcDbLine
 10
290.0826238924609
 20
282.3258444960784
 30
0.0
 11
290.0826238924609
 21
283.4880456622313
 31
0.0
  0
LINE
  5
760C
330
1F
100
AcDbEntity
  8
0
  6
Continuous
 62
     7
370
    15
100
AcDbLine
 10
290.0826238924607
 20
203.4770690198611
 30
0.0
 11
290.0826238924607
 21
206.0550406869124
 31
0.0
  0
LINE
  5
760D
330
1F
100
AcDbEntity
  8
0
  6
Continuous
 62
     7
370
    15
100
AcDbLine
 10
290.0826238924609
 20
287.8162145908545
 30
0.0
 11
290.082623892461
 21
291.9404425020884
 31
0.0
  0
LINE
  5
760E
330
1F
100
AcDbEntity
  8
0
  6
Continuous
 62
     7
370
    15
100
AcDbLine
 10
274.5826222831356
 20
291.9404425020884
 30
0.0
 11
274.5826222831356
 21
291.19044098217
 31
0.0
  0
LINE
  5
760F
330
1F
100
AcDbEntity
  8
0
  6
Continuous
 62
     7
370
    15
100
AcDbLine
 10
290.0826238924607
 20
196.4404426809024
 30
0.0
 11
290.0826238924607
 21
200.5646705921363
 31
0.0
  0
LINE
  5
7610
330
1F
100
AcDbEntity
  8
0
  6
Continuous
 62
     7
370
    15
100
AcDbLine
 10
274.5826222831353
 20
197.1904442008208
 30
0.0
 11
274.5826222831353
 21
196.4404426809024
 31
0.0
  0
LINE
  5
7611
330
1F
100
AcDbEntity
  8
0
  6
Continuous
 62
     7
370
    15
100
AcDbLine
 10
290.0826238924609
 20
283.7416149969767
 30
0.0
 11
290.0826238924609
 21
283.3429381545256
 31
0.0
  0
LINE
  5
7612
330
1F
100
AcDbEntity
  8
0
  6
Continuous
 62
     7
370
    15
100
AcDbLine
 10
290.0826238924609
 20
283.7416149969767
 30
0.0
 11
290.0826238924609
 21
284.9038161631297
 31
0.0
  0
LINE
  5
7613
330
1F
100
AcDbEntity
  8
0
  6
Continuous
 62
     7
370
    15
100
AcDbLine
 10
290.0826238924609
 20
285.1696007247637
 30
0.0
 11
290.0826238924609
 21
288.0697876508902
 31
0.0
  0
LINE
  5
7614
330
1F
100
AcDbEntity
  8
0
  6
Continuous
 62
     7
370
    15
100
AcDbLine
 10
290.0826238924607
 20
200.3110975321006
 30
0.0
 11
290.0826238924607
 21
203.211284458227
 31
0.0
  0
LINE
  5
7615
330
1F
100
AcDbEntity
  8
0
  6
Continuous
 62
     7
370
    15
100
AcDbLine
 10
290.0826238924608
 20
287.8162145908547
 30
0.0
 11
290.0826238924608
 21
288.0697876508904
 31
0.0
  0
LINE
  5
7616
330
1F
100
AcDbEntity
  8
0
  6
Continuous
 62
     7
370
    15
100
AcDbLine
 10
290.0826238924606
 20
200.3110975321007
 30
0.0
 11
290.0826238924606
 21
200.5646705921364
 31
0.0
  0
LINE
  5
7617
330
1F
100
AcDbEntity
  8
0
  6
Continuous
 62
     7
370
    15
100
AcDbLine
 10
290.0826238924608
 20
282.422582834549
 30
0.0
 11
290.0826238924608
 21
285.3227697606754
 31
0.0
  0
LINE
  5
7618
330
1F
100
AcDbEntity
  8
0
  6
Continuous
 62
     7
370
    15
100
AcDbLine
 10
290.0826238924606
 20
203.0581154223156
 30
0.0
 11
290.0826238924606
 21
205.9583023484421
 31
0.0
  0
LINE
  5
7619
330
1F
100
AcDbEntity
  8
0
  6
Continuous
 62
     7
370
    15
100
AcDbLine
 10
290.0826238924608
 20
285.5763390954209
 30
0.0
 11
290.0826238924608
 21
291.9404425020886
 31
0.0
  0
LINE
  5
761A
330
1F
100
AcDbEntity
  8
0
  6
Continuous
 62
     7
370
    15
100
AcDbLine
 10
274.5826222831354
 20
291.9404425020886
 30
0.0
 11
274.5826222831354
 21
291.2422076161576
 31
0.0
  0
LINE
  5
761B
330
1F
100
AcDbEntity
  8
0
  6
Continuous
 62
     7
370
    15
100
AcDbLine
 10
290.0826238924608
 20
285.3227697606754
 30
0.0
 11
290.0826238924608
 21
285.5763390954209
 31
0.0
  0
LINE
  5
761C
330
1F
100
AcDbEntity
  8
0
  6
Continuous
 62
     7
370
    15
100
AcDbLine
 10
290.0826238924606
 20
202.8045460875702
 30
0.0
 11
290.0826238924606
 21
203.0581154223156
 31
0.0
  0
LINE
  5
761D
330
1F
100
AcDbEntity
  8
0
  6
Continuous
 62
     7
370
    15
100
AcDbLine
 10
290.0826238924604
 20
196.4404426809025
 30
0.0
 11
290.0826238924606
 21
202.8045460875702
 31
0.0
  0
LINE
  5
761E
330
1F
100
AcDbEntity
  8
0
  6
Continuous
 62
     7
370
    15
100
AcDbLine
 10
274.582622283135
 20
197.1386775668335
 30
0.0
 11
274.582622283135
 21
196.4404426809026
 31
0.0
  0
LINE
  5
761F
330
1F
100
AcDbEntity
  8
0
  6
Continuous
 62
     7
370
    15
100
AcDbLine
 10
274.5826222831356
 20
291.19044098217
 30
0.0
 11
246.5826232815134
 21
291.1904409821701
 31
0.0
  0
LINE
  5
7620
330
1F
100
AcDbEntity
  8
0
  6
Continuous
 62
     7
370
    15
100
AcDbLine
 10
246.5826232815134
 20
281.1904430683325
 30
0.0
 11
274.5826222831356
 21
281.1904430683325
 31
0.0
  0
LINE
  5
7621
330
1F
100
AcDbEntity
  8
0
  6
Continuous
 62
     7
370
    15
100
AcDbLine
 10
274.5826222831356
 20
263.3407816584776
 30
0.0
 11
246.5826232815134
 21
263.3407816584777
 31
0.0
  0
LINE
  5
7622
330
1F
100
AcDbEntity
  8
0
  6
Continuous
 62
     7
370
    15
100
AcDbLine
 10
246.5826232815133
 20
261.5281652953099
 30
0.0
 11
274.5826222831355
 21
261.5281652953098
 31
0.0
  0
LINE
  5
7623
330
1F
100
AcDbEntity
  8
0
  6
Continuous
 62
     7
370
    15
100
AcDbLine
 10
274.5826222831354
 20
226.8527198876809
 30
0.0
 11
246.5826232815132
 21
226.8527198876809
 31
0.0
  0
LINE
  5
7624
330
1F
100
AcDbEntity
  8
0
  6
Continuous
 62
     7
370
    15
100
AcDbLine
 10
246.5826232815132
 20
225.0401035245131
 30
0.0
 11
274.5826222831354
 21
225.040103524513
 31
0.0
  0
LINE
  5
7625
330
1F
100
AcDbEntity
  8
0
  6
Continuous
 62
     7
370
    15
100
AcDbLine
 10
274.5826222831354
 20
207.1904421146582
 30
0.0
 11
246.5826232815132
 21
207.1904421146582
 31
0.0
  0
LINE
  5
7626
330
1F
100
AcDbEntity
  8
0
  6
Continuous
 62
     7
370
    15
100
AcDbLine
 10
246.5826232815131
 20
197.1904442008208
 30
0.0
 11
274.5826222831353
 21
197.1904442008208
 31
0.0
  0
LINE
  5
7627
330
1F
100
AcDbEntity
  8
0
  6
Continuous
 62
     7
370
    15
100
AcDbLine
 10
274.5826222831355
 20
259.5748316790531
 30
0.0
 11
246.5826232815133
 21
259.5748316790532
 31
0.0
  0
LINE
  5
7628
330
1F
100
AcDbEntity
  8
0
  6
Continuous
 62
     7
370
    15
100
AcDbLine
 10
246.5826232815132
 20
228.8060535039376
 30
0.0
 11
274.5826222831354
 21
228.8060535039376
 31
0.0
  0
LINE
  5
7629
330
1F
100
AcDbEntity
  8
0
  6
Continuous
 62
     7
370
    15
100
AcDbLine
 10
246.5826232815132
 20
230.0377117763828
 30
0.0
 11
274.5826222831354
 21
230.0377117763828
 31
0.0
  0
LINE
  5
762A
330
1F
100
AcDbEntity
  8
0
  6
Continuous
 62
     7
370
    15
100
AcDbLine
 10
274.5826222831355
 20
258.3431734066079
 30
0.0
 11
246.5826232815133
 21
258.343173406608
 31
0.0
  0
CIRCLE
  5
762B
330
1F
100
AcDbEntity
  8
0
  6
Continuous
 62
     7
370
    15
100
AcDbCircle
 10
239.082623534833
 20
244.1904425914954
 30
0.0
 40
4.99999999999548
  0
LINE
  5
762C
330
1F
100
AcDbEntity
  8
0
  6
Continuous
 62
     7
370
    15
100
AcDbLine
 10
246.5826232815134
 20
281.9404408629607
 30
0.0
 11
246.5826232815132
 21
206.4404443200301
 31
0.0
  0
LINE
  5
762D
330
1F
100
AcDbEntity
  8
0
  6
Continuous
 62
     7
370
    15
100
AcDbLine
 10
246.5826232815132
 20
206.4404443200301
 30
0.0
 11
231.0826235348329
 21
206.4404443200301
 31
0.0
  0
LINE
  5
762E
330
1F
100
AcDbEntity
  8
0
  6
Continuous
 62
     7
370
    15
100
AcDbLine
 10
231.0826235348331
 20
281.9404408629608
 30
0.0
 11
231.0826235348329
 21
206.4404443200301
 31
0.0
  0
LINE
  5
762F
330
1F
100
AcDbEntity
  8
0
  6
Continuous
 62
     7
370
    15
100
AcDbLine
 10
231.0826235348331
 20
281.9404408629608
 30
0.0
 11
246.5826232815134
 21
281.9404408629607
 31
0.0
  0
CIRCLE
  5
7630
330
1F
100
AcDbEntity
  8
0
  6
Continuous
 62
     7
370
    15
100
AcDbCircle
 10
239.082623534833
 20
244.1904425914954
 30
0.0
 40
4.349999999988085
  0
LINE
  5
7631
330
1F
100
AcDbEntity
  8
0
  6
Continuous
 62
     7
370
    15
100
AcDbLine
 10
246.5826232815134
 20
291.9404425020886
 30
0.0
 11
231.0826235348331
 21
291.9404425020886
 31
0.0
  0
LINE
  5
7632
330
1F
100
AcDbEntity
  8
0
  6
Continuous
 62
     7
370
    15
100
AcDbLine
 10
246.5826232815134
 20
281.9404408629607
 30
0.0
 11
246.5826232815134
 21
291.9404425020886
 31
0.0
  0
LINE
  5
7633
330
1F
100
AcDbEntity
  8
0
  6
Continuous
 62
     7
370
    15
100
AcDbLine
 10
231.0826235348331
 20
291.9404425020886
 30
0.0
 11
231.0826235348331
 21
281.9404408629608
 31
0.0
  0
LINE
  5
7634
330
1F
100
AcDbEntity
  8
0
  6
Continuous
 62
     7
370
    15
100
AcDbLine
 10
231.0826235348328
 20
196.4404426809025
 30
0.0
 11
246.5826232815131
 21
196.4404426809024
 31
0.0
  0
LINE
  5
7635
330
1F
100
AcDbEntity
  8
0
  6
Continuous
 62
     7
370
    15
100
AcDbLine
 10
246.5826232815131
 20
196.4404426809024
 30
0.0
 11
246.5826232815132
 21
206.4404443200301
 31
0.0
  0
LINE
  5
7636
330
1F
100
AcDbEntity
  8
0
  6
Continuous
 62
     7
370
    15
100
AcDbLine
 10
231.0826235348329
 20
206.4404443200301
 30
0.0
 11
231.0826235348328
 21
196.4404426809025
 31
0.0
  0
LINE
  5
7637
330
1F
100
AcDbEntity
  8
0
  6
Continuous
 62
     7
370
    15
100
AcDbLine
 10
231.082623534833
 20
283.4880456622315
 30
0.0
 11
231.082623534833
 21
282.3258444960785
 31
0.0
  0
LINE
  5
7638
330
1F
100
AcDbEntity
  8
0
  6
Continuous
 62
     7
370
    15
100
AcDbLine
 10
231.0826235348328
 20
206.0550406869126
 30
0.0
 11
231.0826235348328
 21
203.4770690198613
 31
0.0
  0
LINE
  5
7639
330
1F
100
AcDbEntity
  8
0
  6
Continuous
 62
     7
370
    15
100
AcDbLine
 10
246.5826232815134
 20
291.9404425020886
 30
0.0
 11
246.5826232815134
 21
291.2291318472099
 31
0.0
  0
LINE
  5
763A
330
1F
100
AcDbEntity
  8
0
  6
Continuous
 62
     7
370
    15
100
AcDbLine
 10
231.082623534833
 20
291.9404425020886
 30
0.0
 11
231.082623534833
 21
291.2291318472099
 31
0.0
  0
LINE
  5
763B
330
1F
100
AcDbEntity
  8
0
  6
Continuous
 62
     7
370
    15
100
AcDbLine
 10
246.5826232815131
 20
197.1517533357811
 30
0.0
 11
246.5826232815131
 21
196.4404426809025
 31
0.0
  0
LINE
  5
763C
330
1F
100
AcDbEntity
  8
0
  6
Continuous
 62
     7
370
    15
100
AcDbLine
 10
231.0826235348328
 20
197.1517533357811
 30
0.0
 11
231.0826235348328
 21
196.4404426809025
 31
0.0
  0
LINE
  5
763D
330
1F
100
AcDbEntity
  8
0
  6
Continuous
 62
     7
370
    15
100
AcDbLine
 10
246.5826232815134
 20
291.1904409821701
 30
0.0
 11
246.5826232815134
 21
291.2291318472099
 31
0.0
  0
LINE
  5
763E
330
1F
100
AcDbEntity
  8
0
  6
Continuous
 62
     7
370
    15
100
AcDbLine
 10
231.082623534833
 20
291.2291318472099
 30
0.0
 11
231.082623534833
 21
287.9974760409069
 31
0.0
  0
LINE
  5
763F
330
1F
100
AcDbEntity
  8
0
  6
Continuous
 62
     7
370
    15
100
AcDbLine
 10
246.5826232815131
 20
197.1517533357811
 30
0.0
 11
246.5826232815131
 21
197.1904442008209
 31
0.0
  0
LINE
  5
7640
330
1F
100
AcDbEntity
  8
0
  6
Continuous
 62
     7
370
    15
100
AcDbLine
 10
231.0826235348328
 20
200.3834091420842
 30
0.0
 11
231.0826235348328
 21
197.1517533357811
 31
0.0
  0
LINE
  5
7641
330
1F
100
AcDbEntity
  8
0
  6
Continuous
 62
     7
370
    15
100
AcDbLine
 10
231.082623534833
 20
283.3429381545258
 30
0.0
 11
231.082623534833
 21
283.7416149969769
 31
0.0
  0
LINE
  5
7642
330
1F
100
AcDbEntity
  8
0
  6
Continuous
 62
     7
370
    15
100
AcDbLine
 10
231.082623534833
 20
284.9038161631298
 30
0.0
 11
231.082623534833
 21
283.7416149969769
 31
0.0
  0
LINE
  5
7643
330
1F
100
AcDbEntity
  8
0
  6
Continuous
 62
     7
370
    15
100
AcDbLine
 10
231.082623534833
 20
287.9974760409069
 30
0.0
 11
231.082623534833
 21
287.8820032175255
 31
0.0
  0
LINE
  5
7644
330
1F
100
AcDbEntity
  8
0
  6
Continuous
 62
     7
370
    15
100
AcDbLine
 10
231.0826235348328
 20
200.4988819654657
 30
0.0
 11
231.0826235348328
 21
200.3834091420842
 31
0.0
  0
LINE
  5
7645
330
1F
100
AcDbEntity
  8
0
  6
Continuous
 62
     7
370
    15
100
AcDbLine
 10
231.082623534833
 20
287.8885262008381
 30
0.0
 11
231.082623534833
 21
285.1696007247639
 31
0.0
  0
LINE
  5
7646
330
1F
100
AcDbEntity
  8
0
  6
Continuous
 62
     7
370
    15
100
AcDbLine
 10
231.0826235348328
 20
203.2112844582273
 30
0.0
 11
231.0826235348328
 21
200.492358982153
 31
0.0
  0
LINE
  5
7647
330
1F
100
AcDbEntity
  8
0
  6
Continuous
 62
     7
370
    15
100
AcDbLine
 10
231.0826235348329
 20
287.9852645393088
 30
0.0
 11
231.0826235348329
 21
287.900741427727
 31
0.0
  0
LINE
  5
7648
330
1F
100
AcDbEntity
  8
0
  6
Continuous
 62
     7
370
    15
100
AcDbLine
 10
231.0826235348327
 20
200.4801437552644
 30
0.0
 11
231.0826235348327
 21
200.3956206436826
 31
0.0
  0
LINE
  5
7649
330
1F
100
AcDbEntity
  8
0
  6
Continuous
 62
     7
370
    15
100
AcDbLine
 10
231.0826235348329
 20
285.1415083106234
 30
0.0
 11
231.0826235348329
 21
282.4225828345492
 31
0.0
  0
LINE
  5
764A
330
1F
100
AcDbEntity
  8
0
  6
Continuous
 62
     7
370
    15
100
AcDbLine
 10
231.0826235348327
 20
205.9583023484422
 30
0.0
 11
231.0826235348327
 21
203.239376872368
 31
0.0
  0
LINE
  5
764B
330
1F
100
AcDbEntity
  8
0
  6
Continuous
 62
     7
370
    15
100
AcDbLine
 10
231.0826235348329
 20
285.7576005454733
 30
0.0
 11
231.0826235348329
 21
285.4918159838393
 31
0.0
  0
LINE
  5
764C
330
1F
100
AcDbEntity
  8
0
  6
Continuous
 62
     7
370
    15
100
AcDbLine
 10
231.0826235348327
 20
202.8890691991521
 30
0.0
 11
231.0826235348327
 21
202.623284637518
 31
0.0
  0
LINE
  5
764D
330
1F
100
AcDbEntity
  8
0
  6
Continuous
 62
     7
370
    15
100
AcDbLine
 10
246.5826232815132
 20
291.2422076161578
 30
0.0
 11
246.5826232815132
 21
291.6517511304095
 31
0.0
  0
LINE
  5
764E
330
1F
100
AcDbEntity
  8
0
  6
Continuous
 62
     7
370
    15
100
AcDbLine
 10
231.0826235348329
 20
291.6517511304095
 30
0.0
 11
231.0826235348329
 21
285.7576005454733
 31
0.0
  0
LINE
  5
764F
330
1F
100
AcDbEntity
  8
0
  6
Continuous
 62
     7
370
    15
100
AcDbLine
 10
246.5826232815128
 20
196.7291340525819
 30
0.0
 11
246.5826232815128
 21
197.1386775668336
 31
0.0
  0
LINE
  5
7650
330
1F
100
AcDbEntity
  8
0
  6
Continuous
 62
     7
370
    15
100
AcDbLine
 10
231.0826235348327
 20
202.623284637518
 30
0.0
 11
231.0826235348326
 21
196.7291340525819
 31
0.0
  0
LINE
  5
7651
330
1F
100
AcDbEntity
  8
0
  6
Continuous
 62
     7
370
    15
100
AcDbLine
 10
231.0826235348329
 20
285.4918159838393
 30
0.0
 11
231.0826235348329
 21
285.4072928722575
 31
0.0
  0
LINE
  5
7652
330
1F
100
AcDbEntity
  8
0
  6
Continuous
 62
     7
370
    15
100
AcDbLine
 10
231.0826235348327
 20
202.9735923107339
 30
0.0
 11
231.0826235348327
 21
202.8890691991521
 31
0.0
  0
LINE
  5
7653
330
1F
100
AcDbEntity
  8
0
  6
Continuous
 62
     7
370
    15
100
AcDbLine
 10
246.5826232815132
 20
291.9404425020888
 30
0.0
 11
246.5826232815132
 21
291.6517511304095
 31
0.0
  0
LINE
  5
7654
330
1F
100
AcDbEntity
  8
0
  6
Continuous
 62
     7
370
    15
100
AcDbLine
 10
231.0826235348329
 20
291.9404425020888
 30
0.0
 11
231.0826235348329
 21
291.6517511304095
 31
0.0
  0
LINE
  5
7655
330
1F
100
AcDbEntity
  8
0
  6
Continuous
 62
     7
370
    15
100
AcDbLine
 10
246.5826232815128
 20
196.7291340525819
 30
0.0
 11
246.5826232815128
 21
196.4404426809026
 31
0.0
  0
LINE
  5
7656
330
1F
100
AcDbEntity
  8
0
  6
Continuous
 62
     7
370
    15
100
AcDbLine
 10
231.0826235348326
 20
196.7291340525819
 30
0.0
 11
231.0826235348326
 21
196.4404426809026
 31
0.0
  0
CIRCLE
  5
7657
330
1F
100
AcDbEntity
  8
0
  6
Continuous
 62
     7
370
    15
100
AcDbCircle
 10
418.8069087578667
 20
244.1904425914954
 30
0.0
 40
10.23112215663192
  0
CIRCLE
  5
7658
330
1F
100
AcDbEntity
  8
0
  6
Continuous
 62
     7
370
    15
100
AcDbCircle
 10
418.8069087578667
 20
244.1904425914954
 30
0.0
 40
6.5529999999967
  0
ARC
  5
7659
330
1F
100
AcDbEntity
  8
0
  6
Continuous
 62
     7
370
    15
100
AcDbCircle
 10
418.8069087578667
 20
244.1904425914954
 30
0.0
 40
9.00000000000003
100
AcDbArc
 50
109.188136453721
 51
250.8118635462789
  0
LINE
  5
765A
330
1F
100
AcDbEntity
  8
0
  6
Continuous
 62
     7
370
    15
100
AcDbLine
 10
421.7649487438364
 20
252.6904430534314
 30
0.0
 11
415.848868771897
 21
252.6904430534314
 31
0.0
  0
ARC
  5
765B
330
1F
100
AcDbEntity
  8
0
  6
Continuous
 62
     7
370
    15
100
AcDbCircle
 10
418.8069087578667
 20
244.1904425914954
 30
0.0
 40
9.000000000000055
100
AcDbArc
 50
289.1881364537226
 51
70.81186354627893
  0
LINE
  5
765C
330
1F
100
AcDbEntity
  8
0
  6
Continuous
 62
     7
370
    15
100
AcDbLine
 10
415.848868771897
 20
235.6904421295594
 30
0.0
 11
421.7649487438364
 21
235.6904421295594
 31
0.0
  0
CIRCLE
  5
765D
330
1F
100
AcDbEntity
  8
0
  6
Continuous
 62
     7
370
    15
100
AcDbCircle
 10
418.8069087578667
 20
244.1904425914954
 30
0.0
 40
5.052999999975327
  0
SPLINE
  5
765E
330
1F
100
AcDbEntity
  8
0
  6
Continuous
 62
     7
370
    15
100
AcDbSpline
210
0.0
220
0.0
230
1.0
 70
    24
 71
     3
 72
     9
 73
     5
 74
     0
 42
0.0000000001
 43
0.0000000001
 40
0.0
 40
0.0
 40
0.0
 40
0.0
 40
0.4973698882472278
 40
1.0
 40
1.0
 40
1.0
 40
1.0
 10
413.5390819175852
 20
235.6904421295594
 30
0.0
 10
413.898421920585
 20
235.6904421295594
 30
0.0
 10
414.6209023350431
 20
235.6904421295594
 30
0.0
 10
415.4381137214311
 20
235.6904421295594
 30
0.0
 10
415.848868771897
 20
235.6904421295594
 30
0.0
  0
ARC
  5
765F
330
1F
100
AcDbEntity
  8
0
  6
Continuous
 62
     7
370
    15
100
AcDbCircle
 10
418.8069087578667
 20
244.1904425914954
 30
0.0
 40
10.0
100
AcDbArc
 50
121.7883306170516
 51
238.2116693829497
  0
SPLINE
  5
7660
330
1F
100
AcDbEntity
  8
0
  6
Continuous
 62
     7
370
    15
100
AcDbSpline
210
0.0
220
0.0
230
1.0
 70
    24
 71
     3
 72
     9
 73
     5
 74
     0
 42
0.0000000001
 43
0.0000000001
 40
0.0
 40
0.0
 40
0.0
 40
0.0
 40
0.4965449618957037
 40
1.0
 40
1.0
 40
1.0
 40
1.0
 10
415.848868771897
 20
252.6904430534314
 30
0.0
 10
415.4429733682466
 20
252.6904430534314
 30
0.0
 10
414.6255339925639
 20
252.6904430534315
 30
0.0
 10
413.9028971012415
 20
252.6904430534314
 30
0.0
 10
413.5390819175852
 20
252.6904430534315
 30
0.0
  0
ARC
  5
7661
330
1F
100
AcDbEntity
  8
0
  6
Continuous
 62
     7
370
    15
100
AcDbCircle
 10
418.8069087578667
 20
244.1904425914954
 30
0.0
 40
9.999999999999998
100
AcDbArc
 50
301.7883306170533
 51
58.21166938294838
  0
SPLINE
  5
7662
330
1F
100
AcDbEntity
  8
0
  6
Continuous
 62
     7
370
    15
100
AcDbSpline
210
0.0
220
0.0
230
1.0
 70
    24
 71
     3
 72
     9
 73
     5
 74
     0
 42
0.0000000001
 43
0.0000000001
 40
0.0
 40
0.0
 40
0.0
 40
0.0
 40
0.4973698882472278
 40
1.0
 40
1.0
 40
1.0
 40
1.0
 10
424.0747355981482
 20
252.6904430534314
 30
0.0
 10
423.7153955951482
 20
252.6904430534314
 30
0.0
 10
422.9929151806902
 20
252.6904430534314
 30
0.0
 10
422.1757037943023
 20
252.6904430534314
 30
0.0
 10
421.7649487438364
 20
252.6904430534314
 30
0.0
  0
SPLINE
  5
7663
330
1F
100
AcDbEntity
  8
0
  6
Continuous
 62
     7
370
    15
100
AcDbSpline
210
0.0
220
0.0
230
1.0
 70
    24
 71
     3
 72
     9
 73
     5
 74
     0
 42
0.0000000001
 43
0.0000000001
 40
0.0
 40
0.0
 40
0.0
 40
0.0
 40
0.4965449618957037
 40
1.0
 40
1.0
 40
1.0
 40
1.0
 10
421.7649487438364
 20
235.6904421295594
 30
0.0
 10
422.1708441474868
 20
235.6904421295594
 30
0.0
 10
422.9882835231694
 20
235.6904421295594
 30
0.0
 10
423.7109204144919
 20
235.6904421295594
 30
0.0
 10
424.0747355981482
 20
235.6904421295594
 30
0.0
  0
ARC
  5
7664
330
1F
100
AcDbEntity
  8
0
  6
Continuous
 62
     7
370
    15
100
AcDbCircle
 10
418.8069087578667
 20
244.1904425914954
 30
0.0
 40
10.00000000000003
100
AcDbArc
 50
238.2116693829497
 51
301.7883306170516
  0
ARC
  5
7665
330
1F
100
AcDbEntity
  8
0
  6
Continuous
 62
     7
370
    15
100
AcDbCircle
 10
418.8069087578667
 20
244.1904425914954
 30
0.0
 40
10.00000000000002
100
AcDbArc
 50
58.21166938294838
 51
121.7883306170516
  0
LINE
  5
7666
330
1F
100
AcDbEntity
  8
0
  6
Continuous
 62
     7
370
    15
100
AcDbLine
 10
441.0294202281843
 20
285.5763390954205
 30
0.0
 11
441.1637672348629
 21
285.5136908884712
 31
0.0
  0
LINE
  5
7667
330
1F
100
AcDbEntity
  8
0
  6
Continuous
 62
     7
370
    15
100
AcDbLine
 10
441.0294202281843
 20
285.5763390954205
 30
0.0
 11
441.1139452024112
 21
285.7576005454727
 31
0.0
  0
LINE
  5
7668
330
1F
100
AcDbEntity
  8
0
  6
Continuous
 62
     7
370
    15
100
AcDbLine
 10
443.8624327196489
 20
291.6517511304089
 30
0.0
 11
443.9970516725193
 21
291.9404425020882
 31
0.0
  0
LINE
  5
7669
330
1F
100
AcDbEntity
  8
0
  6
Continuous
 62
     7
370
    15
100
AcDbLine
 10
444.3155863447795
 20
291.9404425020882
 30
0.0
 11
443.9970516725193
 21
291.9404425020882
 31
0.0
  0
LINE
  5
766A
330
1F
100
AcDbEntity
  8
0
  6
Continuous
 62
     7
370
    15
100
AcDbLine
 10
443.9970516725191
 20
196.4404426809021
 30
0.0
 11
444.3155863447794
 21
196.4404426809021
 31
0.0
  0
LINE
  5
766B
330
1F
100
AcDbEntity
  8
0
  6
Continuous
 62
     7
370
    15
100
AcDbLine
 10
443.9970516725191
 20
196.4404426809021
 30
0.0
 11
443.8624327196487
 21
196.7291340525814
 31
0.0
  0
LINE
  5
766C
330
1F
100
AcDbEntity
  8
0
  6
Continuous
 62
     7
370
    15
100
AcDbLine
 10
441.113945202411
 20
202.6232846375175
 30
0.0
 11
441.0294202281841
 21
202.8045460875698
 31
0.0
  0
LINE
  5
766D
330
1F
100
AcDbEntity
  8
0
  6
Continuous
 62
     7
370
    15
100
AcDbLine
 10
441.1637672348627
 20
202.867194294519
 30
0.0
 11
441.0294202281841
 21
202.8045460875698
 31
0.0
  0
LINE
  5
766E
330
1F
100
AcDbEntity
  8
0
  6
Continuous
 62
     7
370
    15
100
AcDbLine
 10
436.225989939154
 20
200.564670592136
 30
0.0
 11
436.0916429324754
 21
200.5020223851868
 31
0.0
  0
LINE
  5
766F
330
1F
100
AcDbEntity
  8
0
  6
Continuous
 62
     7
370
    15
100
AcDbLine
 10
436.225989939154
 20
200.564670592136
 30
0.0
 11
436.3105130507358
 21
200.3834091420837
 31
0.0
  0
LINE
  5
7670
330
1F
100
AcDbEntity
  8
0
  6
Continuous
 62
     7
370
    15
100
AcDbLine
 10
437.8174581690439
 20
197.1517533357807
 30
0.0
 11
438.1491487039932
 21
196.4404426809021
 31
0.0
  0
LINE
  5
7671
330
1F
100
AcDbEntity
  8
0
  6
Continuous
 62
     7
370
    15
100
AcDbLine
 10
399.4646688117393
 20
196.4404426809022
 30
0.0
 11
400.2495129718193
 21
196.4404426809022
 31
0.0
  0
LINE
  5
7672
330
1F
100
AcDbEntity
  8
0
  6
Continuous
 62
     7
370
    15
100
AcDbLine
 10
437.3643045439132
 20
196.4404426809021
 30
0.0
 11
438.1491487039932
 21
196.4404426809021
 31
0.0
  0
LINE
  5
7673
330
1F
100
AcDbEntity
  8
0
  6
Continuous
 62
     7
370
    15
100
AcDbLine
 10
399.4646688117393
 20
196.4404426809022
 30
0.0
 11
399.7963593466886
 21
197.1517533357808
 31
0.0
  0
LINE
  5
7674
330
1F
100
AcDbEntity
  8
0
  6
Continuous
 62
     7
370
    15
100
AcDbLine
 10
401.3033044649967
 20
200.3834091420838
 30
0.0
 11
401.3878275765785
 21
200.5646705921361
 31
0.0
  0
LINE
  5
7675
330
1F
100
AcDbEntity
  8
0
  6
Continuous
 62
     7
370
    15
100
AcDbLine
 10
401.5221745832571
 20
200.5020223851869
 30
0.0
 11
401.3878275765785
 21
200.5646705921361
 31
0.0
  0
LINE
  5
7676
330
1F
100
AcDbEntity
  8
0
  6
Continuous
 62
     7
370
    15
100
AcDbLine
 10
396.5843972875484
 20
202.8045460875699
 30
0.0
 11
396.4500502808698
 21
202.8671942945191
 31
0.0
  0
LINE
  5
7677
330
1F
100
AcDbEntity
  8
0
  6
Continuous
 62
     7
370
    15
100
AcDbLine
 10
396.5843972875484
 20
202.8045460875699
 30
0.0
 11
396.4998723133215
 21
202.6232846375176
 31
0.0
  0
LINE
  5
7678
330
1F
100
AcDbEntity
  8
0
  6
Continuous
 62
     7
370
    15
100
AcDbLine
 10
393.7513847960838
 20
196.7291340525816
 30
0.0
 11
393.6167658432134
 21
196.4404426809023
 31
0.0
  0
LINE
  5
7679
330
1F
100
AcDbEntity
  8
0
  6
Continuous
 62
     7
370
    15
100
AcDbLine
 10
393.2982311709531
 20
196.4404426809023
 30
0.0
 11
393.6167658432134
 21
196.4404426809023
 31
0.0
  0
LINE
  5
767A
330
1F
100
AcDbEntity
  8
0
  6
Continuous
 62
     7
370
    15
100
AcDbLine
 10
393.6167658432137
 20
291.9404425020882
 30
0.0
 11
393.2982311709534
 21
291.9404425020882
 31
0.0
  0
LINE
  5
767B
330
1F
100
AcDbEntity
  8
0
  6
Continuous
 62
     7
370
    15
100
AcDbLine
 10
393.6167658432137
 20
291.9404425020882
 30
0.0
 11
393.7513847960841
 21
291.6517511304089
 31
0.0
  0
LINE
  5
767C
330
1F
100
AcDbEntity
  8
0
  6
Continuous
 62
     7
370
    15
100
AcDbLine
 10
396.4998723133217
 20
285.7576005454728
 30
0.0
 11
396.5843972875487
 21
285.5763390954205
 31
0.0
  0
LINE
  5
767D
330
1F
100
AcDbEntity
  8
0
  6
Continuous
 62
     7
370
    15
100
AcDbLine
 10
396.4500502808701
 20
285.5136908884713
 30
0.0
 11
396.5843972875487
 21
285.5763390954205
 31
0.0
  0
LINE
  5
767E
330
1F
100
AcDbEntity
  8
0
  6
Continuous
 62
     7
370
    15
100
AcDbLine
 10
401.3878275765787
 20
287.8162145908543
 30
0.0
 11
401.5221745832572
 21
287.8788627978036
 31
0.0
  0
LINE
  5
767F
330
1F
100
AcDbEntity
  8
0
  6
Continuous
 62
     7
370
    15
100
AcDbLine
 10
401.3878275765787
 20
287.8162145908543
 30
0.0
 11
401.3033044649969
 21
287.9974760409066
 31
0.0
  0
LINE
  5
7680
330
1F
100
AcDbEntity
  8
0
  6
Continuous
 62
     7
370
    15
100
AcDbLine
 10
399.7963593466889
 20
291.2291318472096
 30
0.0
 11
399.4646688117396
 21
291.9404425020882
 31
0.0
  0
LINE
  5
7681
330
1F
100
AcDbEntity
  8
0
  6
Continuous
 62
     7
370
    15
100
AcDbLine
 10
438.1491487039934
 20
291.9404425020882
 30
0.0
 11
437.3643045439134
 21
291.9404425020882
 31
0.0
  0
LINE
  5
7682
330
1F
100
AcDbEntity
  8
0
  6
Continuous
 62
     7
370
    15
100
AcDbLine
 10
400.2495129718194
 20
291.9404425020882
 30
0.0
 11
399.4646688117396
 21
291.9404425020882
 31
0.0
  0
LINE
  5
7683
330
1F
100
AcDbEntity
  8
0
  6
Continuous
 62
     7
370
    15
100
AcDbLine
 10
438.1491487039934
 20
291.9404425020882
 30
0.0
 11
437.8174581690441
 21
291.2291318472096
 31
0.0
  0
LINE
  5
7684
330
1F
100
AcDbEntity
  8
0
  6
Continuous
 62
     7
370
    15
100
AcDbLine
 10
436.310513050736
 20
287.9974760409065
 30
0.0
 11
436.2259899391542
 21
287.8162145908543
 31
0.0
  0
LINE
  5
7685
330
1F
100
AcDbEntity
  8
0
  6
Continuous
 62
     7
370
    15
100
AcDbLine
 10
436.0916429324756
 20
287.8788627978035
 30
0.0
 11
436.2259899391542
 21
287.8162145908543
 31
0.0
  0
CIRCLE
  5
7687
330
1F
100
AcDbEntity
  8
0
  6
Continuous
 62
     7
370
    15
100
AcDbCircle
 10
378.8069087578667
 20
266.6904425914955
 30
0.0
 40
7.299999999999997
  0
CIRCLE
  5
7688
330
1F
100
AcDbEntity
  8
0
  6
Continuous
 62
     7
370
    15
100
AcDbCircle
 10
378.8069087578666
 20
221.6904425914955
 30
0.0
 40
7.300000000000011
  0
CIRCLE
  5
7689
330
1F
100
AcDbEntity
  8
0
  6
Continuous
 62
     7
370
    15
100
AcDbCircle
 10
458.8069087578665
 20
221.6904425914953
 30
0.0
 40
7.299999999999982
  0
CIRCLE
  5
768A
330
1F
100
AcDbEntity
  8
0
  6
Continuous
 62
     7
370
    15
100
AcDbCircle
 10
458.8069087578666
 20
266.6904425914952
 30
0.0
 40
7.299999999999982
  0
CIRCLE
  5
768B
330
1F
100
AcDbEntity
  8
0
  6
Continuous
 62
     7
370
    15
100
AcDbCircle
 10
382.8069087578667
 20
280.1904425914955
 30
0.0
 40
5.68499999997266
  0
CIRCLE
  5
768C
330
1F
100
AcDbEntity
  8
0
  6
Continuous
 62
     7
370
    15
100
AcDbCircle
 10
382.8069087578665
 20
208.1904425914955
 30
0.0
 40
5.68499999997266
  0
CIRCLE
  5
768D
330
1F
100
AcDbEntity
  8
0
  6
Continuous
 62
     7
370
    15
100
AcDbCircle
 10
454.8069087578665
 20
208.1904425914952
 30
0.0
 40
5.685000000026775
  0
CIRCLE
  5
768E
330
1F
100
AcDbEntity
  8
0
  6
Continuous
 62
     7
370
    15
100
AcDbCircle
 10
454.8069087578666
 20
280.1904425914953
 30
0.0
 40
5.684999999969932
  0
CIRCLE
  5
768F
330
1F
100
AcDbEntity
  8
0
  6
Continuous
 62
     7
370
    15
100
AcDbCircle
 10
418.8069087578667
 20
244.1904425914954
 30
0.0
 40
10.25000000000001
  0
LINE
  5
7690
330
1F
100
AcDbEntity
  8
0
  6
Continuous
 62
     7
370
    15
100
AcDbLine
 10
443.8624327196489
 20
196.7291340525815
 30
0.0
 11
441.1139452024112
 21
202.6232846375176
 31
0.0
  0
ARC
  5
7691
330
1F
100
AcDbEntity
  8
0
  6
Continuous
 62
     7
370
    15
100
AcDbCircle
 10
441.295206078908
 20
202.70780786803
 30
0.0
 40
0.2000000000000833
100
AcDbArc
 50
115.0000000000066
 51
204.9999999999746
  0
LINE
  5
7692
330
1F
100
AcDbEntity
  8
0
  6
Continuous
 62
     7
370
    15
100
AcDbLine
 10
441.2106816782365
 20
202.8890691991517
 30
0.0
 11
441.3919431282888
 21
202.9735923107335
 31
0.0
  0
ARC
  5
7693
330
1F
100
AcDbEntity
  8
0
  6
Continuous
 62
     7
370
    15
100
AcDbCircle
 10
441.3074203316189
 20
203.1548546351928
 30
0.0
 40
0.2000000000000001
100
AcDbArc
 50
294.9999999999964
 51
25.00000000001391
  0
LINE
  5
7694
330
1F
100
AcDbEntity
  8
0
  6
Continuous
 62
     7
370
    15
100
AcDbLine
 10
441.4886814667593
 20
203.2393768723676
 30
0.0
 11
440.2208273424516
 21
205.9583023484418
 31
0.0
  0
ARC
  5
7695
330
1F
100
AcDbEntity
  8
0
  6
Continuous
 62
     7
370
    15
100
AcDbCircle
 10
440.0395655463969
 20
205.8737779963027
 30
0.0
 40
0.2000000000000456
100
AcDbArc
 50
25.00000000000663
 51
115.0000000000036
  0
LINE
  5
7696
330
1F
100
AcDbEntity
  8
0
  6
Continuous
 62
     7
370
    15
100
AcDbLine
 10
439.9550427808176
 20
206.0550406869122
 30
0.0
 11
434.4265648289333
 21
203.4770690198611
 31
0.0
  0
ARC
  5
7697
330
1F
100
AcDbEntity
  8
0
  6
Continuous
 62
     7
370
    15
100
AcDbCircle
 10
434.5110880454732
 20
203.2958065996845
 30
0.0
 40
0.1999999999999829
100
AcDbArc
 50
114.9999999999935
 51
205.000000000003
  0
LINE
  5
7698
330
1F
100
AcDbEntity
  8
0
  6
Continuous
 62
     7
370
    15
100
AcDbLine
 10
434.3298264904628
 20
203.211284458227
 30
0.0
 11
435.5976806147705
 21
200.4923589821528
 31
0.0
  0
ARC
  5
7699
330
1F
100
AcDbEntity
  8
0
  6
Continuous
 62
     7
370
    15
100
AcDbCircle
 10
435.7789428306952
 20
200.5768832385746
 30
0.0
 40
0.2000000000000567
100
AcDbArc
 50
204.9999999999994
 51
295.0000000000197
  0
LINE
  5
769A
330
1F
100
AcDbEntity
  8
0
  6
Continuous
 62
     7
370
    15
100
AcDbLine
 10
435.8634670390497
 20
200.3956206436823
 30
0.0
 11
436.0447284891019
 21
200.4801437552641
 31
0.0
  0
ARC
  5
769B
330
1F
100
AcDbEntity
  8
0
  6
Continuous
 62
     7
370
    15
100
AcDbCircle
 10
436.1292516927989
 20
200.2988837761081
 30
0.0
 40
0.1999999999999958
100
AcDbArc
 50
24.99999999999207
 51
114.9999999999964
  0
LINE
  5
769C
330
1F
100
AcDbEntity
  8
0
  6
Continuous
 62
     7
370
    15
100
AcDbLine
 10
436.310513050736
 20
200.383409142084
 30
0.0
 11
437.8174581690441
 21
197.1517533357808
 31
0.0
  0
ARC
  5
769D
330
1F
100
AcDbEntity
  8
0
  6
Continuous
 62
     7
370
    15
100
AcDbCircle
 10
437.3643051609583
 20
196.9404425914953
 30
0.0
 40
0.5000000000000523
100
AcDbArc
 50
270.0
 51
24.99999999999571
  0
LINE
  5
769E
330
1F
100
AcDbEntity
  8
0
  6
Continuous
 62
     7
370
    15
100
AcDbLine
 10
437.3643045439134
 20
196.4404426809022
 30
0.0
 11
400.2495129718194
 21
196.4404426809023
 31
0.0
  0
ARC
  5
769F
330
1F
100
AcDbEntity
  8
0
  6
Continuous
 62
     7
370
    15
100
AcDbCircle
 10
400.2495123547746
 20
196.9404425914953
 30
0.0
 40
0.5000000000000265
100
AcDbArc
 50
155.0000000000036
 51
270.0
  0
LINE
  5
76A0
330
1F
100
AcDbEntity
  8
0
  6
Continuous
 62
     7
370
    15
100
AcDbLine
 10
399.7963593466889
 20
197.1517533357809
 30
0.0
 11
401.3033044649969
 21
200.383409142084
 31
0.0
  0
ARC
  5
76A1
330
1F
100
AcDbEntity
  8
0
  6
Continuous
 62
     7
370
    15
100
AcDbCircle
 10
401.4845658229339
 20
200.2988837761082
 30
0.0
 40
0.1999999999999572
100
AcDbArc
 50
65.00000000000793
 51
155.0000000000036
  0
LINE
  5
76A2
330
1F
100
AcDbEntity
  8
0
  6
Continuous
 62
     7
370
    15
100
AcDbLine
 10
401.5690890266309
 20
200.4801437552641
 30
0.0
 11
401.7503504766832
 21
200.3956206436823
 31
0.0
  0
ARC
  5
76A3
330
1F
100
AcDbEntity
  8
0
  6
Continuous
 62
     7
370
    15
100
AcDbCircle
 10
401.8348746850376
 20
200.5768832385747
 30
0.0
 40
0.2000000000000576
100
AcDbArc
 50
244.9999999999905
 51
335.0000000000079
  0
LINE
  5
76A4
330
1F
100
AcDbEntity
  8
0
  6
Continuous
 62
     7
370
    15
100
AcDbLine
 10
402.0161369009624
 20
200.4923589821528
 30
0.0
 11
403.28399102527
 21
203.211284458227
 31
0.0
  0
ARC
  5
76A5
330
1F
100
AcDbEntity
  8
0
  6
Continuous
 62
     7
370
    15
100
AcDbCircle
 10
403.1027294702596
 20
203.2958065996846
 30
0.0
 40
0.2000000000000319
100
AcDbArc
 50
335.0000000000036
 51
64.99999999998758
  0
LINE
  5
76A6
330
1F
100
AcDbEntity
  8
0
  6
Continuous
 62
     7
370
    15
100
AcDbLine
 10
403.1872526867996
 20
203.4770690198611
 30
0.0
 11
397.6587747349154
 21
206.0550406869124
 31
0.0
  0
ARC
  5
76A7
330
1F
100
AcDbEntity
  8
0
  6
Continuous
 62
     7
370
    15
100
AcDbCircle
 10
397.5742519693362
 20
205.873777996303
 30
0.0
 40
0.2000000000000833
100
AcDbArc
 50
64.99999999999338
 51
154.999999999997
  0
LINE
  5
76A8
330
1F
100
AcDbEntity
  8
0
  6
Continuous
 62
     7
370
    15
100
AcDbLine
 10
397.3929901732813
 20
205.9583023484419
 30
0.0
 11
396.1251360489737
 21
203.2393768723677
 31
0.0
  0
ARC
  5
76A9
330
1F
100
AcDbEntity
  8
0
  6
Continuous
 62
     7
370
    15
100
AcDbCircle
 10
396.3063971841141
 20
203.154854635193
 30
0.0
 40
0.2000000000000198
100
AcDbArc
 50
154.9999999999933
 51
244.9999999999875
  0
LINE
  5
76AA
330
1F
100
AcDbEntity
  8
0
  6
Continuous
 62
     7
370
    15
100
AcDbLine
 10
396.2218743874442
 20
202.9735923107336
 30
0.0
 11
396.4031358374964
 21
202.8890691991518
 31
0.0
  0
ARC
  5
76AB
330
1F
100
AcDbEntity
  8
0
  6
Continuous
 62
     7
370
    15
100
AcDbCircle
 10
396.3186114368251
 20
202.7078078680301
 30
0.0
 40
0.2000000000000585
100
AcDbArc
 50
335.0000000000108
 51
64.99999999999918
  0
LINE
  5
76AC
330
1F
100
AcDbEntity
  8
0
  6
Continuous
 62
     7
370
    15
100
AcDbLine
 10
396.4998723133217
 20
202.6232846375178
 30
0.0
 11
393.7513847960841
 21
196.7291340525816
 31
0.0
  0
ARC
  5
76AD
330
1F
100
AcDbEntity
  8
0
  6
Continuous
 62
     7
370
    15
100
AcDbCircle
 10
393.2982314653109
 20
196.9404425914953
 30
0.0
 40
0.5000000000000633
100
AcDbArc
 50
270.0
 51
335.0
  0
LINE
  5
76AE
330
1F
100
AcDbEntity
  8
0
  6
Continuous
 62
     7
370
    15
100
AcDbLine
 10
393.2982311709534
 20
196.4404426809023
 30
0.0
 11
381.0569104864012
 21
196.4404426809024
 31
0.0
  0
ARC
  5
76AF
330
1F
100
AcDbEntity
  8
0
  6
Continuous
 62
     7
370
    15
100
AcDbCircle
 10
381.0569087578665
 20
206.4404425914954
 30
0.0
 40
10.00000000000001
100
AcDbArc
 50
180.0
 51
270.0
  0
LINE
  5
76B0
330
1F
100
AcDbEntity
  8
0
  6
Continuous
 62
     7
370
    15
100
AcDbLine
 10
371.0569088472734
 20
206.4404443200302
 30
0.0
 11
371.0569088472738
 21
281.9404408629608
 31
0.0
  0
ARC
  5
76B1
330
1F
100
AcDbEntity
  8
0
  6
Continuous
 62
     7
370
    15
100
AcDbCircle
 10
381.0569087578667
 20
281.9404425914955
 30
0.0
 40
10.00000000000001
100
AcDbArc
 50
90.0
 51
180.0
  0
LINE
  5
76B2
330
1F
100
AcDbEntity
  8
0
  6
Continuous
 62
     7
370
    15
100
AcDbLine
 10
381.0569104864015
 20
291.9404425020885
 30
0.0
 11
393.2982311709537
 21
291.9404425020885
 31
0.0
  0
ARC
  5
76B3
330
1F
100
AcDbEntity
  8
0
  6
Continuous
 62
     7
370
    15
100
AcDbCircle
 10
393.2982314653112
 20
291.4404425914955
 30
0.0
 40
0.500000000000108
100
AcDbArc
 50
25.00000000000299
 51
90.0
  0
LINE
  5
76B4
330
1F
100
AcDbEntity
  8
0
  6
Continuous
 62
     7
370
    15
100
AcDbLine
 10
393.7513847960844
 20
291.6517511304092
 30
0.0
 11
396.499872313322
 21
285.7576005454731
 31
0.0
  0
ARC
  5
76B5
330
1F
100
AcDbEntity
  8
0
  6
Continuous
 62
     7
370
    15
100
AcDbCircle
 10
396.3186114368255
 20
285.6730773149607
 30
0.0
 40
0.2000000000000654
100
AcDbArc
 50
294.9999999999964
 51
24.99999999997161
  0
LINE
  5
76B6
330
1F
100
AcDbEntity
  8
0
  6
Continuous
 62
     7
370
    15
100
AcDbLine
 10
396.4031358374966
 20
285.491815983839
 30
0.0
 11
396.2218743874444
 21
285.4072928722572
 31
0.0
  0
ARC
  5
76B7
330
1F
100
AcDbEntity
  8
0
  6
Continuous
 62
     7
370
    15
100
AcDbCircle
 10
396.3063971841144
 20
285.226030547798
 30
0.0
 40
0.2000000000000319
100
AcDbArc
 50
115.0000000000124
 51
205.0000000000139
  0
LINE
  5
76B8
330
1F
100
AcDbEntity
  8
0
  6
Continuous
 62
     7
370
    15
100
AcDbLine
 10
396.1251360489739
 20
285.1415083106232
 30
0.0
 11
397.3929901732816
 21
282.4225828345489
 31
0.0
  0
ARC
  5
76B9
330
1F
100
AcDbEntity
  8
0
  6
Continuous
 62
     7
370
    15
100
AcDbCircle
 10
397.5742519693364
 20
282.5071071866879
 30
0.0
 40
0.2000000000000198
100
AcDbArc
 50
204.9999999999957
 51
295.0000000000066
  0
LINE
  5
76BA
330
1F
100
AcDbEntity
  8
0
  6
Continuous
 62
     7
370
    15
100
AcDbLine
 10
397.6587747349156
 20
282.3258444960785
 30
0.0
 11
403.1872526867998
 21
284.9038161631298
 31
0.0
  0
ARC
  5
76BB
330
1F
100
AcDbEntity
  8
0
  6
Continuous
 62
     7
370
    15
100
AcDbCircle
 10
403.10272947026
 20
285.0850785833062
 30
0.0
 40
0.2000000000000198
100
AcDbArc
 50
295.0000000000066
 51
24.99999999999276
  0
LINE
  5
76BC
330
1F
100
AcDbEntity
  8
0
  6
Continuous
 62
     7
370
    15
100
AcDbLine
 10
403.2839910252703
 20
285.1696007247639
 30
0.0
 11
402.0161369009627
 21
287.8885262008381
 31
0.0
  0
ARC
  5
76BD
330
1F
100
AcDbEntity
  8
0
  6
Continuous
 62
     7
370
    15
100
AcDbCircle
 10
401.834874685038
 20
287.8040019444161
 30
0.0
 40
0.2000000000000576
100
AcDbArc
 50
25.00000000000003
 51
115.0000000000095
  0
LINE
  5
76BE
330
1F
100
AcDbEntity
  8
0
  6
Continuous
 62
     7
370
    15
100
AcDbLine
 10
401.7503504766835
 20
287.9852645393085
 30
0.0
 11
401.5690890266312
 21
287.9007414277267
 31
0.0
  0
ARC
  5
76BF
330
1F
100
AcDbEntity
  8
0
  6
Continuous
 62
     7
370
    15
100
AcDbCircle
 10
401.4845658229343
 20
288.0820014068826
 30
0.0
 40
0.1999999999999701
100
AcDbArc
 50
204.9999999999957
 51
294.9999999999964
  0
LINE
  5
76C0
330
1F
100
AcDbEntity
  8
0
  6
Continuous
 62
     7
370
    15
100
AcDbLine
 10
401.3033044649971
 20
287.9974760409069
 30
0.0
 11
399.7963593466892
 21
291.2291318472099
 31
0.0
  0
ARC
  5
76C1
330
1F
100
AcDbEntity
  8
0
  6
Continuous
 62
     7
370
    15
100
AcDbCircle
 10
400.249512354775
 20
291.4404425914955
 30
0.0
 40
0.5000000000000333
100
AcDbArc
 50
90.0
 51
204.9999999999957
  0
LINE
  5
76C2
330
1F
100
AcDbEntity
  8
0
  6
Continuous
 62
     7
370
    15
100
AcDbLine
 10
400.2495129718198
 20
291.9404425020885
 30
0.0
 11
437.3643045439137
 21
291.9404425020882
 31
0.0
  0
ARC
  5
76C3
330
1F
100
AcDbEntity
  8
0
  6
Continuous
 62
     7
370
    15
100
AcDbCircle
 10
437.3643051609585
 20
291.4404425914952
 30
0.0
 40
0.5000000000000462
100
AcDbArc
 50
335.0000000000073
 51
90.0
  0
LINE
  5
76C4
330
1F
100
AcDbEntity
  8
0
  6
Continuous
 62
     7
370
    15
100
AcDbLine
 10
437.8174581690443
 20
291.2291318472096
 30
0.0
 11
436.3105130507363
 21
287.9974760409066
 31
0.0
  0
ARC
  5
76C5
330
1F
100
AcDbEntity
  8
0
  6
Continuous
 62
     7
370
    15
100
AcDbCircle
 10
436.1292516927992
 20
288.0820014068825
 30
0.0
 40
0.1999999999999563
100
AcDbArc
 50
244.9999999999948
 51
335.0000000000036
  0
LINE
  5
76C6
330
1F
100
AcDbEntity
  8
0
  6
Continuous
 62
     7
370
    15
100
AcDbLine
 10
436.0447284891022
 20
287.9007414277264
 30
0.0
 11
435.8634670390499
 21
287.9852645393082
 31
0.0
  0
ARC
  5
76C7
330
1F
100
AcDbEntity
  8
0
  6
Continuous
 62
     7
370
    15
100
AcDbCircle
 10
435.7789428306955
 20
287.804001944416
 30
0.0
 40
0.2000000000000576
100
AcDbArc
 50
64.99999999999051
 51
155.0000000000072
  0
LINE
  5
76C8
330
1F
100
AcDbEntity
  8
0
  6
Continuous
 62
     7
370
    15
100
AcDbLine
 10
435.5976806147707
 20
287.8885262008378
 30
0.0
 11
434.3298264904631
 21
285.1696007247636
 31
0.0
  0
ARC
  5
76C9
330
1F
100
AcDbEntity
  8
0
  6
Continuous
 62
     7
370
    15
100
AcDbCircle
 10
434.5110880454735
 20
285.0850785833062
 30
0.0
 40
0.2000000000000198
100
AcDbArc
 50
154.999999999997
 51
244.9999999999948
  0
LINE
  5
76CA
330
1F
100
AcDbEntity
  8
0
  6
Continuous
 62
     7
370
    15
100
AcDbLine
 10
434.4265648289336
 20
284.9038161631295
 30
0.0
 11
439.9550418940489
 21
282.3258456292805
 31
0.0
  0
ARC
  5
76CB
330
1F
100
AcDbEntity
  8
0
  6
Continuous
 62
     7
370
    15
100
AcDbCircle
 10
440.0395655463971
 20
282.5071071866879
 30
0.0
 40
0.2000000000000713
100
AcDbArc
 50
245.0000000000021
 51
335.0
  0
LINE
  5
76CC
330
1F
100
AcDbEntity
  8
0
  6
Continuous
 62
     7
370
    15
100
AcDbLine
 10
440.2208273424519
 20
282.4225828345486
 30
0.0
 11
441.4886814667595
 21
285.1415083106229
 31
0.0
  0
ARC
  5
76CD
330
1F
100
AcDbEntity
  8
0
  6
Continuous
 62
     7
370
    15
100
AcDbCircle
 10
441.3074203316191
 20
285.2260305477979
 30
0.0
 40
0.2000000000000198
100
AcDbArc
 50
334.9999999999933
 51
64.99999999999779
  0
LINE
  5
76CE
330
1F
100
AcDbEntity
  8
0
  6
Continuous
 62
     7
370
    15
100
AcDbLine
 10
441.3919431282891
 20
285.4072928722569
 30
0.0
 11
441.2106816782368
 21
285.4918159838387
 31
0.0
  0
ARC
  5
76CF
330
1F
100
AcDbEntity
  8
0
  6
Continuous
 62
     7
370
    15
100
AcDbCircle
 10
441.2952060789081
 20
285.6730773149606
 30
0.0
 40
0.2000000000000833
100
AcDbArc
 50
155.0000000000181
 51
244.9999999999948
  0
LINE
  5
76D0
330
1F
100
AcDbEntity
  8
0
  6
Continuous
 62
     7
370
    15
100
AcDbLine
 10
441.1139452024115
 20
285.7576005454728
 30
0.0
 11
443.8624327196492
 21
291.6517511304089
 31
0.0
  0
ARC
  5
76D1
330
1F
100
AcDbEntity
  8
0
  6
Continuous
 62
     7
370
    15
100
AcDbCircle
 10
444.3155860504223
 20
291.4404425914952
 30
0.0
 40
0.5
100
AcDbArc
 50
90.0
 51
154.999999999997
  0
LINE
  5
76D2
330
1F
100
AcDbEntity
  8
0
  6
Continuous
 62
     7
370
    15
100
AcDbLine
 10
444.3155863447798
 20
291.9404425020882
 30
0.0
 11
456.556907029332
 21
291.9404425020882
 31
0.0
  0
ARC
  5
76D3
330
1F
100
AcDbEntity
  8
0
  6
Continuous
 62
     7
370
    15
100
AcDbCircle
 10
456.5569087578666
 20
281.9404425914953
 30
0.0
 40
10.00000000000003
100
AcDbArc
 50
0.0
 51
90.0
  0
LINE
  5
76D4
330
1F
100
AcDbEntity
  8
0
  6
Continuous
 62
     7
370
    15
100
AcDbLine
 10
466.5569086684597
 20
281.9404408629605
 30
0.0
 11
466.5569086684595
 21
206.4404443200298
 31
0.0
  0
ARC
  5
76D5
330
1F
100
AcDbEntity
  8
0
  6
Continuous
 62
     7
370
    15
100
AcDbCircle
 10
456.5569087578665
 20
206.4404425914952
 30
0.0
 40
10.00000000000003
100
AcDbArc
 50
270.0
 51
0.0
  0
LINE
  5
76D6
330
1F
100
AcDbEntity
  8
0
  6
Continuous
 62
     7
370
    15
100
AcDbLine
 10
456.5569070293317
 20
196.4404426809022
 30
0.0
 11
444.3155863447795
 21
196.4404426809022
 31
0.0
  0
ARC
  5
76D7
330
1F
100
AcDbEntity
  8
0
  6
Continuous
 62
     7
370
    15
100
AcDbCircle
 10
444.315586050422
 20
196.9404425914952
 30
0.0
 40
0.5000000000000187
100
AcDbArc
 50
205.000000000003
 51
270.0
  0
CIRCLE
  5
76D8
330
1F
100
AcDbEntity
  8
0
  6
Continuous
 62
     7
370
    15
100
AcDbCircle
 10
382.8069087578665
 20
208.1904425914955
 30
0.0
 40
4.184999999951287
  0
CIRCLE
  5
76D9
330
1F
100
AcDbEntity
  8
0
  6
Continuous
 62
     7
370
    15
100
AcDbCircle
 10
382.8069087578667
 20
280.1904425914955
 30
0.0
 40
4.184999999951273
  0
CIRCLE
  5
76DA
330
1F
100
AcDbEntity
  8
0
  6
Continuous
 62
     7
370
    15
100
AcDbCircle
 10
454.8069087578666
 20
280.1904425914953
 30
0.0
 40
4.184999999948558
  0
CIRCLE
  5
76DB
330
1F
100
AcDbEntity
  8
0
  6
Continuous
 62
     7
370
    15
100
AcDbCircle
 10
454.8069087578665
 20
208.1904425914952
 30
0.0
 40
4.185000000062217
  0
LINE
  5
76DC
330
1F
100
AcDbEntity
  8
0
  6
Continuous
 62
     7
370
    15
100
AcDbLine
 10
455.8069092347036
 20
219.9583921875426
 30
0.0
 11
458.8069078637968
 21
218.2263408150145
 31
0.0
  0
LINE
  5
76DD
330
1F
100
AcDbEntity
  8
0
  6
Continuous
 62
     7
370
    15
100
AcDbLine
 10
458.8069078637968
 20
218.2263408150145
 30
0.0
 11
461.8069102181802
 21
219.9583921875425
 31
0.0
  0
LINE
  5
76DE
330
1F
100
AcDbEntity
  8
0
  6
Continuous
 62
     7
370
    15
100
AcDbLine
 10
461.8069102181802
 20
219.9583921875425
 30
0.0
 11
461.8069102181802
 21
223.4224930699536
 31
0.0
  0
LINE
  5
76DF
330
1F
100
AcDbEntity
  8
0
  6
Continuous
 62
     7
370
    15
100
AcDbLine
 10
461.8069102181802
 20
223.4224930699536
 30
0.0
 11
458.8069078637969
 21
225.1545444424817
 31
0.0
  0
LINE
  5
76E0
330
1F
100
AcDbEntity
  8
0
  6
Continuous
 62
     7
370
    15
100
AcDbLine
 10
458.8069078637969
 20
225.1545444424817
 30
0.0
 11
455.8069092347036
 21
223.4224930699536
 31
0.0
  0
LINE
  5
76E1
330
1F
100
AcDbEntity
  8
0
  6
Continuous
 62
     7
370
    15
100
AcDbLine
 10
455.8069092347036
 20
223.4224930699536
 30
0.0
 11
455.8069092347036
 21
219.9583921875426
 31
0.0
  0
CIRCLE
  5
76E2
330
1F
100
AcDbEntity
  8
0
  6
Continuous
 62
     7
370
    15
100
AcDbCircle
 10
458.8069087578665
 20
221.6904425914953
 30
0.0
 40
6.5
  0
LINE
  5
76E3
330
1F
100
AcDbEntity
  8
0
  6
Continuous
 62
     7
370
    15
100
AcDbLine
 10
455.8069092347039
 20
264.9583921130368
 30
0.0
 11
458.806907863797
 21
263.2263407405087
 31
0.0
  0
LINE
  5
76E4
330
1F
100
AcDbEntity
  8
0
  6
Continuous
 62
     7
370
    15
100
AcDbLine
 10
458.806907863797
 20
263.2263407405087
 30
0.0
 11
461.8069102181805
 21
264.9583921130368
 31
0.0
  0
LINE
  5
76E5
330
1F
100
AcDbEntity
  8
0
  6
Continuous
 62
     7
370
    15
100
AcDbLine
 10
461.8069102181805
 20
264.9583921130368
 30
0.0
 11
461.8069102181805
 21
268.4224929954478
 31
0.0
  0
LINE
  5
76E6
330
1F
100
AcDbEntity
  8
0
  6
Continuous
 62
     7
370
    15
100
AcDbLine
 10
461.8069102181805
 20
268.4224929954478
 30
0.0
 11
458.806907863797
 21
270.1545443679759
 31
0.0
  0
LINE
  5
76E7
330
1F
100
AcDbEntity
  8
0
  6
Continuous
 62
     7
370
    15
100
AcDbLine
 10
458.806907863797
 20
270.1545443679759
 30
0.0
 11
455.8069092347039
 21
268.4224929954478
 31
0.0
  0
LINE
  5
76E8
330
1F
100
AcDbEntity
  8
0
  6
Continuous
 62
     7
370
    15
100
AcDbLine
 10
455.8069092347039
 20
268.4224929954478
 30
0.0
 11
455.8069092347039
 21
264.9583921130368
 31
0.0
  0
CIRCLE
  5
76E9
330
1F
100
AcDbEntity
  8
0
  6
Continuous
 62
     7
370
    15
100
AcDbCircle
 10
458.8069087578666
 20
266.6904425914952
 30
0.0
 40
6.5
  0
LINE
  5
76EA
330
1F
100
AcDbEntity
  8
0
  6
Continuous
 62
     7
370
    15
100
AcDbLine
 10
375.8069072975528
 20
219.9583921875429
 30
0.0
 11
378.8069096519361
 21
218.2263408150148
 31
0.0
  0
LINE
  5
76EB
330
1F
100
AcDbEntity
  8
0
  6
Continuous
 62
     7
370
    15
100
AcDbLine
 10
378.8069096519361
 20
218.2263408150148
 30
0.0
 11
381.8069082810295
 21
219.9583921875429
 31
0.0
  0
LINE
  5
76EC
330
1F
100
AcDbEntity
  8
0
  6
Continuous
 62
     7
370
    15
100
AcDbLine
 10
381.8069082810295
 20
219.9583921875429
 30
0.0
 11
381.8069082810295
 21
223.4224930699539
 31
0.0
  0
LINE
  5
76ED
330
1F
100
AcDbEntity
  8
0
  6
Continuous
 62
     7
370
    15
100
AcDbLine
 10
381.8069082810295
 20
223.4224930699539
 30
0.0
 11
378.8069096519363
 21
225.154544442482
 31
0.0
  0
LINE
  5
76EE
330
1F
100
AcDbEntity
  8
0
  6
Continuous
 62
     7
370
    15
100
AcDbLine
 10
378.8069096519363
 20
225.154544442482
 30
0.0
 11
375.8069072975528
 21
223.4224930699539
 31
0.0
  0
LINE
  5
76EF
330
1F
100
AcDbEntity
  8
0
  6
Continuous
 62
     7
370
    15
100
AcDbLine
 10
375.8069072975528
 20
223.4224930699539
 30
0.0
 11
375.8069072975528
 21
219.9583921875429
 31
0.0
  0
CIRCLE
  5
76F0
330
1F
100
AcDbEntity
  8
0
  6
Continuous
 62
     7
370
    15
100
AcDbCircle
 10
378.8069087578666
 20
221.6904425914955
 30
0.0
 40
6.500000000000014
  0
LINE
  5
76F1
330
1F
100
AcDbEntity
  8
0
  6
Continuous
 62
     7
370
    15
100
AcDbLine
 10
375.8069072975529
 20
264.9583921130371
 30
0.0
 11
378.8069096519364
 21
263.226340740509
 31
0.0
  0
LINE
  5
76F2
330
1F
100
AcDbEntity
  8
0
  6
Continuous
 62
     7
370
    15
100
AcDbLine
 10
378.8069096519364
 20
263.226340740509
 30
0.0
 11
381.8069082810296
 21
264.9583921130371
 31
0.0
  0
LINE
  5
76F3
330
1F
100
AcDbEntity
  8
0
  6
Continuous
 62
     7
370
    15
100
AcDbLine
 10
381.8069082810296
 20
264.9583921130371
 30
0.0
 11
381.8069082810296
 21
268.4224929954481
 31
0.0
  0
LINE
  5
76F4
330
1F
100
AcDbEntity
  8
0
  6
Continuous
 62
     7
370
    15
100
AcDbLine
 10
381.8069082810296
 20
268.4224929954481
 30
0.0
 11
378.8069096519364
 21
270.1545443679762
 31
0.0
  0
LINE
  5
76F5
330
1F
100
AcDbEntity
  8
0
  6
Continuous
 62
     7
370
    15
100
AcDbLine
 10
378.8069096519364
 20
270.1545443679762
 30
0.0
 11
375.8069072975529
 21
268.4224929954481
 31
0.0
  0
LINE
  5
76F6
330
1F
100
AcDbEntity
  8
0
  6
Continuous
 62
     7
370
    15
100
AcDbLine
 10
375.8069072975529
 20
268.4224929954481
 30
0.0
 11
375.8069072975529
 21
264.9583921130371
 31
0.0
  0
CIRCLE
  5
76F7
330
1F
100
AcDbEntity
  8
0
  6
Continuous
 62
     7
370
    15
100
AcDbCircle
 10
378.8069087578667
 20
266.6904425914955
 30
0.0
 40
6.5
  0
SPLINE
  5
76F8
330
1F
100
AcDbEntity
  8
0
  6
Continuous
 62
     7
370
    15
100
AcDbSpline
210
0.0
220
0.0
230
1.0
 70
    24
 71
     1
 72
     4
 73
     2
 74
     0
 42
0.0000000001
 43
0.0000000001
 40
0.0
 40
0.0
 40
1.0
 40
1.0
 10
227.5826234267995
 20
482.3420915283753
 30
0.0
 10
231.0826235348331
 20
482.3420915283753
 30
0.0
  0
SPLINE
  5
76F9
330
1F
100
AcDbEntity
  8
0
  6
Continuous
 62
     7
370
    15
100
AcDbSpline
210
0.0
220
0.0
230
1.0
 70
    24
 71
     1
 72
     4
 73
     2
 74
     0
 42
0.0000000001
 43
0.0000000001
 40
0.0
 40
0.0
 40
1.0
 40
1.0
 10
231.0826235348331
 20
502.3420910813404
 30
0.0
 10
227.5826234267996
 20
502.3420910813404
 30
0.0
  0
SPLINE
  5
76FA
330
1F
100
AcDbEntity
  8
0
  6
Continuous
 62
     7
370
    15
100
AcDbSpline
210
0.0
220
0.0
230
1.0
 70
    24
 71
     1
 72
     4
 73
     2
 74
     0
 42
0.0000000001
 43
0.0000000001
 40
0.0
 40
0.0
 40
1.0
 40
1.0
 10
194.5826240712747
 20
500.3420916848376
 30
0.0
 10
193.0826247567282
 20
498.8420914389685
 30
0.0
  0
SPLINE
  5
76FB
330
1F
100
AcDbEntity
  8
0
  6
Continuous
 62
     7
370
    15
100
AcDbSpline
210
0.0
220
0.0
230
1.0
 70
    24
 71
     1
 72
     4
 73
     2
 74
     0
 42
0.0000000001
 43
0.0000000001
 40
0.0
 40
0.0
 40
1.0
 40
1.0
 10
193.0826247567281
 20
485.8420911707476
 30
0.0
 10
194.5826240712746
 20
484.3420909248784
 30
0.0
  0
SPLINE
  5
76FC
330
1F
100
AcDbEntity
  8
0
  6
Continuous
 62
     7
370
    15
100
AcDbSpline
210
0.0
220
0.0
230
1.0
 70
    24
 71
     1
 72
     4
 73
     2
 74
     0
 42
0.0000000001
 43
0.0000000001
 40
0.0
 40
0.0
 40
1.0
 40
1.0
 10
194.5826240712746
 20
484.3420909248784
 30
0.0
 10
203.0826226705655
 20
484.3420909248784
 30
0.0
  0
SPLINE
  5
76FD
330
1F
100
AcDbEntity
  8
0
  6
Continuous
 62
     7
370
    15
100
AcDbSpline
210
0.0
220
0.0
230
1.0
 70
    24
 71
     1
 72
     4
 73
     2
 74
     0
 42
0.0000000001
 43
0.0000000001
 40
0.0
 40
0.0
 40
1.0
 40
1.0
 10
211.0826239818677
 20
484.3420909248784
 30
0.0
 10
221.0826237583503
 20
484.3420909248783
 30
0.0
  0
SPLINE
  5
76FE
330
1F
100
AcDbEntity
  8
0
  6
Continuous
 62
     7
370
    15
100
AcDbSpline
210
0.0
220
0.0
230
1.0
 70
    24
 71
     1
 72
     4
 73
     2
 74
     0
 42
0.0000000001
 43
0.0000000001
 40
0.0
 40
0.0
 40
1.0
 40
1.0
 10
221.0826237583504
 20
500.3420916848376
 30
0.0
 10
211.0826239818678
 20
500.3420916848376
 30
0.0
  0
SPLINE
  5
76FF
330
1F
100
AcDbEntity
  8
0
  6
Continuous
 62
     7
370
    15
100
AcDbSpline
210
0.0
220
0.0
230
1.0
 70
    24
 71
     1
 72
     4
 73
     2
 74
     0
 42
0.0000000001
 43
0.0000000001
 40
0.0
 40
0.0
 40
1.0
 40
1.0
 10
203.0826226705656
 20
500.3420916848376
 30
0.0
 10
194.5826240712747
 20
500.3420916848376
 30
0.0
  0
CIRCLE
  5
7700
330
1F
100
AcDbEntity
  8
0
  6
Continuous
 62
     7
370
    15
100
AcDbCircle
 10
282.0826235348331
 20
492.3420913048576
 30
0.0
 40
4.999999999995452
  0
LINE
  5
7701
330
1F
100
AcDbEntity
  8
0
  6
Continuous
 62
     7
370
    15
100
AcDbLine
 10
274.5826222831354
 20
454.5920930333923
 30
0.0
 11
274.5826222831357
 21
530.0920895763229
 31
0.0
  0
LINE
  5
7702
330
1F
100
AcDbEntity
  8
0
  6
Continuous
 62
     7
370
    15
100
AcDbLine
 10
274.5826222831357
 20
530.0920895763229
 30
0.0
 11
290.0826238924611
 21
530.0920895763229
 31
0.0
  0
LINE
  5
7703
330
1F
100
AcDbEntity
  8
0
  6
Continuous
 62
     7
370
    15
100
AcDbLine
 10
290.0826238924608
 20
454.5920930333923
 30
0.0
 11
290.0826238924611
 21
530.0920895763229
 31
0.0
  0
LINE
  5
7704
330
1F
100
AcDbEntity
  8
0
  6
Continuous
 62
     7
370
    15
100
AcDbLine
 10
290.0826238924608
 20
454.5920930333923
 30
0.0
 11
274.5826222831354
 21
454.5920930333923
 31
0.0
  0
CIRCLE
  5
7705
330
1F
100
AcDbEntity
  8
0
  6
Continuous
 62
     7
370
    15
100
AcDbCircle
 10
282.0826235348331
 20
492.3420913048576
 30
0.0
 40
4.349999999988085
  0
LINE
  5
7706
330
1F
100
AcDbEntity
  8
0
  6
Continuous
 62
     7
370
    15
100
AcDbLine
 10
274.5826222831357
 20
540.0920912154506
 30
0.0
 11
274.5826222831357
 21
530.0920895763229
 31
0.0
  0
LINE
  5
7707
330
1F
100
AcDbEntity
  8
0
  6
Continuous
 62
     7
370
    15
100
AcDbLine
 10
290.0826238924611
 20
540.0920912154506
 30
0.0
 11
274.5826222831357
 21
540.0920912154506
 31
0.0
  0
LINE
  5
7708
330
1F
100
AcDbEntity
  8
0
  6
Continuous
 62
     7
370
    15
100
AcDbLine
 10
290.0826238924611
 20
530.0920895763229
 30
0.0
 11
290.0826238924611
 21
540.0920912154506
 31
0.0
  0
LINE
  5
7709
330
1F
100
AcDbEntity
  8
0
  6
Continuous
 62
     7
370
    15
100
AcDbLine
 10
274.5826222831353
 20
444.5920913942646
 30
0.0
 11
290.0826238924608
 21
444.5920913942646
 31
0.0
  0
LINE
  5
770A
330
1F
100
AcDbEntity
  8
0
  6
Continuous
 62
     7
370
    15
100
AcDbLine
 10
290.0826238924608
 20
444.5920913942646
 30
0.0
 11
290.0826238924608
 21
454.5920930333923
 31
0.0
  0
LINE
  5
770B
330
1F
100
AcDbEntity
  8
0
  6
Continuous
 62
     7
370
    15
100
AcDbLine
 10
274.5826222831354
 20
454.5920930333923
 30
0.0
 11
274.5826222831353
 21
444.5920913942646
 31
0.0
  0
LINE
  5
770C
330
1F
100
AcDbEntity
  8
0
  6
Continuous
 62
     7
370
    15
100
AcDbLine
 10
290.082623892461
 20
530.4774932094406
 30
0.0
 11
290.082623892461
 21
531.6396943755935
 31
0.0
  0
LINE
  5
770D
330
1F
100
AcDbEntity
  8
0
  6
Continuous
 62
     7
370
    15
100
AcDbLine
 10
290.0826238924608
 20
451.6287177332233
 30
0.0
 11
290.0826238924608
 21
454.2066894002746
 31
0.0
  0
LINE
  5
770E
330
1F
100
AcDbEntity
  8
0
  6
Continuous
 62
     7
370
    15
100
AcDbLine
 10
290.082623892461
 20
535.9678633042167
 30
0.0
 11
290.0826238924611
 21
540.0920912154506
 31
0.0
  0
LINE
  5
770F
330
1F
100
AcDbEntity
  8
0
  6
Continuous
 62
     7
370
    15
100
AcDbLine
 10
274.5826222831357
 20
540.0920912154508
 30
0.0
 11
274.5826222831357
 21
539.3420896955324
 31
0.0
  0
LINE
  5
7710
330
1F
100
AcDbEntity
  8
0
  6
Continuous
 62
     7
370
    15
100
AcDbLine
 10
290.0826238924608
 20
444.5920913942646
 30
0.0
 11
290.0826238924608
 21
448.7163193054985
 31
0.0
  0
LINE
  5
7711
330
1F
100
AcDbEntity
  8
0
  6
Continuous
 62
     7
370
    15
100
AcDbLine
 10
274.5826222831353
 20
445.342092914183
 30
0.0
 11
274.5826222831353
 21
444.5920913942646
 31
0.0
  0
LINE
  5
7712
330
1F
100
AcDbEntity
  8
0
  6
Continuous
 62
     7
370
    15
100
AcDbLine
 10
290.082623892461
 20
531.8932637103389
 30
0.0
 11
290.082623892461
 21
531.4945868678878
 31
0.0
  0
LINE
  5
7713
330
1F
100
AcDbEntity
  8
0
  6
Continuous
 62
     7
370
    15
100
AcDbLine
 10
290.082623892461
 20
531.8932637103389
 30
0.0
 11
290.082623892461
 21
533.0554648764919
 31
0.0
  0
LINE
  5
7714
330
1F
100
AcDbEntity
  8
0
  6
Continuous
 62
     7
370
    15
100
AcDbLine
 10
290.082623892461
 20
533.3212494381259
 30
0.0
 11
290.082623892461
 21
536.2214363642524
 31
0.0
  0
LINE
  5
7715
330
1F
100
AcDbEntity
  8
0
  6
Continuous
 62
     7
370
    15
100
AcDbLine
 10
290.0826238924608
 20
448.4627462454628
 30
0.0
 11
290.0826238924608
 21
451.3629331715892
 31
0.0
  0
LINE
  5
7716
330
1F
100
AcDbEntity
  8
0
  6
Continuous
 62
     7
370
    15
100
AcDbLine
 10
290.0826238924608
 20
535.9678633042169
 30
0.0
 11
290.0826238924608
 21
536.2214363642526
 31
0.0
  0
LINE
  5
7717
330
1F
100
AcDbEntity
  8
0
  6
Continuous
 62
     7
370
    15
100
AcDbLine
 10
290.0826238924606
 20
448.462746245463
 30
0.0
 11
290.0826238924606
 21
448.7163193054987
 31
0.0
  0
LINE
  5
7718
330
1F
100
AcDbEntity
  8
0
  6
Continuous
 62
     7
370
    15
100
AcDbLine
 10
290.0826238924608
 20
530.5742315479112
 30
0.0
 11
290.0826238924608
 21
533.4744184740377
 31
0.0
  0
LINE
  5
7719
330
1F
100
AcDbEntity
  8
0
  6
Continuous
 62
     7
370
    15
100
AcDbLine
 10
290.0826238924606
 20
451.2097641356779
 30
0.0
 11
290.0826238924606
 21
454.1099510618044
 31
0.0
  0
LINE
  5
771A
330
1F
100
AcDbEntity
  8
0
  6
Continuous
 62
     7
370
    15
100
AcDbLine
 10
290.0826238924608
 20
533.7279878087831
 30
0.0
 11
290.0826238924608
 21
540.0920912154508
 31
0.0
  0
LINE
  5
771B
330
1F
100
AcDbEntity
  8
0
  6
Continuous
 62
     7
370
    15
100
AcDbLine
 10
274.5826222831354
 20
540.0920912154508
 30
0.0
 11
274.5826222831354
 21
539.3988444932294
 31
0.0
  0
LINE
  5
771C
330
1F
100
AcDbEntity
  8
0
  6
Continuous
 62
     7
370
    15
100
AcDbLine
 10
290.0826238924608
 20
533.4744184740377
 30
0.0
 11
290.0826238924608
 21
533.7279878087831
 31
0.0
  0
LINE
  5
771D
330
1F
100
AcDbEntity
  8
0
  6
Continuous
 62
     7
370
    15
100
AcDbLine
 10
290.0826238924606
 20
450.9561948009325
 30
0.0
 11
290.0826238924606
 21
451.2097641356779
 31
0.0
  0
LINE
  5
771E
330
1F
100
AcDbEntity
  8
0
  6
Continuous
 62
     7
370
    15
100
AcDbLine
 10
290.0826238924605
 20
444.5920913942648
 30
0.0
 11
290.0826238924606
 21
450.9561948009325
 31
0.0
  0
LINE
  5
771F
330
1F
100
AcDbEntity
  8
0
  6
Continuous
 62
     7
370
    15
100
AcDbLine
 10
274.5826222831351
 20
445.2853381164862
 30
0.0
 11
274.5826222831351
 21
444.5920913942648
 31
0.0
  0
LINE
  5
7720
330
1F
100
AcDbEntity
  8
0
  6
Continuous
 62
     7
370
    15
100
AcDbLine
 10
274.5826222831357
 20
539.3420896955322
 30
0.0
 11
246.5826232815135
 21
539.3420896955324
 31
0.0
  0
LINE
  5
7721
330
1F
100
AcDbEntity
  8
0
  6
Continuous
 62
     7
370
    15
100
AcDbLine
 10
246.5826232815135
 20
529.3420917816949
 30
0.0
 11
274.5826222831357
 21
529.3420917816948
 31
0.0
  0
LINE
  5
7722
330
1F
100
AcDbEntity
  8
0
  6
Continuous
 62
     7
370
    15
100
AcDbLine
 10
274.5826222831357
 20
511.4924303718399
 30
0.0
 11
246.5826232815135
 21
511.49243037184
 31
0.0
  0
LINE
  5
7723
330
1F
100
AcDbEntity
  8
0
  6
Continuous
 62
     7
370
    15
100
AcDbLine
 10
246.5826232815134
 20
509.6798140086723
 30
0.0
 11
274.5826222831356
 21
509.6798140086721
 31
0.0
  0
LINE
  5
7724
330
1F
100
AcDbEntity
  8
0
  6
Continuous
 62
     7
370
    15
100
AcDbLine
 10
274.5826222831354
 20
475.0043686010431
 30
0.0
 11
246.5826232815132
 21
475.0043686010433
 31
0.0
  0
LINE
  5
7725
330
1F
100
AcDbEntity
  8
0
  6
Continuous
 62
     7
370
    15
100
AcDbLine
 10
246.5826232815132
 20
473.1917522378755
 30
0.0
 11
274.5826222831354
 21
473.1917522378753
 31
0.0
  0
LINE
  5
7726
330
1F
100
AcDbEntity
  8
0
  6
Continuous
 62
     7
370
    15
100
AcDbLine
 10
274.5826222831354
 20
455.3420908280204
 30
0.0
 11
246.5826232815132
 21
455.3420908280206
 31
0.0
  0
LINE
  5
7727
330
1F
100
AcDbEntity
  8
0
  6
Continuous
 62
     7
370
    15
100
AcDbLine
 10
246.5826232815131
 20
445.3420929141832
 30
0.0
 11
274.5826222831353
 21
445.342092914183
 31
0.0
  0
LINE
  5
7728
330
1F
100
AcDbEntity
  8
0
  6
Continuous
 62
     7
370
    15
100
AcDbLine
 10
274.5826222831356
 20
507.7264803924154
 30
0.0
 11
246.5826232815134
 21
507.7264803924156
 31
0.0
  0
LINE
  5
7729
330
1F
100
AcDbEntity
  8
0
  6
Continuous
 62
     7
370
    15
100
AcDbLine
 10
246.5826232815132
 20
476.9577022173
 30
0.0
 11
274.5826222831354
 21
476.9577022172998
 31
0.0
  0
LINE
  5
772A
330
1F
100
AcDbEntity
  8
0
  6
Continuous
 62
     7
370
    15
100
AcDbLine
 10
246.5826232815132
 20
478.1893604897452
 30
0.0
 11
274.5826222831354
 21
478.189360489745
 31
0.0
  0
LINE
  5
772B
330
1F
100
AcDbEntity
  8
0
  6
Continuous
 62
     7
370
    15
100
AcDbLine
 10
274.5826222831356
 20
506.4948221199702
 30
0.0
 11
246.5826232815134
 21
506.4948221199704
 31
0.0
  0
CIRCLE
  5
772C
330
1F
100
AcDbEntity
  8
0
  6
Continuous
 62
     7
370
    15
100
AcDbCircle
 10
239.0826235348331
 20
492.3420913048579
 30
0.0
 40
4.99999999999548
  0
LINE
  5
772D
330
1F
100
AcDbEntity
  8
0
  6
Continuous
 62
     7
370
    15
100
AcDbLine
 10
246.5826232815135
 20
530.0920895763231
 30
0.0
 11
246.5826232815132
 21
454.5920930333925
 31
0.0
  0
LINE
  5
772E
330
1F
100
AcDbEntity
  8
0
  6
Continuous
 62
     7
370
    15
100
AcDbLine
 10
246.5826232815132
 20
454.5920930333925
 30
0.0
 11
231.082623534833
 21
454.5920930333926
 31
0.0
  0
LINE
  5
772F
330
1F
100
AcDbEntity
  8
0
  6
Continuous
 62
     7
370
    15
100
AcDbLine
 10
231.0826235348332
 20
530.0920895763231
 30
0.0
 11
231.082623534833
 21
454.5920930333926
 31
0.0
  0
LINE
  5
7730
330
1F
100
AcDbEntity
  8
0
  6
Continuous
 62
     7
370
    15
100
AcDbLine
 10
231.0826235348332
 20
530.0920895763231
 30
0.0
 11
246.5826232815135
 21
530.0920895763231
 31
0.0
  0
CIRCLE
  5
7731
330
1F
100
AcDbEntity
  8
0
  6
Continuous
 62
     7
370
    15
100
AcDbCircle
 10
239.0826235348331
 20
492.3420913048579
 30
0.0
 40
4.349999999988085
  0
LINE
  5
7732
330
1F
100
AcDbEntity
  8
0
  6
Continuous
 62
     7
370
    15
100
AcDbLine
 10
246.5826232815135
 20
540.0920912154508
 30
0.0
 11
231.0826235348332
 21
540.0920912154508
 31
0.0
  0
LINE
  5
7733
330
1F
100
AcDbEntity
  8
0
  6
Continuous
 62
     7
370
    15
100
AcDbLine
 10
246.5826232815135
 20
530.0920895763231
 30
0.0
 11
246.5826232815135
 21
540.0920912154508
 31
0.0
  0
LINE
  5
7734
330
1F
100
AcDbEntity
  8
0
  6
Continuous
 62
     7
370
    15
100
AcDbLine
 10
231.0826235348332
 20
540.0920912154508
 30
0.0
 11
231.0826235348332
 21
530.0920895763231
 31
0.0
  0
LINE
  5
7735
330
1F
100
AcDbEntity
  8
0
  6
Continuous
 62
     7
370
    15
100
AcDbLine
 10
231.0826235348329
 20
444.5920913942648
 30
0.0
 11
246.5826232815131
 21
444.5920913942647
 31
0.0
  0
LINE
  5
7736
330
1F
100
AcDbEntity
  8
0
  6
Continuous
 62
     7
370
    15
100
AcDbLine
 10
246.5826232815131
 20
444.5920913942647
 30
0.0
 11
246.5826232815132
 21
454.5920930333925
 31
0.0
  0
LINE
  5
7737
330
1F
100
AcDbEntity
  8
0
  6
Continuous
 62
     7
370
    15
100
AcDbLine
 10
231.082623534833
 20
454.5920930333926
 30
0.0
 11
231.0826235348329
 21
444.5920913942648
 31
0.0
  0
LINE
  5
7738
330
1F
100
AcDbEntity
  8
0
  6
Continuous
 62
     7
370
    15
100
AcDbLine
 10
231.0826235348331
 20
531.6396943755937
 30
0.0
 11
231.0826235348331
 21
530.4774932094407
 31
0.0
  0
LINE
  5
7739
330
1F
100
AcDbEntity
  8
0
  6
Continuous
 62
     7
370
    15
100
AcDbLine
 10
231.0826235348329
 20
454.2066894002749
 30
0.0
 11
231.0826235348329
 21
451.6287177332236
 31
0.0
  0
LINE
  5
773A
330
1F
100
AcDbEntity
  8
0
  6
Continuous
 62
     7
370
    15
100
AcDbLine
 10
246.5826232815135
 20
540.0920912154508
 30
0.0
 11
246.5826232815135
 21
539.3807805605722
 31
0.0
  0
LINE
  5
773B
330
1F
100
AcDbEntity
  8
0
  6
Continuous
 62
     7
370
    15
100
AcDbLine
 10
231.0826235348331
 20
540.0920912154508
 30
0.0
 11
231.0826235348331
 21
539.3807805605722
 31
0.0
  0
LINE
  5
773C
330
1F
100
AcDbEntity
  8
0
  6
Continuous
 62
     7
370
    15
100
AcDbLine
 10
246.5826232815131
 20
445.3034020491434
 30
0.0
 11
246.5826232815131
 21
444.5920913942648
 31
0.0
  0
LINE
  5
773D
330
1F
100
AcDbEntity
  8
0
  6
Continuous
 62
     7
370
    15
100
AcDbLine
 10
231.0826235348329
 20
445.3034020491434
 30
0.0
 11
231.0826235348329
 21
444.5920913942648
 31
0.0
  0
LINE
  5
773E
330
1F
100
AcDbEntity
  8
0
  6
Continuous
 62
     7
370
    15
100
AcDbLine
 10
246.5826232815135
 20
539.3420896955324
 30
0.0
 11
246.5826232815135
 21
539.3807805605722
 31
0.0
  0
LINE
  5
773F
330
1F
100
AcDbEntity
  8
0
  6
Continuous
 62
     7
370
    15
100
AcDbLine
 10
231.0826235348331
 20
539.3807805605722
 30
0.0
 11
231.0826235348331
 21
536.1491247542692
 31
0.0
  0
LINE
  5
7740
330
1F
100
AcDbEntity
  8
0
  6
Continuous
 62
     7
370
    15
100
AcDbLine
 10
246.5826232815131
 20
445.3034020491434
 30
0.0
 11
246.5826232815131
 21
445.3420929141833
 31
0.0
  0
LINE
  5
7741
330
1F
100
AcDbEntity
  8
0
  6
Continuous
 62
     7
370
    15
100
AcDbLine
 10
231.0826235348329
 20
448.5350578554465
 30
0.0
 11
231.0826235348329
 21
445.3034020491434
 31
0.0
  0
LINE
  5
7742
330
1F
100
AcDbEntity
  8
0
  6
Continuous
 62
     7
370
    15
100
AcDbLine
 10
231.0826235348331
 20
531.494586867888
 30
0.0
 11
231.0826235348331
 21
531.8932637103391
 31
0.0
  0
LINE
  5
7743
330
1F
100
AcDbEntity
  8
0
  6
Continuous
 62
     7
370
    15
100
AcDbLine
 10
231.0826235348331
 20
533.0554648764921
 30
0.0
 11
231.0826235348331
 21
531.8932637103391
 31
0.0
  0
LINE
  5
7744
330
1F
100
AcDbEntity
  8
0
  6
Continuous
 62
     7
370
    15
100
AcDbLine
 10
231.0826235348331
 20
536.1491247542692
 30
0.0
 11
231.0826235348331
 21
536.0336519308877
 31
0.0
  0
LINE
  5
7745
330
1F
100
AcDbEntity
  8
0
  6
Continuous
 62
     7
370
    15
100
AcDbLine
 10
231.0826235348329
 20
448.6505306788279
 30
0.0
 11
231.0826235348329
 21
448.5350578554465
 31
0.0
  0
LINE
  5
7746
330
1F
100
AcDbEntity
  8
0
  6
Continuous
 62
     7
370
    15
100
AcDbLine
 10
231.0826235348331
 20
536.0401749142003
 30
0.0
 11
231.0826235348331
 21
533.3212494381261
 31
0.0
  0
LINE
  5
7747
330
1F
100
AcDbEntity
  8
0
  6
Continuous
 62
     7
370
    15
100
AcDbLine
 10
231.0826235348329
 20
451.3629331715895
 30
0.0
 11
231.0826235348329
 21
448.6440076955153
 31
0.0
  0
LINE
  5
7748
330
1F
100
AcDbEntity
  8
0
  6
Continuous
 62
     7
370
    15
100
AcDbLine
 10
231.082623534833
 20
536.1369132526711
 30
0.0
 11
231.082623534833
 21
536.0523901410893
 31
0.0
  0
LINE
  5
7749
330
1F
100
AcDbEntity
  8
0
  6
Continuous
 62
     7
370
    15
100
AcDbLine
 10
231.0826235348327
 20
448.6317924686268
 30
0.0
 11
231.0826235348327
 21
448.547269357045
 31
0.0
  0
LINE
  5
774A
330
1F
100
AcDbEntity
  8
0
  6
Continuous
 62
     7
370
    15
100
AcDbLine
 10
231.082623534833
 20
533.2931570239857
 30
0.0
 11
231.082623534833
 21
530.5742315479115
 31
0.0
  0
LINE
  5
774B
330
1F
100
AcDbEntity
  8
0
  6
Continuous
 62
     7
370
    15
100
AcDbLine
 10
231.0826235348327
 20
454.1099510618046
 30
0.0
 11
231.0826235348327
 21
451.3910255857304
 31
0.0
  0
LINE
  5
774C
330
1F
100
AcDbEntity
  8
0
  6
Continuous
 62
     7
370
    15
100
AcDbLine
 10
231.082623534833
 20
533.9092492588356
 30
0.0
 11
231.082623534833
 21
533.6434646972016
 31
0.0
  0
LINE
  5
774D
330
1F
100
AcDbEntity
  8
0
  6
Continuous
 62
     7
370
    15
100
AcDbLine
 10
231.0826235348327
 20
451.0407179125145
 30
0.0
 11
231.0826235348327
 21
450.7749333508805
 31
0.0
  0
LINE
  5
774E
330
1F
100
AcDbEntity
  8
0
  6
Continuous
 62
     7
370
    15
100
AcDbLine
 10
246.5826232815132
 20
539.3988444932297
 30
0.0
 11
246.5826232815132
 21
539.8033998437718
 31
0.0
  0
LINE
  5
774F
330
1F
100
AcDbEntity
  8
0
  6
Continuous
 62
     7
370
    15
100
AcDbLine
 10
231.082623534833
 20
539.8033998437718
 30
0.0
 11
231.082623534833
 21
533.9092492588356
 31
0.0
  0
LINE
  5
7750
330
1F
100
AcDbEntity
  8
0
  6
Continuous
 62
     7
370
    15
100
AcDbLine
 10
246.5826232815129
 20
444.8807827659442
 30
0.0
 11
246.5826232815129
 21
445.2853381164863
 31
0.0
  0
LINE
  5
7751
330
1F
100
AcDbEntity
  8
0
  6
Continuous
 62
     7
370
    15
100
AcDbLine
 10
231.0826235348327
 20
450.7749333508805
 30
0.0
 11
231.0826235348326
 21
444.8807827659443
 31
0.0
  0
LINE
  5
7752
330
1F
100
AcDbEntity
  8
0
  6
Continuous
 62
     7
370
    15
100
AcDbLine
 10
231.082623534833
 20
533.6434646972016
 30
0.0
 11
231.082623534833
 21
533.5589415856198
 31
0.0
  0
LINE
  5
7753
330
1F
100
AcDbEntity
  8
0
  6
Continuous
 62
     7
370
    15
100
AcDbLine
 10
231.0826235348327
 20
451.1252410240963
 30
0.0
 11
231.0826235348327
 21
451.0407179125145
 31
0.0
  0
LINE
  5
7754
330
1F
100
AcDbEntity
  8
0
  6
Continuous
 62
     7
370
    15
100
AcDbLine
 10
246.5826232815132
 20
540.0920912154511
 30
0.0
 11
246.5826232815132
 21
539.8033998437718
 31
0.0
  0
LINE
  5
7755
330
1F
100
AcDbEntity
  8
0
  6
Continuous
 62
     7
370
    15
100
AcDbLine
 10
231.082623534833
 20
540.0920912154511
 30
0.0
 11
231.082623534833
 21
539.8033998437718
 31
0.0
  0
LINE
  5
7756
330
1F
100
AcDbEntity
  8
0
  6
Continuous
 62
     7
370
    15
100
AcDbLine
 10
246.5826232815129
 20
444.8807827659442
 30
0.0
 11
246.5826232815129
 21
444.5920913942649
 31
0.0
  0
LINE
  5
7757
330
1F
100
AcDbEntity
  8
0
  6
Continuous
 62
     7
370
    15
100
AcDbLine
 10
231.0826235348326
 20
444.8807827659443
 30
0.0
 11
231.0826235348326
 21
444.592091394265
 31
0.0
  0
LINE
  5
7758
330
1F
100
AcDbEntity
  8
0
  6
Continuous
 62
     7
370
    15
100
AcDbLine
 10
210.0108262980328
 20
504.3420914091662
 30
0.0
 11
204.1544203544007
 21
504.3420914091662
 31
0.0
  0
SPLINE
  5
7759
330
1F
100
AcDbEntity
  8
0
  6
Continuous
 62
     7
370
    15
100
AcDbSpline
210
0.0
220
0.0
230
1.0
 70
     8
 71
     3
 72
    11
 73
     7
 74
     0
 42
0.0000000001
 43
0.0000000001
 40
0.0
 40
0.0
 40
0.0
 40
0.0
 40
0.2477112882709381
 40
0.4953655631811619
 40
0.7477052936173223
 40
1.0
 40
1.0
 40
1.0
 40
1.0
 10
210.0108262980328
 20
504.3420914091662
 30
0.0
 10
210.1642563276948
 20
503.85689936474
 30
0.0
 10
210.4710810734824
 20
502.8866269479447
 30
0.0
 10
210.808520719936
 20
501.3959221399059
 30
0.0
 10
211.0378898732473
 20
499.87926375595
 30
0.0
 10
211.0677134992934
 20
498.8544516783615
 30
0.0
 10
211.0826239818678
 20
498.342091357012
 30
0.0
  0
SPLINE
  5
775A
330
1F
100
AcDbEntity
  8
0
  6
Continuous
 62
     7
370
    15
100
AcDbSpline
210
0.0
220
0.0
230
1.0
 70
     8
 71
     3
 72
    11
 73
     7
 74
     0
 42
0.0000000001
 43
0.0000000001
 40
0.0
 40
0.0
 40
0.0
 40
0.0
 40
0.2472747592166204
 40
0.4945905866696888
 40
0.7472643672436998
 40
1.0
 40
1.0
 40
1.0
 40
1.0
 10
211.0826239818678
 20
498.342091357012
 30
0.0
 10
211.068312521649
 20
497.839928244084
 30
0.0
 10
211.0396872243153
 20
496.8355186172628
 30
0.0
 10
210.8161764153487
 20
495.3285992340143
 30
0.0
 10
210.4799354243384
 20
493.8272030669073
 30
0.0
 10
210.167208764001
 20
492.8371689303228
 30
0.0
 10
210.0108262980328
 20
492.3420912816673
 30
0.0
  0
LINE
  5
775B
330
1F
100
AcDbEntity
  8
0
  6
Continuous
 62
     7
370
    15
100
AcDbLine
 10
210.0108262980328
 20
492.3420912904285
 30
0.0
 11
204.1544203544007
 21
492.3420912933147
 31
0.0
  0
SPLINE
  5
775C
330
1F
100
AcDbEntity
  8
0
  6
Continuous
 62
     7
370
    15
100
AcDbSpline
210
0.0
220
0.0
230
1.0
 70
     8
 71
     3
 72
    11
 73
     7
 74
     0
 42
0.0000000001
 43
0.0000000001
 40
0.0
 40
0.0
 40
0.0
 40
0.0
 40
0.2477111461516324
 40
0.4953654876403845
 40
0.7477052150446545
 40
1.0
 40
1.0
 40
1.0
 40
1.0
 10
204.1544203544007
 20
492.3420913279442
 30
0.0
 10
204.0009913608062
 20
492.8272833330064
 30
0.0
 10
203.6941685576708
 20
493.7975560797952
 30
0.0
 10
203.3567244148849
 20
495.2882599440025
 30
0.0
 10
203.1273599391412
 20
496.8049193706561
 30
0.0
 10
203.0975342080036
 20
497.8297311179344
 30
0.0
 10
203.0826226705656
 20
498.3420913570121
 30
0.0
  0
SPLINE
  5
775D
330
1F
100
AcDbEntity
  8
0
  6
Continuous
 62
     7
370
    15
100
AcDbSpline
210
0.0
220
0.0
230
1.0
 70
     8
 71
     3
 72
    11
 73
     7
 74
     0
 42
0.0000000001
 43
0.0000000001
 40
0.0
 40
0.0
 40
0.0
 40
0.0
 40
0.2472747025336597
 40
0.4945904825382267
 40
0.7472642727907148
 40
1.0
 40
1.0
 40
1.0
 40
1.0
 10
203.0826226705656
 20
498.3420913570121
 30
0.0
 10
203.0969341306735
 20
498.8442545197272
 30
0.0
 10
203.1255594283201
 20
499.8486642649027
 30
0.0
 10
203.3490702653175
 20
501.3555830505565
 30
0.0
 10
203.6853113064799
 20
502.8569793836207
 30
0.0
 10
203.9980378970812
 20
503.8470136250585
 30
0.0
 10
204.1544203544007
 20
504.3420914091662
 30
0.0
  0
SPLINE
  5
775E
330
1F
100
AcDbEntity
  8
0
  6
Continuous
 62
     7
370
    15
100
AcDbSpline
210
0.0
220
0.0
230
1.0
 70
     8
 71
     3
 72
    11
 73
     7
 74
     0
 42
0.0000000001
 43
0.0000000001
 40
0.0
 40
0.0
 40
0.0
 40
0.0
 40
0.2477111992196789
 40
0.4953654817347198
 40
0.7477052340437637
 40
1.0
 40
1.0
 40
1.0
 40
1.0
 10
210.0108262980328
 20
492.3420912298267
 30
0.0
 10
210.1642563387563
 20
491.8568993200729
 30
0.0
 10
210.4710811665195
 20
490.8866269833109
 30
0.0
 10
210.8085207159578
 20
489.3959222818344
 30
0.0
 10
211.0378898873237
 20
487.8792634489624
 30
0.0
 10
211.0677135032424
 20
486.8544515320241
 30
0.0
 10
211.0826239818678
 20
486.3420912527039
 30
0.0
  0
SPLINE
  5
775F
330
1F
100
AcDbEntity
  8
0
  6
Continuous
 62
     7
370
    15
100
AcDbSpline
210
0.0
220
0.0
230
1.0
 70
     8
 71
     3
 72
    11
 73
     7
 74
     0
 42
0.0000000001
 43
0.0000000001
 40
0.0
 40
0.0
 40
0.0
 40
0.0
 40
0.2472747025336597
 40
0.4945904825382267
 40
0.7472642727907148
 40
1.0
 40
1.0
 40
1.0
 40
1.0
 10
211.0826239818678
 20
486.3420912527039
 30
0.0
 10
211.06831252176
 20
485.8399280899887
 30
0.0
 10
211.0396872241133
 20
484.8355183448132
 30
0.0
 10
210.8161763871158
 20
483.3285995591594
 30
0.0
 10
210.4799353459535
 20
481.8272032260952
 30
0.0
 10
210.1672087553522
 20
480.8371689846574
 30
0.0
 10
210.0108262980327
 20
480.3420912005498
 30
0.0
  0
LINE
  5
7760
330
1F
100
AcDbEntity
  8
0
  6
Continuous
 62
     7
370
    15
100
AcDbLine
 10
204.1544203544006
 20
480.3420912005499
 30
0.0
 11
210.0108262980327
 21
480.3420912005498
 31
0.0
  0
SPLINE
  5
7761
330
1F
100
AcDbEntity
  8
0
  6
Continuous
 62
     7
370
    15
100
AcDbSpline
210
0.0
220
0.0
230
1.0
 70
     8
 71
     3
 72
    11
 73
     7
 74
     0
 42
0.0000000001
 43
0.0000000001
 40
0.0
 40
0.0
 40
0.0
 40
0.0
 40
0.2477112305464781
 40
0.4953655659633137
 40
0.7477052730565927
 40
0.9999999999999998
 40
0.9999999999999998
 40
0.9999999999999998
 40
0.9999999999999998
 10
204.1544203544006
 20
480.3420912005499
 30
0.0
 10
204.0009913711418
 20
480.8272833216419
 30
0.0
 10
203.6941686446974
 20
481.7975561233049
 30
0.0
 10
203.3567244117827
 20
483.2882600870735
 30
0.0
 10
203.1273599529969
 20
484.8049190633806
 30
0.0
 10
203.0975342118789
 20
485.8297309715013
 30
0.0
 10
203.0826226705656
 20
486.342091252704
 30
0.0
  0
SPLINE
  5
7762
330
1F
100
AcDbEntity
  8
0
  6
Continuous
 62
     7
370
    15
100
AcDbSpline
210
0.0
220
0.0
230
1.0
 70
     8
 71
     3
 72
    11
 73
     7
 74
     0
 42
0.0000000001
 43
0.0000000001
 40
0.0
 40
0.0
 40
0.0
 40
0.0
 40
0.2472747605803637
 40
0.4945905893974018
 40
0.747264371364932
 40
1.0
 40
1.0
 40
1.0
 40
1.0
 10
203.0826226705656
 20
486.342091252704
 30
0.0
 10
203.0969341307227
 20
486.8442543657125
 30
0.0
 10
203.1255594279331
 20
487.8486639926943
 30
0.0
 10
203.349070237832
 20
489.3555833747273
 30
0.0
 10
203.6853112227609
 20
490.8569795355506
 30
0.0
 10
203.9980378877916
 20
491.847013649724
 30
0.0
 10
204.1544203544007
 20
492.3420912817717
 30
0.0
  0
LINE
  5
7763
330
1F
100
AcDbEntity
  8
0
  6
Continuous
 62
     7
370
    15
100
AcDbLine
 10
211.0826239818678
 20
498.342091357012
 30
0.0
 11
211.0826239818678
 21
486.3420912527039
 31
0.0
  0
LINE
  5
7764
330
1F
100
AcDbEntity
  8
0
  6
Continuous
 62
     7
370
    15
100
AcDbLine
 10
203.0826226705656
 20
498.3420913570121
 30
0.0
 11
203.0826226705656
 21
486.342091252704
 31
0.0
  0
SPLINE
  5
7765
330
1F
100
AcDbEntity
  8
0
  6
Continuous
 62
     7
370
    15
100
AcDbSpline
210
0.0
220
0.0
230
1.0
 70
    24
 71
     3
 72
    11
 73
     7
 74
     0
 42
0.0000000001
 43
0.0000000001
 40
0.0
 40
0.0
 40
0.0
 40
0.0
 40
0.2477111234152962
 40
0.4953654990406336
 40
0.7477052651328383
 40
1.0
 40
1.0
 40
1.0
 40
1.0
 10
204.1544203544007
 20
504.3420914091662
 30
0.0
 10
204.000991354242
 20
504.3420914091662
 30
0.0
 10
203.6941685027569
 20
504.3420914091662
 30
0.0
 10
203.3567244198744
 20
504.3420914091662
 30
0.0
 10
203.1273599658648
 20
504.3420914091662
 30
0.0
 10
203.0975342151618
 20
504.3420914091662
 30
0.0
 10
203.0826226705656
 20
504.3420914091662
 30
0.0
  0
LINE
  5
7766
330
1F
100
AcDbEntity
  8
0
  6
Continuous
 62
     7
370
    15
100
AcDbLine
 10
203.0826226705656
 20
504.3420914091662
 30
0.0
 11
203.0826226705656
 21
498.3420913570121
 31
0.0
  0
SPLINE
  5
7767
330
1F
100
AcDbEntity
  8
0
  6
Continuous
 62
     7
370
    15
100
AcDbSpline
210
0.0
220
0.0
230
1.0
 70
    24
 71
     3
 72
    11
 73
     7
 74
     0
 42
0.0000000001
 43
0.0000000001
 40
0.0
 40
0.0
 40
0.0
 40
0.0
 40
0.2472747698523144
 40
0.4945905552384991
 40
0.747264344309941
 40
1.0
 40
1.0
 40
1.0
 40
1.0
 10
211.0826239818678
 20
504.3420914091662
 30
0.0
 10
211.0683125276079
 20
504.3420914091662
 30
0.0
 10
211.0396872452433
 20
504.3420914091662
 30
0.0
 10
210.8161763819108
 20
504.3420914091662
 30
0.0
 10
210.4799354136291
 20
504.3420914091662
 30
0.0
 10
210.1672087634076
 20
504.3420914091662
 30
0.0
 10
210.0108262980328
 20
504.3420914091662
 30
0.0
  0
LINE
  5
7768
330
1F
100
AcDbEntity
  8
0
  6
Continuous
 62
     7
370
    15
100
AcDbLine
 10
211.0826239818678
 20
504.3420914091662
 30
0.0
 11
211.0826239818678
 21
498.342091357012
 31
0.0
  0
SPLINE
  5
7769
330
1F
100
AcDbEntity
  8
0
  6
Continuous
 62
     7
370
    15
100
AcDbSpline
210
0.0
220
0.0
230
1.0
 70
    24
 71
     3
 72
    11
 73
     7
 74
     0
 42
0.0000000001
 43
0.0000000001
 40
0.0
 40
0.0
 40
0.0
 40
0.0
 40
0.2472747698523148
 40
0.4945905552384994
 40
0.7472643443099413
 40
1.0
 40
1.0
 40
1.0
 40
1.0
 10
203.0826226705655
 20
480.3420912005499
 30
0.0
 10
203.0969341248254
 20
480.3420912005499
 30
0.0
 10
203.12555940719
 20
480.3420912005499
 30
0.0
 10
203.3490702705225
 20
480.3420912005499
 30
0.0
 10
203.6853112388042
 20
480.3420912005499
 30
0.0
 10
203.9980378890258
 20
480.3420912005499
 30
0.0
 10
204.1544203544006
 20
480.3420912005499
 30
0.0
  0
LINE
  5
776A
330
1F
100
AcDbEntity
  8
0
  6
Continuous
 62
     7
370
    15
100
AcDbLine
 10
203.0826226705656
 20
486.342091252704
 30
0.0
 11
203.0826226705655
 21
480.3420912005499
 31
0.0
  0
SPLINE
  5
776B
330
1F
100
AcDbEntity
  8
0
  6
Continuous
 62
     7
370
    15
100
AcDbSpline
210
0.0
220
0.0
230
1.0
 70
    24
 71
     3
 72
    11
 73
     7
 74
     0
 42
0.0000000001
 43
0.0000000001
 40
0.0
 40
0.0
 40
0.0
 40
0.0
 40
0.2477111811397808
 40
0.4953654962585065
 40
0.7477052856935753
 40
1.0
 40
1.0
 40
1.0
 40
1.0
 10
210.0108262980327
 20
480.3420912005498
 30
0.0
 10
210.1642563445943
 20
480.3420912005499
 30
0.0
 10
210.4710812154225
 20
480.3420912005499
 30
0.0
 10
210.8085207118441
 20
480.3420912005499
 30
0.0
 10
211.0378898603793
 20
480.3420912005499
 30
0.0
 10
211.0677134960104
 20
480.3420912005499
 30
0.0
 10
211.0826239818677
 20
480.3420912005499
 30
0.0
  0
LINE
  5
776C
330
1F
100
AcDbEntity
  8
0
  6
Continuous
 62
     7
370
    15
100
AcDbLine
 10
211.0826239818678
 20
486.3420912527039
 30
0.0
 11
211.0826239818677
 21
480.3420912005499
 31
0.0
  0
LINE
  5
776D
330
1F
100
AcDbEntity
  8
0
  6
Continuous
 62
     7
370
    15
100
AcDbLine
 10
221.0826237583504
 20
500.8420917667939
 30
0.0
 11
221.0826237583503
 21
483.842090842922
 31
0.0
  0
SPLINE
  5
776E
330
1F
100
AcDbEntity
  8
0
  6
Continuous
 62
     7
370
    15
100
AcDbSpline
210
0.0
220
0.0
230
1.0
 70
    24
 71
     3
 72
     9
 73
     5
 74
     0
 42
0.0000000001
 43
0.0000000001
 40
0.0
 40
0.0
 40
0.0
 40
0.0
 40
0.4973698882472278
 40
1.0
 40
1.0
 40
1.0
 40
1.0
 10
222.8146741995559
 20
500.8420917667939
 30
0.0
 10
222.4960652430861
 20
500.8420917667939
 30
0.0
 10
221.8554776964764
 20
500.8420917667939
 30
0.0
 10
221.3411435752038
 20
500.8420917667939
 30
0.0
 10
221.0826237583504
 20
500.8420917667939
 30
0.0
  0
LINE
  5
776F
330
1F
100
AcDbEntity
  8
0
  6
Continuous
 62
     7
370
    15
100
AcDbLine
 10
222.8146741995559
 20
500.8420917667939
 30
0.0
 11
222.8146741995558
 21
483.8420908429219
 31
0.0
  0
SPLINE
  5
7770
330
1F
100
AcDbEntity
  8
0
  6
Continuous
 62
     7
370
    15
100
AcDbSpline
210
0.0
220
0.0
230
1.0
 70
    24
 71
     3
 72
     9
 73
     5
 74
     0
 42
0.0000000001
 43
0.0000000001
 40
0.0
 40
0.0
 40
0.0
 40
0.0
 40
0.4965449618957037
 40
1.0
 40
1.0
 40
1.0
 40
1.0
 10
221.0826237583503
 20
483.842090842922
 30
0.0
 10
221.3378192397625
 20
483.842090842922
 30
0.0
 10
221.8517615833479
 20
483.8420908429219
 30
0.0
 10
222.4922281033325
 20
483.8420908429219
 30
0.0
 10
222.8146741995558
 20
483.8420908429219
 30
0.0
  0
LINE
  5
7771
330
1F
100
AcDbEntity
  8
0
  6
Continuous
 62
     7
370
    15
100
AcDbLine
 10
226.0826236465917
 20
500.8420917667939
 30
0.0
 11
222.8146741995559
 21
500.8420917667939
 31
0.0
  0
LWPOLYLINE
  5
7772
330
1F
100
AcDbEntity
  8
0
  6
Continuous
 62
     7
370
    15
100
AcDbPolyline
 90
        7
 70
   128
 43
0.0
 10
227.5826234267996
 20
502.3420910813404
 10
227.5399017976568
 20
502.2993694521977
 10
227.4121019886778
 20
502.1715696432186
 10
227.2003155099199
 20
501.9597831644608
 10
226.906352386807
 20
501.6658205070092
 10
226.5327243963227
 20
501.2921925165249
 10
226.0826236465917
 20
500.8420917667939
  0
LWPOLYLINE
  5
7773
330
1F
100
AcDbEntity
  8
0
  6
Continuous
 62
     7
370
    15
100
AcDbPolyline
 90
        7
 70
   128
 43
0.0
 10
226.0826236465916
 20
483.8420908429219
 10
226.5327243963227
 20
483.3919900931908
 10
226.9063523868069
 20
483.0183621027066
 10
227.2003155099198
 20
482.7243994452549
 10
227.4121019886777
 20
482.5126129664971
 10
227.5399017976567
 20
482.384813157518
 10
227.5826234267995
 20
482.3420915283753
  0
LINE
  5
7774
330
1F
100
AcDbEntity
  8
0
  6
Continuous
 62
     7
370
    15
100
AcDbLine
 10
222.8146741995558
 20
483.8420908429219
 30
0.0
 11
226.0826236465916
 21
483.8420908429219
 31
0.0
  0
LINE
  5
7775
330
1F
100
AcDbEntity
  8
0
  6
Continuous
 62
     7
370
    15
100
AcDbLine
 10
193.0826247567282
 20
498.8420914389685
 30
0.0
 11
193.0826247567281
 21
485.8420911707476
 31
0.0
  0
LINE
  5
7776
330
1F
100
AcDbEntity
  8
0
  6
Continuous
 62
     7
370
    15
100
AcDbLine
 10
194.5826240712747
 20
500.3420916848376
 30
0.0
 11
194.5826240712746
 21
484.3420909248784
 31
0.0
  0
LINE
  5
7777
330
1F
100
AcDbEntity
  8
0
  6
Continuous
 62
     7
370
    15
100
AcDbLine
 10
441.0294202281843
 20
533.7279878087829
 30
0.0
 11
441.1592465950857
 21
533.6674481161426
 31
0.0
  0
LINE
  5
7778
330
1F
100
AcDbEntity
  8
0
  6
Continuous
 62
     7
370
    15
100
AcDbLine
 10
441.0294202281843
 20
533.7279878087829
 30
0.0
 11
441.1139452024112
 21
533.9092492588352
 31
0.0
  0
LINE
  5
7779
330
1F
100
AcDbEntity
  8
0
  6
Continuous
 62
     7
370
    15
100
AcDbLine
 10
443.8624327196491
 20
539.8033998437711
 30
0.0
 11
443.9970516725194
 21
540.0920912154504
 31
0.0
  0
LINE
  5
777A
330
1F
100
AcDbEntity
  8
0
  6
Continuous
 62
     7
370
    15
100
AcDbLine
 10
444.3155863447797
 20
540.0920912154504
 30
0.0
 11
443.9970516725194
 21
540.0920912154504
 31
0.0
  0
LINE
  5
777B
330
1F
100
AcDbEntity
  8
0
  6
Continuous
 62
     7
370
    15
100
AcDbLine
 10
443.9970516725191
 20
444.5920913942643
 30
0.0
 11
444.3155863447794
 21
444.5920913942643
 31
0.0
  0
LINE
  5
777C
330
1F
100
AcDbEntity
  8
0
  6
Continuous
 62
     7
370
    15
100
AcDbLine
 10
443.9970516725191
 20
444.5920913942643
 30
0.0
 11
443.8624327196487
 21
444.8807827659436
 31
0.0
  0
LINE
  5
777D
330
1F
100
AcDbEntity
  8
0
  6
Continuous
 62
     7
370
    15
100
AcDbLine
 10
441.113945202411
 20
450.7749333508797
 30
0.0
 11
441.0294202281841
 21
450.956194800932
 31
0.0
  0
LINE
  5
777E
330
1F
100
AcDbEntity
  8
0
  6
Continuous
 62
     7
370
    15
100
AcDbLine
 10
441.1592465950855
 20
451.0167344935723
 30
0.0
 11
441.0294202281841
 21
450.956194800932
 31
0.0
  0
LINE
  5
777F
330
1F
100
AcDbEntity
  8
0
  6
Continuous
 62
     7
370
    15
100
AcDbLine
 10
436.225989939154
 20
448.7163193054983
 30
0.0
 11
436.0961635722526
 21
448.655779612858
 31
0.0
  0
LINE
  5
7780
330
1F
100
AcDbEntity
  8
0
  6
Continuous
 62
     7
370
    15
100
AcDbLine
 10
436.225989939154
 20
448.7163193054983
 30
0.0
 11
436.3105130507358
 21
448.535057855446
 31
0.0
  0
LINE
  5
7781
330
1F
100
AcDbEntity
  8
0
  6
Continuous
 62
     7
370
    15
100
AcDbLine
 10
437.8174581690439
 20
445.3034020491429
 30
0.0
 11
438.1491487039932
 21
444.5920913942643
 31
0.0
  0
LINE
  5
7782
330
1F
100
AcDbEntity
  8
0
  6
Continuous
 62
     7
370
    15
100
AcDbLine
 10
399.4646688117393
 20
444.5920913942646
 30
0.0
 11
400.2495129718193
 21
444.5920913942646
 31
0.0
  0
LINE
  5
7783
330
1F
100
AcDbEntity
  8
0
  6
Continuous
 62
     7
370
    15
100
AcDbLine
 10
437.3643045439132
 20
444.5920913942643
 30
0.0
 11
438.1491487039932
 21
444.5920913942643
 31
0.0
  0
LINE
  5
7784
330
1F
100
AcDbEntity
  8
0
  6
Continuous
 62
     7
370
    15
100
AcDbLine
 10
399.4646688117393
 20
444.5920913942646
 30
0.0
 11
399.7963593466886
 21
445.3034020491432
 31
0.0
  0
LINE
  5
7785
330
1F
100
AcDbEntity
  8
0
  6
Continuous
 62
     7
370
    15
100
AcDbLine
 10
401.3033044649967
 20
448.5350578554462
 30
0.0
 11
401.3878275765785
 21
448.7163193054985
 31
0.0
  0
LINE
  5
7786
330
1F
100
AcDbEntity
  8
0
  6
Continuous
 62
     7
370
    15
100
AcDbLine
 10
401.5176539434799
 20
448.6557796128582
 30
0.0
 11
401.3878275765785
 21
448.7163193054985
 31
0.0
  0
LINE
  5
7787
330
1F
100
AcDbEntity
  8
0
  6
Continuous
 62
     7
370
    15
100
AcDbLine
 10
396.5843972875484
 20
450.9561948009323
 30
0.0
 11
396.454570920647
 21
451.0167344935726
 31
0.0
  0
LINE
  5
7788
330
1F
100
AcDbEntity
  8
0
  6
Continuous
 62
     7
370
    15
100
AcDbLine
 10
396.5843972875484
 20
450.9561948009323
 30
0.0
 11
396.4998723133215
 21
450.77493335088
 31
0.0
  0
LINE
  5
7789
330
1F
100
AcDbEntity
  8
0
  6
Continuous
 62
     7
370
    15
100
AcDbLine
 10
393.7513847960838
 20
444.8807827659439
 30
0.0
 11
393.6167658432134
 21
444.5920913942646
 31
0.0
  0
LINE
  5
778A
330
1F
100
AcDbEntity
  8
0
  6
Continuous
 62
     7
370
    15
100
AcDbLine
 10
393.2982311709531
 20
444.5920913942646
 30
0.0
 11
393.6167658432134
 21
444.5920913942646
 31
0.0
  0
LINE
  5
778B
330
1F
100
AcDbEntity
  8
0
  6
Continuous
 62
     7
370
    15
100
AcDbLine
 10
393.6167658432138
 20
540.0920912154506
 30
0.0
 11
393.2982311709535
 21
540.0920912154506
 31
0.0
  0
LINE
  5
778C
330
1F
100
AcDbEntity
  8
0
  6
Continuous
 62
     7
370
    15
100
AcDbLine
 10
393.6167658432138
 20
540.0920912154506
 30
0.0
 11
393.7513847960841
 21
539.8033998437713
 31
0.0
  0
LINE
  5
778D
330
1F
100
AcDbEntity
  8
0
  6
Continuous
 62
     7
370
    15
100
AcDbLine
 10
396.4998723133217
 20
533.9092492588352
 30
0.0
 11
396.5843972875487
 21
533.7279878087829
 31
0.0
  0
LINE
  5
778E
330
1F
100
AcDbEntity
  8
0
  6
Continuous
 62
     7
370
    15
100
AcDbLine
 10
396.4545709206473
 20
533.6674481161426
 30
0.0
 11
396.5843972875487
 21
533.7279878087829
 31
0.0
  0
LINE
  5
778F
330
1F
100
AcDbEntity
  8
0
  6
Continuous
 62
     7
370
    15
100
AcDbLine
 10
401.3878275765787
 20
535.9678633042167
 30
0.0
 11
401.5176539434801
 21
536.028402996857
 31
0.0
  0
LINE
  5
7790
330
1F
100
AcDbEntity
  8
0
  6
Continuous
 62
     7
370
    15
100
AcDbLine
 10
401.3878275765787
 20
535.9678633042167
 30
0.0
 11
401.3033044649969
 21
536.149124754269
 31
0.0
  0
LINE
  5
7791
330
1F
100
AcDbEntity
  8
0
  6
Continuous
 62
     7
370
    15
100
AcDbLine
 10
399.796359346689
 20
539.380780560572
 30
0.0
 11
399.4646688117397
 21
540.0920912154506
 31
0.0
  0
LINE
  5
7792
330
1F
100
AcDbEntity
  8
0
  6
Continuous
 62
     7
370
    15
100
AcDbLine
 10
438.1491487039935
 20
540.0920912154506
 30
0.0
 11
437.3643045439136
 21
540.0920912154506
 31
0.0
  0
LINE
  5
7793
330
1F
100
AcDbEntity
  8
0
  6
Continuous
 62
     7
370
    15
100
AcDbLine
 10
400.2495129718196
 20
540.0920912154506
 30
0.0
 11
399.4646688117397
 21
540.0920912154506
 31
0.0
  0
LINE
  5
7794
330
1F
100
AcDbEntity
  8
0
  6
Continuous
 62
     7
370
    15
100
AcDbLine
 10
438.1491487039935
 20
540.0920912154506
 30
0.0
 11
437.8174581690442
 21
539.380780560572
 31
0.0
  0
LINE
  5
7795
330
1F
100
AcDbEntity
  8
0
  6
Continuous
 62
     7
370
    15
100
AcDbLine
 10
436.310513050736
 20
536.149124754269
 30
0.0
 11
436.2259899391542
 21
535.9678633042167
 31
0.0
  0
LINE
  5
7796
330
1F
100
AcDbEntity
  8
0
  6
Continuous
 62
     7
370
    15
100
AcDbLine
 10
436.0961635722528
 20
536.028402996857
 30
0.0
 11
436.2259899391542
 21
535.9678633042167
 31
0.0
  0
CIRCLE
  5
7797
330
1F
100
AcDbEntity
  8
0
  6
Continuous
 62
     7
370
    15
100
AcDbCircle
 10
378.8069087578667
 20
514.8420913048578
 30
0.0
 40
7.299999999999997
  0
CIRCLE
  5
7798
330
1F
100
AcDbEntity
  8
0
  6
Continuous
 62
     7
370
    15
100
AcDbCircle
 10
378.8069087578666
 20
469.8420913048578
 30
0.0
 40
7.300000000000011
  0
CIRCLE
  5
7799
330
1F
100
AcDbEntity
  8
0
  6
Continuous
 62
     7
370
    15
100
AcDbCircle
 10
458.8069087578666
 20
469.8420913048575
 30
0.0
 40
7.299999999999982
  0
CIRCLE
  5
779A
330
1F
100
AcDbEntity
  8
0
  6
Continuous
 62
     7
370
    15
100
AcDbCircle
 10
458.8069087578666
 20
514.8420913048576
 30
0.0
 40
7.299999999999982
  0
CIRCLE
  5
779B
330
1F
100
AcDbEntity
  8
0
  6
Continuous
 62
     7
370
    15
100
AcDbCircle
 10
382.8069087578668
 20
528.3420913048578
 30
0.0
 40
5.68499999997266
  0
CIRCLE
  5
779C
330
1F
100
AcDbEntity
  8
0
  6
Continuous
 62
     7
370
    15
100
AcDbCircle
 10
382.8069087578666
 20
456.3420913048578
 30
0.0
 40
5.68499999997266
  0
CIRCLE
  5
779D
330
1F
100
AcDbEntity
  8
0
  6
Continuous
 62
     7
370
    15
100
AcDbCircle
 10
454.8069087578666
 20
456.3420913048576
 30
0.0
 40
5.685000000026775
  0
CIRCLE
  5
779E
330
1F
100
AcDbEntity
  8
0
  6
Continuous
 62
     7
370
    15
100
AcDbCircle
 10
454.8069087578668
 20
528.3420913048575
 30
0.0
 40
5.684999999969932
  0
LINE
  5
779F
330
1F
100
AcDbEntity
  8
0
  6
Continuous
 62
     7
370
    15
100
AcDbLine
 10
443.8624327196491
 20
444.8807827659439
 30
0.0
 11
441.1139452024114
 21
450.77493335088
 31
0.0
  0
ARC
  5
77A0
330
1F
100
AcDbEntity
  8
0
  6
Continuous
 62
     7
370
    15
100
AcDbCircle
 10
441.295206078908
 20
450.8594565813923
 30
0.0
 40
0.2000000000000833
100
AcDbArc
 50
115.0000000000066
 51
204.9999999999746
  0
LINE
  5
77A1
330
1F
100
AcDbEntity
  8
0
  6
Continuous
 62
     7
370
    15
100
AcDbLine
 10
441.2106816782367
 20
451.0407179125141
 30
0.0
 11
441.391943128289
 21
451.1252410240959
 31
0.0
  0
ARC
  5
77A2
330
1F
100
AcDbEntity
  8
0
  6
Continuous
 62
     7
370
    15
100
AcDbCircle
 10
441.307420331619
 20
451.3065033485551
 30
0.0
 40
0.2000000000000001
100
AcDbArc
 50
294.9999999999964
 51
25.00000000001391
  0
LINE
  5
77A3
330
1F
100
AcDbEntity
  8
0
  6
Continuous
 62
     7
370
    15
100
AcDbLine
 10
441.4886814667594
 20
451.3910255857299
 30
0.0
 11
440.2208273424518
 21
454.1099510618042
 31
0.0
  0
ARC
  5
77A4
330
1F
100
AcDbEntity
  8
0
  6
Continuous
 62
     7
370
    15
100
AcDbCircle
 10
440.0395655463969
 20
454.0254267096651
 30
0.0
 40
0.2000000000000456
100
AcDbArc
 50
25.00000000000663
 51
115.0000000000036
  0
LINE
  5
77A5
330
1F
100
AcDbEntity
  8
0
  6
Continuous
 62
     7
370
    15
100
AcDbLine
 10
439.9550427808177
 20
454.2066894002746
 30
0.0
 11
434.4265648289335
 21
451.6287177332233
 31
0.0
  0
ARC
  5
77A6
330
1F
100
AcDbEntity
  8
0
  6
Continuous
 62
     7
370
    15
100
AcDbCircle
 10
434.5110880454733
 20
451.4474553130468
 30
0.0
 40
0.1999999999999829
100
AcDbArc
 50
114.999999999992
 51
205.000000000003
  0
LINE
  5
77A7
330
1F
100
AcDbEntity
  8
0
  6
Continuous
 62
     7
370
    15
100
AcDbLine
 10
434.329826490463
 20
451.3629331715892
 30
0.0
 11
435.5976806147706
 21
448.644007695515
 31
0.0
  0
ARC
  5
77A8
330
1F
100
AcDbEntity
  8
0
  6
Continuous
 62
     7
370
    15
100
AcDbCircle
 10
435.7789428306952
 20
448.7285319519369
 30
0.0
 40
0.2000000000000567
100
AcDbArc
 50
205.0
 51
295.0000000000197
  0
LINE
  5
77A9
330
1F
100
AcDbEntity
  8
0
  6
Continuous
 62
     7
370
    15
100
AcDbLine
 10
435.8634670390499
 20
448.5472693570446
 30
0.0
 11
436.0447284891021
 21
448.6317924686264
 31
0.0
  0
ARC
  5
77AA
330
1F
100
AcDbEntity
  8
0
  6
Continuous
 62
     7
370
    15
100
AcDbCircle
 10
436.1292516927989
 20
448.4505324894704
 30
0.0
 40
0.1999999999999958
100
AcDbArc
 50
24.99999999999276
 51
114.9999999999964
  0
LINE
  5
77AB
330
1F
100
AcDbEntity
  8
0
  6
Continuous
 62
     7
370
    15
100
AcDbLine
 10
436.3105130507362
 20
448.5350578554462
 30
0.0
 11
437.8174581690442
 21
445.3034020491432
 31
0.0
  0
ARC
  5
77AC
330
1F
100
AcDbEntity
  8
0
  6
Continuous
 62
     7
370
    15
100
AcDbCircle
 10
437.3643051609583
 20
445.0920913048576
 30
0.0
 40
0.5000000000000523
100
AcDbArc
 50
270.0
 51
24.9999999999964
  0
LINE
  5
77AD
330
1F
100
AcDbEntity
  8
0
  6
Continuous
 62
     7
370
    15
100
AcDbLine
 10
437.3643045439134
 20
444.5920913942646
 30
0.0
 11
400.2495129718194
 21
444.5920913942647
 31
0.0
  0
ARC
  5
77AE
330
1F
100
AcDbEntity
  8
0
  6
Continuous
 62
     7
370
    15
100
AcDbCircle
 10
400.2495123547747
 20
445.0920913048577
 30
0.0
 40
0.5000000000000265
100
AcDbArc
 50
155.0000000000036
 51
270.0
  0
LINE
  5
77AF
330
1F
100
AcDbEntity
  8
0
  6
Continuous
 62
     7
370
    15
100
AcDbLine
 10
399.7963593466889
 20
445.3034020491434
 30
0.0
 11
401.303304464997
 21
448.5350578554464
 31
0.0
  0
ARC
  5
77B0
330
1F
100
AcDbEntity
  8
0
  6
Continuous
 62
     7
370
    15
100
AcDbCircle
 10
401.484565822934
 20
448.4505324894705
 30
0.0
 40
0.1999999999999572
100
AcDbArc
 50
65.00000000000793
 51
155.0000000000036
  0
LINE
  5
77B1
330
1F
100
AcDbEntity
  8
0
  6
Continuous
 62
     7
370
    15
100
AcDbLine
 10
401.5690890266311
 20
448.6317924686265
 30
0.0
 11
401.7503504766834
 21
448.5472693570447
 31
0.0
  0
ARC
  5
77B2
330
1F
100
AcDbEntity
  8
0
  6
Continuous
 62
     7
370
    15
100
AcDbCircle
 10
401.8348746850377
 20
448.728531951937
 30
0.0
 40
0.2000000000000576
100
AcDbArc
 50
244.999999999989
 51
335.0000000000073
  0
LINE
  5
77B3
330
1F
100
AcDbEntity
  8
0
  6
Continuous
 62
     7
370
    15
100
AcDbLine
 10
402.0161369009626
 20
448.6440076955152
 30
0.0
 11
403.2839910252702
 21
451.3629331715893
 31
0.0
  0
ARC
  5
77B4
330
1F
100
AcDbEntity
  8
0
  6
Continuous
 62
     7
370
    15
100
AcDbCircle
 10
403.1027294702597
 20
451.4474553130469
 30
0.0
 40
0.2000000000000319
100
AcDbArc
 50
335.0000000000036
 51
64.99999999998758
  0
LINE
  5
77B5
330
1F
100
AcDbEntity
  8
0
  6
Continuous
 62
     7
370
    15
100
AcDbLine
 10
403.1872526867998
 20
451.6287177332234
 30
0.0
 11
397.6587747349155
 21
454.2066894002748
 31
0.0
  0
ARC
  5
77B6
330
1F
100
AcDbEntity
  8
0
  6
Continuous
 62
     7
370
    15
100
AcDbCircle
 10
397.5742519693362
 20
454.0254267096652
 30
0.0
 40
0.2000000000000833
100
AcDbArc
 50
64.99999999999338
 51
154.999999999997
  0
LINE
  5
77B7
330
1F
100
AcDbEntity
  8
0
  6
Continuous
 62
     7
370
    15
100
AcDbLine
 10
397.3929901732814
 20
454.1099510618043
 30
0.0
 11
396.1251360489738
 21
451.3910255857301
 31
0.0
  0
ARC
  5
77B8
330
1F
100
AcDbEntity
  8
0
  6
Continuous
 62
     7
370
    15
100
AcDbCircle
 10
396.3063971841142
 20
451.3065033485552
 30
0.0
 40
0.2000000000000198
100
AcDbArc
 50
154.9999999999933
 51
244.9999999999875
  0
LINE
  5
77B9
330
1F
100
AcDbEntity
  8
0
  6
Continuous
 62
     7
370
    15
100
AcDbLine
 10
396.2218743874442
 20
451.1252410240961
 30
0.0
 11
396.4031358374965
 21
451.0407179125142
 31
0.0
  0
ARC
  5
77BA
330
1F
100
AcDbEntity
  8
0
  6
Continuous
 62
     7
370
    15
100
AcDbCircle
 10
396.3186114368252
 20
450.8594565813923
 30
0.0
 40
0.2000000000000585
100
AcDbArc
 50
335.0000000000108
 51
65.00000000000065
  0
LINE
  5
77BB
330
1F
100
AcDbEntity
  8
0
  6
Continuous
 62
     7
370
    15
100
AcDbLine
 10
396.4998723133218
 20
450.7749333508802
 30
0.0
 11
393.7513847960841
 21
444.880782765944
 31
0.0
  0
ARC
  5
77BC
330
1F
100
AcDbEntity
  8
0
  6
Continuous
 62
     7
370
    15
100
AcDbCircle
 10
393.298231465311
 20
445.0920913048578
 30
0.0
 40
0.5000000000000633
100
AcDbArc
 50
270.0
 51
335.0
  0
LINE
  5
77BD
330
1F
100
AcDbEntity
  8
0
  6
Continuous
 62
     7
370
    15
100
AcDbLine
 10
393.2982311709534
 20
444.5920913942647
 30
0.0
 11
381.0569104864012
 21
444.5920913942647
 31
0.0
  0
ARC
  5
77BE
330
1F
100
AcDbEntity
  8
0
  6
Continuous
 62
     7
370
    15
100
AcDbCircle
 10
381.0569087578666
 20
454.5920913048578
 30
0.0
 40
10.00000000000001
100
AcDbArc
 50
180.0
 51
270.0
  0
LINE
  5
77BF
330
1F
100
AcDbEntity
  8
0
  6
Continuous
 62
     7
370
    15
100
AcDbLine
 10
371.0569088472736
 20
454.5920930333925
 30
0.0
 11
371.0569088472738
 21
530.0920895763231
 31
0.0
  0
ARC
  5
77C0
330
1F
100
AcDbEntity
  8
0
  6
Continuous
 62
     7
370
    15
100
AcDbCircle
 10
381.0569087578668
 20
530.0920913048578
 30
0.0
 40
10.00000000000001
100
AcDbArc
 50
90.0
 51
180.0
  0
LINE
  5
77C1
330
1F
100
AcDbEntity
  8
0
  6
Continuous
 62
     7
370
    15
100
AcDbLine
 10
381.0569104864015
 20
540.0920912154508
 30
0.0
 11
393.2982311709537
 21
540.0920912154508
 31
0.0
  0
ARC
  5
77C2
330
1F
100
AcDbEntity
  8
0
  6
Continuous
 62
     7
370
    15
100
AcDbCircle
 10
393.2982314653112
 20
539.5920913048578
 30
0.0
 40
0.500000000000108
100
AcDbArc
 50
25.00000000000299
 51
90.0
  0
LINE
  5
77C3
330
1F
100
AcDbEntity
  8
0
  6
Continuous
 62
     7
370
    15
100
AcDbLine
 10
393.7513847960844
 20
539.8033998437715
 30
0.0
 11
396.499872313322
 21
533.9092492588354
 31
0.0
  0
ARC
  5
77C4
330
1F
100
AcDbEntity
  8
0
  6
Continuous
 62
     7
370
    15
100
AcDbCircle
 10
396.3186114368255
 20
533.8247260283231
 30
0.0
 40
0.2000000000000654
100
AcDbArc
 50
294.9999999999964
 51
24.99999999997092
  0
LINE
  5
77C5
330
1F
100
AcDbEntity
  8
0
  6
Continuous
 62
     7
370
    15
100
AcDbLine
 10
396.4031358374967
 20
533.6434646972013
 30
0.0
 11
396.2218743874445
 21
533.5589415856195
 31
0.0
  0
ARC
  5
77C6
330
1F
100
AcDbEntity
  8
0
  6
Continuous
 62
     7
370
    15
100
AcDbCircle
 10
396.3063971841144
 20
533.3776792611602
 30
0.0
 40
0.2000000000000319
100
AcDbArc
 50
115.0000000000124
 51
205.0000000000139
  0
LINE
  5
77C7
330
1F
100
AcDbEntity
  8
0
  6
Continuous
 62
     7
370
    15
100
AcDbLine
 10
396.125136048974
 20
533.2931570239854
 30
0.0
 11
397.3929901732816
 21
530.5742315479112
 31
0.0
  0
ARC
  5
77C8
330
1F
100
AcDbEntity
  8
0
  6
Continuous
 62
     7
370
    15
100
AcDbCircle
 10
397.5742519693365
 20
530.6587559000502
 30
0.0
 40
0.2000000000000198
100
AcDbArc
 50
204.9999999999964
 51
295.0000000000066
  0
LINE
  5
77C9
330
1F
100
AcDbEntity
  8
0
  6
Continuous
 62
     7
370
    15
100
AcDbLine
 10
397.6587747349157
 20
530.4774932094407
 30
0.0
 11
403.1872526867999
 21
533.0554648764921
 31
0.0
  0
ARC
  5
77CA
330
1F
100
AcDbEntity
  8
0
  6
Continuous
 62
     7
370
    15
100
AcDbCircle
 10
403.10272947026
 20
533.2367272966685
 30
0.0
 40
0.2000000000000198
100
AcDbArc
 50
295.0000000000066
 51
24.99999999999276
  0
LINE
  5
77CB
330
1F
100
AcDbEntity
  8
0
  6
Continuous
 62
     7
370
    15
100
AcDbLine
 10
403.2839910252704
 20
533.3212494381261
 30
0.0
 11
402.0161369009628
 21
536.0401749142003
 31
0.0
  0
ARC
  5
77CC
330
1F
100
AcDbEntity
  8
0
  6
Continuous
 62
     7
370
    15
100
AcDbCircle
 10
401.834874685038
 20
535.9556506577785
 30
0.0
 40
0.2000000000000576
100
AcDbArc
 50
25.00000000000003
 51
115.0000000000109
  0
LINE
  5
77CD
330
1F
100
AcDbEntity
  8
0
  6
Continuous
 62
     7
370
    15
100
AcDbLine
 10
401.7503504766835
 20
536.1369132526708
 30
0.0
 11
401.5690890266313
 21
536.052390141089
 31
0.0
  0
ARC
  5
77CE
330
1F
100
AcDbEntity
  8
0
  6
Continuous
 62
     7
370
    15
100
AcDbCircle
 10
401.4845658229343
 20
536.2336501202448
 30
0.0
 40
0.1999999999999701
100
AcDbArc
 50
204.9999999999964
 51
294.9999999999964
  0
LINE
  5
77CF
330
1F
100
AcDbEntity
  8
0
  6
Continuous
 62
     7
370
    15
100
AcDbLine
 10
401.3033044649972
 20
536.1491247542692
 30
0.0
 11
399.7963593466892
 21
539.3807805605722
 31
0.0
  0
ARC
  5
77D0
330
1F
100
AcDbEntity
  8
0
  6
Continuous
 62
     7
370
    15
100
AcDbCircle
 10
400.2495123547751
 20
539.5920913048578
 30
0.0
 40
0.5000000000000333
100
AcDbArc
 50
90.0
 51
204.9999999999964
  0
LINE
  5
77D1
330
1F
100
AcDbEntity
  8
0
  6
Continuous
 62
     7
370
    15
100
AcDbLine
 10
400.2495129718198
 20
540.0920912154508
 30
0.0
 11
437.3643045439138
 21
540.0920912154506
 31
0.0
  0
ARC
  5
77D2
330
1F
100
AcDbEntity
  8
0
  6
Continuous
 62
     7
370
    15
100
AcDbCircle
 10
437.3643051609587
 20
539.5920913048576
 30
0.0
 40
0.5000000000000462
100
AcDbArc
 50
335.0000000000073
 51
90.0
  0
LINE
  5
77D3
330
1F
100
AcDbEntity
  8
0
  6
Continuous
 62
     7
370
    15
100
AcDbLine
 10
437.8174581690444
 20
539.380780560572
 30
0.0
 11
436.3105130507364
 21
536.149124754269
 31
0.0
  0
ARC
  5
77D4
330
1F
100
AcDbEntity
  8
0
  6
Continuous
 62
     7
370
    15
100
AcDbCircle
 10
436.1292516927993
 20
536.2336501202448
 30
0.0
 40
0.1999999999999563
100
AcDbArc
 50
244.9999999999948
 51
335.0000000000036
  0
LINE
  5
77D5
330
1F
100
AcDbEntity
  8
0
  6
Continuous
 62
     7
370
    15
100
AcDbLine
 10
436.0447284891023
 20
536.0523901410888
 30
0.0
 11
435.86346703905
 21
536.1369132526706
 31
0.0
  0
ARC
  5
77D6
330
1F
100
AcDbEntity
  8
0
  6
Continuous
 62
     7
370
    15
100
AcDbCircle
 10
435.7789428306956
 20
535.9556506577782
 30
0.0
 40
0.2000000000000576
100
AcDbArc
 50
64.99999999998904
 51
155.0000000000072
  0
LINE
  5
77D7
330
1F
100
AcDbEntity
  8
0
  6
Continuous
 62
     7
370
    15
100
AcDbLine
 10
435.5976806147708
 20
536.0401749142002
 30
0.0
 11
434.3298264904632
 21
533.3212494381259
 31
0.0
  0
ARC
  5
77D8
330
1F
100
AcDbEntity
  8
0
  6
Continuous
 62
     7
370
    15
100
AcDbCircle
 10
434.5110880454735
 20
533.2367272966685
 30
0.0
 40
0.2000000000000198
100
AcDbArc
 50
154.999999999997
 51
244.9999999999948
  0
LINE
  5
77D9
330
1F
100
AcDbEntity
  8
0
  6
Continuous
 62
     7
370
    15
100
AcDbLine
 10
434.4265643931254
 20
533.055465739261
 30
0.0
 11
439.9550427808179
 21
530.4774932094406
 31
0.0
  0
ARC
  5
77DA
330
1F
100
AcDbEntity
  8
0
  6
Continuous
 62
     7
370
    15
100
AcDbCircle
 10
440.0395655463971
 20
530.6587559000502
 30
0.0
 40
0.2000000000000713
100
AcDbArc
 50
245.0000000000021
 51
335.0
  0
LINE
  5
77DB
330
1F
100
AcDbEntity
  8
0
  6
Continuous
 62
     7
370
    15
100
AcDbLine
 10
440.220827342452
 20
530.574231547911
 30
0.0
 11
441.4886814667596
 21
533.2931570239852
 31
0.0
  0
ARC
  5
77DC
330
1F
100
AcDbEntity
  8
0
  6
Continuous
 62
     7
370
    15
100
AcDbCircle
 10
441.3074203316192
 20
533.3776792611602
 30
0.0
 40
0.2000000000000198
100
AcDbArc
 50
334.9999999999933
 51
64.99999999999632
  0
LINE
  5
77DD
330
1F
100
AcDbEntity
  8
0
  6
Continuous
 62
     7
370
    15
100
AcDbLine
 10
441.3919431282891
 20
533.5589415856193
 30
0.0
 11
441.2106816782369
 21
533.6434646972011
 31
0.0
  0
ARC
  5
77DE
330
1F
100
AcDbEntity
  8
0
  6
Continuous
 62
     7
370
    15
100
AcDbCircle
 10
441.2952060789081
 20
533.8247260283228
 30
0.0
 40
0.2000000000000833
100
AcDbArc
 50
155.0000000000181
 51
244.9999999999948
  0
LINE
  5
77DF
330
1F
100
AcDbEntity
  8
0
  6
Continuous
 62
     7
370
    15
100
AcDbLine
 10
441.1139452024116
 20
533.9092492588352
 30
0.0
 11
443.8624327196492
 21
539.8033998437713
 31
0.0
  0
ARC
  5
77E0
330
1F
100
AcDbEntity
  8
0
  6
Continuous
 62
     7
370
    15
100
AcDbCircle
 10
444.3155860504223
 20
539.5920913048576
 30
0.0
 40
0.5
100
AcDbArc
 50
90.0
 51
154.999999999997
  0
LINE
  5
77E1
330
1F
100
AcDbEntity
  8
0
  6
Continuous
 62
     7
370
    15
100
AcDbLine
 10
444.3155863447799
 20
540.0920912154506
 30
0.0
 11
456.5569070293321
 21
540.0920912154506
 31
0.0
  0
ARC
  5
77E2
330
1F
100
AcDbEntity
  8
0
  6
Continuous
 62
     7
370
    15
100
AcDbCircle
 10
456.5569087578668
 20
530.0920913048575
 30
0.0
 40
10.00000000000003
100
AcDbArc
 50
0.0
 51
90.0
  0
LINE
  5
77E3
330
1F
100
AcDbEntity
  8
0
  6
Continuous
 62
     7
370
    15
100
AcDbLine
 10
466.5569086684598
 20
530.0920895763229
 30
0.0
 11
466.5569086684596
 21
454.5920930333923
 31
0.0
  0
ARC
  5
77E4
330
1F
100
AcDbEntity
  8
0
  6
Continuous
 62
     7
370
    15
100
AcDbCircle
 10
456.5569087578666
 20
454.5920913048576
 30
0.0
 40
10.00000000000003
100
AcDbArc
 50
270.0
 51
0.0
  0
LINE
  5
77E5
330
1F
100
AcDbEntity
  8
0
  6
Continuous
 62
     7
370
    15
100
AcDbLine
 10
456.5569070293319
 20
444.5920913942646
 30
0.0
 11
444.3155863447797
 21
444.5920913942646
 31
0.0
  0
ARC
  5
77E6
330
1F
100
AcDbEntity
  8
0
  6
Continuous
 62
     7
370
    15
100
AcDbCircle
 10
444.315586050422
 20
445.0920913048576
 30
0.0
 40
0.5000000000000187
100
AcDbArc
 50
205.000000000003
 51
270.0
  0
CIRCLE
  5
77E7
330
1F
100
AcDbEntity
  8
0
  6
Continuous
 62
     7
370
    15
100
AcDbCircle
 10
382.8069087578666
 20
456.3420913048578
 30
0.0
 40
4.184999999951287
  0
CIRCLE
  5
77E8
330
1F
100
AcDbEntity
  8
0
  6
Continuous
 62
     7
370
    15
100
AcDbCircle
 10
382.8069087578668
 20
528.3420913048578
 30
0.0
 40
4.184999999951273
  0
CIRCLE
  5
77E9
330
1F
100
AcDbEntity
  8
0
  6
Continuous
 62
     7
370
    15
100
AcDbCircle
 10
454.8069087578668
 20
528.3420913048575
 30
0.0
 40
4.184999999948558
  0
CIRCLE
  5
77EA
330
1F
100
AcDbEntity
  8
0
  6
Continuous
 62
     7
370
    15
100
AcDbCircle
 10
454.8069087578666
 20
456.3420913048576
 30
0.0
 40
4.185000000062217
  0
ARC
  5
77EB
330
1F
100
AcDbEntity
  8
0
  6
Continuous
 62
     7
370
    15
100
AcDbCircle
 10
418.8069087578669
 20
492.3420913048578
 30
0.0
 40
12.00000000000001
100
AcDbArc
 50
150.0000000000002
 51
209.9999999999997
  0
SPLINE
  5
77EC
330
1F
100
AcDbEntity
  8
0
  6
Continuous
 62
     7
370
    15
100
AcDbSpline
210
0.0
220
0.0
230
1.0
 70
     8
 71
     3
 72
    11
 73
     7
 74
     0
 42
0.0000000001
 43
0.0000000001
 40
0.0
 40
0.0
 40
0.0
 40
0.0
 40
0.2472747621111385
 40
0.4945905924592057
 40
0.747264375990934
 40
1.0
 40
1.0
 40
1.0
 40
1.0
 10
408.4146042479887
 20
498.3420913570118
 30
0.0
 10
408.1246801326256
 20
497.8399282439129
 30
0.0
 10
407.5447837503122
 20
496.8355186167505
 30
0.0
 10
406.6747631097918
 20
495.328599236082
 30
0.0
 10
405.8079319107306
 20
493.8272030823123
 30
0.0
 10
405.2363355727218
 20
492.8371689932947
 30
0.0
 10
404.9505024342551
 20
492.342091379889
 30
0.0
  0
SPLINE
  5
77ED
330
1F
100
AcDbEntity
  8
0
  6
Continuous
 62
     7
370
    15
100
AcDbSpline
210
0.0
220
0.0
230
1.0
 70
     8
 71
     3
 72
    11
 73
     7
 74
     0
 42
0.0000000001
 43
0.0000000001
 40
0.0
 40
0.0
 40
0.0
 40
0.0
 40
0.2477111380623034
 40
0.4953654916473211
 40
0.7477052170479444
 40
0.9999999999999998
 40
0.9999999999999998
 40
0.9999999999999998
 40
0.9999999999999998
 10
404.9505024342551
 20
492.3420913468062
 30
0.0
 10
405.2306280864909
 20
491.856899363795
 30
0.0
 10
405.7908151758895
 20
490.886626621569
 30
0.0
 10
406.6514738672424
 20
489.3959226810123
 30
0.0
 10
407.5271167007336
 20
487.8792632423476
 30
0.0
 10
408.1187926303389
 20
486.8544514928771
 30
0.0
 10
408.4146042479887
 20
486.3420912527037
 30
0.0
  0
ARC
  5
77EE
330
1F
100
AcDbEntity
  8
0
  6
Continuous
 62
     7
370
    15
100
AcDbCircle
 10
418.8069087578669
 20
492.3420913048578
 30
0.0
 40
12.00000000000001
100
AcDbArc
 50
270.0
 51
330.0000000000003
  0
ARC
  5
77EF
330
1F
100
AcDbEntity
  8
0
  6
Continuous
 62
     7
370
    15
100
AcDbCircle
 10
418.8069087578669
 20
492.3420913048578
 30
0.0
 40
12.00000000000001
100
AcDbArc
 50
209.9999999999997
 51
270.0
  0
ARC
  5
77F0
330
1F
100
AcDbEntity
  8
0
  6
Continuous
 62
     7
370
    15
100
AcDbCircle
 10
418.8069087578669
 20
492.3420913048578
 30
0.0
 40
12.00000000000001
100
AcDbArc
 50
90.0
 51
150.0000000000002
  0
ARC
  5
77F1
330
1F
100
AcDbEntity
  8
0
  6
Continuous
 62
     7
370
    15
100
AcDbCircle
 10
418.8069087578669
 20
492.3420913048578
 30
0.0
 40
12.00000000000001
100
AcDbArc
 50
29.99999999999973
 51
90.0
  0
ARC
  5
77F2
330
1F
100
AcDbEntity
  8
0
  6
Continuous
 62
     7
370
    15
100
AcDbCircle
 10
418.8069087578669
 20
492.3420913048578
 30
0.0
 40
12.00000000000001
100
AcDbArc
 50
330.0000000000003
 51
29.99999999999973
  0
SPLINE
  5
77F3
330
1F
100
AcDbEntity
  8
0
  6
Continuous
 62
     7
370
    15
100
AcDbSpline
210
0.0
220
0.0
230
1.0
 70
    24
 71
     3
 72
    11
 73
     7
 74
     0
 42
0.0000000001
 43
0.0000000001
 40
0.0
 40
0.0
 40
0.0
 40
0.0
 40
0.2477111234152963
 40
0.4953654990406337
 40
0.7477052651328386
 40
1.0
 40
1.0
 40
1.0
 40
1.0
 10
411.8787055960609
 20
480.3420912005496
 30
0.0
 10
412.4389569476094
 20
480.3420912005496
 30
0.0
 10
413.5593313035188
 20
480.3420912005496
 30
0.0
 10
415.2806481905385
 20
480.3420912005496
 30
0.0
 10
417.0319351855535
 20
480.3420912005496
 30
0.0
 10
418.2152860993312
 20
480.3420912005496
 30
0.0
 10
418.8069087578668
 20
480.3420912005496
 30
0.0
  0
SPLINE
  5
77F4
330
1F
100
AcDbEntity
  8
0
  6
Continuous
 62
     7
370
    15
100
AcDbSpline
210
0.0
220
0.0
230
1.0
 70
     8
 71
     3
 72
    11
 73
     7
 74
     0
 42
0.0000000001
 43
0.0000000001
 40
0.0
 40
0.0
 40
0.0
 40
0.0
 40
0.2472747025336597
 40
0.4945904825382267
 40
0.7472642727907148
 40
1.0
 40
1.0
 40
1.0
 40
1.0
 10
408.4146042479887
 20
486.3420912527037
 30
0.0
 10
408.7045279672724
 20
485.8399280899886
 30
0.0
 10
409.2844235681995
 20
484.8355183448129
 30
0.0
 10
410.1544446540467
 20
483.3285995591591
 30
0.0
 10
411.0212756964292
 20
481.8272032260949
 30
0.0
 10
411.5928722801659
 20
480.8371689846572
 30
0.0
 10
411.8787055960609
 20
480.3420912005496
 30
0.0
  0
SPLINE
  5
77F5
330
1F
100
AcDbEntity
  8
0
  6
Continuous
 62
     7
370
    15
100
AcDbSpline
210
0.0
220
0.0
230
1.0
 70
    24
 71
     3
 72
    11
 73
     7
 74
     0
 42
0.0000000001
 43
0.0000000001
 40
0.0
 40
0.0
 40
0.0
 40
0.0
 40
0.2472747533400551
 40
0.4945905551845389
 40
0.7472643442829577
 40
1.0
 40
1.0
 40
1.0
 40
1.0
 10
418.8069087578669
 20
504.3420914091659
 30
0.0
 10
418.2270607202307
 20
504.3420914091659
 30
0.0
 10
417.0672683880843
 20
504.3420914091659
 30
0.0
 10
415.3272277191491
 20
504.3420914091659
 30
0.0
 10
413.5935649297594
 20
504.3420914091659
 30
0.0
 10
412.4503720196259
 20
504.3420914091659
 30
0.0
 10
411.878705596061
 20
504.3420914091659
 30
0.0
  0
SPLINE
  5
77F6
330
1F
100
AcDbEntity
  8
0
  6
Continuous
 62
     7
370
    15
100
AcDbSpline
210
0.0
220
0.0
230
1.0
 70
     8
 71
     3
 72
    11
 73
     7
 74
     0
 42
0.0000000001
 43
0.0000000001
 40
0.0
 40
0.0
 40
0.0
 40
0.0
 40
0.2477111984016005
 40
0.4953655661857322
 40
0.7477052731677921
 40
1.0
 40
1.0
 40
1.0
 40
1.0
 10
411.878705596061
 20
504.3420914091659
 30
0.0
 10
411.5985800033288
 20
503.85689924895
 30
0.0
 10
411.0383930850856
 20
502.8866262427029
 30
0.0
 10
410.1777336422683
 20
501.3959226722449
 30
0.0
 10
409.3020907311747
 20
499.8792635251435
 30
0.0
 10
408.7104154962321
 20
498.8544516311511
 30
0.0
 10
408.4146042479887
 20
498.3420913570118
 30
0.0
  0
SPLINE
  5
77F7
330
1F
100
AcDbEntity
  8
0
  6
Continuous
 62
     7
370
    15
100
AcDbSpline
210
0.0
220
0.0
230
1.0
 70
     8
 71
     3
 72
    11
 73
     7
 74
     0
 42
0.0000000001
 43
0.0000000001
 40
0.0
 40
0.0
 40
0.0
 40
0.0
 40
0.2477112305464781
 40
0.4953655659633137
 40
0.7477052730565927
 40
0.9999999999999998
 40
0.9999999999999998
 40
0.9999999999999998
 40
0.9999999999999998
 10
425.7351119196727
 20
480.3420912005496
 30
0.0
 10
426.0152377391445
 20
480.8272833216417
 30
0.0
 10
426.5754250378693
 20
481.7975561233047
 30
0.0
 10
427.4360837561922
 20
483.2882600870732
 30
0.0
 10
428.3117268236219
 20
484.8049190633803
 30
0.0
 10
428.9034020325218
 20
485.829730971501
 30
0.0
 10
429.199213267745
 20
486.3420912527037
 30
0.0
  0
SPLINE
  5
77F8
330
1F
100
AcDbEntity
  8
0
  6
Continuous
 62
     7
370
    15
100
AcDbSpline
210
0.0
220
0.0
230
1.0
 70
    24
 71
     3
 72
    11
 73
     7
 74
     0
 42
0.0000000001
 43
0.0000000001
 40
0.0
 40
0.0
 40
0.0
 40
0.0
 40
0.2472747698523148
 40
0.4945905552384994
 40
0.7472643443099413
 40
1.0
 40
1.0
 40
1.0
 40
1.0
 10
418.8069087578668
 20
480.3420912005496
 30
0.0
 10
419.3867568346138
 20
480.3420912005496
 30
0.0
 10
420.5465491676671
 20
480.3420912005496
 30
0.0
 10
422.2865898339392
 20
480.3420912005496
 30
0.0
 10
424.0202525860983
 20
480.3420912005496
 30
0.0
 10
425.163445496149
 20
480.3420912005496
 30
0.0
 10
425.7351119196727
 20
480.3420912005496
 30
0.0
  0
SPLINE
  5
77F9
330
1F
100
AcDbEntity
  8
0
  6
Continuous
 62
     7
370
    15
100
AcDbSpline
210
0.0
220
0.0
230
1.0
 70
     8
 71
     3
 72
    11
 73
     7
 74
     0
 42
0.0000000001
 43
0.0000000001
 40
0.0
 40
0.0
 40
0.0
 40
0.0
 40
0.2472747025336597
 40
0.4945904825382267
 40
0.7472642727907148
 40
1.0
 40
1.0
 40
1.0
 40
1.0
 10
429.199213267745
 20
498.3420913570118
 30
0.0
 10
428.9092895484613
 20
498.8442545197269
 30
0.0
 10
428.3293939475343
 20
499.8486642649025
 30
0.0
 10
427.4593728616869
 20
501.3555830505563
 30
0.0
 10
426.5925418193045
 20
502.8569793836204
 30
0.0
 10
426.0209452355678
 20
503.8470136250582
 30
0.0
 10
425.7351119196727
 20
504.3420914091659
 30
0.0
  0
SPLINE
  5
77FA
330
1F
100
AcDbEntity
  8
0
  6
Continuous
 62
     7
370
    15
100
AcDbSpline
210
0.0
220
0.0
230
1.0
 70
    24
 71
     3
 72
    11
 73
     7
 74
     0
 42
0.0000000001
 43
0.0000000001
 40
0.0
 40
0.0
 40
0.0
 40
0.0
 40
0.2477111234152962
 40
0.4953654990406336
 40
0.7477052651328383
 40
1.0
 40
1.0
 40
1.0
 40
1.0
 10
425.7351119196727
 20
504.3420914091659
 30
0.0
 10
425.1748605681243
 20
504.3420914091659
 30
0.0
 10
424.054486212215
 20
504.3420914091659
 30
0.0
 10
422.3331693251951
 20
504.3420914091659
 30
0.0
 10
420.5818823301801
 20
504.3420914091659
 30
0.0
 10
419.3985314164025
 20
504.3420914091659
 30
0.0
 10
418.8069087578669
 20
504.3420914091659
 30
0.0
  0
SPLINE
  5
77FB
330
1F
100
AcDbEntity
  8
0
  6
Continuous
 62
     7
370
    15
100
AcDbSpline
210
0.0
220
0.0
230
1.0
 70
     8
 71
     3
 72
    11
 73
     7
 74
     0
 42
0.0000000001
 43
0.0000000001
 40
0.0
 40
0.0
 40
0.0
 40
0.0
 40
0.2477111461516324
 40
0.4953654876403845
 40
0.7477052150446545
 40
1.0
 40
1.0
 40
1.0
 40
1.0
 10
432.6633150814786
 20
492.3420913279439
 30
0.0
 10
432.3831894366325
 20
492.8272833330061
 30
0.0
 10
431.8230023848362
 20
493.797556079795
 30
0.0
 10
430.9623436130006
 20
495.2882599440022
 30
0.0
 10
430.0867008198168
 20
496.8049193706558
 30
0.0
 10
429.4950248870003
 20
497.8297311179342
 30
0.0
 10
429.199213267745
 20
498.3420913570118
 30
0.0
  0
SPLINE
  5
77FC
330
1F
100
AcDbEntity
  8
0
  6
Continuous
 62
     7
370
    15
100
AcDbSpline
210
0.0
220
0.0
230
1.0
 70
     8
 71
     3
 72
    11
 73
     7
 74
     0
 42
0.0000000001
 43
0.0000000001
 40
0.0
 40
0.0
 40
0.0
 40
0.0
 40
0.2472747605803637
 40
0.4945905893974018
 40
0.747264371364932
 40
1.0
 40
1.0
 40
1.0
 40
1.0
 10
429.199213267745
 20
486.3420912527037
 30
0.0
 10
429.4891373832288
 20
486.8442543657122
 30
0.0
 10
430.0690337657833
 20
487.8486639926941
 30
0.0
 10
430.9390544044811
 20
489.355583374727
 30
0.0
 10
431.8058856177436
 20
490.8569795355504
 30
0.0
 10
432.3774819449258
 20
491.8470136497237
 30
0.0
 10
432.6633150814786
 20
492.3420912817714
 30
0.0
  0
CIRCLE
  5
77FD
330
1F
100
AcDbEntity
  8
0
  6
Continuous
 62
     7
370
    15
100
AcDbCircle
 10
418.8069087578669
 20
492.3420913048578
 30
0.0
 40
6.5
  0
CIRCLE
  5
77FE
330
1F
100
AcDbEntity
  8
0
  6
Continuous
 62
     7
370
    15
100
AcDbCircle
 10
418.8069087578669
 20
492.3420913048578
 30
0.0
 40
8.0
  0
LINE
  5
77FF
330
1F
100
AcDbEntity
  8
0
  6
Continuous
 62
     7
370
    15
100
AcDbLine
 10
455.8069092347038
 20
468.110040900905
 30
0.0
 11
458.8069078637969
 21
466.3779895283769
 31
0.0
  0
LINE
  5
7800
330
1F
100
AcDbEntity
  8
0
  6
Continuous
 62
     7
370
    15
100
AcDbLine
 10
458.8069078637969
 20
466.3779895283769
 30
0.0
 11
461.8069102181804
 21
468.110040900905
 31
0.0
  0
LINE
  5
7801
330
1F
100
AcDbEntity
  8
0
  6
Continuous
 62
     7
370
    15
100
AcDbLine
 10
461.8069102181804
 20
468.110040900905
 30
0.0
 11
461.8069102181804
 21
471.574141783316
 31
0.0
  0
LINE
  5
7802
330
1F
100
AcDbEntity
  8
0
  6
Continuous
 62
     7
370
    15
100
AcDbLine
 10
461.8069102181804
 20
471.574141783316
 30
0.0
 11
458.806907863797
 21
473.3061931558441
 31
0.0
  0
LINE
  5
7803
330
1F
100
AcDbEntity
  8
0
  6
Continuous
 62
     7
370
    15
100
AcDbLine
 10
458.806907863797
 20
473.3061931558441
 30
0.0
 11
455.8069092347038
 21
471.574141783316
 31
0.0
  0
LINE
  5
7804
330
1F
100
AcDbEntity
  8
0
  6
Continuous
 62
     7
370
    15
100
AcDbLine
 10
455.8069092347038
 20
471.574141783316
 30
0.0
 11
455.8069092347038
 21
468.110040900905
 31
0.0
  0
CIRCLE
  5
7805
330
1F
100
AcDbEntity
  8
0
  6
Continuous
 62
     7
370
    15
100
AcDbCircle
 10
458.8069087578666
 20
469.8420913048575
 30
0.0
 40
6.5
  0
LINE
  5
7806
330
1F
100
AcDbEntity
  8
0
  6
Continuous
 62
     7
370
    15
100
AcDbLine
 10
375.8069072975528
 20
468.1100409009052
 30
0.0
 11
378.8069096519363
 21
466.3779895283771
 31
0.0
  0
LINE
  5
7807
330
1F
100
AcDbEntity
  8
0
  6
Continuous
 62
     7
370
    15
100
AcDbLine
 10
378.8069096519363
 20
466.3779895283771
 30
0.0
 11
381.8069082810295
 21
468.1100409009052
 31
0.0
  0
LINE
  5
7808
330
1F
100
AcDbEntity
  8
0
  6
Continuous
 62
     7
370
    15
100
AcDbLine
 10
381.8069082810295
 20
468.1100409009052
 30
0.0
 11
381.8069082810295
 21
471.5741417833162
 31
0.0
  0
LINE
  5
7809
330
1F
100
AcDbEntity
  8
0
  6
Continuous
 62
     7
370
    15
100
AcDbLine
 10
381.8069082810295
 20
471.5741417833162
 30
0.0
 11
378.8069096519363
 21
473.3061931558443
 31
0.0
  0
LINE
  5
780A
330
1F
100
AcDbEntity
  8
0
  6
Continuous
 62
     7
370
    15
100
AcDbLine
 10
378.8069096519363
 20
473.3061931558443
 30
0.0
 11
375.8069072975528
 21
471.5741417833162
 31
0.0
  0
LINE
  5
780B
330
1F
100
AcDbEntity
  8
0
  6
Continuous
 62
     7
370
    15
100
AcDbLine
 10
375.8069072975528
 20
471.5741417833162
 30
0.0
 11
375.8069072975528
 21
468.1100409009052
 31
0.0
  0
CIRCLE
  5
780C
330
1F
100
AcDbEntity
  8
0
  6
Continuous
 62
     7
370
    15
100
AcDbCircle
 10
378.8069087578666
 20
469.8420913048578
 30
0.0
 40
6.500000000000014
  0
LINE
  5
780D
330
1F
100
AcDbEntity
  8
0
  6
Continuous
 62
     7
370
    15
100
AcDbLine
 10
375.8069072975529
 20
513.1100408263994
 30
0.0
 11
378.8069096519364
 21
511.3779894538713
 31
0.0
  0
LINE
  5
780E
330
1F
100
AcDbEntity
  8
0
  6
Continuous
 62
     7
370
    15
100
AcDbLine
 10
378.8069096519364
 20
511.3779894538713
 30
0.0
 11
381.8069082810296
 21
513.1100408263994
 31
0.0
  0
LINE
  5
780F
330
1F
100
AcDbEntity
  8
0
  6
Continuous
 62
     7
370
    15
100
AcDbLine
 10
381.8069082810296
 20
513.1100408263994
 30
0.0
 11
381.8069082810296
 21
516.5741417088104
 31
0.0
  0
LINE
  5
7810
330
1F
100
AcDbEntity
  8
0
  6
Continuous
 62
     7
370
    15
100
AcDbLine
 10
381.8069082810296
 20
516.5741417088104
 30
0.0
 11
378.8069096519365
 21
518.3061930813384
 31
0.0
  0
LINE
  5
7811
330
1F
100
AcDbEntity
  8
0
  6
Continuous
 62
     7
370
    15
100
AcDbLine
 10
378.8069096519365
 20
518.3061930813384
 30
0.0
 11
375.8069072975529
 21
516.5741417088104
 31
0.0
  0
LINE
  5
7812
330
1F
100
AcDbEntity
  8
0
  6
Continuous
 62
     7
370
    15
100
AcDbLine
 10
375.8069072975529
 20
516.5741417088104
 30
0.0
 11
375.8069072975529
 21
513.1100408263994
 31
0.0
  0
CIRCLE
  5
7813
330
1F
100
AcDbEntity
  8
0
  6
Continuous
 62
     7
370
    15
100
AcDbCircle
 10
378.8069087578667
 20
514.8420913048578
 30
0.0
 40
6.5
  0
LINE
  5
7814
330
1F
100
AcDbEntity
  8
0
  6
Continuous
 62
     7
370
    15
100
AcDbLine
 10
455.8069092347039
 20
513.1100408263992
 30
0.0
 11
458.806907863797
 21
511.3779894538711
 31
0.0
  0
LINE
  5
7815
330
1F
100
AcDbEntity
  8
0
  6
Continuous
 62
     7
370
    15
100
AcDbLine
 10
458.806907863797
 20
511.3779894538711
 30
0.0
 11
461.8069102181805
 21
513.1100408263992
 31
0.0
  0
LINE
  5
7816
330
1F
100
AcDbEntity
  8
0
  6
Continuous
 62
     7
370
    15
100
AcDbLine
 10
461.8069102181805
 20
513.1100408263992
 30
0.0
 11
461.8069102181806
 21
516.5741417088102
 31
0.0
  0
LINE
  5
7817
330
1F
100
AcDbEntity
  8
0
  6
Continuous
 62
     7
370
    15
100
AcDbLine
 10
461.8069102181806
 20
516.5741417088102
 30
0.0
 11
458.8069078637971
 21
518.3061930813383
 31
0.0
  0
LINE
  5
7818
330
1F
100
AcDbEntity
  8
0
  6
Continuous
 62
     7
370
    15
100
AcDbLine
 10
458.8069078637971
 20
518.3061930813383
 30
0.0
 11
455.8069092347039
 21
516.5741417088102
 31
0.0
  0
LINE
  5
7819
330
1F
100
AcDbEntity
  8
0
  6
Continuous
 62
     7
370
    15
100
AcDbLine
 10
455.8069092347039
 20
516.5741417088102
 30
0.0
 11
455.8069092347039
 21
513.1100408263992
 31
0.0
  0
CIRCLE
  5
781A
330
1F
100
AcDbEntity
  8
0
  6
Continuous
 62
     7
370
    15
100
AcDbCircle
 10
458.8069087578666
 20
514.8420913048576
 30
0.0
 40
6.5
  0
TEXT
  5
7D87
330
1F
100
AcDbEntity
  8
0
100
AcDbText
 10
153.2559482652757
 20
597.79197460067
 30
0.0
 40
6.0
  1
Stroke=5
  7
CHINESET
100
AcDbText
  0
TEXT
  5
7D88
330
1F
100
AcDbEntity
  8
0
100
AcDbText
 10
152.6437832582662
 20
353.6243732939764
 30
0.0
 40
6.0
  1
Stroke=5
  7
CHINESET
100
AcDbText
  0
DIMENSION
  5
7F99
330
1F
100
AcDbEntity
  8
DIM
100
AcDbDimension
  2
*D86
 10
239.0826235348331
 20
545.4804153537731
 30
0.0
 11
235.0826235348331
 21
545.4804153537731
 31
0.0
 70
   160
 71
     5
 42
8.000000000000113
  3
AM_ANSI
100
AcDbAlignedDimension
 13
231.082623534833
 23
540.0920912154511
 33
0.0
 14
239.0826235348331
 24
498.7019691813215
 34
0.0
100
AcDbRotatedDimension
1001
ACAD
1000
DSTYLE
1002
{
1070
    41
1040
2.0
1070
    42
1040
1.5
1070
    43
1040
8.0
1070
    44
1040
1.5
1070
    73
1070
     0
1070
    74
1070
     0
1070
    77
1070
     3
1070
   140
1040
2.0
1070
   141
1040
3.0
1070
   146
1040
0.6
1070
   147
1040
1.0
1070
   172
1070
     1
1070
   178
1070
   256
1070
   272
1070
     8
1070
   274
1070
     2
1070
   340
1005
59B5
1002
}
  0
DIMENSION
  5
7F9A
330
1F
100
AcDbEntity
  8
DIM
100
AcDbDimension
  2
*D87
 10
290.0826238924608
 20
545.4804153537729
 30
0.0
 11
286.082623713647
 21
545.4804153537729
 31
0.0
 70
   160
 71
     5
 42
8.000000357627754
  3
AM_ANSI
100
AcDbAlignedDimension
 13
282.0826235348331
 23
498.7019691813213
 33
0.0
 14
290.0826238924608
 24
540.0920912154506
 34
0.0
100
AcDbRotatedDimension
1001
ACAD
1000
DSTYLE
1002
{
1070
    41
1040
2.0
1070
    42
1040
1.5
1070
    43
1040
8.0
1070
    44
1040
1.5
1070
    73
1070
     0
1070
    74
1070
     0
1070
    77
1070
     3
1070
   140
1040
2.0
1070
   141
1040
3.0
1070
   146
1040
0.6
1070
   147
1040
1.0
1070
   172
1070
     1
1070
   178
1070
   256
1070
   272
1070
     8
1070
   274
1070
     2
1070
   340
1005
59B5
1002
}
  0
DIMENSION
  5
7F9B
330
1F
100
AcDbEntity
  8
DIM
100
AcDbDimension
  2
*D88
 10
290.0826238924611
 20
562.5254597800283
 30
0.0
 11
260.582623713647
 21
565.2754597800282
 31
0.0
 70
    32
  1
54+stroke=<>
 71
     5
 42
59.00000035762809
  3
AM_ANSI
100
AcDbAlignedDimension
 13
231.082623534833
 23
540.0920912154511
 33
0.0
 14
290.0826238924611
 24
540.0920912154506
 34
0.0
100
AcDbRotatedDimension
1001
ACAD
1000
DSTYLE
1002
{
1070
    41
1040
2.0
1070
    42
1040
1.5
1070
    43
1040
8.0
1070
    44
1040
1.5
1070
    73
1070
     0
1070
    74
1070
     0
1070
    77
1070
     3
1070
   140
1040
2.0
1070
   141
1040
3.0
1070
   146
1040
0.6
1070
   147
1040
1.0
1070
   172
1070
     1
1070
   178
1070
   256
1070
   272
1070
     8
1070
   274
1070
     2
1070
   340
1005
59B5
1002
}
  0
DIMENSION
  5
7F9C
330
1F
100
AcDbEntity
  8
DIM
100
AcDbDimension
  2
*D89
 10
290.0826238924608
 20
574.2913900815417
 30
0.0
 11
241.5826243245946
 21
577.0413900815417
 31
0.0
 70
    32
  1
92+stroke=<>
 71
     5
 42
96.99999913573259
  3
AM_ANSI
100
AcDbAlignedDimension
 13
193.0826247567282
 23
498.8420911930994
 33
0.0
 14
290.0826238924608
 24
540.0920912154508
 34
0.0
100
AcDbRotatedDimension
1001
ACAD
1000
DSTYLE
1002
{
1070
    41
1040
2.0
1070
    42
1040
1.5
1070
    43
1040
8.0
1070
    44
1040
1.5
1070
    73
1070
     0
1070
    74
1070
     0
1070
    77
1070
     3
1070
   140
1040
2.0
1070
   141
1040
3.0
1070
   146
1040
0.6
1070
   147
1040
1.0
1070
   172
1070
     1
1070
   178
1070
   256
1070
   271
1070
     0
1070
   272
1070
     8
1070
   274
1070
     2
1070
   340
1005
59B5
1002
}
  0
DIMENSION
  5
7F9D
330
1F
100
AcDbEntity
  8
DIM
100
AcDbDimension
  2
*D90
 10
231.082623534833
 20
562.5254597800283
 30
0.0
 11
226.0826236465917
 21
562.5254597800283
 31
0.0
 70
   160
 71
     5
 42
9.999999776482582
  3
AM_ANSI
100
AcDbAlignedDimension
 13
221.0826237583504
 23
500.8420917667939
 33
0.0
 14
231.082623534833
 24
540.0920912154511
 34
0.0
100
AcDbRotatedDimension
1001
ACAD
1000
DSTYLE
1002
{
1070
    41
1040
2.0
1070
    42
1040
1.5
1070
    43
1040
8.0
1070
    44
1040
1.5
1070
    73
1070
     0
1070
    74
1070
     0
1070
    77
1070
     3
1070
   140
1040
2.0
1070
   141
1040
3.0
1070
   146
1040
0.6
1070
   147
1040
1.0
1070
   172
1070
     1
1070
   178
1070
   256
1070
   272
1070
     8
1070
   274
1070
     2
1070
   340
1005
59B5
1002
}
  0
DIMENSION
  5
7F9E
330
1F
100
AcDbEntity
  8
DIM
100
AcDbDimension
  2
*D91
 10
221.0826237583504
 20
562.5254597800283
 30
0.0
 11
207.0826242575393
 21
565.2754597800282
 31
0.0
 70
    32
 71
     5
 42
27.9999990016222
  3
AM_ANSI
100
AcDbAlignedDimension
 13
193.0826247567282
 23
498.8420914389685
 33
0.0
 14
221.0826237583504
 24
500.8420917667939
 34
0.0
100
AcDbRotatedDimension
1001
ACAD
1000
DSTYLE
1002
{
1070
    41
1040
2.0
1070
    42
1040
1.5
1070
    43
1040
8.0
1070
    44
1040
1.5
1070
    73
1070
     0
1070
    74
1070
     0
1070
    77
1070
     3
1070
   140
1040
2.0
1070
   141
1040
3.0
1070
   146
1040
0.6
1070
   147
1040
1.0
1070
   172
1070
     1
1070
   178
1070
   256
1070
   272
1070
     8
1070
   274
1070
     2
1070
   340
1005
59B5
1002
}
  0
DIMENSION
  5
7F9F
330
1F
100
AcDbEntity
  8
DIM
100
AcDbDimension
  2
*D92
 10
246.5826232815132
 20
552.8087754977394
 30
0.0
 11
238.8326234081731
 21
555.5587754977394
 31
0.0
 70
    32
 71
     5
 42
15.49999974668026
  3
AM_ANSI
100
AcDbAlignedDimension
 13
231.082623534833
 23
540.0920912154511
 33
0.0
 14
246.5826232815132
 24
539.9477455296114
 34
0.0
100
AcDbRotatedDimension
1001
ACAD
1000
DSTYLE
1002
{
1070
    41
1040
2.0
1070
    42
1040
1.5
1070
    43
1040
8.0
1070
    44
1040
1.5
1070
    73
1070
     0
1070
    74
1070
     0
1070
    77
1070
     3
1070
   140
1040
2.0
1070
   141
1040
3.0
1070
   146
1040
0.6
1070
   147
1040
1.0
1070
   172
1070
     1
1070
   178
1070
   256
1070
   272
1070
     8
1070
   274
1070
     2
1070
   340
1005
59B5
1002
}
  0
DIMENSION
  5
7FA0
330
1F
100
AcDbEntity
  8
DIM
100
AcDbDimension
  2
*D93
 10
290.0826238924608
 20
552.8087754977394
 30
0.0
 11
282.3326230877981
 21
555.5587754977394
 31
0.0
 70
    32
 71
     5
 42
15.50000160932541
  3
AM_ANSI
100
AcDbAlignedDimension
 13
274.5826222831354
 23
540.0920912154508
 33
0.0
 14
290.0826238924608
 24
540.0920912154508
 34
0.0
100
AcDbRotatedDimension
1001
ACAD
1000
DSTYLE
1002
{
1070
    41
1040
2.0
1070
    42
1040
1.5
1070
    43
1040
8.0
1070
    44
1040
1.5
1070
    73
1070
     0
1070
    74
1070
     0
1070
    77
1070
     3
1070
   140
1040
2.0
1070
   141
1040
3.0
1070
   146
1040
0.6
1070
   147
1040
1.0
1070
   172
1070
     1
1070
   178
1070
   256
1070
   272
1070
     8
1070
   274
1070
     2
1070
   340
1005
59B5
1002
}
  0
LINE
  5
7FA1
330
1F
100
AcDbEntity
  8
AM_7
  6
ACISOTGB
 62
     2
100
AcDbLine
 10
261.4299575796047
 20
541.7200547825548
 30
0.0
 11
261.4299575796047
 21
433.1112492122655
 31
0.0
1001
GENIUS_GENOBJ-N-CEN_13
1002
{
1000
OWNER
1000
GEN
1002
}
1001
GENIUS_GENODEF_13
1002
{
1000
HIER
1070
     0
1002
}
1002
{
1000
MANEDIT
1070
     0
1002
}
1002
{
1000
NOSEL
1070
     0
1002
}
1002
{
1000
BEHIND
1070
     0
1002
}
1002
{
1000
OTHER
1070
     0
1002
}
1002
{
1000
REACTOR
1002
}
1001
GENIUS_GENCEN_19
1002
{
1040
3.0
1002
}
  0
LINE
  5
7FA2
330
1F
100
AcDbEntity
  8
CENTER
 48
1.3
100
AcDbLine
 10
188.9521648629871
 20
492.3420913048578
 30
0.0
 11
292.5172169435703
 21
492.3420913048577
 31
0.0
  0
LINE
  5
7FA3
330
1F
100
AcDbEntity
  8
CENTER
 48
0.8
100
AcDbLine
 10
239.0826235348331
 20
485.9822134283942
 30
0.0
 11
239.0826235348331
 21
498.7019691813215
 31
0.0
  0
LINE
  5
7FA4
330
1F
100
AcDbEntity
  8
CENTER
 48
0.8
100
AcDbLine
 10
282.0826235348331
 20
485.9822134283939
 30
0.0
 11
282.0826235348331
 21
498.7019691813213
 31
0.0
  0
ARC
  5
7FA5
330
1F
100
AcDbEntity
  8
0
 62
     3
100
AcDbCircle
 10
282.0826235348331
 20
492.3420913048578
 30
0.0
 40
4.632817589554415
100
AcDbArc
 50
350.0000000000014
 51
279.9999999999986
  0
SOLID
  5
7FA6
330
1F
100
AcDbEntity
  8
DIM
100
AcDbTrace
 10
197.3177466581885
 20
480.520261112717
 30
0.0
 11
198.8326233709201
 21
484.3420909248784
 31
0.0
 12
196.1601195143918
 22
481.2181578742602
 32
0.0
 13
196.1601195143918
 23
481.2181578742602
 33
0.0
1001
ACAD
1000
DSTYLE
1002
{
1070
    41
1040
2.0
1070
    42
1040
1.5
1070
    43
1040
8.0
1070
    44
1040
1.5
1070
    73
1070
     0
1070
    74
1070
     0
1070
    77
1070
     3
1070
   140
1040
2.0
1070
   141
1040
3.0
1070
   146
1040
0.6
1070
   147
1040
1.0
1070
   172
1070
     1
1070
   178
1070
   256
1070
   272
1070
     2
1070
   274
1070
     2
1070
   340
1005
59B5
1002
}
  0
LWPOLYLINE
  5
7FA7
330
1F
100
AcDbEntity
  8
DIM
100
AcDbPolyline
 90
        3
 70
     0
 43
0.0
 10
197.8000216833474
 20
482.6292763538222
 10
193.1785353210297
 20
474.9270124074255
 10
172.2274858687258
 20
474.9270124074255
1001
ACAD
1000
DSTYLE
1002
{
1070
    41
1040
2.0
1070
    42
1040
1.5
1070
    43
1040
8.0
1070
    44
1040
1.5
1070
    73
1070
     0
1070
    74
1070
     0
1070
    77
1070
     3
1070
   140
1040
2.0
1070
   141
1040
3.0
1070
   146
1040
0.6
1070
   147
1040
1.0
1070
   172
1070
     1
1070
   178
1070
   256
1070
   272
1070
     2
1070
   274
1070
     2
1070
   340
1005
59B5
1002
}
  0
MTEXT
  5
7FA8
330
1F
100
AcDbEntity
  8
DIM
100
AcDbMText
 10
172.2844573457616
 20
479.4202589610681
 30
0.0
 40
3.5
 41
0.0
 71
     1
 72
     1
  1
M16*1.5
  7
dayus
 73
     1
 44
1.0
1001
ACAD
1000
MTEXTBEGIN
1070
    73
1070
     1
1070
    44
1040
1.0
1070
    74
1070
     0
1000
MTEXTEND
  0
INSERT
  5
7FA9
330
1F
100
AcDbEntity
  8
0
100
AcDbBlockReference
  2
A$C1F6E6265
 10
261.4299571153981
 20
434.9051561404696
 30
0.0
  0
ARC
  5
8052
330
1F
100
AcDbEntity
  8
0
 62
     3
100
AcDbCircle
 10
239.0826235348331
 20
492.3420913048579
 30
0.0
 40
4.632817589554415
100
AcDbArc
 50
350.0000000000014
 51
279.9999999999986
  0
ARC
  5
8053
330
1F
100
AcDbEntity
  8
0
 62
     3
100
AcDbCircle
 10
239.082623534833
 20
244.1904425914954
 30
0.0
 40
4.632817589554415
100
AcDbArc
 50
350.0000000000014
 51
279.9999999999986
  0
ARC
  5
816C
330
1F
100
AcDbEntity
  8
0
 62
     3
100
AcDbCircle
 10
418.8069087578671
 20
492.3420913048581
 30
0.0
 40
7.174265105735454
100
AcDbArc
 50
350.0000000000014
 51
279.9999999999986
  0
LINE
  5
816D
330
1F
100
AcDbEntity
  8
CENTER
 48
0.8
100
AcDbLine
 10
365.343620793687
 20
492.3420913048578
 30
0.0
 11
472.2701967220467
 21
492.3420913048578
 31
0.0
  0
LINE
  5
816E
330
1F
100
AcDbEntity
  8
CENTER
 48
0.8
100
AcDbLine
 10
418.8069087578671
 20
438.8788033406779
 30
0.0
 11
418.8069087578671
 21
545.8053792690377
 31
0.0
  0
DIMENSION
  5
816F
330
1F
100
AcDbEntity
  8
DIM
100
AcDbDimension
  2
*D94
 10
454.8069087578666
 20
551.1835628791811
 30
0.0
 11
418.8069087578667
 21
553.9335628791811
 31
0.0
 70
    32
  1
□<>
 71
     5
 42
71.99999999999988
  3
AM_ANSI
100
AcDbAlignedDimension
 13
382.8069087578668
 23
534.5812340343164
 33
0.0
 14
454.8069087578666
 24
534.5812340343163
 34
0.0
100
AcDbRotatedDimension
1001
ACAD
1000
DSTYLE
1002
{
1070
    41
1040
2.0
1070
    42
1040
1.5
1070
    43
1040
8.0
1070
    44
1040
1.5
1070
    73
1070
     0
1070
    74
1070
     0
1070
    77
1070
     3
1070
   140
1040
2.0
1070
   141
1040
3.0
1070
   146
1040
0.6
1070
   147
1040
1.0
1070
   172
1070
     1
1070
   178
1070
   256
1070
   272
1070
     8
1070
   274
1070
     2
1070
   340
1005
59B5
1002
}
  0
DIMENSION
  5
8170
330
1F
100
AcDbEntity
  8
DIM
100
AcDbDimension
  2
*D95
 10
466.5569086684598
 20
562.5254597800284
 30
0.0
 11
418.8069087578668
 21
565.2754597800284
 31
0.0
 70
    32
  1
□<>
 71
     5
 42
95.49999982118606
  3
AM_ANSI
100
AcDbAlignedDimension
 13
371.0569088472738
 23
530.0920895763231
 33
0.0
 14
466.5569086684598
 24
530.0920895763229
 34
0.0
100
AcDbRotatedDimension
1001
ACAD
1000
DSTYLE
1002
{
1070
    41
1040
2.0
1070
    42
1040
1.5
1070
    43
1040
8.0
1070
    44
1040
1.5
1070
    73
1070
     0
1070
    74
1070
     0
1070
    77
1070
     3
1070
   140
1040
2.0
1070
   141
1040
3.0
1070
   146
1040
0.6
1070
   147
1040
1.0
1070
   172
1070
     1
1070
   178
1070
   256
1070
   272
1070
     8
1070
   274
1070
     2
1070
   340
1005
59B5
1002
}
  0
MTEXT
  5
8171
330
1F
100
AcDbEntity
  8
DIM
100
AcDbMText
 10
469.4104697677899
 20
544.4277061284402
 30
0.0
 40
3.0
 41
0.0
 71
     1
 72
     1
  1
2x4-M10x1.5
  7
dayus
 73
     1
 44
1.0
1001
ACAD
1000
MTEXTBEGIN
1070
    73
1070
     1
1070
    44
1040
1.0
1070
    74
1070
     0
1000
MTEXTEND
  0
SOLID
  5
8172
330
1F
100
AcDbEntity
  8
DIM
100
AcDbTrace
 10
461.2490066364999
 20
532.5814528705555
 30
0.0
 11
459.5301070450442
 21
531.5060481534353
 31
0.0
 12
460.8073132368148
 22
533.0808038344264
 32
0.0
 13
460.8073132368148
 23
533.0808038344264
 33
0.0
1001
ACAD
1000
DSTYLE
1002
{
1070
    41
1040
2.0
1070
    42
1040
1.5
1070
    43
1040
8.0
1070
    44
1040
1.5
1070
    73
1070
     0
1070
    74
1070
     0
1070
    77
1070
     3
1070
   140
1040
2.0
1070
   141
1040
3.0
1070
   146
1040
0.6
1070
   147
1040
1.0
1070
   172
1070
     1
1070
   178
1070
   256
1070
   272
1070
     2
1070
   274
1070
     2
1070
   340
1005
59B5
1002
}
  0
LWPOLYLINE
  5
8173
330
1F
100
AcDbEntity
  8
DIM
100
AcDbPolyline
 90
        3
 70
     0
 43
0.0
 10
461.0281599366573
 20
532.8311283524909
 10
469.0240557039768
 20
539.9037779326927
 10
499.1944930673299
 20
539.9037779326927
1001
ACAD
1000
DSTYLE
1002
{
1070
    41
1040
2.0
1070
    42
1040
1.5
1070
    43
1040
8.0
1070
    44
1040
1.5
1070
    73
1070
     0
1070
    74
1070
     0
1070
    77
1070
     3
1070
   140
1040
2.0
1070
   141
1040
3.0
1070
   146
1040
0.6
1070
   147
1040
1.0
1070
   172
1070
     1
1070
   178
1070
   256
1070
   272
1070
     2
1070
   274
1070
     2
1070
   340
1005
59B5
1002
}
  0
LINE
  5
8174
330
1F
100
AcDbEntity
  8
CENTER
 48
0.8
100
AcDbLine
 10
454.8069087578666
 20
522.1029485753986
 30
0.0
 11
454.8069087578666
 21
534.5812340343163
 31
0.0
  0
LINE
  5
8175
330
1F
100
AcDbEntity
  8
CENTER
 48
0.8
100
AcDbLine
 10
461.0460514873255
 20
528.3420913048574
 30
0.0
 11
448.5677660284078
 21
528.3420913048574
 31
0.0
  0
ARC
  5
8176
330
1F
100
AcDbEntity
  8
0
 62
     3
100
AcDbCircle
 10
454.8069087578668
 20
528.3420913048575
 30
0.0
 40
4.953321042020406
100
AcDbArc
 50
350.0000000000014
 51
279.9999999999986
  0
LINE
  5
81D9
330
1F
100
AcDbEntity
  8
CENTER
 48
0.8
100
AcDbLine
 10
382.8069087578668
 20
522.1029485753989
 30
0.0
 11
382.8069087578668
 21
534.5812340343167
 31
0.0
  0
LINE
  5
81DA
330
1F
100
AcDbEntity
  8
CENTER
 48
0.8
100
AcDbLine
 10
389.0460514873256
 20
528.3420913048578
 30
0.0
 11
376.567766028408
 21
528.3420913048578
 31
0.0
  0
ARC
  5
81DB
330
1F
100
AcDbEntity
  8
0
 62
     3
100
AcDbCircle
 10
382.806908757867
 20
528.3420913048579
 30
0.0
 40
4.953321042020406
100
AcDbArc
 50
350.0000000000014
 51
279.9999999999986
  0
LINE
  5
81DC
330
1F
100
AcDbEntity
  8
CENTER
 48
0.8
100
AcDbLine
 10
382.8069087578666
 20
450.1029485753989
 30
0.0
 11
382.8069087578666
 21
462.5812340343166
 31
0.0
  0
LINE
  5
81DD
330
1F
100
AcDbEntity
  8
CENTER
 48
0.8
100
AcDbLine
 10
389.0460514873254
 20
456.3420913048578
 30
0.0
 11
376.5677660284078
 21
456.3420913048578
 31
0.0
  0
ARC
  5
81DE
330
1F
100
AcDbEntity
  8
0
 62
     3
100
AcDbCircle
 10
382.8069087578668
 20
456.3420913048579
 30
0.0
 40
4.953321042020406
100
AcDbArc
 50
350.0000000000014
 51
279.9999999999986
  0
LINE
  5
81DF
330
1F
100
AcDbEntity
  8
CENTER
 48
0.8
100
AcDbLine
 10
454.8069087578664
 20
450.1029485753986
 30
0.0
 11
454.8069087578664
 21
462.5812340343164
 31
0.0
  0
LINE
  5
81E0
330
1F
100
AcDbEntity
  8
CENTER
 48
0.8
100
AcDbLine
 10
461.0460514873252
 20
456.3420913048575
 30
0.0
 11
448.5677660284076
 21
456.3420913048575
 31
0.0
  0
ARC
  5
81E1
330
1F
100
AcDbEntity
  8
0
 62
     3
100
AcDbCircle
 10
454.8069087578666
 20
456.3420913048576
 30
0.0
 40
4.953321042020406
100
AcDbArc
 50
350.0000000000014
 51
279.9999999999986
  0
DIMENSION
  5
81E3
330
1F
100
AcDbEntity
  8
DIM
100
AcDbDimension
  2
*D96
 10
239.082623534833
 20
297.3287666404106
 30
0.0
 11
235.082623534833
 21
297.3287666404106
 31
0.0
 70
   160
 71
     5
 42
8.000000000000113
  3
AM_ANSI
100
AcDbAlignedDimension
 13
231.0826235348329
 23
291.9404425020886
 33
0.0
 14
239.082623534833
 24
250.5503204679591
 34
0.0
100
AcDbRotatedDimension
1001
ACAD
1000
DSTYLE
1002
{
1070
    41
1040
2.0
1070
    42
1040
1.5
1070
    43
1040
8.0
1070
    44
1040
1.5
1070
    73
1070
     0
1070
    74
1070
     0
1070
    77
1070
     3
1070
   140
1040
2.0
1070
   141
1040
3.0
1070
   146
1040
0.6
1070
   147
1040
1.0
1070
   172
1070
     1
1070
   178
1070
   256
1070
   272
1070
     8
1070
   274
1070
     2
1070
   340
1005
59B5
1002
}
  0
DIMENSION
  5
81E4
330
1F
100
AcDbEntity
  8
DIM
100
AcDbDimension
  2
*D97
 10
290.0826238924608
 20
297.3287666404105
 30
0.0
 11
286.0826237136469
 21
297.3287666404105
 31
0.0
 70
   160
 71
     5
 42
8.000000357627754
  3
AM_ANSI
100
AcDbAlignedDimension
 13
282.082623534833
 23
250.5503204679588
 33
0.0
 14
290.0826238924608
 24
291.9404425020882
 34
0.0
100
AcDbRotatedDimension
1001
ACAD
1000
DSTYLE
1002
{
1070
    41
1040
2.0
1070
    42
1040
1.5
1070
    43
1040
8.0
1070
    44
1040
1.5
1070
    73
1070
     0
1070
    74
1070
     0
1070
    77
1070
     3
1070
   140
1040
2.0
1070
   141
1040
3.0
1070
   146
1040
0.6
1070
   147
1040
1.0
1070
   172
1070
     1
1070
   178
1070
   256
1070
   272
1070
     8
1070
   274
1070
     2
1070
   340
1005
59B5
1002
}
  0
DIMENSION
  5
81E5
330
1F
100
AcDbEntity
  8
DIM
100
AcDbDimension
  2
*D98
 10
290.082623892461
 20
314.3738110666658
 30
0.0
 11
260.5826237136469
 21
317.1238110666658
 31
0.0
 70
    32
  1
54+stroke=<>
 71
     5
 42
59.00000035762809
  3
AM_ANSI
100
AcDbAlignedDimension
 13
231.0826235348329
 23
291.9404425020886
 33
0.0
 14
290.082623892461
 24
291.9404425020882
 34
0.0
100
AcDbRotatedDimension
1001
ACAD
1000
DSTYLE
1002
{
1070
    41
1040
2.0
1070
    42
1040
1.5
1070
    43
1040
8.0
1070
    44
1040
1.5
1070
    73
1070
     0
1070
    74
1070
     0
1070
    77
1070
     3
1070
   140
1040
2.0
1070
   141
1040
3.0
1070
   146
1040
0.6
1070
   147
1040
1.0
1070
   172
1070
     1
1070
   178
1070
   256
1070
   272
1070
     8
1070
   274
1070
     2
1070
   340
1005
59B5
1002
}
  0
DIMENSION
  5
81E6
330
1F
100
AcDbEntity
  8
DIM
100
AcDbDimension
  2
*D99
 10
290.0826238924608
 20
326.1397413681793
 30
0.0
 11
255.5826238254056
 21
328.8897413681793
 31
0.0
 70
    32
  1
64+stroke=<>
 71
     5
 42
69.00000013411045
  3
AM_ANSI
100
AcDbAlignedDimension
 13
221.0826237583503
 23
252.1904424797369
 33
0.0
 14
290.0826238924608
 24
291.9404425020884
 34
0.0
100
AcDbRotatedDimension
1001
ACAD
1000
DSTYLE
1002
{
1070
    41
1040
2.0
1070
    42
1040
1.5
1070
    43
1040
8.0
1070
    44
1040
1.5
1070
    73
1070
     0
1070
    74
1070
     0
1070
    77
1070
     3
1070
   140
1040
2.0
1070
   141
1040
3.0
1070
   146
1040
0.6
1070
   147
1040
1.0
1070
   172
1070
     1
1070
   178
1070
   256
1070
   271
1070
     0
1070
   272
1070
     8
1070
   274
1070
     2
1070
   340
1005
59B5
1002
}
  0
DIMENSION
  5
81E7
330
1F
100
AcDbEntity
  8
DIM
100
AcDbDimension
  2
*D100
 10
231.0826235348329
 20
314.3738110666658
 30
0.0
 11
226.0826236465916
 21
314.3738110666658
 31
0.0
 70
   160
 71
     5
 42
9.999999776482582
  3
AM_ANSI
100
AcDbAlignedDimension
 13
221.0826237583503
 23
252.6904430534315
 33
0.0
 14
231.0826235348329
 24
291.9404425020886
 34
0.0
100
AcDbRotatedDimension
1001
ACAD
1000
DSTYLE
1002
{
1070
    41
1040
2.0
1070
    42
1040
1.5
1070
    43
1040
8.0
1070
    44
1040
1.5
1070
    73
1070
     0
1070
    74
1070
     0
1070
    77
1070
     3
1070
   140
1040
2.0
1070
   141
1040
3.0
1070
   146
1040
0.6
1070
   147
1040
1.0
1070
   172
1070
     1
1070
   178
1070
   256
1070
   272
1070
     8
1070
   274
1070
     2
1070
   340
1005
59B5
1002
}
  0
DIMENSION
  5
81E9
330
1F
100
AcDbEntity
  8
DIM
100
AcDbDimension
  2
*D102
 10
246.5826232815132
 20
304.657126784377
 30
0.0
 11
238.8326234081731
 21
307.407126784377
 31
0.0
 70
    32
 71
     5
 42
15.49999974668026
  3
AM_ANSI
100
AcDbAlignedDimension
 13
231.0826235348329
 23
291.9404425020886
 33
0.0
 14
246.5826232815132
 24
291.7960968162489
 34
0.0
100
AcDbRotatedDimension
1001
ACAD
1000
DSTYLE
1002
{
1070
    41
1040
2.0
1070
    42
1040
1.5
1070
    43
1040
8.0
1070
    44
1040
1.5
1070
    73
1070
     0
1070
    74
1070
     0
1070
    77
1070
     3
1070
   140
1040
2.0
1070
   141
1040
3.0
1070
   146
1040
0.6
1070
   147
1040
1.0
1070
   172
1070
     1
1070
   178
1070
   256
1070
   272
1070
     8
1070
   274
1070
     2
1070
   340
1005
59B5
1002
}
  0
DIMENSION
  5
81EA
330
1F
100
AcDbEntity
  8
DIM
100
AcDbDimension
  2
*D103
 10
290.0826238924608
 20
304.657126784377
 30
0.0
 11
282.3326230877981
 21
307.407126784377
 31
0.0
 70
    32
 71
     5
 42
15.50000160932541
  3
AM_ANSI
100
AcDbAlignedDimension
 13
274.5826222831354
 23
291.9404425020884
 33
0.0
 14
290.0826238924608
 24
291.9404425020884
 34
0.0
100
AcDbRotatedDimension
1001
ACAD
1000
DSTYLE
1002
{
1070
    41
1040
2.0
1070
    42
1040
1.5
1070
    43
1040
8.0
1070
    44
1040
1.5
1070
    73
1070
     0
1070
    74
1070
     0
1070
    77
1070
     3
1070
   140
1040
2.0
1070
   141
1040
3.0
1070
   146
1040
0.6
1070
   147
1040
1.0
1070
   172
1070
     1
1070
   178
1070
   256
1070
   272
1070
     8
1070
   274
1070
     2
1070
   340
1005
59B5
1002
}
  0
LINE
  5
81EB
330
1F
100
AcDbEntity
  8
AM_7
  6
ACISOTGB
 62
     2
100
AcDbLine
 10
261.4299575796046
 20
293.5684060691924
 30
0.0
 11
261.4299575796046
 21
184.959600498903
 31
0.0
1001
GENIUS_GENOBJ-N-CEN_13
1002
{
1000
OWNER
1000
GEN
1002
}
1001
GENIUS_GENODEF_13
1002
{
1000
HIER
1070
     0
1002
}
1002
{
1000
MANEDIT
1070
     0
1002
}
1002
{
1000
NOSEL
1070
     0
1002
}
1002
{
1000
BEHIND
1070
     0
1002
}
1002
{
1000
OTHER
1070
     0
1002
}
1002
{
1000
REACTOR
1002
}
1001
GENIUS_GENCEN_19
1002
{
1040
3.0
1002
}
  0
LINE
  5
81EC
330
1F
100
AcDbEntity
  8
CENTER
 48
1.3
100
AcDbLine
 10
216.3985351035501
 20
244.1904425914954
 30
0.0
 11
292.5172169435702
 21
244.1904425914952
 31
0.0
  0
LINE
  5
81ED
330
1F
100
AcDbEntity
  8
CENTER
 48
0.8
100
AcDbLine
 10
239.082623534833
 20
237.8305647150317
 30
0.0
 11
239.082623534833
 21
250.5503204679591
 31
0.0
  0
LINE
  5
81EE
330
1F
100
AcDbEntity
  8
CENTER
 48
0.8
100
AcDbLine
 10
282.082623534833
 20
237.8305647150315
 30
0.0
 11
282.082623534833
 21
250.5503204679588
 31
0.0
  0
ARC
  5
81EF
330
1F
100
AcDbEntity
  8
0
 62
     3
100
AcDbCircle
 10
282.082623534833
 20
244.1904425914953
 30
0.0
 40
4.632817589554415
100
AcDbArc
 50
350.0000000000014
 51
279.9999999999986
  0
SOLID
  5
81F0
330
1F
100
AcDbEntity
  8
DIM
100
AcDbTrace
 10
220.4329186304497
 20
240.1309946222903
 30
0.0
 11
221.0826237583503
 21
244.1904425914953
 31
0.0
 12
219.1514601068103
 22
240.5611394188637
 32
0.0
 13
219.1514601068103
 23
240.5611394188637
 33
0.0
1001
ACAD
1000
DSTYLE
1002
{
1070
    41
1040
2.0
1070
    42
1040
1.5
1070
    43
1040
8.0
1070
    44
1040
1.5
1070
    73
1070
     0
1070
    74
1070
     0
1070
    77
1070
     3
1070
   140
1040
2.0
1070
   141
1040
3.0
1070
   146
1040
0.6
1070
   147
1040
1.0
1070
   172
1070
     1
1070
   178
1070
   256
1070
   272
1070
     2
1070
   274
1070
     2
1070
   340
1005
59B5
1002
}
  0
LWPOLYLINE
  5
81F1
330
1F
100
AcDbEntity
  8
DIM
100
AcDbPolyline
 90
        3
 70
     0
 43
0.0
 10
219.79218936863
 20
240.346067020577
 10
210.6912314104873
 20
216.6890322148146
 10
185.3455974030469
 20
216.6890322148146
1001
ACAD
1000
DSTYLE
1002
{
1070
    41
1040
2.0
1070
    42
1040
1.5
1070
    43
1040
8.0
1070
    44
1040
1.5
1070
    73
1070
     0
1070
    74
1070
     0
1070
    77
1070
     3
1070
   140
1040
2.0
1070
   141
1040
3.0
1070
   146
1040
0.6
1070
   147
1040
1.0
1070
   172
1070
     1
1070
   178
1070
   256
1070
   272
1070
     2
1070
   274
1070
     2
1070
   340
1005
59B5
1002
}
  0
MTEXT
  5
81F2
330
1F
100
AcDbEntity
  8
DIM
100
AcDbMText
 10
186.189222753567
 20
221.1822787684571
 30
0.0
 40
3.5
 41
0.0
 71
     1
 72
     1
  1
M12*1.75
  7
dayus
 73
     1
 44
1.0
1001
ACAD
1000
MTEXTBEGIN
1070
    73
1070
     1
1070
    44
1040
1.0
1070
    74
1070
     0
1000
MTEXTEND
  0
INSERT
  5
81F3
330
1F
100
AcDbEntity
  8
0
100
AcDbBlockReference
  2
A$C1F6E6265
 10
261.429957115398
 20
186.7535074271071
 30
0.0
  0
ARC
  5
82B1
330
1F
100
AcDbEntity
  8
0
 62
     3
100
AcDbCircle
 10
418.8069087578662
 20
244.1904425914951
 30
0.0
 40
5.63326574628768
100
AcDbArc
 50
350.0000000000014
 51
279.9999999999986
  0
LINE
  5
82B2
330
1F
100
AcDbEntity
  8
CENTER
 48
0.8
100
AcDbLine
 10
365.3436207936861
 20
244.1904425914948
 30
0.0
 11
472.2701967220459
 21
244.1904425914948
 31
0.0
  0
LINE
  5
82B3
330
1F
100
AcDbEntity
  8
CENTER
 48
0.8
100
AcDbLine
 10
418.8069087578662
 20
190.7271546273148
 30
0.0
 11
418.8069087578662
 21
297.6537305556747
 31
0.0
  0
DIMENSION
  5
82B4
330
1F
100
AcDbEntity
  8
DIM
100
AcDbDimension
  2
*D104
 10
454.8069087578658
 20
303.0319141658182
 30
0.0
 11
418.8069087578659
 21
305.7819141658181
 31
0.0
 70
    32
  1
□<>
 71
     5
 42
71.99999999999988
  3
AM_ANSI
100
AcDbAlignedDimension
 13
382.806908757866
 23
286.4295853209534
 33
0.0
 14
454.8069087578658
 24
286.4295853209533
 34
0.0
100
AcDbRotatedDimension
1001
ACAD
1000
DSTYLE
1002
{
1070
    41
1040
2.0
1070
    42
1040
1.5
1070
    43
1040
8.0
1070
    44
1040
1.5
1070
    73
1070
     0
1070
    74
1070
     0
1070
    77
1070
     3
1070
   140
1040
2.0
1070
   141
1040
3.0
1070
   146
1040
0.6
1070
   147
1040
1.0
1070
   172
1070
     1
1070
   178
1070
   256
1070
   272
1070
     8
1070
   274
1070
     2
1070
   340
1005
59B5
1002
}
  0
DIMENSION
  5
82B5
330
1F
100
AcDbEntity
  8
DIM
100
AcDbDimension
  2
*D105
 10
466.556908668459
 20
314.3738110666654
 30
0.0
 11
418.8069087578659
 21
317.1238110666654
 31
0.0
 70
    32
  1
□<>
 71
     5
 42
95.49999982118606
  3
AM_ANSI
100
AcDbAlignedDimension
 13
371.056908847273
 23
281.9404408629601
 33
0.0
 14
466.556908668459
 24
281.9404408629599
 34
0.0
100
AcDbRotatedDimension
1001
ACAD
1000
DSTYLE
1002
{
1070
    41
1040
2.0
1070
    42
1040
1.5
1070
    43
1040
8.0
1070
    44
1040
1.5
1070
    73
1070
     0
1070
    74
1070
     0
1070
    77
1070
     3
1070
   140
1040
2.0
1070
   141
1040
3.0
1070
   146
1040
0.6
1070
   147
1040
1.0
1070
   172
1070
     1
1070
   178
1070
   256
1070
   272
1070
     8
1070
   274
1070
     2
1070
   340
1005
59B5
1002
}
  0
LINE
  5
82B6
330
1F
100
AcDbEntity
  8
CENTER
 48
0.8
100
AcDbLine
 10
454.8069087578658
 20
273.9512998620356
 30
0.0
 11
454.8069087578658
 21
286.4295853209533
 31
0.0
  0
LINE
  5
82B7
330
1F
100
AcDbEntity
  8
CENTER
 48
0.8
100
AcDbLine
 10
461.0460514873246
 20
280.1904425914944
 30
0.0
 11
448.567766028407
 21
280.1904425914944
 31
0.0
  0
ARC
  5
82B8
330
1F
100
AcDbEntity
  8
0
 62
     3
100
AcDbCircle
 10
454.806908757866
 20
280.1904425914946
 30
0.0
 40
4.953321042020406
100
AcDbArc
 50
350.0000000000014
 51
279.9999999999986
  0
LINE
  5
82B9
330
1F
100
AcDbEntity
  8
CENTER
 48
0.8
100
AcDbLine
 10
382.806908757866
 20
273.9512998620359
 30
0.0
 11
382.806908757866
 21
286.4295853209537
 31
0.0
  0
LINE
  5
82BA
330
1F
100
AcDbEntity
  8
CENTER
 48
0.8
100
AcDbLine
 10
389.0460514873248
 20
280.1904425914948
 30
0.0
 11
376.5677660284072
 21
280.1904425914948
 31
0.0
  0
ARC
  5
82BB
330
1F
100
AcDbEntity
  8
0
 62
     3
100
AcDbCircle
 10
382.8069087578662
 20
280.1904425914949
 30
0.0
 40
4.953321042020406
100
AcDbArc
 50
350.0000000000014
 51
279.9999999999986
  0
LINE
  5
82BC
330
1F
100
AcDbEntity
  8
CENTER
 48
0.8
100
AcDbLine
 10
382.8069087578658
 20
201.9512998620359
 30
0.0
 11
382.8069087578658
 21
214.4295853209537
 31
0.0
  0
LINE
  5
82BD
330
1F
100
AcDbEntity
  8
CENTER
 48
0.8
100
AcDbLine
 10
389.0460514873246
 20
208.1904425914948
 30
0.0
 11
376.5677660284069
 21
208.1904425914948
 31
0.0
  0
ARC
  5
82BE
330
1F
100
AcDbEntity
  8
0
 62
     3
100
AcDbCircle
 10
382.8069087578659
 20
208.1904425914949
 30
0.0
 40
4.953321042020406
100
AcDbArc
 50
350.0000000000014
 51
279.9999999999986
  0
LINE
  5
82BF
330
1F
100
AcDbEntity
  8
CENTER
 48
0.8
100
AcDbLine
 10
454.8069087578656
 20
201.9512998620356
 30
0.0
 11
454.8069087578656
 21
214.4295853209533
 31
0.0
  0
LINE
  5
82C0
330
1F
100
AcDbEntity
  8
CENTER
 48
0.8
100
AcDbLine
 10
461.0460514873244
 20
208.1904425914944
 30
0.0
 11
448.5677660284067
 21
208.1904425914944
 31
0.0
  0
ARC
  5
82C1
330
1F
100
AcDbEntity
  8
0
 62
     3
100
AcDbCircle
 10
454.8069087578658
 20
208.1904425914946
 30
0.0
 40
4.953321042020406
100
AcDbArc
 50
350.0000000000014
 51
279.9999999999986
  0
MTEXT
  5
82EC
330
1F
100
AcDbEntity
  8
DIM
100
AcDbMText
 10
470.3722692852315
 20
293.1170966783515
 30
0.0
 40
3.0
 41
0.0
 71
     1
 72
     1
  1
2x4-M10x1.5
  7
dayus
 73
     1
 44
1.0
1001
ACAD
1000
MTEXTBEGIN
1070
    73
1070
     1
1070
    44
1040
1.0
1070
    74
1070
     0
1000
MTEXTEND
  0
SOLID
  5
82ED
330
1F
100
AcDbEntity
  8
DIM
100
AcDbTrace
 10
462.2108061539416
 20
281.2708434204669
 30
0.0
 11
460.4919065624858
 21
280.1954387033467
 31
0.0
 12
461.7691127542563
 22
281.7701943843378
 32
0.0
 13
461.7691127542563
 23
281.7701943843378
 33
0.0
1001
ACAD
1000
DSTYLE
1002
{
1070
    41
1040
2.0
1070
    42
1040
1.5
1070
    43
1040
8.0
1070
    44
1040
1.5
1070
    73
1070
     0
1070
    74
1070
     0
1070
    77
1070
     3
1070
   140
1040
2.0
1070
   141
1040
3.0
1070
   146
1040
0.6
1070
   147
1040
1.0
1070
   172
1070
     1
1070
   178
1070
   256
1070
   272
1070
     2
1070
   274
1070
     2
1070
   340
1005
59B5
1002
}
  0
LWPOLYLINE
  5
82EE
330
1F
100
AcDbEntity
  8
DIM
100
AcDbPolyline
 90
        3
 70
     0
 43
0.0
 10
461.9899594540989
 20
281.5205189024023
 10
469.9858552214184
 20
288.5931684826041
 10
500.1562925847715
 20
288.5931684826041
1001
ACAD
1000
DSTYLE
1002
{
1070
    41
1040
2.0
1070
    42
1040
1.5
1070
    43
1040
8.0
1070
    44
1040
1.5
1070
    73
1070
     0
1070
    74
1070
     0
1070
    77
1070
     3
1070
   140
1040
2.0
1070
   141
1040
3.0
1070
   146
1040
0.6
1070
   147
1040
1.0
1070
   172
1070
     1
1070
   178
1070
   256
1070
   272
1070
     2
1070
   274
1070
     2
1070
   340
1005
59B5
1002
}
  0
DIMENSION
  5
8346
330
1F
100
AcDbEntity
  8
DIM
100
AcDbDimension
  2
*D106
 10
203.917550014061
 20
234.190442815013
 30
0.0
 11
201.167550014061
 21
244.1904425914957
 31
0.0
 70
    32
  1
%%C<>
 71
     5
 42
19.99999955296516
  3
AM_ANSI
100
AcDbAlignedDimension
 13
227.5826234267995
 23
254.1904423679782
 33
0.0
 14
227.5826234267994
 24
234.190442815013
 34
0.0
 50
90.0
100
AcDbRotatedDimension
1001
ACAD
1000
DSTYLE
1002
{
1070
    41
1040
2.0
1070
    42
1040
1.5
1070
    43
1040
8.0
1070
    44
1040
1.5
1070
    73
1070
     0
1070
    74
1070
     0
1070
    77
1070
     3
1070
   140
1040
2.0
1070
   141
1040
3.0
1070
   146
1040
0.6
1070
   147
1040
1.0
1070
   172
1070
     1
1070
   178
1070
   256
1070
   272
1070
     8
1070
   274
1070
     2
1070
   340
1005
59B5
1002
}
  0
DIMENSION
  5
8347
330
1F
100
AcDbEntity
  8
DIM
100
AcDbDimension
  2
*D107
 10
212.5761477756457
 20
235.6904421295596
 30
0.0
 11
209.8261477756457
 21
244.1904425914957
 31
0.0
 70
    32
  1
<>
 71
     5
 42
17.00000092387199
  3
AM_ANSI
100
AcDbAlignedDimension
 13
221.0826237583503
 23
252.6904430534316
 33
0.0
 14
221.0826237583502
 24
235.6904421295596
 34
0.0
 50
90.0
100
AcDbRotatedDimension
1001
ACAD
1000
DSTYLE
1002
{
1070
    41
1040
2.0
1070
    42
1040
1.5
1070
    43
1040
8.0
1070
    44
1040
1.5
1070
    73
1070
     0
1070
    74
1070
     0
1070
    77
1070
     3
1070
   140
1040
2.0
1070
   141
1040
3.0
1070
   146
1040
0.6
1070
   147
1040
1.0
1070
   172
1070
     1
1070
   178
1070
   256
1070
   272
1070
     8
1070
   274
1070
     2
1070
   340
1005
59B5
1002
}
  0
LINE
  5
840B
330
1F
100
AcDbEntity
  8
CENTER
 48
0.8
100
AcDbLine
 10
378.8069087578667
 20
507.0772060079553
 30
0.0
 11
378.8069087578667
 21
522.6069766017602
 31
0.0
  0
LINE
  5
840C
330
1F
100
AcDbEntity
  8
CENTER
 48
0.8
100
AcDbLine
 10
386.5717940547692
 20
514.8420913048578
 30
0.0
 11
371.0420234609643
 21
514.8420913048578
 31
0.0
  0
LINE
  5
840D
330
1F
100
AcDbEntity
  8
CENTER
 48
0.8
100
AcDbLine
 10
378.8069087578666
 20
462.0772060079553
 30
0.0
 11
378.8069087578666
 21
477.6069766017602
 31
0.0
  0
LINE
  5
840E
330
1F
100
AcDbEntity
  8
CENTER
 48
0.8
100
AcDbLine
 10
386.5717940547691
 20
469.8420913048578
 30
0.0
 11
371.0420234609642
 21
469.8420913048578
 31
0.0
  0
LINE
  5
840F
330
1F
100
AcDbEntity
  8
CENTER
 48
0.8
100
AcDbLine
 10
458.8069087578666
 20
462.0772060079551
 30
0.0
 11
458.8069087578666
 21
477.60697660176
 31
0.0
  0
LINE
  5
8410
330
1F
100
AcDbEntity
  8
CENTER
 48
0.8
100
AcDbLine
 10
466.571794054769
 20
469.8420913048575
 30
0.0
 11
451.0420234609641
 21
469.8420913048575
 31
0.0
  0
LINE
  5
8411
330
1F
100
AcDbEntity
  8
CENTER
 48
0.8
100
AcDbLine
 10
458.8069087578666
 20
507.077206007955
 30
0.0
 11
458.8069087578666
 21
522.60697660176
 31
0.0
  0
LINE
  5
8412
330
1F
100
AcDbEntity
  8
CENTER
 48
0.8
100
AcDbLine
 10
466.5717940547692
 20
514.8420913048576
 30
0.0
 11
451.0420234609642
 21
514.8420913048576
 31
0.0
  0
LINE
  5
8413
330
1F
100
AcDbEntity
  8
CENTER
 48
0.8
100
AcDbLine
 10
378.8069087578667
 20
258.925557294593
 30
0.0
 11
378.8069087578667
 21
274.4553278883979
 31
0.0
  0
LINE
  5
8414
330
1F
100
AcDbEntity
  8
CENTER
 48
0.8
100
AcDbLine
 10
386.5717940547692
 20
266.6904425914955
 30
0.0
 11
371.0420234609643
 21
266.6904425914955
 31
0.0
  0
LINE
  5
8415
330
1F
100
AcDbEntity
  8
CENTER
 48
0.8
100
AcDbLine
 10
378.8069087578666
 20
213.925557294593
 30
0.0
 11
378.8069087578666
 21
229.4553278883979
 31
0.0
  0
LINE
  5
8416
330
1F
100
AcDbEntity
  8
CENTER
 48
0.8
100
AcDbLine
 10
386.5717940547691
 20
221.6904425914955
 30
0.0
 11
371.0420234609642
 21
221.6904425914955
 31
0.0
  0
LINE
  5
8417
330
1F
100
AcDbEntity
  8
CENTER
 48
0.8
100
AcDbLine
 10
458.8069087578665
 20
213.9255572945927
 30
0.0
 11
458.8069087578665
 21
229.4553278883977
 31
0.0
  0
LINE
  5
8418
330
1F
100
AcDbEntity
  8
CENTER
 48
0.8
100
AcDbLine
 10
466.5717940547689
 20
221.6904425914953
 30
0.0
 11
451.042023460964
 21
221.6904425914953
 31
0.0
  0
LINE
  5
8419
330
1F
100
AcDbEntity
  8
CENTER
 48
0.8
100
AcDbLine
 10
458.8069087578666
 20
258.9255572945928
 30
0.0
 11
458.8069087578666
 21
274.4553278883977
 31
0.0
  0
LINE
  5
841A
330
1F
100
AcDbEntity
  8
CENTER
 48
0.8
100
AcDbLine
 10
466.5717940547692
 20
266.6904425914952
 30
0.0
 11
451.0420234609642
 21
266.6904425914952
 31
0.0
  0
SOLID
  5
8444
330
1F
100
AcDbEntity
  8
DIM
100
AcDbTrace
 10
286.6646301813833
 20
487.3998300821931
 30
0.0
 11
286.0826237137402
 21
489.3420915431536
 31
0.0
 12
287.2630930083087
 22
487.6935760425617
 32
0.0
 13
287.2630930083087
 23
487.6935760425617
 33
0.0
1001
ACAD
1000
DSTYLE
1002
{
1070
    41
1040
2.0
1070
    42
1040
1.5
1070
    43
1040
8.0
1070
    44
1040
1.5
1070
    73
1070
     0
1070
    74
1070
     0
1070
    77
1070
     2
1070
   140
1040
2.0
1070
   141
1040
3.0
1070
   146
1040
0.6
1070
   147
1040
1.0
1070
   172
1070
     1
1070
   178
1070
   256
1070
   272
1070
     2
1070
   274
1070
     2
1070
   340
1005
59B5
1002
}
  0
LWPOLYLINE
  5
8445
330
1F
100
AcDbEntity
  8
DIM
100
AcDbPolyline
 90
        3
 70
     0
 43
0.0
 10
286.0826237137649
 20
489.342091543071
 10
292.0020137269494
 20
478.6709971547701
 10
304.4758595270108
 20
478.6709971547701
1001
ACAD
1000
DSTYLE
1002
{
1070
    41
1040
2.0
1070
    42
1040
1.5
1070
    43
1040
8.0
1070
    44
1040
1.5
1070
    73
1070
     0
1070
    74
1070
     0
1070
    77
1070
     2
1070
   140
1040
2.0
1070
   141
1040
3.0
1070
   146
1040
0.6
1070
   147
1040
1.0
1070
   172
1070
     1
1070
   178
1070
   256
1070
   272
1070
     2
1070
   274
1070
     2
1070
   340
1005
59B5
1002
}
  0
MTEXT
  5
8446
330
1F
100
AcDbEntity
  8
DIM
100
AcDbMText
 10
304.108387524339
 20
479.3932597523547
 30
0.0
 40
2.0
 41
0.0
 71
     9
 72
     1
  1
2-G1/8
  7
dayus
 73
     1
 44
1.0
1001
ACAD
1000
MTEXTBEGIN
1070
    73
1070
     1
1070
    44
1040
1.0
1070
    74
1070
     0
1000
MTEXTEND
  0
SOLID
  5
8447
330
1F
100
AcDbEntity
  8
DIM
100
AcDbTrace
 10
286.6646301813832
 20
239.2481813692007
 30
0.0
 11
286.0826237137401
 21
241.1904428301612
 31
0.0
 12
287.2630930083086
 22
239.5419273295693
 32
0.0
 13
287.2630930083086
 23
239.5419273295693
 33
0.0
1001
ACAD
1000
DSTYLE
1002
{
1070
    41
1040
2.0
1070
    42
1040
1.5
1070
    43
1040
8.0
1070
    44
1040
1.5
1070
    73
1070
     0
1070
    74
1070
     0
1070
    77
1070
     2
1070
   140
1040
2.0
1070
   141
1040
3.0
1070
   146
1040
0.6
1070
   147
1040
1.0
1070
   172
1070
     1
1070
   178
1070
   256
1070
   272
1070
     2
1070
   274
1070
     2
1070
   340
1005
59B5
1002
}
  0
LWPOLYLINE
  5
8448
330
1F
100
AcDbEntity
  8
DIM
100
AcDbPolyline
 90
        3
 70
     0
 43
0.0
 10
286.0826237137649
 20
241.1904428300787
 10
292.0020137269494
 20
230.5193484417777
 10
304.4758595270107
 20
230.5193484417777
1001
ACAD
1000
DSTYLE
1002
{
1070
    41
1040
2.0
1070
    42
1040
1.5
1070
    43
1040
8.0
1070
    44
1040
1.5
1070
    73
1070
     0
1070
    74
1070
     0
1070
    77
1070
     2
1070
   140
1040
2.0
1070
   141
1040
3.0
1070
   146
1040
0.6
1070
   147
1040
1.0
1070
   172
1070
     1
1070
   178
1070
   256
1070
   272
1070
     2
1070
   274
1070
     2
1070
   340
1005
59B5
1002
}
  0
MTEXT
  5
8449
330
1F
100
AcDbEntity
  8
DIM
100
AcDbMText
 10
304.1083875243389
 20
231.2416110393623
 30
0.0
 40
2.0
 41
0.0
 71
     9
 72
     1
  1
2-G1/8
  7
dayus
 73
     1
 44
1.0
1001
ACAD
1000
MTEXTBEGIN
1070
    73
1070
     1
1070
    44
1040
1.0
1070
    74
1070
     0
1000
MTEXTEND
  0
ENDSEC
  0
SECTION
  2
OBJECTS
  0
DICTIONARY
  5
C
330
0
100
AcDbDictionary
281
     1
  3
ACAD_COLOR
350
5825
  3
ACAD_GROUP
350
D
  3
ACAD_LAYOUT
350
1A
  3
ACAD_MATERIAL
350
5824
  3
ACAD_MLINESTYLE
350
17
  3
ACAD_PLOTSETTINGS
350
19
  3
ACAD_PLOTSTYLENAME
350
E
  3
ACAD_TABLESTYLE
350
5826
  3
AcadDim
350
1E82
  3
ACDBHEADERROUNDTRIPXREC
350
844E
  3
AcDbVariableDictionary
350
1488
  3
AcmDictionary
350
6680
  3
AMG
350
662C
  3
AMGSNAPSETTINGS
350
675F
  3
DWGPROPS
350
844D
  3
MAPISURF_MODULE
350
7268
  0
DICTIONARY
  5
59BF
330
2
100
AcDbDictionary
280
     1
281
     1
  3
ACAD_LAYERSTATES
360
59C0
  0
DICTIONARY
  5
5790
330
1F
100
AcDbDictionary
280
     1
281
     1
  3
ACAD_INDEX
360
729E
  3
ACAD_LAYOUTSELFREF
360
57CA
  3
ACAD_SORTENTS
360
70DF
  0
DICTIONARY
  5
5792
330
1B
100
AcDbDictionary
280
     1
281
     1
  3
ACAD_LAYOUTSELFREF
360
57C9
  0
DICTIONARY
  5
5794
330
23
100
AcDbDictionary
280
     1
281
     1
  3
ACAD_LAYOUTSELFREF
360
57CB
  0
DICTIONARY
  5
705A
330
7059
100
AcDbDictionary
280
     1
281
     1
  0
DICTIONARY
  5
70E7
330
70E2
100
AcDbDictionary
280
     1
281
     1
  3
ACAD_SORTENTS
360
70E8
  0
DICTIONARY
  5
781D
330
781C
100
AcDbDictionary
280
     1
281
     1
  3
ACAD_SORTENTS
360
781E
  0
DICTIONARY
  5
5825
102
{ACAD_REACTORS
330
C
102
}
330
C
100
AcDbDictionary
281
     1
  0
DICTIONARY
  5
D
102
{ACAD_REACTORS
330
C
102
}
330
C
100
AcDbDictionary
281
     1
  0
DICTIONARY
  5
1A
102
{ACAD_REACTORS
330
C
102
}
330
C
100
AcDbDictionary
281
     1
  3
Layout1
350
1E
  3
Layout2
350
26
  3
Model
350
22
  0
DICTIONARY
  5
5824
102
{ACAD_REACTORS
330
C
102
}
330
C
100
AcDbDictionary
281
     1
  0
DICTIONARY
  5
17
102
{ACAD_REACTORS
330
C
102
}
330
C
100
AcDbDictionary
281
     1
  3
Standard
350
18
  0
DICTIONARY
  5
19
102
{ACAD_REACTORS
330
C
102
}
330
C
100
AcDbDictionary
281
     1
  0
ACDBDICTIONARYWDFLT
  5
E
102
{ACAD_REACTORS
330
C
102
}
330
C
100
AcDbDictionary
281
     1
  3
Normal
350
F
100
AcDbDictionaryWithDefault
340
F
1001
ACAD
1000
TREAT_AS_HARD
1070
     0
  0
DICTIONARY
  5
5826
102
{ACAD_REACTORS
330
C
102
}
330
C
100
AcDbDictionary
281
     1
  3
Standard
350
5827
  0
XRECORD
  5
1E82
102
{ACAD_REACTORS
330
C
102
}
330
C
100
AcDbXrecord
280
     1
 90
   990106
  3

 60
     0
 61
     0
 62
     4
 63
     4
 64
     1
 65
     0
 66
     0
 67
     3
 68
     1
 69
     0
 70
     0
 71
     0
 72
     0
 40
0.0
170
     2
340
0
  0
DICTIONARY
  5
844E
102
{ACAD_REACTORS
330
C
102
}
330
C
100
AcDbDictionary
281
     1
  0
DICTIONARY
  5
1488
102
{ACAD_REACTORS
330
C
102
}
330
C
100
AcDbDictionary
281
     1
  3
CTABLESTYLE
350
6147
  3
DIMASSOC
350
6D10
  3
INDEXCTL
350
72EA
  3
PROJECTNAME
350
6D11
  3
SORTENTS
350
1489
  0
DICTIONARY
  5
6680
102
{ACAD_REACTORS
330
C
102
}
330
C
100
AcDbDictionary
281
     1
  3
AcmStdDictionary
350
668D
  3
AMDTSECTSYM_ARROWCOLOR
350
66A8
  0
DICTIONARY
  5
662C
102
{ACAD_REACTORS
330
C
102
}
330
C
100
AcDbDictionary
281
     1
  3
AcMgSettings
350
72F5
  0
DICTIONARY
  5
675F
102
{ACAD_REACTORS
330
C
102
}
330
C
100
AcDbDictionary
281
     1
  0
XRECORD
  5
844D
102
{ACAD_REACTORS
330
C
102
}
330
C
100
AcDbXrecord
280
     1
  1
DWGPROPS COOKIE
  2

  3

  4

  6

  7

  8

  9

300
AmdtFileType=84
301
=
302
=
303
=
304
=
305
=
306
=
307
=
308
=
309
=
 40
0.4592922453703704
 41
2452019.631085301
 42
2456885.448240011
  1

 90
        1
  0
DICTIONARY
  5
59C0
102
{ACAD_REACTORS
330
59BF
102
}
330
59BF
100
AcDbDictionary
281
     1
  0
DICTIONARY
  5
729E
102
{ACAD_REACTORS
330
5790
102
}
330
5790
100
AcDbDictionary
281
     1
  3
*A1
350
729F
  0
XRECORD
  5
57CA
102
{ACAD_REACTORS
330
5790
102
}
330
5790
100
AcDbXrecord
280
     1
340
1F
  0
SORTENTSTABLE
  5
70DF
102
{ACAD_REACTORS
330
5790
102
}
330
5790
100
AcDbSortentsTable
330
1F
331
67A0
  5
67A0
331
6769
  5
6769
331
6771
  5
6771
331
67B0
  5
67B0
331
6779
  5
6779
331
180C
  5
180C
331
186C
  5
186C
331
1874
  5
1874
331
67F8
  5
67F8
331
6781
  5
6781
331
6791
  5
6791
331
17B5
  5
17B5
331
187C
  5
187C
331
17BD
  5
17BD
331
188C
  5
188C
331
17C5
  5
17C5
331
1805
  5
1805
331
676A
  5
676A
331
6772
  5
6772
331
67B1
  5
67B1
331
677A
  5
677A
331
180D
  5
180D
331
186D
  5
186D
331
1875
  5
1875
331
67F9
  5
67F9
331
6782
  5
6782
331
6792
  5
6792
331
187D
  5
187D
331
17BE
  5
17BE
331
1885
  5
1885
331
17C6
  5
17C6
331
188D
  5
188D
331
1806
  5
1806
331
676B
  5
676B
331
67AA
  5
67AA
331
6773
  5
6773
331
67B2
  5
67B2
331
677B
  5
677B
331
180E
  5
180E
331
186E
  5
186E
331
1876
  5
1876
331
67FA
  5
67FA
331
6783
  5
6783
331
6793
  5
6793
331
187E
  5
187E
331
17BF
  5
17BF
331
1886
  5
1886
331
188E
  5
188E
331
17C7
  5
17C7
331
1807
  5
1807
331
676C
  5
676C
331
67AB
  5
67AB
331
6774
  5
6774
331
67B3
  5
67B3
331
677C
  5
677C
331
180F
  5
180F
331
186F
  5
186F
331
1877
  5
1877
331
A9
  5
A9
331
6784
  5
6784
331
B1
  5
B1
331
678C
  5
678C
331
6794
  5
6794
331
679C
  5
679C
331
187F
  5
187F
331
17C0
  5
17C0
331
1887
  5
1887
331
188F
  5
188F
331
67A4
  5
67A4
331
676D
  5
676D
331
67AC
  5
67AC
331
6775
  5
6775
331
67B4
  5
67B4
331
677D
  5
677D
331
1808
  5
1808
331
18E7
  5
18E7
331
1810
  5
1810
331
1868
  5
1868
331
1870
  5
1870
331
AA
  5
AA
331
B2
  5
B2
331
678D
  5
678D
331
6795
  5
6795
331
6E72
  5
6E72
331
1878
  5
1878
331
1880
  5
1880
331
1888
  5
1888
331
1890
  5
1890
331
67A5
  5
67A5
331
676E
  5
676E
331
67AD
  5
67AD
331
6776
  5
6776
331
67B5
  5
67B5
331
677E
  5
677E
331
67F5
  5
67F5
331
1809
  5
1809
331
1869
  5
1869
331
1871
  5
1871
331
AB
  5
AB
331
10B3
  5
10B3
331
6796
  5
6796
331
6767
  5
6767
331
1879
  5
1879
331
1881
  5
1881
331
1889
  5
1889
331
1802
  5
1802
331
1891
  5
1891
331
67A6
  5
67A6
331
676F
  5
676F
331
67AE
  5
67AE
331
6777
  5
6777
331
677F
  5
677F
331
67F6
  5
67F6
331
180A
  5
180A
331
186A
  5
186A
331
1872
  5
1872
331
AC
  5
AC
331
6797
  5
6797
331
6E74
  5
6E74
331
187A
  5
187A
331
1882
  5
1882
331
188A
  5
188A
331
17C3
  5
17C3
331
1803
  5
1803
331
6768
  5
6768
331
6770
  5
6770
331
67AF
  5
67AF
331
6778
  5
6778
331
67F7
  5
67F7
331
180B
  5
180B
331
186B
  5
186B
331
1873
  5
1873
331
6780
  5
6780
331
6788
  5
6788
331
6798
  5
6798
331
187B
  5
187B
331
17B4
  5
17B4
331
1883
  5
1883
331
17C4
  5
17C4
331
188B
  5
188B
331
1804
  5
1804
  0
XRECORD
  5
57C9
102
{ACAD_REACTORS
330
5792
102
}
330
5792
100
AcDbXrecord
280
     1
340
1B
  0
XRECORD
  5
57CB
102
{ACAD_REACTORS
330
5794
102
}
330
5794
100
AcDbXrecord
280
     1
340
23
  0
SORTENTSTABLE
  5
70E8
102
{ACAD_REACTORS
330
70E7
102
}
330
70E7
100
AcDbSortentsTable
330
70E2
  0
SORTENTSTABLE
  5
781E
102
{ACAD_REACTORS
330
781D
102
}
330
781D
100
AcDbSortentsTable
330
781C
  0
LAYOUT
  5
1E
102
{ACAD_XDICTIONARY
360
844F
102
}
102
{ACAD_REACTORS
330
1A
102
}
330
1A
100
AcDbPlotSettings
  1

  2

  4

  6

 40
0.0
 41
0.0
 42
0.0
 43
0.0
 44
0.0
 45
0.0
 46
0.0
 47
0.0
 48
0.0
 49
0.0
140
0.0
141
0.0
142
1.0
143
1.0
 70
   688
 72
     0
 73
     0
 74
     5
  7
彩色出圖.ctb
 75
    16
147
1.0
148
0.0
149
0.0
100
AcDbLayout
  1
Layout1
 70
     1
 71
     1
 10
0.0
 20
0.0
 11
12.0
 21
9.0
 12
0.0
 22
0.0
 32
0.0
 14
1.000000000000000E+20
 24
1.000000000000000E+20
 34
1.000000000000000E+20
 15
-1.000000000000000E+20
 25
-1.000000000000000E+20
 35
-1.000000000000000E+20
146
0.0
 13
0.0
 23
0.0
 33
0.0
 16
1.0
 26
0.0
 36
0.0
 17
0.0
 27
1.0
 37
0.0
 76
     0
330
1B
  0
LAYOUT
  5
26
102
{ACAD_XDICTIONARY
360
8453
102
}
102
{ACAD_REACTORS
330
1A
102
}
330
1A
100
AcDbPlotSettings
  1

  2

  4

  6

 40
0.0
 41
0.0
 42
0.0
 43
0.0
 44
0.0
 45
0.0
 46
0.0
 47
0.0
 48
0.0
 49
0.0
140
0.0
141
0.0
142
1.0
143
1.0
 70
   688
 72
     0
 73
     0
 74
     5
  7
彩色出圖.ctb
 75
    16
147
1.0
148
0.0
149
0.0
100
AcDbLayout
  1
Layout2
 70
     1
 71
     2
 10
0.0
 20
0.0
 11
12.0
 21
9.0
 12
0.0
 22
0.0
 32
0.0
 14
0.0
 24
0.0
 34
0.0
 15
0.0
 25
0.0
 35
0.0
146
0.0
 13
0.0
 23
0.0
 33
0.0
 16
1.0
 26
0.0
 36
0.0
 17
0.0
 27
1.0
 37
0.0
 76
     0
330
23
  0
LAYOUT
  5
22
102
{ACAD_XDICTIONARY
360
8451
102
}
102
{ACAD_REACTORS
330
1A
102
}
330
1A
100
AcDbPlotSettings
  1

  2
DWF Classic.pc3
  4
ISO_A3_(420.00_x_297.00_MM)
  6

 40
5.793749809265136
 41
17.79375076293945
 42
5.79376220703125
 43
17.79376220703125
 44
420.0
 45
297.0
 46
3.16
 47
0.0
 48
0.0
 49
0.0
140
0.0
141
0.0
142
1.0
143
1.040972819440143
 70
 11956
 72
     1
 73
     1
 74
     1
  7
彩色出圖.ctb
 75
     0
147
0.960639875820985
148
0.4820973571052037
149
0.4766328058566387
100
AcDbLayout
  1
Model
 70
     1
 71
     0
 10
0.0
 20
0.0
 11
12.0
 21
9.0
 12
0.0
 22
0.0
 32
0.0
 14
0.0
 24
0.0
 34
0.0
 15
0.0
 25
0.0
 35
0.0
146
0.0
 13
0.0
 23
0.0
 33
0.0
 16
1.0
 26
0.0
 36
0.0
 17
0.0
 27
1.0
 37
0.0
 76
     0
330
1F
  0
MLINESTYLE
  5
18
102
{ACAD_REACTORS
330
17
102
}
330
17
100
AcDbMlineStyle
  2
STANDARD
 70
     0
  3

 62
   256
 51
90.0
 52
90.0
 71
     2
 49
0.5
 62
   256
  6
BYLAYER
 49
-0.5
 62
   256
  6
BYLAYER
  0
ACDBPLACEHOLDER
  5
F
102
{ACAD_REACTORS
330
E
102
}
330
E
  0
TABLESTYLE
  5
5827
102
{ACAD_REACTORS
330
5826
102
}
330
5826
100
AcDbTableStyle
  3
Standard
 70
     0
 71
     0
 40
1.5
 41
1.5
280
     0
281
     0
  7
Standard
140
4.5
170
     2
 62
     0
 63
     7
283
     0
274
    -2
284
     1
 64
     0
275
    -2
285
     1
 65
     0
276
    -2
286
     1
 66
     0
277
    -2
287
     1
 67
     0
278
    -2
288
     1
 68
     0
279
    -2
289
     1
 69
     0
  7
Standard
140
6.0
170
     5
 62
     0
 63
     7
283
     0
274
    -2
284
     1
 64
     0
275
    -2
285
     1
 65
     0
276
    -2
286
     1
 66
     0
277
    -2
287
     1
 67
     0
278
    -2
288
     1
 68
     0
279
    -2
289
     1
 69
     0
  7
Standard
140
4.5
170
     5
 62
     0
 63
     7
283
     0
274
    -2
284
     1
 64
     0
275
    -2
285
     1
 65
     0
276
    -2
286
     1
 66
     0
277
    -2
287
     1
 67
     0
278
    -2
288
     1
 68
     0
279
    -2
289
     1
 69
     0
  0
DICTIONARYVAR
  5
6147
102
{ACAD_REACTORS
330
1488
102
}
330
1488
100
DictionaryVariables
280
     0
  1
STANDARD
  0
DICTIONARYVAR
  5
6D10
102
{ACAD_REACTORS
330
1488
102
}
330
1488
100
DictionaryVariables
280
     0
  1
1
  0
DICTIONARYVAR
  5
72EA
102
{ACAD_REACTORS
330
1488
102
}
330
1488
100
DictionaryVariables
280
     0
  1
1
  0
DICTIONARYVAR
  5
6D11
102
{ACAD_REACTORS
330
1488
102
}
330
1488
100
DictionaryVariables
280
     0
  1

  0
DICTIONARYVAR
  5
1489
102
{ACAD_REACTORS
330
1488
102
}
330
1488
100
DictionaryVariables
280
     0
  1
96
  0
DICTIONARY
  5
668D
102
{ACAD_REACTORS
330
6680
102
}
330
6680
100
AcDbDictionary
281
     1
  0
XRECORD
  5
66A8
102
{ACAD_REACTORS
330
6680
102
}
330
6680
100
AcDbXrecord
280
     1
 90
-1023410169
  0
DICTIONARY
  5
72F5
102
{ACAD_REACTORS
330
662C
102
}
330
662C
100
AcDbDictionary
281
     1
  3
DWGSETTINGS
350
72F6
  3
TRANSSETTINGS
350
72F7
  0
LAYER_INDEX
  5
729F
102
{ACAD_REACTORS
330
729E
102
}
330
729E
100
AcDbIndex
 40
2456885.448240011
100
AcDbLayerIndex
  8
0
360
72A0
 90
      584
  8
DIM
360
72A1
 90
       39
  8
CENTER
360
72A2
 90
       42
  8
LOGO
360
72A3
 90
      127
  8
Defpoints
360
72A4
 90
        0
  8
AM_7
360
72A5
 90
        2
  8
AM_5
360
72A6
 90
        0
  0
DICTIONARY
  5
844F
330
1E
100
AcDbDictionary
280
     1
281
     1
  3
ACAD_XREC_ROUNDTRIP
360
8450
  0
DICTIONARY
  5
8453
330
26
100
AcDbDictionary
280
     1
281
     1
  3
ACAD_XREC_ROUNDTRIP
360
8454
  0
DICTIONARY
  5
8451
330
22
100
AcDbDictionary
280
     1
281
     1
  3
ACAD_XREC_ROUNDTRIP
360
8452
  0
IDBUFFER
  5
72A0
330
0
100
AcDbIdBuffer
330
A9
330
AA
330
AB
330
AC
330
B1
330
B2
330
10B3
330
17B4
330
17B5
330
17BF
330
17C0
330
18E7
330
67FB
330
67FC
330
67FD
330
6E72
330
6E74
330
75F5
330
75F6
330
75F7
330
75F8
330
75F9
330
75FA
330
75FB
330
75FC
330
75FD
330
75FE
330
75FF
330
7600
330
7601
330
7602
330
7603
330
7604
330
7605
330
7606
330
7607
330
7608
330
7609
330
760A
330
760B
330
760C
330
760D
330
760E
330
760F
330
7610
330
7611
330
7612
330
7613
330
7614
330
7615
330
7616
330
7617
330
7618
330
7619
330
761A
330
761B
330
761C
330
761D
330
761E
330
761F
330
7620
330
7621
330
7622
330
7623
330
7624
330
7625
330
7626
330
7627
330
7628
330
7629
330
762A
330
762B
330
762C
330
762D
330
762E
330
762F
330
7630
330
7631
330
7632
330
7633
330
7634
330
7635
330
7636
330
7637
330
7638
330
7639
330
763A
330
763B
330
763C
330
763D
330
763E
330
763F
330
7640
330
7641
330
7642
330
7643
330
7644
330
7645
330
7646
330
7647
330
7648
330
7649
330
764A
330
764B
330
764C
330
764D
330
764E
330
764F
330
7650
330
7651
330
7652
330
7653
330
7654
330
7655
330
7656
330
7657
330
7658
330
7659
330
765A
330
765B
330
765C
330
765D
330
765E
330
765F
330
7660
330
7661
330
7662
330
7663
330
7664
330
7665
330
7666
330
7667
330
7668
330
7669
330
766A
330
766B
330
766C
330
766D
330
766E
330
766F
330
7670
330
7671
330
7672
330
7673
330
7674
330
7675
330
7676
330
7677
330
7678
330
7679
330
767A
330
767B
330
767C
330
767D
330
767E
330
767F
330
7680
330
7681
330
7682
330
7683
330
7684
330
7685
330
7687
330
7688
330
7689
330
768A
330
768B
330
768C
330
768D
330
768E
330
768F
330
7690
330
7691
330
7692
330
7693
330
7694
330
7695
330
7696
330
7697
330
7698
330
7699
330
769A
330
769B
330
769C
330
769D
330
769E
330
769F
330
76A0
330
76A1
330
76A2
330
76A3
330
76A4
330
76A5
330
76A6
330
76A7
330
76A8
330
76A9
330
76AA
330
76AB
330
76AC
330
76AD
330
76AE
330
76AF
330
76B0
330
76B1
330
76B2
330
76B3
330
76B4
330
76B5
330
76B6
330
76B7
330
76B8
330
76B9
330
76BA
330
76BB
330
76BC
330
76BD
330
76BE
330
76BF
330
76C0
330
76C1
330
76C2
330
76C3
330
76C4
330
76C5
330
76C6
330
76C7
330
76C8
330
76C9
330
76CA
330
76CB
330
76CC
330
76CD
330
76CE
330
76CF
330
76D0
330
76D1
330
76D2
330
76D3
330
76D4
330
76D5
330
76D6
330
76D7
330
76D8
330
76D9
330
76DA
330
76DB
330
76DC
330
76DD
330
76DE
330
76DF
330
76E0
330
76E1
330
76E2
330
76E3
330
76E4
330
76E5
330
76E6
330
76E7
330
76E8
330
76E9
330
76EA
330
76EB
330
76EC
330
76ED
330
76EE
330
76EF
330
76F0
330
76F1
330
76F2
330
76F3
330
76F4
330
76F5
330
76F6
330
76F7
330
76F8
330
76F9
330
76FA
330
76FB
330
76FC
330
76FD
330
76FE
330
76FF
330
7700
330
7701
330
7702
330
7703
330
7704
330
7705
330
7706
330
7707
330
7708
330
7709
330
770A
330
770B
330
770C
330
770D
330
770E
330
770F
330
7710
330
7711
330
7712
330
7713
330
7714
330
7715
330
7716
330
7717
330
7718
330
7719
330
771A
330
771B
330
771C
330
771D
330
771E
330
771F
330
7720
330
7721
330
7722
330
7723
330
7724
330
7725
330
7726
330
7727
330
7728
330
7729
330
772A
330
772B
330
772C
330
772D
330
772E
330
772F
330
7730
330
7731
330
7732
330
7733
330
7734
330
7735
330
7736
330
7737
330
7738
330
7739
330
773A
330
773B
330
773C
330
773D
330
773E
330
773F
330
7740
330
7741
330
7742
330
7743
330
7744
330
7745
330
7746
330
7747
330
7748
330
7749
330
774A
330
774B
330
774C
330
774D
330
774E
330
774F
330
7750
330
7751
330
7752
330
7753
330
7754
330
7755
330
7756
330
7757
330
7758
330
7759
330
775A
330
775B
330
775C
330
775D
330
775E
330
775F
330
7760
330
7761
330
7762
330
7763
330
7764
330
7765
330
7766
330
7767
330
7768
330
7769
330
776A
330
776B
330
776C
330
776D
330
776E
330
776F
330
7770
330
7771
330
7772
330
7773
330
7774
330
7775
330
7776
330
7777
330
7778
330
7779
330
777A
330
777B
330
777C
330
777D
330
777E
330
777F
330
7780
330
7781
330
7782
330
7783
330
7784
330
7785
330
7786
330
7787
330
7788
330
7789
330
778A
330
778B
330
778C
330
778D
330
778E
330
778F
330
7790
330
7791
330
7792
330
7793
330
7794
330
7795
330
7796
330
7797
330
7798
330
7799
330
779A
330
779B
330
779C
330
779D
330
779E
330
779F
330
77A0
330
77A1
330
77A2
330
77A3
330
77A4
330
77A5
330
77A6
330
77A7
330
77A8
330
77A9
330
77AA
330
77AB
330
77AC
330
77AD
330
77AE
330
77AF
330
77B0
330
77B1
330
77B2
330
77B3
330
77B4
330
77B5
330
77B6
330
77B7
330
77B8
330
77B9
330
77BA
330
77BB
330
77BC
330
77BD
330
77BE
330
77BF
330
77C0
330
77C1
330
77C2
330
77C3
330
77C4
330
77C5
330
77C6
330
77C7
330
77C8
330
77C9
330
77CA
330
77CB
330
77CC
330
77CD
330
77CE
330
77CF
330
77D0
330
77D1
330
77D2
330
77D3
330
77D4
330
77D5
330
77D6
330
77D7
330
77D8
330
77D9
330
77DA
330
77DB
330
77DC
330
77DD
330
77DE
330
77DF
330
77E0
330
77E1
330
77E2
330
77E3
330
77E4
330
77E5
330
77E6
330
77E7
330
77E8
330
77E9
330
77EA
330
77EB
330
77EC
330
77ED
330
77EE
330
77EF
330
77F0
330
77F1
330
77F2
330
77F3
330
77F4
330
77F5
330
77F6
330
77F7
330
77F8
330
77F9
330
77FA
330
77FB
330
77FC
330
77FD
330
77FE
330
77FF
330
7800
330
7801
330
7802
330
7803
330
7804
330
7805
330
7806
330
7807
330
7808
330
7809
330
780A
330
780B
330
780C
330
780D
330
780E
330
780F
330
7810
330
7811
330
7812
330
7813
330
7814
330
7815
330
7816
330
7817
330
7818
330
7819
330
781A
330
7D87
330
7D88
330
7FA5
330
7FA9
330
8052
330
8053
330
816C
330
8176
330
81DB
330
81DE
330
81E1
330
81EF
330
81F3
330
82B1
330
82B8
330
82BB
330
82BE
330
82C1
  0
IDBUFFER
  5
72A1
330
0
100
AcDbIdBuffer
330
8444
330
8445
330
8446
330
8447
330
8448
330
8449
330
7F99
330
7F9A
330
7F9B
330
7F9C
330
7F9D
330
7F9E
330
7F9F
330
7FA0
330
7FA6
330
7FA7
330
7FA8
330
816F
330
8170
330
8171
330
8172
330
8173
330
81E3
330
81E4
330
81E5
330
81E6
330
81E7
330
81E9
330
81EA
330
81F0
330
81F1
330
81F2
330
82B4
330
82B5
330
82EC
330
82ED
330
82EE
330
8346
330
8347
  0
IDBUFFER
  5
72A2
330
0
100
AcDbIdBuffer
330
7FA2
330
7FA3
330
7FA4
330
816D
330
816E
330
8174
330
8175
330
81D9
330
81DA
330
81DC
330
81DD
330
81DF
330
81E0
330
81EC
330
81ED
330
81EE
330
82B2
330
82B3
330
82B6
330
82B7
330
82B9
330
82BA
330
82BC
330
82BD
330
82BF
330
82C0
330
840B
330
840C
330
840D
330
840E
330
840F
330
8410
330
8411
330
8412
330
8413
330
8414
330
8415
330
8416
330
8417
330
8418
330
8419
330
841A
  0
IDBUFFER
  5
72A3
330
0
100
AcDbIdBuffer
330
17BD
330
17BE
330
17C3
330
17C4
330
17C5
330
17C6
330
17C7
330
1802
330
1803
330
1804
330
1805
330
1806
330
1807
330
1808
330
1809
330
180A
330
180B
330
180C
330
180D
330
180E
330
180F
330
1810
330
1868
330
1869
330
186A
330
186B
330
186C
330
186D
330
186E
330
186F
330
1870
330
1871
330
1872
330
1873
330
1874
330
1875
330
1876
330
1877
330
1878
330
1879
330
187A
330
187B
330
187C
330
187D
330
187E
330
187F
330
1880
330
1881
330
1882
330
1883
330
1885
330
1886
330
1887
330
1888
330
1889
330
188A
330
188B
330
188C
330
188D
330
188E
330
188F
330
1890
330
1891
330
6767
330
6768
330
6769
330
676A
330
676B
330
676C
330
676D
330
676E
330
676F
330
6770
330
6771
330
6772
330
6773
330
6774
330
6775
330
6776
330
6777
330
6778
330
6779
330
677A
330
677B
330
677C
330
677D
330
677E
330
677F
330
6780
330
6781
330
6782
330
6783
330
6784
330
6788
330
678C
330
678D
330
6791
330
6792
330
6793
330
6794
330
6795
330
6796
330
6797
330
6798
330
679C
330
67A0
330
67A4
330
67A5
330
67A6
330
67AA
330
67AB
330
67AC
330
67AD
330
67AE
330
67AF
330
67B0
330
67B1
330
67B2
330
67B3
330
67B4
330
67B5
330
67F5
330
67F6
330
67F7
330
67F8
330
67F9
330
67FA
  0
IDBUFFER
  5
72A4
330
0
100
AcDbIdBuffer
  0
IDBUFFER
  5
72A5
330
0
100
AcDbIdBuffer
330
7FA1
330
81EB
  0
IDBUFFER
  5
72A6
330
0
100
AcDbIdBuffer
  0
XRECORD
  5
8450
102
{ACAD_REACTORS
330
844F
102
}
330
844F
100
AcDbXrecord
280
     1
102
SHADEPLOT
 70
     0
102
SHADEPLOTRESLEVEL
 70
     2
102
SHADEPLOTCUSTOMDPI
 70
   300
  0
XRECORD
  5
8454
102
{ACAD_REACTORS
330
8453
102
}
330
8453
100
AcDbXrecord
280
     1
102
SHADEPLOT
 70
     0
102
SHADEPLOTRESLEVEL
 70
     2
102
SHADEPLOTCUSTOMDPI
 70
   300
  0
XRECORD
  5
8452
102
{ACAD_REACTORS
330
8451
102
}
330
8451
100
AcDbXrecord
280
     1
102
SHADEPLOT
 70
     0
102
SHADEPLOTRESLEVEL
 70
     2
102
SHADEPLOTCUSTOMDPI
 70
   300
  0
ENDSEC
  0
EOF
