  0
SECTION
  2
HEADER
  9
$ACADVER
  1
AC1009
  9
$INSBASE
 10
0.0
 20
0.0
 30
0.0
  9
$EXTMIN
 10
1.0000000000000000E+020
 20
1.0000000000000000E+020
 30
1.0000000000000000E+020
  9
$EXTMAX
 10
-1.0000000000000000E+020
 20
-1.0000000000000000E+020
 30
-1.0000000000000000E+020
  9
$LIMMIN
 10
0.0
 20
0.0
  9
$LIMMAX
 10
420.0
 20
297.0
  9
$ORTHOMODE
 70
     0
  9
$REGENMODE
 70
     1
  9
$FILLMODE
 70
     1
  9
$QTEXTMODE
 70
     0
  9
$MIRRTEXT
 70
     1
  9
$DRAGMODE
 70
     2
  9
$LTSCALE
 40
0.6666666666666666
  9
$OSMODE
 70
    37
  9
$ATTMODE
 70
     1
  9
$TEXTSIZE
 40
3.0
  9
$TRACEWID
 40
1.0
  9
$TEXTSTYLE
  7
STANDARD
  9
$CLAYER
  8
0
  9
$CELTYPE
  6
BYLAYER
  9
$CECOLOR
 62
   256
  9
$DIMSCALE
 40
0.8
  9
$DIMASZ
 40
3.5
  9
$DIMEXO
 40
1.0
  9
$DIMDLI
 40
8.0
  9
$DIMRND
 40
0.0
  9
$DIMDLE
 40
0.0
  9
$DIMEXE
 40
1.0
  9
$DIMTP
 40
0.1
  9
$DIMTM
 40
0.1
  9
$DIMTXT
 40
3.5
  9
$DIMCEN
 40
0.0
  9
$DIMTSZ
 40
0.0
  9
$DIMTOL
 70
     0
  9
$DIMLIM
 70
     0
  9
$DIMTIH
 70
     0
  9
$DIMTOH
 70
     0
  9
$DIMSE1
 70
     0
  9
$DIMSE2
 70
     0
  9
$DIMTAD
 70
     1
  9
$DIMZIN
 70
     8
  9
$DIMBLK
  1

  9
$DIMASO
 70
     1
  9
$DIMSHO
 70
     1
  9
$DIMPOST
  1

  9
$DIMAPOST
  1
"
  9
$DIMALT
 70
     0
  9
$DIMALTD
 70
     2
  9
$DIMALTF
 40
0.0393701
  9
$DIMLFAC
 40
1.0
  9
$DIMTOFL
 70
     1
  9
$DIMTVP
 40
0.0
  9
$DIMTIX
 70
     0
  9
$DIMSOXD
 70
     0
  9
$DIMSAH
 70
     0
  9
$DIMBLK1
  1

  9
$DIMBLK2
  1

  9
$DIMSTYLE
  2
AM_ISO
  9
$DIMCLRD
 70
   256
  9
$DIMCLRE
 70
   256
  9
$DIMCLRT
 70
   256
  9
$DIMTFAC
 40
0.71
  9
$DIMGAP
 40
1.0
  9
$LUNITS
 70
     2
  9
$LUPREC
 70
     2
  9
$SKETCHINC
 40
1.0
  9
$FILLETRAD
 40
2.5
  9
$AUNITS
 70
     0
  9
$AUPREC
 70
     0
  9
$MENU
  1
.
  9
$ELEVATION
 40
0.0
  9
$PELEVATION
 40
0.0
  9
$THICKNESS
 40
0.0
  9
$LIMCHECK
 70
     0
  9
$BLIPMODE
 70
     0
  9
$CHAMFERA
 40
2.5
  9
$CHAMFERB
 40
2.5
  9
$SKPOLY
 70
     0
  9
$TDCREATE
 40
2454635.456690996
  9
$TDUPDATE
 40
2454916.4531568978
  9
$TDINDWG
 40
0.4061347106
  9
$TDUSRTIMER
 40
0.4061347106
  9
$USRTIMER
 70
     1
  9
$ANGBASE
 50
0.0
  9
$ANGDIR
 70
     0
  9
$PDMODE
 70
     0
  9
$PDSIZE
 40
0.0
  9
$PLINEWID
 40
0.3
  9
$COORDS
 70
     1
  9
$SPLFRAME
 70
     0
  9
$SPLINETYPE
 70
     6
  9
$SPLINESEGS
 70
     8
  9
$ATTDIA
 70
     1
  9
$ATTREQ
 70
     1
  9
$HANDLING
 70
     1
  9
$HANDSEED
  5
17AE
  9
$SURFTAB1
 70
     6
  9
$SURFTAB2
 70
     6
  9
$SURFTYPE
 70
     6
  9
$SURFU
 70
     6
  9
$SURFV
 70
     6
  9
$UCSNAME
  2

  9
$UCSORG
 10
0.0
 20
0.0
 30
0.0
  9
$UCSXDIR
 10
1.0
 20
0.0
 30
0.0
  9
$UCSYDIR
 10
0.0
 20
1.0
 30
0.0
  9
$PUCSNAME
  2

  9
$PUCSORG
 10
0.0
 20
0.0
 30
0.0
  9
$PUCSXDIR
 10
1.0
 20
0.0
 30
0.0
  9
$PUCSYDIR
 10
0.0
 20
1.0
 30
0.0
  9
$USERI1
 70
     0
  9
$USERI2
 70
     0
  9
$USERI3
 70
     0
  9
$USERI4
 70
     0
  9
$USERI5
 70
     0
  9
$USERR1
 40
0.0
  9
$USERR2
 40
0.0
  9
$USERR3
 40
0.0
  9
$USERR4
 40
0.0
  9
$USERR5
 40
0.0
  9
$WORLDVIEW
 70
     1
  9
$SHADEDGE
 70
     3
  9
$SHADEDIF
 70
    70
  9
$TILEMODE
 70
     0
  9
$MAXACTVP
 70
    48
  9
$PLIMCHECK
 70
     0
  9
$PEXTMIN
 10
7.8045597890767331
 20
-11.525301196890039
 30
-0.0000000000000052
  9
$PEXTMAX
 10
261.83468964497342
 20
354.23303612625472
 30
0.0000000000005763
  9
$PLIMMIN
 10
-1.25960296347374
 20
-21.378984850733641
  9
$PLIMMAX
 10
272.10851841109798
 20
364.61680253016169
  9
$UNITMODE
 70
     0
  9
$VISRETAIN
 70
     1
  9
$PLINEGEN
 70
     0
  9
$PSLTSCALE
 70
     1
  0
ENDSEC
  0
SECTION
  2
TABLES
  0
TABLE
  2
VPORT
 70
     1
  0
VPORT
  2
*ACTIVE
 70
     0
 10
0.0
 20
0.0
 11
1.0
 21
1.0
 12
1.8421052631578929E+019
 22
0.0
 13
0.0
 23
0.0
 14
2.5
 24
2.5
 15
10.0
 25
10.0
 16
0.0
 26
0.0
 36
1.0
 17
0.0
 27
0.0
 37
0.0
 40
2.0000000000000000E+020
 41
1.1842105263157889
 42
50.0
 43
0.0
 44
0.0
 50
0.0
 51
0.0
 71
     0
 72
   100
 73
     1
 74
     1
 75
     0
 76
     0
 77
     0
 78
     0
  0
ENDTAB
  0
TABLE
  2
LTYPE
 70
    14
  0
LTYPE
  2
CONTINUOUS
 70
     0
  3
Solid line
 72
    65
 73
     0
 40
0.0
  0
LTYPE
  2
AM_ISO02W050X2
 70
     0
  3
 _ _ _ _ _ _ _ _ _ _ _ _
 72
    65
 73
     2
 40
3.75
 49
3.0
 49
-0.75
  0
LTYPE
  2
AM_ISO08W050X2
 70
     0
  3
__ . __ . __ . __ . __ . __
 72
    65
 73
     4
 40
9.0
 49
6.0
 49
-0.75
 49
1.5
 49
-0.75
  0
LTYPE
  2
HIDDEN
 70
     0
  3
Hidden __ __ __ __ __ __ __ __ __ __ __ __ __ _
 72
    65
 73
     2
 40
9.5249999999999986
 49
6.3499999999999988
 49
-3.1749999999999989
  0
LTYPE
  2
PHANTOM2
 70
     0
  3
Phantom (.5x) ___ _ _ ___ _ _ ___ _ _ ___ _ _
 72
    65
 73
     6
 40
31.75
 49
15.875
 49
-3.1749999999999989
 49
3.1749999999999989
 49
-3.1749999999999989
 49
3.1749999999999989
 49
-3.1749999999999989
  0
LTYPE
  2
CENTER
 70
     0
  3
Center ____ _ ____ _ ____ _ ____ _ ____ _ ____
 72
    65
 73
     4
 40
50.799999999999997
 49
31.75
 49
-6.3499999999999988
 49
6.3499999999999988
 49
-6.3499999999999988
  0
LTYPE
  2
AM_ISO02W050
 70
     0
  3
__ __ __ __ __ __ __ __ __ __ __ __ __ __ __
 72
    65
 73
     2
 40
7.5
 49
6.0
 49
-1.5
  0
LTYPE
  2
AM_ISO08W050
 70
     0
  3
____ . ____ . ____ . ____ . ____ . ____ . ____
 72
    65
 73
     4
 40
18.0
 49
12.0
 49
-1.5
 49
3.0
 49
-1.5
  0
LTYPE
  2
AM_ISO09W050
 70
     0
  3
_____ . . _____ . . _____ . . ____ .. ____
 72
    65
 73
     6
 40
22.5
 49
12.0
 49
-1.5
 49
3.0
 49
-1.5
 49
3.0
 49
-1.5
  0
LTYPE
  2
AMCONSTR
 70
     0
  3
_______________________
 72
    65
 73
     2
 40
9999.0
 49
9999.0
 49
0.0
  0
LTYPE
  2
AMZIGZAG
 70
     0
  3
/\/-/\/-/\/-/\/-/\/-/\/
 72
    65
 73
     2
 40
11.0001
 49
0.0001
 49
-11.0
  0
LTYPE
  2
ACISOWELD
 70
     0
  3
_ _ _ _ _
 72
    65
 73
     2
 40
2.0
 49
2.0
 49
-1.0
  0
LTYPE
  2
ACISOTGB
 70
     0
  3
__ . . __ . .
 72
    65
 73
     6
 40
9.0
 49
4.0
 49
-1.0
 49
1.0
 49
-1.0
 49
1.0
 49
-1.0
  0
LTYPE
  2
ACISOTGL
 70
     0
  3
_ _ _ _ _
 72
    65
 73
     2
 40
3.0
 49
2.0
 49
-1.0
  0
ENDTAB
  0
TABLE
  2
LAYER
 70
     7
  0
LAYER
  2
0
 70
     0
 62
     7
  6
CONTINUOUS
  0
LAYER
  2
AM_VIS
 70
     0
 62
     7
  6
CONTINUOUS
  0
LAYER
  2
AM_7
 70
     0
 62
     1
  6
AM_ISO08W050
  0
LAYER
  2
AM_4
 70
     0
 62
     3
  6
AM_ISO02W050X2
  0
LAYER
  2
LOGO
 70
     0
 62
     7
  6
CONTINUOUS
  0
LAYER
  2
AM_5
 70
     0
 62
     5
  6
CONTINUOUS
  0
LAYER
  2
DEFPOINTS
 70
     0
 62
     7
  6
CONTINUOUS
  0
ENDTAB
  0
TABLE
  2
STYLE
 70
     5
  0
STYLE
  2
STANDARD
 70
     0
 40
0.0
 41
1.0
 50
0.0
 71
     0
 42
3.0
  3
simplex.shx
  4
CHINESET.SHX
  0
STYLE
  2

 70
     1
 40
0.0
 41
1.0
 50
0.0
 71
     0
 42
2.0
  3
ltypeshp.shx
  4

  0
STYLE
  2
ACISOTS
 70
     0
 40
1.0
 41
1.0
 50
0.0
 71
     0
 42
2.0
  3
isocp.shx
  4
chineset.shx
  0
STYLE
  2
ACISOGDT
 70
     0
 40
0.0
 41
1.0
 50
0.0
 71
     0
 42
2.0
  3
amgdt.shx
  4

  0
STYLE
  2
CHINESET
 70
     0
 40
0.0
 41
1.0
 50
0.0
 71
     0
 42
4.0
  3
simplex.shx
  4
chineset.shx
  0
ENDTAB
  0
TABLE
  2
VIEW
 70
     0
  0
ENDTAB
  0
TABLE
  2
UCS
 70
     0
  0
ENDTAB
  0
TABLE
  2
APPID
 70
    16
  0
APPID
  2
ACAD
 70
     0
  0
APPID
  2
ACAD_PSEXT
 70
     0
  0
APPID
  2
MCAD_NO_VIS
 70
     0
  0
APPID
  2
ACAD_TEMP_GRAPHIC
 70
     0
  0
APPID
  2
AD_DRAW
 70
     0
  0
APPID
  2
ACATTRIBSERVICES
 70
     0
  0
APPID
  2
DESIGNERASSEMBLIES
 70
     0
  0
APPID
  2
ACADM_DIM_EDIT
 70
     0
  0
APPID
  2
AMDT_DM_ADJ
 70
     0
  0
APPID
  2
GENIUS_GENODEF_13
 70
     0
  0
APPID
  2
GENIUS_GENOREF_13
 70
     0
  0
APPID
  2
GENIUS_GENREC_14
 70
     0
  0
APPID
  2
GENIUS_GENOBJ-N-REC_13
 70
     0
  0
APPID
  2
ACAD_DSTYLE_DIMTEXT_FILL
 70
     0
  0
APPID
  2
GENIUS_GENDTOL_13
 70
     0
  0
APPID
  2
GENIUS_GENDIMSH_14
 70
     0
  0
ENDTAB
  0
TABLE
  2
DIMSTYLE
 70
     8
  0
DIMSTYLE
  2
AM_ISO
 70
     0
  3

  4
"
  5

  6

  7

 40
0.8
 41
3.5
 42
1.0
 43
8.0
 44
1.0
 45
0.0
 46
0.0
 47
0.1
 48
0.1
140
3.5
141
0.0
142
0.0
143
0.0393701
144
1.0
145
0.0
146
0.71
147
1.0
 71
     0
 72
     0
 73
     0
 74
     0
 75
     0
 76
     0
 77
     1
 78
     8
170
     0
171
     2
172
     1
173
     0
174
     0
175
     0
176
   256
177
   256
178
   256
  0
DIMSTYLE
  2
AM_ISO$SF
 70
     0
  3

  4
"
  5

  6

  7

 40
1.0
 41
3.0
 42
1.0
 43
8.0
 44
1.0
 45
0.0
 46
0.0
 47
0.1
 48
0.1
140
3.0
141
0.0
142
0.0
143
0.0393701
144
1.0
145
0.0
146
0.71
147
1.0
 71
     0
 72
     0
 73
     0
 74
     0
 75
     1
 76
     1
 77
     1
 78
     8
170
     0
171
     2
172
     1
173
     0
174
     0
175
     0
176
   256
177
   256
178
     2
  0
DIMSTYLE
  2
AM_ISO$SH
 70
     0
  3

  4
"
  5

  6

  7

 40
1.0
 41
3.0
 42
1.0
 43
8.0
 44
1.0
 45
0.0
 46
0.0
 47
0.1
 48
0.1
140
3.0
141
0.0
142
0.0
143
0.0393701
144
1.0
145
0.0
146
0.71
147
1.0
 71
     0
 72
     0
 73
     0
 74
     0
 75
     1
 76
     1
 77
     1
 78
     8
170
     0
171
     2
172
     1
173
     0
174
     0
175
     0
176
   256
177
   256
178
     2
  0
DIMSTYLE
  2
AM_ISO$3
 70
     0
  3

  4
"
  5

  6

  7

 40
0.8
 41
3.5
 42
1.0
 43
8.0
 44
1.0
 45
0.0
 46
0.0
 47
0.1
 48
0.1
140
3.5
141
0.0
142
0.0
143
0.0393701
144
1.0
145
0.0
146
0.71
147
1.0
 71
     0
 72
     0
 73
     0
 74
     1
 75
     0
 76
     0
 77
     1
 78
     8
170
     0
171
     2
172
     0
173
     0
174
     0
175
     0
176
   256
177
   256
178
   256
  0
DIMSTYLE
  2
AM_ISO$4
 70
     0
  3

  4
"
  5

  6

  7

 40
0.8
 41
3.5
 42
1.0
 43
8.0
 44
1.0
 45
0.0
 46
0.0
 47
0.1
 48
0.1
140
3.5
141
0.0
142
0.0
143
0.0393701
144
1.0
145
0.0
146
0.71
147
1.0
 71
     0
 72
     0
 73
     0
 74
     1
 75
     0
 76
     0
 77
     1
 78
     8
170
     0
171
     2
172
     0
173
     0
174
     0
175
     0
176
   256
177
   256
178
   256
  0
DIMSTYLE
  2
AM_ISO$6
 70
     0
  3

  4
"
  5

  6

  7

 40
0.8
 41
3.5
 42
1.0
 43
8.0
 44
1.0
 45
0.0
 46
0.0
 47
0.1
 48
0.1
140
3.5
141
0.0
142
0.0
143
0.0393701
144
1.0
145
0.0
146
0.71
147
1.0
 71
     0
 72
     0
 73
     0
 74
     0
 75
     0
 76
     0
 77
     0
 78
     8
170
     0
171
     2
172
     1
173
     0
174
     0
175
     0
176
   256
177
   256
178
   256
  0
DIMSTYLE
  2
AM_ISO$7
 70
     0
  3

  4
"
  5

  6

  7

 40
0.8
 41
2.5
 42
1.0
 43
8.0
 44
1.0
 45
0.0
 46
0.0
 47
0.1
 48
0.1
140
5.0
141
0.0
142
0.0
143
0.0393701
144
1.0
145
0.0
146
0.71
147
1.5
 71
     0
 72
     0
 73
     0
 74
     0
 75
     0
 76
     0
 77
     1
 78
     8
170
     0
171
     2
172
     1
173
     0
174
     0
175
     0
176
   256
177
   256
178
   256
  0
DIMSTYLE
  2
AM_ISO$0
 70
     0
  3

  4
"
  5

  6

  7

 40
0.8
 41
3.5
 42
1.0
 43
8.0
 44
1.0
 45
0.0
 46
0.0
 47
0.1
 48
0.1
140
3.5
141
0.0
142
0.0
143
0.0393701
144
1.0
145
0.0
146
0.71
147
1.0
 71
     0
 72
     0
 73
     0
 74
     0
 75
     0
 76
     0
 77
     1
 78
     8
170
     0
171
     2
172
     1
173
     0
174
     0
175
     0
176
   256
177
   256
178
   256
  0
ENDTAB
  0
ENDSEC
  0
SECTION
  2
BLOCKS
  0
BLOCK
  8
0
  2
$MODEL_SPACE
 70
     0
 10
0.0
 20
0.0
 30
0.0
  3
$MODEL_SPACE
  1

  0
ENDBLK
  5
A
  8
0
  0
BLOCK
 67
     1
  8
0
  2
$PAPER_SPACE
 70
     0
 10
0.0
 20
0.0
 30
0.0
  3
$PAPER_SPACE
  1

  0
ENDBLK
  5
11
 67
     1
  8
0
  0
BLOCK
  8
0
  2
*D0
 70
     1
 10
0.0
 20
0.0
 30
0.0
  3
*D0
  1

  0
LINE
  5
154B
  8
AM_5
 62
     5
 10
62.811067356305479
 20
309.44962569597232
 30
0.0
 11
38.863919903448213
 21
285.50247824311521
 31
0.0
  0
LINE
  5
154C
  8
AM_5
 62
     5
 10
91.095338603767075
 20
281.1653544485103
 30
0.0
 11
67.148191150909852
 21
257.21820699565342
 31
0.0
  0
LINE
  5
154D
  8
AM_5
 62
     5
 10
41.409504315719772
 20
284.0882646807421
 30
0.0
 11
65.73397758853676
 21
259.76379140792488
 31
0.0
  0
SOLID
  5
154E
  8
AM_5
 62
     5
 10
41.73948748027351
 20
284.41824784529581
 30
0.0
 11
41.079521151166063
 21
283.75828151618839
 31
0.0
 12
39.42960532839745
 22
286.06816366806441
 32
0.0
 13
39.42960532839745
 23
286.06816366806441
 33
0.0
  0
SOLID
  5
154F
  8
AM_5
 62
     5
 10
66.063960753090484
 20
260.09377457247859
 30
0.0
 11
65.40399442398305
 21
259.43380824337117
 31
0.0
 12
67.713876575859089
 22
257.78389242060263
 32
0.0
 13
67.713876575859089
 23
257.78389242060263
 33
0.0
  0
TEXT
  8
AM_5
  40
2.8
  5
1613
  62
5
  72
0
  71
0
 10
53.6500
 20
271.319
 30
0.000000
  1
40
  0
POINT
  5
1551
  8
DEFPOINTS
 62
     0
 10
63.376752781254723
 20
310.01531112092152
 30
0.0
  0
POINT
  5
1552
  8
DEFPOINTS
 62
     0
 10
91.661024028716355
 20
281.73103987345962
 30
0.0
  0
POINT
  5
1553
  8
DEFPOINTS
 62
     0
 10
67.713876575859089
 20
257.78389242060263
 30
0.0
  0
ENDBLK
  5
368
  8
0
  0
BLOCK
  8
0
  2
*D1
 70
     1
 10
0.0
 20
0.0
 30
0.0
  3
*D1
  1

  0
LINE
  5
1554
  8
AM_5
 62
     5
 10
58.327281138870831
 20
313.4479155072944
 30
0.0
 11
28.69477153245009
 21
283.81540504305741
 31
0.0
  0
LINE
  5
1555
  8
AM_5
 62
     5
 10
95.093628970657136
 20
276.68156873983793
 30
0.0
 11
65.461119364236453
 21
247.049058275601
 31
0.0
  0
LINE
  5
1556
  8
AM_5
 62
     5
 10
31.240355965191341
 20
282.4011915175297
 30
0.0
 11
64.046905765017939
 21
249.59464266740289
 31
0.0
  0
SOLID
  5
1557
  8
AM_5
 62
     5
 10
31.570339124968811
 20
282.73117468685967
 30
0.0
 11
30.910372805413871
 21
282.07120834819972
 31
0.0
 12
29.260456949211459
 22
284.38109047619452
 32
0.0
 13
29.260456949211459
 23
284.38109047619452
 33
0.0
  0
SOLID
  5
1558
  8
AM_5
 62
     5
 10
64.376888924795409
 20
249.9246258367329
 30
0.0
 11
63.71692260524047
 21
249.264659498073
 31
0.0
 12
66.026804780997821
 22
247.6147437087381
 32
0.0
 13
66.026804780997821
 23
247.6147437087381
 33
0.0
  0
TEXT
  8
AM_5
  40
2.8
  5
1614
  62
5
  72
0
  71
0
 10
47.6591
 20
265.454
 30
0.000000
  1
52
  0
POINT
  5
155A
  8
DEFPOINTS
 62
     0
 10
58.892966555632199
 20
314.0136009404315
 30
0.0
  0
POINT
  5
155B
  8
DEFPOINTS
 62
     0
 10
95.659314387418533
 20
277.24725417297498
 30
0.0
  0
POINT
  5
155C
  8
DEFPOINTS
 62
     0
 10
66.026804780997821
 20
247.6147437087381
 30
0.0
  0
ENDBLK
  5
3B1
  8
0
  0
BLOCK
  8
0
  2
*D2
 70
     1
 10
0.0
 20
0.0
 30
0.0
  3
*D2
  1

  0
LINE
  5
155D
  8
AM_5
 62
     5
 10
84.105033177284696
 20
313.61150545482587
 30
0.0
 11
64.006379747969589
 21
333.71015888414092
 31
0.0
  0
LINE
  5
155E
  8
AM_5
 62
     5
 10
56.881421629235817
 20
291.33764231981638
 30
0.0
 11
39.257642406440461
 21
308.96142154261179
 31
0.0
  0
LINE
  5
155F
  8
AM_5
 62
     5
 10
62.592166185596511
 20
331.16457447186929
 30
0.0
 11
41.803226818712062
 21
310.37563510498489
 31
0.0
  0
SOLID
  5
1560
  8
AM_5
 62
     5
 10
62.262183021042773
 20
331.49455763642311
 30
0.0
 11
62.922149350150221
 21
330.83459130731558
 31
0.0
 12
64.572065172918855
 22
333.1444734591916
 32
0.0
 13
64.572065172918855
 23
333.1444734591916
 33
0.0
  0
SOLID
  5
1561
  8
AM_5
 62
     5
 10
41.473243654158317
 20
310.7056182695386
 30
0.0
 11
42.133209983265772
 21
310.04565194043118
 31
0.0
 12
39.823327831389719
 22
308.39573611766252
 32
0.0
 13
39.823327831389719
 23
308.39573611766252
 33
0.0
  0
TEXT
  8
AM_5
  40
2.8
  5
1615
  62
5
  72
0
  71
0
 10
55.1042
 20
323.148
 30
0.000000
  1
35
  0
POINT
  5
1563
  8
DEFPOINTS
 62
     0
 10
84.670718602233933
 20
313.04582002987661
 30
0.0
  0
POINT
  5
1564
  8
DEFPOINTS
 62
     0
 10
57.447107054185068
 20
290.77195689486717
 30
0.0
  0
POINT
  5
1565
  8
DEFPOINTS
 62
     0
 10
39.823327831389719
 20
308.39573611766252
 30
0.0
  0
ENDBLK
  5
41F
  8
0
  0
BLOCK
  8
0
  2
*D3
 70
     1
 10
0.0
 20
0.0
 30
0.0
  3
*D3
  1

  0
LINE
  5
1566
  8
AM_5
 62
     5
 10
65.888738086894065
 20
315.81358698284311
 30
0.0
 11
106.130573287152
 21
315.81358698284311
 31
0.0
  0
LINE
  5
1567
  8
AM_5
 62
     5
 10
94.130573287152018
 20
275.50850092757662
 30
0.0
 11
106.130573287152
 21
275.50850092757662
 31
0.0
  0
LINE
  5
1568
  8
AM_5
 62
     5
 10
105.33057328715201
 20
313.01358698284298
 30
0.0
 11
105.33057328715201
 21
278.30850092757657
 31
0.0
  0
SOLID
  5
1569
  8
AM_5
 62
     5
 10
104.86390662048539
 20
313.01358698284298
 30
0.0
 11
105.7972399538187
 21
313.01358698284298
 31
0.0
 12
105.33057328715201
 22
315.81358698284311
 32
0.0
 13
105.33057328715201
 23
315.81358698284311
 33
0.0
  0
SOLID
  5
156A
  8
AM_5
 62
     5
 10
104.8639066204853
 20
278.30850092757657
 30
0.0
 11
105.7972399538187
 21
278.30850092757657
 31
0.0
 12
105.33057328715201
 22
275.50850092757662
 32
0.0
 13
105.33057328715201
 23
275.50850092757662
 33
0.0
  0
TEXT
  8
AM_5
  40
2.8
  5
1616
  62
5
  72
0
  71
0
 10
103.131
 20
292.021
 30
0.000000
  1
o40.3
  0
POINT
  5
156C
  8
DEFPOINTS
 62
     0
 10
65.088738086894068
 20
315.81358698284311
 30
0.0
  0
POINT
  5
156D
  8
DEFPOINTS
 62
     0
 10
93.330573287152035
 20
275.50850092757662
 30
0.0
  0
POINT
  5
156E
  8
DEFPOINTS
 62
     0
 10
105.33057328715201
 20
275.50850092757662
 30
0.0
  0
ENDBLK
  5
44A
  8
0
  0
BLOCK
  8
0
  2
*D4
 70
     1
 10
0.0
 20
0.0
 30
0.0
  3
*D4
  1

  0
LINE
  5
156F
  8
AM_5
 62
     5
 10
135.86229432401899
 20
301.87317549719052
 30
0.0
 11
128.28166489491861
 21
301.87317549719052
 31
0.0
  0
LINE
  5
1570
  8
AM_5
 62
     5
 10
135.86229432401899
 20
289.87317549719029
 30
0.0
 11
128.28166489491861
 21
289.87317549719029
 31
0.0
  0
LINE
  5
1571
  8
AM_5
 62
     5
 10
129.0816648949187
 20
299.0731754971905
 30
0.0
 11
129.0816648949187
 21
292.67317549719019
 31
0.0
  0
SOLID
  5
1572
  8
AM_5
 62
     5
 10
128.61499822825201
 20
299.0731754971905
 30
0.0
 11
129.54833156158529
 21
299.0731754971905
 31
0.0
 12
129.0816648949187
 22
301.87317549719052
 32
0.0
 13
129.0816648949187
 23
301.87317549719052
 33
0.0
  0
SOLID
  5
1573
  8
AM_5
 62
     5
 10
128.61499822825201
 20
292.67317549719019
 30
0.0
 11
129.54833156158529
 21
292.67317549719019
 31
0.0
 12
129.0816648949187
 22
289.87317549719029
 32
0.0
 13
129.0816648949187
 23
289.87317549719029
 33
0.0
  0
TEXT
  8
AM_5
  40
2.8
  5
1617
  62
5
  72
0
  71
0
 10
126.882
 20
292.233
 30
0.000000
  1
%%c12
  0
POINT
  5
1575
  8
DEFPOINTS
 62
     0
 10
136.662294324019
 20
301.87317549719052
 30
0.0
  0
POINT
  5
1576
  8
DEFPOINTS
 62
     0
 10
136.662294324019
 20
289.87317549719029
 30
0.0
  0
POINT
  5
1577
  8
DEFPOINTS
 62
     0
 10
129.0816648949187
 20
289.87317549719029
 30
0.0
  0
ENDBLK
  5
629
  8
0
  0
BLOCK
  8
0
  2
*D5
 70
     1
 10
0.0
 20
0.0
 30
0.0
  3
*D5
  1

  0
LINE
  5
1578
  8
AM_5
 62
     5
 10
119.21357840840599
 20
117.21634150389779
 30
0.0
 11
119.21357840840599
 21
109.73807206049889
 31
0.0
  0
LINE
  5
1579
  8
AM_5
 62
     5
 10
134.21357840840611
 20
116.216341503899
 30
0.0
 11
134.21357840840611
 21
109.73807206049889
 31
0.0
  0
LINE
  5
157A
  8
AM_5
 62
     5
 10
122.013578408406
 20
110.53807206049891
 30
0.0
 11
131.4135784084061
 21
110.53807206049891
 31
0.0
  0
SOLID
  5
157B
  8
AM_5
 62
     5
 10
122.013578408406
 20
111.0047387271655
 30
0.0
 11
122.013578408406
 21
110.07140539383219
 31
0.0
 12
119.21357840840599
 22
110.53807206049891
 32
0.0
 13
119.21357840840599
 23
110.53807206049891
 33
0.0
  0
SOLID
  5
157C
  8
AM_5
 62
     5
 10
131.4135784084061
 20
111.0047387271655
 30
0.0
 11
131.4135784084061
 21
110.07140539383219
 31
0.0
 12
134.21357840840611
 22
110.53807206049891
 32
0.0
 13
134.21357840840611
 23
110.53807206049891
 33
0.0
  0
TEXT
  8
AM_5
  40
2.8
  5
1618
  62
5
  72
0
  71
0
 10
126.714
 20
109.098
 30
0.000000
  1
15
  0
POINT
  5
157E
  8
DEFPOINTS
 62
     0
 10
119.21357840840599
 20
118.01634150389781
 30
0.0
  0
POINT
  5
157F
  8
DEFPOINTS
 62
     0
 10
134.21357840840611
 20
117.016341503899
 30
0.0
  0
POINT
  5
1580
  8
DEFPOINTS
 62
     0
 10
134.21357840840611
 20
110.53807206049891
 30
0.0
  0
ENDBLK
  5
A0E
  8
0
  0
BLOCK
  8
0
  2
*D6
 70
     1
 10
0.0
 20
0.0
 30
0.0
  3
*D6
  1

  0
LINE
  5
1581
  8
AM_5
 62
     5
 10
119.21357840840579
 20
117.2163415038977
 30
0.0
 11
119.21357840840579
 21
101.73807206049879
 31
0.0
  0
LINE
  5
1582
  8
AM_5
 62
     5
 10
136.7135784084056
 20
116.2163415038995
 30
0.0
 11
136.7135784084056
 21
101.73807206049879
 31
0.0
  0
LINE
  5
1583
  8
AM_5
 62
     5
 10
122.01357840840581
 20
102.53807206049881
 30
0.0
 11
133.91357840840561
 21
102.53807206049881
 31
0.0
  0
SOLID
  5
1584
  8
AM_5
 62
     5
 10
122.01357840840581
 20
103.0047387271654
 30
0.0
 11
122.01357840840581
 21
102.07140539383209
 31
0.0
 12
119.21357840840579
 22
102.53807206049881
 32
0.0
 13
119.21357840840579
 23
102.53807206049881
 33
0.0
  0
SOLID
  5
1585
  8
AM_5
 62
     5
 10
133.91357840840561
 20
103.0047387271654
 30
0.0
 11
133.91357840840561
 21
102.07140539383209
 31
0.0
 12
136.7135784084056
 22
102.53807206049881
 32
0.0
 13
136.7135784084056
 23
102.53807206049881
 33
0.0
  0
TEXT
  8
AM_5
  40
2.8
  5
1619
  62
5
  72
0
  71
0
 10
127.964
 20
101.098
 30
0.000000
  1
17.5
  0
POINT
  5
1587
  8
DEFPOINTS
 62
     0
 10
119.21357840840579
 20
118.01634150389771
 30
0.0
  0
POINT
  5
1588
  8
DEFPOINTS
 62
     0
 10
136.7135784084056
 20
117.0163415038995
 30
0.0
  0
POINT
  5
1589
  8
DEFPOINTS
 62
     0
 10
136.7135784084056
 20
102.53807206049881
 30
0.0
  0
ENDBLK
  5
A2F
  8
0
  0
BLOCK
  8
0
  2
*D7
 70
     1
 10
0.0
 20
0.0
 30
0.0
  3
*D7
  1

  0
LINE
  5
158A
  8
AM_5
 62
     5
 10
141.71357840840571
 20
100.85166693428719
 30
0.0
 11
141.71357840840571
 21
93.738072060498681
 31
0.0
  0
LINE
  5
158B
  8
AM_5
 62
     5
 10
119.21357840840599
 20
117.21634150389779
 30
0.0
 11
119.21357840840599
 21
93.738072060498681
 31
0.0
  0
LINE
  5
158C
  8
AM_5
 62
     5
 10
138.9135784084057
 20
94.538072060498678
 30
0.0
 11
122.013578408406
 21
94.538072060498678
 31
0.0
  0
SOLID
  5
158D
  8
AM_5
 62
     5
 10
138.9135784084057
 20
95.004738727165346
 30
0.0
 11
138.9135784084057
 21
94.071405393832009
 31
0.0
 12
141.71357840840571
 22
94.538072060498678
 32
0.0
 13
141.71357840840571
 23
94.538072060498678
 33
0.0
  0
SOLID
  5
158E
  8
AM_5
 62
     5
 10
122.013578408406
 20
95.004738727165346
 30
0.0
 11
122.013578408406
 21
94.071405393832009
 31
0.0
 12
119.21357840840599
 22
94.538072060498678
 32
0.0
 13
119.21357840840599
 23
94.538072060498678
 33
0.0
  0
TEXT
  8
AM_5
  40
2.8
  5
161A
  62
5
  72
0
  71
0
 10
130.464
 20
93.0981
 30
0.000000
  1
22.5
  0
POINT
  5
1590
  8
DEFPOINTS
 62
     0
 10
141.71357840840571
 20
101.65166693428721
 30
0.0
  0
POINT
  5
1591
  8
DEFPOINTS
 62
     0
 10
119.21357840840599
 20
118.01634150389781
 30
0.0
  0
POINT
  5
1592
  8
DEFPOINTS
 62
     0
 10
119.21357840840599
 20
94.538072060498678
 30
0.0
  0
ENDBLK
  5
A50
  8
0
  0
BLOCK
  8
0
  2
*D8
 70
     1
 10
0.0
 20
0.0
 30
0.0
  3
*D8
  1

  0
LINE
  5
1593
  8
AM_5
 62
     5
 10
179.21357840840571
 20
100.85166693428719
 30
0.0
 11
179.21357840840571
 21
93.738072060498638
 31
0.0
  0
LINE
  5
1594
  8
AM_5
 62
     5
 10
141.71357840840571
 20
100.85166693428719
 30
0.0
 11
141.71357840840571
 21
93.738072060498638
 31
0.0
  0
LINE
  5
1595
  8
AM_5
 62
     5
 10
176.4135784084057
 20
94.538072060498635
 30
0.0
 11
144.51357840840569
 21
94.538072060498635
 31
0.0
  0
SOLID
  5
1596
  8
AM_5
 62
     5
 10
176.4135784084057
 20
95.004738727165304
 30
0.0
 11
176.4135784084057
 21
94.071405393831967
 31
0.0
 12
179.21357840840571
 22
94.538072060498635
 32
0.0
 13
179.21357840840571
 23
94.538072060498635
 33
0.0
  0
SOLID
  5
1597
  8
AM_5
 62
     5
 10
144.51357840840569
 20
95.004738727165304
 30
0.0
 11
144.51357840840569
 21
94.071405393831967
 31
0.0
 12
141.71357840840571
 22
94.538072060498635
 32
0.0
 13
141.71357840840571
 23
94.538072060498635
 33
0.0
  0
TEXT
  8
AM_5
  40
2.8
  5
161B
  62
5
  72
0
  71
0
 10
160.464
 20
93.0981
 30
0.000000
  1
32.5+Sroke
  0
POINT
  5
1599
  8
DEFPOINTS
 62
     0
 10
179.21357840840571
 20
101.65166693428721
 30
0.0
  0
POINT
  5
159A
  8
DEFPOINTS
 62
     0
 10
141.71357840840571
 20
101.65166693428721
 30
0.0
  0
POINT
  5
159B
  8
DEFPOINTS
 62
     0
 10
141.71357840840571
 20
94.538072060498635
 30
0.0
  0
ENDBLK
  5
A71
  8
0
  0
BLOCK
  8
0
  2
*D9
 70
     1
 10
0.0
 20
0.0
 30
0.0
  3
*D9
  1

  0
LINE
  5
159C
  8
AM_5
 62
     5
 10
179.21357840840571
 20
101.0770799515025
 30
0.0
 11
179.21357840840571
 21
85.738072060498652
 31
0.0
  0
LINE
  5
159D
  8
AM_5
 62
     5
 10
119.21357840840579
 20
117.2163415038977
 30
0.0
 11
119.21357840840579
 21
85.738072060498652
 31
0.0
  0
LINE
  5
159E
  8
AM_5
 62
     5
 10
176.4135784084057
 20
86.538072060498649
 30
0.0
 11
122.01357840840581
 21
86.538072060498649
 31
0.0
  0
SOLID
  5
159F
  8
AM_5
 62
     5
 10
176.4135784084057
 20
87.004738727165318
 30
0.0
 11
176.4135784084057
 21
86.071405393831981
 31
0.0
 12
179.21357840840571
 22
86.538072060498649
 32
0.0
 13
179.21357840840571
 23
86.538072060498649
 33
0.0
  0
SOLID
  5
15A0
  8
AM_5
 62
     5
 10
122.01357840840581
 20
87.004738727165318
 30
0.0
 11
122.01357840840581
 21
86.071405393831981
 31
0.0
 12
119.21357840840579
 22
86.538072060498649
 32
0.0
 13
119.21357840840579
 23
86.538072060498649
 33
0.0
  0
TEXT
  8
AM_5
  40
2.8
  5
161C
  62
5
  72
0
  71
0
 10
149.214
 20
85.0981
 30
0.000000
  1
55+Stroke
  0
POINT
  5
15A2
  8
DEFPOINTS
 62
     0
 10
179.21357840840571
 20
101.87707995150249
 30
0.0
  0
POINT
  5
15A3
  8
DEFPOINTS
 62
     0
 10
119.21357840840579
 20
118.01634150389771
 30
0.0
  0
POINT
  5
15A4
  8
DEFPOINTS
 62
     0
 10
119.21357840840579
 20
86.538072060498649
 30
0.0
  0
ENDBLK
  5
A9B
  8
0
  0
BLOCK
  8
0
  2
*D10
 70
     1
 10
0.0
 20
0.0
 30
0.0
  3
*D10
  1

  0
LINE
  5
15AE
  8
AM_5
 62
     5
 10
171.93024351645019
 20
240.5675001129527
 30
0.0
 11
171.93024351645019
 21
212.08493194737369
 31
0.0
  0
LINE
  5
15AF
  8
AM_5
 62
     5
 10
177.43024351645019
 20
217.75446311295269
 30
0.0
 11
177.43024351645019
 21
212.08493194737369
 31
0.0
  0
LINE
  5
15B0
  8
AM_5
 62
     5
 10
169.13024351645021
 20
212.8849319473737
 30
0.0
 11
166.3302435164502
 21
212.8849319473737
 31
0.0
  0
LINE
  5
15B1
  8
AM_5
 62
     5
 10
180.2302435164502
 20
212.8849319473737
 30
0.0
 11
190.4969101831168
 21
212.8849319473737
 31
0.0
  0
LINE
  5
15B2
  8
AM_5
 62
     5
 10
171.93024351645019
 20
212.8849319473737
 30
0.0
 11
177.43024351645019
 21
212.8849319473737
 31
0.0
  0
SOLID
  5
15B3
  8
AM_5
 62
     5
 10
169.13024351645021
 20
213.3515986140404
 30
0.0
 11
169.13024351645021
 21
212.41826528070709
 31
0.0
 12
171.93024351645019
 22
212.8849319473737
 32
0.0
 13
171.93024351645019
 23
212.8849319473737
 33
0.0
  0
SOLID
  5
15B4
  8
AM_5
 62
     5
 10
180.2302435164502
 20
213.3515986140404
 30
0.0
 11
180.2302435164502
 21
212.41826528070709
 31
0.0
 12
177.43024351645019
 22
212.8849319473737
 32
0.0
 13
177.43024351645019
 23
212.8849319473737
 33
0.0
  0
TEXT
  8
AM_5
  40
2.8
  5
161D
  62
5
  72
0
  71
0
 10
186.764
 20
211.445
 30
0.000000
  1
5.5
  0
POINT
  5
15B6
  8
DEFPOINTS
 62
     0
 10
171.93024351645019
 20
241.36750011295271
 30
0.0
  0
POINT
  5
15B7
  8
DEFPOINTS
 62
     0
 10
177.43024351645019
 20
218.5544631129527
 30
0.0
  0
POINT
  5
15B8
  8
DEFPOINTS
 62
     0
 10
177.43024351645019
 20
212.8849319473737
 30
0.0
  0
ENDBLK
  5
B8A
  8
0
  0
BLOCK
  8
0
  2
*D11
 70
     1
 10
0.0
 20
0.0
 30
0.0
  3
*D11
  1

  0
LINE
  5
15B9
  8
AM_5
 62
     5
 10
150.93024351645019
 20
240.5675001129527
 30
0.0
 11
150.93024351645019
 21
211.62282914285589
 31
0.0
  0
LINE
  5
15BA
  8
AM_5
 62
     5
 10
139.93024351645019
 20
217.75446311295269
 30
0.0
 11
139.93024351645019
 21
211.62282914285589
 31
0.0
  0
LINE
  5
15BB
  8
AM_5
 62
     5
 10
148.13024351645021
 20
212.4228291428559
 30
0.0
 11
142.7302435164502
 21
212.4228291428559
 31
0.0
  0
SOLID
  5
15BC
  8
AM_5
 62
     5
 10
148.13024351645021
 20
212.8894958095226
 30
0.0
 11
148.13024351645021
 21
211.95616247618921
 31
0.0
 12
150.93024351645019
 22
212.4228291428559
 32
0.0
 13
150.93024351645019
 23
212.4228291428559
 33
0.0
  0
SOLID
  5
15BD
  8
AM_5
 62
     5
 10
142.7302435164502
 20
212.8894958095226
 30
0.0
 11
142.7302435164502
 21
211.95616247618921
 31
0.0
 12
139.93024351645019
 22
212.4228291428559
 32
0.0
 13
139.93024351645019
 23
212.4228291428559
 33
0.0
  0
TEXT
  8
AM_5
  40
2.8
  5
161E
  62
5
  72
0
  71
0
 10
145.430
 20
210.983
 30
0.000000
  1
11
  0
POINT
  5
15BF
  8
DEFPOINTS
 62
     0
 10
150.93024351645019
 20
241.36750011295271
 30
0.0
  0
POINT
  5
15C0
  8
DEFPOINTS
 62
     0
 10
139.93024351645019
 20
218.5544631129527
 30
0.0
  0
POINT
  5
15C1
  8
DEFPOINTS
 62
     0
 10
139.93024351645019
 20
212.4228291428559
 30
0.0
  0
ENDBLK
  5
BB0
  8
0
  0
BLOCK
  8
0
  2
*D12
 70
     1
 10
0.0
 20
0.0
 30
0.0
  3
*D12
  1

  0
LINE
  5
15C2
  8
AM_5
 62
     5
 10
134.9302435164501
 20
233.11913768256741
 30
0.0
 11
134.9302435164501
 21
211.62282914285581
 31
0.0
  0
LINE
  5
15C3
  8
AM_5
 62
     5
 10
139.93024351645019
 20
217.75446311295269
 30
0.0
 11
139.93024351645019
 21
211.62282914285581
 31
0.0
  0
LINE
  5
15C4
  8
AM_5
 62
     5
 10
132.13024351645009
 20
212.42282914285579
 30
0.0
 11
129.33024351645011
 21
212.42282914285579
 31
0.0
  0
LINE
  5
15C5
  8
AM_5
 62
     5
 10
142.7302435164502
 20
212.42282914285579
 30
0.0
 11
145.53024351645021
 21
212.42282914285579
 31
0.0
  0
LINE
  5
15C6
  8
AM_5
 62
     5
 10
134.9302435164501
 20
212.42282914285579
 30
0.0
 11
139.93024351645019
 21
212.42282914285579
 31
0.0
  0
SOLID
  5
15C7
  8
AM_5
 62
     5
 10
132.13024351645009
 20
212.88949580952249
 30
0.0
 11
132.13024351645009
 21
211.95616247618921
 31
0.0
 12
134.9302435164501
 22
212.42282914285579
 32
0.0
 13
134.9302435164501
 23
212.42282914285579
 33
0.0
  0
SOLID
  5
15C8
  8
AM_5
 62
     5
 10
142.7302435164502
 20
212.88949580952249
 30
0.0
 11
142.7302435164502
 21
211.95616247618921
 31
0.0
 12
139.93024351645019
 22
212.42282914285579
 32
0.0
 13
139.93024351645019
 23
212.42282914285579
 33
0.0
  0
TEXT
  8
AM_5
  40
2.8
  5
161F
  62
5
  72
0
  71
0
 10
137.430
 20
210.983
 30
0.000000
  1
5
  0
POINT
  5
15CA
  8
DEFPOINTS
 62
     0
 10
134.9302435164501
 20
233.9191376825674
 30
0.0
  0
POINT
  5
15CB
  8
DEFPOINTS
 62
     0
 10
139.93024351645019
 20
218.5544631129527
 30
0.0
  0
POINT
  5
15CC
  8
DEFPOINTS
 62
     0
 10
139.93024351645019
 20
212.42282914285579
 30
0.0
  0
ENDBLK
  5
BD4
  8
0
  0
BLOCK
  8
0
  2
*D13
 70
     1
 10
0.0
 20
0.0
 30
0.0
  3
*D13
  1

  0
LINE
  5
15CD
  8
AM_5
 62
     5
 10
177.43024351645019
 20
217.75446311295269
 30
0.0
 11
177.43024351645019
 21
203.62282914285581
 31
0.0
  0
LINE
  5
15CE
  8
AM_5
 62
     5
 10
139.93024351645019
 20
217.75446311295269
 30
0.0
 11
139.93024351645019
 21
203.62282914285581
 31
0.0
  0
LINE
  5
15CF
  8
AM_5
 62
     5
 10
174.63024351645009
 20
204.42282914285579
 30
0.0
 11
142.7302435164502
 21
204.42282914285579
 31
0.0
  0
SOLID
  5
15D0
  8
AM_5
 62
     5
 10
174.63024351645009
 20
204.8894958095224
 30
0.0
 11
174.63024351645009
 21
203.95616247618909
 31
0.0
 12
177.43024351645019
 22
204.42282914285579
 32
0.0
 13
177.43024351645019
 23
204.42282914285579
 33
0.0
  0
SOLID
  5
15D1
  8
AM_5
 62
     5
 10
142.7302435164502
 20
204.8894958095224
 30
0.0
 11
142.7302435164502
 21
203.95616247618909
 31
0.0
 12
139.93024351645019
 22
204.42282914285579
 32
0.0
 13
139.93024351645019
 23
204.42282914285579
 33
0.0
  0
TEXT
  8
AM_5
  40
2.8
  5
1620
  62
5
  72
0
  71
0
 10
158.680
 20
202.983
 30
0.000000
  1
32.5+Stroke
  0
POINT
  5
15D3
  8
DEFPOINTS
 62
     0
 10
177.43024351645019
 20
218.5544631129527
 30
0.0
  0
POINT
  5
15D4
  8
DEFPOINTS
 62
     0
 10
139.93024351645019
 20
218.5544631129527
 30
0.0
  0
POINT
  5
15D5
  8
DEFPOINTS
 62
     0
 10
139.93024351645019
 20
204.42282914285579
 30
0.0
  0
ENDBLK
  5
BF9
  8
0
  0
BLOCK
  8
0
  2
*D14
 70
     1
 10
0.0
 20
0.0
 30
0.0
  3
*D14
  1

  0
LINE
  5
15D6
  8
AM_5
 62
     5
 10
177.43024351645019
 20
217.75446311295269
 30
0.0
 11
177.43024351645019
 21
195.62282914285569
 31
0.0
  0
LINE
  5
15D7
  8
AM_5
 62
     5
 10
134.9302435164501
 20
233.11913768256761
 30
0.0
 11
134.9302435164501
 21
195.62282914285569
 31
0.0
  0
LINE
  5
15D8
  8
AM_5
 62
     5
 10
174.63024351645009
 20
196.4228291428557
 30
0.0
 11
137.7302435164502
 21
196.4228291428557
 31
0.0
  0
SOLID
  5
15D9
  8
AM_5
 62
     5
 10
174.63024351645009
 20
196.8894958095224
 30
0.0
 11
174.63024351645009
 21
195.95616247618901
 31
0.0
 12
177.43024351645019
 22
196.4228291428557
 32
0.0
 13
177.43024351645019
 23
196.4228291428557
 33
0.0
  0
SOLID
  5
15DA
  8
AM_5
 62
     5
 10
137.7302435164502
 20
196.8894958095224
 30
0.0
 11
137.7302435164502
 21
195.95616247618901
 31
0.0
 12
134.9302435164501
 22
196.4228291428557
 32
0.0
 13
134.9302435164501
 23
196.4228291428557
 33
0.0
  0
TEXT
  8
AM_5
  40
2.8
  5
1621
  62
5
  72
0
  71
0
 10
156.180
 20
194.983
 30
0.000000
  1
37.5+Stroke
  0
POINT
  5
15DC
  8
DEFPOINTS
 62
     0
 10
177.43024351645019
 20
218.5544631129527
 30
0.0
  0
POINT
  5
15DD
  8
DEFPOINTS
 62
     0
 10
134.9302435164501
 20
233.91913768256759
 30
0.0
  0
POINT
  5
15DE
  8
DEFPOINTS
 62
     0
 10
134.9302435164501
 20
196.4228291428557
 30
0.0
  0
ENDBLK
  5
C23
  8
0
  0
BLOCK
  8
0
  2
*D15
 70
     1
 10
0.0
 20
0.0
 30
0.0
  3
*D15
  1

  0
LINE
  5
15DF
  8
AM_5
 62
     5
 10
134.13024351645009
 20
243.91913768256759
 30
0.0
 11
127.5001216731977
 21
243.91913768256759
 31
0.0
  0
LINE
  5
15E0
  8
AM_5
 62
     5
 10
134.13024351645009
 20
233.91913768256759
 30
0.0
 11
127.5001216731977
 21
233.91913768256759
 31
0.0
  0
LINE
  5
15E1
  8
AM_5
 62
     5
 10
128.30012167319771
 20
241.11913768256761
 30
0.0
 11
128.30012167319771
 21
236.71913768256761
 31
0.0
  0
SOLID
  5
15E2
  8
AM_5
 62
     5
 10
127.833455006531
 20
241.11913768256761
 30
0.0
 11
128.76678833986441
 21
241.11913768256761
 31
0.0
 12
128.30012167319771
 22
243.91913768256759
 32
0.0
 13
128.30012167319771
 23
243.91913768256759
 33
0.0
  0
SOLID
  5
15E3
  8
AM_5
 62
     5
 10
127.833455006531
 20
236.71913768256761
 30
0.0
 11
128.76678833986441
 21
236.71913768256761
 31
0.0
 12
128.30012167319771
 22
233.91913768256759
 32
0.0
 13
128.30012167319771
 23
233.91913768256759
 33
0.0
  0
TEXT
  8
AM_5
  40
2.8
  5
1622
  62
5
  72
0
  71
0
 10
126.100
 20
235.279
 30
0.000000
  1
10
  0
POINT
  5
15E5
  8
DEFPOINTS
 62
     0
 10
134.9302435164501
 20
243.91913768256759
 30
0.0
  0
POINT
  5
15E6
  8
DEFPOINTS
 62
     0
 10
134.9302435164501
 20
233.91913768256759
 30
0.0
  0
POINT
  5
15E7
  8
DEFPOINTS
 62
     0
 10
128.30012167319771
 20
233.91913768256759
 30
0.0
  0
ENDBLK
  5
CA4
  8
0
  0
BLOCK
  8
0
  2
*D16
 70
     1
 10
0.0
 20
0.0
 30
0.0
  3
*D16
  1

  0
LINE
  5
15E8
  8
AM_5
 62
     5
 10
152.71357840840571
 20
58.594310982074909
 30
0.0
 11
152.71357840840571
 21
29.928746934528931
 31
0.0
  0
LINE
  5
15E9
  8
AM_5
 62
     5
 10
141.71357840840571
 20
35.781273982075021
 30
0.0
 11
141.71357840840571
 21
29.928746934528931
 31
0.0
  0
LINE
  5
15EA
  8
AM_5
 62
     5
 10
149.21357840840571
 20
30.928746934528931
 30
0.0
 11
145.21357840840571
 21
30.928746934528931
 31
0.0
  0
SOLID
  5
15EB
  8
AM_5
 62
     5
 10
149.21357840840571
 20
31.51208026786227
 30
0.0
 11
149.21357840840571
 21
30.345413601195599
 31
0.0
 12
152.71357840840571
 22
30.928746934528931
 32
0.0
 13
152.71357840840571
 23
30.928746934528931
 33
0.0
  0
SOLID
  5
15EC
  8
AM_5
 62
     5
 10
145.21357840840571
 20
31.51208026786227
 30
0.0
 11
145.21357840840571
 21
30.345413601195599
 31
0.0
 12
141.71357840840571
 22
30.928746934528931
 32
0.0
 13
141.71357840840571
 23
30.928746934528931
 33
0.0
  0
TEXT
  8
AM_5
  40
3.5
  5
1623
  62
5
  72
0
  71
0
 10
147.214
 20
29.1287
 30
0.000000
  1
11
  0
POINT
  5
15EE
  8
DEFPOINTS
 62
     0
 10
152.71357840840571
 20
59.594310982074923
 30
0.0
  0
POINT
  5
15EF
  8
DEFPOINTS
 62
     0
 10
141.71357840840571
 20
36.781273982075021
 30
0.0
  0
POINT
  5
15F0
  8
DEFPOINTS
 62
     0
 10
141.71357840840571
 20
30.928746934528931
 30
0.0
  0
ENDBLK
  5
DBD
  8
0
  0
BLOCK
  8
0
  2
*D17
 70
     1
 10
0.0
 20
0.0
 30
0.0
  3
*D17
  1

  0
LINE
  5
15F1
  8
AM_5
 62
     5
 10
173.71357840840571
 20
58.594310982074909
 30
0.0
 11
173.71357840840571
 21
30.431240019307779
 31
0.0
  0
LINE
  5
15F2
  8
AM_5
 62
     5
 10
179.21357840840571
 20
35.781273982075021
 30
0.0
 11
179.21357840840571
 21
30.431240019307779
 31
0.0
  0
LINE
  5
15F3
  8
AM_5
 62
     5
 10
170.21357840840571
 20
31.431240019307779
 30
0.0
 11
166.71357840840571
 21
31.431240019307779
 31
0.0
  0
LINE
  5
15F4
  8
AM_5
 62
     5
 10
182.71357840840571
 20
31.431240019307779
 30
0.0
 11
195.54691174173911
 21
31.431240019307779
 31
0.0
  0
LINE
  5
15F5
  8
AM_5
 62
     5
 10
173.71357840840571
 20
31.431240019307779
 30
0.0
 11
179.21357840840571
 21
31.431240019307779
 31
0.0
  0
SOLID
  5
15F6
  8
AM_5
 62
     5
 10
170.21357840840571
 20
32.014573352641122
 30
0.0
 11
170.21357840840571
 21
30.847906685974451
 31
0.0
 12
173.71357840840571
 22
31.431240019307779
 32
0.0
 13
173.71357840840571
 23
31.431240019307779
 33
0.0
  0
SOLID
  5
15F7
  8
AM_5
 62
     5
 10
182.71357840840571
 20
32.014573352641122
 30
0.0
 11
182.71357840840571
 21
30.847906685974451
 31
0.0
 12
179.21357840840571
 22
31.431240019307779
 32
0.0
 13
179.21357840840571
 23
31.431240019307779
 33
0.0
  0
TEXT
  8
AM_5
  40
3.5
  5
1624
  62
5
  72
0
  71
0
 10
190.880
 20
29.6312
 30
0.000000
  1
5.5
  0
POINT
  5
15F9
  8
DEFPOINTS
 62
     0
 10
173.71357840840571
 20
59.594310982074923
 30
0.0
  0
POINT
  5
15FA
  8
DEFPOINTS
 62
     0
 10
179.21357840840571
 20
36.781273982075021
 30
0.0
  0
POINT
  5
15FB
  8
DEFPOINTS
 62
     0
 10
179.21357840840571
 20
31.431240019307779
 30
0.0
  0
ENDBLK
  5
DD7
  8
0
  0
BLOCK
  8
0
  2
*D18
 70
     1
 10
0.0
 20
0.0
 30
0.0
  3
*D18
  1

  0
LINE
  5
1601
  8
AM_5
 62
     5
 10
206.10853022842889
 20
250.9991680572345
 30
0.0
 11
182.6085302284292
 21
250.99916805723461
 31
0.0
  0
LINE
  5
1602
  8
AM_5
 62
     5
 10
182.6085302284292
 20
250.99916805723461
 30
0.0
 11
176.43590911119051
 21
246.87208684274989
 31
0.0
  0
TEXT
  8
AM_5
  40
2.8
  5
1625
  62
5
  72
0
  71
0
 10
196.109
 20
249.559
 30
0.000000
  1
2-M5*0.8
  0
SOLID
  5
1604
  8
AM_5
 62
     5
 10
176.17652710493491
 20
247.26002852987401
 30
0.0
 11
176.695291117446
 21
246.48414515562601
 31
0.0
 12
174.10825898844649
 22
245.31579480521651
 32
0.0
 13
174.10825898844649
 23
245.31579480521651
 33
0.0
  0
POINT
  5
1605
  8
DEFPOINTS
 62
     0
 10
174.10825898844649
 20
245.31579480521651
 30
0.0
  0
POINT
  5
1606
  8
DEFPOINTS
 62
     0
 10
171.9302435164503
 20
243.85955011295309
 30
0.0
  0
ENDBLK
  5
ED8
  8
0
  0
BLOCK
  8
0
  2
*D19
 70
     1
 10
0.0
 20
0.0
 30
0.0
  3
*D19
  1

  0
LINE
  5
1429
  8
AM_5
 10
80.687280947317504
 20
301.71645348969543
 30
0.0
 11
92.842524767154543
 21
324.13364698987812
 31
0.0
  0
LINE
  5
142A
  8
AM_5
 10
92.842524767154543
 20
324.13364698987812
 30
0.0
 11
122.1758581004878
 21
324.13364698987812
 31
0.0
  0
SOLID
  5
142B
  8
AM_5
 10
80.174481364203103
 20
301.99450809824458
 30
0.0
 11
81.20008053043189
 21
301.4383988811461
 31
0.0
 12
79.018953296021976
 22
298.63965599100902
 32
0.0
 13
79.018953296021976
 23
298.63965599100902
 33
0.0
  0
INSERT
  5
142C
  8
0
  2
*U24
 10
0.0
 20
0.0
 30
0.0
  0
POINT
  5
142D
  8
DEFPOINTS
 62
     0
 10
79.018953296021976
 20
298.63965599100902
 30
0.0
  0
POINT
  5
142E
  8
DEFPOINTS
 62
     0
 10
77.518888404985773
 20
295.87317549719029
 30
0.0
  0
ENDBLK
  5
1084
  8
0
  0
BLOCK
  8
0
  2
*D20
 70
     1
 10
0.0
 20
0.0
 30
0.0
  3
*D20
  1

  0
LINE
  5
1444
  8
AM_5
 10
56.912887295960097
 20
314.01261558618529
 30
0.0
 11
43.128830056590921
 21
322.53678331178742
 31
0.0
  0
LINE
  5
1445
  8
AM_5
 10
43.128830056590921
 20
322.53678331178742
 30
0.0
 11
19.39549672325759
 21
322.53678331178742
 31
0.0
  0
SOLID
  5
1446
  8
AM_5
 10
57.158335815757027
 20
314.40951960721219
 30
0.0
 11
56.667438776163259
 21
313.61571156515851
 31
0.0
 12
59.294311422121282
 22
312.53992446740398
 32
0.0
 13
59.294311422121282
 23
312.53992446740398
 33
0.0
  0
INSERT
  5
1447
  8
0
  2
*U26
 10
0.0
 20
0.0
 30
0.0
  0
POINT
  5
1448
  8
DEFPOINTS
 62
     0
 10
59.294311422121282
 20
312.53992446740398
 30
0.0
  0
POINT
  5
1449
  8
DEFPOINTS
 62
     0
 10
67.459194140388206
 20
307.49069777443913
 30
0.0
  0
ENDBLK
  5
1174
  8
0
  0
BLOCK
  8
0
  2
*D21
 70
     1
 10
0.0
 20
0.0
 30
0.0
  3
*D21
  1

  0
LINE
  5
1435
  8
AM_5
 10
95.217204372887466
 20
276.96444881068419
 30
0.0
 11
103.46040636512321
 21
265.91552295706441
 31
0.0
  0
LINE
  5
1436
  8
AM_5
 10
103.46040636512321
 20
265.91552295706441
 30
0.0
 11
137.8604063651232
 21
265.91552295706441
 31
0.0
  0
SOLID
  5
1437
  8
AM_5
 10
95.591243243347975
 20
277.24350561702011
 30
0.0
 11
94.843165502426956
 21
276.68539200434822
 31
0.0
 12
93.542863534871884
 22
279.20868203344719
 32
0.0
 13
93.542863534871884
 23
279.20868203344719
 33
0.0
  0
INSERT
  5
1438
  8
0
  2
*U25
 10
0.0
 20
0.0
 30
0.0
  0
POINT
  5
1439
  8
DEFPOINTS
 62
     0
 10
93.542863534871884
 20
279.20868203344719
 30
0.0
  0
POINT
  5
143A
  8
DEFPOINTS
 62
     0
 10
91.661024028716355
 20
281.73103987345991
 30
0.0
  0
ENDBLK
  5
11AD
  8
0
  0
BLOCK
  8
0
  2
*U23
 70
     1
 10
0.0
 20
0.0
 30
0.0
  3
*U23
  1

  0
SOLID
  5
15A6
  8
0
 10
126.2390800951143
 20
128.98762597393201
 30
0.0
 11
126.7135784084054
 21
127.0163415038986
 31
0.0
 12
125.6253931487949
 22
128.72717871178179
 32
0.0
 13
125.6253931487949
 23
128.72717871178179
 33
0.0
  0
POLYLINE
  5
15A7
  8
0
 66
     1
 10
0.0
 20
0.0
 30
0.0
  0
VERTEX
  5
15A8
  8
0
 10
125.9322366219546
 20
128.85740234285689
 30
0.0
  0
VERTEX
  5
15A9
  8
0
 10
121.61262330720839
 20
139.0356253063911
 30
0.0
  0
VERTEX
  5
15AA
  8
0
 10
100.4121460484793
 20
139.0356253063911
 30
0.0
  0
SEQEND
  5
15AB
  8
0
  0
ENDBLK
  5
15AD
  8
0
  0
BLOCK
  8
0
  2
*U24
 70
     1
 10
0.0
 20
0.0
 30
0.0
  3
*U24
  1

  0
TEXT
  5
1608
  8
AM_5
 10
93.842524767154444
 20
325.13364698987812
 30
0.0
 40
3.5
  1
M6*1.0*12L
  0
ENDBLK
  5
160A
  8
0
  0
BLOCK
  8
0
  2
*U25
 70
     1
 10
0.0
 20
0.0
 30
0.0
  3
*U25
  1

  0
TEXT
  5
160C
  8
AM_5
 10
104.2604063651232
 20
266.71552295706431
 30
0.0
 40
2.7999999999999998
  1
2*2-M6*1.0*10L
  0
ENDBLK
  5
160E
  8
0
  0
BLOCK
  8
0
  2
*U26
 70
     1
 10
0.0
 20
0.0
 30
0.0
  3
*U26
  1

  0
TEXT
  5
1610
  8
AM_5
 10
19.395496723257601
 20
323.33678331178749
 30
0.0
 40
2.7999999999999998
  1
2-\U+22055.5thru
  0
ENDBLK
  5
1612
  8
0
  0
ENDSEC
  0
SECTION
  2
ENTITIES
  0
LINE
  5
3D
 67
     1
  8
AM_7
 10
63.376752781254709
 20
310.01531112092152
 30
0.0
 11
63.376752781254709
 21
310.01531112092152
 31
0.0
  0
LINE
  5
40
 67
     1
  8
AM_7
 10
63.376752781254709
 20
310.01531112092152
 30
0.0
 11
63.376752781254709
 21
310.01531112092152
 31
0.0
  0
LINE
  5
41
 67
     1
  8
AM_7
 10
58.201752781254697
 20
310.01531112092152
 30
0.0
 11
63.376752781254709
 21
310.01531112092152
 31
0.0
  0
LINE
  5
42
 67
     1
  8
AM_7
 10
63.376752781254709
 20
310.01531112092152
 30
0.0
 11
68.551752781254663
 21
310.01531112092152
 31
0.0
  0
LINE
  5
43
 67
     1
  8
AM_7
 10
63.376752781254709
 20
304.84031112092151
 30
0.0
 11
63.376752781254709
 21
310.01531112092152
 31
0.0
  0
LINE
  5
44
 67
     1
  8
AM_7
 10
63.376752781254709
 20
310.01531112092152
 30
0.0
 11
63.376752781254709
 21
315.19031112092148
 31
0.0
  0
LINE
  5
45
 67
     1
  8
AM_7
 10
91.661024028716355
 20
281.73103987345962
 30
0.0
 11
91.661024028716355
 21
281.73103987345962
 31
0.0
  0
LINE
  5
46
 67
     1
  8
AM_7
 10
91.661024028716355
 20
281.73103987345962
 30
0.0
 11
91.661024028716355
 21
281.73103987345962
 31
0.0
  0
LINE
  5
47
 67
     1
  8
AM_7
 10
86.486024028716358
 20
281.73103987345962
 30
0.0
 11
91.661024028716355
 21
281.73103987345962
 31
0.0
  0
LINE
  5
48
 67
     1
  8
AM_7
 10
91.661024028716355
 20
281.73103987345962
 30
0.0
 11
96.836024028716352
 21
281.73103987345962
 31
0.0
  0
LINE
  5
49
 67
     1
  8
AM_7
 10
91.661024028716355
 20
276.55603987345961
 30
0.0
 11
91.661024028716355
 21
281.73103987345962
 31
0.0
  0
LINE
  5
4A
 67
     1
  8
AM_7
 10
91.661024028716355
 20
281.73103987345962
 30
0.0
 11
91.661024028716355
 21
286.90603987345958
 31
0.0
  0
LINE
  5
4B
 67
     1
  8
AM_7
 10
77.518888404985546
 20
295.87317549719057
 30
0.0
 11
77.518888404985546
 21
295.87317549719057
 31
0.0
  0
LINE
  5
4C
 67
     1
  8
AM_7
 10
77.518888404985546
 20
295.87317549719057
 30
0.0
 11
77.518888404985546
 21
295.87317549719057
 31
0.0
  0
LINE
  5
4D
 67
     1
  8
AM_7
 10
55.095111598744317
 20
295.87317549719057
 30
0.0
 11
77.518888404985546
 21
295.87317549719057
 31
0.0
  0
LINE
  5
4E
 67
     1
  8
AM_7
 10
77.518888404985546
 20
295.87317549719057
 30
0.0
 11
96.306823869351632
 21
295.87317549719057
 31
0.0
  0
ARC
  5
4F
 67
     1
  8
AM_4
 10
63.376752781254709
 20
310.01531112092152
 30
0.0
 40
3.1469999999999989
 50
260.0
 51
190.0
  0
ARC
  5
52
 67
     1
  8
AM_4
 10
91.661024028716355
 20
281.73103987345962
 30
0.0
 40
3.1469999999999989
 50
260.0
 51
190.0
  0
ARC
  5
53
 67
     1
  8
AM_4
 10
63.376752781254709
 20
310.01531112092152
 30
0.0
 40
3.1469999999999989
 50
260.0
 51
190.0
  0
ARC
  5
54
 67
     1
  8
AM_4
 10
91.661024028716355
 20
281.73103987345962
 30
0.0
 40
3.1469999999999989
 50
260.0
 51
190.0
  0
ARC
  5
55
 67
     1
  8
AM_4
 10
77.518888404985773
 20
295.87317549719029
 30
0.0
 40
2.6200000000000001
 50
260.0
 51
190.0
  0
ARC
  5
56
 67
     1
  8
AM_4
 10
77.518888404985773
 20
295.87317549719029
 30
0.0
 40
3.1469999999999989
 50
260.0
 51
190.0
  0
LINE
  5
57
 67
     1
  8
AM_7
 10
180.48783970588249
 20
295.87317549719069
 30
0.0
 11
133.6046981345867
 21
295.87317549719069
 31
0.0
  0
LINE
  5
58
 67
     1
  8
AM_7
 10
133.6046981345867
 20
238.919137682567
 30
0.0
 11
180.48783970588249
 21
238.919137682567
 31
0.0
  0
LINE
  5
67
 67
     1
  8
AM_7
 10
148.43819351645021
 20
243.85955011295269
 30
0.0
 11
150.93024351645019
 21
243.85955011295269
 31
0.0
  0
LINE
  5
68
 67
     1
  8
AM_7
 10
150.93024351645019
 20
243.85955011295269
 30
0.0
 11
153.4222935164502
 21
243.85955011295269
 31
0.0
  0
LINE
  5
69
 67
     1
  8
AM_7
 10
150.93024351645019
 20
241.36750011295271
 30
0.0
 11
150.93024351645019
 21
243.85955011295269
 31
0.0
  0
LINE
  5
6A
 67
     1
  8
AM_7
 10
150.93024351645019
 20
243.85955011295269
 30
0.0
 11
150.93024351645019
 21
246.3516001129527
 31
0.0
  0
LINE
  5
6D
 67
     1
  8
AM_7
 10
168.5659251793322
 20
243.85955011295269
 30
0.0
 11
175.04961748457481
 21
243.85955011295269
 31
0.0
  0
LINE
  5
70
 67
     1
  8
AM_7
 10
171.93024351645019
 20
240.94616083856579
 30
0.0
 11
171.93024351645019
 21
247.06721642329569
 31
0.0
  0
ARC
  5
71
 67
     1
  8
AM_4
 10
150.93024351645019
 20
243.859550112953
 30
0.0
 40
2.6200000000000001
 50
260.0
 51
190.0
  0
ARC
  5
72
 67
     1
  8
AM_4
 10
171.93024351645019
 20
243.859550112953
 30
0.0
 40
2.6200000000000001
 50
260.0
 51
190.0
  0
LINE
  5
73
 67
     1
  8
AM_7
 10
240.68028156111339
 20
310.01531112092152
 30
0.0
 11
240.68028156111339
 21
310.01531112092152
 31
0.0
  0
LINE
  5
74
 67
     1
  8
AM_7
 10
240.68028156111339
 20
310.01531112092152
 30
0.0
 11
240.68028156111339
 21
310.01531112092152
 31
0.0
  0
LINE
  5
75
 67
     1
  8
AM_7
 10
235.50528156111341
 20
310.01531112092152
 30
0.0
 11
240.68028156111339
 21
310.01531112092152
 31
0.0
  0
LINE
  5
76
 67
     1
  8
AM_7
 10
240.68028156111339
 20
310.01531112092152
 30
0.0
 11
245.8552815611134
 21
310.01531112092152
 31
0.0
  0
LINE
  5
77
 67
     1
  8
AM_7
 10
240.68028156111339
 20
304.84031112092151
 30
0.0
 11
240.68028156111339
 21
310.01531112092152
 31
0.0
  0
LINE
  5
78
 67
     1
  8
AM_7
 10
240.68028156111339
 20
310.01531112092152
 30
0.0
 11
240.68028156111339
 21
315.19031112092148
 31
0.0
  0
LINE
  5
79
 67
     1
  8
AM_7
 10
212.39601031365169
 20
281.73103987345962
 30
0.0
 11
212.39601031365169
 21
281.73103987345962
 31
0.0
  0
LINE
  5
7A
 67
     1
  8
AM_7
 10
212.39601031365169
 20
281.73103987345962
 30
0.0
 11
212.39601031365169
 21
281.73103987345962
 31
0.0
  0
LINE
  5
7B
 67
     1
  8
AM_7
 10
207.2210103136517
 20
281.73103987345962
 30
0.0
 11
212.39601031365169
 21
281.73103987345962
 31
0.0
  0
LINE
  5
7C
 67
     1
  8
AM_7
 10
212.39601031365169
 20
281.73103987345962
 30
0.0
 11
217.57101031365181
 21
281.73103987345962
 31
0.0
  0
LINE
  5
7D
 67
     1
  8
AM_7
 10
212.39601031365169
 20
276.55603987345961
 30
0.0
 11
212.39601031365169
 21
281.73103987345962
 31
0.0
  0
LINE
  5
7E
 67
     1
  8
AM_7
 10
212.39601031365169
 20
281.73103987345962
 30
0.0
 11
212.39601031365169
 21
286.90603987345958
 31
0.0
  0
LINE
  5
7F
 67
     1
  8
AM_7
 10
226.53814593738261
 20
295.87317549719052
 30
0.0
 11
226.53814593738261
 21
295.87317549719052
 31
0.0
  0
LINE
  5
80
 67
     1
  8
AM_7
 10
226.53814593738261
 20
295.87317549719052
 30
0.0
 11
226.53814593738261
 21
295.87317549719052
 31
0.0
  0
LINE
  5
81
 67
     1
  8
AM_7
 10
202.61814593738259
 20
295.87317549719052
 30
0.0
 11
250.4581459373826
 21
295.87317549719052
 31
0.0
  0
LINE
  5
84
 67
     1
  8
AM_7
 10
226.53814593738261
 20
271.95317549719061
 30
0.0
 11
226.53814593738261
 21
319.79317549719048
 31
0.0
  0
ARC
  5
85
 67
     1
  8
AM_4
 10
240.68028156111339
 20
310.01531112092152
 30
0.0
 40
3.1469999999999989
 50
260.0
 51
190.0
  0
ARC
  5
86
 67
     1
  8
AM_4
 10
212.39601031365169
 20
281.73103987345962
 30
0.0
 40
3.1469999999999989
 50
260.0
 51
190.0
  0
ARC
  5
87
 67
     1
  8
AM_4
 10
240.68028156111339
 20
310.01531112092152
 30
0.0
 40
3.1469999999999989
 50
260.0
 51
190.0
  0
ARC
  5
88
 67
     1
  8
AM_4
 10
212.39601031365169
 20
281.73103987345962
 30
0.0
 40
3.1469999999999989
 50
260.0
 51
190.0
  0
LINE
  5
89
 67
     1
  8
AM_VIS
 10
65.795844868080621
 20
315.52069376402972
 30
0.0
 11
67.977825383420054
 21
313.33871324869028
 31
0.0
  0
LINE
  5
8B
 67
     1
  8
AM_VIS
 10
67.977825383420154
 20
313.33871324869
 30
0.0
 11
72.177825383420156
 21
313.33871324869
 31
0.0
  0
LINE
  5
8C
 67
     1
  8
AM_VIS
 10
72.477825383420395
 20
310.63871352228108
 30
0.0
 11
72.477825383420395
 21
313.03871324868987
 31
0.0
  0
LINE
  5
8D
 67
     1
  8
AM_VIS
 10
81.177825383420441
 20
310.3387135222813
 30
0.0
 11
72.777825383420407
 21
310.3387135222813
 31
0.0
  0
LINE
  5
8E
 67
     1
  8
AM_VIS
 10
81.477825383420168
 20
311.23871352228139
 30
0.0
 11
81.477825383420168
 21
310.63871352228108
 31
0.0
  0
LINE
  5
8F
 67
     1
  8
AM_VIS
 10
80.077825383420077
 20
311.53871352228123
 30
0.0
 11
81.177825383420213
 21
311.5387135222814
 31
0.0
  0
LINE
  5
90
 67
     1
  8
AM_VIS
 10
79.77782538342035
 20
313.33871352228113
 30
0.0
 11
79.77782538342035
 21
311.83871352228113
 31
0.0
  0
LINE
  5
91
 67
     1
  8
AM_VIS
 10
79.77782538342035
 20
313.33871324869023
 30
0.0
 11
83.963611821047024
 21
313.33871324869023
 31
0.0
  0
LINE
  5
92
 67
     1
  8
AM_VIS
 10
84.670718602233592
 20
313.04582002987689
 30
0.0
 11
94.691533882404855
 21
303.0250047497056
 31
0.0
  0
LINE
  5
93
 67
     1
  8
AM_VIS
 10
94.984427101218415
 20
302.31789796851899
 30
0.0
 11
94.984427101218415
 21
298.43211153089169
 31
0.0
  0
LINE
  5
94
 67
     1
  8
AM_VIS
 10
93.484427374809414
 20
298.13211153089168
 30
0.0
 11
94.684427101218404
 21
298.13211153089168
 31
0.0
  0
LINE
  5
95
 67
     1
  8
AM_VIS
 10
93.184427374809687
 20
299.53211153089183
 30
0.0
 11
93.184427374809687
 21
298.43211153089192
 31
0.0
  0
LINE
  5
96
 67
     1
  8
AM_VIS
 10
92.28442737480961
 20
299.83211153089189
 30
0.0
 11
92.884427374809519
 21
299.83211153089189
 31
0.0
  0
LINE
  5
97
 67
     1
  8
AM_VIS
 10
91.984427374809655
 20
291.13211153089179
 30
0.0
 11
91.984427374809655
 21
299.53211153089183
 31
0.0
  0
LINE
  5
98
 67
     1
  8
AM_VIS
 10
94.684427101218674
 20
290.83211153089178
 30
0.0
 11
92.284427374809894
 21
290.83211153089178
 31
0.0
  0
LINE
  5
99
 67
     1
  8
AM_VIS
 10
94.984427101218415
 20
290.53211153089183
 30
0.0
 11
94.984427101218415
 21
286.33211153089178
 31
0.0
  0
LINE
  5
9A
 67
     1
  8
AM_VIS
 10
94.984427101218415
 20
286.33211153089178
 30
0.0
 11
97.16640761655789
 21
284.15013101555229
 31
0.0
  0
LINE
  5
9B
 67
     1
  8
AM_VIS
 10
97.459300835371295
 20
283.44302423436579
 30
0.0
 11
97.459300835371295
 21
279.55567639448242
 31
0.0
  0
LINE
  5
9C
 67
     1
  8
AM_VIS
 10
93.330573287152177
 20
275.50850092757651
 30
0.0
 11
73.124776583848529
 21
275.50850092757651
 31
0.0
  0
LINE
  5
9D
 67
     1
  8
AM_VIS
 10
72.417669802662203
 20
275.80139414639012
 30
0.0
 11
57.447107054185039
 21
290.77195689486717
 31
0.0
  0
LINE
  5
9E
 67
     1
  8
AM_VIS
 10
57.154213835371138
 20
291.47906367605378
 30
0.0
 11
57.154213835371138
 21
311.68486037935747
 31
0.0
  0
LINE
  5
9F
 67
     1
  8
AM_VIS
 10
61.201388205685127
 20
315.81358698284311
 30
0.0
 11
65.088738086894068
 21
315.81358698284311
 31
0.0
  0
CIRCLE
  5
A0
 67
     1
  8
AM_VIS
 10
63.376752781254709
 20
310.01531112092152
 30
0.0
 40
4.5
  0
CIRCLE
  5
A1
 67
     1
  8
AM_VIS
 10
91.661024028716355
 20
281.73103987345962
 30
0.0
 40
4.5
  0
CIRCLE
  5
A3
 67
     1
  8
AM_VIS
 10
63.376752781254709
 20
310.01531112092152
 30
0.0
 40
2.75
  0
CIRCLE
  5
A5
 67
     1
  8
AM_VIS
 10
91.661024028716355
 20
281.73103987345962
 30
0.0
 40
2.75
  0
CIRCLE
  5
A6
 67
     1
  8
AM_VIS
 10
63.376752781254709
 20
310.01531112092152
 30
0.0
 40
4.7999999999999998
  0
ARC
  5
A7
 67
     1
  8
AM_VIS
 10
72.177825383420441
 20
313.0387132486901
 30
0.0
 40
0.3
 50
0.0
 51
90.0
  0
ARC
  5
A8
 67
     1
  8
AM_VIS
 10
72.777825383420122
 20
310.63871352228108
 30
0.0
 40
0.3
 50
180.0
 51
270.0
  0
ARC
  5
A9
 67
     1
  8
AM_VIS
 10
81.177825383419986
 20
310.63871352228131
 30
0.0
 40
0.3
 50
270.0
 51
0.0
  0
ARC
  5
AA
 67
     1
  8
AM_VIS
 10
81.177825383420213
 20
311.23871352228127
 30
0.0
 40
0.3
 50
0.0
 51
90.0
  0
ARC
  5
AB
 67
     1
  8
AM_VIS
 10
80.077825383420304
 20
311.83871352228118
 30
0.0
 40
0.3
 50
180.0
 51
270.0
  0
ARC
  5
AC
 67
     1
  8
AM_VIS
 10
83.963611821047394
 20
312.33871324869011
 30
0.0
 40
1.0
 50
45.0
 51
90.0
  0
ARC
  5
AD
 67
     1
  8
AM_VIS
 10
93.984427101218415
 20
302.31789796851882
 30
0.0
 40
1.0
 50
0.0
 51
45.0
  0
ARC
  5
AE
 67
     1
  8
AM_VIS
 10
94.684427101218674
 20
298.43211153089192
 30
0.0
 40
0.3
 50
270.0
 51
0.0
  0
ARC
  5
AF
 67
     1
  8
AM_VIS
 10
93.484427374809414
 20
298.43211153089192
 30
0.0
 40
0.3
 50
180.0
 51
270.0
  0
ARC
  5
B0
 67
     1
  8
AM_VIS
 10
92.884427374809519
 20
299.53211153089183
 30
0.0
 40
0.3
 50
0.0
 51
90.0
  0
ARC
  5
B1
 67
     1
  8
AM_VIS
 10
92.28442737480961
 20
299.53211153089171
 30
0.0
 40
0.3
 50
90.0
 51
180.0
  0
ARC
  5
B2
 67
     1
  8
AM_VIS
 10
92.28442737480961
 20
291.13211153089179
 30
0.0
 40
0.3
 50
180.0
 51
270.0
  0
ARC
  5
B3
 67
     1
  8
AM_VIS
 10
94.684427101218233
 20
290.53211153089183
 30
0.0
 40
0.3
 50
0.0
 51
90.0
  0
ARC
  5
B4
 67
     1
  8
AM_VIS
 10
96.459300835371295
 20
283.44302423436579
 30
0.0
 40
1.0
 50
0.0
 51
45.0
  0
ARC
  5
B5
 67
     1
  8
AM_VIS
 10
96.459300835371295
 20
279.55567639448242
 30
0.0
 40
1.0
 50
319.25452172945558
 51
0.0000000000091926
  0
ARC
  5
B6
 67
     1
  8
AM_VIS
 10
77.518888404985546
 20
295.87317549719057
 30
0.0
 40
26.0
 50
309.23239799650258
 51
319.25452172945683
  0
ARC
  5
B7
 67
     1
  8
AM_VIS
 10
93.330573287152177
 20
276.50850092757662
 30
0.0
 40
1.0
 50
269.99999999999079
 51
309.23239799650872
  0
ARC
  5
B8
 67
     1
  8
AM_VIS
 10
73.124776583848643
 20
276.50850092757662
 30
0.0
 40
1.0
 50
225.0
 51
270.0
  0
ARC
  5
B9
 67
     1
  8
AM_VIS
 10
58.154213835371358
 20
291.4790636760539
 30
0.0
 40
1.0
 50
180.0
 51
225.0
  0
ARC
  5
BA
 67
     1
  8
AM_VIS
 10
58.154213835371131
 20
311.68486037935759
 30
0.0
 40
1.0
 50
140.76760200349119
 51
180.00000000000921
  0
ARC
  5
BB
 67
     1
  8
AM_VIS
 10
77.518888404985546
 20
295.87317549719057
 30
0.0
 40
26.0
 50
130.7454815877947
 51
140.76760200349739
  0
ARC
  5
BC
 67
     1
  8
AM_VIS
 10
61.201388205684907
 20
314.81358698284299
 30
0.0
 40
0.9999999999999998
 50
89.999999999990806
 51
130.7454815877974
  0
ARC
  5
BD
 67
     1
  8
AM_VIS
 10
65.088738086894182
 20
314.81358698284299
 30
0.0
 40
1.0
 50
45.0
 51
90.0
  0
CIRCLE
  5
BE
 67
     1
  8
AM_VIS
 10
91.661024028716355
 20
281.73103987345962
 30
0.0
 40
4.7999999999999998
  0
CIRCLE
  5
BF
 67
     1
  8
AM_VIS
 10
77.518888404985546
 20
295.87317549719057
 30
0.0
 40
13.5
  0
CIRCLE
  5
C0
 67
     1
  8
AM_VIS
 10
77.518888404985546
 20
295.87317549719057
 30
0.0
 40
13.0
  0
ARC
  5
C1
 67
     1
  8
AM_VIS
 10
77.518888404985546
 20
295.87317549719057
 30
0.0
 40
12.5
 50
25.123125929922171
 51
64.876874070078799
  0
CIRCLE
  5
C2
 67
     1
  8
AM_VIS
 10
77.518888404985546
 20
295.87317549719057
 30
0.0
 40
7.5
  0
CIRCLE
  5
C3
 67
     1
  8
AM_VIS
 10
77.518888404985546
 20
295.87317549719057
 30
0.0
 40
7.0
  0
LINE
  5
C4
 67
     1
  8
AM_VIS
 10
83.038232067784975
 20
307.64334310567938
 30
0.0
 11
82.240729621534854
 21
305.94264497307148
 31
0.0
  0
LINE
  5
C5
 67
     1
  8
AM_VIS
 10
87.588357880866397
 20
300.59501671374022
 30
0.0
 11
89.289056013474294
 21
301.39251915999029
 31
0.0
  0
CIRCLE
  5
C6
 67
     1
  8
AM_VIS
 10
80.429934604844433
 20
306.79177476734839
 30
0.0
 40
1.0
  0
CIRCLE
  5
C7
 67
     1
  8
AM_VIS
 10
88.437487675143075
 20
298.78422169704959
 30
0.0
 40
1.0
  0
ARC
  5
C8
 67
     1
  8
AM_VIS
 10
80.429934604844433
 20
306.79177476734839
 30
0.0
 40
2.0
 50
196.72905928662351
 51
334.8768740700807
  0
ARC
  5
C9
 67
     1
  8
AM_VIS
 10
76.599228092501107
 20
305.64038968133701
 30
0.0
 40
2.0
 50
16.729059286623531
 51
98.921388866115805
  0
ARC
  5
CA
 67
     1
  8
AM_VIS
 10
78.049218490875546
 20
296.40350558308057
 30
0.0
 40
11.35000000000001
 50
98.921388866119955
 51
351.078611133881
  0
ARC
  5
CB
 67
     1
  8
AM_VIS
 10
87.286102589131815
 20
294.95351518470619
 30
0.0
 40
2.0
 50
351.07861113388418
 51
73.270940713376461
  0
ARC
  5
CC
 67
     1
  8
AM_VIS
 10
88.437487675143075
 20
298.78422169704959
 30
0.0
 40
2.0
 50
115.1231259299193
 51
253.27094071337649
  0
LINE
  5
CD
 67
     1
  8
AM_VIS
 10
72.518888404986001
 20
295.87317549719029
 30
0.0
 11
72.518888404986001
 21
292.55655070683503
 31
0.0
  0
ARC
  5
CE
 67
     1
  8
AM_VIS
 10
77.518888404985773
 20
295.87317549719029
 30
0.0
 40
5.9999999999999982
 50
146.44269023807931
 51
213.55730976192081
  0
LINE
  5
CF
 67
     1
  8
AM_VIS
 10
72.518888404986001
 20
299.18980028754612
 30
0.0
 11
72.518888404986001
 21
295.87317549719052
 31
0.0
  0
ARC
  5
D0
 67
     1
  8
AM_VIS
 10
77.518888404985773
 20
295.87317549719029
 30
0.0
 40
6.0000000000000018
 50
326.44269023807942
 51
33.55730976192072
  0
LINE
  5
D1
 67
     1
  8
AM_VIS
 10
82.518888404985773
 20
295.87317549719069
 30
0.0
 11
82.518888404985773
 21
292.5565507068352
 31
0.0
  0
LINE
  5
D2
 67
     1
  8
AM_VIS
 10
82.518888404985773
 20
299.18980028754572
 30
0.0
 11
82.518888404985773
 21
295.87317549719052
 31
0.0
  0
CIRCLE
  5
D3
 67
     1
  8
AM_VIS
 10
77.518888404985773
 20
295.87317549719029
 30
0.0
 40
0.4578285952969036
  0
ARC
  5
D4
 67
     1
  8
AM_VIS
 10
77.518888404985773
 20
295.87317549719029
 30
0.0
 40
5.9999999999999991
 50
213.557309761921
 51
326.44269023807908
  0
ARC
  5
D5
 67
     1
  8
AM_VIS
 10
77.518888404985773
 20
295.87317549719029
 30
0.0
 40
5.9999999999999991
 50
33.557309761920934
 51
146.442690238079
  0
ARC
  5
D6
 67
     1
  8
AM_VIS
 10
77.518888404985773
 20
295.87317549719029
 30
0.0
 40
5.0
 50
180.0
 51
0.0
  0
ARC
  5
D7
 67
     1
  8
AM_VIS
 10
77.518888404985773
 20
295.87317549719029
 30
0.0
 40
5.0
 50
0.0
 51
180.0
  0
CIRCLE
  5
D9
 67
     1
  8
AM_VIS
 10
77.518888404985773
 20
295.87317549719029
 30
0.0
 40
2.5764999999999989
  0
LINE
  5
DA
 67
     1
  8
AM_VIS
 10
177.43024351645019
 20
313.33871324869023
 30
0.0
 11
139.93024351645019
 21
313.33871324869023
 31
0.0
  0
LINE
  5
DB
 67
     1
  8
AM_VIS
 10
177.43024351645019
 20
286.33211153089201
 30
0.0
 11
139.93024351645019
 21
286.33211153089201
 31
0.0
  0
LINE
  5
DC
 67
     1
  8
AM_VIS
 10
177.43024351645019
 20
290.83211153089201
 30
0.0
 11
139.93024351645019
 21
290.83211153089201
 31
0.0
  0
LINE
  5
DD
 67
     1
  8
AM_VIS
 10
139.93024351645019
 20
298.13211153089202
 30
0.0
 11
177.43024351645019
 21
298.13211153089202
 31
0.0
  0
LINE
  5
DE
 67
     1
  8
AM_VIS
 10
177.43024351645019
 20
315.81358698284311
 30
0.0
 11
139.93024351645019
 21
315.81358698284311
 31
0.0
  0
LINE
  5
DF
 67
     1
  8
AM_VIS
 10
139.93024351645019
 20
275.50850092757679
 30
0.0
 11
177.43024351645019
 21
275.50850092757679
 31
0.0
  0
LINE
  5
E0
 67
     1
  8
AM_VIS
 10
139.93024351645019
 20
315.52069376402977
 30
0.0
 11
139.93024351645019
 21
313.3387132486904
 31
0.0
  0
LINE
  5
E1
 67
     1
  8
AM_VIS
 10
139.93024351645019
 20
313.04582002987689
 30
0.0
 11
139.93024351645019
 21
303.0250047497056
 31
0.0
  0
LINE
  5
E2
 67
     1
  8
AM_VIS
 10
139.93024351645019
 20
302.31789796851899
 30
0.0
 11
139.93024351645019
 21
298.43211153089169
 31
0.0
  0
LINE
  5
E3
 67
     1
  8
AM_VIS
 10
139.93024351645019
 20
291.13211153089202
 30
0.0
 11
139.93024351645019
 21
298.1321115308919
 31
0.0
  0
LINE
  5
E4
 67
     1
  8
AM_VIS
 10
139.93024351645019
 20
290.53211153089188
 30
0.0
 11
139.93024351645019
 21
286.33211153089189
 31
0.0
  0
LINE
  5
E5
 67
     1
  8
AM_VIS
 10
139.93024351645019
 20
286.33211153089201
 30
0.0
 11
139.93024351645019
 21
284.15013101555252
 31
0.0
  0
LINE
  5
E6
 67
     1
  8
AM_VIS
 10
139.93024351645019
 20
283.44302423436591
 30
0.0
 11
139.93024351645019
 21
279.55567639448248
 31
0.0
  0
LINE
  5
E7
 67
     1
  8
AM_VIS
 10
177.43024351645019
 20
279.55567639448242
 30
0.0
 11
177.43024351645019
 21
283.44302423436579
 31
0.0
  0
LINE
  5
E8
 67
     1
  8
AM_VIS
 10
177.43024351645019
 20
284.1501310155524
 30
0.0
 11
177.43024351645019
 21
286.33211153089178
 31
0.0
  0
LINE
  5
E9
 67
     1
  8
AM_VIS
 10
177.43024351645019
 20
286.33211153089201
 30
0.0
 11
177.43024351645019
 21
290.532111530892
 31
0.0
  0
LINE
  5
EA
 67
     1
  8
AM_VIS
 10
177.43024351645019
 20
298.13211153089179
 30
0.0
 11
177.43024351645019
 21
291.1321115308919
 31
0.0
  0
LINE
  5
EB
 67
     1
  8
AM_VIS
 10
177.43024351645019
 20
298.43211153089192
 30
0.0
 11
177.43024351645019
 21
302.31789796851911
 31
0.0
  0
LINE
  5
EC
 67
     1
  8
AM_VIS
 10
177.43024351645019
 20
303.0250047497056
 30
0.0
 11
177.43024351645019
 21
313.04582002987689
 31
0.0
  0
LINE
  5
ED
 67
     1
  8
AM_VIS
 10
177.43024351645019
 20
313.3387132486904
 30
0.0
 11
177.43024351645019
 21
315.52069376402977
 31
0.0
  0
LINE
  5
EE
 67
     1
  8
AM_VIS
 10
139.93024351645019
 20
313.04582002987672
 30
0.0
 11
139.93024351645019
 21
313.33871324869
 31
0.0
  0
LINE
  5
EF
 67
     1
  8
AM_VIS
 10
139.93024351645019
 20
302.31789796851882
 30
0.0
 11
139.93024351645019
 21
303.02500474970537
 31
0.0
  0
LINE
  5
F0
 67
     1
  8
AM_VIS
 10
139.93024351645019
 20
298.13211153089179
 30
0.0
 11
139.93024351645019
 21
298.43211153089192
 31
0.0
  0
LINE
  5
F1
 67
     1
  8
AM_VIS
 10
139.93024351645019
 20
291.13211153089179
 30
0.0
 11
139.93024351645019
 21
290.83211153089172
 31
0.0
  0
LINE
  5
F2
 67
     1
  8
AM_VIS
 10
139.93024351645019
 20
290.53211153089188
 30
0.0
 11
139.93024351645019
 21
290.83211153089201
 31
0.0
  0
LINE
  5
F3
 67
     1
  8
AM_VIS
 10
139.93024351645019
 20
283.44302423436591
 30
0.0
 11
139.93024351645019
 21
284.1501310155524
 31
0.0
  0
LINE
  5
F4
 67
     1
  8
AM_VIS
 10
139.93024351645019
 20
278.902976430374
 30
0.0
 11
139.93024351645019
 21
279.55567639448282
 31
0.0
  0
LINE
  5
F5
 67
     1
  8
AM_VIS
 10
139.93024351645019
 20
275.73391394479188
 30
0.0
 11
139.93024351645019
 21
278.90297643037411
 31
0.0
  0
LINE
  5
F6
 67
     1
  8
AM_VIS
 10
139.93024351645019
 20
275.50850092757679
 30
0.0
 11
139.93024351645019
 21
275.73391394479211
 31
0.0
  0
LINE
  5
F7
 67
     1
  8
AM_VIS
 10
139.93024351645019
 20
315.52069376402972
 30
0.0
 11
139.93024351645019
 21
315.81358698284288
 31
0.0
  0
LINE
  5
F8
 67
     1
  8
AM_VIS
 10
177.43024351645019
 20
275.73391394479222
 30
0.0
 11
177.43024351645019
 21
275.5085009275769
 31
0.0
  0
LINE
  5
F9
 67
     1
  8
AM_VIS
 10
177.43024351645019
 20
278.902976430374
 30
0.0
 11
177.43024351645019
 21
275.73391394479188
 31
0.0
  0
LINE
  5
FA
 67
     1
  8
AM_VIS
 10
177.43024351645019
 20
279.55567639448287
 30
0.0
 11
177.43024351645019
 21
278.90297643037422
 31
0.0
  0
LINE
  5
FB
 67
     1
  8
AM_VIS
 10
177.43024351645019
 20
284.1501310155524
 30
0.0
 11
177.43024351645019
 21
283.44302423436591
 31
0.0
  0
LINE
  5
FC
 67
     1
  8
AM_VIS
 10
177.43024351645019
 20
290.83211153089201
 30
0.0
 11
177.43024351645019
 21
290.53211153089183
 31
0.0
  0
LINE
  5
FD
 67
     1
  8
AM_VIS
 10
177.43024351645019
 20
290.83211153089172
 30
0.0
 11
177.43024351645019
 21
291.13211153089179
 31
0.0
  0
LINE
  5
FE
 67
     1
  8
AM_VIS
 10
177.43024351645019
 20
298.43211153089197
 30
0.0
 11
177.43024351645019
 21
298.1321115308919
 31
0.0
  0
LINE
  5
FF
 67
     1
  8
AM_VIS
 10
177.43024351645019
 20
303.02500474970537
 30
0.0
 11
177.43024351645019
 21
302.31789796851882
 31
0.0
  0
LINE
  5
100
 67
     1
  8
AM_VIS
 10
177.43024351645019
 20
313.33871324869
 30
0.0
 11
177.43024351645019
 21
313.04582002987672
 31
0.0
  0
LINE
  5
101
 67
     1
  8
AM_VIS
 10
177.43024351645019
 20
315.81358698284299
 30
0.0
 11
177.43024351645019
 21
315.52069376402972
 31
0.0
  0
ARC
  5
102
 67
     1
  8
AM_VIS
 10
133.9302435164501
 20
295.87317549719029
 30
0.0
 40
6.0
 50
326.44269023807942
 51
33.557309761920713
  0
POLYLINE
  8
AM_VIS
  5
1626
  66
     1
 10
0.000000
 20
0.000000
 30
0.000000
  70
     8
  0
VERTEX
  8
AM_VIS
  5
1627
 10
136.662
 20
292.557
 30
4.54700e-013
  70
    32
  0
VERTEX
  8
AM_VIS
  5
1628
 10
136.624
 20
292.596
 30
4.59663e-013
  70
    32
  0
VERTEX
  8
AM_VIS
  5
1629
 10
136.587
 20
292.636
 30
4.64511e-013
  70
    32
  0
VERTEX
  8
AM_VIS
  5
162A
 10
136.550
 20
292.676
 30
4.69244e-013
  70
    32
  0
VERTEX
  8
AM_VIS
  5
162B
 10
136.513
 20
292.715
 30
4.73863e-013
  70
    32
  0
VERTEX
  8
AM_VIS
  5
162C
 10
136.477
 20
292.754
 30
4.78369e-013
  70
    32
  0
VERTEX
  8
AM_VIS
  5
162D
 10
136.442
 20
292.793
 30
4.82761e-013
  70
    32
  0
VERTEX
  8
AM_VIS
  5
162E
 10
136.407
 20
292.832
 30
4.87042e-013
  70
    32
  0
VERTEX
  8
AM_VIS
  5
162F
 10
136.372
 20
292.870
 30
4.91211e-013
  70
    32
  0
VERTEX
  8
AM_VIS
  5
1630
 10
136.338
 20
292.909
 30
4.95269e-013
  70
    32
  0
VERTEX
  8
AM_VIS
  5
1631
 10
136.304
 20
292.947
 30
4.99216e-013
  70
    32
  0
VERTEX
  8
AM_VIS
  5
1632
 10
136.271
 20
292.985
 30
5.03053e-013
  70
    32
  0
VERTEX
  8
AM_VIS
  5
1633
 10
136.238
 20
293.023
 30
5.06781e-013
  70
    32
  0
VERTEX
  8
AM_VIS
  5
1634
 10
136.206
 20
293.061
 30
5.10399e-013
  70
    32
  0
VERTEX
  8
AM_VIS
  5
1635
 10
136.174
 20
293.099
 30
5.13909e-013
  70
    32
  0
VERTEX
  8
AM_VIS
  5
1636
 10
136.143
 20
293.136
 30
5.17311e-013
  70
    32
  0
VERTEX
  8
AM_VIS
  5
1637
 10
136.112
 20
293.174
 30
5.20605e-013
  70
    32
  0
VERTEX
  8
AM_VIS
  5
1638
 10
136.081
 20
293.211
 30
5.23792e-013
  70
    32
  0
VERTEX
  8
AM_VIS
  5
1639
 10
136.051
 20
293.248
 30
5.26872e-013
  70
    32
  0
VERTEX
  8
AM_VIS
  5
163A
 10
136.022
 20
293.285
 30
5.29846e-013
  70
    32
  0
VERTEX
  8
AM_VIS
  5
163B
 10
135.993
 20
293.322
 30
5.32714e-013
  70
    32
  0
VERTEX
  8
AM_VIS
  5
163C
 10
135.964
 20
293.359
 30
5.35476e-013
  70
    32
  0
VERTEX
  8
AM_VIS
  5
163D
 10
135.936
 20
293.395
 30
5.38133e-013
  70
    32
  0
VERTEX
  8
AM_VIS
  5
163E
 10
135.908
 20
293.432
 30
5.40684e-013
  70
    32
  0
VERTEX
  8
AM_VIS
  5
163F
 10
135.880
 20
293.468
 30
5.43132e-013
  70
    32
  0
VERTEX
  8
AM_VIS
  5
1640
 10
135.853
 20
293.504
 30
5.45475e-013
  70
    32
  0
VERTEX
  8
AM_VIS
  5
1641
 10
135.827
 20
293.540
 30
5.47713e-013
  70
    32
  0
VERTEX
  8
AM_VIS
  5
1642
 10
135.800
 20
293.576
 30
5.49849e-013
  70
    32
  0
VERTEX
  8
AM_VIS
  5
1643
 10
135.775
 20
293.612
 30
5.51880e-013
  70
    32
  0
VERTEX
  8
AM_VIS
  5
1644
 10
135.749
 20
293.648
 30
5.53809e-013
  70
    32
  0
VERTEX
  8
AM_VIS
  5
1645
 10
135.724
 20
293.683
 30
5.55634e-013
  70
    32
  0
VERTEX
  8
AM_VIS
  5
1646
 10
135.700
 20
293.719
 30
5.57357e-013
  70
    32
  0
VERTEX
  8
AM_VIS
  5
1647
 10
135.676
 20
293.754
 30
5.58978e-013
  70
    32
  0
VERTEX
  8
AM_VIS
  5
1648
 10
135.652
 20
293.790
 30
5.60496e-013
  70
    32
  0
VERTEX
  8
AM_VIS
  5
1649
 10
135.629
 20
293.825
 30
5.61912e-013
  70
    32
  0
VERTEX
  8
AM_VIS
  5
164A
 10
135.606
 20
293.860
 30
5.63226e-013
  70
    32
  0
VERTEX
  8
AM_VIS
  5
164B
 10
135.583
 20
293.895
 30
5.64439e-013
  70
    32
  0
VERTEX
  8
AM_VIS
  5
164C
 10
135.561
 20
293.930
 30
5.65549e-013
  70
    32
  0
VERTEX
  8
AM_VIS
  5
164D
 10
135.540
 20
293.965
 30
5.66559e-013
  70
    32
  0
VERTEX
  8
AM_VIS
  5
164E
 10
135.518
 20
294.000
 30
5.67467e-013
  70
    32
  0
VERTEX
  8
AM_VIS
  5
164F
 10
135.497
 20
294.034
 30
5.68274e-013
  70
    32
  0
VERTEX
  8
AM_VIS
  5
1650
 10
135.477
 20
294.069
 30
5.68980e-013
  70
    32
  0
VERTEX
  8
AM_VIS
  5
1651
 10
135.457
 20
294.104
 30
5.69585e-013
  70
    32
  0
VERTEX
  8
AM_VIS
  5
1652
 10
135.437
 20
294.138
 30
5.70089e-013
  70
    32
  0
VERTEX
  8
AM_VIS
  5
1653
 10
135.418
 20
294.172
 30
5.70492e-013
  70
    32
  0
VERTEX
  8
AM_VIS
  5
1654
 10
135.399
 20
294.207
 30
5.70794e-013
  70
    32
  0
VERTEX
  8
AM_VIS
  5
1655
 10
135.380
 20
294.241
 30
5.70995e-013
  70
    32
  0
VERTEX
  8
AM_VIS
  5
1656
 10
135.362
 20
294.275
 30
5.71096e-013
  70
    32
  0
VERTEX
  8
AM_VIS
  5
1657
 10
135.344
 20
294.309
 30
5.71096e-013
  70
    32
  0
VERTEX
  8
AM_VIS
  5
1658
 10
135.327
 20
294.343
 30
5.70995e-013
  70
    32
  0
VERTEX
  8
AM_VIS
  5
1659
 10
135.310
 20
294.377
 30
5.70794e-013
  70
    32
  0
VERTEX
  8
AM_VIS
  5
165A
 10
135.293
 20
294.411
 30
5.70492e-013
  70
    32
  0
VERTEX
  8
AM_VIS
  5
165B
 10
135.277
 20
294.445
 30
5.70089e-013
  70
    32
  0
VERTEX
  8
AM_VIS
  5
165C
 10
135.261
 20
294.479
 30
5.69585e-013
  70
    32
  0
VERTEX
  8
AM_VIS
  5
165D
 10
135.245
 20
294.512
 30
5.68980e-013
  70
    32
  0
VERTEX
  8
AM_VIS
  5
165E
 10
135.230
 20
294.546
 30
5.68274e-013
  70
    32
  0
VERTEX
  8
AM_VIS
  5
165F
 10
135.215
 20
294.580
 30
5.67467e-013
  70
    32
  0
VERTEX
  8
AM_VIS
  5
1660
 10
135.201
 20
294.613
 30
5.66559e-013
  70
    32
  0
VERTEX
  8
AM_VIS
  5
1661
 10
135.187
 20
294.647
 30
5.65549e-013
  70
    32
  0
VERTEX
  8
AM_VIS
  5
1662
 10
135.173
 20
294.680
 30
5.64439e-013
  70
    32
  0
VERTEX
  8
AM_VIS
  5
1663
 10
135.160
 20
294.714
 30
5.63226e-013
  70
    32
  0
VERTEX
  8
AM_VIS
  5
1664
 10
135.147
 20
294.747
 30
5.61912e-013
  70
    32
  0
VERTEX
  8
AM_VIS
  5
1665
 10
135.135
 20
294.780
 30
5.60496e-013
  70
    32
  0
VERTEX
  8
AM_VIS
  5
1666
 10
135.123
 20
294.814
 30
5.58978e-013
  70
    32
  0
VERTEX
  8
AM_VIS
  5
1667
 10
135.111
 20
294.847
 30
5.57357e-013
  70
    32
  0
VERTEX
  8
AM_VIS
  5
1668
 10
135.099
 20
294.880
 30
5.55634e-013
  70
    32
  0
VERTEX
  8
AM_VIS
  5
1669
 10
135.088
 20
294.913
 30
5.53809e-013
  70
    32
  0
VERTEX
  8
AM_VIS
  5
166A
 10
135.078
 20
294.947
 30
5.51880e-013
  70
    32
  0
VERTEX
  8
AM_VIS
  5
166B
 10
135.067
 20
294.980
 30
5.49849e-013
  70
    32
  0
VERTEX
  8
AM_VIS
  5
166C
 10
135.058
 20
295.013
 30
5.47713e-013
  70
    32
  0
VERTEX
  8
AM_VIS
  5
166D
 10
135.048
 20
295.046
 30
5.45475e-013
  70
    32
  0
VERTEX
  8
AM_VIS
  5
166E
 10
135.039
 20
295.079
 30
5.43132e-013
  70
    32
  0
VERTEX
  8
AM_VIS
  5
166F
 10
135.030
 20
295.112
 30
5.40684e-013
  70
    32
  0
VERTEX
  8
AM_VIS
  5
1670
 10
135.022
 20
295.145
 30
5.38133e-013
  70
    32
  0
VERTEX
  8
AM_VIS
  5
1671
 10
135.013
 20
295.178
 30
5.35476e-013
  70
    32
  0
VERTEX
  8
AM_VIS
  5
1672
 10
135.006
 20
295.211
 30
5.32714e-013
  70
    32
  0
VERTEX
  8
AM_VIS
  5
1673
 10
134.998
 20
295.244
 30
5.29846e-013
  70
    32
  0
VERTEX
  8
AM_VIS
  5
1674
 10
134.992
 20
295.277
 30
5.26872e-013
  70
    32
  0
VERTEX
  8
AM_VIS
  5
1675
 10
134.985
 20
295.310
 30
5.23792e-013
  70
    32
  0
VERTEX
  8
AM_VIS
  5
1676
 10
134.979
 20
295.343
 30
5.20605e-013
  70
    32
  0
VERTEX
  8
AM_VIS
  5
1677
 10
134.973
 20
295.376
 30
5.17311e-013
  70
    32
  0
VERTEX
  8
AM_VIS
  5
1678
 10
134.967
 20
295.409
 30
5.13909e-013
  70
    32
  0
VERTEX
  8
AM_VIS
  5
1679
 10
134.962
 20
295.443
 30
5.10399e-013
  70
    32
  0
VERTEX
  8
AM_VIS
  5
167A
 10
134.958
 20
295.476
 30
5.06781e-013
  70
    32
  0
VERTEX
  8
AM_VIS
  5
167B
 10
134.953
 20
295.509
 30
5.03053e-013
  70
    32
  0
VERTEX
  8
AM_VIS
  5
167C
 10
134.949
 20
295.542
 30
4.99216e-013
  70
    32
  0
VERTEX
  8
AM_VIS
  5
167D
 10
134.946
 20
295.575
 30
4.95269e-013
  70
    32
  0
VERTEX
  8
AM_VIS
  5
167E
 10
134.942
 20
295.608
 30
4.91211e-013
  70
    32
  0
VERTEX
  8
AM_VIS
  5
167F
 10
134.940
 20
295.641
 30
4.87042e-013
  70
    32
  0
VERTEX
  8
AM_VIS
  5
1680
 10
134.937
 20
295.674
 30
4.82761e-013
  70
    32
  0
VERTEX
  8
AM_VIS
  5
1681
 10
134.935
 20
295.707
 30
4.78369e-013
  70
    32
  0
VERTEX
  8
AM_VIS
  5
1682
 10
134.933
 20
295.740
 30
4.73863e-013
  70
    32
  0
VERTEX
  8
AM_VIS
  5
1683
 10
134.932
 20
295.773
 30
4.69244e-013
  70
    32
  0
VERTEX
  8
AM_VIS
  5
1684
 10
134.931
 20
295.807
 30
4.64511e-013
  70
    32
  0
VERTEX
  8
AM_VIS
  5
1685
 10
134.930
 20
295.840
 30
4.59663e-013
  70
    32
  0
VERTEX
  8
AM_VIS
  5
1686
 10
134.930
 20
295.873
 30
4.54700e-013
  70
    32
  0
SEQEND
  8
AM_VIS
  5
1687
  0
POLYLINE
  8
AM_VIS
  5
1688
  66
     1
 10
0.000000
 20
0.000000
 30
0.000000
  70
     8
  0
VERTEX
  8
AM_VIS
  5
1689
 10
134.930
 20
295.873
 30
4.54700e-013
  70
    32
  0
VERTEX
  8
AM_VIS
  5
168A
 10
134.930
 20
295.906
 30
4.54700e-013
  70
    32
  0
VERTEX
  8
AM_VIS
  5
168B
 10
134.931
 20
295.940
 30
4.54700e-013
  70
    32
  0
VERTEX
  8
AM_VIS
  5
168C
 10
134.932
 20
295.973
 30
4.54700e-013
  70
    32
  0
VERTEX
  8
AM_VIS
  5
168D
 10
134.933
 20
296.006
 30
4.54700e-013
  70
    32
  0
VERTEX
  8
AM_VIS
  5
168E
 10
134.935
 20
296.039
 30
4.54700e-013
  70
    32
  0
VERTEX
  8
AM_VIS
  5
168F
 10
134.937
 20
296.072
 30
4.54700e-013
  70
    32
  0
VERTEX
  8
AM_VIS
  5
1690
 10
134.940
 20
296.105
 30
4.54700e-013
  70
    32
  0
VERTEX
  8
AM_VIS
  5
1691
 10
134.942
 20
296.139
 30
4.54700e-013
  70
    32
  0
VERTEX
  8
AM_VIS
  5
1692
 10
134.946
 20
296.172
 30
4.54700e-013
  70
    32
  0
VERTEX
  8
AM_VIS
  5
1693
 10
134.949
 20
296.205
 30
4.54700e-013
  70
    32
  0
VERTEX
  8
AM_VIS
  5
1694
 10
134.953
 20
296.238
 30
4.54700e-013
  70
    32
  0
VERTEX
  8
AM_VIS
  5
1695
 10
134.958
 20
296.271
 30
4.54700e-013
  70
    32
  0
VERTEX
  8
AM_VIS
  5
1696
 10
134.962
 20
296.304
 30
4.54700e-013
  70
    32
  0
VERTEX
  8
AM_VIS
  5
1697
 10
134.967
 20
296.337
 30
4.54700e-013
  70
    32
  0
VERTEX
  8
AM_VIS
  5
1698
 10
134.973
 20
296.370
 30
4.54700e-013
  70
    32
  0
VERTEX
  8
AM_VIS
  5
1699
 10
134.979
 20
296.403
 30
4.54700e-013
  70
    32
  0
VERTEX
  8
AM_VIS
  5
169A
 10
134.985
 20
296.436
 30
4.54700e-013
  70
    32
  0
VERTEX
  8
AM_VIS
  5
169B
 10
134.992
 20
296.469
 30
4.54700e-013
  70
    32
  0
VERTEX
  8
AM_VIS
  5
169C
 10
134.998
 20
296.502
 30
4.54700e-013
  70
    32
  0
VERTEX
  8
AM_VIS
  5
169D
 10
135.006
 20
296.535
 30
4.54700e-013
  70
    32
  0
VERTEX
  8
AM_VIS
  5
169E
 10
135.013
 20
296.568
 30
4.54700e-013
  70
    32
  0
VERTEX
  8
AM_VIS
  5
169F
 10
135.022
 20
296.601
 30
4.54700e-013
  70
    32
  0
VERTEX
  8
AM_VIS
  5
16A0
 10
135.030
 20
296.634
 30
4.54700e-013
  70
    32
  0
VERTEX
  8
AM_VIS
  5
16A1
 10
135.039
 20
296.667
 30
4.54700e-013
  70
    32
  0
VERTEX
  8
AM_VIS
  5
16A2
 10
135.048
 20
296.700
 30
4.54700e-013
  70
    32
  0
VERTEX
  8
AM_VIS
  5
16A3
 10
135.058
 20
296.734
 30
4.54700e-013
  70
    32
  0
VERTEX
  8
AM_VIS
  5
16A4
 10
135.067
 20
296.767
 30
4.54700e-013
  70
    32
  0
VERTEX
  8
AM_VIS
  5
16A5
 10
135.078
 20
296.800
 30
4.54700e-013
  70
    32
  0
VERTEX
  8
AM_VIS
  5
16A6
 10
135.088
 20
296.833
 30
4.54700e-013
  70
    32
  0
VERTEX
  8
AM_VIS
  5
16A7
 10
135.099
 20
296.866
 30
4.54700e-013
  70
    32
  0
VERTEX
  8
AM_VIS
  5
16A8
 10
135.111
 20
296.899
 30
4.54700e-013
  70
    32
  0
VERTEX
  8
AM_VIS
  5
16A9
 10
135.123
 20
296.933
 30
4.54700e-013
  70
    32
  0
VERTEX
  8
AM_VIS
  5
16AA
 10
135.135
 20
296.966
 30
4.54700e-013
  70
    32
  0
VERTEX
  8
AM_VIS
  5
16AB
 10
135.147
 20
296.999
 30
4.54700e-013
  70
    32
  0
VERTEX
  8
AM_VIS
  5
16AC
 10
135.160
 20
297.033
 30
4.54700e-013
  70
    32
  0
VERTEX
  8
AM_VIS
  5
16AD
 10
135.173
 20
297.066
 30
4.54700e-013
  70
    32
  0
VERTEX
  8
AM_VIS
  5
16AE
 10
135.187
 20
297.100
 30
4.54700e-013
  70
    32
  0
VERTEX
  8
AM_VIS
  5
16AF
 10
135.201
 20
297.133
 30
4.54700e-013
  70
    32
  0
VERTEX
  8
AM_VIS
  5
16B0
 10
135.215
 20
297.167
 30
4.54700e-013
  70
    32
  0
VERTEX
  8
AM_VIS
  5
16B1
 10
135.230
 20
297.200
 30
4.54700e-013
  70
    32
  0
VERTEX
  8
AM_VIS
  5
16B2
 10
135.245
 20
297.234
 30
4.54700e-013
  70
    32
  0
VERTEX
  8
AM_VIS
  5
16B3
 10
135.261
 20
297.268
 30
4.54700e-013
  70
    32
  0
VERTEX
  8
AM_VIS
  5
16B4
 10
135.277
 20
297.302
 30
4.54700e-013
  70
    32
  0
VERTEX
  8
AM_VIS
  5
16B5
 10
135.293
 20
297.335
 30
4.54700e-013
  70
    32
  0
VERTEX
  8
AM_VIS
  5
16B6
 10
135.310
 20
297.369
 30
4.54700e-013
  70
    32
  0
VERTEX
  8
AM_VIS
  5
16B7
 10
135.327
 20
297.403
 30
4.54700e-013
  70
    32
  0
VERTEX
  8
AM_VIS
  5
16B8
 10
135.344
 20
297.437
 30
4.54700e-013
  70
    32
  0
VERTEX
  8
AM_VIS
  5
16B9
 10
135.362
 20
297.471
 30
4.54700e-013
  70
    32
  0
VERTEX
  8
AM_VIS
  5
16BA
 10
135.380
 20
297.506
 30
4.54700e-013
  70
    32
  0
VERTEX
  8
AM_VIS
  5
16BB
 10
135.399
 20
297.540
 30
4.54700e-013
  70
    32
  0
VERTEX
  8
AM_VIS
  5
16BC
 10
135.418
 20
297.574
 30
4.54700e-013
  70
    32
  0
VERTEX
  8
AM_VIS
  5
16BD
 10
135.437
 20
297.608
 30
4.54700e-013
  70
    32
  0
VERTEX
  8
AM_VIS
  5
16BE
 10
135.457
 20
297.643
 30
4.54700e-013
  70
    32
  0
VERTEX
  8
AM_VIS
  5
16BF
 10
135.477
 20
297.677
 30
4.54700e-013
  70
    32
  0
VERTEX
  8
AM_VIS
  5
16C0
 10
135.497
 20
297.712
 30
4.54700e-013
  70
    32
  0
VERTEX
  8
AM_VIS
  5
16C1
 10
135.518
 20
297.747
 30
4.54700e-013
  70
    32
  0
VERTEX
  8
AM_VIS
  5
16C2
 10
135.540
 20
297.781
 30
4.54700e-013
  70
    32
  0
VERTEX
  8
AM_VIS
  5
16C3
 10
135.561
 20
297.816
 30
4.54700e-013
  70
    32
  0
VERTEX
  8
AM_VIS
  5
16C4
 10
135.583
 20
297.851
 30
4.54700e-013
  70
    32
  0
VERTEX
  8
AM_VIS
  5
16C5
 10
135.606
 20
297.886
 30
4.54700e-013
  70
    32
  0
VERTEX
  8
AM_VIS
  5
16C6
 10
135.629
 20
297.921
 30
4.54700e-013
  70
    32
  0
VERTEX
  8
AM_VIS
  5
16C7
 10
135.652
 20
297.957
 30
4.54700e-013
  70
    32
  0
VERTEX
  8
AM_VIS
  5
16C8
 10
135.676
 20
297.992
 30
4.54700e-013
  70
    32
  0
VERTEX
  8
AM_VIS
  5
16C9
 10
135.700
 20
298.027
 30
4.54700e-013
  70
    32
  0
VERTEX
  8
AM_VIS
  5
16CA
 10
135.724
 20
298.063
 30
4.54700e-013
  70
    32
  0
VERTEX
  8
AM_VIS
  5
16CB
 10
135.749
 20
298.099
 30
4.54700e-013
  70
    32
  0
VERTEX
  8
AM_VIS
  5
16CC
 10
135.775
 20
298.134
 30
4.54700e-013
  70
    32
  0
VERTEX
  8
AM_VIS
  5
16CD
 10
135.800
 20
298.170
 30
4.54700e-013
  70
    32
  0
VERTEX
  8
AM_VIS
  5
16CE
 10
135.827
 20
298.206
 30
4.54700e-013
  70
    32
  0
VERTEX
  8
AM_VIS
  5
16CF
 10
135.853
 20
298.242
 30
4.54700e-013
  70
    32
  0
VERTEX
  8
AM_VIS
  5
16D0
 10
135.880
 20
298.278
 30
4.54700e-013
  70
    32
  0
VERTEX
  8
AM_VIS
  5
16D1
 10
135.908
 20
298.315
 30
4.54700e-013
  70
    32
  0
VERTEX
  8
AM_VIS
  5
16D2
 10
135.936
 20
298.351
 30
4.54700e-013
  70
    32
  0
VERTEX
  8
AM_VIS
  5
16D3
 10
135.964
 20
298.388
 30
4.54700e-013
  70
    32
  0
VERTEX
  8
AM_VIS
  5
16D4
 10
135.993
 20
298.425
 30
4.54700e-013
  70
    32
  0
VERTEX
  8
AM_VIS
  5
16D5
 10
136.022
 20
298.461
 30
4.54700e-013
  70
    32
  0
VERTEX
  8
AM_VIS
  5
16D6
 10
136.051
 20
298.498
 30
4.54700e-013
  70
    32
  0
VERTEX
  8
AM_VIS
  5
16D7
 10
136.081
 20
298.535
 30
4.54700e-013
  70
    32
  0
VERTEX
  8
AM_VIS
  5
16D8
 10
136.112
 20
298.573
 30
4.54700e-013
  70
    32
  0
VERTEX
  8
AM_VIS
  5
16D9
 10
136.143
 20
298.610
 30
4.54700e-013
  70
    32
  0
VERTEX
  8
AM_VIS
  5
16DA
 10
136.174
 20
298.648
 30
4.54700e-013
  70
    32
  0
VERTEX
  8
AM_VIS
  5
16DB
 10
136.206
 20
298.685
 30
4.54700e-013
  70
    32
  0
VERTEX
  8
AM_VIS
  5
16DC
 10
136.238
 20
298.723
 30
4.54700e-013
  70
    32
  0
VERTEX
  8
AM_VIS
  5
16DD
 10
136.271
 20
298.761
 30
4.54700e-013
  70
    32
  0
VERTEX
  8
AM_VIS
  5
16DE
 10
136.304
 20
298.799
 30
4.54700e-013
  70
    32
  0
VERTEX
  8
AM_VIS
  5
16DF
 10
136.338
 20
298.838
 30
4.54700e-013
  70
    32
  0
VERTEX
  8
AM_VIS
  5
16E0
 10
136.372
 20
298.876
 30
4.54700e-013
  70
    32
  0
VERTEX
  8
AM_VIS
  5
16E1
 10
136.407
 20
298.915
 30
4.54700e-013
  70
    32
  0
VERTEX
  8
AM_VIS
  5
16E2
 10
136.442
 20
298.953
 30
4.54700e-013
  70
    32
  0
VERTEX
  8
AM_VIS
  5
16E3
 10
136.477
 20
298.992
 30
4.54700e-013
  70
    32
  0
VERTEX
  8
AM_VIS
  5
16E4
 10
136.513
 20
299.031
 30
4.54700e-013
  70
    32
  0
VERTEX
  8
AM_VIS
  5
16E5
 10
136.550
 20
299.071
 30
4.54700e-013
  70
    32
  0
VERTEX
  8
AM_VIS
  5
16E6
 10
136.587
 20
299.110
 30
4.54700e-013
  70
    32
  0
VERTEX
  8
AM_VIS
  5
16E7
 10
136.624
 20
299.150
 30
4.54700e-013
  70
    32
  0
VERTEX
  8
AM_VIS
  5
16E8
 10
136.662
 20
299.190
 30
4.54700e-013
  70
    32
  0
SEQEND
  8
AM_VIS
  5
16E9
  0
LINE
  5
105
 67
     1
  8
AM_VIS
 10
136.662294324019
 20
299.18980028754589
 30
0.0
 11
138.9302435164501
 21
299.18980028754589
 31
0.0
  0
LINE
  5
106
 67
     1
  8
AM_VIS
 10
138.9302435164501
 20
299.18980028754589
 30
0.0
 11
138.9302435164501
 21
292.55655070683531
 31
0.0
  0
LINE
  5
107
 67
     1
  8
AM_VIS
 10
138.9302435164501
 20
292.55655070683503
 30
0.0
 11
136.662294324019
 21
292.55655070683503
 31
0.0
  0
LINE
  5
108
 67
     1
  8
AM_VIS
 10
134.9302435164501
 20
290.8731754971904
 30
0.0
 11
136.662294324019
 21
289.87317549719029
 31
0.0
  0
LINE
  5
109
 67
     1
  8
AM_VIS
 10
139.93024351645019
 20
301.87317549719052
 30
0.0
 11
136.662294324019
 21
301.87317549719052
 31
0.0
  0
LINE
  5
10A
 67
     1
  8
AM_VIS
 10
139.93024351645019
 20
289.8731754971904
 30
0.0
 11
136.662294324019
 21
289.8731754971904
 31
0.0
  0
LINE
  5
10B
 67
     1
  8
AM_VIS
 10
134.9302435164501
 20
300.87317549719012
 30
0.0
 11
136.662294324019
 21
301.87317549719029
 31
0.0
  0
LINE
  5
10C
 67
     1
  8
AM_VIS
 10
136.662294324019
 20
292.55655070683463
 30
0.0
 11
136.662294324019
 21
289.87317549719029
 31
0.0
  0
LINE
  5
10D
 67
     1
  8
AM_VIS
 10
136.662294324019
 20
301.87317549719052
 30
0.0
 11
136.662294324019
 21
299.18980028754561
 31
0.0
  0
LINE
  5
10E
 67
     1
  8
AM_VIS
 10
134.9302435164501
 20
290.87317549719052
 30
0.0
 11
134.9302435164501
 21
295.8731754971904
 31
0.0
  0
LINE
  5
10F
 67
     1
  8
AM_VIS
 10
134.9302435164501
 20
295.8731754971904
 30
0.0
 11
134.9302435164501
 21
300.87317549719029
 31
0.0
  0
LINE
  5
110
 67
     1
  8
AM_VIS
 10
139.93024351645019
 20
218.5544631129527
 30
0.0
 11
177.43024351645019
 21
218.5544631129527
 31
0.0
  0
LINE
  5
111
 67
     1
  8
AM_VIS
 10
177.43024351645019
 20
258.85955011295272
 30
0.0
 11
139.93024351645019
 21
258.85955011295272
 31
0.0
  0
LINE
  5
115
 67
     1
  8
AM_VIS
 10
139.93024351645019
 20
254.73082256473339
 30
0.0
 11
139.93024351645019
 21
234.52502586142981
 31
0.0
  0
LINE
  5
116
 67
     1
  8
AM_VIS
 10
139.93024351645019
 20
233.8179190802434
 30
0.0
 11
139.93024351645019
 21
218.5544631129527
 31
0.0
  0
LINE
  5
117
 67
     1
  8
AM_VIS
 10
177.43024351645019
 20
218.5544631129527
 30
0.0
 11
177.43024351645019
 21
233.8179190802434
 31
0.0
  0
LINE
  5
118
 67
     1
  8
AM_VIS
 10
177.43024351645019
 20
234.52502586143001
 30
0.0
 11
177.43024351645019
 21
254.7308225647337
 31
0.0
  0
CIRCLE
  5
11B
 67
     1
  8
AM_VIS
 10
150.93024351645019
 20
243.85955011295269
 30
0.0
 40
2.1669999999999989
  0
CIRCLE
  5
11E
 67
     1
  8
AM_VIS
 10
171.93024351645019
 20
243.85955011295269
 30
0.0
 40
2.1669999999999989
  0
LINE
  5
11F
 67
     1
  8
AM_VIS
 10
139.93024351645019
 20
258.61716661016828
 30
0.0
 11
139.93024351645019
 21
258.85955011295272
 31
0.0
  0
LINE
  5
120
 67
     1
  8
AM_VIS
 10
139.93024351645019
 20
255.36328996002041
 30
0.0
 11
139.93024351645019
 21
258.6171666101684
 31
0.0
  0
LINE
  5
121
 67
     1
  8
AM_VIS
 10
139.93024351645019
 20
254.73082256473339
 30
0.0
 11
139.93024351645019
 21
255.36328996002021
 31
0.0
  0
LINE
  5
122
 67
     1
  8
AM_VIS
 10
139.93024351645019
 20
233.8179190802434
 30
0.0
 11
139.93024351645019
 21
234.5250258614299
 31
0.0
  0
LINE
  5
125
 67
     1
  8
AM_VIS
 10
177.43024351645019
 20
234.52502586143001
 30
0.0
 11
177.43024351645019
 21
233.81791908024351
 31
0.0
  0
LINE
  5
126
 67
     1
  8
AM_VIS
 10
177.43024351645019
 20
255.36328996002041
 30
0.0
 11
177.43024351645019
 21
254.73082256473359
 31
0.0
  0
LINE
  5
127
 67
     1
  8
AM_VIS
 10
177.43024351645019
 20
258.61716661016828
 30
0.0
 11
177.43024351645019
 21
255.3632899600203
 31
0.0
  0
LINE
  5
128
 67
     1
  8
AM_VIS
 10
177.43024351645019
 20
258.85955011295272
 30
0.0
 11
177.43024351645019
 21
258.61716661016828
 31
0.0
  0
LINE
  5
12E
 67
     1
  8
AM_VIS
 10
134.9302435164501
 20
233.91913768256759
 30
0.0
 11
136.662294324019
 21
233.91913768256759
 31
0.0
  0
LINE
  5
12F
 67
     1
  8
AM_VIS
 10
136.662294324019
 20
233.9191376825674
 30
0.0
 11
138.9302435164501
 21
233.9191376825674
 31
0.0
  0
LINE
  5
130
 67
     1
  8
AM_VIS
 10
139.9302435164501
 20
232.9191376825674
 30
0.0
 11
138.9302435164501
 21
233.91913768256771
 31
0.0
  0
LINE
  5
131
 67
     1
  8
AM_VIS
 10
138.93024351644999
 20
243.91913768256691
 30
0.0
 11
139.9302435164501
 21
244.91913768256731
 31
0.0
  0
LINE
  5
132
 67
     1
  8
AM_VIS
 10
134.9302435164501
 20
243.91913768256759
 30
0.0
 11
136.662294324019
 21
243.91913768256759
 31
0.0
  0
LINE
  5
133
 67
     1
  8
AM_VIS
 10
138.9302435164501
 20
243.9191376825674
 30
0.0
 11
136.662294324019
 21
243.9191376825674
 31
0.0
  0
LINE
  5
134
 67
     1
  8
AM_VIS
 10
136.662294324019
 20
243.9191376825674
 30
0.0
 11
136.662294324019
 21
233.91913768256731
 31
0.0
  0
LINE
  5
135
 67
     1
  8
AM_VIS
 10
134.9302435164501
 20
233.9191376825674
 30
0.0
 11
134.9302435164501
 21
243.9191376825672
 31
0.0
  0
LINE
  5
136
 67
     1
  8
AM_VIS
 10
238.9682962554742
 20
315.81358698284288
 30
0.0
 11
242.85564613668311
 21
315.81358698284288
 31
0.0
  0
LINE
  5
137
 67
     1
  8
AM_VIS
 10
246.90282050699699
 20
311.6848603793573
 30
0.0
 11
246.90282050699699
 21
291.47906367605361
 31
0.0
  0
LINE
  5
138
 67
     1
  8
AM_VIS
 10
246.6099272881832
 20
290.77195689486717
 30
0.0
 11
231.63936453970609
 21
275.80139414639012
 31
0.0
  0
LINE
  5
139
 67
     1
  8
AM_VIS
 10
230.93225775851971
 20
275.50850092757662
 30
0.0
 11
210.72646105521611
 21
275.50850092757662
 31
0.0
  0
LINE
  5
13A
 67
     1
  8
AM_VIS
 10
206.5977335069968
 20
279.55567639448242
 30
0.0
 11
206.5977335069968
 21
283.44302423436579
 31
0.0
  0
LINE
  5
13B
 67
     1
  8
AM_VIS
 10
206.89062672581019
 20
284.15013101555229
 30
0.0
 11
209.0726072411496
 21
286.33211153089172
 31
0.0
  0
LINE
  5
13C
 67
     1
  8
AM_VIS
 10
209.07260724114971
 20
286.33211153089172
 30
0.0
 11
209.07260724114971
 21
290.53211153089171
 31
0.0
  0
LINE
  5
13D
 67
     1
  8
AM_VIS
 10
211.77260696755849
 20
290.83211153089172
 30
0.0
 11
209.37260724114969
 21
290.83211153089172
 31
0.0
  0
LINE
  5
13E
 67
     1
  8
AM_VIS
 10
212.07260696755839
 20
299.53211153089188
 30
0.0
 11
212.07260696755839
 21
291.1321115308919
 31
0.0
  0
LINE
  5
13F
 67
     1
  8
AM_VIS
 10
211.17260696755861
 20
299.83211153089189
 30
0.0
 11
211.77260696755849
 21
299.83211153089189
 31
0.0
  0
LINE
  5
140
 67
     1
  8
AM_VIS
 10
210.8726069675584
 20
298.43211153089158
 30
0.0
 11
210.8726069675584
 21
299.5321115308916
 31
0.0
  0
LINE
  5
141
 67
     1
  8
AM_VIS
 10
209.37260724114941
 20
298.13211153089168
 30
0.0
 11
210.57260696755839
 21
298.13211153089168
 31
0.0
  0
LINE
  5
142
 67
     1
  8
AM_VIS
 10
209.07260724114971
 20
298.43211153089158
 30
0.0
 11
209.07260724114971
 21
302.31789796851888
 31
0.0
  0
LINE
  5
143
 67
     1
  8
AM_VIS
 10
209.36550045996319
 20
303.02500474970549
 30
0.0
 11
219.38631574013451
 21
313.04582002987678
 31
0.0
  0
LINE
  5
144
 67
     1
  8
AM_VIS
 10
220.0934225213212
 20
313.33871324869
 30
0.0
 11
224.27920895894789
 21
313.33871324869
 31
0.0
  0
LINE
  5
145
 67
     1
  8
AM_VIS
 10
224.279208958948
 20
311.83871352228113
 30
0.0
 11
224.279208958948
 21
313.33871352228113
 31
0.0
  0
LINE
  5
146
 67
     1
  8
AM_VIS
 10
222.87920895894769
 20
311.53871352228128
 30
0.0
 11
223.97920895894779
 21
311.53871352228111
 31
0.0
  0
LINE
  5
147
 67
     1
  8
AM_VIS
 10
222.57920895894799
 20
310.63871352228119
 30
0.0
 11
222.57920895894799
 21
311.23871352228139
 31
0.0
  0
LINE
  5
148
 67
     1
  8
AM_VIS
 10
231.27920895894781
 20
310.33871352228113
 30
0.0
 11
222.8792089589478
 21
310.33871352228113
 31
0.0
  0
LINE
  5
149
 67
     1
  8
AM_VIS
 10
231.5792089589477
 20
313.03871324868987
 30
0.0
 11
231.5792089589477
 21
310.63871352228108
 31
0.0
  0
LINE
  5
14A
 67
     1
  8
AM_VIS
 10
231.87920895894791
 20
313.33871324869011
 30
0.0
 11
236.0792089589479
 21
313.33871324869011
 31
0.0
  0
LINE
  5
14B
 67
     1
  8
AM_VIS
 10
236.07920895894799
 20
313.33871324869023
 30
0.0
 11
238.26118947428739
 21
315.52069376402972
 31
0.0
  0
CIRCLE
  5
14C
 67
     1
  8
AM_VIS
 10
240.68028156111339
 20
310.01531112092152
 30
0.0
 40
4.5
  0
CIRCLE
  5
14D
 67
     1
  8
AM_VIS
 10
212.39601031365169
 20
281.73103987345962
 30
0.0
 40
4.5
  0
CIRCLE
  5
14E
 67
     1
  8
AM_VIS
 10
240.68028156111339
 20
310.01531112092152
 30
0.0
 40
2.75
  0
CIRCLE
  5
150
 67
     1
  8
AM_VIS
 10
212.39601031365169
 20
281.73103987345962
 30
0.0
 40
2.75
  0
CIRCLE
  5
152
 67
     1
  8
AM_VIS
 10
240.68028156111339
 20
310.01531112092152
 30
0.0
 40
4.7999999999999998
  0
ARC
  5
153
 67
     1
  8
AM_VIS
 10
242.85564613668319
 20
314.81358698284299
 30
0.0
 40
0.9999999999999998
 50
49.254518412202501
 51
90.000000000009194
  0
ARC
  5
154
 67
     1
  8
AM_VIS
 10
226.53814593738261
 20
295.87317549719052
 30
0.0
 40
26.0
 50
39.232397996502662
 51
49.254518412205293
  0
ARC
  5
155
 67
     1
  8
AM_VIS
 10
245.90282050699699
 20
311.68486037935747
 30
0.0
 40
1.0
 50
359.99999999999079
 51
39.232397996508652
  0
ARC
  5
156
 67
     1
  8
AM_VIS
 10
245.90282050699679
 20
291.4790636760539
 30
0.0
 40
1.0
 50
315.0
 51
0.0
  0
ARC
  5
157
 67
     1
  8
AM_VIS
 10
230.93225775851951
 20
276.50850092757651
 30
0.0
 40
1.0
 50
270.0
 51
315.0
  0
ARC
  5
158
 67
     1
  8
AM_VIS
 10
210.72646105521591
 20
276.50850092757651
 30
0.0
 40
1.0
 50
230.76760200349131
 51
270.00000000000921
  0
ARC
  5
159
 67
     1
  8
AM_VIS
 10
226.53814593738261
 20
295.87317549719052
 30
0.0
 40
26.0
 50
220.7454782705432
 51
230.7676020034973
  0
ARC
  5
15A
 67
     1
  8
AM_VIS
 10
207.5977335069968
 20
279.5556763944823
 30
0.0
 40
1.0
 50
179.99999999999079
 51
220.7454782705446
  0
ARC
  5
15B
 67
     1
  8
AM_VIS
 10
207.5977335069968
 20
283.44302423436568
 30
0.0
 40
1.0
 50
134.99999999999989
 51
180.0
  0
ARC
  5
15C
 67
     1
  8
AM_VIS
 10
209.37260724114989
 20
290.53211153089183
 30
0.0
 40
0.3
 50
90.0
 51
180.0
  0
ARC
  5
15D
 67
     1
  8
AM_VIS
 10
211.77260696755849
 20
291.13211153089168
 30
0.0
 40
0.3
 50
270.0
 51
0.0
  0
ARC
  5
15E
 67
     1
  8
AM_VIS
 10
211.77260696755849
 20
299.53211153089171
 30
0.0
 40
0.3
 50
0.0
 51
90.0
  0
ARC
  5
15F
 67
     1
  8
AM_VIS
 10
211.17260696755861
 20
299.53211153089183
 30
0.0
 40
0.3
 50
90.0
 51
180.0
  0
ARC
  5
160
 67
     1
  8
AM_VIS
 10
210.5726069675587
 20
298.43211153089192
 30
0.0
 40
0.3
 50
270.0
 51
0.0
  0
ARC
  5
161
 67
     1
  8
AM_VIS
 10
209.37260724114941
 20
298.43211153089192
 30
0.0
 40
0.3
 50
180.0
 51
270.0
  0
ARC
  5
162
 67
     1
  8
AM_VIS
 10
210.07260724114971
 20
302.31789796851871
 30
0.0
 40
1.0
 50
134.99999999999989
 51
180.0
  0
ARC
  5
163
 67
     1
  8
AM_VIS
 10
220.09342252132069
 20
312.33871324869
 30
0.0
 40
1.0
 50
90.0
 51
134.99999999999989
  0
ARC
  5
164
 67
     1
  8
AM_VIS
 10
223.97920895894779
 20
311.83871352228113
 30
0.0
 40
0.3
 50
270.0
 51
0.0
  0
ARC
  5
165
 67
     1
  8
AM_VIS
 10
222.87920895894791
 20
311.23871352228122
 30
0.0
 40
0.3
 50
90.0
 51
180.0
  0
ARC
  5
166
 67
     1
  8
AM_VIS
 10
222.87920895894811
 20
310.63871352228119
 30
0.0
 40
0.3
 50
180.0
 51
270.0
  0
ARC
  5
167
 67
     1
  8
AM_VIS
 10
231.279208958948
 20
310.63871352228108
 30
0.0
 40
0.3
 50
270.0
 51
0.0
  0
ARC
  5
168
 67
     1
  8
AM_VIS
 10
231.87920895894769
 20
313.03871324868999
 30
0.0
 40
0.3
 50
90.0
 51
180.0
  0
ARC
  5
169
 67
     1
  8
AM_VIS
 10
238.96829625547389
 20
314.81358698284299
 30
0.0
 40
1.0
 50
90.0
 51
134.99999999999989
  0
CIRCLE
  5
16A
 67
     1
  8
AM_VIS
 10
212.39601031365169
 20
281.73103987345962
 30
0.0
 40
4.7999999999999998
  0
VIEWPORT
  5
183
 67
     1
  8
0
 10
134.81962471702511
 20
171.35386746468231
 30
0.0
 40
354.59034604105
 41
368.63832423120101
 68
     1
 69
     1
1001
ACAD
1000
MVIEW
1002
{
1070
    16
1010
0.0
1020
0.0
1030
0.0
1010
0.0
1020
0.0
1030
1.0
1040
0.0
1040
368.63832423120101
1040
134.81962471702511
1040
171.35386746468231
1040
50.0
1040
0.0
1040
0.0
1070
     0
1070
  1000
1070
     1
1070
     1
1070
     0
1070
     0
1070
     0
1070
     0
1040
0.0
1040
0.0
1040
0.0
1040
1.0
1040
1.0
1040
0.0
1040
0.0
1070
     0
1002
{
1002
}
1002
}
  0
TEXT
  5
2C3
 67
     1
  8
LOGO
  6
CONTINUOUS
 62
     7
 10
155.31222402526231
 20
9.4866427164842584
 30
0.0
 40
5.5589624999999989
  1
11/12
  7
CHINESET
 72
     1
 11
166.43014902526241
 21
12.26612396648426
 31
0.0
 73
     2
  0
TEXT
  5
2C4
 67
     1
  8
LOGO
 10
157.9817931124397
 20
-2.785654216465169
 30
0.0
 40
3.9706874999999999
  1
作動型式
  7
CHINESET
 72
     4
 11
165.8818067843147
 21
-0.9019225481580832
 31
0.0
  0
LINE
  5
2C5
 67
     1
  8
0
 62
     4
 10
261.82721118273508
 20
187.2350563342672
 30
0.0
 11
7.8093503968432278
 21
187.23505633426731
 31
0.0
  0
TEXT
  5
2C6
 67
     1
  8
LOGO
  6
CONTINUOUS
 10
157.7135353557432
 20
-6.9872797599936769
 30
0.0
 40
2.3824125
  1
Acting type
 41
0.8
  7
CHINESET
 72
     4
 11
165.8818067843147
 21
-6.1931422599936781
 31
0.0
  0
LINE
  5
2C7
 67
     1
  8
LOGO
 62
     4
 10
178.38804050347929
 20
7.5640289907788789
 30
0.0
 11
154.21180793552099
 21
7.5640289907788789
 31
0.0
  0
LINE
  5
2C8
 67
     1
  8
LOGO
 62
     4
 10
178.38804050347929
 20
2.801931250126855
 30
0.0
 11
154.21180793552099
 21
2.801931250126855
 31
0.0
  0
LINE
  5
2C9
 67
     1
  8
LOGO
 62
     4
 10
178.38804050347929
 20
-8.8387521159114755
 30
0.0
 11
154.21180793552099
 21
-8.8387521159115181
 31
0.0
  0
LINE
  5
2CA
 67
     1
  8
LOGO
 62
     4
 10
178.38804050347929
 20
17.088224472083041
 30
0.0
 11
154.21180793552099
 21
17.08822447208297
 31
0.0
  0
LINE
  5
2CB
 67
     1
  8
LOGO
 62
     4
 10
144.60184458941541
 20
2.801931250126855
 30
0.0
 11
123.436965742073
 21
2.801931250126855
 31
0.0
  0
TEXT
  5
2CC
 67
     1
  8
LOGO
  6
CONTINUOUS
 62
     7
 10
121.9636908800299
 20
9.7161267314309328
 30
0.0
 40
5.2199999999999989
  1
MCJQ2
  7
CHINESET
 72
     1
 11
134.01940516574419
 21
12.32612673143093
 31
0.0
 73
     2
  0
LINE
  5
2CD
 67
     1
  8
LOGO
 62
     4
 10
144.60184458941541
 20
-8.8387521159114755
 30
0.0
 11
123.436965742073
 21
-8.8387521159115181
 31
0.0
  0
TEXT
  5
2CE
 67
     1
  8
LOGO
  6
CONTINUOUS
 10
130.3890623086013
 20
-7.3843485099936776
 30
0.0
 40
2.3824125
  1
Model
 41
0.8
  7
CHINESET
 72
     4
 11
134.01940516574419
 21
-6.1931422599936781
 31
0.0
  0
TEXT
  5
2CF
 67
     1
  8
LOGO
 10
130.04871766574419
 20
-2.785654216465169
 30
0.0
 40
3.9706874999999999
  1
型式
  7
CHINESET
 72
     4
 11
134.01940516574419
 21
-0.9019225481580832
 31
0.0
  0
LINE
  5
2D0
 67
     1
  8
LOGO
 62
     4
 10
146.71833247414969
 20
7.5640289907788789
 30
0.0
 11
121.3204778573389
 21
7.5640289907788789
 31
0.0
  0
LINE
  5
2D1
 67
     1
  8
LOGO
 62
     4
 10
146.71833247414969
 20
17.08822447208297
 30
0.0
 11
121.3204778573389
 21
17.08822447208297
 31
0.0
  0
LINE
  5
2D2
 67
     1
  8
LOGO
 62
     4
 10
134.01940516574419
 20
7.5640289907788789
 30
0.0
 11
134.01940516574419
 21
2.801931250126855
 31
0.0
  0
LINE
  5
2D3
 67
     1
  8
LOGO
 62
     4
 10
123.436965742073
 20
2.801931250126855
 30
0.0
 11
123.436965742073
 21
-8.8387521159115181
 31
0.0
  0
LINE
  5
2D4
 67
     1
  8
LOGO
 62
     4
 10
121.3204778573389
 20
17.08822447208297
 30
0.0
 11
121.3204778573389
 21
7.5640289907788789
 31
0.0
  0
LINE
  5
2D5
 67
     1
  8
LOGO
 62
     4
 10
144.60184458941541
 20
2.801931250126855
 30
0.0
 11
144.60184458941541
 21
-8.8387521159114755
 31
0.0
  0
LINE
  5
2D6
 67
     1
  8
LOGO
 62
     4
 10
154.21180793552099
 20
2.801931250126855
 30
0.0
 11
154.21180793552099
 21
-8.8387521159114755
 31
0.0
  0
LINE
  5
2D7
 67
     1
  8
LOGO
  6
CONTINUOUS
 62
     7
 10
148.35920822126039
 20
12.292390525857479
 30
0.0
 11
152.56474542335329
 21
12.292390525857479
 31
0.0
  0
LINE
  5
2D8
 67
     1
  8
LOGO
 62
     4
 10
146.7183324741498
 20
17.08822447208297
 30
0.0
 11
146.7183324741498
 21
7.5640289907788789
 31
0.0
  0
LINE
  5
2D9
 67
     1
  8
LOGO
 62
     4
 10
154.21180793552099
 20
17.08822447208297
 30
0.0
 11
154.21180793552099
 21
7.5640289907788789
 31
0.0
  0
LINE
  5
2DA
 67
     1
  8
LOGO
 62
     4
 10
227.99419557653729
 20
17.08822447208297
 30
0.0
 11
210.3655254696065
 21
17.08822447208297
 31
0.0
  0
LINE
  5
2DB
 67
     1
  8
LOGO
 62
     4
 10
227.99419557653729
 20
7.5640289907788789
 30
0.0
 11
210.3655254696065
 21
7.5640289907788789
 31
0.0
  0
LINE
  5
2DC
 67
     1
  8
LOGO
 62
     4
 10
226.9359516341701
 20
2.801931250126855
 30
0.0
 11
211.42376941197361
 21
2.801931250126855
 31
0.0
  0
LINE
  5
2DD
 67
     1
  8
LOGO
 62
     4
 10
226.9359516341701
 20
-8.8387521159114755
 30
0.0
 11
211.42376941197361
 21
-8.8387521159115181
 31
0.0
  0
LINE
  5
2DE
 67
     1
  8
LOGO
 62
     4
 10
202.87205000823519
 20
7.56402899077895
 30
0.0
 11
185.88151596485039
 21
7.56402899077895
 31
0.0
  0
LINE
  5
2DF
 67
     1
  8
LOGO
 62
     4
 10
202.87205000823519
 20
2.8019312501269118
 30
0.0
 11
185.88151596485039
 21
2.8019312501269118
 31
0.0
  0
LINE
  5
2E0
 67
     1
  8
LOGO
 62
     4
 10
202.87205000823519
 20
17.08822447208308
 30
0.0
 11
185.88151596485039
 21
17.088224472083041
 31
0.0
  0
TEXT
  5
2E1
 67
     1
  8
LOGO
  6
CONTINUOUS
 62
     7
 10
190.37051779593949
 20
9.4866427164843152
 30
0.0
 40
5.5589624999999989
  1
25
  7
CHINESET
 72
     1
 11
194.87063029593949
 21
12.26612396648431
 31
0.0
 73
     2
  0
LINE
  5
2E2
 67
     1
  8
LOGO
 62
     4
 10
202.87205000823519
 20
-8.8387521159114044
 30
0.0
 11
185.88151596485039
 21
-8.8387521159114613
 31
0.0
  0
TEXT
  5
2E3
 67
     1
  8
LOGO
  6
CONTINUOUS
 10
191.42712941511431
 20
-7.3843485099936501
 30
0.0
 40
2.3824125
  1
Bore
 41
0.8
  7
CHINESET
 72
     4
 11
194.37678298654291
 21
-6.1931422599936488
 31
0.0
  0
TEXT
  5
2E4
 67
     1
  8
LOGO
 10
190.1579275177929
 20
-2.8872662981580408
 30
0.0
 40
3.9706874999999999
  1
內徑
  7
CHINESET
 72
     4
 11
194.37678298654291
 21
-0.9019225481580406
 31
0.0
  0
LINE
  5
2E5
 67
     1
  8
LOGO
 62
     4
 10
194.37678274252829
 20
7.56402899077895
 30
0.0
 11
194.37678274252829
 21
2.8019312501269118
 31
0.0
  0
LINE
  5
2E6
 67
     1
  8
LOGO
 62
     4
 10
165.8818067843147
 20
7.5640289907788789
 30
0.0
 11
165.8818067843147
 21
2.801931250126855
 31
0.0
  0
LINE
  5
2E7
 67
     1
  8
LOGO
 62
     4
 10
178.38804050347929
 20
2.801931250126855
 30
0.0
 11
178.38804050347929
 21
-8.8387521159114613
 31
0.0
  0
LINE
  5
2E8
 67
     1
  8
LOGO
 62
     4
 10
185.88151596485039
 20
2.8019312501269118
 30
0.0
 11
185.88151596485039
 21
-8.8387521159114044
 31
0.0
  0
LINE
  5
2E9
 67
     1
  8
LOGO
 62
     4
 10
178.38804050347929
 20
17.088224472083041
 30
0.0
 11
178.38804050347929
 21
7.5640289907788789
 31
0.0
  0
LINE
  5
2EA
 67
     1
  8
LOGO
 62
     4
 10
185.88151596485039
 20
17.088224472083041
 30
0.0
 11
185.88151596485039
 21
7.56402899077895
 31
0.0
  0
LINE
  5
2EB
 67
     1
  8
LOGO
  6
CONTINUOUS
 62
     7
 10
180.0289162505899
 20
12.29239052585754
 30
0.0
 11
184.23445345268291
 21
12.29239052585754
 31
0.0
  0
LINE
  5
2EC
 67
     1
  8
LOGO
 62
     4
 10
219.403986981364
 20
7.5640289907788789
 30
0.0
 11
219.403986981364
 21
2.801931250126855
 31
0.0
  0
LINE
  5
2ED
 67
     1
  8
LOGO
 62
     4
 10
202.87205000823519
 20
2.8019312501269118
 30
0.0
 11
202.87205000823519
 21
-8.8387521159113902
 31
0.0
  0
LINE
  5
2EE
 67
     1
  8
LOGO
 62
     4
 10
211.42376941197361
 20
2.801931250126855
 30
0.0
 11
211.42376941197361
 21
-8.8387521159115181
 31
0.0
  0
TEXT
  5
2EF
 67
     1
  8
LOGO
  6
CONTINUOUS
 10
214.86882838021469
 20
-7.3843485099937061
 30
0.0
 40
2.3824125
  1
Stroke
 41
0.8
  7
CHINESET
 72
     4
 11
219.17986052307191
 21
-6.1931422599937056
 31
0.0
  0
TEXT
  5
2F0
 67
     1
  8
LOGO
 10
215.20917302307191
 20
-2.8872662981580972
 30
0.0
 40
3.9706874999999999
  1
行程
  7
CHINESET
 72
     4
 11
219.17986052307191
 21
-0.9019225481580974
 31
0.0
  0
LINE
  5
2F1
 67
     1
  8
LOGO
 62
     4
 10
202.87205000823519
 20
17.08822447208308
 30
0.0
 11
202.87205000823519
 21
7.56402899077895
 31
0.0
  0
LINE
  5
2F2
 67
     1
  8
LOGO
  6
CONTINUOUS
 62
     7
 10
204.512925755346
 20
12.2923905258576
 30
0.0
 11
208.71846295743899
 21
12.2923905258576
 31
0.0
  0
LINE
  5
2F3
 67
     1
  8
LOGO
 62
     4
 10
210.3655254696065
 20
17.08822447208297
 30
0.0
 11
210.3655254696065
 21
7.5640289907788789
 31
0.0
  0
TEXT
  5
2F4
 67
     1
  8
LOGO
  6
CONTINUOUS
 62
     7
 10
218.3501453324686
 20
9.4866427164842584
 30
0.0
 40
5.5589624999999989
  1
*
  7
CHINESET
 72
     1
 11
219.67370783246861
 21
12.26612396648426
 31
0.0
 73
     2
  0
LINE
  5
2F5
 67
     1
  8
LOGO
 62
     4
 10
237.14912494871899
 20
7.5640289907788789
 30
0.0
 11
237.14912494871899
 21
2.801931250126855
 31
0.0
  0
LINE
  5
2F6
 67
     1
  8
LOGO
 62
     4
 10
245.34320802921781
 20
-8.8387521159114755
 30
0.0
 11
229.39303383762069
 21
-8.8387521159115181
 31
0.0
  0
LINE
  5
2F7
 67
     1
  8
LOGO
 62
     4
 10
245.34320802921781
 20
2.801931250126855
 30
0.0
 11
229.39303383762069
 21
2.801931250126855
 31
0.0
  0
TEXT
  5
2F8
 67
     1
  8
LOGO
  6
CONTINUOUS
 10
232.29354137729041
 20
-6.9872797599937062
 30
0.0
 40
2.3824125
  1
Magnet
 41
0.8
  7
CHINESET
 72
     4
 11
237.14912494871899
 21
-6.1931422599937056
 31
0.0
  0
TEXT
  5
2F9
 67
     1
  8
LOGO
 10
231.193093698719
 20
-2.8459049700330969
 30
0.0
 40
3.9706874999999999
  1
附磁石
  7
CHINESET
 72
     4
 11
237.14912494871899
 21
-0.9019225481580974
 31
0.0
  0
LINE
  5
2FA
 67
     1
  8
LOGO
 62
     4
 10
229.39303383762069
 20
2.801931250126855
 30
0.0
 11
229.39303383762069
 21
-8.8387521159115181
 31
0.0
  0
LINE
  5
2FB
 67
     1
  8
LOGO
 62
     4
 10
226.9359516341701
 20
2.801931250126855
 30
0.0
 11
226.9359516341701
 21
-8.8826452108828846
 31
0.0
  0
LINE
  5
2FC
 67
     1
  8
LOGO
 62
     4
 10
245.34320802921781
 20
2.801931250126855
 30
0.0
 11
245.34320802921781
 21
-8.8826452108828846
 31
0.0
  0
TEXT
  5
2FD
 67
     1
  8
LOGO
  6
CONTINUOUS
 62
     7
 10
235.52527250213021
 20
9.4866427164842584
 30
0.0
 40
5.5589624999999989
  1
M
  7
CHINESET
 72
     1
 11
237.64297250213019
 21
12.26612396648426
 31
0.0
 73
     2
  0
LINE
  5
2FE
 67
     1
  8
LOGO
 62
     4
 10
244.53979054076561
 20
7.5640289907788789
 30
0.0
 11
230.19645132607289
 21
7.5640289907788789
 31
0.0
  0
LINE
  5
2FF
 67
     1
  8
LOGO
 62
     4
 10
244.53979054076561
 20
17.088224472083041
 30
0.0
 11
230.19645132607289
 21
17.08822447208297
 31
0.0
  0
LINE
  5
300
 67
     1
  8
LOGO
 62
     4
 10
230.19645132607289
 20
17.08822447208297
 30
0.0
 11
230.19645132607289
 21
7.5640289907788789
 31
0.0
  0
LINE
  5
301
 67
     1
  8
LOGO
 62
     4
 10
227.99419557653729
 20
17.08822447208297
 30
0.0
 11
227.99419557653729
 21
7.5640289907788789
 31
0.0
  0
LINE
  5
302
 67
     1
  8
LOGO
 62
     4
 10
244.53979054076541
 20
17.088224472083041
 30
0.0
 11
244.53979054076561
 21
7.5640289907788789
 31
0.0
  0
POLYLINE
  5
304
 67
     1
  8
LOGO
 62
     4
 66
     1
 10
0.0
 20
0.0
 30
0.0
 70
     1
1001
GENIUS_GENREC_14
1002
{
1000
PYDIR
1011
7.8093503968432278
1021
0.0
1031
0.0
1021
-11.49794417140445
1031
0.0
1002
}
1002
{
1000
PXDIR
1011
261.82721118273508
1021
0.0
1031
0.0
1021
20.262956299184339
1031
0.0
1002
}
1002
{
1000
PORI
1011
7.8093503968432278
1021
0.0
1031
0.0
1021
20.262956299184339
1031
0.0
1002
}
1002
{
1000
PINS
1011
7.8093503968432278
1021
0.0
1031
0.0
1021
20.262956299184339
1031
0.0
1002
}
1002
{
1000
PINS2
1011
261.82721118273508
1021
0.0
1031
0.0
1021
-11.497944171404461
1031
0.0
1002
}
1002
{
1000
C
1070
     1
1002
}
1001
GENIUS_GENOBJ-N-REC_13
1002
{
1000
OWNER
1000
GEN
1002
}
1001
GENIUS_GENODEF_13
1002
{
1000
HIER
1070
     0
1002
}
1002
{
1000
MANEDIT
1070
     0
1002
}
1002
{
1000
NOSEL
1070
     0
1002
}
1002
{
1000
BEHIND
1070
     0
1002
}
1002
{
1000
OTHER
1070
     0
1002
}
1002
{
1000
REACTOR
1002
}
  0
VERTEX
  5
1546
 67
     1
  8
LOGO
 62
     4
 10
7.8093503968432278
 20
20.262956299184339
 30
0.0
  0
VERTEX
  5
1547
 67
     1
  8
LOGO
 62
     4
 10
261.82721118273508
 20
20.262956299184339
 30
0.0
  0
VERTEX
  5
1548
 67
     1
  8
LOGO
 62
     4
 10
261.82721118273508
 20
-11.497944171404461
 30
0.0
  0
VERTEX
  5
1549
 67
     1
  8
LOGO
 62
     4
 10
7.8093503968432278
 20
-11.49794417140445
 30
0.0
  0
SEQEND
  5
154A
 67
     1
  8
LOGO
 62
     4
  0
TEXT
  5
305
 67
     1
  8
LOGO
 62
     7
 10
79.523360629637637
 20
6.3490462609231448
 30
0.0
 40
4.2347867294117636
  1
Order example:
 41
0.8
  7
CHINESET
  0
TEXT
  5
306
 67
     1
  8
LOGO
 62
     7
 10
80.283116389155666
 20
12.310749152154431
 30
0.0
 40
6.3521800941176458
  1
訂購代號：
  7
CHINESET
  0
LINE
  5
307
 67
     1
  8
LOGO
 62
     4
 10
77.683331432137436
 20
-11.4979441714041
 30
0.0
 11
77.683331432137436
 21
20.262956299184339
 31
0.0
  0
TEXT
  5
308
 67
     1
  8
LOGO
  6
CONTINUOUS
 10
19.21800861388845
 20
-5.2585632053349789
 30
0.0
 40
4.7641350705882353
  1
金器工業股份有限公司
  7
CHINESET
  0
TEXT
  5
309
 67
     1
  8
LOGO
  6
CONTINUOUS
 10
10.46723502686058
 20
-10.02363167287438
 30
0.0
 40
3.1760900470588229
  1
MINDMAN INDUSTRIAL CO., LTD.
 41
0.85
  7
CHINESET
  0
LINE
  5
30A
 67
     1
  8
LOGO
 62
     4
 10
77.683331432137436
 20
13.91077620506665
 30
0.0
 11
31.10067740860768
 21
13.91077620506665
 31
0.0
  0
LINE
  5
30B
 67
     1
  8
LOGO
 62
     4
 10
77.683331432137436
 20
7.5585961109489679
 30
0.0
 11
31.10067740860768
 21
7.5585961109489679
 31
0.0
  0
LINE
  5
30C
 67
     1
  8
LOGO
 62
     4
 10
77.683331432137436
 20
1.2064160168316389
 30
0.0
 11
7.8093503968432278
 21
1.2064160168316389
 31
0.0
  0
LINE
  5
30D
 67
     1
  8
LOGO
 62
     4
 10
31.10067740860768
 20
1.2064160168316389
 30
0.0
 11
31.10067740860768
 21
20.262956299184339
 31
0.0
  0
TEXT
  5
30E
 67
     1
  8
LOGO
 10
62.937722765910237
 20
2.794461040360523
 30
0.0
 40
3.1760900470588229
  1
mm
  7
CHINESET
 72
     1
 11
66.870024728935448
 21
4.3825060638899336
 31
0.0
 73
     2
  0
TEXT
  5
30F
 67
     1
  8
LOGO
 10
61.274056550784188
 20
15.498821228595901
 30
0.0
 40
3.1760900470588229
  1
1 : 1
  7
CHINESET
 72
     1
 11
66.870024728935448
 21
17.086866252125319
 31
0.0
 73
     2
  0
LINE
  5
310
 67
     1
  8
LOGO
 62
     4
 10
56.50939778507847
 20
1.2064160168316389
 30
0.0
 11
56.50939778507847
 21
20.262956299184339
 31
0.0
  0
CIRCLE
  5
311
 67
     1
  8
LOGO
  6
CONTINUOUS
 10
62.390325766271019
 20
10.74147983786059
 30
0.0
 40
1.8441126380549999
  0
CIRCLE
  5
312
 67
     1
  8
LOGO
  6
CONTINUOUS
 10
62.390325766271019
 20
10.74147983786059
 30
0.0
 40
1.080486755844851
  0
LINE
  5
313
 67
     1
  8
LOGO
 10
73.978943565590043
 20
8.8973671998052453
 30
0.0
 11
73.978943565590043
 21
12.58559247591597
 31
0.0
  0
LINE
  5
314
 67
     1
  8
LOGO
 10
68.197756302404287
 20
9.6609930820159491
 30
0.0
 11
68.197756302404287
 21
11.82196659370562
 31
0.0
  0
LINE
  5
315
 67
     1
  8
LOGO
  6
CONTINUOUS
 10
68.197756302404287
 20
11.82196659370562
 30
0.0
 11
73.978943565590043
 21
12.58559247591597
 31
0.0
  0
LINE
  5
316
 67
     1
  8
LOGO
  6
CONTINUOUS
 10
68.197756302404287
 20
9.6609930820159491
 30
0.0
 11
73.978943565590043
 21
8.8973671998052453
 31
0.0
  0
TEXT
  5
317
 67
     1
  8
LOGO
 10
33.719533800088833
 20
15.50038426503639
 30
0.0
 40
3.1760900470588229
  1
比例 Scale:
 41
0.9
  7
CHINESET
 72
     4
 11
43.805037596843022
 21
17.086866252125319
 31
0.0
  0
TEXT
  5
318
 67
     1
  8
LOGO
 10
33.536625042914451
 20
9.1913179260686562
 30
0.0
 40
3.1760900470588229
  1
投影  View:
 41
0.9
  7
CHINESET
 72
     4
 11
43.805037596843022
 21
10.73468615800763
 31
0.0
  0
TEXT
  5
319
 67
     1
  8
LOGO
 10
33.847144560908141
 20
2.794461040360523
 30
0.0
 40
3.1760900470588229
  1
單位  Unit:
 41
0.9
  7
CHINESET
 72
     4
 11
43.805037596843022
 21
4.3825060638899336
 31
0.0
  0
SOLID
  5
31A
 67
     1
  8
LOGO
 62
     5
 10
11.104594793034719
 20
6.486213639247822
 30
0.0
 11
12.477852788780121
 21
6.4862136392474516
 31
0.0
 12
18.207653391717599
 22
19.5084877368338
 32
0.0
 13
19.580911387463679
 23
19.508487736833072
 33
0.0
  0
SOLID
  5
31B
 67
     1
  8
LOGO
 62
     5
 10
13.046097476676209
 20
6.486213639247822
 30
0.0
 11
14.419355472421669
 21
6.486213639247822
 31
0.0
 12
19.580911387463679
 22
18.466705809026411
 32
0.0
 13
18.207653391717599
 23
13.43142649129317
 33
0.0
  0
SOLID
  5
31C
 67
     1
  8
LOGO
 62
     2
 10
12.477852788780121
 20
6.4862136392474516
 30
0.0
 11
13.046097476676209
 21
6.486213639247822
 31
0.0
 12
19.580911387463679
 22
19.508487736833072
 32
0.0
 13
20.149156075359151
 23
19.508487736833072
 33
0.0
  0
SOLID
  5
31D
 67
     1
  8
LOGO
 62
     5
 10
8.9029254617429956
 20
1.75084124012605
 30
0.0
 11
9.3764627016557824
 21
1.75084124012605
 31
0.0
 12
10.709980426441801
 22
4.1185274396867442
 32
0.0
 13
11.183517666352939
 23
4.1185274396867442
 33
0.0
  0
SOLID
  5
31E
 67
     1
  8
LOGO
 62
     5
 10
10.709980426441801
 20
4.1185274396867442
 30
0.0
 11
11.183517666352939
 21
4.1185274396867442
 31
0.0
 12
10.709980426441801
 22
1.75084124012605
 32
0.0
 13
11.183517666352939
 23
1.75084124012605
 33
0.0
  0
SOLID
  5
31F
 67
     1
  8
LOGO
 62
     5
 10
10.709980426441801
 20
1.75084124012605
 30
0.0
 11
11.183517666352939
 21
1.75084124012605
 31
0.0
 12
12.517035391141119
 22
4.1185274396867442
 32
0.0
 13
12.99057263105311
 23
4.1185274396867442
 33
0.0
  0
SOLID
  5
320
 67
     1
  8
LOGO
 62
     5
 10
12.517035391141119
 20
4.1185274396867442
 30
0.0
 11
12.99057263105311
 21
4.1185274396867442
 31
0.0
 12
12.517035391141119
 22
1.75084124012605
 32
0.0
 13
12.99057263105311
 23
1.75084124012605
 33
0.0
  0
POLYLINE
  5
321
 67
     1
  8
LOGO
 62
     5
 66
     1
 10
0.0
 20
0.0
 30
0.0
 40
0.4742961136941175
 41
0.4742961136941175
  0
VERTEX
  5
322
 67
     1
  8
LOGO
 62
     5
 10
28.38984236050419
 20
3.1714529598624059
 30
0.0
 42
1.0
  0
VERTEX
  5
323
 67
     1
  8
LOGO
 62
     5
 10
26.966954019421621
 20
3.1714529598624059
 30
0.0
 42
1.0
  0
SEQEND
  5
324
 67
     1
  8
LOGO
 62
     5
  0
POLYLINE
  5
325
 67
     1
  8
LOGO
 62
     5
 66
     1
 10
0.0
 20
0.0
 30
0.0
 70
     1
  0
VERTEX
  5
326
 67
     1
  8
LOGO
 62
     5
 10
24.284746206407132
 20
2.934684339906056
 30
0.0
 42
1.0000000573306349
  0
VERTEX
  5
327
 67
     1
  8
LOGO
 62
     5
 10
25.70535792614379
 20
2.934684339906056
 30
0.0
 42
1.0000000573306349
  0
SEQEND
  5
328
 67
     1
  8
LOGO
 62
     5
  0
CIRCLE
  5
329
 67
     1
  8
LOGO
 62
     5
 10
24.995052066276571
 20
2.934684339906056
 30
0.0
 40
0.7103058598683107
  0
POLYLINE
  5
32A
 67
     1
  8
LOGO
 62
     5
 66
     1
 10
0.0
 20
0.0
 30
0.0
 70
     1
 40
0.4742961136941175
 41
0.4742961136941175
  0
VERTEX
  5
32B
 67
     1
  8
LOGO
 62
     5
 10
24.04645983888765
 20
2.934684339906056
 30
0.0
 42
1.0
  0
VERTEX
  5
32C
 67
     1
  8
LOGO
 62
     5
 10
25.943644293664079
 20
2.934684339906056
 30
0.0
 42
1.0
  0
SEQEND
  5
32D
 67
     1
  8
LOGO
 62
     5
  0
LINE
  5
32E
 67
     1
  8
LOGO
 10
28.625472669786522
 20
1.75084124012605
 30
0.0
 11
28.625472669786522
 21
3.1714529598624059
 31
0.0
  0
SOLID
  5
32F
 67
     1
  8
LOGO
 62
     5
 10
25.705310572421979
 20
4.1185274396867442
 30
0.0
 11
26.178847812333181
 21
4.1185274396867442
 31
0.0
 12
25.705310572421979
 22
1.75084124012605
 32
0.0
 13
26.178847812333181
 23
1.75084124012605
 33
0.0
  0
SOLID
  5
330
 67
     1
  8
LOGO
 62
     5
 10
26.731323710137868
 20
1.75084124012605
 30
0.0
 11
27.204860950050492
 21
1.75084124012605
 31
0.0
 12
26.731323710137868
 22
4.1185274396867442
 32
0.0
 13
27.204860950050492
 23
4.1185274396867442
 33
0.0
  0
SOLID
  5
331
 67
     1
  8
LOGO
 62
     5
 10
28.151935429875209
 20
3.1714529598624059
 30
0.0
 11
28.625472669786522
 21
3.1714529598624059
 31
0.0
 12
28.151935429875209
 22
1.75084124012605
 32
0.0
 13
28.625472669786522
 23
1.75084124012605
 33
0.0
  0
SOLID
  5
332
 67
     1
  8
LOGO
 62
     5
 10
26.683969986146451
 20
18.466705809026411
 30
0.0
 11
25.310711990401838
 21
13.43142649129317
 31
0.0
 12
26.683969986146451
 22
6.4862136392474516
 32
0.0
 13
25.310711990401838
 23
6.4862136392474516
 33
0.0
  0
SOLID
  5
333
 67
     1
  8
LOGO
 62
     5
 10
27.252214674041909
 20
6.4862136392474516
 30
0.0
 11
28.625472669786522
 21
6.4862136392474516
 31
0.0
 12
27.252214674041909
 22
19.508487736833072
 32
0.0
 13
28.625472669786522
 23
19.5084877368338
 33
0.0
  0
SOLID
  5
334
 67
     1
  8
LOGO
 62
     2
 10
26.683969986146451
 20
19.5084877368338
 30
0.0
 11
27.252214674041909
 21
19.508487736833072
 31
0.0
 12
26.683969986146451
 22
6.4862136392474516
 32
0.0
 13
27.252214674041909
 23
6.4862136392474516
 33
0.0
  0
POLYLINE
  5
335
 67
     1
  8
LOGO
 62
     5
 66
     1
 10
0.0
 20
0.0
 30
0.0
 40
0.4742961136941175
 41
0.4742961136941175
  0
VERTEX
  5
336
 67
     1
  8
LOGO
 62
     5
 10
21.602443685946689
 20
3.1714529598624059
 30
0.0
 42
1.0
  0
VERTEX
  5
337
 67
     1
  8
LOGO
 62
     5
 10
20.17955534486401
 20
3.1714529598624059
 30
0.0
 42
1.0
  0
SEQEND
  5
338
 67
     1
  8
LOGO
 62
     5
  0
POLYLINE
  5
339
 67
     1
  8
LOGO
 62
     5
 66
     1
 10
0.0
 20
0.0
 30
0.0
 40
0.4742961136941175
 41
0.4742961136941175
  0
VERTEX
  5
33A
 67
     1
  8
LOGO
 62
     5
 10
23.02305540568193
 20
3.1714529598624059
 30
0.0
 42
1.0
  0
VERTEX
  5
33B
 67
     1
  8
LOGO
 62
     5
 10
21.60016706459999
 20
3.1714529598624059
 30
0.0
 42
1.0
  0
SEQEND
  5
33C
 67
     1
  8
LOGO
 62
     5
  0
POLYLINE
  5
33D
 67
     1
  8
LOGO
 62
     5
 66
     1
 10
0.0
 20
0.0
 30
0.0
 40
0.4742961136941175
 41
0.4742961136941175
  0
VERTEX
  5
33E
 67
     1
  8
LOGO
 62
     5
 10
16.235656731124429
 20
3.1714529598624059
 30
0.0
 42
1.0
  0
VERTEX
  5
33F
 67
     1
  8
LOGO
 62
     5
 10
14.81276839004255
 20
3.1714529598624059
 30
0.0
 42
1.0
  0
SEQEND
  5
340
 67
     1
  8
LOGO
 62
     5
  0
SOLID
  5
341
 67
     1
  8
LOGO
 62
     5
 10
14.577138080759591
 20
4.1185274396867442
 30
0.0
 11
15.05067532067085
 21
4.1185274396867442
 31
0.0
 12
14.577138080759591
 22
1.75084124012605
 32
0.0
 13
15.05067532067085
 23
1.75084124012605
 33
0.0
  0
SOLID
  5
342
 67
     1
  8
LOGO
 62
     5
 10
15.99774980049625
 20
3.1714529598624059
 30
0.0
 11
16.471287040409042
 21
3.1714529598624059
 31
0.0
 12
15.99774980049625
 22
1.75084124012605
 32
0.0
 13
16.471287040409042
 23
1.75084124012605
 33
0.0
  0
POLYLINE
  5
343
 67
     1
  8
LOGO
 62
     5
 66
     1
 10
0.0
 20
0.0
 30
0.0
 70
     1
 40
0.4742961136941175
 41
0.4742961136941175
  0
VERTEX
  5
344
 67
     1
  8
LOGO
 62
     5
 10
17.25906116432947
 20
2.934684339906056
 30
0.0
 42
1.0
  0
VERTEX
  5
345
 67
     1
  8
LOGO
 62
     5
 10
19.156245619106411
 20
2.934684339906056
 30
0.0
 42
1.0
  0
SEQEND
  5
346
 67
     1
  8
LOGO
 62
     5
  0
SOLID
  5
347
 67
     1
  8
LOGO
 62
     5
 10
18.917911897863011
 20
4.8288332995554688
 30
0.0
 11
19.391449137774998
 21
4.8288332995554688
 31
0.0
 12
18.917911897863011
 22
1.75084124012605
 32
0.0
 13
19.391449137774998
 23
1.75084124012605
 33
0.0
  0
SOLID
  5
348
 67
     1
  8
LOGO
 62
     5
 10
19.943925035581739
 20
4.1185274396867442
 30
0.0
 11
20.417462275493001
 21
4.1185274396867442
 31
0.0
 12
19.943925035581739
 22
1.75084124012605
 32
0.0
 13
20.417462275493001
 23
1.75084124012605
 33
0.0
  0
SOLID
  5
349
 67
     1
  8
LOGO
 62
     5
 10
21.36453675531703
 20
3.1714529598624059
 30
0.0
 11
21.838073995229649
 21
3.1714529598624059
 31
0.0
 12
21.36453675531703
 22
1.75084124012605
 32
0.0
 13
21.838073995229649
 23
1.75084124012605
 33
0.0
  0
SOLID
  5
34A
 67
     1
  8
LOGO
 62
     5
 10
22.785148475053749
 20
3.1714529598624059
 30
0.0
 11
23.25868571496574
 21
3.1714529598624059
 31
0.0
 12
22.785148475053749
 22
1.750841240125339
 32
0.0
 13
23.25868571496574
 23
1.750841240125339
 33
0.0
  0
SOLID
  5
34B
 67
     1
  8
LOGO
 62
     5
 10
13.55112494304143
 20
4.4500035076254392
 30
0.0
 11
14.02466218295484
 21
4.4500035076254392
 31
0.0
 12
13.55112494304143
 22
4.8288332995554688
 32
0.0
 13
14.02466218295484
 23
4.8288332995554688
 33
0.0
  0
SOLID
  5
34C
 67
     1
  8
LOGO
 62
     5
 10
13.55112494304143
 20
4.1185274396867442
 30
0.0
 11
14.02466218295484
 21
4.1185274396867442
 31
0.0
 12
13.55112494304143
 22
1.750841240125339
 32
0.0
 13
14.02466218295484
 23
1.75084124012605
 33
0.0
  0
SOLID
  5
34D
 67
     1
  8
LOGO
 62
     5
 10
18.207653391717599
 20
6.486213639247822
 30
0.0
 11
19.580911387463679
 21
6.486213639247822
 31
0.0
 12
18.207653391717599
 22
13.43142649129317
 32
0.0
 13
19.580911387463679
 23
18.466705809026411
 33
0.0
  0
SOLID
  5
34E
 67
     1
  8
LOGO
 62
     5
 10
20.149156075359151
 20
19.508487736833072
 30
0.0
 11
21.52241407110375
 21
19.5084877368338
 31
0.0
 12
20.149156075359151
 22
7.5279955670544894
 32
0.0
 13
21.52241407110375
 23
12.56327488478772
 33
0.0
  0
SOLID
  5
34F
 67
     1
  8
LOGO
 62
     2
 10
19.580911387463679
 20
19.508487736833072
 30
0.0
 11
20.149156075359151
 21
19.508487736833072
 31
0.0
 12
19.580911387463679
 22
6.486213639247822
 32
0.0
 13
20.149156075359151
 23
6.486213639247822
 33
0.0
  0
SOLID
  5
350
 67
     1
  8
LOGO
 62
     5
 10
20.149156075359151
 20
7.5279955670544894
 30
0.0
 11
21.52241407110375
 21
12.56327488478772
 31
0.0
 12
26.683969986146451
 22
19.5084877368338
 32
0.0
 13
25.310711990401838
 23
19.5084877368338
 33
0.0
  0
SOLID
  5
351
 67
     1
  8
LOGO
 62
     5
 10
20.149156075359151
 20
6.486213639247822
 30
0.0
 11
21.52241407110375
 21
6.486213639247822
 31
0.0
 12
26.683969986146451
 22
18.466705809026411
 32
0.0
 13
25.310711990401838
 23
13.43142649129317
 33
0.0
  0
SOLID
  5
352
 67
     1
  8
LOGO
 62
     2
 10
19.580911387463679
 20
6.486213639247822
 30
0.0
 11
20.149156075359151
 21
6.486213639247822
 31
0.0
 12
26.683969986146451
 22
19.5084877368338
 32
0.0
 13
27.252214674041909
 23
19.508487736833072
 33
0.0
  0
TEXT
  5
353
 67
     1
  8
LOGO
 10
79.419637248310394
 20
-9.8082768021949107
 30
0.0
 40
3.1765500000000002
  1
00903161
 41
0.7
  7
CHINESET
 72
     1
 11
86.884529748310399
 21
-9.8082768021949107
 31
0.0
  0
LINE
  5
354
 67
     1
  8
LOGO
 62
     4
 10
96.742631432135965
 20
-5.1457640772856896
 30
0.0
 11
96.742631432137387
 21
-11.49794417140374
 31
0.0
  0
LINE
  5
355
 67
     1
  8
LOGO
 62
     4
 10
96.742631432135965
 20
-5.1457640772856896
 30
0.0
 11
77.683331432137436
 21
-5.1457640772856896
 31
0.0
  0
LINE
  5
356
 67
     1
  8
LOGO
  6
AM_ISO08W050X2
 10
59.848188881299791
 20
10.74147983786059
 30
0.0
 11
64.932462651242076
 21
10.74147983786059
 31
0.0
1001
GENIUS_GENOREF_13
1005
0
  0
LINE
  5
357
 67
     1
  8
LOGO
  6
AM_ISO08W050X2
 10
62.390325766271019
 20
8.1993429528894666
 30
0.0
 11
62.390325766271019
 21
13.28361672283175
 31
0.0
1001
GENIUS_GENOREF_13
1005
0
  0
LINE
  5
358
 67
     1
  8
LOGO
  6
CENTER
 10
67.735422008697583
 20
10.74147983786059
 30
0.0
 11
74.561090408324787
 21
10.74147983786059
 31
0.0
1001
GENIUS_GENOREF_13
1005
0
  0
DIMENSION
  5
35B
 67
     1
  8
AM_5
  2
*D0
 10
67.713876575859089
 20
257.78389242060263
 30
0.0
 11
52.09436220009092
 21
273.40340679637092
 31
0.0
 70
   129
 13
63.376752781254709
 23
310.01531112092152
 33
0.0
 14
91.661024028716355
 24
281.73103987345962
 34
0.0
1001
ACAD
1000
DSTYLE
1002
{
1070
   287
1070
     3
1070
   147
1040
1.0
1070
   176
1070
     5
1070
   177
1070
     5
1070
   178
1070
     5
1070
   272
1070
     2
1070
   289
1070
     3
1002
}
  0
DIMENSION
  5
3A5
 67
     1
  8
AM_5
  2
*D1
 10
66.026804780997821
 20
247.6147437087381
 30
0.0
 11
46.103422113008477
 21
267.53812579997577
 31
0.0
 70
   129
 13
58.892966555632171
 23
314.0136009404315
 33
0.0
 14
95.659314387418519
 24
277.24725417297498
 34
0.0
1001
ACAD
1000
DSTYLE
1002
{
1070
   287
1070
     3
1070
   176
1070
     5
1070
   177
1070
     5
1070
   178
1070
     5
1070
   272
1070
     2
1070
   289
1070
     3
1002
}
  0
DIMENSION
  5
413
 67
     1
  8
AM_5
  2
*D2
 10
39.823327831389719
 20
308.39573611766252
 30
0.0
 11
56.659789357741289
 21
325.23219764401409
 31
0.0
 70
   128
 13
84.670718602233933
 23
313.04582002987661
 33
0.0
 14
57.447107054185047
 24
290.77195689486717
 34
0.0
 50
45.000000000000021
1001
ACAD
1000
DSTYLE
1002
{
1070
   287
1070
     3
1070
   176
1070
     5
1070
   177
1070
     5
1070
   178
1070
     5
1070
   272
1070
     2
1070
   289
1070
     3
1002
}
  0
DIMENSION
  5
43E
 67
     1
  8
AM_5
  2
*D3
 10
105.33057328715201
 20
275.50850092757662
 30
0.0
 11
103.130573287152
 21
295.66104395520978
 31
0.0
 70
     0
  1
{\Famgdt;o}<>
 13
65.088738086894068
 23
315.81358698284311
 33
0.0
 14
93.330573287152035
 24
275.50850092757662
 34
0.0
 50
90.0
1001
ACAD
1000
DSTYLE
1002
{
1070
   287
1070
     3
1070
   176
1070
     5
1070
   177
1070
     5
1070
   178
1070
     5
1070
   271
1070
     1
1070
   272
1070
     2
1070
   289
1070
     3
1002
}
  0
TEXT
  5
4F9
 67
     1
  8
0
 62
     5
 10
79.533787474665132
 20
238.6907998465698
 30
0.0
 40
3.0
  1

  0
TEXT
  5
51D
 67
     1
  8
0
 62
     5
 10
19.7834366053271
 20
318.34754083538951
 30
0.0
 40
2.7999999999999989
  1
2*2-%%c9*7L
  0
LINE
  5
520
 67
     1
  8
AM_7
 10
77.518888404985546
 20
272.50815874134912
 30
0.0
 11
77.518888404985546
 21
318.1240285105215
 31
0.0
  0
TEXT
  5
61C
 67
     1
  8
0
 62
     5
 10
183.48710866267109
 20
255.03012092226061
 30
0.0
 40
3.0
  1

  0
DIMENSION
  5
61D
 67
     1
  8
AM_5
  2
*D4
 10
129.0816648949187
 20
289.87317549719029
 30
0.0
 11
126.8816648949186
 21
295.87317549719052
 31
0.0
 70
     0
  1
%%c<>
 13
136.662294324019
 23
301.87317549719052
 33
0.0
 14
136.662294324019
 24
289.87317549719029
 34
0.0
 50
90.0
1001
ACAD
1000
DSTYLE
1002
{
1070
   287
1070
     3
1070
   176
1070
     5
1070
   177
1070
     5
1070
   178
1070
     5
1070
   272
1070
     2
1070
   289
1070
     3
1002
}
  0
LINE
  5
8B6
 67
     1
  8
AM_7
 10
63.376752781254652
 20
136.15847712763181
 30
0.0
 11
63.376752781254652
 21
136.15847712763181
 31
0.0
  0
LINE
  5
8B7
 67
     1
  8
AM_7
 10
63.376752781254652
 20
136.15847712763181
 30
0.0
 11
63.376752781254652
 21
136.15847712763181
 31
0.0
  0
LINE
  5
8B8
 67
     1
  8
AM_7
 10
58.20175278125464
 20
136.15847712763181
 30
0.0
 11
63.376752781254652
 21
136.15847712763181
 31
0.0
  0
LINE
  5
8B9
 67
     1
  8
AM_7
 10
63.376752781254652
 20
136.15847712763181
 30
0.0
 11
68.551752781254663
 21
136.15847712763181
 31
0.0
  0
LINE
  5
8BA
 67
     1
  8
AM_7
 10
63.376752781254652
 20
130.9834771276318
 30
0.0
 11
63.376752781254652
 21
136.15847712763181
 31
0.0
  0
LINE
  5
8BB
 67
     1
  8
AM_7
 10
63.376752781254652
 20
136.15847712763181
 30
0.0
 11
63.376752781254652
 21
141.3334771276318
 31
0.0
  0
LINE
  5
8BC
 67
     1
  8
AM_7
 10
91.661024028716326
 20
107.8742058801699
 30
0.0
 11
91.661024028716326
 21
107.8742058801699
 31
0.0
  0
LINE
  5
8BD
 67
     1
  8
AM_7
 10
91.661024028716326
 20
107.8742058801699
 30
0.0
 11
91.661024028716326
 21
107.8742058801699
 31
0.0
  0
LINE
  5
8BE
 67
     1
  8
AM_7
 10
86.486024028716315
 20
107.8742058801699
 30
0.0
 11
91.661024028716326
 21
107.8742058801699
 31
0.0
  0
LINE
  5
8BF
 67
     1
  8
AM_7
 10
91.661024028716326
 20
107.8742058801699
 30
0.0
 11
96.836024028716352
 21
107.8742058801699
 31
0.0
  0
LINE
  5
8C0
 67
     1
  8
AM_7
 10
91.661024028716326
 20
102.6992058801699
 30
0.0
 11
91.661024028716326
 21
107.8742058801699
 31
0.0
  0
LINE
  5
8C1
 67
     1
  8
AM_7
 10
91.661024028716326
 20
107.8742058801699
 30
0.0
 11
91.661024028716326
 21
113.04920588016989
 31
0.0
  0
LINE
  5
8C2
 67
     1
  8
AM_7
 10
77.518888404985489
 20
122.0163415039009
 30
0.0
 11
77.518888404985489
 21
122.0163415039009
 31
0.0
  0
LINE
  5
8C3
 67
     1
  8
AM_7
 10
77.518888404985489
 20
122.0163415039009
 30
0.0
 11
77.518888404985489
 21
122.0163415039009
 31
0.0
  0
LINE
  5
8C5
 67
     1
  8
AM_7
 10
54.876761518969943
 20
122.0163415039009
 30
0.0
 11
98.289630588685895
 21
122.0163415039009
 31
0.0
  0
ARC
  5
8C6
 67
     1
  8
AM_4
 10
63.376752781254652
 20
136.15847712763181
 30
0.0
 40
3.1469999999999989
 50
260.00000000000142
 51
190.0000000000002
  0
ARC
  5
8C7
 67
     1
  8
AM_4
 10
91.661024028716326
 20
107.8742058801699
 30
0.0
 40
3.1469999999999989
 50
260.00000000000142
 51
190.0000000000002
  0
ARC
  5
8C8
 67
     1
  8
AM_4
 10
63.376752781254652
 20
136.15847712763181
 30
0.0
 40
3.1469999999999989
 50
260.00000000000142
 51
190.0000000000002
  0
ARC
  5
8C9
 67
     1
  8
AM_4
 10
91.661024028716326
 20
107.8742058801699
 30
0.0
 40
3.1469999999999989
 50
260.00000000000142
 51
190.0000000000002
  0
ARC
  5
8CA
 67
     1
  8
AM_4
 10
77.518888404988445
 20
122.01634150389781
 30
0.0
 40
4.309499999999999
 50
260.00000000000142
 51
190.0000000000002
  0
LINE
  5
8CB
 67
     1
  8
AM_7
 10
182.2711745978381
 20
122.0163415039011
 30
0.0
 11
135.38803302654219
 21
122.0163415039011
 31
0.0
  0
LINE
  5
8CC
 67
     1
  8
AM_7
 10
137.95107840840569
 20
122.0163415038994
 30
0.0
 11
118.9760784084057
 21
122.01634150389791
 31
0.0
  0
LINE
  5
8CD
 67
     1
  8
AM_4
 10
120.2135784084053
 20
125.0636181774213
 30
0.0
 11
134.21357840840531
 21
125.0636181774223
 31
0.0
  0
LINE
  5
8CE
 67
     1
  8
AM_4
 10
120.21357840840621
 20
118.96906483037461
 30
0.0
 11
134.21357840840619
 21
118.9690648303757
 31
0.0
  0
LINE
  5
8CF
 67
     1
  8
AM_4
 10
134.21357840840619
 20
118.9690648303757
 30
0.0
 11
134.90407840840621
 21
118.4808075979664
 31
0.0
  0
LINE
  5
8D0
 67
     1
  8
AM_4
 10
134.21357840840531
 20
125.0636181774223
 30
0.0
 11
134.90407840840521
 21
125.55187540983169
 31
0.0
  0
LINE
  5
8D1
 67
     1
  8
AM_4
 62
     7
 10
134.21357840840611
 20
117.016341503899
 30
0.0
 11
134.21357840840531
 21
127.0163415038991
 31
0.0
  0
LINE
  5
8D2
 67
     1
  8
AM_7
 10
135.38803302654219
 20
57.145948551689152
 30
0.0
 11
182.2711745978381
 21
57.145948551689152
 31
0.0
  0
LINE
  5
8E1
 67
     1
  8
AM_7
 10
150.22152840840579
 20
62.086360982074922
 30
0.0
 11
152.71357840840571
 21
62.086360982074922
 31
0.0
  0
LINE
  5
8E2
 67
     1
  8
AM_7
 10
152.71357840840571
 20
62.086360982074922
 30
0.0
 11
155.2056284084058
 21
62.086360982074922
 31
0.0
  0
LINE
  5
8E3
 67
     1
  8
AM_7
 10
152.71357840840571
 20
59.594310982074923
 30
0.0
 11
152.71357840840571
 21
62.086360982074922
 31
0.0
  0
LINE
  5
8E4
 67
     1
  8
AM_7
 10
152.71357840840571
 20
62.086360982074922
 30
0.0
 11
152.71357840840571
 21
64.578410982074914
 31
0.0
  0
LINE
  5
8E7
 67
     1
  8
AM_7
 10
171.22152840840579
 20
62.086360982074922
 30
0.0
 11
173.71357840840571
 21
62.086360982074922
 31
0.0
  0
LINE
  5
8E8
 67
     1
  8
AM_7
 10
173.71357840840571
 20
62.086360982074922
 30
0.0
 11
176.2056284084058
 21
62.086360982074922
 31
0.0
  0
LINE
  5
8E9
 67
     1
  8
AM_7
 10
173.71357840840571
 20
59.594310982074923
 30
0.0
 11
173.71357840840571
 21
62.086360982074922
 31
0.0
  0
LINE
  5
8EA
 67
     1
  8
AM_7
 10
173.71357840840571
 20
62.086360982074922
 30
0.0
 11
173.71357840840571
 21
64.578410982074914
 31
0.0
  0
LINE
  5
8EB
 67
     1
  8
AM_7
 10
137.95107840840569
 20
57.145948551690672
 30
0.0
 11
118.9760784084057
 21
57.145948551692157
 31
0.0
  0
ARC
  5
8EC
 67
     1
  8
AM_4
 10
152.71357840840571
 20
62.086360982075149
 30
0.0
 40
2.6200000000000001
 50
260.00000000000142
 51
190.0000000000002
  0
ARC
  5
8ED
 67
     1
  8
AM_4
 10
173.71357840840571
 20
62.086360982075149
 30
0.0
 40
2.6200000000000001
 50
260.00000000000142
 51
190.0000000000002
  0
LINE
  5
8EE
 67
     1
  8
AM_4
 10
120.2135784084057
 20
60.19322522521523
 30
0.0
 11
134.21357840840571
 21
60.19322522521432
 31
0.0
  0
LINE
  5
8EF
 67
     1
  8
AM_4
 10
120.2135784084057
 20
54.098671878168517
 30
0.0
 11
134.21357840840571
 21
54.098671878167607
 31
0.0
  0
LINE
  5
8F0
 67
     1
  8
AM_4
 10
134.21357840840571
 20
54.098671878167607
 30
0.0
 11
134.9040784084057
 21
53.610414645758091
 31
0.0
  0
LINE
  5
8F1
 67
     1
  8
AM_4
 10
134.21357840840571
 20
60.19322522521432
 30
0.0
 11
134.9040784084057
 21
60.681482457623389
 31
0.0
  0
LINE
  5
8F2
 67
     1
  8
AM_4
 62
     7
 10
134.21357840840531
 20
52.145948551690743
 30
0.0
 11
134.21357840840611
 21
62.145948551690957
 31
0.0
  0
LINE
  5
8F3
 67
     1
  8
AM_7
 10
240.6802815611133
 20
136.15847712763181
 30
0.0
 11
240.6802815611133
 21
136.15847712763181
 31
0.0
  0
LINE
  5
8F4
 67
     1
  8
AM_7
 10
240.6802815611133
 20
136.15847712763181
 30
0.0
 11
240.6802815611133
 21
136.15847712763181
 31
0.0
  0
LINE
  5
8F5
 67
     1
  8
AM_7
 10
235.50528156111341
 20
136.15847712763181
 30
0.0
 11
240.6802815611133
 21
136.15847712763181
 31
0.0
  0
LINE
  5
8F6
 67
     1
  8
AM_7
 10
240.6802815611133
 20
136.15847712763181
 30
0.0
 11
245.85528156111329
 21
136.15847712763181
 31
0.0
  0
LINE
  5
8F7
 67
     1
  8
AM_7
 10
240.6802815611133
 20
130.9834771276318
 30
0.0
 11
240.6802815611133
 21
136.15847712763181
 31
0.0
  0
LINE
  5
8F8
 67
     1
  8
AM_7
 10
240.6802815611133
 20
136.15847712763181
 30
0.0
 11
240.6802815611133
 21
141.3334771276318
 31
0.0
  0
LINE
  5
8F9
 67
     1
  8
AM_7
 10
212.3960103136516
 20
107.8742058801699
 30
0.0
 11
212.3960103136516
 21
107.8742058801699
 31
0.0
  0
LINE
  5
8FA
 67
     1
  8
AM_7
 10
212.3960103136516
 20
107.8742058801699
 30
0.0
 11
212.3960103136516
 21
107.8742058801699
 31
0.0
  0
LINE
  5
8FB
 67
     1
  8
AM_7
 10
207.22101031365159
 20
107.8742058801699
 30
0.0
 11
212.3960103136516
 21
107.8742058801699
 31
0.0
  0
LINE
  5
8FC
 67
     1
  8
AM_7
 10
212.3960103136516
 20
107.8742058801699
 30
0.0
 11
217.5710103136517
 21
107.8742058801699
 31
0.0
  0
LINE
  5
8FD
 67
     1
  8
AM_7
 10
212.3960103136516
 20
102.6992058801699
 30
0.0
 11
212.3960103136516
 21
107.8742058801699
 31
0.0
  0
LINE
  5
8FE
 67
     1
  8
AM_7
 10
212.3960103136516
 20
107.8742058801699
 30
0.0
 11
212.3960103136516
 21
113.04920588016989
 31
0.0
  0
ARC
  5
905
 67
     1
  8
AM_4
 10
240.6802815611133
 20
136.15847712763181
 30
0.0
 40
3.1469999999999989
 50
260.00000000000142
 51
190.0000000000002
  0
ARC
  5
906
 67
     1
  8
AM_4
 10
212.3960103136516
 20
107.8742058801699
 30
0.0
 40
3.1469999999999989
 50
260.00000000000142
 51
190.0000000000002
  0
ARC
  5
907
 67
     1
  8
AM_4
 10
240.6802815611133
 20
136.15847712763181
 30
0.0
 40
3.1469999999999989
 50
260.00000000000142
 51
190.0000000000002
  0
ARC
  5
908
 67
     1
  8
AM_4
 10
212.3960103136516
 20
107.8742058801699
 30
0.0
 40
3.1469999999999989
 50
260.00000000000142
 51
190.0000000000002
  0
LINE
  5
909
 67
     1
  8
AM_VIS
 10
65.795844868080565
 20
141.66385977074
 30
0.0
 11
67.977825383419997
 21
139.4818792554006
 31
0.0
  0
LINE
  5
90A
 67
     1
  8
AM_VIS
 10
67.977825383420111
 20
139.48187925540029
 30
0.0
 11
72.1778253834201
 21
139.48187925540029
 31
0.0
  0
LINE
  5
90B
 67
     1
  8
AM_VIS
 10
72.477825383420338
 20
136.7818795289914
 30
0.0
 11
72.477825383420338
 21
139.18187925540019
 31
0.0
  0
LINE
  5
90C
 67
     1
  8
AM_VIS
 10
81.177825383420384
 20
136.48187952899161
 30
0.0
 11
72.777825383420407
 21
136.48187952899161
 31
0.0
  0
LINE
  5
90D
 67
     1
  8
AM_VIS
 10
81.477825383420125
 20
137.3818795289917
 30
0.0
 11
81.477825383420125
 21
136.7818795289914
 31
0.0
  0
LINE
  5
90E
 67
     1
  8
AM_VIS
 10
80.07782538342002
 20
137.68187952899149
 30
0.0
 11
81.177825383420156
 21
137.68187952899169
 31
0.0
  0
LINE
  5
90F
 67
     1
  8
AM_VIS
 10
79.777825383420293
 20
139.48187952899141
 30
0.0
 11
79.777825383420293
 21
137.98187952899141
 31
0.0
  0
LINE
  5
910
 67
     1
  8
AM_VIS
 10
79.777825383420293
 20
139.48187925540049
 30
0.0
 11
83.963611821046982
 21
139.48187925540049
 31
0.0
  0
LINE
  5
911
 67
     1
  8
AM_VIS
 10
84.670718602233535
 20
139.1889860365871
 30
0.0
 11
94.691533882404826
 21
129.1681707564158
 31
0.0
  0
LINE
  5
912
 67
     1
  8
AM_VIS
 10
94.984427101218387
 20
128.46106397522931
 30
0.0
 11
94.984427101218387
 21
124.57527753760201
 31
0.0
  0
LINE
  5
913
 67
     1
  8
AM_VIS
 10
93.4844273748094
 20
124.27527753760199
 30
0.0
 11
94.684427101218375
 21
124.27527753760199
 31
0.0
  0
LINE
  5
914
 67
     1
  8
AM_VIS
 10
93.184427374809673
 20
125.6752775376021
 30
0.0
 11
93.184427374809673
 21
124.5752775376022
 31
0.0
  0
LINE
  5
915
 67
     1
  8
AM_VIS
 10
92.284427374809596
 20
125.9752775376022
 30
0.0
 11
92.884427374809491
 21
125.9752775376022
 31
0.0
  0
LINE
  5
916
 67
     1
  8
AM_VIS
 10
91.984427374809627
 20
117.27527753760209
 30
0.0
 11
91.984427374809627
 21
125.6752775376021
 31
0.0
  0
LINE
  5
917
 67
     1
  8
AM_VIS
 10
94.68442710121866
 20
116.9752775376021
 30
0.0
 11
92.284427374809866
 21
116.9752775376021
 31
0.0
  0
LINE
  5
918
 67
     1
  8
AM_VIS
 10
94.984427101218387
 20
116.6752775376021
 30
0.0
 11
94.984427101218387
 21
112.4752775376021
 31
0.0
  0
LINE
  5
919
 67
     1
  8
AM_VIS
 10
94.984427101218387
 20
112.4752775376021
 30
0.0
 11
97.166407616557805
 21
110.29329702226261
 31
0.0
  0
LINE
  5
91A
 67
     1
  8
AM_VIS
 10
97.459300835371266
 20
109.5861902410761
 30
0.0
 11
97.459300835371266
 21
105.69884240119271
 31
0.0
  0
LINE
  5
91B
 67
     1
  8
AM_VIS
 10
93.330573287152163
 20
101.65166693428679
 30
0.0
 11
73.124776583848472
 21
101.65166693428679
 31
0.0
  0
LINE
  5
91C
 67
     1
  8
AM_VIS
 10
72.417669802662147
 20
101.9445601531004
 30
0.0
 11
57.447107054185039
 21
116.9151229015775
 31
0.0
  0
LINE
  5
91D
 67
     1
  8
AM_VIS
 10
57.154213835371081
 20
117.6222296827641
 30
0.0
 11
57.154213835371081
 21
137.82802638606779
 31
0.0
  0
LINE
  5
91E
 67
     1
  8
AM_VIS
 10
61.201388205685078
 20
141.95675298955331
 30
0.0
 11
65.088738086894068
 21
141.95675298955331
 31
0.0
  0
CIRCLE
  5
91F
 67
     1
  8
AM_VIS
 10
63.376752781254652
 20
136.15847712763181
 30
0.0
 40
4.5
  0
CIRCLE
  5
920
 67
     1
  8
AM_VIS
 10
91.661024028716326
 20
107.8742058801699
 30
0.0
 40
4.5
  0
CIRCLE
  5
922
 67
     1
  8
AM_VIS
 10
63.376752781254652
 20
136.15847712763181
 30
0.0
 40
2.75
  0
CIRCLE
  5
924
 67
     1
  8
AM_VIS
 10
91.661024028716326
 20
107.8742058801699
 30
0.0
 40
2.75
  0
CIRCLE
  5
925
 67
     1
  8
AM_VIS
 10
63.376752781254652
 20
136.15847712763181
 30
0.0
 40
4.7999999999999998
  0
ARC
  5
926
 67
     1
  8
AM_VIS
 10
72.177825383420384
 20
139.18187925540039
 30
0.0
 40
0.3
 50
0.0
 51
90.0
  0
ARC
  5
927
 67
     1
  8
AM_VIS
 10
72.777825383420065
 20
136.7818795289914
 30
0.0
 40
0.3
 50
180.0
 51
270.0
  0
ARC
  5
928
 67
     1
  8
AM_VIS
 10
81.177825383419929
 20
136.78187952899151
 30
0.0
 40
0.3
 50
270.0
 51
0.0
  0
ARC
  5
929
 67
     1
  8
AM_VIS
 10
81.177825383420156
 20
137.38187952899159
 30
0.0
 40
0.3
 50
0.0
 51
90.0
  0
ARC
  5
92A
 67
     1
  8
AM_VIS
 10
80.077825383420247
 20
137.9818795289915
 30
0.0
 40
0.3
 50
180.0
 51
270.0
  0
ARC
  5
92B
 67
     1
  8
AM_VIS
 10
83.963611821047309
 20
138.48187925540029
 30
0.0
 40
1.0
 50
45.0
 51
90.0
  0
ARC
  5
92C
 67
     1
  8
AM_VIS
 10
93.984427101218387
 20
128.461063975229
 30
0.0
 40
1.0
 50
0.0
 51
45.0
  0
ARC
  5
92D
 67
     1
  8
AM_VIS
 10
94.68442710121866
 20
124.5752775376022
 30
0.0
 40
0.3
 50
270.0
 51
0.0
  0
ARC
  5
92E
 67
     1
  8
AM_VIS
 10
93.4844273748094
 20
124.5752775376022
 30
0.0
 40
0.3
 50
180.0
 51
270.0
  0
ARC
  5
92F
 67
     1
  8
AM_VIS
 10
92.884427374809491
 20
125.6752775376021
 30
0.0
 40
0.3
 50
0.0
 51
90.0
  0
ARC
  5
930
 67
     1
  8
AM_VIS
 10
92.284427374809596
 20
125.675277537602
 30
0.0
 40
0.3
 50
90.0
 51
180.0
  0
ARC
  5
931
 67
     1
  8
AM_VIS
 10
92.284427374809596
 20
117.27527753760199
 30
0.0
 40
0.3
 50
180.0
 51
270.0
  0
ARC
  5
932
 67
     1
  8
AM_VIS
 10
94.684427101218205
 20
116.6752775376021
 30
0.0
 40
0.3
 50
0.0
 51
90.0
  0
ARC
  5
933
 67
     1
  8
AM_VIS
 10
96.459300835371266
 20
109.5861902410761
 30
0.0
 40
1.0
 50
0.0
 51
45.0
  0
ARC
  5
934
 67
     1
  8
AM_VIS
 10
96.459300835371266
 20
105.69884240119261
 30
0.0
 40
1.0
 50
319.25452172945722
 51
0.0000000000097707
  0
ARC
  5
935
 67
     1
  8
AM_VIS
 10
77.518888404985489
 20
122.0163415039009
 30
0.0
 40
26.0
 50
309.23239799650202
 51
319.25452172945722
  0
ARC
  5
936
 67
     1
  8
AM_VIS
 10
93.330573287152163
 20
102.65166693428689
 30
0.0
 40
1.0
 50
269.99999999999022
 51
309.23239799650912
  0
ARC
  5
937
 67
     1
  8
AM_VIS
 10
73.124776583848586
 20
102.65166693428689
 30
0.0
 40
1.0
 50
225.0
 51
270.0
  0
ARC
  5
938
 67
     1
  8
AM_VIS
 10
58.154213835371309
 20
117.6222296827642
 30
0.0
 40
1.0
 50
180.0
 51
225.0
  0
ARC
  5
939
 67
     1
  8
AM_VIS
 10
58.154213835371081
 20
137.8280263860679
 30
0.0
 40
1.0
 50
140.7676020034921
 51
180.00000000000969
  0
ARC
  5
93A
 67
     1
  8
AM_VIS
 10
77.518888404985489
 20
122.0163415039009
 30
0.0
 40
26.0
 50
130.7454815877955
 51
140.76760200349801
  0
ARC
  5
93B
 67
     1
  8
AM_VIS
 10
61.20138820568485
 20
140.95675298955331
 30
0.0
 40
0.9999999999999998
 50
89.999999999990223
 51
130.7454815877966
  0
ARC
  5
93C
 67
     1
  8
AM_VIS
 10
65.088738086894125
 20
140.95675298955331
 30
0.0
 40
1.0
 50
45.0
 51
90.0
  0
CIRCLE
  5
93D
 67
     1
  8
AM_VIS
 10
91.661024028716326
 20
107.8742058801699
 30
0.0
 40
4.7999999999999998
  0
CIRCLE
  5
93E
 67
     1
  8
AM_VIS
 10
77.518888404985489
 20
122.0163415039009
 30
0.0
 40
13.5
  0
CIRCLE
  5
93F
 67
     1
  8
AM_VIS
 10
77.518888404985489
 20
122.0163415039009
 30
0.0
 40
13.0
  0
ARC
  5
940
 67
     1
  8
AM_VIS
 10
77.518888404985489
 20
122.0163415039009
 30
0.0
 40
12.5
 50
25.12312592992231
 51
64.876874070080291
  0
CIRCLE
  5
941
 67
     1
  8
AM_VIS
 10
77.518888404985489
 20
122.0163415039009
 30
0.0
 40
7.5
  0
CIRCLE
  5
942
 67
     1
  8
AM_VIS
 10
77.518888404985489
 20
122.0163415039009
 30
0.0
 40
7.0
  0
LINE
  5
943
 67
     1
  8
AM_VIS
 10
83.038232067784918
 20
133.78650911238969
 30
0.0
 11
82.240729621534854
 21
132.0858109797818
 31
0.0
  0
LINE
  5
944
 67
     1
  8
AM_VIS
 10
87.588357880866326
 20
126.7381827204504
 30
0.0
 11
89.289056013474223
 21
127.5356851667005
 31
0.0
  0
CIRCLE
  5
945
 67
     1
  8
AM_VIS
 10
80.429934604844391
 20
132.93494077405859
 30
0.0
 40
1.0
  0
CIRCLE
  5
946
 67
     1
  8
AM_VIS
 10
88.437487675143018
 20
124.9273877037599
 30
0.0
 40
1.0
  0
ARC
  5
947
 67
     1
  8
AM_VIS
 10
80.429934604844391
 20
132.93494077405859
 30
0.0
 40
2.0
 50
196.72905928662459
 51
334.8768740700807
  0
ARC
  5
948
 67
     1
  8
AM_VIS
 10
76.59922809250105
 20
131.78355568804719
 30
0.0
 40
2.0
 50
16.729059286624679
 51
98.9213888661167
  0
ARC
  5
949
 67
     1
  8
AM_VIS
 10
78.049218490875475
 20
122.5466715897909
 30
0.0
 40
11.35000000000001
 50
98.921388866120054
 51
351.07861113388168
  0
ARC
  5
94A
 67
     1
  8
AM_VIS
 10
87.286102589131758
 20
121.09668119141639
 30
0.0
 40
2.0
 50
351.07861113388492
 51
73.270940713375779
  0
ARC
  5
94B
 67
     1
  8
AM_VIS
 10
88.437487675143018
 20
124.9273877037599
 30
0.0
 40
2.0
 50
115.1231259299194
 51
253.27094071337581
  0
LINE
  5
94C
 67
     1
  8
AM_VIS
 10
72.518888404987081
 20
122.0163415038993
 30
0.0
 11
72.518888404987081
 21
118.69971671354401
 31
0.0
  0
LINE
  5
94D
 67
     1
  8
AM_VIS
 10
72.518888404987081
 20
125.3329662942546
 30
0.0
 11
72.518888404987081
 21
122.0163415038993
 31
0.0
  0
LINE
  5
94E
 67
     1
  8
AM_VIS
 10
82.518888404986839
 20
122.0163415038993
 30
0.0
 11
82.518888404986839
 21
118.69971671354411
 31
0.0
  0
LINE
  5
94F
 67
     1
  8
AM_VIS
 10
82.518888404987081
 20
125.3329662942546
 30
0.0
 11
82.518888404987081
 21
122.0163415038992
 31
0.0
  0
ARC
  5
950
 67
     1
  8
AM_VIS
 10
77.518888404987081
 20
122.0163415038991
 30
0.0
 40
6.0
 50
326.44269023808431
 51
33.557309761924287
  0
ARC
  5
951
 67
     1
  8
AM_VIS
 10
77.518888404987081
 20
122.0163415038991
 30
0.0
 40
6.0000000000004574
 50
146.4426902380757
 51
213.55730976191569
  0
CIRCLE
  5
952
 67
     1
  8
AM_VIS
 10
77.518888404988203
 20
122.01634150389791
 30
0.0
 40
5.0
  0
CIRCLE
  5
953
 67
     1
  8
AM_VIS
 10
77.518888404988445
 20
122.01634150389781
 30
0.0
 40
4.0
  0
ARC
  5
954
 67
     1
  8
AM_VIS
 10
77.518888404987081
 20
122.0163415038992
 30
0.0
 40
6.0
 50
33.557309761921587
 51
146.4426902380784
  0
ARC
  5
955
 67
     1
  8
AM_VIS
 10
77.518888404987081
 20
122.0163415038992
 30
0.0
 40
6.0
 50
213.5573097619216
 51
326.4426902380784
  0
LINE
  5
956
 67
     1
  8
AM_VIS
 10
179.21357840840571
 20
139.4818792554006
 30
0.0
 11
141.71357840840571
 21
139.4818792554006
 31
0.0
  0
LINE
  5
957
 67
     1
  8
AM_VIS
 10
179.21357840840571
 20
112.4752775376023
 30
0.0
 11
141.71357840840571
 21
112.4752775376023
 31
0.0
  0
LINE
  5
958
 67
     1
  8
AM_VIS
 10
179.21357840840571
 20
116.9752775376023
 30
0.0
 11
141.71357840840571
 21
116.9752775376023
 31
0.0
  0
LINE
  5
959
 67
     1
  8
AM_VIS
 10
141.71357840840571
 20
124.27527753760241
 30
0.0
 11
179.21357840840571
 21
124.27527753760241
 31
0.0
  0
LINE
  5
95A
 67
     1
  8
AM_VIS
 10
179.21357840840571
 20
141.95675298955351
 30
0.0
 11
141.71357840840571
 21
141.95675298955351
 31
0.0
  0
LINE
  5
95B
 67
     1
  8
AM_VIS
 10
141.71357840840571
 20
101.65166693428721
 30
0.0
 11
179.21357840840571
 21
101.65166693428721
 31
0.0
  0
LINE
  5
95C
 67
     1
  8
AM_VIS
 10
141.71357840840571
 20
141.6638597707402
 30
0.0
 11
141.71357840840571
 21
139.48187925540071
 31
0.0
  0
LINE
  5
95D
 67
     1
  8
AM_VIS
 10
141.71357840840571
 20
139.18898603658729
 30
0.0
 11
141.71357840840571
 21
129.168170756416
 31
0.0
  0
LINE
  5
95E
 67
     1
  8
AM_VIS
 10
141.71357840840571
 20
128.46106397522931
 30
0.0
 11
141.71357840840571
 21
124.5752775376021
 31
0.0
  0
LINE
  5
95F
 67
     1
  8
AM_VIS
 10
141.71357840840571
 20
117.27527753760241
 30
0.0
 11
141.71357840840571
 21
124.27527753760231
 31
0.0
  0
LINE
  5
960
 67
     1
  8
AM_VIS
 10
141.71357840840571
 20
116.6752775376023
 30
0.0
 11
141.71357840840571
 21
112.4752775376023
 31
0.0
  0
LINE
  5
961
 67
     1
  8
AM_VIS
 10
141.71357840840571
 20
112.4752775376023
 30
0.0
 11
141.71357840840571
 21
110.29329702226291
 31
0.0
  0
LINE
  5
962
 67
     1
  8
AM_VIS
 10
141.71357840840571
 20
109.5861902410762
 30
0.0
 11
141.71357840840571
 21
105.69884240119281
 31
0.0
  0
LINE
  5
963
 67
     1
  8
AM_VIS
 10
179.21357840840571
 20
105.69884240119281
 30
0.0
 11
179.21357840840571
 21
109.5861902410762
 31
0.0
  0
LINE
  5
964
 67
     1
  8
AM_VIS
 10
179.21357840840571
 20
110.29329702226281
 30
0.0
 11
179.21357840840571
 21
112.4752775376022
 31
0.0
  0
LINE
  5
965
 67
     1
  8
AM_VIS
 10
179.21357840840571
 20
112.4752775376023
 30
0.0
 11
179.21357840840571
 21
116.6752775376023
 31
0.0
  0
LINE
  5
966
 67
     1
  8
AM_VIS
 10
179.21357840840571
 20
124.27527753760219
 30
0.0
 11
179.21357840840571
 21
117.27527753760231
 31
0.0
  0
LINE
  5
967
 67
     1
  8
AM_VIS
 10
179.21357840840571
 20
124.5752775376022
 30
0.0
 11
179.21357840840571
 21
128.46106397522951
 31
0.0
  0
LINE
  5
968
 67
     1
  8
AM_VIS
 10
179.21357840840571
 20
129.168170756416
 30
0.0
 11
179.21357840840571
 21
139.18898603658729
 31
0.0
  0
LINE
  5
969
 67
     1
  8
AM_VIS
 10
179.21357840840571
 20
139.48187925540071
 30
0.0
 11
179.21357840840571
 21
141.6638597707402
 31
0.0
  0
LINE
  5
96A
 67
     1
  8
AM_VIS
 10
141.71357840840571
 20
139.18898603658701
 30
0.0
 11
141.71357840840571
 21
139.48187925540029
 31
0.0
  0
LINE
  5
96B
 67
     1
  8
AM_VIS
 10
141.71357840840571
 20
128.46106397522919
 30
0.0
 11
141.71357840840571
 21
129.1681707564158
 31
0.0
  0
LINE
  5
96C
 67
     1
  8
AM_VIS
 10
141.71357840840571
 20
124.27527753760219
 30
0.0
 11
141.71357840840571
 21
124.5752775376023
 31
0.0
  0
LINE
  5
96D
 67
     1
  8
AM_VIS
 10
141.71357840840571
 20
117.27527753760219
 30
0.0
 11
141.71357840840571
 21
116.975277537602
 31
0.0
  0
LINE
  5
96E
 67
     1
  8
AM_VIS
 10
141.71357840840571
 20
116.6752775376023
 30
0.0
 11
141.71357840840571
 21
116.97527753760239
 31
0.0
  0
LINE
  5
96F
 67
     1
  8
AM_VIS
 10
141.71357840840571
 20
109.5861902410762
 30
0.0
 11
141.71357840840571
 21
110.29329702226281
 31
0.0
  0
LINE
  5
970
 67
     1
  8
AM_VIS
 10
141.71357840840571
 20
105.0461424370844
 30
0.0
 11
141.71357840840571
 21
105.6988424011931
 31
0.0
  0
LINE
  5
971
 67
     1
  8
AM_VIS
 10
141.71357840840571
 20
101.8770799515023
 30
0.0
 11
141.71357840840571
 21
105.0461424370845
 31
0.0
  0
LINE
  5
972
 67
     1
  8
AM_VIS
 10
141.71357840840571
 20
101.65166693428721
 30
0.0
 11
141.71357840840571
 21
101.8770799515024
 31
0.0
  0
LINE
  5
973
 67
     1
  8
AM_VIS
 10
141.12168004981041
 20
141.66385977074
 30
0.0
 11
141.12168004981041
 21
141.95675298955331
 31
0.0
  0
LINE
  5
974
 67
     1
  8
AM_VIS
 10
179.21357840840571
 20
101.87707995150249
 30
0.0
 11
179.21357840840571
 21
101.65166693428731
 31
0.0
  0
LINE
  5
975
 67
     1
  8
AM_VIS
 10
179.21357840840571
 20
105.0461424370844
 30
0.0
 11
179.21357840840571
 21
101.8770799515023
 31
0.0
  0
LINE
  5
976
 67
     1
  8
AM_VIS
 10
179.21357840840571
 20
105.6988424011932
 30
0.0
 11
179.21357840840571
 21
105.0461424370845
 31
0.0
  0
LINE
  5
977
 67
     1
  8
AM_VIS
 10
179.21357840840571
 20
110.29329702226281
 30
0.0
 11
179.21357840840571
 21
109.5861902410762
 31
0.0
  0
LINE
  5
978
 67
     1
  8
AM_VIS
 10
179.21357840840571
 20
116.9752775376023
 30
0.0
 11
179.21357840840571
 21
116.6752775376022
 31
0.0
  0
LINE
  5
979
 67
     1
  8
AM_VIS
 10
179.21357840840571
 20
116.9752775376021
 30
0.0
 11
179.21357840840571
 21
117.27527753760219
 31
0.0
  0
LINE
  5
97A
 67
     1
  8
AM_VIS
 10
179.21357840840571
 20
124.5752775376024
 30
0.0
 11
179.21357840840571
 21
124.27527753760219
 31
0.0
  0
LINE
  5
97B
 67
     1
  8
AM_VIS
 10
179.21357840840571
 20
129.1681707564158
 30
0.0
 11
179.21357840840571
 21
128.46106397522919
 31
0.0
  0
LINE
  5
97C
 67
     1
  8
AM_VIS
 10
179.21357840840571
 20
139.4818792554004
 30
0.0
 11
179.21357840840571
 21
139.1889860365871
 31
0.0
  0
LINE
  5
97D
 67
     1
  8
AM_VIS
 10
179.21357840840571
 20
141.95675298955351
 30
0.0
 11
179.21357840840571
 21
141.6638597707402
 31
0.0
  0
POLYLINE
  8
AM_VIS
  5
16EA
  66
     1
 10
0.000000
 20
0.000000
 30
0.000000
  70
     8
  0
VERTEX
  8
AM_VIS
  5
16EB
 10
138.446
 20
118.700
 30
4.54700e-013
  70
    32
  0
VERTEX
  8
AM_VIS
  5
16EC
 10
138.408
 20
118.740
 30
4.54700e-013
  70
    32
  0
VERTEX
  8
AM_VIS
  5
16ED
 10
138.370
 20
118.779
 30
4.54700e-013
  70
    32
  0
VERTEX
  8
AM_VIS
  5
16EE
 10
138.333
 20
118.819
 30
4.54700e-013
  70
    32
  0
VERTEX
  8
AM_VIS
  5
16EF
 10
138.297
 20
118.858
 30
4.54700e-013
  70
    32
  0
VERTEX
  8
AM_VIS
  5
16F0
 10
138.261
 20
118.897
 30
4.54700e-013
  70
    32
  0
VERTEX
  8
AM_VIS
  5
16F1
 10
138.225
 20
118.936
 30
4.54700e-013
  70
    32
  0
VERTEX
  8
AM_VIS
  5
16F2
 10
138.190
 20
118.975
 30
4.54700e-013
  70
    32
  0
VERTEX
  8
AM_VIS
  5
16F3
 10
138.155
 20
119.014
 30
4.54700e-013
  70
    32
  0
VERTEX
  8
AM_VIS
  5
16F4
 10
138.121
 20
119.052
 30
4.54700e-013
  70
    32
  0
VERTEX
  8
AM_VIS
  5
16F5
 10
138.088
 20
119.090
 30
4.54700e-013
  70
    32
  0
VERTEX
  8
AM_VIS
  5
16F6
 10
138.054
 20
119.128
 30
4.54700e-013
  70
    32
  0
VERTEX
  8
AM_VIS
  5
16F7
 10
138.022
 20
119.166
 30
4.54700e-013
  70
    32
  0
VERTEX
  8
AM_VIS
  5
16F8
 10
137.989
 20
119.204
 30
4.54700e-013
  70
    32
  0
VERTEX
  8
AM_VIS
  5
16F9
 10
137.957
 20
119.242
 30
4.54700e-013
  70
    32
  0
VERTEX
  8
AM_VIS
  5
16FA
 10
137.926
 20
119.279
 30
4.54700e-013
  70
    32
  0
VERTEX
  8
AM_VIS
  5
16FB
 10
137.895
 20
119.317
 30
4.54700e-013
  70
    32
  0
VERTEX
  8
AM_VIS
  5
16FC
 10
137.865
 20
119.354
 30
4.54700e-013
  70
    32
  0
VERTEX
  8
AM_VIS
  5
16FD
 10
137.835
 20
119.391
 30
4.54700e-013
  70
    32
  0
VERTEX
  8
AM_VIS
  5
16FE
 10
137.805
 20
119.428
 30
4.54700e-013
  70
    32
  0
VERTEX
  8
AM_VIS
  5
16FF
 10
137.776
 20
119.465
 30
4.54700e-013
  70
    32
  0
VERTEX
  8
AM_VIS
  5
1700
 10
137.747
 20
119.502
 30
4.54700e-013
  70
    32
  0
VERTEX
  8
AM_VIS
  5
1701
 10
137.719
 20
119.538
 30
4.54700e-013
  70
    32
  0
VERTEX
  8
AM_VIS
  5
1702
 10
137.691
 20
119.575
 30
4.54700e-013
  70
    32
  0
VERTEX
  8
AM_VIS
  5
1703
 10
137.664
 20
119.611
 30
4.54700e-013
  70
    32
  0
VERTEX
  8
AM_VIS
  5
1704
 10
137.637
 20
119.647
 30
4.54700e-013
  70
    32
  0
VERTEX
  8
AM_VIS
  5
1705
 10
137.610
 20
119.683
 30
4.54700e-013
  70
    32
  0
VERTEX
  8
AM_VIS
  5
1706
 10
137.584
 20
119.719
 30
4.54700e-013
  70
    32
  0
VERTEX
  8
AM_VIS
  5
1707
 10
137.558
 20
119.755
 30
4.54700e-013
  70
    32
  0
VERTEX
  8
AM_VIS
  5
1708
 10
137.533
 20
119.791
 30
4.54700e-013
  70
    32
  0
VERTEX
  8
AM_VIS
  5
1709
 10
137.508
 20
119.827
 30
4.54700e-013
  70
    32
  0
VERTEX
  8
AM_VIS
  5
170A
 10
137.483
 20
119.862
 30
4.54700e-013
  70
    32
  0
VERTEX
  8
AM_VIS
  5
170B
 10
137.459
 20
119.898
 30
4.54700e-013
  70
    32
  0
VERTEX
  8
AM_VIS
  5
170C
 10
137.435
 20
119.933
 30
4.54700e-013
  70
    32
  0
VERTEX
  8
AM_VIS
  5
170D
 10
137.412
 20
119.968
 30
4.54700e-013
  70
    32
  0
VERTEX
  8
AM_VIS
  5
170E
 10
137.389
 20
120.003
 30
4.54700e-013
  70
    32
  0
VERTEX
  8
AM_VIS
  5
170F
 10
137.367
 20
120.038
 30
4.54700e-013
  70
    32
  0
VERTEX
  8
AM_VIS
  5
1710
 10
137.345
 20
120.073
 30
4.54700e-013
  70
    32
  0
VERTEX
  8
AM_VIS
  5
1711
 10
137.323
 20
120.108
 30
4.54700e-013
  70
    32
  0
VERTEX
  8
AM_VIS
  5
1712
 10
137.302
 20
120.143
 30
4.54700e-013
  70
    32
  0
VERTEX
  8
AM_VIS
  5
1713
 10
137.281
 20
120.178
 30
4.54700e-013
  70
    32
  0
VERTEX
  8
AM_VIS
  5
1714
 10
137.260
 20
120.212
 30
4.54700e-013
  70
    32
  0
VERTEX
  8
AM_VIS
  5
1715
 10
137.240
 20
120.247
 30
4.54700e-013
  70
    32
  0
VERTEX
  8
AM_VIS
  5
1716
 10
137.220
 20
120.281
 30
4.54700e-013
  70
    32
  0
VERTEX
  8
AM_VIS
  5
1717
 10
137.201
 20
120.315
 30
4.54700e-013
  70
    32
  0
VERTEX
  8
AM_VIS
  5
1718
 10
137.182
 20
120.350
 30
4.54700e-013
  70
    32
  0
VERTEX
  8
AM_VIS
  5
1719
 10
137.163
 20
120.384
 30
4.54700e-013
  70
    32
  0
VERTEX
  8
AM_VIS
  5
171A
 10
137.145
 20
120.418
 30
4.54700e-013
  70
    32
  0
VERTEX
  8
AM_VIS
  5
171B
 10
137.127
 20
120.452
 30
4.54700e-013
  70
    32
  0
VERTEX
  8
AM_VIS
  5
171C
 10
137.110
 20
120.486
 30
4.54700e-013
  70
    32
  0
VERTEX
  8
AM_VIS
  5
171D
 10
137.093
 20
120.520
 30
4.54700e-013
  70
    32
  0
VERTEX
  8
AM_VIS
  5
171E
 10
137.076
 20
120.554
 30
4.54700e-013
  70
    32
  0
VERTEX
  8
AM_VIS
  5
171F
 10
137.060
 20
120.588
 30
4.54700e-013
  70
    32
  0
VERTEX
  8
AM_VIS
  5
1720
 10
137.044
 20
120.622
 30
4.54700e-013
  70
    32
  0
VERTEX
  8
AM_VIS
  5
1721
 10
137.029
 20
120.655
 30
4.54700e-013
  70
    32
  0
VERTEX
  8
AM_VIS
  5
1722
 10
137.014
 20
120.689
 30
4.54700e-013
  70
    32
  0
VERTEX
  8
AM_VIS
  5
1723
 10
136.999
 20
120.723
 30
4.54700e-013
  70
    32
  0
VERTEX
  8
AM_VIS
  5
1724
 10
136.984
 20
120.756
 30
4.54700e-013
  70
    32
  0
VERTEX
  8
AM_VIS
  5
1725
 10
136.970
 20
120.790
 30
4.54700e-013
  70
    32
  0
VERTEX
  8
AM_VIS
  5
1726
 10
136.957
 20
120.823
 30
4.54700e-013
  70
    32
  0
VERTEX
  8
AM_VIS
  5
1727
 10
136.943
 20
120.857
 30
4.54700e-013
  70
    32
  0
VERTEX
  8
AM_VIS
  5
1728
 10
136.931
 20
120.890
 30
4.54700e-013
  70
    32
  0
VERTEX
  8
AM_VIS
  5
1729
 10
136.918
 20
120.923
 30
4.54700e-013
  70
    32
  0
VERTEX
  8
AM_VIS
  5
172A
 10
136.906
 20
120.957
 30
4.54700e-013
  70
    32
  0
VERTEX
  8
AM_VIS
  5
172B
 10
136.894
 20
120.990
 30
4.54700e-013
  70
    32
  0
VERTEX
  8
AM_VIS
  5
172C
 10
136.883
 20
121.023
 30
4.54700e-013
  70
    32
  0
VERTEX
  8
AM_VIS
  5
172D
 10
136.872
 20
121.057
 30
4.54700e-013
  70
    32
  0
VERTEX
  8
AM_VIS
  5
172E
 10
136.861
 20
121.090
 30
4.54700e-013
  70
    32
  0
VERTEX
  8
AM_VIS
  5
172F
 10
136.851
 20
121.123
 30
4.54700e-013
  70
    32
  0
VERTEX
  8
AM_VIS
  5
1730
 10
136.841
 20
121.156
 30
4.54700e-013
  70
    32
  0
VERTEX
  8
AM_VIS
  5
1731
 10
136.831
 20
121.189
 30
4.54700e-013
  70
    32
  0
VERTEX
  8
AM_VIS
  5
1732
 10
136.822
 20
121.222
 30
4.54700e-013
  70
    32
  0
VERTEX
  8
AM_VIS
  5
1733
 10
136.813
 20
121.255
 30
4.54700e-013
  70
    32
  0
VERTEX
  8
AM_VIS
  5
1734
 10
136.805
 20
121.288
 30
4.54700e-013
  70
    32
  0
VERTEX
  8
AM_VIS
  5
1735
 10
136.797
 20
121.321
 30
4.54700e-013
  70
    32
  0
VERTEX
  8
AM_VIS
  5
1736
 10
136.789
 20
121.354
 30
4.54700e-013
  70
    32
  0
VERTEX
  8
AM_VIS
  5
1737
 10
136.782
 20
121.388
 30
4.54700e-013
  70
    32
  0
VERTEX
  8
AM_VIS
  5
1738
 10
136.775
 20
121.421
 30
4.54700e-013
  70
    32
  0
VERTEX
  8
AM_VIS
  5
1739
 10
136.768
 20
121.454
 30
4.54700e-013
  70
    32
  0
VERTEX
  8
AM_VIS
  5
173A
 10
136.762
 20
121.487
 30
4.54700e-013
  70
    32
  0
VERTEX
  8
AM_VIS
  5
173B
 10
136.756
 20
121.520
 30
4.54700e-013
  70
    32
  0
VERTEX
  8
AM_VIS
  5
173C
 10
136.751
 20
121.553
 30
4.54700e-013
  70
    32
  0
VERTEX
  8
AM_VIS
  5
173D
 10
136.746
 20
121.586
 30
4.54700e-013
  70
    32
  0
VERTEX
  8
AM_VIS
  5
173E
 10
136.741
 20
121.619
 30
4.54700e-013
  70
    32
  0
VERTEX
  8
AM_VIS
  5
173F
 10
136.737
 20
121.652
 30
4.54700e-013
  70
    32
  0
VERTEX
  8
AM_VIS
  5
1740
 10
136.733
 20
121.685
 30
4.54700e-013
  70
    32
  0
VERTEX
  8
AM_VIS
  5
1741
 10
136.729
 20
121.718
 30
4.54700e-013
  70
    32
  0
VERTEX
  8
AM_VIS
  5
1742
 10
136.726
 20
121.751
 30
4.54700e-013
  70
    32
  0
VERTEX
  8
AM_VIS
  5
1743
 10
136.723
 20
121.784
 30
4.54700e-013
  70
    32
  0
VERTEX
  8
AM_VIS
  5
1744
 10
136.720
 20
121.817
 30
4.54700e-013
  70
    32
  0
VERTEX
  8
AM_VIS
  5
1745
 10
136.718
 20
121.850
 30
4.54700e-013
  70
    32
  0
VERTEX
  8
AM_VIS
  5
1746
 10
136.717
 20
121.883
 30
4.54700e-013
  70
    32
  0
VERTEX
  8
AM_VIS
  5
1747
 10
136.715
 20
121.917
 30
4.54700e-013
  70
    32
  0
VERTEX
  8
AM_VIS
  5
1748
 10
136.714
 20
121.950
 30
4.54700e-013
  70
    32
  0
VERTEX
  8
AM_VIS
  5
1749
 10
136.714
 20
121.983
 30
4.54700e-013
  70
    32
  0
VERTEX
  8
AM_VIS
  5
174A
 10
136.714
 20
122.016
 30
4.54700e-013
  70
    32
  0
SEQEND
  8
AM_VIS
  5
174B
  0
POLYLINE
  8
AM_VIS
  5
174C
  66
     1
 10
0.000000
 20
0.000000
 30
0.000000
  70
     8
  0
VERTEX
  8
AM_VIS
  5
174D
 10
136.714
 20
122.016
 30
4.54700e-013
  70
    32
  0
VERTEX
  8
AM_VIS
  5
174E
 10
136.714
 20
122.050
 30
4.54700e-013
  70
    32
  0
VERTEX
  8
AM_VIS
  5
174F
 10
136.714
 20
122.083
 30
4.54700e-013
  70
    32
  0
VERTEX
  8
AM_VIS
  5
1750
 10
136.715
 20
122.116
 30
4.54700e-013
  70
    32
  0
VERTEX
  8
AM_VIS
  5
1751
 10
136.717
 20
122.149
 30
4.54700e-013
  70
    32
  0
VERTEX
  8
AM_VIS
  5
1752
 10
136.718
 20
122.182
 30
4.54700e-013
  70
    32
  0
VERTEX
  8
AM_VIS
  5
1753
 10
136.720
 20
122.216
 30
4.54700e-013
  70
    32
  0
VERTEX
  8
AM_VIS
  5
1754
 10
136.723
 20
122.249
 30
4.54700e-013
  70
    32
  0
VERTEX
  8
AM_VIS
  5
1755
 10
136.726
 20
122.282
 30
4.54700e-013
  70
    32
  0
VERTEX
  8
AM_VIS
  5
1756
 10
136.729
 20
122.315
 30
4.54700e-013
  70
    32
  0
VERTEX
  8
AM_VIS
  5
1757
 10
136.733
 20
122.348
 30
4.54700e-013
  70
    32
  0
VERTEX
  8
AM_VIS
  5
1758
 10
136.737
 20
122.381
 30
4.54700e-013
  70
    32
  0
VERTEX
  8
AM_VIS
  5
1759
 10
136.741
 20
122.414
 30
4.54700e-013
  70
    32
  0
VERTEX
  8
AM_VIS
  5
175A
 10
136.746
 20
122.447
 30
4.54700e-013
  70
    32
  0
VERTEX
  8
AM_VIS
  5
175B
 10
136.751
 20
122.480
 30
4.54700e-013
  70
    32
  0
VERTEX
  8
AM_VIS
  5
175C
 10
136.756
 20
122.513
 30
4.54700e-013
  70
    32
  0
VERTEX
  8
AM_VIS
  5
175D
 10
136.762
 20
122.546
 30
4.54700e-013
  70
    32
  0
VERTEX
  8
AM_VIS
  5
175E
 10
136.768
 20
122.579
 30
4.54700e-013
  70
    32
  0
VERTEX
  8
AM_VIS
  5
175F
 10
136.775
 20
122.612
 30
4.54700e-013
  70
    32
  0
VERTEX
  8
AM_VIS
  5
1760
 10
136.782
 20
122.645
 30
4.54700e-013
  70
    32
  0
VERTEX
  8
AM_VIS
  5
1761
 10
136.789
 20
122.678
 30
4.54700e-013
  70
    32
  0
VERTEX
  8
AM_VIS
  5
1762
 10
136.797
 20
122.711
 30
4.54700e-013
  70
    32
  0
VERTEX
  8
AM_VIS
  5
1763
 10
136.805
 20
122.744
 30
4.54700e-013
  70
    32
  0
VERTEX
  8
AM_VIS
  5
1764
 10
136.813
 20
122.777
 30
4.54700e-013
  70
    32
  0
VERTEX
  8
AM_VIS
  5
1765
 10
136.822
 20
122.810
 30
4.54700e-013
  70
    32
  0
VERTEX
  8
AM_VIS
  5
1766
 10
136.831
 20
122.844
 30
4.54700e-013
  70
    32
  0
VERTEX
  8
AM_VIS
  5
1767
 10
136.841
 20
122.877
 30
4.54700e-013
  70
    32
  0
VERTEX
  8
AM_VIS
  5
1768
 10
136.851
 20
122.910
 30
4.54700e-013
  70
    32
  0
VERTEX
  8
AM_VIS
  5
1769
 10
136.861
 20
122.943
 30
4.54700e-013
  70
    32
  0
VERTEX
  8
AM_VIS
  5
176A
 10
136.872
 20
122.976
 30
4.54700e-013
  70
    32
  0
VERTEX
  8
AM_VIS
  5
176B
 10
136.883
 20
123.009
 30
4.54700e-013
  70
    32
  0
VERTEX
  8
AM_VIS
  5
176C
 10
136.894
 20
123.043
 30
4.54700e-013
  70
    32
  0
VERTEX
  8
AM_VIS
  5
176D
 10
136.906
 20
123.076
 30
4.54700e-013
  70
    32
  0
VERTEX
  8
AM_VIS
  5
176E
 10
136.918
 20
123.109
 30
4.54700e-013
  70
    32
  0
VERTEX
  8
AM_VIS
  5
176F
 10
136.931
 20
123.143
 30
4.54700e-013
  70
    32
  0
VERTEX
  8
AM_VIS
  5
1770
 10
136.943
 20
123.176
 30
4.54700e-013
  70
    32
  0
VERTEX
  8
AM_VIS
  5
1771
 10
136.957
 20
123.209
 30
4.54700e-013
  70
    32
  0
VERTEX
  8
AM_VIS
  5
1772
 10
136.970
 20
123.243
 30
4.54700e-013
  70
    32
  0
VERTEX
  8
AM_VIS
  5
1773
 10
136.984
 20
123.276
 30
4.54700e-013
  70
    32
  0
VERTEX
  8
AM_VIS
  5
1774
 10
136.999
 20
123.310
 30
4.54700e-013
  70
    32
  0
VERTEX
  8
AM_VIS
  5
1775
 10
137.014
 20
123.344
 30
4.54700e-013
  70
    32
  0
VERTEX
  8
AM_VIS
  5
1776
 10
137.029
 20
123.377
 30
4.54700e-013
  70
    32
  0
VERTEX
  8
AM_VIS
  5
1777
 10
137.044
 20
123.411
 30
4.54700e-013
  70
    32
  0
VERTEX
  8
AM_VIS
  5
1778
 10
137.060
 20
123.445
 30
4.54700e-013
  70
    32
  0
VERTEX
  8
AM_VIS
  5
1779
 10
137.076
 20
123.479
 30
4.54700e-013
  70
    32
  0
VERTEX
  8
AM_VIS
  5
177A
 10
137.093
 20
123.512
 30
4.54700e-013
  70
    32
  0
VERTEX
  8
AM_VIS
  5
177B
 10
137.110
 20
123.546
 30
4.54700e-013
  70
    32
  0
VERTEX
  8
AM_VIS
  5
177C
 10
137.127
 20
123.580
 30
4.54700e-013
  70
    32
  0
VERTEX
  8
AM_VIS
  5
177D
 10
137.145
 20
123.615
 30
4.54700e-013
  70
    32
  0
VERTEX
  8
AM_VIS
  5
177E
 10
137.163
 20
123.649
 30
4.54700e-013
  70
    32
  0
VERTEX
  8
AM_VIS
  5
177F
 10
137.182
 20
123.683
 30
4.54700e-013
  70
    32
  0
VERTEX
  8
AM_VIS
  5
1780
 10
137.201
 20
123.717
 30
4.54700e-013
  70
    32
  0
VERTEX
  8
AM_VIS
  5
1781
 10
137.220
 20
123.752
 30
4.54700e-013
  70
    32
  0
VERTEX
  8
AM_VIS
  5
1782
 10
137.240
 20
123.786
 30
4.54700e-013
  70
    32
  0
VERTEX
  8
AM_VIS
  5
1783
 10
137.260
 20
123.821
 30
4.54700e-013
  70
    32
  0
VERTEX
  8
AM_VIS
  5
1784
 10
137.281
 20
123.855
 30
4.54700e-013
  70
    32
  0
VERTEX
  8
AM_VIS
  5
1785
 10
137.302
 20
123.890
 30
4.54700e-013
  70
    32
  0
VERTEX
  8
AM_VIS
  5
1786
 10
137.323
 20
123.925
 30
4.54700e-013
  70
    32
  0
VERTEX
  8
AM_VIS
  5
1787
 10
137.345
 20
123.959
 30
4.54700e-013
  70
    32
  0
VERTEX
  8
AM_VIS
  5
1788
 10
137.367
 20
123.994
 30
4.54700e-013
  70
    32
  0
VERTEX
  8
AM_VIS
  5
1789
 10
137.389
 20
124.029
 30
4.54700e-013
  70
    32
  0
VERTEX
  8
AM_VIS
  5
178A
 10
137.412
 20
124.065
 30
4.54700e-013
  70
    32
  0
VERTEX
  8
AM_VIS
  5
178B
 10
137.435
 20
124.100
 30
4.54700e-013
  70
    32
  0
VERTEX
  8
AM_VIS
  5
178C
 10
137.459
 20
124.135
 30
4.54700e-013
  70
    32
  0
VERTEX
  8
AM_VIS
  5
178D
 10
137.483
 20
124.171
 30
4.54700e-013
  70
    32
  0
VERTEX
  8
AM_VIS
  5
178E
 10
137.508
 20
124.206
 30
4.54700e-013
  70
    32
  0
VERTEX
  8
AM_VIS
  5
178F
 10
137.533
 20
124.242
 30
4.54700e-013
  70
    32
  0
VERTEX
  8
AM_VIS
  5
1790
 10
137.558
 20
124.277
 30
4.54700e-013
  70
    32
  0
VERTEX
  8
AM_VIS
  5
1791
 10
137.584
 20
124.313
 30
4.54700e-013
  70
    32
  0
VERTEX
  8
AM_VIS
  5
1792
 10
137.610
 20
124.349
 30
4.54700e-013
  70
    32
  0
VERTEX
  8
AM_VIS
  5
1793
 10
137.637
 20
124.385
 30
4.54700e-013
  70
    32
  0
VERTEX
  8
AM_VIS
  5
1794
 10
137.664
 20
124.422
 30
4.54700e-013
  70
    32
  0
VERTEX
  8
AM_VIS
  5
1795
 10
137.691
 20
124.458
 30
4.54700e-013
  70
    32
  0
VERTEX
  8
AM_VIS
  5
1796
 10
137.719
 20
124.494
 30
4.54700e-013
  70
    32
  0
VERTEX
  8
AM_VIS
  5
1797
 10
137.747
 20
124.531
 30
4.54700e-013
  70
    32
  0
VERTEX
  8
AM_VIS
  5
1798
 10
137.776
 20
124.568
 30
4.54700e-013
  70
    32
  0
VERTEX
  8
AM_VIS
  5
1799
 10
137.805
 20
124.605
 30
4.54700e-013
  70
    32
  0
VERTEX
  8
AM_VIS
  5
179A
 10
137.835
 20
124.641
 30
4.54700e-013
  70
    32
  0
VERTEX
  8
AM_VIS
  5
179B
 10
137.865
 20
124.679
 30
4.54700e-013
  70
    32
  0
VERTEX
  8
AM_VIS
  5
179C
 10
137.895
 20
124.716
 30
4.54700e-013
  70
    32
  0
VERTEX
  8
AM_VIS
  5
179D
 10
137.926
 20
124.753
 30
4.54700e-013
  70
    32
  0
VERTEX
  8
AM_VIS
  5
179E
 10
137.957
 20
124.791
 30
4.54700e-013
  70
    32
  0
VERTEX
  8
AM_VIS
  5
179F
 10
137.989
 20
124.828
 30
4.54700e-013
  70
    32
  0
VERTEX
  8
AM_VIS
  5
17A0
 10
138.022
 20
124.866
 30
4.54700e-013
  70
    32
  0
VERTEX
  8
AM_VIS
  5
17A1
 10
138.054
 20
124.904
 30
4.54700e-013
  70
    32
  0
VERTEX
  8
AM_VIS
  5
17A2
 10
138.088
 20
124.942
 30
4.54700e-013
  70
    32
  0
VERTEX
  8
AM_VIS
  5
17A3
 10
138.121
 20
124.981
 30
4.54700e-013
  70
    32
  0
VERTEX
  8
AM_VIS
  5
17A4
 10
138.155
 20
125.019
 30
4.54700e-013
  70
    32
  0
VERTEX
  8
AM_VIS
  5
17A5
 10
138.190
 20
125.058
 30
4.54700e-013
  70
    32
  0
VERTEX
  8
AM_VIS
  5
17A6
 10
138.225
 20
125.097
 30
4.54700e-013
  70
    32
  0
VERTEX
  8
AM_VIS
  5
17A7
 10
138.261
 20
125.136
 30
4.54700e-013
  70
    32
  0
VERTEX
  8
AM_VIS
  5
17A8
 10
138.297
 20
125.175
 30
4.54700e-013
  70
    32
  0
VERTEX
  8
AM_VIS
  5
17A9
 10
138.333
 20
125.214
 30
4.54700e-013
  70
    32
  0
VERTEX
  8
AM_VIS
  5
17AA
 10
138.370
 20
125.253
 30
4.54700e-013
  70
    32
  0
VERTEX
  8
AM_VIS
  5
17AB
 10
138.408
 20
125.293
 30
4.54700e-013
  70
    32
  0
VERTEX
  8
AM_VIS
  5
17AC
 10
138.446
 20
125.333
 30
4.54700e-013
  70
    32
  0
SEQEND
  8
AM_VIS
  5
17AD
  0
LINE
  5
980
 67
     1
  8
AM_VIS
 10
139.71357840840591
 20
125.3329662942549
 30
0.0
 11
139.71357840840639
 21
118.6997167135443
 31
0.0
  0
ARC
  5
981
 67
     1
  8
AM_VIS
 10
134.71357840840571
 20
122.0163415038992
 30
0.0
 40
6.000000000000461
 50
326.4426902380784
 51
33.557309761921587
  0
LINE
  5
982
 67
     1
  8
AM_VIS
 10
138.44562921597469
 20
125.3329662942547
 30
0.0
 11
139.71357840840591
 21
125.3329662942548
 31
0.0
  0
LINE
  5
983
 67
     1
  8
AM_VIS
 10
139.71357840840639
 20
118.69971671354401
 30
0.0
 11
138.44562921597529
 21
118.69971671354391
 31
0.0
  0
LINE
  5
984
 67
     1
  8
AM_VIS
 10
136.71357840840531
 20
127.0163415038993
 30
0.0
 11
133.21357840840531
 21
127.0163415038989
 31
0.0
  0
LINE
  5
985
 67
     1
  8
AM_VIS
 10
136.71357840840611
 20
117.0163415038995
 30
0.0
 11
133.21357840840611
 21
117.0163415038992
 31
0.0
  0
LINE
  5
986
 67
     1
  8
AM_VIS
 10
136.71357840840599
 20
117.0163415038993
 30
0.0
 11
138.4456292159752
 21
116.0163415038995
 31
0.0
  0
LINE
  5
987
 67
     1
  8
AM_VIS
 10
136.71357840840531
 20
127.0163415038993
 30
0.0
 11
138.44562921597409
 21
128.0163415038995
 31
0.0
  0
LINE
  5
988
 67
     1
  8
AM_VIS
 10
133.21357840840531
 20
127.0163415038991
 30
0.0
 11
120.2135784084053
 21
127.0163415038981
 31
0.0
  0
LINE
  5
989
 67
     1
  8
AM_VIS
 10
133.21357840840611
 20
117.0163415038993
 30
0.0
 11
120.21357840840609
 21
117.0163415038983
 31
0.0
  0
LINE
  5
98A
 67
     1
  8
AM_VIS
 10
119.21357840840579
 20
118.01634150389771
 30
0.0
 11
120.21357840840579
 21
117.01634150389791
 31
0.0
  0
LINE
  5
98B
 67
     1
  8
AM_VIS
 10
119.2135784084054
 20
126.01634150389771
 30
0.0
 11
120.2135784084054
 21
127.01634150389791
 31
0.0
  0
LINE
  5
98C
 67
     1
  8
AM_VIS
 10
141.71357840840579
 20
128.0163415038995
 30
0.0
 11
138.44562921597421
 21
128.01634150389921
 31
0.0
  0
LINE
  5
98D
 67
     1
  8
AM_VIS
 10
141.71357840840571
 20
116.0163415038997
 30
0.0
 11
138.445629215975
 21
116.0163415038993
 31
0.0
  0
LINE
  5
98E
 67
     1
  8
AM_VIS
 10
136.71357840840611
 20
117.0163415038995
 30
0.0
 11
136.71357840840611
 21
122.0163415038994
 31
0.0
  0
LINE
  5
98F
 67
     1
  8
AM_VIS
 10
136.71357840840611
 20
122.0163415038993
 30
0.0
 11
136.71357840840531
 21
127.0163415038992
 31
0.0
  0
LINE
  5
990
 67
     1
  8
AM_VIS
 10
120.2135784084053
 20
127.01634150389791
 30
0.0
 11
120.21357840840609
 21
117.0163415038982
 31
0.0
  0
LINE
  5
991
 67
     1
  8
AM_VIS
 10
119.21357840840599
 20
118.01634150389781
 30
0.0
 11
119.2135784084054
 21
126.01634150389791
 31
0.0
  0
LINE
  5
992
 67
     1
  8
AM_VIS
 10
138.44562921597409
 20
128.01634150389941
 30
0.0
 11
138.4456292159748
 21
125.3329662942548
 31
0.0
  0
LINE
  5
993
 67
     1
  8
AM_VIS
 10
138.44562921597529
 20
118.69971671354401
 30
0.0
 11
138.445629215975
 21
116.0163415038993
 31
0.0
  0
LINE
  5
994
 67
     1
  8
AM_VIS
 10
141.71357840840571
 20
36.781273982075021
 30
0.0
 11
179.21357840840571
 21
36.781273982075021
 31
0.0
  0
LINE
  5
995
 67
     1
  8
AM_VIS
 10
179.21357840840571
 20
77.086360982074979
 30
0.0
 11
141.71357840840571
 21
77.086360982074979
 31
0.0
  0
LINE
  5
999
 67
     1
  8
AM_VIS
 10
141.71357840840571
 20
72.957633433855648
 30
0.0
 11
141.71357840840571
 21
52.751836730551993
 31
0.0
  0
LINE
  5
99A
 67
     1
  8
AM_VIS
 10
141.71357840840571
 20
52.044729949365632
 30
0.0
 11
141.71357840840571
 21
37.074167200888503
 31
0.0
  0
LINE
  5
99B
 67
     1
  8
AM_VIS
 10
179.21357840840571
 20
37.074167200888581
 30
0.0
 11
179.21357840840571
 21
52.044729949365717
 31
0.0
  0
LINE
  5
99C
 67
     1
  8
AM_VIS
 10
179.21357840840571
 20
52.751836730552299
 30
0.0
 11
179.21357840840571
 21
72.95763343385596
 31
0.0
  0
CIRCLE
  5
99F
 67
     1
  8
AM_VIS
 10
152.71357840840571
 20
62.086360982074979
 30
0.0
 40
2.1669999999999989
  0
CIRCLE
  5
9A0
 67
     1
  8
AM_VIS
 10
152.71357840840571
 20
62.086360982075199
 30
0.0
 40
2.6669999999999989
  0
CIRCLE
  5
9A1
 67
     1
  8
AM_VIS
 10
173.71357840840571
 20
62.086360982075199
 30
0.0
 40
2.6669999999999989
  0
CIRCLE
  5
9A2
 67
     1
  8
AM_VIS
 10
173.71357840840571
 20
62.086360982074979
 30
0.0
 40
2.1669999999999989
  0
LINE
  5
9A3
 67
     1
  8
AM_VIS
 10
141.71357840840571
 20
76.843977479290601
 30
0.0
 11
141.71357840840571
 21
77.086360982074979
 31
0.0
  0
LINE
  5
9A4
 67
     1
  8
AM_VIS
 10
141.71357840840571
 20
73.590100829142642
 30
0.0
 11
141.71357840840571
 21
76.843977479290629
 31
0.0
  0
LINE
  5
9A5
 67
     1
  8
AM_VIS
 10
141.71357840840571
 20
72.957633433855648
 30
0.0
 11
141.71357840840571
 21
73.590100829142443
 31
0.0
  0
LINE
  5
9A6
 67
     1
  8
AM_VIS
 10
141.71357840840571
 20
52.044729949365632
 30
0.0
 11
141.71357840840571
 21
52.751836730552178
 31
0.0
  0
LINE
  5
9A7
 67
     1
  8
AM_VIS
 10
141.71357840840571
 20
36.781273982075021
 30
0.0
 11
141.71357840840571
 21
37.074167200888468
 31
0.0
  0
LINE
  5
9A8
 67
     1
  8
AM_VIS
 10
179.21357840840571
 20
37.074167200888581
 30
0.0
 11
179.21357840840571
 21
36.781273982075128
 31
0.0
  0
LINE
  5
9A9
 67
     1
  8
AM_VIS
 10
179.21357840840571
 20
52.751836730552299
 30
0.0
 11
179.21357840840571
 21
52.044729949365738
 31
0.0
  0
LINE
  5
9AA
 67
     1
  8
AM_VIS
 10
179.21357840840571
 20
73.590100829142642
 30
0.0
 11
179.21357840840571
 21
72.957633433855847
 31
0.0
  0
LINE
  5
9AB
 67
     1
  8
AM_VIS
 10
179.21357840840571
 20
76.843977479290601
 30
0.0
 11
179.21357840840571
 21
73.590100829142614
 31
0.0
  0
LINE
  5
9AC
 67
     1
  8
AM_VIS
 10
179.21357840840571
 20
77.086360982074979
 30
0.0
 11
179.21357840840571
 21
76.843977479290601
 31
0.0
  0
LINE
  5
9B8
 67
     1
  8
AM_VIS
 10
136.71357840840531
 20
52.145948551690793
 30
0.0
 11
138.44562921597449
 21
52.145948551690793
 31
0.0
  0
LINE
  5
9B9
 67
     1
  8
AM_VIS
 10
136.71357840840611
 20
62.145948551690573
 30
0.0
 11
138.44562921597529
 21
62.145948551690573
 31
0.0
  0
LINE
  5
9BA
 67
     1
  8
AM_VIS
 10
139.71357840840651
 20
62.145948551690573
 30
0.0
 11
140.71357840840619
 21
63.145948551690417
 31
0.0
  0
LINE
  5
9BB
 67
     1
  8
AM_VIS
 10
140.71357840840531
 20
51.145948551690338
 30
0.0
 11
139.7135784084056
 21
52.145948551690509
 31
0.0
  0
LINE
  5
9BC
 67
     1
  8
AM_VIS
 10
138.44562921597449
 20
52.145948551690793
 30
0.0
 11
139.7135784084056
 21
52.145948551690623
 31
0.0
  0
LINE
  5
9BD
 67
     1
  8
AM_VIS
 10
139.71357840840639
 20
62.145948551690573
 30
0.0
 11
138.44562921597529
 21
62.145948551690743
 31
0.0
  0
LINE
  5
9BE
 67
     1
  8
AM_VIS
 10
136.71357840840611
 20
62.145948551690573
 30
0.0
 11
133.21357840840611
 21
62.145948551690879
 31
0.0
  0
LINE
  5
9BF
 67
     1
  8
AM_VIS
 10
136.71357840840531
 20
52.145948551691021
 30
0.0
 11
133.21357840840531
 21
52.145948551691333
 31
0.0
  0
LINE
  5
9C0
 67
     1
  8
AM_VIS
 10
133.21357840840611
 20
62.145948551691021
 30
0.0
 11
120.21357840840609
 21
62.145948551691987
 31
0.0
  0
LINE
  5
9C1
 67
     1
  8
AM_VIS
 10
133.21357840840531
 20
52.145948551691021
 30
0.0
 11
120.2135784084053
 21
52.145948551691987
 31
0.0
  0
LINE
  5
9C2
 67
     1
  8
AM_VIS
 10
119.2135784084054
 20
53.145948551692392
 30
0.0
 11
120.2135784084054
 21
52.145948551692207
 31
0.0
  0
LINE
  5
9C3
 67
     1
  8
AM_VIS
 10
119.21357840840579
 20
61.145948551692378
 30
0.0
 11
120.21357840840589
 21
62.145948551692243
 31
0.0
  0
LINE
  5
9C4
 67
     1
  8
AM_VIS
 10
141.71357840840571
 20
63.145948551690559
 30
0.0
 11
140.71357840840619
 21
63.145948551690559
 31
0.0
  0
LINE
  5
9C5
 67
     1
  8
AM_VIS
 10
141.71357840840571
 20
51.145948551690111
 30
0.0
 11
140.71357840840531
 21
51.145948551690282
 31
0.0
  0
LINE
  5
9C6
 67
     1
  8
AM_VIS
 10
136.71357840840531
 20
52.145948551690793
 30
0.0
 11
136.71357840840611
 21
62.145948551690573
 31
0.0
  0
LINE
  5
9C7
 67
     1
  8
AM_VIS
 10
120.21357840840609
 20
62.14594855169193
 30
0.0
 11
120.2135784084053
 21
52.145948551692157
 31
0.0
  0
LINE
  5
9C8
 67
     1
  8
AM_VIS
 10
119.2135784084054
 20
53.145948551692392
 30
0.0
 11
119.21357840840599
 21
61.145948551692442
 31
0.0
  0
LINE
  5
9C9
 67
     1
  8
AM_VIS
 10
138.44562921597529
 20
62.145948551690573
 30
0.0
 11
138.44562921597449
 21
52.145948551690793
 31
0.0
  0
LINE
  5
9CA
 67
     1
  8
AM_VIS
 10
238.9682962554742
 20
141.95675298955319
 30
0.0
 11
242.85564613668311
 21
141.95675298955319
 31
0.0
  0
LINE
  5
9CB
 67
     1
  8
AM_VIS
 10
246.90282050699699
 20
137.82802638606771
 30
0.0
 11
246.90282050699699
 21
117.622229682764
 31
0.0
  0
LINE
  5
9CC
 67
     1
  8
AM_VIS
 10
246.6099272881832
 20
116.9151229015775
 30
0.0
 11
231.63936453970609
 21
101.9445601531004
 31
0.0
  0
LINE
  5
9CD
 67
     1
  8
AM_VIS
 10
230.93225775851971
 20
101.65166693428689
 30
0.0
 11
210.72646105521611
 21
101.65166693428689
 31
0.0
  0
LINE
  5
9CE
 67
     1
  8
AM_VIS
 10
206.5977335069968
 20
105.69884240119281
 30
0.0
 11
206.5977335069968
 21
109.5861902410761
 31
0.0
  0
LINE
  5
9CF
 67
     1
  8
AM_VIS
 10
206.89062672581019
 20
110.29329702226261
 30
0.0
 11
209.0726072411496
 21
112.4752775376021
 31
0.0
  0
LINE
  5
9D0
 67
     1
  8
AM_VIS
 10
209.07260724114971
 20
112.4752775376021
 30
0.0
 11
209.07260724114971
 21
116.6752775376021
 31
0.0
  0
LINE
  5
9D1
 67
     1
  8
AM_VIS
 10
211.77260696755849
 20
116.9752775376021
 30
0.0
 11
209.37260724114969
 21
116.9752775376021
 31
0.0
  0
LINE
  5
9D2
 67
     1
  8
AM_VIS
 10
212.0726069675585
 20
125.6752775376022
 30
0.0
 11
212.0726069675585
 21
117.27527753760219
 31
0.0
  0
LINE
  5
9D3
 67
     1
  8
AM_VIS
 10
211.17260696755861
 20
125.9752775376022
 30
0.0
 11
211.77260696755849
 21
125.9752775376022
 31
0.0
  0
LINE
  5
9D4
 67
     1
  8
AM_VIS
 10
210.8726069675584
 20
124.57527753760201
 30
0.0
 11
210.8726069675584
 21
125.6752775376019
 31
0.0
  0
LINE
  5
9D5
 67
     1
  8
AM_VIS
 10
209.37260724114941
 20
124.27527753760199
 30
0.0
 11
210.57260696755839
 21
124.27527753760199
 31
0.0
  0
LINE
  5
9D6
 67
     1
  8
AM_VIS
 10
209.07260724114971
 20
124.57527753760201
 30
0.0
 11
209.07260724114971
 21
128.46106397522919
 31
0.0
  0
LINE
  5
9D7
 67
     1
  8
AM_VIS
 10
209.3655004599633
 20
129.1681707564158
 30
0.0
 11
219.38631574013459
 21
139.1889860365871
 31
0.0
  0
LINE
  5
9D8
 67
     1
  8
AM_VIS
 10
220.0934225213212
 20
139.48187925540029
 30
0.0
 11
224.27920895894789
 21
139.48187925540029
 31
0.0
  0
LINE
  5
9D9
 67
     1
  8
AM_VIS
 10
224.279208958948
 20
137.9818795289915
 30
0.0
 11
224.279208958948
 21
139.48187952899141
 31
0.0
  0
LINE
  5
9DA
 67
     1
  8
AM_VIS
 10
222.87920895894769
 20
137.6818795289916
 30
0.0
 11
223.97920895894779
 21
137.68187952899149
 31
0.0
  0
LINE
  5
9DB
 67
     1
  8
AM_VIS
 10
222.57920895894799
 20
136.78187952899151
 30
0.0
 11
222.57920895894799
 21
137.38187952899179
 31
0.0
  0
LINE
  5
9DC
 67
     1
  8
AM_VIS
 10
231.27920895894781
 20
136.4818795289915
 30
0.0
 11
222.8792089589478
 21
136.4818795289915
 31
0.0
  0
LINE
  5
9DD
 67
     1
  8
AM_VIS
 10
231.57920895894779
 20
139.1818792554003
 30
0.0
 11
231.57920895894779
 21
136.78187952899151
 31
0.0
  0
LINE
  5
9DE
 67
     1
  8
AM_VIS
 10
231.879208958948
 20
139.48187925540049
 30
0.0
 11
236.0792089589479
 21
139.48187925540049
 31
0.0
  0
LINE
  5
9DF
 67
     1
  8
AM_VIS
 10
236.07920895894799
 20
139.4818792554006
 30
0.0
 11
238.26118947428739
 21
141.66385977074
 31
0.0
  0
CIRCLE
  5
9E0
 67
     1
  8
AM_VIS
 10
240.68028156111339
 20
136.15847712763181
 30
0.0
 40
4.5
  0
CIRCLE
  5
9E1
 67
     1
  8
AM_VIS
 10
212.3960103136518
 20
107.8742058801699
 30
0.0
 40
4.5
  0
CIRCLE
  5
9E2
 67
     1
  8
AM_VIS
 10
240.68028156111339
 20
136.15847712763181
 30
0.0
 40
2.75
  0
CIRCLE
  5
9E4
 67
     1
  8
AM_VIS
 10
212.3960103136518
 20
107.8742058801699
 30
0.0
 40
2.75
  0
CIRCLE
  5
9E6
 67
     1
  8
AM_VIS
 10
240.68028156111339
 20
136.15847712763181
 30
0.0
 40
4.7999999999999998
  0
ARC
  5
9E7
 67
     1
  8
AM_VIS
 10
242.8556461366833
 20
140.95675298955331
 30
0.0
 40
0.9999999999999998
 50
49.25451841220336
 51
90.000000000009777
  0
ARC
  5
9E8
 67
     1
  8
AM_VIS
 10
226.53814593738261
 20
122.0163415039009
 30
0.0
 40
26.0
 50
39.23239799650203
 51
49.254518412204412
  0
ARC
  5
9E9
 67
     1
  8
AM_VIS
 10
245.90282050699699
 20
137.8280263860679
 30
0.0
 40
1.0
 50
359.99999999999022
 51
39.232397996507871
  0
ARC
  5
9EA
 67
     1
  8
AM_VIS
 10
245.90282050699679
 20
117.6222296827642
 30
0.0
 40
1.0
 50
315.0
 51
0.0
  0
ARC
  5
9EB
 67
     1
  8
AM_VIS
 10
230.93225775851951
 20
102.65166693428689
 30
0.0
 40
1.0
 50
270.0
 51
315.0
  0
ARC
  5
9EC
 67
     1
  8
AM_VIS
 10
210.72646105521591
 20
102.65166693428689
 30
0.0
 40
1.0
 50
230.76760200349091
 51
270.00000000000978
  0
ARC
  5
9ED
 67
     1
  8
AM_VIS
 10
226.53814593738261
 20
122.0163415039009
 30
0.0
 40
26.0
 50
220.74547827054269
 51
230.76760200349801
  0
ARC
  5
9EE
 67
     1
  8
AM_VIS
 10
207.5977335069968
 20
105.69884240119261
 30
0.0
 40
1.0
 50
179.99999999999019
 51
220.74547827054269
  0
ARC
  5
9EF
 67
     1
  8
AM_VIS
 10
207.5977335069968
 20
109.5861902410761
 30
0.0
 40
1.0
 50
135.0
 51
180.0
  0
ARC
  5
9F0
 67
     1
  8
AM_VIS
 10
209.37260724114989
 20
116.6752775376021
 30
0.0
 40
0.3
 50
90.0
 51
180.0
  0
ARC
  5
9F1
 67
     1
  8
AM_VIS
 10
211.77260696755849
 20
117.27527753760199
 30
0.0
 40
0.3
 50
270.0
 51
0.0
  0
ARC
  5
9F2
 67
     1
  8
AM_VIS
 10
211.77260696755849
 20
125.675277537602
 30
0.0
 40
0.3
 50
0.0
 51
90.0
  0
ARC
  5
9F3
 67
     1
  8
AM_VIS
 10
211.17260696755861
 20
125.6752775376021
 30
0.0
 40
0.3
 50
90.0
 51
180.0
  0
ARC
  5
9F4
 67
     1
  8
AM_VIS
 10
210.5726069675587
 20
124.5752775376022
 30
0.0
 40
0.3
 50
270.0
 51
0.0
  0
ARC
  5
9F5
 67
     1
  8
AM_VIS
 10
209.37260724114941
 20
124.5752775376022
 30
0.0
 40
0.3
 50
180.0
 51
270.0
  0
ARC
  5
9F6
 67
     1
  8
AM_VIS
 10
210.07260724114971
 20
128.461063975229
 30
0.0
 40
1.0
 50
135.0
 51
180.0
  0
ARC
  5
9F7
 67
     1
  8
AM_VIS
 10
220.0934225213208
 20
138.48187925540029
 30
0.0
 40
1.0
 50
90.0
 51
135.0
  0
ARC
  5
9F8
 67
     1
  8
AM_VIS
 10
223.97920895894779
 20
137.9818795289915
 30
0.0
 40
0.3
 50
270.0
 51
0.0
  0
ARC
  5
9F9
 67
     1
  8
AM_VIS
 10
222.87920895894791
 20
137.38187952899159
 30
0.0
 40
0.3
 50
90.0
 51
180.0
  0
ARC
  5
9FA
 67
     1
  8
AM_VIS
 10
222.8792089589482
 20
136.78187952899151
 30
0.0
 40
0.3
 50
180.0
 51
270.0
  0
ARC
  5
9FB
 67
     1
  8
AM_VIS
 10
231.279208958948
 20
136.7818795289914
 30
0.0
 40
0.3
 50
270.0
 51
0.0
  0
ARC
  5
9FC
 67
     1
  8
AM_VIS
 10
231.87920895894769
 20
139.18187925540039
 30
0.0
 40
0.3
 50
90.0
 51
180.0
  0
ARC
  5
9FD
 67
     1
  8
AM_VIS
 10
238.968296255474
 20
140.95675298955331
 30
0.0
 40
1.0
 50
90.0
 51
135.0
  0
CIRCLE
  5
9FE
 67
     1
  8
AM_VIS
 10
212.3960103136518
 20
107.8742058801699
 30
0.0
 40
4.7999999999999998
  0
CIRCLE
  5
9FF
 67
     1
  8
AM_VIS
 10
226.53814593738261
 20
122.0163415039009
 30
0.0
 40
11.699999999999999
  0
CIRCLE
  5
A00
 67
     1
  8
AM_VIS
 10
226.53814593738261
 20
122.0163415039009
 30
0.0
 40
11.4
  0
CIRCLE
  5
A01
 67
     1
  8
AM_VIS
 10
226.53814593738261
 20
122.0163415039009
 30
0.0
 40
11.1
  0
DIMENSION
  5
A02
 67
     1
  8
AM_5
  2
*D5
 10
134.21357840840611
 20
110.53807206049891
 30
0.0
 11
126.71357840840609
 21
112.73807206049889
 31
0.0
 70
     0
 13
119.21357840840599
 23
118.01634150389781
 33
0.0
 14
134.21357840840611
 24
117.016341503899
 34
0.0
1001
ACAD
1000
DSTYLE
1002
{
1070
   287
1070
     3
1070
   176
1070
     5
1070
   177
1070
     5
1070
   178
1070
     5
1070
   272
1070
     2
1070
   289
1070
     3
1002
}
  0
DIMENSION
  5
A23
 67
     1
  8
AM_5
  2
*D6
 10
136.7135784084056
 20
102.53807206049881
 30
0.0
 11
127.9635784084057
 21
104.73807206049879
 31
0.0
 70
     0
 13
119.21357840840579
 23
118.01634150389771
 33
0.0
 14
136.7135784084056
 24
117.0163415038995
 34
0.0
1001
ACAD
1000
DSTYLE
1002
{
1070
   287
1070
     3
1070
   176
1070
     5
1070
   177
1070
     5
1070
   178
1070
     5
1070
   272
1070
     2
1070
   289
1070
     3
1002
}
  0
DIMENSION
  5
A44
 67
     1
  8
AM_5
  2
*D7
 10
119.21357840840599
 20
94.538072060498678
 30
0.0
 11
130.46357840840591
 21
96.738072060498681
 31
0.0
 70
     0
 13
141.71357840840571
 23
101.65166693428721
 33
0.0
 14
119.21357840840599
 24
118.01634150389781
 34
0.0
1001
ACAD
1000
DSTYLE
1002
{
1070
   287
1070
     3
1070
   176
1070
     5
1070
   177
1070
     5
1070
   178
1070
     5
1070
   272
1070
     2
1070
   289
1070
     3
1002
}
  0
DIMENSION
  5
A65
 67
     1
  8
AM_5
  2
*D8
 10
141.71357840840571
 20
94.538072060498635
 30
0.0
 11
160.46357840840571
 21
96.738072060498652
 31
0.0
 70
     0
  1
32.5+Sroke
 13
179.21357840840571
 23
101.65166693428721
 33
0.0
 14
141.71357840840571
 24
101.65166693428721
 34
0.0
1001
ACAD
1000
DSTYLE
1002
{
1070
   287
1070
     3
1070
   176
1070
     5
1070
   177
1070
     5
1070
   178
1070
     5
1070
   272
1070
     2
1070
   289
1070
     3
1002
}
  0
DIMENSION
  5
A8F
 67
     1
  8
AM_5
  2
*D9
 10
119.21357840840579
 20
86.538072060498649
 30
0.0
 11
149.21357840840579
 21
88.738072060498666
 31
0.0
 70
     0
  1
55+Stroke
 13
179.21357840840571
 23
101.87707995150249
 33
0.0
 14
119.21357840840579
 24
118.01634150389771
 34
0.0
1001
ACAD
1000
DSTYLE
1002
{
1070
   287
1070
     3
1070
   176
1070
     5
1070
   177
1070
     5
1070
   178
1070
     5
1070
   272
1070
     2
1070
   289
1070
     3
1002
}
  0
INSERT
  5
B7A
 67
     1
  8
0
  2
*U23
 10
0.0
 20
0.0
 30
0.0
1001
ACAD
1000
DSTYLE
1002
{
1070
   147
1040
1.5
1070
    77
1070
     0
1070
   176
1070
     5
1070
   177
1070
     5
1070
   178
1070
     5
1070
   272
1070
     2
1070
   289
1070
     3
1002
}
  0
TEXT
  5
B7B
 67
     1
  8
0
 62
     5
 10
101.2435378022043
 20
140.14392106946701
 30
0.0
 40
3.0
  1
M10*1.25
  0
DIMENSION
  5
B7C
 67
     1
  8
AM_5
  2
*D10
 10
177.43024351645019
 20
212.8849319473737
 30
0.0
 11
186.7635768497835
 21
215.08493194737369
 31
0.0
 70
     0
 13
171.93024351645019
 23
241.36750011295271
 33
0.0
 14
177.43024351645019
 24
218.5544631129527
 34
0.0
 50
0.0000000000001018
1001
ACAD
1000
DSTYLE
1002
{
1070
   287
1070
     3
1070
   176
1070
     5
1070
   177
1070
     5
1070
   178
1070
     5
1070
   272
1070
     2
1070
   289
1070
     3
1002
}
  0
DIMENSION
  5
BA3
 67
     1
  8
AM_5
  2
*D11
 10
139.93024351645019
 20
212.4228291428559
 30
0.0
 11
145.43024351645019
 21
214.62282914285589
 31
0.0
 70
     0
 13
150.93024351645019
 23
241.36750011295271
 33
0.0
 14
139.93024351645019
 24
218.5544631129527
 34
0.0
 50
0.0000000000001018
1001
ACAD
1000
DSTYLE
1002
{
1070
   287
1070
     3
1070
   176
1070
     5
1070
   177
1070
     5
1070
   178
1070
     5
1070
   272
1070
     2
1070
   289
1070
     3
1002
}
  0
DIMENSION
  5
BC6
 67
     1
  8
AM_5
  2
*D12
 10
139.93024351645019
 20
212.42282914285579
 30
0.0
 11
137.4302435164501
 21
214.62282914285581
 31
0.0
 70
     0
 13
134.9302435164501
 23
233.9191376825674
 33
0.0
 14
139.93024351645019
 24
218.5544631129527
 34
0.0
 50
0.0000000000001018
1001
ACAD
1000
DSTYLE
1002
{
1070
   287
1070
     3
1070
   176
1070
     5
1070
   177
1070
     5
1070
   178
1070
     5
1070
   272
1070
     2
1070
   289
1070
     3
1002
}
  0
DIMENSION
  5
BED
 67
     1
  8
AM_5
  2
*D13
 10
139.93024351645019
 20
204.42282914285579
 30
0.0
 11
158.68024351645019
 21
206.62282914285569
 31
0.0
 70
     0
  1
32.5+Stroke
 13
177.43024351645019
 23
218.5544631129527
 33
0.0
 14
139.93024351645019
 24
218.5544631129527
 34
0.0
 50
0.0000000000001018
1001
ACAD
1000
DSTYLE
1002
{
1070
   287
1070
     3
1070
   176
1070
     5
1070
   177
1070
     5
1070
   178
1070
     5
1070
   272
1070
     2
1070
   289
1070
     3
1002
}
  0
DIMENSION
  5
C17
 67
     1
  8
AM_5
  2
*D14
 10
134.9302435164501
 20
196.4228291428557
 30
0.0
 11
156.1802435164501
 21
198.62282914285569
 31
0.0
 70
     0
  1
37.5+Stroke
 13
177.43024351645019
 23
218.5544631129527
 33
0.0
 14
134.9302435164501
 24
233.91913768256759
 34
0.0
 50
0.0000000000001018
1001
ACAD
1000
DSTYLE
1002
{
1070
   287
1070
     3
1070
   176
1070
     5
1070
   177
1070
     5
1070
   178
1070
     5
1070
   272
1070
     2
1070
   289
1070
     3
1002
}
  0
LINE
  5
C41
 67
     1
  8
AM_7
 10
77.518888404988445
 20
98.968781103888674
 30
0.0
 11
77.518888404988445
 21
142.97081025504721
 31
0.0
  0
TEXT
  5
C49
 67
     1
  8
0
 62
     5
 10
15.208739043688411
 20
172.74173975310109
 30
0.0
 40
5.0
  1
MCJQ2-11-25
  0
TEXT
  5
C59
 67
     1
  8
0
 62
     5
 10
11.341660891916939
 20
343.64399081746842
 30
0.0
 40
5.0
  1
MCJQ2-12-25
  0
CIRCLE
  5
C5A
 67
     1
  8
AM_VIS
 10
226.53814593738269
 20
295.87317549719052
 30
0.0
 40
11.699999999999999
  0
CIRCLE
  5
C5B
 67
     1
  8
AM_VIS
 10
226.53814593738269
 20
295.87317549719052
 30
0.0
 40
11.4
  0
CIRCLE
  5
C5C
 67
     1
  8
AM_VIS
 10
226.53814593738269
 20
295.87317549719052
 30
0.0
 40
11.1
  0
DIMENSION
  5
C98
 67
     1
  8
AM_5
  2
*D15
 10
128.30012167319771
 20
233.91913768256759
 30
0.0
 11
126.10012167319771
 21
238.91913768256771
 31
0.0
 70
     0
 13
134.9302435164501
 23
243.91913768256759
 33
0.0
 14
134.9302435164501
 24
233.91913768256759
 34
0.0
 50
90.0
1001
ACAD
1000
DSTYLE
1002
{
1070
   287
1070
     3
1070
   176
1070
     5
1070
   177
1070
     5
1070
   178
1070
     5
1070
   272
1070
     2
1070
   289
1070
     3
1002
}
  0
DIMENSION
  5
DB1
 67
     1
  8
AM_5
  2
*D16
 10
141.71357840840571
 20
30.928746934528931
 30
0.0
 11
147.21357840840571
 21
33.678746934528931
 31
0.0
 70
     0
 13
152.71357840840571
 23
59.594310982074923
 33
0.0
 14
141.71357840840571
 24
36.781273982075021
 34
0.0
1001
ACAD
1000
DSTYLE
1002
{
1070
   287
1070
     3
1070
    40
1040
1.0
1070
   144
1040
1.0
1070
   176
1070
     5
1070
   177
1070
     5
1070
   178
1070
     5
1070
   272
1070
     2
1070
   289
1070
     3
1002
}
  0
DIMENSION
  5
DC9
 67
     1
  8
AM_5
  2
*D17
 10
179.21357840840571
 20
31.431240019307779
 30
0.0
 11
190.88024507507239
 21
34.181240019307779
 31
0.0
 70
     0
 13
173.71357840840571
 23
59.594310982074923
 33
0.0
 14
179.21357840840571
 24
36.781273982075021
 34
0.0
1001
ACAD
1000
DSTYLE
1002
{
1070
   287
1070
     3
1070
    40
1040
1.0
1070
   144
1040
1.0
1070
   176
1070
     5
1070
   177
1070
     5
1070
   178
1070
     5
1070
   272
1070
     2
1070
   289
1070
     3
1002
}
  0
POLYLINE
  5
E8D
 67
     1
  8
0
 62
     4
 66
     1
 10
0.0
 20
0.0
 30
0.0
 70
     1
  0
VERTEX
  5
15FC
 67
     1
  8
0
 62
     4
 10
7.8093503968432278
 20
354.20715636935029
 30
0.0
  0
VERTEX
  5
15FD
 67
     1
  8
0
 62
     4
 10
261.82721118273508
 20
354.20715636935029
 30
0.0
  0
VERTEX
  5
15FE
 67
     1
  8
0
 62
     4
 10
261.82721118273508
 20
20.262956299184371
 30
0.0
  0
VERTEX
  5
15FF
 67
     1
  8
0
 62
     4
 10
7.8093503968432278
 20
20.262956299184339
 30
0.0
  0
SEQEND
  5
1600
 67
     1
  8
0
 62
     4
  0
DIMENSION
  5
ED0
 67
     1
  8
AM_5
  2
*D18
 10
171.9302435164503
 20
243.85955011295309
 30
0.0
 11
196.10853022842889
 21
250.9991680572345
 31
0.0
 70
   132
  1
2-M5*0.8
 15
174.10825898844649
 25
245.31579480521651
 35
0.0
 40
0.0
1001
ACAD
1000
DSTYLE
1002
{
1070
   287
1070
     3
1070
    40
1040
0.8
1070
   144
1040
1.0
1070
   176
1070
     5
1070
   177
1070
     5
1070
   178
1070
     5
1070
   272
1070
     2
1070
   289
1070
     3
1002
}
  0
LINE
  5
1072
 67
     1
  8
AM_7
 10
202.61814593738251
 20
122.0163415039009
 30
0.0
 11
250.45814593738251
 21
122.0163415039009
 31
0.0
  0
LINE
  5
1073
 67
     1
  8
AM_7
 10
226.5381459373825
 20
98.096341503900945
 30
0.0
 11
226.5381459373825
 21
145.93634150390079
 31
0.0
  0
DIMENSION
  5
107B
 67
     1
  8
AM_5
  2
*D19
 10
77.518888404985773
 20
295.87317549719029
 30
0.0
 11
108.0091914338211
 21
324.13364698987812
 31
0.0
 70
   132
  1
M6*1.0*12L
 15
79.018953296021976
 25
298.63965599100902
 35
0.0
 40
0.0
1001
ACAD
1000
DSTYLE
1002
{
1070
   144
1040
1.0
1070
    40
1040
1.0
1002
}
  0
DIMENSION
  5
116A
 67
     1
  8
AM_5
  2
*D20
 10
67.459194140388206
 20
307.49069777443913
 30
0.0
 11
30.86216338992428
 21
322.53678331178747
 31
0.0
 70
   131
  1
2-%%c5.5thru
 15
59.294311422121282
 25
312.53992446740398
 35
0.0
 40
0.0
1001
ACAD
1000
DSTYLE
1002
{
1070
   144
1040
1.0
1070
    40
1040
0.8
1002
}
  0
DIMENSION
  5
11A4
 67
     1
  8
AM_5
  2
*D21
 10
91.661024028716355
 20
281.73103987345991
 30
0.0
 11
121.0604063651232
 21
265.9155229570643
 31
0.0
 70
   132
  1
2*2-M6*1.0*10L
 15
93.542863534871884
 25
279.20868203344719
 35
0.0
 40
0.0
1001
ACAD
1000
DSTYLE
1002
{
1070
   144
1040
1.0
1070
    40
1040
0.8
1002
}
  0
ENDSEC
  0
EOF
