  0
SECTION
  2
HEADER
  9
$ACADVER
  1
AC1009
  9
$INSBASE
 10
0.0
 20
0.0
 30
0.0
  9
$EXTMIN
 10
-0.4840328414837814
 20
-0.4894054010007949
 30
-0.0000000000000023
  9
$EXTMAX
 10
271.64037253505518
 20
418.0685389355657
 30
0.0000000000000132
  9
$LIMMIN
 10
0.0
 20
0.0
  9
$LIMMAX
 10
12.0
 20
9.0
  9
$ORTHOMODE
 70
     0
  9
$REGENMODE
 70
     1
  9
$FILLMODE
 70
     1
  9
$QTEXTMODE
 70
     0
  9
$MIRRTEXT
 70
     1
  9
$DRAGMODE
 70
     2
  9
$LTSCALE
 40
5.0
  9
$OSMODE
 70
    39
  9
$ATTMODE
 70
     1
  9
$TEXTSIZE
 40
4.5
  9
$TRACEWID
 40
0.05
  9
$TEXTSTYLE
  7
CHINESET
  9
$CLAYER
  8
0
  9
$CELTYPE
  6
BYLAYER
  9
$CECOLOR
 62
   256
  9
$DIMSCALE
 40
1.0
  9
$DIMASZ
 40
3.0
  9
$DIMEXO
 40
3.0
  9
$DIMDLI
 40
2.0
  9
$DIMRND
 40
0.0
  9
$DIMDLE
 40
0.0
  9
$DIMEXE
 40
2.0
  9
$DIMTP
 40
0.0
  9
$DIMTM
 40
0.0
  9
$DIMTXT
 40
3.0
  9
$DIMCEN
 40
-3.0
  9
$DIMTSZ
 40
0.0
  9
$DIMTOL
 70
     0
  9
$DIMLIM
 70
     0
  9
$DIMTIH
 70
     0
  9
$DIMTOH
 70
     0
  9
$DIMSE1
 70
     0
  9
$DIMSE2
 70
     0
  9
$DIMTAD
 70
     1
  9
$DIMZIN
 70
     8
  9
$DIMBLK
  1

  9
$DIMASO
 70
     1
  9
$DIMSHO
 70
     1
  9
$DIMPOST
  1

  9
$DIMAPOST
  1

  9
$DIMALT
 70
     0
  9
$DIMALTD
 70
     2
  9
$DIMALTF
 40
25.399999999999999
  9
$DIMLFAC
 40
1.0
  9
$DIMTOFL
 70
     1
  9
$DIMTVP
 40
0.0
  9
$DIMTIX
 70
     0
  9
$DIMSOXD
 70
     0
  9
$DIMSAH
 70
     0
  9
$DIMBLK1
  1

  9
$DIMBLK2
  1

  9
$DIMSTYLE
  2
ISO-25-1
  9
$DIMCLRD
 70
   256
  9
$DIMCLRE
 70
   256
  9
$DIMCLRT
 70
   256
  9
$DIMTFAC
 40
0.7
  9
$DIMGAP
 40
1.0
  9
$LUNITS
 70
     2
  9
$LUPREC
 70
     2
  9
$SKETCHINC
 40
0.1
  9
$FILLETRAD
 40
0.5
  9
$AUNITS
 70
     0
  9
$AUPREC
 70
     0
  9
$MENU
  1
.
  9
$ELEVATION
 40
0.0
  9
$PELEVATION
 40
0.0
  9
$THICKNESS
 40
0.0
  9
$LIMCHECK
 70
     0
  9
$BLIPMODE
 70
     0
  9
$CHAMFERA
 40
1.5
  9
$CHAMFERB
 40
1.5
  9
$SKPOLY
 70
     0
  9
$TDCREATE
 40
2452019.6310852999
  9
$TDUPDATE
 40
2452047.6842865511
  9
$TDINDWG
 40
0.2916274421
  9
$TDUSRTIMER
 40
0.2916274421
  9
$USRTIMER
 70
     1
  9
$ANGBASE
 50
0.0
  9
$ANGDIR
 70
     0
  9
$PDMODE
 70
     0
  9
$PDSIZE
 40
0.0
  9
$PLINEWID
 40
0.0
  9
$COORDS
 70
     2
  9
$SPLFRAME
 70
     0
  9
$SPLINETYPE
 70
     6
  9
$SPLINESEGS
 70
     8
  9
$ATTDIA
 70
     0
  9
$ATTREQ
 70
     1
  9
$HANDLING
 70
 12289
  9
$HANDSEED
  5
607F
  9
$SURFTAB1
 70
     6
  9
$SURFTAB2
 70
     6
  9
$SURFTYPE
 70
     6
  9
$SURFU
 70
     6
  9
$SURFV
 70
     6
  9
$UCSNAME
  2

  9
$UCSORG
 10
0.0
 20
0.0
 30
0.0
  9
$UCSXDIR
 10
1.0
 20
0.0
 30
0.0
  9
$UCSYDIR
 10
0.0
 20
1.0
 30
0.0
  9
$PUCSNAME
  2

  9
$PUCSORG
 10
0.0
 20
0.0
 30
0.0
  9
$PUCSXDIR
 10
1.0
 20
0.0
 30
0.0
  9
$PUCSYDIR
 10
0.0
 20
1.0
 30
0.0
  9
$USERI1
 70
     0
  9
$USERI2
 70
     0
  9
$USERI3
 70
     0
  9
$USERI4
 70
     0
  9
$USERI5
 70
     0
  9
$USERR1
 40
0.0
  9
$USERR2
 40
0.0
  9
$USERR3
 40
0.0
  9
$USERR4
 40
0.0
  9
$USERR5
 40
0.0
  9
$WORLDVIEW
 70
     1
  9
$SHADEDGE
 70
     3
  9
$SHADEDIF
 70
    70
  9
$TILEMODE
 70
     1
  9
$MAXACTVP
 70
    64
  9
$PLIMCHECK
 70
     0
  9
$PEXTMIN
 10
1.0000000000000000E+020
 20
1.0000000000000000E+020
 30
1.0000000000000000E+020
  9
$PEXTMAX
 10
-1.0000000000000000E+020
 20
-1.0000000000000000E+020
 30
-1.0000000000000000E+020
  9
$PLIMMIN
 10
0.0
 20
0.0
  9
$PLIMMAX
 10
12.0
 20
9.0
  9
$UNITMODE
 70
     0
  9
$VISRETAIN
 70
     1
  9
$PLINEGEN
 70
     0
  9
$PSLTSCALE
 70
     1
  0
ENDSEC
  0
SECTION
  2
TABLES
  0
TABLE
  2
VPORT
 70
     2
  0
VPORT
  2
*ACTIVE
 70
     0
 10
0.0
 20
0.0
 11
1.0
 21
1.0
 12
135.5781698467857
 22
208.78956676728239
 13
0.0
 23
0.0
 14
0.5
 24
0.5
 15
0.5
 25
0.5
 16
0.0
 26
0.0
 36
1.0
 17
0.0
 27
0.0
 37
0.0
 40
423.17439225204328
 41
1.7274401473296499
 42
50.0
 43
0.0
 44
0.0
 50
0.0
 51
0.0
 71
     0
 72
   100
 73
     1
 74
     3
 75
     0
 76
     0
 77
     0
 78
     0
  0
ENDTAB
  0
TABLE
  2
LTYPE
 70
     6
  0
LTYPE
  2
CONTINUOUS
 70
     0
  3
Solid line
 72
    65
 73
     0
 40
0.0
  0
LTYPE
  2
CENTER
 70
     0
  3
Center ____ _ ____ _ ____ _ ____ _ ____ _ ____
 72
    65
 73
     4
 40
2.0
 49
1.25
 49
-0.25
 49
0.25
 49
-0.25
  0
ENDTAB
  0
TABLE
  2
LAYER
 70
    15
  0
LAYER
  2
0
 70
     0
 62
     7
  6
CONTINUOUS
  0
LAYER
  2
DIM
 70
     0
 62
     5
  6
CONTINUOUS
  0
LAYER
  2
CENTER
 70
     0
 62
     1
  6
CENTER
  0
LAYER
  2
LOGO
 70
     0
 62
     7
  6
CONTINUOUS
  0
LAYER
  2
DEFPOINTS
 70
     0
 62
     7
  6
CONTINUOUS
  0
ENDTAB
  0
TABLE
  2
STYLE
 70
     9
  0
STYLE
  2
STANDARD
 70
     0
 40
3.0
 41
1.0
 50
0.0
 71
     0
 42
3.0
  3
txt
  4

  0
STYLE
  2
CHINESET
 70
     0
 40
3.0
 41
1.0
 50
0.0
 71
     0
 42
4.5
  3
simplex.shx
  4
CHINESET.shx
  0
STYLE
  2
LOGO
 70
     0
 40
0.0
 41
1.0
 50
0.0
 71
     0
 42
5.0
  3
txt
  4

  0
ENDTAB
  0
TABLE
  2
VIEW
 70
     0
  0
ENDTAB
  0
TABLE
  2
UCS
 70
     0
  0
ENDTAB
  0
TABLE
  2
APPID
 70
    10
  0
APPID
  2
ACAD
 70
     0
  0
APPID
  2
AD_DRAW
 70
     0
  0
APPID
  2
DESIGNERASSEMBLIES
 70
     0
  0
APPID
  2
MCAD_NO_VIS
 70
     0
  0
APPID
  2
ASURF_PCURVE_APPNAME
 70
     0
  0
APPID
  2
CONTENTBLOCKICON
 70
     0
  0
APPID
  2
GENIUS_GENODEF_13
 70
     0
  0
APPID
  2
GENIUS_GENOBJ-N-FIL_13
 70
     0
  0
APPID
  2
GENIUS_GENFIL_13
 70
     0
  0
APPID
  2
GENIUS_GENOBJ-N-CHA_13
 70
     0
  0
ENDTAB
  0
TABLE
  2
DIMSTYLE
 70
     3
  0
DIMSTYLE
  2
ISO-25-1
 70
     0
  3

  4

  5

  6

  7

 40
1.0
 41
3.0
 42
3.0
 43
2.0
 44
2.0
 45
0.0
 46
0.0
 47
0.0
 48
0.0
140
3.0
141
-3.0
142
0.0
143
25.399999999999999
144
1.0
145
0.0
146
0.7
147
1.0
 71
     0
 72
     0
 73
     0
 74
     0
 75
     0
 76
     0
 77
     1
 78
     8
170
     0
171
     2
172
     1
173
     0
174
     0
175
     0
176
   256
177
   256
178
   256
  0
ENDTAB
  0
ENDSEC
  0
SECTION
  2
BLOCKS
  0
BLOCK
  8
0
  2
$MODEL_SPACE
 70
     0
 10
0.0
 20
0.0
 30
0.0
  3
$MODEL_SPACE
  1

  0
ENDBLK
  5
21
  8
0
  0
BLOCK
 67
     1
  8
0
  2
$PAPER_SPACE
 70
     0
 10
0.0
 20
0.0
 30
0.0
  3
$PAPER_SPACE
  1

  0
ENDBLK
  5
1D
 67
     1
  8
0
  0
BLOCK
  8
0
  2
*D166
 70
     1
 10
0.0
 20
0.0
 30
0.0
  3
*D166
  1

  0
LINE
  5
5F37
  8
DIM
 10
56.374958703722939
 20
165.58155235978899
 30
0.0
 11
56.374958703722939
 21
176.35561306446351
 31
0.0
  0
LINE
  5
5F38
  8
DIM
 10
11.37495870372293
 20
165.58155235978899
 30
0.0
 11
11.37495870372293
 21
176.35561306446351
 31
0.0
  0
LINE
  5
5F39
  8
DIM
 10
53.374958703722932
 20
174.35561306446351
 30
0.0
 11
14.37495870372293
 21
174.35561306446351
 31
0.0
  0
SOLID
  5
5F3A
  8
DIM
 10
53.374958703722932
 20
174.85561306446351
 30
0.0
 11
53.374958703722932
 21
173.85561306446351
 31
0.0
 12
56.374958703722939
 22
174.35561306446351
 32
0.0
 13
56.374958703722939
 23
174.35561306446351
 33
0.0
  0
SOLID
  5
5F3B
  8
DIM
 10
14.37495870372293
 20
174.85561306446351
 30
0.0
 11
14.37495870372293
 21
173.85561306446351
 31
0.0
 12
11.37495870372293
 22
174.35561306446351
 32
0.0
 13
11.37495870372293
 23
174.35561306446351
 33
0.0
  0
TEXT
  5
5F3C
  8
0
 10
31.446387275151508
 20
175.35561306446351
 30
0.0
 40
3.0
  1
45
  7
CHINESET
  0
POINT
  5
5F3D
  8
DEFPOINTS
 62
     0
 10
56.374958703722939
 20
162.58155235978899
 30
0.0
  0
POINT
  5
5F3E
  8
DEFPOINTS
 62
     0
 10
11.37495870372293
 20
162.58155235978899
 30
0.0
  0
POINT
  5
5F3F
  8
DEFPOINTS
 62
     0
 10
11.37495870372293
 20
174.35561306446351
 30
0.0
  0
ENDBLK
  5
59AF
  8
0
  0
BLOCK
  8
0
  2
*D167
 70
     1
 10
0.0
 20
0.0
 30
0.0
  3
*D167
  1

  0
LINE
  5
5F2E
  8
DIM
 10
56.374958703722939
 20
165.58155235978899
 30
0.0
 11
56.374958703722939
 21
169.1728086273331
 31
0.0
  0
LINE
  5
5F2F
  8
DIM
 10
41.374958703723053
 20
117.87946059472441
 30
0.0
 11
41.374958703723053
 21
169.1728086273331
 31
0.0
  0
LINE
  5
5F30
  8
DIM
 10
53.374958703722932
 20
167.1728086273331
 30
0.0
 11
44.374958703723053
 21
167.1728086273331
 31
0.0
  0
SOLID
  5
5F31
  8
DIM
 10
53.374958703722932
 20
167.6728086273331
 30
0.0
 11
53.374958703722932
 21
166.6728086273331
 31
0.0
 12
56.374958703722939
 22
167.1728086273331
 32
0.0
 13
56.374958703722939
 23
167.1728086273331
 33
0.0
  0
SOLID
  5
5F32
  8
DIM
 10
44.374958703723053
 20
167.6728086273331
 30
0.0
 11
44.374958703723053
 21
166.6728086273331
 31
0.0
 12
41.374958703723053
 22
167.1728086273331
 32
0.0
 13
41.374958703723053
 23
167.1728086273331
 33
0.0
  0
TEXT
  5
5F33
  8
0
 10
46.73210156086585
 20
168.1728086273331
 30
0.0
 40
3.0
  1
15
  7
CHINESET
  0
POINT
  5
5F34
  8
DEFPOINTS
 62
     0
 10
56.374958703722939
 20
162.58155235978899
 30
0.0
  0
POINT
  5
5F35
  8
DEFPOINTS
 62
     0
 10
41.374958703723053
 20
114.87946059472441
 30
0.0
  0
POINT
  5
5F36
  8
DEFPOINTS
 62
     0
 10
41.374958703723053
 20
167.1728086273331
 30
0.0
  0
ENDBLK
  5
59C9
  8
0
  0
BLOCK
  8
0
  2
*D168
 70
     1
 10
0.0
 20
0.0
 30
0.0
  3
*D168
  1

  0
LINE
  5
5F40
  8
DIM
 10
26.374958703722989
 20
117.87946059472451
 30
0.0
 11
26.374958703722989
 21
169.1728086273331
 31
0.0
  0
LINE
  5
5F41
  8
DIM
 10
11.37495870372293
 20
165.58155235978899
 30
0.0
 11
11.37495870372293
 21
169.1728086273331
 31
0.0
  0
LINE
  5
5F42
  8
DIM
 10
23.374958703722999
 20
167.1728086273331
 30
0.0
 11
14.37495870372293
 21
167.1728086273331
 31
0.0
  0
SOLID
  5
5F43
  8
DIM
 10
23.374958703722999
 20
167.6728086273331
 30
0.0
 11
23.374958703722999
 21
166.6728086273331
 31
0.0
 12
26.374958703722989
 22
167.1728086273331
 32
0.0
 13
26.374958703722989
 23
167.1728086273331
 33
0.0
  0
SOLID
  5
5F44
  8
DIM
 10
14.37495870372293
 20
167.6728086273331
 30
0.0
 11
14.37495870372293
 21
166.6728086273331
 31
0.0
 12
11.37495870372293
 22
167.1728086273331
 32
0.0
 13
11.37495870372293
 23
167.1728086273331
 33
0.0
  0
TEXT
  5
5F45
  8
0
 10
16.732101560865821
 20
168.1728086273331
 30
0.0
 40
3.0
  1
15
  7
CHINESET
  0
POINT
  5
5F46
  8
DEFPOINTS
 62
     0
 10
26.374958703722989
 20
114.87946059472451
 30
0.0
  0
POINT
  5
5F47
  8
DEFPOINTS
 62
     0
 10
11.37495870372293
 20
162.58155235978899
 30
0.0
  0
POINT
  5
5F48
  8
DEFPOINTS
 62
     0
 10
11.37495870372293
 20
167.1728086273331
 30
0.0
  0
ENDBLK
  5
59D6
  8
0
  0
BLOCK
  8
0
  2
*D169
 70
     1
 10
0.0
 20
0.0
 30
0.0
  3
*D169
  1

  0
LINE
  5
5F49
  8
DIM
 10
56.374958703722939
 20
165.58155235978899
 30
0.0
 11
56.374958703722939
 21
176.35561306446351
 31
0.0
  0
LINE
  5
5F4A
  8
DIM
 10
65.374958703722996
 20
121.581552359789
 30
0.0
 11
65.374958703722996
 21
176.35561306446351
 31
0.0
  0
LINE
  5
5F4B
  8
DIM
 10
59.374958703722939
 20
174.35561306446351
 30
0.0
 11
62.374958703722989
 21
174.35561306446351
 31
0.0
  0
SOLID
  5
5F4C
  8
DIM
 10
59.374958703722939
 20
174.85561306446351
 30
0.0
 11
59.374958703722939
 21
173.85561306446351
 31
0.0
 12
56.374958703722939
 22
174.35561306446351
 32
0.0
 13
56.374958703722939
 23
174.35561306446351
 33
0.0
  0
SOLID
  5
5F4D
  8
DIM
 10
62.374958703722989
 20
174.85561306446351
 30
0.0
 11
62.374958703722989
 21
173.85561306446351
 31
0.0
 12
65.374958703722996
 22
174.35561306446351
 32
0.0
 13
65.374958703722996
 23
174.35561306446351
 33
0.0
  0
TEXT
  5
5F4E
  8
0
 10
59.946387275151537
 20
175.35561306446351
 30
0.0
 40
3.0
  1
9
  7
CHINESET
  0
POINT
  5
5F4F
  8
DEFPOINTS
 62
     0
 10
56.374958703722939
 20
162.58155235978899
 30
0.0
  0
POINT
  5
5F50
  8
DEFPOINTS
 62
     0
 10
65.374958703722996
 20
118.581552359789
 30
0.0
  0
POINT
  5
5F51
  8
DEFPOINTS
 62
     0
 10
65.374958703722996
 20
174.35561306446351
 30
0.0
  0
ENDBLK
  5
59E3
  8
0
  0
BLOCK
  8
0
  2
*D170
 70
     1
 10
0.0
 20
0.0
 30
0.0
  3
*D170
  1

  0
LINE
  5
5F25
  8
DIM
 10
65.374958703722996
 20
121.581552359789
 30
0.0
 11
65.374958703722996
 21
183.2011150954508
 31
0.0
  0
LINE
  5
5F26
  8
DIM
 10
11.37495870372293
 20
165.58155235978899
 30
0.0
 11
11.374958703722941
 21
183.2011150954508
 31
0.0
  0
LINE
  5
5F27
  8
DIM
 10
62.374958703722989
 20
181.20111509545069
 30
0.0
 11
14.374958703722941
 21
181.20111509545069
 31
0.0
  0
SOLID
  5
5F28
  8
DIM
 10
62.374958703722989
 20
181.7011150954508
 30
0.0
 11
62.374958703722989
 21
180.7011150954508
 31
0.0
 12
65.374958703722996
 22
181.20111509545069
 32
0.0
 13
65.374958703722996
 23
181.20111509545069
 33
0.0
  0
SOLID
  5
5F29
  8
DIM
 10
14.374958703722941
 20
181.7011150954508
 30
0.0
 11
14.374958703722941
 21
180.7011150954508
 31
0.0
 12
11.374958703722941
 22
181.20111509545069
 32
0.0
 13
11.374958703722941
 23
181.20111509545069
 33
0.0
  0
TEXT
  5
5F2A
  8
0
 10
35.874958703722967
 20
182.2011150954508
 30
0.0
 40
3.0
  1
54
  7
CHINESET
  0
POINT
  5
5F2B
  8
DEFPOINTS
 62
     0
 10
65.374958703722996
 20
118.581552359789
 30
0.0
  0
POINT
  5
5F2C
  8
DEFPOINTS
 62
     0
 10
11.37495870372293
 20
162.58155235978899
 30
0.0
  0
POINT
  5
5F2D
  8
DEFPOINTS
 62
     0
 10
11.374958703722941
 20
181.20111509545069
 30
0.0
  0
ENDBLK
  5
59F0
  8
0
  0
BLOCK
  8
0
  2
*D171
 70
     1
 10
0.0
 20
0.0
 30
0.0
  3
*D171
  1

  0
LINE
  5
5F1C
  8
DIM
 10
62.874958703722939
 20
120.5815523597889
 30
0.0
 11
88.130386190940513
 21
120.5815523597889
 31
0.0
  0
LINE
  5
5F1D
  8
DIM
 10
62.874958703722818
 20
90.581552359789058
 30
0.0
 11
88.130386190940484
 21
90.581552359789058
 31
0.0
  0
LINE
  5
5F1E
  8
DIM
 10
86.130386190940513
 20
117.5815523597889
 30
0.0
 11
86.130386190940499
 21
93.581552359789072
 31
0.0
  0
SOLID
  5
5F1F
  8
DIM
 10
85.630386190940513
 20
117.5815523597889
 30
0.0
 11
86.630386190940499
 21
117.5815523597889
 31
0.0
 12
86.130386190940513
 22
120.5815523597889
 32
0.0
 13
86.130386190940513
 23
120.5815523597889
 33
0.0
  0
SOLID
  5
5F20
  8
DIM
 10
85.630386190940484
 20
93.581552359789072
 30
0.0
 11
86.630386190940499
 21
93.581552359789072
 31
0.0
 12
86.130386190940499
 22
90.581552359789058
 32
0.0
 13
86.130386190940499
 23
90.581552359789058
 33
0.0
  0
INSERT
  5
5F21
  8
0
  2
*U222
 10
0.0
 20
0.0
 30
0.0
  0
POINT
  5
5F22
  8
DEFPOINTS
 62
     0
 10
59.874958703722939
 20
120.5815523597889
 30
0.0
  0
POINT
  5
5F23
  8
DEFPOINTS
 62
     0
 10
59.874958703722818
 20
90.581552359789058
 30
0.0
  0
POINT
  5
5F24
  8
DEFPOINTS
 62
     0
 10
86.130386190940499
 20
90.581552359789058
 30
0.0
  0
ENDBLK
  5
59FD
  8
0
  0
BLOCK
  8
0
  2
*D172
 70
     1
 10
0.0
 20
0.0
 30
0.0
  3
*D172
  1

  0
LINE
  5
5F13
  8
DIM
 10
60.874958703723003
 20
128.0815523597891
 30
0.0
 11
96.486251905208533
 21
128.0815523597891
 31
0.0
  0
LINE
  5
5F14
  8
DIM
 10
60.874958703723003
 20
83.081552359788986
 30
0.0
 11
96.486251905208533
 21
83.081552359788972
 31
0.0
  0
LINE
  5
5F15
  8
DIM
 10
94.486251905208533
 20
125.0815523597891
 30
0.0
 11
94.486251905208519
 21
86.081552359788986
 31
0.0
  0
SOLID
  5
5F16
  8
DIM
 10
93.986251905208533
 20
125.0815523597891
 30
0.0
 11
94.986251905208519
 21
125.0815523597891
 31
0.0
 12
94.486251905208533
 22
128.0815523597891
 32
0.0
 13
94.486251905208533
 23
128.0815523597891
 33
0.0
  0
SOLID
  5
5F17
  8
DIM
 10
93.986251905208505
 20
86.081552359788986
 30
0.0
 11
94.986251905208519
 21
86.081552359788986
 31
0.0
 12
94.486251905208519
 22
83.081552359788986
 32
0.0
 13
94.486251905208519
 23
83.081552359788986
 33
0.0
  0
INSERT
  5
5F18
  8
0
  2
*U221
 10
0.0
 20
0.0
 30
0.0
  0
POINT
  5
5F19
  8
DEFPOINTS
 62
     0
 10
57.874958703723003
 20
128.0815523597891
 30
0.0
  0
POINT
  5
5F1A
  8
DEFPOINTS
 62
     0
 10
57.874958703723003
 20
83.081552359788986
 30
0.0
  0
POINT
  5
5F1B
  8
DEFPOINTS
 62
     0
 10
94.486251905208519
 20
83.081552359788986
 30
0.0
  0
ENDBLK
  5
5A0A
  8
0
  0
BLOCK
  8
0
  2
*D173
 70
     1
 10
0.0
 20
0.0
 30
0.0
  3
*D173
  1

  0
LINE
  5
5F5B
  8
DIM
 10
59.374958703722939
 20
81.581552359788986
 30
0.0
 11
59.374958703722939
 21
39.02946287948987
 31
0.0
  0
LINE
  5
5F5C
  8
DIM
 10
56.374958703722939
 20
45.581552359789072
 30
0.0
 11
56.374958703722939
 21
39.02946287948987
 31
0.0
  0
LINE
  5
5F5D
  8
DIM
 10
53.374958703722932
 20
41.02946287948987
 30
0.0
 11
50.374958703722939
 21
41.02946287948987
 31
0.0
  0
LINE
  5
5F5E
  8
DIM
 10
62.374958703722939
 20
41.02946287948987
 30
0.0
 11
70.912901851726929
 21
41.02946287948987
 31
0.0
  0
LINE
  5
5F5F
  8
DIM
 10
56.374958703722939
 20
41.02946287948987
 30
0.0
 11
59.374958703722939
 21
41.02946287948987
 31
0.0
  0
SOLID
  5
5F60
  8
DIM
 10
53.374958703722932
 20
41.52946287948987
 30
0.0
 11
53.374958703722932
 21
40.529462879489863
 31
0.0
 12
56.374958703722939
 22
41.02946287948987
 32
0.0
 13
56.374958703722939
 23
41.02946287948987
 33
0.0
  0
SOLID
  5
5F61
  8
DIM
 10
62.374958703722939
 20
41.52946287948987
 30
0.0
 11
62.374958703722939
 21
40.529462879489863
 31
0.0
 12
59.374958703722939
 22
41.02946287948987
 32
0.0
 13
59.374958703722939
 23
41.02946287948987
 33
0.0
  0
TEXT
  5
5F62
  8
0
 10
67.912901851726929
 20
42.02946287948987
 30
0.0
 40
3.0
  1
3
  7
CHINESET
  0
POINT
  5
5F63
  8
DEFPOINTS
 62
     0
 10
59.374958703722939
 20
84.581552359788986
 30
0.0
  0
POINT
  5
5F64
  8
DEFPOINTS
 62
     0
 10
56.374958703722939
 20
48.581552359789072
 30
0.0
  0
POINT
  5
5F65
  8
DEFPOINTS
 62
     0
 10
56.374958703722939
 20
41.02946287948987
 30
0.0
  0
ENDBLK
  5
5A2D
  8
0
  0
BLOCK
  8
0
  2
*D174
 70
     1
 10
0.0
 20
0.0
 30
0.0
  3
*D174
  1

  0
LINE
  5
5EF8
  8
DIM
 10
263.48292952778883
 20
157.3257827876046
 30
0.0
 11
263.48292952778883
 21
179.37115115779301
 31
0.0
  0
LINE
  5
5EF9
  8
DIM
 10
141.4829295277888
 20
121.5815523597889
 30
0.0
 11
141.4829295277888
 21
179.37115115779301
 31
0.0
  0
LINE
  5
5EFA
  8
DIM
 10
260.48292952778883
 20
177.37115115779301
 30
0.0
 11
144.4829295277888
 21
177.37115115779301
 31
0.0
  0
SOLID
  5
5EFB
  8
DIM
 10
260.48292952778883
 20
177.87115115779301
 30
0.0
 11
260.48292952778883
 21
176.87115115779301
 31
0.0
 12
263.48292952778883
 22
177.37115115779301
 32
0.0
 13
263.48292952778883
 23
177.37115115779301
 33
0.0
  0
SOLID
  5
5EFC
  8
DIM
 10
144.4829295277888
 20
177.87115115779301
 30
0.0
 11
144.4829295277888
 21
176.87115115779301
 31
0.0
 12
141.4829295277888
 22
177.37115115779301
 32
0.0
 13
141.4829295277888
 23
177.37115115779301
 33
0.0
  0
TEXT
  5
5EFD
  8
0
 10
198.9115009563603
 20
178.37115115779301
 30
0.0
 40
3.0
  1
122
  7
CHINESET
  0
POINT
  5
5EFE
  8
DEFPOINTS
 62
     0
 10
263.48292952778883
 20
154.3257827876046
 30
0.0
  0
POINT
  5
5EFF
  8
DEFPOINTS
 62
     0
 10
141.4829295277888
 20
118.5815523597889
 30
0.0
  0
POINT
  5
5F00
  8
DEFPOINTS
 62
     0
 10
141.4829295277888
 20
177.37115115779301
 30
0.0
  0
ENDBLK
  5
5A45
  8
0
  0
BLOCK
  8
0
  2
*D175
 70
     1
 10
0.0
 20
0.0
 30
0.0
  3
*D175
  1

  0
LINE
  5
5F0A
  8
DIM
 10
148.2329295277888
 20
150.58155235978899
 30
0.0
 11
130.38485615557829
 21
150.58155235978899
 31
0.0
  0
LINE
  5
5F0B
  8
DIM
 10
148.2329295277888
 20
60.58155235978905
 30
0.0
 11
130.38485615557821
 21
60.58155235978905
 31
0.0
  0
LINE
  5
5F0C
  8
DIM
 10
132.38485615557829
 20
147.58155235978899
 30
0.0
 11
132.38485615557821
 21
63.58155235978905
 31
0.0
  0
SOLID
  5
5F0D
  8
DIM
 10
131.88485615557829
 20
147.58155235978899
 30
0.0
 11
132.88485615557829
 21
147.58155235978899
 31
0.0
 12
132.38485615557829
 22
150.58155235978899
 32
0.0
 13
132.38485615557829
 23
150.58155235978899
 33
0.0
  0
SOLID
  5
5F0E
  8
DIM
 10
131.88485615557829
 20
63.58155235978905
 30
0.0
 11
132.88485615557829
 21
63.58155235978905
 31
0.0
 12
132.38485615557821
 22
60.58155235978905
 32
0.0
 13
132.38485615557821
 23
60.58155235978905
 33
0.0
  0
TEXT
  5
5F0F
  8
0
 10
131.38485615557821
 20
101.7467309312176
 30
0.0
 40
3.0
  1
\U+25A190
 50
90.0
  7
CHINESET
  0
POINT
  5
5F10
  8
DEFPOINTS
 62
     0
 10
151.2329295277888
 20
150.58155235978899
 30
0.0
  0
POINT
  5
5F11
  8
DEFPOINTS
 62
     0
 10
151.2329295277888
 20
60.58155235978905
 30
0.0
  0
POINT
  5
5F12
  8
DEFPOINTS
 62
     0
 10
132.38485615557821
 20
60.58155235978905
 30
0.0
  0
ENDBLK
  5
5A52
  8
0
  0
BLOCK
  8
0
  2
*D176
 70
     1
 10
0.0
 20
0.0
 30
0.0
  3
*D176
  1

  0
LINE
  5
5F01
  8
DIM
 10
154.7386990999731
 20
162.58155235978899
 30
0.0
 11
120.4787211634884
 21
162.58155235978899
 31
0.0
  0
LINE
  5
5F02
  8
DIM
 10
154.7386990999731
 20
48.581552359789029
 30
0.0
 11
120.4787211634884
 21
48.581552359789043
 31
0.0
  0
LINE
  5
5F03
  8
DIM
 10
122.4787211634884
 20
159.58155235978899
 30
0.0
 11
122.4787211634884
 21
51.581552359789043
 31
0.0
  0
SOLID
  5
5F04
  8
DIM
 10
121.9787211634884
 20
159.58155235978899
 30
0.0
 11
122.9787211634884
 21
159.58155235978899
 31
0.0
 12
122.4787211634884
 22
162.58155235978899
 32
0.0
 13
122.4787211634884
 23
162.58155235978899
 33
0.0
  0
SOLID
  5
5F05
  8
DIM
 10
121.9787211634884
 20
51.581552359789043
 30
0.0
 11
122.9787211634884
 21
51.581552359789043
 31
0.0
 12
122.4787211634884
 22
48.581552359789043
 32
0.0
 13
122.4787211634884
 23
48.581552359789043
 33
0.0
  0
TEXT
  5
5F06
  8
0
 10
121.4787211634884
 20
102.2244095026461
 30
0.0
 40
3.0
  1
114
 50
90.0
  7
CHINESET
  0
POINT
  5
5F07
  8
DEFPOINTS
 62
     0
 10
157.7386990999731
 20
162.58155235978899
 30
0.0
  0
POINT
  5
5F08
  8
DEFPOINTS
 62
     0
 10
157.7386990999731
 20
48.581552359789029
 30
0.0
  0
POINT
  5
5F09
  8
DEFPOINTS
 62
     0
 10
122.4787211634884
 20
48.581552359789043
 30
0.0
  0
ENDBLK
  5
5A5F
  8
0
  0
BLOCK
  8
0
  2
*D178
 70
     1
 10
0.0
 20
0.0
 30
0.0
  3
*D178
  1

  0
LINE
  5
5F52
  8
DIM
 10
192.98292952778891
 20
96.041901397203844
 30
0.0
 11
192.98292952778891
 21
38.092512888962681
 31
0.0
  0
LINE
  5
5F53
  8
DIM
 10
219.98292952778891
 20
96.041901397203873
 30
0.0
 11
219.98292952778891
 21
38.092512888962681
 31
0.0
  0
LINE
  5
5F54
  8
DIM
 10
195.982929527789
 20
40.092512888962681
 30
0.0
 11
216.982929527789
 21
40.092512888962681
 31
0.0
  0
SOLID
  5
5F55
  8
DIM
 10
195.982929527789
 20
40.592512888962688
 30
0.0
 11
195.982929527789
 21
39.592512888962681
 31
0.0
 12
192.98292952778891
 22
40.092512888962681
 32
0.0
 13
192.98292952778891
 23
40.092512888962681
 33
0.0
  0
SOLID
  5
5F56
  8
DIM
 10
216.982929527789
 20
40.592512888962688
 30
0.0
 11
216.982929527789
 21
39.592512888962681
 31
0.0
 12
219.98292952778891
 22
40.092512888962681
 32
0.0
 13
219.98292952778891
 23
40.092512888962681
 33
0.0
  0
TEXT
  5
5F57
  8
0
 10
204.0543580992175
 20
41.092512888962688
 30
0.0
 40
3.0
  1
27
  7
CHINESET
  0
POINT
  5
5F58
  8
DEFPOINTS
 62
     0
 10
192.98292952778891
 20
99.041901397203844
 30
0.0
  0
POINT
  5
5F59
  8
DEFPOINTS
 62
     0
 10
219.98292952778891
 20
99.041901397203858
 30
0.0
  0
POINT
  5
5F5A
  8
DEFPOINTS
 62
     0
 10
219.98292952778891
 20
40.092512888962681
 30
0.0
  0
ENDBLK
  5
5AAA
  8
0
  0
BLOCK
  8
0
  2
*D179
 70
     1
 10
0.0
 20
0.0
 30
0.0
  3
*D179
  1

  0
LINE
  5
5EAE
  8
DIM
 10
56.374958703722939
 20
341.60134264985118
 30
0.0
 11
56.374958703722939
 21
352.37540335452559
 31
0.0
  0
LINE
  5
5EAF
  8
DIM
 10
11.37495870372293
 20
341.60134264985118
 30
0.0
 11
11.37495870372293
 21
352.37540335452559
 31
0.0
  0
LINE
  5
5EB0
  8
DIM
 10
53.374958703722932
 20
350.37540335452559
 30
0.0
 11
14.37495870372293
 21
350.37540335452559
 31
0.0
  0
SOLID
  5
5EB1
  8
DIM
 10
53.374958703722932
 20
350.87540335452559
 30
0.0
 11
53.374958703722932
 21
349.87540335452559
 31
0.0
 12
56.374958703722939
 22
350.37540335452559
 32
0.0
 13
56.374958703722939
 23
350.37540335452559
 33
0.0
  0
SOLID
  5
5EB2
  8
DIM
 10
14.37495870372293
 20
350.87540335452559
 30
0.0
 11
14.37495870372293
 21
349.87540335452559
 31
0.0
 12
11.37495870372293
 22
350.37540335452559
 32
0.0
 13
11.37495870372293
 23
350.37540335452559
 33
0.0
  0
TEXT
  5
5EB3
  8
0
 10
31.446387275151508
 20
351.37540335452559
 30
0.0
 40
3.0
  1
45
  7
CHINESET
  0
POINT
  5
5EB4
  8
DEFPOINTS
 62
     0
 10
56.374958703722939
 20
338.60134264985112
 30
0.0
  0
POINT
  5
5EB5
  8
DEFPOINTS
 62
     0
 10
11.37495870372293
 20
338.60134264985112
 30
0.0
  0
POINT
  5
5EB6
  8
DEFPOINTS
 62
     0
 10
11.37495870372293
 20
350.37540335452559
 30
0.0
  0
ENDBLK
  5
5D1F
  8
0
  0
BLOCK
  8
0
  2
*D180
 70
     1
 10
0.0
 20
0.0
 30
0.0
  3
*D180
  1

  0
LINE
  5
5EB7
  8
DIM
 10
56.374958703722939
 20
341.60134264985118
 30
0.0
 11
56.374958703722939
 21
345.19259891739529
 31
0.0
  0
LINE
  5
5EB8
  8
DIM
 10
41.374958703723053
 20
293.89925088478662
 30
0.0
 11
41.374958703723053
 21
345.19259891739529
 31
0.0
  0
LINE
  5
5EB9
  8
DIM
 10
53.374958703722932
 20
343.19259891739529
 30
0.0
 11
44.374958703723053
 21
343.19259891739529
 31
0.0
  0
SOLID
  5
5EBA
  8
DIM
 10
53.374958703722932
 20
343.69259891739517
 30
0.0
 11
53.374958703722932
 21
342.69259891739517
 31
0.0
 12
56.374958703722939
 22
343.19259891739529
 32
0.0
 13
56.374958703722939
 23
343.19259891739529
 33
0.0
  0
SOLID
  5
5EBB
  8
DIM
 10
44.374958703723053
 20
343.69259891739517
 30
0.0
 11
44.374958703723053
 21
342.69259891739517
 31
0.0
 12
41.374958703723053
 22
343.19259891739529
 32
0.0
 13
41.374958703723053
 23
343.19259891739529
 33
0.0
  0
TEXT
  5
5EBC
  8
0
 10
46.73210156086585
 20
344.19259891739517
 30
0.0
 40
3.0
  1
15
  7
CHINESET
  0
POINT
  5
5EBD
  8
DEFPOINTS
 62
     0
 10
56.374958703722939
 20
338.60134264985112
 30
0.0
  0
POINT
  5
5EBE
  8
DEFPOINTS
 62
     0
 10
41.374958703723053
 20
290.89925088478662
 30
0.0
  0
POINT
  5
5EBF
  8
DEFPOINTS
 62
     0
 10
41.374958703723053
 20
343.19259891739529
 30
0.0
  0
ENDBLK
  5
5D2B
  8
0
  0
BLOCK
  8
0
  2
*D181
 70
     1
 10
0.0
 20
0.0
 30
0.0
  3
*D181
  1

  0
LINE
  5
5EDB
  8
DIM
 10
26.374958703722989
 20
293.89925088478662
 30
0.0
 11
26.374958703722989
 21
345.19259891739529
 31
0.0
  0
LINE
  5
5EDC
  8
DIM
 10
11.37495870372293
 20
341.60134264985118
 30
0.0
 11
11.37495870372293
 21
345.19259891739529
 31
0.0
  0
LINE
  5
5EDD
  8
DIM
 10
23.374958703722999
 20
343.19259891739529
 30
0.0
 11
14.37495870372293
 21
343.19259891739529
 31
0.0
  0
SOLID
  5
5EDE
  8
DIM
 10
23.374958703722999
 20
343.69259891739517
 30
0.0
 11
23.374958703722999
 21
342.69259891739517
 31
0.0
 12
26.374958703722989
 22
343.19259891739529
 32
0.0
 13
26.374958703722989
 23
343.19259891739529
 33
0.0
  0
SOLID
  5
5EDF
  8
DIM
 10
14.37495870372293
 20
343.69259891739517
 30
0.0
 11
14.37495870372293
 21
342.69259891739517
 31
0.0
 12
11.37495870372293
 22
343.19259891739529
 32
0.0
 13
11.37495870372293
 23
343.19259891739529
 33
0.0
  0
TEXT
  5
5EE0
  8
0
 10
16.732101560865821
 20
344.19259891739517
 30
0.0
 40
3.0
  1
15
  7
CHINESET
  0
POINT
  5
5EE1
  8
DEFPOINTS
 62
     0
 10
26.374958703722989
 20
290.89925088478662
 30
0.0
  0
POINT
  5
5EE2
  8
DEFPOINTS
 62
     0
 10
11.37495870372293
 20
338.60134264985112
 30
0.0
  0
POINT
  5
5EE3
  8
DEFPOINTS
 62
     0
 10
11.37495870372293
 20
343.19259891739529
 30
0.0
  0
ENDBLK
  5
5D37
  8
0
  0
BLOCK
  8
0
  2
*D182
 70
     1
 10
0.0
 20
0.0
 30
0.0
  3
*D182
  1

  0
LINE
  5
5ED2
  8
DIM
 10
56.374958703722939
 20
341.60134264985118
 30
0.0
 11
56.374958703722939
 21
352.37540335452559
 31
0.0
  0
LINE
  5
5ED3
  8
DIM
 10
98.374958703722996
 20
296.60134264985112
 30
0.0
 11
98.374958703722996
 21
352.37540335452559
 31
0.0
  0
LINE
  5
5ED4
  8
DIM
 10
59.374958703722939
 20
350.37540335452559
 30
0.0
 11
95.374958703722996
 21
350.37540335452559
 31
0.0
  0
SOLID
  5
5ED5
  8
DIM
 10
59.374958703722939
 20
350.87540335452559
 30
0.0
 11
59.374958703722939
 21
349.87540335452559
 31
0.0
 12
56.374958703722939
 22
350.37540335452559
 32
0.0
 13
56.374958703722939
 23
350.37540335452559
 33
0.0
  0
SOLID
  5
5ED6
  8
DIM
 10
95.374958703722996
 20
350.87540335452559
 30
0.0
 11
95.374958703722996
 21
349.87540335452559
 31
0.0
 12
98.374958703722996
 22
350.37540335452559
 32
0.0
 13
98.374958703722996
 23
350.37540335452559
 33
0.0
  0
TEXT
  5
5ED7
  8
0
 10
74.946387275151537
 20
351.37540335452559
 30
0.0
 40
3.0
  1
42
  7
CHINESET
  0
POINT
  5
5ED8
  8
DEFPOINTS
 62
     0
 10
56.374958703722939
 20
338.60134264985112
 30
0.0
  0
POINT
  5
5ED9
  8
DEFPOINTS
 62
     0
 10
98.374958703722996
 20
293.60134264985112
 30
0.0
  0
POINT
  5
5EDA
  8
DEFPOINTS
 62
     0
 10
98.374958703722996
 20
350.37540335452559
 30
0.0
  0
ENDBLK
  5
5D43
  8
0
  0
BLOCK
  8
0
  2
*D183
 70
     1
 10
0.0
 20
0.0
 30
0.0
  3
*D183
  1

  0
LINE
  5
5EC0
  8
DIM
 10
98.374958703722996
 20
296.60134264985112
 30
0.0
 11
98.374958703722996
 21
359.22090538551288
 31
0.0
  0
LINE
  5
5EC1
  8
DIM
 10
11.37495870372293
 20
341.60134264985118
 30
0.0
 11
11.374958703722941
 21
359.22090538551288
 31
0.0
  0
LINE
  5
5EC2
  8
DIM
 10
95.374958703722996
 20
357.22090538551288
 30
0.0
 11
14.374958703722941
 21
357.22090538551288
 31
0.0
  0
SOLID
  5
5EC3
  8
DIM
 10
95.374958703722996
 20
357.72090538551288
 30
0.0
 11
95.374958703722996
 21
356.72090538551288
 31
0.0
 12
98.374958703722996
 22
357.22090538551288
 32
0.0
 13
98.374958703722996
 23
357.22090538551288
 33
0.0
  0
SOLID
  5
5EC4
  8
DIM
 10
14.374958703722941
 20
357.72090538551288
 30
0.0
 11
14.374958703722941
 21
356.72090538551288
 31
0.0
 12
11.374958703722941
 22
357.22090538551288
 32
0.0
 13
11.374958703722941
 23
357.22090538551288
 33
0.0
  0
TEXT
  5
5EC5
  8
0
 10
52.446387275151537
 20
358.22090538551288
 30
0.0
 40
3.0
  1
87
  7
CHINESET
  0
POINT
  5
5EC6
  8
DEFPOINTS
 62
     0
 10
98.374958703722996
 20
293.60134264985112
 30
0.0
  0
POINT
  5
5EC7
  8
DEFPOINTS
 62
     0
 10
11.37495870372293
 20
338.60134264985112
 30
0.0
  0
POINT
  5
5EC8
  8
DEFPOINTS
 62
     0
 10
11.374958703722941
 20
357.22090538551288
 30
0.0
  0
ENDBLK
  5
5D4F
  8
0
  0
BLOCK
  8
0
  2
*D184
 70
     1
 10
0.0
 20
0.0
 30
0.0
  3
*D184
  1

  0
LINE
  5
5E9C
  8
DIM
 10
62.874958703722939
 20
296.60134264985112
 30
0.0
 11
108.3582954167134
 21
296.60134264985112
 31
0.0
  0
LINE
  5
5E9D
  8
DIM
 10
62.874958703722818
 20
266.60134264985118
 30
0.0
 11
108.3582954167134
 21
266.60134264985118
 31
0.0
  0
LINE
  5
5E9E
  8
DIM
 10
106.3582954167134
 20
293.60134264985112
 30
0.0
 11
106.3582954167134
 21
269.60134264985112
 31
0.0
  0
SOLID
  5
5E9F
  8
DIM
 10
105.8582954167134
 20
293.60134264985112
 30
0.0
 11
106.8582954167134
 21
293.60134264985112
 31
0.0
 12
106.3582954167134
 22
296.60134264985112
 32
0.0
 13
106.3582954167134
 23
296.60134264985112
 33
0.0
  0
SOLID
  5
5EA0
  8
DIM
 10
105.8582954167134
 20
269.60134264985112
 30
0.0
 11
106.8582954167134
 21
269.60134264985112
 31
0.0
 12
106.3582954167134
 22
266.60134264985118
 32
0.0
 13
106.3582954167134
 23
266.60134264985118
 33
0.0
  0
INSERT
  5
5EA1
  8
0
  2
*U219
 10
0.0
 20
0.0
 30
0.0
  0
POINT
  5
5EA2
  8
DEFPOINTS
 62
     0
 10
59.874958703722939
 20
296.60134264985112
 30
0.0
  0
POINT
  5
5EA3
  8
DEFPOINTS
 62
     0
 10
59.874958703722818
 20
266.60134264985118
 30
0.0
  0
POINT
  5
5EA4
  8
DEFPOINTS
 62
     0
 10
106.3582954167134
 20
266.60134264985118
 30
0.0
  0
ENDBLK
  5
5D5B
  8
0
  0
BLOCK
  8
0
  2
*D185
 70
     1
 10
0.0
 20
0.0
 30
0.0
  3
*D185
  1

  0
LINE
  5
5EA5
  8
DIM
 10
60.874958703723003
 20
304.10134264985118
 30
0.0
 11
116.7141611309814
 21
304.10134264985118
 31
0.0
  0
LINE
  5
5EA6
  8
DIM
 10
60.874958703723003
 20
259.10134264985112
 30
0.0
 11
116.7141611309814
 21
259.10134264985112
 31
0.0
  0
LINE
  5
5EA7
  8
DIM
 10
114.7141611309814
 20
301.10134264985129
 30
0.0
 11
114.7141611309814
 21
262.10134264985112
 31
0.0
  0
SOLID
  5
5EA8
  8
DIM
 10
114.2141611309814
 20
301.10134264985129
 30
0.0
 11
115.2141611309814
 21
301.10134264985129
 31
0.0
 12
114.7141611309814
 22
304.10134264985118
 32
0.0
 13
114.7141611309814
 23
304.10134264985118
 33
0.0
  0
SOLID
  5
5EA9
  8
DIM
 10
114.2141611309814
 20
262.10134264985112
 30
0.0
 11
115.2141611309814
 21
262.10134264985112
 31
0.0
 12
114.7141611309814
 22
259.10134264985112
 32
0.0
 13
114.7141611309814
 23
259.10134264985112
 33
0.0
  0
INSERT
  5
5EAA
  8
0
  2
*U220
 10
0.0
 20
0.0
 30
0.0
  0
POINT
  5
5EAB
  8
DEFPOINTS
 62
     0
 10
57.874958703723003
 20
304.10134264985118
 30
0.0
  0
POINT
  5
5EAC
  8
DEFPOINTS
 62
     0
 10
57.874958703723003
 20
259.10134264985112
 30
0.0
  0
POINT
  5
5EAD
  8
DEFPOINTS
 62
     0
 10
114.7141611309814
 20
259.10134264985112
 30
0.0
  0
ENDBLK
  5
5D67
  8
0
  0
BLOCK
  8
0
  2
*D186
 70
     1
 10
0.0
 20
0.0
 30
0.0
  3
*D186
  1

  0
LINE
  5
5EE4
  8
DIM
 10
59.374958703722939
 20
257.60134264985112
 30
0.0
 11
59.374958703722939
 21
215.04925316955189
 31
0.0
  0
LINE
  5
5EE5
  8
DIM
 10
56.374958703722939
 20
221.6013426498512
 30
0.0
 11
56.374958703722939
 21
215.04925316955189
 31
0.0
  0
LINE
  5
5EE6
  8
DIM
 10
53.374958703722932
 20
217.04925316955189
 30
0.0
 11
50.374958703722939
 21
217.04925316955189
 31
0.0
  0
LINE
  5
5EE7
  8
DIM
 10
62.374958703722939
 20
217.04925316955189
 30
0.0
 11
70.912901851726929
 21
217.04925316955189
 31
0.0
  0
LINE
  5
5EE8
  8
DIM
 10
56.374958703722939
 20
217.04925316955189
 30
0.0
 11
59.374958703722939
 21
217.04925316955189
 31
0.0
  0
SOLID
  5
5EE9
  8
DIM
 10
53.374958703722932
 20
217.549253169552
 30
0.0
 11
53.374958703722932
 21
216.549253169552
 31
0.0
 12
56.374958703722939
 22
217.04925316955189
 32
0.0
 13
56.374958703722939
 23
217.04925316955189
 33
0.0
  0
SOLID
  5
5EEA
  8
DIM
 10
62.374958703722939
 20
217.549253169552
 30
0.0
 11
62.374958703722939
 21
216.549253169552
 31
0.0
 12
59.374958703722939
 22
217.04925316955189
 32
0.0
 13
59.374958703722939
 23
217.04925316955189
 33
0.0
  0
TEXT
  5
5EEB
  8
0
 10
67.912901851726929
 20
218.049253169552
 30
0.0
 40
3.0
  1
3
  7
CHINESET
  0
POINT
  5
5EEC
  8
DEFPOINTS
 62
     0
 10
59.374958703722939
 20
260.60134264985112
 30
0.0
  0
POINT
  5
5EED
  8
DEFPOINTS
 62
     0
 10
56.374958703722939
 20
224.6013426498512
 30
0.0
  0
POINT
  5
5EEE
  8
DEFPOINTS
 62
     0
 10
56.374958703722939
 20
217.04925316955189
 30
0.0
  0
ENDBLK
  5
5D75
  8
0
  0
BLOCK
  8
0
  2
*D187
 70
     1
 10
0.0
 20
0.0
 30
0.0
  3
*D187
  1

  0
LINE
  5
5E81
  8
DIM
 10
263.48292952778883
 20
333.34557307766681
 30
0.0
 11
263.48292952778883
 21
355.39094144785508
 31
0.0
  0
LINE
  5
5E82
  8
DIM
 10
141.4829295277888
 20
297.60134264985101
 30
0.0
 11
141.4829295277888
 21
355.39094144785508
 31
0.0
  0
LINE
  5
5E83
  8
DIM
 10
260.48292952778883
 20
353.39094144785508
 30
0.0
 11
144.4829295277888
 21
353.39094144785508
 31
0.0
  0
SOLID
  5
5E84
  8
DIM
 10
260.48292952778883
 20
353.89094144785508
 30
0.0
 11
260.48292952778883
 21
352.89094144785508
 31
0.0
 12
263.48292952778883
 22
353.39094144785508
 32
0.0
 13
263.48292952778883
 23
353.39094144785508
 33
0.0
  0
SOLID
  5
5E85
  8
DIM
 10
144.4829295277888
 20
353.89094144785508
 30
0.0
 11
144.4829295277888
 21
352.89094144785508
 31
0.0
 12
141.4829295277888
 22
353.39094144785508
 32
0.0
 13
141.4829295277888
 23
353.39094144785508
 33
0.0
  0
TEXT
  5
5E86
  8
0
 10
198.9115009563603
 20
354.39094144785508
 30
0.0
 40
3.0
  1
122
  7
CHINESET
  0
POINT
  5
5E87
  8
DEFPOINTS
 62
     0
 10
263.48292952778883
 20
330.34557307766681
 30
0.0
  0
POINT
  5
5E88
  8
DEFPOINTS
 62
     0
 10
141.4829295277888
 20
294.60134264985101
 30
0.0
  0
POINT
  5
5E89
  8
DEFPOINTS
 62
     0
 10
141.4829295277888
 20
353.39094144785508
 30
0.0
  0
ENDBLK
  5
5D81
  8
0
  0
BLOCK
  8
0
  2
*D188
 70
     1
 10
0.0
 20
0.0
 30
0.0
  3
*D188
  1

  0
LINE
  5
5E8A
  8
DIM
 10
148.2329295277888
 20
326.60134264985112
 30
0.0
 11
130.38485615557829
 21
326.60134264985112
 31
0.0
  0
LINE
  5
5E8B
  8
DIM
 10
148.2329295277888
 20
236.60134264985109
 30
0.0
 11
130.38485615557821
 21
236.60134264985109
 31
0.0
  0
LINE
  5
5E8C
  8
DIM
 10
132.38485615557829
 20
323.60134264985112
 30
0.0
 11
132.38485615557821
 21
239.6013426498512
 31
0.0
  0
SOLID
  5
5E8D
  8
DIM
 10
131.88485615557829
 20
323.60134264985112
 30
0.0
 11
132.88485615557829
 21
323.60134264985112
 31
0.0
 12
132.38485615557829
 22
326.60134264985112
 32
0.0
 13
132.38485615557829
 23
326.60134264985112
 33
0.0
  0
SOLID
  5
5E8E
  8
DIM
 10
131.88485615557829
 20
239.6013426498512
 30
0.0
 11
132.88485615557829
 21
239.6013426498512
 31
0.0
 12
132.38485615557821
 22
236.60134264985109
 32
0.0
 13
132.38485615557821
 23
236.60134264985109
 33
0.0
  0
TEXT
  5
5E8F
  8
0
 10
131.38485615557821
 20
277.76652122127967
 30
0.0
 40
3.0
  1
\U+25A190
 50
90.0
  7
CHINESET
  0
POINT
  5
5E90
  8
DEFPOINTS
 62
     0
 10
151.2329295277888
 20
326.60134264985112
 30
0.0
  0
POINT
  5
5E91
  8
DEFPOINTS
 62
     0
 10
151.2329295277888
 20
236.60134264985109
 30
0.0
  0
POINT
  5
5E92
  8
DEFPOINTS
 62
     0
 10
132.38485615557821
 20
236.60134264985109
 30
0.0
  0
ENDBLK
  5
5D8D
  8
0
  0
BLOCK
  8
0
  2
*D189
 70
     1
 10
0.0
 20
0.0
 30
0.0
  3
*D189
  1

  0
LINE
  5
5E93
  8
DIM
 10
154.7386990999731
 20
338.60134264985112
 30
0.0
 11
120.4787211634884
 21
338.60134264985118
 31
0.0
  0
LINE
  5
5E94
  8
DIM
 10
154.7386990999731
 20
224.60134264985109
 30
0.0
 11
120.4787211634884
 21
224.60134264985109
 31
0.0
  0
LINE
  5
5E95
  8
DIM
 10
122.4787211634884
 20
335.60134264985118
 30
0.0
 11
122.4787211634884
 21
227.60134264985109
 31
0.0
  0
SOLID
  5
5E96
  8
DIM
 10
121.9787211634884
 20
335.60134264985118
 30
0.0
 11
122.9787211634884
 21
335.60134264985118
 31
0.0
 12
122.4787211634884
 22
338.60134264985118
 32
0.0
 13
122.4787211634884
 23
338.60134264985118
 33
0.0
  0
SOLID
  5
5E97
  8
DIM
 10
121.9787211634884
 20
227.60134264985109
 30
0.0
 11
122.9787211634884
 21
227.60134264985109
 31
0.0
 12
122.4787211634884
 22
224.60134264985109
 32
0.0
 13
122.4787211634884
 23
224.60134264985109
 33
0.0
  0
TEXT
  5
5E98
  8
0
 10
121.4787211634884
 20
278.2441997927084
 30
0.0
 40
3.0
  1
114
 50
90.0
  7
CHINESET
  0
POINT
  5
5E99
  8
DEFPOINTS
 62
     0
 10
157.7386990999731
 20
338.60134264985112
 30
0.0
  0
POINT
  5
5E9A
  8
DEFPOINTS
 62
     0
 10
157.7386990999731
 20
224.60134264985109
 30
0.0
  0
POINT
  5
5E9B
  8
DEFPOINTS
 62
     0
 10
122.4787211634884
 20
224.60134264985109
 30
0.0
  0
ENDBLK
  5
5D99
  8
0
  0
BLOCK
  8
0
  2
*D190
 70
     1
 10
0.0
 20
0.0
 30
0.0
  3
*D190
  1

  0
LINE
  5
5EEF
  8
DIM
 10
192.98292952778891
 20
272.06169168726592
 30
0.0
 11
192.98292952778891
 21
214.11230317902479
 31
0.0
  0
LINE
  5
5EF0
  8
DIM
 10
219.98292952778891
 20
272.06169168726592
 30
0.0
 11
219.98292952778891
 21
214.11230317902479
 31
0.0
  0
LINE
  5
5EF1
  8
DIM
 10
195.982929527789
 20
216.11230317902479
 30
0.0
 11
216.982929527789
 21
216.11230317902479
 31
0.0
  0
SOLID
  5
5EF2
  8
DIM
 10
195.982929527789
 20
216.61230317902479
 30
0.0
 11
195.982929527789
 21
215.61230317902479
 31
0.0
 12
192.98292952778891
 22
216.11230317902479
 32
0.0
 13
192.98292952778891
 23
216.11230317902479
 33
0.0
  0
SOLID
  5
5EF3
  8
DIM
 10
216.982929527789
 20
216.61230317902479
 30
0.0
 11
216.982929527789
 21
215.61230317902479
 31
0.0
 12
219.98292952778891
 22
216.11230317902479
 32
0.0
 13
219.98292952778891
 23
216.11230317902479
 33
0.0
  0
TEXT
  5
5EF4
  8
0
 10
204.0543580992175
 20
217.11230317902479
 30
0.0
 40
3.0
  1
27
  7
CHINESET
  0
POINT
  5
5EF5
  8
DEFPOINTS
 62
     0
 10
192.98292952778891
 20
275.06169168726592
 30
0.0
  0
POINT
  5
5EF6
  8
DEFPOINTS
 62
     0
 10
219.98292952778891
 20
275.06169168726592
 30
0.0
  0
POINT
  5
5EF7
  8
DEFPOINTS
 62
     0
 10
219.98292952778891
 20
216.11230317902479
 30
0.0
  0
ENDBLK
  5
5DA5
  8
0
  0
BLOCK
  8
0
  2
*D191
 70
     1
 10
0.0
 20
0.0
 30
0.0
  3
*D191
  1

  0
LINE
  5
5EC9
  8
DIM
 10
98.374958703722996
 20
296.60134264985112
 30
0.0
 11
98.374958703722996
 21
345.19259891739529
 31
0.0
  0
LINE
  5
5ECA
  8
DIM
 10
68.374958703722996
 20
298.10134264985118
 30
0.0
 11
68.374958703722996
 21
345.19259891739529
 31
0.0
  0
LINE
  5
5ECB
  8
DIM
 10
95.374958703722996
 20
343.19259891739529
 30
0.0
 11
71.374958703722996
 21
343.19259891739529
 31
0.0
  0
SOLID
  5
5ECC
  8
DIM
 10
95.374958703722996
 20
343.69259891739517
 30
0.0
 11
95.374958703722996
 21
342.69259891739517
 31
0.0
 12
98.374958703722996
 22
343.19259891739529
 32
0.0
 13
98.374958703722996
 23
343.19259891739529
 33
0.0
  0
SOLID
  5
5ECD
  8
DIM
 10
71.374958703722996
 20
343.69259891739517
 30
0.0
 11
71.374958703722996
 21
342.69259891739517
 31
0.0
 12
68.374958703722996
 22
343.19259891739529
 32
0.0
 13
68.374958703722996
 23
343.19259891739529
 33
0.0
  0
TEXT
  5
5ECE
  8
0
 10
80.946387275151565
 20
344.19259891739517
 30
0.0
 40
3.0
  1
30
  7
CHINESET
  0
POINT
  5
5ECF
  8
DEFPOINTS
 62
     0
 10
98.374958703722996
 20
293.60134264985112
 30
0.0
  0
POINT
  5
5ED0
  8
DEFPOINTS
 62
     0
 10
68.374958703722996
 20
295.10134264985118
 30
0.0
  0
POINT
  5
5ED1
  8
DEFPOINTS
 62
     0
 10
68.374958703722996
 20
343.19259891739529
 30
0.0
  0
ENDBLK
  5
5E4B
  8
0
  0
BLOCK
  8
0
  2
*U192
 70
     1
 10
0.0
 20
0.0
 30
0.0
  3
*U192
  1

  0
SOLID
  5
5FA5
  8
DIM
  6
CONTINUOUS
 10
0.25
 20
0.0
 30
0.0
 11
0.1767766952966369
 21
0.1767766952966369
 31
0.0
 12
0.1767766952966368
 22
-0.1767766952966369
 32
0.0
 13
0.1767766952966368
 23
-0.1767766952966369
 33
0.0
210
0.0
220
0.0
230
1.0
  0
SOLID
  5
5FA6
  8
DIM
  6
CONTINUOUS
 10
0.0000000000000001
 20
0.25
 30
0.0
 11
0.1767766952966368
 21
-0.1767766952966369
 31
0.0
 12
0.1767766952966369
 22
0.1767766952966369
 32
0.0
 13
0.1767766952966369
 23
0.1767766952966369
 33
0.0
  0
SOLID
  5
5FA7
  8
DIM
  6
CONTINUOUS
 10
0.1767766952966368
 20
-0.1767766952966369
 30
0.0
 11
0.0000000000000001
 21
0.25
 31
0.0
 12
-0.0000000000000001
 22
-0.25
 32
0.0
 13
-0.0000000000000001
 23
-0.25
 33
0.0
  0
SOLID
  5
5FA8
  8
DIM
  6
CONTINUOUS
 10
-0.1767766952966368
 20
0.1767766952966369
 30
0.0
 11
-0.0000000000000001
 21
-0.25
 31
0.0
 12
0.0000000000000001
 22
0.25
 32
0.0
 13
0.0000000000000001
 23
0.25
 33
0.0
  0
SOLID
  5
5FA9
  8
DIM
  6
CONTINUOUS
 10
-0.0000000000000001
 20
-0.25
 30
0.0
 11
-0.1767766952966368
 21
0.1767766952966369
 31
0.0
 12
-0.1767766952966369
 22
-0.1767766952966368
 32
0.0
 13
-0.1767766952966369
 23
-0.1767766952966368
 33
0.0
  0
SOLID
  5
5FAA
  8
DIM
  6
CONTINUOUS
 10
-0.25
 20
0.0
 30
0.0
 11
-0.1767766952966369
 21
-0.1767766952966368
 31
0.0
 12
-0.1767766952966368
 22
0.1767766952966369
 32
0.0
 13
-0.1767766952966368
 23
0.1767766952966369
 33
0.0
210
0.0
220
0.0
230
1.0
  0
ENDBLK
  5
5FAC
  8
0
  0
BLOCK
  8
0
  2
*U193
 70
     1
 10
0.0
 20
0.0
 30
0.0
  3
*U193
  1

  0
TEXT
  5
5FC3
  8
0
 10
124.97224199550639
 20
107.3606501907225
 30
0.0
 40
3.0
  1
\U+2205
 50
90.0
  7
CHINESET
  0
TEXT
  5
5FC4
  8
0
 10
124.97224199550639
 20
110.0749359050082
 30
0.0
 40
3.0
  1
17
 50
90.0
  7
CHINESET
  0
ENDBLK
  5
5FC6
  8
0
  0
BLOCK
  8
0
  2
*U194
 70
     1
 10
0.0
 20
0.0
 30
0.0
  3
*U194
  1

  0
TEXT
  5
5FC8
  8
0
 10
113.90757028880761
 20
107.3606501907224
 30
0.0
 40
3.0
  1
\U+2205
 50
90.0
  7
CHINESET
  0
TEXT
  5
5FC9
  8
0
 10
113.90757028880761
 20
110.0749359050082
 30
0.0
 40
3.0
  1
12
 50
90.0
  7
CHINESET
  0
ENDBLK
  5
5FCB
  8
0
  0
BLOCK
  8
0
  2
*U195
 70
     1
 10
0.0
 20
0.0
 30
0.0
  3
*U195
  1

  0
TEXT
  5
5FCD
  8
0
 10
134.40025475112401
 20
274.53695373977217
 30
0.0
 40
3.0
  1
\U+2205
 50
90.0
  7
CHINESET
  0
TEXT
  5
5FCE
  8
0
 10
134.40025475112401
 20
277.2512394540579
 30
0.0
 40
3.0
  1
17
 50
90.0
  7
CHINESET
  0
ENDBLK
  5
5FD0
  8
0
  0
BLOCK
  8
0
  2
*U196
 70
     1
 10
0.0
 20
0.0
 30
0.0
  3
*U196
  1

  0
TEXT
  5
5FD2
  8
0
 10
126.858006200651
 20
274.53695373977217
 30
0.0
 40
3.0
  1
\U+2205
 50
90.0
  7
CHINESET
  0
TEXT
  5
5FD3
  8
0
 10
126.858006200651
 20
277.2512394540579
 30
0.0
 40
3.0
  1
12
 50
90.0
  7
CHINESET
  0
ENDBLK
  5
5FD5
  8
0
  0
BLOCK
  8
0
  2
*U197
 70
     1
 10
0.0
 20
0.0
 30
0.0
  3
*U197
  1

  0
TEXT
  5
5FD7
  8
0
 10
136.8146621443172
 20
260.1722303594205
 30
0.0
 40
3.0
  1
\U+2205
 50
90.0
  7
CHINESET
  0
TEXT
  5
5FD8
  8
0
 10
136.8146621443172
 20
262.88651607370628
 30
0.0
 40
3.0
  1
16
 50
90.0
  7
CHINESET
  0
ENDBLK
  5
5FDA
  8
0
  0
BLOCK
  8
0
  2
*U198
 70
     1
 10
0.0
 20
0.0
 30
0.0
  3
*U198
  1

  0
TEXT
  5
5FDC
  8
0
 10
144.22564817448841
 20
259.81508750227772
 30
0.0
 40
3.0
  1
\U+2205
 50
90.0
  7
CHINESET
  0
TEXT
  5
5FDD
  8
0
 10
144.22564817448841
 20
262.52937321656339
 30
0.0
 40
3.0
  1
22
 50
90.0
  7
CHINESET
  0
ENDBLK
  5
5FDF
  8
0
  0
BLOCK
  8
0
  2
*U199
 70
     1
 10
0.0
 20
0.0
 30
0.0
  3
*U199
  1

  0
TEXT
  5
5FE1
  8
0
 10
116.0668517486383
 20
117.3724370638688
 30
0.0
 40
3.0
  1
\U+2205
 50
90.0
  7
CHINESET
  0
TEXT
  5
5FE2
  8
0
 10
116.0668517486383
 20
120.0867227781545
 30
0.0
 40
3.0
  1
16
 50
90.0
  7
CHINESET
  0
ENDBLK
  5
5FE4
  8
0
  0
BLOCK
  8
0
  2
*U200
 70
     1
 10
0.0
 20
0.0
 30
0.0
  3
*U200
  1

  0
TEXT
  5
5FE6
  8
0
 10
124.4833895420194
 20
117.015294206726
 30
0.0
 40
3.0
  1
\U+2205
 50
90.0
  7
CHINESET
  0
TEXT
  5
5FE7
  8
0
 10
124.4833895420194
 20
119.72957992101161
 30
0.0
 40
3.0
  1
22
 50
90.0
  7
CHINESET
  0
ENDBLK
  5
5FE9
  8
0
  0
BLOCK
  8
0
  2
*U201
 70
     1
 10
0.0
 20
0.0
 30
0.0
  3
*U201
  1

  0
TEXT
  5
5FEB
  8
0
 10
114.7177579265032
 20
97.713114439560883
 30
0.0
 40
3.0
  1
\U+2205
 50
90.0
  7
CHINESET
  0
TEXT
  5
5FEC
  8
0
 10
114.7177579265032
 20
100.42740015384651
 30
0.0
 40
3.0
  1
16
 50
90.0
  7
CHINESET
  0
ENDBLK
  5
5FEE
  8
0
  0
BLOCK
  8
0
  2
*U202
 70
     1
 10
0.0
 20
0.0
 30
0.0
  3
*U202
  1

  0
TEXT
  5
5FF0
  8
0
 10
123.8613252588372
 20
97.355971582418022
 30
0.0
 40
3.0
  1
\U+2205
 50
90.0
  7
CHINESET
  0
TEXT
  5
5FF1
  8
0
 10
123.8613252588372
 20
100.0702572967037
 30
0.0
 40
3.0
  1
28
 50
90.0
  7
CHINESET
  0
ENDBLK
  5
5FF3
  8
0
  0
BLOCK
  8
0
  2
*U203
 70
     1
 10
0.0
 20
0.0
 30
0.0
  3
*U203
  1

  0
TEXT
  5
5FF5
  8
0
 10
141.47239996973201
 20
277.79291937522407
 30
0.0
 40
3.0
  1
\U+2205
 50
90.0
  7
CHINESET
  0
TEXT
  5
5FF6
  8
0
 10
141.47239996973201
 20
280.5072050895098
 30
0.0
 40
3.0
  1
28
 50
90.0
  7
CHINESET
  0
ENDBLK
  5
5FF8
  8
0
  0
BLOCK
  8
0
  2
*U204
 70
     1
 10
0.0
 20
0.0
 30
0.0
  3
*U204
  1

  0
TEXT
  5
5FFA
  8
0
 10
134.32883263739811
 20
278.15006223236691
 30
0.0
 40
3.0
  1
\U+2205
 50
90.0
  7
CHINESET
  0
TEXT
  5
5FFB
  8
0
 10
134.32883263739811
 20
280.86434794665257
 30
0.0
 40
3.0
  1
16
 50
90.0
  7
CHINESET
  0
ENDBLK
  5
5FFD
  8
0
  0
BLOCK
  8
0
  2
*U205
 70
     1
 10
0.0
 20
0.0
 30
0.0
  3
*U205
  1

  0
TEXT
  5
5FFF
  8
0
 10
117.510950190466
 20
86.015294206725088
 30
0.0
 40
3.0
  1
\U+2205
 50
90.0
  7
CHINESET
  0
TEXT
  5
6000
  8
0
 10
117.510950190466
 20
88.729579921010796
 30
0.0
 40
3.0
  1
38
 50
90.0
  7
CHINESET
  0
ENDBLK
  5
6002
  8
0
  0
BLOCK
  8
0
  2
*U206
 70
     1
 10
0.0
 20
0.0
 30
0.0
  3
*U206
  1

  0
TEXT
  5
6004
  8
0
 10
108.2283793513959
 20
86.015294206725045
 30
0.0
 40
3.0
  1
\U+2205
 50
90.0
  7
CHINESET
  0
TEXT
  5
6005
  8
0
 10
108.2283793513959
 20
88.729579921010753
 30
0.0
 40
3.0
  1
20
 50
90.0
  7
CHINESET
  0
ENDBLK
  5
6007
  8
0
  0
BLOCK
  8
0
  2
*U207
 70
     1
 10
0.0
 20
0.0
 30
0.0
  3
*U207
  1

  0
TEXT
  5
6009
  8
0
 10
133.59561499073371
 20
270.88014321649268
 30
0.0
 40
3.0
  1
\U+2205
 50
90.0
  7
CHINESET
  0
TEXT
  5
600A
  8
0
 10
133.59561499073371
 20
273.59442893077841
 30
0.0
 40
3.0
  1
20
 50
90.0
  7
CHINESET
  0
ENDBLK
  5
600C
  8
0
  0
BLOCK
  8
0
  2
*U208
 70
     1
 10
0.0
 20
0.0
 30
0.0
  3
*U208
  1

  0
TEXT
  5
600E
  8
0
 10
142.79162497570101
 20
270.88014321649268
 30
0.0
 40
3.0
  1
\U+2205
 50
90.0
  7
CHINESET
  0
TEXT
  5
600F
  8
0
 10
142.79162497570101
 20
273.59442893077841
 30
0.0
 40
3.0
  1
38
 50
90.0
  7
CHINESET
  0
ENDBLK
  5
6011
  8
0
  0
BLOCK
  8
0
  2
*U209
 70
     1
 10
0.0
 20
0.0
 30
0.0
  3
*U209
  1

  0
TEXT
  5
6013
  8
0
 10
117.77433848319291
 20
91.554865619900013
 30
0.0
 40
3.0
  1
\U+2205
 50
90.0
  7
CHINESET
  0
TEXT
  5
6014
  8
0
 10
117.77433848319291
 20
94.269151334185736
 30
0.0
 40
3.0
  1
40
 50
90.0
  7
CHINESET
  0
ENDBLK
  5
6016
  8
0
  0
BLOCK
  8
0
  2
*U210
 70
     1
 10
0.0
 20
0.0
 30
0.0
  3
*U210
  1

  0
TEXT
  5
6018
  8
0
 10
109.5400902557522
 20
91.554865619900042
 30
0.0
 40
3.0
  1
\U+2205
 50
90.0
  7
CHINESET
  0
TEXT
  5
6019
  8
0
 10
109.5400902557522
 20
94.26915133418575
 30
0.0
 40
3.0
  1
20
 50
90.0
  7
CHINESET
  0
ENDBLK
  5
601B
  8
0
  0
BLOCK
  8
0
  2
*U211
 70
     1
 10
0.0
 20
0.0
 30
0.0
  3
*U211
  1

  0
TEXT
  5
601D
  8
0
 10
129.01201007084879
 20
273.65515963114427
 30
0.0
 40
3.0
  1
\U+2205
 50
90.0
  7
CHINESET
  0
TEXT
  5
601E
  8
0
 10
129.01201007084879
 20
276.36944534542999
 30
0.0
 40
3.0
  1
40
 50
90.0
  7
CHINESET
  0
ENDBLK
  5
6020
  8
0
  0
BLOCK
  8
0
  2
*U212
 70
     1
 10
0.0
 20
0.0
 30
0.0
  3
*U212
  1

  0
TEXT
  5
6022
  8
0
 10
117.28034123043081
 20
273.65515963114427
 30
0.0
 40
3.0
  1
\U+2205
 50
90.0
  7
CHINESET
  0
TEXT
  5
6023
  8
0
 10
117.28034123043081
 20
276.36944534542999
 30
0.0
 40
3.0
  1
20
 50
90.0
  7
CHINESET
  0
ENDBLK
  5
6025
  8
0
  0
BLOCK
  8
0
  2
*U213
 70
     1
 10
0.0
 20
0.0
 30
0.0
  3
*U213
  1

  0
TEXT
  5
6027
  8
0
 10
113.3347336851604
 20
95.680077671860857
 30
0.0
 40
3.0
  1
\U+2205
 50
90.0
  7
CHINESET
  0
TEXT
  5
6028
  8
0
 10
113.3347336851604
 20
98.394363386146566
 30
0.0
 40
3.0
  1
45
 50
90.0
  7
CHINESET
  0
ENDBLK
  5
602A
  8
0
  0
BLOCK
  8
0
  2
*U214
 70
     1
 10
0.0
 20
0.0
 30
0.0
  3
*U214
  1

  0
TEXT
  5
602C
  8
0
 10
103.4629376789145
 20
95.680077671860914
 30
0.0
 40
3.0
  1
\U+2205
 50
90.0
  7
CHINESET
  0
TEXT
  5
602D
  8
0
 10
103.4629376789145
 20
98.394363386146622
 30
0.0
 40
3.0
  1
25
 50
90.0
  7
CHINESET
  0
ENDBLK
  5
602F
  8
0
  0
BLOCK
  8
0
  2
*U215
 70
     1
 10
0.0
 20
0.0
 30
0.0
  3
*U215
  1

  0
TEXT
  5
6031
  8
0
 10
125.9794920942596
 20
272.56259844469662
 30
0.0
 40
3.0
  1
\U+2205
 50
90.0
  7
CHINESET
  0
TEXT
  5
6032
  8
0
 10
125.9794920942596
 20
275.27688415898228
 30
0.0
 40
3.0
  1
45
 50
90.0
  7
CHINESET
  0
ENDBLK
  5
6034
  8
0
  0
BLOCK
  8
0
  2
*U216
 70
     1
 10
0.0
 20
0.0
 30
0.0
  3
*U216
  1

  0
TEXT
  5
6036
  8
0
 10
119.3988952313033
 20
272.56259844469668
 30
0.0
 40
3.0
  1
\U+2205
 50
90.0
  7
CHINESET
  0
TEXT
  5
6037
  8
0
 10
119.3988952313033
 20
275.2768841589824
 30
0.0
 40
3.0
  1
25
 50
90.0
  7
CHINESET
  0
ENDBLK
  5
6039
  8
0
  0
BLOCK
  8
0
  2
*U217
 70
     1
 10
0.0
 20
0.0
 30
0.0
  3
*U217
  1

  0
TEXT
  5
603B
  8
0
 10
203.79760883139559
 20
201.41925474995421
 30
0.0
 40
3.0
  1
沉孔
  7
CHINESET
  0
TEXT
  5
603C
  8
0
 10
209.79760883139559
 20
201.41925474995421
 30
0.0
 40
3.0
  1
\U+2205
  7
CHINESET
  0
TEXT
  5
603D
  8
0
 10
212.5118945456814
 20
201.41925474995421
 30
0.0
 40
3.0
  1
18.5*13深
  7
CHINESET
  0
TEXT
  5
603E
  8
0
 10
208.44939454568129
 20
196.41925474995421
 30
0.0
 40
3.0
  1
M14*2*15L
  7
CHINESET
  0
TEXT
  5
603F
  8
0
 10
214.16368025996701
 20
191.41925474995421
 30
0.0
 40
3.0
  1
\U+2205
  7
CHINESET
  0
TEXT
  5
6040
  8
0
 10
216.8779659742527
 20
191.41925474995421
 30
0.0
 40
3.0
  1
12.3貫通
  7
CHINESET
  0
ENDBLK
  5
6042
  8
0
  0
BLOCK
  8
0
  2
*U218
 70
     1
 10
0.0
 20
0.0
 30
0.0
  3
*U218
  1

  0
TEXT
  5
6044
  8
0
 10
203.79760883139559
 20
377.43904504001642
 30
0.0
 40
3.0
  1
沉孔
  7
CHINESET
  0
TEXT
  5
6045
  8
0
 10
209.79760883139559
 20
377.43904504001642
 30
0.0
 40
3.0
  1
\U+2205
  7
CHINESET
  0
TEXT
  5
6046
  8
0
 10
212.5118945456814
 20
377.43904504001642
 30
0.0
 40
3.0
  1
18.5*13深
  7
CHINESET
  0
TEXT
  5
6047
  8
0
 10
208.44939454568129
 20
372.43904504001642
 30
0.0
 40
3.0
  1
M14*2*15L
  7
CHINESET
  0
TEXT
  5
6048
  8
0
 10
214.16368025996701
 20
367.43904504001642
 30
0.0
 40
3.0
  1
\U+2205
  7
CHINESET
  0
TEXT
  5
6049
  8
0
 10
216.8779659742527
 20
367.43904504001642
 30
0.0
 40
3.0
  1
12.3貫通
  7
CHINESET
  0
ENDBLK
  5
604B
  8
0
  0
BLOCK
  8
0
  2
*U219
 70
     1
 10
0.0
 20
0.0
 30
0.0
  3
*U219
  1

  0
TEXT
  5
604D
  8
0
 10
105.3582954167133
 20
277.8156283641369
 30
0.0
 40
3.0
  1
\U+2205
 50
90.0
  7
CHINESET
  0
TEXT
  5
604E
  8
0
 10
105.3582954167133
 20
280.52991407842262
 30
0.0
 40
3.0
  1
30
 50
90.0
  7
CHINESET
  0
ENDBLK
  5
6050
  8
0
  0
BLOCK
  8
0
  2
*U220
 70
     1
 10
0.0
 20
0.0
 30
0.0
  3
*U220
  1

  0
TEXT
  5
6052
  8
0
 10
113.7141611309814
 20
277.8156283641369
 30
0.0
 40
3.0
  1
\U+2205
 50
90.0
  7
CHINESET
  0
TEXT
  5
6053
  8
0
 10
113.7141611309814
 20
280.52991407842262
 30
0.0
 40
3.0
  1
45
 50
90.0
  7
CHINESET
  0
ENDBLK
  5
6055
  8
0
  0
BLOCK
  8
0
  2
*U221
 70
     1
 10
0.0
 20
0.0
 30
0.0
  3
*U221
  1

  0
TEXT
  5
6057
  8
0
 10
93.486251905208505
 20
101.79583807407469
 30
0.0
 40
3.0
  1
\U+2205
 50
90.0
  7
CHINESET
  0
TEXT
  5
6058
  8
0
 10
93.486251905208505
 20
104.5101237883604
 30
0.0
 40
3.0
  1
45
 50
90.0
  7
CHINESET
  0
ENDBLK
  5
605A
  8
0
  0
BLOCK
  8
0
  2
*U222
 70
     1
 10
0.0
 20
0.0
 30
0.0
  3
*U222
  1

  0
TEXT
  5
605C
  8
0
 10
85.130386190940484
 20
101.79583807407469
 30
0.0
 40
3.0
  1
\U+2205
 50
90.0
  7
CHINESET
  0
TEXT
  5
605D
  8
0
 10
85.130386190940484
 20
104.5101237883604
 30
0.0
 40
3.0
  1
30
 50
90.0
  7
CHINESET
  0
ENDBLK
  5
605F
  8
0
  0
ENDSEC
  0
SECTION
  2
ENTITIES
  0
LINE
  5
17B4
  8
0
 62
     4
 10
271.62778414727939
 20
34.879980365997589
 30
0.0
 11
271.62778414727939
 21
388.84502543304069
 31
0.0
  0
LINE
  5
17B5
  8
0
 62
     4
 10
-0.4706550713615343
 20
34.879980365997568
 30
0.0
 11
-0.4706550713615343
 21
388.84502543304069
 31
0.0
  0
TEXT
  5
17BD
  8
LOGO
  6
CONTINUOUS
 62
     7
 10
163.69825132539091
 20
23.034038983233501
 30
0.0
 40
5.8895766064640922
  1
11/12
  7
CHINESET
 72
     1
 11
175.47740453831901
 21
25.978827286465538
 31
0.0
 73
     2
  0
TEXT
  5
17BE
  8
LOGO
 62
     6
 10
166.10316177303039
 20
9.0864173068217529
 30
0.0
 40
4.7116612851712727
  1
作動型式
  7
CHINESET
 72
     4
 11
175.47740453831901
 21
11.32167394014119
 31
0.0
  0
LINE
  5
17BF
  8
0
 62
     4
 10
271.62778414727939
 20
211.86250289951909
 30
0.0
 11
-0.4706550713615343
 21
211.8625028995192
 31
0.0
  0
LINE
  5
17C0
  8
0
 62
     4
 10
271.62778414727939
 20
34.879980365997568
 30
0.0
 11
-0.4706550713615343
 21
34.879980365997568
 31
0.0
  0
LINE
  5
17C1
  8
LOGO
 62
     1
 10
271.62778414727939
 20
-0.4574792727869835
 30
0.0
 11
-0.4706550713615343
 21
-0.4574792727869835
 31
0.0
  0
LINE
  5
17C2
  8
LOGO
 62
     1
 10
271.62778414727939
 20
34.879980365997568
 30
0.0
 11
-0.4706550713615343
 21
34.879980365997568
 31
0.0
  0
TEXT
  5
17C3
  8
LOGO
  6
CONTINUOUS
 62
     6
 10
162.85688323875311
 20
4.4505012325997582
 30
0.0
 40
2.9447883032320461
  1
Acting type
  7
CHINESET
 72
     4
 11
175.47740453831901
 21
5.4320973336771061
 31
0.0
  0
LINE
  5
17C4
  8
LOGO
 62
     6
 10
188.4671036928595
 20
20.744996510483741
 30
0.0
 11
162.48770538377869
 21
20.744996510483741
 31
0.0
  0
LINE
  5
17C5
  8
LOGO
 62
     6
 10
188.4671036928595
 20
15.444377564666061
 30
0.0
 11
162.48770538377869
 21
15.444377564666061
 31
0.0
  0
LINE
  5
17C6
  8
LOGO
 62
     6
 10
188.4671036928595
 20
2.4873090304450609
 30
0.0
 11
162.48770538377869
 21
2.487309030445032
 31
0.0
  0
LINE
  5
17C7
  8
LOGO
 62
     6
 10
188.4671036928595
 20
31.346234402119169
 30
0.0
 11
162.48770538377869
 21
31.346234402119102
 31
0.0
  0
TEXT
  5
17C8
  8
LOGO
 62
     6
 10
29.937965144888349
 20
15.444377564666061
 30
0.0
 40
3.5337459638784541
  1
單位 Unit:
 41
0.9
  7
CHINESET
 72
     4
 11
39.578465852594263
 21
17.211250546605289
 31
0.0
  0
TEXT
  5
17C9
  8
LOGO
 62
     6
 10
29.592478374312741
 20
22.561577287108442
 30
0.0
 40
3.5337459638784541
  1
投影 View:
 41
0.9
  7
CHINESET
 72
     4
 11
39.578465852594263
 21
24.2787424743622
 31
0.0
  0
TEXT
  5
17CA
  8
LOGO
 62
     6
 10
28.35724485211772
 20
29.581100468390449
 30
0.0
 40
3.5337459638784541
  1
比例 Scale:
 41
0.9
  7
CHINESET
 72
     4
 11
39.578465852594263
 21
31.346234402119102
 31
0.0
  0
TEXT
  5
17CB
  8
LOGO
  6
CONTINUOUS
 62
     5
 10
0.6859996467579778
 20
6.4845113443758029
 30
0.0
 40
5.300618945817682
  1
金器工業股份有限公司
 41
0.8
  7
LOGO
  0
TEXT
  5
17CC
  8
LOGO
  6
CONTINUOUS
 62
     5
 10
2.2037772099880608
 20
1.182853892829314
 30
0.0
 40
3.5337459638784541
  1
MINDMAN INDUSTRIAL CO.,LTD
 41
0.85
  7
CHINESET
  0
LINE
  5
17CD
  8
LOGO
 62
     1
 10
77.271756133964459
 20
13.67750458272686
 30
0.0
 11
-0.4706550713615343
 21
13.67750458272686
 31
0.0
  0
LINE
  5
17CE
  8
LOGO
 62
     1
 10
77.271756133964459
 20
20.744996510483741
 30
0.0
 11
25.443481997080418
 21
20.744996510483741
 31
0.0
  0
LINE
  5
17CF
  8
LOGO
 62
     1
 10
77.271756133964459
 20
27.812488438240649
 30
0.0
 11
25.443481997080418
 21
27.812488438240649
 31
0.0
  0
SOLID
  5
17D0
  8
LOGO
 62
     2
 10
4.723562107758652
 20
19.551854258544491
 30
0.0
 11
5.3557961888438959
 21
19.551854258544999
 31
0.0
 12
12.62648812131215
 22
34.040551950058479
 32
0.0
 13
13.25872220239693
 23
34.040551950058479
 33
0.0
  0
SOLID
  5
17D1
  8
LOGO
 62
     5
 10
5.3557961888438959
 20
19.551854258544999
 30
0.0
 11
6.8836952181305833
 21
19.551854258544999
 31
0.0
 12
12.62648812131215
 22
32.881456134737803
 32
0.0
 13
11.09858909202546
 23
27.279159694018681
 33
0.0
  0
SOLID
  5
17D2
  8
LOGO
 62
     5
 10
3.1956630784718518
 20
19.551854258544999
 30
0.0
 11
4.723562107758652
 21
19.551854258544491
 31
0.0
 12
11.09858909202546
 22
34.040551950059488
 32
0.0
 13
12.62648812131215
 23
34.040551950058479
 33
0.0
  0
LINE
  5
17D3
  8
LOGO
 62
     1
 10
-0.4706550713615343
 20
-0.4574792727869835
 30
0.0
 11
-0.4706550713615343
 21
34.879980365997568
 31
0.0
  0
SOLID
  5
17D4
  8
LOGO
 62
     5
 10
0.7460662477864162
 20
14.2832369161765
 30
0.0
 11
1.272927982023929
 21
14.2832369161765
 31
0.0
 12
2.7566116332748152
 22
16.9175455873605
 32
0.0
 13
3.2834733675113048
 23
16.9175455873605
 33
0.0
  0
SOLID
  5
17D5
  8
LOGO
 62
     5
 10
4.7671570187637817
 20
16.9175455873605
 30
0.0
 11
5.2940187530001586
 21
16.9175455873605
 31
0.0
 12
4.7671570187637817
 22
14.2832369161765
 32
0.0
 13
5.2940187530001586
 23
14.2832369161765
 33
0.0
  0
SOLID
  5
17D6
  8
LOGO
 62
     5
 10
2.7566116332748152
 20
14.2832369161765
 30
0.0
 11
3.2834733675113048
 21
14.2832369161765
 31
0.0
 12
4.7671570187637817
 22
16.9175455873605
 32
0.0
 13
5.2940187530001586
 23
16.9175455873605
 33
0.0
  0
SOLID
  5
17D7
  8
LOGO
 62
     5
 10
2.7566116332748152
 20
16.9175455873605
 30
0.0
 11
3.2834733675113048
 21
16.9175455873605
 31
0.0
 12
2.7566116332748152
 22
14.2832369161765
 32
0.0
 13
3.2834733675113048
 23
14.2832369161765
 33
0.0
  0
SOLID
  5
17D8
  8
LOGO
 62
     5
 10
8.6398307506885885
 20
15.86382211888669
 30
0.0
 11
9.1666924849258749
 21
15.86382211888669
 31
0.0
 12
8.6398307506885885
 22
14.2832369161765
 32
0.0
 13
9.1666924849258749
 23
14.2832369161765
 33
0.0
  0
SOLID
  5
17D9
  8
LOGO
 62
     5
 10
7.059245547978434
 20
16.9175455873605
 30
0.0
 11
7.5861072822148108
 21
16.9175455873605
 31
0.0
 12
7.059245547978434
 22
14.2832369161765
 32
0.0
 13
7.5861072822148108
 23
14.2832369161765
 33
0.0
  0
POLYLINE
  5
17DA
  8
LOGO
 62
     5
 66
     1
 10
0.0
 20
0.0
 30
0.0
 40
0.5277060639391827
 41
0.5277060639391827
  0
VERTEX
  5
5FAD
  8
LOGO
 62
     5
 10
8.9045281123605946
 20
15.86382211888669
 30
0.0
 42
1.0
  0
VERTEX
  5
5FAE
  8
LOGO
 62
     5
 10
7.3214099205430321
 20
15.86382211888669
 30
0.0
 42
1.0
  0
SEQEND
  5
5FAF
  8
LOGO
 62
     5
  0
SOLID
  5
17DB
  8
LOGO
 62
     5
 10
5.9176942284068437
 20
16.9175455873605
 30
0.0
 11
6.444555962644813
 21
16.9175455873605
 31
0.0
 12
5.9176942284068437
 22
14.28323691617549
 32
0.0
 13
6.444555962644813
 23
14.2832369161765
 33
0.0
  0
SOLID
  5
17DC
  8
LOGO
 62
     5
 10
5.9176942284068437
 20
17.286348801326071
 30
0.0
 11
6.444555962644813
 21
17.286348801326071
 31
0.0
 12
5.9176942284068437
 22
17.707838188716082
 32
0.0
 13
6.444555962644813
 23
17.707838188716082
 33
0.0
  0
LINE
  5
17DD
  8
LOGO
 62
     1
 10
25.443481997080418
 20
13.67750458272684
 30
0.0
 11
25.443481997080418
 21
34.879980365997568
 31
0.0
  0
POLYLINE
  5
17DE
  8
LOGO
 62
     5
 66
     1
 10
0.0
 20
0.0
 30
0.0
 70
     1
 40
0.5277060639391827
 41
0.5277060639391827
  0
VERTEX
  5
5FB0
  8
LOGO
 62
     5
 10
17.594896945657631
 20
15.60039125176824
 30
0.0
 42
1.0
  0
VERTEX
  5
5FB1
  8
LOGO
 62
     5
 10
19.705721201414349
 20
15.60039125176824
 30
0.0
 42
1.0
  0
SEQEND
  5
5FB2
  8
LOGO
 62
     5
  0
CIRCLE
  5
17DF
  8
LOGO
 62
     5
 10
18.65030907353627
 20
15.600391251768491
 30
0.0
 40
0.7902926013553202
  0
POLYLINE
  5
17E0
  8
LOGO
 62
     5
 66
     1
 10
0.0
 20
0.0
 30
0.0
 70
     1
  0
VERTEX
  5
5FB3
  8
LOGO
 62
     5
 10
17.860016472180849
 20
15.600391251768491
 30
0.0
 42
1.0000000573306349
  0
VERTEX
  5
5FB4
  8
LOGO
 62
     5
 10
19.440601674891809
 20
15.600391251768491
 30
0.0
 42
1.0000000573306349
  0
SEQEND
  5
5FB5
  8
LOGO
 62
     5
  0
POLYLINE
  5
17E1
  8
LOGO
 62
     5
 66
     1
 10
0.0
 20
0.0
 30
0.0
 40
0.5277060639391827
 41
0.5277060639391827
  0
VERTEX
  5
5FB6
  8
LOGO
 62
     5
 10
14.87566289116125
 20
15.86382211888669
 30
0.0
 42
1.0
  0
VERTEX
  5
5FB7
  8
LOGO
 62
     5
 10
13.29254469934358
 20
15.86382211888669
 30
0.0
 42
1.0
  0
SEQEND
  5
5FB8
  8
LOGO
 62
     5
  0
SOLID
  5
17E2
  8
LOGO
 62
     5
 10
13.03038032677909
 20
16.9175455873605
 30
0.0
 11
13.557242061015581
 21
16.9175455873605
 31
0.0
 12
13.03038032677909
 22
14.2832369161765
 32
0.0
 13
13.557242061015581
 23
14.2832369161765
 33
0.0
  0
SOLID
  5
17E3
  8
LOGO
 62
     5
 10
11.88882900720761
 20
17.707838188716082
 30
0.0
 11
12.41569074144399
 21
17.707838188716082
 31
0.0
 12
11.88882900720761
 22
14.2832369161765
 32
0.0
 13
12.41569074144399
 23
14.2832369161765
 33
0.0
  0
POLYLINE
  5
17E4
  8
LOGO
 62
     5
 66
     1
 10
0.0
 20
0.0
 30
0.0
 70
     1
 40
0.5277060639391827
 41
0.5277060639391827
  0
VERTEX
  5
5FB9
  8
LOGO
 62
     5
 10
10.043176964146699
 20
15.60039125176824
 30
0.0
 42
1.0
  0
VERTEX
  5
5FBA
  8
LOGO
 62
     5
 10
12.154001219903421
 20
15.60039125176824
 30
0.0
 42
1.0
  0
SEQEND
  5
5FBB
  8
LOGO
 62
     5
  0
SOLID
  5
17E5
  8
LOGO
 62
     5
 10
16.19155073219963
 20
15.86382211888669
 30
0.0
 11
16.718412466436
 21
15.86382211888669
 31
0.0
 12
16.19155073219963
 22
14.28323691617549
 32
0.0
 13
16.718412466436
 23
14.28323691617549
 33
0.0
  0
SOLID
  5
17E6
  8
LOGO
 62
     5
 10
14.610965529489359
 20
15.86382211888669
 30
0.0
 11
15.13782726372574
 21
15.86382211888669
 31
0.0
 12
14.610965529489359
 22
14.2832369161765
 32
0.0
 13
15.13782726372574
 23
14.2832369161765
 33
0.0
  0
POLYLINE
  5
17E7
  8
LOGO
 62
     5
 66
     1
 10
0.0
 20
0.0
 30
0.0
 40
0.5277060639391827
 41
0.5277060639391827
  0
VERTEX
  5
5FBC
  8
LOGO
 62
     5
 10
16.456248093871409
 20
15.86382211888669
 30
0.0
 42
1.0
  0
VERTEX
  5
5FBD
  8
LOGO
 62
     5
 10
14.87312990205384
 20
15.86382211888669
 30
0.0
 42
1.0
  0
SEQEND
  5
5FBE
  8
LOGO
 62
     5
  0
POLYLINE
  5
17E8
  8
LOGO
 62
     5
 66
     1
 10
0.0
 20
0.0
 30
0.0
 40
0.5277060639391827
 41
0.5277060639391827
  0
VERTEX
  5
5FBF
  8
LOGO
 62
     5
 10
22.42738287267218
 20
15.86382211888669
 30
0.0
 42
1.0
  0
VERTEX
  5
5FC0
  8
LOGO
 62
     5
 10
20.844264680854621
 20
15.86382211888669
 30
0.0
 42
1.0
  0
SEQEND
  5
5FC1
  8
LOGO
 62
     5
  0
SOLID
  5
17E9
  8
LOGO
 62
     5
 10
20.582100308289
 20
14.2832369161765
 30
0.0
 11
21.1089620425264
 21
14.2832369161765
 31
0.0
 12
20.582100308289
 22
16.9175455873605
 32
0.0
 13
21.1089620425264
 23
16.9175455873605
 33
0.0
  0
SOLID
  5
17EA
  8
LOGO
 62
     5
 10
19.440548988719112
 20
16.9175455873605
 30
0.0
 11
19.967410722955488
 21
16.9175455873605
 31
0.0
 12
19.440548988719112
 22
14.2832369161765
 32
0.0
 13
19.967410722955488
 23
14.2832369161765
 33
0.0
  0
SOLID
  5
17EB
  8
LOGO
 62
     5
 10
22.162685511000291
 20
15.86382211888669
 30
0.0
 11
22.68954724523666
 21
15.863822118886601
 31
0.0
 12
22.162685511000291
 22
14.2832369161765
 32
0.0
 13
22.68954724523666
 23
14.2832369161765
 33
0.0
  0
LINE
  5
17EC
  8
LOGO
 62
     5
 10
22.68954724523666
 20
14.2832369161765
 30
0.0
 11
22.68954724523666
 21
15.86382211888669
 31
0.0
  0
SOLID
  5
17ED
  8
LOGO
 62
     2
 10
20.529414134865188
 20
34.040551950059488
 30
0.0
 11
21.16164821594986
 21
34.040551950058479
 31
0.0
 12
20.529414134865188
 22
19.551854258544491
 32
0.0
 13
21.16164821594986
 23
19.551854258544491
 33
0.0
  0
SOLID
  5
17EE
  8
LOGO
 62
     5
 10
21.16164821594986
 20
19.551854258544491
 30
0.0
 11
22.68954724523666
 21
19.551854258544491
 31
0.0
 12
21.16164821594986
 22
34.040551950058479
 32
0.0
 13
22.68954724523666
 23
34.040551950059488
 33
0.0
  0
SOLID
  5
17EF
  8
LOGO
 62
     5
 10
20.529414134865188
 20
32.881456134737803
 30
0.0
 11
19.001515105578271
 21
27.279159694018681
 31
0.0
 12
20.529414134865188
 22
19.551854258544491
 32
0.0
 13
19.001515105578271
 23
19.551854258544491
 33
0.0
  0
SOLID
  5
17F0
  8
LOGO
 62
     2
 10
12.62648812131215
 20
34.040551950058479
 30
0.0
 11
13.25872220239693
 21
34.040551950058479
 31
0.0
 12
12.62648812131215
 22
19.551854258544999
 32
0.0
 13
13.25872220239693
 23
19.551854258544999
 33
0.0
  0
SOLID
  5
17F1
  8
LOGO
 62
     5
 10
13.25872220239693
 20
34.040551950058479
 30
0.0
 11
14.78662123168351
 21
34.040551950059488
 31
0.0
 12
13.25872220239693
 22
20.710950073865671
 32
0.0
 13
14.78662123168351
 23
26.313246514584801
 33
0.0
  0
SOLID
  5
17F2
  8
LOGO
 62
     5
 10
11.09858909202546
 20
19.551854258544999
 30
0.0
 11
12.62648812131215
 21
19.551854258544999
 31
0.0
 12
11.09858909202546
 22
27.279159694018681
 32
0.0
 13
12.62648812131215
 23
32.881456134737803
 33
0.0
  0
SOLID
  5
17F3
  8
LOGO
 62
     2
 10
12.62648812131215
 20
19.551854258544999
 30
0.0
 11
13.25872220239693
 21
19.551854258544999
 31
0.0
 12
20.529414134865188
 22
34.040551950059488
 32
0.0
 13
21.16164821594986
 23
34.040551950058479
 33
0.0
  0
SOLID
  5
17F4
  8
LOGO
 62
     5
 10
13.25872220239693
 20
19.551854258544999
 30
0.0
 11
14.78662123168351
 21
19.551854258544999
 31
0.0
 12
20.529414134865188
 22
32.881456134737803
 32
0.0
 13
19.001515105578271
 23
27.279159694018681
 33
0.0
  0
SOLID
  5
17F5
  8
LOGO
 62
     5
 10
13.25872220239693
 20
20.710950073865671
 30
0.0
 11
14.78662123168351
 21
26.313246514584801
 31
0.0
 12
20.529414134865188
 22
34.040551950059488
 32
0.0
 13
19.001515105578271
 23
34.040551950059488
 33
0.0
  0
TEXT
  5
17F6
  8
LOGO
 62
     7
 10
80.164299941821128
 20
26.032284144108409
 30
0.0
 40
7.067491927756909
  1
訂購代號:
  7
CHINESET
  0
TEXT
  5
17F7
  8
LOGO
 62
     7
 10
79.318988943407817
 20
19.399240616504478
 30
0.0
 40
4.7116612851712727
  1
Order example:
 41
0.8
  7
CHINESET
  0
LINE
  5
17F8
  8
LOGO
 62
     1
 10
53.713449708108101
 20
13.67750458272684
 30
0.0
 11
53.713449708108101
 21
34.879980365997568
 31
0.0
  0
TEXT
  5
17F9
  8
LOGO
 62
     6
 10
59.014651321760851
 20
15.444377564666061
 30
0.0
 40
3.5337459638784541
  1
m/m
  7
CHINESET
 72
     1
 11
65.240775162880027
 21
17.211250546605289
 31
0.0
 73
     2
  0
CIRCLE
  5
17FA
  8
LOGO
  6
CONTINUOUS
 62
     6
 10
60.25662235418735
 20
24.28630118283823
 30
0.0
 40
2.0517760816317989
  0
TEXT
  5
17FB
  8
LOGO
 62
     6
 10
59.014651321760851
 20
29.579361420179879
 30
0.0
 40
3.5337459638784541
  1
1 : 1
  7
CHINESET
 72
     1
 11
65.240775162880027
 21
31.346234402119102
 31
0.0
 73
     2
  0
LINE
  5
17FC
  8
LOGO
  6
CONTINUOUS
 62
     6
 10
66.718021090841376
 20
23.084142032461941
 30
0.0
 11
73.150221329190458
 21
22.23452510120644
 31
0.0
  0
LINE
  5
17FD
  8
LOGO
  6
CONTINUOUS
 62
     6
 10
66.718021090841376
 20
25.48846033321454
 30
0.0
 11
73.150221329190458
 21
26.33807726447003
 31
0.0
  0
LINE
  5
17FE
  8
LOGO
 62
     6
 10
66.718021090841489
 20
23.084142032461941
 30
0.0
 11
66.718021090841376
 21
25.488460333214562
 31
0.0
  0
CIRCLE
  5
17FF
  8
LOGO
  6
CONTINUOUS
 62
     6
 10
60.25662235418735
 20
24.28630118283823
 30
0.0
 40
1.2021591503763029
  0
LINE
  5
1800
  8
LOGO
 62
     6
 10
73.150221329190458
 20
22.23452510120644
 30
0.0
 11
73.150221329190458
 21
26.33807726447003
 31
0.0
  0
LINE
  5
1801
  8
LOGO
 62
     1
 10
77.271756133964459
 20
-0.4574792727869835
 30
0.0
 11
77.271756133964459
 21
34.879980365997568
 31
0.0
  0
LINE
  5
1802
  8
LOGO
 62
     6
 10
151.79100057947829
 20
15.444377564666061
 30
0.0
 11
128.23269415362191
 21
15.444377564666061
 31
0.0
  0
TEXT
  5
1803
  8
LOGO
  6
CONTINUOUS
 62
     7
 10
129.49474628357851
 20
23.100827153069378
 30
0.0
 40
5.8895766064640922
  1
MCJT
  7
CHINESET
 72
     1
 11
140.01184736655011
 21
26.04561545630143
 31
0.0
 73
     2
  0
LINE
  5
1804
  8
LOGO
 62
     6
 10
151.79100057947829
 20
2.4873090304450609
 30
0.0
 11
128.23269415362191
 21
2.487309030445032
 31
0.0
  0
TEXT
  5
1805
  8
LOGO
  6
CONTINUOUS
 62
     6
 10
134.4027267889652
 20
3.959703182061082
 30
0.0
 40
2.9447883032320461
  1
Model
  7
CHINESET
 72
     4
 11
140.01184736655011
 21
5.4320973336771061
 31
0.0
  0
TEXT
  5
1806
  8
LOGO
 62
     6
 10
135.3001860813788
 20
9.0864173068217529
 30
0.0
 40
4.7116612851712727
  1
型式
  7
CHINESET
 72
     4
 11
140.01184736655011
 21
11.32167394014119
 31
0.0
  0
LINE
  5
1807
  8
LOGO
 62
     6
 10
154.14683122206389
 20
20.744996510483741
 30
0.0
 11
125.8768635110363
 21
20.744996510483741
 31
0.0
  0
LINE
  5
1808
  8
LOGO
 62
     6
 10
154.14683122206389
 20
31.346234402119102
 30
0.0
 11
125.8768635110363
 21
31.346234402119102
 31
0.0
  0
LINE
  5
1809
  8
LOGO
 62
     6
 10
140.01184736655011
 20
20.744996510483741
 30
0.0
 11
140.01184736655011
 21
15.444377564666061
 31
0.0
  0
LINE
  5
180A
  8
LOGO
 62
     6
 10
128.23269415362191
 20
15.444377564666061
 30
0.0
 11
128.23269415362191
 21
2.487309030445032
 31
0.0
  0
LINE
  5
180B
  8
LOGO
 62
     6
 10
125.8768635110363
 20
31.346234402119102
 30
0.0
 11
125.8768635110363
 21
20.744996510483741
 31
0.0
  0
LINE
  5
180C
  8
LOGO
 62
     6
 10
151.79100057947829
 20
15.444377564666061
 30
0.0
 11
151.79100057947829
 21
2.4873090304450609
 31
0.0
  0
LINE
  5
180D
  8
LOGO
 62
     6
 10
162.48770538377869
 20
15.444377564666061
 30
0.0
 11
162.48770538377869
 21
2.4873090304450609
 31
0.0
  0
LINE
  5
180E
  8
LOGO
  6
CONTINUOUS
 62
     7
 10
155.97326519014899
 20
26.008064196297649
 30
0.0
 11
160.65438502111289
 21
26.008064196297649
 31
0.0
  0
LINE
  5
180F
  8
LOGO
 62
     6
 10
154.14683122206401
 20
31.346234402119102
 30
0.0
 11
154.14683122206401
 21
20.744996510483741
 31
0.0
  0
LINE
  5
1810
  8
LOGO
 62
     6
 10
162.48770538377869
 20
31.346234402119102
 30
0.0
 11
162.48770538377869
 21
20.744996510483741
 31
0.0
  0
TEXT
  5
1811
  8
0
 10
12.038415653178159
 20
199.24276613394281
 30
0.0
 40
4.0
  1
MCJT-12-%%C100
  7
CHINESET
  0
TEXT
  5
1812
  8
0
 10
11.5474866955908
 20
190.953831383558
 30
0.0
 40
5.0
  1
stroke=0mm
  7
CHINESET
  0
LINE
  5
1868
  8
LOGO
 62
     6
 10
243.6829643764367
 20
31.346234402119102
 30
0.0
 11
224.06075839761269
 21
31.346234402119102
 31
0.0
  0
LINE
  5
1869
  8
LOGO
 62
     6
 10
243.6829643764367
 20
20.744996510483741
 30
0.0
 11
224.06075839761269
 21
20.744996510483741
 31
0.0
  0
LINE
  5
186A
  8
LOGO
 62
     6
 10
242.5050490551439
 20
15.444377564666061
 30
0.0
 11
225.23867371890549
 21
15.444377564666061
 31
0.0
  0
LINE
  5
186B
  8
LOGO
 62
     6
 10
242.5050490551439
 20
2.4873090304450609
 30
0.0
 11
225.23867371890549
 21
2.487309030445032
 31
0.0
  0
LINE
  5
186C
  8
LOGO
 62
     6
 10
215.71988423589801
 20
20.744996510483809
 30
0.0
 11
196.80797785457409
 21
20.744996510483809
 31
0.0
  0
LINE
  5
186D
  8
LOGO
 62
     6
 10
215.71988423589801
 20
15.444377564666119
 30
0.0
 11
196.80797785457409
 21
15.444377564666119
 31
0.0
  0
LINE
  5
186E
  8
LOGO
 62
     6
 10
215.71988423589801
 20
31.346234402119251
 30
0.0
 11
196.80797785457409
 21
31.346234402119169
 31
0.0
  0
TEXT
  5
186F
  8
LOGO
  6
CONTINUOUS
 62
     7
 10
199.80222429156291
 20
23.034038983233561
 30
0.0
 40
5.8895766064640922
  1
100
  7
CHINESET
 72
     1
 11
206.81362501354391
 21
25.978827286465609
 31
0.0
 73
     2
  0
LINE
  5
1870
  8
LOGO
 62
     6
 10
215.71988423589801
 20
2.487309030445132
 30
0.0
 11
196.80797785457409
 21
2.4873090304450889
 31
0.0
  0
TEXT
  5
1871
  8
LOGO
  6
CONTINUOUS
 62
     6
 10
202.618002669806
 20
3.9597031820611259
 30
0.0
 40
2.9447883032320461
  1
Bore
 41
0.8
  7
CHINESET
 72
     4
 11
206.26393104523609
 21
5.4320973336771479
 31
0.0
  0
TEXT
  5
1872
  8
LOGO
 62
     6
 10
201.7584049412911
 20
8.9658432975556011
 30
0.0
 40
4.7116612851712727
  1
內徑
 41
0.9
  7
CHINESET
 72
     4
 11
206.26393104523609
 21
11.321673940141229
 31
0.0
  0
LINE
  5
1873
  8
LOGO
 62
     6
 10
206.2639307736271
 20
20.744996510483809
 30
0.0
 11
206.2639307736271
 21
15.444377564666119
 31
0.0
  0
LINE
  5
1874
  8
LOGO
 62
     6
 10
175.47740453831901
 20
20.744996510483741
 30
0.0
 11
175.47740453831901
 21
15.444377564666061
 31
0.0
  0
LINE
  5
1875
  8
LOGO
 62
     6
 10
188.4671036928595
 20
15.444377564666061
 30
0.0
 11
188.4671036928595
 21
2.4873090304450889
 31
0.0
  0
LINE
  5
1876
  8
LOGO
 62
     6
 10
196.80797785457409
 20
15.444377564666119
 30
0.0
 11
196.80797785457409
 21
2.487309030445132
 31
0.0
  0
LINE
  5
1877
  8
LOGO
 62
     6
 10
188.4671036928595
 20
31.346234402119169
 30
0.0
 11
188.4671036928595
 21
20.744996510483741
 31
0.0
  0
LINE
  5
1878
  8
LOGO
 62
     6
 10
196.80797785457409
 20
31.346234402119169
 30
0.0
 11
196.80797785457409
 21
20.744996510483809
 31
0.0
  0
LINE
  5
1879
  8
LOGO
  6
CONTINUOUS
 62
     7
 10
190.29353766094439
 20
26.00806419629771
 30
0.0
 11
194.9746574919084
 21
26.00806419629771
 31
0.0
  0
LINE
  5
187A
  8
LOGO
 62
     6
 10
234.1213331567746
 20
20.744996510483741
 30
0.0
 11
234.1213331567746
 21
15.444377564666061
 31
0.0
  0
LINE
  5
187B
  8
LOGO
 62
     6
 10
215.71988423589801
 20
15.444377564666119
 30
0.0
 11
215.71988423589801
 21
2.4873090304451599
 31
0.0
  0
LINE
  5
187C
  8
LOGO
 62
     6
 10
225.23867371890549
 20
15.444377564666061
 30
0.0
 11
225.23867371890549
 21
2.487309030445032
 31
0.0
  0
TEXT
  5
187D
  8
LOGO
  6
CONTINUOUS
 62
     6
 10
228.54319683831909
 20
3.9597031820610549
 30
0.0
 40
2.9447883032320461
  1
Stroke
 41
0.8
  7
CHINESET
 72
     4
 11
233.87186138702469
 21
5.4320973336770768
 31
0.0
  0
TEXT
  5
187E
  8
LOGO
 62
     6
 10
229.63136623037059
 20
8.96584329755553
 30
0.0
 40
4.7116612851712727
  1
行程
 41
0.9
  7
CHINESET
 72
     4
 11
233.87186138702469
 21
11.32167394014116
 31
0.0
  0
LINE
  5
187F
  8
LOGO
 62
     6
 10
215.71988423589801
 20
31.346234402119251
 30
0.0
 11
215.71988423589801
 21
20.744996510483809
 31
0.0
  0
LINE
  5
1880
  8
LOGO
  6
CONTINUOUS
 62
     7
 10
217.54631820398299
 20
26.008064196297781
 30
0.0
 11
222.22743803494711
 21
26.008064196297781
 31
0.0
  0
LINE
  5
1881
  8
LOGO
 62
     6
 10
224.06075839761269
 20
31.346234402119102
 30
0.0
 11
224.06075839761269
 21
20.744996510483741
 31
0.0
  0
TEXT
  5
1882
  8
LOGO
  6
CONTINUOUS
 62
     7
 10
232.8790471964968
 20
23.034038983233501
 30
0.0
 40
5.8895766064640922
  1
?
  7
CHINESET
 72
     1
 11
234.4215553553326
 21
25.978827286465538
 31
0.0
 73
     2
  0
LINE
  5
1883
  8
LOGO
 62
     6
 10
253.87317774890829
 20
20.744996510483741
 30
0.0
 11
253.87317774890829
 21
15.444377564666061
 31
0.0
  0
LINE
  5
1884
  8
LOGO
 62
     1
 10
271.62778414727939
 20
-0.4574792727869835
 30
0.0
 11
271.62778414727939
 21
34.879980365997568
 31
0.0
  0
LINE
  5
1885
  8
LOGO
 62
     6
 10
262.50636541702761
 20
2.4873090304450609
 30
0.0
 11
245.2399900807892
 21
2.487309030445032
 31
0.0
  0
LINE
  5
1886
  8
LOGO
 62
     6
 10
262.50636541702761
 20
15.444377564666061
 30
0.0
 11
245.2399900807892
 21
15.444377564666061
 31
0.0
  0
TEXT
  5
1887
  8
LOGO
  6
CONTINUOUS
 62
     6
 10
247.0300506442548
 20
3.959703182061054
 30
0.0
 40
2.9447883032320461
  1
MAGNET
 41
0.8
  7
CHINESET
 72
     4
 11
253.87317774890829
 21
5.4320973336770768
 31
0.0
  0
TEXT
  5
1888
  8
LOGO
 62
     6
 10
247.5124350139271
 20
9.0149231026093961
 30
0.0
 40
4.7116612851712727
  1
附磁石
 41
0.9
  7
CHINESET
 72
     4
 11
253.87317774890829
 21
11.32167394014116
 31
0.0
  0
LINE
  5
1889
  8
LOGO
 62
     6
 10
245.2399900807892
 20
15.444377564666061
 30
0.0
 11
245.2399900807892
 21
2.487309030445032
 31
0.0
  0
LINE
  5
188A
  8
LOGO
 62
     6
 10
242.5050490551439
 20
15.444377564666061
 30
0.0
 11
242.5050490551439
 21
2.438452290523514
 31
0.0
  0
LINE
  5
188B
  8
LOGO
 62
     6
 10
262.50636541702761
 20
15.444377564666061
 30
0.0
 11
262.50636541702761
 21
2.438452290523514
 31
0.0
  0
TEXT
  5
188C
  8
LOGO
  6
CONTINUOUS
 62
     7
 10
248.11261133904219
 20
23.034038983233501
 30
0.0
 40
5.8895766064640922
  1
(M)
  7
CHINESET
 72
     1
 11
254.42287198882511
 21
25.978827286465538
 31
0.0
 73
     2
  0
LINE
  5
188D
  8
LOGO
 62
     6
 10
261.61209356612932
 20
20.744996510483741
 30
0.0
 11
246.13426193168729
 21
20.744996510483741
 31
0.0
  0
LINE
  5
188E
  8
LOGO
 62
     6
 10
261.61209356612932
 20
31.346234402119169
 30
0.0
 11
246.13426193168729
 21
31.346234402119102
 31
0.0
  0
LINE
  5
188F
  8
LOGO
 62
     6
 10
246.13426193168729
 20
31.346234402119102
 30
0.0
 11
246.13426193168729
 21
20.744996510483741
 31
0.0
  0
LINE
  5
1890
  8
LOGO
 62
     6
 10
243.6829643764367
 20
31.346234402119102
 30
0.0
 11
243.6829643764367
 21
20.744996510483741
 31
0.0
  0
LINE
  5
1891
  8
LOGO
 62
     6
 10
261.6120935661292
 20
31.346234402119169
 30
0.0
 11
261.61209356612932
 21
20.744996510483741
 31
0.0
  0
LINE
  5
18E7
  8
0
 62
     4
 10
271.62778414727939
 20
388.84502543304069
 30
0.0
 11
-0.4706550713615343
 21
388.8450254330408
 31
0.0
  0
TEXT
  5
18E8
  8
0
 10
21.458499082431779
 20
392.84502615063718
 30
0.0
 40
10.0
  1
2.附磁型本體長度皆較不附磁型增加10MM
  7
CHINESET
  0
TEXT
  5
18E9
  8
0
 10
3.112678185677737
 20
408.06853698641402
 30
0.0
 40
10.0
  1
註：1.本圖檔為不附磁型
  7
CHINESET
  0
TEXT
  5
18EA
  8
0
 10
12.47687941544859
 20
376.22528866746438
 30
0.0
 40
4.0
  1
MCJT-11-%%C100
  7
CHINESET
  0
TEXT
  5
18EB
  8
0
 10
11.98595045786112
 20
367.9363539170796
 30
0.0
 40
5.0
  1
stroke=0mm
  7
CHINESET
  0
LINE
  5
57A3
  8
0
 10
56.374958703722989
 20
105.581552359789
 30
0.0
 11
56.374958703722939
 21
48.581552359789072
 31
0.0
  0
LINE
  5
57A4
  8
0
 10
11.37495870372293
 20
162.58155235978899
 30
0.0
 11
11.37495870372293
 21
48.581552359789072
 31
0.0
  0
LINE
  5
57A6
  8
0
 10
56.374958703722939
 20
48.581552359789072
 30
0.0
 11
11.37495870372293
 21
48.581552359789072
 31
0.0
  0
LINE
  5
57AE
  8
CENTER
 10
70.532734376383587
 20
105.581552359789
 30
0.0
 11
7.3436797646662617
 21
105.581552359789
 31
0.0
  0
LINE
  5
57C3
  8
0
 10
56.374958703722939
 20
162.58155235978899
 30
0.0
 11
56.374958703722989
 21
105.581552359789
 31
0.0
  0
LINE
  5
5803
  8
0
 10
65.374958703722996
 20
118.581552359789
 30
0.0
 11
65.374958703722996
 21
92.581552359789072
 31
0.0
  0
ARC
  5
5808
  8
0
 10
57.874958703722939
 20
84.581552359788986
 30
0.0
 40
1.5
 50
270.0
 51
0.0
  0
LINE
  5
5809
  8
0
 10
57.874958703722939
 20
83.081552359788986
 30
0.0
 11
56.374958703722939
 21
83.081552359788986
 31
0.0
  0
LINE
  5
580A
  8
0
 10
63.874958703722989
 20
98.642805555194855
 30
0.0
 11
63.874958703722989
 21
92.081552359789072
 31
0.0
  0
LINE
  5
580B
  8
0
 10
59.374958703722939
 20
84.581552359788986
 30
0.0
 11
59.374958703722939
 21
105.581552359789
 31
0.0
  0
LINE
  5
580C
  8
0
 10
64.508933299938576
 20
92.081552359789072
 30
0.0
 11
61.374958703722989
 21
92.0815523597891
 31
0.0
  0
LINE
  5
580D
  8
0
 10
59.874958703722818
 20
90.581552359789058
 30
0.0
 11
61.374958703722989
 21
92.0815523597891
 31
0.0
  0
LINE
  5
580E
  8
0
 10
59.874958703722882
 20
90.581552359789129
 30
0.0
 11
59.374958703722939
 21
90.581552359789129
 31
0.0
  0
LINE
  5
580F
  8
0
 10
65.374958703722882
 20
92.581552359789015
 30
0.0
 11
64.508933299938576
 21
92.081552359789072
 31
0.0
  0
LINE
  5
5810
  8
0
 10
63.374958703723003
 20
105.581552359789
 30
0.0
 11
65.374958703722996
 21
98.642805555194855
 31
0.0
  0
LINE
  5
5811
  8
0
 10
63.374958703723003
 20
105.581552359789
 30
0.0
 11
61.374958703722989
 21
98.642805555194855
 31
0.0
  0
LINE
  5
5812
  8
0
 10
61.374958703722989
 20
105.581552359789
 30
0.0
 11
61.374958703722989
 21
98.642805555194855
 31
0.0
  0
ARC
  5
5813
  8
0
 10
76.673694443145223
 20
105.5815523597891
 30
0.0
 40
16.79873573942227
 50
180.0
 51
204.3966842235956
  0
LINE
  5
5814
  8
0
 10
61.374958703722989
 20
98.642805555194855
 30
0.0
 11
65.374958703722996
 21
98.642805555194855
 31
0.0
  0
CIRCLE
  5
5891
  8
0
 10
251.48292952778891
 20
60.58155235978905
 30
0.0
 40
9.25
  0
ARC
  5
5892
  8
0
 62
     3
 10
251.48292952778891
 20
60.58155235978905
 30
0.0
 40
7.0
 50
253.86242958929759
 51
201.1423466209182
  0
CIRCLE
  5
5893
  8
0
 10
251.48292952778891
 20
150.58155235978899
 30
0.0
 40
9.25
  0
ARC
  5
5894
  8
0
 62
     3
 10
251.48292952778891
 20
150.58155235978899
 30
0.0
 40
7.0
 50
253.86242958929759
 51
201.1423466209182
  0
CIRCLE
  5
5895
  8
0
 10
250.66817597870559
 20
122.68671121640359
 30
0.0
 40
1.5
  0
ARC
  5
5896
  8
0
 10
250.66817597870559
 20
122.68671121640359
 30
0.0
 40
4.5
 50
200.2159085704541
 51
285.0
  0
ARC
  5
5897
  8
0
 10
250.66817597870559
 20
88.476393503174464
 30
0.0
 40
4.5
 50
75.000000000000057
 51
159.78409142954581
  0
CIRCLE
  5
5898
  8
0
 10
250.66817597870559
 20
88.476393503174464
 30
0.0
 40
1.5
  0
ARC
  5
5899
  8
0
 10
206.4829295277888
 20
105.581552359789
 30
0.0
 40
47.365410600302383
 50
31.07304699732568
 51
328.92695300267422
  0
CIRCLE
  5
589A
  8
0
 10
206.4829295277888
 20
105.581552359789
 30
0.0
 40
51.000167006711301
  0
CIRCLE
  5
589B
  8
0
 10
251.48292952778891
 20
150.58155235978899
 30
0.0
 40
6.1500000000000004
  0
LINE
  5
589C
  8
CENTER
 10
261.73292952778911
 20
150.58155235978899
 30
0.0
 11
241.2329295277888
 21
150.58155235978899
 31
0.0
  0
LINE
  5
589D
  8
0
 10
230.50241243143509
 20
162.5815523597891
 30
0.0
 11
255.22715995560469
 21
162.58155235978899
 31
0.0
  0
CIRCLE
  5
589E
  8
0
 10
251.48292952778891
 20
60.58155235978905
 30
0.0
 40
6.1500000000000004
  0
LINE
  5
589F
  8
CENTER
 10
261.73292952778911
 20
60.58155235978905
 30
0.0
 11
241.2329295277888
 21
60.58155235978905
 31
0.0
  0
LINE
  5
58A0
  8
0
 10
230.2634466241424
 20
48.58155235978893
 30
0.0
 11
255.22715995560469
 21
48.581552359789043
 31
0.0
  0
LINE
  5
58A1
  8
CENTER
 10
139.41479969708919
 20
105.7120694561427
 30
0.0
 11
265.64880842956211
 21
105.7120694561427
 31
0.0
  0
LINE
  5
58A2
  8
0
 10
261.78292952778958
 20
114.18155235978899
 30
0.0
 11
261.78292952778958
 21
115.48155235978901
 31
0.0
  0
LINE
  5
58A3
  8
0
 10
263.48292952778871
 20
114.18155235978899
 30
0.0
 11
263.48292952778871
 21
125.69258655249639
 31
0.0
  0
LINE
  5
58A4
  8
0
 10
260.48292952778951
 20
106.881552359789
 30
0.0
 11
260.48292952778951
 21
115.48155235978901
 31
0.0
  0
LINE
  5
58A5
  8
CENTER
 10
251.48292952778891
 20
50.331552359789043
 30
0.0
 11
251.48292952778891
 21
70.831552359789043
 31
0.0
  0
ARC
  5
58A6
  8
0
 10
206.4829295277888
 20
105.581552359789
 30
0.0
 40
75.0
 50
310.53580211131708
 51
319.4641978886828
  0
LINE
  5
58A7
  8
0
 10
256.88556073117542
 20
83.142586552496482
 30
0.0
 11
256.88556073117542
 21
84.042586552496346
 31
0.0
  0
LINE
  5
58A8
  8
0
 10
263.48292952778883
 20
56.837321931972497
 30
0.0
 11
263.48292952778883
 21
81.692586552496437
 31
0.0
  0
LINE
  5
58A9
  8
0
 10
263.28292952778889
 20
81.892586552496482
 30
0.0
 11
261.18556073117543
 21
81.892586552496482
 31
0.0
  0
ARC
  5
58AA
  8
0
 10
263.28292952778878
 20
81.692586552496451
 30
0.0
 40
0.2
 50
0.0
 51
90.0
  0
ARC
  5
58AB
  8
0
 10
258.58556073117518
 20
83.142586552496496
 30
0.0
 40
1.7
 50
180.0
 51
270.0
  0
LINE
  5
58AC
  8
0
 10
261.18556073117543
 20
81.892586552496482
 30
0.0
 11
260.68556073117543
 21
81.442586552496437
 31
0.0
  0
LINE
  5
58AD
  8
0
 10
260.68556073117543
 20
81.442586552496437
 30
0.0
 11
258.58556073117541
 21
81.442586552496437
 31
0.0
  0
LINE
  5
58AE
  8
0
 10
260.48292952778951
 20
95.681552359788952
 30
0.0
 11
260.4829295277886
 21
104.2815523597893
 31
0.0
  0
ARC
  5
58AF
  8
0
 10
261.98292952778928
 20
96.981552359788935
 30
0.0
 40
0.2
 50
89.999999999999204
 51
180.0
  0
LINE
  5
58B0
  8
0
 10
261.18556073117543
 20
85.292586552496346
 30
0.0
 11
263.28292952778889
 21
85.292586552496346
 31
0.0
  0
LINE
  5
58B1
  8
CENTER
 10
265.10107924628443
 20
83.592586552496513
 30
0.0
 11
256.18589719887319
 21
83.592586552496513
 31
0.0
  0
LINE
  5
58B2
  8
0
 10
263.48292952778871
 20
85.492586552496391
 30
0.0
 11
263.48292952778871
 21
96.981552359788907
 31
0.0
  0
ARC
  5
58B3
  8
0
 10
263.28292952778878
 20
85.492586552496405
 30
0.0
 40
0.2
 50
270.0
 51
0.0
  0
ARC
  5
58B4
  8
0
 10
263.28292952778901
 20
96.981552359788935
 30
0.0
 40
0.2
 50
0.0
 51
89.999999999999204
  0
LINE
  5
58B5
  8
0
 10
263.28292952778901
 20
97.181552359788967
 30
0.0
 11
261.98292952778939
 21
97.181552359788967
 31
0.0
  0
ARC
  5
58B6
  8
0
 10
258.58556073117518
 20
84.042586552496587
 30
0.0
 40
1.7
 50
90.0
 51
180.0
  0
LINE
  5
58B7
  8
0
 10
261.18556073117543
 20
85.292586552496346
 30
0.0
 11
260.68556073117543
 21
85.742586552496391
 31
0.0
  0
LINE
  5
58B8
  8
0
 10
258.58556073117541
 20
85.742586552496391
 30
0.0
 11
260.68556073117543
 21
85.742586552496391
 31
0.0
  0
ARC
  5
58B9
  8
0
 10
261.58292952778879
 20
95.681552359788967
 30
0.0
 40
0.2
 50
270.0
 51
0.0
  0
LINE
  5
58BA
  8
0
 10
261.58292952778879
 20
95.481552359788907
 30
0.0
 11
260.68292952778933
 21
95.481552359788907
 31
0.0
  0
ARC
  5
58BB
  8
0
 10
260.68292952778933
 20
95.681552359788967
 30
0.0
 40
0.2
 50
180.0
 51
270.0
  0
LINE
  5
58BC
  8
0
 10
261.78292952778872
 20
95.681552359788952
 30
0.0
 11
261.78292952778872
 21
96.981552359788907
 31
0.0
  0
ARC
  5
58BD
  8
0
 10
255.143655356755
 20
90.900659049519291
 30
0.0
 40
1.0
 50
63.800407692426511
 51
75.000000000000057
  0
LINE
  5
58BE
  8
0
 10
251.832861681667
 20
92.823059721475261
 30
0.0
 11
255.4024744018576
 21
91.866584875808371
 31
0.0
  0
ARC
  5
58BF
  8
0
 10
261.98292952778928
 20
114.18155235978899
 30
0.0
 40
0.2
 50
180.0
 51
270.0
  0
LINE
  5
58C0
  8
0
 10
263.28292952778901
 20
106.68155235978909
 30
0.0
 11
260.68292952778933
 21
106.68155235978909
 31
0.0
  0
LINE
  5
58C1
  8
0
 10
263.28292952778901
 20
104.48155235978911
 30
0.0
 11
260.68292952778933
 21
104.48155235978911
 31
0.0
  0
ARC
  5
58C2
  8
0
 10
263.28292952778901
 20
106.48155235978911
 30
0.0
 40
0.2
 50
0.0
 51
90.0
  0
LINE
  5
58C3
  8
0
 10
263.48292952778883
 20
104.68155235978909
 30
0.0
 11
263.48292952778883
 21
106.48155235978911
 31
0.0
  0
ARC
  5
58C4
  8
0
 10
263.28292952778901
 20
104.68155235978909
 30
0.0
 40
0.2
 50
270.0
 51
0.0
  0
ARC
  5
58C5
  8
0
 10
263.28292952778901
 20
114.18155235978899
 30
0.0
 40
0.2
 50
270.0
 51
0.0
  0
LINE
  5
58C6
  8
0
 10
263.28292952778901
 20
113.98155235978921
 30
0.0
 11
261.98292952778939
 21
113.98155235978921
 31
0.0
  0
ARC
  5
58C7
  8
0
 10
260.68292952778933
 20
104.2815523597893
 30
0.0
 40
0.2
 50
90.0
 51
180.0
  0
ARC
  5
58C8
  8
0
 10
260.68292952778933
 20
106.881552359789
 30
0.0
 40
0.2
 50
180.0
 51
270.0
  0
LINE
  5
58C9
  8
CENTER
 10
251.48292952778891
 20
140.33155235978899
 30
0.0
 11
251.48292952778891
 21
160.83155235978899
 31
0.0
  0
LINE
  5
58CA
  8
0
 10
263.48292952778871
 20
129.49258655249639
 30
0.0
 11
263.48292952778883
 21
154.3257827876046
 31
0.0
  0
ARC
  5
58CB
  8
0
 10
258.28556073117539
 20
128.0425865524964
 30
0.0
 40
1.7
 50
90.0
 51
180.0
  0
LINE
  5
58CC
  8
0
 10
263.28292952778889
 20
129.29258655249629
 30
0.0
 11
260.88556073117542
 21
129.29258655249629
 31
0.0
  0
LINE
  5
58CD
  8
CENTER
 10
265.10107924628443
 20
127.5925865524964
 30
0.0
 11
255.88589719887321
 21
127.5925865524964
 31
0.0
  0
LINE
  5
58CE
  8
0
 10
260.88556073117542
 20
125.8925865524963
 30
0.0
 11
263.28292952778889
 21
125.8925865524963
 31
0.0
  0
ARC
  5
58CF
  8
0
 10
263.28292952778878
 20
125.69258655249639
 30
0.0
 40
0.2
 50
0.0
 51
90.0
  0
ARC
  5
58D0
  8
0
 10
263.28292952778889
 20
129.49258655249639
 30
0.0
 40
0.2
 50
270.0
 51
0.0
  0
LINE
  5
58D1
  8
0
 10
261.58292952778879
 20
115.68155235978919
 30
0.0
 11
260.68292952778933
 21
115.68155235978919
 31
0.0
  0
ARC
  5
58D2
  8
0
 10
261.58292952778879
 20
115.48155235978901
 30
0.0
 40
0.2
 50
0.0
 51
90.00000000000081
  0
ARC
  5
58D3
  8
0
 10
260.68292952778933
 20
115.48155235978901
 30
0.0
 40
0.2
 50
90.0
 51
180.0
  0
ARC
  5
58D4
  8
0
 10
255.143655356755
 20
120.2624456700588
 30
0.0
 40
1.0
 50
285.0
 51
296.19959230757343
  0
LINE
  5
58D5
  8
0
 10
251.832861681667
 20
118.3400449981028
 30
0.0
 11
255.4024744018576
 21
119.2965198437697
 31
0.0
  0
ARC
  5
58D6
  8
0
 10
258.28556073117539
 20
127.1425865524963
 30
0.0
 40
1.7
 50
180.0
 51
270.0
  0
LINE
  5
58D7
  8
0
 10
260.88556073117542
 20
125.8925865524963
 30
0.0
 11
260.38556073117542
 21
125.44258655249629
 31
0.0
  0
LINE
  5
58D8
  8
0
 10
258.28556073117539
 20
125.44258655249629
 30
0.0
 11
260.38556073117542
 21
125.44258655249629
 31
0.0
  0
LINE
  5
58D9
  8
0
 10
260.88556073117542
 20
129.29258655249629
 30
0.0
 11
260.38556073117542
 21
129.74258655249631
 31
0.0
  0
LINE
  5
58DA
  8
0
 10
260.38556073117542
 20
129.74258655249631
 30
0.0
 11
258.28556073117539
 21
129.74258655249631
 31
0.0
  0
LINE
  5
58DB
  8
0
 10
256.58556073117541
 20
128.0425865524964
 30
0.0
 11
256.58556073117541
 21
127.1425865524963
 31
0.0
  0
ARC
  5
58DC
  8
0
 10
206.4829295277888
 20
105.581552359789
 30
0.0
 40
75.0
 50
40.535802111317132
 51
49.464197888682861
  0
ARC
  5
58DD
  8
0
 62
     3
 10
206.4829295277888
 20
105.581552359789
 30
0.0
 40
9.0
 50
249.3642141987248
 51
203.6936628483891
  0
CIRCLE
  5
58DE
  8
0
 10
206.4829295277888
 20
105.581552359789
 30
0.0
 40
22.50037854598099
  0
CIRCLE
  5
58DF
  8
0
 10
206.4829295277888
 20
105.581552359789
 30
0.0
 40
15.000567813000909
  0
CIRCLE
  5
58E0
  8
0
 10
206.4829295277888
 20
105.581552359789
 30
0.0
 40
13.00000000000005
  0
LINE
  5
58E1
  8
0
 10
141.4829295277886
 20
92.581552359789043
 30
0.0
 11
141.4829295277888
 21
118.5815523597889
 31
0.0
  0
LINE
  5
58E2
  8
CENTER
 10
206.4829295277888
 20
46.42272580725659
 30
0.0
 11
206.4829295277888
 21
165.00141310502889
 31
0.0
  0
CIRCLE
  5
58E3
  8
0
 10
161.4829295277888
 20
60.581552359789072
 30
0.0
 40
9.25
  0
ARC
  5
58E4
  8
0
 62
     3
 10
161.4829295277888
 20
60.581552359789072
 30
0.0
 40
7.0
 50
253.86242958929759
 51
201.1423466209182
  0
CIRCLE
  5
58E5
  8
0
 10
161.4829295277888
 20
60.581552359789072
 30
0.0
 40
6.1500000000000004
  0
LINE
  5
58E6
  8
0
 10
157.73869909997299
 20
48.581552359789043
 30
0.0
 11
182.46344662414251
 21
48.58155235978893
 31
0.0
  0
LINE
  5
58E7
  8
CENTER
 10
171.7329295277888
 20
60.58155235978905
 30
0.0
 11
151.2329295277888
 21
60.58155235978905
 31
0.0
  0
LINE
  5
58E8
  8
0
 10
182.21344662414251
 20
51.378921156402498
 30
0.0
 11
182.21344662414251
 21
53.478921156402521
 31
0.0
  0
LINE
  5
58E9
  8
0
 10
186.5134466241424
 20
53.478921156402521
 30
0.0
 11
186.5134466241424
 21
51.378921156402498
 31
0.0
  0
LINE
  5
58EA
  8
CENTER
 10
184.3634466241426
 20
46.963402641293442
 30
0.0
 11
184.3634466241426
 21
55.878584688704677
 31
0.0
  0
LINE
  5
58EB
  8
0
 10
226.21344662414239
 20
53.778921156402468
 30
0.0
 11
226.21344662414239
 21
51.678921156402453
 31
0.0
  0
LINE
  5
58EC
  8
0
 10
230.5134466241424
 20
51.678921156402453
 30
0.0
 11
230.5134466241424
 21
53.778921156402468
 31
0.0
  0
LINE
  5
58ED
  8
CENTER
 10
228.36344662414251
 20
47.093919737647177
 30
0.0
 11
228.36344662414251
 21
56.309101785058488
 31
0.0
  0
LINE
  5
58EE
  8
0
 10
205.58292952778899
 20
48.581552359789043
 30
0.0
 11
207.38292952778889
 21
48.581552359789043
 31
0.0
  0
LINE
  5
58EF
  8
0
 10
230.06344662414239
 20
51.178921156402453
 30
0.0
 11
230.5134466241424
 21
51.678921156402453
 31
0.0
  0
ARC
  5
58F0
  8
0
 10
230.2634466241424
 20
48.781552359789004
 30
0.0
 40
0.2
 50
180.0
 51
270.0
  0
LINE
  5
58F1
  8
0
 10
230.06344662414239
 20
48.781552359788982
 30
0.0
 11
230.06344662414239
 21
51.178921156402453
 31
0.0
  0
LINE
  5
58F2
  8
0
 10
215.08292952778891
 20
48.581552359788809
 30
0.0
 11
226.46344662414251
 21
48.581552359788809
 31
0.0
  0
LINE
  5
58F3
  8
0
 10
226.66344662414241
 20
51.178921156402453
 30
0.0
 11
226.21344662414239
 21
51.678921156402453
 31
0.0
  0
ARC
  5
58F4
  8
0
 10
226.46344662414251
 20
48.781552359789004
 30
0.0
 40
0.2
 50
270.0
 51
0.0
  0
LINE
  5
58F5
  8
0
 10
226.66344662414241
 20
51.178921156402453
 30
0.0
 11
226.66344662414241
 21
48.781552359788982
 31
0.0
  0
LINE
  5
58F6
  8
0
 10
207.78292952778881
 20
51.58155235978824
 30
0.0
 11
216.3829295277888
 21
51.58155235978824
 31
0.0
  0
ARC
  5
58F7
  8
0
 10
215.08292952778891
 20
50.08155235978851
 30
0.0
 40
0.2
 50
90.000000000001606
 51
180.0
  0
LINE
  5
58F8
  8
0
 10
216.5829295277891
 20
50.481552359789021
 30
0.0
 11
216.5829295277891
 21
51.381552359788422
 31
0.0
  0
ARC
  5
58F9
  8
0
 10
216.3829295277888
 20
50.481552359789049
 30
0.0
 40
0.2
 50
270.00000000000159
 51
0.0
  0
ARC
  5
58FA
  8
0
 10
216.3829295277888
 20
51.381552359788458
 30
0.0
 40
0.2
 50
0.0
 51
90.0
  0
LINE
  5
58FB
  8
0
 10
215.08292952778891
 20
50.281552359788293
 30
0.0
 11
216.3829295277888
 21
50.281552359788293
 31
0.0
  0
ARC
  5
58FC
  8
0
 10
215.08292952778891
 20
48.78155235978889
 30
0.0
 40
0.2
 50
180.0
 51
270.0
  0
LINE
  5
58FD
  8
0
 10
214.88292952778909
 20
48.781552359788861
 30
0.0
 11
214.88292952778909
 21
50.081552359788468
 31
0.0
  0
ARC
  5
58FE
  8
0
 10
207.78292952778881
 20
51.381552359788458
 30
0.0
 40
0.2
 50
90.0
 51
180.0
  0
ARC
  5
58FF
  8
0
 10
207.38292952778889
 20
48.78155235978889
 30
0.0
 40
0.2
 50
270.0
 51
0.0
  0
LINE
  5
5900
  8
0
 10
207.58292952778899
 20
48.781552359788861
 30
0.0
 11
207.58292952778899
 21
51.381552359788422
 31
0.0
  0
LINE
  5
5901
  8
0
 10
186.2634466241424
 20
48.58155235978893
 30
0.0
 11
197.88292952778869
 21
48.581552359788809
 31
0.0
  0
LINE
  5
5902
  8
0
 10
196.58292952778871
 20
51.58155235978824
 30
0.0
 11
205.1829295277891
 21
51.581552359789157
 31
0.0
  0
ARC
  5
5903
  8
0
 10
205.1829295277891
 20
51.381552359788458
 30
0.0
 40
0.2
 50
0.0
 51
90.0
  0
ARC
  5
5904
  8
0
 10
205.58292952778899
 20
48.78155235978889
 30
0.0
 40
0.2
 50
180.0
 51
270.0
  0
LINE
  5
5905
  8
0
 10
205.38292952778889
 20
48.781552359788861
 30
0.0
 11
205.38292952778889
 21
51.381552359788422
 31
0.0
  0
LINE
  5
5906
  8
0
 10
196.58292952778871
 20
50.281552359789202
 30
0.0
 11
197.88292952778869
 21
50.281552359789202
 31
0.0
  0
LINE
  5
5907
  8
0
 10
196.38292952778869
 20
50.481552359789021
 30
0.0
 11
196.38292952778869
 21
51.381552359788422
 31
0.0
  0
ARC
  5
5908
  8
0
 10
196.58292952778871
 20
51.381552359788458
 30
0.0
 40
0.2
 50
90.0
 51
180.0
  0
ARC
  5
5909
  8
0
 10
196.58292952778871
 20
50.481552359789049
 30
0.0
 40
0.2
 50
180.0
 51
270.0
  0
ARC
  5
590A
  8
0
 10
197.88292952778869
 20
50.08155235978851
 30
0.0
 40
0.2
 50
359.9999999999967
 51
90.0
  0
ARC
  5
590B
  8
0
 10
197.88292952778869
 20
48.78155235978889
 30
0.0
 40
0.2
 50
270.0
 51
359.9999999999967
  0
LINE
  5
590C
  8
0
 10
198.08292952778871
 20
48.781552359788861
 30
0.0
 11
198.08292952778871
 21
50.081552359788468
 31
0.0
  0
LINE
  5
590D
  8
0
 10
186.06344662414239
 20
50.878921156402498
 30
0.0
 11
186.5134466241424
 21
51.378921156402498
 31
0.0
  0
ARC
  5
590E
  8
0
 10
186.2634466241424
 20
48.781552359789004
 30
0.0
 40
0.2
 50
180.0
 51
270.0
  0
LINE
  5
590F
  8
0
 10
186.06344662414239
 20
50.878921156402498
 30
0.0
 11
186.06344662414239
 21
48.781552359788982
 31
0.0
  0
LINE
  5
5910
  8
0
 10
182.66344662414249
 20
50.878921156402498
 30
0.0
 11
182.21344662414251
 21
51.378921156402498
 31
0.0
  0
ARC
  5
5911
  8
0
 10
182.46344662414251
 20
48.781552359789004
 30
0.0
 40
0.2
 50
270.0
 51
0.0
  0
LINE
  5
5912
  8
0
 10
182.66344662414249
 20
48.781552359788982
 30
0.0
 11
182.66344662414249
 21
50.878921156402498
 31
0.0
  0
CIRCLE
  5
5914
  8
0
 10
206.4829295277888
 20
105.581552359789
 30
0.0
 40
7.75
  0
ARC
  5
5915
  8
0
 10
243.19758136461181
 20
83.457407937159019
 30
0.0
 40
4.5
 50
328.92695300267422
 51
33.894474594455872
  0
LINE
  5
5916
  8
0
 10
228.8134466241425
 20
55.478921156402521
 30
0.0
 11
227.91344662414241
 21
55.478921156402521
 31
0.0
  0
ARC
  5
5917
  8
0
 10
228.81344662414239
 20
53.778921156402497
 30
0.0
 40
1.7
 50
0.0
 51
90.0
  0
ARC
  5
5918
  8
0
 10
227.9134466241423
 20
53.778921156402497
 30
0.0
 40
1.7
 50
90.0
 51
180.0
  0
ARC
  5
5919
  8
0
 10
250.66817597870559
 20
88.476393503174464
 30
0.0
 40
4.5
 50
159.78409142954581
 51
213.8944745944558
  0
ARC
  5
591A
  8
0
 10
204.2175189274864
 20
105.581552359789
 30
0.0
 40
45.0
 50
339.7840914295457
 51
339.7840914295457
  0
LINE
  5
591C
  8
0
 10
183.91344662414249
 20
55.178921156402453
 30
0.0
 11
184.81344662414239
 21
55.178921156402453
 31
0.0
  0
ARC
  5
591D
  8
0
 10
184.8134466241425
 20
53.478921156402549
 30
0.0
 40
1.7
 50
0.0
 51
90.0
  0
ARC
  5
591E
  8
0
 10
183.91344662414241
 20
53.478921156402549
 30
0.0
 40
1.7
 50
90.0
 51
180.0
  0
LINE
  5
5920
  8
CENTER
 10
161.4829295277888
 20
50.331552359789043
 30
0.0
 11
161.4829295277888
 21
70.831552359789043
 31
0.0
  0
ARC
  5
5921
  8
0
 10
206.4829295277888
 20
105.581552359789
 30
0.0
 40
75.0
 50
220.53580211131711
 51
229.4641978886828
  0
ARC
  5
5922
  8
0
 10
154.68029832440209
 20
83.381552359789026
 30
0.0
 40
1.7
 50
270.0
 51
0.0
  0
LINE
  5
5923
  8
0
 10
149.4829295277888
 20
56.837321931972497
 30
0.0
 11
149.4829295277888
 21
81.931552359789194
 31
0.0
  0
LINE
  5
5924
  8
0
 10
149.68292952778879
 20
82.131552359789112
 30
0.0
 11
152.08029832440221
 21
82.131552359789112
 31
0.0
  0
LINE
  5
5925
  8
0
 10
152.08029832440221
 20
82.131552359789112
 30
0.0
 11
152.58029832440221
 21
81.681552359789066
 31
0.0
  0
LINE
  5
5926
  8
0
 10
152.58029832440221
 20
81.681552359789066
 30
0.0
 11
154.68029832440229
 21
81.681552359789066
 31
0.0
  0
ARC
  5
5927
  8
0
 10
149.68292952778859
 20
81.931552359789194
 30
0.0
 40
0.2
 50
90.0
 51
180.0
  0
LINE
  5
592A
  8
0
 10
152.08029832440221
 20
85.531552359789089
 30
0.0
 11
149.68292952778879
 21
85.531552359789089
 31
0.0
  0
LINE
  5
592B
  8
CENTER
 10
147.8647798092932
 20
83.831552359789043
 30
0.0
 11
157.0799618567045
 21
83.831552359789157
 31
0.0
  0
ARC
  5
592C
  8
0
 10
154.68029832440209
 20
84.281552359789103
 30
0.0
 40
1.7
 50
0.0
 51
90.0
  0
LINE
  5
592D
  8
0
 10
156.3802983244023
 20
83.381552359789112
 30
0.0
 11
156.3802983244023
 21
84.281552359789089
 31
0.0
  0
LINE
  5
592E
  8
0
 10
152.08029832440221
 20
85.531552359789089
 30
0.0
 11
152.58029832440221
 21
85.981552359789134
 31
0.0
  0
LINE
  5
592F
  8
0
 10
154.68029832440229
 20
85.981552359789134
 30
0.0
 11
152.58029832440221
 21
85.981552359789134
 31
0.0
  0
LINE
  5
5930
  8
0
 10
141.4829295277886
 20
92.581552359789043
 30
0.0
 11
149.4829295277886
 21
87.081552359789043
 31
0.0
  0
LINE
  5
5931
  8
0
 10
149.4829295277888
 20
85.731552359789134
 30
0.0
 11
149.4829295277886
 21
87.081552359789043
 31
0.0
  0
ARC
  5
5932
  8
0
 10
149.68292952778859
 20
85.731552359789163
 30
0.0
 40
0.2
 50
180.0
 51
270.0
  0
CIRCLE
  5
593F
  8
0
 10
161.4829295277888
 20
150.58155235978899
 30
0.0
 40
9.25
  0
ARC
  5
5940
  8
0
 62
     3
 10
161.4829295277888
 20
150.58155235978899
 30
0.0
 40
7.0
 50
253.86242958929759
 51
201.1423466209182
  0
CIRCLE
  5
5941
  8
0
 10
161.4829295277888
 20
150.58155235978899
 30
0.0
 40
6.1500000000000004
  0
LINE
  5
5942
  8
0
 10
157.73869909997299
 20
162.58155235978899
 30
0.0
 11
182.70241243143519
 21
162.5815523597891
 31
0.0
  0
LINE
  5
5943
  8
CENTER
 10
171.7329295277888
 20
150.58155235978899
 30
0.0
 11
151.2329295277888
 21
150.58155235978899
 31
0.0
  0
LINE
  5
5945
  8
0
 10
207.38292952778869
 20
162.58155235978899
 30
0.0
 11
205.58292952778879
 21
162.58155235978899
 31
0.0
  0
ARC
  5
5946
  8
0
 10
243.19758136461181
 20
127.705696782419
 30
0.0
 40
4.5
 50
326.10552540554409
 51
31.07304699732568
  0
ARC
  5
5947
  8
0
 10
250.66817597870559
 20
122.68671121640359
 30
0.0
 40
4.5
 50
146.10552540554411
 51
200.2159085704541
  0
ARC
  5
5948
  8
0
 10
204.2175189274864
 20
105.581552359789
 30
0.0
 40
45.0
 50
20.215908570454211
 51
20.215908570454211
  0
LINE
  5
5949
  8
0
 10
229.0524124314351
 20
155.98418356317569
 30
0.0
 11
228.15241243143521
 21
155.98418356317569
 31
0.0
  0
LINE
  5
594A
  8
0
 10
230.3024124314351
 20
162.3815523597892
 30
0.0
 11
230.3024124314351
 21
160.2841835631757
 31
0.0
  0
LINE
  5
594B
  8
CENTER
 10
228.60241243143511
 20
164.3302191746383
 30
0.0
 11
228.60241243143511
 21
155.41503712722709
 31
0.0
  0
ARC
  5
594C
  8
0
 10
229.0524124314351
 20
157.68418356317571
 30
0.0
 40
1.7
 50
270.0
 51
0.0
  0
LINE
  5
594D
  8
0
 10
230.3024124314351
 20
160.2841835631757
 30
0.0
 11
230.7524124314352
 21
159.78418356317559
 31
0.0
  0
LINE
  5
594E
  8
0
 10
230.7524124314352
 20
159.78418356317559
 30
0.0
 11
230.7524124314352
 21
157.68418356317559
 31
0.0
  0
ARC
  5
594F
  8
0
 10
230.50241243143509
 20
162.3815523597892
 30
0.0
 40
0.2
 50
90.0
 51
180.0
  0
LINE
  5
5950
  8
0
 10
207.58292952778879
 20
162.3815523597892
 30
0.0
 11
207.58292952778879
 21
159.78155235978949
 31
0.0
  0
LINE
  5
5951
  8
0
 10
214.8829295277888
 20
162.3815523597892
 30
0.0
 11
214.8829295277888
 21
161.08155235978961
 31
0.0
  0
LINE
  5
5952
  8
0
 10
226.90241243143521
 20
160.2841835631757
 30
0.0
 11
226.90241243143521
 21
162.3815523597892
 31
0.0
  0
ARC
  5
5953
  8
0
 10
228.15241243143501
 20
157.68418356317571
 30
0.0
 40
1.7
 50
180.0
 51
270.0
  0
LINE
  5
5954
  8
0
 10
226.90241243143521
 20
160.2841835631757
 30
0.0
 11
226.45241243143511
 21
159.78418356317559
 31
0.0
  0
LINE
  5
5955
  8
0
 10
226.45241243143511
 20
157.68418356317559
 30
0.0
 11
226.45241243143511
 21
159.78418356317559
 31
0.0
  0
LINE
  5
5956
  8
0
 10
216.3829295277888
 20
159.5815523597897
 30
0.0
 11
207.78292952778861
 21
159.58155235978879
 31
0.0
  0
ARC
  5
5957
  8
0
 10
215.08292952778891
 20
161.08155235978961
 30
0.0
 40
0.2
 50
179.9999999999967
 51
270.0
  0
ARC
  5
5958
  8
0
 10
216.3829295277888
 20
160.68155235978901
 30
0.0
 40
0.2
 50
0.0
 51
90.0
  0
LINE
  5
5959
  8
0
 10
216.58292952778891
 20
160.68155235978901
 30
0.0
 11
216.58292952778891
 21
159.78155235978949
 31
0.0
  0
ARC
  5
595A
  8
0
 10
216.3829295277888
 20
159.78155235978949
 30
0.0
 40
0.2
 50
270.0
 51
0.0
  0
LINE
  5
595B
  8
0
 10
216.3829295277888
 20
160.8815523597888
 30
0.0
 11
215.08292952778891
 21
160.8815523597888
 31
0.0
  0
ARC
  5
595C
  8
0
 10
207.78292952778861
 20
159.78155235978949
 30
0.0
 40
0.2
 50
180.0
 51
270.0
  0
LINE
  5
595D
  8
0
 10
215.08292952778899
 20
162.5815523597891
 30
0.0
 11
226.70241243143511
 21
162.5815523597891
 31
0.0
  0
ARC
  5
595E
  8
0
 10
226.70241243143511
 20
162.3815523597892
 30
0.0
 40
0.2
 50
0.0
 51
90.0
  0
ARC
  5
595F
  8
0
 10
215.08292952778891
 20
162.3815523597892
 30
0.0
 40
0.2
 50
90.0
 51
179.9999999999967
  0
ARC
  5
5960
  8
0
 10
207.38292952778869
 20
162.3815523597892
 30
0.0
 40
0.2
 50
0.0
 51
90.0
  0
ARC
  5
5961
  8
0
 10
184.15241243143501
 20
157.3841835631757
 30
0.0
 40
1.7
 50
180.0
 51
270.0
  0
LINE
  5
5962
  8
0
 10
186.3024124314351
 20
159.98418356317569
 30
0.0
 11
186.3024124314351
 21
162.3815523597892
 31
0.0
  0
LINE
  5
5963
  8
0
 10
198.08292952778851
 20
162.3815523597892
 30
0.0
 11
198.08292952778851
 21
161.08155235978961
 31
0.0
  0
LINE
  5
5964
  8
CENTER
 10
184.60241243143511
 20
164.1997020782847
 30
0.0
 11
184.60241243143511
 21
154.9845200308734
 31
0.0
  0
LINE
  5
5965
  8
0
 10
205.38292952778869
 20
162.3815523597892
 30
0.0
 11
205.38292952778869
 21
159.78155235978949
 31
0.0
  0
LINE
  5
5966
  8
0
 10
205.1829295277889
 20
159.5815523597897
 30
0.0
 11
196.58292952778879
 21
159.5815523597897
 31
0.0
  0
ARC
  5
5967
  8
0
 10
205.1829295277889
 20
159.78155235978949
 30
0.0
 40
0.2
 50
270.0
 51
0.0
  0
ARC
  5
5968
  8
0
 10
196.58292952778871
 20
160.68155235978901
 30
0.0
 40
0.2
 50
90.000000000001606
 51
180.0
  0
ARC
  5
5969
  8
0
 10
197.88292952778869
 20
161.08155235978961
 30
0.0
 40
0.2
 50
270.00000000000159
 51
0.0
  0
LINE
  5
596A
  8
0
 10
197.88292952778869
 20
160.88155235978979
 30
0.0
 11
196.58292952778879
 21
160.88155235978979
 31
0.0
  0
LINE
  5
596B
  8
0
 10
196.3829295277886
 20
160.68155235978901
 30
0.0
 11
196.3829295277886
 21
159.78155235978949
 31
0.0
  0
ARC
  5
596C
  8
0
 10
196.58292952778871
 20
159.78155235978949
 30
0.0
 40
0.2
 50
180.0
 51
270.0
  0
ARC
  5
596D
  8
0
 10
185.0524124314351
 20
157.3841835631757
 30
0.0
 40
1.7
 50
270.0
 51
0.0
  0
LINE
  5
596E
  8
0
 10
184.15241243143501
 20
155.68418356317559
 30
0.0
 11
185.0524124314351
 21
155.68418356317559
 31
0.0
  0
LINE
  5
596F
  8
0
 10
186.3024124314351
 20
159.98418356317569
 30
0.0
 11
186.7524124314352
 21
159.48418356317569
 31
0.0
  0
LINE
  5
5970
  8
0
 10
186.7524124314352
 20
157.3841835631757
 30
0.0
 11
186.7524124314352
 21
159.48418356317569
 31
0.0
  0
LINE
  5
5971
  8
0
 10
186.5024124314352
 20
162.5815523597891
 30
0.0
 11
197.88292952778869
 21
162.5815523597891
 31
0.0
  0
ARC
  5
5972
  8
0
 10
205.58292952778879
 20
162.3815523597892
 30
0.0
 40
0.2
 50
90.0
 51
180.0
  0
ARC
  5
5973
  8
0
 10
197.88292952778869
 20
162.3815523597892
 30
0.0
 40
0.2
 50
0.0
 51
90.0
  0
ARC
  5
5974
  8
0
 10
186.50241243143509
 20
162.3815523597892
 30
0.0
 40
0.2
 50
90.0
 51
180.0
  0
LINE
  5
5975
  8
0
 10
182.90241243143529
 20
162.3815523597892
 30
0.0
 11
182.90241243143529
 21
159.98418356317569
 31
0.0
  0
LINE
  5
5976
  8
0
 10
182.90241243143529
 20
159.98418356317569
 30
0.0
 11
182.45241243143519
 21
159.48418356317569
 31
0.0
  0
LINE
  5
5977
  8
0
 10
182.45241243143519
 20
159.48418356317569
 30
0.0
 11
182.45241243143519
 21
157.3841835631757
 31
0.0
  0
ARC
  5
5978
  8
0
 10
182.70241243143511
 20
162.3815523597892
 30
0.0
 40
0.2
 50
0.0
 51
90.0
  0
LINE
  5
5979
  8
CENTER
 10
161.4829295277888
 20
140.33155235978899
 30
0.0
 11
161.4829295277888
 21
160.83155235978899
 31
0.0
  0
LINE
  5
597A
  8
0
 10
149.48292952778871
 20
129.73155235978899
 30
0.0
 11
149.4829295277888
 21
154.3257827876046
 31
0.0
  0
ARC
  5
597B
  8
0
 10
154.38029832440219
 20
128.28155235978889
 30
0.0
 40
1.7
 50
0.0
 51
90.0
  0
LINE
  5
597C
  8
0
 10
149.68292952778879
 20
129.53155235978889
 30
0.0
 11
151.78029832440231
 21
129.53155235978889
 31
0.0
  0
LINE
  5
597D
  8
0
 10
151.78029832440231
 20
126.1315523597889
 30
0.0
 11
149.68292952778879
 21
126.1315523597889
 31
0.0
  0
LINE
  5
597E
  8
CENTER
 10
147.8647798092932
 20
127.831552359789
 30
0.0
 11
156.77996185670449
 21
127.831552359789
 31
0.0
  0
ARC
  5
597F
  8
0
 10
154.38029832440219
 20
127.381552359789
 30
0.0
 40
1.7
 50
270.0
 51
0.0
  0
LINE
  5
5980
  8
0
 10
151.78029832440231
 20
126.1315523597889
 30
0.0
 11
152.28029832440231
 21
125.68155235978899
 31
0.0
  0
LINE
  5
5981
  8
0
 10
154.3802983244023
 20
125.6815523597889
 30
0.0
 11
152.28029832440231
 21
125.68155235978899
 31
0.0
  0
LINE
  5
5982
  8
0
 10
152.28029832440231
 20
129.98155235978899
 30
0.0
 11
154.3802983244023
 21
129.98155235978899
 31
0.0
  0
LINE
  5
5983
  8
0
 10
151.78029832440231
 20
129.53155235978889
 30
0.0
 11
152.28029832440231
 21
129.98155235978899
 31
0.0
  0
LINE
  5
5984
  8
0
 10
156.08029832440221
 20
128.281552359789
 30
0.0
 11
156.08029832440221
 21
127.381552359789
 31
0.0
  0
LINE
  5
5985
  8
0
 10
141.4829295277888
 20
118.5815523597889
 30
0.0
 11
149.4829295277888
 21
124.081552359789
 31
0.0
  0
ARC
  5
5986
  8
0
 10
149.68292952778859
 20
125.9315523597889
 30
0.0
 40
0.2
 50
90.0
 51
180.0
  0
LINE
  5
5987
  8
0
 10
149.4829295277888
 20
124.081552359789
 30
0.0
 11
149.48292952778871
 21
125.93155235978899
 31
0.0
  0
ARC
  5
5988
  8
0
 10
149.68292952778859
 20
129.73155235978891
 30
0.0
 40
0.2
 50
180.0
 51
270.0
  0
ARC
  5
5989
  8
0
 10
206.4829295277888
 20
105.581552359789
 30
0.0
 40
75.0
 50
130.53580211131711
 51
139.4641978886828
  0
ARC
  5
598A
  8
0
 10
57.874958703723003
 20
126.5815523597891
 30
0.0
 40
1.5
 50
359.99999999999972
 51
89.999999999999787
  0
LINE
  5
598B
  8
0
 10
57.874958703723053
 20
128.0815523597891
 30
0.0
 11
56.374958703723053
 21
128.0815523597891
 31
0.0
  0
ARC
  5
598C
  8
0
 10
76.673694443145223
 20
105.5815523597888
 30
0.0
 40
16.79873573942227
 50
155.603315776404
 51
179.99999999999969
  0
LINE
  5
598D
  8
0
 10
61.374958703722989
 20
105.581552359789
 30
0.0
 11
61.374958703722989
 21
112.5202991643832
 31
0.0
  0
LINE
  5
598E
  8
0
 10
63.374958703723003
 20
105.581552359789
 30
0.0
 11
61.374958703722989
 21
112.5202991643832
 31
0.0
  0
LINE
  5
598F
  8
0
 10
63.374958703723003
 20
105.581552359789
 30
0.0
 11
65.374958703722996
 21
112.5202991643832
 31
0.0
  0
LINE
  5
5990
  8
0
 10
59.374958703722989
 20
126.5815523597891
 30
0.0
 11
59.374958703722939
 21
105.581552359789
 31
0.0
  0
LINE
  5
5991
  8
0
 10
61.374958703722989
 20
112.5202991643832
 30
0.0
 11
65.374958703722996
 21
112.5202991643832
 31
0.0
  0
LINE
  5
5992
  8
0
 10
64.508933299938633
 20
119.081552359789
 30
0.0
 11
61.374958703723053
 21
119.081552359789
 31
0.0
  0
LINE
  5
5993
  8
0
 10
59.874958703722882
 20
120.581552359789
 30
0.0
 11
61.374958703723053
 21
119.081552359789
 31
0.0
  0
LINE
  5
5994
  8
0
 10
59.874958703722939
 20
120.5815523597889
 30
0.0
 11
59.374958703722989
 21
120.5815523597889
 31
0.0
  0
LINE
  5
5995
  8
0
 10
63.874958703722989
 20
112.5202991643832
 30
0.0
 11
63.874958703723053
 21
119.081552359789
 31
0.0
  0
LINE
  5
5996
  8
0
 10
65.374958703722939
 20
118.5815523597891
 30
0.0
 11
64.508933299938633
 21
119.081552359789
 31
0.0
  0
LINE
  5
5997
  8
0
 10
56.374958703722939
 20
162.58155235978899
 30
0.0
 11
11.37495870372293
 21
162.58155235978899
 31
0.0
  0
LINE
  5
5998
  8
0
 10
56.374958703722989
 20
92.581552359789043
 30
0.0
 11
11.37495870372293
 21
92.581552359789043
 31
0.0
  0
LINE
  5
5999
  8
0
 10
56.374958703722989
 20
85.531552359789103
 30
0.0
 11
11.37495870372293
 21
85.531552359789089
 31
0.0
  0
LINE
  5
599A
  8
0
 10
56.374958703722989
 20
82.131552359789225
 30
0.0
 11
11.37495870372282
 21
82.131552359789225
 31
0.0
  0
LINE
  5
599B
  8
0
 10
56.374958703723053
 20
56.837321931972497
 30
0.0
 11
11.37495870372293
 21
56.837321931972497
 31
0.0
  0
LINE
  5
599C
  8
0
 10
56.374958703723053
 20
154.32578278760559
 30
0.0
 11
11.37495870372293
 21
154.32578278760559
 31
0.0
  0
LINE
  5
599D
  8
0
 10
56.374958703722989
 20
118.581552359789
 30
0.0
 11
11.37495870372293
 21
118.581552359789
 31
0.0
  0
LINE
  5
599E
  8
0
 10
56.374958703722989
 20
125.631552359789
 30
0.0
 11
11.37495870372293
 21
125.631552359789
 31
0.0
  0
LINE
  5
599F
  8
0
 10
56.374958703722989
 20
129.0315523597888
 30
0.0
 11
11.37495870372282
 21
129.03155235978889
 31
0.0
  0
CIRCLE
  5
59A1
  8
0
 10
41.374958703723053
 20
105.7120694561426
 30
0.0
 40
6.5042100795988063
  0
ARC
  5
59A2
  8
0
 62
     3
 10
41.374958703723053
 20
105.7120694561426
 30
0.0
 40
7.4800177361643048
 50
169.73334830619689
 51
105.7610486363459
  0
DIMENSION
  5
59A3
  8
DIM
  2
*D166
 10
11.37495870372293
 20
174.35561306446351
 30
0.0
 11
33.874958703722939
 21
176.85561306446351
 31
0.0
 70
     0
 13
56.374958703722939
 23
162.58155235978899
 33
0.0
 14
11.37495870372293
 24
162.58155235978899
 34
0.0
  0
LINE
  5
59B9
  8
CENTER
 10
41.374958703723053
 20
114.87946059472441
 30
0.0
 11
41.374958703723053
 21
96.190305714603554
 31
0.0
  0
ARC
  5
59BA
  8
0
 62
     3
 10
26.374958703722989
 20
105.7120694561427
 30
0.0
 40
7.4800177361643048
 50
74.23895136365384
 51
10.26665169380288
  0
LINE
  5
59BB
  8
CENTER
 10
26.374958703722989
 20
114.87946059472451
 30
0.0
 11
26.374958703722939
 21
96.190305714603554
 31
0.0
  0
CIRCLE
  5
59BC
  8
0
 10
26.374958703722989
 20
105.7120694561427
 30
0.0
 40
6.5042100795988063
  0
DIMENSION
  5
59BD
  8
DIM
  2
*D167
 10
41.374958703723053
 20
167.1728086273331
 30
0.0
 11
48.874958703722989
 21
169.6728086273331
 31
0.0
 70
     0
 13
56.374958703722939
 23
162.58155235978899
 33
0.0
 14
41.374958703723053
 24
114.87946059472441
 34
0.0
  0
DIMENSION
  5
59CA
  8
DIM
  2
*D168
 10
11.37495870372293
 20
167.1728086273331
 30
0.0
 11
18.87495870372296
 21
169.6728086273331
 31
0.0
 70
     0
 13
26.374958703722989
 23
114.87946059472451
 33
0.0
 14
11.37495870372293
 24
162.58155235978899
 34
0.0
  0
DIMENSION
  5
59D7
  8
DIM
  2
*D169
 10
65.374958703722996
 20
174.35561306446351
 30
0.0
 11
60.874958703722967
 21
176.85561306446351
 31
0.0
 70
     0
 13
56.374958703722939
 23
162.58155235978899
 33
0.0
 14
65.374958703722996
 24
118.581552359789
 34
0.0
  0
DIMENSION
  5
59E4
  8
DIM
  2
*D170
 10
11.374958703722941
 20
181.20111509545069
 30
0.0
 11
38.374958703722967
 21
183.70111509545069
 31
0.0
 70
     0
 13
65.374958703722996
 23
118.581552359789
 33
0.0
 14
11.37495870372293
 24
162.58155235978899
 34
0.0
  0
DIMENSION
  5
59F1
  8
DIM
  2
*D171
 10
86.130386190940499
 20
90.581552359789058
 30
0.0
 11
83.630386190940484
 21
105.581552359789
 31
0.0
 70
     0
  1
%%c<>
 13
59.874958703722939
 23
120.5815523597889
 33
0.0
 14
59.874958703722818
 24
90.581552359789058
 34
0.0
 50
90.0
  0
DIMENSION
  5
59FE
  8
DIM
  2
*D172
 10
94.486251905208519
 20
83.081552359788986
 30
0.0
 11
91.986251905208505
 21
105.581552359789
 31
0.0
 70
     0
  1
%%c<>
 13
57.874958703723003
 23
128.0815523597891
 33
0.0
 14
57.874958703723003
 24
83.081552359788986
 34
0.0
 50
90.0
  0
POLYLINE
  8
0
  5
6060
  66
     1
 10
0.000000
 20
0.000000
 30
0.000000
  70
     8
  0
VERTEX
  8
0
  5
6061
 10
41.3750
 20
105.712
 30
0.000000
  70
    32
  0
VERTEX
  8
0
  5
6062
 10
69.9466
 20
57.4574
 30
0.000000
  70
    32
  0
VERTEX
  8
0
  5
6063
 10
72.9466
 20
57.4574
 30
0.000000
  70
    32
  0
SEQEND
  8
0
  5
6064
  0
TEXT
  5
5A1E
  8
0
 10
73.946609077886464
 20
59.743094906071072
 30
0.0
 40
3.0
  1
2-PT3/8
  7
CHINESET
  0
DIMENSION
  5
5A1F
  8
DIM
  2
*D173
 10
56.374958703722939
 20
41.02946287948987
 30
0.0
 11
68.912901851726915
 21
41.02946287948987
 31
0.0
 70
   128
 13
59.374958703722939
 23
84.581552359788986
 33
0.0
 14
56.374958703722939
 24
48.581552359789072
 34
0.0
  0
DIMENSION
  5
5A39
  8
DIM
  2
*D174
 10
141.4829295277888
 20
177.37115115779301
 30
0.0
 11
202.4829295277888
 21
179.87115115779301
 31
0.0
 70
     0
 13
263.48292952778883
 23
154.3257827876046
 33
0.0
 14
141.4829295277888
 24
118.5815523597889
 34
0.0
  0
DIMENSION
  5
5A46
  8
DIM
  2
*D175
 10
132.38485615557821
 20
60.58155235978905
 30
0.0
 11
129.88485615557821
 21
105.581552359789
 31
0.0
 70
     0
  1
\U+25A1<>
 13
151.2329295277888
 23
150.58155235978899
 33
0.0
 14
151.2329295277888
 24
60.58155235978905
 34
0.0
 50
90.0
  0
DIMENSION
  5
5A53
  8
DIM
  2
*D176
 10
122.4787211634884
 20
48.581552359789043
 30
0.0
 11
119.9787211634884
 21
105.581552359789
 31
0.0
 70
     0
 13
157.7386990999731
 23
162.58155235978899
 33
0.0
 14
157.7386990999731
 24
48.581552359789029
 34
0.0
 50
90.0
  0
LINE
  5
5A9A
  8
0
 10
192.98292952778891
 20
99.041901397203844
 30
0.0
 11
192.9829295277888
 21
112.1212033223741
 31
0.0
  0
LINE
  5
5A9B
  8
0
 10
219.98292952778891
 20
99.041901397204384
 30
0.0
 11
219.98292952778891
 21
112.1212033223738
 31
0.0
  0
LINE
  5
5A9C
  8
0
 10
200.21986012066529
 20
119.2120694561427
 30
0.0
 11
212.74599893491239
 21
119.2120694561427
 31
0.0
  0
LINE
  5
5A9D
  8
0
 10
199.6804328095574
 20
92.212069456142771
 30
0.0
 11
213.28542624602019
 21
92.212069456142771
 31
0.0
  0
DIMENSION
  5
5A9E
  8
DIM
  2
*D178
 10
219.98292952778891
 20
40.092512888962681
 30
0.0
 11
206.482929527789
 21
42.592512888962681
 31
0.0
 70
     0
 13
192.98292952778891
 23
99.041901397203844
 33
0.0
 14
219.98292952778891
 24
99.041901397203858
 34
0.0
  0
POLYLINE
  8
0
  5
6065
  66
     1
 10
0.000000
 20
0.000000
 30
0.000000
  70
     8
  0
VERTEX
  8
0
  5
6066
 10
206.483
 20
105.712
 30
0.000000
  70
    32
  0
VERTEX
  8
0
  5
6067
 10
147.004
 20
191.184
 30
0.000000
  70
    32
  0
VERTEX
  8
0
  5
6068
 10
144.004
 20
191.184
 30
0.000000
  70
    32
  0
SEQEND
  8
0
  5
6069
  0
TEXT
  5
5AAC
  8
0
 10
115.2896447574897
 20
192.18361339981479
 30
0.0
 40
3.0
  1
M18*2.5*20L
  7
CHINESET
  0
INSERT
  5
5AAE
  8
0
  2
*U217
 10
0.0
 20
0.0
 30
0.0
  0
POLYLINE
  8
0
  5
606A
  66
     1
 10
0.000000
 20
0.000000
 30
0.000000
  70
     8
  0
VERTEX
  8
0
  5
606B
 10
251.483
 20
150.582
 30
0.000000
  70
    32
  0
VERTEX
  8
0
  5
606C
 10
235.307
 20
190.317
 30
0.000000
  70
    32
  0
VERTEX
  8
0
  5
606D
 10
232.307
 20
190.317
 30
0.000000
  70
    32
  0
SEQEND
  8
0
  5
606E
  0
DIMENSION
  5
5BE8
  8
DIM
  2
*D186
 10
56.374958703722939
 20
217.04925316955189
 30
0.0
 11
68.912901851726915
 21
217.04925316955189
 31
0.0
 70
   128
 13
59.374958703722939
 23
260.60134264985112
 33
0.0
 14
56.374958703722939
 24
224.6013426498512
 34
0.0
  0
LINE
  5
5BE9
  8
0
 10
56.374958703722989
 20
281.60134264985112
 30
0.0
 11
56.374958703722939
 21
224.6013426498512
 31
0.0
  0
LINE
  5
5BEA
  8
0
 10
11.37495870372293
 20
338.60134264985112
 30
0.0
 11
11.37495870372293
 21
224.6013426498512
 31
0.0
  0
POLYLINE
  8
0
  5
606F
  66
     1
 10
0.000000
 20
0.000000
 30
0.000000
  70
     8
  0
VERTEX
  8
0
  5
6070
 10
41.3750
 20
281.732
 30
0.000000
  70
    32
  0
VERTEX
  8
0
  5
6071
 10
69.9466
 20
233.477
 30
0.000000
  70
    32
  0
VERTEX
  8
0
  5
6072
 10
72.9466
 20
233.477
 30
0.000000
  70
    32
  0
SEQEND
  8
0
  5
6073
  0
LINE
  5
5BEC
  8
0
 10
56.374958703723053
 20
232.8571122220346
 30
0.0
 11
11.37495870372293
 21
232.8571122220346
 31
0.0
  0
LINE
  5
5BED
  8
0
 10
56.374958703722939
 20
224.6013426498512
 30
0.0
 11
11.37495870372293
 21
224.6013426498512
 31
0.0
  0
TEXT
  5
5BEE
  8
0
 10
73.946609077886464
 20
235.7628851961332
 30
0.0
 40
3.0
  1
2-PT3/8
  7
CHINESET
  0
DIMENSION
  5
5BEF
  8
DIM
  2
*D183
 10
11.374958703722941
 20
357.22090538551288
 30
0.0
 11
54.87495870372296
 21
359.72090538551288
 31
0.0
 70
     0
 13
98.374958703722996
 23
293.60134264985112
 33
0.0
 14
11.37495870372293
 24
338.60134264985112
 34
0.0
  0
DIMENSION
  5
5BF0
  8
DIM
  2
*D182
 10
98.374958703722996
 20
350.37540335452559
 30
0.0
 11
77.374958703722953
 21
352.87540335452559
 31
0.0
 70
     0
 13
56.374958703722939
 23
338.60134264985112
 33
0.0
 14
98.374958703722996
 24
293.60134264985112
 34
0.0
  0
DIMENSION
  5
5BF1
  8
DIM
  2
*D181
 10
11.37495870372293
 20
343.19259891739529
 30
0.0
 11
18.87495870372296
 21
345.69259891739517
 31
0.0
 70
     0
 13
26.374958703722989
 23
290.89925088478662
 33
0.0
 14
11.37495870372293
 24
338.60134264985112
 34
0.0
  0
DIMENSION
  5
5BF2
  8
DIM
  2
*D180
 10
41.374958703723053
 20
343.19259891739529
 30
0.0
 11
48.874958703722989
 21
345.69259891739517
 31
0.0
 70
     0
 13
56.374958703722939
 23
338.60134264985112
 33
0.0
 14
41.374958703723053
 24
290.89925088478662
 34
0.0
  0
LINE
  5
5BF3
  8
0
 10
56.374958703722939
 20
338.60134264985112
 30
0.0
 11
56.374958703722989
 21
281.60134264985112
 31
0.0
  0
CIRCLE
  5
5BF4
  8
0
 10
41.374958703723053
 20
281.7318597462048
 30
0.0
 40
6.5042100795988063
  0
ARC
  5
5BF5
  8
0
 62
     3
 10
41.374958703723053
 20
281.7318597462048
 30
0.0
 40
7.4800177361643048
 50
169.73334830619689
 51
105.7610486363459
  0
LINE
  5
5BF6
  8
0
 10
56.374958703722989
 20
305.05134264985088
 30
0.0
 11
11.37495870372282
 21
305.05134264985099
 31
0.0
  0
LINE
  5
5BF7
  8
0
 10
56.374958703722989
 20
301.65134264985107
 30
0.0
 11
11.37495870372293
 21
301.65134264985107
 31
0.0
  0
LINE
  5
5BF8
  8
0
 10
56.374958703722989
 20
294.60134264985112
 30
0.0
 11
11.37495870372293
 21
294.60134264985118
 31
0.0
  0
LINE
  5
5BF9
  8
0
 10
56.374958703722989
 20
268.60134264985112
 30
0.0
 11
11.37495870372293
 21
268.60134264985112
 31
0.0
  0
LINE
  5
5BFA
  8
0
 10
56.374958703722989
 20
261.55134264985122
 30
0.0
 11
11.37495870372293
 21
261.55134264985122
 31
0.0
  0
LINE
  5
5BFB
  8
0
 10
56.374958703722989
 20
258.1513426498513
 30
0.0
 11
11.37495870372282
 21
258.1513426498513
 31
0.0
  0
LINE
  5
5BFC
  8
CENTER
 10
100.35775880656659
 20
281.60134264985112
 30
0.0
 11
7.3436797646662617
 21
281.60134264985112
 31
0.0
  0
LINE
  5
5BFD
  8
CENTER
 10
41.374958703723053
 20
290.89925088478662
 30
0.0
 11
41.374958703723053
 21
272.21009600466562
 31
0.0
  0
LINE
  5
5BFE
  8
CENTER
 10
26.374958703722989
 20
290.89925088478662
 30
0.0
 11
26.374958703722939
 21
272.21009600466567
 31
0.0
  0
ARC
  5
5BFF
  8
0
 62
     3
 10
26.374958703722989
 20
281.7318597462048
 30
0.0
 40
7.4800177361643048
 50
74.23895136365384
 51
10.26665169380288
  0
CIRCLE
  5
5C00
  8
0
 10
26.374958703722989
 20
281.7318597462048
 30
0.0
 40
6.5042100795988063
  0
LINE
  5
5C01
  8
0
 10
63.374958703723003
 20
281.60134264985112
 30
0.0
 11
65.374958703722996
 21
288.54008945444531
 31
0.0
  0
ARC
  5
5C02
  8
0
 10
76.673694443145223
 20
281.60134264985101
 30
0.0
 40
16.79873573942227
 50
155.603315776404
 51
179.99999999999969
  0
LINE
  5
5C03
  8
0
 10
61.374958703722989
 20
281.60134264985112
 30
0.0
 11
61.374958703722989
 21
288.54008945444542
 31
0.0
  0
LINE
  5
5C04
  8
0
 10
63.374958703723003
 20
281.60134264985112
 30
0.0
 11
61.374958703722989
 21
288.54008945444542
 31
0.0
  0
LINE
  5
5C05
  8
0
 10
59.374958703722989
 20
302.60134264985118
 30
0.0
 11
59.374958703722939
 21
281.60134264985118
 31
0.0
  0
LINE
  5
5C06
  8
0
 10
65.374958703722996
 20
294.60134264985112
 30
0.0
 11
65.374958703722996
 21
268.60134264985112
 31
0.0
  0
DIMENSION
  5
5C07
  8
DIM
  2
*D185
 10
114.7141611309814
 20
259.10134264985112
 30
0.0
 11
112.2141611309813
 21
281.60134264985112
 31
0.0
 70
     0
  1
%%c<>
 13
57.874958703723003
 23
304.10134264985118
 33
0.0
 14
57.874958703723003
 24
259.10134264985112
 34
0.0
 50
90.0
  0
DIMENSION
  5
5C08
  8
DIM
  2
*D184
 10
106.3582954167134
 20
266.60134264985118
 30
0.0
 11
103.8582954167133
 21
281.60134264985112
 31
0.0
 70
     0
  1
%%c<>
 13
59.874958703722939
 23
296.60134264985112
 33
0.0
 14
59.874958703722818
 24
266.60134264985118
 34
0.0
 50
90.0
  0
LINE
  5
5C09
  8
0
 10
63.874958703722989
 20
274.66259584525699
 30
0.0
 11
63.874958703722989
 21
268.10134264985112
 31
0.0
  0
LINE
  5
5C0A
  8
0
 10
59.374958703722939
 20
260.60134264985112
 30
0.0
 11
59.374958703722939
 21
281.60134264985112
 31
0.0
  0
LINE
  5
5C0B
  8
0
 10
57.874958703722939
 20
259.10134264985112
 30
0.0
 11
56.374958703722939
 21
259.10134264985112
 31
0.0
  0
ARC
  5
5C0C
  8
0
 10
57.874958703722939
 20
260.60134264985112
 30
0.0
 40
1.5
 50
270.0
 51
0.0
  0
LINE
  5
5C0D
  8
0
 10
96.874958703722996
 20
268.10134264985049
 30
0.0
 11
91.655830398303692
 21
268.10134264985061
 31
0.0
  0
LINE
  5
5C0E
  8
0
 10
59.874958703722882
 20
266.60134264985118
 30
0.0
 11
59.374958703722939
 21
266.60134264985118
 31
0.0
  0
LINE
  5
5C0F
  8
0
 10
59.874958703722818
 20
266.60134264985118
 30
0.0
 11
61.374958703722989
 21
268.10134264985118
 31
0.0
  0
LINE
  5
5C11
  8
0
 10
63.374958703723003
 20
281.60134264985112
 30
0.0
 11
65.374958703722996
 21
274.66259584525699
 31
0.0
  0
LINE
  5
5C12
  8
0
 10
63.374958703723003
 20
281.60134264985118
 30
0.0
 11
61.374958703722989
 21
274.66259584525699
 31
0.0
  0
LINE
  5
5C13
  8
0
 10
61.374958703722989
 20
281.60134264985118
 30
0.0
 11
61.374958703722989
 21
274.66259584525699
 31
0.0
  0
ARC
  5
5C14
  8
0
 10
76.673694443145223
 20
281.60134264985118
 30
0.0
 40
16.79873573942227
 50
180.0
 51
204.3966842235956
  0
LINE
  5
5C15
  8
0
 10
61.374958703722989
 20
274.66259584525699
 30
0.0
 11
65.374958703722996
 21
274.66259584525699
 31
0.0
  0
ARC
  5
5C16
  8
0
 10
57.874958703723003
 20
302.60134264985118
 30
0.0
 40
1.5
 50
359.99999999999972
 51
89.999999999999787
  0
LINE
  5
5C17
  8
0
 10
63.874958703722989
 20
288.54008945444531
 30
0.0
 11
63.874958703723053
 21
295.10134264985112
 31
0.0
  0
LINE
  5
5C19
  8
0
 10
61.374958703722989
 20
288.54008945444542
 30
0.0
 11
65.374958703722996
 21
288.54008945444531
 31
0.0
  0
LINE
  5
5C1A
  8
0
 10
96.874958703722996
 20
295.10134264985112
 30
0.0
 11
91.655830398303692
 21
295.10134264985112
 31
0.0
  0
LINE
  5
5C1B
  8
0
 10
59.874958703722939
 20
296.60134264985112
 30
0.0
 11
59.374958703722989
 21
296.60134264985112
 31
0.0
  0
LINE
  5
5C1C
  8
0
 10
59.874958703722882
 20
296.60134264985112
 30
0.0
 11
61.374958703723053
 21
295.10134264985112
 31
0.0
  0
LINE
  5
5C1D
  8
0
 10
57.874958703723053
 20
304.10134264985118
 30
0.0
 11
56.374958703723053
 21
304.10134264985118
 31
0.0
  0
DIMENSION
  5
5C1E
  8
DIM
  2
*D179
 10
11.37495870372293
 20
350.37540335452559
 30
0.0
 11
33.874958703722939
 21
352.87540335452559
 31
0.0
 70
     0
 13
56.374958703722939
 23
338.60134264985112
 33
0.0
 14
11.37495870372293
 24
338.60134264985112
 34
0.0
  0
LINE
  5
5C1F
  8
0
 10
56.374958703723053
 20
330.34557307766772
 30
0.0
 11
11.37495870372293
 21
330.34557307766772
 31
0.0
  0
LINE
  5
5C20
  8
0
 10
56.374958703722939
 20
338.60134264985112
 30
0.0
 11
11.37495870372293
 21
338.60134264985112
 31
0.0
  0
CIRCLE
  5
5C21
  8
0
 10
206.4829295277888
 20
281.60134264985112
 30
0.0
 40
51.000167006711301
  0
ARC
  5
5C22
  8
0
 10
206.4829295277888
 20
281.60134264985112
 30
0.0
 40
47.365410600302383
 50
31.07304699732568
 51
328.92695300267422
  0
LINE
  5
5C23
  8
0
 10
149.4829295277888
 20
232.8571122220346
 30
0.0
 11
149.4829295277888
 21
257.95134264985131
 31
0.0
  0
LINE
  5
5C24
  8
CENTER
 10
206.4829295277888
 20
222.4425160973187
 30
0.0
 11
206.4829295277888
 21
341.02120339509099
 31
0.0
  0
LINE
  5
5C25
  8
0
 10
263.48292952778883
 20
232.8571122220346
 30
0.0
 11
263.48292952778883
 21
257.71237684255851
 31
0.0
  0
DIMENSION
  5
5C26
  8
DIM
  2
*D189
 10
122.4787211634884
 20
224.60134264985109
 30
0.0
 11
119.9787211634883
 21
281.60134264985118
 31
0.0
 70
     0
 13
157.7386990999731
 23
338.60134264985112
 33
0.0
 14
157.7386990999731
 24
224.60134264985109
 34
0.0
 50
90.0
  0
DIMENSION
  5
5C27
  8
DIM
  2
*D188
 10
132.38485615557821
 20
236.60134264985109
 30
0.0
 11
129.88485615557821
 21
281.60134264985118
 31
0.0
 70
     0
  1
\U+25A1<>
 13
151.2329295277888
 23
326.60134264985112
 33
0.0
 14
151.2329295277888
 24
236.60134264985109
 34
0.0
 50
90.0
  0
DIMENSION
  5
5C28
  8
DIM
  2
*D190
 10
219.98292952778891
 20
216.11230317902479
 30
0.0
 11
206.482929527789
 21
218.61230317902479
 31
0.0
 70
     0
 13
192.98292952778891
 23
275.06169168726592
 33
0.0
 14
219.98292952778891
 24
275.06169168726592
 34
0.0
  0
LINE
  5
5C29
  8
0
 10
205.58292952778899
 20
224.60134264985109
 30
0.0
 11
207.38292952778889
 21
224.60134264985109
 31
0.0
  0
ARC
  5
5C2A
  8
0
 10
206.4829295277888
 20
281.60134264985112
 30
0.0
 40
75.0
 50
220.53580211131711
 51
229.4641978886828
  0
CIRCLE
  5
5C2B
  8
0
 10
161.4829295277888
 20
236.6013426498512
 30
0.0
 40
9.25
  0
LINE
  5
5C2C
  8
CENTER
 10
171.7329295277888
 20
236.60134264985109
 30
0.0
 11
151.2329295277888
 21
236.60134264985109
 31
0.0
  0
LINE
  5
5C2D
  8
0
 10
157.73869909997299
 20
224.60134264985109
 30
0.0
 11
182.46344662414251
 21
224.60134264985101
 31
0.0
  0
CIRCLE
  5
5C2E
  8
0
 10
161.4829295277888
 20
236.6013426498512
 30
0.0
 40
6.1500000000000004
  0
ARC
  5
5C2F
  8
0
 62
     3
 10
161.4829295277888
 20
236.6013426498512
 30
0.0
 40
7.0
 50
253.86242958929759
 51
201.1423466209182
  0
LINE
  5
5C30
  8
CENTER
 10
161.4829295277888
 20
226.35134264985109
 30
0.0
 11
161.4829295277888
 21
246.85134264985109
 31
0.0
  0
LINE
  5
5C31
  8
0
 10
186.2634466241424
 20
224.60134264985101
 30
0.0
 11
197.88292952778869
 21
224.60134264985089
 31
0.0
  0
ARC
  5
5C32
  8
0
 10
184.8134466241425
 20
229.4987114464646
 30
0.0
 40
1.7
 50
0.0
 51
90.0
  0
LINE
  5
5C33
  8
CENTER
 10
184.3634466241426
 20
222.98319293135549
 30
0.0
 11
184.3634466241426
 21
231.89837497876681
 31
0.0
  0
ARC
  5
5C34
  8
0
 10
183.91344662414241
 20
229.4987114464646
 30
0.0
 40
1.7
 50
90.0
 51
180.0
  0
LINE
  5
5C35
  8
0
 10
186.06344662414239
 20
226.8987114464646
 30
0.0
 11
186.5134466241424
 21
227.3987114464646
 31
0.0
  0
ARC
  5
5C36
  8
0
 10
186.2634466241424
 20
224.80134264985111
 30
0.0
 40
0.2
 50
180.0
 51
270.0
  0
LINE
  5
5C37
  8
0
 10
186.06344662414239
 20
226.8987114464646
 30
0.0
 11
186.06344662414239
 21
224.80134264985099
 31
0.0
  0
LINE
  5
5C38
  8
0
 10
182.21344662414251
 20
227.3987114464646
 30
0.0
 11
182.21344662414251
 21
229.4987114464646
 31
0.0
  0
LINE
  5
5C39
  8
0
 10
182.66344662414249
 20
224.80134264985099
 30
0.0
 11
182.66344662414249
 21
226.8987114464646
 31
0.0
  0
ARC
  5
5C3A
  8
0
 10
182.46344662414251
 20
224.80134264985111
 30
0.0
 40
0.2
 50
270.0
 51
0.0
  0
LINE
  5
5C3B
  8
0
 10
182.66344662414249
 20
226.8987114464646
 30
0.0
 11
182.21344662414251
 21
227.3987114464646
 31
0.0
  0
LINE
  5
5C3C
  8
0
 10
186.5134466241424
 20
229.4987114464646
 30
0.0
 11
186.5134466241424
 21
227.3987114464646
 31
0.0
  0
LINE
  5
5C3D
  8
0
 10
183.91344662414249
 20
231.1987114464645
 30
0.0
 11
184.81344662414239
 21
231.1987114464645
 31
0.0
  0
LINE
  5
5C3E
  8
0
 10
196.58292952778871
 20
227.6013426498503
 30
0.0
 11
205.1829295277891
 21
227.6013426498512
 31
0.0
  0
LINE
  5
5C3F
  8
0
 10
198.08292952778871
 20
224.80134264985099
 30
0.0
 11
198.08292952778871
 21
226.10134264985061
 31
0.0
  0
ARC
  5
5C40
  8
0
 10
197.88292952778869
 20
224.80134264985099
 30
0.0
 40
0.2
 50
270.0
 51
359.9999999999967
  0
ARC
  5
5C41
  8
0
 10
197.88292952778869
 20
226.10134264985061
 30
0.0
 40
0.2
 50
359.9999999999967
 51
90.0
  0
LINE
  5
5C42
  8
0
 10
196.38292952778869
 20
226.5013426498511
 30
0.0
 11
196.38292952778869
 21
227.40134264985051
 31
0.0
  0
ARC
  5
5C43
  8
0
 10
196.58292952778871
 20
226.5013426498511
 30
0.0
 40
0.2
 50
180.0
 51
270.0
  0
ARC
  5
5C44
  8
0
 10
196.58292952778871
 20
227.40134264985051
 30
0.0
 40
0.2
 50
90.0
 51
180.0
  0
LINE
  5
5C45
  8
0
 10
196.58292952778871
 20
226.30134264985131
 30
0.0
 11
197.88292952778869
 21
226.30134264985131
 31
0.0
  0
LINE
  5
5C46
  8
0
 10
205.38292952778889
 20
224.80134264985099
 30
0.0
 11
205.38292952778889
 21
227.40134264985051
 31
0.0
  0
ARC
  5
5C47
  8
0
 10
205.58292952778899
 20
224.80134264985099
 30
0.0
 40
0.2
 50
180.0
 51
270.0
  0
ARC
  5
5C48
  8
0
 10
205.1829295277891
 20
227.40134264985051
 30
0.0
 40
0.2
 50
0.0
 51
90.0
  0
ARC
  5
5C49
  8
0
 10
206.4829295277888
 20
281.60134264985112
 30
0.0
 40
75.0
 50
310.53580211131708
 51
319.4641978886828
  0
LINE
  5
5C4A
  8
CENTER
 10
261.73292952778911
 20
236.60134264985109
 30
0.0
 11
241.2329295277888
 21
236.60134264985109
 31
0.0
  0
LINE
  5
5C4B
  8
0
 10
230.2634466241424
 20
224.60134264985101
 30
0.0
 11
255.22715995560469
 21
224.60134264985109
 31
0.0
  0
LINE
  5
5C4C
  8
0
 10
215.08292952778891
 20
224.60134264985089
 30
0.0
 11
226.46344662414251
 21
224.60134264985089
 31
0.0
  0
LINE
  5
5C4D
  8
0
 10
207.78292952778881
 20
227.6013426498503
 30
0.0
 11
216.3829295277888
 21
227.6013426498503
 31
0.0
  0
LINE
  5
5C4E
  8
0
 10
207.58292952778899
 20
224.80134264985099
 30
0.0
 11
207.58292952778899
 21
227.40134264985051
 31
0.0
  0
ARC
  5
5C4F
  8
0
 10
207.38292952778889
 20
224.80134264985099
 30
0.0
 40
0.2
 50
270.0
 51
0.0
  0
ARC
  5
5C50
  8
0
 10
207.78292952778881
 20
227.40134264985051
 30
0.0
 40
0.2
 50
90.0
 51
180.0
  0
LINE
  5
5C51
  8
0
 10
215.08292952778891
 20
226.3013426498504
 30
0.0
 11
216.3829295277888
 21
226.3013426498504
 31
0.0
  0
LINE
  5
5C52
  8
0
 10
214.88292952778909
 20
224.80134264985099
 30
0.0
 11
214.88292952778909
 21
226.10134264985061
 31
0.0
  0
ARC
  5
5C53
  8
0
 10
215.08292952778891
 20
224.80134264985099
 30
0.0
 40
0.2
 50
180.0
 51
270.0
  0
ARC
  5
5C54
  8
0
 10
215.08292952778891
 20
226.10134264985061
 30
0.0
 40
0.2
 50
90.000000000001606
 51
180.0
  0
LINE
  5
5C55
  8
0
 10
216.5829295277891
 20
226.5013426498511
 30
0.0
 11
216.5829295277891
 21
227.40134264985051
 31
0.0
  0
ARC
  5
5C56
  8
0
 10
216.3829295277888
 20
226.5013426498511
 30
0.0
 40
0.2
 50
270.00000000000159
 51
0.0
  0
ARC
  5
5C57
  8
0
 10
216.3829295277888
 20
227.40134264985051
 30
0.0
 40
0.2
 50
0.0
 51
90.0
  0
LINE
  5
5C58
  8
CENTER
 10
228.36344662414251
 20
223.11371002770929
 30
0.0
 11
228.36344662414251
 21
232.32889207512059
 31
0.0
  0
LINE
  5
5C59
  8
0
 10
226.21344662414239
 20
229.79871144646461
 30
0.0
 11
226.21344662414239
 21
227.6987114464645
 31
0.0
  0
LINE
  5
5C5A
  8
0
 10
230.5134466241424
 20
227.6987114464645
 30
0.0
 11
230.5134466241424
 21
229.79871144646461
 31
0.0
  0
LINE
  5
5C5B
  8
0
 10
226.66344662414241
 20
227.1987114464645
 30
0.0
 11
226.66344662414241
 21
224.80134264985099
 31
0.0
  0
ARC
  5
5C5C
  8
0
 10
226.46344662414251
 20
224.80134264985111
 30
0.0
 40
0.2
 50
270.0
 51
0.0
  0
LINE
  5
5C5D
  8
0
 10
226.66344662414241
 20
227.1987114464645
 30
0.0
 11
226.21344662414239
 21
227.6987114464645
 31
0.0
  0
LINE
  5
5C5E
  8
0
 10
230.06344662414239
 20
224.80134264985099
 30
0.0
 11
230.06344662414239
 21
227.1987114464645
 31
0.0
  0
ARC
  5
5C5F
  8
0
 10
230.2634466241424
 20
224.80134264985111
 30
0.0
 40
0.2
 50
180.0
 51
270.0
  0
LINE
  5
5C60
  8
0
 10
230.06344662414239
 20
227.1987114464645
 30
0.0
 11
230.5134466241424
 21
227.6987114464645
 31
0.0
  0
ARC
  5
5C61
  8
0
 10
227.9134466241423
 20
229.79871144646461
 30
0.0
 40
1.7
 50
90.0
 51
180.0
  0
LINE
  5
5C62
  8
0
 10
228.8134466241425
 20
231.4987114464646
 30
0.0
 11
227.91344662414241
 21
231.4987114464646
 31
0.0
  0
ARC
  5
5C63
  8
0
 10
228.81344662414239
 20
229.79871144646461
 30
0.0
 40
1.7
 50
0.0
 51
90.0
  0
CIRCLE
  5
5C64
  8
0
 10
251.48292952778891
 20
236.60134264985109
 30
0.0
 40
6.1500000000000004
  0
ARC
  5
5C65
  8
0
 62
     3
 10
251.48292952778891
 20
236.60134264985109
 30
0.0
 40
7.0
 50
253.86242958929759
 51
201.1423466209182
  0
CIRCLE
  5
5C66
  8
0
 10
251.48292952778891
 20
236.60134264985109
 30
0.0
 40
9.25
  0
LINE
  5
5C67
  8
CENTER
 10
251.48292952778891
 20
226.35134264985109
 30
0.0
 11
251.48292952778891
 21
246.85134264985109
 31
0.0
  0
LINE
  5
5C68
  8
0
 10
207.38292952778869
 20
338.60134264985112
 30
0.0
 11
205.58292952778879
 21
338.60134264985112
 31
0.0
  0
LINE
  5
5C69
  8
0
 10
200.21986012066529
 20
295.23185974620492
 30
0.0
 11
212.74599893491239
 21
295.23185974620492
 31
0.0
  0
LINE
  5
5C6A
  8
0
 10
199.6804328095574
 20
268.23185974620492
 30
0.0
 11
213.28542624602019
 21
268.23185974620492
 31
0.0
  0
CIRCLE
  5
5C6D
  8
0
 10
206.4829295277888
 20
281.60134264985112
 30
0.0
 40
15.000567813000909
  0
CIRCLE
  5
5C6F
  8
0
 10
206.4829295277888
 20
281.60134264985112
 30
0.0
 40
22.50037854598099
  0
LINE
  5
5C70
  8
CENTER
 10
139.41479969708919
 20
281.73185974620492
 30
0.0
 11
265.64880842956211
 21
281.73185974620492
 31
0.0
  0
DIMENSION
  5
5C71
  8
DIM
  2
*D187
 10
141.4829295277888
 20
353.39094144785508
 30
0.0
 11
202.4829295277888
 21
355.89094144785508
 31
0.0
 70
     0
 13
263.48292952778883
 23
330.34557307766681
 33
0.0
 14
141.4829295277888
 24
294.60134264985101
 34
0.0
  0
INSERT
  5
5C72
  8
0
  2
*U218
 10
0.0
 20
0.0
 30
0.0
  0
POLYLINE
  8
0
  5
6074
  66
     1
 10
0.000000
 20
0.000000
 30
0.000000
  70
     8
  0
VERTEX
  8
0
  5
6075
 10
251.483
 20
326.601
 30
0.000000
  70
    32
  0
VERTEX
  8
0
  5
6076
 10
235.307
 20
366.336
 30
0.000000
  70
    32
  0
VERTEX
  8
0
  5
6077
 10
232.307
 20
366.336
 30
0.000000
  70
    32
  0
SEQEND
  8
0
  5
6078
  0
LINE
  5
5C74
  8
CENTER
 10
161.4829295277888
 20
316.35134264985112
 30
0.0
 11
161.4829295277888
 21
336.85134264985112
 31
0.0
  0
CIRCLE
  5
5C75
  8
0
 10
161.4829295277888
 20
326.60134264985112
 30
0.0
 40
9.25
  0
LINE
  5
5C76
  8
0
 10
149.48292952778871
 20
305.7513426498511
 30
0.0
 11
149.4829295277888
 21
330.34557307766681
 31
0.0
  0
LINE
  5
5C78
  8
0
 10
152.28029832440231
 20
306.0013426498511
 30
0.0
 11
154.3802983244023
 21
306.0013426498511
 31
0.0
  0
LINE
  5
5C79
  8
0
 10
154.3802983244023
 20
301.70134264985109
 30
0.0
 11
152.28029832440231
 21
301.7013426498512
 31
0.0
  0
LINE
  5
5C7A
  8
CENTER
 10
147.8647798092932
 20
303.85134264985112
 30
0.0
 11
156.77996185670449
 21
303.85134264985112
 31
0.0
  0
LINE
  5
5C7B
  8
0
 10
152.08029832440221
 20
258.15134264985119
 30
0.0
 11
152.58029832440221
 21
257.7013426498512
 31
0.0
  0
LINE
  5
5C7C
  8
0
 10
152.08029832440221
 20
261.55134264985122
 30
0.0
 11
152.58029832440221
 21
262.00134264985121
 31
0.0
  0
LINE
  5
5C7D
  8
CENTER
 10
147.8647798092932
 20
259.85134264985112
 30
0.0
 11
157.0799618567045
 21
259.85134264985129
 31
0.0
  0
LINE
  5
5C7E
  8
0
 10
141.4829295277886
 20
268.60134264985112
 30
0.0
 11
141.4829295277888
 21
294.60134264985101
 31
0.0
  0
LINE
  5
5C7F
  8
0
 10
149.4829295277888
 20
261.75134264985121
 30
0.0
 11
149.4829295277886
 21
263.10134264985112
 31
0.0
  0
LINE
  5
5C80
  8
0
 10
149.68292952778879
 20
258.15134264985119
 30
0.0
 11
152.08029832440221
 21
258.15134264985119
 31
0.0
  0
LINE
  5
5C81
  8
0
 10
152.08029832440221
 20
261.55134264985122
 30
0.0
 11
149.68292952778879
 21
261.55134264985122
 31
0.0
  0
ARC
  5
5C82
  8
0
 10
149.68292952778859
 20
257.95134264985131
 30
0.0
 40
0.2
 50
90.0
 51
180.0
  0
ARC
  5
5C83
  8
0
 10
149.68292952778859
 20
261.75134264985121
 30
0.0
 40
0.2
 50
180.0
 51
270.0
  0
LINE
  5
5C84
  8
0
 10
141.4829295277886
 20
268.60134264985112
 30
0.0
 11
149.4829295277886
 21
263.10134264985112
 31
0.0
  0
LINE
  5
5C85
  8
0
 10
141.4829295277888
 20
294.60134264985101
 30
0.0
 11
149.4829295277888
 21
300.10134264985112
 31
0.0
  0
LINE
  5
5C86
  8
0
 10
151.78029832440231
 20
302.15134264985107
 30
0.0
 11
149.68292952778879
 21
302.15134264985107
 31
0.0
  0
LINE
  5
5C87
  8
0
 10
149.4829295277888
 20
300.10134264985112
 30
0.0
 11
149.48292952778871
 21
301.95134264985109
 31
0.0
  0
ARC
  5
5C88
  8
0
 10
149.68292952778859
 20
301.95134264985109
 30
0.0
 40
0.2
 50
90.0
 51
180.0
  0
LINE
  5
5C89
  8
0
 10
151.78029832440231
 20
302.15134264985107
 30
0.0
 11
152.28029832440231
 21
301.7013426498512
 31
0.0
  0
LINE
  5
5C8A
  8
0
 10
149.68292952778879
 20
305.55134264985111
 30
0.0
 11
151.78029832440231
 21
305.55134264985111
 31
0.0
  0
ARC
  5
5C8B
  8
0
 10
149.68292952778859
 20
305.75134264985098
 30
0.0
 40
0.2
 50
180.0
 51
270.0
  0
LINE
  5
5C8C
  8
0
 10
151.78029832440231
 20
305.55134264985111
 30
0.0
 11
152.28029832440231
 21
306.0013426498511
 31
0.0
  0
LINE
  5
5C8D
  8
0
 10
192.98292952778891
 20
275.06169168726592
 30
0.0
 11
192.9829295277888
 21
288.1409936124362
 31
0.0
  0
ARC
  5
5C8E
  8
0
 10
154.68029832440209
 20
260.30134264985122
 30
0.0
 40
1.7
 50
0.0
 51
90.0
  0
LINE
  5
5C8F
  8
0
 10
156.3802983244023
 20
259.40134264985119
 30
0.0
 11
156.3802983244023
 21
260.30134264985122
 31
0.0
  0
LINE
  5
5C90
  8
0
 10
152.58029832440221
 20
257.7013426498512
 30
0.0
 11
154.68029832440229
 21
257.7013426498512
 31
0.0
  0
LINE
  5
5C91
  8
0
 10
154.68029832440229
 20
262.00134264985121
 30
0.0
 11
152.58029832440221
 21
262.00134264985121
 31
0.0
  0
ARC
  5
5C92
  8
0
 10
154.68029832440209
 20
259.40134264985107
 30
0.0
 40
1.7
 50
270.0
 51
0.0
  0
ARC
  5
5C93
  8
0
 10
154.38029832440219
 20
303.40134264985107
 30
0.0
 40
1.7
 50
270.0
 51
0.0
  0
LINE
  5
5C94
  8
0
 10
156.08029832440221
 20
304.30134264985122
 30
0.0
 11
156.08029832440221
 21
303.40134264985107
 31
0.0
  0
ARC
  5
5C95
  8
0
 10
154.38029832440219
 20
304.30134264985111
 30
0.0
 40
1.7
 50
0.0
 51
90.0
  0
ARC
  5
5C96
  8
0
 10
206.4829295277888
 20
281.60134264985112
 30
0.0
 40
75.0
 50
130.53580211131711
 51
139.4641978886828
  0
LINE
  5
5C97
  8
CENTER
 10
171.7329295277888
 20
326.60134264985112
 30
0.0
 11
151.2329295277888
 21
326.60134264985112
 31
0.0
  0
LINE
  5
5C99
  8
0
 10
157.73869909997299
 20
338.60134264985112
 30
0.0
 11
182.70241243143519
 21
338.60134264985129
 31
0.0
  0
CIRCLE
  5
5C9A
  8
0
 10
161.4829295277888
 20
326.60134264985112
 30
0.0
 40
6.1500000000000004
  0
ARC
  5
5C9B
  8
0
 62
     3
 10
161.4829295277888
 20
326.60134264985112
 30
0.0
 40
7.0
 50
253.86242958929759
 51
201.1423466209182
  0
ARC
  5
5C9C
  8
0
 10
205.1829295277889
 20
335.80134264985162
 30
0.0
 40
0.2
 50
270.0
 51
0.0
  0
ARC
  5
5C9D
  8
0
 10
196.58292952778871
 20
335.80134264985162
 30
0.0
 40
0.2
 50
180.0
 51
270.0
  0
LINE
  5
5C9E
  8
0
 10
186.3024124314351
 20
336.00397385323782
 30
0.0
 11
186.7524124314352
 21
335.50397385323782
 31
0.0
  0
LINE
  5
5C9F
  8
0
 10
182.90241243143529
 20
336.00397385323782
 30
0.0
 11
182.45241243143519
 21
335.50397385323782
 31
0.0
  0
LINE
  5
5CA0
  8
CENTER
 10
184.60241243143511
 20
340.21949236834678
 30
0.0
 11
184.60241243143511
 21
331.00431032093559
 31
0.0
  0
ARC
  5
5CA1
  8
0
 10
185.0524124314351
 20
333.4039738532378
 30
0.0
 40
1.7
 50
270.0
 51
0.0
  0
LINE
  5
5CA2
  8
0
 10
184.15241243143501
 20
331.70397385323781
 30
0.0
 11
185.0524124314351
 21
331.70397385323781
 31
0.0
  0
LINE
  5
5CA3
  8
0
 10
182.45241243143519
 20
335.50397385323782
 30
0.0
 11
182.45241243143519
 21
333.4039738532378
 31
0.0
  0
ARC
  5
5CA4
  8
0
 10
184.15241243143501
 20
333.4039738532378
 30
0.0
 40
1.7
 50
180.0
 51
270.0
  0
LINE
  5
5CA5
  8
0
 10
186.7524124314352
 20
333.4039738532378
 30
0.0
 11
186.7524124314352
 21
335.50397385323782
 31
0.0
  0
LINE
  5
5CA6
  8
0
 10
205.1829295277889
 20
335.6013426498518
 30
0.0
 11
196.58292952778879
 21
335.6013426498518
 31
0.0
  0
LINE
  5
5CA7
  8
0
 10
186.5024124314352
 20
338.60134264985129
 30
0.0
 11
197.88292952778869
 21
338.60134264985129
 31
0.0
  0
ARC
  5
5CA8
  8
0
 10
186.50241243143509
 20
338.4013426498513
 30
0.0
 40
0.2
 50
90.0
 51
180.0
  0
ARC
  5
5CA9
  8
0
 10
182.70241243143511
 20
338.4013426498513
 30
0.0
 40
0.2
 50
0.0
 51
90.0
  0
LINE
  5
5CAA
  8
0
 10
182.90241243143529
 20
338.4013426498513
 30
0.0
 11
182.90241243143529
 21
336.00397385323782
 31
0.0
  0
LINE
  5
5CAB
  8
0
 10
186.3024124314351
 20
336.00397385323782
 30
0.0
 11
186.3024124314351
 21
338.4013426498513
 31
0.0
  0
LINE
  5
5CAC
  8
0
 10
198.08292952778851
 20
338.4013426498513
 30
0.0
 11
198.08292952778851
 21
337.10134264985169
 31
0.0
  0
ARC
  5
5CAD
  8
0
 10
197.88292952778869
 20
337.10134264985169
 30
0.0
 40
0.2
 50
270.00000000000159
 51
0.0
  0
ARC
  5
5CAE
  8
0
 10
197.88292952778869
 20
338.4013426498513
 30
0.0
 40
0.2
 50
0.0
 51
90.0
  0
ARC
  5
5CAF
  8
0
 10
196.58292952778871
 20
336.7013426498512
 30
0.0
 40
0.2
 50
90.000000000001606
 51
180.0
  0
LINE
  5
5CB0
  8
0
 10
197.88292952778869
 20
336.90134264985193
 30
0.0
 11
196.58292952778879
 21
336.90134264985193
 31
0.0
  0
LINE
  5
5CB1
  8
0
 10
196.3829295277886
 20
336.7013426498512
 30
0.0
 11
196.3829295277886
 21
335.80134264985162
 31
0.0
  0
ARC
  5
5CB2
  8
0
 10
205.58292952778879
 20
338.4013426498513
 30
0.0
 40
0.2
 50
90.0
 51
180.0
  0
LINE
  5
5CB3
  8
0
 10
205.38292952778869
 20
338.4013426498513
 30
0.0
 11
205.38292952778869
 21
335.80134264985162
 31
0.0
  0
LINE
  5
5CB4
  8
CENTER
 10
251.48292952778891
 20
316.35134264985112
 30
0.0
 11
251.48292952778891
 21
336.85134264985112
 31
0.0
  0
LINE
  5
5CB5
  8
0
 10
263.48292952778871
 20
305.51237684255852
 30
0.0
 11
263.48292952778883
 21
330.34557307766681
 31
0.0
  0
CIRCLE
  5
5CB6
  8
0
 10
251.48292952778891
 20
326.60134264985112
 30
0.0
 40
9.25
  0
LINE
  5
5CB7
  8
0
 10
263.28292952778889
 20
305.31237684255842
 30
0.0
 11
260.88556073117542
 21
305.31237684255842
 31
0.0
  0
LINE
  5
5CB8
  8
0
 10
260.88556073117542
 20
301.91237684255839
 30
0.0
 11
263.28292952778889
 21
301.91237684255839
 31
0.0
  0
LINE
  5
5CB9
  8
CENTER
 10
265.10107924628443
 20
303.61237684255849
 30
0.0
 11
255.88589719887321
 21
303.61237684255849
 31
0.0
  0
LINE
  5
5CBA
  8
0
 10
261.58292952778879
 20
291.70134264985143
 30
0.0
 11
260.68292952778933
 21
291.70134264985143
 31
0.0
  0
LINE
  5
5CBB
  8
0
 10
263.28292952778901
 20
280.50134264985121
 30
0.0
 11
260.68292952778933
 21
280.50134264985121
 31
0.0
  0
LINE
  5
5CBC
  8
0
 10
263.28292952778901
 20
282.70134264985131
 30
0.0
 11
260.68292952778933
 21
282.70134264985131
 31
0.0
  0
LINE
  5
5CBD
  8
0
 10
261.58292952778879
 20
271.50134264985098
 30
0.0
 11
260.68292952778933
 21
271.50134264985098
 31
0.0
  0
LINE
  5
5CBE
  8
0
 10
261.18556073117543
 20
257.91237684255861
 30
0.0
 11
260.68556073117543
 21
257.46237684255851
 31
0.0
  0
LINE
  5
5CBF
  8
0
 10
261.18556073117543
 20
261.31237684255842
 30
0.0
 11
260.68556073117543
 21
261.76237684255852
 31
0.0
  0
LINE
  5
5CC0
  8
CENTER
 10
265.10107924628443
 20
259.6123768425586
 30
0.0
 11
256.18589719887319
 21
259.6123768425586
 31
0.0
  0
LINE
  5
5CC1
  8
0
 10
260.48292952778951
 20
282.90134264985107
 30
0.0
 11
260.48292952778951
 21
291.5013426498511
 31
0.0
  0
LINE
  5
5CC2
  8
0
 10
219.98292952778891
 20
275.06169168726638
 30
0.0
 11
219.98292952778891
 21
288.14099361243592
 31
0.0
  0
ARC
  5
5CC3
  8
0
 10
250.66817597870559
 20
264.49618379323658
 30
0.0
 40
4.5
 50
75.000000000000057
 51
159.78409142954581
  0
ARC
  5
5CC4
  8
0
 10
243.19758136461181
 20
259.47719822722109
 30
0.0
 40
4.5
 50
328.92695300267422
 51
33.894474594455872
  0
ARC
  5
5CC5
  8
0
 10
250.66817597870559
 20
264.49618379323658
 30
0.0
 40
4.5
 50
159.78409142954581
 51
213.8944745944558
  0
ARC
  5
5CC6
  8
0
 10
204.2175189274864
 20
281.60134264985112
 30
0.0
 40
45.0
 50
339.7840914295457
 51
339.7840914295457
  0
LINE
  5
5CC7
  8
0
 10
260.68556073117543
 20
257.46237684255851
 30
0.0
 11
258.58556073117541
 21
257.46237684255851
 31
0.0
  0
LINE
  5
5CC8
  8
0
 10
258.58556073117541
 20
261.76237684255852
 30
0.0
 11
260.68556073117543
 21
261.76237684255852
 31
0.0
  0
LINE
  5
5CC9
  8
0
 10
256.88556073117542
 20
259.16237684255861
 30
0.0
 11
256.88556073117542
 21
260.06237684255842
 31
0.0
  0
ARC
  5
5CCA
  8
0
 10
258.58556073117518
 20
260.06237684255871
 30
0.0
 40
1.7
 50
90.0
 51
180.0
  0
ARC
  5
5CCB
  8
0
 10
258.58556073117518
 20
259.16237684255861
 30
0.0
 40
1.7
 50
180.0
 51
270.0
  0
LINE
  5
5CCC
  8
0
 10
251.832861681667
 20
268.84285001153739
 30
0.0
 11
255.4024744018576
 21
267.8863751658705
 31
0.0
  0
CIRCLE
  5
5CCD
  8
0
 10
250.66817597870559
 20
264.49618379323658
 30
0.0
 40
1.5
  0
ARC
  5
5CCE
  8
0
 10
255.143655356755
 20
266.92044933958141
 30
0.0
 40
1.0
 50
63.800407692426511
 51
75.000000000000057
  0
LINE
  5
5CCF
  8
0
 10
260.48292952778951
 20
271.70134264985097
 30
0.0
 11
260.4829295277886
 21
280.30134264985139
 31
0.0
  0
ARC
  5
5CD0
  8
0
 10
260.68292952778933
 20
271.70134264985097
 30
0.0
 40
0.2
 50
180.0
 51
270.0
  0
ARC
  5
5CD1
  8
0
 10
260.68292952778933
 20
280.30134264985139
 30
0.0
 40
0.2
 50
90.0
 51
180.0
  0
ARC
  5
5CD2
  8
0
 10
260.68292952778933
 20
282.90134264985107
 30
0.0
 40
0.2
 50
180.0
 51
270.0
  0
ARC
  5
5CD3
  8
0
 10
243.19758136461181
 20
303.7254870724812
 30
0.0
 40
4.5
 50
326.10552540554409
 51
31.07304699732568
  0
ARC
  5
5CD4
  8
0
 10
258.28556073117539
 20
303.1623768425585
 30
0.0
 40
1.7
 50
180.0
 51
270.0
  0
ARC
  5
5CD5
  8
0
 10
250.66817597870559
 20
298.70650150646571
 30
0.0
 40
4.5
 50
200.2159085704541
 51
285.0
  0
ARC
  5
5CD6
  8
0
 10
250.66817597870559
 20
298.70650150646571
 30
0.0
 40
4.5
 50
146.10552540554411
 51
200.2159085704541
  0
ARC
  5
5CD7
  8
0
 10
204.2175189274864
 20
281.60134264985112
 30
0.0
 40
45.0
 50
20.215908570454211
 51
20.215908570454211
  0
LINE
  5
5CD8
  8
0
 10
251.832861681667
 20
294.3598352881649
 30
0.0
 11
255.4024744018576
 21
295.31631013383179
 31
0.0
  0
ARC
  5
5CD9
  8
0
 10
260.68292952778933
 20
291.5013426498511
 30
0.0
 40
0.2
 50
90.0
 51
180.0
  0
CIRCLE
  5
5CDA
  8
0
 10
250.66817597870559
 20
298.70650150646571
 30
0.0
 40
1.5
  0
LINE
  5
5CDB
  8
0
 10
260.88556073117542
 20
301.91237684255839
 30
0.0
 11
260.38556073117542
 21
301.4623768425584
 31
0.0
  0
LINE
  5
5CDC
  8
0
 10
258.28556073117539
 20
301.4623768425584
 30
0.0
 11
260.38556073117542
 21
301.4623768425584
 31
0.0
  0
ARC
  5
5CDD
  8
0
 10
255.143655356755
 20
296.28223596012089
 30
0.0
 40
1.0
 50
285.0
 51
296.19959230757343
  0
LINE
  5
5CDE
  8
0
 10
260.88556073117542
 20
305.31237684255842
 30
0.0
 11
260.38556073117542
 21
305.76237684255852
 31
0.0
  0
LINE
  5
5CDF
  8
0
 10
260.38556073117542
 20
305.76237684255852
 30
0.0
 11
258.28556073117539
 21
305.76237684255852
 31
0.0
  0
LINE
  5
5CE0
  8
0
 10
256.58556073117541
 20
304.06237684255848
 30
0.0
 11
256.58556073117541
 21
303.1623768425585
 31
0.0
  0
ARC
  5
5CE1
  8
0
 10
258.28556073117539
 20
304.06237684255848
 30
0.0
 40
1.7
 50
90.0
 51
180.0
  0
LINE
  5
5CE2
  8
0
 10
263.48292952778871
 20
261.51237684255852
 30
0.0
 11
263.48292952778871
 21
273.00134264985098
 31
0.0
  0
LINE
  5
5CE3
  8
0
 10
263.28292952778889
 20
257.91237684255861
 30
0.0
 11
261.18556073117543
 21
257.91237684255861
 31
0.0
  0
LINE
  5
5CE4
  8
0
 10
261.18556073117543
 20
261.31237684255842
 30
0.0
 11
263.28292952778889
 21
261.31237684255842
 31
0.0
  0
ARC
  5
5CE5
  8
0
 10
263.28292952778878
 20
257.71237684255851
 30
0.0
 40
0.2
 50
0.0
 51
90.0
  0
ARC
  5
5CE6
  8
0
 10
263.28292952778878
 20
261.51237684255852
 30
0.0
 40
0.2
 50
270.0
 51
0.0
  0
LINE
  5
5CE7
  8
0
 10
263.28292952778901
 20
273.20134264985097
 30
0.0
 11
261.98292952778939
 21
273.20134264985097
 31
0.0
  0
LINE
  5
5CE8
  8
0
 10
261.78292952778872
 20
271.70134264985097
 30
0.0
 11
261.78292952778872
 21
273.00134264985098
 31
0.0
  0
ARC
  5
5CE9
  8
0
 10
261.58292952778879
 20
271.70134264985097
 30
0.0
 40
0.2
 50
270.0
 51
0.0
  0
ARC
  5
5CEA
  8
0
 10
261.98292952778928
 20
273.00134264985098
 30
0.0
 40
0.2
 50
89.999999999999204
 51
180.0
  0
ARC
  5
5CEB
  8
0
 10
263.28292952778901
 20
273.00134264985098
 30
0.0
 40
0.2
 50
0.0
 51
89.999999999999204
  0
LINE
  5
5CEC
  8
0
 10
263.48292952778883
 20
280.70134264985131
 30
0.0
 11
263.48292952778883
 21
282.50134264985121
 31
0.0
  0
ARC
  5
5CED
  8
0
 10
263.28292952778901
 20
280.70134264985131
 30
0.0
 40
0.2
 50
270.0
 51
0.0
  0
ARC
  5
5CEE
  8
0
 10
263.28292952778901
 20
282.50134264985121
 30
0.0
 40
0.2
 50
0.0
 51
90.0
  0
LINE
  5
5CEF
  8
0
 10
263.48292952778871
 20
290.2013426498512
 30
0.0
 11
263.48292952778871
 21
301.71237684255851
 31
0.0
  0
LINE
  5
5CF0
  8
0
 10
263.28292952778901
 20
290.00134264985132
 30
0.0
 11
261.98292952778939
 21
290.00134264985132
 31
0.0
  0
LINE
  5
5CF1
  8
0
 10
261.78292952778958
 20
290.2013426498512
 30
0.0
 11
261.78292952778958
 21
291.5013426498511
 31
0.0
  0
ARC
  5
5CF2
  8
0
 10
261.98292952778928
 20
290.2013426498512
 30
0.0
 40
0.2
 50
180.0
 51
270.0
  0
ARC
  5
5CF3
  8
0
 10
261.58292952778879
 20
291.5013426498511
 30
0.0
 40
0.2
 50
0.0
 51
90.00000000000081
  0
ARC
  5
5CF4
  8
0
 10
263.28292952778901
 20
290.2013426498512
 30
0.0
 40
0.2
 50
270.0
 51
0.0
  0
ARC
  5
5CF5
  8
0
 10
263.28292952778878
 20
301.71237684255851
 30
0.0
 40
0.2
 50
0.0
 51
90.0
  0
ARC
  5
5CF6
  8
0
 10
263.28292952778889
 20
305.51237684255852
 30
0.0
 40
0.2
 50
270.0
 51
0.0
  0
ARC
  5
5CF7
  8
0
 10
206.4829295277888
 20
281.60134264985112
 30
0.0
 40
75.0
 50
40.535802111317132
 51
49.464197888682861
  0
LINE
  5
5CF8
  8
CENTER
 10
261.73292952778911
 20
326.60134264985112
 30
0.0
 11
241.2329295277888
 21
326.60134264985112
 31
0.0
  0
LINE
  5
5CF9
  8
0
 10
230.50241243143509
 20
338.60134264985129
 30
0.0
 11
255.22715995560469
 21
338.60134264985112
 31
0.0
  0
LINE
  5
5CFA
  8
0
 10
230.7524124314352
 20
335.80397385323778
 30
0.0
 11
230.7524124314352
 21
333.70397385323781
 31
0.0
  0
LINE
  5
5CFB
  8
0
 10
226.45241243143511
 20
333.70397385323781
 30
0.0
 11
226.45241243143511
 21
335.80397385323778
 31
0.0
  0
LINE
  5
5CFC
  8
CENTER
 10
228.60241243143511
 20
340.35000946470052
 30
0.0
 11
228.60241243143511
 21
331.43482741728928
 31
0.0
  0
ARC
  5
5CFD
  8
0
 10
216.3829295277888
 20
335.80134264985162
 30
0.0
 40
0.2
 50
270.0
 51
0.0
  0
ARC
  5
5CFE
  8
0
 10
207.78292952778861
 20
335.80134264985162
 30
0.0
 40
0.2
 50
180.0
 51
270.0
  0
LINE
  5
5CFF
  8
0
 10
216.3829295277888
 20
335.6013426498518
 30
0.0
 11
207.78292952778861
 21
335.60134264985089
 31
0.0
  0
ARC
  5
5D00
  8
0
 10
228.15241243143501
 20
333.70397385323781
 30
0.0
 40
1.7
 50
180.0
 51
270.0
  0
LINE
  5
5D01
  8
0
 10
229.0524124314351
 20
332.00397385323782
 30
0.0
 11
228.15241243143521
 21
332.00397385323782
 31
0.0
  0
ARC
  5
5D02
  8
0
 10
229.0524124314351
 20
333.70397385323781
 30
0.0
 40
1.7
 50
270.0
 51
0.0
  0
LINE
  5
5D03
  8
0
 10
215.08292952778899
 20
338.60134264985129
 30
0.0
 11
226.70241243143511
 21
338.60134264985129
 31
0.0
  0
ARC
  5
5D04
  8
0
 10
207.38292952778869
 20
338.4013426498513
 30
0.0
 40
0.2
 50
0.0
 51
90.0
  0
LINE
  5
5D05
  8
0
 10
207.58292952778879
 20
338.4013426498513
 30
0.0
 11
207.58292952778879
 21
335.80134264985162
 31
0.0
  0
LINE
  5
5D06
  8
0
 10
216.3829295277888
 20
336.90134264985102
 30
0.0
 11
215.08292952778891
 21
336.90134264985102
 31
0.0
  0
LINE
  5
5D07
  8
0
 10
214.8829295277888
 20
338.4013426498513
 30
0.0
 11
214.8829295277888
 21
337.10134264985169
 31
0.0
  0
ARC
  5
5D08
  8
0
 10
215.08292952778891
 20
337.10134264985169
 30
0.0
 40
0.2
 50
179.9999999999967
 51
270.0
  0
ARC
  5
5D09
  8
0
 10
215.08292952778891
 20
338.4013426498513
 30
0.0
 40
0.2
 50
90.0
 51
179.9999999999967
  0
ARC
  5
5D0A
  8
0
 10
216.3829295277888
 20
336.7013426498512
 30
0.0
 40
0.2
 50
0.0
 51
90.0
  0
LINE
  5
5D0B
  8
0
 10
216.58292952778891
 20
336.7013426498512
 30
0.0
 11
216.58292952778891
 21
335.80134264985162
 31
0.0
  0
LINE
  5
5D0C
  8
0
 10
226.90241243143521
 20
336.30397385323778
 30
0.0
 11
226.90241243143521
 21
338.4013426498513
 31
0.0
  0
ARC
  5
5D0D
  8
0
 10
226.70241243143511
 20
338.4013426498513
 30
0.0
 40
0.2
 50
0.0
 51
90.0
  0
LINE
  5
5D0E
  8
0
 10
226.90241243143521
 20
336.30397385323778
 30
0.0
 11
226.45241243143511
 21
335.80397385323778
 31
0.0
  0
LINE
  5
5D0F
  8
0
 10
230.3024124314351
 20
338.4013426498513
 30
0.0
 11
230.3024124314351
 21
336.30397385323778
 31
0.0
  0
ARC
  5
5D10
  8
0
 10
230.50241243143509
 20
338.4013426498513
 30
0.0
 40
0.2
 50
90.0
 51
180.0
  0
LINE
  5
5D11
  8
0
 10
230.3024124314351
 20
336.30397385323778
 30
0.0
 11
230.7524124314352
 21
335.80397385323778
 31
0.0
  0
CIRCLE
  5
5D12
  8
0
 10
251.48292952778891
 20
326.60134264985112
 30
0.0
 40
6.1500000000000004
  0
ARC
  5
5D13
  8
0
 62
     3
 10
251.48292952778891
 20
326.60134264985112
 30
0.0
 40
7.0
 50
253.86242958929759
 51
201.1423466209182
  0
LINE
  5
5E26
  8
0
 10
98.374958703722996
 20
293.60134264985112
 30
0.0
 11
98.374958703722996
 21
269.60134264985049
 31
0.0
  0
LINE
  5
5E27
  8
0
 10
96.874958703722996
 20
295.10134264985112
 30
0.0
 11
98.374958703722996
 21
293.60134264985112
 31
0.0
  0
LINE
  5
5E28
  8
0
 10
98.374958703722996
 20
269.60134264985049
 30
0.0
 11
96.874958703722996
 21
268.10134264985049
 31
0.0
  0
LINE
  5
5E29
  8
0
 10
97.624958703722953
 20
294.35134264985112
 30
0.0
 11
91.655830398303692
 21
294.35134264985112
 31
0.0
  0
LINE
  5
5E2A
  8
0
 10
97.624958703722982
 20
268.85134264985038
 30
0.0
 11
91.655830398303706
 21
268.85134264985061
 31
0.0
  0
LINE
  5
5E2B
  8
0
 10
96.874958703722996
 20
295.10134264985112
 30
0.0
 11
96.87495870372247
 21
268.10134264985049
 31
0.0
  0
LINE
  5
5E2C
  8
0
 10
68.374958703722996
 20
295.10134264985118
 30
0.0
 11
68.374958703722996
 21
268.10134264985112
 31
0.0
  0
DIMENSION
  5
5E3F
  8
DIM
  2
*D191
 10
68.374958703722996
 20
343.19259891739529
 30
0.0
 11
83.374958703722996
 21
345.69259891739517
 31
0.0
 70
     0
 13
98.374958703722996
 23
293.60134264985112
 33
0.0
 14
68.374958703722996
 24
295.10134264985118
 34
0.0
  0
ARC
  5
5E5D
  8
0
 10
82.155830398303749
 20
265.1468599779468
 30
0.0
 40
9.4999999999999645
 50
324.73561031724529
 51
34.341093726745747
  0
ARC
  5
5E5E
  8
0
 10
87.15583039830365
 20
265.1468599779468
 30
0.0
 40
9.4999999999999645
 50
145.65890627325419
 51
215.26438968275471
  0
LINE
  5
5E5F
  8
0
 10
79.399112879490303
 20
259.6620324206454
 30
0.0
 11
89.912547917117095
 21
259.6620324206454
 31
0.0
  0
LINE
  5
5E60
  8
0
 10
91.655830398303692
 20
265.1468599779468
 30
0.0
 11
91.655830398303692
 21
298.05582532175549
 31
0.0
  0
ARC
  5
5E61
  8
0
 10
82.155830398303763
 20
298.05582532175549
 30
0.0
 40
9.4999999999999645
 50
325.65890627325422
 51
35.264389682754711
  0
ARC
  5
5E62
  8
0
 10
87.155830398303664
 20
298.05582532175549
 30
0.0
 40
9.4999999999999645
 50
144.7356103172452
 51
214.3410937267457
  0
LINE
  5
5E63
  8
0
 10
77.655830398303692
 20
265.1468599779468
 30
0.0
 11
77.655830398303692
 21
298.05582532175549
 31
0.0
  0
ARC
  5
5E64
  8
0
 10
53.65583039830377
 20
281.60134264985112
 30
0.0
 40
37.99999999999995
 50
343.0232811802349
 51
16.97671881976509
  0
ARC
  5
5E65
  8
0
 10
115.65583039830361
 20
281.60134264985112
 30
0.0
 40
37.99999999999995
 50
163.02328118023411
 51
196.97671881976501
  0
LINE
  5
5E66
  8
0
 10
79.311738258690184
 20
270.50598476705687
 30
0.0
 11
89.9999225379172
 21
270.50598476705687
 31
0.0
  0
LINE
  5
5E68
  8
0
 10
79.311738258690241
 20
292.69670053264542
 30
0.0
 11
89.9999225379172
 21
292.69670053264542
 31
0.0
  0
LINE
  5
5E69
  8
0
 10
79.399112879490303
 20
303.54065287905689
 30
0.0
 11
89.912547917117095
 21
303.54065287905689
 31
0.0
  0
LINE
  5
5E6A
  8
0
 10
77.655830398303692
 20
295.10134264985112
 30
0.0
 11
61.374958703723053
 21
295.10134264985112
 31
0.0
  0
LINE
  5
5E6B
  8
0
 10
77.655830398303692
 20
294.35134264985112
 30
0.0
 11
68.374958703722996
 21
294.35134264985112
 31
0.0
  0
LINE
  5
5E6C
  8
0
 10
77.655830398303692
 20
268.85134264985089
 30
0.0
 11
68.374958703722996
 21
268.85134264985112
 31
0.0
  0
LINE
  5
5E6D
  8
0
 10
77.655830398303692
 20
268.10134264985089
 30
0.0
 11
61.374958703722989
 21
268.10134264985118
 31
0.0
  0
POLYLINE
  8
0
  5
6079
  66
     1
 10
0.000000
 20
0.000000
 30
0.000000
  70
     8
  0
VERTEX
  8
0
  5
607A
 10
94.2654
 20
295.101
 30
0.000000
  70
    32
  0
VERTEX
  8
0
  5
607B
 10
104.653
 20
315.291
 30
0.000000
  70
    32
  0
VERTEX
  8
0
  5
607C
 10
97.6199
 20
323.717
 30
0.000000
  70
    32
  0
VERTEX
  8
0
  5
607D
 10
94.6199
 20
323.717
 30
0.000000
  70
    32
  0
SEQEND
  8
0
  5
607E
  0
TEXT
  5
5E70
  8
0
 10
76.477020864775994
 20
324.71743037588158
 30
0.0
 40
3.0
  1
M26*1.5
  7
CHINESET
  0
CIRCLE
  5
5E72
  8
0
 10
206.4829295277888
 20
281.73185974620492
 30
0.0
 40
13.0
  0
ARC
  5
5E73
  8
0
 62
     3
 10
206.4829295277888
 20
281.73185974620492
 30
0.0
 40
12.25
 50
171.1361602317767
 51
102.6144083136016
  0
ENDSEC
  0
EOF
