  0
SECTION
  2
HEADER
  9
$ACADVER
  1
AC1012
  9
$DWGCODEPAGE
  3
big5
  9
$INSBASE
 10
0.0
 20
0.0
 30
0.0
  9
$EXTMIN
 10
60.48376922794955
 20
7.735372575774931
 30
-0.0015258207003583
  9
$EXTMAX
 10
271.6360742018455
 20
262.9464773541797
 30
0.0000000349246037
  9
$LIMMIN
 10
0.0
 20
0.0
  9
$LIMMAX
 10
12.0
 20
9.0
  9
$ORTHOMODE
 70
     0
  9
$REGENMODE
 70
     1
  9
$FILLMODE
 70
     1
  9
$QTEXTMODE
 70
     0
  9
$MIRRTEXT
 70
     1
  9
$DRAGMODE
 70
     2
  9
$LTSCALE
 40
5.0
  9
$OSMODE
 70
    55
  9
$ATTMODE
 70
     1
  9
$TEXTSIZE
 40
3.0
  9
$TRACEWID
 40
0.05
  9
$TEXTSTYLE
  7
CHINESET
  9
$CLAYER
  8
0
  9
$CELTYPE
  6
BYLAYER
  9
$CECOLOR
 62
   256
  9
$CELTSCALE
 40
1.0
  9
$DELOBJ
 70
     1
  9
$DISPSILH
 70
     0
  9
$DIMSCALE
 40
1.0
  9
$DIMASZ
 40
3.0
  9
$DIMEXO
 40
3.0
  9
$DIMDLI
 40
2.0
  9
$DIMRND
 40
0.0
  9
$DIMDLE
 40
0.0
  9
$DIMEXE
 40
2.0
  9
$DIMTP
 40
0.0
  9
$DIMTM
 40
0.0
  9
$DIMTXT
 40
3.0
  9
$DIMCEN
 40
-3.0
  9
$DIMTSZ
 40
0.0
  9
$DIMTOL
 70
     0
  9
$DIMLIM
 70
     0
  9
$DIMTIH
 70
     0
  9
$DIMTOH
 70
     0
  9
$DIMSE1
 70
     0
  9
$DIMSE2
 70
     0
  9
$DIMTAD
 70
     1
  9
$DIMZIN
 70
     8
  9
$DIMBLK
  1

  9
$DIMASO
 70
     1
  9
$DIMSHO
 70
     1
  9
$DIMPOST
  1

  9
$DIMAPOST
  1

  9
$DIMALT
 70
     0
  9
$DIMALTD
 70
     2
  9
$DIMALTF
 40
25.4
  9
$DIMLFAC
 40
1.0
  9
$DIMTOFL
 70
     1
  9
$DIMTVP
 40
0.0
  9
$DIMTIX
 70
     0
  9
$DIMSOXD
 70
     0
  9
$DIMSAH
 70
     0
  9
$DIMBLK1
  1

  9
$DIMBLK2
  1

  9
$DIMSTYLE
  2
ISO-25-1
  9
$DIMCLRD
 70
   256
  9
$DIMCLRE
 70
   256
  9
$DIMCLRT
 70
   256
  9
$DIMTFAC
 40
0.7
  9
$DIMGAP
 40
1.0
  9
$DIMJUST
 70
     0
  9
$DIMSD1
 70
     0
  9
$DIMSD2
 70
     0
  9
$DIMTOLJ
 70
     1
  9
$DIMTZIN
 70
     8
  9
$DIMALTZ
 70
     0
  9
$DIMALTTZ
 70
     0
  9
$DIMFIT
 70
     0
  9
$DIMUPT
 70
     0
  9
$DIMUNIT
 70
     2
  9
$DIMDEC
 70
     2
  9
$DIMTDEC
 70
     2
  9
$DIMALTU
 70
     2
  9
$DIMALTTD
 70
     2
  9
$DIMTXSTY
  7
CHINESET
  9
$DIMAUNIT
 70
     0
  9
$LUNITS
 70
     2
  9
$LUPREC
 70
     2
  9
$SKETCHINC
 40
0.1
  9
$FILLETRAD
 40
0.5
  9
$AUNITS
 70
     0
  9
$AUPREC
 70
     0
  9
$MENU
  1
.
  9
$ELEVATION
 40
0.0
  9
$PELEVATION
 40
0.0
  9
$THICKNESS
 40
0.0
  9
$LIMCHECK
 70
     0
  9
$BLIPMODE
 70
     0
  9
$CHAMFERA
 40
0.5
  9
$CHAMFERB
 40
0.5
  9
$CHAMFERC
 40
1.0
  9
$CHAMFERD
 40
0.0
  9
$SKPOLY
 70
     0
  9
$TDCREATE
 40
2452019.631085300
  9
$TDUPDATE
 40
2452965.701968425
  9
$TDINDWG
 40
0.0786525579
  9
$TDUSRTIMER
 40
0.0786525579
  9
$USRTIMER
 70
     1
  9
$ANGBASE
 50
0.0
  9
$ANGDIR
 70
     0
  9
$PDMODE
 70
     0
  9
$PDSIZE
 40
0.0
  9
$PLINEWID
 40
0.0
  9
$COORDS
 70
     1
  9
$SPLFRAME
 70
     0
  9
$SPLINETYPE
 70
     6
  9
$SPLINESEGS
 70
     8
  9
$ATTDIA
 70
     1
  9
$ATTREQ
 70
     1
  9
$HANDLING
 70
 22529
  9
$HANDSEED
  5
22A5
  9
$SURFTAB1
 70
     6
  9
$SURFTAB2
 70
     6
  9
$SURFTYPE
 70
     6
  9
$SURFU
 70
     6
  9
$SURFV
 70
     6
  9
$UCSNAME
  2

  9
$UCSORG
 10
0.0
 20
0.0
 30
0.0
  9
$UCSXDIR
 10
1.0
 20
0.0
 30
0.0
  9
$UCSYDIR
 10
0.0
 20
1.0
 30
0.0
  9
$PUCSNAME
  2

  9
$PUCSORG
 10
0.0
 20
0.0
 30
0.0
  9
$PUCSXDIR
 10
1.0
 20
0.0
 30
0.0
  9
$PUCSYDIR
 10
0.0
 20
1.0
 30
0.0
  9
$USERI1
 70
     0
  9
$USERI2
 70
     0
  9
$USERI3
 70
     0
  9
$USERI4
 70
     0
  9
$USERI5
 70
     0
  9
$USERR1
 40
0.0
  9
$USERR2
 40
0.0
  9
$USERR3
 40
0.0
  9
$USERR4
 40
0.0
  9
$USERR5
 40
0.0
  9
$WORLDVIEW
 70
     1
  9
$SHADEDGE
 70
     3
  9
$SHADEDIF
 70
    70
  9
$TILEMODE
 70
     1
  9
$MAXACTVP
 70
    48
  9
$PINSBASE
 10
0.0
 20
0.0
 30
0.0
  9
$PLIMCHECK
 70
     0
  9
$PEXTMIN
 10
1.000000000000000E+20
 20
1.000000000000000E+20
 30
1.000000000000000E+20
  9
$PEXTMAX
 10
-1.000000000000000E+20
 20
-1.000000000000000E+20
 30
-1.000000000000000E+20
  9
$PLIMMIN
 10
0.0
 20
0.0
  9
$PLIMMAX
 10
12.0
 20
9.0
  9
$UNITMODE
 70
     0
  9
$VISRETAIN
 70
     1
  9
$PLINEGEN
 70
     0
  9
$PSLTSCALE
 70
     1
  9
$TREEDEPTH
 70
  3020
  9
$PICKSTYLE
 70
     1
  9
$CMLSTYLE
  2
STANDARD
  9
$CMLJUST
 70
     0
  9
$CMLSCALE
 40
1.0
  9
$SAVEIMAGES
 70
     1
  0
ENDSEC
  0
SECTION
  2
CLASSES
  0
CLASS
  1
ACDBDICTIONARYWDFLT
  2
AcDbDictionaryWithDefault
  3
AutoCAD 2000
 90
    32768
280
     0
281
     0
  0
CLASS
  1
ACDBPLACEHOLDER
  2
AcDbPlaceHolder
  3
AutoCAD 2000
 90
    32768
280
     0
281
     0
  0
CLASS
  1
LAYOUT
  2
AcDbLayout
  3
AutoCAD 2000
 90
    32768
280
     0
281
     0
  0
CLASS
  1
DICTIONARYVAR
  2
AcDbDictionaryVar
  3
AutoCAD 2000
 90
    32768
280
     0
281
     0
  0
CLASS
  1
LONG_TRANSACTION
  2
AcDbLongTransaction
  3
AutoCAD 2000
 90
    32768
280
     0
281
     0
  0
CLASS
  1
LWPOLYLINE
  2
AcDbPolyline
  3
AutoCAD 2000
 90
    32768
280
     0
281
     1
  0
CLASS
  1
HATCH
  2
AcDbHatch
  3
AutoCAD 2000
 90
    32768
280
     0
281
     1
  0
CLASS
  1
XRECORD
  2
AcDbXrecord
  3
AutoCAD 2000
 90
    32768
280
     0
281
     0
  0
CLASS
  1
ACME_DOCUMENT
  2
AcMeDbDoc
  3
AcMeServices
 90
    32768
280
     0
281
     0
  0
CLASS
  1
AMGSETTINGSOBJ
  2
AmgSettingsObj
  3
"AcadM|Product Description: AutoCAD Mechanical 2000|Company: Autodesk"
 90
    32768
280
     0
281
     0
  0
CLASS
  1
ACMESCOPE
  2
AcMeScope
  3
AcMeServices
 90
    32768
280
     0
281
     0
  0
CLASS
  1
ACMECOMMANDHISTORY
  2
AcMeCommandHistory
  3
AcMeServices
 90
    32768
280
     0
281
     0
  0
CLASS
  1
ACIMSYSVARMAN
  2
AcImSysVarManager
  3
AcMeServices
 90
    32768
280
     0
281
     0
  0
CLASS
  1
ACIMREALSYSVAR
  2
AcImRealSysVar
  3
AcMeServices
 90
    32768
280
     0
281
     0
  0
CLASS
  1
ACIMINTSYSVAR
  2
AcImIntSysVar
  3
AcMeServices
 90
    32768
280
     0
281
     0
  0
CLASS
  1
ACMEDRAWINGMAN
  2
AcMeDrawingMan
  3
AcMeServices
 90
    32768
280
     0
281
     0
  0
CLASS
  1
ACMEVIEW
  2
AcMeView
  3
AcMeServices
 90
    32768
280
     0
281
     0
  0
CLASS
  1
ACDBENTITYCACHE
  2
AcMeEntityCache
  3
AcMeServices
 90
    32768
280
     0
281
     0
  0
CLASS
  1
GSMANAGER
  2
AcMeGSManager
  3
AcMeServices
 90
    32768
280
     0
281
     0
  0
CLASS
  1
AMDTINTERNALREACTOR
  2
AmdtInternalReactor
  3
AcMeServices
 90
    32768
280
     0
281
     0
  0
CLASS
  1
ACMESTATEMGR
  2
AcMeStateMgr
  3
AcMeServices
 90
    32768
280
     0
281
     0
  0
CLASS
  1
ACGREFMASTER
  2
AcGrefMaster
  3
AcAttribServices
 90
    32768
280
     0
281
     0
  0
CLASS
  1
ACME_DATABASE
  2
AcMeDbDatabase
  3
AcMeServices
 90
    32768
280
     0
281
     0
  0
CLASS
  1
ACRFINSADJUSTERMGR
  2
AcRfInsAdjusterMgr
  3
AcMeServices
 90
    32768
280
     0
281
     0
  0
CLASS
  1
ACGREFACADMASTER
  2
AcGrefacadMaster
  3
AcGrefServices
 90
    32768
280
     0
281
     0
  0
CLASS
  1
AMIMASTER
  2
AmiMaster
  3
AmiServices
 90
    32768
280
     0
281
     0
  0
CLASS
  1
ACMDATADICTIONARY
  2
AcmDataDictionary
  3
"AcmSymBB|Product Description: AutoCAD Mechanical 2000|Company: Autodesk"
 90
    32768
280
     0
281
     0
  0
CLASS
  1
ACMDATAENTRYBLOCK
  2
AcmDataEntryBlock
  3
"AcmSymBB|Product Description: AutoCAD Mechanical 2000|Company: Autodesk"
 90
    32768
280
     0
281
     0
  0
CLASS
  1
ACIMSTRSYSVAR
  2
AcImStrSysVar
  3
AcMeServices
 90
    32768
280
     0
281
     0
  0
CLASS
  1
ACMSTANDARDISO
  2
AcmStandardISO
  3
"Amdt_StdImp|Product Description: AutoCAD Mechanical 2000|Company: Autodesk"
 90
    32768
280
     0
281
     0
  0
CLASS
  1
AMGOBJPROPCFG
  2
AmgObjPropCfg
  3
"AmgLay|Product Description: AutoCAD Mechanical 2000|Company: Autodesk"
 90
    32769
280
     0
281
     0
  0
CLASS
  1
AMDTEDGESTANDARDISO
  2
AmdtEdgeStdISO
  3
"Amdt_StdImp|Product Description: AutoCAD Mechanical 2000|Company: Autodesk"
 90
    32768
280
     0
281
     0
  0
CLASS
  1
ACMSURFSTANDARDISO
  2
AcmSurfTextStdISO
  3
"Amdt_StdImp|Product Description: AutoCAD Mechanical 2000|Company: Autodesk"
 90
    32768
280
     0
281
     0
  0
CLASS
  1
ACMFCFSTANDARDISO
  2
AcmFCFStdISO
  3
"Amdt_StdImp|Product Description: AutoCAD Mechanical 2000|Company: Autodesk"
 90
    32768
280
     0
281
     0
  0
CLASS
  1
ACMWELDSTANDARDISO
  2
AcmWeldingStdISO
  3
"Amdt_StdImp|Product Description: AutoCAD Mechanical 2000|Company: Autodesk"
 90
    32768
280
     0
281
     0
  0
CLASS
  1
ACMIDSTANDARDISO
  2
AcmIdStdISO
  3
"Amdt_StdImp|Product Description: AutoCAD Mechanical 2000|Company: Autodesk"
 90
    32768
280
     0
281
     0
  0
CLASS
  1
ACMDATUMSTANDARDISO
  2
AcmDatumStdISO
  3
"Amdt_StdImp|Product Description: AutoCAD Mechanical 2000|Company: Autodesk"
 90
    32768
280
     0
281
     0
  0
CLASS
  1
ACMBOMSTANDARDISO
  2
AcmBOMStdISO
  3
"Amdt_StdImp|Product Description: AutoCAD Mechanical 2000|Company: Autodesk"
 90
    32768
280
     0
281
     0
  0
CLASS
  1
ACMDETAILSTANDARDISO
  2
AmdtDetailSymStdISO
  3
"Amdt_StdImp|Product Description: AutoCAD Mechanical 2000|Company: Autodesk"
 90
    32768
280
     0
281
     0
  0
CLASS
  1
ACMSECTIONSTANDARDISO
  2
AmdtSectionSymStdISO
  3
"Amdt_StdImp|Product Description: AutoCAD Mechanical 2000|Company: Autodesk"
 90
    32768
280
     0
281
     0
  0
CLASS
  1
ACMCENTERLINESTANDARDISO
  2
AmdtCenterLineStdISO
  3
"Amdt_StdImp|Product Description: AutoCAD Mechanical 2000|Company: Autodesk"
 90
    32768
280
     0
281
     0
  0
CLASS
  1
ACMNOTESTANDARDISO
  2
AmdtNoteStdISO
  3
"Amdt_StdImp|Product Description: AutoCAD Mechanical 2000|Company: Autodesk"
 90
    32768
280
     0
281
     0
  0
CLASS
  1
ACAMGLAYSTD
  2
AcAmgLayStd
  3
"AcAmgLayStd|Product Description: AutoCAD Mechanical 2000|Company: Autodesk"
 90
    32768
280
     0
281
     0
  0
CLASS
  1
ACAMGDIMSTD
  2
AcAmgDimStd
  3
"AcAmgDimStd|Product Description: AutoCAD Mechanical 2000|Company: Autodesk"
 90
    32768
280
     0
281
     0
  0
CLASS
  1
ACAMGHOLECHARTSTDISO
  2
AcAmgHoleChartStdISO
  3
ACMSYMBB_MODULE_NAME
 90
    32768
280
     0
281
     0
  0
CLASS
  1
ACAMGTITLESTD
  2
AcAmgTitleStd
  3
"TITLEAPP"
 90
    32768
280
     0
281
     0
  0
CLASS
  1
ACAMGFILTERDAT
  2
AcAmgFilterDat
  3
"AcadM|Product Description: AutoCAD Mechanical 2000|Company: Autodesk"
 90
    32768
280
     0
281
     0
  0
CLASS
  1
LAYER_INDEX
  2
AcDbLayerIndex
  3
AutoCAD 2000
 90
    32768
280
     0
281
     0
  0
CLASS
  1
IDBUFFER
  2
AcDbIdBuffer
  3
AutoCAD 2000
 90
    32768
280
     0
281
     0
  0
CLASS
  1
AMDTNOTE
  2
AmdtNote
  3
"AcmSymBB|Product Description: AutoCAD Mechanical 2000|Company: Autodesk"
 90
    33791
280
     0
281
     1
  0
CLASS
  1
AMDTFORMULAUPDATEDISPATCHER
  2
AmdtFormulaUpdateDispatcher
  3
AcMeServices
 90
    32768
280
     0
281
     0
  0
CLASS
  1
LONG_TRANSACTION
  2
AcDbLongTransaction
  3
AutoCAD 2000
 90
    32768
280
     0
281
     0
  0
CLASS
  1
LWPOLYLINE
  2
AcDbPolyline
  3
AutoCAD 2000
 90
    32768
280
     0
281
     1
  0
CLASS
  1
HATCH
  2
AcDbHatch
  3
AutoCAD 2000
 90
    32768
280
     0
281
     1
  0
CLASS
  1
XRECORD
  2
AcDbXrecord
  3
AutoCAD 2000
 90
    32768
280
     0
281
     0
  0
ENDSEC
  0
SECTION
  2
TABLES
  0
TABLE
  2
VPORT
  5
8
330
0
100
AcDbSymbolTable
 70
     6
  0
VPORT
  5
22A1
330
8
100
AcDbSymbolTableRecord
100
AcDbViewportTableRecord
  2
*ACTIVE
 70
     0
 10
0.0
 20
0.0
 11
1.0
 21
1.0
 12
166.0599217148975
 22
135.3409249649773
 13
0.0
 23
0.0
 14
0.5
 24
0.5
 15
0.5
 25
0.5
 16
0.0
 26
0.0
 36
1.0
 17
0.0
 27
0.0
 37
0.0
 40
257.9309389323487
 41
1.717081850533807
 42
50.0
 43
0.0
 44
0.0
 50
0.0
 51
0.0
 71
     0
 72
   100
 73
     1
 74
     3
 75
     0
 76
     0
 77
     0
 78
     0
  0
ENDTAB
  0
TABLE
  2
LTYPE
  5
5
330
0
100
AcDbSymbolTable
 70
    12
  0
LTYPE
  5
14
330
5
100
AcDbSymbolTableRecord
100
AcDbLinetypeTableRecord
  2
BYBLOCK
 70
     0
  3

 72
    65
 73
     0
 40
0.0
  0
LTYPE
  5
15
330
5
100
AcDbSymbolTableRecord
100
AcDbLinetypeTableRecord
  2
BYLAYER
 70
     0
  3

 72
    65
 73
     0
 40
0.0
  0
LTYPE
  5
16
330
5
100
AcDbSymbolTableRecord
100
AcDbLinetypeTableRecord
  2
CONTINUOUS
 70
     0
  3
Solid line
 72
    65
 73
     0
 40
0.0
  0
LTYPE
  5
4F
330
5
100
AcDbSymbolTableRecord
100
AcDbLinetypeTableRecord
  2
CENTER
 70
     0
  3
Center ____ _ ____ _ ____ _ ____ _ ____ _ ____
 72
    65
 73
     4
 40
2.0
 49
1.25
 74
     0
 49
-0.25
 74
     0
 49
0.25
 74
     0
 49
-0.25
 74
     0
  0
LTYPE
  5
21B9
330
5
100
AcDbSymbolTableRecord
100
AcDbLinetypeTableRecord
  2
AM_ISO02W050
 70
     0
  3
__ __ __ __ __ __ __ __ __ __ __ __ __ __ __
 72
    65
 73
     2
 40
7.5
 49
6.0
 74
     0
 49
-1.5
 74
     0
  0
LTYPE
  5
21BA
330
5
100
AcDbSymbolTableRecord
100
AcDbLinetypeTableRecord
  2
AM_ISO08W050
 70
     0
  3
____ . ____ . ____ . ____ . ____ . ____ . ____
 72
    65
 73
     4
 40
18.0
 49
12.0
 74
     0
 49
-1.5
 74
     0
 49
3.0
 74
     0
 49
-1.5
 74
     0
  0
LTYPE
  5
21BB
330
5
100
AcDbSymbolTableRecord
100
AcDbLinetypeTableRecord
  2
AM_ISO09W050
 70
     0
  3
_____ . . _____ . . _____ . . ____ .. ____
 72
    65
 73
     6
 40
22.5
 49
12.0
 74
     0
 49
-1.5
 74
     0
 49
3.0
 74
     0
 49
-1.5
 74
     0
 49
3.0
 74
     0
 49
-1.5
 74
     0
  0
LTYPE
  5
21BC
330
5
100
AcDbSymbolTableRecord
100
AcDbLinetypeTableRecord
  2
AMCONSTR
 70
     0
  3
_______________________
 72
    65
 73
     2
 40
9999.0
 49
9999.0
 74
     0
 49
0.0
 74
     0
  0
LTYPE
  5
21BD
330
5
100
AcDbSymbolTableRecord
100
AcDbLinetypeTableRecord
  2
AM_ISO08W050X2
 70
     0
  3
__ . __ . __ . __ . __ . __
 72
    65
 73
     4
 40
9.0
 49
6.0
 74
     0
 49
-0.75
 74
     0
 49
1.5
 74
     0
 49
-0.75
 74
     0
  0
LTYPE
  5
21BE
330
5
100
AcDbSymbolTableRecord
100
AcDbLinetypeTableRecord
  2
AM_ISO02W050X2
 70
     0
  3
 _ _ _ _ _ _ _ _ _ _ _ _
 72
    65
 73
     2
 40
3.75
 49
3.0
 74
     0
 49
-0.75
 74
     0
  0
LTYPE
  5
21C1
330
5
100
AcDbSymbolTableRecord
100
AcDbLinetypeTableRecord
  2
AMZIGZAG
 70
     0
  3
/\/-/\/-/\/-/\/-/\/-/\/
 72
    65
 73
     2
 40
11.00009999999999
 49
0.0001
 74
     4
 75
   135
340
21C0
 46
0.04
 50
0.0
 44
0.0
 45
0.0
 49
-11.0
 74
     0
  0
LTYPE
  5
21CF
330
5
100
AcDbSymbolTableRecord
100
AcDbLinetypeTableRecord
  2
ACISOWELD
 70
     0
  3
_ _ _ _ _
 72
    65
 73
     2
 40
2.0
 49
2.0
 74
     0
 49
-1.0
 74
     0
  0
LTYPE
  5
21D0
330
5
100
AcDbSymbolTableRecord
100
AcDbLinetypeTableRecord
  2
ACISOTGB
 70
     0
  3
__ . . __ . .
 72
    65
 73
     6
 40
9.0
 49
4.0
 74
     0
 49
-1.0
 74
     0
 49
1.0
 74
     0
 49
-1.0
 74
     0
 49
1.0
 74
     0
 49
-1.0
 74
     0
  0
LTYPE
  5
21D1
330
5
100
AcDbSymbolTableRecord
100
AcDbLinetypeTableRecord
  2
ACISOTGL
 70
     0
  3
_ _ _ _ _
 72
    65
 73
     2
 40
3.0
 49
2.0
 74
     0
 49
-1.0
 74
     0
  0
ENDTAB
  0
TABLE
  2
LAYER
  5
2
330
0
100
AcDbSymbolTable
 70
     7
  0
LAYER
  5
10
330
2
100
AcDbSymbolTableRecord
100
AcDbLayerTableRecord
  2
0
 70
     0
 62
     7
  6
CONTINUOUS
  0
LAYER
  5
48
330
2
100
AcDbSymbolTableRecord
100
AcDbLayerTableRecord
  2
DIM
 70
     0
 62
     5
  6
CONTINUOUS
  0
LAYER
  5
57
330
2
100
AcDbSymbolTableRecord
100
AcDbLayerTableRecord
  2
A3-S
 70
     0
 62
     5
  6
CONTINUOUS
  0
LAYER
  5
1543
330
2
100
AcDbSymbolTableRecord
100
AcDbLayerTableRecord
  2
CENTER
 70
     0
 62
     1
  6
CENTER
  0
LAYER
  5
1545
330
2
100
AcDbSymbolTableRecord
100
AcDbLayerTableRecord
  2
LOGO
 70
     0
 62
     7
  6
CONTINUOUS
  0
LAYER
  5
1A52
330
2
100
AcDbSymbolTableRecord
100
AcDbLayerTableRecord
  2
DEFPOINTS
 70
     0
 62
     7
  6
CONTINUOUS
  0
ENDTAB
  0
TABLE
  2
STYLE
  5
3
330
0
100
AcDbSymbolTable
 70
     7
  0
STYLE
  5
11
330
3
100
AcDbSymbolTableRecord
100
AcDbTextStyleTableRecord
  2
STANDARD
 70
     0
 40
3.0
 41
1.0
 50
0.0
 71
     0
 42
3.0
  3
KAIU.TTF
  4

1001
ACAD
1000
DFKai-SB
1071
    34865
  0
STYLE
  5
5A
330
3
100
AcDbSymbolTableRecord
100
AcDbTextStyleTableRecord
  2
RUBONK
 70
     0
 40
0.0
 41
1.0
 50
0.0
 71
     0
 42
3.5
  3
cn1.shx
  4
rubonk.shx
  0
STYLE
  5
5C
330
3
100
AcDbSymbolTableRecord
100
AcDbTextStyleTableRecord
  2
CHINESET
 70
     0
 40
3.0
 41
1.0
 50
0.0
 71
     0
 42
3.0
  3
simplex.shx
  4
CHINESET.shx
  0
STYLE
  5
1546
330
3
100
AcDbSymbolTableRecord
100
AcDbTextStyleTableRecord
  2
LOGO
 70
     0
 40
0.0
 41
1.0
 50
0.0
 71
     0
 42
5.0
  3
LEI00DP.TTF
  4

1001
ACAD
1000
文鼎中粗隸
1071
    34865
  0
STYLE
  5
21C0
330
3
100
AcDbSymbolTableRecord
100
AcDbTextStyleTableRecord
  2

 70
     1
 40
0.0
 41
1.0
 50
0.0
 71
     0
 42
4.5
  3
ltypeshp.shx
  4

  0
STYLE
  5
21C2
330
3
100
AcDbSymbolTableRecord
100
AcDbTextStyleTableRecord
  2
ACISOTS
 70
     0
 40
1.0
 41
1.0
 50
0.0
 71
     0
 42
4.5
  3
isocp.shx
  4
chineset.shx
  0
STYLE
  5
21CE
330
3
100
AcDbSymbolTableRecord
100
AcDbTextStyleTableRecord
  2
ACISOGDT
 70
     0
 40
0.0
 41
1.0
 50
0.0
 71
     0
 42
4.5
  3
amgdt.shx
  4

  0
ENDTAB
  0
TABLE
  2
VIEW
  5
6
330
0
100
AcDbSymbolTable
 70
     0
  0
ENDTAB
  0
TABLE
  2
UCS
  5
7
330
0
100
AcDbSymbolTable
 70
     0
  0
ENDTAB
  0
TABLE
  2
APPID
  5
9
330
0
100
AcDbSymbolTable
 70
     8
  0
APPID
  5
12
330
9
100
AcDbSymbolTableRecord
100
AcDbRegAppTableRecord
  2
ACAD
 70
     0
  0
APPID
  5
5F
330
9
100
AcDbSymbolTableRecord
100
AcDbRegAppTableRecord
  2
AD_DRAW
 70
     0
  0
APPID
  5
60
330
9
100
AcDbSymbolTableRecord
100
AcDbRegAppTableRecord
  2
DESIGNERASSEMBLIES
 70
     0
  0
APPID
  5
61
330
9
100
AcDbSymbolTableRecord
100
AcDbRegAppTableRecord
  2
MCAD_NO_VIS
 70
     0
  0
APPID
  5
62
330
9
100
AcDbSymbolTableRecord
100
AcDbRegAppTableRecord
  2
ASURF_PCURVE_APPNAME
 70
     0
  0
APPID
  5
11A1
330
9
100
AcDbSymbolTableRecord
100
AcDbRegAppTableRecord
  2
CONTENTBLOCKICON
 70
     0
  0
APPID
  5
219C
330
9
100
AcDbSymbolTableRecord
100
AcDbRegAppTableRecord
  2
ACAD_TEMP_GRAPHIC
 70
     0
  0
APPID
  5
21AD
330
9
100
AcDbSymbolTableRecord
100
AcDbRegAppTableRecord
  2
ACATTRIBSERVICES
 70
     0
  0
ENDTAB
  0
TABLE
  2
DIMSTYLE
  5
A
330
0
100
AcDbSymbolTable
 70
     8
  0
DIMSTYLE
105
1A4
102
{ACAD_REACTORS
330
1A51
330
1A5F
330
1A6E
330
1A7D
330
1A8A
330
1A97
330
1AB1
330
1ABE
330
1ADD
330
1AF5
330
1B04
330
1B13
330
1B20
330
1B2F
330
1B3C
330
1B4B
330
1B65
330
1B72
330
1BE6
330
1CCE
330
1CE8
102
}
330
A
100
AcDbSymbolTableRecord
100
AcDbDimStyleTableRecord
  2
ISO-25-1
 70
     0
  3

  4

  5

  6

  7

 40
1.0
 41
3.0
 42
3.0
 43
2.0
 44
2.0
 45
0.0
 46
0.0
 47
0.0
 48
0.0
140
3.0
141
-3.0
142
0.0
143
25.4
144
1.0
145
0.0
146
0.7
147
1.0
 71
     0
 72
     0
 73
     0
 74
     0
 75
     0
 76
     0
 77
     1
 78
     8
170
     0
171
     2
172
     1
173
     0
174
     0
175
     0
176
   256
177
   256
178
   256
270
     2
271
     2
272
     2
273
     2
274
     2
340
5C
275
     0
280
     0
281
     0
282
     0
283
     1
284
     8
285
     0
286
     0
287
     0
288
     0
  0
DIMSTYLE
105
21D5
330
A
100
AcDbSymbolTableRecord
100
AcDbDimStyleTableRecord
  2
AM_ISO
 70
     0
  3

  4
"
  5

  6

  7

 40
1.0
 41
2.5
 42
1.0
 43
10.0
 44
1.0
 45
0.0
 46
0.0
 47
0.1
 48
0.1
140
3.5
141
0.0
142
0.0
143
0.0393701
144
1.0
145
0.0
146
0.71
147
1.5
 71
     0
 72
     0
 73
     0
 74
     0
 75
     0
 76
     0
 77
     1
 78
     8
170
     0
171
     2
172
     1
173
     0
174
     0
175
     0
176
   256
177
   256
178
     2
270
     2
271
     2
272
     3
273
     2
274
     4
340
11
275
     0
280
     0
281
     0
282
     0
283
     0
284
     8
285
     0
286
     0
287
     3
288
     0
  0
DIMSTYLE
105
21D6
330
A
100
AcDbSymbolTableRecord
100
AcDbDimStyleTableRecord
  2
AM_ISO$3
 70
     0
  3

  4
"
  5

  6

  7

 40
1.0
 41
2.5
 42
1.0
 43
10.0
 44
1.0
 45
0.0
 46
0.0
 47
0.1
 48
0.1
140
3.5
141
0.0
142
0.0
143
0.0393701
144
1.0
145
0.0
146
0.71
147
1.5
 71
     0
 72
     0
 73
     0
 74
     1
 75
     0
 76
     0
 77
     1
 78
     8
170
     0
171
     2
172
     0
173
     0
174
     0
175
     0
176
   256
177
   256
178
     2
270
     2
271
     2
272
     3
273
     2
274
     4
340
11
275
     0
280
     0
281
     0
282
     0
283
     0
284
     8
285
     0
286
     0
287
     0
288
     1
  0
DIMSTYLE
105
21D7
330
A
100
AcDbSymbolTableRecord
100
AcDbDimStyleTableRecord
  2
AM_ISO$4
 70
     0
  3

  4
"
  5

  6

  7

 40
1.0
 41
2.5
 42
1.0
 43
10.0
 44
1.0
 45
0.0
 46
0.0
 47
0.1
 48
0.1
140
3.5
141
0.0
142
0.0
143
0.0393701
144
1.0
145
0.0
146
0.71
147
1.5
 71
     0
 72
     0
 73
     0
 74
     1
 75
     0
 76
     0
 77
     1
 78
     8
170
     0
171
     2
172
     0
173
     0
174
     0
175
     0
176
   256
177
   256
178
     2
270
     2
271
     2
272
     3
273
     2
274
     4
340
11
275
     0
280
     0
281
     0
282
     0
283
     0
284
     8
285
     0
286
     0
287
     0
288
     1
  0
DIMSTYLE
105
21D8
330
A
100
AcDbSymbolTableRecord
100
AcDbDimStyleTableRecord
  2
AM_ISO$6
 70
     0
  3

  4
"
  5

  6

  7

 40
1.0
 41
2.5
 42
1.0
 43
10.0
 44
1.0
 45
0.0
 46
0.0
 47
0.1
 48
0.1
140
3.5
141
0.0
142
0.0
143
0.0393701
144
1.0
145
0.0
146
0.71
147
1.5
 71
     0
 72
     0
 73
     0
 74
     0
 75
     0
 76
     0
 77
     0
 78
     8
170
     0
171
     2
172
     1
173
     0
174
     0
175
     0
176
   256
177
   256
178
     2
270
     2
271
     2
272
     3
273
     2
274
     4
340
11
275
     0
280
     0
281
     0
282
     0
283
     0
284
     8
285
     0
286
     0
287
     3
288
     0
  0
DIMSTYLE
105
21D9
330
A
100
AcDbSymbolTableRecord
100
AcDbDimStyleTableRecord
  2
AM_ISO$7
 70
     0
  3

  4
"
  5

  6

  7

 40
1.0
 41
2.5
 42
1.0
 43
10.0
 44
1.0
 45
0.0
 46
0.0
 47
0.1
 48
0.1
140
5.0
141
0.0
142
0.0
143
0.0393701
144
1.0
145
0.0
146
0.71
147
1.5
 71
     0
 72
     0
 73
     0
 74
     0
 75
     0
 76
     0
 77
     1
 78
     8
170
     0
171
     2
172
     1
173
     0
174
     0
175
     0
176
   256
177
   256
178
     2
270
     2
271
     2
272
     3
273
     2
274
     4
340
11
275
     0
280
     0
281
     0
282
     0
283
     0
284
     8
285
     0
286
     0
287
     3
288
     0
  0
DIMSTYLE
105
21DA
330
A
100
AcDbSymbolTableRecord
100
AcDbDimStyleTableRecord
  2
AM_ISO$SF
 70
     0
  3

  4
"
  5

  6

  7

 40
1.0
 41
2.5
 42
1.0
 43
10.0
 44
1.0
 45
0.0
 46
0.0
 47
0.1
 48
0.1
140
3.5
141
0.0
142
0.0
143
0.0393701
144
1.0
145
0.0
146
0.71
147
1.5
 71
     0
 72
     0
 73
     0
 74
     0
 75
     1
 76
     1
 77
     1
 78
     8
170
     0
171
     2
172
     1
173
     0
174
     0
175
     0
176
   256
177
   256
178
     2
270
     2
271
     2
272
     3
273
     2
274
     4
340
11
275
     0
280
     0
281
     0
282
     0
283
     0
284
     8
285
     0
286
     0
287
     3
288
     0
  0
DIMSTYLE
105
21DF
330
A
100
AcDbSymbolTableRecord
100
AcDbDimStyleTableRecord
  2
AM_ISO$SH
 70
     0
  3

  4
"
  5

  6
GENAXEH
  7

 40
1.0
 41
2.5
 42
1.0
 43
10.0
 44
1.0
 45
0.0
 46
0.0
 47
0.1
 48
0.1
140
3.5
141
0.0
142
0.0
143
0.0393701
144
2.0
145
0.0
146
0.71
147
1.5
 71
     0
 72
     0
 73
     0
 74
     0
 75
     1
 76
     1
 77
     1
 78
     8
170
     0
171
     2
172
     1
173
     1
174
     0
175
     0
176
   256
177
   256
178
     2
270
     2
271
     2
272
     3
273
     2
274
     4
340
11
275
     0
280
     0
281
     0
282
     0
283
     0
284
     8
285
     0
286
     0
287
     3
288
     0
  0
ENDTAB
  0
TABLE
  2
BLOCK_RECORD
  5
1
330
0
100
AcDbSymbolTable
 70
    24
  0
BLOCK_RECORD
  5
1F
102
{ACAD_XDICTIONARY
360
20FA
102
}
330
1
100
AcDbSymbolTableRecord
100
AcDbBlockTableRecord
  2
*MODEL_SPACE
  0
BLOCK_RECORD
  5
1B
102
{ACAD_XDICTIONARY
360
20FC
102
}
330
1
100
AcDbSymbolTableRecord
100
AcDbBlockTableRecord
  2
*PAPER_SPACE
  0
BLOCK_RECORD
  5
1A53
330
1
100
AcDbSymbolTableRecord
100
AcDbBlockTableRecord
  2
*D1
  0
BLOCK_RECORD
  5
1A60
330
1
100
AcDbSymbolTableRecord
100
AcDbBlockTableRecord
  2
*D2
  0
BLOCK_RECORD
  5
1A6F
330
1
100
AcDbSymbolTableRecord
100
AcDbBlockTableRecord
  2
*D3
  0
BLOCK_RECORD
  5
1A7E
330
1
100
AcDbSymbolTableRecord
100
AcDbBlockTableRecord
  2
*D4
  0
BLOCK_RECORD
  5
1A8B
330
1
100
AcDbSymbolTableRecord
100
AcDbBlockTableRecord
  2
*D5
  0
BLOCK_RECORD
  5
1A98
330
1
100
AcDbSymbolTableRecord
100
AcDbBlockTableRecord
  2
*D6
  0
BLOCK_RECORD
  5
1AB2
330
1
100
AcDbSymbolTableRecord
100
AcDbBlockTableRecord
  2
*D7
  0
BLOCK_RECORD
  5
1ABF
330
1
100
AcDbSymbolTableRecord
100
AcDbBlockTableRecord
  2
*D8
  0
BLOCK_RECORD
  5
1ADE
330
1
100
AcDbSymbolTableRecord
100
AcDbBlockTableRecord
  2
*D9
  0
BLOCK_RECORD
  5
1AF6
330
1
100
AcDbSymbolTableRecord
100
AcDbBlockTableRecord
  2
*D10
  0
BLOCK_RECORD
  5
1B05
330
1
100
AcDbSymbolTableRecord
100
AcDbBlockTableRecord
  2
*D11
  0
BLOCK_RECORD
  5
1B14
330
1
100
AcDbSymbolTableRecord
100
AcDbBlockTableRecord
  2
*D12
  0
BLOCK_RECORD
  5
1B21
330
1
100
AcDbSymbolTableRecord
100
AcDbBlockTableRecord
  2
*D13
  0
BLOCK_RECORD
  5
1B30
330
1
100
AcDbSymbolTableRecord
100
AcDbBlockTableRecord
  2
*D14
  0
BLOCK_RECORD
  5
1B3D
330
1
100
AcDbSymbolTableRecord
100
AcDbBlockTableRecord
  2
*D15
  0
BLOCK_RECORD
  5
1B4C
330
1
100
AcDbSymbolTableRecord
100
AcDbBlockTableRecord
  2
*D16
  0
BLOCK_RECORD
  5
1B66
330
1
100
AcDbSymbolTableRecord
100
AcDbBlockTableRecord
  2
*D17
  0
BLOCK_RECORD
  5
1B73
330
1
100
AcDbSymbolTableRecord
100
AcDbBlockTableRecord
  2
*D18
  0
BLOCK_RECORD
  5
1BE7
330
1
100
AcDbSymbolTableRecord
100
AcDbBlockTableRecord
  2
*D19
  0
BLOCK_RECORD
  5
1CCF
330
1
100
AcDbSymbolTableRecord
100
AcDbBlockTableRecord
  2
*D20
  0
BLOCK_RECORD
  5
1CE9
330
1
100
AcDbSymbolTableRecord
100
AcDbBlockTableRecord
  2
*D21
  0
BLOCK_RECORD
  5
21DB
330
1
100
AcDbSymbolTableRecord
100
AcDbBlockTableRecord
  2
GENAXEH
  0
ENDTAB
  0
ENDSEC
  0
SECTION
  2
BLOCKS
  0
BLOCK
  5
20
330
1F
100
AcDbEntity
  8
0
100
AcDbBlockBegin
  2
*MODEL_SPACE
 70
     0
 10
0.0
 20
0.0
 30
0.0
  3
*MODEL_SPACE
  1

  0
ENDBLK
  5
21
330
1F
100
AcDbEntity
  8
0
100
AcDbBlockEnd
  0
BLOCK
  5
1C
330
1B
100
AcDbEntity
 67
     1
  8
0
100
AcDbBlockBegin
  2
*PAPER_SPACE
 70
     0
 10
0.0
 20
0.0
 30
0.0
  3
*PAPER_SPACE
  1

  0
ENDBLK
  5
1D
330
1B
100
AcDbEntity
 67
     1
  8
0
100
AcDbBlockEnd
  0
BLOCK
  5
1A5D
330
1A53
100
AcDbEntity
  8
0
100
AcDbBlockBegin
  2
*D1
 70
     1
 10
0.0
 20
0.0
 30
0.0
  3
*D1
  1

  0
LINE
  5
2012
330
1A53
100
AcDbEntity
  8
DIM
100
AcDbLine
 10
126.8494431540751
 20
178.9478395586834
 30
0.0
 11
126.8494431540751
 21
190.044989330305
 31
0.0
  0
LINE
  5
2013
330
1A53
100
AcDbEntity
  8
DIM
100
AcDbLine
 10
106.3494431540751
 20
178.9478395586834
 30
0.0
 11
106.3494431540751
 21
190.044989330305
 31
0.0
  0
LINE
  5
2014
330
1A53
100
AcDbEntity
  8
DIM
100
AcDbLine
 10
129.8494431540751
 20
188.044989330305
 30
0.0
 11
132.8494431540751
 21
188.044989330305
 31
0.0
  0
LINE
  5
2015
330
1A53
100
AcDbEntity
  8
DIM
100
AcDbLine
 10
103.3494431540751
 20
188.044989330305
 30
0.0
 11
78.92087172550373
 21
188.044989330305
 31
0.0
  0
LINE
  5
2016
330
1A53
100
AcDbEntity
  8
DIM
100
AcDbLine
 10
126.8494431540751
 20
188.044989330305
 30
0.0
 11
106.3494431540751
 21
188.044989330305
 31
0.0
  0
SOLID
  5
2017
330
1A53
100
AcDbEntity
  8
DIM
100
AcDbTrace
 10
129.8494431540751
 20
188.544989330305
 30
0.0
 11
129.8494431540751
 21
187.544989330305
 31
0.0
 12
126.8494431540751
 22
188.044989330305
 32
0.0
 13
126.8494431540751
 23
188.044989330305
 33
0.0
  0
SOLID
  5
2018
330
1A53
100
AcDbEntity
  8
DIM
100
AcDbTrace
 10
103.3494431540751
 20
188.544989330305
 30
0.0
 11
103.3494431540751
 21
187.544989330305
 31
0.0
 12
106.3494431540751
 22
188.044989330305
 32
0.0
 13
106.3494431540751
 23
188.044989330305
 33
0.0
  0
MTEXT
  5
2019
330
1A53
100
AcDbEntity
  8
DIM
100
AcDbMText
 10
89.63515743978945
 20
190.544989330305
 30
0.0
 40
3.0
 41
0.0
 71
     5
 72
     1
  1
\A1;20.5+ST.
  7
CHINESET
1001
ACAD
1000
MTEXTBEGIN
1070
    73
1070
     1
1070
    44
1040
1.0
1070
    74
1070
     0
1000
MTEXTEND
  0
POINT
  5
201A
330
1A53
100
AcDbEntity
  8
DEFPOINTS
 62
     0
100
AcDbPoint
 10
126.8494431540751
 20
175.9478395586834
 30
0.0
  0
POINT
  5
201B
330
1A53
100
AcDbEntity
  8
DEFPOINTS
 62
     0
100
AcDbPoint
 10
106.3494431540751
 20
175.9478395586834
 30
0.0
  0
POINT
  5
201C
330
1A53
100
AcDbEntity
  8
DEFPOINTS
 62
     0
100
AcDbPoint
 10
106.3494431540751
 20
188.044989330305
 30
0.0
  0
ENDBLK
  5
1A5E
330
1A53
100
AcDbEntity
  8
0
100
AcDbBlockEnd
  0
BLOCK
  5
1A6C
330
1A60
100
AcDbEntity
  8
0
100
AcDbBlockBegin
  2
*D2
 70
     1
 10
0.0
 20
0.0
 30
0.0
  3
*D2
  1

  0
LINE
  5
2059
330
1A60
100
AcDbEntity
  8
DIM
100
AcDbLine
 10
119.3494431540751
 20
174.7378395586835
 30
0.0
 11
119.3494431540751
 21
182.7202595892399
 31
0.0
  0
LINE
  5
205A
330
1A60
100
AcDbEntity
  8
DIM
100
AcDbLine
 10
126.8494431540751
 20
178.9478395586834
 30
0.0
 11
126.8494431540751
 21
182.7202595892399
 31
0.0
  0
LINE
  5
205B
330
1A60
100
AcDbEntity
  8
DIM
100
AcDbLine
 10
116.3494431540751
 20
180.7202595892399
 30
0.0
 11
113.3494431540751
 21
180.7202595892399
 31
0.0
  0
LINE
  5
205C
330
1A60
100
AcDbEntity
  8
DIM
100
AcDbLine
 10
129.8494431540751
 20
180.7202595892399
 30
0.0
 11
132.8494431540751
 21
180.7202595892399
 31
0.0
  0
LINE
  5
205D
330
1A60
100
AcDbEntity
  8
DIM
100
AcDbLine
 10
119.3494431540751
 20
180.7202595892399
 30
0.0
 11
126.8494431540751
 21
180.7202595892399
 31
0.0
  0
SOLID
  5
205E
330
1A60
100
AcDbEntity
  8
DIM
100
AcDbTrace
 10
116.3494431540751
 20
181.2202595892399
 30
0.0
 11
116.3494431540751
 21
180.2202595892399
 31
0.0
 12
119.3494431540751
 22
180.7202595892399
 32
0.0
 13
119.3494431540751
 23
180.7202595892399
 33
0.0
  0
SOLID
  5
205F
330
1A60
100
AcDbEntity
  8
DIM
100
AcDbTrace
 10
129.8494431540751
 20
181.2202595892399
 30
0.0
 11
129.8494431540751
 21
180.2202595892399
 31
0.0
 12
126.8494431540751
 22
180.7202595892399
 32
0.0
 13
126.8494431540751
 23
180.7202595892399
 33
0.0
  0
MTEXT
  5
2060
330
1A60
100
AcDbEntity
  8
DIM
100
AcDbMText
 10
123.0994431540751
 20
183.2202595892399
 30
0.0
 40
3.0
 41
0.0
 71
     5
 72
     1
  1
\A1;7.5
  7
CHINESET
1001
ACAD
1000
MTEXTBEGIN
1070
    73
1070
     1
1070
    44
1040
1.0
1070
    74
1070
     0
1000
MTEXTEND
  0
POINT
  5
2061
330
1A60
100
AcDbEntity
  8
DEFPOINTS
 62
     0
100
AcDbPoint
 10
119.3494431540751
 20
171.7378395586835
 30
0.0
  0
POINT
  5
2062
330
1A60
100
AcDbEntity
  8
DEFPOINTS
 62
     0
100
AcDbPoint
 10
126.8494431540751
 20
175.9478395586834
 30
0.0
  0
POINT
  5
2063
330
1A60
100
AcDbEntity
  8
DEFPOINTS
 62
     0
100
AcDbPoint
 10
126.8494431540751
 20
180.7202595892399
 30
0.0
  0
ENDBLK
  5
1A6D
330
1A60
100
AcDbEntity
  8
0
100
AcDbBlockEnd
  0
BLOCK
  5
1A7B
330
1A6F
100
AcDbEntity
  8
0
100
AcDbBlockBegin
  2
*D3
 70
     1
 10
0.0
 20
0.0
 30
0.0
  3
*D3
  1

  0
LINE
  5
2043
330
1A6F
100
AcDbEntity
  8
DIM
100
AcDbLine
 10
113.8494431540751
 20
174.7378395586834
 30
0.0
 11
113.8494431540751
 21
182.7202595892399
 31
0.0
  0
LINE
  5
2044
330
1A6F
100
AcDbEntity
  8
DIM
100
AcDbLine
 10
106.3494431540751
 20
178.9478395586834
 30
0.0
 11
106.3494431540751
 21
182.7202595892399
 31
0.0
  0
LINE
  5
2045
330
1A6F
100
AcDbEntity
  8
DIM
100
AcDbLine
 10
116.8494431540751
 20
180.7202595892399
 30
0.0
 11
119.8494431540751
 21
180.7202595892399
 31
0.0
  0
LINE
  5
2046
330
1A6F
100
AcDbEntity
  8
DIM
100
AcDbLine
 10
103.3494431540751
 20
180.7202595892399
 30
0.0
 11
100.3494431540751
 21
180.7202595892399
 31
0.0
  0
LINE
  5
2047
330
1A6F
100
AcDbEntity
  8
DIM
100
AcDbLine
 10
113.8494431540751
 20
180.7202595892399
 30
0.0
 11
106.3494431540751
 21
180.7202595892399
 31
0.0
  0
SOLID
  5
2048
330
1A6F
100
AcDbEntity
  8
DIM
100
AcDbTrace
 10
116.8494431540751
 20
181.2202595892399
 30
0.0
 11
116.8494431540751
 21
180.2202595892399
 31
0.0
 12
113.8494431540751
 22
180.7202595892399
 32
0.0
 13
113.8494431540751
 23
180.7202595892399
 33
0.0
  0
SOLID
  5
2049
330
1A6F
100
AcDbEntity
  8
DIM
100
AcDbTrace
 10
103.3494431540751
 20
181.2202595892399
 30
0.0
 11
103.3494431540751
 21
180.2202595892399
 31
0.0
 12
106.3494431540751
 22
180.7202595892399
 32
0.0
 13
106.3494431540751
 23
180.7202595892399
 33
0.0
  0
MTEXT
  5
204A
330
1A6F
100
AcDbEntity
  8
DIM
100
AcDbMText
 10
110.0994431540751
 20
183.2202595892399
 30
0.0
 40
3.0
 41
0.0
 71
     5
 72
     1
  1
\A1;7.5
  7
CHINESET
1001
ACAD
1000
MTEXTBEGIN
1070
    73
1070
     1
1070
    44
1040
1.0
1070
    74
1070
     0
1000
MTEXTEND
  0
POINT
  5
204B
330
1A6F
100
AcDbEntity
  8
DEFPOINTS
 62
     0
100
AcDbPoint
 10
113.8494431540751
 20
171.7378395586834
 30
0.0
  0
POINT
  5
204C
330
1A6F
100
AcDbEntity
  8
DEFPOINTS
 62
     0
100
AcDbPoint
 10
106.3494431540751
 20
175.9478395586834
 30
0.0
  0
POINT
  5
204D
330
1A6F
100
AcDbEntity
  8
DEFPOINTS
 62
     0
100
AcDbPoint
 10
106.3494431540751
 20
180.7202595892399
 30
0.0
  0
ENDBLK
  5
1A7C
330
1A6F
100
AcDbEntity
  8
0
100
AcDbBlockEnd
  0
BLOCK
  5
1A88
330
1A7E
100
AcDbEntity
  8
0
100
AcDbBlockBegin
  2
*D4
 70
     1
 10
0.0
 20
0.0
 30
0.0
  3
*D4
  1

  0
LINE
  5
203A
330
1A7E
100
AcDbEntity
  8
DIM
100
AcDbLine
 10
141.3494431540752
 20
168.4478395586834
 30
0.0
 11
141.3494431540752
 21
190.044989330305
 31
0.0
  0
LINE
  5
203B
330
1A7E
100
AcDbEntity
  8
DIM
100
AcDbLine
 10
126.8494431540751
 20
191.044989330305
 30
0.0
 11
126.8494431540751
 21
190.044989330305
 31
0.0
  0
LINE
  5
203C
330
1A7E
100
AcDbEntity
  8
DIM
100
AcDbLine
 10
138.3494431540752
 20
188.044989330305
 30
0.0
 11
129.8494431540751
 21
188.044989330305
 31
0.0
  0
SOLID
  5
203D
330
1A7E
100
AcDbEntity
  8
DIM
100
AcDbTrace
 10
138.3494431540752
 20
188.544989330305
 30
0.0
 11
138.3494431540752
 21
187.544989330305
 31
0.0
 12
141.3494431540752
 22
188.044989330305
 32
0.0
 13
141.3494431540752
 23
188.044989330305
 33
0.0
  0
SOLID
  5
203E
330
1A7E
100
AcDbEntity
  8
DIM
100
AcDbTrace
 10
129.8494431540751
 20
188.544989330305
 30
0.0
 11
129.8494431540751
 21
187.544989330305
 31
0.0
 12
126.8494431540751
 22
188.044989330305
 32
0.0
 13
126.8494431540751
 23
188.044989330305
 33
0.0
  0
MTEXT
  5
203F
330
1A7E
100
AcDbEntity
  8
DIM
100
AcDbMText
 10
134.0994431540752
 20
190.544989330305
 30
0.0
 40
3.0
 41
0.0
 71
     5
 72
     1
  1
\A1;14.5
  7
CHINESET
1001
ACAD
1000
MTEXTBEGIN
1070
    73
1070
     1
1070
    44
1040
1.0
1070
    74
1070
     0
1000
MTEXTEND
  0
POINT
  5
2040
330
1A7E
100
AcDbEntity
  8
DEFPOINTS
 62
     0
100
AcDbPoint
 10
141.3494431540752
 20
165.4478395586834
 30
0.0
  0
POINT
  5
2041
330
1A7E
100
AcDbEntity
  8
DEFPOINTS
 62
     0
100
AcDbPoint
 10
126.8494431540751
 20
188.044989330305
 30
0.0
  0
POINT
  5
2042
330
1A7E
100
AcDbEntity
  8
DEFPOINTS
 62
     0
100
AcDbPoint
 10
126.8494431540751
 20
188.044989330305
 30
0.0
  0
ENDBLK
  5
1A89
330
1A7E
100
AcDbEntity
  8
0
100
AcDbBlockEnd
  0
BLOCK
  5
1A95
330
1A8B
100
AcDbEntity
  8
0
100
AcDbBlockBegin
  2
*D5
 70
     1
 10
0.0
 20
0.0
 30
0.0
  3
*D5
  1

  0
LINE
  5
2031
330
1A8B
100
AcDbEntity
  8
DIM
100
AcDbLine
 10
141.3494431540752
 20
168.4478395586834
 30
0.0
 11
141.3494431540752
 21
197.7915908705267
 31
0.0
  0
LINE
  5
2032
330
1A8B
100
AcDbEntity
  8
DIM
100
AcDbLine
 10
106.3494431540751
 20
178.9478395586834
 30
0.0
 11
106.3494431540751
 21
197.7915908705267
 31
0.0
  0
LINE
  5
2033
330
1A8B
100
AcDbEntity
  8
DIM
100
AcDbLine
 10
138.3494431540752
 20
195.7915908705267
 30
0.0
 11
109.3494431540751
 21
195.7915908705267
 31
0.0
  0
SOLID
  5
2034
330
1A8B
100
AcDbEntity
  8
DIM
100
AcDbTrace
 10
138.3494431540752
 20
196.2915908705267
 30
0.0
 11
138.3494431540752
 21
195.2915908705267
 31
0.0
 12
141.3494431540752
 22
195.7915908705267
 32
0.0
 13
141.3494431540752
 23
195.7915908705267
 33
0.0
  0
SOLID
  5
2035
330
1A8B
100
AcDbEntity
  8
DIM
100
AcDbTrace
 10
109.3494431540751
 20
196.2915908705267
 30
0.0
 11
109.3494431540751
 21
195.2915908705267
 31
0.0
 12
106.3494431540751
 22
195.7915908705267
 32
0.0
 13
106.3494431540751
 23
195.7915908705267
 33
0.0
  0
MTEXT
  5
2036
330
1A8B
100
AcDbEntity
  8
DIM
100
AcDbMText
 10
123.8494431540752
 20
198.2915908705267
 30
0.0
 40
3.0
 41
0.0
 71
     5
 72
     1
  1
\A1;35
  7
CHINESET
1001
ACAD
1000
MTEXTBEGIN
1070
    73
1070
     1
1070
    44
1040
1.0
1070
    74
1070
     0
1000
MTEXTEND
  0
POINT
  5
2037
330
1A8B
100
AcDbEntity
  8
DEFPOINTS
 62
     0
100
AcDbPoint
 10
141.3494431540752
 20
165.4478395586834
 30
0.0
  0
POINT
  5
2038
330
1A8B
100
AcDbEntity
  8
DEFPOINTS
 62
     0
100
AcDbPoint
 10
106.3494431540751
 20
175.9478395586834
 30
0.0
  0
POINT
  5
2039
330
1A8B
100
AcDbEntity
  8
DEFPOINTS
 62
     0
100
AcDbPoint
 10
106.3494431540751
 20
195.7915908705267
 30
0.0
  0
ENDBLK
  5
1A96
330
1A8B
100
AcDbEntity
  8
0
100
AcDbBlockEnd
  0
BLOCK
  5
1AA4
330
1A98
100
AcDbEntity
  8
0
100
AcDbBlockBegin
  2
*D6
 70
     1
 10
0.0
 20
0.0
 30
0.0
  3
*D6
  1

  0
LINE
  5
2026
330
1A98
100
AcDbEntity
  8
DIM
100
AcDbLine
 10
130.3494431540751
 20
166.4478395586834
 30
0.0
 11
151.8098564019099
 21
166.4478395586834
 31
0.0
  0
LINE
  5
2027
330
1A98
100
AcDbEntity
  8
DIM
100
AcDbLine
 10
130.3494431540751
 20
160.4478395586834
 30
0.0
 11
151.8098564019099
 21
160.4478395586834
 31
0.0
  0
LINE
  5
2028
330
1A98
100
AcDbEntity
  8
DIM
100
AcDbLine
 10
149.8098564019099
 20
169.4478395586834
 30
0.0
 11
149.8098564019099
 21
172.4478395586834
 31
0.0
  0
LINE
  5
2029
330
1A98
100
AcDbEntity
  8
DIM
100
AcDbLine
 10
149.8098564019099
 20
157.4478395586834
 30
0.0
 11
149.8098564019099
 21
154.4478395586834
 31
0.0
  0
LINE
  5
202A
330
1A98
100
AcDbEntity
  8
DIM
100
AcDbLine
 10
149.8098564019099
 20
166.4478395586834
 30
0.0
 11
149.8098564019099
 21
160.4478395586834
 31
0.0
  0
SOLID
  5
202B
330
1A98
100
AcDbEntity
  8
DIM
100
AcDbTrace
 10
149.3098564019099
 20
169.4478395586834
 30
0.0
 11
150.3098564019099
 21
169.4478395586834
 31
0.0
 12
149.8098564019099
 22
166.4478395586834
 32
0.0
 13
149.8098564019099
 23
166.4478395586834
 33
0.0
  0
SOLID
  5
202C
330
1A98
100
AcDbEntity
  8
DIM
100
AcDbTrace
 10
149.3098564019099
 20
157.4478395586834
 30
0.0
 11
150.3098564019099
 21
157.4478395586834
 31
0.0
 12
149.8098564019099
 22
160.4478395586834
 32
0.0
 13
149.8098564019099
 23
160.4478395586834
 33
0.0
  0
MTEXT
  5
202D
330
1A98
100
AcDbEntity
  8
DIM
100
AcDbMText
 10
147.3098564019098
 20
163.4478395586834
 30
0.0
 40
3.0
 41
0.0
 71
     5
 72
     1
  1
\A1;%%c6
  7
CHINESET
 11
0.0000000000000001
 21
1.0
 31
0.0
1001
ACAD
1000
MTEXTBEGIN
1070
    73
1070
     1
1070
    44
1040
1.0
1070
    74
1070
     0
1000
MTEXTEND
  0
POINT
  5
202E
330
1A98
100
AcDbEntity
  8
DEFPOINTS
 62
     0
100
AcDbPoint
 10
127.3494431540751
 20
166.4478395586834
 30
0.0
  0
POINT
  5
202F
330
1A98
100
AcDbEntity
  8
DEFPOINTS
 62
     0
100
AcDbPoint
 10
127.3494431540751
 20
160.4478395586834
 30
0.0
  0
POINT
  5
2030
330
1A98
100
AcDbEntity
  8
DEFPOINTS
 62
     0
100
AcDbPoint
 10
149.8098564019099
 20
160.4478395586834
 30
0.0
  0
ENDBLK
  5
1AA5
330
1A98
100
AcDbEntity
  8
0
100
AcDbBlockEnd
  0
BLOCK
  5
1ABC
330
1AB2
100
AcDbEntity
  8
0
100
AcDbBlockBegin
  2
*D7
 70
     1
 10
0.0
 20
0.0
 30
0.0
  3
*D7
  1

  0
LINE
  5
206F
330
1AB2
100
AcDbEntity
  8
DIM
100
AcDbLine
 10
221.3701477805684
 20
171.5978395586834
 30
0.0
 11
199.1989716129676
 21
171.5978395586834
 31
0.0
  0
LINE
  5
2070
330
1AB2
100
AcDbEntity
  8
DIM
100
AcDbLine
 10
204.4301477805684
 20
155.2978395586834
 30
0.0
 11
199.1989716129676
 21
155.2978395586834
 31
0.0
  0
LINE
  5
2071
330
1AB2
100
AcDbEntity
  8
DIM
100
AcDbLine
 10
201.1989716129676
 20
168.5978395586834
 30
0.0
 11
201.1989716129676
 21
158.2978395586834
 31
0.0
  0
SOLID
  5
2072
330
1AB2
100
AcDbEntity
  8
DIM
100
AcDbTrace
 10
200.6989716129676
 20
168.5978395586834
 30
0.0
 11
201.6989716129676
 21
168.5978395586834
 31
0.0
 12
201.1989716129676
 22
171.5978395586834
 32
0.0
 13
201.1989716129676
 23
171.5978395586834
 33
0.0
  0
SOLID
  5
2073
330
1AB2
100
AcDbEntity
  8
DIM
100
AcDbTrace
 10
200.6989716129676
 20
158.2978395586834
 30
0.0
 11
201.6989716129676
 21
158.2978395586834
 31
0.0
 12
201.1989716129676
 22
155.2978395586834
 32
0.0
 13
201.1989716129676
 23
155.2978395586834
 33
0.0
  0
MTEXT
  5
2074
330
1AB2
100
AcDbEntity
  8
DIM
100
AcDbMText
 10
198.6989716129676
 20
163.4478395586834
 30
0.0
 40
3.0
 41
0.0
 71
     5
 72
     1
  1
\A1;\U+25A116.3
  7
CHINESET
 11
0.0000000000000001
 21
1.0
 31
0.0
1001
ACAD
1000
MTEXTBEGIN
1070
    73
1070
     1
1070
    44
1040
1.0
1070
    74
1070
     0
1000
MTEXTEND
  0
POINT
  5
2075
330
1AB2
100
AcDbEntity
  8
DEFPOINTS
 62
     0
100
AcDbPoint
 10
224.3701477805684
 20
171.5978395586834
 30
0.0
  0
POINT
  5
2076
330
1AB2
100
AcDbEntity
  8
DEFPOINTS
 62
     0
100
AcDbPoint
 10
207.4301477805684
 20
155.2978395586834
 30
0.0
  0
POINT
  5
2077
330
1AB2
100
AcDbEntity
  8
DEFPOINTS
 62
     0
100
AcDbPoint
 10
201.1989716129676
 20
155.2978395586834
 30
0.0
  0
ENDBLK
  5
1ABD
330
1AB2
100
AcDbEntity
  8
0
100
AcDbBlockEnd
  0
BLOCK
  5
1AC9
330
1ABF
100
AcDbEntity
  8
0
100
AcDbBlockBegin
  2
*D8
 70
     1
 10
0.0
 20
0.0
 30
0.0
  3
*D8
  1

  0
LINE
  5
2078
330
1ABF
100
AcDbEntity
  8
DIM
100
AcDbLine
 10
206.4826556028493
 20
175.9478395586834
 30
0.0
 11
191.3833279638563
 21
175.9478395586834
 31
0.0
  0
LINE
  5
2079
330
1ABF
100
AcDbEntity
  8
DIM
100
AcDbLine
 10
206.4826556028493
 20
150.9478395586834
 30
0.0
 11
191.3833279638563
 21
150.9478395586834
 31
0.0
  0
LINE
  5
207A
330
1ABF
100
AcDbEntity
  8
DIM
100
AcDbLine
 10
193.3833279638563
 20
172.9478395586834
 30
0.0
 11
193.3833279638563
 21
153.9478395586834
 31
0.0
  0
SOLID
  5
207B
330
1ABF
100
AcDbEntity
  8
DIM
100
AcDbTrace
 10
192.8833279638563
 20
172.9478395586834
 30
0.0
 11
193.8833279638563
 21
172.9478395586834
 31
0.0
 12
193.3833279638563
 22
175.9478395586834
 32
0.0
 13
193.3833279638563
 23
175.9478395586834
 33
0.0
  0
SOLID
  5
207C
330
1ABF
100
AcDbEntity
  8
DIM
100
AcDbTrace
 10
192.8833279638563
 20
153.9478395586834
 30
0.0
 11
193.8833279638563
 21
153.9478395586834
 31
0.0
 12
193.3833279638563
 22
150.9478395586834
 32
0.0
 13
193.3833279638563
 23
150.9478395586834
 33
0.0
  0
MTEXT
  5
207D
330
1ABF
100
AcDbEntity
  8
DIM
100
AcDbMText
 10
190.8833279638563
 20
163.4478395586834
 30
0.0
 40
3.0
 41
0.0
 71
     5
 72
     1
  1
\A1;\U+25A125
  7
CHINESET
 11
0.0000000000000001
 21
1.0
 31
0.0
1001
ACAD
1000
MTEXTBEGIN
1070
    73
1070
     1
1070
    44
1040
1.0
1070
    74
1070
     0
1000
MTEXTEND
  0
POINT
  5
207E
330
1ABF
100
AcDbEntity
  8
DEFPOINTS
 62
     0
100
AcDbPoint
 10
209.4826556028492
 20
175.9478395586834
 30
0.0
  0
POINT
  5
207F
330
1ABF
100
AcDbEntity
  8
DEFPOINTS
 62
     0
100
AcDbPoint
 10
209.4826556028492
 20
150.9478395586834
 30
0.0
  0
POINT
  5
2080
330
1ABF
100
AcDbEntity
  8
DEFPOINTS
 62
     0
100
AcDbPoint
 10
193.3833279638563
 20
150.9478395586834
 30
0.0
  0
ENDBLK
  5
1ACA
330
1ABF
100
AcDbEntity
  8
0
100
AcDbBlockEnd
  0
BLOCK
  5
1AEA
330
1ADE
100
AcDbEntity
  8
0
100
AcDbBlockBegin
  2
*D9
 70
     1
 10
0.0
 20
0.0
 30
0.0
  3
*D9
  1

  0
LINE
  5
204E
330
1ADE
100
AcDbEntity
  8
DIM
100
AcDbLine
 10
108.3494431540751
 20
168.9478395586834
 30
0.0
 11
94.8840133633635
 21
168.9478395586834
 31
0.0
  0
LINE
  5
204F
330
1ADE
100
AcDbEntity
  8
DIM
100
AcDbLine
 10
103.0094431540751
 20
163.4478395586834
 30
0.0
 11
94.8840133633635
 21
163.4478395586834
 31
0.0
  0
LINE
  5
2050
330
1ADE
100
AcDbEntity
  8
DIM
100
AcDbLine
 10
96.88401336336349
 20
171.9478395586834
 30
0.0
 11
96.88401336336349
 21
174.9478395586834
 31
0.0
  0
LINE
  5
2051
330
1ADE
100
AcDbEntity
  8
DIM
100
AcDbLine
 10
96.88401336336349
 20
160.4478395586834
 30
0.0
 11
96.88401336336347
 21
157.4478395586834
 31
0.0
  0
LINE
  5
2052
330
1ADE
100
AcDbEntity
  8
DIM
100
AcDbLine
 10
96.88401336336349
 20
168.9478395586834
 30
0.0
 11
96.88401336336349
 21
163.4478395586834
 31
0.0
  0
SOLID
  5
2053
330
1ADE
100
AcDbEntity
  8
DIM
100
AcDbTrace
 10
96.3840133633635
 20
171.9478395586834
 30
0.0
 11
97.3840133633635
 21
171.9478395586834
 31
0.0
 12
96.88401336336349
 22
168.9478395586834
 32
0.0
 13
96.88401336336349
 23
168.9478395586834
 33
0.0
  0
SOLID
  5
2054
330
1ADE
100
AcDbEntity
  8
DIM
100
AcDbTrace
 10
96.3840133633635
 20
160.4478395586834
 30
0.0
 11
97.3840133633635
 21
160.4478395586834
 31
0.0
 12
96.88401336336349
 22
163.4478395586834
 32
0.0
 13
96.88401336336349
 23
163.4478395586834
 33
0.0
  0
MTEXT
  5
2055
330
1ADE
100
AcDbEntity
  8
DIM
100
AcDbMText
 10
94.38401336336346
 20
166.1978395586834
 30
0.0
 40
3.0
 41
0.0
 71
     5
 72
     1
  1
\A1;5.5
  7
CHINESET
 11
0.0000000000000001
 21
1.0
 31
0.0
1001
ACAD
1000
MTEXTBEGIN
1070
    73
1070
     1
1070
    44
1040
1.0
1070
    74
1070
     0
1000
MTEXTEND
  0
POINT
  5
2056
330
1ADE
100
AcDbEntity
  8
DEFPOINTS
 62
     0
100
AcDbPoint
 10
111.3494431540751
 20
168.9478395586834
 30
0.0
  0
POINT
  5
2057
330
1ADE
100
AcDbEntity
  8
DEFPOINTS
 62
     0
100
AcDbPoint
 10
106.0094431540751
 20
163.4478395586834
 30
0.0
  0
POINT
  5
2058
330
1ADE
100
AcDbEntity
  8
DEFPOINTS
 62
     0
100
AcDbPoint
 10
96.88401336336349
 20
163.4478395586834
 30
0.0
  0
ENDBLK
  5
1AEB
330
1ADE
100
AcDbEntity
  8
0
100
AcDbBlockEnd
  0
BLOCK
  5
1B02
330
1AF6
100
AcDbEntity
  8
0
100
AcDbBlockBegin
  2
*D10
 70
     1
 10
0.0
 20
0.0
 30
0.0
  3
*D10
  1

  0
LINE
  5
1FC0
330
1AF6
100
AcDbEntity
  8
DIM
100
AcDbLine
 10
123.8412480936857
 20
76.25246906416973
 30
0.0
 11
123.8412480936857
 21
86.40428221865306
 31
0.0
  0
LINE
  5
1FC1
330
1AF6
100
AcDbEntity
  8
DIM
100
AcDbLine
 10
131.3412480936857
 20
80.46246906416971
 30
0.0
 11
131.3412480936857
 21
86.40428221865306
 31
0.0
  0
LINE
  5
1FC2
330
1AF6
100
AcDbEntity
  8
DIM
100
AcDbLine
 10
120.8412480936857
 20
84.40428221865307
 30
0.0
 11
117.8412480936857
 21
84.40428221865307
 31
0.0
  0
LINE
  5
1FC3
330
1AF6
100
AcDbEntity
  8
DIM
100
AcDbLine
 10
134.3412480936857
 20
84.40428221865307
 30
0.0
 11
137.3412480936857
 21
84.40428221865307
 31
0.0
  0
LINE
  5
1FC4
330
1AF6
100
AcDbEntity
  8
DIM
100
AcDbLine
 10
123.8412480936857
 20
84.40428221865307
 30
0.0
 11
131.3412480936857
 21
84.40428221865307
 31
0.0
  0
SOLID
  5
1FC5
330
1AF6
100
AcDbEntity
  8
DIM
100
AcDbTrace
 10
120.8412480936857
 20
84.90428221865306
 30
0.0
 11
120.8412480936857
 21
83.90428221865306
 31
0.0
 12
123.8412480936857
 22
84.40428221865307
 32
0.0
 13
123.8412480936857
 23
84.40428221865307
 33
0.0
  0
SOLID
  5
1FC6
330
1AF6
100
AcDbEntity
  8
DIM
100
AcDbTrace
 10
134.3412480936857
 20
84.90428221865306
 30
0.0
 11
134.3412480936857
 21
83.90428221865306
 31
0.0
 12
131.3412480936857
 22
84.40428221865307
 32
0.0
 13
131.3412480936857
 23
84.40428221865307
 33
0.0
  0
MTEXT
  5
1FC7
330
1AF6
100
AcDbEntity
  8
DIM
100
AcDbMText
 10
127.5912480936857
 20
86.90428221865307
 30
0.0
 40
3.0
 41
0.0
 71
     5
 72
     1
  1
\A1;7.5
  7
CHINESET
1001
ACAD
1000
MTEXTBEGIN
1070
    73
1070
     1
1070
    44
1040
1.0
1070
    74
1070
     0
1000
MTEXTEND
  0
POINT
  5
1FC8
330
1AF6
100
AcDbEntity
  8
DEFPOINTS
 62
     0
100
AcDbPoint
 10
123.8412480936857
 20
73.25246906416973
 30
0.0
  0
POINT
  5
1FC9
330
1AF6
100
AcDbEntity
  8
DEFPOINTS
 62
     0
100
AcDbPoint
 10
131.3412480936857
 20
77.46246906416971
 30
0.0
  0
POINT
  5
1FCA
330
1AF6
100
AcDbEntity
  8
DEFPOINTS
 62
     0
100
AcDbPoint
 10
131.3412480936857
 20
84.40428221865307
 30
0.0
  0
ENDBLK
  5
1B03
330
1AF6
100
AcDbEntity
  8
0
100
AcDbBlockEnd
  0
BLOCK
  5
1B11
330
1B05
100
AcDbEntity
  8
0
100
AcDbBlockBegin
  2
*D11
 70
     1
 10
0.0
 20
0.0
 30
0.0
  3
*D11
  1

  0
LINE
  5
1FB5
330
1B05
100
AcDbEntity
  8
DIM
100
AcDbLine
 10
118.3412480936857
 20
76.2524690641697
 30
0.0
 11
118.3412480936857
 21
86.40428221865306
 31
0.0
  0
LINE
  5
1FB6
330
1B05
100
AcDbEntity
  8
DIM
100
AcDbLine
 10
110.8412480936857
 20
80.46246906416971
 30
0.0
 11
110.8412480936857
 21
86.40428221865306
 31
0.0
  0
LINE
  5
1FB7
330
1B05
100
AcDbEntity
  8
DIM
100
AcDbLine
 10
121.3412480936857
 20
84.40428221865307
 30
0.0
 11
124.3412480936857
 21
84.40428221865307
 31
0.0
  0
LINE
  5
1FB8
330
1B05
100
AcDbEntity
  8
DIM
100
AcDbLine
 10
107.8412480936857
 20
84.40428221865307
 30
0.0
 11
104.8412480936857
 21
84.40428221865307
 31
0.0
  0
LINE
  5
1FB9
330
1B05
100
AcDbEntity
  8
DIM
100
AcDbLine
 10
118.3412480936857
 20
84.40428221865307
 30
0.0
 11
110.8412480936857
 21
84.40428221865307
 31
0.0
  0
SOLID
  5
1FBA
330
1B05
100
AcDbEntity
  8
DIM
100
AcDbTrace
 10
121.3412480936857
 20
84.90428221865306
 30
0.0
 11
121.3412480936857
 21
83.90428221865306
 31
0.0
 12
118.3412480936857
 22
84.40428221865307
 32
0.0
 13
118.3412480936857
 23
84.40428221865307
 33
0.0
  0
SOLID
  5
1FBB
330
1B05
100
AcDbEntity
  8
DIM
100
AcDbTrace
 10
107.8412480936857
 20
84.90428221865306
 30
0.0
 11
107.8412480936857
 21
83.90428221865306
 31
0.0
 12
110.8412480936857
 22
84.40428221865307
 32
0.0
 13
110.8412480936857
 23
84.40428221865307
 33
0.0
  0
MTEXT
  5
1FBC
330
1B05
100
AcDbEntity
  8
DIM
100
AcDbMText
 10
114.5912480936857
 20
86.90428221865307
 30
0.0
 40
3.0
 41
0.0
 71
     5
 72
     1
  1
\A1;7.5
  7
CHINESET
1001
ACAD
1000
MTEXTBEGIN
1070
    73
1070
     1
1070
    44
1040
1.0
1070
    74
1070
     0
1000
MTEXTEND
  0
POINT
  5
1FBD
330
1B05
100
AcDbEntity
  8
DEFPOINTS
 62
     0
100
AcDbPoint
 10
118.3412480936857
 20
73.2524690641697
 30
0.0
  0
POINT
  5
1FBE
330
1B05
100
AcDbEntity
  8
DEFPOINTS
 62
     0
100
AcDbPoint
 10
110.8412480936857
 20
77.46246906416971
 30
0.0
  0
POINT
  5
1FBF
330
1B05
100
AcDbEntity
  8
DEFPOINTS
 62
     0
100
AcDbPoint
 10
110.8412480936857
 20
84.40428221865307
 30
0.0
  0
ENDBLK
  5
1B12
330
1B05
100
AcDbEntity
  8
0
100
AcDbBlockEnd
  0
BLOCK
  5
1B1E
330
1B14
100
AcDbEntity
  8
0
100
AcDbBlockBegin
  2
*D12
 70
     1
 10
0.0
 20
0.0
 30
0.0
  3
*D12
  1

  0
LINE
  5
1FAA
330
1B14
100
AcDbEntity
  8
DIM
100
AcDbLine
 10
131.3412480936857
 20
80.46246906416971
 30
0.0
 11
131.3412480936857
 21
95.70891020059127
 31
0.0
  0
LINE
  5
1FAB
330
1B14
100
AcDbEntity
  8
DIM
100
AcDbLine
 10
110.8412480936857
 20
80.46246906416971
 30
0.0
 11
110.8412480936857
 21
95.70891020059127
 31
0.0
  0
LINE
  5
1FAC
330
1B14
100
AcDbEntity
  8
DIM
100
AcDbLine
 10
134.3412480936857
 20
93.70891020059127
 30
0.0
 11
137.3412480936857
 21
93.70891020059127
 31
0.0
  0
LINE
  5
1FAD
330
1B14
100
AcDbEntity
  8
DIM
100
AcDbLine
 10
107.8412480936857
 20
93.70891020059127
 30
0.0
 11
83.41267666511431
 21
93.70891020059127
 31
0.0
  0
LINE
  5
1FAE
330
1B14
100
AcDbEntity
  8
DIM
100
AcDbLine
 10
131.3412480936857
 20
93.70891020059127
 30
0.0
 11
110.8412480936857
 21
93.70891020059127
 31
0.0
  0
SOLID
  5
1FAF
330
1B14
100
AcDbEntity
  8
DIM
100
AcDbTrace
 10
134.3412480936857
 20
94.20891020059128
 30
0.0
 11
134.3412480936857
 21
93.20891020059127
 31
0.0
 12
131.3412480936857
 22
93.70891020059127
 32
0.0
 13
131.3412480936857
 23
93.70891020059127
 33
0.0
  0
SOLID
  5
1FB0
330
1B14
100
AcDbEntity
  8
DIM
100
AcDbTrace
 10
107.8412480936857
 20
94.20891020059128
 30
0.0
 11
107.8412480936857
 21
93.20891020059127
 31
0.0
 12
110.8412480936857
 22
93.70891020059127
 32
0.0
 13
110.8412480936857
 23
93.70891020059127
 33
0.0
  0
MTEXT
  5
1FB1
330
1B14
100
AcDbEntity
  8
DIM
100
AcDbMText
 10
94.12696237940002
 20
96.20891020059127
 30
0.0
 40
3.0
 41
0.0
 71
     5
 72
     1
  1
\A1;20.5+ST.
  7
CHINESET
1001
ACAD
1000
MTEXTBEGIN
1070
    73
1070
     1
1070
    44
1040
1.0
1070
    74
1070
     0
1000
MTEXTEND
  0
POINT
  5
1FB2
330
1B14
100
AcDbEntity
  8
DEFPOINTS
 62
     0
100
AcDbPoint
 10
131.3412480936857
 20
77.46246906416971
 30
0.0
  0
POINT
  5
1FB3
330
1B14
100
AcDbEntity
  8
DEFPOINTS
 62
     0
100
AcDbPoint
 10
110.8412480936857
 20
77.46246906416971
 30
0.0
  0
POINT
  5
1FB4
330
1B14
100
AcDbEntity
  8
DEFPOINTS
 62
     0
100
AcDbPoint
 10
110.8412480936857
 20
93.70891020059127
 30
0.0
  0
ENDBLK
  5
1B1F
330
1B14
100
AcDbEntity
  8
0
100
AcDbBlockEnd
  0
BLOCK
  5
1B2D
330
1B21
100
AcDbEntity
  8
0
100
AcDbBlockBegin
  2
*D13
 70
     1
 10
0.0
 20
0.0
 30
0.0
  3
*D13
  1

  0
LINE
  5
1FCB
330
1B21
100
AcDbEntity
  8
DIM
100
AcDbLine
 10
131.3412480936857
 20
80.46246906416971
 30
0.0
 11
131.3412480936857
 21
95.70891020059127
 31
0.0
  0
LINE
  5
1FCC
330
1B21
100
AcDbEntity
  8
DIM
100
AcDbLine
 10
135.8412480936857
 20
70.46246906416972
 30
0.0
 11
135.8412480936857
 21
95.70891020059127
 31
0.0
  0
LINE
  5
1FCD
330
1B21
100
AcDbEntity
  8
DIM
100
AcDbLine
 10
128.3412480936857
 20
93.70891020059127
 30
0.0
 11
125.3412480936857
 21
93.70891020059127
 31
0.0
  0
LINE
  5
1FCE
330
1B21
100
AcDbEntity
  8
DIM
100
AcDbLine
 10
138.8412480936857
 20
93.70891020059127
 30
0.0
 11
150.1269623794
 21
93.70891020059127
 31
0.0
  0
LINE
  5
1FCF
330
1B21
100
AcDbEntity
  8
DIM
100
AcDbLine
 10
131.3412480936857
 20
93.70891020059127
 30
0.0
 11
135.8412480936857
 21
93.70891020059127
 31
0.0
  0
SOLID
  5
1FD0
330
1B21
100
AcDbEntity
  8
DIM
100
AcDbTrace
 10
128.3412480936857
 20
94.20891020059128
 30
0.0
 11
128.3412480936857
 21
93.20891020059127
 31
0.0
 12
131.3412480936857
 22
93.70891020059127
 32
0.0
 13
131.3412480936857
 23
93.70891020059127
 33
0.0
  0
SOLID
  5
1FD1
330
1B21
100
AcDbEntity
  8
DIM
100
AcDbTrace
 10
138.8412480936857
 20
94.20891020059128
 30
0.0
 11
138.8412480936857
 21
93.20891020059127
 31
0.0
 12
135.8412480936857
 22
93.70891020059127
 32
0.0
 13
135.8412480936857
 23
93.70891020059127
 33
0.0
  0
MTEXT
  5
1FD2
330
1B21
100
AcDbEntity
  8
DIM
100
AcDbMText
 10
145.9841052365429
 20
96.20891020059127
 30
0.0
 40
3.0
 41
0.0
 71
     5
 72
     1
  1
\A1;4.5
  7
CHINESET
1001
ACAD
1000
MTEXTBEGIN
1070
    73
1070
     1
1070
    44
1040
1.0
1070
    74
1070
     0
1000
MTEXTEND
  0
POINT
  5
1FD3
330
1B21
100
AcDbEntity
  8
DEFPOINTS
 62
     0
100
AcDbPoint
 10
131.3412480936857
 20
77.46246906416971
 30
0.0
  0
POINT
  5
1FD4
330
1B21
100
AcDbEntity
  8
DEFPOINTS
 62
     0
100
AcDbPoint
 10
135.8412480936857
 20
67.46246906416972
 30
0.0
  0
POINT
  5
1FD5
330
1B21
100
AcDbEntity
  8
DEFPOINTS
 62
     0
100
AcDbPoint
 10
135.8412480936857
 20
93.70891020059127
 30
0.0
  0
ENDBLK
  5
1B2E
330
1B21
100
AcDbEntity
  8
0
100
AcDbBlockEnd
  0
BLOCK
  5
1B3A
330
1B30
100
AcDbEntity
  8
0
100
AcDbBlockBegin
  2
*D14
 70
     1
 10
0.0
 20
0.0
 30
0.0
  3
*D14
  1

  0
LINE
  5
1FD6
330
1B30
100
AcDbEntity
  8
DIM
100
AcDbLine
 10
135.8412480936857
 20
70.46246906416972
 30
0.0
 11
135.8412480936857
 21
105.6781543973454
 31
0.0
  0
LINE
  5
1FD7
330
1B30
100
AcDbEntity
  8
DIM
100
AcDbLine
 10
110.8412480936857
 20
80.46246906416971
 30
0.0
 11
110.8412480936857
 21
105.6781543973454
 31
0.0
  0
LINE
  5
1FD8
330
1B30
100
AcDbEntity
  8
DIM
100
AcDbLine
 10
132.8412480936857
 20
103.6781543973454
 30
0.0
 11
113.8412480936857
 21
103.6781543973454
 31
0.0
  0
SOLID
  5
1FD9
330
1B30
100
AcDbEntity
  8
DIM
100
AcDbTrace
 10
132.8412480936857
 20
104.1781543973454
 30
0.0
 11
132.8412480936857
 21
103.1781543973454
 31
0.0
 12
135.8412480936857
 22
103.6781543973454
 32
0.0
 13
135.8412480936857
 23
103.6781543973454
 33
0.0
  0
SOLID
  5
1FDA
330
1B30
100
AcDbEntity
  8
DIM
100
AcDbTrace
 10
113.8412480936857
 20
104.1781543973454
 30
0.0
 11
113.8412480936857
 21
103.1781543973454
 31
0.0
 12
110.8412480936857
 22
103.6781543973454
 32
0.0
 13
110.8412480936857
 23
103.6781543973454
 33
0.0
  0
MTEXT
  5
1FDB
330
1B30
100
AcDbEntity
  8
DIM
100
AcDbMText
 10
123.3412480936857
 20
106.1781543973454
 30
0.0
 40
3.0
 41
0.0
 71
     5
 72
     1
  1
\A1;25
  7
CHINESET
1001
ACAD
1000
MTEXTBEGIN
1070
    73
1070
     1
1070
    44
1040
1.0
1070
    74
1070
     0
1000
MTEXTEND
  0
POINT
  5
1FDC
330
1B30
100
AcDbEntity
  8
DEFPOINTS
 62
     0
100
AcDbPoint
 10
135.8412480936857
 20
67.46246906416972
 30
0.0
  0
POINT
  5
1FDD
330
1B30
100
AcDbEntity
  8
DEFPOINTS
 62
     0
100
AcDbPoint
 10
110.8412480936857
 20
77.46246906416971
 30
0.0
  0
POINT
  5
1FDE
330
1B30
100
AcDbEntity
  8
DEFPOINTS
 62
     0
100
AcDbPoint
 10
110.8412480936857
 20
103.6781543973454
 30
0.0
  0
ENDBLK
  5
1B3B
330
1B30
100
AcDbEntity
  8
0
100
AcDbBlockEnd
  0
BLOCK
  5
1B49
330
1B3D
100
AcDbEntity
  8
0
100
AcDbBlockBegin
  2
*D15
 70
     1
 10
0.0
 20
0.0
 30
0.0
  3
*D15
  1

  0
LINE
  5
1FEA
330
1B3D
100
AcDbEntity
  8
DIM
100
AcDbLine
 10
112.5512480936857
 20
70.46246906416971
 30
0.0
 11
100.7364035229911
 21
70.46246906416971
 31
0.0
  0
LINE
  5
1FEB
330
1B3D
100
AcDbEntity
  8
DIM
100
AcDbLine
 10
107.5012480936857
 20
64.96246906416971
 30
0.0
 11
100.7364035229911
 21
64.96246906416971
 31
0.0
  0
LINE
  5
1FEC
330
1B3D
100
AcDbEntity
  8
DIM
100
AcDbLine
 10
102.7364035229911
 20
73.46246906416971
 30
0.0
 11
102.7364035229911
 21
76.46246906416971
 31
0.0
  0
LINE
  5
1FED
330
1B3D
100
AcDbEntity
  8
DIM
100
AcDbLine
 10
102.7364035229911
 20
61.96246906416972
 30
0.0
 11
102.7364035229911
 21
58.96246906416972
 31
0.0
  0
LINE
  5
1FEE
330
1B3D
100
AcDbEntity
  8
DIM
100
AcDbLine
 10
102.7364035229911
 20
70.46246906416971
 30
0.0
 11
102.7364035229911
 21
64.96246906416971
 31
0.0
  0
SOLID
  5
1FEF
330
1B3D
100
AcDbEntity
  8
DIM
100
AcDbTrace
 10
102.2364035229911
 20
73.46246906416971
 30
0.0
 11
103.2364035229911
 21
73.46246906416971
 31
0.0
 12
102.7364035229911
 22
70.46246906416971
 32
0.0
 13
102.7364035229911
 23
70.46246906416971
 33
0.0
  0
SOLID
  5
1FF0
330
1B3D
100
AcDbEntity
  8
DIM
100
AcDbTrace
 10
102.2364035229911
 20
61.96246906416972
 30
0.0
 11
103.2364035229911
 21
61.96246906416972
 31
0.0
 12
102.7364035229911
 22
64.96246906416971
 32
0.0
 13
102.7364035229911
 23
64.96246906416971
 33
0.0
  0
MTEXT
  5
1FF1
330
1B3D
100
AcDbEntity
  8
DIM
100
AcDbMText
 10
100.2364035229911
 20
67.71246906416974
 30
0.0
 40
3.0
 41
0.0
 71
     5
 72
     1
  1
\A1;5.5
  7
CHINESET
 11
0.0000000000000001
 21
1.0
 31
0.0
1001
ACAD
1000
MTEXTBEGIN
1070
    73
1070
     1
1070
    44
1040
1.0
1070
    74
1070
     0
1000
MTEXTEND
  0
POINT
  5
1FF2
330
1B3D
100
AcDbEntity
  8
DEFPOINTS
 62
     0
100
AcDbPoint
 10
115.5512480936857
 20
70.46246906416971
 30
0.0
  0
POINT
  5
1FF3
330
1B3D
100
AcDbEntity
  8
DEFPOINTS
 62
     0
100
AcDbPoint
 10
110.5012480936857
 20
64.96246906416971
 30
0.0
  0
POINT
  5
1FF4
330
1B3D
100
AcDbEntity
  8
DEFPOINTS
 62
     0
100
AcDbPoint
 10
102.7364035229911
 20
64.96246906416971
 30
0.0
  0
ENDBLK
  5
1B4A
330
1B3D
100
AcDbEntity
  8
0
100
AcDbBlockEnd
  0
BLOCK
  5
1B58
330
1B4C
100
AcDbEntity
  8
0
100
AcDbBlockBegin
  2
*D16
 70
     1
 10
0.0
 20
0.0
 30
0.0
  3
*D16
  1

  0
LINE
  5
1FDF
330
1B4C
100
AcDbEntity
  8
DIM
100
AcDbLine
 10
134.8412480936857
 20
67.96246906416971
 30
0.0
 11
148.3231905307084
 21
67.96246906416971
 31
0.0
  0
LINE
  5
1FE0
330
1B4C
100
AcDbEntity
  8
DIM
100
AcDbLine
 10
134.8412480936857
 20
61.96246906416971
 30
0.0
 11
148.3231905307084
 21
61.9624690641697
 31
0.0
  0
LINE
  5
1FE1
330
1B4C
100
AcDbEntity
  8
DIM
100
AcDbLine
 10
146.3231905307084
 20
70.96246906416971
 30
0.0
 11
146.3231905307084
 21
73.96246906416971
 31
0.0
  0
LINE
  5
1FE2
330
1B4C
100
AcDbEntity
  8
DIM
100
AcDbLine
 10
146.3231905307084
 20
58.9624690641697
 30
0.0
 11
146.3231905307084
 21
55.9624690641697
 31
0.0
  0
LINE
  5
1FE3
330
1B4C
100
AcDbEntity
  8
DIM
100
AcDbLine
 10
146.3231905307084
 20
67.96246906416971
 30
0.0
 11
146.3231905307084
 21
61.9624690641697
 31
0.0
  0
SOLID
  5
1FE4
330
1B4C
100
AcDbEntity
  8
DIM
100
AcDbTrace
 10
145.8231905307084
 20
70.96246906416971
 30
0.0
 11
146.8231905307084
 21
70.96246906416971
 31
0.0
 12
146.3231905307084
 22
67.96246906416971
 32
0.0
 13
146.3231905307084
 23
67.96246906416971
 33
0.0
  0
SOLID
  5
1FE5
330
1B4C
100
AcDbEntity
  8
DIM
100
AcDbTrace
 10
145.8231905307084
 20
58.9624690641697
 30
0.0
 11
146.8231905307084
 21
58.9624690641697
 31
0.0
 12
146.3231905307084
 22
61.9624690641697
 32
0.0
 13
146.3231905307084
 23
61.9624690641697
 33
0.0
  0
MTEXT
  5
1FE6
330
1B4C
100
AcDbEntity
  8
DIM
100
AcDbMText
 10
143.8231905307084
 20
64.96246906416972
 30
0.0
 40
3.0
 41
0.0
 71
     5
 72
     1
  1
\A1;%%c6
  7
CHINESET
 11
0.0000000000000001
 21
1.0
 31
0.0
1001
ACAD
1000
MTEXTBEGIN
1070
    73
1070
     1
1070
    44
1040
1.0
1070
    74
1070
     0
1000
MTEXTEND
  0
POINT
  5
1FE7
330
1B4C
100
AcDbEntity
  8
DEFPOINTS
 62
     0
100
AcDbPoint
 10
131.8412480936857
 20
67.96246906416971
 30
0.0
  0
POINT
  5
1FE8
330
1B4C
100
AcDbEntity
  8
DEFPOINTS
 62
     0
100
AcDbPoint
 10
131.8412480936857
 20
61.96246906416971
 30
0.0
  0
POINT
  5
1FE9
330
1B4C
100
AcDbEntity
  8
DEFPOINTS
 62
     0
100
AcDbPoint
 10
146.3231905307084
 20
61.9624690641697
 30
0.0
  0
ENDBLK
  5
1B59
330
1B4C
100
AcDbEntity
  8
0
100
AcDbBlockEnd
  0
BLOCK
  5
1B70
330
1B66
100
AcDbEntity
  8
0
100
AcDbBlockBegin
  2
*D17
 70
     1
 10
0.0
 20
0.0
 30
0.0
  3
*D17
  1

  0
LINE
  5
1FF5
330
1B66
100
AcDbEntity
  8
DIM
100
AcDbLine
 10
220.7301477805684
 20
73.11246906416972
 30
0.0
 11
196.8819553875303
 21
73.11246906416972
 31
0.0
  0
LINE
  5
1FF6
330
1B66
100
AcDbEntity
  8
DIM
100
AcDbLine
 10
204.4301477805684
 20
56.8124690641697
 30
0.0
 11
196.8819553875303
 21
56.8124690641697
 31
0.0
  0
LINE
  5
1FF7
330
1B66
100
AcDbEntity
  8
DIM
100
AcDbLine
 10
198.8819553875303
 20
70.11246906416971
 30
0.0
 11
198.8819553875303
 21
59.8124690641697
 31
0.0
  0
SOLID
  5
1FF8
330
1B66
100
AcDbEntity
  8
DIM
100
AcDbTrace
 10
198.3819553875303
 20
70.11246906416971
 30
0.0
 11
199.3819553875303
 21
70.11246906416971
 31
0.0
 12
198.8819553875303
 22
73.11246906416972
 32
0.0
 13
198.8819553875303
 23
73.11246906416972
 33
0.0
  0
SOLID
  5
1FF9
330
1B66
100
AcDbEntity
  8
DIM
100
AcDbTrace
 10
198.3819553875303
 20
59.8124690641697
 30
0.0
 11
199.3819553875303
 21
59.8124690641697
 31
0.0
 12
198.8819553875303
 22
56.8124690641697
 32
0.0
 13
198.8819553875303
 23
56.8124690641697
 33
0.0
  0
MTEXT
  5
1FFA
330
1B66
100
AcDbEntity
  8
DIM
100
AcDbMText
 10
196.3819553875302
 20
64.96246906416974
 30
0.0
 40
3.0
 41
0.0
 71
     5
 72
     1
  1
\A1;\U+25A116.3
  7
CHINESET
 11
0.0000000000000001
 21
1.0
 31
0.0
1001
ACAD
1000
MTEXTBEGIN
1070
    73
1070
     1
1070
    44
1040
1.0
1070
    74
1070
     0
1000
MTEXTEND
  0
POINT
  5
1FFB
330
1B66
100
AcDbEntity
  8
DEFPOINTS
 62
     0
100
AcDbPoint
 10
223.7301477805684
 20
73.11246906416972
 30
0.0
  0
POINT
  5
1FFC
330
1B66
100
AcDbEntity
  8
DEFPOINTS
 62
     0
100
AcDbPoint
 10
207.4301477805684
 20
56.8124690641697
 30
0.0
  0
POINT
  5
1FFD
330
1B66
100
AcDbEntity
  8
DEFPOINTS
 62
     0
100
AcDbPoint
 10
198.8819553875303
 20
56.8124690641697
 30
0.0
  0
ENDBLK
  5
1B71
330
1B66
100
AcDbEntity
  8
0
100
AcDbBlockEnd
  0
BLOCK
  5
1B7D
330
1B73
100
AcDbEntity
  8
0
100
AcDbBlockBegin
  2
*D18
 70
     1
 10
0.0
 20
0.0
 30
0.0
  3
*D18
  1

  0
LINE
  5
2009
330
1B73
100
AcDbEntity
  8
DIM
100
AcDbLine
 10
206.4826556028492
 20
77.46246906416971
 30
0.0
 11
188.890924594127
 21
77.46246906416971
 31
0.0
  0
LINE
  5
200A
330
1B73
100
AcDbEntity
  8
DIM
100
AcDbLine
 10
206.4826556028492
 20
52.46246906416971
 30
0.0
 11
188.8909245941269
 21
52.46246906416971
 31
0.0
  0
LINE
  5
200B
330
1B73
100
AcDbEntity
  8
DIM
100
AcDbLine
 10
190.890924594127
 20
74.46246906416971
 30
0.0
 11
190.890924594127
 21
55.46246906416971
 31
0.0
  0
SOLID
  5
200C
330
1B73
100
AcDbEntity
  8
DIM
100
AcDbTrace
 10
190.390924594127
 20
74.46246906416971
 30
0.0
 11
191.390924594127
 21
74.46246906416971
 31
0.0
 12
190.890924594127
 22
77.46246906416971
 32
0.0
 13
190.890924594127
 23
77.46246906416971
 33
0.0
  0
SOLID
  5
200D
330
1B73
100
AcDbEntity
  8
DIM
100
AcDbTrace
 10
190.390924594127
 20
55.46246906416971
 30
0.0
 11
191.390924594127
 21
55.46246906416971
 31
0.0
 12
190.890924594127
 22
52.46246906416971
 32
0.0
 13
190.890924594127
 23
52.46246906416971
 33
0.0
  0
MTEXT
  5
200E
330
1B73
100
AcDbEntity
  8
DIM
100
AcDbMText
 10
188.390924594127
 20
64.96246906416974
 30
0.0
 40
3.0
 41
0.0
 71
     5
 72
     1
  1
\A1;\U+25A125
  7
CHINESET
 11
0.0000000000000001
 21
1.0
 31
0.0
1001
ACAD
1000
MTEXTBEGIN
1070
    73
1070
     1
1070
    44
1040
1.0
1070
    74
1070
     0
1000
MTEXTEND
  0
POINT
  5
200F
330
1B73
100
AcDbEntity
  8
DEFPOINTS
 62
     0
100
AcDbPoint
 10
209.4826556028492
 20
77.46246906416971
 30
0.0
  0
POINT
  5
2010
330
1B73
100
AcDbEntity
  8
DEFPOINTS
 62
     0
100
AcDbPoint
 10
209.4826556028492
 20
52.46246906416971
 30
0.0
  0
POINT
  5
2011
330
1B73
100
AcDbEntity
  8
DEFPOINTS
 62
     0
100
AcDbPoint
 10
190.890924594127
 20
52.46246906416971
 30
0.0
  0
ENDBLK
  5
1B7E
330
1B73
100
AcDbEntity
  8
0
100
AcDbBlockEnd
  0
BLOCK
  5
1BF1
330
1BE7
100
AcDbEntity
  8
0
100
AcDbBlockBegin
  2
*D19
 70
     1
 10
0.0
 20
0.0
 30
0.0
  3
*D19
  1

  0
LINE
  5
201D
330
1BE7
100
AcDbEntity
  8
DIM
100
AcDbLine
 10
141.3494431540752
 20
168.4478395586834
 30
0.0
 11
141.3494431540752
 21
176.266210855238
 31
0.0
  0
LINE
  5
201E
330
1BE7
100
AcDbEntity
  8
DIM
100
AcDbLine
 10
132.3494431540752
 20
168.9478395586834
 30
0.0
 11
132.3494431540752
 21
176.266210855238
 31
0.0
  0
LINE
  5
201F
330
1BE7
100
AcDbEntity
  8
DIM
100
AcDbLine
 10
138.3494431540752
 20
174.266210855238
 30
0.0
 11
135.3494431540752
 21
174.266210855238
 31
0.0
  0
SOLID
  5
2020
330
1BE7
100
AcDbEntity
  8
DIM
100
AcDbTrace
 10
138.3494431540752
 20
174.766210855238
 30
0.0
 11
138.3494431540752
 21
173.7662108552379
 31
0.0
 12
141.3494431540752
 22
174.266210855238
 32
0.0
 13
141.3494431540752
 23
174.266210855238
 33
0.0
  0
SOLID
  5
2021
330
1BE7
100
AcDbEntity
  8
DIM
100
AcDbTrace
 10
135.3494431540752
 20
174.766210855238
 30
0.0
 11
135.3494431540752
 21
173.7662108552379
 31
0.0
 12
132.3494431540752
 22
174.266210855238
 32
0.0
 13
132.3494431540752
 23
174.266210855238
 33
0.0
  0
MTEXT
  5
2022
330
1BE7
100
AcDbEntity
  8
DIM
100
AcDbMText
 10
136.8494431540752
 20
176.766210855238
 30
0.0
 40
3.0
 41
0.0
 71
     5
 72
     1
  1
\A1;9
  7
CHINESET
1001
ACAD
1000
MTEXTBEGIN
1070
    73
1070
     1
1070
    44
1040
1.0
1070
    74
1070
     0
1000
MTEXTEND
  0
POINT
  5
2023
330
1BE7
100
AcDbEntity
  8
DEFPOINTS
 62
     0
100
AcDbPoint
 10
141.3494431540752
 20
165.4478395586834
 30
0.0
  0
POINT
  5
2024
330
1BE7
100
AcDbEntity
  8
DEFPOINTS
 62
     0
100
AcDbPoint
 10
132.3494431540752
 20
165.9478395586834
 30
0.0
  0
POINT
  5
2025
330
1BE7
100
AcDbEntity
  8
DEFPOINTS
 62
     0
100
AcDbPoint
 10
132.3494431540752
 20
174.266210855238
 30
0.0
  0
ENDBLK
  5
1BF2
330
1BE7
100
AcDbEntity
  8
0
100
AcDbBlockEnd
  0
BLOCK
  5
1CDB
330
1CCF
100
AcDbEntity
  8
0
100
AcDbBlockBegin
  2
*D20
 70
     1
 10
0.0
 20
0.0
 30
0.0
  3
*D20
  1

  0
LINE
  5
2064
330
1CCF
100
AcDbEntity
  8
DIM
100
AcDbLine
 10
221.9701477805684
 20
158.7895271635058
 30
0.0
 11
221.9701477805684
 21
138.7627477870761
 31
0.0
  0
LINE
  5
2065
330
1CCF
100
AcDbEntity
  8
DIM
100
AcDbLine
 10
216.9701477805683
 20
158.7895271635058
 30
0.0
 11
216.9701477805683
 21
138.7627477870761
 31
0.0
  0
LINE
  5
2066
330
1CCF
100
AcDbEntity
  8
DIM
100
AcDbLine
 10
224.9701477805685
 20
140.7627477870761
 30
0.0
 11
227.9701477805684
 21
140.7627477870761
 31
0.0
  0
LINE
  5
2067
330
1CCF
100
AcDbEntity
  8
DIM
100
AcDbLine
 10
213.9701477805683
 20
140.7627477870761
 30
0.0
 11
210.9701477805683
 21
140.7627477870761
 31
0.0
  0
LINE
  5
2068
330
1CCF
100
AcDbEntity
  8
DIM
100
AcDbLine
 10
221.9701477805684
 20
140.7627477870761
 30
0.0
 11
216.9701477805683
 21
140.7627477870761
 31
0.0
  0
SOLID
  5
2069
330
1CCF
100
AcDbEntity
  8
DIM
100
AcDbTrace
 10
224.9701477805685
 20
141.2627477870761
 30
0.0
 11
224.9701477805685
 21
140.2627477870761
 31
0.0
 12
221.9701477805684
 22
140.7627477870761
 32
0.0
 13
221.9701477805684
 23
140.7627477870761
 33
0.0
  0
SOLID
  5
206A
330
1CCF
100
AcDbEntity
  8
DIM
100
AcDbTrace
 10
213.9701477805683
 20
141.2627477870761
 30
0.0
 11
213.9701477805683
 21
140.2627477870761
 31
0.0
 12
216.9701477805683
 22
140.7627477870761
 32
0.0
 13
216.9701477805683
 23
140.7627477870761
 33
0.0
  0
MTEXT
  5
206B
330
1CCF
100
AcDbEntity
  8
DIM
100
AcDbMText
 10
219.4701477805684
 20
143.2627477870761
 30
0.0
 40
3.0
 41
0.0
 71
     5
 72
     1
  1
\A1;5
  7
CHINESET
1001
ACAD
1000
MTEXTBEGIN
1070
    73
1070
     1
1070
    44
1040
1.0
1070
    74
1070
     0
1000
MTEXTEND
  0
POINT
  5
206C
330
1CCF
100
AcDbEntity
  8
DEFPOINTS
 62
     0
100
AcDbPoint
 10
221.9701477805684
 20
161.7895271635058
 30
0.0
  0
POINT
  5
206D
330
1CCF
100
AcDbEntity
  8
DEFPOINTS
 62
     0
100
AcDbPoint
 10
216.9701477805683
 20
161.7895271635058
 30
0.0
  0
POINT
  5
206E
330
1CCF
100
AcDbEntity
  8
DEFPOINTS
 62
     0
100
AcDbPoint
 10
216.9701477805683
 20
140.7627477870761
 30
0.0
  0
ENDBLK
  5
1CDC
330
1CCF
100
AcDbEntity
  8
0
100
AcDbBlockEnd
  0
BLOCK
  5
1CF5
330
1CE9
100
AcDbEntity
  8
0
100
AcDbBlockBegin
  2
*D21
 70
     1
 10
0.0
 20
0.0
 30
0.0
  3
*D21
  1

  0
LINE
  5
1FFE
330
1CE9
100
AcDbEntity
  8
DIM
100
AcDbLine
 10
221.9701477805684
 20
60.30415666899205
 30
0.0
 11
221.9701477805684
 21
37.68287478581965
 31
0.0
  0
LINE
  5
1FFF
330
1CE9
100
AcDbEntity
  8
DIM
100
AcDbLine
 10
216.9701477805683
 20
60.30415666899205
 30
0.0
 11
216.9701477805683
 21
37.68287478581965
 31
0.0
  0
LINE
  5
2000
330
1CE9
100
AcDbEntity
  8
DIM
100
AcDbLine
 10
224.9701477805683
 20
39.68287478581965
 30
0.0
 11
227.9701477805684
 21
39.68287478581965
 31
0.0
  0
LINE
  5
2001
330
1CE9
100
AcDbEntity
  8
DIM
100
AcDbLine
 10
213.9701477805683
 20
39.68287478581965
 30
0.0
 11
210.9701477805683
 21
39.68287478581965
 31
0.0
  0
LINE
  5
2002
330
1CE9
100
AcDbEntity
  8
DIM
100
AcDbLine
 10
221.9701477805684
 20
39.68287478581965
 30
0.0
 11
216.9701477805683
 21
39.68287478581965
 31
0.0
  0
SOLID
  5
2003
330
1CE9
100
AcDbEntity
  8
DIM
100
AcDbTrace
 10
224.9701477805683
 20
40.18287478581965
 30
0.0
 11
224.9701477805683
 21
39.18287478581964
 31
0.0
 12
221.9701477805684
 22
39.68287478581965
 32
0.0
 13
221.9701477805684
 23
39.68287478581965
 33
0.0
  0
SOLID
  5
2004
330
1CE9
100
AcDbEntity
  8
DIM
100
AcDbTrace
 10
213.9701477805683
 20
40.18287478581965
 30
0.0
 11
213.9701477805683
 21
39.18287478581964
 31
0.0
 12
216.9701477805683
 22
39.68287478581965
 32
0.0
 13
216.9701477805683
 23
39.68287478581965
 33
0.0
  0
MTEXT
  5
2005
330
1CE9
100
AcDbEntity
  8
DIM
100
AcDbMText
 10
219.4701477805683
 20
42.18287478581965
 30
0.0
 40
3.0
 41
0.0
 71
     5
 72
     1
  1
\A1;5
  7
CHINESET
1001
ACAD
1000
MTEXTBEGIN
1070
    73
1070
     1
1070
    44
1040
1.0
1070
    74
1070
     0
1000
MTEXTEND
  0
POINT
  5
2006
330
1CE9
100
AcDbEntity
  8
DEFPOINTS
 62
     0
100
AcDbPoint
 10
221.9701477805684
 20
63.30415666899205
 30
0.0
  0
POINT
  5
2007
330
1CE9
100
AcDbEntity
  8
DEFPOINTS
 62
     0
100
AcDbPoint
 10
216.9701477805683
 20
63.30415666899205
 30
0.0
  0
POINT
  5
2008
330
1CE9
100
AcDbEntity
  8
DEFPOINTS
 62
     0
100
AcDbPoint
 10
216.9701477805683
 20
39.68287478581965
 30
0.0
  0
ENDBLK
  5
1CF6
330
1CE9
100
AcDbEntity
  8
0
100
AcDbBlockEnd
  0
BLOCK
  5
21DD
330
21DB
100
AcDbEntity
  8
0
100
AcDbBlockBegin
  2
GENAXEH
 70
     0
 10
0.0
 20
0.0
 30
0.0
  3
GENAXEH
  1

  0
LINE
  5
21DC
330
21DB
100
AcDbEntity
  8
0
100
AcDbLine
 10
-1.0
 20
0.0
 30
0.0
 11
1.0
 21
0.0
 31
0.0
  0
ENDBLK
  5
21DE
330
21DB
100
AcDbEntity
  8
0
100
AcDbBlockEnd
  0
ENDSEC
  0
SECTION
  2
ENTITIES
  0
TEXT
  5
82
330
1F
100
AcDbEntity
  8
A3-S
 62
     5
100
AcDbText
 10
-2002.927221967571
 20
62.23202368211355
 30
0.0
 40
26.6
  1

  7
RUBONK
100
AcDbText
  0
MTEXT
  5
A9
330
1F
100
AcDbEntity
  8
0
100
AcDbMText
 10
-112.8858816556398
 20
179.1757813154577
 30
0.0
 40
3.0
 41
0.0
 71
     4
 72
     1
  1

1001
ACAD
1000
MTEXTBEGIN
1070
    73
1070
     1
1070
    44
1040
1.0
1070
    74
1070
     0
1000
MTEXTEND
  0
MTEXT
  5
AA
330
1F
100
AcDbEntity
  8
0
100
AcDbMText
 10
-176.2667196970538
 20
189.9084924046809
 30
0.0
 40
1.799999999999999
 41
0.0
 71
     9
 72
     1
  1

1001
ACAD
1000
MTEXTBEGIN
1070
    73
1070
     1
1070
    44
1040
1.0
1070
    74
1070
     0
1000
MTEXTEND
  0
MTEXT
  5
AB
330
1F
100
AcDbEntity
  8
0
100
AcDbMText
 10
82.64233389287733
 20
174.944592339129
 30
0.0
 40
3.0
 41
0.0
 71
     4
 72
     1
  1

1001
ACAD
1000
MTEXTBEGIN
1070
    73
1070
     1
1070
    44
1040
1.0
1070
    74
1070
     0
1000
MTEXTEND
  0
MTEXT
  5
AC
330
1F
100
AcDbEntity
  8
0
100
AcDbMText
 10
19.26149585146331
 20
185.6773034283523
 30
0.0
 40
1.799999999999999
 41
0.0
 71
     9
 72
     1
  1

1001
ACAD
1000
MTEXTBEGIN
1070
    73
1070
     1
1070
    44
1040
1.0
1070
    74
1070
     0
1000
MTEXTEND
  0
MTEXT
  5
B1
330
1F
100
AcDbEntity
  8
0
100
AcDbMText
 10
-211.0828086697474
 20
93.72900974557683
 30
0.0
 40
3.0
 41
59.51
 71
     1
 72
     1
  1

  7
CHINESET
1001
ACAD
1000
MTEXTBEGIN
1070
    73
1070
     1
1070
    44
1040
1.0
1070
    74
1070
     0
1000
MTEXTEND
  0
MTEXT
  5
B2
330
1F
100
AcDbEntity
  8
0
100
AcDbMText
 10
-179.9099428209695
 20
86.93407807798587
 30
0.0
 40
3.0
 41
38.26
 71
     1
 72
     1
  1

  7
CHINESET
1001
ACAD
1000
MTEXTBEGIN
1070
    73
1070
     1
1070
    44
1040
1.0
1070
    74
1070
     0
1000
MTEXTEND
  0
MTEXT
  5
10B3
330
1F
100
AcDbEntity
  8
0
100
AcDbMText
 10
81.67014302795905
 20
125.5492500028813
 30
0.0
 40
3.0
 41
0.0
 71
     7
 72
     1
  1

  7
CHINESET
1001
ACAD
1000
MTEXTBEGIN
1070
    73
1070
     1
1070
    44
1040
1.0
1070
    74
1070
     0
1000
MTEXTEND
  0
LINE
  5
17B4
330
1F
100
AcDbEntity
  8
0
 62
     4
100
AcDbLine
 10
271.6277841472794
 20
34.87998036599759
 30
0.0
 11
271.6277841472794
 21
233.7149409438298
 31
0.0
  0
LINE
  5
17B5
330
1F
100
AcDbEntity
  8
0
 62
     4
100
AcDbLine
 10
62.69244167992496
 20
34.87998036599757
 30
0.0
 11
62.69244167992496
 21
233.7149409438298
 31
0.0
  0
CIRCLE
  5
17B6
330
1F
100
AcDbEntity
  8
0
100
AcDbCircle
 10
211.3201477805684
 20
56.8124690641697
 30
0.0
 40
3.25
  0
LINE
  5
17B7
330
1F
100
AcDbEntity
  8
0
100
AcDbLine
 10
209.4826556028492
 20
52.46246906416971
 30
0.0
 11
216.4701477805683
 21
52.46246906416971
 31
0.0
  0
CIRCLE
  5
17B8
330
1F
100
AcDbEntity
  8
0
100
AcDbCircle
 10
219.4701477805683
 20
64.96246906416971
 30
0.0
 40
7.299999999999998
  0
CIRCLE
  5
17B9
330
1F
100
AcDbEntity
  8
0
100
AcDbCircle
 10
219.4701477805683
 20
64.96246906416971
 30
0.0
 40
7.0
  0
LINE
  5
17BA
330
1F
100
AcDbEntity
  8
CENTER
100
AcDbLine
 10
212.0401477805684
 20
56.8124690641697
 30
0.0
 11
215.2101477805683
 21
56.8124690641697
 31
0.0
  0
LINE
  5
17BB
330
1F
100
AcDbEntity
  8
CENTER
100
AcDbLine
 10
211.8301477805685
 20
64.96246906416971
 30
0.0
 11
218.7501477805684
 21
64.96246906416971
 31
0.0
  0
LINE
  5
17BC
330
1F
100
AcDbEntity
  8
0
100
AcDbLine
 10
214.9201477805684
 20
72.76246906416972
 30
0.0
 11
214.0201477805684
 21
72.76246906416972
 31
0.0
  0
TEXT
  5
17BD
330
1F
100
AcDbEntity
  8
LOGO
  6
CONTINUOUS
 62
     7
100
AcDbText
 10
188.7522852387286
 20
25.78387593128144
 30
0.0
 40
4.522410010115899
  1
11/12
  7
CHINESET
 72
     1
 11
197.7971052589604
 21
28.04508093633939
 31
0.0
100
AcDbText
 73
     2
  0
TEXT
  5
17BE
330
1F
100
AcDbEntity
  8
LOGO
 62
     6
100
AcDbText
 10
190.5989359928593
 20
15.07396109334824
 30
0.0
 40
3.617928008092719
  1
作動型式
  7
CHINESET
 72
     4
 11
197.7971052589604
 21
16.79034032553397
 31
0.0
100
AcDbText
  0
LINE
  5
17BF
330
1F
100
AcDbEntity
  8
0
 62
     4
100
AcDbLine
 10
271.6277841472794
 20
132.5160938956515
 30
0.0
 11
62.69244167992496
 21
132.5160938956515
 31
0.0
  0
LINE
  5
17C1
330
1F
100
AcDbEntity
  8
LOGO
 62
     1
100
AcDbLine
 10
271.6277841472794
 20
7.745520305302171
 30
0.0
 11
62.69244167992496
 21
7.745520305302171
 31
0.0
  0
LINE
  5
17C2
330
1F
100
AcDbEntity
  8
LOGO
 62
     1
100
AcDbLine
 10
271.6277841472794
 20
34.87998036599757
 30
0.0
 11
62.69244167992496
 21
34.87998036599757
 31
0.0
  0
TEXT
  5
17C3
330
1F
100
AcDbEntity
  8
LOGO
  6
CONTINUOUS
 62
     6
100
AcDbText
 10
188.1062266658549
 20
11.51419531373208
 30
0.0
 40
2.261205005057949
  1
Acting type
  7
CHINESET
 72
     4
 11
197.7971052589604
 21
12.26793031541807
 31
0.0
100
AcDbText
  0
LINE
  5
17C4
330
1F
100
AcDbEntity
  8
LOGO
 62
     6
100
AcDbLine
 10
207.7714632493824
 20
24.0261963417194
 30
0.0
 11
187.8227472685384
 21
24.0261963417194
 31
0.0
  0
LINE
  5
17C5
330
1F
100
AcDbEntity
  8
LOGO
 62
     6
100
AcDbLine
 10
207.7714632493824
 20
19.9560273326151
 30
0.0
 11
187.8227472685384
 21
19.9560273326151
 31
0.0
  0
LINE
  5
17C6
330
1F
100
AcDbEntity
  8
LOGO
 62
     6
100
AcDbLine
 10
207.7714632493824
 20
10.00672531036012
 30
0.0
 11
187.8227472685384
 21
10.0067253103601
 31
0.0
  0
LINE
  5
17C7
330
1F
100
AcDbEntity
  8
LOGO
 62
     6
100
AcDbLine
 10
207.7714632493824
 20
32.16653435992808
 30
0.0
 11
187.8227472685384
 21
32.16653435992802
 31
0.0
  0
TEXT
  5
17C8
330
1F
100
AcDbEntity
  8
LOGO
 62
     6
100
AcDbText
 10
86.04220986340459
 20
19.9560273326151
 30
0.0
 40
2.713446006069539
  1
單位 Unit:
 41
0.9
  7
CHINESET
 72
     4
 11
93.44482974871306
 21
21.31275033564987
 31
0.0
100
AcDbText
  0
TEXT
  5
17C9
330
1F
100
AcDbEntity
  8
LOGO
 62
     6
100
AcDbText
 10
85.77692206191832
 20
25.42108830719192
 30
0.0
 40
2.713446006069539
  1
投影 View:
 41
0.9
  7
CHINESET
 72
     4
 11
93.44482974871306
 21
26.73964234778895
 31
0.0
100
AcDbText
  0
TEXT
  5
17CA
330
1F
100
AcDbEntity
  8
LOGO
 62
     6
100
AcDbText
 10
84.82842731961815
 20
30.8111467141797
 30
0.0
 40
2.713446006069539
  1
比例 Scale:
 41
0.9
  7
CHINESET
 72
     4
 11
93.44482974871306
 21
32.16653435992802
 31
0.0
100
AcDbText
  0
TEXT
  5
17CB
330
1F
100
AcDbEntity
  8
LOGO
  6
CONTINUOUS
 62
     5
100
AcDbText
 10
63.58059837182203
 20
13.07604403475508
 30
0.0
 40
4.070169009104309
  1
金器工業股份有限公司
 41
0.8
  7
LOGO
100
AcDbText
  0
TEXT
  5
17CC
330
1F
100
AcDbEntity
  8
LOGO
  6
CONTINUOUS
 62
     5
100
AcDbText
 10
64.74604928684154
 20
9.005077591638571
 30
0.0
 40
2.713446006069539
  1
MINDMAN INDUSTRIAL CO.,LTD
 41
0.85
  7
CHINESET
100
AcDbText
  0
LINE
  5
17CD
330
1F
100
AcDbEntity
  8
LOGO
 62
     1
100
AcDbLine
 10
122.3882538134548
 20
18.59930432958035
 30
0.0
 11
62.69244167992496
 21
18.59930432958035
 31
0.0
  0
LINE
  5
17CE
330
1F
100
AcDbEntity
  8
LOGO
 62
     1
100
AcDbLine
 10
122.3882538134548
 20
24.0261963417194
 30
0.0
 11
82.59104572443488
 21
24.0261963417194
 31
0.0
  0
LINE
  5
17CF
330
1F
100
AcDbEntity
  8
LOGO
 62
     1
100
AcDbLine
 10
122.3882538134548
 20
29.45308835385848
 30
0.0
 11
82.59104572443488
 21
29.45308835385848
 31
0.0
  0
SOLID
  5
17D0
330
1F
100
AcDbEntity
  8
LOGO
 62
     2
100
AcDbTrace
 10
66.68090831091967
 20
23.11002208604539
 30
0.0
 11
67.16637983596924
 21
23.11002208604578
 31
0.0
 12
72.74930237402992
 22
34.23541120174693
 32
0.0
 13
73.23477389907913
 23
34.23541120174693
 33
0.0
  0
SOLID
  5
17D1
330
1F
100
AcDbEntity
  8
LOGO
 62
     5
100
AcDbTrace
 10
67.16637983596924
 20
23.11002208604578
 30
0.0
 11
68.3396026881703
 21
23.11002208604578
 31
0.0
 12
72.74930237402992
 22
33.34538007249114
 32
0.0
 13
71.57607952182885
 23
29.04356294775293
 33
0.0
  0
SOLID
  5
17D2
330
1F
100
AcDbEntity
  8
LOGO
 62
     5
100
AcDbTrace
 10
65.50768545871853
 20
23.11002208604578
 30
0.0
 11
66.68090831091967
 21
23.11002208604539
 31
0.0
 12
71.57607952182885
 22
34.23541120174771
 32
0.0
 13
72.74930237402992
 23
34.23541120174693
 33
0.0
  0
LINE
  5
17D3
330
1F
100
AcDbEntity
  8
LOGO
 62
     1
100
AcDbLine
 10
62.69244167992496
 20
7.745520305302171
 30
0.0
 11
62.69244167992496
 21
34.87998036599757
 31
0.0
  0
SOLID
  5
17D4
330
1F
100
AcDbEntity
  8
LOGO
 62
     5
100
AcDbTrace
 10
63.62672151715416
 20
19.06442604397267
 30
0.0
 11
64.03128112136198
 21
19.06442604397267
 31
0.0
 12
65.17055245521269
 22
21.08722406500904
 32
0.0
 13
65.57511205941972
 23
21.08722406500904
 33
0.0
  0
SOLID
  5
17D5
330
1F
100
AcDbEntity
  8
LOGO
 62
     5
100
AcDbTrace
 10
66.71438339327166
 20
21.08722406500904
 30
0.0
 11
67.11894299747861
 21
21.08722406500904
 31
0.0
 12
66.71438339327166
 22
19.06442604397267
 32
0.0
 13
67.11894299747861
 23
19.06442604397267
 33
0.0
  0
SOLID
  5
17D6
330
1F
100
AcDbEntity
  8
LOGO
 62
     5
100
AcDbTrace
 10
65.17055245521269
 20
19.06442604397267
 30
0.0
 11
65.57511205941972
 21
19.06442604397267
 31
0.0
 12
66.71438339327166
 22
21.08722406500904
 32
0.0
 13
67.11894299747861
 23
21.08722406500904
 33
0.0
  0
SOLID
  5
17D7
330
1F
100
AcDbEntity
  8
LOGO
 62
     5
100
AcDbTrace
 10
65.17055245521269
 20
21.08722406500904
 30
0.0
 11
65.57511205941972
 21
21.08722406500904
 31
0.0
 12
65.17055245521269
 22
19.06442604397267
 32
0.0
 13
65.57511205941972
 23
19.06442604397267
 33
0.0
  0
SOLID
  5
17D8
330
1F
100
AcDbEntity
  8
LOGO
 62
     5
100
AcDbTrace
 10
69.68808076091391
 20
20.27810485659433
 30
0.0
 11
70.09264036512155
 21
20.27810485659433
 31
0.0
 12
69.68808076091391
 22
19.06442604397267
 32
0.0
 13
70.09264036512155
 23
19.06442604397267
 33
0.0
  0
SOLID
  5
17D9
330
1F
100
AcDbEntity
  8
LOGO
 62
     5
100
AcDbTrace
 10
68.47440194829228
 20
21.08722406500904
 30
0.0
 11
68.87896155249923
 21
21.08722406500904
 31
0.0
 12
68.47440194829228
 22
19.06442604397267
 32
0.0
 13
68.87896155249923
 23
19.06442604397267
 33
0.0
  0
POLYLINE
  5
17DA
330
1F
100
AcDbEntity
  8
LOGO
 62
     5
100
AcDb2dPolyline
 66
     1
 10
0.0
 20
0.0
 30
0.0
 40
0.4052079369063846
 41
0.4052079369063846
  0
VERTEX
  5
217A
330
17DA
100
AcDbEntity
  8
LOGO
 62
     5
100
AcDbVertex
100
AcDb2dVertex
 10
69.89133306206625
 20
20.27810485659433
 30
0.0
 42
1.0
  0
VERTEX
  5
217B
330
17DA
100
AcDbEntity
  8
LOGO
 62
     5
100
AcDbVertex
100
AcDb2dVertex
 10
68.67570925134709
 20
20.27810485659433
 30
0.0
 42
1.0
  0
SEQEND
  5
217C
330
17DA
100
AcDbEntity
  8
LOGO
 62
     5
  0
SOLID
  5
17DB
330
1F
100
AcDbEntity
  8
LOGO
 62
     5
100
AcDbTrace
 10
67.59784265385583
 20
21.08722406500904
 30
0.0
 11
68.00240225806401
 21
21.08722406500904
 31
0.0
 12
67.59784265385583
 22
19.0644260439719
 32
0.0
 13
68.00240225806401
 23
19.06442604397267
 33
0.0
  0
SOLID
  5
17DC
330
1F
100
AcDbEntity
  8
LOGO
 62
     5
100
AcDbTrace
 10
67.59784265385583
 20
21.37041578795398
 30
0.0
 11
68.00240225806401
 21
21.37041578795398
 31
0.0
 12
67.59784265385583
 22
21.69406347132024
 32
0.0
 13
68.00240225806401
 23
21.69406347132024
 33
0.0
  0
LINE
  5
17DD
330
1F
100
AcDbEntity
  8
LOGO
 62
     1
100
AcDbLine
 10
82.59104572443488
 20
18.59930432958033
 30
0.0
 11
82.59104572443488
 21
34.87998036599757
 31
0.0
  0
POLYLINE
  5
17DE
330
1F
100
AcDbEntity
  8
LOGO
 62
     5
100
AcDb2dPolyline
 66
     1
 10
0.0
 20
0.0
 30
0.0
 70
     1
 40
0.4052079369063846
 41
0.4052079369063846
  0
VERTEX
  5
217D
330
17DE
100
AcDbEntity
  8
LOGO
 62
     5
100
AcDbVertex
100
AcDb2dVertex
 10
76.56437827896121
 20
20.07582505449065
 30
0.0
 42
1.0
  0
VERTEX
  5
217E
330
17DE
100
AcDbEntity
  8
LOGO
 62
     5
100
AcDbVertex
100
AcDb2dVertex
 10
78.18521002658674
 20
20.07582505449065
 30
0.0
 42
1.0
  0
SEQEND
  5
217F
330
17DE
100
AcDbEntity
  8
LOGO
 62
     5
  0
CIRCLE
  5
17DF
330
1F
100
AcDbEntity
  8
LOGO
 62
     5
100
AcDbCircle
 10
77.3747941527742
 20
20.07582505449085
 30
0.0
 40
0.6068394063110018
  0
POLYLINE
  5
17E0
330
1F
100
AcDbEntity
  8
LOGO
 62
     5
100
AcDb2dPolyline
 66
     1
 10
0.0
 20
0.0
 30
0.0
 70
     1
  0
VERTEX
  5
2180
330
17E0
100
AcDbEntity
  8
LOGO
 62
     5
100
AcDbVertex
100
AcDb2dVertex
 10
76.76795474646311
 20
20.07582505449085
 30
0.0
 42
1.000000057330635
  0
VERTEX
  5
2181
330
17E0
100
AcDbEntity
  8
LOGO
 62
     5
100
AcDbVertex
100
AcDb2dVertex
 10
77.98163355908537
 20
20.07582505449085
 30
0.0
 42
1.000000057330635
  0
SEQEND
  5
2182
330
17E0
100
AcDbEntity
  8
LOGO
 62
     5
  0
POLYLINE
  5
17E1
330
1F
100
AcDbEntity
  8
LOGO
 62
     5
100
AcDb2dPolyline
 66
     1
 10
0.0
 20
0.0
 30
0.0
 40
0.4052079369063846
 41
0.4052079369063846
  0
VERTEX
  5
2183
330
17E1
100
AcDbEntity
  8
LOGO
 62
     5
100
AcDbVertex
100
AcDb2dVertex
 10
74.47636888038996
 20
20.27810485659433
 30
0.0
 42
1.0
  0
VERTEX
  5
2184
330
17E1
100
AcDbEntity
  8
LOGO
 62
     5
100
AcDbVertex
100
AcDb2dVertex
 10
73.26074506967071
 20
20.27810485659433
 30
0.0
 42
1.0
  0
SEQEND
  5
2185
330
17E1
100
AcDbEntity
  8
LOGO
 62
     5
  0
SOLID
  5
17E2
330
1F
100
AcDbEntity
  8
LOGO
 62
     5
100
AcDbTrace
 10
73.05943776661599
 20
21.08722406500904
 30
0.0
 11
73.46399737082304
 21
21.08722406500904
 31
0.0
 12
73.05943776661599
 22
19.06442604397267
 32
0.0
 13
73.46399737082304
 23
19.06442604397267
 33
0.0
  0
SOLID
  5
17E3
330
1F
100
AcDbEntity
  8
LOGO
 62
     5
100
AcDbTrace
 10
72.18287847217964
 20
21.69406347132024
 30
0.0
 11
72.58743807638659
 21
21.69406347132024
 31
0.0
 12
72.18287847217964
 22
19.06442604397267
 32
0.0
 13
72.58743807638659
 23
19.06442604397267
 33
0.0
  0
POLYLINE
  5
17E4
330
1F
100
AcDbEntity
  8
LOGO
 62
     5
100
AcDb2dPolyline
 66
     1
 10
0.0
 20
0.0
 30
0.0
 70
     1
 40
0.4052079369063846
 41
0.4052079369063846
  0
VERTEX
  5
2186
330
17E4
100
AcDbEntity
  8
LOGO
 62
     5
100
AcDbVertex
100
AcDb2dVertex
 10
70.76566364801578
 20
20.07582505449065
 30
0.0
 42
1.0
  0
VERTEX
  5
2187
330
17E4
100
AcDbEntity
  8
LOGO
 62
     5
100
AcDbVertex
100
AcDb2dVertex
 10
72.3864953956413
 20
20.07582505449065
 30
0.0
 42
1.0
  0
SEQEND
  5
2188
330
17E4
100
AcDbEntity
  8
LOGO
 62
     5
  0
SOLID
  5
17E5
330
1F
100
AcDbEntity
  8
LOGO
 62
     5
100
AcDbTrace
 10
75.48679539185943
 20
20.27810485659433
 30
0.0
 11
75.89135499606638
 21
20.27810485659433
 31
0.0
 12
75.48679539185943
 22
19.0644260439719
 32
0.0
 13
75.89135499606638
 23
19.0644260439719
 33
0.0
  0
SOLID
  5
17E6
330
1F
100
AcDbEntity
  8
LOGO
 62
     5
100
AcDbTrace
 10
74.27311657923772
 20
20.27810485659433
 30
0.0
 11
74.67767618344466
 21
20.27810485659433
 31
0.0
 12
74.27311657923772
 22
19.06442604397267
 32
0.0
 13
74.67767618344466
 23
19.06442604397267
 33
0.0
  0
POLYLINE
  5
17E7
330
1F
100
AcDbEntity
  8
LOGO
 62
     5
100
AcDb2dPolyline
 66
     1
 10
0.0
 20
0.0
 30
0.0
 40
0.4052079369063846
 41
0.4052079369063846
  0
VERTEX
  5
2189
330
17E7
100
AcDbEntity
  8
LOGO
 62
     5
100
AcDbVertex
100
AcDb2dVertex
 10
75.69004769301159
 20
20.27810485659433
 30
0.0
 42
1.0
  0
VERTEX
  5
218A
330
17E7
100
AcDbEntity
  8
LOGO
 62
     5
100
AcDbVertex
100
AcDb2dVertex
 10
74.47442388229243
 20
20.27810485659433
 30
0.0
 42
1.0
  0
SEQEND
  5
218B
330
17E7
100
AcDbEntity
  8
LOGO
 62
     5
  0
POLYLINE
  5
17E8
330
1F
100
AcDbEntity
  8
LOGO
 62
     5
100
AcDb2dPolyline
 66
     1
 10
0.0
 20
0.0
 30
0.0
 40
0.4052079369063846
 41
0.4052079369063846
  0
VERTEX
  5
218C
330
17E8
100
AcDbEntity
  8
LOGO
 62
     5
100
AcDbVertex
100
AcDb2dVertex
 10
80.27508351133539
 20
20.27810485659433
 30
0.0
 42
1.0
  0
VERTEX
  5
218D
330
17E8
100
AcDbEntity
  8
LOGO
 62
     5
100
AcDbVertex
100
AcDb2dVertex
 10
79.05945970061623
 20
20.27810485659433
 30
0.0
 42
1.0
  0
SEQEND
  5
218E
330
17E8
100
AcDbEntity
  8
LOGO
 62
     5
  0
SOLID
  5
17E9
330
1F
100
AcDbEntity
  8
LOGO
 62
     5
100
AcDbTrace
 10
78.85815239756064
 20
19.06442604397267
 30
0.0
 11
79.26271200176838
 21
19.06442604397267
 31
0.0
 12
78.85815239756064
 22
21.08722406500904
 32
0.0
 13
79.26271200176838
 23
21.08722406500904
 33
0.0
  0
SOLID
  5
17EA
330
1F
100
AcDbEntity
  8
LOGO
 62
     5
100
AcDbTrace
 10
77.9815931031255
 20
21.08722406500904
 30
0.0
 11
78.38615270733246
 21
21.08722406500904
 31
0.0
 12
77.9815931031255
 22
19.06442604397267
 32
0.0
 13
78.38615270733246
 23
19.06442604397267
 33
0.0
  0
SOLID
  5
17EB
330
1F
100
AcDbEntity
  8
LOGO
 62
     5
100
AcDbTrace
 10
80.07183121018314
 20
20.27810485659433
 30
0.0
 11
80.4763908143901
 21
20.27810485659427
 31
0.0
 12
80.07183121018314
 22
19.06442604397267
 32
0.0
 13
80.4763908143901
 23
19.06442604397267
 33
0.0
  0
LINE
  5
17EC
330
1F
100
AcDbEntity
  8
LOGO
 62
     5
100
AcDbLine
 10
80.4763908143901
 20
19.06442604397267
 30
0.0
 11
80.4763908143901
 21
20.27810485659433
 31
0.0
  0
SOLID
  5
17ED
330
1F
100
AcDbEntity
  8
LOGO
 62
     2
100
AcDbTrace
 10
78.81769643713981
 20
34.23541120174771
 30
0.0
 11
79.30316796218895
 21
34.23541120174693
 31
0.0
 12
78.81769643713981
 22
23.11002208604539
 32
0.0
 13
79.30316796218895
 23
23.11002208604539
 33
0.0
  0
SOLID
  5
17EE
330
1F
100
AcDbEntity
  8
LOGO
 62
     5
100
AcDbTrace
 10
79.30316796218895
 20
23.11002208604539
 30
0.0
 11
80.4763908143901
 21
23.11002208604539
 31
0.0
 12
79.30316796218895
 22
34.23541120174693
 32
0.0
 13
80.4763908143901
 23
34.23541120174771
 33
0.0
  0
SOLID
  5
17EF
330
1F
100
AcDbEntity
  8
LOGO
 62
     5
100
AcDbTrace
 10
78.81769643713981
 20
33.34538007249114
 30
0.0
 11
77.64447358493858
 21
29.04356294775293
 31
0.0
 12
78.81769643713981
 22
23.11002208604539
 32
0.0
 13
77.64447358493858
 23
23.11002208604539
 33
0.0
  0
SOLID
  5
17F0
330
1F
100
AcDbEntity
  8
LOGO
 62
     2
100
AcDbTrace
 10
72.74930237402992
 20
34.23541120174693
 30
0.0
 11
73.23477389907913
 21
34.23541120174693
 31
0.0
 12
72.74930237402992
 22
23.11002208604578
 32
0.0
 13
73.23477389907913
 23
23.11002208604578
 33
0.0
  0
SOLID
  5
17F1
330
1F
100
AcDbEntity
  8
LOGO
 62
     5
100
AcDbTrace
 10
73.23477389907913
 20
34.23541120174693
 30
0.0
 11
74.40799675128011
 21
34.23541120174771
 31
0.0
 12
73.23477389907913
 22
24.00005321530157
 32
0.0
 13
74.40799675128011
 23
28.30187034003979
 33
0.0
  0
SOLID
  5
17F2
330
1F
100
AcDbEntity
  8
LOGO
 62
     5
100
AcDbTrace
 10
71.57607952182885
 20
23.11002208604578
 30
0.0
 11
72.74930237402992
 21
23.11002208604578
 31
0.0
 12
71.57607952182885
 22
29.04356294775293
 32
0.0
 13
72.74930237402992
 23
33.34538007249114
 33
0.0
  0
SOLID
  5
17F3
330
1F
100
AcDbEntity
  8
LOGO
 62
     2
100
AcDbTrace
 10
72.74930237402992
 20
23.11002208604578
 30
0.0
 11
73.23477389907913
 21
23.11002208604578
 31
0.0
 12
78.81769643713981
 22
34.23541120174771
 32
0.0
 13
79.30316796218895
 23
34.23541120174693
 33
0.0
  0
SOLID
  5
17F4
330
1F
100
AcDbEntity
  8
LOGO
 62
     5
100
AcDbTrace
 10
73.23477389907913
 20
23.11002208604578
 30
0.0
 11
74.40799675128011
 21
23.11002208604578
 31
0.0
 12
78.81769643713981
 22
33.34538007249114
 32
0.0
 13
77.64447358493858
 23
29.04356294775293
 33
0.0
  0
SOLID
  5
17F5
330
1F
100
AcDbEntity
  8
LOGO
 62
     5
100
AcDbTrace
 10
73.23477389907913
 20
24.00005321530157
 30
0.0
 11
74.40799675128011
 21
28.30187034003979
 31
0.0
 12
78.81769643713981
 22
34.23541120174771
 32
0.0
 13
77.64447358493858
 23
34.23541120174771
 33
0.0
  0
TEXT
  5
17F6
330
1F
100
AcDbEntity
  8
LOGO
 62
     7
100
AcDbText
 10
124.6093420079767
 20
28.08612867954186
 30
0.0
 40
5.426892012139078
  1
訂購代號:
  7
CHINESET
100
AcDbText
  0
TEXT
  5
17F7
330
1F
100
AcDbEntity
  8
LOGO
 62
     7
100
AcDbText
 10
123.9602558042775
 20
22.99283514569989
 30
0.0
 40
3.617928008092719
  1
Order example:
 41
0.8
  7
CHINESET
100
AcDbText
  0
LINE
  5
17F8
330
1F
100
AcDbEntity
  8
LOGO
 62
     1
100
AcDbLine
 10
104.2986137729912
 20
18.59930432958033
 30
0.0
 11
104.2986137729912
 21
34.87998036599757
 31
0.0
  0
TEXT
  5
17F9
330
1F
100
AcDbEntity
  8
LOGO
 62
     6
100
AcDbText
 10
108.3692301933486
 20
19.9560273326151
 30
0.0
 40
2.713446006069539
  1
m/m
  7
CHINESET
 72
     1
 11
113.150063632614
 21
21.31275033564987
 31
0.0
100
AcDbText
 73
     2
  0
CIRCLE
  5
17FA
330
1F
100
AcDbEntity
  8
LOGO
  6
CONTINUOUS
 62
     6
100
AcDbCircle
 10
109.3228984456904
 20
26.74544642865242
 30
0.0
 40
1.575490618443422
  0
TEXT
  5
17FB
330
1F
100
AcDbEntity
  8
LOGO
 62
     6
100
AcDbText
 10
108.3692301933486
 20
30.80981135689325
 30
0.0
 40
2.713446006069539
  1
1 : 1
  7
CHINESET
 72
     1
 11
113.150063632614
 21
32.16653435992802
 31
0.0
100
AcDbText
 73
     2
  0
LINE
  5
17FC
330
1F
100
AcDbEntity
  8
LOGO
  6
CONTINUOUS
 62
     6
100
AcDbLine
 10
114.284391652846
 20
25.82234839653799
 30
0.0
 11
119.2234643041896
 21
25.16995581020901
 31
0.0
  0
LINE
  5
17FD
330
1F
100
AcDbEntity
  8
LOGO
  6
CONTINUOUS
 62
     6
100
AcDbLine
 10
114.284391652846
 20
27.66854446076686
 30
0.0
 11
119.2234643041896
 21
28.32093704709584
 31
0.0
  0
LINE
  5
17FE
330
1F
100
AcDbEntity
  8
LOGO
 62
     6
100
AcDbLine
 10
114.2843916528461
 20
25.82234839653799
 30
0.0
 11
114.284391652846
 21
27.66854446076687
 31
0.0
  0
CIRCLE
  5
17FF
330
1F
100
AcDbEntity
  8
LOGO
  6
CONTINUOUS
 62
     6
100
AcDbCircle
 10
109.3228984456904
 20
26.74544642865242
 30
0.0
 40
0.9230980321144357
  0
LINE
  5
1800
330
1F
100
AcDbEntity
  8
LOGO
 62
     6
100
AcDbLine
 10
119.2234643041896
 20
25.16995581020901
 30
0.0
 11
119.2234643041896
 21
28.32093704709584
 31
0.0
  0
LINE
  5
1801
330
1F
100
AcDbEntity
  8
LOGO
 62
     1
100
AcDbLine
 10
122.3882538134548
 20
7.745520305302171
 30
0.0
 11
122.3882538134548
 21
34.87998036599757
 31
0.0
  0
LINE
  5
1802
330
1F
100
AcDbEntity
  8
LOGO
 62
     6
100
AcDbLine
 10
179.6091033829781
 20
19.9560273326151
 30
0.0
 11
161.5194633425145
 21
19.9560273326151
 31
0.0
  0
TEXT
  5
1803
330
1F
100
AcDbEntity
  8
LOGO
  6
CONTINUOUS
 62
     7
100
AcDbText
 10
162.488551201825
 20
25.83516034576577
 30
0.0
 40
4.522410010115899
  1
MCJT
  7
CHINESET
 72
     1
 11
170.5642833627463
 21
28.09636535082372
 31
0.0
100
AcDbText
 73
     2
  0
LINE
  5
1804
330
1F
100
AcDbEntity
  8
LOGO
 62
     6
100
AcDbLine
 10
179.6091033829781
 20
10.00672531036012
 30
0.0
 11
161.5194633425145
 21
10.0067253103601
 31
0.0
  0
TEXT
  5
1805
330
1F
100
AcDbEntity
  8
LOGO
  6
CONTINUOUS
 62
     6
100
AcDbText
 10
166.257226210255
 20
11.13732781288909
 30
0.0
 40
2.261205005057949
  1
Model
  7
CHINESET
 72
     4
 11
170.5642833627463
 21
12.26793031541807
 31
0.0
100
AcDbText
  0
TEXT
  5
1806
330
1F
100
AcDbEntity
  8
LOGO
 62
     6
100
AcDbText
 10
166.9463553546536
 20
15.07396109334825
 30
0.0
 40
3.617928008092719
  1
型式
  7
CHINESET
 72
     4
 11
170.5642833627463
 21
16.79034032553397
 31
0.0
100
AcDbText
  0
LINE
  5
1807
330
1F
100
AcDbEntity
  8
LOGO
 62
     6
100
AcDbLine
 10
181.4180673870245
 20
24.0261963417194
 30
0.0
 11
159.7104993384682
 21
24.0261963417194
 31
0.0
  0
LINE
  5
1808
330
1F
100
AcDbEntity
  8
LOGO
 62
     6
100
AcDbLine
 10
181.4180673870245
 20
32.16653435992802
 30
0.0
 11
159.7104993384682
 21
32.16653435992802
 31
0.0
  0
LINE
  5
1809
330
1F
100
AcDbEntity
  8
LOGO
 62
     6
100
AcDbLine
 10
170.5642833627463
 20
24.0261963417194
 30
0.0
 11
170.5642833627463
 21
19.9560273326151
 31
0.0
  0
LINE
  5
180A
330
1F
100
AcDbEntity
  8
LOGO
 62
     6
100
AcDbLine
 10
161.5194633425145
 20
19.9560273326151
 30
0.0
 11
161.5194633425145
 21
10.0067253103601
 31
0.0
  0
LINE
  5
180B
330
1F
100
AcDbEntity
  8
LOGO
 62
     6
100
AcDbLine
 10
159.7104993384682
 20
32.16653435992802
 30
0.0
 11
159.7104993384682
 21
24.0261963417194
 31
0.0
  0
LINE
  5
180C
330
1F
100
AcDbEntity
  8
LOGO
 62
     6
100
AcDbLine
 10
179.6091033829781
 20
19.9560273326151
 30
0.0
 11
179.6091033829781
 21
10.00672531036012
 31
0.0
  0
LINE
  5
180D
330
1F
100
AcDbEntity
  8
LOGO
 62
     6
100
AcDbLine
 10
187.8227472685384
 20
19.9560273326151
 30
0.0
 11
187.8227472685384
 21
10.00672531036012
 31
0.0
  0
LINE
  5
180E
330
1F
100
AcDbEntity
  8
LOGO
  6
CONTINUOUS
 62
     7
100
AcDbLine
 10
182.820525290538
 20
28.06753098708572
 30
0.0
 11
186.415001531643
 21
28.06753098708572
 31
0.0
  0
LINE
  5
180F
330
1F
100
AcDbEntity
  8
LOGO
 62
     6
100
AcDbLine
 10
181.4180673870246
 20
32.16653435992802
 30
0.0
 11
181.4180673870246
 21
24.0261963417194
 31
0.0
  0
LINE
  5
1810
330
1F
100
AcDbEntity
  8
LOGO
 62
     6
100
AcDbLine
 10
187.8227472685384
 20
32.16653435992802
 30
0.0
 11
187.8227472685384
 21
24.0261963417194
 31
0.0
  0
TEXT
  5
1811
330
1F
100
AcDbEntity
  8
0
100
AcDbText
 10
67.13813850791462
 20
121.4521676701227
 30
0.0
 40
4.0
  1
MCJT-12-%%C12
  7
CHINESET
100
AcDbText
  0
TEXT
  5
1812
330
1F
100
AcDbEntity
  8
0
100
AcDbText
 10
66.64720955032726
 20
113.1632329197379
 30
0.0
 40
5.0
  1
stroke=0mm
  7
CHINESET
100
AcDbText
  0
LINE
  5
1813
330
1F
100
AcDbEntity
  8
CENTER
100
AcDbLine
 10
123.4412480936857
 20
70.46246906416971
 30
0.0
 11
124.2412480936857
 21
70.46246906416971
 31
0.0
  0
ARC
  5
1814
330
1F
100
AcDbEntity
  8
0
 62
     3
100
AcDbCircle
 10
123.8412480936857
 20
70.46246906416971
 30
0.0
 40
2.5
100
AcDbArc
 50
167.0245984412044
 51
101.5070990104355
  0
CIRCLE
  5
1815
330
1F
100
AcDbEntity
  8
0
100
AcDbCircle
 10
123.8412480936857
 20
70.46246906416971
 30
0.0
 40
2.149999999999999
  0
LINE
  5
1816
330
1F
100
AcDbEntity
  8
0
100
AcDbLine
 10
110.8412480936857
 20
77.46246906416971
 30
0.0
 11
131.3412480936857
 21
77.46246906416971
 31
0.0
  0
LINE
  5
1817
330
1F
100
AcDbEntity
  8
0
100
AcDbLine
 10
131.3412480936857
 20
74.94996124188881
 30
0.0
 11
110.8412480936857
 21
74.94996124188881
 31
0.0
  0
LINE
  5
1818
330
1F
100
AcDbEntity
  8
0
100
AcDbLine
 10
131.3412480936857
 20
54.1624690641697
 30
0.0
 11
110.8412480936857
 21
54.1624690641697
 31
0.0
  0
LINE
  5
1819
330
1F
100
AcDbEntity
  8
0
100
AcDbLine
 10
131.3412480936857
 20
52.46246906416971
 30
0.0
 11
110.8412480936857
 21
52.46246906416971
 31
0.0
  0
LINE
  5
181A
330
1F
100
AcDbEntity
  8
0
100
AcDbLine
 10
131.3412480936857
 20
55.46246906416971
 30
0.0
 11
110.8412480936857
 21
55.46246906416971
 31
0.0
  0
LINE
  5
181B
330
1F
100
AcDbEntity
  8
CENTER
100
AcDbLine
 10
136.4812480936857
 20
64.96246906416971
 30
0.0
 11
110.5012480936857
 21
64.96246906416971
 31
0.0
  0
LINE
  5
181C
330
1F
100
AcDbEntity
  8
0
100
AcDbLine
 10
110.8412480936857
 20
64.96246906416971
 30
0.0
 11
110.8412480936857
 21
57.6624690641697
 31
0.0
  0
LINE
  5
181D
330
1F
100
AcDbEntity
  8
0
100
AcDbLine
 10
110.8412480936857
 20
55.46246906416971
 30
0.0
 11
110.8412480936857
 21
57.6624690641697
 31
0.0
  0
LINE
  5
181E
330
1F
100
AcDbEntity
  8
0
100
AcDbLine
 10
110.8412480936857
 20
52.46246906416971
 30
0.0
 11
110.8412480936857
 21
54.1624690641697
 31
0.0
  0
LINE
  5
181F
330
1F
100
AcDbEntity
  8
0
100
AcDbLine
 10
110.8412480936857
 20
54.1624690641697
 30
0.0
 11
110.8412480936857
 21
55.46246906416971
 31
0.0
  0
LINE
  5
1820
330
1F
100
AcDbEntity
  8
CENTER
100
AcDbLine
 10
118.3412480936857
 20
73.2524690641697
 30
0.0
 11
118.3412480936857
 21
71.1824690641697
 31
0.0
  0
LINE
  5
1821
330
1F
100
AcDbEntity
  8
0
100
AcDbLine
 10
110.8412480936857
 20
74.94996124188879
 30
0.0
 11
110.8412480936857
 21
64.96246906416971
 31
0.0
  0
CIRCLE
  5
1822
330
1F
100
AcDbEntity
  8
0
100
AcDbCircle
 10
118.3412480936857
 20
70.46246906416971
 30
0.0
 40
2.149999999999999
  0
LINE
  5
1823
330
1F
100
AcDbEntity
  8
CENTER
100
AcDbLine
 10
119.0612480936857
 20
70.46246906416971
 30
0.0
 11
121.4921675617533
 21
70.46246906416971
 31
0.0
  0
ARC
  5
1824
330
1F
100
AcDbEntity
  8
0
 62
     3
100
AcDbCircle
 10
118.3412480936857
 20
70.46246906416971
 30
0.0
 40
2.5
100
AcDbArc
 50
70.15743327007891
 51
11.60026887720033
  0
LINE
  5
1825
330
1F
100
AcDbEntity
  8
CENTER
100
AcDbLine
 10
119.0412480936857
 20
71.5024690641697
 30
0.0
 11
119.0412480936857
 21
71.1824690641697
 31
0.0
  0
CIRCLE
  5
1826
330
1F
100
AcDbEntity
  8
0
100
AcDbCircle
 10
119.0412480936856
 20
70.46246906416971
 30
0.0
 40
0.4
  0
LINE
  5
1827
330
1F
100
AcDbEntity
  8
CENTER
100
AcDbLine
 10
118.6412480936858
 20
70.46246906416971
 30
0.0
 11
119.4412480936857
 21
70.46246906416971
 31
0.0
  0
LINE
  5
1828
330
1F
100
AcDbEntity
  8
CENTER
100
AcDbLine
 10
118.0012480936857
 20
70.46246906416971
 30
0.0
 11
118.3212480936857
 21
70.46246906416971
 31
0.0
  0
LINE
  5
1829
330
1F
100
AcDbEntity
  8
CENTER
100
AcDbLine
 10
119.0412480936857
 20
70.86246906416971
 30
0.0
 11
119.0412480936857
 21
70.0624690641697
 31
0.0
  0
LINE
  5
182A
330
1F
100
AcDbEntity
  8
CENTER
100
AcDbLine
 10
117.9412480936857
 20
70.46246906416971
 30
0.0
 11
118.7412480936857
 21
70.46246906416971
 31
0.0
  0
LINE
  5
182B
330
1F
100
AcDbEntity
  8
CENTER
100
AcDbLine
 10
118.3412480936857
 20
70.86246906416971
 30
0.0
 11
118.3412480936857
 21
70.0624690641697
 31
0.0
  0
LINE
  5
182C
330
1F
100
AcDbEntity
  8
CENTER
100
AcDbLine
 10
119.0412480936857
 20
69.74246906416971
 30
0.0
 11
119.0412480936857
 21
69.42246906416972
 31
0.0
  0
LINE
  5
182D
330
1F
100
AcDbEntity
  8
CENTER
100
AcDbLine
 10
115.5512480936857
 20
70.46246906416971
 30
0.0
 11
117.6212480936857
 21
70.46246906416971
 31
0.0
  0
LINE
  5
182E
330
1F
100
AcDbEntity
  8
CENTER
100
AcDbLine
 10
118.3412480936857
 20
69.74246906416971
 30
0.0
 11
118.3412480936857
 21
67.67246906416971
 31
0.0
  0
LINE
  5
182F
330
1F
100
AcDbEntity
  8
CENTER
100
AcDbLine
 10
123.1412480936858
 20
69.74246906416971
 30
0.0
 11
123.1412480936858
 21
69.42246906416972
 31
0.0
  0
LINE
  5
1830
330
1F
100
AcDbEntity
  8
CENTER
100
AcDbLine
 10
123.1412480936858
 20
70.86246906416971
 30
0.0
 11
123.1412480936858
 21
70.0624690641697
 31
0.0
  0
LINE
  5
1831
330
1F
100
AcDbEntity
  8
CENTER
100
AcDbLine
 10
123.1412480936858
 20
71.50246906416973
 30
0.0
 11
123.1412480936858
 21
71.1824690641697
 31
0.0
  0
LINE
  5
1832
330
1F
100
AcDbEntity
  8
CENTER
100
AcDbLine
 10
121.1312480936858
 20
70.46246906416971
 30
0.0
 11
121.1312480936858
 21
70.46246906416971
 31
0.0
  0
LINE
  5
1833
330
1F
100
AcDbEntity
  8
CENTER
100
AcDbLine
 10
122.1012480936857
 20
70.46246906416971
 30
0.0
 11
122.4212480936857
 21
70.46246906416971
 31
0.0
  0
LINE
  5
1834
330
1F
100
AcDbEntity
  8
CENTER
100
AcDbLine
 10
122.7412480936857
 20
70.46246906416971
 30
0.0
 11
123.5412480936858
 21
70.46246906416971
 31
0.0
  0
CIRCLE
  5
1835
330
1F
100
AcDbEntity
  8
0
100
AcDbCircle
 10
123.1412480936858
 20
70.46246906416971
 30
0.0
 40
0.4
  0
LINE
  5
1836
330
1F
100
AcDbEntity
  8
CENTER
100
AcDbLine
 10
121.0512480936857
 20
70.46246906416971
 30
0.0
 11
123.1212480936857
 21
70.46246906416971
 31
0.0
  0
LINE
  5
1837
330
1F
100
AcDbEntity
  8
CENTER
100
AcDbLine
 10
119.7612480936857
 20
70.46246906416971
 30
0.0
 11
120.0812480936857
 21
70.46246906416971
 31
0.0
  0
LINE
  5
1838
330
1F
100
AcDbEntity
  8
0
100
AcDbLine
 10
110.8412480936857
 20
77.46246906416971
 30
0.0
 11
110.8412480936857
 21
74.94996124188879
 31
0.0
  0
LINE
  5
1839
330
1F
100
AcDbEntity
  8
0
100
AcDbLine
 10
131.3412480936857
 20
57.6624690641697
 30
0.0
 11
131.3412480936857
 21
64.96246906416971
 31
0.0
  0
LINE
  5
183A
330
1F
100
AcDbEntity
  8
0
100
AcDbLine
 10
131.3412480936857
 20
57.6624690641697
 30
0.0
 11
131.3412480936857
 21
55.46246906416971
 31
0.0
  0
LINE
  5
183B
330
1F
100
AcDbEntity
  8
0
100
AcDbLine
 10
131.3412480936857
 20
55.46246906416971
 30
0.0
 11
131.3412480936857
 21
54.1624690641697
 31
0.0
  0
LINE
  5
183C
330
1F
100
AcDbEntity
  8
0
100
AcDbLine
 10
131.3412480936857
 20
54.1624690641697
 30
0.0
 11
131.3412480936857
 21
52.46246906416971
 31
0.0
  0
LINE
  5
183D
330
1F
100
AcDbEntity
  8
0
100
AcDbLine
 10
131.3412480936857
 20
74.94996124188881
 30
0.0
 11
131.3412480936857
 21
64.96246906416971
 31
0.0
  0
LINE
  5
183E
330
1F
100
AcDbEntity
  8
CENTER
100
AcDbLine
 10
123.8412480936857
 20
73.25246906416973
 30
0.0
 11
123.8412480936857
 21
71.1824690641697
 31
0.0
  0
ELLIPSE
  5
183F
330
1F
100
AcDbEntity
  8
0
100
AcDbEllipse
 10
137.8412480936857
 20
64.96246906416971
 30
0.0
 11
5.999999999999999
 21
0.000000000000063
 31
0.0
210
0.0
220
0.0
230
-1.0
 40
0.4999999999999848
 41
2.555907110132647
 42
3.141592653589814
  0
ELLIPSE
  5
1840
330
1F
100
AcDbEntity
  8
0
100
AcDbEllipse
 10
137.8412480936857
 20
64.96246906416971
 30
0.0
 11
-5.999999999999999
 21
0.000000000000063
 31
0.0
210
0.0
220
0.0
230
1.0
 40
0.4999999999999848
 41
-0.5856855434571456
 42
0.0000000000000209
  0
LINE
  5
1841
330
1F
100
AcDbEntity
  8
0
100
AcDbLine
 10
131.8412480936857
 20
67.96246906416971
 30
0.0
 11
132.8412480936857
 21
67.46246906416971
 31
0.0
  0
LINE
  5
1842
330
1F
100
AcDbEntity
  8
0
100
AcDbLine
 10
132.8412480936857
 20
62.46246906416971
 30
0.0
 11
131.8412480936857
 21
61.96246906416971
 31
0.0
  0
LINE
  5
1843
330
1F
100
AcDbEntity
  8
0
100
AcDbLine
 10
131.3412480936857
 20
61.96246906416971
 30
0.0
 11
131.8412480936857
 21
61.96246906416971
 31
0.0
  0
LINE
  5
1844
330
1F
100
AcDbEntity
  8
0
100
AcDbLine
 10
131.3412480936857
 20
64.96246906416971
 30
0.0
 11
131.8412480936857
 21
64.96246906416971
 31
0.0
  0
LINE
  5
1845
330
1F
100
AcDbEntity
  8
CENTER
100
AcDbLine
 10
123.8412480936857
 20
69.74246906416971
 30
0.0
 11
123.8412480936857
 21
67.67246906416971
 31
0.0
  0
LINE
  5
1846
330
1F
100
AcDbEntity
  8
CENTER
100
AcDbLine
 10
123.8412480936857
 20
70.86246906416971
 30
0.0
 11
123.8412480936857
 21
70.0624690641697
 31
0.0
  0
LINE
  5
1847
330
1F
100
AcDbEntity
  8
CENTER
100
AcDbLine
 10
123.8612480936857
 20
70.46246906416971
 30
0.0
 11
124.1812480936857
 21
70.46246906416971
 31
0.0
  0
LINE
  5
1848
330
1F
100
AcDbEntity
  8
CENTER
100
AcDbLine
 10
124.5612480936857
 20
70.46246906416971
 30
0.0
 11
126.6312480936858
 21
70.46246906416971
 31
0.0
  0
LINE
  5
1849
330
1F
100
AcDbEntity
  8
0
100
AcDbLine
 10
131.3412480936857
 20
67.96246906416971
 30
0.0
 11
131.8412480936857
 21
67.96246906416971
 31
0.0
  0
LINE
  5
184A
330
1F
100
AcDbEntity
  8
0
100
AcDbLine
 10
135.8412480936857
 20
64.96246906416971
 30
0.0
 11
135.8412480936857
 21
67.46246906416971
 31
0.0
  0
LINE
  5
184B
330
1F
100
AcDbEntity
  8
0
100
AcDbLine
 10
134.9752226899013
 20
67.46246906416971
 30
0.0
 11
134.9752226899013
 21
66.6207814593474
 31
0.0
  0
SPLINE
  5
184C
330
1F
100
AcDbEntity
  8
0
100
AcDbSpline
210
0.0
220
0.0
230
1.0
 70
    12
 71
     2
 72
     6
 73
     3
 74
     0
 42
0.0000000001
 43
0.0000000001
 40
0.0
 40
0.0
 40
0.0
 40
1.905337496355301
 40
1.905337496355301
 40
1.905337496355301
 10
134.9752226899013
 20
63.30415666899202
 30
0.0
 41
1.0
 10
135.8412480936857
 20
64.2086907027253
 30
0.0
 41
1.048808848170128
 10
135.8412480936857
 20
64.96246906416971
 30
0.0
 41
1.0
  0
SPLINE
  5
184D
330
1F
100
AcDbEntity
  8
0
100
AcDbSpline
210
0.0
220
0.0
230
1.0
 70
    12
 71
     2
 72
     6
 73
     3
 74
     0
 42
0.0000000001
 43
0.0000000001
 40
0.0
 40
0.0
 40
0.0
 40
1.905337496355301
 40
1.905337496355301
 40
1.905337496355301
 10
134.9752226899013
 20
66.6207814593474
 30
0.0
 41
1.0
 10
135.8412480936857
 20
65.71624742561411
 30
0.0
 41
1.048808848170128
 10
135.8412480936857
 20
64.96246906416971
 30
0.0
 41
1.0
  0
LINE
  5
184E
330
1F
100
AcDbEntity
  8
0
100
AcDbLine
 10
135.8412480936857
 20
63.41246906416969
 30
0.0
 11
135.8412480936857
 21
62.46246906416971
 31
0.0
  0
LINE
  5
184F
330
1F
100
AcDbEntity
  8
0
100
AcDbLine
 10
135.8412480936857
 20
63.41246906416969
 30
0.0
 11
135.8412480936857
 21
64.96246906416971
 31
0.0
  0
LINE
  5
1850
330
1F
100
AcDbEntity
  8
0
100
AcDbLine
 10
134.9752226899013
 20
62.46246906416971
 30
0.0
 11
134.9752226899013
 21
63.30415666899202
 31
0.0
  0
LINE
  5
1851
330
1F
100
AcDbEntity
  8
0
100
AcDbLine
 10
132.8412480936857
 20
66.6207814593474
 30
0.0
 11
134.9752226899013
 21
66.6207814593474
 31
0.0
  0
LINE
  5
1852
330
1F
100
AcDbEntity
  8
0
100
AcDbLine
 10
132.8412480936857
 20
63.30415666899202
 30
0.0
 11
134.9752226899013
 21
63.30415666899202
 31
0.0
  0
LINE
  5
1853
330
1F
100
AcDbEntity
  8
0
100
AcDbLine
 10
132.8412480936857
 20
64.96246906416971
 30
0.0
 11
132.8412480936857
 21
63.30415666899202
 31
0.0
  0
LINE
  5
1854
330
1F
100
AcDbEntity
  8
0
100
AcDbLine
 10
132.8412480936857
 20
64.96246906416971
 30
0.0
 11
132.8412480936857
 21
66.6207814593474
 31
0.0
  0
LINE
  5
1855
330
1F
100
AcDbEntity
  8
0
100
AcDbLine
 10
135.8412480936857
 20
62.46246906416971
 30
0.0
 11
132.8412480936857
 21
62.46246906416971
 31
0.0
  0
SPLINE
  5
1856
330
1F
100
AcDbEntity
  8
0
100
AcDbSpline
210
0.0
220
0.0
230
1.0
 70
    28
 71
     2
 72
     6
 73
     3
 74
     0
 42
0.0000000001
 43
0.0000000001
 40
0.0
 40
0.0
 40
0.0
 40
1.905337496355302
 40
1.905337496355302
 40
1.905337496355302
 10
134.9752226899013
 20
67.46246906416971
 30
0.0
 41
1.0
 10
135.8412480936857
 20
67.46246906416971
 30
0.0
 41
1.048808848170119
 10
135.8412480936857
 20
67.46246906416971
 30
0.0
 41
1.0
  0
LINE
  5
1857
330
1F
100
AcDbEntity
  8
0
100
AcDbLine
 10
134.9752226899013
 20
67.46246906416971
 30
0.0
 11
132.8412480936857
 21
67.46246906416971
 31
0.0
  0
LINE
  5
1858
330
1F
100
AcDbEntity
  8
0
100
AcDbLine
 10
131.3412480936857
 20
74.94996124188881
 30
0.0
 11
131.3412480936857
 21
77.46246906416971
 31
0.0
  0
LINE
  5
1859
330
1F
100
AcDbEntity
  8
0
100
AcDbLine
 10
206.9701477805683
 20
74.94996124188881
 30
0.0
 11
206.9701477805683
 21
54.97497688645061
 31
0.0
  0
LINE
  5
185A
330
1F
100
AcDbEntity
  8
CENTER
100
AcDbLine
 10
211.3201477805684
 20
56.0924690641697
 30
0.0
 11
211.3201477805684
 21
52.92246906416972
 31
0.0
  0
ARC
  5
185C
330
1F
100
AcDbEntity
  8
0
 62
     3
100
AcDbCircle
 10
211.3201477805684
 20
56.8124690641697
 30
0.0
 40
2.5
100
AcDbArc
 50
167.5924444542742
 51
108.5369458168591
  0
ARC
  5
185D
330
1F
100
AcDbEntity
  8
0
100
AcDbCircle
 10
219.4701477805683
 20
64.96246906416971
 30
0.0
 40
16.0
100
AcDbArc
 50
218.624832873053
 51
231.375167126947
  0
LINE
  5
185E
330
1F
100
AcDbEntity
  8
CENTER
100
AcDbLine
 10
207.4301477805684
 20
56.8124690641697
 30
0.0
 11
210.6001477805684
 21
56.8124690641697
 31
0.0
  0
LINE
  5
185F
330
1F
100
AcDbEntity
  8
CENTER
100
AcDbLine
 10
210.9201477805684
 20
56.8124690641697
 30
0.0
 11
211.7201477805683
 21
56.8124690641697
 31
0.0
  0
LINE
  5
1860
330
1F
100
AcDbEntity
  8
CENTER
100
AcDbLine
 10
211.3201477805684
 20
60.70246906416972
 30
0.0
 11
211.3201477805684
 21
57.5324690641697
 31
0.0
  0
LINE
  5
1861
330
1F
100
AcDbEntity
  8
CENTER
100
AcDbLine
 10
211.3201477805684
 20
57.21246906416971
 30
0.0
 11
211.3201477805684
 21
56.4124690641697
 31
0.0
  0
ARC
  5
1862
330
1F
100
AcDbEntity
  8
0
100
AcDbCircle
 10
214.0201477805684
 20
74.46246906416971
 30
0.0
 40
1.7
100
AcDbArc
 50
180.0
 51
270.0
  0
LINE
  5
1863
330
1F
100
AcDbEntity
  8
0
100
AcDbLine
 10
212.7701477805684
 20
77.46246906416971
 30
0.0
 11
209.4826556028492
 21
77.46246906416971
 31
0.0
  0
ARC
  5
1864
330
1F
100
AcDbEntity
  8
0
100
AcDbCircle
 10
219.4701477805683
 20
64.96246906416971
 30
0.0
 40
16.0
100
AcDbArc
 50
128.6248328730529
 51
141.3751671269469
  0
LINE
  5
1865
330
1F
100
AcDbEntity
  8
0
100
AcDbLine
 10
212.7701477805684
 20
77.0624690641697
 30
0.0
 11
212.7701477805684
 21
77.46246906416971
 31
0.0
  0
LINE
  5
1866
330
1F
100
AcDbEntity
  8
0
100
AcDbLine
 10
212.3201477805685
 20
74.46246906416971
 30
0.0
 11
212.3201477805685
 21
76.56246906416971
 31
0.0
  0
LINE
  5
1867
330
1F
100
AcDbEntity
  8
0
100
AcDbLine
 10
212.3201477805685
 20
76.56246906416971
 30
0.0
 11
212.7701477805684
 21
77.0624690641697
 31
0.0
  0
LINE
  5
1868
330
1F
100
AcDbEntity
  8
LOGO
 62
     6
100
AcDbLine
 10
250.1698863887482
 20
32.16653435992802
 30
0.0
 11
235.1026469811151
 21
32.16653435992802
 31
0.0
  0
LINE
  5
1869
330
1F
100
AcDbEntity
  8
LOGO
 62
     6
100
AcDbLine
 10
250.1698863887482
 20
24.0261963417194
 30
0.0
 11
235.1026469811151
 21
24.0261963417194
 31
0.0
  0
LINE
  5
186A
330
1F
100
AcDbEntity
  8
LOGO
 62
     6
100
AcDbLine
 10
249.265404386725
 20
19.9560273326151
 30
0.0
 11
236.0071289831382
 21
19.9560273326151
 31
0.0
  0
LINE
  5
186B
330
1F
100
AcDbEntity
  8
LOGO
 62
     6
100
AcDbLine
 10
249.265404386725
 20
10.00672531036012
 30
0.0
 11
236.0071289831382
 21
10.0067253103601
 31
0.0
  0
LINE
  5
186C
330
1F
100
AcDbEntity
  8
LOGO
 62
     6
100
AcDbLine
 10
228.6979670996012
 20
24.02619634171946
 30
0.0
 11
214.1761431308963
 21
24.02619634171946
 31
0.0
  0
LINE
  5
186D
330
1F
100
AcDbEntity
  8
LOGO
 62
     6
100
AcDbLine
 10
228.6979670996012
 20
19.95602733261514
 30
0.0
 11
214.1761431308963
 21
19.95602733261514
 31
0.0
  0
LINE
  5
186E
330
1F
100
AcDbEntity
  8
LOGO
 62
     6
100
AcDbLine
 10
228.6979670996012
 20
32.16653435992813
 30
0.0
 11
214.1761431308963
 21
32.16653435992808
 31
0.0
  0
TEXT
  5
186F
330
1F
100
AcDbEntity
  8
LOGO
  6
CONTINUOUS
 62
     7
100
AcDbText
 10
218.6288539683133
 20
25.78387593128149
 30
0.0
 40
4.522410010115899
  1
12
  7
CHINESET
 72
     1
 11
221.8591468326818
 21
28.04508093633943
 31
0.0
100
AcDbText
 73
     2
  0
LINE
  5
1870
330
1F
100
AcDbEntity
  8
LOGO
 62
     6
100
AcDbLine
 10
228.6979670996012
 20
10.00672531036017
 30
0.0
 11
214.1761431308963
 21
10.00672531036014
 31
0.0
  0
TEXT
  5
1871
330
1F
100
AcDbEntity
  8
LOGO
  6
CONTINUOUS
 62
     6
100
AcDbText
 10
218.6374679661295
 20
11.13732781288912
 30
0.0
 40
2.261205005057949
  1
Bore
 41
0.8
  7
CHINESET
 72
     4
 11
221.4370551152488
 21
12.2679303154181
 31
0.0
100
AcDbText
  0
TEXT
  5
1872
330
1F
100
AcDbEntity
  8
LOGO
 62
     6
100
AcDbText
 10
217.9774114575101
 20
14.98137632148764
 30
0.0
 40
3.617928008092719
  1
內徑
 41
0.9
  7
CHINESET
 72
     4
 11
221.4370551152488
 21
16.790340325534
 31
0.0
100
AcDbText
  0
LINE
  5
1873
330
1F
100
AcDbEntity
  8
LOGO
 62
     6
100
AcDbLine
 10
221.4370549066893
 20
24.02619634171946
 30
0.0
 11
221.4370549066893
 21
19.95602733261514
 31
0.0
  0
LINE
  5
1874
330
1F
100
AcDbEntity
  8
LOGO
 62
     6
100
AcDbLine
 10
197.7971052589604
 20
24.0261963417194
 30
0.0
 11
197.7971052589604
 21
19.9560273326151
 31
0.0
  0
LINE
  5
1875
330
1F
100
AcDbEntity
  8
LOGO
 62
     6
100
AcDbLine
 10
207.7714632493824
 20
19.9560273326151
 30
0.0
 11
207.7714632493824
 21
10.00672531036014
 31
0.0
  0
LINE
  5
1876
330
1F
100
AcDbEntity
  8
LOGO
 62
     6
100
AcDbLine
 10
214.1761431308963
 20
19.95602733261514
 30
0.0
 11
214.1761431308963
 21
10.00672531036017
 31
0.0
  0
LINE
  5
1877
330
1F
100
AcDbEntity
  8
LOGO
 62
     6
100
AcDbLine
 10
207.7714632493824
 20
32.16653435992808
 30
0.0
 11
207.7714632493824
 21
24.0261963417194
 31
0.0
  0
LINE
  5
1878
330
1F
100
AcDbEntity
  8
LOGO
 62
     6
100
AcDbLine
 10
214.1761431308963
 20
32.16653435992808
 30
0.0
 11
214.1761431308963
 21
24.02619634171946
 31
0.0
  0
LINE
  5
1879
330
1F
100
AcDbEntity
  8
LOGO
  6
CONTINUOUS
 62
     7
100
AcDbLine
 10
209.1739211528958
 20
28.06753098708577
 30
0.0
 11
212.7683973940009
 21
28.06753098708577
 31
0.0
  0
LINE
  5
187A
330
1F
100
AcDbEntity
  8
LOGO
 62
     6
100
AcDbLine
 10
242.8278277603951
 20
24.0261963417194
 30
0.0
 11
242.8278277603951
 21
19.9560273326151
 31
0.0
  0
LINE
  5
187B
330
1F
100
AcDbEntity
  8
LOGO
 62
     6
100
AcDbLine
 10
228.6979670996012
 20
19.95602733261514
 30
0.0
 11
228.6979670996012
 21
10.00672531036019
 31
0.0
  0
LINE
  5
187C
330
1F
100
AcDbEntity
  8
LOGO
 62
     6
100
AcDbLine
 10
236.0071289831382
 20
19.9560273326151
 30
0.0
 11
236.0071289831382
 21
10.0067253103601
 31
0.0
  0
TEXT
  5
187D
330
1F
100
AcDbEntity
  8
LOGO
  6
CONTINUOUS
 62
     6
100
AcDbText
 10
238.5445623900649
 20
11.13732781288907
 30
0.0
 40
2.261205005057949
  1
Stroke
 41
0.8
  7
CHINESET
 72
     4
 11
242.6362666849317
 21
12.26793031541804
 31
0.0
100
AcDbText
  0
TEXT
  5
187E
330
1F
100
AcDbEntity
  8
LOGO
 62
     6
100
AcDbText
 10
239.3801314776482
 20
14.98137632148758
 30
0.0
 40
3.617928008092719
  1
行程
 41
0.9
  7
CHINESET
 72
     4
 11
242.6362666849317
 21
16.79034032553394
 31
0.0
100
AcDbText
  0
LINE
  5
187F
330
1F
100
AcDbEntity
  8
LOGO
 62
     6
100
AcDbLine
 10
228.6979670996012
 20
32.16653435992813
 30
0.0
 11
228.6979670996012
 21
24.02619634171946
 31
0.0
  0
LINE
  5
1880
330
1F
100
AcDbEntity
  8
LOGO
  6
CONTINUOUS
 62
     7
100
AcDbLine
 10
230.1004250031147
 20
28.06753098708583
 30
0.0
 11
233.6949012442198
 21
28.06753098708583
 31
0.0
  0
LINE
  5
1881
330
1F
100
AcDbEntity
  8
LOGO
 62
     6
100
AcDbLine
 10
235.1026469811151
 20
32.16653435992802
 30
0.0
 11
235.1026469811151
 21
24.0261963417194
 31
0.0
  0
TEXT
  5
1882
330
1F
100
AcDbEntity
  8
LOGO
  6
CONTINUOUS
 62
     7
100
AcDbText
 10
241.8739176854296
 20
25.78387593128144
 30
0.0
 40
4.522410010115899
  1
?
  7
CHINESET
 72
     1
 11
243.0583584023647
 21
28.04508093633939
 31
0.0
100
AcDbText
 73
     2
  0
LINE
  5
1883
330
1F
100
AcDbEntity
  8
LOGO
 62
     6
100
AcDbLine
 10
257.9946123478779
 20
24.0261963417194
 30
0.0
 11
257.9946123478779
 21
19.9560273326151
 31
0.0
  0
LINE
  5
1884
330
1F
100
AcDbEntity
  8
LOGO
 62
     1
100
AcDbLine
 10
271.6277841472794
 20
7.745520305302171
 30
0.0
 11
271.6277841472794
 21
34.87998036599757
 31
0.0
  0
LINE
  5
1885
330
1F
100
AcDbEntity
  8
LOGO
 62
     6
100
AcDbLine
 10
264.6237500496713
 20
10.00672531036012
 30
0.0
 11
251.3654746460846
 21
10.0067253103601
 31
0.0
  0
LINE
  5
1886
330
1F
100
AcDbEntity
  8
LOGO
 62
     6
100
AcDbLine
 10
264.6237500496713
 20
19.9560273326151
 30
0.0
 11
251.3654746460846
 21
19.9560273326151
 31
0.0
  0
TEXT
  5
1887
330
1F
100
AcDbEntity
  8
LOGO
  6
CONTINUOUS
 62
     6
100
AcDbText
 10
252.7400026218384
 20
11.13732781288907
 30
0.0
 40
2.261205005057949
  1
MAGNET
 41
0.8
  7
CHINESET
 72
     4
 11
257.9946123478779
 21
12.26793031541804
 31
0.0
100
AcDbText
  0
TEXT
  5
1888
330
1F
100
AcDbEntity
  8
LOGO
 62
     6
100
AcDbText
 10
253.1104095369527
 20
15.01906307157188
 30
0.0
 40
3.617928008092719
  1
附磁石
 41
0.9
  7
CHINESET
 72
     4
 11
257.9946123478779
 21
16.79034032553394
 31
0.0
100
AcDbText
  0
LINE
  5
1889
330
1F
100
AcDbEntity
  8
LOGO
 62
     6
100
AcDbLine
 10
251.3654746460846
 20
19.9560273326151
 30
0.0
 11
251.3654746460846
 21
10.0067253103601
 31
0.0
  0
LINE
  5
188A
330
1F
100
AcDbEntity
  8
LOGO
 62
     6
100
AcDbLine
 10
249.265404386725
 20
19.9560273326151
 30
0.0
 11
249.265404386725
 21
9.969209844572592
 31
0.0
  0
LINE
  5
188B
330
1F
100
AcDbEntity
  8
LOGO
 62
     6
100
AcDbLine
 10
264.6237500496713
 20
19.9560273326151
 30
0.0
 11
264.6237500496713
 21
9.969209844572592
 31
0.0
  0
TEXT
  5
188C
330
1F
100
AcDbEntity
  8
LOGO
  6
CONTINUOUS
 62
     7
100
AcDbText
 10
253.5712649773177
 20
25.78387593128144
 30
0.0
 40
4.522410010115899
  1
(M)
  7
CHINESET
 72
     1
 11
258.4167042738704
 21
28.04508093633939
 31
0.0
100
AcDbText
 73
     2
  0
LINE
  5
188D
330
1F
100
AcDbEntity
  8
LOGO
 62
     6
100
AcDbLine
 10
263.9370684356096
 20
24.0261963417194
 30
0.0
 11
252.0521562601462
 21
24.0261963417194
 31
0.0
  0
LINE
  5
188E
330
1F
100
AcDbEntity
  8
LOGO
 62
     6
100
AcDbLine
 10
263.9370684356096
 20
32.16653435992808
 30
0.0
 11
252.0521562601462
 21
32.16653435992802
 31
0.0
  0
LINE
  5
188F
330
1F
100
AcDbEntity
  8
LOGO
 62
     6
100
AcDbLine
 10
252.0521562601462
 20
32.16653435992802
 30
0.0
 11
252.0521562601462
 21
24.0261963417194
 31
0.0
  0
LINE
  5
1890
330
1F
100
AcDbEntity
  8
LOGO
 62
     6
100
AcDbLine
 10
250.1698863887482
 20
32.16653435992802
 30
0.0
 11
250.1698863887482
 21
24.0261963417194
 31
0.0
  0
LINE
  5
1891
330
1F
100
AcDbEntity
  8
LOGO
 62
     6
100
AcDbLine
 10
263.9370684356094
 20
32.16653435992808
 30
0.0
 11
263.9370684356096
 21
24.0261963417194
 31
0.0
  0
CIRCLE
  5
1892
330
1F
100
AcDbEntity
  8
0
100
AcDbCircle
 10
223.81121110604
 20
61.5853150546159
 30
0.0
 40
0.85
  0
LINE
  5
1893
330
1F
100
AcDbEntity
  8
0
100
AcDbLine
 10
228.9701477805683
 20
58.96246906416971
 30
0.0
 11
228.9701477805683
 21
67.96246906416971
 31
0.0
  0
LINE
  5
1894
330
1F
100
AcDbEntity
  8
CENTER
100
AcDbLine
 10
219.4701477805683
 20
64.24246906416971
 30
0.0
 11
219.4701477805683
 21
57.32246906416972
 31
0.0
  0
ARC
  5
1895
330
1F
100
AcDbEntity
  8
0
100
AcDbCircle
 10
223.81121110604
 20
61.5853150546159
 30
0.0
 40
1.7
100
AcDbArc
 50
70.12312592991928
 51
191.7220023476443
  0
ARC
  5
1896
330
1F
100
AcDbEntity
  8
0
100
AcDbCircle
 10
219.9701477805684
 20
64.96246906416971
 30
0.0
 40
5.800000000000011
100
AcDbArc
 50
82.82669820456792
 51
277.1733017954321
  0
LINE
  5
1897
330
1F
100
AcDbEntity
  8
0
100
AcDbLine
 10
231.9701477805683
 20
60.6624690641697
 30
0.0
 11
230.2701477805684
 21
60.6624690641697
 31
0.0
  0
ARC
  5
1898
330
1F
100
AcDbEntity
  8
0
100
AcDbCircle
 10
219.4701477805683
 20
64.96246906416971
 30
0.0
 40
16.0
100
AcDbArc
 50
308.624832873053
 51
321.3751671269469
  0
ARC
  5
1899
330
1F
100
AcDbEntity
  8
0
100
AcDbCircle
 10
220.482118563742
 20
60.89455978332572
 30
0.0
 40
1.7
100
AcDbArc
 50
277.1733017954321
 51
11.72200234764273
  0
LINE
  5
189A
330
1F
100
AcDbEntity
  8
0
100
AcDbLine
 10
216.4701477805683
 20
55.46246906416974
 30
0.0
 11
225.4701477805683
 21
55.46246906416971
 31
0.0
  0
LINE
  5
189B
330
1F
100
AcDbEntity
  8
0
100
AcDbLine
 10
216.4701477805683
 20
52.46246906416974
 30
0.0
 11
216.4701477805683
 21
55.46246906416974
 31
0.0
  0
LINE
  5
189C
330
1F
100
AcDbEntity
  8
0
100
AcDbLine
 10
223.7701477805684
 20
52.46246906416971
 30
0.0
 11
229.4576399582875
 21
52.46246906416971
 31
0.0
  0
LINE
  5
189D
330
1F
100
AcDbEntity
  8
0
100
AcDbLine
 10
225.4701477805683
 20
54.1624690641697
 30
0.0
 11
223.7701477805684
 21
54.1624690641697
 31
0.0
  0
LINE
  5
189E
330
1F
100
AcDbEntity
  8
0
100
AcDbLine
 10
225.4701477805683
 20
55.46246906416971
 30
0.0
 11
225.4701477805683
 21
54.1624690641697
 31
0.0
  0
LINE
  5
189F
330
1F
100
AcDbEntity
  8
0
100
AcDbLine
 10
223.7701477805684
 20
54.1624690641697
 30
0.0
 11
223.7701477805684
 21
52.46246906416971
 31
0.0
  0
LINE
  5
18A0
330
1F
100
AcDbEntity
  8
0
100
AcDbLine
 10
230.2701477805684
 20
58.96246906416971
 30
0.0
 11
228.9701477805683
 21
58.96246906416971
 31
0.0
  0
LINE
  5
18A1
330
1F
100
AcDbEntity
  8
0
100
AcDbLine
 10
230.2701477805684
 20
60.6624690641697
 30
0.0
 11
230.2701477805684
 21
58.96246906416971
 31
0.0
  0
LINE
  5
18A2
330
1F
100
AcDbEntity
  8
0
100
AcDbLine
 10
231.9701477805683
 20
54.97497688645061
 30
0.0
 11
231.9701477805683
 21
60.6624690641697
 31
0.0
  0
ARC
  5
18A3
330
1F
100
AcDbEntity
  8
0
100
AcDbCircle
 10
219.4701477805683
 20
64.96246906416971
 30
0.0
 40
16.0
100
AcDbArc
 50
38.624832873053
 51
51.375167126947
  0
LINE
  5
18A4
330
1F
100
AcDbEntity
  8
CENTER
100
AcDbLine
 10
228.3401477805684
 20
73.11246906416972
 30
0.0
 11
231.5101477805684
 21
73.11246906416972
 31
0.0
  0
LINE
  5
18A5
330
1F
100
AcDbEntity
  8
0
100
AcDbLine
 10
228.9701477805683
 20
67.96246906416971
 30
0.0
 11
231.9701477805683
 21
67.96246906416971
 31
0.0
  0
CIRCLE
  5
18A6
330
1F
100
AcDbEntity
  8
0
100
AcDbCircle
 10
227.6201477805684
 20
73.11246906416968
 30
0.0
 40
3.25
  0
LINE
  5
18A7
330
1F
100
AcDbEntity
  8
CENTER
100
AcDbLine
 10
227.6201477805684
 20
73.51246906416972
 30
0.0
 11
227.6201477805684
 21
72.71246906416971
 31
0.0
  0
ARC
  5
18A9
330
1F
100
AcDbEntity
  8
0
 62
     3
100
AcDbCircle
 10
227.6201477805684
 20
73.11246906416968
 30
0.0
 40
2.5
100
AcDbArc
 50
162.7197645717144
 51
110.6713904185971
  0
ARC
  5
18AA
330
1F
100
AcDbEntity
  8
0
100
AcDbCircle
 10
214.9201477805684
 20
74.46246906416971
 30
0.0
 40
1.7
100
AcDbArc
 50
270.0
 51
0.0
  0
ARC
  5
18AB
330
1F
100
AcDbEntity
  8
0
100
AcDbCircle
 10
220.7201477805683
 20
74.46246906416971
 30
0.0
 40
1.7
100
AcDbArc
 50
180.0
 51
270.0
  0
ARC
  5
18AC
330
1F
100
AcDbEntity
  8
0
100
AcDbCircle
 10
221.6201477805684
 20
74.46246906416971
 30
0.0
 40
1.7
100
AcDbArc
 50
270.0
 51
0.0
  0
ARC
  5
18AD
330
1F
100
AcDbEntity
  8
0
100
AcDbCircle
 10
220.482118563742
 20
69.03037834501373
 30
0.0
 40
1.7
100
AcDbArc
 50
348.2779976523556
 51
82.82669820456792
  0
LINE
  5
18AE
330
1F
100
AcDbEntity
  8
CENTER
100
AcDbLine
 10
220.1901477805683
 20
64.96246906416971
 30
0.0
 11
227.1101477805684
 21
64.96246906416971
 31
0.0
  0
ARC
  5
18AF
330
1F
100
AcDbEntity
  8
0
100
AcDbCircle
 10
219.4701477805683
 20
64.96246906416971
 30
0.0
 40
2.499999999999999
100
AcDbArc
 50
270.0
 51
0.0
  0
CIRCLE
  5
18B0
330
1F
100
AcDbEntity
  8
0
100
AcDbCircle
 10
219.4701477805683
 20
64.96246906416971
 30
0.0
 40
3.2
  0
ARC
  5
18B1
330
1F
100
AcDbEntity
  8
0
100
AcDbCircle
 10
219.4701477805683
 20
64.96246906416971
 30
0.0
 40
3.0
100
AcDbArc
 50
326.4426902380802
 51
33.55730976191978
  0
ARC
  5
18B2
330
1F
100
AcDbEntity
  8
0
100
AcDbCircle
 10
219.4701477805683
 20
64.96246906416971
 30
0.0
 40
2.499999999999999
100
AcDbArc
 50
0.0
 51
90.0
  0
ARC
  5
18B3
330
1F
100
AcDbEntity
  8
0
100
AcDbCircle
 10
223.81121110604
 20
68.33962307372352
 30
0.0
 40
1.7
100
AcDbArc
 50
168.2779976523556
 51
289.8768740700806
  0
ARC
  5
18B4
330
1F
100
AcDbEntity
  8
0
100
AcDbCircle
 10
219.4701477805683
 20
64.96246906416971
 30
0.0
 40
3.0
100
AcDbArc
 50
33.55730976191978
 51
56.44269023808067
  0
ARC
  5
18B5
330
1F
100
AcDbEntity
  8
0
100
AcDbCircle
 10
219.4701477805683
 20
64.96246906416971
 30
0.0
 40
3.0
100
AcDbArc
 50
123.5573097619193
 51
146.4426902380802
  0
ARC
  5
18B6
330
1F
100
AcDbEntity
  8
0
100
AcDbCircle
 10
219.4701477805683
 20
64.96246906416971
 30
0.0
 40
2.499999999999999
100
AcDbArc
 50
90.0
 51
180.0
  0
LINE
  5
18B7
330
1F
100
AcDbEntity
  8
CENTER
100
AcDbLine
 10
219.4701477805683
 20
72.6024690641697
 30
0.0
 11
219.4701477805683
 21
65.68246906416971
 31
0.0
  0
ARC
  5
18B8
330
1F
100
AcDbEntity
  8
0
 62
     3
100
AcDbCircle
 10
219.4701477805683
 20
64.96246906416971
 30
0.0
 40
1.5
100
AcDbArc
 50
166.8807888200091
 51
108.7691766674267
  0
ARC
  5
18B9
330
1F
100
AcDbEntity
  8
0
100
AcDbCircle
 10
219.4701477805683
 20
64.96246906416971
 30
0.0
 40
3.0
100
AcDbArc
 50
236.4426902380806
 51
303.5573097619197
  0
SPLINE
  5
18BA
330
1F
100
AcDbEntity
  8
0
100
AcDbSpline
210
0.0
220
0.0
230
1.0
 70
    28
 71
     2
 72
     6
 73
     3
 74
     0
 42
0.0000000001
 43
0.0000000001
 40
0.0
 40
0.0
 40
0.0
 40
1.905337496355301
 40
1.905337496355301
 40
1.905337496355301
 10
217.8118353853907
 20
62.46246906416971
 30
0.0
 41
1.0
 10
218.716369419124
 20
62.46246906416971
 30
0.0
 41
1.048808848170128
 10
219.4701477805685
 20
62.46246906416971
 30
0.0
 41
1.0
  0
ARC
  5
18BB
330
1F
100
AcDbEntity
  8
0
100
AcDbCircle
 10
219.4701477805683
 20
64.96246906416971
 30
0.0
 40
2.499999999999999
100
AcDbArc
 50
180.0
 51
270.0
  0
SPLINE
  5
18BC
330
1F
100
AcDbEntity
  8
0
100
AcDbSpline
210
0.0
220
0.0
230
1.0
 70
    28
 71
     2
 72
     6
 73
     3
 74
     0
 42
0.0000000001
 43
0.0000000001
 40
1.905337496355301
 40
1.905337496355301
 40
1.905337496355301
 40
3.810674992710603
 40
3.810674992710603
 40
3.810674992710603
 10
216.9701477805683
 20
64.96246906416971
 30
0.0
 41
1.0
 10
216.9701477805683
 20
64.2086907027253
 30
0.0
 41
1.048808848170145
 10
216.9701477805684
 20
63.30415666899202
 30
0.0
 41
1.0
  0
ARC
  5
18BD
330
1F
100
AcDbEntity
  8
0
100
AcDbCircle
 10
219.4701477805683
 20
64.96246906416971
 30
0.0
 40
3.0
100
AcDbArc
 50
146.4426902380802
 51
213.5573097619198
  0
SPLINE
  5
18BE
330
1F
100
AcDbEntity
  8
0
100
AcDbSpline
210
0.0
220
0.0
230
1.0
 70
    28
 71
     2
 72
     6
 73
     3
 74
     0
 42
0.0000000001
 43
0.0000000001
 40
0.0
 40
0.0
 40
0.0
 40
1.905337496355301
 40
1.905337496355301
 40
1.905337496355301
 10
216.9701477805683
 20
66.6207814593474
 30
0.0
 41
1.0
 10
216.9701477805683
 20
65.71624742561411
 30
0.0
 41
1.048808848170128
 10
216.9701477805683
 20
64.96246906416971
 30
0.0
 41
1.0
  0
ARC
  5
18BF
330
1F
100
AcDbEntity
  8
0
100
AcDbCircle
 10
219.4701477805683
 20
64.96246906416971
 30
0.0
 40
3.0
100
AcDbArc
 50
213.5573097619198
 51
236.4426902380806
  0
CIRCLE
  5
18C0
330
1F
100
AcDbEntity
  8
0
100
AcDbCircle
 10
219.4701477805683
 20
64.96246906416971
 30
0.0
 40
1.25
  0
LINE
  5
18C1
330
1F
100
AcDbEntity
  8
CENTER
100
AcDbLine
 10
219.4701477805683
 20
65.36246906416971
 30
0.0
 11
219.4701477805683
 21
64.5624690641697
 31
0.0
  0
LINE
  5
18C2
330
1F
100
AcDbEntity
  8
CENTER
100
AcDbLine
 10
219.0701477805685
 20
64.96246906416971
 30
0.0
 11
219.8701477805684
 21
64.96246906416971
 31
0.0
  0
SPLINE
  5
18C3
330
1F
100
AcDbEntity
  8
0
100
AcDbSpline
210
0.0
220
0.0
230
1.0
 70
    28
 71
     2
 72
     6
 73
     3
 74
     0
 42
0.0000000001
 43
0.0000000001
 40
0.0
 40
0.0
 40
0.0
 40
1.905337496355302
 40
1.905337496355302
 40
1.905337496355302
 10
221.9701477805684
 20
63.30415666899202
 30
0.0
 41
1.0
 10
221.9701477805684
 20
64.20869070272534
 30
0.0
 41
1.048808848170145
 10
221.9701477805683
 20
64.96246906416974
 30
0.0
 41
1.0
  0
SPLINE
  5
18C4
330
1F
100
AcDbEntity
  8
0
100
AcDbSpline
210
0.0
220
0.0
230
1.0
 70
    28
 71
     2
 72
     6
 73
     3
 74
     0
 42
0.0000000001
 43
0.0000000001
 40
1.905337496355302
 40
1.905337496355302
 40
1.905337496355302
 40
3.810674992710604
 40
3.810674992710604
 40
3.810674992710604
 10
221.9701477805683
 20
64.96246906416974
 30
0.0
 41
1.0
 10
221.9701477805683
 20
65.71624742561417
 30
0.0
 41
1.048808848170128
 10
221.9701477805683
 20
66.62078145934746
 30
0.0
 41
1.0
  0
SPLINE
  5
18C5
330
1F
100
AcDbEntity
  8
0
100
AcDbSpline
210
0.0
220
0.0
230
1.0
 70
    28
 71
     2
 72
     6
 73
     3
 74
     0
 42
0.0000000001
 43
0.0000000001
 40
1.905337496355301
 40
1.905337496355301
 40
1.905337496355301
 40
3.810674992710604
 40
3.810674992710604
 40
3.810674992710604
 10
219.4701477805685
 20
62.46246906416971
 30
0.0
 41
1.0
 10
220.2239261420129
 20
62.46246906416971
 30
0.0
 41
1.048808848170145
 10
221.1284601757461
 20
62.46246906416971
 30
0.0
 41
1.0
  0
ARC
  5
18C6
330
1F
100
AcDbEntity
  8
0
100
AcDbCircle
 10
219.4701477805683
 20
64.96246906416971
 30
0.0
 40
3.0
100
AcDbArc
 50
303.5573097619197
 51
326.4426902380802
  0
ARC
  5
18C7
330
1F
100
AcDbEntity
  8
0
100
AcDbCircle
 10
219.4701477805683
 20
64.96246906416971
 30
0.0
 40
3.0
100
AcDbArc
 50
56.44269023808021
 51
123.5573097619193
  0
SPLINE
  5
18C8
330
1F
100
AcDbEntity
  8
0
100
AcDbSpline
210
0.0
220
0.0
230
1.0
 70
    28
 71
     2
 72
     6
 73
     3
 74
     0
 42
0.0000000001
 43
0.0000000001
 40
0.0
 40
0.0
 40
0.0
 40
1.905337496355302
 40
1.905337496355302
 40
1.905337496355302
 10
217.8118353853907
 20
67.46246906416971
 30
0.0
 41
1.0
 10
218.716369419124
 20
67.46246906416971
 30
0.0
 41
1.048808848170119
 10
219.4701477805683
 20
67.46246906416971
 30
0.0
 41
1.0
  0
LINE
  5
18C9
330
1F
100
AcDbEntity
  8
0
100
AcDbLine
 10
221.6201477805684
 20
72.76246906416972
 30
0.0
 11
220.7201477805683
 21
72.76246906416972
 31
0.0
  0
SPLINE
  5
18CA
330
1F
100
AcDbEntity
  8
0
100
AcDbSpline
210
0.0
220
0.0
230
1.0
 70
    28
 71
     2
 72
     6
 73
     3
 74
     0
 42
0.0000000001
 43
0.0000000001
 40
1.905337496355302
 40
1.905337496355302
 40
1.905337496355302
 40
3.810674992710604
 40
3.810674992710604
 40
3.810674992710604
 10
219.4701477805683
 20
67.46246906416971
 30
0.0
 41
1.0
 10
220.2239261420128
 20
67.46246906416971
 30
0.0
 41
1.048808848170119
 10
221.1284601757461
 20
67.46246906416971
 30
0.0
 41
1.0
  0
LINE
  5
18CB
330
1F
100
AcDbEntity
  8
0
100
AcDbLine
 10
226.0531258300533
 20
67.3424690641697
 30
0.0
 11
224.38921110604
 21
66.74089983313431
 31
0.0
  0
ARC
  5
18CC
330
1F
100
AcDbEntity
  8
0
100
AcDbCircle
 10
219.4701477805683
 20
64.96246906416971
 30
0.0
 40
6.8
100
AcDbArc
 50
0.0
 51
19.87687407007918
  0
LINE
  5
18CD
330
1F
100
AcDbEntity
  8
0
100
AcDbLine
 10
224.38921110604
 20
63.18403829520511
 30
0.0
 11
226.0531258300533
 21
62.58246906416971
 31
0.0
  0
ARC
  5
18CE
330
1F
100
AcDbEntity
  8
0
100
AcDbCircle
 10
219.4701477805683
 20
64.96246906416971
 30
0.0
 40
6.8
100
AcDbArc
 50
340.1231259299208
 51
0.0000000000016284
  0
CIRCLE
  5
18CF
330
1F
100
AcDbEntity
  8
0
100
AcDbCircle
 10
223.81121110604
 20
68.33962307372352
 30
0.0
 40
0.85
  0
LINE
  5
18D0
330
1F
100
AcDbEntity
  8
CENTER
100
AcDbLine
 10
227.6201477805684
 20
72.39246906416972
 30
0.0
 11
227.6201477805684
 21
69.2224690641697
 31
0.0
  0
LINE
  5
18D1
330
1F
100
AcDbEntity
  8
0
100
AcDbLine
 10
219.4701477805683
 20
77.46246906416971
 30
0.0
 11
216.1701477805684
 21
77.46246906416971
 31
0.0
  0
LINE
  5
18D2
330
1F
100
AcDbEntity
  8
0
100
AcDbLine
 10
216.1701477805684
 20
77.46246906416971
 30
0.0
 11
216.1701477805684
 21
77.0624690641697
 31
0.0
  0
LINE
  5
18D3
330
1F
100
AcDbEntity
  8
0
100
AcDbLine
 10
216.6201477805684
 20
76.56246906416971
 30
0.0
 11
216.6201477805684
 21
74.46246906416971
 31
0.0
  0
LINE
  5
18D4
330
1F
100
AcDbEntity
  8
0
100
AcDbLine
 10
216.1701477805684
 20
77.0624690641697
 30
0.0
 11
216.6201477805684
 21
76.56246906416971
 31
0.0
  0
LINE
  5
18D5
330
1F
100
AcDbEntity
  8
0
100
AcDbLine
 10
219.4701477805683
 20
77.0624690641697
 30
0.0
 11
219.4701477805683
 21
77.46246906416971
 31
0.0
  0
LINE
  5
18D6
330
1F
100
AcDbEntity
  8
0
100
AcDbLine
 10
219.0201477805684
 20
74.46246906416971
 30
0.0
 11
219.0201477805684
 21
76.56246906416971
 31
0.0
  0
LINE
  5
18D7
330
1F
100
AcDbEntity
  8
0
100
AcDbLine
 10
219.0201477805684
 20
76.56246906416971
 30
0.0
 11
219.4701477805683
 21
77.0624690641697
 31
0.0
  0
LINE
  5
18D8
330
1F
100
AcDbEntity
  8
0
100
AcDbLine
 10
229.4576399582874
 20
77.46246906416971
 30
0.0
 11
222.8701477805684
 21
77.46246906416971
 31
0.0
  0
LINE
  5
18D9
330
1F
100
AcDbEntity
  8
CENTER
100
AcDbLine
 10
223.7301477805684
 20
73.11246906416972
 30
0.0
 11
226.9001477805684
 21
73.11246906416972
 31
0.0
  0
LINE
  5
18DA
330
1F
100
AcDbEntity
  8
0
100
AcDbLine
 10
222.8701477805684
 20
77.0624690641697
 30
0.0
 11
223.3201477805685
 21
76.56246906416971
 31
0.0
  0
LINE
  5
18DB
330
1F
100
AcDbEntity
  8
0
100
AcDbLine
 10
222.8701477805684
 20
77.46246906416971
 30
0.0
 11
222.8701477805684
 21
77.0624690641697
 31
0.0
  0
LINE
  5
18DC
330
1F
100
AcDbEntity
  8
0
100
AcDbLine
 10
223.3201477805685
 20
76.56246906416971
 30
0.0
 11
223.3201477805685
 21
74.46246906416971
 31
0.0
  0
LINE
  5
18DD
330
1F
100
AcDbEntity
  8
CENTER
100
AcDbLine
 10
227.2201477805683
 20
73.11246906416972
 30
0.0
 11
228.0201477805684
 21
73.11246906416972
 31
0.0
  0
LINE
  5
18DE
330
1F
100
AcDbEntity
  8
CENTER
100
AcDbLine
 10
227.6201477805684
 20
77.00246906416973
 30
0.0
 11
227.6201477805684
 21
73.83246906416971
 31
0.0
  0
LINE
  5
18DF
330
1F
100
AcDbEntity
  8
0
100
AcDbLine
 10
231.9701477805683
 20
67.96246906416971
 30
0.0
 11
231.9701477805683
 21
74.94996124188881
 31
0.0
  0
LINE
  5
18E0
330
1F
100
AcDbEntity
  8
0
100
AcDbLine
 10
214.9201477805684
 20
171.2478395586835
 30
0.0
 11
214.0201477805684
 21
171.2478395586835
 31
0.0
  0
LINE
  5
18E1
330
1F
100
AcDbEntity
  8
CENTER
100
AcDbLine
 10
211.8301477805685
 20
163.4478395586834
 30
0.0
 11
218.7501477805684
 21
163.4478395586834
 31
0.0
  0
LINE
  5
18E2
330
1F
100
AcDbEntity
  8
CENTER
100
AcDbLine
 10
212.0401477805684
 20
155.2978395586834
 30
0.0
 11
215.2101477805683
 21
155.2978395586834
 31
0.0
  0
CIRCLE
  5
18E3
330
1F
100
AcDbEntity
  8
0
100
AcDbCircle
 10
219.4701477805683
 20
163.4478395586834
 30
0.0
 40
7.0
  0
CIRCLE
  5
18E4
330
1F
100
AcDbEntity
  8
0
100
AcDbCircle
 10
219.4701477805683
 20
163.4478395586834
 30
0.0
 40
7.299999999999998
  0
LINE
  5
18E5
330
1F
100
AcDbEntity
  8
0
100
AcDbLine
 10
209.4826556028492
 20
150.9478395586834
 30
0.0
 11
216.4701477805683
 21
150.9478395586834
 31
0.0
  0
CIRCLE
  5
18E6
330
1F
100
AcDbEntity
  8
0
100
AcDbCircle
 10
211.3201477805684
 20
155.2978395586834
 30
0.0
 40
3.25
  0
LINE
  5
18E7
330
1F
100
AcDbEntity
  8
0
 62
     4
100
AcDbLine
 10
271.6277841472794
 20
233.7149409438298
 30
0.0
 11
62.69244167992496
 21
233.7149409438298
 31
0.0
  0
TEXT
  5
18E8
330
1F
100
AcDbEntity
  8
0
100
AcDbText
 10
78.42480430333046
 20
237.7149416614262
 30
0.0
 40
10.0
  1
2.附磁型本體長度皆較不附磁型增加5MM
  7
CHINESET
100
AcDbText
  0
TEXT
  5
18E9
330
1F
100
AcDbEntity
  8
0
100
AcDbText
 10
60.07898340657641
 20
252.938452497203
 30
0.0
 40
10.0
  1
註：1.本圖檔為不附磁型
  7
CHINESET
100
AcDbText
  0
TEXT
  5
18EA
330
1F
100
AcDbEntity
  8
0
100
AcDbText
 10
67.57660227018504
 20
221.0952041782535
 30
0.0
 40
4.0
  1
MCJT-11-%%C12
  7
CHINESET
100
AcDbText
  0
TEXT
  5
18EB
330
1F
100
AcDbEntity
  8
0
100
AcDbText
 10
67.08567331259757
 20
212.8062694278686
 30
0.0
 40
5.0
  1
stroke=0mm
  7
CHINESET
100
AcDbText
  0
LINE
  5
18EC
330
1F
100
AcDbEntity
  8
CENTER
100
AcDbLine
 10
142.2115705873968
 20
163.4478395586834
 30
0.0
 11
106.0094431540751
 21
163.4478395586834
 31
0.0
  0
LINE
  5
18ED
330
1F
100
AcDbEntity
  8
0
100
AcDbLine
 10
126.8494431540751
 20
153.9478395586834
 30
0.0
 11
106.3494431540751
 21
153.9478395586834
 31
0.0
  0
LINE
  5
18EE
330
1F
100
AcDbEntity
  8
0
100
AcDbLine
 10
126.8494431540751
 20
150.9478395586834
 30
0.0
 11
106.3494431540751
 21
150.9478395586834
 31
0.0
  0
LINE
  5
18EF
330
1F
100
AcDbEntity
  8
0
100
AcDbLine
 10
126.8494431540751
 20
152.6478395586834
 30
0.0
 11
106.3494431540751
 21
152.6478395586834
 31
0.0
  0
LINE
  5
18F0
330
1F
100
AcDbEntity
  8
0
100
AcDbLine
 10
126.8494431540751
 20
173.4353317364025
 30
0.0
 11
106.3494431540751
 21
173.4353317364025
 31
0.0
  0
LINE
  5
18F1
330
1F
100
AcDbEntity
  8
0
100
AcDbLine
 10
106.3494431540751
 20
175.9478395586834
 30
0.0
 11
126.8494431540751
 21
175.9478395586834
 31
0.0
  0
CIRCLE
  5
18F2
330
1F
100
AcDbEntity
  8
0
100
AcDbCircle
 10
119.3494431540751
 20
168.9478395586834
 30
0.0
 40
2.149999999999999
  0
ARC
  5
18F3
330
1F
100
AcDbEntity
  8
0
 62
     3
100
AcDbCircle
 10
119.3494431540751
 20
168.9478395586834
 30
0.0
 40
2.5
100
AcDbArc
 50
167.0245984412044
 51
101.5070990104355
  0
LINE
  5
18F4
330
1F
100
AcDbEntity
  8
CENTER
100
AcDbLine
 10
118.9494431540752
 20
168.9478395586834
 30
0.0
 11
119.7494431540751
 21
168.9478395586834
 31
0.0
  0
ARC
  5
192B
330
1F
100
AcDbEntity
  8
0
 62
     3
100
AcDbCircle
 10
113.8494431540751
 20
168.9478395586834
 30
0.0
 40
2.5
100
AcDbArc
 50
70.15743327007891
 51
11.60026887720033
  0
CIRCLE
  5
192C
330
1F
100
AcDbEntity
  8
0
100
AcDbCircle
 10
113.8494431540751
 20
168.9478395586834
 30
0.0
 40
2.149999999999999
  0
LINE
  5
192D
330
1F
100
AcDbEntity
  8
0
100
AcDbLine
 10
106.3494431540751
 20
173.4353317364025
 30
0.0
 11
106.3494431540751
 21
163.4478395586834
 31
0.0
  0
LINE
  5
192E
330
1F
100
AcDbEntity
  8
CENTER
100
AcDbLine
 10
113.8494431540751
 20
171.7378395586834
 30
0.0
 11
113.8494431540751
 21
169.6678395586834
 31
0.0
  0
LINE
  5
192F
330
1F
100
AcDbEntity
  8
0
100
AcDbLine
 10
106.3494431540751
 20
163.4478395586834
 30
0.0
 11
106.3494431540751
 21
156.1478395586834
 31
0.0
  0
LINE
  5
1930
330
1F
100
AcDbEntity
  8
0
100
AcDbLine
 10
106.3494431540751
 20
152.6478395586834
 30
0.0
 11
106.3494431540751
 21
153.9478395586834
 31
0.0
  0
LINE
  5
1931
330
1F
100
AcDbEntity
  8
0
100
AcDbLine
 10
106.3494431540751
 20
150.9478395586834
 30
0.0
 11
106.3494431540751
 21
152.6478395586834
 31
0.0
  0
LINE
  5
1932
330
1F
100
AcDbEntity
  8
0
100
AcDbLine
 10
106.3494431540751
 20
153.9478395586834
 30
0.0
 11
106.3494431540751
 21
156.1478395586834
 31
0.0
  0
LINE
  5
1933
330
1F
100
AcDbEntity
  8
CENTER
100
AcDbLine
 10
114.5694431540752
 20
168.9478395586834
 30
0.0
 11
117.0003626221427
 21
168.9478395586834
 31
0.0
  0
LINE
  5
1934
330
1F
100
AcDbEntity
  8
CENTER
100
AcDbLine
 10
113.8494431540751
 20
168.2278395586834
 30
0.0
 11
113.8494431540751
 21
166.1578395586834
 31
0.0
  0
LINE
  5
1935
330
1F
100
AcDbEntity
  8
CENTER
100
AcDbLine
 10
111.0594431540752
 20
168.9478395586834
 30
0.0
 11
113.1294431540751
 21
168.9478395586834
 31
0.0
  0
LINE
  5
1936
330
1F
100
AcDbEntity
  8
CENTER
100
AcDbLine
 10
114.5494431540752
 20
168.2278395586834
 30
0.0
 11
114.5494431540752
 21
167.9078395586834
 31
0.0
  0
LINE
  5
1937
330
1F
100
AcDbEntity
  8
CENTER
100
AcDbLine
 10
113.8494431540751
 20
169.3478395586834
 30
0.0
 11
113.8494431540751
 21
168.5478395586834
 31
0.0
  0
LINE
  5
1938
330
1F
100
AcDbEntity
  8
CENTER
100
AcDbLine
 10
113.4494431540751
 20
168.9478395586834
 30
0.0
 11
114.2494431540751
 21
168.9478395586834
 31
0.0
  0
LINE
  5
1939
330
1F
100
AcDbEntity
  8
CENTER
100
AcDbLine
 10
114.5494431540752
 20
169.3478395586834
 30
0.0
 11
114.5494431540752
 21
168.5478395586834
 31
0.0
  0
LINE
  5
193A
330
1F
100
AcDbEntity
  8
CENTER
100
AcDbLine
 10
113.5094431540751
 20
168.9478395586834
 30
0.0
 11
113.8294431540751
 21
168.9478395586834
 31
0.0
  0
LINE
  5
193B
330
1F
100
AcDbEntity
  8
CENTER
100
AcDbLine
 10
114.1494431540752
 20
168.9478395586834
 30
0.0
 11
114.9494431540752
 21
168.9478395586834
 31
0.0
  0
CIRCLE
  5
193C
330
1F
100
AcDbEntity
  8
0
100
AcDbCircle
 10
114.5494431540751
 20
168.9478395586834
 30
0.0
 40
0.4
  0
LINE
  5
193D
330
1F
100
AcDbEntity
  8
CENTER
100
AcDbLine
 10
114.5494431540752
 20
169.9878395586834
 30
0.0
 11
114.5494431540752
 21
169.6678395586834
 31
0.0
  0
LINE
  5
193E
330
1F
100
AcDbEntity
  8
CENTER
100
AcDbLine
 10
115.2694431540751
 20
168.9478395586834
 30
0.0
 11
115.5894431540751
 21
168.9478395586834
 31
0.0
  0
LINE
  5
193F
330
1F
100
AcDbEntity
  8
CENTER
100
AcDbLine
 10
116.5594431540752
 20
168.9478395586834
 30
0.0
 11
118.6294431540751
 21
168.9478395586834
 31
0.0
  0
CIRCLE
  5
1940
330
1F
100
AcDbEntity
  8
0
100
AcDbCircle
 10
118.6494431540752
 20
168.9478395586834
 30
0.0
 40
0.4
  0
LINE
  5
1941
330
1F
100
AcDbEntity
  8
CENTER
100
AcDbLine
 10
118.2494431540751
 20
168.9478395586834
 30
0.0
 11
119.0494431540752
 21
168.9478395586834
 31
0.0
  0
LINE
  5
1942
330
1F
100
AcDbEntity
  8
CENTER
100
AcDbLine
 10
117.6094431540751
 20
168.9478395586834
 30
0.0
 11
117.9294431540752
 21
168.9478395586834
 31
0.0
  0
LINE
  5
1943
330
1F
100
AcDbEntity
  8
CENTER
100
AcDbLine
 10
116.6394431540752
 20
168.9478395586834
 30
0.0
 11
116.6394431540752
 21
168.9478395586834
 31
0.0
  0
LINE
  5
1944
330
1F
100
AcDbEntity
  8
CENTER
100
AcDbLine
 10
118.6494431540752
 20
169.9878395586835
 30
0.0
 11
118.6494431540752
 21
169.6678395586834
 31
0.0
  0
LINE
  5
1945
330
1F
100
AcDbEntity
  8
CENTER
100
AcDbLine
 10
118.6494431540752
 20
169.3478395586834
 30
0.0
 11
118.6494431540752
 21
168.5478395586834
 31
0.0
  0
LINE
  5
1946
330
1F
100
AcDbEntity
  8
CENTER
100
AcDbLine
 10
118.6494431540752
 20
168.2278395586834
 30
0.0
 11
118.6494431540752
 21
167.9078395586834
 31
0.0
  0
LINE
  5
1947
330
1F
100
AcDbEntity
  8
0
100
AcDbLine
 10
106.3494431540751
 20
175.9478395586834
 30
0.0
 11
106.3494431540751
 21
173.4353317364025
 31
0.0
  0
LINE
  5
199F
330
1F
100
AcDbEntity
  8
CENTER
100
AcDbLine
 10
119.3494431540751
 20
171.7378395586835
 30
0.0
 11
119.3494431540751
 21
169.6678395586834
 31
0.0
  0
LINE
  5
19A0
330
1F
100
AcDbEntity
  8
0
100
AcDbLine
 10
126.8494431540751
 20
173.4353317364025
 30
0.0
 11
126.8494431540751
 21
163.4478395586834
 31
0.0
  0
LINE
  5
19A1
330
1F
100
AcDbEntity
  8
0
100
AcDbLine
 10
140.8494431540752
 20
160.9478395586834
 30
0.0
 11
139.1558130837219
 21
160.9478395586834
 31
0.0
  0
LINE
  5
19A3
330
1F
100
AcDbEntity
  8
0
100
AcDbLine
 10
126.8494431540751
 20
156.1478395586834
 30
0.0
 11
126.8494431540751
 21
163.4478395586834
 31
0.0
  0
LINE
  5
19A4
330
1F
100
AcDbEntity
  8
0
100
AcDbLine
 10
126.8494431540751
 20
153.9478395586834
 30
0.0
 11
126.8494431540751
 21
152.6478395586834
 31
0.0
  0
LINE
  5
19A5
330
1F
100
AcDbEntity
  8
0
100
AcDbLine
 10
126.8494431540751
 20
152.6478395586834
 30
0.0
 11
126.8494431540751
 21
150.9478395586834
 31
0.0
  0
LINE
  5
19A6
330
1F
100
AcDbEntity
  8
0
100
AcDbLine
 10
126.8494431540751
 20
156.1478395586834
 30
0.0
 11
126.8494431540751
 21
153.9478395586834
 31
0.0
  0
LINE
  5
19A7
330
1F
100
AcDbEntity
  8
0
100
AcDbLine
 10
128.3494431540751
 20
160.9478395586834
 30
0.0
 11
127.3494431540751
 21
160.4478395586834
 31
0.0
  0
LINE
  5
19A8
330
1F
100
AcDbEntity
  8
0
100
AcDbLine
 10
127.3494431540751
 20
166.4478395586834
 30
0.0
 11
128.3494431540751
 21
165.9478395586834
 31
0.0
  0
ELLIPSE
  5
19A9
330
1F
100
AcDbEntity
  8
0
100
AcDbEllipse
 10
133.3494431540751
 20
163.4478395586834
 30
0.0
 11
6.0
 21
0.000000000000031
 31
0.0
210
0.0
220
0.0
230
1.0
 40
0.5000000000000026
 41
2.55590711013264
 42
3.141592653589782
  0
ELLIPSE
  5
19AA
330
1F
100
AcDbEntity
  8
0
100
AcDbEllipse
 10
133.3494431540751
 20
163.4478395586834
 30
0.0
 11
6.0
 21
0.000000000000027
 31
0.0
210
0.0
220
0.0
230
-1.0
 40
0.4999999999999913
 41
2.555907110132643
 42
3.141592653589801
  0
LINE
  5
19AB
330
1F
100
AcDbEntity
  8
0
100
AcDbLine
 10
126.8494431540751
 20
163.4478395586834
 30
0.0
 11
127.3494431540751
 21
163.4478395586834
 31
0.0
  0
LINE
  5
19AC
330
1F
100
AcDbEntity
  8
0
100
AcDbLine
 10
126.8494431540751
 20
160.4478395586834
 30
0.0
 11
127.3494431540751
 21
160.4478395586834
 31
0.0
  0
LINE
  5
19AD
330
1F
100
AcDbEntity
  8
CENTER
100
AcDbLine
 10
120.0694431540751
 20
168.9478395586834
 30
0.0
 11
122.1394431540752
 21
168.9478395586834
 31
0.0
  0
LINE
  5
19AE
330
1F
100
AcDbEntity
  8
CENTER
100
AcDbLine
 10
119.3694431540751
 20
168.9478395586834
 30
0.0
 11
119.6894431540752
 21
168.9478395586834
 31
0.0
  0
LINE
  5
19AF
330
1F
100
AcDbEntity
  8
CENTER
100
AcDbLine
 10
119.3494431540751
 20
169.3478395586834
 30
0.0
 11
119.3494431540751
 21
168.5478395586834
 31
0.0
  0
LINE
  5
19B0
330
1F
100
AcDbEntity
  8
CENTER
100
AcDbLine
 10
119.3494431540751
 20
168.2278395586834
 30
0.0
 11
119.3494431540751
 21
166.1578395586834
 31
0.0
  0
LINE
  5
19B1
330
1F
100
AcDbEntity
  8
0
100
AcDbLine
 10
126.8494431540751
 20
166.4478395586834
 30
0.0
 11
127.3494431540751
 21
166.4478395586834
 31
0.0
  0
LINE
  5
19B2
330
1F
100
AcDbEntity
  8
0
100
AcDbLine
 10
128.3494431540751
 20
163.4478395586834
 30
0.0
 11
128.3494431540751
 21
165.1061519538611
 31
0.0
  0
SPLINE
  5
19B3
330
1F
100
AcDbEntity
  8
0
100
AcDbSpline
210
0.0
220
0.0
230
1.0
 70
    12
 71
     2
 72
     6
 73
     3
 74
     0
 42
0.0000000001
 43
0.0000000001
 40
0.0
 40
0.0
 40
0.0
 40
1.905337496355301
 40
1.905337496355301
 40
1.905337496355301
 10
130.4834177502907
 20
165.1061519538611
 30
0.0
 41
1.0
 10
131.3494431540751
 20
164.2016179201278
 30
0.0
 41
1.048808848170128
 10
131.3494431540751
 20
163.4478395586834
 30
0.0
 41
1.0
  0
LINE
  5
19B4
330
1F
100
AcDbEntity
  8
0
100
AcDbLine
 10
131.3494431540751
 20
163.4478395586834
 30
0.0
 11
131.3494431540751
 21
165.9478395586834
 31
0.0
  0
LINE
  5
19B5
330
1F
100
AcDbEntity
  8
0
100
AcDbLine
 10
128.3494431540751
 20
163.4478395586834
 30
0.0
 11
128.3494431540751
 21
161.7895271635058
 31
0.0
  0
LINE
  5
19B6
330
1F
100
AcDbEntity
  8
0
100
AcDbLine
 10
128.3494431540751
 20
161.7895271635058
 30
0.0
 11
130.4834177502907
 21
161.7895271635058
 31
0.0
  0
LINE
  5
19B7
330
1F
100
AcDbEntity
  8
0
100
AcDbLine
 10
130.4834177502907
 20
160.9478395586834
 30
0.0
 11
130.4834177502907
 21
161.7895271635058
 31
0.0
  0
LINE
  5
19B8
330
1F
100
AcDbEntity
  8
0
100
AcDbLine
 10
131.3494431540751
 20
161.8978395586834
 30
0.0
 11
131.3494431540751
 21
163.4478395586834
 31
0.0
  0
LINE
  5
19B9
330
1F
100
AcDbEntity
  8
0
100
AcDbLine
 10
131.3494431540751
 20
161.8978395586834
 30
0.0
 11
131.3494431540751
 21
160.9478395586834
 31
0.0
  0
SPLINE
  5
19BA
330
1F
100
AcDbEntity
  8
0
100
AcDbSpline
210
0.0
220
0.0
230
1.0
 70
    12
 71
     2
 72
     6
 73
     3
 74
     0
 42
0.0000000001
 43
0.0000000001
 40
0.0
 40
0.0
 40
0.0
 40
1.905337496355301
 40
1.905337496355301
 40
1.905337496355301
 10
130.4834177502907
 20
161.7895271635058
 30
0.0
 41
1.0
 10
131.3494431540751
 20
162.694061197239
 30
0.0
 41
1.048808848170128
 10
131.3494431540751
 20
163.4478395586834
 30
0.0
 41
1.0
  0
LINE
  5
19BB
330
1F
100
AcDbEntity
  8
0
100
AcDbLine
 10
130.4834177502907
 20
165.9478395586834
 30
0.0
 11
128.3494431540751
 21
165.9478395586834
 31
0.0
  0
LINE
  5
19BC
330
1F
100
AcDbEntity
  8
0
100
AcDbLine
 10
128.3494431540751
 20
165.1061519538611
 30
0.0
 11
130.4834177502907
 21
165.1061519538611
 31
0.0
  0
LINE
  5
19BD
330
1F
100
AcDbEntity
  8
0
100
AcDbLine
 10
130.4834177502907
 20
165.9478395586834
 30
0.0
 11
130.4834177502907
 21
165.1061519538611
 31
0.0
  0
LINE
  5
19BE
330
1F
100
AcDbEntity
  8
0
100
AcDbLine
 10
126.8494431540751
 20
173.4353317364025
 30
0.0
 11
126.8494431540751
 21
175.9478395586834
 31
0.0
  0
LINE
  5
19BF
330
1F
100
AcDbEntity
  8
0
100
AcDbLine
 10
206.9701477805683
 20
173.4353317364025
 30
0.0
 11
206.9701477805683
 21
153.4603473809643
 31
0.0
  0
ARC
  5
19C0
330
1F
100
AcDbEntity
  8
0
100
AcDbCircle
 10
219.4701477805683
 20
163.4478395586834
 30
0.0
 40
16.0
100
AcDbArc
 50
218.624832873053
 51
231.375167126947
  0
ARC
  5
19C1
330
1F
100
AcDbEntity
  8
0
 62
     3
100
AcDbCircle
 10
211.3201477805684
 20
155.2978395586834
 30
0.0
 40
2.5
100
AcDbArc
 50
167.5924444542742
 51
108.5369458168591
  0
LINE
  5
19C3
330
1F
100
AcDbEntity
  8
CENTER
100
AcDbLine
 10
211.3201477805684
 20
154.5778395586834
 30
0.0
 11
211.3201477805684
 21
151.4078395586834
 31
0.0
  0
LINE
  5
19C4
330
1F
100
AcDbEntity
  8
CENTER
100
AcDbLine
 10
207.4301477805684
 20
155.2978395586834
 30
0.0
 11
210.6001477805684
 21
155.2978395586834
 31
0.0
  0
LINE
  5
19C5
330
1F
100
AcDbEntity
  8
CENTER
100
AcDbLine
 10
211.3201477805684
 20
155.6978395586834
 30
0.0
 11
211.3201477805684
 21
154.8978395586834
 31
0.0
  0
LINE
  5
19C6
330
1F
100
AcDbEntity
  8
CENTER
100
AcDbLine
 10
211.3201477805684
 20
159.1878395586834
 30
0.0
 11
211.3201477805684
 21
156.0178395586834
 31
0.0
  0
LINE
  5
19C7
330
1F
100
AcDbEntity
  8
CENTER
100
AcDbLine
 10
210.9201477805684
 20
155.2978395586834
 30
0.0
 11
211.7201477805683
 21
155.2978395586834
 31
0.0
  0
LINE
  5
19C8
330
1F
100
AcDbEntity
  8
0
100
AcDbLine
 10
212.7701477805684
 20
175.9478395586834
 30
0.0
 11
209.4826556028492
 21
175.9478395586834
 31
0.0
  0
ARC
  5
19C9
330
1F
100
AcDbEntity
  8
0
100
AcDbCircle
 10
219.4701477805683
 20
163.4478395586834
 30
0.0
 40
16.0
100
AcDbArc
 50
128.6248328730529
 51
141.3751671269469
  0
LINE
  5
19CA
330
1F
100
AcDbEntity
  8
0
100
AcDbLine
 10
212.3201477805685
 20
175.0478395586834
 30
0.0
 11
212.7701477805684
 21
175.5478395586834
 31
0.0
  0
LINE
  5
19CB
330
1F
100
AcDbEntity
  8
0
100
AcDbLine
 10
212.3201477805685
 20
172.9478395586834
 30
0.0
 11
212.3201477805685
 21
175.0478395586834
 31
0.0
  0
LINE
  5
19CC
330
1F
100
AcDbEntity
  8
0
100
AcDbLine
 10
212.7701477805684
 20
175.5478395586834
 30
0.0
 11
212.7701477805684
 21
175.9478395586834
 31
0.0
  0
ARC
  5
19CD
330
1F
100
AcDbEntity
  8
0
100
AcDbCircle
 10
214.0201477805684
 20
172.9478395586834
 30
0.0
 40
1.7
100
AcDbArc
 50
180.0
 51
270.0
  0
LINE
  5
19CE
330
1F
100
AcDbEntity
  8
0
100
AcDbLine
 10
231.9701477805683
 20
166.4478395586834
 30
0.0
 11
231.9701477805683
 21
173.4353317364025
 31
0.0
  0
LINE
  5
19CF
330
1F
100
AcDbEntity
  8
CENTER
100
AcDbLine
 10
227.6201477805684
 20
170.8778395586834
 30
0.0
 11
227.6201477805684
 21
167.7078395586834
 31
0.0
  0
LINE
  5
19D0
330
1F
100
AcDbEntity
  8
CENTER
100
AcDbLine
 10
219.4701477805683
 20
171.0878395586834
 30
0.0
 11
219.4701477805683
 21
164.1678395586834
 31
0.0
  0
ARC
  5
19D1
330
1F
100
AcDbEntity
  8
0
 62
     3
100
AcDbCircle
 10
227.6201477805684
 20
171.5978395586834
 30
0.0
 40
2.5
100
AcDbArc
 50
162.7197645717144
 51
110.6713904185971
  0
CIRCLE
  5
19D3
330
1F
100
AcDbEntity
  8
0
100
AcDbCircle
 10
227.6201477805684
 20
171.5978395586834
 30
0.0
 40
3.25
  0
LINE
  5
19D4
330
1F
100
AcDbEntity
  8
0
100
AcDbLine
 10
228.9701477805683
 20
166.4478395586834
 30
0.0
 11
231.9701477805683
 21
166.4478395586834
 31
0.0
  0
ARC
  5
19D5
330
1F
100
AcDbEntity
  8
0
100
AcDbCircle
 10
219.4701477805683
 20
163.4478395586834
 30
0.0
 40
16.0
100
AcDbArc
 50
308.624832873053
 51
321.3751671269469
  0
LINE
  5
19D6
330
1F
100
AcDbEntity
  8
0
100
AcDbLine
 10
231.9701477805683
 20
159.1478395586834
 30
0.0
 11
230.2701477805684
 21
159.1478395586834
 31
0.0
  0
ARC
  5
19D7
330
1F
100
AcDbEntity
  8
0
100
AcDbCircle
 10
220.482118563742
 20
159.3799302778394
 30
0.0
 40
1.7
100
AcDbArc
 50
277.1733017954321
 51
11.72200234764273
  0
ARC
  5
19D8
330
1F
100
AcDbEntity
  8
0
100
AcDbCircle
 10
219.9701477805684
 20
163.4478395586834
 30
0.0
 40
5.800000000000011
100
AcDbArc
 50
82.82669820456792
 51
277.1733017954321
  0
LINE
  5
19D9
330
1F
100
AcDbEntity
  8
CENTER
100
AcDbLine
 10
219.4701477805683
 20
162.7278395586834
 30
0.0
 11
219.4701477805683
 21
155.8078395586834
 31
0.0
  0
LINE
  5
19DA
330
1F
100
AcDbEntity
  8
0
100
AcDbLine
 10
228.9701477805683
 20
157.4478395586834
 30
0.0
 11
228.9701477805683
 21
166.4478395586834
 31
0.0
  0
CIRCLE
  5
19DB
330
1F
100
AcDbEntity
  8
0
100
AcDbCircle
 10
223.81121110604
 20
160.0706855491296
 30
0.0
 40
0.85
  0
LINE
  5
19DC
330
1F
100
AcDbEntity
  8
0
100
AcDbLine
 10
216.4701477805683
 20
153.9478395586835
 30
0.0
 11
225.4701477805683
 21
153.9478395586834
 31
0.0
  0
LINE
  5
19DD
330
1F
100
AcDbEntity
  8
0
100
AcDbLine
 10
216.4701477805683
 20
150.9478395586834
 30
0.0
 11
216.4701477805683
 21
153.9478395586835
 31
0.0
  0
LINE
  5
19DE
330
1F
100
AcDbEntity
  8
0
100
AcDbLine
 10
225.4701477805683
 20
153.9478395586834
 30
0.0
 11
225.4701477805683
 21
152.6478395586834
 31
0.0
  0
LINE
  5
19DF
330
1F
100
AcDbEntity
  8
0
100
AcDbLine
 10
223.7701477805684
 20
150.9478395586834
 30
0.0
 11
229.4576399582875
 21
150.9478395586834
 31
0.0
  0
LINE
  5
19E0
330
1F
100
AcDbEntity
  8
0
100
AcDbLine
 10
223.7701477805684
 20
152.6478395586834
 30
0.0
 11
223.7701477805684
 21
150.9478395586834
 31
0.0
  0
LINE
  5
19E1
330
1F
100
AcDbEntity
  8
0
100
AcDbLine
 10
225.4701477805683
 20
152.6478395586834
 30
0.0
 11
223.7701477805684
 21
152.6478395586834
 31
0.0
  0
LINE
  5
19E2
330
1F
100
AcDbEntity
  8
0
100
AcDbLine
 10
230.2701477805684
 20
159.1478395586834
 30
0.0
 11
230.2701477805684
 21
157.4478395586834
 31
0.0
  0
LINE
  5
19E3
330
1F
100
AcDbEntity
  8
0
100
AcDbLine
 10
230.2701477805684
 20
157.4478395586834
 30
0.0
 11
228.9701477805683
 21
157.4478395586834
 31
0.0
  0
ARC
  5
19E4
330
1F
100
AcDbEntity
  8
0
100
AcDbCircle
 10
223.81121110604
 20
166.8249935682372
 30
0.0
 40
1.7
100
AcDbArc
 50
168.2779976523556
 51
289.8768740700806
  0
ARC
  5
19E6
330
1F
100
AcDbEntity
  8
0
100
AcDbCircle
 10
219.4701477805683
 20
163.4478395586834
 30
0.0
 40
3.0
100
AcDbArc
 50
326.4426902380802
 51
33.55730976191978
  0
CIRCLE
  5
19E7
330
1F
100
AcDbEntity
  8
0
100
AcDbCircle
 10
219.4701477805683
 20
163.4478395586834
 30
0.0
 40
3.2
  0
LINE
  5
19E9
330
1F
100
AcDbEntity
  8
CENTER
100
AcDbLine
 10
220.1901477805683
 20
163.4478395586834
 30
0.0
 11
227.1101477805684
 21
163.4478395586834
 31
0.0
  0
ARC
  5
19EA
330
1F
100
AcDbEntity
  8
0
100
AcDbCircle
 10
220.482118563742
 20
167.5157488395274
 30
0.0
 40
1.7
100
AcDbArc
 50
348.2779976523556
 51
82.82669820456792
  0
ARC
  5
19EB
330
1F
100
AcDbEntity
  8
0
100
AcDbCircle
 10
223.81121110604
 20
160.0706855491296
 30
0.0
 40
1.7
100
AcDbArc
 50
70.12312592991928
 51
191.7220023476443
  0
SPLINE
  5
19EC
330
1F
100
AcDbEntity
  8
0
100
AcDbSpline
210
0.0
220
0.0
230
1.0
 70
    28
 71
     2
 72
     6
 73
     3
 74
     0
 42
0.0000000001
 43
0.0000000001
 40
1.905337496355302
 40
1.905337496355302
 40
1.905337496355302
 40
3.810674992710604
 40
3.810674992710604
 40
3.810674992710604
 10
221.9701477805683
 20
163.4478395586834
 30
0.0
 41
1.0
 10
221.9701477805683
 20
164.2016179201278
 30
0.0
 41
1.048808848170128
 10
221.9701477805683
 20
165.1061519538611
 30
0.0
 41
1.0
  0
SPLINE
  5
19ED
330
1F
100
AcDbEntity
  8
0
100
AcDbSpline
210
0.0
220
0.0
230
1.0
 70
    28
 71
     2
 72
     6
 73
     3
 74
     0
 42
0.0000000001
 43
0.0000000001
 40
0.0
 40
0.0
 40
0.0
 40
1.905337496355301
 40
1.905337496355301
 40
1.905337496355301
 10
216.9701477805683
 20
165.1061519538611
 30
0.0
 41
1.0
 10
216.9701477805683
 20
164.2016179201278
 30
0.0
 41
1.048808848170128
 10
216.9701477805683
 20
163.4478395586834
 30
0.0
 41
1.0
  0
ARC
  5
19EE
330
1F
100
AcDbEntity
  8
0
100
AcDbCircle
 10
219.4701477805683
 20
163.4478395586834
 30
0.0
 40
3.0
100
AcDbArc
 50
146.4426902380802
 51
213.5573097619198
  0
SPLINE
  5
19F1
330
1F
100
AcDbEntity
  8
0
100
AcDbSpline
210
0.0
220
0.0
230
1.0
 70
    28
 71
     2
 72
     6
 73
     3
 74
     0
 42
0.0000000001
 43
0.0000000001
 40
0.0
 40
0.0
 40
0.0
 40
1.905337496355301
 40
1.905337496355301
 40
1.905337496355301
 10
217.8118353853907
 20
160.9478395586834
 30
0.0
 41
1.0
 10
218.716369419124
 20
160.9478395586834
 30
0.0
 41
1.048808848170128
 10
219.4701477805685
 20
160.9478395586834
 30
0.0
 41
1.0
  0
ARC
  5
19F2
330
1F
100
AcDbEntity
  8
0
100
AcDbCircle
 10
219.4701477805683
 20
163.4478395586834
 30
0.0
 40
3.0
100
AcDbArc
 50
236.4426902380806
 51
303.5573097619197
  0
ARC
  5
19F4
330
1F
100
AcDbEntity
  8
0
100
AcDbCircle
 10
219.4701477805683
 20
163.4478395586834
 30
0.0
 40
3.0
100
AcDbArc
 50
213.5573097619198
 51
236.4426902380806
  0
SPLINE
  5
19F5
330
1F
100
AcDbEntity
  8
0
100
AcDbSpline
210
0.0
220
0.0
230
1.0
 70
    28
 71
     2
 72
     6
 73
     3
 74
     0
 42
0.0000000001
 43
0.0000000001
 40
1.905337496355301
 40
1.905337496355301
 40
1.905337496355301
 40
3.810674992710603
 40
3.810674992710603
 40
3.810674992710603
 10
216.9701477805683
 20
163.4478395586834
 30
0.0
 41
1.0
 10
216.9701477805683
 20
162.694061197239
 30
0.0
 41
1.048808848170145
 10
216.9701477805684
 20
161.7895271635058
 30
0.0
 41
1.0
  0
ARC
  5
19F6
330
1F
100
AcDbEntity
  8
0
100
AcDbCircle
 10
219.4701477805683
 20
163.4478395586834
 30
0.0
 40
3.0
100
AcDbArc
 50
303.5573097619197
 51
326.4426902380802
  0
SPLINE
  5
19F7
330
1F
100
AcDbEntity
  8
0
100
AcDbSpline
210
0.0
220
0.0
230
1.0
 70
    28
 71
     2
 72
     6
 73
     3
 74
     0
 42
0.0000000001
 43
0.0000000001
 40
1.905337496355301
 40
1.905337496355301
 40
1.905337496355301
 40
3.810674992710604
 40
3.810674992710604
 40
3.810674992710604
 10
219.4701477805685
 20
160.9478395586834
 30
0.0
 41
1.0
 10
220.2239261420129
 20
160.9478395586834
 30
0.0
 41
1.048808848170145
 10
221.1284601757461
 20
160.9478395586834
 30
0.0
 41
1.0
  0
SPLINE
  5
19F8
330
1F
100
AcDbEntity
  8
0
100
AcDbSpline
210
0.0
220
0.0
230
1.0
 70
    28
 71
     2
 72
     6
 73
     3
 74
     0
 42
0.0000000001
 43
0.0000000001
 40
0.0
 40
0.0
 40
0.0
 40
1.905337496355302
 40
1.905337496355302
 40
1.905337496355302
 10
221.9701477805684
 20
161.7895271635058
 30
0.0
 41
1.0
 10
221.9701477805684
 20
162.694061197239
 30
0.0
 41
1.048808848170145
 10
221.9701477805683
 20
163.4478395586834
 30
0.0
 41
1.0
  0
LINE
  5
19F9
330
1F
100
AcDbEntity
  8
CENTER
100
AcDbLine
 10
219.0701477805685
 20
163.4478395586834
 30
0.0
 11
219.8701477805684
 21
163.4478395586834
 31
0.0
  0
LINE
  5
19FA
330
1F
100
AcDbEntity
  8
CENTER
100
AcDbLine
 10
219.4701477805683
 20
163.8478395586834
 30
0.0
 11
219.4701477805683
 21
163.0478395586834
 31
0.0
  0
SPLINE
  5
19FC
330
1F
100
AcDbEntity
  8
0
100
AcDbSpline
210
0.0
220
0.0
230
1.0
 70
    28
 71
     2
 72
     6
 73
     3
 74
     0
 42
0.0000000001
 43
0.0000000001
 40
0.0
 40
0.0
 40
0.0
 40
1.905337496355302
 40
1.905337496355302
 40
1.905337496355302
 10
217.8118353853907
 20
165.9478395586834
 30
0.0
 41
1.0
 10
218.716369419124
 20
165.9478395586834
 30
0.0
 41
1.048808848170119
 10
219.4701477805683
 20
165.9478395586834
 30
0.0
 41
1.0
  0
ARC
  5
19FD
330
1F
100
AcDbEntity
  8
0
100
AcDbCircle
 10
219.4701477805683
 20
163.4478395586834
 30
0.0
 40
3.0
100
AcDbArc
 50
56.44269023808021
 51
123.5573097619193
  0
ARC
  5
19FE
330
1F
100
AcDbEntity
  8
0
100
AcDbCircle
 10
219.4701477805683
 20
163.4478395586834
 30
0.0
 40
3.0
100
AcDbArc
 50
123.5573097619193
 51
146.4426902380802
  0
SPLINE
  5
19FF
330
1F
100
AcDbEntity
  8
0
100
AcDbSpline
210
0.0
220
0.0
230
1.0
 70
    28
 71
     2
 72
     6
 73
     3
 74
     0
 42
0.0000000001
 43
0.0000000001
 40
1.905337496355302
 40
1.905337496355302
 40
1.905337496355302
 40
3.810674992710604
 40
3.810674992710604
 40
3.810674992710604
 10
219.4701477805683
 20
165.9478395586834
 30
0.0
 41
1.0
 10
220.2239261420128
 20
165.9478395586834
 30
0.0
 41
1.048808848170119
 10
221.1284601757461
 20
165.9478395586834
 30
0.0
 41
1.0
  0
ARC
  5
1A00
330
1F
100
AcDbEntity
  8
0
100
AcDbCircle
 10
219.4701477805683
 20
163.4478395586834
 30
0.0
 40
3.0
100
AcDbArc
 50
33.55730976191978
 51
56.44269023808067
  0
ARC
  5
1A01
330
1F
100
AcDbEntity
  8
0
100
AcDbCircle
 10
219.4701477805683
 20
163.4478395586834
 30
0.0
 40
6.8
100
AcDbArc
 50
0.0
 51
19.87687407007918
  0
ARC
  5
1A02
330
1F
100
AcDbEntity
  8
0
100
AcDbCircle
 10
219.4701477805683
 20
163.4478395586834
 30
0.0
 40
6.8
100
AcDbArc
 50
340.1231259299208
 51
0.0000000000016284
  0
LINE
  5
1A03
330
1F
100
AcDbEntity
  8
0
100
AcDbLine
 10
224.38921110604
 20
161.6694087897188
 30
0.0
 11
226.0531258300533
 21
161.0678395586834
 31
0.0
  0
CIRCLE
  5
1A04
330
1F
100
AcDbEntity
  8
0
100
AcDbCircle
 10
223.81121110604
 20
166.8249935682372
 30
0.0
 40
0.85
  0
LINE
  5
1A05
330
1F
100
AcDbEntity
  8
0
100
AcDbLine
 10
226.0531258300533
 20
165.8278395586834
 30
0.0
 11
224.38921110604
 21
165.226270327648
 31
0.0
  0
LINE
  5
1A06
330
1F
100
AcDbEntity
  8
0
100
AcDbLine
 10
231.9701477805683
 20
153.4603473809643
 30
0.0
 11
231.9701477805683
 21
159.1478395586834
 31
0.0
  0
LINE
  5
1A07
330
1F
100
AcDbEntity
  8
CENTER
100
AcDbLine
 10
228.3401477805684
 20
171.5978395586834
 30
0.0
 11
231.5101477805684
 21
171.5978395586834
 31
0.0
  0
ARC
  5
1A08
330
1F
100
AcDbEntity
  8
0
100
AcDbCircle
 10
219.4701477805683
 20
163.4478395586834
 30
0.0
 40
16.0
100
AcDbArc
 50
38.624832873053
 51
51.375167126947
  0
ARC
  5
1A09
330
1F
100
AcDbEntity
  8
0
100
AcDbCircle
 10
221.6201477805684
 20
172.9478395586834
 30
0.0
 40
1.7
100
AcDbArc
 50
270.0
 51
0.0
  0
LINE
  5
1A0A
330
1F
100
AcDbEntity
  8
0
100
AcDbLine
 10
219.4701477805683
 20
175.9478395586834
 30
0.0
 11
216.1701477805684
 21
175.9478395586834
 31
0.0
  0
LINE
  5
1A0B
330
1F
100
AcDbEntity
  8
0
100
AcDbLine
 10
216.1701477805684
 20
175.5478395586834
 30
0.0
 11
216.6201477805684
 21
175.0478395586834
 31
0.0
  0
LINE
  5
1A0C
330
1F
100
AcDbEntity
  8
0
100
AcDbLine
 10
216.6201477805684
 20
175.0478395586834
 30
0.0
 11
216.6201477805684
 21
172.9478395586834
 31
0.0
  0
LINE
  5
1A0D
330
1F
100
AcDbEntity
  8
0
100
AcDbLine
 10
216.1701477805684
 20
175.9478395586834
 30
0.0
 11
216.1701477805684
 21
175.5478395586834
 31
0.0
  0
ARC
  5
1A0E
330
1F
100
AcDbEntity
  8
0
100
AcDbCircle
 10
214.9201477805684
 20
172.9478395586834
 30
0.0
 40
1.7
100
AcDbArc
 50
270.0
 51
0.0
  0
LINE
  5
1A0F
330
1F
100
AcDbEntity
  8
0
100
AcDbLine
 10
219.0201477805684
 20
175.0478395586834
 30
0.0
 11
219.4701477805683
 21
175.5478395586834
 31
0.0
  0
LINE
  5
1A10
330
1F
100
AcDbEntity
  8
0
100
AcDbLine
 10
219.0201477805684
 20
172.9478395586834
 30
0.0
 11
219.0201477805684
 21
175.0478395586834
 31
0.0
  0
LINE
  5
1A11
330
1F
100
AcDbEntity
  8
0
100
AcDbLine
 10
219.4701477805683
 20
175.5478395586834
 30
0.0
 11
219.4701477805683
 21
175.9478395586834
 31
0.0
  0
LINE
  5
1A12
330
1F
100
AcDbEntity
  8
0
100
AcDbLine
 10
221.6201477805684
 20
171.2478395586835
 30
0.0
 11
220.7201477805683
 21
171.2478395586835
 31
0.0
  0
ARC
  5
1A13
330
1F
100
AcDbEntity
  8
0
100
AcDbCircle
 10
220.7201477805683
 20
172.9478395586834
 30
0.0
 40
1.7
100
AcDbArc
 50
180.0
 51
270.0
  0
LINE
  5
1A14
330
1F
100
AcDbEntity
  8
CENTER
100
AcDbLine
 10
223.7301477805684
 20
171.5978395586834
 30
0.0
 11
226.9001477805684
 21
171.5978395586834
 31
0.0
  0
LINE
  5
1A15
330
1F
100
AcDbEntity
  8
0
100
AcDbLine
 10
229.4576399582874
 20
175.9478395586834
 30
0.0
 11
222.8701477805684
 21
175.9478395586834
 31
0.0
  0
LINE
  5
1A16
330
1F
100
AcDbEntity
  8
0
100
AcDbLine
 10
223.3201477805685
 20
175.0478395586834
 30
0.0
 11
223.3201477805685
 21
172.9478395586834
 31
0.0
  0
LINE
  5
1A17
330
1F
100
AcDbEntity
  8
0
100
AcDbLine
 10
222.8701477805684
 20
175.9478395586834
 30
0.0
 11
222.8701477805684
 21
175.5478395586834
 31
0.0
  0
LINE
  5
1A18
330
1F
100
AcDbEntity
  8
0
100
AcDbLine
 10
222.8701477805684
 20
175.5478395586834
 30
0.0
 11
223.3201477805685
 21
175.0478395586834
 31
0.0
  0
LINE
  5
1A19
330
1F
100
AcDbEntity
  8
CENTER
100
AcDbLine
 10
227.6201477805684
 20
175.4878395586835
 30
0.0
 11
227.6201477805684
 21
172.3178395586834
 31
0.0
  0
LINE
  5
1A1A
330
1F
100
AcDbEntity
  8
CENTER
100
AcDbLine
 10
227.2201477805683
 20
171.5978395586834
 30
0.0
 11
228.0201477805684
 21
171.5978395586834
 31
0.0
  0
LINE
  5
1A1B
330
1F
100
AcDbEntity
  8
CENTER
100
AcDbLine
 10
227.6201477805684
 20
171.9978395586835
 30
0.0
 11
227.6201477805684
 21
171.1978395586834
 31
0.0
  0
LINE
  5
1A1C
330
1F
100
AcDbEntity
  8
0
100
AcDbLine
 10
141.3494431540752
 20
165.4478395586834
 30
0.0
 11
141.3494431540752
 21
161.4478395586834
 31
0.0
  0
LINE
  5
1A1D
330
1F
100
AcDbEntity
  8
0
100
AcDbLine
 10
141.3494431540752
 20
161.4478395586834
 30
0.0
 11
140.8494431540752
 21
160.9478395586834
 31
0.0
  0
LINE
  5
1A1E
330
1F
100
AcDbEntity
  8
0
100
AcDbLine
 10
130.4834177502907
 20
165.9478395586834
 30
0.0
 11
135.1558130837219
 21
165.9478395586833
 31
0.0
  0
LINE
  5
1A1F
330
1F
100
AcDbEntity
  8
0
100
AcDbLine
 10
140.8494431540752
 20
165.9478395586834
 30
0.0
 11
141.3494431540752
 21
165.4478395586834
 31
0.0
  0
LINE
  5
1A20
330
1F
100
AcDbEntity
  8
0
100
AcDbLine
 10
140.8494431540752
 20
165.9478395586834
 30
0.0
 11
140.8494431540752
 21
160.9478395586834
 31
0.0
  0
LINE
  5
1A21
330
1F
100
AcDbEntity
  8
0
 62
     3
100
AcDbLine
 10
132.3494431540752
 20
165.5478395586834
 30
0.0
 11
135.1558130837219
 21
165.5478395586835
 31
0.0
  0
LINE
  5
1A22
330
1F
100
AcDbEntity
  8
0
 62
     3
100
AcDbLine
 10
141.2494431540752
 20
161.3478395586834
 30
0.0
 11
139.1558130837219
 21
161.3478395586834
 31
0.0
  0
LINE
  5
1A23
330
1F
100
AcDbEntity
  8
0
100
AcDbLine
 10
132.3494431540752
 20
165.9478395586834
 30
0.0
 11
132.3494431540752
 21
160.9478395586834
 31
0.0
  0
LINE
  5
1A24
330
1F
100
AcDbEntity
  8
0
100
AcDbLine
 10
132.3494431540752
 20
165.5478395586834
 30
0.0
 11
131.9494431540753
 21
165.9478395586834
 31
0.0
  0
LINE
  5
1A25
330
1F
100
AcDbEntity
  8
0
100
AcDbLine
 10
132.3494431540752
 20
161.3478395586834
 30
0.0
 11
131.9494431540753
 21
160.9478395586834
 31
0.0
  0
ARC
  5
1A3C
330
1F
100
AcDbEntity
  8
0
100
AcDbCircle
 10
143.1558130837219
 20
163.4478395586834
 30
0.0
 40
7.999999999999971
100
AcDbArc
 50
163.2213451190393
 51
196.7786548809606
  0
ARC
  5
1A3D
330
1F
100
AcDbEntity
  8
0
100
AcDbCircle
 10
131.1558130837219
 20
163.4478395586834
 30
0.0
 40
7.999999999999971
100
AcDbArc
 50
343.2213451190393
 51
16.77865488096074
  0
LINE
  5
1A3E
330
1F
100
AcDbEntity
  8
0
100
AcDbLine
 10
135.1558130837219
 20
166.9119411738211
 30
0.0
 11
135.1558130837219
 21
159.9837379435456
 31
0.0
  0
LINE
  5
1A3F
330
1F
100
AcDbEntity
  8
0
100
AcDbLine
 10
139.1558130837219
 20
166.9119411738211
 30
0.0
 11
139.1558130837219
 21
159.9837379435456
 31
0.0
  0
ARC
  5
1A40
330
1F
100
AcDbEntity
  8
0
100
AcDbCircle
 10
137.1558130837219
 20
159.9837379435457
 30
0.0
 40
2.0
100
AcDbArc
 50
144.7356103172452
 51
204.7356103172363
  0
ARC
  5
1A41
330
1F
100
AcDbEntity
  8
0
100
AcDbCircle
 10
137.1558130837219
 20
159.9837379435457
 30
0.0
 40
2.0
100
AcDbArc
 50
335.2643896827636
 51
35.26438968275471
  0
LINE
  5
1A42
330
1F
100
AcDbEntity
  8
0
100
AcDbLine
 10
135.5228199218664
 20
158.8290374051663
 30
0.0
 11
135.339316502794
 21
159.1468746503625
 31
0.0
  0
LINE
  5
1A43
330
1F
100
AcDbEntity
  8
0
100
AcDbLine
 10
138.7888062455773
 20
158.8290374051663
 30
0.0
 11
138.9723096646497
 21
159.1468746503625
 31
0.0
  0
LINE
  5
1A44
330
1F
100
AcDbEntity
  8
0
100
AcDbLine
 10
135.5228199218664
 20
158.8290374051664
 30
0.0
 11
138.7888062455773
 21
158.8290374051664
 31
0.0
  0
LINE
  5
1A45
330
1F
100
AcDbEntity
  8
0
100
AcDbLine
 10
135.4963962216712
 20
161.1384384819249
 30
0.0
 11
138.8152299457726
 21
161.1384384819249
 31
0.0
  0
LINE
  5
1A46
330
1F
100
AcDbEntity
  8
0
100
AcDbLine
 10
135.5228199218664
 20
168.0666417122004
 30
0.0
 11
135.339316502794
 21
167.7488044670043
 31
0.0
  0
LINE
  5
1A47
330
1F
100
AcDbEntity
  8
0
100
AcDbLine
 10
138.7888062455773
 20
168.0666417122004
 30
0.0
 11
138.9723096646497
 21
167.7488044670043
 31
0.0
  0
LINE
  5
1A48
330
1F
100
AcDbEntity
  8
0
100
AcDbLine
 10
135.5228199218664
 20
168.0666417122004
 30
0.0
 11
138.7888062455773
 21
168.0666417122004
 31
0.0
  0
LINE
  5
1A49
330
1F
100
AcDbEntity
  8
0
100
AcDbLine
 10
135.4963962216712
 20
165.7572406354419
 30
0.0
 11
138.8152299457726
 21
165.7572406354419
 31
0.0
  0
ARC
  5
1A4A
330
1F
100
AcDbEntity
  8
0
100
AcDbCircle
 10
137.1558130837219
 20
166.9119411738211
 30
0.0
 40
2.0
100
AcDbArc
 50
155.2643896827637
 51
215.2643896827547
  0
ARC
  5
1A4B
330
1F
100
AcDbEntity
  8
0
100
AcDbCircle
 10
137.1558130837219
 20
166.9119411738211
 30
0.0
 40
2.0
100
AcDbArc
 50
324.7356103172453
 51
24.73561031723628
  0
LINE
  5
1A4C
330
1F
100
AcDbEntity
  8
0
100
AcDbLine
 10
139.1558130837218
 20
165.9478395586833
 30
0.0
 11
140.8494431540752
 21
165.9478395586834
 31
0.0
  0
LINE
  5
1A4D
330
1F
100
AcDbEntity
  8
0
 62
     3
100
AcDbLine
 10
139.1558130837219
 20
165.5478395586835
 30
0.0
 11
141.2494431540753
 21
165.5478395586834
 31
0.0
  0
LINE
  5
1A4E
330
1F
100
AcDbEntity
  8
0
 62
     3
100
AcDbLine
 10
135.1558130837219
 20
161.3478395586834
 30
0.0
 11
132.3494431540752
 21
161.3478395586834
 31
0.0
  0
LINE
  5
1A4F
330
1F
100
AcDbEntity
  8
0
100
AcDbLine
 10
135.1558130837219
 20
160.9478395586834
 30
0.0
 11
128.3494431540751
 21
160.9478395586834
 31
0.0
  0
DIMENSION
  5
1A51
330
1F
100
AcDbEntity
  8
DIM
100
AcDbDimension
  2
*D1
 10
106.3494431540751
 20
188.044989330305
 30
0.0
 11
89.63515743978945
 21
190.544989330305
 31
0.0
 70
    32
  1
<>+ST.
  3
ISO-25-1
100
AcDbAlignedDimension
 13
126.8494431540751
 23
175.9478395586834
 33
0.0
 14
106.3494431540751
 24
175.9478395586834
 34
0.0
100
AcDbRotatedDimension
  0
DIMENSION
  5
1A5F
330
1F
100
AcDbEntity
  8
DIM
100
AcDbDimension
  2
*D2
 10
126.8494431540751
 20
180.7202595892399
 30
0.0
 11
123.0994431540751
 21
180.7202595892399
 31
0.0
 70
   160
  3
ISO-25-1
100
AcDbAlignedDimension
 13
119.3494431540751
 23
171.7378395586835
 33
0.0
 14
126.8494431540751
 24
175.9478395586834
 34
0.0
100
AcDbRotatedDimension
  0
DIMENSION
  5
1A6E
330
1F
100
AcDbEntity
  8
DIM
100
AcDbDimension
  2
*D3
 10
106.3494431540751
 20
180.7202595892399
 30
0.0
 11
110.0994431540751
 21
180.7202595892399
 31
0.0
 70
   160
  3
ISO-25-1
100
AcDbAlignedDimension
 13
113.8494431540751
 23
171.7378395586834
 33
0.0
 14
106.3494431540751
 24
175.9478395586834
 34
0.0
100
AcDbRotatedDimension
  0
DIMENSION
  5
1A7D
330
1F
100
AcDbEntity
  8
DIM
100
AcDbDimension
  2
*D4
 10
126.8494431540751
 20
188.044989330305
 30
0.0
 11
134.0994431540752
 21
190.544989330305
 31
0.0
 70
    32
  3
ISO-25-1
100
AcDbAlignedDimension
 13
141.3494431540752
 23
165.4478395586834
 33
0.0
 14
126.8494431540751
 24
188.044989330305
 34
0.0
100
AcDbRotatedDimension
  0
DIMENSION
  5
1A8A
330
1F
100
AcDbEntity
  8
DIM
100
AcDbDimension
  2
*D5
 10
106.3494431540751
 20
195.7915908705267
 30
0.0
 11
123.8494431540752
 21
198.2915908705267
 31
0.0
 70
    32
  3
ISO-25-1
100
AcDbAlignedDimension
 13
141.3494431540752
 23
165.4478395586834
 33
0.0
 14
106.3494431540751
 24
175.9478395586834
 34
0.0
100
AcDbRotatedDimension
  0
DIMENSION
  5
1A97
330
1F
100
AcDbEntity
  8
DIM
100
AcDbDimension
  2
*D6
 10
149.8098564019099
 20
160.4478395586834
 30
0.0
 11
149.8098564019098
 21
163.4478395586834
 31
0.0
 70
   160
  1
%%c<>
  3
ISO-25-1
100
AcDbAlignedDimension
 13
127.3494431540751
 23
166.4478395586834
 33
0.0
 14
127.3494431540751
 24
160.4478395586834
 34
0.0
 50
90.0
100
AcDbRotatedDimension
  0
DIMENSION
  5
1AB1
330
1F
100
AcDbEntity
  8
DIM
100
AcDbDimension
  2
*D7
 10
201.1989716129676
 20
155.2978395586834
 30
0.0
 11
198.6989716129676
 21
163.4478395586834
 31
0.0
 70
    32
  1
\U+25A1<>
  3
ISO-25-1
100
AcDbAlignedDimension
 13
224.3701477805684
 23
171.5978395586834
 33
0.0
 14
207.4301477805684
 24
155.2978395586834
 34
0.0
 50
90.0
100
AcDbRotatedDimension
  0
DIMENSION
  5
1ABE
330
1F
100
AcDbEntity
  8
DIM
100
AcDbDimension
  2
*D8
 10
193.3833279638563
 20
150.9478395586834
 30
0.0
 11
190.8833279638563
 21
163.4478395586834
 31
0.0
 70
    32
  1
\U+25A1<>
  3
ISO-25-1
100
AcDbAlignedDimension
 13
209.4826556028492
 23
175.9478395586834
 33
0.0
 14
209.4826556028492
 24
150.9478395586834
 34
0.0
 50
90.0
100
AcDbRotatedDimension
  0
DIMENSION
  5
1ADD
330
1F
100
AcDbEntity
  8
DIM
100
AcDbDimension
  2
*D9
 10
96.88401336336349
 20
163.4478395586834
 30
0.0
 11
96.88401336336347
 21
166.1978395586834
 31
0.0
 70
   160
  3
ISO-25-1
100
AcDbAlignedDimension
 13
111.3494431540751
 23
168.9478395586834
 33
0.0
 14
106.0094431540751
 24
163.4478395586834
 34
0.0
 50
90.0
100
AcDbRotatedDimension
  0
CIRCLE
  5
1AF2
330
1F
100
AcDbEntity
  8
0
100
AcDbCircle
 10
219.4701477805683
 20
163.4478395586834
 30
0.0
 40
2.5
  0
ARC
  5
1AF3
330
1F
100
AcDbEntity
  8
0
 62
     3
100
AcDbCircle
 10
219.4701477805683
 20
163.4478395586834
 30
0.0
 40
2.1
100
AcDbArc
 50
167.8215228319554
 51
113.7605346141601
  0
DIMENSION
  5
1AF5
330
1F
100
AcDbEntity
  8
DIM
100
AcDbDimension
  2
*D10
 10
131.3412480936857
 20
84.40428221865307
 30
0.0
 11
127.5912480936857
 21
84.40428221865307
 31
0.0
 70
   160
  3
ISO-25-1
100
AcDbAlignedDimension
 13
123.8412480936857
 23
73.25246906416973
 33
0.0
 14
131.3412480936857
 24
77.46246906416971
 34
0.0
100
AcDbRotatedDimension
  0
DIMENSION
  5
1B04
330
1F
100
AcDbEntity
  8
DIM
100
AcDbDimension
  2
*D11
 10
110.8412480936857
 20
84.40428221865307
 30
0.0
 11
114.5912480936857
 21
84.40428221865307
 31
0.0
 70
   160
  3
ISO-25-1
100
AcDbAlignedDimension
 13
118.3412480936857
 23
73.2524690641697
 33
0.0
 14
110.8412480936857
 24
77.46246906416971
 34
0.0
100
AcDbRotatedDimension
  0
DIMENSION
  5
1B13
330
1F
100
AcDbEntity
  8
DIM
100
AcDbDimension
  2
*D12
 10
110.8412480936857
 20
93.70891020059127
 30
0.0
 11
94.12696237940002
 21
96.20891020059127
 31
0.0
 70
    32
  1
<>+ST.
  3
ISO-25-1
100
AcDbAlignedDimension
 13
131.3412480936857
 23
77.46246906416971
 33
0.0
 14
110.8412480936857
 24
77.46246906416971
 34
0.0
100
AcDbRotatedDimension
  0
DIMENSION
  5
1B20
330
1F
100
AcDbEntity
  8
DIM
100
AcDbDimension
  2
*D13
 10
135.8412480936857
 20
93.70891020059127
 30
0.0
 11
145.9841052365429
 21
96.20891020059127
 31
0.0
 70
    32
  3
ISO-25-1
100
AcDbAlignedDimension
 13
131.3412480936857
 23
77.46246906416971
 33
0.0
 14
135.8412480936857
 24
67.46246906416972
 34
0.0
100
AcDbRotatedDimension
  0
DIMENSION
  5
1B2F
330
1F
100
AcDbEntity
  8
DIM
100
AcDbDimension
  2
*D14
 10
110.8412480936857
 20
103.6781543973454
 30
0.0
 11
123.3412480936857
 21
106.1781543973454
 31
0.0
 70
    32
  3
ISO-25-1
100
AcDbAlignedDimension
 13
135.8412480936857
 23
67.46246906416972
 33
0.0
 14
110.8412480936857
 24
77.46246906416971
 34
0.0
100
AcDbRotatedDimension
  0
DIMENSION
  5
1B3C
330
1F
100
AcDbEntity
  8
DIM
100
AcDbDimension
  2
*D15
 10
102.7364035229911
 20
64.96246906416971
 30
0.0
 11
102.7364035229911
 21
67.71246906416974
 31
0.0
 70
   160
  3
ISO-25-1
100
AcDbAlignedDimension
 13
115.5512480936857
 23
70.46246906416971
 33
0.0
 14
110.5012480936857
 24
64.96246906416971
 34
0.0
 50
90.0
100
AcDbRotatedDimension
  0
DIMENSION
  5
1B4B
330
1F
100
AcDbEntity
  8
DIM
100
AcDbDimension
  2
*D16
 10
146.3231905307084
 20
61.9624690641697
 30
0.0
 11
146.3231905307084
 21
64.96246906416972
 31
0.0
 70
   160
  1
%%c<>
  3
ISO-25-1
100
AcDbAlignedDimension
 13
131.8412480936857
 23
67.96246906416971
 33
0.0
 14
131.8412480936857
 24
61.96246906416971
 34
0.0
 50
90.0
100
AcDbRotatedDimension
  0
DIMENSION
  5
1B65
330
1F
100
AcDbEntity
  8
DIM
100
AcDbDimension
  2
*D17
 10
198.8819553875303
 20
56.8124690641697
 30
0.0
 11
196.3819553875302
 21
64.96246906416974
 31
0.0
 70
    32
  1
\U+25A1<>
  3
ISO-25-1
100
AcDbAlignedDimension
 13
223.7301477805684
 23
73.11246906416972
 33
0.0
 14
207.4301477805684
 24
56.8124690641697
 34
0.0
 50
90.0
100
AcDbRotatedDimension
  0
DIMENSION
  5
1B72
330
1F
100
AcDbEntity
  8
DIM
100
AcDbDimension
  2
*D18
 10
190.890924594127
 20
52.46246906416971
 30
0.0
 11
188.390924594127
 21
64.96246906416974
 31
0.0
 70
    32
  1
\U+25A1<>
  3
ISO-25-1
100
AcDbAlignedDimension
 13
209.4826556028492
 23
77.46246906416971
 33
0.0
 14
209.4826556028492
 24
52.46246906416971
 34
0.0
 50
90.0
100
AcDbRotatedDimension
  0
LEADER
  5
1BE4
330
1F
100
AcDbEntity
  8
DIM
100
AcDbLeader
  3
ISO-25-1
 73
     0
 74
     0
 75
     1
 40
3.0
 41
14.85714285714284
 76
     3
 10
140.0026281188985
 20
165.9478395586834
 30
0.0
 10
144.70334805703
 20
181.3620973340445
 30
0.0
 10
147.70334805703
 20
181.3620973340445
 30
0.0
340
1BE5
1001
ACAD
1000
DSTYLE
1002
{
1070
     5
1000

1070
    77
1070
     1
1070
   147
1040
1.0
1070
   342
1005
0
1002
}
1000
LEANOF
1010
0.0
1020
0.0
1030
0.0
  0
MTEXT
  5
1BE5
330
1F
100
AcDbEntity
  8
DIM
100
AcDbMText
 10
148.70334805703
 20
182.3620973340445
 30
0.0
 40
3.0
 41
0.0
 71
     7
 72
     1
  1
\A1;M5*0.8
  7
CHINESET
1001
ACAD
1000
MTEXTBEGIN
1070
    73
1070
     1
1070
    44
1040
1.0
1070
    74
1070
     0
1000
MTEXTEND
  0
DIMENSION
  5
1BE6
330
1F
100
AcDbEntity
  8
DIM
100
AcDbDimension
  2
*D19
 10
132.3494431540752
 20
174.266210855238
 30
0.0
 11
136.8494431540752
 21
176.766210855238
 31
0.0
 70
    32
  3
ISO-25-1
100
AcDbAlignedDimension
 13
141.3494431540752
 23
165.4478395586834
 33
0.0
 14
132.3494431540752
 24
165.9478395586834
 34
0.0
100
AcDbRotatedDimension
  0
LEADER
  5
1C43
330
1F
100
AcDbEntity
  8
DIM
100
AcDbLeader
  3
ISO-25-1
 73
     0
 74
     0
 75
     1
 40
13.10260826771653
 41
27.16071428571428
 76
     3
 10
227.6201477805684
 20
171.5978395586834
 30
0.0
 10
233.1422377045896
 20
192.5753542139365
 30
0.0
 10
236.1422377045896
 20
192.5753542139365
 30
0.0
340
1C44
1001
ACAD
1000
DSTYLE
1002
{
1070
     5
1000

1070
    77
1070
     1
1070
   147
1040
1.0
1070
   342
1005
0
1002
}
1000
LEANOF
1010
0.0
1020
0.0
1030
0.0
  0
MTEXT
  5
1C44
330
1F
100
AcDbEntity
  8
DIM
100
AcDbMText
 10
237.1422377045896
 20
193.5753542139365
 30
0.0
 40
3.0
 41
0.0
 71
     7
 72
     1
  1
沈孔%%C6.5*4.5深\PM5*0.8*6L\P%%C4.3貫通
  7
CHINESET
1001
ACAD
1000
MTEXTBEGIN
1070
    73
1070
     1
1070
    44
1040
1.0
1070
    74
1070
     0
1000
MTEXTEND
  0
LEADER
  5
1C45
330
1F
100
AcDbEntity
  8
DIM
100
AcDbLeader
  3
ISO-25-1
 73
     0
 75
     1
 40
3.0
 41
21.42857142857142
 76
     3
 10
113.8494431540751
 20
168.9478395586834
 30
0.0
 10
96.59174587352687
 20
178.5866709045826
 30
0.0
 10
93.59174587352686
 20
178.5866709045826
 30
0.0
340
1C46
1001
ACAD
1000
DSTYLE
1002
{
1070
     5
1000

1070
    77
1070
     1
1070
   147
1040
1.0
1070
   342
1005
0
1002
}
1000
LEANOF
1010
0.0
1020
0.0
1030
0.0
  0
MTEXT
  5
1C46
330
1F
100
AcDbEntity
  8
DIM
100
AcDbMText
 10
92.59174587352687
 20
179.5866709045826
 30
0.0
 40
3.0
 41
0.0
 71
     9
 72
     1
  1
\A1;2-M5*0.8
  7
CHINESET
1001
ACAD
1000
MTEXTBEGIN
1070
    73
1070
     1
1070
    44
1040
1.0
1070
    74
1070
     0
1000
MTEXTEND
  0
LEADER
  5
1C90
330
1F
100
AcDbEntity
  8
DIM
100
AcDbLeader
  3
ISO-25-1
 73
     0
 74
     0
 75
     1
 40
13.10260826771653
 41
27.16071428571428
 76
     3
 10
227.6201477805684
 20
73.11246906416968
 30
0.0
 10
233.1422377045896
 20
94.0899837194228
 30
0.0
 10
236.1422377045896
 20
94.0899837194228
 30
0.0
340
1C91
1001
ACAD
1000
DSTYLE
1002
{
1070
     5
1000

1070
    77
1070
     1
1070
   147
1040
1.0
1070
   342
1005
0
1002
}
1000
LEANOF
1010
0.0
1020
0.0
1030
0.0
  0
MTEXT
  5
1C91
330
1F
100
AcDbEntity
  8
DIM
100
AcDbMText
 10
237.1422377045896
 20
95.08998371942281
 30
0.0
 40
3.0
 41
0.0
 71
     7
 72
     1
  1
沈孔%%C6.5*4.5深\PM5*0.8*6L\P%%C4.3貫通
  7
CHINESET
1001
ACAD
1000
MTEXTBEGIN
1070
    73
1070
     1
1070
    44
1040
1.0
1070
    74
1070
     0
1000
MTEXTEND
  0
LEADER
  5
1CBE
330
1F
100
AcDbEntity
  8
DIM
100
AcDbLeader
  3
ISO-25-1
 73
     0
 75
     1
 40
3.0
 41
21.42857142857142
 76
     3
 10
118.1612480936857
 20
70.46246906416971
 30
0.0
 10
102.8166903171411
 20
79.29713303662902
 30
0.0
 10
99.81669031714114
 20
79.29713303662902
 30
0.0
340
1CBF
1001
ACAD
1000
DSTYLE
1002
{
1070
     5
1000

1070
    77
1070
     1
1070
   147
1040
1.0
1070
   342
1005
0
1002
}
1000
LEANOF
1010
0.0
1020
0.0
1030
0.0
  0
MTEXT
  5
1CBF
330
1F
100
AcDbEntity
  8
DIM
100
AcDbMText
 10
98.81669031714114
 20
80.29713303662902
 30
0.0
 40
3.0
 41
0.0
 71
     9
 72
     1
  1
\A1;2-M5*0.8
  7
CHINESET
1001
ACAD
1000
MTEXTBEGIN
1070
    73
1070
     1
1070
    44
1040
1.0
1070
    74
1070
     0
1000
MTEXTEND
  0
LEADER
  5
1CC0
330
1F
100
AcDbEntity
  8
DIM
100
AcDbLeader
  3
ISO-25-1
 73
     0
 75
     1
 40
3.0
 41
22.57142857142857
 76
     3
 10
219.4701477805683
 20
64.96246906416971
 30
0.0
 10
207.716056563655
 20
92.63856138571293
 30
0.0
 10
204.7160565636549
 20
92.63856138571293
 30
0.0
340
1CC1
1001
ACAD
1000
DSTYLE
1002
{
1070
     5
1000

1070
    77
1070
     1
1070
   147
1040
1.0
1070
   342
1005
0
1002
}
1000
LEANOF
1010
0.0
1020
0.0
1030
0.0
  0
MTEXT
  5
1CC1
330
1F
100
AcDbEntity
  8
DIM
100
AcDbMText
 10
203.716056563655
 20
93.63856138571293
 30
0.0
 40
3.0
 41
0.0
 71
     9
 72
     1
  1
\A1;M3*0.5*7L
  7
CHINESET
1001
ACAD
1000
MTEXTBEGIN
1070
    73
1070
     1
1070
    44
1040
1.0
1070
    74
1070
     0
1000
MTEXTEND
  0
DIMENSION
  5
1CCE
330
1F
100
AcDbEntity
  8
DIM
100
AcDbDimension
  2
*D20
 10
216.9701477805683
 20
140.7627477870761
 30
0.0
 11
219.4701477805684
 21
140.7627477870761
 31
0.0
 70
   160
  3
ISO-25-1
100
AcDbAlignedDimension
 13
221.9701477805684
 23
161.7895271635058
 33
0.0
 14
216.9701477805683
 24
161.7895271635058
 34
0.0
100
AcDbRotatedDimension
  0
DIMENSION
  5
1CE8
330
1F
100
AcDbEntity
  8
DIM
100
AcDbDimension
  2
*D21
 10
216.9701477805683
 20
39.68287478581965
 30
0.0
 11
219.4701477805683
 21
39.68287478581965
 31
0.0
 70
   160
  3
ISO-25-1
100
AcDbAlignedDimension
 13
221.9701477805684
 23
63.30415666899205
 33
0.0
 14
216.9701477805683
 24
63.30415666899205
 34
0.0
100
AcDbRotatedDimension
  0
CIRCLE
  5
222C
330
1F
100
AcDbEntity
  8
0
100
AcDbCircle
 10
227.6201477805684
 20
171.5978395586834
 30
0.0
 40
2.149999999999999
  0
CIRCLE
  5
222D
330
1F
100
AcDbEntity
  8
0
100
AcDbCircle
 10
211.3201477805684
 20
155.2978395586834
 30
0.0
 40
2.149999999999999
  0
CIRCLE
  5
2239
330
1F
100
AcDbEntity
  8
0
100
AcDbCircle
 10
227.6201477805684
 20
73.11246906416968
 30
0.0
 40
2.149999999999999
  0
CIRCLE
  5
2244
330
1F
100
AcDbEntity
  8
0
100
AcDbCircle
 10
211.3201477805684
 20
56.8124690641697
 30
0.0
 40
2.149999999999999
  0
ENDSEC
  0
SECTION
  2
OBJECTS
  0
DICTIONARY
  5
C
330
0
100
AcDbDictionary
  3
ACAD_GROUP
350
D
  3
ACAD_LAYOUT
350
1A
  3
ACAD_MLINESTYLE
350
17
  3
ACAD_PLOTSETTINGS
350
19
  3
ACADDIM
350
10B1
  3
ACMDICTIONARY
350
21B0
  3
AMG
350
2197
  3
AMGSNAPSETTINGS
350
21E3
  3
DWGPROPS
350
21B3
1001
ACAD
1000
TREAT_AS_HARD
1070
     0
  0
DICTIONARY
  5
20FA
330
1F
100
AcDbDictionary
  3
ACAD_INDEX
350
222E
  3
ACAD_LAYOUTSELFREF
350
22A3
1001
ACAD
1000
TREAT_AS_HARD
1070
     1
  0
DICTIONARY
  5
20FC
330
1B
100
AcDbDictionary
  3
ACAD_LAYOUTSELFREF
350
22A2
1001
ACAD
1000
TREAT_AS_HARD
1070
     1
  0
DICTIONARY
  5
D
102
{ACAD_REACTORS
330
C
102
}
330
C
100
AcDbDictionary
1001
ACAD
1000
TREAT_AS_HARD
1070
     0
  0
DICTIONARY
  5
1A
102
{ACAD_REACTORS
330
C
102
}
330
C
100
AcDbDictionary
1001
ACAD
1000
TREAT_AS_HARD
1070
     0
  0
DICTIONARY
  5
17
102
{ACAD_REACTORS
330
C
102
}
330
C
100
AcDbDictionary
  3
STANDARD
350
18
1001
ACAD
1000
TREAT_AS_HARD
1070
     0
  0
DICTIONARY
  5
19
102
{ACAD_REACTORS
330
C
102
}
330
C
100
AcDbDictionary
1001
ACAD
1000
TREAT_AS_HARD
1070
     0
  0
XRECORD
  5
10B1
102
{ACAD_REACTORS
330
C
102
}
330
C
100
AcDbXrecord
 90
   990106
  3

 60
     0
 61
     0
 62
     1
 63
     3
 64
     1
 65
     0
 66
     0
 67
     3
 68
     1
 69
     0
 70
     0
 71
     0
 72
     0
 40
0.0
170
     2
340
1CC1
  0
DICTIONARY
  5
21B0
102
{ACAD_REACTORS
330
C
102
}
330
C
100
AcDbDictionary
  3
ACMSTDDICTIONARY
350
21B6
1001
ACAD
1000
TREAT_AS_HARD
1070
     0
  0
DICTIONARY
  5
2197
102
{ACAD_REACTORS
330
C
102
}
330
C
100
AcDbDictionary
  3
ACMGSETTINGS
350
2198
1001
ACAD
1000
TREAT_AS_HARD
1070
     0
  0
DICTIONARY
  5
21E3
102
{ACAD_REACTORS
330
C
102
}
330
C
100
AcDbDictionary
1001
ACAD
1000
TREAT_AS_HARD
1070
     0
  0
XRECORD
  5
21B3
102
{ACAD_REACTORS
330
C
102
}
330
C
100
AcDbXrecord
  1
DWGPROPS COOKIE
  2

  3

  4

  6

  7

  8

  9

300
AmdtFileType=84
301
=
302
=
303
=
304
=
305
=
306
=
307
=
308
=
309
=
 40
0.0705325462962963
 41
2452019.6310853
 42
2452047.633577407
  1

 90
        1
  0
DICTIONARY
  5
222E
102
{ACAD_REACTORS
330
20FA
102
}
330
20FA
100
AcDbDictionary
  3
*A1
350
222F
1001
ACAD
1000
TREAT_AS_HARD
1070
     0
  0
XRECORD
  5
22A3
102
{ACAD_REACTORS
330
20FA
102
}
330
20FA
100
AcDbXrecord
340
1F
  0
XRECORD
  5
22A2
102
{ACAD_REACTORS
330
20FC
102
}
330
20FC
100
AcDbXrecord
340
1B
  0
MLINESTYLE
  5
18
102
{ACAD_REACTORS
330
17
102
}
330
17
100
AcDbMlineStyle
  2
STANDARD
 70
     0
  3

 62
   256
 51
90.0
 52
90.0
 71
     2
 49
0.5
 62
   256
  6
BYLAYER
 49
-0.5
 62
   256
  6
BYLAYER
  0
DICTIONARY
  5
21B6
102
{ACAD_REACTORS
330
21B0
102
}
330
21B0
100
AcDbDictionary
1001
ACAD
1000
TREAT_AS_HARD
1070
     0
  0
DICTIONARY
  5
2198
102
{ACAD_REACTORS
330
2197
102
}
330
2197
100
AcDbDictionary
  3
DWGSETTINGS
350
2199
1001
ACAD
1000
TREAT_AS_HARD
1070
     0
  0
LAYER_INDEX
  5
222F
102
{ACAD_REACTORS
330
222E
102
}
330
222E
100
AcDbIndex
 40
2452965.701968425
100
AcDbLayerIndex
  8
0
360
2230
 90
      294
  8
DIM
360
2231
 90
       33
  8
A3-S
360
2232
 90
        1
  8
CENTER
360
2233
 90
       88
  8
LOGO
360
2234
 90
      124
  8
Defpoints
360
2235
 90
        0
  0
XRECORD
  5
2199
102
{ACAD_REACTORS
330
2198
102
}
330
2198
100
AcDbXrecord
  1
VERSION
140
15.0
  1
PRODUCT
  2
AutoCAD Mechanical 2000
  0
IDBUFFER
  5
2230
330
0
100
AcDbIdBuffer
330
1A03
330
1A04
330
1A05
330
1A06
330
1A08
330
1A09
330
1A0A
330
1A0B
330
1A0C
330
1A0D
330
1A0E
330
1A0F
330
1A10
330
1A11
330
1A12
330
1A13
330
1A15
330
1A16
330
1A17
330
1A18
330
1A1C
330
1A1D
330
1A1E
330
1A1F
330
1A20
330
1A21
330
1A22
330
1A23
330
1A24
330
1A25
330
1A3C
330
1A3D
330
1A3E
330
1A3F
330
1A40
330
1A41
330
1A42
330
1A43
330
1A44
330
1A45
330
1A46
330
1A47
330
1A48
330
1A49
330
1A4A
330
1A4B
330
1A4C
330
1A4D
330
1A4E
330
1A4F
330
1AF2
330
1AF3
330
222C
330
222D
330
2239
330
2244
330
A9
330
AA
330
AB
330
AC
330
B1
330
B2
330
10B3
330
17B4
330
17B5
330
17B6
330
17B7
330
17B8
330
17B9
330
17BC
330
17BF
330
1811
330
1812
330
1814
330
1815
330
1816
330
1817
330
1818
330
1819
330
181A
330
181C
330
181D
330
181E
330
181F
330
1821
330
1822
330
1824
330
1826
330
1835
330
1838
330
1839
330
183A
330
183B
330
183C
330
183D
330
183F
330
1840
330
1841
330
1842
330
1843
330
1844
330
1849
330
184A
330
184B
330
184C
330
184D
330
184E
330
184F
330
1850
330
1851
330
1852
330
1853
330
1854
330
1855
330
1856
330
1857
330
1858
330
1859
330
18BF
330
185C
330
185D
330
1862
330
1863
330
1864
330
1865
330
1866
330
1867
330
1892
330
1893
330
1895
330
1896
330
1897
330
1898
330
1899
330
189A
330
189B
330
189C
330
189D
330
189E
330
189F
330
18A0
330
18A1
330
18A2
330
18A3
330
18A5
330
18A6
330
18BE
330
18A9
330
18AA
330
18AB
330
18AC
330
18AD
330
18AF
330
18B0
330
18B1
330
18B2
330
18B3
330
18B4
330
18B5
330
18B6
330
18B8
330
18B9
330
18BA
330
18BB
330
18BC
330
18BD
330
18C0
330
18C3
330
18C4
330
18C5
330
18C6
330
18C7
330
18C8
330
18C9
330
18CA
330
18CB
330
18CC
330
18CD
330
18CE
330
18CF
330
18D1
330
18D2
330
18D3
330
18D4
330
18D5
330
18D6
330
18D7
330
18D8
330
18DA
330
18DB
330
18DC
330
18DF
330
18E0
330
18E3
330
18E4
330
18E5
330
18E6
330
18E7
330
18E8
330
18E9
330
18EA
330
18EB
330
18ED
330
18EE
330
18EF
330
18F0
330
18F1
330
18F2
330
18F3
330
192B
330
192C
330
192D
330
192F
330
1930
330
1931
330
1932
330
193C
330
1940
330
1947
330
19A0
330
19A1
330
19A3
330
19A4
330
19A5
330
19A6
330
19A7
330
19A8
330
19A9
330
19AA
330
19AB
330
19AC
330
19B1
330
19B2
330
19B3
330
19B4
330
19B5
330
19B6
330
19B7
330
19B8
330
19B9
330
19BA
330
19BB
330
19BC
330
19BD
330
19BE
330
19BF
330
19C0
330
19C1
330
19C8
330
19C9
330
19CA
330
19CB
330
19CC
330
19CD
330
19CE
330
19D1
330
19D3
330
19D4
330
19D5
330
19D6
330
19D7
330
19D8
330
19DA
330
19DB
330
19DC
330
19DD
330
19DE
330
19DF
330
19E0
330
19E1
330
19E2
330
19E3
330
19E4
330
19E6
330
19E7
330
19EA
330
19EB
330
19EC
330
19ED
330
19EE
330
19F1
330
19F2
330
19F4
330
19F5
330
19F6
330
19F7
330
19F8
330
19FC
330
19FD
330
19FE
330
19FF
330
1A00
330
1A01
330
1A02
  0
IDBUFFER
  5
2231
330
0
100
AcDbIdBuffer
330
1B65
330
1B72
330
1BE4
330
1BE5
330
1BE6
330
1C43
330
1C44
330
1C45
330
1C46
330
1C90
330
1C91
330
1CBE
330
1CBF
330
1CC0
330
1CC1
330
1CCE
330
1CE8
330
1A51
330
1A5F
330
1A6E
330
1A7D
330
1A8A
330
1A97
330
1AB1
330
1ABE
330
1ADD
330
1AF5
330
1B04
330
1B13
330
1B20
330
1B2F
330
1B3C
330
1B4B
  0
IDBUFFER
  5
2232
330
0
100
AcDbIdBuffer
330
82
  0
IDBUFFER
  5
2233
330
0
100
AcDbIdBuffer
330
192E
330
1933
330
1934
330
1935
330
1936
330
1937
330
1938
330
1939
330
193A
330
193B
330
193D
330
193E
330
193F
330
1941
330
1942
330
1943
330
1944
330
1945
330
1946
330
199F
330
19AD
330
19AE
330
19AF
330
19B0
330
19C3
330
19C4
330
19C5
330
19C6
330
19C7
330
19CF
330
19D0
330
19D9
330
19E9
330
19F9
330
19FA
330
1A07
330
1A14
330
1A19
330
1A1A
330
1A1B
330
17BA
330
17BB
330
1813
330
181B
330
1820
330
1823
330
1825
330
1827
330
1828
330
1829
330
182A
330
182B
330
182C
330
182D
330
182E
330
182F
330
1830
330
1831
330
1832
330
1833
330
1834
330
1836
330
1837
330
183E
330
1845
330
1846
330
1847
330
1848
330
185A
330
185E
330
185F
330
1860
330
1861
330
1894
330
18A4
330
18A7
330
18AE
330
18B7
330
18C1
330
18C2
330
18D0
330
18D9
330
18DD
330
18DE
330
18E1
330
18E2
330
18EC
330
18F4
  0
IDBUFFER
  5
2234
330
0
100
AcDbIdBuffer
330
1886
330
1887
330
1888
330
1889
330
188A
330
188B
330
188C
330
188D
330
188E
330
188F
330
1890
330
1891
330
17BD
330
17BE
330
17C1
330
17C2
330
17C3
330
17C4
330
17C5
330
17C6
330
17C7
330
17C8
330
17C9
330
17CA
330
17CB
330
17CC
330
17CD
330
17CE
330
17CF
330
17D0
330
17D1
330
17D2
330
17D3
330
17D4
330
17D5
330
17D6
330
17D7
330
17D8
330
17D9
330
17DA
330
17DB
330
17DC
330
17DD
330
17DE
330
17DF
330
17E0
330
17E1
330
17E2
330
17E3
330
17E4
330
17E5
330
17E6
330
17E7
330
17E8
330
17E9
330
17EA
330
17EB
330
17EC
330
17ED
330
17EE
330
17EF
330
17F0
330
17F1
330
17F2
330
17F3
330
17F4
330
17F5
330
17F6
330
17F7
330
17F8
330
17F9
330
17FA
330
17FB
330
17FC
330
17FD
330
17FE
330
17FF
330
1800
330
1801
330
1802
330
1803
330
1804
330
1805
330
1806
330
1807
330
1808
330
1809
330
180A
330
180B
330
180C
330
180D
330
180E
330
180F
330
1810
330
1868
330
1869
330
186A
330
186B
330
186C
330
186D
330
186E
330
186F
330
1870
330
1871
330
1872
330
1873
330
1874
330
1875
330
1876
330
1877
330
1878
330
1879
330
187A
330
187B
330
187C
330
187D
330
187E
330
187F
330
1880
330
1881
330
1882
330
1883
330
1884
330
1885
  0
IDBUFFER
  5
2235
330
0
100
AcDbIdBuffer
  0
ENDSEC
  0
EOF
