  0
SECTION
  2
HEADER
  9
$ACADVER
  1
AC1012
  9
$DWGCODEPAGE
  3
big5
  9
$INSBASE
 10
0.0
 20
0.0
 30
0.0
  9
$EXTMIN
 10
44.30070442576118
 20
5.416089924411835
 30
-0.0000000000022888
  9
$EXTMAX
 10
271.6278092314908
 20
282.1403643708159
 30
0.0000000000000003
  9
$LIMMIN
 10
0.0
 20
0.0
  9
$LIMMAX
 10
12.0
 20
9.0
  9
$ORTHOMODE
 70
     0
  9
$REGENMODE
 70
     1
  9
$FILLMODE
 70
     1
  9
$QTEXTMODE
 70
     0
  9
$MIRRTEXT
 70
     1
  9
$DRAGMODE
 70
     2
  9
$LTSCALE
 40
5.0
  9
$OSMODE
 70
    55
  9
$ATTMODE
 70
     1
  9
$TEXTSIZE
 40
4.5
  9
$TRACEWID
 40
0.05
  9
$TEXTSTYLE
  7
CHINESET
  9
$CLAYER
  8
0
  9
$CELTYPE
  6
BYLAYER
  9
$CECOLOR
 62
   256
  9
$CELTSCALE
 40
1.0
  9
$DELOBJ
 70
     1
  9
$DISPSILH
 70
     0
  9
$DIMSCALE
 40
1.0
  9
$DIMASZ
 40
3.0
  9
$DIMEXO
 40
3.0
  9
$DIMDLI
 40
2.0
  9
$DIMRND
 40
0.0
  9
$DIMDLE
 40
0.0
  9
$DIMEXE
 40
2.0
  9
$DIMTP
 40
0.0
  9
$DIMTM
 40
0.0
  9
$DIMTXT
 40
3.0
  9
$DIMCEN
 40
-3.0
  9
$DIMTSZ
 40
0.0
  9
$DIMTOL
 70
     0
  9
$DIMLIM
 70
     0
  9
$DIMTIH
 70
     0
  9
$DIMTOH
 70
     0
  9
$DIMSE1
 70
     0
  9
$DIMSE2
 70
     0
  9
$DIMTAD
 70
     1
  9
$DIMZIN
 70
     8
  9
$DIMBLK
  1

  9
$DIMASO
 70
     1
  9
$DIMSHO
 70
     1
  9
$DIMPOST
  1

  9
$DIMAPOST
  1

  9
$DIMALT
 70
     0
  9
$DIMALTD
 70
     2
  9
$DIMALTF
 40
25.4
  9
$DIMLFAC
 40
1.0
  9
$DIMTOFL
 70
     1
  9
$DIMTVP
 40
0.0
  9
$DIMTIX
 70
     0
  9
$DIMSOXD
 70
     0
  9
$DIMSAH
 70
     0
  9
$DIMBLK1
  1

  9
$DIMBLK2
  1

  9
$DIMSTYLE
  2
ISO-25-1
  9
$DIMCLRD
 70
   256
  9
$DIMCLRE
 70
   256
  9
$DIMCLRT
 70
   256
  9
$DIMTFAC
 40
0.7
  9
$DIMGAP
 40
1.0
  9
$DIMJUST
 70
     0
  9
$DIMSD1
 70
     0
  9
$DIMSD2
 70
     0
  9
$DIMTOLJ
 70
     1
  9
$DIMTZIN
 70
     8
  9
$DIMALTZ
 70
     0
  9
$DIMALTTZ
 70
     0
  9
$DIMFIT
 70
     0
  9
$DIMUPT
 70
     0
  9
$DIMUNIT
 70
     2
  9
$DIMDEC
 70
     2
  9
$DIMTDEC
 70
     2
  9
$DIMALTU
 70
     2
  9
$DIMALTTD
 70
     2
  9
$DIMTXSTY
  7
CHINESET
  9
$DIMAUNIT
 70
     0
  9
$LUNITS
 70
     2
  9
$LUPREC
 70
     2
  9
$SKETCHINC
 40
0.1
  9
$FILLETRAD
 40
0.5
  9
$AUNITS
 70
     0
  9
$AUPREC
 70
     0
  9
$MENU
  1
.
  9
$ELEVATION
 40
0.0
  9
$PELEVATION
 40
0.0
  9
$THICKNESS
 40
0.0
  9
$LIMCHECK
 70
     0
  9
$BLIPMODE
 70
     0
  9
$CHAMFERA
 40
0.5
  9
$CHAMFERB
 40
0.5
  9
$CHAMFERC
 40
1.0
  9
$CHAMFERD
 40
0.0
  9
$SKPOLY
 70
     0
  9
$TDCREATE
 40
2452019.631085300
  9
$TDUPDATE
 40
2452965.711434814
  9
$TDINDWG
 40
0.0960100463
  9
$TDUSRTIMER
 40
0.0960100463
  9
$USRTIMER
 70
     1
  9
$ANGBASE
 50
0.0
  9
$ANGDIR
 70
     0
  9
$PDMODE
 70
     0
  9
$PDSIZE
 40
0.0
  9
$PLINEWID
 40
0.0
  9
$COORDS
 70
     1
  9
$SPLFRAME
 70
     0
  9
$SPLINETYPE
 70
     6
  9
$SPLINESEGS
 70
     8
  9
$ATTDIA
 70
     1
  9
$ATTREQ
 70
     1
  9
$HANDLING
 70
 22529
  9
$HANDSEED
  5
237E
  9
$SURFTAB1
 70
     6
  9
$SURFTAB2
 70
     6
  9
$SURFTYPE
 70
     6
  9
$SURFU
 70
     6
  9
$SURFV
 70
     6
  9
$UCSNAME
  2

  9
$UCSORG
 10
0.0
 20
0.0
 30
0.0
  9
$UCSXDIR
 10
1.0
 20
0.0
 30
0.0
  9
$UCSYDIR
 10
0.0
 20
1.0
 30
0.0
  9
$PUCSNAME
  2

  9
$PUCSORG
 10
0.0
 20
0.0
 30
0.0
  9
$PUCSXDIR
 10
1.0
 20
0.0
 30
0.0
  9
$PUCSYDIR
 10
0.0
 20
1.0
 30
0.0
  9
$USERI1
 70
     0
  9
$USERI2
 70
     0
  9
$USERI3
 70
     0
  9
$USERI4
 70
     0
  9
$USERI5
 70
     0
  9
$USERR1
 40
0.0
  9
$USERR2
 40
0.0
  9
$USERR3
 40
0.0
  9
$USERR4
 40
0.0
  9
$USERR5
 40
0.0
  9
$WORLDVIEW
 70
     1
  9
$SHADEDGE
 70
     3
  9
$SHADEDIF
 70
    70
  9
$TILEMODE
 70
     1
  9
$MAXACTVP
 70
    48
  9
$PINSBASE
 10
0.0
 20
0.0
 30
0.0
  9
$PLIMCHECK
 70
     0
  9
$PEXTMIN
 10
1.000000000000000E+20
 20
1.000000000000000E+20
 30
1.000000000000000E+20
  9
$PEXTMAX
 10
-1.000000000000000E+20
 20
-1.000000000000000E+20
 30
-1.000000000000000E+20
  9
$PLIMMIN
 10
0.0
 20
0.0
  9
$PLIMMAX
 10
12.0
 20
9.0
  9
$UNITMODE
 70
     0
  9
$VISRETAIN
 70
     1
  9
$PLINEGEN
 70
     0
  9
$PSLTSCALE
 70
     1
  9
$TREEDEPTH
 70
  3020
  9
$PICKSTYLE
 70
     1
  9
$CMLSTYLE
  2
STANDARD
  9
$CMLJUST
 70
     0
  9
$CMLSCALE
 40
1.0
  9
$SAVEIMAGES
 70
     1
  0
ENDSEC
  0
SECTION
  2
CLASSES
  0
CLASS
  1
ACDBDICTIONARYWDFLT
  2
AcDbDictionaryWithDefault
  3
AutoCAD 2000
 90
    32768
280
     0
281
     0
  0
CLASS
  1
ACDBPLACEHOLDER
  2
AcDbPlaceHolder
  3
AutoCAD 2000
 90
    32768
280
     0
281
     0
  0
CLASS
  1
LAYOUT
  2
AcDbLayout
  3
AutoCAD 2000
 90
    32768
280
     0
281
     0
  0
CLASS
  1
DICTIONARYVAR
  2
AcDbDictionaryVar
  3
AutoCAD 2000
 90
    32768
280
     0
281
     0
  0
CLASS
  1
LONG_TRANSACTION
  2
AcDbLongTransaction
  3
AutoCAD 2000
 90
    32768
280
     0
281
     0
  0
CLASS
  1
LWPOLYLINE
  2
AcDbPolyline
  3
AutoCAD 2000
 90
    32768
280
     0
281
     1
  0
CLASS
  1
HATCH
  2
AcDbHatch
  3
AutoCAD 2000
 90
    32768
280
     0
281
     1
  0
CLASS
  1
XRECORD
  2
AcDbXrecord
  3
AutoCAD 2000
 90
    32768
280
     0
281
     0
  0
CLASS
  1
ACME_DOCUMENT
  2
AcMeDbDoc
  3
AcMeServices
 90
    32768
280
     0
281
     0
  0
CLASS
  1
AMGSETTINGSOBJ
  2
AmgSettingsObj
  3
"AcadM|Product Description: AutoCAD Mechanical 2000|Company: Autodesk"
 90
    32768
280
     0
281
     0
  0
CLASS
  1
ACMESCOPE
  2
AcMeScope
  3
AcMeServices
 90
    32768
280
     0
281
     0
  0
CLASS
  1
ACMECOMMANDHISTORY
  2
AcMeCommandHistory
  3
AcMeServices
 90
    32768
280
     0
281
     0
  0
CLASS
  1
ACIMSYSVARMAN
  2
AcImSysVarManager
  3
AcMeServices
 90
    32768
280
     0
281
     0
  0
CLASS
  1
ACIMREALSYSVAR
  2
AcImRealSysVar
  3
AcMeServices
 90
    32768
280
     0
281
     0
  0
CLASS
  1
ACIMINTSYSVAR
  2
AcImIntSysVar
  3
AcMeServices
 90
    32768
280
     0
281
     0
  0
CLASS
  1
ACMEDRAWINGMAN
  2
AcMeDrawingMan
  3
AcMeServices
 90
    32768
280
     0
281
     0
  0
CLASS
  1
ACMEVIEW
  2
AcMeView
  3
AcMeServices
 90
    32768
280
     0
281
     0
  0
CLASS
  1
ACDBENTITYCACHE
  2
AcMeEntityCache
  3
AcMeServices
 90
    32768
280
     0
281
     0
  0
CLASS
  1
GSMANAGER
  2
AcMeGSManager
  3
AcMeServices
 90
    32768
280
     0
281
     0
  0
CLASS
  1
AMDTINTERNALREACTOR
  2
AmdtInternalReactor
  3
AcMeServices
 90
    32768
280
     0
281
     0
  0
CLASS
  1
ACMESTATEMGR
  2
AcMeStateMgr
  3
AcMeServices
 90
    32768
280
     0
281
     0
  0
CLASS
  1
ACGREFMASTER
  2
AcGrefMaster
  3
AcAttribServices
 90
    32768
280
     0
281
     0
  0
CLASS
  1
ACME_DATABASE
  2
AcMeDbDatabase
  3
AcMeServices
 90
    32768
280
     0
281
     0
  0
CLASS
  1
ACRFINSADJUSTERMGR
  2
AcRfInsAdjusterMgr
  3
AcMeServices
 90
    32768
280
     0
281
     0
  0
CLASS
  1
ACGREFACADMASTER
  2
AcGrefacadMaster
  3
AcGrefServices
 90
    32768
280
     0
281
     0
  0
CLASS
  1
AMIMASTER
  2
AmiMaster
  3
AmiServices
 90
    32768
280
     0
281
     0
  0
CLASS
  1
ACMDATADICTIONARY
  2
AcmDataDictionary
  3
"AcmSymBB|Product Description: AutoCAD Mechanical 2000|Company: Autodesk"
 90
    32768
280
     0
281
     0
  0
CLASS
  1
ACMDATAENTRYBLOCK
  2
AcmDataEntryBlock
  3
"AcmSymBB|Product Description: AutoCAD Mechanical 2000|Company: Autodesk"
 90
    32768
280
     0
281
     0
  0
CLASS
  1
ACIMSTRSYSVAR
  2
AcImStrSysVar
  3
AcMeServices
 90
    32768
280
     0
281
     0
  0
CLASS
  1
ACMSTANDARDISO
  2
AcmStandardISO
  3
"Amdt_StdImp|Product Description: AutoCAD Mechanical 2000|Company: Autodesk"
 90
    32768
280
     0
281
     0
  0
CLASS
  1
AMGOBJPROPCFG
  2
AmgObjPropCfg
  3
"AmgLay|Product Description: AutoCAD Mechanical 2000|Company: Autodesk"
 90
    32769
280
     0
281
     0
  0
CLASS
  1
AMDTEDGESTANDARDISO
  2
AmdtEdgeStdISO
  3
"Amdt_StdImp|Product Description: AutoCAD Mechanical 2000|Company: Autodesk"
 90
    32768
280
     0
281
     0
  0
CLASS
  1
ACMSURFSTANDARDISO
  2
AcmSurfTextStdISO
  3
"Amdt_StdImp|Product Description: AutoCAD Mechanical 2000|Company: Autodesk"
 90
    32768
280
     0
281
     0
  0
CLASS
  1
ACMFCFSTANDARDISO
  2
AcmFCFStdISO
  3
"Amdt_StdImp|Product Description: AutoCAD Mechanical 2000|Company: Autodesk"
 90
    32768
280
     0
281
     0
  0
CLASS
  1
ACMWELDSTANDARDISO
  2
AcmWeldingStdISO
  3
"Amdt_StdImp|Product Description: AutoCAD Mechanical 2000|Company: Autodesk"
 90
    32768
280
     0
281
     0
  0
CLASS
  1
ACMIDSTANDARDISO
  2
AcmIdStdISO
  3
"Amdt_StdImp|Product Description: AutoCAD Mechanical 2000|Company: Autodesk"
 90
    32768
280
     0
281
     0
  0
CLASS
  1
ACMDATUMSTANDARDISO
  2
AcmDatumStdISO
  3
"Amdt_StdImp|Product Description: AutoCAD Mechanical 2000|Company: Autodesk"
 90
    32768
280
     0
281
     0
  0
CLASS
  1
ACMBOMSTANDARDISO
  2
AcmBOMStdISO
  3
"Amdt_StdImp|Product Description: AutoCAD Mechanical 2000|Company: Autodesk"
 90
    32768
280
     0
281
     0
  0
CLASS
  1
ACMDETAILSTANDARDISO
  2
AmdtDetailSymStdISO
  3
"Amdt_StdImp|Product Description: AutoCAD Mechanical 2000|Company: Autodesk"
 90
    32768
280
     0
281
     0
  0
CLASS
  1
ACMSECTIONSTANDARDISO
  2
AmdtSectionSymStdISO
  3
"Amdt_StdImp|Product Description: AutoCAD Mechanical 2000|Company: Autodesk"
 90
    32768
280
     0
281
     0
  0
CLASS
  1
ACMCENTERLINESTANDARDISO
  2
AmdtCenterLineStdISO
  3
"Amdt_StdImp|Product Description: AutoCAD Mechanical 2000|Company: Autodesk"
 90
    32768
280
     0
281
     0
  0
CLASS
  1
ACMNOTESTANDARDISO
  2
AmdtNoteStdISO
  3
"Amdt_StdImp|Product Description: AutoCAD Mechanical 2000|Company: Autodesk"
 90
    32768
280
     0
281
     0
  0
CLASS
  1
ACAMGLAYSTD
  2
AcAmgLayStd
  3
"AcAmgLayStd|Product Description: AutoCAD Mechanical 2000|Company: Autodesk"
 90
    32768
280
     0
281
     0
  0
CLASS
  1
ACAMGDIMSTD
  2
AcAmgDimStd
  3
"AcAmgDimStd|Product Description: AutoCAD Mechanical 2000|Company: Autodesk"
 90
    32768
280
     0
281
     0
  0
CLASS
  1
ACAMGHOLECHARTSTDISO
  2
AcAmgHoleChartStdISO
  3
ACMSYMBB_MODULE_NAME
 90
    32768
280
     0
281
     0
  0
CLASS
  1
ACAMGTITLESTD
  2
AcAmgTitleStd
  3
"TITLEAPP"
 90
    32768
280
     0
281
     0
  0
CLASS
  1
ACAMGFILTERDAT
  2
AcAmgFilterDat
  3
"AcadM|Product Description: AutoCAD Mechanical 2000|Company: Autodesk"
 90
    32768
280
     0
281
     0
  0
CLASS
  1
LAYER_INDEX
  2
AcDbLayerIndex
  3
AutoCAD 2000
 90
    32768
280
     0
281
     0
  0
CLASS
  1
IDBUFFER
  2
AcDbIdBuffer
  3
AutoCAD 2000
 90
    32768
280
     0
281
     0
  0
CLASS
  1
LONG_TRANSACTION
  2
AcDbLongTransaction
  3
AutoCAD 2000
 90
    32768
280
     0
281
     0
  0
CLASS
  1
LWPOLYLINE
  2
AcDbPolyline
  3
AutoCAD 2000
 90
    32768
280
     0
281
     1
  0
CLASS
  1
HATCH
  2
AcDbHatch
  3
AutoCAD 2000
 90
    32768
280
     0
281
     1
  0
CLASS
  1
XRECORD
  2
AcDbXrecord
  3
AutoCAD 2000
 90
    32768
280
     0
281
     0
  0
ENDSEC
  0
SECTION
  2
TABLES
  0
TABLE
  2
VPORT
  5
8
330
0
100
AcDbSymbolTable
 70
     6
  0
VPORT
  5
237A
330
8
100
AcDbSymbolTableRecord
100
AcDbViewportTableRecord
  2
*ACTIVE
 70
     0
 10
0.0
 20
0.0
 11
1.0
 21
1.0
 12
157.964256828626
 22
143.7782271476139
 13
0.0
 23
0.0
 14
0.5
 24
0.5
 15
0.5
 25
0.5
 16
0.0
 26
0.0
 36
1.0
 17
0.0
 27
0.0
 37
0.0
 40
279.6733786145718
 41
1.717081850533807
 42
50.0
 43
0.0
 44
0.0
 50
0.0
 51
0.0
 71
     0
 72
   100
 73
     1
 74
     3
 75
     0
 76
     0
 77
     0
 78
     0
  0
ENDTAB
  0
TABLE
  2
LTYPE
  5
5
330
0
100
AcDbSymbolTable
 70
    12
  0
LTYPE
  5
14
330
5
100
AcDbSymbolTableRecord
100
AcDbLinetypeTableRecord
  2
BYBLOCK
 70
     0
  3

 72
    65
 73
     0
 40
0.0
  0
LTYPE
  5
15
330
5
100
AcDbSymbolTableRecord
100
AcDbLinetypeTableRecord
  2
BYLAYER
 70
     0
  3

 72
    65
 73
     0
 40
0.0
  0
LTYPE
  5
16
330
5
100
AcDbSymbolTableRecord
100
AcDbLinetypeTableRecord
  2
CONTINUOUS
 70
     0
  3
Solid line
 72
    65
 73
     0
 40
0.0
  0
LTYPE
  5
4F
330
5
100
AcDbSymbolTableRecord
100
AcDbLinetypeTableRecord
  2
CENTER
 70
     0
  3
Center ____ _ ____ _ ____ _ ____ _ ____ _ ____
 72
    65
 73
     4
 40
2.0
 49
1.25
 74
     0
 49
-0.25
 74
     0
 49
0.25
 74
     0
 49
-0.25
 74
     0
  0
LTYPE
  5
22D7
330
5
100
AcDbSymbolTableRecord
100
AcDbLinetypeTableRecord
  2
AM_ISO02W050
 70
     0
  3
__ __ __ __ __ __ __ __ __ __ __ __ __ __ __
 72
    65
 73
     2
 40
7.5
 49
6.0
 74
     0
 49
-1.5
 74
     0
  0
LTYPE
  5
22D8
330
5
100
AcDbSymbolTableRecord
100
AcDbLinetypeTableRecord
  2
AM_ISO08W050
 70
     0
  3
____ . ____ . ____ . ____ . ____ . ____ . ____
 72
    65
 73
     4
 40
18.0
 49
12.0
 74
     0
 49
-1.5
 74
     0
 49
3.0
 74
     0
 49
-1.5
 74
     0
  0
LTYPE
  5
22D9
330
5
100
AcDbSymbolTableRecord
100
AcDbLinetypeTableRecord
  2
AM_ISO09W050
 70
     0
  3
_____ . . _____ . . _____ . . ____ .. ____
 72
    65
 73
     6
 40
22.5
 49
12.0
 74
     0
 49
-1.5
 74
     0
 49
3.0
 74
     0
 49
-1.5
 74
     0
 49
3.0
 74
     0
 49
-1.5
 74
     0
  0
LTYPE
  5
22DA
330
5
100
AcDbSymbolTableRecord
100
AcDbLinetypeTableRecord
  2
AMCONSTR
 70
     0
  3
_______________________
 72
    65
 73
     2
 40
9999.0
 49
9999.0
 74
     0
 49
0.0
 74
     0
  0
LTYPE
  5
22DB
330
5
100
AcDbSymbolTableRecord
100
AcDbLinetypeTableRecord
  2
AM_ISO08W050X2
 70
     0
  3
__ . __ . __ . __ . __ . __
 72
    65
 73
     4
 40
9.0
 49
6.0
 74
     0
 49
-0.75
 74
     0
 49
1.5
 74
     0
 49
-0.75
 74
     0
  0
LTYPE
  5
22DC
330
5
100
AcDbSymbolTableRecord
100
AcDbLinetypeTableRecord
  2
AM_ISO02W050X2
 70
     0
  3
 _ _ _ _ _ _ _ _ _ _ _ _
 72
    65
 73
     2
 40
3.75
 49
3.0
 74
     0
 49
-0.75
 74
     0
  0
LTYPE
  5
22DF
330
5
100
AcDbSymbolTableRecord
100
AcDbLinetypeTableRecord
  2
AMZIGZAG
 70
     0
  3
/\/-/\/-/\/-/\/-/\/-/\/
 72
    65
 73
     2
 40
11.00009999999999
 49
0.0001
 74
     4
 75
   135
340
22DE
 46
0.04
 50
0.0
 44
0.0
 45
0.0
 49
-11.0
 74
     0
  0
LTYPE
  5
22ED
330
5
100
AcDbSymbolTableRecord
100
AcDbLinetypeTableRecord
  2
ACISOWELD
 70
     0
  3
_ _ _ _ _
 72
    65
 73
     2
 40
2.0
 49
2.0
 74
     0
 49
-1.0
 74
     0
  0
LTYPE
  5
22EE
330
5
100
AcDbSymbolTableRecord
100
AcDbLinetypeTableRecord
  2
ACISOTGB
 70
     0
  3
__ . . __ . .
 72
    65
 73
     6
 40
9.0
 49
4.0
 74
     0
 49
-1.0
 74
     0
 49
1.0
 74
     0
 49
-1.0
 74
     0
 49
1.0
 74
     0
 49
-1.0
 74
     0
  0
LTYPE
  5
22EF
330
5
100
AcDbSymbolTableRecord
100
AcDbLinetypeTableRecord
  2
ACISOTGL
 70
     0
  3
_ _ _ _ _
 72
    65
 73
     2
 40
3.0
 49
2.0
 74
     0
 49
-1.0
 74
     0
  0
ENDTAB
  0
TABLE
  2
LAYER
  5
2
330
0
100
AcDbSymbolTable
 70
     5
  0
LAYER
  5
10
330
2
100
AcDbSymbolTableRecord
100
AcDbLayerTableRecord
  2
0
 70
     0
 62
     7
  6
CONTINUOUS
  0
LAYER
  5
48
330
2
100
AcDbSymbolTableRecord
100
AcDbLayerTableRecord
  2
DIM
 70
     0
 62
     5
  6
CONTINUOUS
  0
LAYER
  5
4A
330
2
100
AcDbSymbolTableRecord
100
AcDbLayerTableRecord
  2
CENTER
 70
     0
 62
     1
  6
CENTER
  0
LAYER
  5
1545
330
2
100
AcDbSymbolTableRecord
100
AcDbLayerTableRecord
  2
LOGO
 70
     0
 62
     7
  6
CONTINUOUS
  0
LAYER
  5
1A52
330
2
100
AcDbSymbolTableRecord
100
AcDbLayerTableRecord
  2
DEFPOINTS
 70
     0
 62
     7
  6
CONTINUOUS
  0
ENDTAB
  0
TABLE
  2
STYLE
  5
3
330
0
100
AcDbSymbolTable
 70
     6
  0
STYLE
  5
11
330
3
100
AcDbSymbolTableRecord
100
AcDbTextStyleTableRecord
  2
STANDARD
 70
     0
 40
3.0
 41
1.0
 50
0.0
 71
     0
 42
3.0
  3
KAIU.TTF
  4

1001
ACAD
1000
DFKai-SB
1071
    34865
  0
STYLE
  5
5C
330
3
100
AcDbSymbolTableRecord
100
AcDbTextStyleTableRecord
  2
CHINESET
 70
     0
 40
3.0
 41
1.0
 50
0.0
 71
     0
 42
4.5
  3
simplex.shx
  4
CHINESET.shx
  0
STYLE
  5
1546
330
3
100
AcDbSymbolTableRecord
100
AcDbTextStyleTableRecord
  2
LOGO
 70
     0
 40
0.0
 41
1.0
 50
0.0
 71
     0
 42
5.0
  3
LEI00DP.TTF
  4

1001
ACAD
1000
文鼎中粗隸
1071
    34865
  0
STYLE
  5
22DE
330
3
100
AcDbSymbolTableRecord
100
AcDbTextStyleTableRecord
  2

 70
     1
 40
0.0
 41
1.0
 50
0.0
 71
     0
 42
4.5
  3
ltypeshp.shx
  4

  0
STYLE
  5
22E0
330
3
100
AcDbSymbolTableRecord
100
AcDbTextStyleTableRecord
  2
ACISOTS
 70
     0
 40
1.0
 41
1.0
 50
0.0
 71
     0
 42
4.5
  3
isocp.shx
  4
chineset.shx
  0
STYLE
  5
22EC
330
3
100
AcDbSymbolTableRecord
100
AcDbTextStyleTableRecord
  2
ACISOGDT
 70
     0
 40
0.0
 41
1.0
 50
0.0
 71
     0
 42
4.5
  3
amgdt.shx
  4

  0
ENDTAB
  0
TABLE
  2
VIEW
  5
6
330
0
100
AcDbSymbolTable
 70
     0
  0
ENDTAB
  0
TABLE
  2
UCS
  5
7
330
0
100
AcDbSymbolTable
 70
     0
  0
ENDTAB
  0
TABLE
  2
APPID
  5
9
330
0
100
AcDbSymbolTable
 70
     8
  0
APPID
  5
12
330
9
100
AcDbSymbolTableRecord
100
AcDbRegAppTableRecord
  2
ACAD
 70
     0
  0
APPID
  5
5F
330
9
100
AcDbSymbolTableRecord
100
AcDbRegAppTableRecord
  2
AD_DRAW
 70
     0
  0
APPID
  5
60
330
9
100
AcDbSymbolTableRecord
100
AcDbRegAppTableRecord
  2
DESIGNERASSEMBLIES
 70
     0
  0
APPID
  5
61
330
9
100
AcDbSymbolTableRecord
100
AcDbRegAppTableRecord
  2
MCAD_NO_VIS
 70
     0
  0
APPID
  5
62
330
9
100
AcDbSymbolTableRecord
100
AcDbRegAppTableRecord
  2
ASURF_PCURVE_APPNAME
 70
     0
  0
APPID
  5
11A1
330
9
100
AcDbSymbolTableRecord
100
AcDbRegAppTableRecord
  2
CONTENTBLOCKICON
 70
     0
  0
APPID
  5
22BA
330
9
100
AcDbSymbolTableRecord
100
AcDbRegAppTableRecord
  2
ACAD_TEMP_GRAPHIC
 70
     0
  0
APPID
  5
22CB
330
9
100
AcDbSymbolTableRecord
100
AcDbRegAppTableRecord
  2
ACATTRIBSERVICES
 70
     0
  0
ENDTAB
  0
TABLE
  2
DIMSTYLE
  5
A
330
0
100
AcDbSymbolTable
 70
     8
  0
DIMSTYLE
105
1A4
102
{ACAD_REACTORS
330
1C80
330
1C8F
330
1C9E
330
1CAB
330
1CB8
330
1CC5
330
1CD4
330
1CE1
330
1D1E
330
1D2E
330
1D3D
330
1D4C
330
1D59
330
1D68
330
1DC3
330
1DDD
330
1DEA
330
1E0C
330
1E1B
330
1EC7
330
1EE1
102
}
330
A
100
AcDbSymbolTableRecord
100
AcDbDimStyleTableRecord
  2
ISO-25-1
 70
     0
  3

  4

  5

  6

  7

 40
1.0
 41
3.0
 42
3.0
 43
2.0
 44
2.0
 45
0.0
 46
0.0
 47
0.0
 48
0.0
140
3.0
141
-3.0
142
0.0
143
25.4
144
1.0
145
0.0
146
0.7
147
1.0
 71
     0
 72
     0
 73
     0
 74
     0
 75
     0
 76
     0
 77
     1
 78
     8
170
     0
171
     2
172
     1
173
     0
174
     0
175
     0
176
   256
177
   256
178
   256
270
     2
271
     2
272
     2
273
     2
274
     2
340
5C
275
     0
280
     0
281
     0
282
     0
283
     1
284
     8
285
     0
286
     0
287
     0
288
     0
  0
DIMSTYLE
105
22F3
330
A
100
AcDbSymbolTableRecord
100
AcDbDimStyleTableRecord
  2
AM_ISO
 70
     0
  3

  4
"
  5

  6

  7

 40
1.0
 41
2.5
 42
1.0
 43
10.0
 44
1.0
 45
0.0
 46
0.0
 47
0.1
 48
0.1
140
3.5
141
0.0
142
0.0
143
0.0393701
144
1.0
145
0.0
146
0.71
147
1.5
 71
     0
 72
     0
 73
     0
 74
     0
 75
     0
 76
     0
 77
     1
 78
     8
170
     0
171
     2
172
     1
173
     0
174
     0
175
     0
176
   256
177
   256
178
     2
270
     2
271
     2
272
     3
273
     2
274
     4
340
11
275
     0
280
     0
281
     0
282
     0
283
     0
284
     8
285
     0
286
     0
287
     3
288
     0
  0
DIMSTYLE
105
22F4
330
A
100
AcDbSymbolTableRecord
100
AcDbDimStyleTableRecord
  2
AM_ISO$3
 70
     0
  3

  4
"
  5

  6

  7

 40
1.0
 41
2.5
 42
1.0
 43
10.0
 44
1.0
 45
0.0
 46
0.0
 47
0.1
 48
0.1
140
3.5
141
0.0
142
0.0
143
0.0393701
144
1.0
145
0.0
146
0.71
147
1.5
 71
     0
 72
     0
 73
     0
 74
     1
 75
     0
 76
     0
 77
     1
 78
     8
170
     0
171
     2
172
     0
173
     0
174
     0
175
     0
176
   256
177
   256
178
     2
270
     2
271
     2
272
     3
273
     2
274
     4
340
11
275
     0
280
     0
281
     0
282
     0
283
     0
284
     8
285
     0
286
     0
287
     0
288
     1
  0
DIMSTYLE
105
22F5
330
A
100
AcDbSymbolTableRecord
100
AcDbDimStyleTableRecord
  2
AM_ISO$4
 70
     0
  3

  4
"
  5

  6

  7

 40
1.0
 41
2.5
 42
1.0
 43
10.0
 44
1.0
 45
0.0
 46
0.0
 47
0.1
 48
0.1
140
3.5
141
0.0
142
0.0
143
0.0393701
144
1.0
145
0.0
146
0.71
147
1.5
 71
     0
 72
     0
 73
     0
 74
     1
 75
     0
 76
     0
 77
     1
 78
     8
170
     0
171
     2
172
     0
173
     0
174
     0
175
     0
176
   256
177
   256
178
     2
270
     2
271
     2
272
     3
273
     2
274
     4
340
11
275
     0
280
     0
281
     0
282
     0
283
     0
284
     8
285
     0
286
     0
287
     0
288
     1
  0
DIMSTYLE
105
22F6
330
A
100
AcDbSymbolTableRecord
100
AcDbDimStyleTableRecord
  2
AM_ISO$6
 70
     0
  3

  4
"
  5

  6

  7

 40
1.0
 41
2.5
 42
1.0
 43
10.0
 44
1.0
 45
0.0
 46
0.0
 47
0.1
 48
0.1
140
3.5
141
0.0
142
0.0
143
0.0393701
144
1.0
145
0.0
146
0.71
147
1.5
 71
     0
 72
     0
 73
     0
 74
     0
 75
     0
 76
     0
 77
     0
 78
     8
170
     0
171
     2
172
     1
173
     0
174
     0
175
     0
176
   256
177
   256
178
     2
270
     2
271
     2
272
     3
273
     2
274
     4
340
11
275
     0
280
     0
281
     0
282
     0
283
     0
284
     8
285
     0
286
     0
287
     3
288
     0
  0
DIMSTYLE
105
22F7
330
A
100
AcDbSymbolTableRecord
100
AcDbDimStyleTableRecord
  2
AM_ISO$7
 70
     0
  3

  4
"
  5

  6

  7

 40
1.0
 41
2.5
 42
1.0
 43
10.0
 44
1.0
 45
0.0
 46
0.0
 47
0.1
 48
0.1
140
5.0
141
0.0
142
0.0
143
0.0393701
144
1.0
145
0.0
146
0.71
147
1.5
 71
     0
 72
     0
 73
     0
 74
     0
 75
     0
 76
     0
 77
     1
 78
     8
170
     0
171
     2
172
     1
173
     0
174
     0
175
     0
176
   256
177
   256
178
     2
270
     2
271
     2
272
     3
273
     2
274
     4
340
11
275
     0
280
     0
281
     0
282
     0
283
     0
284
     8
285
     0
286
     0
287
     3
288
     0
  0
DIMSTYLE
105
22F8
330
A
100
AcDbSymbolTableRecord
100
AcDbDimStyleTableRecord
  2
AM_ISO$SF
 70
     0
  3

  4
"
  5

  6

  7

 40
1.0
 41
2.5
 42
1.0
 43
10.0
 44
1.0
 45
0.0
 46
0.0
 47
0.1
 48
0.1
140
3.5
141
0.0
142
0.0
143
0.0393701
144
1.0
145
0.0
146
0.71
147
1.5
 71
     0
 72
     0
 73
     0
 74
     0
 75
     1
 76
     1
 77
     1
 78
     8
170
     0
171
     2
172
     1
173
     0
174
     0
175
     0
176
   256
177
   256
178
     2
270
     2
271
     2
272
     3
273
     2
274
     4
340
11
275
     0
280
     0
281
     0
282
     0
283
     0
284
     8
285
     0
286
     0
287
     3
288
     0
  0
DIMSTYLE
105
22FD
330
A
100
AcDbSymbolTableRecord
100
AcDbDimStyleTableRecord
  2
AM_ISO$SH
 70
     0
  3

  4
"
  5

  6
GENAXEH
  7

 40
1.0
 41
2.5
 42
1.0
 43
10.0
 44
1.0
 45
0.0
 46
0.0
 47
0.1
 48
0.1
140
3.5
141
0.0
142
0.0
143
0.0393701
144
2.0
145
0.0
146
0.71
147
1.5
 71
     0
 72
     0
 73
     0
 74
     0
 75
     1
 76
     1
 77
     1
 78
     8
170
     0
171
     2
172
     1
173
     1
174
     0
175
     0
176
   256
177
   256
178
     2
270
     2
271
     2
272
     3
273
     2
274
     4
340
11
275
     0
280
     0
281
     0
282
     0
283
     0
284
     8
285
     0
286
     0
287
     3
288
     0
  0
ENDTAB
  0
TABLE
  2
BLOCK_RECORD
  5
1
330
0
100
AcDbSymbolTable
 70
    24
  0
BLOCK_RECORD
  5
1F
102
{ACAD_XDICTIONARY
360
221C
102
}
330
1
100
AcDbSymbolTableRecord
100
AcDbBlockTableRecord
  2
*MODEL_SPACE
  0
BLOCK_RECORD
  5
1B
102
{ACAD_XDICTIONARY
360
221E
102
}
330
1
100
AcDbSymbolTableRecord
100
AcDbBlockTableRecord
  2
*PAPER_SPACE
  0
BLOCK_RECORD
  5
1C81
330
1
100
AcDbSymbolTableRecord
100
AcDbBlockTableRecord
  2
*D1
  0
BLOCK_RECORD
  5
1C90
330
1
100
AcDbSymbolTableRecord
100
AcDbBlockTableRecord
  2
*D2
  0
BLOCK_RECORD
  5
1C9F
330
1
100
AcDbSymbolTableRecord
100
AcDbBlockTableRecord
  2
*D3
  0
BLOCK_RECORD
  5
1CAC
330
1
100
AcDbSymbolTableRecord
100
AcDbBlockTableRecord
  2
*D4
  0
BLOCK_RECORD
  5
1CB9
330
1
100
AcDbSymbolTableRecord
100
AcDbBlockTableRecord
  2
*D5
  0
BLOCK_RECORD
  5
1CC6
330
1
100
AcDbSymbolTableRecord
100
AcDbBlockTableRecord
  2
*D6
  0
BLOCK_RECORD
  5
1CD5
330
1
100
AcDbSymbolTableRecord
100
AcDbBlockTableRecord
  2
*D7
  0
BLOCK_RECORD
  5
1CE2
330
1
100
AcDbSymbolTableRecord
100
AcDbBlockTableRecord
  2
*D8
  0
BLOCK_RECORD
  5
1D1F
330
1
100
AcDbSymbolTableRecord
100
AcDbBlockTableRecord
  2
*D9
  0
BLOCK_RECORD
  5
1D2F
330
1
100
AcDbSymbolTableRecord
100
AcDbBlockTableRecord
  2
*D10
  0
BLOCK_RECORD
  5
1D3E
330
1
100
AcDbSymbolTableRecord
100
AcDbBlockTableRecord
  2
*D11
  0
BLOCK_RECORD
  5
1D4D
330
1
100
AcDbSymbolTableRecord
100
AcDbBlockTableRecord
  2
*D12
  0
BLOCK_RECORD
  5
1D5A
330
1
100
AcDbSymbolTableRecord
100
AcDbBlockTableRecord
  2
*D13
  0
BLOCK_RECORD
  5
1D69
330
1
100
AcDbSymbolTableRecord
100
AcDbBlockTableRecord
  2
*D14
  0
BLOCK_RECORD
  5
1DC4
330
1
100
AcDbSymbolTableRecord
100
AcDbBlockTableRecord
  2
*D15
  0
BLOCK_RECORD
  5
1DDE
330
1
100
AcDbSymbolTableRecord
100
AcDbBlockTableRecord
  2
*D16
  0
BLOCK_RECORD
  5
1DEB
330
1
100
AcDbSymbolTableRecord
100
AcDbBlockTableRecord
  2
*D17
  0
BLOCK_RECORD
  5
1E0D
330
1
100
AcDbSymbolTableRecord
100
AcDbBlockTableRecord
  2
*D18
  0
BLOCK_RECORD
  5
1E1C
330
1
100
AcDbSymbolTableRecord
100
AcDbBlockTableRecord
  2
*D19
  0
BLOCK_RECORD
  5
1EC8
330
1
100
AcDbSymbolTableRecord
100
AcDbBlockTableRecord
  2
*D20
  0
BLOCK_RECORD
  5
1EE2
330
1
100
AcDbSymbolTableRecord
100
AcDbBlockTableRecord
  2
*D21
  0
BLOCK_RECORD
  5
22F9
330
1
100
AcDbSymbolTableRecord
100
AcDbBlockTableRecord
  2
GENAXEH
  0
ENDTAB
  0
ENDSEC
  0
SECTION
  2
BLOCKS
  0
BLOCK
  5
20
330
1F
100
AcDbEntity
  8
0
100
AcDbBlockBegin
  2
*MODEL_SPACE
 70
     0
 10
0.0
 20
0.0
 30
0.0
  3
*MODEL_SPACE
  1

  0
ENDBLK
  5
21
330
1F
100
AcDbEntity
  8
0
100
AcDbBlockEnd
  0
BLOCK
  5
1C
330
1B
100
AcDbEntity
 67
     1
  8
0
100
AcDbBlockBegin
  2
*PAPER_SPACE
 70
     0
 10
0.0
 20
0.0
 30
0.0
  3
*PAPER_SPACE
  1

  0
ENDBLK
  5
1D
330
1B
100
AcDbEntity
 67
     1
  8
0
100
AcDbBlockEnd
  0
BLOCK
  5
1C8D
330
1C81
100
AcDbEntity
  8
0
100
AcDbBlockBegin
  2
*D1
 70
     1
 10
0.0
 20
0.0
 30
0.0
  3
*D1
  1

  0
LINE
  5
20F4
330
1C81
100
AcDbEntity
  8
DIM
100
AcDbLine
 10
104.8994156332906
 20
184.2307611733091
 30
0.0
 11
104.8994156332906
 21
196.6041257625217
 31
0.0
  0
LINE
  5
20F5
330
1C81
100
AcDbEntity
  8
DIM
100
AcDbLine
 10
112.8994156332906
 20
189.4407611733091
 30
0.0
 11
112.8994156332906
 21
196.6041257625217
 31
0.0
  0
LINE
  5
20F6
330
1C81
100
AcDbEntity
  8
DIM
100
AcDbLine
 10
101.8994156332906
 20
194.6041257625218
 30
0.0
 11
98.89941563329069
 21
194.6041257625218
 31
0.0
  0
LINE
  5
20F7
330
1C81
100
AcDbEntity
  8
DIM
100
AcDbLine
 10
115.8994156332906
 20
194.6041257625218
 30
0.0
 11
118.8994156332906
 21
194.6041257625218
 31
0.0
  0
LINE
  5
20F8
330
1C81
100
AcDbEntity
  8
DIM
100
AcDbLine
 10
104.8994156332906
 20
194.6041257625218
 30
0.0
 11
112.8994156332906
 21
194.6041257625218
 31
0.0
  0
SOLID
  5
20F9
330
1C81
100
AcDbEntity
  8
DIM
100
AcDbTrace
 10
101.8994156332906
 20
195.1041257625217
 30
0.0
 11
101.8994156332906
 21
194.1041257625217
 31
0.0
 12
104.8994156332906
 22
194.6041257625218
 32
0.0
 13
104.8994156332906
 23
194.6041257625218
 33
0.0
  0
SOLID
  5
20FA
330
1C81
100
AcDbEntity
  8
DIM
100
AcDbTrace
 10
115.8994156332906
 20
195.1041257625217
 30
0.0
 11
115.8994156332906
 21
194.1041257625217
 31
0.0
 12
112.8994156332906
 22
194.6041257625218
 32
0.0
 13
112.8994156332906
 23
194.6041257625218
 33
0.0
  0
MTEXT
  5
20FB
330
1C81
100
AcDbEntity
  8
DIM
100
AcDbMText
 10
108.8994156332906
 20
197.1041257625217
 30
0.0
 40
3.0
 41
0.0
 71
     5
 72
     1
  1
\A1;8
  7
CHINESET
1001
ACAD
1000
MTEXTBEGIN
1070
    73
1070
     1
1070
    44
1040
1.0
1070
    74
1070
     0
1000
MTEXTEND
  0
POINT
  5
20FC
330
1C81
100
AcDbEntity
  8
DEFPOINTS
 62
     0
100
AcDbPoint
 10
104.8994156332906
 20
181.2307611733091
 30
0.0
  0
POINT
  5
20FD
330
1C81
100
AcDbEntity
  8
DEFPOINTS
 62
     0
100
AcDbPoint
 10
112.8994156332906
 20
186.4407611733091
 30
0.0
  0
POINT
  5
20FE
330
1C81
100
AcDbEntity
  8
DEFPOINTS
 62
     0
100
AcDbPoint
 10
112.8994156332906
 20
194.6041257625218
 30
0.0
  0
ENDBLK
  5
1C8E
330
1C81
100
AcDbEntity
  8
0
100
AcDbBlockEnd
  0
BLOCK
  5
1C9C
330
1C90
100
AcDbEntity
  8
0
100
AcDbBlockBegin
  2
*D2
 70
     1
 10
0.0
 20
0.0
 30
0.0
  3
*D2
  1

  0
LINE
  5
20E0
330
1C90
100
AcDbEntity
  8
DIM
100
AcDbLine
 10
100.3994156332906
 20
184.2307611733091
 30
0.0
 11
100.3994156332906
 21
196.6041257625217
 31
0.0
  0
LINE
  5
20E1
330
1C90
100
AcDbEntity
  8
DIM
100
AcDbLine
 10
92.39941563329068
 20
189.4407611733091
 30
0.0
 11
92.39941563329068
 21
196.6041257625217
 31
0.0
  0
LINE
  5
20E2
330
1C90
100
AcDbEntity
  8
DIM
100
AcDbLine
 10
103.3994156332906
 20
194.6041257625218
 30
0.0
 11
106.3994156332906
 21
194.6041257625218
 31
0.0
  0
LINE
  5
20E3
330
1C90
100
AcDbEntity
  8
DIM
100
AcDbLine
 10
89.39941563329069
 20
194.6041257625218
 30
0.0
 11
86.39941563329069
 21
194.6041257625218
 31
0.0
  0
LINE
  5
20E4
330
1C90
100
AcDbEntity
  8
DIM
100
AcDbLine
 10
100.3994156332906
 20
194.6041257625218
 30
0.0
 11
92.39941563329068
 21
194.6041257625218
 31
0.0
  0
SOLID
  5
20E5
330
1C90
100
AcDbEntity
  8
DIM
100
AcDbTrace
 10
103.3994156332906
 20
195.1041257625217
 30
0.0
 11
103.3994156332906
 21
194.1041257625217
 31
0.0
 12
100.3994156332906
 22
194.6041257625218
 32
0.0
 13
100.3994156332906
 23
194.6041257625218
 33
0.0
  0
SOLID
  5
20E6
330
1C90
100
AcDbEntity
  8
DIM
100
AcDbTrace
 10
89.39941563329069
 20
195.1041257625217
 30
0.0
 11
89.39941563329069
 21
194.1041257625217
 31
0.0
 12
92.39941563329068
 22
194.6041257625218
 32
0.0
 13
92.39941563329068
 23
194.6041257625218
 33
0.0
  0
MTEXT
  5
20E7
330
1C90
100
AcDbEntity
  8
DIM
100
AcDbMText
 10
96.39941563329069
 20
197.1041257625217
 30
0.0
 40
3.0
 41
0.0
 71
     5
 72
     1
  1
\A1;8
  7
CHINESET
1001
ACAD
1000
MTEXTBEGIN
1070
    73
1070
     1
1070
    44
1040
1.0
1070
    74
1070
     0
1000
MTEXTEND
  0
POINT
  5
20E8
330
1C90
100
AcDbEntity
  8
DEFPOINTS
 62
     0
100
AcDbPoint
 10
100.3994156332906
 20
181.2307611733091
 30
0.0
  0
POINT
  5
20E9
330
1C90
100
AcDbEntity
  8
DEFPOINTS
 62
     0
100
AcDbPoint
 10
92.39941563329068
 20
186.4407611733091
 30
0.0
  0
POINT
  5
20EA
330
1C90
100
AcDbEntity
  8
DEFPOINTS
 62
     0
100
AcDbPoint
 10
92.39941563329068
 20
194.6041257625218
 30
0.0
  0
ENDBLK
  5
1C9D
330
1C90
100
AcDbEntity
  8
0
100
AcDbBlockEnd
  0
BLOCK
  5
1CA9
330
1C9F
100
AcDbEntity
  8
0
100
AcDbBlockBegin
  2
*D3
 70
     1
 10
0.0
 20
0.0
 30
0.0
  3
*D3
  1

  0
LINE
  5
20D5
330
1C9F
100
AcDbEntity
  8
DIM
100
AcDbLine
 10
112.8994156332906
 20
189.4407611733091
 30
0.0
 11
112.8994156332906
 21
205.9574347314378
 31
0.0
  0
LINE
  5
20D6
330
1C9F
100
AcDbEntity
  8
DIM
100
AcDbLine
 10
92.39941563329068
 20
189.4407611733091
 30
0.0
 11
92.39941563329068
 21
205.9574347314378
 31
0.0
  0
LINE
  5
20D7
330
1C9F
100
AcDbEntity
  8
DIM
100
AcDbLine
 10
115.8994156332906
 20
203.9574347314378
 30
0.0
 11
118.8994156332906
 21
203.9574347314378
 31
0.0
  0
LINE
  5
20D8
330
1C9F
100
AcDbEntity
  8
DIM
100
AcDbLine
 10
89.39941563329069
 20
203.9574347314378
 30
0.0
 11
64.97084420471924
 21
203.9574347314378
 31
0.0
  0
LINE
  5
20D9
330
1C9F
100
AcDbEntity
  8
DIM
100
AcDbLine
 10
112.8994156332906
 20
203.9574347314378
 30
0.0
 11
92.39941563329068
 21
203.9574347314378
 31
0.0
  0
SOLID
  5
20DA
330
1C9F
100
AcDbEntity
  8
DIM
100
AcDbTrace
 10
115.8994156332906
 20
204.4574347314378
 30
0.0
 11
115.8994156332906
 21
203.4574347314378
 31
0.0
 12
112.8994156332906
 22
203.9574347314378
 32
0.0
 13
112.8994156332906
 23
203.9574347314378
 33
0.0
  0
SOLID
  5
20DB
330
1C9F
100
AcDbEntity
  8
DIM
100
AcDbTrace
 10
89.39941563329069
 20
204.4574347314378
 30
0.0
 11
89.39941563329069
 21
203.4574347314378
 31
0.0
 12
92.39941563329068
 22
203.9574347314378
 32
0.0
 13
92.39941563329068
 23
203.9574347314378
 33
0.0
  0
MTEXT
  5
20DC
330
1C9F
100
AcDbEntity
  8
DIM
100
AcDbMText
 10
75.68512991900496
 20
206.4574347314378
 30
0.0
 40
3.0
 41
0.0
 71
     5
 72
     1
  1
\A1;20.5+ST.
  7
CHINESET
1001
ACAD
1000
MTEXTBEGIN
1070
    73
1070
     1
1070
    44
1040
1.0
1070
    74
1070
     0
1000
MTEXTEND
  0
POINT
  5
20DD
330
1C9F
100
AcDbEntity
  8
DEFPOINTS
 62
     0
100
AcDbPoint
 10
112.8994156332906
 20
186.4407611733091
 30
0.0
  0
POINT
  5
20DE
330
1C9F
100
AcDbEntity
  8
DEFPOINTS
 62
     0
100
AcDbPoint
 10
92.39941563329068
 20
186.4407611733091
 30
0.0
  0
POINT
  5
20DF
330
1C9F
100
AcDbEntity
  8
DEFPOINTS
 62
     0
100
AcDbPoint
 10
92.39941563329068
 20
203.9574347314378
 30
0.0
  0
ENDBLK
  5
1CAA
330
1C9F
100
AcDbEntity
  8
0
100
AcDbBlockEnd
  0
BLOCK
  5
1CB6
330
1CAC
100
AcDbEntity
  8
0
100
AcDbBlockBegin
  2
*D4
 70
     1
 10
0.0
 20
0.0
 30
0.0
  3
*D4
  1

  0
LINE
  5
20EB
330
1CAC
100
AcDbEntity
  8
DIM
100
AcDbLine
 10
112.8994156332906
 20
189.4407611733091
 30
0.0
 11
112.8994156332906
 21
205.9574347314378
 31
0.0
  0
LINE
  5
20EC
330
1CAC
100
AcDbEntity
  8
DIM
100
AcDbLine
 10
127.3994156332906
 20
177.400761173309
 30
0.0
 11
127.3994156332906
 21
205.9574347314378
 31
0.0
  0
LINE
  5
20ED
330
1CAC
100
AcDbEntity
  8
DIM
100
AcDbLine
 10
115.8994156332906
 20
203.9574347314378
 30
0.0
 11
124.3994156332906
 21
203.9574347314378
 31
0.0
  0
SOLID
  5
20EE
330
1CAC
100
AcDbEntity
  8
DIM
100
AcDbTrace
 10
115.8994156332906
 20
204.4574347314378
 30
0.0
 11
115.8994156332906
 21
203.4574347314378
 31
0.0
 12
112.8994156332906
 22
203.9574347314378
 32
0.0
 13
112.8994156332906
 23
203.9574347314378
 33
0.0
  0
SOLID
  5
20EF
330
1CAC
100
AcDbEntity
  8
DIM
100
AcDbTrace
 10
124.3994156332906
 20
204.4574347314378
 30
0.0
 11
124.3994156332906
 21
203.4574347314378
 31
0.0
 12
127.3994156332906
 22
203.9574347314378
 32
0.0
 13
127.3994156332906
 23
203.9574347314378
 33
0.0
  0
MTEXT
  5
20F0
330
1CAC
100
AcDbEntity
  8
DIM
100
AcDbMText
 10
120.1494156332906
 20
206.4574347314378
 30
0.0
 40
3.0
 41
0.0
 71
     5
 72
     1
  1
\A1;14.5
  7
CHINESET
1001
ACAD
1000
MTEXTBEGIN
1070
    73
1070
     1
1070
    44
1040
1.0
1070
    74
1070
     0
1000
MTEXTEND
  0
POINT
  5
20F1
330
1CAC
100
AcDbEntity
  8
DEFPOINTS
 62
     0
100
AcDbPoint
 10
112.8994156332906
 20
186.4407611733091
 30
0.0
  0
POINT
  5
20F2
330
1CAC
100
AcDbEntity
  8
DEFPOINTS
 62
     0
100
AcDbPoint
 10
127.3994156332906
 20
174.400761173309
 30
0.0
  0
POINT
  5
20F3
330
1CAC
100
AcDbEntity
  8
DEFPOINTS
 62
     0
100
AcDbPoint
 10
127.3994156332906
 20
203.9574347314378
 30
0.0
  0
ENDBLK
  5
1CB7
330
1CAC
100
AcDbEntity
  8
0
100
AcDbBlockEnd
  0
BLOCK
  5
1CC3
330
1CB9
100
AcDbEntity
  8
0
100
AcDbBlockBegin
  2
*D5
 70
     1
 10
0.0
 20
0.0
 30
0.0
  3
*D5
  1

  0
LINE
  5
20CC
330
1CB9
100
AcDbEntity
  8
DIM
100
AcDbLine
 10
127.3994156332906
 20
177.400761173309
 30
0.0
 11
127.3994156332906
 21
215.7993496036626
 31
0.0
  0
LINE
  5
20CD
330
1CB9
100
AcDbEntity
  8
DIM
100
AcDbLine
 10
92.39941563329068
 20
189.4407611733091
 30
0.0
 11
92.39941563329068
 21
215.7993496036626
 31
0.0
  0
LINE
  5
20CE
330
1CB9
100
AcDbEntity
  8
DIM
100
AcDbLine
 10
124.3994156332906
 20
213.7993496036626
 30
0.0
 11
95.39941563329069
 21
213.7993496036626
 31
0.0
  0
SOLID
  5
20CF
330
1CB9
100
AcDbEntity
  8
DIM
100
AcDbTrace
 10
124.3994156332906
 20
214.2993496036627
 30
0.0
 11
124.3994156332906
 21
213.2993496036626
 31
0.0
 12
127.3994156332906
 22
213.7993496036626
 32
0.0
 13
127.3994156332906
 23
213.7993496036626
 33
0.0
  0
SOLID
  5
20D0
330
1CB9
100
AcDbEntity
  8
DIM
100
AcDbTrace
 10
95.39941563329069
 20
214.2993496036627
 30
0.0
 11
95.39941563329069
 21
213.2993496036626
 31
0.0
 12
92.39941563329068
 22
213.7993496036626
 32
0.0
 13
92.39941563329068
 23
213.7993496036626
 33
0.0
  0
MTEXT
  5
20D1
330
1CB9
100
AcDbEntity
  8
DIM
100
AcDbMText
 10
109.8994156332906
 20
216.2993496036626
 30
0.0
 40
3.0
 41
0.0
 71
     5
 72
     1
  1
\A1;35
  7
CHINESET
1001
ACAD
1000
MTEXTBEGIN
1070
    73
1070
     1
1070
    44
1040
1.0
1070
    74
1070
     0
1000
MTEXTEND
  0
POINT
  5
20D2
330
1CB9
100
AcDbEntity
  8
DEFPOINTS
 62
     0
100
AcDbPoint
 10
127.3994156332906
 20
174.400761173309
 30
0.0
  0
POINT
  5
20D3
330
1CB9
100
AcDbEntity
  8
DEFPOINTS
 62
     0
100
AcDbPoint
 10
92.39941563329068
 20
186.4407611733091
 30
0.0
  0
POINT
  5
20D4
330
1CB9
100
AcDbEntity
  8
DEFPOINTS
 62
     0
100
AcDbPoint
 10
92.39941563329068
 20
213.7993496036626
 30
0.0
  0
ENDBLK
  5
1CC4
330
1CB9
100
AcDbEntity
  8
0
100
AcDbBlockEnd
  0
BLOCK
  5
1CD2
330
1CC6
100
AcDbEntity
  8
0
100
AcDbBlockBegin
  2
*D6
 70
     1
 10
0.0
 20
0.0
 30
0.0
  3
*D6
  1

  0
LINE
  5
20FF
330
1CC6
100
AcDbEntity
  8
DIM
100
AcDbLine
 10
116.3594156332904
 20
175.9407611733091
 30
0.0
 11
141.3416842498216
 21
175.9407611733091
 31
0.0
  0
LINE
  5
2100
330
1CC6
100
AcDbEntity
  8
DIM
100
AcDbLine
 10
116.3994156332905
 20
167.9407611733091
 30
0.0
 11
141.3416842498216
 21
167.9407611733091
 31
0.0
  0
LINE
  5
2101
330
1CC6
100
AcDbEntity
  8
DIM
100
AcDbLine
 10
139.3416842498216
 20
178.9407611733091
 30
0.0
 11
139.3416842498216
 21
181.9407611733091
 31
0.0
  0
LINE
  5
2102
330
1CC6
100
AcDbEntity
  8
DIM
100
AcDbLine
 10
139.3416842498216
 20
164.9407611733091
 30
0.0
 11
139.3416842498216
 21
161.9407611733091
 31
0.0
  0
LINE
  5
2103
330
1CC6
100
AcDbEntity
  8
DIM
100
AcDbLine
 10
139.3416842498216
 20
175.9407611733091
 30
0.0
 11
139.3416842498216
 21
167.9407611733091
 31
0.0
  0
SOLID
  5
2104
330
1CC6
100
AcDbEntity
  8
DIM
100
AcDbTrace
 10
138.8416842498216
 20
178.9407611733091
 30
0.0
 11
139.8416842498216
 21
178.9407611733091
 31
0.0
 12
139.3416842498216
 22
175.9407611733091
 32
0.0
 13
139.3416842498216
 23
175.9407611733091
 33
0.0
  0
SOLID
  5
2105
330
1CC6
100
AcDbEntity
  8
DIM
100
AcDbTrace
 10
138.8416842498216
 20
164.9407611733091
 30
0.0
 11
139.8416842498216
 21
164.9407611733091
 31
0.0
 12
139.3416842498216
 22
167.9407611733091
 32
0.0
 13
139.3416842498216
 23
167.9407611733091
 33
0.0
  0
MTEXT
  5
2106
330
1CC6
100
AcDbEntity
  8
DIM
100
AcDbMText
 10
136.8416842498215
 20
171.9407611733091
 30
0.0
 40
3.0
 41
0.0
 71
     5
 72
     1
  1
\A1;%%c8
  7
CHINESET
 11
0.0000000000000001
 21
1.0
 31
0.0
1001
ACAD
1000
MTEXTBEGIN
1070
    73
1070
     1
1070
    44
1040
1.0
1070
    74
1070
     0
1000
MTEXTEND
  0
POINT
  5
2107
330
1CC6
100
AcDbEntity
  8
DEFPOINTS
 62
     0
100
AcDbPoint
 10
113.3594156332904
 20
175.9407611733091
 30
0.0
  0
POINT
  5
2108
330
1CC6
100
AcDbEntity
  8
DEFPOINTS
 62
     0
100
AcDbPoint
 10
113.3994156332905
 20
167.9407611733091
 30
0.0
  0
POINT
  5
2109
330
1CC6
100
AcDbEntity
  8
DEFPOINTS
 62
     0
100
AcDbPoint
 10
139.3416842498216
 20
167.9407611733091
 30
0.0
  0
ENDBLK
  5
1CD3
330
1CC6
100
AcDbEntity
  8
0
100
AcDbBlockEnd
  0
BLOCK
  5
1CDF
330
1CD5
100
AcDbEntity
  8
0
100
AcDbBlockBegin
  2
*D7
 70
     1
 10
0.0
 20
0.0
 30
0.0
  3
*D7
  1

  0
LINE
  5
2127
330
1CD5
100
AcDbEntity
  8
DIM
100
AcDbLine
 10
178.6487230052737
 20
186.4407611733093
 30
0.0
 11
157.9593960217471
 21
186.4407611733093
 31
0.0
  0
LINE
  5
2128
330
1CD5
100
AcDbEntity
  8
DIM
100
AcDbLine
 10
178.6487230052737
 20
157.4407611733087
 30
0.0
 11
157.9593960217471
 21
157.4407611733087
 31
0.0
  0
LINE
  5
2129
330
1CD5
100
AcDbEntity
  8
DIM
100
AcDbLine
 10
159.9593960217471
 20
183.4407611733093
 30
0.0
 11
159.9593960217471
 21
160.4407611733087
 31
0.0
  0
SOLID
  5
212A
330
1CD5
100
AcDbEntity
  8
DIM
100
AcDbTrace
 10
159.4593960217471
 20
183.4407611733093
 30
0.0
 11
160.4593960217471
 21
183.4407611733093
 31
0.0
 12
159.9593960217471
 22
186.4407611733093
 32
0.0
 13
159.9593960217471
 23
186.4407611733093
 33
0.0
  0
SOLID
  5
212B
330
1CD5
100
AcDbEntity
  8
DIM
100
AcDbTrace
 10
159.4593960217471
 20
160.4407611733087
 30
0.0
 11
160.4593960217471
 21
160.4407611733087
 31
0.0
 12
159.9593960217471
 22
157.4407611733087
 32
0.0
 13
159.9593960217471
 23
157.4407611733087
 33
0.0
  0
MTEXT
  5
212C
330
1CD5
100
AcDbEntity
  8
DIM
100
AcDbMText
 10
157.4593960217471
 20
171.9407611733091
 30
0.0
 40
3.0
 41
0.0
 71
     5
 72
     1
  1
\A1;\U+25A129
  7
CHINESET
 11
0.0000000000000001
 21
1.0
 31
0.0
1001
ACAD
1000
MTEXTBEGIN
1070
    73
1070
     1
1070
    44
1040
1.0
1070
    74
1070
     0
1000
MTEXTEND
  0
POINT
  5
212D
330
1CD5
100
AcDbEntity
  8
DEFPOINTS
 62
     0
100
AcDbPoint
 10
181.6487230052737
 20
186.4407611733093
 30
0.0
  0
POINT
  5
212E
330
1CD5
100
AcDbEntity
  8
DEFPOINTS
 62
     0
100
AcDbPoint
 10
181.6487230052737
 20
157.4407611733087
 30
0.0
  0
POINT
  5
212F
330
1CD5
100
AcDbEntity
  8
DEFPOINTS
 62
     0
100
AcDbPoint
 10
159.9593960217471
 20
157.4407611733087
 30
0.0
  0
ENDBLK
  5
1CE0
330
1CD5
100
AcDbEntity
  8
0
100
AcDbBlockEnd
  0
BLOCK
  5
1CEC
330
1CE2
100
AcDbEntity
  8
0
100
AcDbBlockBegin
  2
*D8
 70
     1
 10
0.0
 20
0.0
 30
0.0
  3
*D8
  1

  0
LINE
  5
211E
330
1CE2
100
AcDbEntity
  8
DIM
100
AcDbLine
 10
196.6878632741932
 20
181.8407611733089
 30
0.0
 11
167.1671680566146
 21
181.8407611733089
 31
0.0
  0
LINE
  5
211F
330
1CE2
100
AcDbEntity
  8
DIM
100
AcDbLine
 10
176.8878632741932
 20
162.040761173309
 30
0.0
 11
167.1671680566146
 21
162.040761173309
 31
0.0
  0
LINE
  5
2120
330
1CE2
100
AcDbEntity
  8
DIM
100
AcDbLine
 10
169.1671680566146
 20
178.840761173309
 30
0.0
 11
169.1671680566146
 21
165.040761173309
 31
0.0
  0
SOLID
  5
2121
330
1CE2
100
AcDbEntity
  8
DIM
100
AcDbTrace
 10
168.6671680566146
 20
178.840761173309
 30
0.0
 11
169.6671680566146
 21
178.840761173309
 31
0.0
 12
169.1671680566146
 22
181.8407611733089
 32
0.0
 13
169.1671680566146
 23
181.8407611733089
 33
0.0
  0
SOLID
  5
2122
330
1CE2
100
AcDbEntity
  8
DIM
100
AcDbTrace
 10
168.6671680566146
 20
165.040761173309
 30
0.0
 11
169.6671680566146
 21
165.040761173309
 31
0.0
 12
169.1671680566146
 22
162.040761173309
 32
0.0
 13
169.1671680566146
 23
162.040761173309
 33
0.0
  0
MTEXT
  5
2123
330
1CE2
100
AcDbEntity
  8
DIM
100
AcDbMText
 10
166.6671680566146
 20
171.940761173309
 30
0.0
 40
3.0
 41
0.0
 71
     5
 72
     1
  1
\A1;\U+25A119.8
  7
CHINESET
 11
0.0000000000000001
 21
1.0
 31
0.0
1001
ACAD
1000
MTEXTBEGIN
1070
    73
1070
     1
1070
    44
1040
1.0
1070
    74
1070
     0
1000
MTEXTEND
  0
POINT
  5
2124
330
1CE2
100
AcDbEntity
  8
DEFPOINTS
 62
     0
100
AcDbPoint
 10
199.6878632741932
 20
181.8407611733089
 30
0.0
  0
POINT
  5
2125
330
1CE2
100
AcDbEntity
  8
DEFPOINTS
 62
     0
100
AcDbPoint
 10
179.8878632741932
 20
162.040761173309
 30
0.0
  0
POINT
  5
2126
330
1CE2
100
AcDbEntity
  8
DEFPOINTS
 62
     0
100
AcDbPoint
 10
169.1671680566146
 20
162.040761173309
 30
0.0
  0
ENDBLK
  5
1CED
330
1CE2
100
AcDbEntity
  8
0
100
AcDbBlockEnd
  0
BLOCK
  5
1D29
330
1D1F
100
AcDbEntity
  8
0
100
AcDbBlockBegin
  2
*D9
 70
     1
 10
0.0
 20
0.0
 30
0.0
  3
*D9
  1

  0
LINE
  5
210A
330
1D1F
100
AcDbEntity
  8
DIM
100
AcDbLine
 10
127.3994156332906
 20
177.400761173309
 30
0.0
 11
127.3994156332906
 21
185.9651627836335
 31
0.0
  0
LINE
  5
210B
330
1D1F
100
AcDbEntity
  8
DIM
100
AcDbLine
 10
118.3994156332906
 20
177.900761173309
 30
0.0
 11
118.3994156332906
 21
185.9651627836335
 31
0.0
  0
LINE
  5
210C
330
1D1F
100
AcDbEntity
  8
DIM
100
AcDbLine
 10
124.3994156332906
 20
183.9651627836335
 30
0.0
 11
121.3994156332906
 21
183.9651627836335
 31
0.0
  0
SOLID
  5
210D
330
1D1F
100
AcDbEntity
  8
DIM
100
AcDbTrace
 10
124.3994156332906
 20
184.4651627836335
 30
0.0
 11
124.3994156332906
 21
183.4651627836335
 31
0.0
 12
127.3994156332906
 22
183.9651627836335
 32
0.0
 13
127.3994156332906
 23
183.9651627836335
 33
0.0
  0
SOLID
  5
210E
330
1D1F
100
AcDbEntity
  8
DIM
100
AcDbTrace
 10
121.3994156332906
 20
184.4651627836335
 30
0.0
 11
121.3994156332906
 21
183.4651627836335
 31
0.0
 12
118.3994156332906
 22
183.9651627836335
 32
0.0
 13
118.3994156332906
 23
183.9651627836335
 33
0.0
  0
MTEXT
  5
210F
330
1D1F
100
AcDbEntity
  8
DIM
100
AcDbMText
 10
122.8994156332906
 20
186.4651627836335
 30
0.0
 40
3.0
 41
0.0
 71
     5
 72
     1
  1
\A1;9
  7
CHINESET
1001
ACAD
1000
MTEXTBEGIN
1070
    73
1070
     1
1070
    44
1040
1.0
1070
    74
1070
     0
1000
MTEXTEND
  0
POINT
  5
2110
330
1D1F
100
AcDbEntity
  8
DEFPOINTS
 62
     0
100
AcDbPoint
 10
127.3994156332906
 20
174.400761173309
 30
0.0
  0
POINT
  5
2111
330
1D1F
100
AcDbEntity
  8
DEFPOINTS
 62
     0
100
AcDbPoint
 10
118.3994156332906
 20
174.9007611733091
 30
0.0
  0
POINT
  5
2112
330
1D1F
100
AcDbEntity
  8
DEFPOINTS
 62
     0
100
AcDbPoint
 10
118.3994156332906
 20
183.9651627836335
 30
0.0
  0
ENDBLK
  5
1D2A
330
1D1F
100
AcDbEntity
  8
0
100
AcDbBlockEnd
  0
BLOCK
  5
1D3B
330
1D2F
100
AcDbEntity
  8
0
100
AcDbBlockBegin
  2
*D10
 70
     1
 10
0.0
 20
0.0
 30
0.0
  3
*D10
  1

  0
LINE
  5
2165
330
1D2F
100
AcDbEntity
  8
DIM
100
AcDbLine
 10
104.8994156332906
 20
82.53601269921182
 30
0.0
 11
104.8994156332906
 21
93.26700548689847
 31
0.0
  0
LINE
  5
2166
330
1D2F
100
AcDbEntity
  8
DIM
100
AcDbLine
 10
112.8994156332906
 20
87.74601269921181
 30
0.0
 11
112.8994156332906
 21
93.26700548689847
 31
0.0
  0
LINE
  5
2167
330
1D2F
100
AcDbEntity
  8
DIM
100
AcDbLine
 10
101.8994156332906
 20
91.26700548689848
 30
0.0
 11
98.89941563329069
 21
91.26700548689848
 31
0.0
  0
LINE
  5
2168
330
1D2F
100
AcDbEntity
  8
DIM
100
AcDbLine
 10
115.8994156332906
 20
91.26700548689848
 30
0.0
 11
118.8994156332906
 21
91.26700548689848
 31
0.0
  0
LINE
  5
2169
330
1D2F
100
AcDbEntity
  8
DIM
100
AcDbLine
 10
104.8994156332906
 20
91.26700548689848
 30
0.0
 11
112.8994156332906
 21
91.26700548689848
 31
0.0
  0
SOLID
  5
216A
330
1D2F
100
AcDbEntity
  8
DIM
100
AcDbTrace
 10
101.8994156332906
 20
91.76700548689849
 30
0.0
 11
101.8994156332906
 21
90.76700548689847
 31
0.0
 12
104.8994156332906
 22
91.26700548689848
 32
0.0
 13
104.8994156332906
 23
91.26700548689848
 33
0.0
  0
SOLID
  5
216B
330
1D2F
100
AcDbEntity
  8
DIM
100
AcDbTrace
 10
115.8994156332906
 20
91.76700548689849
 30
0.0
 11
115.8994156332906
 21
90.76700548689847
 31
0.0
 12
112.8994156332906
 22
91.26700548689848
 32
0.0
 13
112.8994156332906
 23
91.26700548689848
 33
0.0
  0
MTEXT
  5
216C
330
1D2F
100
AcDbEntity
  8
DIM
100
AcDbMText
 10
108.8994156332906
 20
93.76700548689848
 30
0.0
 40
3.0
 41
0.0
 71
     5
 72
     1
  1
\A1;8
  7
CHINESET
1001
ACAD
1000
MTEXTBEGIN
1070
    73
1070
     1
1070
    44
1040
1.0
1070
    74
1070
     0
1000
MTEXTEND
  0
POINT
  5
216D
330
1D2F
100
AcDbEntity
  8
DEFPOINTS
 62
     0
100
AcDbPoint
 10
104.8994156332906
 20
79.53601269921183
 30
0.0
  0
POINT
  5
216E
330
1D2F
100
AcDbEntity
  8
DEFPOINTS
 62
     0
100
AcDbPoint
 10
112.8994156332906
 20
84.7460126992118
 30
0.0
  0
POINT
  5
216F
330
1D2F
100
AcDbEntity
  8
DEFPOINTS
 62
     0
100
AcDbPoint
 10
112.8994156332906
 20
91.26700548689848
 30
0.0
  0
ENDBLK
  5
1D3C
330
1D2F
100
AcDbEntity
  8
0
100
AcDbBlockEnd
  0
BLOCK
  5
1D4A
330
1D3E
100
AcDbEntity
  8
0
100
AcDbBlockBegin
  2
*D11
 70
     1
 10
0.0
 20
0.0
 30
0.0
  3
*D11
  1

  0
LINE
  5
215A
330
1D3E
100
AcDbEntity
  8
DIM
100
AcDbLine
 10
100.3994156332906
 20
82.53601269921189
 30
0.0
 11
100.3994156332906
 21
93.26700548689847
 31
0.0
  0
LINE
  5
215B
330
1D3E
100
AcDbEntity
  8
DIM
100
AcDbLine
 10
92.39941563329068
 20
87.74601269921186
 30
0.0
 11
92.39941563329068
 21
93.26700548689847
 31
0.0
  0
LINE
  5
215C
330
1D3E
100
AcDbEntity
  8
DIM
100
AcDbLine
 10
103.3994156332906
 20
91.26700548689848
 30
0.0
 11
106.3994156332906
 21
91.26700548689848
 31
0.0
  0
LINE
  5
215D
330
1D3E
100
AcDbEntity
  8
DIM
100
AcDbLine
 10
89.39941563329069
 20
91.26700548689848
 30
0.0
 11
86.39941563329069
 21
91.26700548689848
 31
0.0
  0
LINE
  5
215E
330
1D3E
100
AcDbEntity
  8
DIM
100
AcDbLine
 10
100.3994156332906
 20
91.26700548689848
 30
0.0
 11
92.39941563329068
 21
91.26700548689848
 31
0.0
  0
SOLID
  5
215F
330
1D3E
100
AcDbEntity
  8
DIM
100
AcDbTrace
 10
103.3994156332906
 20
91.76700548689849
 30
0.0
 11
103.3994156332906
 21
90.76700548689847
 31
0.0
 12
100.3994156332906
 22
91.26700548689848
 32
0.0
 13
100.3994156332906
 23
91.26700548689848
 33
0.0
  0
SOLID
  5
2160
330
1D3E
100
AcDbEntity
  8
DIM
100
AcDbTrace
 10
89.39941563329069
 20
91.76700548689849
 30
0.0
 11
89.39941563329069
 21
90.76700548689847
 31
0.0
 12
92.39941563329068
 22
91.26700548689848
 32
0.0
 13
92.39941563329068
 23
91.26700548689848
 33
0.0
  0
MTEXT
  5
2161
330
1D3E
100
AcDbEntity
  8
DIM
100
AcDbMText
 10
96.39941563329069
 20
93.76700548689848
 30
0.0
 40
3.0
 41
0.0
 71
     5
 72
     1
  1
\A1;8
  7
CHINESET
1001
ACAD
1000
MTEXTBEGIN
1070
    73
1070
     1
1070
    44
1040
1.0
1070
    74
1070
     0
1000
MTEXTEND
  0
POINT
  5
2162
330
1D3E
100
AcDbEntity
  8
DEFPOINTS
 62
     0
100
AcDbPoint
 10
100.3994156332906
 20
79.53601269921188
 30
0.0
  0
POINT
  5
2163
330
1D3E
100
AcDbEntity
  8
DEFPOINTS
 62
     0
100
AcDbPoint
 10
92.39941563329068
 20
84.74601269921185
 30
0.0
  0
POINT
  5
2164
330
1D3E
100
AcDbEntity
  8
DEFPOINTS
 62
     0
100
AcDbPoint
 10
92.39941563329068
 20
91.26700548689848
 30
0.0
  0
ENDBLK
  5
1D4B
330
1D3E
100
AcDbEntity
  8
0
100
AcDbBlockEnd
  0
BLOCK
  5
1D57
330
1D4D
100
AcDbEntity
  8
0
100
AcDbBlockBegin
  2
*D12
 70
     1
 10
0.0
 20
0.0
 30
0.0
  3
*D12
  1

  0
LINE
  5
214F
330
1D4D
100
AcDbEntity
  8
DIM
100
AcDbLine
 10
112.8994156332906
 20
87.74601269921181
 30
0.0
 11
112.8994156332906
 21
101.3146292634079
 31
0.0
  0
LINE
  5
2150
330
1D4D
100
AcDbEntity
  8
DIM
100
AcDbLine
 10
92.39941563329068
 20
87.74601269921181
 30
0.0
 11
92.39941563329068
 21
101.3146292634079
 31
0.0
  0
LINE
  5
2151
330
1D4D
100
AcDbEntity
  8
DIM
100
AcDbLine
 10
115.8994156332906
 20
99.31462926340794
 30
0.0
 11
118.8994156332906
 21
99.31462926340794
 31
0.0
  0
LINE
  5
2152
330
1D4D
100
AcDbEntity
  8
DIM
100
AcDbLine
 10
89.39941563329069
 20
99.31462926340794
 30
0.0
 11
64.97084420471924
 21
99.31462926340794
 31
0.0
  0
LINE
  5
2153
330
1D4D
100
AcDbEntity
  8
DIM
100
AcDbLine
 10
112.8994156332906
 20
99.31462926340794
 30
0.0
 11
92.39941563329068
 21
99.31462926340794
 31
0.0
  0
SOLID
  5
2154
330
1D4D
100
AcDbEntity
  8
DIM
100
AcDbTrace
 10
115.8994156332906
 20
99.81462926340794
 30
0.0
 11
115.8994156332906
 21
98.81462926340795
 31
0.0
 12
112.8994156332906
 22
99.31462926340794
 32
0.0
 13
112.8994156332906
 23
99.31462926340794
 33
0.0
  0
SOLID
  5
2155
330
1D4D
100
AcDbEntity
  8
DIM
100
AcDbTrace
 10
89.39941563329069
 20
99.81462926340794
 30
0.0
 11
89.39941563329069
 21
98.81462926340795
 31
0.0
 12
92.39941563329068
 22
99.31462926340794
 32
0.0
 13
92.39941563329068
 23
99.31462926340794
 33
0.0
  0
MTEXT
  5
2156
330
1D4D
100
AcDbEntity
  8
DIM
100
AcDbMText
 10
75.68512991900496
 20
101.8146292634079
 30
0.0
 40
3.0
 41
0.0
 71
     5
 72
     1
  1
\A1;20.5+ST.
  7
CHINESET
1001
ACAD
1000
MTEXTBEGIN
1070
    73
1070
     1
1070
    44
1040
1.0
1070
    74
1070
     0
1000
MTEXTEND
  0
POINT
  5
2157
330
1D4D
100
AcDbEntity
  8
DEFPOINTS
 62
     0
100
AcDbPoint
 10
112.8994156332906
 20
84.7460126992118
 30
0.0
  0
POINT
  5
2158
330
1D4D
100
AcDbEntity
  8
DEFPOINTS
 62
     0
100
AcDbPoint
 10
92.39941563329068
 20
84.7460126992118
 30
0.0
  0
POINT
  5
2159
330
1D4D
100
AcDbEntity
  8
DEFPOINTS
 62
     0
100
AcDbPoint
 10
92.39941563329068
 20
99.31462926340794
 30
0.0
  0
ENDBLK
  5
1D58
330
1D4D
100
AcDbEntity
  8
0
100
AcDbBlockEnd
  0
BLOCK
  5
1D66
330
1D5A
100
AcDbEntity
  8
0
100
AcDbBlockBegin
  2
*D13
 70
     1
 10
0.0
 20
0.0
 30
0.0
  3
*D13
  1

  0
LINE
  5
213B
330
1D5A
100
AcDbEntity
  8
DIM
100
AcDbLine
 10
112.8994156332906
 20
87.74601269921181
 30
0.0
 11
112.8994156332906
 21
101.3146292634079
 31
0.0
  0
LINE
  5
213C
330
1D5A
100
AcDbEntity
  8
DIM
100
AcDbLine
 10
117.3994156332905
 20
76.20601269921177
 30
0.0
 11
117.3994156332905
 21
101.3146292634079
 31
0.0
  0
LINE
  5
213D
330
1D5A
100
AcDbEntity
  8
DIM
100
AcDbLine
 10
109.8994156332906
 20
99.31462926340794
 30
0.0
 11
106.8994156332906
 21
99.31462926340794
 31
0.0
  0
LINE
  5
213E
330
1D5A
100
AcDbEntity
  8
DIM
100
AcDbLine
 10
120.3994156332905
 20
99.31462926340794
 30
0.0
 11
131.6851299190048
 21
99.31462926340794
 31
0.0
  0
LINE
  5
213F
330
1D5A
100
AcDbEntity
  8
DIM
100
AcDbLine
 10
112.8994156332906
 20
99.31462926340794
 30
0.0
 11
117.3994156332905
 21
99.31462926340794
 31
0.0
  0
SOLID
  5
2140
330
1D5A
100
AcDbEntity
  8
DIM
100
AcDbTrace
 10
109.8994156332906
 20
99.81462926340794
 30
0.0
 11
109.8994156332906
 21
98.81462926340795
 31
0.0
 12
112.8994156332906
 22
99.31462926340794
 32
0.0
 13
112.8994156332906
 23
99.31462926340794
 33
0.0
  0
SOLID
  5
2141
330
1D5A
100
AcDbEntity
  8
DIM
100
AcDbTrace
 10
120.3994156332905
 20
99.81462926340794
 30
0.0
 11
120.3994156332905
 21
98.81462926340795
 31
0.0
 12
117.3994156332905
 22
99.31462926340794
 32
0.0
 13
117.3994156332905
 23
99.31462926340794
 33
0.0
  0
MTEXT
  5
2142
330
1D5A
100
AcDbEntity
  8
DIM
100
AcDbMText
 10
127.5422727761477
 20
101.8146292634079
 30
0.0
 40
3.0
 41
0.0
 71
     5
 72
     1
  1
\A1;4.5
  7
CHINESET
1001
ACAD
1000
MTEXTBEGIN
1070
    73
1070
     1
1070
    44
1040
1.0
1070
    74
1070
     0
1000
MTEXTEND
  0
POINT
  5
2143
330
1D5A
100
AcDbEntity
  8
DEFPOINTS
 62
     0
100
AcDbPoint
 10
112.8994156332906
 20
84.7460126992118
 30
0.0
  0
POINT
  5
2144
330
1D5A
100
AcDbEntity
  8
DEFPOINTS
 62
     0
100
AcDbPoint
 10
117.3994156332905
 20
73.20601269921176
 30
0.0
  0
POINT
  5
2145
330
1D5A
100
AcDbEntity
  8
DEFPOINTS
 62
     0
100
AcDbPoint
 10
117.3994156332905
 20
99.31462926340794
 30
0.0
  0
ENDBLK
  5
1D67
330
1D5A
100
AcDbEntity
  8
0
100
AcDbBlockEnd
  0
BLOCK
  5
1D73
330
1D69
100
AcDbEntity
  8
0
100
AcDbBlockBegin
  2
*D14
 70
     1
 10
0.0
 20
0.0
 30
0.0
  3
*D14
  1

  0
LINE
  5
2146
330
1D69
100
AcDbEntity
  8
DIM
100
AcDbLine
 10
117.3994156332905
 20
76.20601269921177
 30
0.0
 11
117.3994156332905
 21
111.0388401085449
 31
0.0
  0
LINE
  5
2147
330
1D69
100
AcDbEntity
  8
DIM
100
AcDbLine
 10
92.39941563329068
 20
87.74601269921186
 30
0.0
 11
92.39941563329068
 21
111.0388401085449
 31
0.0
  0
LINE
  5
2148
330
1D69
100
AcDbEntity
  8
DIM
100
AcDbLine
 10
114.3994156332905
 20
109.0388401085449
 30
0.0
 11
95.39941563329069
 21
109.0388401085449
 31
0.0
  0
SOLID
  5
2149
330
1D69
100
AcDbEntity
  8
DIM
100
AcDbTrace
 10
114.3994156332905
 20
109.5388401085449
 30
0.0
 11
114.3994156332905
 21
108.5388401085449
 31
0.0
 12
117.3994156332905
 22
109.0388401085449
 32
0.0
 13
117.3994156332905
 23
109.0388401085449
 33
0.0
  0
SOLID
  5
214A
330
1D69
100
AcDbEntity
  8
DIM
100
AcDbTrace
 10
95.39941563329069
 20
109.5388401085449
 30
0.0
 11
95.39941563329069
 21
108.5388401085449
 31
0.0
 12
92.39941563329068
 22
109.0388401085449
 32
0.0
 13
92.39941563329068
 23
109.0388401085449
 33
0.0
  0
MTEXT
  5
214B
330
1D69
100
AcDbEntity
  8
DIM
100
AcDbMText
 10
104.8994156332906
 20
111.5388401085449
 30
0.0
 40
3.0
 41
0.0
 71
     5
 72
     1
  1
\A1;25
  7
CHINESET
1001
ACAD
1000
MTEXTBEGIN
1070
    73
1070
     1
1070
    44
1040
1.0
1070
    74
1070
     0
1000
MTEXTEND
  0
POINT
  5
214C
330
1D69
100
AcDbEntity
  8
DEFPOINTS
 62
     0
100
AcDbPoint
 10
117.3994156332905
 20
73.20601269921176
 30
0.0
  0
POINT
  5
214D
330
1D69
100
AcDbEntity
  8
DEFPOINTS
 62
     0
100
AcDbPoint
 10
92.39941563329068
 20
84.74601269921185
 30
0.0
  0
POINT
  5
214E
330
1D69
100
AcDbEntity
  8
DEFPOINTS
 62
     0
100
AcDbPoint
 10
92.39941563329068
 20
109.0388401085449
 30
0.0
  0
ENDBLK
  5
1D74
330
1D69
100
AcDbEntity
  8
0
100
AcDbBlockEnd
  0
BLOCK
  5
1DD0
330
1DC4
100
AcDbEntity
  8
0
100
AcDbBlockBegin
  2
*D15
 70
     1
 10
0.0
 20
0.0
 30
0.0
  3
*D15
  1

  0
LINE
  5
217B
330
1DC4
100
AcDbEntity
  8
DIM
100
AcDbLine
 10
116.3594156332904
 20
74.2460126992118
 30
0.0
 11
127.5890275247379
 21
74.2460126992118
 31
0.0
  0
LINE
  5
217C
330
1DC4
100
AcDbEntity
  8
DIM
100
AcDbLine
 10
116.3594156332902
 20
66.24601269921185
 30
0.0
 11
127.5890275247379
 21
66.24601269921185
 31
0.0
  0
LINE
  5
217D
330
1DC4
100
AcDbEntity
  8
DIM
100
AcDbLine
 10
125.5890275247379
 20
77.2460126992118
 30
0.0
 11
125.5890275247379
 21
80.24601269921181
 31
0.0
  0
LINE
  5
217E
330
1DC4
100
AcDbEntity
  8
DIM
100
AcDbLine
 10
125.5890275247379
 20
63.24601269921185
 30
0.0
 11
125.5890275247379
 21
60.24601269921184
 31
0.0
  0
LINE
  5
217F
330
1DC4
100
AcDbEntity
  8
DIM
100
AcDbLine
 10
125.5890275247379
 20
74.2460126992118
 30
0.0
 11
125.5890275247379
 21
66.24601269921185
 31
0.0
  0
SOLID
  5
2180
330
1DC4
100
AcDbEntity
  8
DIM
100
AcDbTrace
 10
125.0890275247379
 20
77.2460126992118
 30
0.0
 11
126.0890275247379
 21
77.2460126992118
 31
0.0
 12
125.5890275247379
 22
74.2460126992118
 32
0.0
 13
125.5890275247379
 23
74.2460126992118
 33
0.0
  0
SOLID
  5
2181
330
1DC4
100
AcDbEntity
  8
DIM
100
AcDbTrace
 10
125.0890275247379
 20
63.24601269921185
 30
0.0
 11
126.0890275247379
 21
63.24601269921185
 31
0.0
 12
125.5890275247379
 22
66.24601269921185
 32
0.0
 13
125.5890275247379
 23
66.24601269921185
 33
0.0
  0
MTEXT
  5
2182
330
1DC4
100
AcDbEntity
  8
DIM
100
AcDbMText
 10
123.0890275247379
 20
70.24601269921184
 30
0.0
 40
3.0
 41
0.0
 71
     5
 72
     1
  1
\A1;%%c8
  7
CHINESET
 11
0.0000000000000001
 21
1.0
 31
0.0
1001
ACAD
1000
MTEXTBEGIN
1070
    73
1070
     1
1070
    44
1040
1.0
1070
    74
1070
     0
1000
MTEXTEND
  0
POINT
  5
2183
330
1DC4
100
AcDbEntity
  8
DEFPOINTS
 62
     0
100
AcDbPoint
 10
113.3594156332904
 20
74.2460126992118
 30
0.0
  0
POINT
  5
2184
330
1DC4
100
AcDbEntity
  8
DEFPOINTS
 62
     0
100
AcDbPoint
 10
113.3594156332902
 20
66.24601269921185
 30
0.0
  0
POINT
  5
2185
330
1DC4
100
AcDbEntity
  8
DEFPOINTS
 62
     0
100
AcDbPoint
 10
125.5890275247379
 20
66.24601269921185
 30
0.0
  0
ENDBLK
  5
1DD1
330
1DC4
100
AcDbEntity
  8
0
100
AcDbBlockEnd
  0
BLOCK
  5
1DE8
330
1DDE
100
AcDbEntity
  8
0
100
AcDbBlockBegin
  2
*D16
 70
     1
 10
0.0
 20
0.0
 30
0.0
  3
*D16
  1

  0
LINE
  5
2186
330
1DDE
100
AcDbEntity
  8
DIM
100
AcDbLine
 10
196.6878632741932
 20
80.14601269921167
 30
0.0
 11
164.9310093668396
 21
80.14601269921167
 31
0.0
  0
LINE
  5
2187
330
1DDE
100
AcDbEntity
  8
DIM
100
AcDbLine
 10
176.8878632741932
 20
60.34601269921177
 30
0.0
 11
164.9310093668395
 21
60.34601269921178
 31
0.0
  0
LINE
  5
2188
330
1DDE
100
AcDbEntity
  8
DIM
100
AcDbLine
 10
166.9310093668396
 20
77.14601269921167
 30
0.0
 11
166.9310093668396
 21
63.34601269921178
 31
0.0
  0
SOLID
  5
2189
330
1DDE
100
AcDbEntity
  8
DIM
100
AcDbTrace
 10
166.4310093668396
 20
77.14601269921167
 30
0.0
 11
167.4310093668396
 21
77.14601269921167
 31
0.0
 12
166.9310093668396
 22
80.14601269921167
 32
0.0
 13
166.9310093668396
 23
80.14601269921167
 33
0.0
  0
SOLID
  5
218A
330
1DDE
100
AcDbEntity
  8
DIM
100
AcDbTrace
 10
166.4310093668395
 20
63.34601269921178
 30
0.0
 11
167.4310093668395
 21
63.34601269921178
 31
0.0
 12
166.9310093668396
 22
60.34601269921178
 32
0.0
 13
166.9310093668396
 23
60.34601269921178
 33
0.0
  0
MTEXT
  5
218B
330
1DDE
100
AcDbEntity
  8
DIM
100
AcDbMText
 10
164.4310093668395
 20
70.24601269921174
 30
0.0
 40
3.0
 41
0.0
 71
     5
 72
     1
  1
\A1;\U+25A119.8
  7
CHINESET
 11
0.0000000000000001
 21
1.0
 31
0.0
1001
ACAD
1000
MTEXTBEGIN
1070
    73
1070
     1
1070
    44
1040
1.0
1070
    74
1070
     0
1000
MTEXTEND
  0
POINT
  5
218C
330
1DDE
100
AcDbEntity
  8
DEFPOINTS
 62
     0
100
AcDbPoint
 10
199.6878632741932
 20
80.14601269921167
 30
0.0
  0
POINT
  5
218D
330
1DDE
100
AcDbEntity
  8
DEFPOINTS
 62
     0
100
AcDbPoint
 10
179.8878632741932
 20
60.34601269921177
 30
0.0
  0
POINT
  5
218E
330
1DDE
100
AcDbEntity
  8
DEFPOINTS
 62
     0
100
AcDbPoint
 10
166.9310093668396
 20
60.34601269921178
 30
0.0
  0
ENDBLK
  5
1DE9
330
1DDE
100
AcDbEntity
  8
0
100
AcDbBlockEnd
  0
BLOCK
  5
1DF5
330
1DEB
100
AcDbEntity
  8
0
100
AcDbBlockBegin
  2
*D17
 70
     1
 10
0.0
 20
0.0
 30
0.0
  3
*D17
  1

  0
LINE
  5
218F
330
1DEB
100
AcDbEntity
  8
DIM
100
AcDbLine
 10
178.6487230052737
 20
84.74601269921206
 30
0.0
 11
156.7807281072284
 21
84.74601269921206
 31
0.0
  0
LINE
  5
2190
330
1DEB
100
AcDbEntity
  8
DIM
100
AcDbLine
 10
178.6487230052737
 20
55.74601269921145
 30
0.0
 11
156.7807281072284
 21
55.74601269921146
 31
0.0
  0
LINE
  5
2191
330
1DEB
100
AcDbEntity
  8
DIM
100
AcDbLine
 10
158.7807281072285
 20
81.74601269921208
 30
0.0
 11
158.7807281072284
 21
58.74601269921146
 31
0.0
  0
SOLID
  5
2192
330
1DEB
100
AcDbEntity
  8
DIM
100
AcDbTrace
 10
158.2807281072285
 20
81.74601269921208
 30
0.0
 11
159.2807281072285
 21
81.74601269921208
 31
0.0
 12
158.7807281072285
 22
84.74601269921206
 32
0.0
 13
158.7807281072285
 23
84.74601269921206
 33
0.0
  0
SOLID
  5
2193
330
1DEB
100
AcDbEntity
  8
DIM
100
AcDbTrace
 10
158.2807281072284
 20
58.74601269921146
 30
0.0
 11
159.2807281072284
 21
58.74601269921146
 31
0.0
 12
158.7807281072284
 22
55.74601269921146
 32
0.0
 13
158.7807281072284
 23
55.74601269921146
 33
0.0
  0
MTEXT
  5
2194
330
1DEB
100
AcDbEntity
  8
DIM
100
AcDbMText
 10
156.2807281072284
 20
70.24601269921179
 30
0.0
 40
3.0
 41
0.0
 71
     5
 72
     1
  1
\A1;\U+25A129
  7
CHINESET
 11
0.0000000000000001
 21
1.0
 31
0.0
1001
ACAD
1000
MTEXTBEGIN
1070
    73
1070
     1
1070
    44
1040
1.0
1070
    74
1070
     0
1000
MTEXTEND
  0
POINT
  5
2195
330
1DEB
100
AcDbEntity
  8
DEFPOINTS
 62
     0
100
AcDbPoint
 10
181.6487230052737
 20
84.74601269921206
 30
0.0
  0
POINT
  5
2196
330
1DEB
100
AcDbEntity
  8
DEFPOINTS
 62
     0
100
AcDbPoint
 10
181.6487230052737
 20
55.74601269921145
 30
0.0
  0
POINT
  5
2197
330
1DEB
100
AcDbEntity
  8
DEFPOINTS
 62
     0
100
AcDbPoint
 10
158.7807281072284
 20
55.74601269921146
 30
0.0
  0
ENDBLK
  5
1DF6
330
1DEB
100
AcDbEntity
  8
0
100
AcDbBlockEnd
  0
BLOCK
  5
1E19
330
1E0D
100
AcDbEntity
  8
0
100
AcDbBlockBegin
  2
*D18
 70
     1
 10
0.0
 20
0.0
 30
0.0
  3
*D18
  1

  0
LINE
  5
2113
330
1E0D
100
AcDbEntity
  8
DIM
100
AcDbLine
 10
93.97482975166781
 20
178.4407611733091
 30
0.0
 11
82.11448341141911
 21
178.4407611733091
 31
0.0
  0
LINE
  5
2114
330
1E0D
100
AcDbEntity
  8
DIM
100
AcDbLine
 10
88.81052674440184
 20
171.9407611733091
 30
0.0
 11
82.11448341141911
 21
171.9407611733091
 31
0.0
  0
LINE
  5
2115
330
1E0D
100
AcDbEntity
  8
DIM
100
AcDbLine
 10
84.11448341141911
 20
181.4407611733091
 30
0.0
 11
84.11448341141911
 21
184.4407611733091
 31
0.0
  0
LINE
  5
2116
330
1E0D
100
AcDbEntity
  8
DIM
100
AcDbLine
 10
84.11448341141911
 20
168.9407611733091
 30
0.0
 11
84.11448341141911
 21
165.9407611733091
 31
0.0
  0
LINE
  5
2117
330
1E0D
100
AcDbEntity
  8
DIM
100
AcDbLine
 10
84.11448341141911
 20
178.4407611733091
 30
0.0
 11
84.11448341141911
 21
171.9407611733091
 31
0.0
  0
SOLID
  5
2118
330
1E0D
100
AcDbEntity
  8
DIM
100
AcDbTrace
 10
83.61448341141912
 20
181.4407611733091
 30
0.0
 11
84.61448341141911
 21
181.4407611733091
 31
0.0
 12
84.11448341141911
 22
178.4407611733091
 32
0.0
 13
84.11448341141911
 23
178.4407611733091
 33
0.0
  0
SOLID
  5
2119
330
1E0D
100
AcDbEntity
  8
DIM
100
AcDbTrace
 10
83.61448341141912
 20
168.9407611733091
 30
0.0
 11
84.61448341141911
 21
168.9407611733091
 31
0.0
 12
84.11448341141911
 22
171.9407611733091
 32
0.0
 13
84.11448341141911
 23
171.9407611733091
 33
0.0
  0
MTEXT
  5
211A
330
1E0D
100
AcDbEntity
  8
DIM
100
AcDbMText
 10
81.61448341141909
 20
175.1907611733092
 30
0.0
 40
3.0
 41
0.0
 71
     5
 72
     1
  1
\A1;6.5
  7
CHINESET
 11
0.0000000000000001
 21
1.0
 31
0.0
1001
ACAD
1000
MTEXTBEGIN
1070
    73
1070
     1
1070
    44
1040
1.0
1070
    74
1070
     0
1000
MTEXTEND
  0
POINT
  5
211B
330
1E0D
100
AcDbEntity
  8
DEFPOINTS
 62
     0
100
AcDbPoint
 10
96.97482975166781
 20
178.4407611733091
 30
0.0
  0
POINT
  5
211C
330
1E0D
100
AcDbEntity
  8
DEFPOINTS
 62
     0
100
AcDbPoint
 10
91.81052674440184
 20
171.9407611733091
 30
0.0
  0
POINT
  5
211D
330
1E0D
100
AcDbEntity
  8
DEFPOINTS
 62
     0
100
AcDbPoint
 10
84.11448341141911
 20
171.9407611733091
 30
0.0
  0
ENDBLK
  5
1E1A
330
1E0D
100
AcDbEntity
  8
0
100
AcDbBlockEnd
  0
BLOCK
  5
1E28
330
1E1C
100
AcDbEntity
  8
0
100
AcDbBlockBegin
  2
*D19
 70
     1
 10
0.0
 20
0.0
 30
0.0
  3
*D19
  1

  0
LINE
  5
2170
330
1E1C
100
AcDbEntity
  8
DIM
100
AcDbLine
 10
88.81052674440184
 20
76.74601269921186
 30
0.0
 11
82.23643228518474
 21
76.74601269921186
 31
0.0
  0
LINE
  5
2171
330
1E1C
100
AcDbEntity
  8
DIM
100
AcDbLine
 10
88.81052674440184
 20
70.24601269921186
 30
0.0
 11
82.23643228518474
 21
70.24601269921186
 31
0.0
  0
LINE
  5
2172
330
1E1C
100
AcDbEntity
  8
DIM
100
AcDbLine
 10
84.23643228518473
 20
79.74601269921186
 30
0.0
 11
84.23643228518473
 21
82.74601269921186
 31
0.0
  0
LINE
  5
2173
330
1E1C
100
AcDbEntity
  8
DIM
100
AcDbLine
 10
84.23643228518473
 20
67.24601269921186
 30
0.0
 11
84.23643228518473
 21
64.24601269921186
 31
0.0
  0
LINE
  5
2174
330
1E1C
100
AcDbEntity
  8
DIM
100
AcDbLine
 10
84.23643228518473
 20
76.74601269921186
 30
0.0
 11
84.23643228518473
 21
70.24601269921186
 31
0.0
  0
SOLID
  5
2175
330
1E1C
100
AcDbEntity
  8
DIM
100
AcDbTrace
 10
83.73643228518472
 20
79.74601269921186
 30
0.0
 11
84.73643228518474
 21
79.74601269921186
 31
0.0
 12
84.23643228518473
 22
76.74601269921186
 32
0.0
 13
84.23643228518473
 23
76.74601269921186
 33
0.0
  0
SOLID
  5
2176
330
1E1C
100
AcDbEntity
  8
DIM
100
AcDbTrace
 10
83.73643228518472
 20
67.24601269921186
 30
0.0
 11
84.73643228518474
 21
67.24601269921186
 31
0.0
 12
84.23643228518473
 22
70.24601269921186
 32
0.0
 13
84.23643228518473
 23
70.24601269921186
 33
0.0
  0
MTEXT
  5
2177
330
1E1C
100
AcDbEntity
  8
DIM
100
AcDbMText
 10
81.73643228518471
 20
73.49601269921187
 30
0.0
 40
3.0
 41
0.0
 71
     5
 72
     1
  1
\A1;6.5
  7
CHINESET
 11
0.0000000000000001
 21
1.0
 31
0.0
1001
ACAD
1000
MTEXTBEGIN
1070
    73
1070
     1
1070
    44
1040
1.0
1070
    74
1070
     0
1000
MTEXTEND
  0
POINT
  5
2178
330
1E1C
100
AcDbEntity
  8
DEFPOINTS
 62
     0
100
AcDbPoint
 10
91.81052674440184
 20
76.74601269921186
 30
0.0
  0
POINT
  5
2179
330
1E1C
100
AcDbEntity
  8
DEFPOINTS
 62
     0
100
AcDbPoint
 10
91.81052674440184
 20
70.24601269921186
 30
0.0
  0
POINT
  5
217A
330
1E1C
100
AcDbEntity
  8
DEFPOINTS
 62
     0
100
AcDbPoint
 10
84.23643228518473
 20
70.24601269921186
 30
0.0
  0
ENDBLK
  5
1E29
330
1E1C
100
AcDbEntity
  8
0
100
AcDbBlockEnd
  0
BLOCK
  5
1ED4
330
1EC8
100
AcDbEntity
  8
0
100
AcDbBlockBegin
  2
*D20
 70
     1
 10
0.0
 20
0.0
 30
0.0
  3
*D20
  1

  0
LINE
  5
2130
330
1EC8
100
AcDbEntity
  8
DIM
100
AcDbLine
 10
196.9267521630821
 20
166.2950098622445
 30
0.0
 11
196.9267521630821
 21
145.4768287748328
 31
0.0
  0
LINE
  5
2131
330
1EC8
100
AcDbEntity
  8
DIM
100
AcDbLine
 10
190.9267521630821
 20
166.2950098622445
 30
0.0
 11
190.9267521630821
 21
145.4768287748328
 31
0.0
  0
LINE
  5
2132
330
1EC8
100
AcDbEntity
  8
DIM
100
AcDbLine
 10
199.9267521630821
 20
147.4768287748328
 30
0.0
 11
202.9267521630821
 21
147.4768287748328
 31
0.0
  0
LINE
  5
2133
330
1EC8
100
AcDbEntity
  8
DIM
100
AcDbLine
 10
187.9267521630821
 20
147.4768287748328
 30
0.0
 11
184.9267521630821
 21
147.4768287748328
 31
0.0
  0
LINE
  5
2134
330
1EC8
100
AcDbEntity
  8
DIM
100
AcDbLine
 10
196.9267521630821
 20
147.4768287748328
 30
0.0
 11
190.9267521630821
 21
147.4768287748328
 31
0.0
  0
SOLID
  5
2135
330
1EC8
100
AcDbEntity
  8
DIM
100
AcDbTrace
 10
199.9267521630821
 20
147.9768287748328
 30
0.0
 11
199.9267521630821
 21
146.9768287748328
 31
0.0
 12
196.9267521630821
 22
147.4768287748328
 32
0.0
 13
196.9267521630821
 23
147.4768287748328
 33
0.0
  0
SOLID
  5
2136
330
1EC8
100
AcDbEntity
  8
DIM
100
AcDbTrace
 10
187.9267521630821
 20
147.9768287748328
 30
0.0
 11
187.9267521630821
 21
146.9768287748328
 31
0.0
 12
190.9267521630821
 22
147.4768287748328
 32
0.0
 13
190.9267521630821
 23
147.4768287748328
 33
0.0
  0
MTEXT
  5
2137
330
1EC8
100
AcDbEntity
  8
DIM
100
AcDbMText
 10
193.9267521630821
 20
149.9768287748328
 30
0.0
 40
3.0
 41
0.0
 71
     5
 72
     1
  1
\A1;6
  7
CHINESET
1001
ACAD
1000
MTEXTBEGIN
1070
    73
1070
     1
1070
    44
1040
1.0
1070
    74
1070
     0
1000
MTEXTEND
  0
POINT
  5
2138
330
1EC8
100
AcDbEntity
  8
DEFPOINTS
 62
     0
100
AcDbPoint
 10
196.9267521630821
 20
169.2950098622445
 30
0.0
  0
POINT
  5
2139
330
1EC8
100
AcDbEntity
  8
DEFPOINTS
 62
     0
100
AcDbPoint
 10
190.9267521630821
 20
169.2950098622445
 30
0.0
  0
POINT
  5
213A
330
1EC8
100
AcDbEntity
  8
DEFPOINTS
 62
     0
100
AcDbPoint
 10
190.9267521630821
 20
147.4768287748328
 30
0.0
  0
ENDBLK
  5
1ED5
330
1EC8
100
AcDbEntity
  8
0
100
AcDbBlockEnd
  0
BLOCK
  5
1EEE
330
1EE2
100
AcDbEntity
  8
0
100
AcDbBlockBegin
  2
*D21
 70
     1
 10
0.0
 20
0.0
 30
0.0
  3
*D21
  1

  0
LINE
  5
2198
330
1EE2
100
AcDbEntity
  8
DIM
100
AcDbLine
 10
196.926752163082
 20
64.6002613881472
 30
0.0
 11
196.926752163082
 21
39.27513178557137
 31
0.0
  0
LINE
  5
2199
330
1EE2
100
AcDbEntity
  8
DIM
100
AcDbLine
 10
190.926752163082
 20
64.60026138814722
 30
0.0
 11
190.926752163082
 21
39.27513178557137
 31
0.0
  0
LINE
  5
219A
330
1EE2
100
AcDbEntity
  8
DIM
100
AcDbLine
 10
199.926752163082
 20
41.27513178557137
 30
0.0
 11
202.926752163082
 21
41.27513178557137
 31
0.0
  0
LINE
  5
219B
330
1EE2
100
AcDbEntity
  8
DIM
100
AcDbLine
 10
187.926752163082
 20
41.27513178557137
 30
0.0
 11
184.926752163082
 21
41.27513178557137
 31
0.0
  0
LINE
  5
219C
330
1EE2
100
AcDbEntity
  8
DIM
100
AcDbLine
 10
196.926752163082
 20
41.27513178557137
 30
0.0
 11
190.926752163082
 21
41.27513178557137
 31
0.0
  0
SOLID
  5
219D
330
1EE2
100
AcDbEntity
  8
DIM
100
AcDbTrace
 10
199.926752163082
 20
41.77513178557137
 30
0.0
 11
199.926752163082
 21
40.77513178557137
 31
0.0
 12
196.926752163082
 22
41.27513178557137
 32
0.0
 13
196.926752163082
 23
41.27513178557137
 33
0.0
  0
SOLID
  5
219E
330
1EE2
100
AcDbEntity
  8
DIM
100
AcDbTrace
 10
187.926752163082
 20
41.77513178557137
 30
0.0
 11
187.926752163082
 21
40.77513178557137
 31
0.0
 12
190.926752163082
 22
41.27513178557137
 32
0.0
 13
190.926752163082
 23
41.27513178557137
 33
0.0
  0
MTEXT
  5
219F
330
1EE2
100
AcDbEntity
  8
DIM
100
AcDbMText
 10
193.926752163082
 20
43.77513178557137
 30
0.0
 40
3.0
 41
0.0
 71
     5
 72
     1
  1
\A1;6
  7
CHINESET
1001
ACAD
1000
MTEXTBEGIN
1070
    73
1070
     1
1070
    44
1040
1.0
1070
    74
1070
     0
1000
MTEXTEND
  0
POINT
  5
21A0
330
1EE2
100
AcDbEntity
  8
DEFPOINTS
 62
     0
100
AcDbPoint
 10
196.926752163082
 20
67.6002613881472
 30
0.0
  0
POINT
  5
21A1
330
1EE2
100
AcDbEntity
  8
DEFPOINTS
 62
     0
100
AcDbPoint
 10
190.926752163082
 20
67.60026138814722
 30
0.0
  0
POINT
  5
21A2
330
1EE2
100
AcDbEntity
  8
DEFPOINTS
 62
     0
100
AcDbPoint
 10
190.926752163082
 20
41.27513178557137
 30
0.0
  0
ENDBLK
  5
1EEF
330
1EE2
100
AcDbEntity
  8
0
100
AcDbBlockEnd
  0
BLOCK
  5
22FB
330
22F9
100
AcDbEntity
  8
0
100
AcDbBlockBegin
  2
GENAXEH
 70
     0
 10
0.0
 20
0.0
 30
0.0
  3
GENAXEH
  1

  0
LINE
  5
22FA
330
22F9
100
AcDbEntity
  8
0
100
AcDbLine
 10
-1.0
 20
0.0
 30
0.0
 11
1.0
 21
0.0
 31
0.0
  0
ENDBLK
  5
22FC
330
22F9
100
AcDbEntity
  8
0
100
AcDbBlockEnd
  0
ENDSEC
  0
SECTION
  2
ENTITIES
  0
MTEXT
  5
A9
330
1F
100
AcDbEntity
  8
0
100
AcDbMText
 10
-112.8858816556398
 20
179.1757813154577
 30
0.0
 40
3.0
 41
0.0
 71
     4
 72
     1
  1

1001
ACAD
1000
MTEXTBEGIN
1070
    73
1070
     1
1070
    44
1040
1.0
1070
    74
1070
     0
1000
MTEXTEND
  0
MTEXT
  5
AA
330
1F
100
AcDbEntity
  8
0
100
AcDbMText
 10
-176.2667196970538
 20
189.9084924046809
 30
0.0
 40
1.799999999999999
 41
0.0
 71
     9
 72
     1
  1

1001
ACAD
1000
MTEXTBEGIN
1070
    73
1070
     1
1070
    44
1040
1.0
1070
    74
1070
     0
1000
MTEXTEND
  0
MTEXT
  5
AB
330
1F
100
AcDbEntity
  8
0
100
AcDbMText
 10
82.64233389287733
 20
174.944592339129
 30
0.0
 40
3.0
 41
0.0
 71
     4
 72
     1
  1

1001
ACAD
1000
MTEXTBEGIN
1070
    73
1070
     1
1070
    44
1040
1.0
1070
    74
1070
     0
1000
MTEXTEND
  0
MTEXT
  5
AC
330
1F
100
AcDbEntity
  8
0
100
AcDbMText
 10
19.26149585146331
 20
185.6773034283523
 30
0.0
 40
1.799999999999999
 41
0.0
 71
     9
 72
     1
  1

1001
ACAD
1000
MTEXTBEGIN
1070
    73
1070
     1
1070
    44
1040
1.0
1070
    74
1070
     0
1000
MTEXTEND
  0
MTEXT
  5
B1
330
1F
100
AcDbEntity
  8
0
100
AcDbMText
 10
-211.0828086697474
 20
93.72900974557683
 30
0.0
 40
3.0
 41
59.51
 71
     1
 72
     1
  1

  7
CHINESET
1001
ACAD
1000
MTEXTBEGIN
1070
    73
1070
     1
1070
    44
1040
1.0
1070
    74
1070
     0
1000
MTEXTEND
  0
MTEXT
  5
B2
330
1F
100
AcDbEntity
  8
0
100
AcDbMText
 10
-179.9099428209695
 20
86.93407807798587
 30
0.0
 40
3.0
 41
38.26
 71
     1
 72
     1
  1

  7
CHINESET
1001
ACAD
1000
MTEXTBEGIN
1070
    73
1070
     1
1070
    44
1040
1.0
1070
    74
1070
     0
1000
MTEXTEND
  0
MTEXT
  5
10B3
330
1F
100
AcDbEntity
  8
0
100
AcDbMText
 10
81.67014302795905
 20
125.5492500028813
 30
0.0
 40
3.0
 41
0.0
 71
     7
 72
     1
  1

  7
CHINESET
1001
ACAD
1000
MTEXTBEGIN
1070
    73
1070
     1
1070
    44
1040
1.0
1070
    74
1070
     0
1000
MTEXTEND
  0
LINE
  5
17B4
330
1F
100
AcDbEntity
  8
0
 62
     4
100
AcDbLine
 10
271.6277841472794
 20
34.87998036599759
 30
0.0
 11
271.6277841472794
 21
252.9045421420978
 31
0.0
  0
LINE
  5
17B5
330
1F
100
AcDbEntity
  8
0
 62
     4
100
AcDbLine
 10
44.75749749364945
 20
34.87998036599757
 30
0.0
 11
44.75749749364945
 21
252.9045421420978
 31
0.0
  0
TEXT
  5
17BD
330
1F
100
AcDbEntity
  8
LOGO
  6
CONTINUOUS
 62
     7
100
AcDbText
 10
181.638278437477
 20
25.00306918301836
 30
0.0
 40
4.910612265230088
  1
11/12
  7
CHINESET
 72
     1
 11
191.4595029679372
 21
27.4583753156334
 31
0.0
100
AcDbText
 73
     2
  0
TEXT
  5
17BE
330
1F
100
AcDbEntity
  8
LOGO
 62
     6
100
AcDbText
 10
183.6434451124459
 20
13.37381861858831
 30
0.0
 40
3.92848981218407
  1
作動型式
  7
CHINESET
 72
     4
 11
191.4595029679372
 21
15.23753130507721
 31
0.0
100
AcDbText
  0
LINE
  5
17BF
330
1F
100
AcDbEntity
  8
0
 62
     4
100
AcDbLine
 10
271.6277841472794
 20
140.6251224753167
 30
0.0
 11
44.75749749364945
 21
140.6251224753167
 31
0.0
  0
LINE
  5
17C1
330
1F
100
AcDbEntity
  8
LOGO
 62
     1
100
AcDbLine
 10
271.6277841472794
 20
5.416306774617041
 30
0.0
 11
44.75749749364945
 21
5.416306774617041
 31
0.0
  0
LINE
  5
17C2
330
1F
100
AcDbEntity
  8
LOGO
 62
     1
100
AcDbLine
 10
271.6277841472794
 20
34.87998036599757
 30
0.0
 11
44.75749749364945
 21
34.87998036599757
 31
0.0
  0
TEXT
  5
17C3
330
1F
100
AcDbEntity
  8
LOGO
  6
CONTINUOUS
 62
     6
100
AcDbText
 10
180.936762399587
 20
9.508483662308778
 30
0.0
 40
2.455306132615044
  1
Acting type
  7
CHINESET
 72
     4
 11
191.4595029679372
 21
10.32691903984712
 31
0.0
100
AcDbText
  0
LINE
  5
17C4
330
1F
100
AcDbEntity
  8
LOGO
 62
     6
100
AcDbLine
 10
202.2900567160496
 20
23.09451092944535
 30
0.0
 11
180.6289492198247
 21
23.09451092944535
 31
0.0
  0
LINE
  5
17C5
330
1F
100
AcDbEntity
  8
LOGO
 62
     6
100
AcDbLine
 10
202.2900567160496
 20
18.67495989073828
 30
0.0
 11
180.6289492198247
 21
18.67495989073828
 31
0.0
  0
LINE
  5
17C6
330
1F
100
AcDbEntity
  8
LOGO
 62
     6
100
AcDbLine
 10
202.2900567160496
 20
7.871612907232083
 30
0.0
 11
180.6289492198247
 21
7.871612907232059
 31
0.0
  0
LINE
  5
17C7
330
1F
100
AcDbEntity
  8
LOGO
 62
     6
100
AcDbLine
 10
202.2900567160496
 20
31.93361300685957
 30
0.0
 11
180.6289492198247
 21
31.93361300685951
 31
0.0
  0
TEXT
  5
17C8
330
1F
100
AcDbEntity
  8
LOGO
 62
     6
100
AcDbText
 10
70.11160244556553
 20
18.67495989073828
 30
0.0
 40
2.946367359138052
  1
單位 Unit:
 41
0.9
  7
CHINESET
 72
     4
 11
78.14966089721403
 21
20.1481435703073
 31
0.0
100
AcDbText
  0
TEXT
  5
17C9
330
1F
100
AcDbEntity
  8
LOGO
 62
     6
100
AcDbText
 10
69.82354242250695
 20
24.60913998320173
 30
0.0
 40
2.946367359138052
  1
投影 View:
 41
0.9
  7
CHINESET
 72
     4
 11
78.14966089721403
 21
26.04087828858341
 31
0.0
100
AcDbText
  0
TEXT
  5
17CA
330
1F
100
AcDbEntity
  8
LOGO
 62
     6
100
AcDbText
 10
68.79362918937967
 20
30.46187931122706
 30
0.0
 40
2.946367359138052
  1
比例 Scale:
 41
0.9
  7
CHINESET
 72
     4
 11
78.14966089721403
 21
31.93361300685951
 31
0.0
100
AcDbText
  0
TEXT
  5
17CB
330
1F
100
AcDbEntity
  8
LOGO
  6
CONTINUOUS
 62
     5
100
AcDbText
 10
45.72189327707469
 20
11.20440098708334
 30
0.0
 40
4.419551038707079
  1
金器工業股份有限公司
 41
0.8
  7
LOGO
100
AcDbText
  0
TEXT
  5
17CC
330
1F
100
AcDbEntity
  8
LOGO
  6
CONTINUOUS
 62
     5
100
AcDbText
 10
46.98738613265763
 20
6.783984062878865
 30
0.0
 40
2.946367359138052
  1
MINDMAN INDUSTRIAL CO.,LTD
 41
0.85
  7
CHINESET
100
AcDbText
  0
LINE
  5
17CD
330
1F
100
AcDbEntity
  8
LOGO
 62
     1
100
AcDbLine
 10
109.5775793946865
 20
17.20177621116928
 30
0.0
 11
44.75749749364945
 21
17.20177621116928
 31
0.0
  0
LINE
  5
17CE
330
1F
100
AcDbEntity
  8
LOGO
 62
     1
100
AcDbLine
 10
109.5775793946865
 20
23.09451092944535
 30
0.0
 11
66.3641914606618
 21
23.09451092944535
 31
0.0
  0
LINE
  5
17CF
330
1F
100
AcDbEntity
  8
LOGO
 62
     1
100
AcDbLine
 10
109.5775793946865
 20
28.98724564772146
 30
0.0
 11
66.3641914606618
 21
28.98724564772146
 31
0.0
  0
SOLID
  5
17D0
330
1F
100
AcDbEntity
  8
LOGO
 62
     2
100
AcDbTrace
 10
49.08833284776667
 20
22.09969256336679
 30
0.0
 11
49.61547709607582
 21
22.09969256336721
 31
0.0
 12
55.67763595162102
 22
34.18008158709911
 32
0.0
 13
56.20478019992979
 23
34.18008158709911
 33
0.0
  0
SOLID
  5
17D1
330
1F
100
AcDbEntity
  8
LOGO
 62
     5
100
AcDbTrace
 10
49.61547709607582
 20
22.09969256336721
 30
0.0
 11
50.88940902948739
 21
22.09969256336721
 31
0.0
 12
55.67763595162102
 22
33.21365046520089
 32
0.0
 13
54.40370401820944
 23
28.54256670935741
 33
0.0
  0
SOLID
  5
17D2
330
1F
100
AcDbEntity
  8
LOGO
 62
     5
100
AcDbTrace
 10
47.81440091435501
 20
22.09969256336721
 30
0.0
 11
49.08833284776667
 21
22.09969256336679
 31
0.0
 12
54.40370401820944
 22
34.18008158709995
 32
0.0
 13
55.67763595162102
 23
34.18008158709911
 33
0.0
  0
LINE
  5
17D3
330
1F
100
AcDbEntity
  8
LOGO
 62
     1
100
AcDbLine
 10
44.75749749364945
 20
5.416306774617041
 30
0.0
 11
44.75749749364945
 21
34.87998036599757
 31
0.0
  0
SOLID
  5
17D4
330
1F
100
AcDbEntity
  8
LOGO
 62
     5
100
AcDbTrace
 10
45.77197561871827
 20
17.70682382746474
 30
0.0
 11
46.21126249230907
 21
17.70682382746474
 31
0.0
 12
47.44832851969674
 22
19.90325819541577
 32
0.0
 13
47.8876153932867
 23
19.90325819541577
 33
0.0
  0
SOLID
  5
17D5
330
1F
100
AcDbEntity
  8
LOGO
 62
     5
100
AcDbTrace
 10
49.1246814206757
 20
19.90325819541577
 30
0.0
 11
49.56396829426556
 21
19.90325819541577
 31
0.0
 12
49.1246814206757
 22
17.70682382746474
 32
0.0
 13
49.56396829426556
 23
17.70682382746474
 33
0.0
  0
SOLID
  5
17D6
330
1F
100
AcDbEntity
  8
LOGO
 62
     5
100
AcDbTrace
 10
47.44832851969674
 20
17.70682382746474
 30
0.0
 11
47.8876153932867
 21
17.70682382746474
 31
0.0
 12
49.1246814206757
 22
19.90325819541577
 32
0.0
 13
49.56396829426556
 23
19.90325819541577
 33
0.0
  0
SOLID
  5
17D7
330
1F
100
AcDbEntity
  8
LOGO
 62
     5
100
AcDbTrace
 10
47.44832851969674
 20
19.90325819541577
 30
0.0
 11
47.8876153932867
 21
19.90325819541577
 31
0.0
 12
47.44832851969674
 22
17.70682382746474
 32
0.0
 13
47.8876153932867
 23
17.70682382746474
 33
0.0
  0
SOLID
  5
17D8
330
1F
100
AcDbEntity
  8
LOGO
 62
     5
100
AcDbTrace
 10
52.35364003653819
 20
19.02468444823518
 30
0.0
 11
52.7929269101288
 21
19.02468444823518
 31
0.0
 12
52.35364003653819
 22
17.70682382746474
 32
0.0
 13
52.7929269101288
 23
17.70682382746474
 33
0.0
  0
SOLID
  5
17D9
330
1F
100
AcDbEntity
  8
LOGO
 62
     5
100
AcDbTrace
 10
51.03577941576777
 20
19.90325819541577
 30
0.0
 11
51.47506628935762
 21
19.90325819541577
 31
0.0
 12
51.03577941576777
 22
17.70682382746474
 32
0.0
 13
51.47506628935762
 23
17.70682382746474
 33
0.0
  0
POLYLINE
  5
17DA
330
1F
100
AcDbEntity
  8
LOGO
 62
     5
100
AcDb2dPolyline
 66
     1
 10
0.0
 20
0.0
 30
0.0
 40
0.4399908589646159
 41
0.4399908589646159
  0
VERTEX
  5
229A
330
17DA
100
AcDbEntity
  8
LOGO
 62
     5
100
AcDbVertex
100
AcDb2dVertex
 10
52.57433945139493
 20
19.02468444823518
 30
0.0
 42
1.0
  0
VERTEX
  5
229B
330
17DA
100
AcDbEntity
  8
LOGO
 62
     5
100
AcDbVertex
100
AcDb2dVertex
 10
51.25436687450108
 20
19.02468444823518
 30
0.0
 42
1.0
  0
SEQEND
  5
229C
330
17DA
100
AcDbEntity
  8
LOGO
 62
     5
  0
SOLID
  5
17DB
330
1F
100
AcDbEntity
  8
LOGO
 62
     5
100
AcDbTrace
 10
50.08397654675928
 20
19.90325819541577
 30
0.0
 11
50.52326342035046
 21
19.90325819541577
 31
0.0
 12
50.08397654675928
 22
17.7068238274639
 32
0.0
 13
50.52326342035046
 23
17.70682382746474
 33
0.0
  0
SOLID
  5
17DC
330
1F
100
AcDbEntity
  8
LOGO
 62
     5
100
AcDbTrace
 10
50.08397654675928
 20
20.21075900692875
 30
0.0
 11
50.52326342035046
 21
20.21075900692875
 31
0.0
 12
50.08397654675928
 22
20.5621885058014
 32
0.0
 13
50.52326342035046
 23
20.5621885058014
 33
0.0
  0
LINE
  5
17DD
330
1F
100
AcDbEntity
  8
LOGO
 62
     1
100
AcDbLine
 10
66.3641914606618
 20
17.20177621116925
 30
0.0
 11
66.3641914606618
 21
34.87998036599757
 31
0.0
  0
POLYLINE
  5
17DE
330
1F
100
AcDbEntity
  8
LOGO
 62
     5
100
AcDb2dPolyline
 66
     1
 10
0.0
 20
0.0
 30
0.0
 70
     1
 40
0.4399908589646159
 41
0.4399908589646159
  0
VERTEX
  5
229D
330
17DE
100
AcDbEntity
  8
LOGO
 62
     5
100
AcDbVertex
100
AcDb2dVertex
 10
59.82019677419873
 20
18.80504101144003
 30
0.0
 42
1.0
  0
VERTEX
  5
229E
330
17DE
100
AcDbEntity
  8
LOGO
 62
     5
100
AcDbVertex
100
AcDb2dVertex
 10
61.58016021005717
 20
18.80504101144003
 30
0.0
 42
1.0
  0
SEQEND
  5
229F
330
17DE
100
AcDbEntity
  8
LOGO
 62
     5
  0
CIRCLE
  5
17DF
330
1F
100
AcDbEntity
  8
LOGO
 62
     5
100
AcDbCircle
 10
60.70017849212819
 20
18.80504101144025
 30
0.0
 40
0.6589303103854089
  0
POLYLINE
  5
17E0
330
1F
100
AcDbEntity
  8
LOGO
 62
     5
100
AcDb2dPolyline
 66
     1
 10
0.0
 20
0.0
 30
0.0
 70
     1
  0
VERTEX
  5
22A0
330
17E0
100
AcDbEntity
  8
LOGO
 62
     5
100
AcDbVertex
100
AcDb2dVertex
 10
60.04124818174269
 20
18.80504101144025
 30
0.0
 42
1.000000057330635
  0
VERTEX
  5
22A1
330
17E0
100
AcDbEntity
  8
LOGO
 62
     5
100
AcDbVertex
100
AcDb2dVertex
 10
61.35910880251377
 20
18.80504101144025
 30
0.0
 42
1.000000057330635
  0
SEQEND
  5
22A2
330
17E0
100
AcDbEntity
  8
LOGO
 62
     5
  0
POLYLINE
  5
17E1
330
1F
100
AcDbEntity
  8
LOGO
 62
     5
100
AcDb2dPolyline
 66
     1
 10
0.0
 20
0.0
 30
0.0
 40
0.4399908589646159
 41
0.4399908589646159
  0
VERTEX
  5
22A3
330
17E1
100
AcDbEntity
  8
LOGO
 62
     5
100
AcDbVertex
100
AcDb2dVertex
 10
57.55295330454327
 20
19.02468444823518
 30
0.0
 42
1.0
  0
VERTEX
  5
22A4
330
17E1
100
AcDbEntity
  8
LOGO
 62
     5
100
AcDbVertex
100
AcDb2dVertex
 10
56.23298072764931
 20
19.02468444823518
 30
0.0
 42
1.0
  0
SEQEND
  5
22A5
330
17E1
100
AcDbEntity
  8
LOGO
 62
     5
  0
SOLID
  5
17E2
330
1F
100
AcDbEntity
  8
LOGO
 62
     5
100
AcDbTrace
 10
56.01439326891611
 20
19.90325819541577
 30
0.0
 11
56.45368014250606
 21
19.90325819541577
 31
0.0
 12
56.01439326891611
 22
17.70682382746474
 32
0.0
 13
56.45368014250606
 23
17.70682382746474
 33
0.0
  0
SOLID
  5
17E3
330
1F
100
AcDbEntity
  8
LOGO
 62
     5
100
AcDbTrace
 10
55.0625903999077
 20
20.5621885058014
 30
0.0
 11
55.50187727349756
 21
20.5621885058014
 31
0.0
 12
55.0625903999077
 22
17.70682382746474
 32
0.0
 13
55.50187727349756
 23
17.70682382746474
 33
0.0
  0
POLYLINE
  5
17E4
330
1F
100
AcDbEntity
  8
LOGO
 62
     5
100
AcDb2dPolyline
 66
     1
 10
0.0
 20
0.0
 30
0.0
 70
     1
 40
0.4399908589646159
 41
0.4399908589646159
  0
VERTEX
  5
22A6
330
17E4
100
AcDbEntity
  8
LOGO
 62
     5
100
AcDbVertex
100
AcDb2dVertex
 10
53.52372230027988
 20
18.80504101144003
 30
0.0
 42
1.0
  0
VERTEX
  5
22A7
330
17E4
100
AcDbEntity
  8
LOGO
 62
     5
100
AcDbVertex
100
AcDb2dVertex
 10
55.28368573613833
 20
18.80504101144003
 30
0.0
 42
1.0
  0
SEQEND
  5
22A8
330
17E4
100
AcDbEntity
  8
LOGO
 62
     5
  0
SOLID
  5
17E5
330
1F
100
AcDbEntity
  8
LOGO
 62
     5
100
AcDbTrace
 10
58.65011451045712
 20
19.02468444823518
 30
0.0
 11
59.08940138404697
 21
19.02468444823518
 31
0.0
 12
58.65011451045712
 22
17.7068238274639
 32
0.0
 13
59.08940138404697
 23
17.7068238274639
 33
0.0
  0
SOLID
  5
17E6
330
1F
100
AcDbEntity
  8
LOGO
 62
     5
100
AcDbTrace
 10
57.33225388968661
 20
19.02468444823518
 30
0.0
 11
57.77154076327647
 21
19.02468444823518
 31
0.0
 12
57.33225388968661
 22
17.70682382746474
 32
0.0
 13
57.77154076327647
 23
17.70682382746474
 33
0.0
  0
POLYLINE
  5
17E7
330
1F
100
AcDbEntity
  8
LOGO
 62
     5
100
AcDb2dPolyline
 66
     1
 10
0.0
 20
0.0
 30
0.0
 40
0.4399908589646159
 41
0.4399908589646159
  0
VERTEX
  5
22A9
330
17E7
100
AcDbEntity
  8
LOGO
 62
     5
100
AcDbVertex
100
AcDb2dVertex
 10
58.87081392531367
 20
19.02468444823518
 30
0.0
 42
1.0
  0
VERTEX
  5
22AA
330
17E7
100
AcDbEntity
  8
LOGO
 62
     5
100
AcDbVertex
100
AcDb2dVertex
 10
57.55084134841982
 20
19.02468444823518
 30
0.0
 42
1.0
  0
SEQEND
  5
22AB
330
17E7
100
AcDbEntity
  8
LOGO
 62
     5
  0
POLYLINE
  5
17E8
330
1F
100
AcDbEntity
  8
LOGO
 62
     5
100
AcDb2dPolyline
 66
     1
 10
0.0
 20
0.0
 30
0.0
 40
0.4399908589646159
 41
0.4399908589646159
  0
VERTEX
  5
22AC
330
17E8
100
AcDbEntity
  8
LOGO
 62
     5
100
AcDbVertex
100
AcDb2dVertex
 10
63.84942777846211
 20
19.02468444823518
 30
0.0
 42
1.0
  0
VERTEX
  5
22AD
330
17E8
100
AcDbEntity
  8
LOGO
 62
     5
100
AcDbVertex
100
AcDb2dVertex
 10
62.52945520156824
 20
19.02468444823518
 30
0.0
 42
1.0
  0
SEQEND
  5
22AE
330
17E8
100
AcDbEntity
  8
LOGO
 62
     5
  0
SOLID
  5
17E9
330
1F
100
AcDbEntity
  8
LOGO
 62
     5
100
AcDbTrace
 10
62.31086774283409
 20
17.70682382746474
 30
0.0
 11
62.7501546164248
 21
17.70682382746474
 31
0.0
 12
62.31086774283409
 22
19.90325819541577
 32
0.0
 13
62.7501546164248
 23
19.90325819541577
 33
0.0
  0
SOLID
  5
17EA
330
1F
100
AcDbEntity
  8
LOGO
 62
     5
100
AcDbTrace
 10
61.35906487382702
 20
19.90325819541577
 30
0.0
 11
61.79835174741687
 21
19.90325819541577
 31
0.0
 12
61.35906487382702
 22
17.70682382746474
 32
0.0
 13
61.79835174741687
 23
17.70682382746474
 33
0.0
  0
SOLID
  5
17EB
330
1F
100
AcDbEntity
  8
LOGO
 62
     5
100
AcDbTrace
 10
63.62872836360545
 20
19.02468444823518
 30
0.0
 11
64.06801523719531
 21
19.02468444823511
 31
0.0
 12
63.62872836360545
 22
17.70682382746474
 32
0.0
 13
64.06801523719531
 23
17.70682382746474
 33
0.0
  0
LINE
  5
17EC
330
1F
100
AcDbEntity
  8
LOGO
 62
     5
100
AcDbLine
 10
64.06801523719531
 20
17.70682382746474
 30
0.0
 11
64.06801523719531
 21
19.02468444823518
 31
0.0
  0
SOLID
  5
17ED
330
1F
100
AcDbEntity
  8
LOGO
 62
     2
100
AcDbTrace
 10
62.26693905547496
 20
34.18008158709995
 30
0.0
 11
62.79408330378364
 21
34.18008158709911
 31
0.0
 12
62.26693905547496
 22
22.09969256336679
 32
0.0
 13
62.79408330378364
 23
22.09969256336679
 33
0.0
  0
SOLID
  5
17EE
330
1F
100
AcDbEntity
  8
LOGO
 62
     5
100
AcDbTrace
 10
62.79408330378364
 20
22.09969256336679
 30
0.0
 11
64.06801523719531
 21
22.09969256336679
 31
0.0
 12
62.79408330378364
 22
34.18008158709911
 32
0.0
 13
64.06801523719531
 23
34.18008158709995
 33
0.0
  0
SOLID
  5
17EF
330
1F
100
AcDbEntity
  8
LOGO
 62
     5
100
AcDbTrace
 10
62.26693905547496
 20
33.21365046520089
 30
0.0
 11
60.9930071220632
 21
28.54256670935741
 31
0.0
 12
62.26693905547496
 22
22.09969256336679
 32
0.0
 13
60.9930071220632
 23
22.09969256336679
 33
0.0
  0
SOLID
  5
17F0
330
1F
100
AcDbEntity
  8
LOGO
 62
     2
100
AcDbTrace
 10
55.67763595162102
 20
34.18008158709911
 30
0.0
 11
56.20478019992979
 21
34.18008158709911
 31
0.0
 12
55.67763595162102
 22
22.09969256336721
 32
0.0
 13
56.20478019992979
 23
22.09969256336721
 33
0.0
  0
SOLID
  5
17F1
330
1F
100
AcDbEntity
  8
LOGO
 62
     5
100
AcDbTrace
 10
56.20478019992979
 20
34.18008158709911
 30
0.0
 11
57.47871213334125
 21
34.18008158709995
 31
0.0
 12
56.20478019992979
 22
23.06612368526543
 32
0.0
 13
57.47871213334125
 23
27.73720744110891
 33
0.0
  0
SOLID
  5
17F2
330
1F
100
AcDbEntity
  8
LOGO
 62
     5
100
AcDbTrace
 10
54.40370401820944
 20
22.09969256336721
 30
0.0
 11
55.67763595162102
 21
22.09969256336721
 31
0.0
 12
54.40370401820944
 22
28.54256670935741
 32
0.0
 13
55.67763595162102
 23
33.21365046520089
 33
0.0
  0
SOLID
  5
17F3
330
1F
100
AcDbEntity
  8
LOGO
 62
     2
100
AcDbTrace
 10
55.67763595162102
 20
22.09969256336721
 30
0.0
 11
56.20478019992979
 21
22.09969256336721
 31
0.0
 12
62.26693905547496
 22
34.18008158709995
 32
0.0
 13
62.79408330378364
 23
34.18008158709911
 33
0.0
  0
SOLID
  5
17F4
330
1F
100
AcDbEntity
  8
LOGO
 62
     5
100
AcDbTrace
 10
56.20478019992979
 20
22.09969256336721
 30
0.0
 11
57.47871213334125
 21
22.09969256336721
 31
0.0
 12
62.26693905547496
 22
33.21365046520089
 32
0.0
 13
60.9930071220632
 23
28.54256670935741
 33
0.0
  0
SOLID
  5
17F5
330
1F
100
AcDbEntity
  8
LOGO
 62
     5
100
AcDbTrace
 10
56.20478019992979
 20
23.06612368526543
 30
0.0
 11
57.47871213334125
 21
27.73720744110891
 31
0.0
 12
62.26693905547496
 22
34.18008158709995
 32
0.0
 13
60.9930071220632
 23
34.18008158709995
 33
0.0
  0
TEXT
  5
17F6
330
1F
100
AcDbEntity
  8
LOGO
 62
     7
100
AcDbText
 10
111.9893251023468
 20
27.50294658422232
 30
0.0
 40
5.892734718276105
  1
訂購代號:
  7
CHINESET
100
AcDbText
  0
TEXT
  5
17F7
330
1F
100
AcDbEntity
  8
LOGO
 62
     7
100
AcDbText
 10
111.284521542752
 20
21.97244633286177
 30
0.0
 40
3.92848981218407
  1
Order example:
 41
0.8
  7
CHINESET
100
AcDbText
  0
LINE
  5
17F8
330
1F
100
AcDbEntity
  8
LOGO
 62
     1
100
AcDbLine
 10
89.93513033376625
 20
17.20177621116925
 30
0.0
 11
89.93513033376625
 21
34.87998036599757
 31
0.0
  0
TEXT
  5
17F9
330
1F
100
AcDbEntity
  8
LOGO
 62
     6
100
AcDbText
 10
94.35516718936794
 20
18.67495989073828
 30
0.0
 40
2.946367359138052
  1
m/m
  7
CHINESET
 72
     1
 11
99.54638586975402
 21
20.1481435703073
 31
0.0
100
AcDbText
 73
     2
  0
CIRCLE
  5
17FA
330
1F
100
AcDbEntity
  8
LOGO
  6
CONTINUOUS
 62
     6
100
AcDbCircle
 10
95.39069802501414
 20
26.04718058992557
 30
0.0
 40
1.710730238385646
  0
TEXT
  5
17FB
330
1F
100
AcDbEntity
  8
LOGO
 62
     6
100
AcDbText
 10
94.35516718936794
 20
30.46042932729048
 30
0.0
 40
2.946367359138052
  1
1 : 1
  7
CHINESET
 72
     1
 11
99.54638586975402
 21
31.93361300685951
 31
0.0
100
AcDbText
 73
     2
  0
LINE
  5
17FC
330
1F
100
AcDbEntity
  8
LOGO
  6
CONTINUOUS
 62
     6
100
AcDbLine
 10
100.7780842510343
 20
25.04484411261119
 30
0.0
 11
106.1411253477722
 21
24.33645035153993
 31
0.0
  0
LINE
  5
17FD
330
1F
100
AcDbEntity
  8
LOGO
  6
CONTINUOUS
 62
     6
100
AcDbLine
 10
100.7780842510343
 20
27.04951706723996
 30
0.0
 11
106.1411253477722
 21
27.75791082831121
 31
0.0
  0
LINE
  5
17FE
330
1F
100
AcDbEntity
  8
LOGO
 62
     6
100
AcDbLine
 10
100.7780842510344
 20
25.04484411261119
 30
0.0
 11
100.7780842510343
 21
27.04951706723998
 31
0.0
  0
CIRCLE
  5
17FF
330
1F
100
AcDbEntity
  8
LOGO
  6
CONTINUOUS
 62
     6
100
AcDbCircle
 10
95.39069802501414
 20
26.04718058992557
 30
0.0
 40
1.00233647731439
  0
LINE
  5
1800
330
1F
100
AcDbEntity
  8
LOGO
 62
     6
100
AcDbLine
 10
106.1411253477722
 20
24.33645035153993
 30
0.0
 11
106.1411253477722
 21
27.75791082831121
 31
0.0
  0
LINE
  5
1801
330
1F
100
AcDbEntity
  8
LOGO
 62
     1
100
AcDbLine
 10
109.5775793946865
 20
5.416306774617041
 30
0.0
 11
109.5775793946865
 21
34.87998036599757
 31
0.0
  0
LINE
  5
1802
330
1F
100
AcDbEntity
  8
LOGO
 62
     6
100
AcDbLine
 10
171.7102487224254
 20
18.67495989073828
 30
0.0
 11
152.067799661505
 21
18.67495989073828
 31
0.0
  0
TEXT
  5
1803
330
1F
100
AcDbEntity
  8
LOGO
  6
CONTINUOUS
 62
     7
100
AcDbText
 10
153.12007371834
 20
25.0587558355374
 30
0.0
 40
4.910612265230088
  1
MCJT
  7
CHINESET
 72
     1
 11
161.8890241919651
 21
27.51406196815244
 31
0.0
100
AcDbText
 73
     2
  0
LINE
  5
1804
330
1F
100
AcDbEntity
  8
LOGO
 62
     6
100
AcDbLine
 10
171.7102487224254
 20
7.871612907232083
 30
0.0
 11
152.067799661505
 21
7.871612907232059
 31
0.0
  0
TEXT
  5
1805
330
1F
100
AcDbEntity
  8
LOGO
  6
CONTINUOUS
 62
     6
100
AcDbText
 10
157.2122506060318
 20
9.099265973539605
 30
0.0
 40
2.455306132615044
  1
Model
  7
CHINESET
 72
     4
 11
161.8890241919651
 21
10.32691903984712
 31
0.0
100
AcDbText
  0
TEXT
  5
1806
330
1F
100
AcDbEntity
  8
LOGO
 62
     6
100
AcDbText
 10
157.9605343797811
 20
13.37381861858831
 30
0.0
 40
3.92848981218407
  1
型式
  7
CHINESET
 72
     4
 11
161.8890241919651
 21
15.23753130507721
 31
0.0
100
AcDbText
  0
LINE
  5
1807
330
1F
100
AcDbEntity
  8
LOGO
 62
     6
100
AcDbLine
 10
173.6744936285174
 20
23.09451092944535
 30
0.0
 11
150.103554755413
 21
23.09451092944535
 31
0.0
  0
LINE
  5
1808
330
1F
100
AcDbEntity
  8
LOGO
 62
     6
100
AcDbLine
 10
173.6744936285174
 20
31.93361300685951
 30
0.0
 11
150.103554755413
 21
31.93361300685951
 31
0.0
  0
LINE
  5
1809
330
1F
100
AcDbEntity
  8
LOGO
 62
     6
100
AcDbLine
 10
161.8890241919651
 20
23.09451092944535
 30
0.0
 11
161.8890241919651
 21
18.67495989073828
 31
0.0
  0
LINE
  5
180A
330
1F
100
AcDbEntity
  8
LOGO
 62
     6
100
AcDbLine
 10
152.067799661505
 20
18.67495989073828
 30
0.0
 11
152.067799661505
 21
7.871612907232059
 31
0.0
  0
LINE
  5
180B
330
1F
100
AcDbEntity
  8
LOGO
 62
     6
100
AcDbLine
 10
150.103554755413
 20
31.93361300685951
 30
0.0
 11
150.103554755413
 21
23.09451092944535
 31
0.0
  0
LINE
  5
180C
330
1F
100
AcDbEntity
  8
LOGO
 62
     6
100
AcDbLine
 10
171.7102487224254
 20
18.67495989073828
 30
0.0
 11
171.7102487224254
 21
7.871612907232083
 31
0.0
  0
LINE
  5
180D
330
1F
100
AcDbEntity
  8
LOGO
 62
     6
100
AcDbLine
 10
180.6289492198247
 20
18.67495989073828
 30
0.0
 11
180.6289492198247
 21
7.871612907232083
 31
0.0
  0
LINE
  5
180E
330
1F
100
AcDbEntity
  8
LOGO
  6
CONTINUOUS
 62
     7
100
AcDbLine
 10
175.1973380780603
 20
27.48275247168591
 30
0.0
 11
179.1003630309429
 21
27.48275247168591
 31
0.0
  0
LINE
  5
180F
330
1F
100
AcDbEntity
  8
LOGO
 62
     6
100
AcDbLine
 10
173.6744936285175
 20
31.93361300685951
 30
0.0
 11
173.6744936285175
 21
23.09451092944535
 31
0.0
  0
LINE
  5
1810
330
1F
100
AcDbEntity
  8
LOGO
 62
     6
100
AcDbLine
 10
180.6289492198247
 20
31.93361300685951
 30
0.0
 11
180.6289492198247
 21
23.09451092944535
 31
0.0
  0
TEXT
  5
1811
330
1F
100
AcDbEntity
  8
0
100
AcDbText
 10
49.11067294136524
 20
133.1914855496132
 30
0.0
 40
4.0
  1
MCJT-12-%%C16
  7
CHINESET
100
AcDbText
  0
TEXT
  5
1812
330
1F
100
AcDbEntity
  8
0
100
AcDbText
 10
48.61974398377788
 20
124.9025507992284
 30
0.0
 40
5.0
  1
stroke=0mm
  7
CHINESET
100
AcDbText
  0
LINE
  5
1868
330
1F
100
AcDbEntity
  8
LOGO
 62
     6
100
AcDbLine
 10
248.3279471834929
 20
31.93361300685951
 30
0.0
 11
231.9673406766129
 21
31.93361300685951
 31
0.0
  0
LINE
  5
1869
330
1F
100
AcDbEntity
  8
LOGO
 62
     6
100
AcDbLine
 10
248.3279471834929
 20
23.09451092944535
 30
0.0
 11
231.9673406766129
 21
23.09451092944535
 31
0.0
  0
LINE
  5
186A
330
1F
100
AcDbEntity
  8
LOGO
 62
     6
100
AcDbLine
 10
247.3458247304469
 20
18.67495989073828
 30
0.0
 11
232.9494631296589
 21
18.67495989073828
 31
0.0
  0
LINE
  5
186B
330
1F
100
AcDbEntity
  8
LOGO
 62
     6
100
AcDbLine
 10
247.3458247304469
 20
7.871612907232083
 30
0.0
 11
232.9494631296589
 21
7.871612907232059
 31
0.0
  0
LINE
  5
186C
330
1F
100
AcDbEntity
  8
LOGO
 62
     6
100
AcDbLine
 10
225.0128850853056
 20
23.09451092944541
 30
0.0
 11
209.2445123073569
 21
23.09451092944541
 31
0.0
  0
LINE
  5
186D
330
1F
100
AcDbEntity
  8
LOGO
 62
     6
100
AcDbLine
 10
225.0128850853056
 20
18.67495989073832
 30
0.0
 11
209.2445123073569
 21
18.67495989073832
 31
0.0
  0
LINE
  5
186E
330
1F
100
AcDbEntity
  8
LOGO
 62
     6
100
AcDbLine
 10
225.0128850853056
 20
31.93361300685963
 30
0.0
 11
209.2445123073569
 21
31.93361300685957
 31
0.0
  0
TEXT
  5
186F
330
1F
100
AcDbEntity
  8
LOGO
  6
CONTINUOUS
 62
     7
100
AcDbText
 10
214.1963617844393
 20
25.00306918301841
 30
0.0
 40
4.910612265230088
  1
16
  7
CHINESET
 72
     1
 11
217.587022634241
 21
27.45837531563346
 31
0.0
100
AcDbText
 73
     2
  0
LINE
  5
1870
330
1F
100
AcDbEntity
  8
LOGO
 62
     6
100
AcDbLine
 10
225.0128850853056
 20
7.87161290723214
 30
0.0
 11
209.2445123073569
 21
7.871612907232105
 31
0.0
  0
TEXT
  5
1871
330
1F
100
AcDbEntity
  8
LOGO
  6
CONTINUOUS
 62
     6
100
AcDbText
 10
214.0887958654746
 20
9.09926597353964
 30
0.0
 40
2.455306132615044
  1
Bore
 41
0.8
  7
CHINESET
 72
     4
 11
217.1286986963314
 21
10.32691903984716
 31
0.0
100
AcDbText
  0
TEXT
  5
1872
330
1F
100
AcDbEntity
  8
LOGO
 62
     6
100
AcDbText
 10
213.3720803134303
 20
13.27328639898521
 30
0.0
 40
3.92848981218407
  1
內徑
 41
0.9
  7
CHINESET
 72
     4
 11
217.1286986963314
 21
15.23753130507724
 31
0.0
100
AcDbText
  0
LINE
  5
1873
330
1F
100
AcDbEntity
  8
LOGO
 62
     6
100
AcDbLine
 10
217.1286984698691
 20
23.09451092944541
 30
0.0
 11
217.1286984698691
 21
18.67495989073832
 31
0.0
  0
LINE
  5
1874
330
1F
100
AcDbEntity
  8
LOGO
 62
     6
100
AcDbLine
 10
191.4595029679372
 20
23.09451092944535
 30
0.0
 11
191.4595029679372
 21
18.67495989073828
 31
0.0
  0
LINE
  5
1875
330
1F
100
AcDbEntity
  8
LOGO
 62
     6
100
AcDbLine
 10
202.2900567160496
 20
18.67495989073828
 30
0.0
 11
202.2900567160496
 21
7.871612907232105
 31
0.0
  0
LINE
  5
1876
330
1F
100
AcDbEntity
  8
LOGO
 62
     6
100
AcDbLine
 10
209.2445123073569
 20
18.67495989073832
 30
0.0
 11
209.2445123073569
 21
7.87161290723214
 31
0.0
  0
LINE
  5
1877
330
1F
100
AcDbEntity
  8
LOGO
 62
     6
100
AcDbLine
 10
202.2900567160496
 20
31.93361300685957
 30
0.0
 11
202.2900567160496
 21
23.09451092944535
 31
0.0
  0
LINE
  5
1878
330
1F
100
AcDbEntity
  8
LOGO
 62
     6
100
AcDbLine
 10
209.2445123073569
 20
31.93361300685957
 30
0.0
 11
209.2445123073569
 21
23.09451092944541
 31
0.0
  0
LINE
  5
1879
330
1F
100
AcDbEntity
  8
LOGO
  6
CONTINUOUS
 62
     7
100
AcDbLine
 10
203.8129011655924
 20
27.48275247168597
 30
0.0
 11
207.7159261184752
 21
27.48275247168597
 31
0.0
  0
LINE
  5
187A
330
1F
100
AcDbEntity
  8
LOGO
 62
     6
100
AcDbLine
 10
240.3556485480789
 20
23.09451092944535
 30
0.0
 11
240.3556485480789
 21
18.67495989073828
 31
0.0
  0
LINE
  5
187B
330
1F
100
AcDbEntity
  8
LOGO
 62
     6
100
AcDbLine
 10
225.0128850853056
 20
18.67495989073832
 30
0.0
 11
225.0128850853056
 21
7.871612907232165
 31
0.0
  0
LINE
  5
187C
330
1F
100
AcDbEntity
  8
LOGO
 62
     6
100
AcDbLine
 10
232.9494631296589
 20
18.67495989073828
 30
0.0
 11
232.9494631296589
 21
7.871612907232059
 31
0.0
  0
TEXT
  5
187D
330
1F
100
AcDbEntity
  8
LOGO
  6
CONTINUOUS
 62
     6
100
AcDbText
 10
235.7047090234162
 20
9.09926597353958
 30
0.0
 40
2.455306132615044
  1
Stroke
 41
0.8
  7
CHINESET
 72
     4
 11
240.1476439300529
 21
10.3269190398471
 31
0.0
100
AcDbText
  0
TEXT
  5
187E
330
1F
100
AcDbEntity
  8
LOGO
 62
     6
100
AcDbText
 10
236.6120030990873
 20
13.27328639898515
 30
0.0
 40
3.92848981218407
  1
行程
 41
0.9
  7
CHINESET
 72
     4
 11
240.1476439300529
 21
15.23753130507718
 31
0.0
100
AcDbText
  0
LINE
  5
187F
330
1F
100
AcDbEntity
  8
LOGO
 62
     6
100
AcDbLine
 10
225.0128850853056
 20
31.93361300685963
 30
0.0
 11
225.0128850853056
 21
23.09451092944541
 31
0.0
  0
LINE
  5
1880
330
1F
100
AcDbEntity
  8
LOGO
  6
CONTINUOUS
 62
     7
100
AcDbLine
 10
226.5357295348485
 20
27.48275247168602
 30
0.0
 11
230.4387544877312
 21
27.48275247168602
 31
0.0
  0
LINE
  5
1881
330
1F
100
AcDbEntity
  8
LOGO
 62
     6
100
AcDbLine
 10
231.9673406766129
 20
31.93361300685951
 30
0.0
 11
231.9673406766129
 21
23.09451092944535
 31
0.0
  0
TEXT
  5
1882
330
1F
100
AcDbEntity
  8
LOGO
  6
CONTINUOUS
 62
     7
100
AcDbText
 10
239.319855131831
 20
25.00306918301836
 30
0.0
 40
4.910612265230088
  1
?
  7
CHINESET
 72
     1
 11
240.6059678679627
 21
27.4583753156334
 31
0.0
100
AcDbText
 73
     2
  0
LINE
  5
1883
330
1F
100
AcDbEntity
  8
LOGO
 62
     6
100
AcDbLine
 10
256.8243451617872
 20
23.09451092944535
 30
0.0
 11
256.8243451617872
 21
18.67495989073828
 31
0.0
  0
LINE
  5
1884
330
1F
100
AcDbEntity
  8
LOGO
 62
     1
100
AcDbLine
 10
271.6277841472794
 20
5.416306774617041
 30
0.0
 11
271.6277841472794
 21
34.87998036599757
 31
0.0
  0
LINE
  5
1885
330
1F
100
AcDbEntity
  8
LOGO
 62
     6
100
AcDbLine
 10
264.0225259621812
 20
7.871612907232083
 30
0.0
 11
249.6261643613932
 21
7.871612907232059
 31
0.0
  0
LINE
  5
1886
330
1F
100
AcDbEntity
  8
LOGO
 62
     6
100
AcDbLine
 10
264.0225259621812
 20
18.67495989073828
 30
0.0
 11
249.6261643613932
 21
18.67495989073828
 31
0.0
  0
TEXT
  5
1887
330
1F
100
AcDbEntity
  8
LOGO
  6
CONTINUOUS
 62
     6
100
AcDbText
 10
251.1186813869484
 20
9.09926597353958
 30
0.0
 40
2.455306132615044
  1
MAGNET
 41
0.8
  7
CHINESET
 72
     4
 11
256.8243451617872
 21
10.3269190398471
 31
0.0
100
AcDbText
  0
TEXT
  5
1888
330
1F
100
AcDbEntity
  8
LOGO
 62
     6
100
AcDbText
 10
251.5208839153387
 20
13.31420816786207
 30
0.0
 40
3.92848981218407
  1
附磁石
 41
0.9
  7
CHINESET
 72
     4
 11
256.8243451617872
 21
15.23753130507718
 31
0.0
100
AcDbText
  0
LINE
  5
1889
330
1F
100
AcDbEntity
  8
LOGO
 62
     6
100
AcDbLine
 10
249.6261643613932
 20
18.67495989073828
 30
0.0
 11
249.6261643613932
 21
7.871612907232059
 31
0.0
  0
LINE
  5
188A
330
1F
100
AcDbEntity
  8
LOGO
 62
     6
100
AcDbLine
 10
247.3458247304469
 20
18.67495989073828
 30
0.0
 11
247.3458247304469
 21
7.830877125642182
 31
0.0
  0
LINE
  5
188B
330
1F
100
AcDbEntity
  8
LOGO
 62
     6
100
AcDbLine
 10
264.0225259621812
 20
18.67495989073828
 30
0.0
 11
264.0225259621812
 21
7.830877125642182
 31
0.0
  0
TEXT
  5
188C
330
1F
100
AcDbEntity
  8
LOGO
  6
CONTINUOUS
 62
     7
100
AcDbText
 10
252.0212990419839
 20
25.00306918301836
 30
0.0
 40
4.910612265230088
  1
(M)
  7
CHINESET
 72
     1
 11
257.282669326159
 21
27.4583753156334
 31
0.0
100
AcDbText
 73
     2
  0
LINE
  5
188D
330
1F
100
AcDbEntity
  8
LOGO
 62
     6
100
AcDbLine
 10
263.2768998140043
 20
23.09451092944535
 30
0.0
 11
250.3717905095701
 21
23.09451092944535
 31
0.0
  0
LINE
  5
188E
330
1F
100
AcDbEntity
  8
LOGO
 62
     6
100
AcDbLine
 10
263.2768998140043
 20
31.93361300685957
 30
0.0
 11
250.3717905095701
 21
31.93361300685951
 31
0.0
  0
LINE
  5
188F
330
1F
100
AcDbEntity
  8
LOGO
 62
     6
100
AcDbLine
 10
250.3717905095701
 20
31.93361300685951
 30
0.0
 11
250.3717905095701
 21
23.09451092944535
 31
0.0
  0
LINE
  5
1890
330
1F
100
AcDbEntity
  8
LOGO
 62
     6
100
AcDbLine
 10
248.3279471834929
 20
31.93361300685951
 30
0.0
 11
248.3279471834929
 21
23.09451092944535
 31
0.0
  0
LINE
  5
1891
330
1F
100
AcDbEntity
  8
LOGO
 62
     6
100
AcDbLine
 10
263.2768998140042
 20
31.93361300685957
 30
0.0
 11
263.2768998140043
 21
23.09451092944535
 31
0.0
  0
LINE
  5
18E7
330
1F
100
AcDbEntity
  8
0
 62
     4
100
AcDbLine
 10
271.6277841472794
 20
252.9045421420978
 30
0.0
 11
44.75749749364945
 21
252.9045421420978
 31
0.0
  0
TEXT
  5
18E8
330
1F
100
AcDbEntity
  8
0
100
AcDbText
 10
62.23798099395674
 20
256.9045428596943
 30
0.0
 40
10.0
  1
2.附磁型本體長度皆較不附磁型增加10MM
  7
CHINESET
100
AcDbText
  0
TEXT
  5
18E9
330
1F
100
AcDbEntity
  8
0
100
AcDbText
 10
43.89216009720269
 20
272.1280536954711
 30
0.0
 40
10.0
  1
註：1.本圖檔為不附磁型
  7
CHINESET
100
AcDbText
  0
TEXT
  5
18EA
330
1F
100
AcDbEntity
  8
0
100
AcDbText
 10
49.54913670363566
 20
243.9891617955227
 30
0.0
 40
4.0
  1
MCJT-11-%%C16
  7
CHINESET
100
AcDbText
  0
TEXT
  5
18EB
330
1F
100
AcDbEntity
  8
0
100
AcDbText
 10
49.05820774604819
 20
235.7002270451379
 30
0.0
 40
5.0
  1
stroke=0mm
  7
CHINESET
100
AcDbText
  0
LINE
  5
18F5
330
1F
100
AcDbEntity
  8
CENTER
100
AcDbLine
 10
118.7605308010299
 20
76.74601269921186
 30
0.0
 11
91.81052674440184
 21
76.74601269921186
 31
0.0
  0
LINE
  5
18F6
330
1F
100
AcDbEntity
  8
0
100
AcDbLine
 10
92.39941563329068
 20
84.74601269921185
 30
0.0
 11
112.8994156332906
 21
84.74601269921185
 31
0.0
  0
LINE
  5
18F7
330
1F
100
AcDbEntity
  8
CENTER
100
AcDbLine
 10
104.1794156332906
 20
76.74601269921183
 30
0.0
 11
102.1094156332906
 21
76.74601269921183
 31
0.0
  0
LINE
  5
18F8
330
1F
100
AcDbEntity
  8
CENTER
100
AcDbLine
 10
118.7605308010299
 20
70.24601269921186
 30
0.0
 11
91.81052674440184
 21
70.24601269921186
 31
0.0
  0
LINE
  5
18F9
330
1F
100
AcDbEntity
  8
0
100
AcDbLine
 10
112.8994156332905
 20
55.74601269921183
 30
0.0
 11
92.39941563329058
 21
55.74601269921183
 31
0.0
  0
LINE
  5
18FA
330
1F
100
AcDbEntity
  8
CENTER
100
AcDbLine
 10
100.3994156332906
 20
76.02601269921186
 30
0.0
 11
100.3994156332906
 21
73.95601269921186
 31
0.0
  0
ARC
  5
18FB
330
1F
100
AcDbEntity
  8
0
 62
     3
100
AcDbCircle
 10
100.3994156332906
 20
76.74601269921186
 30
0.0
 40
2.5
100
AcDbArc
 50
167.0245984412044
 51
101.5070990104355
  0
LINE
  5
18FC
330
1F
100
AcDbEntity
  8
0
100
AcDbLine
 10
92.39941563329068
 20
61.44601269921185
 30
0.0
 11
92.39941563329081
 21
79.04601269921181
 31
0.0
  0
LINE
  5
18FD
330
1F
100
AcDbEntity
  8
0
100
AcDbLine
 10
92.39941563329058
 20
55.74601269921183
 30
0.0
 11
92.39941563329058
 21
61.44601269921185
 31
0.0
  0
CIRCLE
  5
18FE
330
1F
100
AcDbEntity
  8
0
100
AcDbCircle
 10
100.3994156332906
 20
76.74601269921186
 30
0.0
 40
2.149999999999999
  0
LINE
  5
18FF
330
1F
100
AcDbEntity
  8
0
100
AcDbLine
 10
92.39941563329068
 20
79.04601269921181
 30
0.0
 11
92.39941563329068
 21
81.74601269921181
 31
0.0
  0
LINE
  5
1900
330
1F
100
AcDbEntity
  8
CENTER
100
AcDbLine
 10
98.65941563329068
 20
76.74601269921186
 30
0.0
 11
98.97941563329073
 21
76.74601269921186
 31
0.0
  0
LINE
  5
1901
330
1F
100
AcDbEntity
  8
0
100
AcDbLine
 10
92.39941563329068
 20
81.74601269921181
 30
0.0
 11
92.39941563329068
 21
84.74601269921185
 31
0.0
  0
LINE
  5
1902
330
1F
100
AcDbEntity
  8
CENTER
100
AcDbLine
 10
101.1194156332907
 20
76.74601269921186
 30
0.0
 11
103.1894156332907
 21
76.74601269921186
 31
0.0
  0
CIRCLE
  5
1903
330
1F
100
AcDbEntity
  8
0
100
AcDbCircle
 10
100.3994156332906
 20
76.74601269921186
 30
0.0
 40
0.4
  0
LINE
  5
1904
330
1F
100
AcDbEntity
  8
CENTER
100
AcDbLine
 10
100.4194156332906
 20
76.74601269921186
 30
0.0
 11
100.7394156332907
 21
76.74601269921186
 31
0.0
  0
LINE
  5
1905
330
1F
100
AcDbEntity
  8
CENTER
100
AcDbLine
 10
100.3994156332906
 20
77.14601269921186
 30
0.0
 11
100.3994156332906
 21
76.34601269921185
 31
0.0
  0
LINE
  5
1906
330
1F
100
AcDbEntity
  8
CENTER
100
AcDbLine
 10
99.99941563329072
 20
76.74601269921186
 30
0.0
 11
100.7994156332906
 21
76.74601269921186
 31
0.0
  0
LINE
  5
1907
330
1F
100
AcDbEntity
  8
CENTER
100
AcDbLine
 10
100.3994156332906
 20
79.53601269921188
 30
0.0
 11
100.3994156332906
 21
77.46601269921185
 31
0.0
  0
LINE
  5
1908
330
1F
100
AcDbEntity
  8
CENTER
100
AcDbLine
 10
99.29941563329066
 20
76.74601269921186
 30
0.0
 11
100.0994156332907
 21
76.74601269921186
 31
0.0
  0
LINE
  5
1909
330
1F
100
AcDbEntity
  8
CENTER
100
AcDbLine
 10
104.8994156332906
 20
76.02601269921184
 30
0.0
 11
104.8994156332906
 21
73.95601269921184
 31
0.0
  0
ARC
  5
190A
330
1F
100
AcDbEntity
  8
0
 62
     3
100
AcDbCircle
 10
104.8994156332906
 20
76.74601269921183
 30
0.0
 40
2.5
100
AcDbArc
 50
78.49290098956442
 51
12.9754015587955
  0
LINE
  5
190B
330
1F
100
AcDbEntity
  8
0
100
AcDbLine
 10
112.8994156332905
 20
70.24601269921186
 30
0.0
 11
112.8994156332906
 21
79.04601269921181
 31
0.0
  0
LINE
  5
190C
330
1F
100
AcDbEntity
  8
0
100
AcDbLine
 10
112.8994156332906
 20
70.24601269921186
 30
0.0
 11
112.8994156332905
 21
55.74601269921183
 31
0.0
  0
LINE
  5
190E
330
1F
100
AcDbEntity
  8
0
100
AcDbLine
 10
117.3994156332905
 20
70.24601269921181
 30
0.0
 11
117.3994156332905
 21
67.29601269921184
 31
0.0
  0
LINE
  5
1912
330
1F
100
AcDbEntity
  8
0
100
AcDbLine
 10
112.8994156332905
 20
66.24601269921186
 30
0.0
 11
113.3994156332906
 21
66.24601269921185
 31
0.0
  0
LINE
  5
1914
330
1F
100
AcDbEntity
  8
0
100
AcDbLine
 10
117.3994156332905
 20
67.24601269921177
 30
0.0
 11
117.3994156332905
 21
67.29601269921184
 31
0.0
  0
LINE
  5
191A
330
1F
100
AcDbEntity
  8
0
100
AcDbLine
 10
112.8994156332905
 20
74.24601269921183
 30
0.0
 11
113.3594156332904
 21
74.24601269921182
 31
0.0
  0
LINE
  5
191E
330
1F
100
AcDbEntity
  8
0
100
AcDbLine
 10
117.3994156332905
 20
70.24601269921183
 30
0.0
 11
117.3994156332905
 21
73.04878833694383
 31
0.0
  0
LINE
  5
191F
330
1F
100
AcDbEntity
  8
0
100
AcDbLine
 10
117.3994156332905
 20
73.20601269921176
 30
0.0
 11
117.3994156332905
 21
73.04878833694383
 31
0.0
  0
LINE
  5
1921
330
1F
100
AcDbEntity
  8
CENTER
100
AcDbLine
 10
106.6394156332906
 20
76.7460126992118
 30
0.0
 11
106.3194156332906
 21
76.74601269921183
 31
0.0
  0
CIRCLE
  5
1922
330
1F
100
AcDbEntity
  8
0
100
AcDbCircle
 10
104.8994156332906
 20
76.74601269921183
 30
0.0
 40
2.149999999999999
  0
CIRCLE
  5
1923
330
1F
100
AcDbEntity
  8
0
100
AcDbCircle
 10
104.8994156332906
 20
76.74601269921183
 30
0.0
 40
0.4
  0
LINE
  5
1924
330
1F
100
AcDbEntity
  8
CENTER
100
AcDbLine
 10
104.8794156332907
 20
76.74601269921183
 30
0.0
 11
104.5594156332906
 21
76.74601269921183
 31
0.0
  0
LINE
  5
1925
330
1F
100
AcDbEntity
  8
CENTER
100
AcDbLine
 10
104.8994156332906
 20
77.14601269921184
 30
0.0
 11
104.8994156332906
 21
76.34601269921183
 31
0.0
  0
LINE
  5
1926
330
1F
100
AcDbEntity
  8
CENTER
100
AcDbLine
 10
105.2994156332906
 20
76.74601269921183
 30
0.0
 11
104.4994156332907
 21
76.74601269921183
 31
0.0
  0
LINE
  5
1927
330
1F
100
AcDbEntity
  8
CENTER
100
AcDbLine
 10
104.8994156332906
 20
79.53601269921183
 30
0.0
 11
104.8994156332906
 21
77.46601269921183
 31
0.0
  0
LINE
  5
1928
330
1F
100
AcDbEntity
  8
CENTER
100
AcDbLine
 10
105.9994156332907
 20
76.74601269921183
 30
0.0
 11
105.1994156332906
 21
76.74601269921183
 31
0.0
  0
LINE
  5
1929
330
1F
100
AcDbEntity
  8
0
100
AcDbLine
 10
112.8994156332906
 20
81.74601269921181
 30
0.0
 11
112.8994156332906
 21
79.04601269921181
 31
0.0
  0
LINE
  5
192A
330
1F
100
AcDbEntity
  8
0
100
AcDbLine
 10
112.8994156332906
 20
84.7460126992118
 30
0.0
 11
112.8994156332906
 21
81.74601269921181
 31
0.0
  0
LINE
  5
194A
330
1F
100
AcDbEntity
  8
CENTER
100
AcDbLine
 10
204.8267521630821
 20
80.14601269921167
 30
0.0
 11
207.965641051971
 21
80.14601269921167
 31
0.0
  0
LINE
  5
194E
330
1F
100
AcDbEntity
  8
0
100
AcDbLine
 10
199.126752163082
 20
84.74601269921169
 30
0.0
 11
206.2047813208907
 21
84.74601269921169
 31
0.0
  0
LINE
  5
194F
330
1F
100
AcDbEntity
  8
0
100
AcDbLine
 10
206.2047813208907
 20
55.74601269921164
 30
0.0
 11
198.226752163082
 21
55.74601269921169
 31
0.0
  0
LINE
  5
1950
330
1F
100
AcDbEntity
  8
CENTER
100
AcDbLine
 10
193.9267521630821
 20
80.03490158810064
 30
0.0
 11
193.9267521630821
 21
71.24601269921175
 31
0.0
  0
LINE
  5
1951
330
1F
100
AcDbEntity
  8
0
100
AcDbLine
 10
179.4267521630821
 20
57.96798354140304
 30
0.0
 11
179.4267521630821
 21
82.52404185702046
 31
0.0
  0
ARC
  5
1952
330
1F
100
AcDbEntity
  8
0
100
AcDbCircle
 10
193.9267521630821
 20
69.7036198984552
 30
0.0
 40
7.263309436730495
100
AcDbArc
 50
326.4519990788199
 51
213.54800092118
  0
CIRCLE
  5
1953
330
1F
100
AcDbEntity
  8
0
100
AcDbCircle
 10
193.926752163082
 20
70.24601269921174
 30
0.0
 40
8.5
  0
ARC
  5
1954
330
1F
100
AcDbEntity
  8
0
100
AcDbCircle
 10
188.7110300277711
 20
66.23580713010918
 30
0.0
 40
1.0
100
AcDbArc
 50
213.1032271326748
 51
313.457461187625
  0
LINE
  5
1955
330
1F
100
AcDbEntity
  8
0
100
AcDbLine
 10
190.9267521630821
 20
55.74601269921169
 30
0.0
 11
181.6487230052733
 21
55.74601269921169
 31
0.0
  0
LINE
  5
1956
330
1F
100
AcDbEntity
  8
CENTER
100
AcDbLine
 10
184.0267521630821
 20
70.24601269921174
 30
0.0
 11
192.9267521630821
 21
70.24601269921174
 31
0.0
  0
LINE
  5
1957
330
1F
100
AcDbEntity
  8
CENTER
100
AcDbLine
 10
184.0267521630821
 20
65.7960126992117
 30
0.0
 11
184.0267521630821
 21
61.34601269921176
 31
0.0
  0
ARC
  5
1959
330
1F
100
AcDbEntity
  8
0
100
AcDbCircle
 10
193.926752163082
 20
70.24601269921174
 30
0.0
 40
19.00000000000001
100
AcDbArc
 50
220.2566125763503
 51
229.7433874236498
  0
LINE
  5
195A
330
1F
100
AcDbEntity
  8
CENTER
100
AcDbLine
 10
179.8878632741932
 20
60.34601269921177
 30
0.0
 11
183.0267521630821
 21
60.34601269921171
 31
0.0
  0
LINE
  5
195B
330
1F
100
AcDbEntity
  8
CENTER
100
AcDbLine
 10
184.0267521630821
 20
59.34601269921171
 30
0.0
 11
184.0267521630821
 21
56.09216914929499
 31
0.0
  0
LINE
  5
1960
330
1F
100
AcDbEntity
  8
CENTER
100
AcDbLine
 10
183.4711966075265
 20
60.34601269921171
 30
0.0
 11
184.5823077186377
 21
60.34601269921171
 31
0.0
  0
LINE
  5
1961
330
1F
100
AcDbEntity
  8
CENTER
100
AcDbLine
 10
184.0267521630821
 20
60.90156825476731
 30
0.0
 11
184.0267521630821
 21
59.79045714365617
 31
0.0
  0
LINE
  5
1962
330
1F
100
AcDbEntity
  8
CENTER
100
AcDbLine
 10
185.0267521630821
 20
60.34601269921171
 30
0.0
 11
188.1656410519709
 21
60.34601269921171
 31
0.0
  0
LINE
  5
1963
330
1F
100
AcDbEntity
  8
0
100
AcDbLine
 10
195.3125493000323
 20
63.63898376400562
 30
0.0
 11
195.5951308645471
 21
62.58437500795356
 31
0.0
  0
LINE
  5
1964
330
1F
100
AcDbEntity
  8
0
100
AcDbLine
 10
192.5409550261318
 20
63.63898376400562
 30
0.0
 11
192.258373461617
 21
62.58437500795356
 31
0.0
  0
LINE
  5
1965
330
1F
100
AcDbEntity
  8
CENTER
100
AcDbLine
 10
193.9267521630821
 20
69.24601269921175
 30
0.0
 11
193.9267521630821
 21
60.45712381032285
 31
0.0
  0
LINE
  5
1966
330
1F
100
AcDbEntity
  8
0
100
AcDbLine
 10
190.9267521630821
 20
58.74601269921175
 30
0.0
 11
199.9267521630821
 21
58.74601269921169
 31
0.0
  0
LINE
  5
1967
330
1F
100
AcDbEntity
  8
0
100
AcDbLine
 10
190.9267521630821
 20
55.74601269921169
 30
0.0
 11
190.9267521630821
 21
58.74601269921175
 31
0.0
  0
ARC
  5
1968
330
1F
100
AcDbEntity
  8
0
100
AcDbCircle
 10
191.2924476353278
 20
62.84319405305606
 30
0.0
 40
1.0
100
AcDbArc
 50
303.1780987589223
 51
345.0000000000024
  0
ARC
  5
1969
330
1F
100
AcDbEntity
  8
0
100
AcDbCircle
 10
196.5610566908362
 20
62.84319405305606
 30
0.0
 40
1.0
100
AcDbArc
 50
194.9999999999976
 51
236.8219012410776
  0
LINE
  5
196A
330
1F
100
AcDbEntity
  8
0
100
AcDbLine
 10
198.226752163082
 20
57.44601269921173
 30
0.0
 11
198.226752163082
 21
55.74601269921169
 31
0.0
  0
LINE
  5
196B
330
1F
100
AcDbEntity
  8
0
100
AcDbLine
 10
199.9267521630821
 20
58.74601269921169
 30
0.0
 11
199.9267521630821
 21
57.44601269921168
 31
0.0
  0
LINE
  5
196C
330
1F
100
AcDbEntity
  8
0
100
AcDbLine
 10
199.9267521630821
 20
57.44601269921168
 30
0.0
 11
198.226752163082
 21
57.44601269921173
 31
0.0
  0
CIRCLE
  5
196D
330
1F
100
AcDbEntity
  8
0
100
AcDbCircle
 10
197.1478083699814
 20
64.13073994970037
 30
0.0
 40
0.85
  0
ARC
  5
196E
330
1F
100
AcDbEntity
  8
0
100
AcDbCircle
 10
197.1478083699814
 20
64.13073994970037
 30
0.0
 40
1.9
100
AcDbArc
 50
46.54253881237488
 51
194.9999999999976
  0
LINE
  5
196F
330
1F
100
AcDbEntity
  8
CENTER
100
AcDbLine
 10
194.9267521630821
 20
70.24601269921174
 30
0.0
 11
203.715641051971
 21
70.24601269921169
 31
0.0
  0
ARC
  5
1974
330
1F
100
AcDbEntity
  8
0
100
AcDbCircle
 10
190.7056959561825
 20
64.13073994970037
 30
0.0
 40
1.9
100
AcDbArc
 50
345.0000000000024
 51
133.4574611876251
  0
CIRCLE
  5
1975
330
1F
100
AcDbEntity
  8
0
100
AcDbCircle
 10
190.7056959561825
 20
64.13073994970037
 30
0.0
 40
0.85
  0
ARC
  5
197B
330
1F
100
AcDbEntity
  8
0
100
AcDbCircle
 10
199.142474298393
 20
66.23580713010918
 30
0.0
 40
1.0
100
AcDbArc
 50
226.5425388123748
 51
326.896772867325
  0
ARC
  5
197C
330
1F
100
AcDbEntity
  8
0
100
AcDbCircle
 10
189.9767521630822
 20
81.14601269921179
 30
0.0
 40
1.7
100
AcDbArc
 50
180.0
 51
270.0
  0
ARC
  5
197D
330
1F
100
AcDbEntity
  8
0
100
AcDbCircle
 10
193.926752163082
 20
70.24601269921174
 30
0.0
 40
19.00000000000001
100
AcDbArc
 50
130.2566125763501
 51
139.7433874236496
  0
LINE
  5
197E
330
1F
100
AcDbEntity
  8
0
100
AcDbLine
 10
181.6487230052733
 20
84.74601269921175
 30
0.0
 11
188.726752163082
 21
84.74601269921175
 31
0.0
  0
LINE
  5
197F
330
1F
100
AcDbEntity
  8
0
100
AcDbLine
 10
188.2767521630821
 20
83.24601269921174
 30
0.0
 11
188.2767521630821
 21
81.14601269921172
 31
0.0
  0
LINE
  5
1980
330
1F
100
AcDbEntity
  8
0
100
AcDbLine
 10
188.726752163082
 20
84.74601269921175
 30
0.0
 11
188.726752163082
 21
83.74601269921175
 31
0.0
  0
LINE
  5
1981
330
1F
100
AcDbEntity
  8
0
100
AcDbLine
 10
188.726752163082
 20
83.74601269921175
 30
0.0
 11
188.2767521630821
 21
83.24601269921174
 31
0.0
  0
LINE
  5
1982
330
1F
100
AcDbEntity
  8
0
100
AcDbLine
 10
196.9767521630821
 20
79.44601269921168
 30
0.0
 11
197.876752163082
 21
79.44601269921168
 31
0.0
  0
ARC
  5
1983
330
1F
100
AcDbEntity
  8
0
100
AcDbCircle
 10
196.9767521630822
 20
81.14601269921172
 30
0.0
 40
1.7
100
AcDbArc
 50
180.0
 51
270.0
  0
ARC
  5
1984
330
1F
100
AcDbEntity
  8
0
100
AcDbCircle
 10
190.876752163082
 20
81.14601269921172
 30
0.0
 40
1.7
100
AcDbArc
 50
270.0
 51
0.0
  0
LINE
  5
1985
330
1F
100
AcDbEntity
  8
0
100
AcDbLine
 10
189.976752163082
 20
79.44601269921168
 30
0.0
 11
190.876752163082
 21
79.44601269921168
 31
0.0
  0
LINE
  5
1986
330
1F
100
AcDbEntity
  8
0
100
AcDbLine
 10
192.126752163082
 20
84.74601269921175
 30
0.0
 11
195.7267521630821
 21
84.74601269921175
 31
0.0
  0
LINE
  5
1987
330
1F
100
AcDbEntity
  8
0
100
AcDbLine
 10
192.5767521630821
 20
81.14601269921172
 30
0.0
 11
192.5767521630821
 21
83.24601269921174
 31
0.0
  0
LINE
  5
1988
330
1F
100
AcDbEntity
  8
0
100
AcDbLine
 10
192.126752163082
 20
83.74601269921175
 30
0.0
 11
192.126752163082
 21
84.74601269921175
 31
0.0
  0
LINE
  5
1989
330
1F
100
AcDbEntity
  8
0
100
AcDbLine
 10
192.5767521630821
 20
83.24601269921174
 30
0.0
 11
192.126752163082
 21
83.74601269921175
 31
0.0
  0
LINE
  5
198A
330
1F
100
AcDbEntity
  8
0
100
AcDbLine
 10
195.2767521630821
 20
83.24601269921174
 30
0.0
 11
195.2767521630821
 21
81.14601269921172
 31
0.0
  0
LINE
  5
198B
330
1F
100
AcDbEntity
  8
0
100
AcDbLine
 10
195.7267521630821
 20
84.74601269921175
 30
0.0
 11
195.7267521630821
 21
83.74601269921175
 31
0.0
  0
LINE
  5
198C
330
1F
100
AcDbEntity
  8
0
100
AcDbLine
 10
195.7267521630821
 20
83.74601269921175
 30
0.0
 11
195.2767521630821
 21
83.24601269921174
 31
0.0
  0
LINE
  5
198D
330
1F
100
AcDbEntity
  8
CENTER
100
AcDbLine
 10
203.8267521630821
 20
80.7015682547672
 30
0.0
 11
203.8267521630821
 21
79.59045714365612
 31
0.0
  0
ARC
  5
198E
330
1F
100
AcDbEntity
  8
0
100
AcDbCircle
 10
197.876752163082
 20
81.14601269921172
 30
0.0
 40
1.7
100
AcDbArc
 50
270.0
 51
0.0
  0
LINE
  5
198F
330
1F
100
AcDbEntity
  8
CENTER
100
AcDbLine
 10
199.6878632741932
 20
80.14601269921167
 30
0.0
 11
202.8267521630821
 21
80.14601269921167
 31
0.0
  0
LINE
  5
1990
330
1F
100
AcDbEntity
  8
CENTER
100
AcDbLine
 10
203.8267521630821
 20
79.14601269921167
 30
0.0
 11
203.8267521630821
 21
76.00712381032275
 31
0.0
  0
LINE
  5
1991
330
1F
100
AcDbEntity
  8
CENTER
100
AcDbLine
 10
203.2711966075265
 20
80.14601269921167
 30
0.0
 11
204.3823077186376
 21
80.14601269921167
 31
0.0
  0
LINE
  5
1992
330
1F
100
AcDbEntity
  8
0
100
AcDbLine
 10
199.5767521630821
 20
81.14601269921166
 30
0.0
 11
199.5767521630821
 21
83.24601269921169
 31
0.0
  0
LINE
  5
1993
330
1F
100
AcDbEntity
  8
0
100
AcDbLine
 10
199.126752163082
 20
83.7460126992117
 30
0.0
 11
199.126752163082
 21
84.74601269921169
 31
0.0
  0
LINE
  5
1994
330
1F
100
AcDbEntity
  8
0
100
AcDbLine
 10
199.5767521630821
 20
83.24601269921169
 30
0.0
 11
199.126752163082
 21
83.7460126992117
 31
0.0
  0
LINE
  5
1995
330
1F
100
AcDbEntity
  8
CENTER
100
AcDbLine
 10
203.8267521630821
 20
84.28490158810058
 30
0.0
 11
203.8267521630821
 21
81.14601269921166
 31
0.0
  0
LINE
  5
1996
330
1F
100
AcDbEntity
  8
0
100
AcDbLine
 10
208.4267521630821
 20
82.52404185702033
 30
0.0
 11
208.4267521630821
 21
73.24601269921169
 31
0.0
  0
LINE
  5
1997
330
1F
100
AcDbEntity
  8
0
100
AcDbLine
 10
208.4267521630821
 20
65.94601269921162
 30
0.0
 11
208.4267521630821
 21
57.96798354140299
 31
0.0
  0
ARC
  5
1998
330
1F
100
AcDbEntity
  8
0
100
AcDbCircle
 10
193.926752163082
 20
70.24601269921174
 30
0.0
 40
19.00000000000001
100
AcDbArc
 50
310.2566125763501
 51
319.7433874236496
  0
LINE
  5
1999
330
1F
100
AcDbEntity
  8
0
100
AcDbLine
 10
205.4267521630821
 20
64.24601269921163
 30
0.0
 11
205.4267521630821
 21
73.24601269921169
 31
0.0
  0
LINE
  5
199A
330
1F
100
AcDbEntity
  8
0
100
AcDbLine
 10
208.4267521630821
 20
65.94601269921162
 30
0.0
 11
206.726752163082
 21
65.94601269921162
 31
0.0
  0
LINE
  5
199B
330
1F
100
AcDbEntity
  8
0
100
AcDbLine
 10
206.726752163082
 20
65.94601269921162
 30
0.0
 11
206.726752163082
 21
64.24601269921163
 31
0.0
  0
LINE
  5
199C
330
1F
100
AcDbEntity
  8
0
100
AcDbLine
 10
206.726752163082
 20
64.24601269921163
 30
0.0
 11
205.4267521630821
 21
64.24601269921163
 31
0.0
  0
LINE
  5
199D
330
1F
100
AcDbEntity
  8
0
100
AcDbLine
 10
205.4267521630821
 20
73.24601269921169
 30
0.0
 11
208.4267521630821
 21
73.24601269921169
 31
0.0
  0
ARC
  5
199E
330
1F
100
AcDbEntity
  8
0
100
AcDbCircle
 10
193.926752163082
 20
70.24601269921174
 30
0.0
 40
19.00000000000001
100
AcDbArc
 50
40.25661257635035
 51
49.74338742364983
  0
SPLINE
  5
1B95
330
1F
100
AcDbEntity
  8
0
100
AcDbSpline
210
0.0
220
0.0
230
1.0
 70
    12
 71
     2
 72
     6
 73
     3
 74
     0
 42
0.0000000001
 43
0.0000000001
 40
0.0
 40
0.0
 40
0.0
 40
1.209131458961293
 40
1.209131458961293
 40
1.209131458961293
 10
116.5333902295061
 20
174.5465124843737
 30
0.0
 41
1.0
 10
117.0484568737799
 20
174.0969254585963
 30
0.0
 41
1.006377000071649
 10
117.3994156332905
 20
174.2035368110411
 30
0.0
 41
1.0
  0
SPLINE
  5
1B96
330
1F
100
AcDbEntity
  8
0
100
AcDbSpline
210
0.0
220
0.0
230
1.0
 70
    12
 71
     2
 72
     6
 73
     3
 74
     0
 42
0.0000000001
 43
0.0000000001
 40
0.0
 40
0.0
 40
0.0
 40
1.209131458961293
 40
1.209131458961293
 40
1.209131458961293
 10
116.5333902295061
 20
169.2950098622446
 30
0.0
 41
1.0
 10
117.0484568737799
 20
169.7445968880219
 30
0.0
 41
1.006377000071649
 10
117.3994156332905
 20
169.6379855355772
 30
0.0
 41
1.0
  0
LINE
  5
1B97
330
1F
100
AcDbEntity
  8
0
100
AcDbLine
 10
112.8994156332905
 20
157.4407611733091
 30
0.0
 11
92.39941563329058
 21
157.4407611733091
 31
0.0
  0
LINE
  5
1B98
330
1F
100
AcDbEntity
  8
CENTER
100
AcDbLine
 10
130.7426604882475
 20
171.9407611733091
 30
0.0
 11
91.81052674440184
 21
171.9407611733091
 31
0.0
  0
LINE
  5
1B99
330
1F
100
AcDbEntity
  8
0
100
AcDbLine
 10
92.39941563329068
 20
186.4407611733091
 30
0.0
 11
112.8994156332906
 21
186.4407611733091
 31
0.0
  0
LINE
  5
1B9A
330
1F
100
AcDbEntity
  8
CENTER
100
AcDbLine
 10
108.6861613344951
 20
178.4407611733091
 30
0.0
 11
100.2483440394485
 21
178.4407611733091
 31
0.0
  0
LINE
  5
1B9B
330
1F
100
AcDbEntity
  8
0
100
AcDbLine
 10
92.39941563329068
 20
163.1407611733091
 30
0.0
 11
92.39941563329081
 21
180.7407611733091
 31
0.0
  0
LINE
  5
1B9C
330
1F
100
AcDbEntity
  8
0
100
AcDbLine
 10
92.39941563329058
 20
157.4407611733091
 30
0.0
 11
92.39941563329058
 21
163.1407611733091
 31
0.0
  0
LINE
  5
1B9D
330
1F
100
AcDbEntity
  8
0
100
AcDbLine
 10
92.39941563329068
 20
183.4407611733091
 30
0.0
 11
92.39941563329068
 21
186.4407611733091
 31
0.0
  0
LINE
  5
1B9E
330
1F
100
AcDbEntity
  8
0
100
AcDbLine
 10
92.39941563329068
 20
180.7407611733091
 30
0.0
 11
92.39941563329068
 21
183.4407611733091
 31
0.0
  0
LINE
  5
1B9F
330
1F
100
AcDbEntity
  8
CENTER
100
AcDbLine
 10
104.8994156332906
 20
177.7207611733091
 30
0.0
 11
104.8994156332906
 21
175.6507611733091
 31
0.0
  0
LINE
  5
1BA0
330
1F
100
AcDbEntity
  8
CENTER
100
AcDbLine
 10
100.3994156332906
 20
177.7207611733091
 30
0.0
 11
100.3994156332906
 21
175.6507611733091
 31
0.0
  0
CIRCLE
  5
1BA1
330
1F
100
AcDbEntity
  8
0
100
AcDbCircle
 10
100.3994156332906
 20
178.4407611733091
 30
0.0
 40
2.149999999999999
  0
ARC
  5
1BA2
330
1F
100
AcDbEntity
  8
0
 62
     3
100
AcDbCircle
 10
100.3994156332906
 20
178.4407611733091
 30
0.0
 40
2.5
100
AcDbArc
 50
167.0245984412044
 51
101.5070990104355
  0
LINE
  5
1BA3
330
1F
100
AcDbEntity
  8
CENTER
100
AcDbLine
 10
96.97482975166781
 20
178.4407611733091
 30
0.0
 11
100.0994156332907
 21
178.4407611733091
 31
0.0
  0
LINE
  5
1BA4
330
1F
100
AcDbEntity
  8
CENTER
100
AcDbLine
 10
99.99941563329072
 20
178.4407611733091
 30
0.0
 11
100.7994156332906
 21
178.4407611733091
 31
0.0
  0
LINE
  5
1BA5
330
1F
100
AcDbEntity
  8
CENTER
100
AcDbLine
 10
100.3994156332906
 20
178.8407611733091
 30
0.0
 11
100.3994156332906
 21
178.0407611733092
 31
0.0
  0
LINE
  5
1BA6
330
1F
100
AcDbEntity
  8
CENTER
100
AcDbLine
 10
100.4194156332906
 20
178.4407611733091
 30
0.0
 11
100.7394156332907
 21
178.4407611733091
 31
0.0
  0
CIRCLE
  5
1BA7
330
1F
100
AcDbEntity
  8
0
100
AcDbCircle
 10
100.3994156332906
 20
178.4407611733091
 30
0.0
 40
0.4
  0
LINE
  5
1BA8
330
1F
100
AcDbEntity
  8
CENTER
100
AcDbLine
 10
98.65941563329068
 20
178.4407611733091
 30
0.0
 11
98.97941563329073
 21
178.4407611733091
 31
0.0
  0
LINE
  5
1BA9
330
1F
100
AcDbEntity
  8
CENTER
100
AcDbLine
 10
100.3994156332906
 20
181.2307611733091
 30
0.0
 11
100.3994156332906
 21
179.1607611733091
 31
0.0
  0
LINE
  5
1BAA
330
1F
100
AcDbEntity
  8
CENTER
100
AcDbLine
 10
101.1194156332907
 20
178.4407611733091
 30
0.0
 11
103.1894156332907
 21
178.4407611733091
 31
0.0
  0
LINE
  5
1BAB
330
1F
100
AcDbEntity
  8
CENTER
100
AcDbLine
 10
104.1794156332906
 20
178.4407611733091
 30
0.0
 11
102.1094156332906
 21
178.4407611733091
 31
0.0
  0
CIRCLE
  5
1BAC
330
1F
100
AcDbEntity
  8
0
100
AcDbCircle
 10
104.8994156332906
 20
178.4407611733091
 30
0.0
 40
2.149999999999999
  0
ARC
  5
1BAD
330
1F
100
AcDbEntity
  8
0
 62
     3
100
AcDbCircle
 10
104.8994156332906
 20
178.4407611733091
 30
0.0
 40
2.5
100
AcDbArc
 50
78.49290098956442
 51
12.9754015587955
  0
LINE
  5
1BAE
330
1F
100
AcDbEntity
  8
CENTER
100
AcDbLine
 10
106.6394156332906
 20
178.4407611733091
 30
0.0
 11
106.3194156332906
 21
178.4407611733091
 31
0.0
  0
LINE
  5
1BAF
330
1F
100
AcDbEntity
  8
CENTER
100
AcDbLine
 10
105.2994156332906
 20
178.4407611733091
 30
0.0
 11
104.4994156332907
 21
178.4407611733091
 31
0.0
  0
LINE
  5
1BB0
330
1F
100
AcDbEntity
  8
CENTER
100
AcDbLine
 10
104.8994156332906
 20
178.8407611733091
 30
0.0
 11
104.8994156332906
 21
178.0407611733091
 31
0.0
  0
LINE
  5
1BB1
330
1F
100
AcDbEntity
  8
CENTER
100
AcDbLine
 10
104.8794156332907
 20
178.4407611733091
 30
0.0
 11
104.5594156332906
 21
178.4407611733091
 31
0.0
  0
CIRCLE
  5
1BB2
330
1F
100
AcDbEntity
  8
0
100
AcDbCircle
 10
104.8994156332906
 20
178.4407611733091
 30
0.0
 40
0.4
  0
LINE
  5
1BB3
330
1F
100
AcDbEntity
  8
CENTER
100
AcDbLine
 10
105.9994156332907
 20
178.4407611733091
 30
0.0
 11
105.1994156332906
 21
178.4407611733091
 31
0.0
  0
LINE
  5
1BB4
330
1F
100
AcDbEntity
  8
CENTER
100
AcDbLine
 10
104.8994156332906
 20
181.2307611733091
 30
0.0
 11
104.8994156332906
 21
179.1607611733091
 31
0.0
  0
LINE
  5
1BB5
330
1F
100
AcDbEntity
  8
0
100
AcDbLine
 10
113.3594156332904
 20
175.9407611733091
 30
0.0
 11
114.3994156332905
 21
174.9007611733091
 31
0.0
  0
LINE
  5
1BB6
330
1F
100
AcDbEntity
  8
0
100
AcDbLine
 10
112.8994156332905
 20
171.9407611733091
 30
0.0
 11
112.8994156332906
 21
180.7407611733091
 31
0.0
  0
LINE
  5
1BB7
330
1F
100
AcDbEntity
  8
0
100
AcDbLine
 10
112.8994156332906
 20
171.9407611733091
 30
0.0
 11
112.8994156332905
 21
157.4407611733091
 31
0.0
  0
LINE
  5
1BB8
330
1F
100
AcDbEntity
  8
0
100
AcDbLine
 10
116.5333902295061
 20
174.5465124843737
 30
0.0
 11
114.3994156332905
 21
174.5465124843737
 31
0.0
  0
LINE
  5
1BB9
330
1F
100
AcDbEntity
  8
0
100
AcDbLine
 10
116.5333902295061
 20
169.2950098622446
 30
0.0
 11
114.3994156332905
 21
169.2950098622446
 31
0.0
  0
LINE
  5
1BBA
330
1F
100
AcDbEntity
  8
0
100
AcDbLine
 10
114.3994156332905
 20
174.9007611733091
 30
0.0
 11
119.7346544452794
 21
174.9007611733091
 31
0.0
  0
LINE
  5
1BBB
330
1F
100
AcDbEntity
  8
0
100
AcDbLine
 10
114.3994156332905
 20
168.9407611733091
 30
0.0
 11
119.7346544452794
 21
168.9407611733091
 31
0.0
  0
LINE
  5
1BBC
330
1F
100
AcDbEntity
  8
0
100
AcDbLine
 10
113.3994156332905
 20
167.9407611733091
 30
0.0
 11
114.3994156332905
 21
168.9407611733091
 31
0.0
  0
LINE
  5
1BBD
330
1F
100
AcDbEntity
  8
0
100
AcDbLine
 10
112.8994156332905
 20
167.9407611733091
 30
0.0
 11
113.3994156332905
 21
167.9407611733091
 31
0.0
  0
LINE
  5
1BBF
330
1F
100
AcDbEntity
  8
0
100
AcDbLine
 10
114.3994156332905
 20
169.2950098622446
 30
0.0
 11
114.3994156332905
 21
172.4407611733092
 31
0.0
  0
LINE
  5
1BC0
330
1F
100
AcDbEntity
  8
0
100
AcDbLine
 10
114.3994156332905
 20
174.5465124843737
 30
0.0
 11
114.3994156332905
 21
171.4007611733091
 31
0.0
  0
LINE
  5
1BC2
330
1F
100
AcDbEntity
  8
0
100
AcDbLine
 10
116.5333902295061
 20
174.5465124843737
 30
0.0
 11
116.5333902295061
 21
174.9007611733091
 31
0.0
  0
LINE
  5
1BC3
330
1F
100
AcDbEntity
  8
0
100
AcDbLine
 10
116.5333902295061
 20
169.2950098622446
 30
0.0
 11
116.5333902295061
 21
168.9407611733092
 31
0.0
  0
LINE
  5
1BC5
330
1F
100
AcDbEntity
  8
0
100
AcDbLine
 10
117.3994156332905
 20
168.9407611733091
 30
0.0
 11
117.3994156332905
 21
168.9907611733091
 31
0.0
  0
LINE
  5
1BC6
330
1F
100
AcDbEntity
  8
0
100
AcDbLine
 10
117.3994156332905
 20
171.9407611733091
 30
0.0
 11
117.3994156332905
 21
168.9407611733091
 31
0.0
  0
LINE
  5
1BC7
330
1F
100
AcDbEntity
  8
0
100
AcDbLine
 10
117.3994156332905
 20
171.9407611733091
 30
0.0
 11
117.3994156332905
 21
174.9007611733091
 31
0.0
  0
LINE
  5
1BC8
330
1F
100
AcDbEntity
  8
0
100
AcDbLine
 10
112.8994156332906
 20
186.4407611733091
 30
0.0
 11
112.8994156332906
 21
183.4407611733091
 31
0.0
  0
LINE
  5
1BC9
330
1F
100
AcDbEntity
  8
0
100
AcDbLine
 10
112.8994156332905
 20
175.9407611733091
 30
0.0
 11
113.3594156332904
 21
175.9407611733091
 31
0.0
  0
LINE
  5
1BCA
330
1F
100
AcDbEntity
  8
0
100
AcDbLine
 10
112.8994156332906
 20
183.4407611733091
 30
0.0
 11
112.8994156332906
 21
180.7407611733091
 31
0.0
  0
LINE
  5
1BCB
330
1F
100
AcDbEntity
  8
0
100
AcDbLine
 10
199.5767521630821
 20
184.940761173309
 30
0.0
 11
199.126752163082
 21
185.440761173309
 31
0.0
  0
ARC
  5
1BCC
330
1F
100
AcDbEntity
  8
0
100
AcDbCircle
 10
197.876752163082
 20
182.840761173309
 30
0.0
 40
1.7
100
AcDbArc
 50
270.0
 51
0.0
  0
LINE
  5
1BCD
330
1F
100
AcDbEntity
  8
0
100
AcDbLine
 10
199.126752163082
 20
186.440761173309
 30
0.0
 11
206.2047813208907
 21
186.440761173309
 31
0.0
  0
LINE
  5
1BCE
330
1F
100
AcDbEntity
  8
0
100
AcDbLine
 10
190.9267521630821
 20
160.440761173309
 30
0.0
 11
199.9267521630821
 21
160.440761173309
 31
0.0
  0
LINE
  5
1BCF
330
1F
100
AcDbEntity
  8
CENTER
100
AcDbLine
 10
194.9267521630821
 20
171.940761173309
 30
0.0
 11
203.715641051971
 21
171.940761173309
 31
0.0
  0
LINE
  5
1BD0
330
1F
100
AcDbEntity
  8
0
100
AcDbLine
 10
206.2047813208907
 20
157.4407611733089
 30
0.0
 11
198.226752163082
 21
157.440761173309
 31
0.0
  0
LINE
  5
1BD1
330
1F
100
AcDbEntity
  8
0
100
AcDbLine
 10
199.9267521630821
 20
159.140761173309
 30
0.0
 11
198.226752163082
 21
159.140761173309
 31
0.0
  0
ARC
  5
1BD2
330
1F
100
AcDbEntity
  8
0
100
AcDbCircle
 10
199.142474298393
 20
167.9305556042064
 30
0.0
 40
1.0
100
AcDbArc
 50
226.5425388123748
 51
326.896772867325
  0
ARC
  5
1BD3
330
1F
100
AcDbEntity
  8
0
100
AcDbCircle
 10
193.9267521630821
 20
171.3983683725525
 30
0.0
 40
7.263309436730495
100
AcDbArc
 50
326.4519990788199
 51
213.54800092118
  0
CIRCLE
  5
1BD4
330
1F
100
AcDbEntity
  8
0
100
AcDbCircle
 10
193.926752163082
 20
171.940761173309
 30
0.0
 40
8.5
  0
LINE
  5
1BD5
330
1F
100
AcDbEntity
  8
CENTER
100
AcDbLine
 10
193.9267521630821
 20
181.7296500621979
 30
0.0
 11
193.9267521630821
 21
172.940761173309
 31
0.0
  0
LINE
  5
1BD6
330
1F
100
AcDbEntity
  8
0
100
AcDbLine
 10
179.4267521630821
 20
159.6627320155003
 30
0.0
 11
179.4267521630821
 21
184.2187903311177
 31
0.0
  0
LINE
  5
1BD7
330
1F
100
AcDbEntity
  8
0
100
AcDbLine
 10
190.9267521630821
 20
157.440761173309
 30
0.0
 11
181.6487230052733
 21
157.440761173309
 31
0.0
  0
LINE
  5
1BD8
330
1F
100
AcDbEntity
  8
CENTER
100
AcDbLine
 10
184.0267521630821
 20
171.940761173309
 30
0.0
 11
192.9267521630821
 21
171.940761173309
 31
0.0
  0
ARC
  5
1BD9
330
1F
100
AcDbEntity
  8
0
100
AcDbCircle
 10
188.7110300277711
 20
167.9305556042064
 30
0.0
 40
1.0
100
AcDbArc
 50
213.1032271326748
 51
313.457461187625
  0
ARC
  5
1BDB
330
1F
100
AcDbEntity
  8
0
100
AcDbCircle
 10
193.926752163082
 20
171.940761173309
 30
0.0
 40
19.00000000000001
100
AcDbArc
 50
220.2566125763503
 51
229.7433874236498
  0
LINE
  5
1BDC
330
1F
100
AcDbEntity
  8
CENTER
100
AcDbLine
 10
184.0267521630821
 20
161.040761173309
 30
0.0
 11
184.0267521630821
 21
157.7869176233923
 31
0.0
  0
LINE
  5
1BE1
330
1F
100
AcDbEntity
  8
CENTER
100
AcDbLine
 10
179.8878632741932
 20
162.040761173309
 30
0.0
 11
183.0267521630821
 21
162.040761173309
 31
0.0
  0
LINE
  5
1BE2
330
1F
100
AcDbEntity
  8
CENTER
100
AcDbLine
 10
185.0267521630821
 20
162.040761173309
 30
0.0
 11
188.1656410519709
 21
162.040761173309
 31
0.0
  0
LINE
  5
1BE3
330
1F
100
AcDbEntity
  8
CENTER
100
AcDbLine
 10
184.0267521630821
 20
167.490761173309
 30
0.0
 11
184.0267521630821
 21
163.040761173309
 31
0.0
  0
LINE
  5
1BE4
330
1F
100
AcDbEntity
  8
CENTER
100
AcDbLine
 10
184.0267521630821
 20
162.5963167288646
 30
0.0
 11
184.0267521630821
 21
161.4852056177534
 31
0.0
  0
LINE
  5
1BE5
330
1F
100
AcDbEntity
  8
CENTER
100
AcDbLine
 10
183.4711966075265
 20
162.040761173309
 30
0.0
 11
184.5823077186377
 21
162.040761173309
 31
0.0
  0
LINE
  5
1BE6
330
1F
100
AcDbEntity
  8
0
100
AcDbLine
 10
190.9267521630821
 20
157.440761173309
 30
0.0
 11
190.9267521630821
 21
160.440761173309
 31
0.0
  0
LINE
  5
1BE7
330
1F
100
AcDbEntity
  8
0
100
AcDbLine
 10
198.226752163082
 20
159.140761173309
 30
0.0
 11
198.226752163082
 21
157.440761173309
 31
0.0
  0
LINE
  5
1BE8
330
1F
100
AcDbEntity
  8
CENTER
100
AcDbLine
 10
193.3711966075265
 20
171.940761173309
 30
0.0
 11
194.4823077186376
 21
171.940761173309
 31
0.0
  0
LINE
  5
1BEE
330
1F
100
AcDbEntity
  8
CENTER
100
AcDbLine
 10
193.9267521630821
 20
170.940761173309
 30
0.0
 11
193.9267521630821
 21
162.1518722844201
 31
0.0
  0
ARC
  5
1BEF
330
1F
100
AcDbEntity
  8
0
100
AcDbCircle
 10
190.7056959561825
 20
165.8254884237976
 30
0.0
 40
1.9
100
AcDbArc
 50
345.0000000000024
 51
133.4574611876251
  0
CIRCLE
  5
1BF0
330
1F
100
AcDbEntity
  8
0
100
AcDbCircle
 10
190.7056959561825
 20
165.8254884237976
 30
0.0
 40
0.85
  0
LINE
  5
1BF1
330
1F
100
AcDbEntity
  8
0
100
AcDbLine
 10
192.5409550261318
 20
165.3337322381029
 30
0.0
 11
192.258373461617
 21
164.2791234820508
 31
0.0
  0
ARC
  5
1BF2
330
1F
100
AcDbEntity
  8
0
100
AcDbCircle
 10
191.2924476353278
 20
164.5379425271534
 30
0.0
 40
1.0
100
AcDbArc
 50
303.1780987589223
 51
345.0000000000024
  0
LINE
  5
1BF3
330
1F
100
AcDbEntity
  8
CENTER
100
AcDbLine
 10
193.9267521630821
 20
172.4963167288646
 30
0.0
 11
193.9267521630821
 21
171.3852056177535
 31
0.0
  0
ARC
  5
1BF5
330
1F
100
AcDbEntity
  8
0
100
AcDbCircle
 10
197.1478083699814
 20
165.8254884237976
 30
0.0
 40
1.9
100
AcDbArc
 50
46.54253881237488
 51
194.9999999999976
  0
CIRCLE
  5
1BF6
330
1F
100
AcDbEntity
  8
0
100
AcDbCircle
 10
197.1478083699814
 20
165.8254884237976
 30
0.0
 40
0.85
  0
LINE
  5
1BF7
330
1F
100
AcDbEntity
  8
0
100
AcDbLine
 10
195.3125493000323
 20
165.3337322381029
 30
0.0
 11
195.5951308645471
 21
164.2791234820508
 31
0.0
  0
ARC
  5
1BF8
330
1F
100
AcDbEntity
  8
0
100
AcDbCircle
 10
196.5610566908362
 20
164.5379425271534
 30
0.0
 40
1.0
100
AcDbArc
 50
194.9999999999976
 51
236.8219012410776
  0
LINE
  5
1BFA
330
1F
100
AcDbEntity
  8
0
100
AcDbLine
 10
188.726752163082
 20
185.440761173309
 30
0.0
 11
188.2767521630821
 21
184.940761173309
 31
0.0
  0
LINE
  5
1BFB
330
1F
100
AcDbEntity
  8
0
100
AcDbLine
 10
181.6487230052733
 20
186.440761173309
 30
0.0
 11
188.726752163082
 21
186.440761173309
 31
0.0
  0
ARC
  5
1BFC
330
1F
100
AcDbEntity
  8
0
100
AcDbCircle
 10
189.9767521630822
 20
182.8407611733091
 30
0.0
 40
1.7
100
AcDbArc
 50
180.0
 51
270.0
  0
ARC
  5
1BFD
330
1F
100
AcDbEntity
  8
0
100
AcDbCircle
 10
193.926752163082
 20
171.940761173309
 30
0.0
 40
19.00000000000001
100
AcDbArc
 50
130.2566125763501
 51
139.7433874236496
  0
LINE
  5
1BFE
330
1F
100
AcDbEntity
  8
0
100
AcDbLine
 10
188.2767521630821
 20
184.940761173309
 30
0.0
 11
188.2767521630821
 21
182.840761173309
 31
0.0
  0
LINE
  5
1BFF
330
1F
100
AcDbEntity
  8
0
100
AcDbLine
 10
192.126752163082
 20
186.440761173309
 30
0.0
 11
195.7267521630821
 21
186.440761173309
 31
0.0
  0
LINE
  5
1C00
330
1F
100
AcDbEntity
  8
0
100
AcDbLine
 10
192.5767521630821
 20
182.840761173309
 30
0.0
 11
192.5767521630821
 21
184.940761173309
 31
0.0
  0
ARC
  5
1C01
330
1F
100
AcDbEntity
  8
0
100
AcDbCircle
 10
190.876752163082
 20
182.840761173309
 30
0.0
 40
1.7
100
AcDbArc
 50
270.0
 51
0.0
  0
LINE
  5
1C02
330
1F
100
AcDbEntity
  8
0
100
AcDbLine
 10
189.976752163082
 20
181.1407611733089
 30
0.0
 11
190.876752163082
 21
181.1407611733089
 31
0.0
  0
LINE
  5
1C03
330
1F
100
AcDbEntity
  8
0
100
AcDbLine
 10
188.726752163082
 20
186.440761173309
 30
0.0
 11
188.726752163082
 21
185.440761173309
 31
0.0
  0
LINE
  5
1C04
330
1F
100
AcDbEntity
  8
0
100
AcDbLine
 10
192.126752163082
 20
185.440761173309
 30
0.0
 11
192.126752163082
 21
186.440761173309
 31
0.0
  0
LINE
  5
1C05
330
1F
100
AcDbEntity
  8
0
100
AcDbLine
 10
192.5767521630821
 20
184.940761173309
 30
0.0
 11
192.126752163082
 21
185.440761173309
 31
0.0
  0
LINE
  5
1C06
330
1F
100
AcDbEntity
  8
0
100
AcDbLine
 10
195.2767521630821
 20
184.940761173309
 30
0.0
 11
195.2767521630821
 21
182.840761173309
 31
0.0
  0
ARC
  5
1C07
330
1F
100
AcDbEntity
  8
0
100
AcDbCircle
 10
196.9767521630822
 20
182.840761173309
 30
0.0
 40
1.7
100
AcDbArc
 50
180.0
 51
270.0
  0
LINE
  5
1C08
330
1F
100
AcDbEntity
  8
0
100
AcDbLine
 10
196.9767521630821
 20
181.1407611733089
 30
0.0
 11
197.876752163082
 21
181.1407611733089
 31
0.0
  0
LINE
  5
1C09
330
1F
100
AcDbEntity
  8
0
100
AcDbLine
 10
195.7267521630821
 20
186.440761173309
 30
0.0
 11
195.7267521630821
 21
185.440761173309
 31
0.0
  0
LINE
  5
1C0A
330
1F
100
AcDbEntity
  8
0
100
AcDbLine
 10
195.7267521630821
 20
185.440761173309
 30
0.0
 11
195.2767521630821
 21
184.940761173309
 31
0.0
  0
LINE
  5
1C0B
330
1F
100
AcDbEntity
  8
0
100
AcDbLine
 10
199.126752163082
 20
185.440761173309
 30
0.0
 11
199.126752163082
 21
186.440761173309
 31
0.0
  0
LINE
  5
1C0C
330
1F
100
AcDbEntity
  8
0
100
AcDbLine
 10
208.4267521630821
 20
184.2187903311176
 30
0.0
 11
208.4267521630821
 21
174.940761173309
 31
0.0
  0
ARC
  5
1C0D
330
1F
100
AcDbEntity
  8
0
100
AcDbCircle
 10
193.926752163082
 20
171.940761173309
 30
0.0
 40
19.00000000000001
100
AcDbArc
 50
310.2566125763501
 51
319.7433874236496
  0
LINE
  5
1C0E
330
1F
100
AcDbEntity
  8
0
100
AcDbLine
 10
199.9267521630821
 20
160.440761173309
 30
0.0
 11
199.9267521630821
 21
159.140761173309
 31
0.0
  0
LINE
  5
1C0F
330
1F
100
AcDbEntity
  8
0
100
AcDbLine
 10
205.4267521630821
 20
165.9407611733089
 30
0.0
 11
205.4267521630821
 21
174.940761173309
 31
0.0
  0
LINE
  5
1C10
330
1F
100
AcDbEntity
  8
0
100
AcDbLine
 10
208.4267521630821
 20
167.6407611733089
 30
0.0
 11
208.4267521630821
 21
159.6627320155002
 31
0.0
  0
LINE
  5
1C11
330
1F
100
AcDbEntity
  8
0
100
AcDbLine
 10
206.726752163082
 20
167.6407611733089
 30
0.0
 11
206.726752163082
 21
165.9407611733089
 31
0.0
  0
LINE
  5
1C12
330
1F
100
AcDbEntity
  8
0
100
AcDbLine
 10
206.726752163082
 20
165.9407611733089
 30
0.0
 11
205.4267521630821
 21
165.9407611733089
 31
0.0
  0
LINE
  5
1C13
330
1F
100
AcDbEntity
  8
0
100
AcDbLine
 10
205.4267521630821
 20
174.940761173309
 30
0.0
 11
208.4267521630821
 21
174.940761173309
 31
0.0
  0
LINE
  5
1C14
330
1F
100
AcDbEntity
  8
0
100
AcDbLine
 10
208.4267521630821
 20
167.6407611733089
 30
0.0
 11
206.726752163082
 21
167.6407611733089
 31
0.0
  0
ARC
  5
1C18
330
1F
100
AcDbEntity
  8
0
 62
     3
100
AcDbCircle
 10
203.8267521630821
 20
181.840761173309
 30
0.0
 40
2.5
100
AcDbArc
 50
161.2863585405266
 51
113.1355443622255
  0
LINE
  5
1C1A
330
1F
100
AcDbEntity
  8
CENTER
100
AcDbLine
 10
203.8267521630821
 20
185.9796500621978
 30
0.0
 11
203.8267521630821
 21
182.8407611733089
 31
0.0
  0
LINE
  5
1C1B
330
1F
100
AcDbEntity
  8
0
100
AcDbLine
 10
199.5767521630821
 20
182.8407611733089
 30
0.0
 11
199.5767521630821
 21
184.940761173309
 31
0.0
  0
LINE
  5
1C1C
330
1F
100
AcDbEntity
  8
CENTER
100
AcDbLine
 10
199.6878632741932
 20
181.8407611733089
 30
0.0
 11
202.8267521630821
 21
181.8407611733089
 31
0.0
  0
LINE
  5
1C1D
330
1F
100
AcDbEntity
  8
CENTER
100
AcDbLine
 10
203.8267521630821
 20
180.8407611733089
 30
0.0
 11
203.8267521630821
 21
177.70187228442
 31
0.0
  0
LINE
  5
1C1E
330
1F
100
AcDbEntity
  8
CENTER
100
AcDbLine
 10
203.8267521630821
 20
182.3963167288645
 30
0.0
 11
203.8267521630821
 21
181.2852056177534
 31
0.0
  0
LINE
  5
1C1F
330
1F
100
AcDbEntity
  8
CENTER
100
AcDbLine
 10
203.2711966075265
 20
181.8407611733089
 30
0.0
 11
204.3823077186376
 21
181.8407611733089
 31
0.0
  0
LINE
  5
1C20
330
1F
100
AcDbEntity
  8
CENTER
100
AcDbLine
 10
204.8267521630821
 20
181.8407611733089
 30
0.0
 11
207.965641051971
 21
181.8407611733089
 31
0.0
  0
ARC
  5
1C21
330
1F
100
AcDbEntity
  8
0
100
AcDbCircle
 10
193.926752163082
 20
171.940761173309
 30
0.0
 40
19.00000000000001
100
AcDbArc
 50
40.25661257635035
 51
49.74338742364983
  0
LINE
  5
1C23
330
1F
100
AcDbEntity
  8
0
100
AcDbLine
 10
127.3994156332905
 20
169.4407611733089
 30
0.0
 11
127.3994156332906
 21
174.400761173309
 31
0.0
  0
LINE
  5
1C52
330
1F
100
AcDbEntity
  8
0
100
AcDbLine
 10
126.8994156332906
 20
174.900761173309
 30
0.0
 11
127.3994156332906
 21
174.400761173309
 31
0.0
  0
LINE
  5
1C53
330
1F
100
AcDbEntity
  8
0
100
AcDbLine
 10
127.3994156332905
 20
169.4407611733089
 30
0.0
 11
126.8994156332905
 21
168.940761173309
 31
0.0
  0
LINE
  5
1C54
330
1F
100
AcDbEntity
  8
0
100
AcDbLine
 10
126.8994156332906
 20
174.900761173309
 30
0.0
 11
126.8994156332905
 21
168.940761173309
 31
0.0
  0
LINE
  5
1C55
330
1F
100
AcDbEntity
  8
0
100
AcDbLine
 10
118.3994156332905
 20
168.9407611733091
 30
0.0
 11
118.3994156332906
 21
174.9007611733091
 31
0.0
  0
LINE
  5
1C56
330
1F
100
AcDbEntity
  8
0
 62
     3
100
AcDbLine
 10
118.3994156332906
 20
174.4007611733091
 30
0.0
 11
119.7346544452794
 21
174.4007611733091
 31
0.0
  0
LINE
  5
1C57
330
1F
100
AcDbEntity
  8
0
 62
     3
100
AcDbLine
 10
118.3994156332905
 20
169.4407611733091
 30
0.0
 11
127.3994156332905
 21
169.4407611733089
 31
0.0
  0
LINE
  5
1C58
330
1F
100
AcDbEntity
  8
0
100
AcDbLine
 10
118.4102399946631
 20
174.3962775760246
 30
0.0
 11
117.9057563973787
 21
174.9007611733091
 31
0.0
  0
LINE
  5
1C59
330
1F
100
AcDbEntity
  8
0
100
AcDbLine
 10
118.4102399946631
 20
169.4852447705941
 30
0.0
 11
117.9057563973786
 21
168.9807611733097
 31
0.0
  0
ARC
  5
1C5C
330
1F
100
AcDbEntity
  8
0
100
AcDbCircle
 10
117.1939204157695
 20
171.9207611733091
 30
0.0
 40
3.834556940098178
100
AcDbArc
 50
136.7832625018384
 51
223.2167374981609
  0
DIMENSION
  5
1C80
330
1F
100
AcDbEntity
  8
DIM
100
AcDbDimension
  2
*D1
 10
112.8994156332906
 20
194.6041257625218
 30
0.0
 11
108.8994156332906
 21
194.6041257625218
 31
0.0
 70
   160
  3
ISO-25-1
100
AcDbAlignedDimension
 13
104.8994156332906
 23
181.2307611733091
 33
0.0
 14
112.8994156332906
 24
186.4407611733091
 34
0.0
100
AcDbRotatedDimension
  0
DIMENSION
  5
1C8F
330
1F
100
AcDbEntity
  8
DIM
100
AcDbDimension
  2
*D2
 10
92.39941563329068
 20
194.6041257625218
 30
0.0
 11
96.39941563329069
 21
194.6041257625218
 31
0.0
 70
   160
  3
ISO-25-1
100
AcDbAlignedDimension
 13
100.3994156332906
 23
181.2307611733091
 33
0.0
 14
92.39941563329068
 24
186.4407611733091
 34
0.0
100
AcDbRotatedDimension
  0
DIMENSION
  5
1C9E
330
1F
100
AcDbEntity
  8
DIM
100
AcDbDimension
  2
*D3
 10
92.39941563329068
 20
203.9574347314378
 30
0.0
 11
75.68512991900496
 21
206.4574347314378
 31
0.0
 70
    32
  1
<>+ST.
  3
ISO-25-1
100
AcDbAlignedDimension
 13
112.8994156332906
 23
186.4407611733091
 33
0.0
 14
92.39941563329068
 24
186.4407611733091
 34
0.0
100
AcDbRotatedDimension
  0
DIMENSION
  5
1CAB
330
1F
100
AcDbEntity
  8
DIM
100
AcDbDimension
  2
*D4
 10
127.3994156332906
 20
203.9574347314378
 30
0.0
 11
120.1494156332906
 21
206.4574347314378
 31
0.0
 70
    32
  3
ISO-25-1
100
AcDbAlignedDimension
 13
112.8994156332906
 23
186.4407611733091
 33
0.0
 14
127.3994156332906
 24
174.400761173309
 34
0.0
100
AcDbRotatedDimension
  0
DIMENSION
  5
1CB8
330
1F
100
AcDbEntity
  8
DIM
100
AcDbDimension
  2
*D5
 10
92.39941563329068
 20
213.7993496036626
 30
0.0
 11
109.8994156332906
 21
216.2993496036626
 31
0.0
 70
    32
  3
ISO-25-1
100
AcDbAlignedDimension
 13
127.3994156332906
 23
174.400761173309
 33
0.0
 14
92.39941563329068
 24
186.4407611733091
 34
0.0
100
AcDbRotatedDimension
  0
DIMENSION
  5
1CC5
330
1F
100
AcDbEntity
  8
DIM
100
AcDbDimension
  2
*D6
 10
139.3416842498216
 20
167.9407611733091
 30
0.0
 11
139.3416842498215
 21
171.9407611733091
 31
0.0
 70
   160
  1
%%c<>
  3
ISO-25-1
100
AcDbAlignedDimension
 13
113.3594156332904
 23
175.9407611733091
 33
0.0
 14
113.3994156332905
 24
167.9407611733091
 34
0.0
 50
90.0
100
AcDbRotatedDimension
  0
DIMENSION
  5
1CD4
330
1F
100
AcDbEntity
  8
DIM
100
AcDbDimension
  2
*D7
 10
159.9593960217471
 20
157.4407611733087
 30
0.0
 11
157.4593960217471
 21
171.9407611733091
 31
0.0
 70
    32
  1
\U+25A1<>
  3
ISO-25-1
100
AcDbAlignedDimension
 13
181.6487230052737
 23
186.4407611733093
 33
0.0
 14
181.6487230052737
 24
157.4407611733087
 34
0.0
 50
90.0
100
AcDbRotatedDimension
  0
DIMENSION
  5
1CE1
330
1F
100
AcDbEntity
  8
DIM
100
AcDbDimension
  2
*D8
 10
169.1671680566146
 20
162.040761173309
 30
0.0
 11
166.6671680566146
 21
171.940761173309
 31
0.0
 70
    32
  1
\U+25A1<>
  3
ISO-25-1
100
AcDbAlignedDimension
 13
199.6878632741932
 23
181.8407611733089
 33
0.0
 14
179.8878632741932
 24
162.040761173309
 34
0.0
 50
90.0
100
AcDbRotatedDimension
  0
CIRCLE
  5
1D0B
330
1F
100
AcDbEntity
  8
0
100
AcDbCircle
 10
193.9267521630821
 20
171.940761173309
 30
0.0
 40
4.0
  0
LINE
  5
1D0C
330
1F
100
AcDbEntity
  8
0
100
AcDbLine
 10
190.9267521630821
 20
174.5865124843736
 30
0.0
 11
190.9267521630821
 21
169.2950098622444
 31
0.0
  0
LINE
  5
1D0D
330
1F
100
AcDbEntity
  8
0
100
AcDbLine
 10
196.9267521630821
 20
174.5865124843736
 30
0.0
 11
196.9267521630821
 21
169.2950098622445
 31
0.0
  0
LINE
  5
1D0E
330
1F
100
AcDbEntity
  8
0
100
AcDbLine
 10
191.2810008520175
 20
174.940761173309
 30
0.0
 11
196.5725034741468
 21
174.940761173309
 31
0.0
  0
LINE
  5
1D0F
330
1F
100
AcDbEntity
  8
0
100
AcDbLine
 10
191.2810008520175
 20
168.940761173309
 30
0.0
 11
196.5725034741467
 21
168.940761173309
 31
0.0
  0
LINE
  5
1D10
330
1F
100
AcDbEntity
  8
0
100
AcDbLine
 10
191.2810008520174
 20
67.24601269921175
 30
0.0
 11
196.5725034741465
 21
67.24601269921169
 31
0.0
  0
LINE
  5
1D11
330
1F
100
AcDbEntity
  8
0
100
AcDbLine
 10
191.2810008520174
 20
73.24601269921174
 30
0.0
 11
196.5725034741467
 21
73.24601269921169
 31
0.0
  0
ARC
  5
1D12
330
1F
100
AcDbEntity
  8
0
 62
     5
100
AcDbCircle
 10
193.9267521630819
 20
70.24601269921174
 30
0.0
 40
1.5
100
AcDbArc
 50
250.9436041109553
 51
202.8044516862589
  0
CIRCLE
  5
1D13
330
1F
100
AcDbEntity
  8
0
100
AcDbCircle
 10
193.9267521630819
 20
70.24601269921174
 30
0.0
 40
1.25
  0
LINE
  5
1D14
330
1F
100
AcDbEntity
  8
CENTER
100
AcDbLine
 10
193.3711966075264
 20
70.24601269921174
 30
0.0
 11
194.4823077186375
 21
70.24601269921174
 31
0.0
  0
LINE
  5
1D15
330
1F
100
AcDbEntity
  8
0
100
AcDbLine
 10
190.926752163082
 20
72.89176401027635
 30
0.0
 11
190.926752163082
 21
67.60026138814715
 31
0.0
  0
LINE
  5
1D16
330
1F
100
AcDbEntity
  8
CENTER
100
AcDbLine
 10
193.926752163082
 20
70.80156825476729
 30
0.0
 11
193.926752163082
 21
69.6904571436562
 31
0.0
  0
LINE
  5
1D17
330
1F
100
AcDbEntity
  8
0
100
AcDbLine
 10
196.926752163082
 20
72.89176401027635
 30
0.0
 11
196.926752163082
 21
67.6002613881472
 31
0.0
  0
CIRCLE
  5
1D18
330
1F
100
AcDbEntity
  8
0
100
AcDbCircle
 10
193.926752163082
 20
70.24601269921174
 30
0.0
 40
4.0
  0
CIRCLE
  5
1D19
330
1F
100
AcDbEntity
  8
0
100
AcDbCircle
 10
193.9267521630821
 20
171.940761173309
 30
0.0
 40
3.0
  0
ARC
  5
1D1A
330
1F
100
AcDbEntity
  8
0
 62
     3
100
AcDbCircle
 10
193.9267521630821
 20
171.940761173309
 30
0.0
 40
2.5
100
AcDbArc
 50
164.7102780145292
 51
108.931682665604
  0
DIMENSION
  5
1D1E
330
1F
100
AcDbEntity
  8
DIM
100
AcDbDimension
  2
*D9
 10
118.3994156332906
 20
183.9651627836335
 30
0.0
 11
122.8994156332906
 21
186.4651627836335
 31
0.0
 70
    32
  3
ISO-25-1
100
AcDbAlignedDimension
 13
127.3994156332906
 23
174.400761173309
 33
0.0
 14
118.3994156332906
 24
174.9007611733091
 34
0.0
100
AcDbRotatedDimension
  0
LEADER
  5
1D2C
330
1F
100
AcDbEntity
  8
DIM
100
AcDbLeader
  3
ISO-25-1
 73
     0
 74
     0
 75
     1
 40
3.0
 41
9.285714285714284
 76
     3
 10
125.817035039285
 20
174.9007611733091
 30
0.0
 10
130.0570709141047
 20
187.7818841643745
 30
0.0
 10
133.0570709141047
 20
187.7818841643745
 30
0.0
340
1D2D
1001
ACAD
1000
DSTYLE
1002
{
1070
     5
1000

1070
    77
1070
     1
1070
   147
1040
1.0
1070
   342
1005
0
1002
}
1000
LEANOF
1010
0.0
1020
0.0
1030
0.0
  0
MTEXT
  5
1D2D
330
1F
100
AcDbEntity
  8
DIM
100
AcDbMText
 10
134.0570709141047
 20
188.7818841643745
 30
0.0
 40
3.0
 41
0.0
 71
     7
 72
     1
  1
\A1;M6*1
  7
CHINESET
1001
ACAD
1000
MTEXTBEGIN
1070
    73
1070
     1
1070
    44
1040
1.0
1070
    74
1070
     0
1000
MTEXTEND
  0
DIMENSION
  5
1D2E
330
1F
100
AcDbEntity
  8
DIM
100
AcDbDimension
  2
*D10
 10
112.8994156332906
 20
91.26700548689848
 30
0.0
 11
108.8994156332906
 21
91.26700548689848
 31
0.0
 70
   160
  3
ISO-25-1
100
AcDbAlignedDimension
 13
104.8994156332906
 23
79.53601269921183
 33
0.0
 14
112.8994156332906
 24
84.7460126992118
 34
0.0
100
AcDbRotatedDimension
  0
DIMENSION
  5
1D3D
330
1F
100
AcDbEntity
  8
DIM
100
AcDbDimension
  2
*D11
 10
92.39941563329068
 20
91.26700548689848
 30
0.0
 11
96.39941563329069
 21
91.26700548689848
 31
0.0
 70
   160
  3
ISO-25-1
100
AcDbAlignedDimension
 13
100.3994156332906
 23
79.53601269921188
 33
0.0
 14
92.39941563329068
 24
84.74601269921185
 34
0.0
100
AcDbRotatedDimension
  0
DIMENSION
  5
1D4C
330
1F
100
AcDbEntity
  8
DIM
100
AcDbDimension
  2
*D12
 10
92.39941563329068
 20
99.31462926340794
 30
0.0
 11
75.68512991900496
 21
101.8146292634079
 31
0.0
 70
    32
  1
<>+ST.
  3
ISO-25-1
100
AcDbAlignedDimension
 13
112.8994156332906
 23
84.7460126992118
 33
0.0
 14
92.39941563329068
 24
84.7460126992118
 34
0.0
100
AcDbRotatedDimension
  0
DIMENSION
  5
1D59
330
1F
100
AcDbEntity
  8
DIM
100
AcDbDimension
  2
*D13
 10
117.3994156332905
 20
99.31462926340794
 30
0.0
 11
127.5422727761477
 21
101.8146292634079
 31
0.0
 70
    32
  3
ISO-25-1
100
AcDbAlignedDimension
 13
112.8994156332906
 23
84.7460126992118
 33
0.0
 14
117.3994156332905
 24
73.20601269921176
 34
0.0
100
AcDbRotatedDimension
  0
DIMENSION
  5
1D68
330
1F
100
AcDbEntity
  8
DIM
100
AcDbDimension
  2
*D14
 10
92.39941563329068
 20
109.0388401085449
 30
0.0
 11
104.8994156332906
 21
111.5388401085449
 31
0.0
 70
    32
  3
ISO-25-1
100
AcDbAlignedDimension
 13
117.3994156332905
 23
73.20601269921176
 33
0.0
 14
92.39941563329068
 24
84.74601269921185
 34
0.0
100
AcDbRotatedDimension
  0
SPLINE
  5
1DA2
330
1F
100
AcDbEntity
  8
0
100
AcDbSpline
210
0.0
220
0.0
230
1.0
 70
    12
 71
     2
 72
     6
 73
     3
 74
     0
 42
0.0000000001
 43
0.0000000001
 40
0.0
 40
0.0
 40
0.0
 40
1.209131458961293
 40
1.209131458961293
 40
1.209131458961293
 10
116.5333902295061
 20
72.85176401027638
 30
0.0
 41
1.0
 10
117.0484568737799
 20
72.40217698449896
 30
0.0
 41
1.006377000071649
 10
117.3994156332905
 20
72.50878833694378
 30
0.0
 41
1.0
  0
LINE
  5
1DA3
330
1F
100
AcDbEntity
  8
0
100
AcDbLine
 10
113.3594156332904
 20
74.2460126992118
 30
0.0
 11
114.3994156332905
 21
73.20601269921178
 31
0.0
  0
ARC
  5
1DA4
330
1F
100
AcDbEntity
  8
0
100
AcDbCircle
 10
117.1939204157695
 20
70.22601269921182
 30
0.0
 40
3.834556940098178
100
AcDbArc
 50
136.7832625018384
 51
223.2167374981609
  0
LINE
  5
1DA5
330
1F
100
AcDbEntity
  8
0
100
AcDbLine
 10
114.3994156332905
 20
73.20601269921178
 30
0.0
 11
117.3994156332905
 21
73.20601269921176
 31
0.0
  0
LINE
  5
1DA6
330
1F
100
AcDbEntity
  8
0
100
AcDbLine
 10
116.5333902295061
 20
72.85176401027638
 30
0.0
 11
116.5333902295061
 21
73.20601269921178
 31
0.0
  0
LINE
  5
1DA7
330
1F
100
AcDbEntity
  8
0
100
AcDbLine
 10
114.3994156332905
 20
72.85176401027638
 30
0.0
 11
114.3994156332905
 21
69.70601269921179
 31
0.0
  0
LINE
  5
1DA8
330
1F
100
AcDbEntity
  8
0
100
AcDbLine
 10
116.5333902295061
 20
72.85176401027638
 30
0.0
 11
114.3994156332905
 21
72.85176401027638
 31
0.0
  0
SPLINE
  5
1DA9
330
1F
100
AcDbEntity
  8
0
100
AcDbSpline
210
0.0
220
0.0
230
1.0
 70
    12
 71
     2
 72
     6
 73
     3
 74
     0
 42
0.0000000001
 43
0.0000000001
 40
0.0
 40
0.0
 40
0.0
 40
1.209131458961293
 40
1.209131458961293
 40
1.209131458961293
 10
116.5333902295061
 20
67.60026138814726
 30
0.0
 41
1.0
 10
117.0484568737799
 20
68.04984841392462
 30
0.0
 41
1.006377000071649
 10
117.3994156332905
 20
67.94323706147986
 30
0.0
 41
1.0
  0
LINE
  5
1DAA
330
1F
100
AcDbEntity
  8
0
100
AcDbLine
 10
113.3994156332905
 20
66.2460126992118
 30
0.0
 11
114.3994156332905
 21
67.2460126992118
 31
0.0
  0
LINE
  5
1DAB
330
1F
100
AcDbEntity
  8
0
100
AcDbLine
 10
114.3994156332905
 20
67.2460126992118
 30
0.0
 11
117.3994156332905
 21
67.24601269921177
 31
0.0
  0
LINE
  5
1DAC
330
1F
100
AcDbEntity
  8
0
100
AcDbLine
 10
116.5333902295061
 20
67.60026138814726
 30
0.0
 11
116.5333902295061
 21
67.24601269921186
 31
0.0
  0
LINE
  5
1DAD
330
1F
100
AcDbEntity
  8
0
100
AcDbLine
 10
114.3994156332905
 20
67.60026138814732
 30
0.0
 11
114.3994156332905
 21
70.74601269921192
 31
0.0
  0
LINE
  5
1DAE
330
1F
100
AcDbEntity
  8
0
100
AcDbLine
 10
116.5333902295061
 20
67.60026138814726
 30
0.0
 11
114.3994156332905
 21
67.60026138814732
 31
0.0
  0
DIMENSION
  5
1DC3
330
1F
100
AcDbEntity
  8
DIM
100
AcDbDimension
  2
*D15
 10
125.5890275247379
 20
66.24601269921185
 30
0.0
 11
125.5890275247379
 21
70.24601269921184
 31
0.0
 70
   160
  1
%%c<>
  3
ISO-25-1
100
AcDbAlignedDimension
 13
113.3594156332904
 23
74.2460126992118
 33
0.0
 14
113.3594156332902
 24
66.24601269921185
 34
0.0
 50
90.0
100
AcDbRotatedDimension
  0
DIMENSION
  5
1DDD
330
1F
100
AcDbEntity
  8
DIM
100
AcDbDimension
  2
*D16
 10
166.9310093668396
 20
60.34601269921178
 30
0.0
 11
164.4310093668395
 21
70.24601269921174
 31
0.0
 70
    32
  1
\U+25A1<>
  3
ISO-25-1
100
AcDbAlignedDimension
 13
199.6878632741932
 23
80.14601269921167
 33
0.0
 14
179.8878632741932
 24
60.34601269921177
 34
0.0
 50
90.0
100
AcDbRotatedDimension
  0
DIMENSION
  5
1DEA
330
1F
100
AcDbEntity
  8
DIM
100
AcDbDimension
  2
*D17
 10
158.7807281072284
 20
55.74601269921146
 30
0.0
 11
156.2807281072284
 21
70.24601269921179
 31
0.0
 70
    32
  1
\U+25A1<>
  3
ISO-25-1
100
AcDbAlignedDimension
 13
181.6487230052737
 23
84.74601269921206
 33
0.0
 14
181.6487230052737
 24
55.74601269921145
 34
0.0
 50
90.0
100
AcDbRotatedDimension
  0
LEADER
  5
1E0A
330
1F
100
AcDbEntity
  8
DIM
100
AcDbLeader
  3
ISO-25-1
 73
     0
 75
     1
 40
3.0
 41
22.57142857142857
 76
     3
 10
193.926752163082
 20
70.24601269921174
 30
0.0
 10
183.2425294074018
 20
94.53532654135448
 30
0.0
 10
180.2425294074018
 20
94.53532654135448
 30
0.0
340
1E0B
1001
ACAD
1000
DSTYLE
1002
{
1070
     5
1000

1070
    77
1070
     1
1070
   147
1040
1.0
1070
   342
1005
0
1002
}
1000
LEANOF
1010
0.0
1020
0.0
1030
0.0
  0
MTEXT
  5
1E0B
330
1F
100
AcDbEntity
  8
DIM
100
AcDbMText
 10
179.2425294074018
 20
95.5353265413545
 30
0.0
 40
3.0
 41
0.0
 71
     9
 72
     1
  1
\A1;M4*0.7*7L
  7
CHINESET
1001
ACAD
1000
MTEXTBEGIN
1070
    73
1070
     1
1070
    44
1040
1.0
1070
    74
1070
     0
1000
MTEXTEND
  0
DIMENSION
  5
1E0C
330
1F
100
AcDbEntity
  8
DIM
100
AcDbDimension
  2
*D18
 10
84.11448341141911
 20
171.9407611733091
 30
0.0
 11
84.11448341141909
 21
175.1907611733092
 31
0.0
 70
   160
  3
ISO-25-1
100
AcDbAlignedDimension
 13
96.97482975166781
 23
178.4407611733091
 33
0.0
 14
91.81052674440184
 24
171.9407611733091
 34
0.0
 50
90.0
100
AcDbRotatedDimension
  0
DIMENSION
  5
1E1B
330
1F
100
AcDbEntity
  8
DIM
100
AcDbDimension
  2
*D19
 10
84.23643228518473
 20
70.24601269921186
 30
0.0
 11
84.23643228518471
 21
73.49601269921187
 31
0.0
 70
   160
  3
ISO-25-1
100
AcDbAlignedDimension
 13
91.81052674440184
 23
76.74601269921186
 33
0.0
 14
91.81052674440184
 24
70.24601269921186
 34
0.0
 50
90.0
100
AcDbRotatedDimension
  0
LEADER
  5
1E83
330
1F
100
AcDbEntity
  8
DIM
100
AcDbLeader
  3
ISO-25-1
 73
     0
 75
     1
 40
3.0
 41
21.42857142857142
 76
     3
 10
100.2483440394485
 20
178.4407611733091
 30
0.0
 10
79.55619012724264
 20
194.6935657891683
 30
0.0
 10
76.55619012724264
 20
194.6935657891683
 30
0.0
340
1E84
1001
ACAD
1000
DSTYLE
1002
{
1070
     5
1000

1070
    77
1070
     1
1070
   147
1040
1.0
1070
   342
1005
0
1002
}
1000
LEANOF
1010
0.0
1020
0.0
1030
0.0
  0
MTEXT
  5
1E84
330
1F
100
AcDbEntity
  8
DIM
100
AcDbMText
 10
75.55619012724264
 20
195.6935657891683
 30
0.0
 40
3.0
 41
0.0
 71
     9
 72
     1
  1
\A1;2-M5*0.8
  7
CHINESET
1001
ACAD
1000
MTEXTBEGIN
1070
    73
1070
     1
1070
    44
1040
1.0
1070
    74
1070
     0
1000
MTEXTEND
  0
LEADER
  5
1E85
330
1F
100
AcDbEntity
  8
DIM
100
AcDbLeader
  3
ISO-25-1
 73
     0
 74
     0
 75
     1
 40
13.10260826771653
 41
27.16071428571428
 76
     3
 10
203.8267521630821
 20
181.840761173309
 30
0.0
 10
216.7554286373922
 20
196.527732142624
 30
0.0
 10
219.7554286373922
 20
196.527732142624
 30
0.0
340
1E86
1001
ACAD
1000
DSTYLE
1002
{
1070
     5
1000

1070
    77
1070
     1
1070
   147
1040
1.0
1070
   342
1005
0
1002
}
1000
LEANOF
1010
0.0
1020
0.0
1030
0.0
  0
MTEXT
  5
1E86
330
1F
100
AcDbEntity
  8
DIM
100
AcDbMText
 10
220.7554286373922
 20
197.527732142624
 30
0.0
 40
3.0
 41
0.0
 71
     7
 72
     1
  1
沈孔%%C6.5*4.5深\PM5*0.8*6L\P%%C4.3貫通
  7
CHINESET
1001
ACAD
1000
MTEXTBEGIN
1070
    73
1070
     1
1070
    44
1040
1.0
1070
    74
1070
     0
1000
MTEXTEND
  0
LEADER
  5
1E87
330
1F
100
AcDbEntity
  8
DIM
100
AcDbLeader
  3
ISO-25-1
 73
     0
 74
     0
 75
     1
 40
13.10260826771653
 41
27.16071428571428
 76
     3
 10
203.8267521630821
 20
80.14601269921172
 30
0.0
 10
216.7554286373923
 20
94.8329836685267
 30
0.0
 10
219.7554286373923
 20
94.8329836685267
 30
0.0
340
1E88
1001
ACAD
1000
DSTYLE
1002
{
1070
     5
1000

1070
    77
1070
     1
1070
   147
1040
1.0
1070
   342
1005
0
1002
}
1000
LEANOF
1010
0.0
1020
0.0
1030
0.0
  0
MTEXT
  5
1E88
330
1F
100
AcDbEntity
  8
DIM
100
AcDbMText
 10
220.7554286373923
 20
95.83298366852671
 30
0.0
 40
3.0
 41
0.0
 71
     7
 72
     1
  1
沈孔%%C6.5*4.5深\PM5*0.8*6L\P%%C4.3貫通
  7
CHINESET
1001
ACAD
1000
MTEXTBEGIN
1070
    73
1070
     1
1070
    44
1040
1.0
1070
    74
1070
     0
1000
MTEXTEND
  0
LEADER
  5
1E8A
330
1F
100
AcDbEntity
  8
DIM
100
AcDbLeader
  3
ISO-25-1
 73
     0
 75
     1
 40
3.0
 41
21.42857142857142
 76
     3
 10
100.3994156332906
 20
76.74601269921186
 30
0.0
 10
86.17467562543652
 20
86.60641207637581
 30
0.0
 10
83.17467562543653
 20
86.60641207637581
 30
0.0
340
1E8B
1001
ACAD
1000
DSTYLE
1002
{
1070
     5
1000

1070
    77
1070
     1
1070
   147
1040
1.0
1070
   342
1005
0
1002
}
1000
LEANOF
1010
0.0
1020
0.0
1030
0.0
  0
MTEXT
  5
1E8B
330
1F
100
AcDbEntity
  8
DIM
100
AcDbMText
 10
82.17467562543651
 20
87.60641207637581
 30
0.0
 40
3.0
 41
0.0
 71
     9
 72
     1
  1
\A1;2-M5*0.8
  7
CHINESET
1001
ACAD
1000
MTEXTBEGIN
1070
    73
1070
     1
1070
    44
1040
1.0
1070
    74
1070
     0
1000
MTEXTEND
  0
LINE
  5
1EA9
330
1F
100
AcDbEntity
  8
0
100
AcDbLine
 10
120.160383367716
 20
169.054009827361
 30
0.0
 11
124.3089255228429
 21
169.054009827361
 31
0.0
  0
LINE
  5
1EAA
330
1F
100
AcDbEntity
  8
0
100
AcDbLine
 10
120.160383367716
 20
174.8275125192573
 30
0.0
 11
124.3089255228429
 21
174.8275125192573
 31
0.0
  0
LINE
  5
1EAB
330
1F
100
AcDbEntity
  8
0
100
AcDbLine
 10
120.1934129929602
 20
177.7142638652053
 30
0.0
 11
124.2758958975987
 21
177.7142638652054
 31
0.0
  0
LINE
  5
1EAC
330
1F
100
AcDbEntity
  8
0
100
AcDbLine
 10
120.1934129929601
 20
166.1672584814128
 30
0.0
 11
124.2758958975987
 21
166.1672584814128
 31
0.0
  0
ARC
  5
1EAD
330
1F
100
AcDbEntity
  8
0
100
AcDbCircle
 10
114.7346544452796
 20
171.9407611733093
 30
0.0
 40
9.999999999999914
100
AcDbArc
 50
343.2213451190388
 51
16.77865488095962
  0
LINE
  5
1EAE
330
1F
100
AcDbEntity
  8
0
100
AcDbLine
 10
124.7346544452794
 20
167.6106341543869
 30
0.0
 11
124.7346544452794
 21
176.2708881922314
 31
0.0
  0
ARC
  5
1EAF
330
1F
100
AcDbEntity
  8
0
100
AcDbCircle
 10
122.2346544452794
 20
167.610634154387
 30
0.0
 40
2.5
100
AcDbArc
 50
324.7356103172446
 51
35.26438968275311
  0
ARC
  5
1EB0
330
1F
100
AcDbEntity
  8
0
100
AcDbCircle
 10
122.2346544452793
 20
176.2708881922314
 30
0.0
 40
2.5
100
AcDbArc
 50
324.7356103172468
 51
35.26438968275247
  0
ARC
  5
1EB1
330
1F
100
AcDbEntity
  8
0
100
AcDbCircle
 10
129.7346544452794
 20
171.9407611733092
 30
0.0
 40
9.999999999999914
100
AcDbArc
 50
163.2213451190396
 51
196.7786548809603
  0
LINE
  5
1EB2
330
1F
100
AcDbEntity
  8
0
100
AcDbLine
 10
119.7346544452794
 20
167.6106341543869
 30
0.0
 11
119.7346544452794
 21
176.2708881922314
 31
0.0
  0
ARC
  5
1EB3
330
1F
100
AcDbEntity
  8
0
100
AcDbCircle
 10
122.2346544452795
 20
167.610634154387
 30
0.0
 40
2.5
100
AcDbArc
 50
144.7356103172452
 51
215.2643896827553
  0
ARC
  5
1EB4
330
1F
100
AcDbEntity
  8
0
100
AcDbCircle
 10
122.2346544452796
 20
176.2708881922314
 30
0.0
 40
2.5
100
AcDbArc
 50
144.7356103172475
 51
215.2643896827524
  0
LINE
  5
1EB5
330
1F
100
AcDbEntity
  8
0
100
AcDbLine
 10
124.7346544452794
 20
174.9007611733091
 30
0.0
 11
126.8994156332906
 21
174.900761173309
 31
0.0
  0
LINE
  5
1EB6
330
1F
100
AcDbEntity
  8
0
 62
     3
100
AcDbLine
 10
124.7346544452795
 20
174.400761173309
 30
0.0
 11
127.3994156332906
 21
174.400761173309
 31
0.0
  0
LINE
  5
1EB7
330
1F
100
AcDbEntity
  8
0
100
AcDbLine
 10
124.7346544452795
 20
168.940761173309
 30
0.0
 11
126.8994156332905
 21
168.940761173309
 31
0.0
  0
LINE
  5
1EBA
330
1F
100
AcDbEntity
  8
0
100
AcDbLine
 10
112.8994156332906
 20
159.6627320155007
 30
0.0
 11
92.39941563329058
 21
159.6627320155007
 31
0.0
  0
LINE
  5
1EBB
330
1F
100
AcDbEntity
  8
0
100
AcDbLine
 10
112.8994156332906
 20
57.96798354140339
 30
0.0
 11
92.39941563329058
 21
57.96798354140337
 31
0.0
  0
DIMENSION
  5
1EC7
330
1F
100
AcDbEntity
  8
DIM
100
AcDbDimension
  2
*D20
 10
190.9267521630821
 20
147.4768287748328
 30
0.0
 11
193.9267521630821
 21
147.4768287748328
 31
0.0
 70
   160
  3
ISO-25-1
100
AcDbAlignedDimension
 13
196.9267521630821
 23
169.2950098622445
 33
0.0
 14
190.9267521630821
 24
169.2950098622445
 34
0.0
100
AcDbRotatedDimension
  0
DIMENSION
  5
1EE1
330
1F
100
AcDbEntity
  8
DIM
100
AcDbDimension
  2
*D21
 10
190.926752163082
 20
41.27513178557137
 30
0.0
 11
193.926752163082
 21
41.27513178557137
 31
0.0
 70
   160
  3
ISO-25-1
100
AcDbAlignedDimension
 13
196.926752163082
 23
67.6002613881472
 33
0.0
 14
190.926752163082
 24
67.60026138814722
 34
0.0
100
AcDbRotatedDimension
  0
CIRCLE
  5
2308
330
1F
100
AcDbEntity
  8
0
100
AcDbCircle
 10
203.8267521630821
 20
181.8407611733089
 30
0.0
 40
2.149999999999999
  0
CIRCLE
  5
230A
330
1F
100
AcDbEntity
  8
0
100
AcDbCircle
 10
184.0267521630821
 20
162.040761173309
 30
0.0
 40
2.149999999999999
  0
ARC
  5
230B
330
1F
100
AcDbEntity
  8
0
 62
     3
100
AcDbCircle
 10
184.0267521630821
 20
162.040761173309
 30
0.0
 40
2.5
100
AcDbArc
 50
161.2863585405266
 51
113.1355443622255
  0
CIRCLE
  5
230C
330
1F
100
AcDbEntity
  8
0
100
AcDbCircle
 10
184.0267521630821
 20
162.040761173309
 30
0.0
 40
3.25
  0
CIRCLE
  5
230D
330
1F
100
AcDbEntity
  8
0
100
AcDbCircle
 10
203.826752163082
 20
181.8407611733089
 30
0.0
 40
3.25
  0
CIRCLE
  5
2318
330
1F
100
AcDbEntity
  8
0
100
AcDbCircle
 10
184.0267521630821
 20
60.34601269921171
 30
0.0
 40
3.25
  0
ARC
  5
2319
330
1F
100
AcDbEntity
  8
0
 62
     3
100
AcDbCircle
 10
184.0267521630821
 20
60.34601269921177
 30
0.0
 40
2.5
100
AcDbArc
 50
161.2863585405266
 51
113.1355443622255
  0
CIRCLE
  5
231A
330
1F
100
AcDbEntity
  8
0
100
AcDbCircle
 10
184.0267521630821
 20
60.34601269921171
 30
0.0
 40
2.149999999999999
  0
CIRCLE
  5
231B
330
1F
100
AcDbEntity
  8
0
100
AcDbCircle
 10
203.8267521630821
 20
80.14601269921165
 30
0.0
 40
3.25
  0
ARC
  5
231C
330
1F
100
AcDbEntity
  8
0
 62
     3
100
AcDbCircle
 10
203.8267521630821
 20
80.1460126992117
 30
0.0
 40
2.5
100
AcDbArc
 50
161.2863585405266
 51
113.1355443622255
  0
CIRCLE
  5
231D
330
1F
100
AcDbEntity
  8
0
100
AcDbCircle
 10
203.8267521630821
 20
80.14601269921165
 30
0.0
 40
2.149999999999999
  0
ENDSEC
  0
SECTION
  2
OBJECTS
  0
DICTIONARY
  5
C
330
0
100
AcDbDictionary
  3
ACAD_GROUP
350
D
  3
ACAD_LAYOUT
350
1A
  3
ACAD_MLINESTYLE
350
17
  3
ACAD_PLOTSETTINGS
350
19
  3
ACADDIM
350
1E82
  3
ACMDICTIONARY
350
22CE
  3
AMG
350
22B5
  3
AMGSNAPSETTINGS
350
2301
  3
DWGPROPS
350
22D1
1001
ACAD
1000
TREAT_AS_HARD
1070
     0
  0
DICTIONARY
  5
221C
330
1F
100
AcDbDictionary
  3
ACAD_INDEX
350
230E
  3
ACAD_LAYOUTSELFREF
350
237C
1001
ACAD
1000
TREAT_AS_HARD
1070
     1
  0
DICTIONARY
  5
221E
330
1B
100
AcDbDictionary
  3
ACAD_LAYOUTSELFREF
350
237B
1001
ACAD
1000
TREAT_AS_HARD
1070
     1
  0
DICTIONARY
  5
D
102
{ACAD_REACTORS
330
C
102
}
330
C
100
AcDbDictionary
1001
ACAD
1000
TREAT_AS_HARD
1070
     0
  0
DICTIONARY
  5
1A
102
{ACAD_REACTORS
330
C
102
}
330
C
100
AcDbDictionary
1001
ACAD
1000
TREAT_AS_HARD
1070
     0
  0
DICTIONARY
  5
17
102
{ACAD_REACTORS
330
C
102
}
330
C
100
AcDbDictionary
  3
STANDARD
350
18
1001
ACAD
1000
TREAT_AS_HARD
1070
     0
  0
DICTIONARY
  5
19
102
{ACAD_REACTORS
330
C
102
}
330
C
100
AcDbDictionary
1001
ACAD
1000
TREAT_AS_HARD
1070
     0
  0
XRECORD
  5
1E82
102
{ACAD_REACTORS
330
C
102
}
330
C
100
AcDbXrecord
 90
   990106
  3

 60
     0
 61
     0
 62
     4
 63
     4
 64
     1
 65
     0
 66
     0
 67
     3
 68
     1
 69
     0
 70
     0
 71
     0
 72
     0
 40
0.0
170
     2
340
1E8B
  0
DICTIONARY
  5
22CE
102
{ACAD_REACTORS
330
C
102
}
330
C
100
AcDbDictionary
  3
ACMSTDDICTIONARY
350
22D4
1001
ACAD
1000
TREAT_AS_HARD
1070
     0
  0
DICTIONARY
  5
22B5
102
{ACAD_REACTORS
330
C
102
}
330
C
100
AcDbDictionary
  3
ACMGSETTINGS
350
22B6
1001
ACAD
1000
TREAT_AS_HARD
1070
     0
  0
DICTIONARY
  5
2301
102
{ACAD_REACTORS
330
C
102
}
330
C
100
AcDbDictionary
1001
ACAD
1000
TREAT_AS_HARD
1070
     0
  0
XRECORD
  5
22D1
102
{ACAD_REACTORS
330
C
102
}
330
C
100
AcDbXrecord
  1
DWGPROPS COOKIE
  2

  3

  4

  6

  7

  8

  9

300
AmdtFileType=84
301
=
302
=
303
=
304
=
305
=
306
=
307
=
308
=
309
=
 40
0.0868892939814815
 41
2452019.6310853
 42
2452047.640517604
  1

 90
        1
  0
DICTIONARY
  5
230E
102
{ACAD_REACTORS
330
221C
102
}
330
221C
100
AcDbDictionary
  3
*A1
350
230F
1001
ACAD
1000
TREAT_AS_HARD
1070
     0
  0
XRECORD
  5
237C
102
{ACAD_REACTORS
330
221C
102
}
330
221C
100
AcDbXrecord
340
1F
  0
XRECORD
  5
237B
102
{ACAD_REACTORS
330
221E
102
}
330
221E
100
AcDbXrecord
340
1B
  0
MLINESTYLE
  5
18
102
{ACAD_REACTORS
330
17
102
}
330
17
100
AcDbMlineStyle
  2
STANDARD
 70
     0
  3

 62
   256
 51
90.0
 52
90.0
 71
     2
 49
0.5
 62
   256
  6
BYLAYER
 49
-0.5
 62
   256
  6
BYLAYER
  0
DICTIONARY
  5
22D4
102
{ACAD_REACTORS
330
22CE
102
}
330
22CE
100
AcDbDictionary
1001
ACAD
1000
TREAT_AS_HARD
1070
     0
  0
DICTIONARY
  5
22B6
102
{ACAD_REACTORS
330
22B5
102
}
330
22B5
100
AcDbDictionary
  3
DWGSETTINGS
350
22B7
1001
ACAD
1000
TREAT_AS_HARD
1070
     0
  0
LAYER_INDEX
  5
230F
102
{ACAD_REACTORS
330
230E
102
}
330
230E
100
AcDbIndex
 40
2452965.711434814
100
AcDbLayerIndex
  8
0
360
2310
 90
      242
  8
DIM
360
2311
 90
       33
  8
CENTER
360
2312
 90
       72
  8
LOGO
360
2313
 90
      124
  8
Defpoints
360
2314
 90
        0
  0
XRECORD
  5
22B7
102
{ACAD_REACTORS
330
22B6
102
}
330
22B6
100
AcDbXrecord
  1
VERSION
140
15.0
  1
PRODUCT
  2
AutoCAD Mechanical 2000
  0
IDBUFFER
  5
2310
330
0
100
AcDbIdBuffer
330
230A
330
230B
330
230C
330
230D
330
2318
330
2319
330
231A
330
231B
330
231C
330
231D
330
A9
330
AA
330
AB
330
AC
330
B1
330
B2
330
10B3
330
17B4
330
17B5
330
17BF
330
1811
330
1812
330
18E7
330
18E8
330
18E9
330
18EA
330
18EB
330
18F6
330
18F9
330
18FB
330
18FC
330
18FD
330
18FE
330
18FF
330
1901
330
1903
330
190A
330
190B
330
190C
330
190E
330
1912
330
1914
330
191A
330
191E
330
191F
330
1922
330
1923
330
1929
330
192A
330
1953
330
1952
330
1951
330
194F
330
194E
330
1954
330
1955
330
1BAD
330
1959
330
1BAC
330
1BA7
330
1BA2
330
1963
330
1964
330
1966
330
1967
330
1968
330
1969
330
196A
330
196B
330
196C
330
196D
330
196E
330
1974
330
1975
330
197B
330
197C
330
197D
330
197E
330
197F
330
1980
330
1981
330
1982
330
1983
330
1984
330
1985
330
1986
330
1987
330
1988
330
1989
330
198A
330
198B
330
198C
330
198E
330
1992
330
1993
330
1994
330
1996
330
1997
330
1998
330
1999
330
199A
330
199B
330
199C
330
199D
330
199E
330
1B95
330
1B96
330
1B97
330
1B99
330
1B9B
330
1B9C
330
1B9D
330
1B9E
330
1BA1
330
1BB2
330
1BB5
330
1BB6
330
1BB7
330
1BB8
330
1BB9
330
1BBA
330
1BBB
330
1BBC
330
1BBD
330
1BBF
330
1BC0
330
1BC2
330
1BC3
330
1BC5
330
1BC6
330
1BC7
330
1BC8
330
1BC9
330
1BCA
330
1BCB
330
1BCC
330
1BCD
330
1BCE
330
1BD0
330
1BD1
330
1BD2
330
1BD3
330
1BD4
330
1BD6
330
1BD7
330
1BD9
330
1BDB
330
1BE6
330
1BE7
330
1BEF
330
1BF0
330
1BF1
330
1BF2
330
1BF5
330
1BF6
330
1BF7
330
1BF8
330
1BFA
330
1BFB
330
1BFC
330
1BFD
330
1BFE
330
1BFF
330
1C00
330
1C01
330
1C02
330
1C03
330
1C04
330
1C05
330
1C06
330
1C07
330
1C08
330
1C09
330
1C0A
330
1C0B
330
1C0C
330
1C0D
330
1C0E
330
1C0F
330
1C10
330
1C11
330
1C12
330
1C13
330
1C14
330
1C18
330
1C1B
330
1C21
330
1C23
330
1C52
330
1C53
330
1C54
330
1C55
330
1C56
330
1C57
330
1C58
330
1C59
330
1C5C
330
1D0B
330
1D0C
330
1D0D
330
1D0E
330
1D0F
330
1D10
330
1D11
330
1D12
330
1D13
330
1D15
330
1D17
330
1D18
330
1D19
330
1D1A
330
1DA2
330
1DA3
330
1DA4
330
1DA5
330
1DA6
330
1DA7
330
1DA8
330
1DA9
330
1DAA
330
1DAB
330
1DAC
330
1DAD
330
1DAE
330
1EA9
330
1EAA
330
1EAB
330
1EAC
330
1EAD
330
1EAE
330
1EAF
330
1EB0
330
1EB1
330
1EB2
330
1EB3
330
1EB4
330
1EB5
330
1EB6
330
1EB7
330
1EBA
330
1EBB
330
2308
  0
IDBUFFER
  5
2311
330
0
100
AcDbIdBuffer
330
1DC3
330
1DDD
330
1DEA
330
1E0A
330
1E0B
330
1E0C
330
1E1B
330
1E83
330
1E84
330
1E85
330
1E86
330
1E87
330
1E88
330
1E8A
330
1E8B
330
1EC7
330
1EE1
330
1C80
330
1C8F
330
1C9E
330
1CAB
330
1CB8
330
1CC5
330
1CD4
330
1CE1
330
1D1E
330
1D2C
330
1D2D
330
1D2E
330
1D3D
330
1D4C
330
1D59
330
1D68
  0
IDBUFFER
  5
2312
330
0
100
AcDbIdBuffer
330
1BB0
330
1BB1
330
1BB3
330
1BB4
330
1BCF
330
1BD5
330
1BD8
330
1BDC
330
1BE1
330
1BE2
330
1BE3
330
1BE4
330
1BE5
330
1BE8
330
1BEE
330
1BF3
330
1C1A
330
1C1C
330
1C1D
330
1C1E
330
1C1F
330
1C20
330
1D14
330
1D16
330
18F5
330
18F7
330
18F8
330
18FA
330
1900
330
1902
330
1904
330
1905
330
1906
330
1907
330
1908
330
1909
330
1921
330
1924
330
1925
330
1926
330
1927
330
1928
330
194A
330
1950
330
1956
330
1957
330
195A
330
195B
330
1960
330
1961
330
1962
330
1965
330
196F
330
198D
330
198F
330
1990
330
1991
330
1995
330
1B98
330
1B9A
330
1B9F
330
1BA0
330
1BA3
330
1BA4
330
1BA5
330
1BA6
330
1BA8
330
1BA9
330
1BAA
330
1BAB
330
1BAE
330
1BAF
  0
IDBUFFER
  5
2313
330
0
100
AcDbIdBuffer
330
1886
330
1887
330
1888
330
1889
330
188A
330
188B
330
188C
330
188D
330
188E
330
188F
330
1890
330
1891
330
17BD
330
17BE
330
17C1
330
17C2
330
17C3
330
17C4
330
17C5
330
17C6
330
17C7
330
17C8
330
17C9
330
17CA
330
17CB
330
17CC
330
17CD
330
17CE
330
17CF
330
17D0
330
17D1
330
17D2
330
17D3
330
17D4
330
17D5
330
17D6
330
17D7
330
17D8
330
17D9
330
17DA
330
17DB
330
17DC
330
17DD
330
17DE
330
17DF
330
17E0
330
17E1
330
17E2
330
17E3
330
17E4
330
17E5
330
17E6
330
17E7
330
17E8
330
17E9
330
17EA
330
17EB
330
17EC
330
17ED
330
17EE
330
17EF
330
17F0
330
17F1
330
17F2
330
17F3
330
17F4
330
17F5
330
17F6
330
17F7
330
17F8
330
17F9
330
17FA
330
17FB
330
17FC
330
17FD
330
17FE
330
17FF
330
1800
330
1801
330
1802
330
1803
330
1804
330
1805
330
1806
330
1807
330
1808
330
1809
330
180A
330
180B
330
180C
330
180D
330
180E
330
180F
330
1810
330
1868
330
1869
330
186A
330
186B
330
186C
330
186D
330
186E
330
186F
330
1870
330
1871
330
1872
330
1873
330
1874
330
1875
330
1876
330
1877
330
1878
330
1879
330
187A
330
187B
330
187C
330
187D
330
187E
330
187F
330
1880
330
1881
330
1882
330
1883
330
1884
330
1885
  0
IDBUFFER
  5
2314
330
0
100
AcDbIdBuffer
  0
ENDSEC
  0
EOF
