  0
SECTION
  2
HEADER
  9
$ACADVER
  1
AC1009
  9
$INSBASE
 10
0.0
 20
0.0
 30
0.0
  9
$EXTMIN
 10
53.19842586332004
 20
6.7214912801995288
 30
-0.0000000100018307
  9
$EXTMAX
 10
271.6319381283617
 20
293.62462322691317
 30
0.0000000100018311
  9
$LIMMIN
 10
0.0
 20
0.0
  9
$LIMMAX
 10
12.0
 20
9.0
  9
$ORTHOMODE
 70
     1
  9
$REGENMODE
 70
     1
  9
$FILLMODE
 70
     1
  9
$QTEXTMODE
 70
     0
  9
$MIRRTEXT
 70
     1
  9
$DRAGMODE
 70
     2
  9
$LTSCALE
 40
5.0
  9
$OSMODE
 70
    39
  9
$ATTMODE
 70
     1
  9
$TEXTSIZE
 40
4.5
  9
$TRACEWID
 40
0.05
  9
$TEXTSTYLE
  7
CHINESET
  9
$CLAYER
  8
0
  9
$CELTYPE
  6
BYLAYER
  9
$CECOLOR
 62
   256
  9
$DIMSCALE
 40
1.0
  9
$DIMASZ
 40
3.0
  9
$DIMEXO
 40
3.0
  9
$DIMDLI
 40
2.0
  9
$DIMRND
 40
0.0
  9
$DIMDLE
 40
0.0
  9
$DIMEXE
 40
2.0
  9
$DIMTP
 40
0.0
  9
$DIMTM
 40
0.0
  9
$DIMTXT
 40
3.0
  9
$DIMCEN
 40
-3.0
  9
$DIMTSZ
 40
0.0
  9
$DIMTOL
 70
     0
  9
$DIMLIM
 70
     0
  9
$DIMTIH
 70
     0
  9
$DIMTOH
 70
     0
  9
$DIMSE1
 70
     0
  9
$DIMSE2
 70
     0
  9
$DIMTAD
 70
     1
  9
$DIMZIN
 70
     8
  9
$DIMBLK
  1

  9
$DIMASO
 70
     1
  9
$DIMSHO
 70
     1
  9
$DIMPOST
  1

  9
$DIMAPOST
  1

  9
$DIMALT
 70
     0
  9
$DIMALTD
 70
     2
  9
$DIMALTF
 40
25.399999999999999
  9
$DIMLFAC
 40
1.0
  9
$DIMTOFL
 70
     1
  9
$DIMTVP
 40
0.0
  9
$DIMTIX
 70
     0
  9
$DIMSOXD
 70
     0
  9
$DIMSAH
 70
     0
  9
$DIMBLK1
  1

  9
$DIMBLK2
  1

  9
$DIMSTYLE
  2
ISO-25-1
  9
$DIMCLRD
 70
   256
  9
$DIMCLRE
 70
   256
  9
$DIMCLRT
 70
   256
  9
$DIMTFAC
 40
0.7
  9
$DIMGAP
 40
1.0
  9
$LUNITS
 70
     2
  9
$LUPREC
 70
     2
  9
$SKETCHINC
 40
0.1
  9
$FILLETRAD
 40
0.5
  9
$AUNITS
 70
     0
  9
$AUPREC
 70
     0
  9
$MENU
  1
.
  9
$ELEVATION
 40
0.0
  9
$PELEVATION
 40
0.0
  9
$THICKNESS
 40
0.0
  9
$LIMCHECK
 70
     0
  9
$BLIPMODE
 70
     0
  9
$CHAMFERA
 40
1.0
  9
$CHAMFERB
 40
1.0
  9
$SKPOLY
 70
     0
  9
$TDCREATE
 40
2452019.6310852999
  9
$TDUPDATE
 40
2452047.6441683332
  9
$TDINDWG
 40
0.1239736343
  9
$TDUSRTIMER
 40
0.1239736343
  9
$USRTIMER
 70
     1
  9
$ANGBASE
 50
0.0
  9
$ANGDIR
 70
     0
  9
$PDMODE
 70
     0
  9
$PDSIZE
 40
0.0
  9
$PLINEWID
 40
0.0
  9
$COORDS
 70
     2
  9
$SPLFRAME
 70
     0
  9
$SPLINETYPE
 70
     6
  9
$SPLINESEGS
 70
     8
  9
$ATTDIA
 70
     0
  9
$ATTREQ
 70
     1
  9
$HANDLING
 70
 12289
  9
$HANDSEED
  5
2A93
  9
$SURFTAB1
 70
     6
  9
$SURFTAB2
 70
     6
  9
$SURFTYPE
 70
     6
  9
$SURFU
 70
     6
  9
$SURFV
 70
     6
  9
$UCSNAME
  2

  9
$UCSORG
 10
0.0
 20
0.0
 30
0.0
  9
$UCSXDIR
 10
1.0
 20
0.0
 30
0.0
  9
$UCSYDIR
 10
0.0
 20
1.0
 30
0.0
  9
$PUCSNAME
  2

  9
$PUCSORG
 10
0.0
 20
0.0
 30
0.0
  9
$PUCSXDIR
 10
1.0
 20
0.0
 30
0.0
  9
$PUCSYDIR
 10
0.0
 20
1.0
 30
0.0
  9
$USERI1
 70
     0
  9
$USERI2
 70
     0
  9
$USERI3
 70
     0
  9
$USERI4
 70
     0
  9
$USERI5
 70
     0
  9
$USERR1
 40
0.0
  9
$USERR2
 40
0.0
  9
$USERR3
 40
0.0
  9
$USERR4
 40
0.0
  9
$USERR5
 40
0.0
  9
$WORLDVIEW
 70
     1
  9
$SHADEDGE
 70
     3
  9
$SHADEDIF
 70
    70
  9
$TILEMODE
 70
     1
  9
$MAXACTVP
 70
    64
  9
$PLIMCHECK
 70
     0
  9
$PEXTMIN
 10
1.0000000000000000E+020
 20
1.0000000000000000E+020
 30
1.0000000000000000E+020
  9
$PEXTMAX
 10
-1.0000000000000000E+020
 20
-1.0000000000000000E+020
 30
-1.0000000000000000E+020
  9
$PLIMMIN
 10
0.0
 20
0.0
  9
$PLIMMAX
 10
12.0
 20
9.0
  9
$UNITMODE
 70
     0
  9
$VISRETAIN
 70
     1
  9
$PLINEGEN
 70
     0
  9
$PSLTSCALE
 70
     1
  0
ENDSEC
  0
SECTION
  2
TABLES
  0
TABLE
  2
VPORT
 70
     2
  0
VPORT
  2
*ACTIVE
 70
     0
 10
0.0
 20
0.0
 11
1.0
 21
1.0
 12
162.4151819958409
 22
150.17305725355641
 13
0.0
 23
0.0
 14
0.5
 24
0.5
 15
0.5
 25
0.5
 16
0.0
 26
0.0
 36
1.0
 17
0.0
 27
0.0
 37
0.0
 40
290.06750472553767
 41
1.7274401473296499
 42
50.0
 43
0.0
 44
0.0
 50
0.0
 51
0.0
 71
     0
 72
   100
 73
     1
 74
     3
 75
     0
 76
     0
 77
     0
 78
     0
  0
ENDTAB
  0
TABLE
  2
LTYPE
 70
     5
  0
LTYPE
  2
CONTINUOUS
 70
     0
  3
Solid line
 72
    65
 73
     0
 40
0.0
  0
LTYPE
  2
CENTER
 70
     0
  3
Center ____ _ ____ _ ____ _ ____ _ ____ _ ____
 72
    65
 73
     4
 40
2.0
 49
1.25
 49
-0.25
 49
0.25
 49
-0.25
  0
ENDTAB
  0
TABLE
  2
LAYER
 70
    12
  0
LAYER
  2
0
 70
     0
 62
     7
  6
CONTINUOUS
  0
LAYER
  2
DIM
 70
     0
 62
     5
  6
CONTINUOUS
  0
LAYER
  2
CENTER
 70
     0
 62
     1
  6
CENTER
  0
LAYER
  2
LOGO
 70
     0
 62
     7
  6
CONTINUOUS
  0
LAYER
  2
DEFPOINTS
 70
     0
 62
     7
  6
CONTINUOUS
  0
ENDTAB
  0
TABLE
  2
STYLE
 70
     8
  0
STYLE
  2
STANDARD
 70
     0
 40
3.0
 41
1.0
 50
0.0
 71
     0
 42
3.0
  3
txt
  4

  0
STYLE
  2
CHINESET
 70
     0
 40
3.0
 41
1.0
 50
0.0
 71
     0
 42
4.5
  3
simplex.shx
  4
CHINESET.shx
  0
STYLE
  2
LOGO
 70
     0
 40
0.0
 41
1.0
 50
0.0
 71
     0
 42
5.0
  3
txt
  4

  0
ENDTAB
  0
TABLE
  2
VIEW
 70
     0
  0
ENDTAB
  0
TABLE
  2
UCS
 70
     0
  0
ENDTAB
  0
TABLE
  2
APPID
 70
     6
  0
APPID
  2
ACAD
 70
     0
  0
APPID
  2
AD_DRAW
 70
     0
  0
APPID
  2
DESIGNERASSEMBLIES
 70
     0
  0
APPID
  2
MCAD_NO_VIS
 70
     0
  0
APPID
  2
ASURF_PCURVE_APPNAME
 70
     0
  0
APPID
  2
CONTENTBLOCKICON
 70
     0
  0
ENDTAB
  0
TABLE
  2
DIMSTYLE
 70
     2
  0
DIMSTYLE
  2
ISO-25-1
 70
     0
  3

  4

  5

  6

  7

 40
1.0
 41
3.0
 42
3.0
 43
2.0
 44
2.0
 45
0.0
 46
0.0
 47
0.0
 48
0.0
140
3.0
141
-3.0
142
0.0
143
25.399999999999999
144
1.0
145
0.0
146
0.7
147
1.0
 71
     0
 72
     0
 73
     0
 74
     0
 75
     0
 76
     0
 77
     1
 78
     8
170
     0
171
     2
172
     1
173
     0
174
     0
175
     0
176
   256
177
   256
178
   256
  0
ENDTAB
  0
ENDSEC
  0
SECTION
  2
BLOCKS
  0
BLOCK
  8
0
  2
$MODEL_SPACE
 70
     0
 10
0.0
 20
0.0
 30
0.0
  3
$MODEL_SPACE
  1

  0
ENDBLK
  5
21
  8
0
  0
BLOCK
 67
     1
  8
0
  2
$PAPER_SPACE
 70
     0
 10
0.0
 20
0.0
 30
0.0
  3
$PAPER_SPACE
  1

  0
ENDBLK
  5
1D
 67
     1
  8
0
  0
BLOCK
  8
0
  2
*D9
 70
     1
 10
0.0
 20
0.0
 30
0.0
  3
*D9
  1

  0
LINE
  5
2728
  8
DIM
 10
187.37463399784059
 20
69.521961095831273
 30
0.0
 11
179.5617879528385
 21
69.521961095831273
 31
0.0
  0
LINE
  5
2729
  8
DIM
 10
187.37463399784059
 20
93.521961095831273
 30
0.0
 11
179.5617879528385
 21
93.521961095831273
 31
0.0
  0
LINE
  5
272A
  8
DIM
 10
181.5617879528385
 20
72.521961095831273
 30
0.0
 11
181.5617879528385
 21
90.521961095831259
 31
0.0
  0
SOLID
  5
272B
  8
DIM
 10
181.0617879528385
 20
72.521961095831273
 30
0.0
 11
182.0617879528385
 21
72.521961095831273
 31
0.0
 12
181.5617879528385
 22
69.521961095831273
 32
0.0
 13
181.5617879528385
 23
69.521961095831273
 33
0.0
  0
SOLID
  5
272C
  8
DIM
 10
181.0617879528385
 20
90.521961095831259
 30
0.0
 11
182.0617879528385
 21
90.521961095831259
 31
0.0
 12
181.5617879528385
 22
93.521961095831273
 32
0.0
 13
181.5617879528385
 23
93.521961095831273
 33
0.0
  0
TEXT
  5
272D
  8
0
 10
180.5617879528385
 20
77.615711095831301
 30
0.0
 40
3.0
  1
\U+25A124
 50
90.0
  7
CHINESET
  0
POINT
  5
272E
  8
DEFPOINTS
 62
     0
 10
190.37463399784059
 20
69.521961095831273
 30
0.0
  0
POINT
  5
272F
  8
DEFPOINTS
 62
     0
 10
190.37463399784059
 20
93.521961095831273
 30
0.0
  0
POINT
  5
2730
  8
DEFPOINTS
 62
     0
 10
181.5617879528385
 20
93.521961095831273
 30
0.0
  0
ENDBLK
  5
2215
  8
0
  0
BLOCK
  8
0
  2
*D10
 70
     1
 10
0.0
 20
0.0
 30
0.0
  3
*D10
  1

  0
LINE
  5
2731
  8
DIM
 10
188.88523102485681
 20
98.521961095831273
 30
0.0
 11
170.19815827363729
 21
98.521961095831273
 31
0.0
  0
LINE
  5
2732
  8
DIM
 10
188.88523102485689
 20
64.521961095831273
 30
0.0
 11
170.19815827363729
 21
64.521961095831273
 31
0.0
  0
LINE
  5
2733
  8
DIM
 10
172.19815827363729
 20
95.521961095831259
 30
0.0
 11
172.19815827363729
 21
67.521961095831273
 31
0.0
  0
SOLID
  5
2734
  8
DIM
 10
171.69815827363729
 20
95.521961095831259
 30
0.0
 11
172.69815827363729
 21
95.521961095831259
 31
0.0
 12
172.19815827363729
 22
98.521961095831273
 32
0.0
 13
172.19815827363729
 23
98.521961095831273
 33
0.0
  0
SOLID
  5
2735
  8
DIM
 10
171.69815827363729
 20
67.521961095831273
 30
0.0
 11
172.69815827363729
 21
67.521961095831273
 31
0.0
 12
172.19815827363729
 22
64.521961095831273
 32
0.0
 13
172.19815827363729
 23
64.521961095831273
 33
0.0
  0
TEXT
  5
2736
  8
0
 10
171.1981582736372
 20
77.615711095831301
 30
0.0
 40
3.0
  1
\U+25A134
 50
90.0
  7
CHINESET
  0
POINT
  5
2737
  8
DEFPOINTS
 62
     0
 10
191.88523102485681
 20
98.521961095831273
 30
0.0
  0
POINT
  5
2738
  8
DEFPOINTS
 62
     0
 10
191.88523102485689
 20
64.521961095831273
 30
0.0
  0
POINT
  5
2739
  8
DEFPOINTS
 62
     0
 10
172.19815827363729
 20
64.521961095831273
 30
0.0
  0
ENDBLK
  5
2222
  8
0
  0
BLOCK
  8
0
  2
*D11
 70
     1
 10
0.0
 20
0.0
 30
0.0
  3
*D11
  1

  0
LINE
  5
26E3
  8
DIM
 10
112.7304125494632
 20
87.881456245588979
 30
0.0
 11
112.7304125494632
 21
108.5420240773867
 31
0.0
  0
LINE
  5
26E4
  8
DIM
 10
120.2304125494632
 20
101.5219610958309
 30
0.0
 11
120.2304125494632
 21
108.5420240773867
 31
0.0
  0
LINE
  5
26E5
  8
DIM
 10
109.7304125494632
 20
106.5420240773867
 30
0.0
 11
106.7304125494632
 21
106.5420240773867
 31
0.0
  0
LINE
  5
26E6
  8
DIM
 10
123.2304125494632
 20
106.5420240773867
 30
0.0
 11
126.2304125494632
 21
106.5420240773867
 31
0.0
  0
LINE
  5
26E7
  8
DIM
 10
112.7304125494632
 20
106.5420240773867
 30
0.0
 11
120.2304125494632
 21
106.5420240773867
 31
0.0
  0
SOLID
  5
26E8
  8
DIM
 10
109.7304125494632
 20
107.0420240773867
 30
0.0
 11
109.7304125494632
 21
106.0420240773867
 31
0.0
 12
112.7304125494632
 22
106.5420240773867
 32
0.0
 13
112.7304125494632
 23
106.5420240773867
 33
0.0
  0
SOLID
  5
26E9
  8
DIM
 10
123.2304125494632
 20
107.0420240773867
 30
0.0
 11
123.2304125494632
 21
106.0420240773867
 31
0.0
 12
120.2304125494632
 22
106.5420240773867
 32
0.0
 13
120.2304125494632
 23
106.5420240773867
 33
0.0
  0
TEXT
  5
26EA
  8
0
 10
113.337555406606
 20
107.5420240773867
 30
0.0
 40
3.0
  1
7.5
  7
CHINESET
  0
POINT
  5
26EB
  8
DEFPOINTS
 62
     0
 10
112.7304125494632
 20
84.881456245588993
 30
0.0
  0
POINT
  5
26EC
  8
DEFPOINTS
 62
     0
 10
120.2304125494632
 20
98.521961095830989
 30
0.0
  0
POINT
  5
26ED
  8
DEFPOINTS
 62
     0
 10
120.2304125494632
 20
106.5420240773867
 30
0.0
  0
ENDBLK
  5
2233
  8
0
  0
BLOCK
  8
0
  2
*D12
 70
     1
 10
0.0
 20
0.0
 30
0.0
  3
*D12
  1

  0
LINE
  5
2700
  8
DIM
 10
108.2304125494632
 20
87.807588097903817
 30
0.0
 11
108.2304125494632
 21
108.5420240773867
 31
0.0
  0
LINE
  5
2701
  8
DIM
 10
100.7304125494632
 20
101.5219610958309
 30
0.0
 11
100.7304125494632
 21
108.5420240773867
 31
0.0
  0
LINE
  5
2702
  8
DIM
 10
111.2304125494632
 20
106.5420240773867
 30
0.0
 11
114.2304125494632
 21
106.5420240773867
 31
0.0
  0
LINE
  5
2703
  8
DIM
 10
97.73041254946321
 20
106.5420240773867
 30
0.0
 11
94.730412549463225
 21
106.5420240773867
 31
0.0
  0
LINE
  5
2704
  8
DIM
 10
108.2304125494632
 20
106.5420240773867
 30
0.0
 11
100.7304125494632
 21
106.5420240773867
 31
0.0
  0
SOLID
  5
2705
  8
DIM
 10
111.2304125494632
 20
107.0420240773867
 30
0.0
 11
111.2304125494632
 21
106.0420240773867
 31
0.0
 12
108.2304125494632
 22
106.5420240773867
 32
0.0
 13
108.2304125494632
 23
106.5420240773867
 33
0.0
  0
SOLID
  5
2706
  8
DIM
 10
97.73041254946321
 20
107.0420240773867
 30
0.0
 11
97.73041254946321
 21
106.0420240773867
 31
0.0
 12
100.7304125494632
 22
106.5420240773867
 32
0.0
 13
100.7304125494632
 23
106.5420240773867
 33
0.0
  0
TEXT
  5
2707
  8
0
 10
101.337555406606
 20
107.5420240773867
 30
0.0
 40
3.0
  1
7.5
  7
CHINESET
  0
POINT
  5
2708
  8
DEFPOINTS
 62
     0
 10
108.2304125494632
 20
84.807588097903817
 30
0.0
  0
POINT
  5
2709
  8
DEFPOINTS
 62
     0
 10
100.7304125494632
 20
98.521961095830989
 30
0.0
  0
POINT
  5
270A
  8
DEFPOINTS
 62
     0
 10
100.7304125494632
 20
106.5420240773867
 30
0.0
  0
ENDBLK
  5
2242
  8
0
  0
BLOCK
  8
0
  2
*D13
 70
     1
 10
0.0
 20
0.0
 30
0.0
  3
*D13
  1

  0
LINE
  5
26EE
  8
DIM
 10
120.2304125494632
 20
101.5219610958309
 30
0.0
 11
120.2304125494632
 21
117.18363794929731
 31
0.0
  0
LINE
  5
26EF
  8
DIM
 10
100.7304125494632
 20
101.5219610958309
 30
0.0
 11
100.7304125494632
 21
117.18363794929731
 31
0.0
  0
LINE
  5
26F0
  8
DIM
 10
117.2304125494632
 20
115.18363794929731
 30
0.0
 11
103.7304125494632
 21
115.18363794929731
 31
0.0
  0
SOLID
  5
26F1
  8
DIM
 10
117.2304125494632
 20
115.68363794929731
 30
0.0
 11
117.2304125494632
 21
114.68363794929731
 31
0.0
 12
120.2304125494632
 22
115.18363794929731
 32
0.0
 13
120.2304125494632
 23
115.18363794929731
 33
0.0
  0
SOLID
  5
26F2
  8
DIM
 10
103.7304125494632
 20
115.68363794929731
 30
0.0
 11
103.7304125494632
 21
114.68363794929731
 31
0.0
 12
100.7304125494632
 22
115.18363794929731
 32
0.0
 13
100.7304125494632
 23
115.18363794929731
 33
0.0
  0
TEXT
  5
26F3
  8
0
 10
106.1946982637489
 20
116.18363794929731
 30
0.0
 40
3.0
  1
19.5
  7
CHINESET
  0
POINT
  5
26F4
  8
DEFPOINTS
 62
     0
 10
120.2304125494632
 20
98.521961095830989
 30
0.0
  0
POINT
  5
26F5
  8
DEFPOINTS
 62
     0
 10
100.7304125494632
 20
98.521961095830974
 30
0.0
  0
POINT
  5
26F6
  8
DEFPOINTS
 62
     0
 10
100.7304125494632
 20
115.18363794929731
 30
0.0
  0
ENDBLK
  5
2265
  8
0
  0
BLOCK
  8
0
  2
*D14
 70
     1
 10
0.0
 20
0.0
 30
0.0
  3
*D14
  1

  0
LINE
  5
26D8
  8
DIM
 10
120.2304125494632
 20
101.5219610958309
 30
0.0
 11
120.2304125494632
 21
117.18363794929731
 31
0.0
  0
LINE
  5
26D9
  8
DIM
 10
125.7304125494631
 20
88.521961095831159
 30
0.0
 11
125.7304125494631
 21
117.18363794929731
 31
0.0
  0
LINE
  5
26DA
  8
DIM
 10
117.2304125494632
 20
115.18363794929731
 30
0.0
 11
114.2304125494632
 21
115.18363794929731
 31
0.0
  0
LINE
  5
26DB
  8
DIM
 10
128.7304125494631
 20
115.18363794929731
 30
0.0
 11
131.7304125494631
 21
115.18363794929731
 31
0.0
  0
LINE
  5
26DC
  8
DIM
 10
120.2304125494632
 20
115.18363794929731
 30
0.0
 11
125.7304125494631
 21
115.18363794929731
 31
0.0
  0
SOLID
  5
26DD
  8
DIM
 10
117.2304125494632
 20
115.68363794929731
 30
0.0
 11
117.2304125494632
 21
114.68363794929731
 31
0.0
 12
120.2304125494632
 22
115.18363794929731
 32
0.0
 13
120.2304125494632
 23
115.18363794929731
 33
0.0
  0
SOLID
  5
26DE
  8
DIM
 10
128.7304125494631
 20
115.68363794929731
 30
0.0
 11
128.7304125494631
 21
114.68363794929731
 31
0.0
 12
125.7304125494631
 22
115.18363794929731
 32
0.0
 13
125.7304125494631
 23
115.18363794929731
 33
0.0
  0
TEXT
  5
26DF
  8
0
 10
119.837555406606
 20
116.18363794929731
 30
0.0
 40
3.0
  1
5.5
  7
CHINESET
  0
POINT
  5
26E0
  8
DEFPOINTS
 62
     0
 10
120.2304125494632
 20
98.521961095830989
 30
0.0
  0
POINT
  5
26E1
  8
DEFPOINTS
 62
     0
 10
125.7304125494631
 20
85.521961095831159
 30
0.0
  0
POINT
  5
26E2
  8
DEFPOINTS
 62
     0
 10
125.7304125494631
 20
115.18363794929731
 30
0.0
  0
ENDBLK
  5
2274
  8
0
  0
BLOCK
  8
0
  2
*D15
 70
     1
 10
0.0
 20
0.0
 30
0.0
  3
*D15
  1

  0
LINE
  5
26F7
  8
DIM
 10
125.7304125494631
 20
88.521961095831159
 30
0.0
 11
125.7304125494631
 21
126.03602410345781
 31
0.0
  0
LINE
  5
26F8
  8
DIM
 10
100.7304125494632
 20
101.5219610958309
 30
0.0
 11
100.7304125494632
 21
126.03602410345781
 31
0.0
  0
LINE
  5
26F9
  8
DIM
 10
122.7304125494631
 20
124.03602410345781
 30
0.0
 11
103.7304125494632
 21
124.03602410345781
 31
0.0
  0
SOLID
  5
26FA
  8
DIM
 10
122.7304125494631
 20
124.53602410345781
 30
0.0
 11
122.7304125494631
 21
123.53602410345781
 31
0.0
 12
125.7304125494631
 22
124.03602410345781
 32
0.0
 13
125.7304125494631
 23
124.03602410345781
 33
0.0
  0
SOLID
  5
26FB
  8
DIM
 10
103.7304125494632
 20
124.53602410345781
 30
0.0
 11
103.7304125494632
 21
123.53602410345781
 31
0.0
 12
100.7304125494632
 22
124.03602410345781
 32
0.0
 13
100.7304125494632
 23
124.03602410345781
 33
0.0
  0
TEXT
  5
26FC
  8
0
 10
110.80184112089169
 20
125.03602410345781
 30
0.0
 40
3.0
  1
25
  7
CHINESET
  0
POINT
  5
26FD
  8
DEFPOINTS
 62
     0
 10
125.7304125494631
 20
85.521961095831159
 30
0.0
  0
POINT
  5
26FE
  8
DEFPOINTS
 62
     0
 10
100.7304125494632
 20
98.521961095830989
 30
0.0
  0
POINT
  5
26FF
  8
DEFPOINTS
 62
     0
 10
100.7304125494632
 20
124.03602410345781
 30
0.0
  0
ENDBLK
  5
228C
  8
0
  0
BLOCK
  8
0
  2
*D16
 70
     1
 10
0.0
 20
0.0
 30
0.0
  3
*D16
  1

  0
LINE
  5
270B
  8
DIM
 10
124.2304125494634
 20
88.021961095830974
 30
0.0
 11
144.6736632050642
 21
88.021961095830974
 31
0.0
  0
LINE
  5
270C
  8
DIM
 10
124.2304125494634
 20
75.021961095830989
 30
0.0
 11
144.6736632050642
 21
75.021961095830989
 31
0.0
  0
LINE
  5
270D
  8
DIM
 10
142.6736632050642
 20
85.021961095830989
 30
0.0
 11
142.6736632050642
 21
78.021961095830989
 31
0.0
  0
SOLID
  5
270E
  8
DIM
 10
142.1736632050642
 20
85.021961095830989
 30
0.0
 11
143.1736632050642
 21
85.021961095830989
 31
0.0
 12
142.6736632050642
 22
88.021961095830974
 32
0.0
 13
142.6736632050642
 23
88.021961095830974
 33
0.0
  0
SOLID
  5
270F
  8
DIM
 10
142.1736632050642
 20
78.021961095830989
 30
0.0
 11
143.1736632050642
 21
78.021961095830989
 31
0.0
 12
142.6736632050642
 22
75.021961095830989
 32
0.0
 13
142.6736632050642
 23
75.021961095830989
 33
0.0
  0
INSERT
  5
2710
  8
0
  2
*U37
 10
0.0
 20
0.0
 30
0.0
  0
POINT
  5
2711
  8
DEFPOINTS
 62
     0
 10
121.2304125494634
 20
88.021961095830974
 30
0.0
  0
POINT
  5
2712
  8
DEFPOINTS
 62
     0
 10
121.2304125494634
 20
75.021961095830989
 30
0.0
  0
POINT
  5
2713
  8
DEFPOINTS
 62
     0
 10
142.6736632050642
 20
75.021961095830989
 30
0.0
  0
ENDBLK
  5
22AF
  8
0
  0
BLOCK
  8
0
  2
*D17
 70
     1
 10
0.0
 20
0.0
 30
0.0
  3
*D17
  1

  0
LINE
  5
2714
  8
DIM
 10
124.7304125494634
 20
86.521961095830989
 30
0.0
 11
137.01632236581659
 21
86.521961095830989
 31
0.0
  0
LINE
  5
2715
  8
DIM
 10
124.7304125494634
 20
76.521961095831443
 30
0.0
 11
137.01632236581659
 21
76.521961095831443
 31
0.0
  0
LINE
  5
2716
  8
DIM
 10
135.01632236581659
 20
83.521961095830989
 30
0.0
 11
135.01632236581659
 21
79.521961095831443
 31
0.0
  0
SOLID
  5
2717
  8
DIM
 10
134.51632236581659
 20
83.521961095830989
 30
0.0
 11
135.51632236581659
 21
83.521961095830989
 31
0.0
 12
135.01632236581659
 22
86.521961095830989
 32
0.0
 13
135.01632236581659
 23
86.521961095830989
 33
0.0
  0
SOLID
  5
2718
  8
DIM
 10
134.51632236581659
 20
79.521961095831443
 30
0.0
 11
135.51632236581659
 21
79.521961095831443
 31
0.0
 12
135.01632236581659
 22
76.521961095831443
 32
0.0
 13
135.01632236581659
 23
76.521961095831443
 33
0.0
  0
INSERT
  5
2719
  8
0
  2
*U38
 10
0.0
 20
0.0
 30
0.0
  0
POINT
  5
271A
  8
DEFPOINTS
 62
     0
 10
121.7304125494634
 20
86.521961095830989
 30
0.0
  0
POINT
  5
271B
  8
DEFPOINTS
 62
     0
 10
121.7304125494634
 20
76.521961095831443
 30
0.0
  0
POINT
  5
271C
  8
DEFPOINTS
 62
     0
 10
135.01632236581659
 20
76.521961095831443
 30
0.0
  0
ENDBLK
  5
22BC
  8
0
  0
BLOCK
  8
0
  2
*D18
 70
     1
 10
0.0
 20
0.0
 30
0.0
  3
*D18
  1

  0
LINE
  5
271D
  8
DIM
 10
121.7304125494634
 20
72.521961095830989
 30
0.0
 11
121.7304125494634
 21
53.976125733641993
 31
0.0
  0
LINE
  5
271E
  8
DIM
 10
120.2304125494632
 20
61.521961095830989
 30
0.0
 11
120.2304125494632
 21
53.976125733641993
 31
0.0
  0
LINE
  5
271F
  8
DIM
 10
124.7304125494634
 20
55.976125733641993
 30
0.0
 11
127.7304125494634
 21
55.976125733641993
 31
0.0
  0
LINE
  5
2720
  8
DIM
 10
117.2304125494632
 20
55.976125733641993
 30
0.0
 11
106.5161268351774
 21
55.976125733641993
 31
0.0
  0
LINE
  5
2721
  8
DIM
 10
121.7304125494634
 20
55.976125733641993
 30
0.0
 11
120.2304125494632
 21
55.976125733641993
 31
0.0
  0
SOLID
  5
2722
  8
DIM
 10
124.7304125494634
 20
56.476125733641993
 30
0.0
 11
124.7304125494634
 21
55.476125733641993
 31
0.0
 12
121.7304125494634
 22
55.976125733641993
 32
0.0
 13
121.7304125494634
 23
55.976125733641993
 33
0.0
  0
SOLID
  5
2723
  8
DIM
 10
117.2304125494632
 20
56.476125733641993
 30
0.0
 11
117.2304125494632
 21
55.476125733641993
 31
0.0
 12
120.2304125494632
 22
55.976125733641993
 32
0.0
 13
120.2304125494632
 23
55.976125733641993
 33
0.0
  0
TEXT
  5
2724
  8
0
 10
107.5161268351774
 20
56.976125733642
 30
0.0
 40
3.0
  1
1.5
  7
CHINESET
  0
POINT
  5
2725
  8
DEFPOINTS
 62
     0
 10
121.7304125494634
 20
75.521961095830989
 30
0.0
  0
POINT
  5
2726
  8
DEFPOINTS
 62
     0
 10
120.2304125494632
 20
64.521961095830974
 30
0.0
  0
POINT
  5
2727
  8
DEFPOINTS
 62
     0
 10
120.2304125494632
 20
55.976125733641993
 30
0.0
  0
ENDBLK
  5
22DD
  8
0
  0
BLOCK
  8
0
  2
*D19
 70
     1
 10
0.0
 20
0.0
 30
0.0
  3
*D19
  1

  0
LINE
  5
26B9
  8
DIM
 10
172.3499574555517
 20
179.8836176607814
 30
0.0
 11
164.53711141054961
 21
179.8836176607814
 31
0.0
  0
LINE
  5
26BA
  8
DIM
 10
172.3499574555517
 20
203.8836176607814
 30
0.0
 11
164.53711141054961
 21
203.8836176607814
 31
0.0
  0
LINE
  5
26BB
  8
DIM
 10
166.53711141054961
 20
182.8836176607814
 30
0.0
 11
166.53711141054961
 21
200.8836176607814
 31
0.0
  0
SOLID
  5
26BC
  8
DIM
 10
166.03711141054961
 20
182.8836176607814
 30
0.0
 11
167.03711141054961
 21
182.8836176607814
 31
0.0
 12
166.53711141054961
 22
179.8836176607814
 32
0.0
 13
166.53711141054961
 23
179.8836176607814
 33
0.0
  0
SOLID
  5
26BD
  8
DIM
 10
166.03711141054961
 20
200.8836176607814
 30
0.0
 11
167.03711141054961
 21
200.8836176607814
 31
0.0
 12
166.53711141054961
 22
203.8836176607814
 32
0.0
 13
166.53711141054961
 23
203.8836176607814
 33
0.0
  0
TEXT
  5
26BE
  8
0
 10
165.5371114105495
 20
187.9773676607814
 30
0.0
 40
3.0
  1
\U+25A124
 50
90.0
  7
CHINESET
  0
POINT
  5
26BF
  8
DEFPOINTS
 62
     0
 10
175.3499574555517
 20
179.8836176607814
 30
0.0
  0
POINT
  5
26C0
  8
DEFPOINTS
 62
     0
 10
175.3499574555517
 20
203.8836176607814
 30
0.0
  0
POINT
  5
26C1
  8
DEFPOINTS
 62
     0
 10
166.53711141054961
 20
203.8836176607814
 30
0.0
  0
ENDBLK
  5
23CB
  8
0
  0
BLOCK
  8
0
  2
*D20
 70
     1
 10
0.0
 20
0.0
 30
0.0
  3
*D20
  1

  0
LINE
  5
26B0
  8
DIM
 10
173.86055448256789
 20
208.8836176607814
 30
0.0
 11
155.1734817313484
 21
208.8836176607814
 31
0.0
  0
LINE
  5
26B1
  8
DIM
 10
173.86055448256789
 20
174.8836176607814
 30
0.0
 11
155.17348173134829
 21
174.8836176607814
 31
0.0
  0
LINE
  5
26B2
  8
DIM
 10
157.17348173134829
 20
205.8836176607814
 30
0.0
 11
157.17348173134829
 21
177.8836176607814
 31
0.0
  0
SOLID
  5
26B3
  8
DIM
 10
156.6734817313484
 20
205.8836176607814
 30
0.0
 11
157.6734817313484
 21
205.8836176607814
 31
0.0
 12
157.17348173134829
 22
208.8836176607814
 32
0.0
 13
157.17348173134829
 23
208.8836176607814
 33
0.0
  0
SOLID
  5
26B4
  8
DIM
 10
156.67348173134829
 20
177.8836176607814
 30
0.0
 11
157.67348173134829
 21
177.8836176607814
 31
0.0
 12
157.17348173134829
 22
174.8836176607814
 32
0.0
 13
157.17348173134829
 23
174.8836176607814
 33
0.0
  0
TEXT
  5
26B5
  8
0
 10
156.17348173134829
 20
187.9773676607814
 30
0.0
 40
3.0
  1
\U+25A134
 50
90.0
  7
CHINESET
  0
POINT
  5
26B6
  8
DEFPOINTS
 62
     0
 10
176.86055448256789
 20
208.8836176607814
 30
0.0
  0
POINT
  5
26B7
  8
DEFPOINTS
 62
     0
 10
176.86055448256789
 20
174.8836176607814
 30
0.0
  0
POINT
  5
26B8
  8
DEFPOINTS
 62
     0
 10
157.17348173134829
 20
174.8836176607814
 30
0.0
  0
ENDBLK
  5
23D7
  8
0
  0
BLOCK
  8
0
  2
*D21
 70
     1
 10
0.0
 20
0.0
 30
0.0
  3
*D21
  1

  0
LINE
  5
267F
  8
DIM
 10
97.705736007174266
 20
198.24311281053909
 30
0.0
 11
97.705736007174266
 21
218.90368064233689
 31
0.0
  0
LINE
  5
2680
  8
DIM
 10
105.2057360071742
 20
211.88361766078111
 30
0.0
 11
105.2057360071742
 21
218.90368064233689
 31
0.0
  0
LINE
  5
2681
  8
DIM
 10
94.705736007174266
 20
216.90368064233689
 30
0.0
 11
91.705736007174266
 21
216.90368064233689
 31
0.0
  0
LINE
  5
2682
  8
DIM
 10
108.2057360071742
 20
216.90368064233689
 30
0.0
 11
111.2057360071742
 21
216.90368064233689
 31
0.0
  0
LINE
  5
2683
  8
DIM
 10
97.705736007174266
 20
216.90368064233689
 30
0.0
 11
105.2057360071742
 21
216.90368064233689
 31
0.0
  0
SOLID
  5
2684
  8
DIM
 10
94.705736007174266
 20
217.40368064233689
 30
0.0
 11
94.705736007174266
 21
216.40368064233681
 31
0.0
 12
97.705736007174266
 22
216.90368064233689
 32
0.0
 13
97.705736007174266
 23
216.90368064233689
 33
0.0
  0
SOLID
  5
2685
  8
DIM
 10
108.2057360071742
 20
217.40368064233689
 30
0.0
 11
108.2057360071742
 21
216.40368064233681
 31
0.0
 12
105.2057360071742
 22
216.90368064233689
 32
0.0
 13
105.2057360071742
 23
216.90368064233689
 33
0.0
  0
TEXT
  5
2686
  8
0
 10
98.312878864317128
 20
217.90368064233681
 30
0.0
 40
3.0
  1
7.5
  7
CHINESET
  0
POINT
  5
2687
  8
DEFPOINTS
 62
     0
 10
97.705736007174266
 20
195.24311281053909
 30
0.0
  0
POINT
  5
2688
  8
DEFPOINTS
 62
     0
 10
105.2057360071742
 20
208.88361766078111
 30
0.0
  0
POINT
  5
2689
  8
DEFPOINTS
 62
     0
 10
105.2057360071742
 20
216.90368064233689
 30
0.0
  0
ENDBLK
  5
23E5
  8
0
  0
BLOCK
  8
0
  2
*D22
 70
     1
 10
0.0
 20
0.0
 30
0.0
  3
*D22
  1

  0
LINE
  5
268A
  8
DIM
 10
93.205736007174266
 20
198.16924466285391
 30
0.0
 11
93.205736007174266
 21
218.90368064233689
 31
0.0
  0
LINE
  5
268B
  8
DIM
 10
85.705736007174266
 20
211.88361766078111
 30
0.0
 11
85.705736007174266
 21
218.90368064233689
 31
0.0
  0
LINE
  5
268C
  8
DIM
 10
96.205736007174281
 20
216.90368064233689
 30
0.0
 11
99.205736007174266
 21
216.90368064233689
 31
0.0
  0
LINE
  5
268D
  8
DIM
 10
82.705736007174266
 20
216.90368064233689
 30
0.0
 11
79.705736007174266
 21
216.90368064233689
 31
0.0
  0
LINE
  5
268E
  8
DIM
 10
93.205736007174266
 20
216.90368064233689
 30
0.0
 11
85.705736007174266
 21
216.90368064233689
 31
0.0
  0
SOLID
  5
268F
  8
DIM
 10
96.205736007174281
 20
217.40368064233689
 30
0.0
 11
96.205736007174281
 21
216.40368064233681
 31
0.0
 12
93.205736007174266
 22
216.90368064233689
 32
0.0
 13
93.205736007174266
 23
216.90368064233689
 33
0.0
  0
SOLID
  5
2690
  8
DIM
 10
82.705736007174266
 20
217.40368064233689
 30
0.0
 11
82.705736007174266
 21
216.40368064233681
 31
0.0
 12
85.705736007174266
 22
216.90368064233689
 32
0.0
 13
85.705736007174266
 23
216.90368064233689
 33
0.0
  0
TEXT
  5
2691
  8
0
 10
86.312878864317113
 20
217.90368064233681
 30
0.0
 40
3.0
  1
7.5
  7
CHINESET
  0
POINT
  5
2692
  8
DEFPOINTS
 62
     0
 10
93.205736007174266
 20
195.169244662854
 30
0.0
  0
POINT
  5
2693
  8
DEFPOINTS
 62
     0
 10
85.705736007174266
 20
208.88361766078111
 30
0.0
  0
POINT
  5
2694
  8
DEFPOINTS
 62
     0
 10
85.705736007174266
 20
216.90368064233689
 30
0.0
  0
ENDBLK
  5
23F3
  8
0
  0
BLOCK
  8
0
  2
*D23
 70
     1
 10
0.0
 20
0.0
 30
0.0
  3
*D23
  1

  0
LINE
  5
2695
  8
DIM
 10
105.2057360071742
 20
211.88361766078111
 30
0.0
 11
105.2057360071742
 21
227.5452945142475
 31
0.0
  0
LINE
  5
2696
  8
DIM
 10
85.705736007174266
 20
211.88361766078111
 30
0.0
 11
85.705736007174266
 21
227.5452945142475
 31
0.0
  0
LINE
  5
2697
  8
DIM
 10
102.2057360071742
 20
225.5452945142475
 30
0.0
 11
88.705736007174266
 21
225.5452945142475
 31
0.0
  0
SOLID
  5
2698
  8
DIM
 10
102.2057360071742
 20
226.0452945142475
 30
0.0
 11
102.2057360071742
 21
225.0452945142475
 31
0.0
 12
105.2057360071742
 22
225.5452945142475
 32
0.0
 13
105.2057360071742
 23
225.5452945142475
 33
0.0
  0
SOLID
  5
2699
  8
DIM
 10
88.705736007174266
 20
226.0452945142475
 30
0.0
 11
88.705736007174266
 21
225.0452945142475
 31
0.0
 12
85.705736007174266
 22
225.5452945142475
 32
0.0
 13
85.705736007174266
 23
225.5452945142475
 33
0.0
  0
TEXT
  5
269A
  8
0
 10
91.170021721459975
 20
226.5452945142475
 30
0.0
 40
3.0
  1
19.5
  7
CHINESET
  0
POINT
  5
269B
  8
DEFPOINTS
 62
     0
 10
105.2057360071742
 20
208.88361766078111
 30
0.0
  0
POINT
  5
269C
  8
DEFPOINTS
 62
     0
 10
85.705736007174266
 20
208.88361766078111
 30
0.0
  0
POINT
  5
269D
  8
DEFPOINTS
 62
     0
 10
85.705736007174266
 20
225.5452945142475
 30
0.0
  0
ENDBLK
  5
23FF
  8
0
  0
BLOCK
  8
0
  2
*D24
 70
     1
 10
0.0
 20
0.0
 30
0.0
  3
*D24
  1

  0
LINE
  5
2664
  8
DIM
 10
105.2057360071742
 20
211.88361766078111
 30
0.0
 11
105.2057360071742
 21
227.5452945142475
 31
0.0
  0
LINE
  5
2665
  8
DIM
 10
124.7057360071742
 20
197.88361766078131
 30
0.0
 11
124.7057360071742
 21
227.5452945142475
 31
0.0
  0
LINE
  5
2666
  8
DIM
 10
108.2057360071742
 20
225.5452945142475
 30
0.0
 11
121.7057360071742
 21
225.5452945142475
 31
0.0
  0
SOLID
  5
2667
  8
DIM
 10
108.2057360071742
 20
226.0452945142475
 30
0.0
 11
108.2057360071742
 21
225.0452945142475
 31
0.0
 12
105.2057360071742
 22
225.5452945142475
 32
0.0
 13
105.2057360071742
 23
225.5452945142475
 33
0.0
  0
SOLID
  5
2668
  8
DIM
 10
121.7057360071742
 20
226.0452945142475
 30
0.0
 11
121.7057360071742
 21
225.0452945142475
 31
0.0
 12
124.7057360071742
 22
225.5452945142475
 32
0.0
 13
124.7057360071742
 23
225.5452945142475
 33
0.0
  0
TEXT
  5
2669
  8
0
 10
110.6700217214599
 20
226.5452945142475
 30
0.0
 40
3.0
  1
19.5
  7
CHINESET
  0
POINT
  5
266A
  8
DEFPOINTS
 62
     0
 10
105.2057360071742
 20
208.88361766078111
 30
0.0
  0
POINT
  5
266B
  8
DEFPOINTS
 62
     0
 10
124.7057360071742
 20
194.88361766078131
 30
0.0
  0
POINT
  5
266C
  8
DEFPOINTS
 62
     0
 10
124.7057360071742
 20
225.5452945142475
 30
0.0
  0
ENDBLK
  5
240D
  8
0
  0
BLOCK
  8
0
  2
*D25
 70
     1
 10
0.0
 20
0.0
 30
0.0
  3
*D25
  1

  0
LINE
  5
2676
  8
DIM
 10
124.7057360071742
 20
197.88361766078131
 30
0.0
 11
124.7057360071742
 21
236.39768066840799
 31
0.0
  0
LINE
  5
2677
  8
DIM
 10
85.705736007174266
 20
211.88361766078111
 30
0.0
 11
85.705736007174266
 21
236.39768066840799
 31
0.0
  0
LINE
  5
2678
  8
DIM
 10
121.7057360071742
 20
234.39768066840799
 30
0.0
 11
88.705736007174266
 21
234.39768066840799
 31
0.0
  0
SOLID
  5
2679
  8
DIM
 10
121.7057360071742
 20
234.89768066840799
 30
0.0
 11
121.7057360071742
 21
233.89768066840799
 31
0.0
 12
124.7057360071742
 22
234.39768066840799
 32
0.0
 13
124.7057360071742
 23
234.39768066840799
 33
0.0
  0
SOLID
  5
267A
  8
DIM
 10
88.705736007174266
 20
234.89768066840799
 30
0.0
 11
88.705736007174266
 21
233.89768066840799
 31
0.0
 12
85.705736007174266
 22
234.39768066840799
 32
0.0
 13
85.705736007174266
 23
234.39768066840799
 33
0.0
  0
TEXT
  5
267B
  8
0
 10
102.84859315003141
 20
235.39768066840799
 30
0.0
 40
3.0
  1
39
  7
CHINESET
  0
POINT
  5
267C
  8
DEFPOINTS
 62
     0
 10
124.7057360071742
 20
194.88361766078131
 30
0.0
  0
POINT
  5
267D
  8
DEFPOINTS
 62
     0
 10
85.705736007174266
 20
208.88361766078111
 30
0.0
  0
POINT
  5
267E
  8
DEFPOINTS
 62
     0
 10
85.705736007174266
 20
234.39768066840799
 30
0.0
  0
ENDBLK
  5
2419
  8
0
  0
BLOCK
  8
0
  2
*D26
 70
     1
 10
0.0
 20
0.0
 30
0.0
  3
*D26
  1

  0
LINE
  5
26CD
  8
DIM
 10
106.70573600717449
 20
182.88361766078111
 30
0.0
 11
106.70573600717449
 21
164.33778229859209
 31
0.0
  0
LINE
  5
26CE
  8
DIM
 10
105.2057360071742
 20
171.88361766078111
 30
0.0
 11
105.2057360071742
 21
164.33778229859209
 31
0.0
  0
LINE
  5
26CF
  8
DIM
 10
109.70573600717449
 20
166.33778229859209
 30
0.0
 11
112.70573600717449
 21
166.33778229859209
 31
0.0
  0
LINE
  5
26D0
  8
DIM
 10
102.2057360071742
 20
166.33778229859209
 30
0.0
 11
91.491450292888544
 21
166.33778229859209
 31
0.0
  0
LINE
  5
26D1
  8
DIM
 10
106.70573600717449
 20
166.33778229859209
 30
0.0
 11
105.2057360071742
 21
166.33778229859209
 31
0.0
  0
SOLID
  5
26D2
  8
DIM
 10
109.70573600717449
 20
166.83778229859209
 30
0.0
 11
109.70573600717449
 21
165.83778229859209
 31
0.0
 12
106.70573600717449
 22
166.33778229859209
 32
0.0
 13
106.70573600717449
 23
166.33778229859209
 33
0.0
  0
SOLID
  5
26D3
  8
DIM
 10
102.2057360071742
 20
166.83778229859209
 30
0.0
 11
102.2057360071742
 21
165.83778229859209
 31
0.0
 12
105.2057360071742
 22
166.33778229859209
 32
0.0
 13
105.2057360071742
 23
166.33778229859209
 33
0.0
  0
TEXT
  5
26D4
  8
0
 10
92.491450292888544
 20
167.33778229859209
 30
0.0
 40
3.0
  1
1.5
  7
CHINESET
  0
POINT
  5
26D5
  8
DEFPOINTS
 62
     0
 10
106.70573600717449
 20
185.88361766078111
 30
0.0
  0
POINT
  5
26D6
  8
DEFPOINTS
 62
     0
 10
105.2057360071742
 20
174.88361766078111
 30
0.0
  0
POINT
  5
26D7
  8
DEFPOINTS
 62
     0
 10
105.2057360071742
 20
166.33778229859209
 30
0.0
  0
ENDBLK
  5
243F
  8
0
  0
BLOCK
  8
0
  2
*D27
 70
     1
 10
0.0
 20
0.0
 30
0.0
  3
*D27
  1

  0
LINE
  5
266D
  8
DIM
 10
124.7057360071742
 20
197.88361766078131
 30
0.0
 11
124.7057360071742
 21
214.71445608751441
 31
0.0
  0
LINE
  5
266E
  8
DIM
 10
111.7057360071742
 20
198.88361766078131
 30
0.0
 11
111.7057360071742
 21
214.71445608751441
 31
0.0
  0
LINE
  5
266F
  8
DIM
 10
121.7057360071742
 20
212.71445608751441
 30
0.0
 11
114.7057360071742
 21
212.71445608751441
 31
0.0
  0
SOLID
  5
2670
  8
DIM
 10
121.7057360071742
 20
213.21445608751441
 30
0.0
 11
121.7057360071742
 21
212.21445608751441
 31
0.0
 12
124.7057360071742
 22
212.71445608751441
 32
0.0
 13
124.7057360071742
 23
212.71445608751441
 33
0.0
  0
SOLID
  5
2671
  8
DIM
 10
114.7057360071742
 20
213.21445608751441
 30
0.0
 11
114.7057360071742
 21
212.21445608751441
 31
0.0
 12
111.7057360071742
 22
212.71445608751441
 32
0.0
 13
111.7057360071742
 23
212.71445608751441
 33
0.0
  0
TEXT
  5
2672
  8
0
 10
116.0628788643171
 20
213.71445608751441
 30
0.0
 40
3.0
  1
13
  7
CHINESET
  0
POINT
  5
2673
  8
DEFPOINTS
 62
     0
 10
124.7057360071742
 20
194.88361766078131
 30
0.0
  0
POINT
  5
2674
  8
DEFPOINTS
 62
     0
 10
111.7057360071742
 20
195.88361766078131
 30
0.0
  0
POINT
  5
2675
  8
DEFPOINTS
 62
     0
 10
111.7057360071742
 20
212.71445608751441
 30
0.0
  0
ENDBLK
  5
24BE
  8
0
  0
BLOCK
  8
0
  2
*D28
 70
     1
 10
0.0
 20
0.0
 30
0.0
  3
*D28
  1

  0
LINE
  5
269E
  8
DIM
 10
109.70573600717449
 20
196.88361766078111
 30
0.0
 11
136.6063825149742
 21
196.88361766078111
 31
0.0
  0
LINE
  5
269F
  8
DIM
 10
109.70573600717449
 20
186.8836176607816
 30
0.0
 11
136.6063825149742
 21
186.8836176607816
 31
0.0
  0
LINE
  5
26A0
  8
DIM
 10
134.6063825149742
 20
193.88361766078111
 30
0.0
 11
134.6063825149742
 21
189.8836176607816
 31
0.0
  0
SOLID
  5
26A1
  8
DIM
 10
134.1063825149742
 20
193.88361766078111
 30
0.0
 11
135.1063825149742
 21
193.88361766078111
 31
0.0
 12
134.6063825149742
 22
196.88361766078111
 32
0.0
 13
134.6063825149742
 23
196.88361766078111
 33
0.0
  0
SOLID
  5
26A2
  8
DIM
 10
134.1063825149742
 20
189.8836176607816
 30
0.0
 11
135.1063825149742
 21
189.8836176607816
 31
0.0
 12
134.6063825149742
 22
186.8836176607816
 32
0.0
 13
134.6063825149742
 23
186.8836176607816
 33
0.0
  0
INSERT
  5
26A3
  8
0
  2
*U35
 10
0.0
 20
0.0
 30
0.0
  0
POINT
  5
26A4
  8
DEFPOINTS
 62
     0
 10
106.70573600717449
 20
196.88361766078111
 30
0.0
  0
POINT
  5
26A5
  8
DEFPOINTS
 62
     0
 10
106.70573600717449
 20
186.8836176607816
 30
0.0
  0
POINT
  5
26A6
  8
DEFPOINTS
 62
     0
 10
134.6063825149742
 20
186.8836176607816
 30
0.0
  0
ENDBLK
  5
2515
  8
0
  0
BLOCK
  8
0
  2
*D29
 70
     1
 10
0.0
 20
0.0
 30
0.0
  3
*D29
  1

  0
LINE
  5
26A7
  8
DIM
 10
109.20573600717439
 20
198.38361766078111
 30
0.0
 11
144.58193786811549
 21
198.38361766078111
 31
0.0
  0
LINE
  5
26A8
  8
DIM
 10
109.20573600717439
 20
185.38361766078111
 30
0.0
 11
144.58193786811549
 21
185.38361766078111
 31
0.0
  0
LINE
  5
26A9
  8
DIM
 10
142.5819378681156
 20
195.38361766078111
 30
0.0
 11
142.58193786811549
 21
188.38361766078111
 31
0.0
  0
SOLID
  5
26AA
  8
DIM
 10
142.0819378681156
 20
195.38361766078111
 30
0.0
 11
143.0819378681156
 21
195.38361766078111
 31
0.0
 12
142.5819378681156
 22
198.38361766078111
 32
0.0
 13
142.5819378681156
 23
198.38361766078111
 33
0.0
  0
SOLID
  5
26AB
  8
DIM
 10
142.08193786811549
 20
188.38361766078111
 30
0.0
 11
143.08193786811549
 21
188.38361766078111
 31
0.0
 12
142.58193786811549
 22
185.38361766078111
 32
0.0
 13
142.58193786811549
 23
185.38361766078111
 33
0.0
  0
INSERT
  5
26AC
  8
0
  2
*U36
 10
0.0
 20
0.0
 30
0.0
  0
POINT
  5
26AD
  8
DEFPOINTS
 62
     0
 10
106.20573600717439
 20
198.38361766078111
 30
0.0
  0
POINT
  5
26AE
  8
DEFPOINTS
 62
     0
 10
106.20573600717439
 20
185.38361766078111
 30
0.0
  0
POINT
  5
26AF
  8
DEFPOINTS
 62
     0
 10
142.58193786811549
 20
185.38361766078111
 30
0.0
  0
ENDBLK
  5
2522
  8
0
  0
BLOCK
  8
0
  2
*D30
 70
     1
 10
0.0
 20
0.0
 30
0.0
  3
*D30
  1

  0
LINE
  5
26C2
  8
DIM
 10
195.59995745555139
 20
185.88361766078111
 30
0.0
 11
195.59995745555139
 21
160.2868017860369
 31
0.0
  0
LINE
  5
26C3
  8
DIM
 10
187.59995745555139
 20
185.88361766078111
 30
0.0
 11
187.59995745555139
 21
160.2868017860369
 31
0.0
  0
LINE
  5
26C4
  8
DIM
 10
198.59995745555139
 20
162.2868017860369
 30
0.0
 11
201.59995745555139
 21
162.2868017860369
 31
0.0
  0
LINE
  5
26C5
  8
DIM
 10
184.59995745555139
 20
162.2868017860369
 30
0.0
 11
181.59995745555139
 21
162.2868017860369
 31
0.0
  0
LINE
  5
26C6
  8
DIM
 10
195.59995745555139
 20
162.2868017860369
 30
0.0
 11
187.59995745555139
 21
162.2868017860369
 31
0.0
  0
SOLID
  5
26C7
  8
DIM
 10
198.59995745555139
 20
162.7868017860369
 30
0.0
 11
198.59995745555139
 21
161.7868017860369
 31
0.0
 12
195.59995745555139
 22
162.2868017860369
 32
0.0
 13
195.59995745555139
 23
162.2868017860369
 33
0.0
  0
SOLID
  5
26C8
  8
DIM
 10
184.59995745555139
 20
162.7868017860369
 30
0.0
 11
184.59995745555139
 21
161.7868017860369
 31
0.0
 12
187.59995745555139
 22
162.2868017860369
 32
0.0
 13
187.59995745555139
 23
162.2868017860369
 33
0.0
  0
TEXT
  5
26C9
  8
0
 10
190.59995745555139
 20
163.2868017860369
 30
0.0
 40
3.0
  1
8
  7
CHINESET
  0
POINT
  5
26CA
  8
DEFPOINTS
 62
     0
 10
195.59995745555139
 20
188.88361766078111
 30
0.0
  0
POINT
  5
26CB
  8
DEFPOINTS
 62
     0
 10
187.59995745555139
 20
188.88361766078111
 30
0.0
  0
POINT
  5
26CC
  8
DEFPOINTS
 62
     0
 10
187.59995745555139
 20
162.2868017860369
 30
0.0
  0
ENDBLK
  5
2551
  8
0
  0
BLOCK
  8
0
  2
*D31
 70
     1
 10
0.0
 20
0.0
 30
0.0
  3
*D31
  1

  0
LINE
  5
273A
  8
DIM
 10
210.62463399784039
 20
75.521961095830974
 30
0.0
 11
210.62463399784039
 21
44.606166797207948
 31
0.0
  0
LINE
  5
273B
  8
DIM
 10
202.62463399784039
 20
75.521961095830974
 30
0.0
 11
202.62463399784039
 21
44.606166797207948
 31
0.0
  0
LINE
  5
273C
  8
DIM
 10
213.62463399784039
 20
46.606166797207948
 30
0.0
 11
216.62463399784039
 21
46.606166797207948
 31
0.0
  0
LINE
  5
273D
  8
DIM
 10
199.62463399784039
 20
46.606166797207948
 30
0.0
 11
196.62463399784039
 21
46.606166797207948
 31
0.0
  0
LINE
  5
273E
  8
DIM
 10
210.62463399784039
 20
46.606166797207948
 30
0.0
 11
202.62463399784039
 21
46.606166797207948
 31
0.0
  0
SOLID
  5
273F
  8
DIM
 10
213.62463399784039
 20
47.106166797207948
 30
0.0
 11
213.62463399784039
 21
46.106166797207941
 31
0.0
 12
210.62463399784039
 22
46.606166797207948
 32
0.0
 13
210.62463399784039
 23
46.606166797207948
 33
0.0
  0
SOLID
  5
2740
  8
DIM
 10
199.62463399784039
 20
47.106166797207948
 30
0.0
 11
199.62463399784039
 21
46.106166797207941
 31
0.0
 12
202.62463399784039
 22
46.606166797207948
 32
0.0
 13
202.62463399784039
 23
46.606166797207948
 33
0.0
  0
TEXT
  5
2741
  8
0
 10
205.62463399784039
 20
47.606166797207941
 30
0.0
 40
3.0
  1
8
  7
CHINESET
  0
POINT
  5
2742
  8
DEFPOINTS
 62
     0
 10
210.62463399784039
 20
78.521961095830974
 30
0.0
  0
POINT
  5
2743
  8
DEFPOINTS
 62
     0
 10
202.62463399784039
 20
78.521961095830974
 30
0.0
  0
POINT
  5
2744
  8
DEFPOINTS
 62
     0
 10
202.62463399784039
 20
46.606166797207948
 30
0.0
  0
ENDBLK
  5
256B
  8
0
  0
BLOCK
  8
0
  2
*U32
 70
     1
 10
0.0
 20
0.0
 30
0.0
  3
*U32
  1

  0
SOLID
  5
2784
  8
DIM
  6
CONTINUOUS
 10
0.25
 20
0.0
 30
0.0
 11
0.1767766952966369
 21
0.1767766952966369
 31
0.0
 12
0.1767766952966368
 22
-0.1767766952966369
 32
0.0
 13
0.1767766952966368
 23
-0.1767766952966369
 33
0.0
210
0.0
220
0.0
230
1.0
  0
SOLID
  5
2785
  8
DIM
  6
CONTINUOUS
 10
0.0000000000000001
 20
0.25
 30
0.0
 11
0.1767766952966368
 21
-0.1767766952966369
 31
0.0
 12
0.1767766952966369
 22
0.1767766952966369
 32
0.0
 13
0.1767766952966369
 23
0.1767766952966369
 33
0.0
  0
SOLID
  5
2786
  8
DIM
  6
CONTINUOUS
 10
0.1767766952966368
 20
-0.1767766952966369
 30
0.0
 11
0.0000000000000001
 21
0.25
 31
0.0
 12
-0.0000000000000001
 22
-0.25
 32
0.0
 13
-0.0000000000000001
 23
-0.25
 33
0.0
  0
SOLID
  5
2787
  8
DIM
  6
CONTINUOUS
 10
-0.1767766952966368
 20
0.1767766952966369
 30
0.0
 11
-0.0000000000000001
 21
-0.25
 31
0.0
 12
0.0000000000000001
 22
0.25
 32
0.0
 13
0.0000000000000001
 23
0.25
 33
0.0
  0
SOLID
  5
2788
  8
DIM
  6
CONTINUOUS
 10
-0.0000000000000001
 20
-0.25
 30
0.0
 11
-0.1767766952966368
 21
0.1767766952966369
 31
0.0
 12
-0.1767766952966369
 22
-0.1767766952966368
 32
0.0
 13
-0.1767766952966369
 23
-0.1767766952966368
 33
0.0
  0
SOLID
  5
2789
  8
DIM
  6
CONTINUOUS
 10
-0.25
 20
0.0
 30
0.0
 11
-0.1767766952966369
 21
-0.1767766952966368
 31
0.0
 12
-0.1767766952966368
 22
0.1767766952966369
 32
0.0
 13
-0.1767766952966368
 23
0.1767766952966369
 33
0.0
210
0.0
220
0.0
230
1.0
  0
ENDBLK
  5
278B
  8
0
  0
BLOCK
  8
0
  2
*U33
 70
     1
 10
0.0
 20
0.0
 30
0.0
  3
*U33
  1

  0
TEXT
  5
27A2
  8
0
 10
228.32759580293711
 20
126.3865668224397
 30
0.0
 40
3.0
  1
沈孔
  7
CHINESET
  0
TEXT
  5
27A3
  8
0
 10
234.32759580293711
 20
126.3865668224397
 30
0.0
 40
3.0
  1
\U+2205
  7
CHINESET
  0
TEXT
  5
27A4
  8
0
 10
237.04188151722281
 20
126.3865668224397
 30
0.0
 40
3.0
  1
6.5*4.5深
  7
CHINESET
  0
TEXT
  5
27A5
  8
0
 10
228.32759580293711
 20
121.3865668224397
 30
0.0
 40
3.0
  1
M5*0.8*6L
  7
CHINESET
  0
TEXT
  5
27A6
  8
0
 10
228.32759580293711
 20
116.3865668224397
 30
0.0
 40
3.0
  1
\U+2205
  7
CHINESET
  0
TEXT
  5
27A7
  8
0
 10
231.04188151722281
 20
116.3865668224397
 30
0.0
 40
3.0
  1
4.3貫通
  7
CHINESET
  0
ENDBLK
  5
27A9
  8
0
  0
BLOCK
  8
0
  2
*U34
 70
     1
 10
0.0
 20
0.0
 30
0.0
  3
*U34
  1

  0
TEXT
  5
27AB
  8
0
 10
213.30291926064811
 20
236.74822338738991
 30
0.0
 40
3.0
  1
沈孔
  7
CHINESET
  0
TEXT
  5
27AC
  8
0
 10
219.30291926064811
 20
236.74822338738991
 30
0.0
 40
3.0
  1
\U+2205
  7
CHINESET
  0
TEXT
  5
27AD
  8
0
 10
222.01720497493389
 20
236.74822338738991
 30
0.0
 40
3.0
  1
6.5*4.5深
  7
CHINESET
  0
TEXT
  5
27AE
  8
0
 10
213.30291926064811
 20
231.74822338738991
 30
0.0
 40
3.0
  1
M5*0.8*6L
  7
CHINESET
  0
TEXT
  5
27AF
  8
0
 10
213.30291926064811
 20
226.74822338738991
 30
0.0
 40
3.0
  1
\U+2205
  7
CHINESET
  0
TEXT
  5
27B0
  8
0
 10
216.01720497493389
 20
226.74822338738991
 30
0.0
 40
3.0
  1
4.3貫通
  7
CHINESET
  0
ENDBLK
  5
27B2
  8
0
  0
BLOCK
  8
0
  2
*U35
 70
     1
 10
0.0
 20
0.0
 30
0.0
  3
*U35
  1

  0
TEXT
  5
27B4
  8
0
 10
133.6063825149742
 20
188.3836176607814
 30
0.0
 40
3.0
  1
\U+2205
 50
90.0
  7
CHINESET
  0
TEXT
  5
27B5
  8
0
 10
133.6063825149742
 20
191.09790337506709
 30
0.0
 40
3.0
  1
10
 50
90.0
  7
CHINESET
  0
ENDBLK
  5
27B7
  8
0
  0
BLOCK
  8
0
  2
*U36
 70
     1
 10
0.0
 20
0.0
 30
0.0
  3
*U36
  1

  0
TEXT
  5
27B9
  8
0
 10
141.58193786811549
 20
188.38361766078111
 30
0.0
 40
3.0
  1
\U+2205
 50
90.0
  7
CHINESET
  0
TEXT
  5
27BA
  8
0
 10
141.58193786811549
 20
191.09790337506689
 30
0.0
 40
3.0
  1
13
 50
90.0
  7
CHINESET
  0
ENDBLK
  5
27BC
  8
0
  0
BLOCK
  8
0
  2
*U37
 70
     1
 10
0.0
 20
0.0
 30
0.0
  3
*U37
  1

  0
TEXT
  5
27BE
  8
0
 10
141.6736632050642
 20
78.021961095831003
 30
0.0
 40
3.0
  1
\U+2205
 50
90.0
  7
CHINESET
  0
TEXT
  5
27BF
  8
0
 10
141.6736632050642
 20
80.736246810116697
 30
0.0
 40
3.0
  1
13
 50
90.0
  7
CHINESET
  0
ENDBLK
  5
27C1
  8
0
  0
BLOCK
  8
0
  2
*U38
 70
     1
 10
0.0
 20
0.0
 30
0.0
  3
*U38
  1

  0
TEXT
  5
27C3
  8
0
 10
134.01632236581659
 20
78.02196109583123
 30
0.0
 40
3.0
  1
\U+2205
 50
90.0
  7
CHINESET
  0
TEXT
  5
27C4
  8
0
 10
134.01632236581659
 20
80.736246810116924
 30
0.0
 40
3.0
  1
10
 50
90.0
  7
CHINESET
  0
ENDBLK
  5
27C6
  8
0
  0
ENDSEC
  0
SECTION
  2
ENTITIES
  0
LINE
  5
17B4
  8
0
 62
     4
 10
271.62778414727939
 20
34.879980365997589
 30
0.0
 11
271.62778414727939
 21
264.38087271228392
 31
0.0
  0
LINE
  5
17B5
  8
0
 62
     4
 10
54.833550574099029
 20
34.879980365997568
 30
0.0
 11
54.833550574099029
 21
264.38087271228392
 31
0.0
  0
TEXT
  5
17BD
  8
LOGO
  6
CONTINUOUS
 62
     7
 10
185.6350073594964
 20
25.441735183835501
 30
0.0
 40
4.6925158782073693
  1
11/12
  7
CHINESET
 72
     1
 11
195.02003911591109
 21
27.787993122939181
 31
0.0
 73
     2
  0
TEXT
  5
17BE
  8
LOGO
 62
     6
 10
187.55111800976439
 20
14.32897775608466
 30
0.0
 40
3.7540127025658951
  1
作動型式
  7
CHINESET
 72
     4
 11
195.02003911591109
 21
16.10991685316808
 31
0.0
  0
LINE
  5
17BF
  8
0
 62
     4
 10
271.62778414727939
 20
155.38485757422109
 30
0.0
 11
54.833550574099029
 21
155.3848575742212
 31
0.0
  0
LINE
  5
17C1
  8
LOGO
 62
     1
 10
271.62778414727939
 20
6.7248850967533498
 30
0.0
 11
54.833550574099029
 21
6.7248850967533498
 31
0.0
  0
LINE
  5
17C2
  8
LOGO
 62
     1
 10
271.62778414727939
 20
34.879980365997568
 30
0.0
 11
54.833550574099029
 21
34.879980365997568
 31
0.0
  0
TEXT
  5
17C3
  8
LOGO
  6
CONTINUOUS
 62
     6
 10
184.96464794832389
 20
10.63531499525949
 30
0.0
 40
2.3462579391036842
  1
Acting type
  7
CHINESET
 72
     4
 11
195.02003911591109
 21
11.417400974960721
 31
0.0
  0
LINE
  5
17C4
  8
LOGO
 62
     6
 10
205.36957247097729
 20
23.61794225829987
 30
0.0
 11
184.67050576084489
 21
23.61794225829987
 31
0.0
  0
LINE
  5
17C5
  8
LOGO
 62
     6
 10
205.36957247097729
 20
19.39467796791325
 30
0.0
 11
184.67050576084489
 21
19.39467796791325
 31
0.0
  0
LINE
  5
17C6
  8
LOGO
 62
     6
 10
205.36957247097729
 20
9.0711430358570322
 30
0.0
 11
184.67050576084489
 21
9.0711430358570126
 31
0.0
  0
LINE
  5
17C7
  8
LOGO
 62
     6
 10
205.36957247097729
 20
32.064470839073202
 30
0.0
 11
184.67050576084489
 21
32.064470839073138
 31
0.0
  0
TEXT
  5
17C8
  8
LOGO
 62
     6
 10
79.06159661776843
 20
19.394677967913239
 30
0.0
 40
2.815509526924421
  1
單位 Unit:
 41
0.9
  7
CHINESET
 72
     4
 11
86.742658545909109
 21
20.802432731375461
 31
0.0
  0
TEXT
  5
17C9
  8
LOGO
 62
     6
 10
78.786330284555731
 20
25.065301671029442
 30
0.0
 40
2.815509526924421
  1
投影 View:
 41
0.9
  7
CHINESET
 72
     4
 11
86.742658545909109
 21
26.4334517852243
 31
0.0
  0
TEXT
  5
17CA
  8
LOGO
 62
     6
 10
77.802158874028137
 20
30.65810166100804
 30
0.0
 40
2.815509526924421
  1
比例 Scale:
 41
0.9
  7
CHINESET
 72
     4
 11
86.742658545909109
 21
32.064470839073138
 31
0.0
  0
TEXT
  5
17CB
  8
LOGO
  6
CONTINUOUS
 62
     5
 10
55.755114379623222
 20
12.25591107265285
 30
0.0
 40
4.2232642903866324
  1
金器工業股份有限公司
 41
0.8
  7
LOGO
  0
TEXT
  5
17CC
  8
LOGO
  6
CONTINUOUS
 62
     5
 10
56.964402549375031
 20
8.0318193535820157
 30
0.0
 40
2.815509526924421
  1
MINDMAN INDUSTRIAL CO.,LTD
 41
0.85
  7
CHINESET
  0
LINE
  5
17CD
  8
LOGO
 62
     1
 10
116.7747601664362
 20
17.98692320445106
 30
0.0
 11
54.833550574099029
 21
17.98692320445106
 31
0.0
  0
LINE
  5
17CE
  8
LOGO
 62
     1
 10
116.7747601664362
 20
23.61794225829987
 30
0.0
 11
75.480620438211417
 21
23.61794225829987
 31
0.0
  0
LINE
  5
17CF
  8
LOGO
 62
     1
 10
116.7747601664362
 20
29.248961312148719
 30
0.0
 11
75.480620438211417
 21
29.248961312148719
 31
0.0
  0
SOLID
  5
17D0
  8
LOGO
 62
     2
 10
58.972039334246482
 20
22.667307036739121
 30
0.0
 11
59.475771378580561
 21
22.667307036739519
 31
0.0
 12
65.268689888412922
 22
34.211166386043672
 32
0.0
 13
65.772421932746653
 23
34.211166386043672
 33
0.0
  0
SOLID
  5
17D1
  8
LOGO
 62
     5
 10
59.475771378580561
 20
22.667307036739519
 30
0.0
 11
60.693123819052481
 21
22.667307036739519
 31
0.0
 12
65.268689888412922
 22
33.28765763809966
 32
0.0
 13
64.051337447940995
 23
28.824032023034931
 33
0.0
  0
SOLID
  5
17D2
  8
LOGO
 62
     5
 10
57.754686893774469
 20
22.667307036739519
 30
0.0
 11
58.972039334246482
 21
22.667307036739121
 31
0.0
 12
64.051337447940995
 22
34.211166386044468
 32
0.0
 13
65.268689888412922
 23
34.211166386043672
 33
0.0
  0
LINE
  5
17D3
  8
LOGO
 62
     1
 10
54.833550574099029
 20
6.7248850967533498
 30
0.0
 11
54.833550574099029
 21
34.879980365997568
 31
0.0
  0
SOLID
  5
17D4
  8
LOGO
 62
     5
 10
55.802972400311248
 20
18.46954000062896
 30
0.0
 11
56.222749103922837
 21
18.46954000062896
 31
0.0
 12
57.404872974098851
 22
20.56842351868405
 32
0.0
 13
57.824649677709623
 23
20.56842351868405
 33
0.0
  0
SOLID
  5
17D5
  8
LOGO
 62
     5
 10
59.006773547886901
 20
20.56842351868405
 30
0.0
 11
59.426550251497581
 21
20.56842351868405
 31
0.0
 12
59.006773547886901
 22
18.46954000062896
 32
0.0
 13
59.426550251497581
 23
18.46954000062896
 33
0.0
  0
SOLID
  5
17D6
  8
LOGO
 62
     5
 10
57.404872974098851
 20
18.46954000062896
 30
0.0
 11
57.824649677709623
 21
18.46954000062896
 31
0.0
 12
59.006773547886901
 22
20.56842351868405
 32
0.0
 13
59.426550251497581
 23
20.56842351868405
 33
0.0
  0
SOLID
  5
17D7
  8
LOGO
 62
     5
 10
57.404872974098851
 20
20.56842351868405
 30
0.0
 11
57.824649677709623
 21
20.56842351868405
 31
0.0
 12
57.404872974098851
 22
18.46954000062896
 32
0.0
 13
57.824649677709623
 23
18.46954000062896
 33
0.0
  0
SOLID
  5
17D8
  8
LOGO
 62
     5
 10
62.092323527528649
 20
19.728870111461841
 30
0.0
 11
62.512100231140053
 21
19.728870111461841
 31
0.0
 12
62.092323527528649
 22
18.46954000062896
 32
0.0
 13
62.512100231140053
 23
18.46954000062896
 33
0.0
  0
SOLID
  5
17D9
  8
LOGO
 62
     5
 10
60.832993416695793
 20
20.56842351868405
 30
0.0
 11
61.252770120306472
 21
20.56842351868405
 31
0.0
 12
60.832993416695793
 22
18.46954000062896
 32
0.0
 13
61.252770120306472
 23
18.46954000062896
 33
0.0
  0
POLYLINE
  5
17DA
  8
LOGO
 62
     5
 66
     1
 10
0.0
 20
0.0
 30
0.0
 40
0.4204494226873803
 41
0.4204494226873803
  0
VERTEX
  5
278C
  8
LOGO
 62
     5
 10
62.303220957948731
 20
19.728870111461841
 30
0.0
 42
1.0
  0
VERTEX
  5
278D
  8
LOGO
 62
     5
 10
61.041872689886567
 20
19.728870111461841
 30
0.0
 42
1.0
  0
SEQEND
  5
278E
  8
LOGO
 62
     5
  0
SOLID
  5
17DB
  8
LOGO
 62
     5
 10
59.923463232981227
 20
20.56842351868405
 30
0.0
 11
60.343239936593179
 21
20.56842351868405
 31
0.0
 12
59.923463232981227
 22
18.469540000628161
 32
0.0
 13
60.343239936593179
 23
18.46954000062896
 33
0.0
  0
SOLID
  5
17DC
  8
LOGO
 62
     5
 10
59.923463232981227
 20
20.862267211211599
 30
0.0
 11
60.343239936593179
 21
20.862267211211599
 31
0.0
 12
59.923463232981227
 22
21.198088574100879
 32
0.0
 13
60.343239936593179
 23
21.198088574100879
 33
0.0
  0
LINE
  5
17DD
  8
LOGO
 62
     1
 10
75.480620438211417
 20
17.986923204451038
 30
0.0
 11
75.480620438211417
 21
34.879980365997568
 31
0.0
  0
POLYLINE
  5
17DE
  8
LOGO
 62
     5
 66
     1
 10
0.0
 20
0.0
 30
0.0
 70
     1
 40
0.4204494226873803
 41
0.4204494226873803
  0
VERTEX
  5
278F
  8
LOGO
 62
     5
 10
69.227266006105026
 20
19.518981759656288
 30
0.0
 42
1.0
  0
VERTEX
  5
2790
  8
LOGO
 62
     5
 10
70.909063696854531
 20
19.518981759656288
 30
0.0
 42
1.0
  0
SEQEND
  5
2791
  8
LOGO
 62
     5
  0
CIRCLE
  5
17DF
  8
LOGO
 62
     5
 10
70.068164851479992
 20
19.518981759656501
 30
0.0
 40
0.629665055416621
  0
POLYLINE
  5
17E0
  8
LOGO
 62
     5
 66
     1
 10
0.0
 20
0.0
 30
0.0
 70
     1
  0
VERTEX
  5
2792
  8
LOGO
 62
     5
 10
69.438499796063297
 20
19.518981759656501
 30
0.0
 42
1.0000000573306349
  0
VERTEX
  5
2793
  8
LOGO
 62
     5
 10
70.697829906896786
 20
19.518981759656501
 30
0.0
 42
1.0000000573306349
  0
SEQEND
  5
2794
  8
LOGO
 62
     5
  0
POLYLINE
  5
17E1
  8
LOGO
 62
     5
 66
     1
 10
0.0
 20
0.0
 30
0.0
 40
0.4204494226873803
 41
0.4204494226873803
  0
VERTEX
  5
2795
  8
LOGO
 62
     5
 10
67.060718250654872
 20
19.728870111461841
 30
0.0
 42
1.0
  0
VERTEX
  5
2796
  8
LOGO
 62
     5
 10
65.799369982592623
 20
19.728870111461841
 30
0.0
 42
1.0
  0
SEQEND
  5
2797
  8
LOGO
 62
     5
  0
SOLID
  5
17E2
  8
LOGO
 62
     5
 10
65.590490709401934
 20
20.56842351868405
 30
0.0
 11
66.010267413012713
 21
20.56842351868405
 31
0.0
 12
65.590490709401934
 22
18.46954000062896
 32
0.0
 13
66.010267413012713
 23
18.46954000062896
 33
0.0
  0
SOLID
  5
17E3
  8
LOGO
 62
     5
 10
64.680960525687453
 20
21.198088574100879
 30
0.0
 11
65.100737229298133
 21
21.198088574100879
 31
0.0
 12
64.680960525687453
 22
18.46954000062896
 32
0.0
 13
65.100737229298133
 23
18.46954000062896
 33
0.0
  0
POLYLINE
  5
17E4
  8
LOGO
 62
     5
 66
     1
 10
0.0
 20
0.0
 30
0.0
 70
     1
 40
0.4204494226873803
 41
0.4204494226873803
  0
VERTEX
  5
2798
  8
LOGO
 62
     5
 10
63.21043860256593
 20
19.518981759656288
 30
0.0
 42
1.0
  0
VERTEX
  5
2799
  8
LOGO
 62
     5
 10
64.892236293315449
 20
19.518981759656288
 30
0.0
 42
1.0
  0
SEQEND
  5
279A
  8
LOGO
 62
     5
  0
SOLID
  5
17E5
  8
LOGO
 62
     5
 10
68.10915093106783
 20
19.728870111461841
 30
0.0
 11
68.52892763467851
 21
19.728870111461841
 31
0.0
 12
68.10915093106783
 22
18.469540000628161
 32
0.0
 13
68.52892763467851
 23
18.469540000628161
 33
0.0
  0
SOLID
  5
17E6
  8
LOGO
 62
     5
 10
66.849820820234882
 20
19.728870111461841
 30
0.0
 11
67.269597523845562
 21
19.728870111461841
 31
0.0
 12
66.849820820234882
 22
18.46954000062896
 32
0.0
 13
67.269597523845562
 23
18.46954000062896
 33
0.0
  0
POLYLINE
  5
17E7
  8
LOGO
 62
     5
 66
     1
 10
0.0
 20
0.0
 30
0.0
 40
0.4204494226873803
 41
0.4204494226873803
  0
VERTEX
  5
279B
  8
LOGO
 62
     5
 10
68.320048361487721
 20
19.728870111461841
 30
0.0
 42
1.0
  0
VERTEX
  5
279C
  8
LOGO
 62
     5
 10
67.058700093425571
 20
19.728870111461841
 30
0.0
 42
1.0
  0
SEQEND
  5
279D
  8
LOGO
 62
     5
  0
POLYLINE
  5
17E8
  8
LOGO
 62
     5
 66
     1
 10
0.0
 20
0.0
 30
0.0
 40
0.4204494226873803
 41
0.4204494226873803
  0
VERTEX
  5
279E
  8
LOGO
 62
     5
 10
73.077545654193955
 20
19.728870111461841
 30
0.0
 42
1.0
  0
VERTEX
  5
279F
  8
LOGO
 62
     5
 10
71.816197386131805
 20
19.728870111461841
 30
0.0
 42
1.0
  0
SEQEND
  5
27A0
  8
LOGO
 62
     5
  0
SOLID
  5
17E9
  8
LOGO
 62
     5
 10
71.607318112940206
 20
18.46954000062896
 30
0.0
 11
72.02709481655171
 21
18.46954000062896
 31
0.0
 12
71.607318112940206
 22
20.56842351868405
 32
0.0
 13
72.02709481655171
 23
20.56842351868405
 33
0.0
  0
SOLID
  5
17EA
  8
LOGO
 62
     5
 10
70.697787929227005
 20
20.56842351868405
 30
0.0
 11
71.117564632837684
 21
20.56842351868405
 31
0.0
 12
70.697787929227005
 22
18.46954000062896
 32
0.0
 13
71.117564632837684
 23
18.46954000062896
 33
0.0
  0
SOLID
  5
17EB
  8
LOGO
 62
     5
 10
72.866648223773979
 20
19.728870111461841
 30
0.0
 11
73.286424927384644
 21
19.728870111461781
 31
0.0
 12
72.866648223773979
 22
18.46954000062896
 32
0.0
 13
73.286424927384644
 23
18.46954000062896
 33
0.0
  0
LINE
  5
17EC
  8
LOGO
 62
     5
 10
73.286424927384644
 20
18.46954000062896
 30
0.0
 11
73.286424927384644
 21
19.728870111461841
 31
0.0
  0
SOLID
  5
17ED
  8
LOGO
 62
     2
 10
71.565340442579014
 20
34.211166386044468
 30
0.0
 11
72.069072486912631
 21
34.211166386043672
 31
0.0
 12
71.565340442579014
 22
22.667307036739121
 32
0.0
 13
72.069072486912631
 23
22.667307036739121
 33
0.0
  0
SOLID
  5
17EE
  8
LOGO
 62
     5
 10
72.069072486912631
 20
22.667307036739121
 30
0.0
 11
73.286424927384644
 21
22.667307036739121
 31
0.0
 12
72.069072486912631
 22
34.211166386043672
 32
0.0
 13
73.286424927384644
 23
34.211166386044468
 33
0.0
  0
SOLID
  5
17EF
  8
LOGO
 62
     5
 10
71.565340442579014
 20
33.28765763809966
 30
0.0
 11
70.347988002106902
 21
28.824032023034931
 31
0.0
 12
71.565340442579014
 22
22.667307036739121
 32
0.0
 13
70.347988002106902
 23
22.667307036739121
 33
0.0
  0
SOLID
  5
17F0
  8
LOGO
 62
     2
 10
65.268689888412922
 20
34.211166386043672
 30
0.0
 11
65.772421932746653
 21
34.211166386043672
 31
0.0
 12
65.268689888412922
 22
22.667307036739519
 32
0.0
 13
65.772421932746653
 23
22.667307036739519
 33
0.0
  0
SOLID
  5
17F1
  8
LOGO
 62
     5
 10
65.772421932746653
 20
34.211166386043672
 30
0.0
 11
66.989774373218481
 21
34.211166386044468
 31
0.0
 12
65.772421932746653
 22
23.590815784683532
 32
0.0
 13
66.989774373218481
 23
28.054441399748271
 33
0.0
  0
SOLID
  5
17F2
  8
LOGO
 62
     5
 10
64.051337447940995
 20
22.667307036739519
 30
0.0
 11
65.268689888412922
 21
22.667307036739519
 31
0.0
 12
64.051337447940995
 22
28.824032023034931
 32
0.0
 13
65.268689888412922
 23
33.28765763809966
 33
0.0
  0
SOLID
  5
17F3
  8
LOGO
 62
     2
 10
65.268689888412922
 20
22.667307036739519
 30
0.0
 11
65.772421932746653
 21
22.667307036739519
 31
0.0
 12
71.565340442579014
 22
34.211166386044468
 32
0.0
 13
72.069072486912631
 23
34.211166386043672
 33
0.0
  0
SOLID
  5
17F4
  8
LOGO
 62
     5
 10
65.772421932746653
 20
22.667307036739519
 30
0.0
 11
66.989774373218481
 21
22.667307036739519
 31
0.0
 12
71.565340442579014
 22
33.28765763809966
 32
0.0
 13
70.347988002106902
 23
28.824032023034931
 33
0.0
  0
SOLID
  5
17F5
  8
LOGO
 62
     5
 10
65.772421932746653
 20
23.590815784683532
 30
0.0
 11
66.989774373218481
 21
28.054441399748271
 31
0.0
 12
71.565340442579014
 22
34.211166386044468
 32
0.0
 13
70.347988002106902
 23
34.211166386044468
 33
0.0
  0
TEXT
  5
17F6
  8
LOGO
 62
     7
 10
119.07939234184261
 20
27.830584835391459
 30
0.0
 40
5.631019053848842
  1
訂購代號:
  7
CHINESET
  0
TEXT
  5
17F7
  8
LOGO
 62
     7
 10
118.4058914185803
 20
22.54571222842679
 30
0.0
 40
3.7540127025658951
  1
Order example:
 41
0.8
  7
CHINESET
  0
LINE
  5
17F8
  8
LOGO
 62
     1
 10
98.004696653606828
 20
17.986923204451038
 30
0.0
 11
98.004696653606828
 21
34.879980365997568
 31
0.0
  0
TEXT
  5
17F9
  8
LOGO
 62
     6
 10
102.22842518416731
 20
19.394677967913239
 30
0.0
 40
2.815509526924421
  1
m/m
  7
CHINESET
 72
     1
 11
107.1890848268436
 21
20.802432731375461
 31
0.0
 73
     2
  0
CIRCLE
  5
17FA
  8
LOGO
  6
CONTINUOUS
 62
     6
 10
103.21796470107221
 20
26.439474180705758
 30
0.0
 40
1.6347511009562441
  0
TEXT
  5
17FB
  8
LOGO
 62
     6
 10
102.22842518416731
 20
30.65671607561093
 30
0.0
 40
2.815509526924421
  1
1 : 1
  7
CHINESET
 72
     1
 11
107.1890848268436
 21
32.064470839073138
 31
0.0
 73
     2
  0
LINE
  5
17FC
  8
LOGO
  6
CONTINUOUS
 62
     6
 10
108.36607944567029
 20
25.481654751872529
 30
0.0
 11
113.49093030797761
 21
24.804723079749529
 31
0.0
  0
LINE
  5
17FD
  8
LOGO
  6
CONTINUOUS
 62
     6
 10
108.36607944567029
 20
27.397293609539009
 30
0.0
 11
113.49093030797761
 21
28.074225281662009
 31
0.0
  0
LINE
  5
17FE
  8
LOGO
 62
     6
 10
108.36607944567039
 20
25.481654751872529
 30
0.0
 11
108.36607944567029
 21
27.39729360953903
 31
0.0
  0
CIRCLE
  5
17FF
  8
LOGO
  6
CONTINUOUS
 62
     6
 10
103.21796470107221
 20
26.439474180705758
 30
0.0
 40
0.9578194288332461
  0
LINE
  5
1800
  8
LOGO
 62
     6
 10
113.49093030797761
 20
24.804723079749529
 30
0.0
 11
113.49093030797761
 21
28.074225281662009
 31
0.0
  0
LINE
  5
1801
  8
LOGO
 62
     1
 10
116.7747601664362
 20
6.7248850967533498
 30
0.0
 11
116.7747601664362
 21
34.879980365997568
 31
0.0
  0
LINE
  5
1802
  8
LOGO
 62
     6
 10
176.1479139868309
 20
19.39467796791325
 30
0.0
 11
157.37785047400141
 21
19.39467796791325
 31
0.0
  0
TEXT
  5
1803
  8
LOGO
  6
CONTINUOUS
 62
     7
 10
158.38338959076009
 20
25.494948609582831
 30
0.0
 40
4.6925158782073693
  1
MCJT
  7
CHINESET
 72
     1
 11
166.7628822304161
 21
27.841206548686511
 31
0.0
 73
     2
  0
LINE
  5
1804
  8
LOGO
 62
     6
 10
176.1479139868309
 20
9.0711430358570322
 30
0.0
 11
157.37785047400141
 21
9.0711430358570126
 31
0.0
  0
TEXT
  5
1805
  8
LOGO
  6
CONTINUOUS
 62
     6
 10
162.29381948926621
 20
10.24427200540887
 30
0.0
 40
2.3462579391036842
  1
Model
  7
CHINESET
 72
     4
 11
166.7628822304161
 21
11.417400974960721
 31
0.0
  0
TEXT
  5
1806
  8
LOGO
 62
     6
 10
163.00886952785021
 20
14.328977756084649
 30
0.0
 40
3.7540127025658951
  1
型式
  7
CHINESET
 72
     4
 11
166.7628822304161
 21
16.10991685316808
 31
0.0
  0
LINE
  5
1807
  8
LOGO
 62
     6
 10
178.02492033811379
 20
23.61794225829987
 30
0.0
 11
155.50084412271849
 21
23.61794225829987
 31
0.0
  0
LINE
  5
1808
  8
LOGO
 62
     6
 10
178.02492033811379
 20
32.064470839073138
 30
0.0
 11
155.50084412271849
 21
32.064470839073138
 31
0.0
  0
LINE
  5
1809
  8
LOGO
 62
     6
 10
166.7628822304161
 20
23.61794225829987
 30
0.0
 11
166.7628822304161
 21
19.39467796791325
 31
0.0
  0
LINE
  5
180A
  8
LOGO
 62
     6
 10
157.37785047400141
 20
19.39467796791325
 30
0.0
 11
157.37785047400141
 21
9.0711430358570126
 31
0.0
  0
LINE
  5
180B
  8
LOGO
 62
     6
 10
155.50084412271849
 20
32.064470839073138
 30
0.0
 11
155.50084412271849
 21
23.61794225829987
 31
0.0
  0
LINE
  5
180C
  8
LOGO
 62
     6
 10
176.1479139868309
 20
19.39467796791325
 30
0.0
 11
176.1479139868309
 21
9.0711430358570322
 31
0.0
  0
LINE
  5
180D
  8
LOGO
 62
     6
 10
184.67050576084489
 20
19.39467796791325
 30
0.0
 11
184.67050576084489
 21
9.0711430358570322
 31
0.0
  0
LINE
  5
180E
  8
LOGO
  6
CONTINUOUS
 62
     7
 10
179.480130273974
 20
27.811287609586369
 30
0.0
 11
183.20980909511039
 21
27.811287609586369
 31
0.0
  0
LINE
  5
180F
  8
LOGO
 62
     6
 10
178.0249203381139
 20
32.064470839073138
 30
0.0
 11
178.0249203381139
 21
23.61794225829987
 31
0.0
  0
LINE
  5
1810
  8
LOGO
 62
     6
 10
184.67050576084489
 20
32.064470839073138
 30
0.0
 11
184.67050576084489
 21
23.61794225829987
 31
0.0
  0
TEXT
  5
1811
  8
0
 10
82.869027583875535
 20
144.90984200328521
 30
0.0
 40
4.0
  1
MCJT-12-%%C20
  7
CHINESET
  0
TEXT
  5
1812
  8
0
 10
82.378098626288207
 20
136.62090725290039
 30
0.0
 40
5.0
  1
stroke=0mm
  7
CHINESET
  0
LINE
  5
1868
  8
LOGO
 62
     6
 10
249.36276931677369
 20
32.064470839073138
 30
0.0
 11
233.728790972723
 21
32.064470839073138
 31
0.0
  0
LINE
  5
1869
  8
LOGO
 62
     6
 10
249.36276931677369
 20
23.61794225829987
 30
0.0
 11
233.728790972723
 21
23.61794225829987
 31
0.0
  0
LINE
  5
186A
  8
LOGO
 62
     6
 10
248.42426614113219
 20
19.39467796791325
 30
0.0
 11
234.66729414836439
 21
19.39467796791325
 31
0.0
  0
LINE
  5
186B
  8
LOGO
 62
     6
 10
248.42426614113219
 20
9.0711430358570322
 30
0.0
 11
234.66729414836439
 21
9.0711430358570126
 31
0.0
  0
LINE
  5
186C
  8
LOGO
 62
     6
 10
227.0832055499919
 20
23.61794225829993
 30
0.0
 11
212.01515789370831
 21
23.61794225829993
 31
0.0
  0
LINE
  5
186D
  8
LOGO
 62
     6
 10
227.0832055499919
 20
19.394677967913289
 30
0.0
 11
212.01515789370831
 21
19.394677967913289
 31
0.0
  0
LINE
  5
186E
  8
LOGO
 62
     6
 10
227.0832055499919
 20
32.064470839073259
 30
0.0
 11
212.01515789370831
 21
32.064470839073202
 31
0.0
  0
TEXT
  5
186F
  8
LOGO
  6
CONTINUOUS
 62
     7
 10
216.18844666137591
 20
25.441735183835551
 30
0.0
 40
4.6925158782073693
  1
20
  7
CHINESET
 72
     1
 11
219.98714999135331
 21
27.787993122939231
 31
0.0
 73
     2
  0
LINE
  5
1870
  8
LOGO
 62
     6
 10
227.0832055499919
 20
9.0711430358570908
 30
0.0
 11
212.01515789370831
 21
9.0711430358570588
 31
0.0
  0
TEXT
  5
1871
  8
LOGO
  6
CONTINUOUS
 62
     6
 10
216.64429094010279
 20
10.244272005408909
 30
0.0
 40
2.3462579391036842
  1
Bore
 41
0.8
  7
CHINESET
 72
     4
 11
219.5491817218502
 21
11.417400974960749
 31
0.0
  0
TEXT
  5
1872
  8
LOGO
 62
     6
 10
215.9594070750216
 20
14.23291050188517
 30
0.0
 40
3.7540127025658951
  1
內徑
 41
0.9
  7
CHINESET
 72
     4
 11
219.5491817218502
 21
16.109916853168119
 31
0.0
  0
LINE
  5
1873
  8
LOGO
 62
     6
 10
219.54918150544589
 20
23.61794225829993
 30
0.0
 11
219.54918150544589
 21
19.394677967913289
 31
0.0
  0
LINE
  5
1874
  8
LOGO
 62
     6
 10
195.02003911591109
 20
23.61794225829987
 30
0.0
 11
195.02003911591109
 21
19.39467796791325
 31
0.0
  0
LINE
  5
1875
  8
LOGO
 62
     6
 10
205.36957247097729
 20
19.39467796791325
 30
0.0
 11
205.36957247097729
 21
9.0711430358570588
 31
0.0
  0
LINE
  5
1876
  8
LOGO
 62
     6
 10
212.01515789370831
 20
19.394677967913289
 30
0.0
 11
212.01515789370831
 21
9.0711430358570908
 31
0.0
  0
LINE
  5
1877
  8
LOGO
 62
     6
 10
205.36957247097729
 20
32.064470839073202
 30
0.0
 11
205.36957247097729
 21
23.61794225829987
 31
0.0
  0
LINE
  5
1878
  8
LOGO
 62
     6
 10
212.01515789370831
 20
32.064470839073202
 30
0.0
 11
212.01515789370831
 21
23.61794225829993
 31
0.0
  0
LINE
  5
1879
  8
LOGO
  6
CONTINUOUS
 62
     7
 10
206.82478240683739
 20
27.811287609586419
 30
0.0
 11
210.55446122797389
 21
27.811287609586419
 31
0.0
  0
LINE
  5
187A
  8
LOGO
 62
     6
 10
241.74454659587681
 20
23.61794225829987
 30
0.0
 11
241.74454659587681
 21
19.39467796791325
 31
0.0
  0
LINE
  5
187B
  8
LOGO
 62
     6
 10
227.0832055499919
 20
19.394677967913289
 30
0.0
 11
227.0832055499919
 21
9.0711430358571157
 31
0.0
  0
LINE
  5
187C
  8
LOGO
 62
     6
 10
234.66729414836439
 20
19.39467796791325
 30
0.0
 11
234.66729414836439
 21
9.0711430358570126
 31
0.0
  0
TEXT
  5
187D
  8
LOGO
  6
CONTINUOUS
 62
     6
 10
237.30017054065601
 20
10.244272005408851
 30
0.0
 40
2.3462579391036842
  1
Stroke
 41
0.8
  7
CHINESET
 72
     4
 11
241.54578014474831
 21
11.417400974960691
 31
0.0
  0
TEXT
  5
187E
  8
LOGO
 62
     6
 10
238.16716871243909
 20
14.23291050188511
 30
0.0
 40
3.7540127025658951
  1
行程
 41
0.9
  7
CHINESET
 72
     4
 11
241.54578014474831
 21
16.109916853168059
 31
0.0
  0
LINE
  5
187F
  8
LOGO
 62
     6
 10
227.0832055499919
 20
32.064470839073259
 30
0.0
 11
227.0832055499919
 21
23.61794225829993
 31
0.0
  0
LINE
  5
1880
  8
LOGO
  6
CONTINUOUS
 62
     7
 10
228.53841548585211
 20
27.811287609586469
 30
0.0
 11
232.26809430698859
 21
27.811287609586469
 31
0.0
  0
LINE
  5
1881
  8
LOGO
 62
     6
 10
233.728790972723
 20
32.064470839073138
 30
0.0
 11
233.728790972723
 21
23.61794225829987
 31
0.0
  0
TEXT
  5
1882
  8
LOGO
  6
CONTINUOUS
 62
     7
 10
240.75475616043531
 20
25.441735183835501
 30
0.0
 40
4.6925158782073693
  1
?
  7
CHINESET
 72
     1
 11
241.98374841425149
 21
27.787993122939181
 31
0.0
 73
     2
  0
LINE
  5
1883
  8
LOGO
 62
     6
 10
257.48181441080681
 20
23.61794225829987
 30
0.0
 11
257.48181441080681
 21
19.39467796791325
 31
0.0
  0
LINE
  5
1884
  8
LOGO
 62
     1
 10
271.62778414727939
 20
6.7248850967533498
 30
0.0
 11
271.62778414727939
 21
34.879980365997568
 31
0.0
  0
LINE
  5
1885
  8
LOGO
 62
     6
 10
264.36030040719072
 20
9.0711430358570322
 30
0.0
 11
250.60332841442289
 21
9.0711430358570126
 31
0.0
  0
LINE
  5
1886
  8
LOGO
 62
     6
 10
264.36030040719072
 20
19.39467796791325
 30
0.0
 11
250.60332841442289
 21
19.39467796791325
 31
0.0
  0
TEXT
  5
1887
  8
LOGO
  6
CONTINUOUS
 62
     6
 10
252.02955786660391
 20
10.244272005408851
 30
0.0
 40
2.3462579391036842
  1
MAGNET
 41
0.8
  7
CHINESET
 72
     4
 11
257.48181441080681
 21
11.417400974960691
 31
0.0
  0
TEXT
  5
1888
  8
LOGO
 62
     6
 10
252.4138972623428
 20
14.272014800870171
 30
0.0
 40
3.7540127025658951
  1
附磁石
 41
0.9
  7
CHINESET
 72
     4
 11
257.48181441080681
 21
16.109916853168059
 31
0.0
  0
LINE
  5
1889
  8
LOGO
 62
     6
 10
250.60332841442289
 20
19.39467796791325
 30
0.0
 11
250.60332841442289
 21
9.0711430358570126
 31
0.0
  0
LINE
  5
188A
  8
LOGO
 62
     6
 10
248.42426614113219
 20
19.39467796791325
 30
0.0
 11
248.42426614113219
 21
9.0322164638539348
 31
0.0
  0
LINE
  5
188B
  8
LOGO
 62
     6
 10
264.36030040719072
 20
19.39467796791325
 30
0.0
 11
264.36030040719072
 21
9.0322164638539348
 31
0.0
  0
TEXT
  5
188C
  8
LOGO
  6
CONTINUOUS
 62
     7
 10
252.89208731292049
 20
25.441735183835501
 30
0.0
 40
4.6925158782073693
  1
(M)
  7
CHINESET
 72
     1
 11
257.9197828967142
 21
27.787993122939181
 31
0.0
 73
     2
  0
LINE
  5
188D
  8
LOGO
 62
     6
 10
263.64778996031612
 20
23.61794225829987
 30
0.0
 11
251.31583886129741
 21
23.61794225829987
 31
0.0
  0
LINE
  5
188E
  8
LOGO
 62
     6
 10
263.64778996031612
 20
32.064470839073202
 30
0.0
 11
251.31583886129741
 21
32.064470839073138
 31
0.0
  0
LINE
  5
188F
  8
LOGO
 62
     6
 10
251.31583886129741
 20
32.064470839073138
 30
0.0
 11
251.31583886129741
 21
23.61794225829987
 31
0.0
  0
LINE
  5
1890
  8
LOGO
 62
     6
 10
249.36276931677369
 20
32.064470839073138
 30
0.0
 11
249.36276931677369
 21
23.61794225829987
 31
0.0
  0
LINE
  5
1891
  8
LOGO
 62
     6
 10
263.647789960316
 20
32.064470839073202
 30
0.0
 11
263.64778996031612
 21
23.61794225829987
 31
0.0
  0
LINE
  5
18E7
  8
0
 62
     4
 10
271.62778414727939
 20
264.38087271228392
 30
0.0
 11
54.833550574099029
 21
264.38087271228392
 31
0.0
  0
TEXT
  5
18E8
  8
0
 10
71.139874451633304
 20
268.3808734298803
 30
0.0
 40
10.0
  1
2.附磁型本體長度皆較不附磁型增加10MM
  7
CHINESET
  0
TEXT
  5
18E9
  8
0
 10
52.79405355487927
 20
283.60438426565707
 30
0.0
 40
10.0
  1
註：1.本圖檔為不附磁型
  7
CHINESET
  0
TEXT
  5
18EA
  8
0
 10
62.559131485349781
 20
253.97620937348461
 30
0.0
 40
4.0
  1
MCJT-11-%%C20
  7
CHINESET
  0
TEXT
  5
18EB
  8
0
 10
62.06820252776231
 20
245.6872746230998
 30
0.0
 40
5.0
  1
stroke=0mm
  7
CHINESET
  0
LINE
  5
202D
  8
0
 10
120.2304125494632
 20
64.521961095830974
 30
0.0
 11
120.2304125494632
 21
66.782558122847306
 31
0.0
  0
LINE
  5
202E
  8
0
 10
100.7304125494632
 20
66.782558122847306
 30
0.0
 11
100.7304125494632
 21
64.521961095830974
 31
0.0
  0
LINE
  5
202F
  8
0
 10
120.2304125494632
 20
64.521961095830974
 30
0.0
 11
100.7304125494632
 21
64.521961095830974
 31
0.0
  0
POLYLINE
  8
0
  5
27C7
  66
     1
 10
0.000000
 20
0.000000
 30
0.000000
  70
     8
  0
VERTEX
  8
0
  5
27C8
 10
125.730
 20
79.4654
 30
0.000000
  70
    32
  0
VERTEX
  8
0
  5
27C9
 10
125.723
 20
79.4560
 30
0.000000
  70
    32
  0
VERTEX
  8
0
  5
27CA
 10
125.715
 20
79.4465
 30
0.000000
  70
    32
  0
VERTEX
  8
0
  5
27CB
 10
125.708
 20
79.4370
 30
0.000000
  70
    32
  0
VERTEX
  8
0
  5
27CC
 10
125.700
 20
79.4275
 30
0.000000
  70
    32
  0
VERTEX
  8
0
  5
27CD
 10
125.693
 20
79.4181
 30
0.000000
  70
    32
  0
VERTEX
  8
0
  5
27CE
 10
125.685
 20
79.4086
 30
0.000000
  70
    32
  0
VERTEX
  8
0
  5
27CF
 10
125.677
 20
79.3991
 30
0.000000
  70
    32
  0
VERTEX
  8
0
  5
27D0
 10
125.669
 20
79.3895
 30
0.000000
  70
    32
  0
VERTEX
  8
0
  5
27D1
 10
125.662
 20
79.3800
 30
0.000000
  70
    32
  0
VERTEX
  8
0
  5
27D2
 10
125.654
 20
79.3705
 30
0.000000
  70
    32
  0
VERTEX
  8
0
  5
27D3
 10
125.646
 20
79.3609
 30
0.000000
  70
    32
  0
VERTEX
  8
0
  5
27D4
 10
125.638
 20
79.3514
 30
0.000000
  70
    32
  0
VERTEX
  8
0
  5
27D5
 10
125.630
 20
79.3418
 30
0.000000
  70
    32
  0
VERTEX
  8
0
  5
27D6
 10
125.622
 20
79.3323
 30
0.000000
  70
    32
  0
VERTEX
  8
0
  5
27D7
 10
125.614
 20
79.3227
 30
0.000000
  70
    32
  0
VERTEX
  8
0
  5
27D8
 10
125.606
 20
79.3131
 30
0.000000
  70
    32
  0
VERTEX
  8
0
  5
27D9
 10
125.598
 20
79.3035
 30
0.000000
  70
    32
  0
VERTEX
  8
0
  5
27DA
 10
125.590
 20
79.2939
 30
0.000000
  70
    32
  0
VERTEX
  8
0
  5
27DB
 10
125.582
 20
79.2843
 30
0.000000
  70
    32
  0
VERTEX
  8
0
  5
27DC
 10
125.574
 20
79.2747
 30
0.000000
  70
    32
  0
VERTEX
  8
0
  5
27DD
 10
125.566
 20
79.2650
 30
0.000000
  70
    32
  0
VERTEX
  8
0
  5
27DE
 10
125.558
 20
79.2554
 30
0.000000
  70
    32
  0
VERTEX
  8
0
  5
27DF
 10
125.549
 20
79.2457
 30
0.000000
  70
    32
  0
VERTEX
  8
0
  5
27E0
 10
125.541
 20
79.2361
 30
0.000000
  70
    32
  0
VERTEX
  8
0
  5
27E1
 10
125.533
 20
79.2264
 30
0.000000
  70
    32
  0
VERTEX
  8
0
  5
27E2
 10
125.524
 20
79.2167
 30
0.000000
  70
    32
  0
VERTEX
  8
0
  5
27E3
 10
125.516
 20
79.2071
 30
0.000000
  70
    32
  0
VERTEX
  8
0
  5
27E4
 10
125.507
 20
79.1974
 30
0.000000
  70
    32
  0
VERTEX
  8
0
  5
27E5
 10
125.499
 20
79.1876
 30
0.000000
  70
    32
  0
VERTEX
  8
0
  5
27E6
 10
125.491
 20
79.1779
 30
0.000000
  70
    32
  0
VERTEX
  8
0
  5
27E7
 10
125.482
 20
79.1682
 30
0.000000
  70
    32
  0
VERTEX
  8
0
  5
27E8
 10
125.473
 20
79.1585
 30
0.000000
  70
    32
  0
VERTEX
  8
0
  5
27E9
 10
125.465
 20
79.1487
 30
0.000000
  70
    32
  0
VERTEX
  8
0
  5
27EA
 10
125.456
 20
79.1390
 30
0.000000
  70
    32
  0
VERTEX
  8
0
  5
27EB
 10
125.447
 20
79.1292
 30
0.000000
  70
    32
  0
VERTEX
  8
0
  5
27EC
 10
125.439
 20
79.1194
 30
0.000000
  70
    32
  0
VERTEX
  8
0
  5
27ED
 10
125.430
 20
79.1096
 30
0.000000
  70
    32
  0
VERTEX
  8
0
  5
27EE
 10
125.421
 20
79.0998
 30
0.000000
  70
    32
  0
VERTEX
  8
0
  5
27EF
 10
125.412
 20
79.0900
 30
0.000000
  70
    32
  0
VERTEX
  8
0
  5
27F0
 10
125.404
 20
79.0802
 30
0.000000
  70
    32
  0
VERTEX
  8
0
  5
27F1
 10
125.395
 20
79.0704
 30
0.000000
  70
    32
  0
VERTEX
  8
0
  5
27F2
 10
125.386
 20
79.0605
 30
0.000000
  70
    32
  0
VERTEX
  8
0
  5
27F3
 10
125.377
 20
79.0507
 30
0.000000
  70
    32
  0
VERTEX
  8
0
  5
27F4
 10
125.368
 20
79.0408
 30
0.000000
  70
    32
  0
VERTEX
  8
0
  5
27F5
 10
125.359
 20
79.0309
 30
0.000000
  70
    32
  0
VERTEX
  8
0
  5
27F6
 10
125.350
 20
79.0210
 30
0.000000
  70
    32
  0
VERTEX
  8
0
  5
27F7
 10
125.341
 20
79.0111
 30
0.000000
  70
    32
  0
VERTEX
  8
0
  5
27F8
 10
125.332
 20
79.0012
 30
0.000000
  70
    32
  0
VERTEX
  8
0
  5
27F9
 10
125.322
 20
78.9913
 30
0.000000
  70
    32
  0
VERTEX
  8
0
  5
27FA
 10
125.313
 20
78.9814
 30
0.000000
  70
    32
  0
VERTEX
  8
0
  5
27FB
 10
125.304
 20
78.9715
 30
0.000000
  70
    32
  0
VERTEX
  8
0
  5
27FC
 10
125.295
 20
78.9615
 30
0.000000
  70
    32
  0
VERTEX
  8
0
  5
27FD
 10
125.285
 20
78.9515
 30
0.000000
  70
    32
  0
VERTEX
  8
0
  5
27FE
 10
125.276
 20
78.9416
 30
0.000000
  70
    32
  0
VERTEX
  8
0
  5
27FF
 10
125.267
 20
78.9316
 30
0.000000
  70
    32
  0
VERTEX
  8
0
  5
2800
 10
125.257
 20
78.9216
 30
0.000000
  70
    32
  0
VERTEX
  8
0
  5
2801
 10
125.248
 20
78.9116
 30
0.000000
  70
    32
  0
VERTEX
  8
0
  5
2802
 10
125.238
 20
78.9016
 30
0.000000
  70
    32
  0
VERTEX
  8
0
  5
2803
 10
125.229
 20
78.8915
 30
0.000000
  70
    32
  0
VERTEX
  8
0
  5
2804
 10
125.219
 20
78.8815
 30
0.000000
  70
    32
  0
VERTEX
  8
0
  5
2805
 10
125.209
 20
78.8714
 30
0.000000
  70
    32
  0
VERTEX
  8
0
  5
2806
 10
125.200
 20
78.8614
 30
0.000000
  70
    32
  0
VERTEX
  8
0
  5
2807
 10
125.190
 20
78.8513
 30
0.000000
  70
    32
  0
VERTEX
  8
0
  5
2808
 10
125.180
 20
78.8412
 30
0.000000
  70
    32
  0
VERTEX
  8
0
  5
2809
 10
125.171
 20
78.8311
 30
0.000000
  70
    32
  0
VERTEX
  8
0
  5
280A
 10
125.161
 20
78.8210
 30
0.000000
  70
    32
  0
VERTEX
  8
0
  5
280B
 10
125.151
 20
78.8108
 30
0.000000
  70
    32
  0
VERTEX
  8
0
  5
280C
 10
125.141
 20
78.8007
 30
0.000000
  70
    32
  0
VERTEX
  8
0
  5
280D
 10
125.131
 20
78.7905
 30
0.000000
  70
    32
  0
VERTEX
  8
0
  5
280E
 10
125.121
 20
78.7804
 30
0.000000
  70
    32
  0
VERTEX
  8
0
  5
280F
 10
125.111
 20
78.7702
 30
0.000000
  70
    32
  0
VERTEX
  8
0
  5
2810
 10
125.101
 20
78.7600
 30
0.000000
  70
    32
  0
VERTEX
  8
0
  5
2811
 10
125.091
 20
78.7498
 30
0.000000
  70
    32
  0
VERTEX
  8
0
  5
2812
 10
125.081
 20
78.7396
 30
0.000000
  70
    32
  0
VERTEX
  8
0
  5
2813
 10
125.071
 20
78.7294
 30
0.000000
  70
    32
  0
VERTEX
  8
0
  5
2814
 10
125.061
 20
78.7191
 30
0.000000
  70
    32
  0
VERTEX
  8
0
  5
2815
 10
125.051
 20
78.7089
 30
0.000000
  70
    32
  0
VERTEX
  8
0
  5
2816
 10
125.040
 20
78.6986
 30
0.000000
  70
    32
  0
VERTEX
  8
0
  5
2817
 10
125.030
 20
78.6883
 30
0.000000
  70
    32
  0
VERTEX
  8
0
  5
2818
 10
125.020
 20
78.6780
 30
0.000000
  70
    32
  0
VERTEX
  8
0
  5
2819
 10
125.009
 20
78.6677
 30
0.000000
  70
    32
  0
VERTEX
  8
0
  5
281A
 10
124.999
 20
78.6574
 30
0.000000
  70
    32
  0
VERTEX
  8
0
  5
281B
 10
124.989
 20
78.6470
 30
0.000000
  70
    32
  0
VERTEX
  8
0
  5
281C
 10
124.978
 20
78.6367
 30
0.000000
  70
    32
  0
VERTEX
  8
0
  5
281D
 10
124.968
 20
78.6263
 30
0.000000
  70
    32
  0
VERTEX
  8
0
  5
281E
 10
124.957
 20
78.6160
 30
0.000000
  70
    32
  0
VERTEX
  8
0
  5
281F
 10
124.947
 20
78.6056
 30
0.000000
  70
    32
  0
VERTEX
  8
0
  5
2820
 10
124.936
 20
78.5952
 30
0.000000
  70
    32
  0
VERTEX
  8
0
  5
2821
 10
124.925
 20
78.5848
 30
0.000000
  70
    32
  0
VERTEX
  8
0
  5
2822
 10
124.915
 20
78.5743
 30
0.000000
  70
    32
  0
VERTEX
  8
0
  5
2823
 10
124.904
 20
78.5639
 30
0.000000
  70
    32
  0
VERTEX
  8
0
  5
2824
 10
124.893
 20
78.5534
 30
0.000000
  70
    32
  0
VERTEX
  8
0
  5
2825
 10
124.882
 20
78.5429
 30
0.000000
  70
    32
  0
VERTEX
  8
0
  5
2826
 10
124.871
 20
78.5325
 30
0.000000
  70
    32
  0
VERTEX
  8
0
  5
2827
 10
124.860
 20
78.5220
 30
0.000000
  70
    32
  0
SEQEND
  8
0
  5
2828
  0
POLYLINE
  8
0
  5
2829
  66
     1
 10
0.000000
 20
0.000000
 30
0.000000
  70
     8
  0
VERTEX
  8
0
  5
282A
 10
124.860
 20
77.5220
 30
0.000000
  70
    32
  0
VERTEX
  8
0
  5
282B
 10
124.871
 20
77.5220
 30
0.000000
  70
    32
  0
VERTEX
  8
0
  5
282C
 10
124.882
 20
77.5220
 30
0.000000
  70
    32
  0
VERTEX
  8
0
  5
282D
 10
124.893
 20
77.5220
 30
0.000000
  70
    32
  0
VERTEX
  8
0
  5
282E
 10
124.904
 20
77.5220
 30
0.000000
  70
    32
  0
VERTEX
  8
0
  5
282F
 10
124.915
 20
77.5220
 30
0.000000
  70
    32
  0
VERTEX
  8
0
  5
2830
 10
124.925
 20
77.5220
 30
0.000000
  70
    32
  0
VERTEX
  8
0
  5
2831
 10
124.936
 20
77.5220
 30
0.000000
  70
    32
  0
VERTEX
  8
0
  5
2832
 10
124.947
 20
77.5220
 30
0.000000
  70
    32
  0
VERTEX
  8
0
  5
2833
 10
124.957
 20
77.5220
 30
0.000000
  70
    32
  0
VERTEX
  8
0
  5
2834
 10
124.968
 20
77.5220
 30
0.000000
  70
    32
  0
VERTEX
  8
0
  5
2835
 10
124.978
 20
77.5220
 30
0.000000
  70
    32
  0
VERTEX
  8
0
  5
2836
 10
124.989
 20
77.5220
 30
0.000000
  70
    32
  0
VERTEX
  8
0
  5
2837
 10
124.999
 20
77.5220
 30
0.000000
  70
    32
  0
VERTEX
  8
0
  5
2838
 10
125.009
 20
77.5220
 30
0.000000
  70
    32
  0
VERTEX
  8
0
  5
2839
 10
125.020
 20
77.5220
 30
0.000000
  70
    32
  0
VERTEX
  8
0
  5
283A
 10
125.030
 20
77.5220
 30
0.000000
  70
    32
  0
VERTEX
  8
0
  5
283B
 10
125.040
 20
77.5220
 30
0.000000
  70
    32
  0
VERTEX
  8
0
  5
283C
 10
125.051
 20
77.5220
 30
0.000000
  70
    32
  0
VERTEX
  8
0
  5
283D
 10
125.061
 20
77.5220
 30
0.000000
  70
    32
  0
VERTEX
  8
0
  5
283E
 10
125.071
 20
77.5220
 30
0.000000
  70
    32
  0
VERTEX
  8
0
  5
283F
 10
125.081
 20
77.5220
 30
0.000000
  70
    32
  0
VERTEX
  8
0
  5
2840
 10
125.091
 20
77.5220
 30
0.000000
  70
    32
  0
VERTEX
  8
0
  5
2841
 10
125.101
 20
77.5220
 30
0.000000
  70
    32
  0
VERTEX
  8
0
  5
2842
 10
125.111
 20
77.5220
 30
0.000000
  70
    32
  0
VERTEX
  8
0
  5
2843
 10
125.121
 20
77.5220
 30
0.000000
  70
    32
  0
VERTEX
  8
0
  5
2844
 10
125.131
 20
77.5220
 30
0.000000
  70
    32
  0
VERTEX
  8
0
  5
2845
 10
125.141
 20
77.5220
 30
0.000000
  70
    32
  0
VERTEX
  8
0
  5
2846
 10
125.151
 20
77.5220
 30
0.000000
  70
    32
  0
VERTEX
  8
0
  5
2847
 10
125.161
 20
77.5220
 30
0.000000
  70
    32
  0
VERTEX
  8
0
  5
2848
 10
125.171
 20
77.5220
 30
0.000000
  70
    32
  0
VERTEX
  8
0
  5
2849
 10
125.180
 20
77.5220
 30
0.000000
  70
    32
  0
VERTEX
  8
0
  5
284A
 10
125.190
 20
77.5220
 30
0.000000
  70
    32
  0
VERTEX
  8
0
  5
284B
 10
125.200
 20
77.5220
 30
0.000000
  70
    32
  0
VERTEX
  8
0
  5
284C
 10
125.209
 20
77.5220
 30
0.000000
  70
    32
  0
VERTEX
  8
0
  5
284D
 10
125.219
 20
77.5220
 30
0.000000
  70
    32
  0
VERTEX
  8
0
  5
284E
 10
125.229
 20
77.5220
 30
0.000000
  70
    32
  0
VERTEX
  8
0
  5
284F
 10
125.238
 20
77.5220
 30
0.000000
  70
    32
  0
VERTEX
  8
0
  5
2850
 10
125.248
 20
77.5220
 30
0.000000
  70
    32
  0
VERTEX
  8
0
  5
2851
 10
125.257
 20
77.5220
 30
0.000000
  70
    32
  0
VERTEX
  8
0
  5
2852
 10
125.267
 20
77.5220
 30
0.000000
  70
    32
  0
VERTEX
  8
0
  5
2853
 10
125.276
 20
77.5220
 30
0.000000
  70
    32
  0
VERTEX
  8
0
  5
2854
 10
125.285
 20
77.5220
 30
0.000000
  70
    32
  0
VERTEX
  8
0
  5
2855
 10
125.295
 20
77.5220
 30
0.000000
  70
    32
  0
VERTEX
  8
0
  5
2856
 10
125.304
 20
77.5220
 30
0.000000
  70
    32
  0
VERTEX
  8
0
  5
2857
 10
125.313
 20
77.5220
 30
0.000000
  70
    32
  0
VERTEX
  8
0
  5
2858
 10
125.322
 20
77.5220
 30
0.000000
  70
    32
  0
VERTEX
  8
0
  5
2859
 10
125.332
 20
77.5220
 30
0.000000
  70
    32
  0
VERTEX
  8
0
  5
285A
 10
125.341
 20
77.5220
 30
0.000000
  70
    32
  0
VERTEX
  8
0
  5
285B
 10
125.350
 20
77.5220
 30
0.000000
  70
    32
  0
VERTEX
  8
0
  5
285C
 10
125.359
 20
77.5220
 30
0.000000
  70
    32
  0
VERTEX
  8
0
  5
285D
 10
125.368
 20
77.5220
 30
0.000000
  70
    32
  0
VERTEX
  8
0
  5
285E
 10
125.377
 20
77.5220
 30
0.000000
  70
    32
  0
VERTEX
  8
0
  5
285F
 10
125.386
 20
77.5220
 30
0.000000
  70
    32
  0
VERTEX
  8
0
  5
2860
 10
125.395
 20
77.5220
 30
0.000000
  70
    32
  0
VERTEX
  8
0
  5
2861
 10
125.404
 20
77.5220
 30
0.000000
  70
    32
  0
VERTEX
  8
0
  5
2862
 10
125.412
 20
77.5220
 30
0.000000
  70
    32
  0
VERTEX
  8
0
  5
2863
 10
125.421
 20
77.5220
 30
0.000000
  70
    32
  0
VERTEX
  8
0
  5
2864
 10
125.430
 20
77.5220
 30
0.000000
  70
    32
  0
VERTEX
  8
0
  5
2865
 10
125.439
 20
77.5220
 30
0.000000
  70
    32
  0
VERTEX
  8
0
  5
2866
 10
125.447
 20
77.5220
 30
0.000000
  70
    32
  0
VERTEX
  8
0
  5
2867
 10
125.456
 20
77.5220
 30
0.000000
  70
    32
  0
VERTEX
  8
0
  5
2868
 10
125.465
 20
77.5220
 30
0.000000
  70
    32
  0
VERTEX
  8
0
  5
2869
 10
125.473
 20
77.5220
 30
0.000000
  70
    32
  0
VERTEX
  8
0
  5
286A
 10
125.482
 20
77.5220
 30
0.000000
  70
    32
  0
VERTEX
  8
0
  5
286B
 10
125.491
 20
77.5220
 30
0.000000
  70
    32
  0
VERTEX
  8
0
  5
286C
 10
125.499
 20
77.5220
 30
0.000000
  70
    32
  0
VERTEX
  8
0
  5
286D
 10
125.507
 20
77.5220
 30
0.000000
  70
    32
  0
VERTEX
  8
0
  5
286E
 10
125.516
 20
77.5220
 30
0.000000
  70
    32
  0
VERTEX
  8
0
  5
286F
 10
125.524
 20
77.5220
 30
0.000000
  70
    32
  0
VERTEX
  8
0
  5
2870
 10
125.533
 20
77.5220
 30
0.000000
  70
    32
  0
VERTEX
  8
0
  5
2871
 10
125.541
 20
77.5220
 30
0.000000
  70
    32
  0
VERTEX
  8
0
  5
2872
 10
125.549
 20
77.5220
 30
0.000000
  70
    32
  0
VERTEX
  8
0
  5
2873
 10
125.558
 20
77.5220
 30
0.000000
  70
    32
  0
VERTEX
  8
0
  5
2874
 10
125.566
 20
77.5220
 30
0.000000
  70
    32
  0
VERTEX
  8
0
  5
2875
 10
125.574
 20
77.5220
 30
0.000000
  70
    32
  0
VERTEX
  8
0
  5
2876
 10
125.582
 20
77.5220
 30
0.000000
  70
    32
  0
VERTEX
  8
0
  5
2877
 10
125.590
 20
77.5220
 30
0.000000
  70
    32
  0
VERTEX
  8
0
  5
2878
 10
125.598
 20
77.5220
 30
0.000000
  70
    32
  0
VERTEX
  8
0
  5
2879
 10
125.606
 20
77.5220
 30
0.000000
  70
    32
  0
VERTEX
  8
0
  5
287A
 10
125.614
 20
77.5220
 30
0.000000
  70
    32
  0
VERTEX
  8
0
  5
287B
 10
125.622
 20
77.5220
 30
0.000000
  70
    32
  0
VERTEX
  8
0
  5
287C
 10
125.630
 20
77.5220
 30
0.000000
  70
    32
  0
VERTEX
  8
0
  5
287D
 10
125.638
 20
77.5220
 30
0.000000
  70
    32
  0
VERTEX
  8
0
  5
287E
 10
125.646
 20
77.5220
 30
0.000000
  70
    32
  0
VERTEX
  8
0
  5
287F
 10
125.654
 20
77.5220
 30
0.000000
  70
    32
  0
VERTEX
  8
0
  5
2880
 10
125.662
 20
77.5220
 30
0.000000
  70
    32
  0
VERTEX
  8
0
  5
2881
 10
125.669
 20
77.5220
 30
0.000000
  70
    32
  0
VERTEX
  8
0
  5
2882
 10
125.677
 20
77.5220
 30
0.000000
  70
    32
  0
VERTEX
  8
0
  5
2883
 10
125.685
 20
77.5220
 30
0.000000
  70
    32
  0
VERTEX
  8
0
  5
2884
 10
125.693
 20
77.5220
 30
0.000000
  70
    32
  0
VERTEX
  8
0
  5
2885
 10
125.700
 20
77.5220
 30
0.000000
  70
    32
  0
VERTEX
  8
0
  5
2886
 10
125.708
 20
77.5220
 30
0.000000
  70
    32
  0
VERTEX
  8
0
  5
2887
 10
125.715
 20
77.5220
 30
0.000000
  70
    32
  0
VERTEX
  8
0
  5
2888
 10
125.723
 20
77.5220
 30
0.000000
  70
    32
  0
VERTEX
  8
0
  5
2889
 10
125.730
 20
77.5220
 30
0.000000
  70
    32
  0
SEQEND
  8
0
  5
288A
  0
LINE
  5
203D
  8
0
 10
100.7304125494632
 20
66.782558122847306
 30
0.0
 11
120.2304125494632
 21
66.782558122847306
 31
0.0
  0
LINE
  5
2041
  8
CENTER
 10
98.864954825609288
 20
81.521961095830989
 30
0.0
 11
127.5415850302666
 21
81.521961095830989
 31
0.0
  0
LINE
  5
2052
  8
0
 10
100.7304125494632
 20
77.671961095830966
 30
0.0
 11
100.7304125494632
 21
66.782558122847306
 31
0.0
  0
LINE
  5
2053
  8
0
 10
100.7304125494632
 20
77.871961095831011
 30
0.0
 11
100.7304125494632
 21
81.521961095831102
 31
0.0
  0
LINE
  5
2054
  8
0
 10
100.7304125494632
 20
77.671961095830966
 30
0.0
 11
100.7304125494632
 21
77.871961095831011
 31
0.0
  0
LINE
  5
2074
  8
0
 10
100.7304125494632
 20
81.521961095831102
 30
0.0
 11
100.7304125494632
 21
98.521961095830989
 31
0.0
  0
LINE
  5
20DE
  8
0
 10
121.7304125494631
 20
86.521961095830918
 30
0.0
 11
122.7304125494631
 21
85.521961095831159
 31
0.0
  0
ARC
  5
20DF
  8
0
 10
121.2304125494634
 20
75.521961095830989
 30
0.0
 40
0.5
 50
270.0
 51
0.0
  0
LINE
  5
20E0
  8
0
 10
120.2304125494632
 20
66.782558122847306
 30
0.0
 11
120.2304125494632
 21
77.721961095831318
 31
0.0
  0
LINE
  5
20E1
  8
0
 10
120.2304125494632
 20
75.021961095830989
 30
0.0
 11
121.2304125494634
 21
75.021961095830989
 31
0.0
  0
LINE
  5
20E3
  8
0
 10
120.2304125494632
 20
81.521961095831102
 30
0.0
 11
120.2304125494632
 21
77.871961095831011
 31
0.0
  0
LINE
  5
20E4
  8
0
 10
120.2304125494632
 20
77.871961095831011
 30
0.0
 11
120.2304125494632
 21
77.671961095830966
 31
0.0
  0
LINE
  5
20E6
  8
0
 10
125.7304125494631
 20
81.521961095831102
 30
0.0
 11
125.7304125494631
 21
79.465422095945542
 31
0.0
  0
LINE
  5
20E7
  8
0
 10
122.7304125494631
 20
81.521961095831102
 30
0.0
 11
122.7304125494631
 21
78.521961095831102
 31
0.0
  0
LINE
  5
20E8
  8
0
 10
121.7304125494634
 20
81.521961095831216
 30
0.0
 11
121.7304125494634
 21
75.521961095830989
 31
0.0
  0
LINE
  5
20E9
  8
0
 10
124.86041254946311
 20
78.521961095831102
 30
0.0
 11
122.7304125494631
 21
78.521961095831102
 31
0.0
  0
LINE
  5
20EA
  8
0
 10
122.7304125494631
 20
77.521961095831102
 30
0.0
 11
124.86041254946311
 21
77.521961095831102
 31
0.0
  0
LINE
  5
20EB
  8
0
 10
122.7304125494631
 20
77.521961095831159
 30
0.0
 11
121.7304125494634
 21
76.521961095831443
 31
0.0
  0
ARC
  5
20EC
  8
0
 10
126.730412549463
 20
81.521961095831145
 30
0.0
 40
5.0000000000000062
 50
180.0000000000019
 51
216.8698976458447
  0
LINE
  5
20ED
  8
0
 10
125.7304125494631
 20
79.465422095945542
 30
0.0
 11
125.7304125494631
 21
77.521961095831102
 31
0.0
  0
LINE
  5
20EE
  8
0
 10
124.86041254946311
 20
77.521961095831102
 30
0.0
 11
124.86041254946311
 21
78.521961095831102
 31
0.0
  0
LINE
  5
20EF
  8
0
 10
122.7304125494631
 20
85.521961095831159
 30
0.0
 11
125.7304125494631
 21
85.521961095831159
 31
0.0
  0
LINE
  5
20F2
  8
0
 10
125.7304125494631
 20
85.521961095831159
 30
0.0
 11
125.7304125494631
 21
81.521961095831102
 31
0.0
  0
LINE
  5
20F5
  8
0
 10
120.2304125494632
 20
98.521961095830989
 30
0.0
 11
120.2304125494632
 21
81.521961095831102
 31
0.0
  0
LINE
  5
212F
  8
0
 10
121.7304125494634
 20
86.521961095830989
 30
0.0
 11
121.7304125494634
 21
86.021961095830804
 31
0.0
  0
ARC
  5
2130
  8
0
 10
121.2304125494634
 20
87.521961095830989
 30
0.0
 40
0.5
 50
0.0
 51
90.0
  0
LINE
  5
2131
  8
0
 10
121.7304125494634
 20
87.521961095830989
 30
0.0
 11
121.7304125494634
 21
81.521961095831216
 31
0.0
  0
LINE
  5
2132
  8
0
 10
100.7304125494632
 20
98.521961095830989
 30
0.0
 11
120.2304125494632
 21
98.521961095830989
 31
0.0
  0
ARC
  5
2134
  8
0
 10
206.6246339978405
 20
81.521961095831287
 30
0.0
 40
22.5
 50
40.926063309605482
 51
49.073936690394511
  0
LINE
  5
2135
  8
0
 10
222.12463399784059
 20
85.17196109583125
 30
0.0
 11
223.4246339978406
 21
85.17196109583125
 31
0.0
  0
LINE
  5
2136
  8
0
 10
223.4246339978406
 20
77.871961095831182
 30
0.0
 11
222.12463399784059
 21
77.871961095831182
 31
0.0
  0
ARC
  5
2137
  8
0
 10
206.6246339978405
 20
81.521961095831287
 30
0.0
 40
22.5
 50
310.92606330960541
 51
319.07393669039448
  0
LINE
  5
2138
  8
0
 10
223.62463399784059
 20
77.67196109583125
 30
0.0
 11
223.62463399784059
 21
66.782558122847547
 31
0.0
  0
ARC
  5
2139
  8
0
 10
223.4246339978406
 20
77.67196109583125
 30
0.0
 40
0.2
 50
0.0
 51
90.0
  0
LINE
  5
213A
  8
0
 10
223.62463399784059
 20
96.261364068814885
 30
0.0
 11
223.62463399784059
 21
85.371961095831196
 31
0.0
  0
ARC
  5
213B
  8
0
 10
223.4246339978406
 20
85.371961095831196
 30
0.0
 40
0.2
 50
270.0
 51
0.0
  0
CIRCLE
  5
213C
  8
0
 10
206.6246339978405
 20
81.521961095831287
 30
0.0
 40
6.5
  0
ARC
  5
213D
  8
0
 10
214.89240232774239
 20
77.76982174577364
 30
0.0
 40
2.0499999999999998
 50
153.9696803222088
 51
213.51671193877141
  0
CIRCLE
  5
213E
  8
0
 10
214.89240232774239
 20
77.76982174577364
 30
0.0
 40
1.0
  0
ARC
  5
213F
  8
0
 10
207.32040198263689
 20
81.521961095831287
 30
0.0
 40
9.3607042761687076
 50
55.31809554936838
 51
304.68190445063158
  0
CIRCLE
  5
2140
  8
0
 10
206.62463399784039
 20
81.521961095831145
 30
0.0
 40
5.0000000000001128
  0
ARC
  5
2141
  8
0
 10
206.62463399784039
 20
81.521961095831145
 30
0.0
 40
4.4977052658050303
 50
207.20927073568299
 51
242.79072926431689
  0
ARC
  5
2142
  8
0
 10
206.62463399784039
 20
81.521961095831145
 30
0.0
 40
4.4977052658050303
 50
297.20927073568311
 51
332.79072926431678
  0
ARC
  5
2143
  8
0
 10
193.2246339978405
 20
76.471961095831318
 30
0.0
 40
1.7
 50
0.0
 51
90.0
  0
LINE
  5
2144
  8
0
 10
220.62463399784059
 20
76.371961095831182
 30
0.0
 11
220.62463399784059
 21
86.67196109583125
 31
0.0
  0
CIRCLE
  5
2145
  8
0
 10
206.6246339978405
 20
81.521961095831287
 30
0.0
 40
10.999999999999989
  0
LINE
  5
2146
  8
0
 10
189.62463399784059
 20
77.721961095831318
 30
0.0
 11
189.62463399784059
 21
85.321961095831227
 31
0.0
  0
LINE
  5
2148
  8
0
 10
201.4746339978405
 20
67.521961095831273
 30
0.0
 11
211.7746339978406
 21
67.521961095831273
 31
0.0
  0
LINE
  5
2149
  8
0
 10
202.77463399784051
 20
66.221961095831205
 30
0.0
 11
201.4746339978405
 21
66.221961095831205
 31
0.0
  0
LINE
  5
214A
  8
0
 10
202.77463399784051
 20
64.521961095831273
 30
0.0
 11
191.88523102485689
 21
64.521961095831273
 31
0.0
  0
ARC
  5
214C
  8
0
 10
211.47413065378981
 20
75.505882973842461
 30
0.0
 40
2.0499999999999998
 50
304.89314161129249
 51
33.516711938771437
  0
LINE
  5
214D
  8
0
 10
221.3640369708242
 20
64.521961095831273
 30
0.0
 11
210.4746339978405
 21
64.521961095831273
 31
0.0
  0
CIRCLE
  5
214E
  8
0
 10
218.6246339978405
 20
69.521961095831273
 30
0.0
 40
3.25
  0
CIRCLE
  5
2150
  8
0
 10
218.6246339978405
 20
69.521961095831273
 30
0.0
 40
2.149999999999999
  0
LINE
  5
2151
  8
CENTER
 10
218.62463399784059
 20
71.021961095831273
 30
0.0
 11
218.62463399784059
 21
73.771961095831273
 31
0.0
  0
ARC
  5
2152
  8
0
  6
CONTINUOUS
 62
     3
 10
218.6246339978405
 20
69.521961095831273
 30
0.0
 40
2.5
 50
350.00000000000131
 51
280.00000000000182
  0
LINE
  5
2153
  8
CENTER
 10
219.12463399784059
 20
69.521961095831273
 30
0.0
 11
218.12463399784059
 21
69.521961095831273
 31
0.0
  0
LINE
  5
2154
  8
CENTER
 10
218.62463399784059
 20
65.271961095831273
 30
0.0
 11
218.62463399784059
 21
68.021961095831273
 31
0.0
  0
LINE
  5
2155
  8
CENTER
 10
222.87463399784059
 20
69.521961095831273
 30
0.0
 11
220.12463399784059
 21
69.521961095831273
 31
0.0
  0
LINE
  5
2156
  8
CENTER
 10
218.62463399784059
 20
69.021961095831273
 30
0.0
 11
218.62463399784059
 21
70.021961095831273
 31
0.0
  0
LINE
  5
2157
  8
CENTER
 10
217.12463399784059
 20
69.521961095831273
 30
0.0
 11
214.37463399784059
 21
69.521961095831273
 31
0.0
  0
ARC
  5
2158
  8
0
 10
220.82463399784041
 20
76.371961095831182
 30
0.0
 40
0.2000000000000001
 50
180.0
 51
270.0
  0
LINE
  5
2159
  8
0
 10
221.92463399784049
 20
77.671961095831136
 30
0.0
 11
221.92463399784049
 21
76.371961095831182
 31
0.0
  0
LINE
  5
215A
  8
0
 10
221.7246339978405
 20
76.171961095831136
 30
0.0
 11
220.82463399784049
 21
76.171961095831136
 31
0.0
  0
ARC
  5
215B
  8
0
 10
221.7246339978405
 20
76.371961095831182
 30
0.0
 40
0.2000000000000001
 50
270.0
 51
0.0
  0
ARC
  5
215C
  8
0
 10
222.1246339978405
 20
77.67196109583125
 30
0.0
 40
0.2
 50
90.0
 51
180.0
  0
ARC
  5
215D
  8
0
 10
210.4746339978405
 20
64.721961095831205
 30
0.0
 40
0.2
 50
180.0
 51
270.0
  0
ARC
  5
215E
  8
0
 10
210.4746339978405
 20
66.021961095831273
 30
0.0
 40
0.2
 50
90.0
 51
180.0
  0
LINE
  5
215F
  8
0
 10
211.77463399784051
 20
66.221961095831205
 30
0.0
 11
210.4746339978405
 21
66.221961095831205
 31
0.0
  0
ARC
  5
2160
  8
0
 10
211.77463399784051
 20
66.421961095831136
 30
0.0
 40
0.2
 50
270.0
 51
0.0
  0
LINE
  5
2161
  8
0
 10
211.9746339978405
 20
67.321961095831227
 30
0.0
 11
211.9746339978405
 21
66.421961095831136
 31
0.0
  0
ARC
  5
2162
  8
0
 10
211.77463399784051
 20
67.321961095831227
 30
0.0
 40
0.2000000000000001
 50
0.0
 51
90.0
  0
LINE
  5
2163
  8
0
 10
210.27463399784051
 20
66.021961095831273
 30
0.0
 11
210.27463399784051
 21
64.721961095831205
 31
0.0
  0
LINE
  5
2164
  8
0
 10
202.9746339978405
 20
64.721961095831205
 30
0.0
 11
202.9746339978405
 21
66.021961095831159
 31
0.0
  0
ARC
  5
2165
  8
0
 10
202.77463399784051
 20
64.721961095831205
 30
0.0
 40
0.2
 50
270.0
 51
0.0
  0
ARC
  5
2166
  8
0
 10
202.77463399784051
 20
66.021961095831159
 30
0.0
 40
0.2
 50
0.0
 51
90.0
  0
LINE
  5
2167
  8
0
 10
203.62463399784019
 20
77.521961095831159
 30
0.0
 11
209.62463399784059
 21
77.521961095831159
 31
0.0
  0
LINE
  5
2168
  8
0
 10
193.2246339978405
 20
73.871961095831182
 30
0.0
 11
191.12463399784059
 21
73.871961095831182
 31
0.0
  0
LINE
  5
2169
  8
0
 10
191.12463399784059
 20
78.17196109583125
 30
0.0
 11
193.2246339978405
 21
78.17196109583125
 31
0.0
  0
CIRCLE
  5
216A
  8
0
 10
194.6246339978405
 20
69.521961095831273
 30
0.0
 40
3.25
  0
LINE
  5
216B
  8
CENTER
 10
193.12463399784059
 20
69.521961095831273
 30
0.0
 11
190.37463399784059
 21
69.521961095831273
 31
0.0
  0
ARC
  5
216C
  8
0
  6
CONTINUOUS
 62
     3
 10
194.6246339978405
 20
69.521961095831273
 30
0.0
 40
2.5
 50
350.00000000000131
 51
280.00000000000182
  0
CIRCLE
  5
216E
  8
0
 10
194.6246339978405
 20
69.521961095831273
 30
0.0
 40
2.149999999999999
  0
LINE
  5
216F
  8
CENTER
 10
194.62463399784059
 20
71.021961095831273
 30
0.0
 11
194.62463399784059
 21
73.771961095831273
 31
0.0
  0
LINE
  5
2170
  8
CENTER
 10
198.87463399784059
 20
69.521961095831273
 30
0.0
 11
196.12463399784059
 21
69.521961095831273
 31
0.0
  0
ARC
  5
2171
  8
0
 10
201.4746339978405
 20
67.321961095831227
 30
0.0
 40
0.2000000000000001
 50
90.0
 51
180.0
  0
LINE
  5
2172
  8
0
 10
201.27463399784051
 20
66.421961095831136
 30
0.0
 11
201.27463399784051
 21
67.321961095831227
 31
0.0
  0
ARC
  5
2173
  8
0
 10
201.4746339978405
 20
66.421961095831136
 30
0.0
 40
0.2000000000000001
 50
180.0
 51
270.0
  0
LINE
  5
2174
  8
CENTER
 10
194.62463399784059
 20
65.271961095831273
 30
0.0
 11
194.62463399784059
 21
68.021961095831273
 31
0.0
  0
LINE
  5
2175
  8
CENTER
 10
195.12463399784059
 20
69.521961095831273
 30
0.0
 11
194.12463399784059
 21
69.521961095831273
 31
0.0
  0
LINE
  5
2176
  8
CENTER
 10
194.62463399784059
 20
69.021961095831273
 30
0.0
 11
194.62463399784059
 21
70.021961095831273
 31
0.0
  0
ARC
  5
2177
  8
0
 10
193.2246339978405
 20
75.571961095831227
 30
0.0
 40
1.7
 50
270.0
 51
0.0
  0
LINE
  5
2178
  8
0
 10
194.9246339978406
 20
76.471961095831318
 30
0.0
 11
194.9246339978406
 21
75.571961095831227
 31
0.0
  0
LINE
  5
2179
  8
0
 10
189.62463399784059
 20
66.782558122847547
 30
0.0
 11
189.62463399784059
 21
74.321961095831227
 31
0.0
  0
ARC
  5
217A
  8
0
 10
206.6246339978405
 20
81.521961095831287
 30
0.0
 40
22.5
 50
220.92606330960541
 51
229.0739366903945
  0
LINE
  5
217B
  8
0
 10
190.62463399784059
 20
74.321961095831227
 30
0.0
 11
189.62463399784059
 21
74.321961095831227
 31
0.0
  0
LINE
  5
217C
  8
0
 10
190.62463399784059
 20
74.321961095831227
 30
0.0
 11
191.12463399784059
 21
73.871961095831296
 31
0.0
  0
LINE
  5
217D
  8
0
 10
191.12463399784059
 20
78.17196109583125
 30
0.0
 11
190.62463399784059
 21
77.721961095831205
 31
0.0
  0
LINE
  5
217E
  8
0
 10
189.62463399784059
 20
77.721961095831205
 30
0.0
 11
190.62463399784059
 21
77.721961095831205
 31
0.0
  0
ARC
  5
217F
  8
0
 10
206.62463399784039
 20
81.521961095831145
 30
0.0
 40
4.4977052658050303
 50
117.20927073568311
 51
152.79072926431681
  0
LINE
  5
2180
  8
0
 10
191.88523102485689
 20
98.521961095831273
 30
0.0
 11
202.77463399784051
 21
98.521961095831273
 31
0.0
  0
LINE
  5
2181
  8
0
 10
201.4746339978405
 20
96.821961095831242
 30
0.0
 11
202.77463399784051
 21
96.821961095831242
 31
0.0
  0
LINE
  5
2182
  8
0
 10
211.77463399784051
 20
95.521961095831259
 30
0.0
 11
201.4746339978405
 21
95.521961095831259
 31
0.0
  0
CIRCLE
  5
2183
  8
0
 10
218.6246339978405
 20
93.521961095831273
 30
0.0
 40
3.25
  0
CIRCLE
  5
2185
  8
0
 10
218.6246339978405
 20
93.521961095831273
 30
0.0
 40
2.149999999999999
  0
ARC
  5
2186
  8
0
  6
CONTINUOUS
 62
     3
 10
218.6246339978405
 20
93.521961095831273
 30
0.0
 40
2.5
 50
350.00000000000131
 51
280.00000000000182
  0
ARC
  5
2187
  8
0
 10
211.47413065378981
 20
87.538039217820085
 30
0.0
 40
2.0499999999999998
 50
326.48328806122862
 51
55.106858388707423
  0
ARC
  5
2188
  8
0
 10
214.89240232774239
 20
85.274100445888905
 30
0.0
 40
2.0499999999999998
 50
206.03031967779111
 51
284.99999999999761
  0
ARC
  5
2189
  8
0
 10
214.89240232774239
 20
77.76982174577364
 30
0.0
 40
2.0499999999999998
 50
75.000000000002373
 51
153.9696803222088
  0
ARC
  5
218A
  8
0
 10
214.89240232774239
 20
85.274100445888905
 30
0.0
 40
2.0499999999999998
 50
146.48328806122851
 51
206.03031967779111
  0
CIRCLE
  5
218B
  8
0
 10
214.89240232774239
 20
85.274100445888905
 30
0.0
 40
1.0
  0
LINE
  5
218C
  8
0
 10
221.92463399784049
 20
86.671961095831136
 30
0.0
 11
221.92463399784049
 21
85.371961095831196
 31
0.0
  0
ARC
  5
218D
  8
0
 10
222.1246339978405
 20
85.371961095831196
 30
0.0
 40
0.2
 50
180.0
 51
270.0
  0
LINE
  5
218E
  8
0
 10
215.42298137020271
 20
79.749969689666102
 30
0.0
 11
216.58107568798641
 21
79.43965925245692
 31
0.0
  0
ARC
  5
218F
  8
0
 10
216.32225664288401
 20
78.473733426167826
 30
0.0
 40
1.0
 50
17.499565168121268
 51
75.000000000002373
  0
LINE
  5
2190
  8
0
 10
215.42298137020271
 20
83.29395250199633
 30
0.0
 11
216.58107568798641
 21
83.604262939205626
 31
0.0
  0
ARC
  5
2191
  8
0
 10
216.32225664288401
 20
84.570188765494606
 30
0.0
 40
1.0
 50
284.99999999999761
 51
342.50043483187869
  0
LINE
  5
2192
  8
CENTER
 10
218.62463399784059
 20
89.271961095831259
 30
0.0
 11
218.62463399784059
 21
92.021961095831273
 31
0.0
  0
ARC
  5
2193
  8
0
 10
220.82463399784041
 20
86.67196109583125
 30
0.0
 40
0.2000000000000001
 50
90.0
 51
180.0
  0
ARC
  5
2194
  8
0
 10
221.7246339978405
 20
86.67196109583125
 30
0.0
 40
0.2
 50
0.0
 51
90.0
  0
LINE
  5
2195
  8
0
 10
220.82463399784049
 20
86.871961095831168
 30
0.0
 11
221.7246339978405
 21
86.871961095831168
 31
0.0
  0
CIRCLE
  5
2196
  8
0
 10
206.62463399784039
 20
81.521961095831145
 30
0.0
 40
2.149999999999999
  0
ARC
  5
2197
  8
0
 10
206.62463399784039
 20
81.521961095831145
 30
0.0
 40
2.75
 50
165.5724018752509
 51
111.39783832365281
  0
LINE
  5
2198
  8
0
 10
209.62463399784059
 20
85.521961095831159
 30
0.0
 11
203.62463399784019
 21
85.521961095831159
 31
0.0
  0
LINE
  5
2199
  8
0
 10
210.62463399784039
 20
78.521961095831045
 30
0.0
 11
210.62463399784039
 21
84.5219610958315
 31
0.0
  0
ARC
  5
219A
  8
0
 10
206.62463399784039
 20
81.521961095831145
 30
0.0
 40
4.4977052658050303
 50
27.209270735683148
 51
62.790729264316852
  0
LINE
  5
219B
  8
0
 10
202.62463399784039
 20
84.521961095831273
 30
0.0
 11
202.62463399784039
 21
78.521961095831045
 31
0.0
  0
LINE
  5
219D
  8
0
 10
210.4746339978405
 20
98.521961095831273
 30
0.0
 11
221.3640369708242
 21
98.521961095831273
 31
0.0
  0
LINE
  5
219E
  8
CENTER
 10
219.12463399784059
 20
93.521961095831273
 30
0.0
 11
218.12463399784059
 21
93.521961095831273
 31
0.0
  0
LINE
  5
219F
  8
CENTER
 10
218.62463399784059
 20
95.021961095831273
 30
0.0
 11
218.62463399784059
 21
97.771961095831287
 31
0.0
  0
LINE
  5
21A0
  8
CENTER
 10
222.87463399784059
 20
93.521961095831273
 30
0.0
 11
220.12463399784059
 21
93.521961095831273
 31
0.0
  0
LINE
  5
21A1
  8
CENTER
 10
218.62463399784059
 20
93.021961095831259
 30
0.0
 11
218.62463399784059
 21
94.021961095831287
 31
0.0
  0
LINE
  5
21A2
  8
CENTER
 10
217.12463399784059
 20
93.521961095831273
 30
0.0
 11
214.37463399784059
 21
93.521961095831273
 31
0.0
  0
LINE
  5
21A3
  8
0
 10
211.9746339978405
 20
96.621961095831296
 30
0.0
 11
211.9746339978405
 21
95.721961095831205
 31
0.0
  0
ARC
  5
21A4
  8
0
 10
211.77463399784051
 20
95.721961095831205
 30
0.0
 40
0.2
 50
270.0
 51
0.0
  0
ARC
  5
21A5
  8
0
 10
210.4746339978405
 20
97.021961095831273
 30
0.0
 40
0.2
 50
180.0
 51
270.0
  0
ARC
  5
21A6
  8
0
 10
210.4746339978405
 20
98.321961095831213
 30
0.0
 40
0.2
 50
90.0
 51
180.0
  0
ARC
  5
21A7
  8
0
 10
211.77463399784051
 20
96.621961095831296
 30
0.0
 40
0.2000000000000001
 50
0.0
 51
90.0
  0
LINE
  5
21A8
  8
0
 10
210.4746339978405
 20
96.821961095831242
 30
0.0
 11
211.77463399784051
 21
96.821961095831242
 31
0.0
  0
LINE
  5
21A9
  8
0
 10
210.27463399784051
 20
98.321961095831213
 30
0.0
 11
210.27463399784051
 21
97.021961095831273
 31
0.0
  0
LINE
  5
21AA
  8
0
 10
202.9746339978405
 20
97.021961095831159
 30
0.0
 11
202.9746339978405
 21
98.321961095831213
 31
0.0
  0
ARC
  5
21AB
  8
0
 10
202.77463399784051
 20
97.021961095831159
 30
0.0
 40
0.2
 50
270.0
 51
0.0
  0
ARC
  5
21AC
  8
0
 10
202.77463399784051
 20
98.321961095831213
 30
0.0
 40
0.2
 50
0.0
 51
90.0
  0
LINE
  5
21AD
  8
0
 10
189.62463399784059
 20
88.721961095831318
 30
0.0
 11
189.62463399784059
 21
96.261364068814885
 31
0.0
  0
CIRCLE
  5
21AE
  8
0
 10
194.6246339978405
 20
93.521961095831273
 30
0.0
 40
3.25
  0
CIRCLE
  5
21B0
  8
0
 10
194.6246339978405
 20
93.521961095831273
 30
0.0
 40
2.149999999999999
  0
ARC
  5
21B1
  8
0
  6
CONTINUOUS
 62
     3
 10
194.6246339978405
 20
93.521961095831273
 30
0.0
 40
2.5
 50
350.00000000000131
 51
280.00000000000182
  0
LINE
  5
21B2
  8
0
 10
193.2246339978405
 20
84.871961095831182
 30
0.0
 11
191.12463399784059
 21
84.871961095831182
 31
0.0
  0
LINE
  5
21B3
  8
0
 10
191.12463399784059
 20
89.17196109583125
 30
0.0
 11
193.2246339978405
 21
89.17196109583125
 31
0.0
  0
ARC
  5
21B4
  8
0
 10
193.2246339978405
 20
86.571961095831227
 30
0.0
 40
1.7
 50
270.0
 51
0.0
  0
ARC
  5
21B5
  8
0
 10
193.2246339978405
 20
87.471961095831318
 30
0.0
 40
1.7
 50
0.0
 51
90.0
  0
LINE
  5
21B6
  8
CENTER
 10
194.62463399784059
 20
89.271961095831259
 30
0.0
 11
194.62463399784059
 21
92.021961095831273
 31
0.0
  0
LINE
  5
21B7
  8
0
 10
194.9246339978406
 20
87.471961095831318
 30
0.0
 11
194.9246339978406
 21
86.571961095831227
 31
0.0
  0
LINE
  5
21B8
  8
0
 10
190.62463399784059
 20
85.321961095831227
 30
0.0
 11
189.62463399784059
 21
85.321961095831227
 31
0.0
  0
LINE
  5
21B9
  8
0
 10
190.62463399784059
 20
85.321961095831227
 30
0.0
 11
191.12463399784059
 21
84.871961095831296
 31
0.0
  0
LINE
  5
21BA
  8
0
 10
191.12463399784059
 20
89.17196109583125
 30
0.0
 11
190.62463399784059
 21
88.721961095831205
 31
0.0
  0
LINE
  5
21BB
  8
0
 10
189.62463399784059
 20
88.721961095831205
 30
0.0
 11
190.62463399784059
 21
88.721961095831205
 31
0.0
  0
LINE
  5
21BC
  8
CENTER
 10
193.12463399784059
 20
93.521961095831273
 30
0.0
 11
190.37463399784059
 21
93.521961095831273
 31
0.0
  0
LINE
  5
21BD
  8
CENTER
 10
198.87463399784059
 20
93.521961095831273
 30
0.0
 11
196.12463399784059
 21
93.521961095831273
 31
0.0
  0
LINE
  5
21BE
  8
0
 10
201.27463399784051
 20
95.721961095831205
 30
0.0
 11
201.27463399784051
 21
96.621961095831196
 31
0.0
  0
ARC
  5
21BF
  8
0
 10
201.4746339978405
 20
95.721961095831205
 30
0.0
 40
0.2000000000000001
 50
180.0
 51
270.0
  0
ARC
  5
21C0
  8
0
 10
201.4746339978405
 20
96.621961095831196
 30
0.0
 40
0.2
 50
90.0
 51
180.0
  0
LINE
  5
21C1
  8
CENTER
 10
194.62463399784059
 20
95.021961095831273
 30
0.0
 11
194.62463399784059
 21
97.771961095831287
 31
0.0
  0
LINE
  5
21C2
  8
CENTER
 10
195.12463399784059
 20
93.521961095831273
 30
0.0
 11
194.12463399784059
 21
93.521961095831273
 31
0.0
  0
LINE
  5
21C3
  8
CENTER
 10
194.62463399784059
 20
93.021961095831259
 30
0.0
 11
194.62463399784059
 21
94.021961095831287
 31
0.0
  0
ARC
  5
21C4
  8
0
 10
206.6246339978405
 20
81.521961095831287
 30
0.0
 40
22.5
 50
130.9260633096055
 51
139.0739366903945
  0
LINE
  5
21C6
  8
0
 10
121.2304125494634
 20
88.021961095830974
 30
0.0
 11
120.2304125494631
 21
88.021961095830974
 31
0.0
  0
POLYLINE
  8
0
  5
288B
  66
     1
 10
0.000000
 20
0.000000
 30
0.000000
  70
     8
  0
VERTEX
  8
0
  5
288C
 10
125.730
 20
83.5785
 30
0.000000
  70
    32
  0
VERTEX
  8
0
  5
288D
 10
125.723
 20
83.5880
 30
0.000000
  70
    32
  0
VERTEX
  8
0
  5
288E
 10
125.715
 20
83.5974
 30
0.000000
  70
    32
  0
VERTEX
  8
0
  5
288F
 10
125.708
 20
83.6069
 30
0.000000
  70
    32
  0
VERTEX
  8
0
  5
2890
 10
125.700
 20
83.6164
 30
0.000000
  70
    32
  0
VERTEX
  8
0
  5
2891
 10
125.693
 20
83.6259
 30
0.000000
  70
    32
  0
VERTEX
  8
0
  5
2892
 10
125.685
 20
83.6354
 30
0.000000
  70
    32
  0
VERTEX
  8
0
  5
2893
 10
125.677
 20
83.6449
 30
0.000000
  70
    32
  0
VERTEX
  8
0
  5
2894
 10
125.669
 20
83.6544
 30
0.000000
  70
    32
  0
VERTEX
  8
0
  5
2895
 10
125.662
 20
83.6639
 30
0.000000
  70
    32
  0
VERTEX
  8
0
  5
2896
 10
125.654
 20
83.6734
 30
0.000000
  70
    32
  0
VERTEX
  8
0
  5
2897
 10
125.646
 20
83.6830
 30
0.000000
  70
    32
  0
VERTEX
  8
0
  5
2898
 10
125.638
 20
83.6925
 30
0.000000
  70
    32
  0
VERTEX
  8
0
  5
2899
 10
125.630
 20
83.7021
 30
0.000000
  70
    32
  0
VERTEX
  8
0
  5
289A
 10
125.622
 20
83.7117
 30
0.000000
  70
    32
  0
VERTEX
  8
0
  5
289B
 10
125.614
 20
83.7212
 30
0.000000
  70
    32
  0
VERTEX
  8
0
  5
289C
 10
125.606
 20
83.7308
 30
0.000000
  70
    32
  0
VERTEX
  8
0
  5
289D
 10
125.598
 20
83.7404
 30
0.000000
  70
    32
  0
VERTEX
  8
0
  5
289E
 10
125.590
 20
83.7500
 30
0.000000
  70
    32
  0
VERTEX
  8
0
  5
289F
 10
125.582
 20
83.7596
 30
0.000000
  70
    32
  0
VERTEX
  8
0
  5
28A0
 10
125.574
 20
83.7693
 30
0.000000
  70
    32
  0
VERTEX
  8
0
  5
28A1
 10
125.566
 20
83.7789
 30
0.000000
  70
    32
  0
VERTEX
  8
0
  5
28A2
 10
125.558
 20
83.7885
 30
0.000000
  70
    32
  0
VERTEX
  8
0
  5
28A3
 10
125.549
 20
83.7982
 30
0.000000
  70
    32
  0
VERTEX
  8
0
  5
28A4
 10
125.541
 20
83.8078
 30
0.000000
  70
    32
  0
VERTEX
  8
0
  5
28A5
 10
125.533
 20
83.8175
 30
0.000000
  70
    32
  0
VERTEX
  8
0
  5
28A6
 10
125.524
 20
83.8272
 30
0.000000
  70
    32
  0
VERTEX
  8
0
  5
28A7
 10
125.516
 20
83.8369
 30
0.000000
  70
    32
  0
VERTEX
  8
0
  5
28A8
 10
125.507
 20
83.8466
 30
0.000000
  70
    32
  0
VERTEX
  8
0
  5
28A9
 10
125.499
 20
83.8563
 30
0.000000
  70
    32
  0
VERTEX
  8
0
  5
28AA
 10
125.491
 20
83.8660
 30
0.000000
  70
    32
  0
VERTEX
  8
0
  5
28AB
 10
125.482
 20
83.8757
 30
0.000000
  70
    32
  0
VERTEX
  8
0
  5
28AC
 10
125.473
 20
83.8855
 30
0.000000
  70
    32
  0
VERTEX
  8
0
  5
28AD
 10
125.465
 20
83.8952
 30
0.000000
  70
    32
  0
VERTEX
  8
0
  5
28AE
 10
125.456
 20
83.9050
 30
0.000000
  70
    32
  0
VERTEX
  8
0
  5
28AF
 10
125.447
 20
83.9147
 30
0.000000
  70
    32
  0
VERTEX
  8
0
  5
28B0
 10
125.439
 20
83.9245
 30
0.000000
  70
    32
  0
VERTEX
  8
0
  5
28B1
 10
125.430
 20
83.9343
 30
0.000000
  70
    32
  0
VERTEX
  8
0
  5
28B2
 10
125.421
 20
83.9441
 30
0.000000
  70
    32
  0
VERTEX
  8
0
  5
28B3
 10
125.412
 20
83.9539
 30
0.000000
  70
    32
  0
VERTEX
  8
0
  5
28B4
 10
125.404
 20
83.9637
 30
0.000000
  70
    32
  0
VERTEX
  8
0
  5
28B5
 10
125.395
 20
83.9736
 30
0.000000
  70
    32
  0
VERTEX
  8
0
  5
28B6
 10
125.386
 20
83.9834
 30
0.000000
  70
    32
  0
VERTEX
  8
0
  5
28B7
 10
125.377
 20
83.9933
 30
0.000000
  70
    32
  0
VERTEX
  8
0
  5
28B8
 10
125.368
 20
84.0031
 30
0.000000
  70
    32
  0
VERTEX
  8
0
  5
28B9
 10
125.359
 20
84.0130
 30
0.000000
  70
    32
  0
VERTEX
  8
0
  5
28BA
 10
125.350
 20
84.0229
 30
0.000000
  70
    32
  0
VERTEX
  8
0
  5
28BB
 10
125.341
 20
84.0328
 30
0.000000
  70
    32
  0
VERTEX
  8
0
  5
28BC
 10
125.332
 20
84.0427
 30
0.000000
  70
    32
  0
VERTEX
  8
0
  5
28BD
 10
125.322
 20
84.0526
 30
0.000000
  70
    32
  0
VERTEX
  8
0
  5
28BE
 10
125.313
 20
84.0625
 30
0.000000
  70
    32
  0
VERTEX
  8
0
  5
28BF
 10
125.304
 20
84.0725
 30
0.000000
  70
    32
  0
VERTEX
  8
0
  5
28C0
 10
125.295
 20
84.0824
 30
0.000000
  70
    32
  0
VERTEX
  8
0
  5
28C1
 10
125.285
 20
84.0924
 30
0.000000
  70
    32
  0
VERTEX
  8
0
  5
28C2
 10
125.276
 20
84.1024
 30
0.000000
  70
    32
  0
VERTEX
  8
0
  5
28C3
 10
125.267
 20
84.1123
 30
0.000000
  70
    32
  0
VERTEX
  8
0
  5
28C4
 10
125.257
 20
84.1223
 30
0.000000
  70
    32
  0
VERTEX
  8
0
  5
28C5
 10
125.248
 20
84.1323
 30
0.000000
  70
    32
  0
VERTEX
  8
0
  5
28C6
 10
125.238
 20
84.1424
 30
0.000000
  70
    32
  0
VERTEX
  8
0
  5
28C7
 10
125.229
 20
84.1524
 30
0.000000
  70
    32
  0
VERTEX
  8
0
  5
28C8
 10
125.219
 20
84.1624
 30
0.000000
  70
    32
  0
VERTEX
  8
0
  5
28C9
 10
125.209
 20
84.1725
 30
0.000000
  70
    32
  0
VERTEX
  8
0
  5
28CA
 10
125.200
 20
84.1826
 30
0.000000
  70
    32
  0
VERTEX
  8
0
  5
28CB
 10
125.190
 20
84.1926
 30
0.000000
  70
    32
  0
VERTEX
  8
0
  5
28CC
 10
125.180
 20
84.2027
 30
0.000000
  70
    32
  0
VERTEX
  8
0
  5
28CD
 10
125.171
 20
84.2128
 30
0.000000
  70
    32
  0
VERTEX
  8
0
  5
28CE
 10
125.161
 20
84.2230
 30
0.000000
  70
    32
  0
VERTEX
  8
0
  5
28CF
 10
125.151
 20
84.2331
 30
0.000000
  70
    32
  0
VERTEX
  8
0
  5
28D0
 10
125.141
 20
84.2432
 30
0.000000
  70
    32
  0
VERTEX
  8
0
  5
28D1
 10
125.131
 20
84.2534
 30
0.000000
  70
    32
  0
VERTEX
  8
0
  5
28D2
 10
125.121
 20
84.2635
 30
0.000000
  70
    32
  0
VERTEX
  8
0
  5
28D3
 10
125.111
 20
84.2737
 30
0.000000
  70
    32
  0
VERTEX
  8
0
  5
28D4
 10
125.101
 20
84.2839
 30
0.000000
  70
    32
  0
VERTEX
  8
0
  5
28D5
 10
125.091
 20
84.2941
 30
0.000000
  70
    32
  0
VERTEX
  8
0
  5
28D6
 10
125.081
 20
84.3043
 30
0.000000
  70
    32
  0
VERTEX
  8
0
  5
28D7
 10
125.071
 20
84.3146
 30
0.000000
  70
    32
  0
VERTEX
  8
0
  5
28D8
 10
125.061
 20
84.3248
 30
0.000000
  70
    32
  0
VERTEX
  8
0
  5
28D9
 10
125.051
 20
84.3351
 30
0.000000
  70
    32
  0
VERTEX
  8
0
  5
28DA
 10
125.040
 20
84.3453
 30
0.000000
  70
    32
  0
VERTEX
  8
0
  5
28DB
 10
125.030
 20
84.3556
 30
0.000000
  70
    32
  0
VERTEX
  8
0
  5
28DC
 10
125.020
 20
84.3659
 30
0.000000
  70
    32
  0
VERTEX
  8
0
  5
28DD
 10
125.009
 20
84.3762
 30
0.000000
  70
    32
  0
VERTEX
  8
0
  5
28DE
 10
124.999
 20
84.3865
 30
0.000000
  70
    32
  0
VERTEX
  8
0
  5
28DF
 10
124.989
 20
84.3969
 30
0.000000
  70
    32
  0
VERTEX
  8
0
  5
28E0
 10
124.978
 20
84.4072
 30
0.000000
  70
    32
  0
VERTEX
  8
0
  5
28E1
 10
124.968
 20
84.4176
 30
0.000000
  70
    32
  0
VERTEX
  8
0
  5
28E2
 10
124.957
 20
84.4280
 30
0.000000
  70
    32
  0
VERTEX
  8
0
  5
28E3
 10
124.947
 20
84.4383
 30
0.000000
  70
    32
  0
VERTEX
  8
0
  5
28E4
 10
124.936
 20
84.4487
 30
0.000000
  70
    32
  0
VERTEX
  8
0
  5
28E5
 10
124.925
 20
84.4592
 30
0.000000
  70
    32
  0
VERTEX
  8
0
  5
28E6
 10
124.915
 20
84.4696
 30
0.000000
  70
    32
  0
VERTEX
  8
0
  5
28E7
 10
124.904
 20
84.4800
 30
0.000000
  70
    32
  0
VERTEX
  8
0
  5
28E8
 10
124.893
 20
84.4905
 30
0.000000
  70
    32
  0
VERTEX
  8
0
  5
28E9
 10
124.882
 20
84.5010
 30
0.000000
  70
    32
  0
VERTEX
  8
0
  5
28EA
 10
124.871
 20
84.5115
 30
0.000000
  70
    32
  0
VERTEX
  8
0
  5
28EB
 10
124.860
 20
84.5220
 30
0.000000
  70
    32
  0
SEQEND
  8
0
  5
28EC
  0
LINE
  5
21C8
  8
0
 10
124.86041254946321
 20
84.521961095831045
 30
0.0
 11
122.7304125494632
 21
84.521961095831116
 31
0.0
  0
LINE
  5
21C9
  8
0
 10
122.7304125494631
 20
81.521961095831102
 30
0.0
 11
122.7304125494632
 21
84.521961095831116
 31
0.0
  0
ARC
  5
21CA
  8
0
 10
126.730412549463
 20
81.521961095830918
 30
0.0
 40
5.0000000000000062
 50
143.13010235415351
 51
179.99999999999929
  0
LINE
  5
21CB
  8
0
 10
125.7304125494631
 20
81.521961095830989
 30
0.0
 11
125.7304125494632
 21
83.578500095716535
 31
0.0
  0
LINE
  5
21CC
  8
0
 10
124.86041254946321
 20
85.521961095831045
 30
0.0
 11
124.86041254946321
 21
84.521961095831045
 31
0.0
  0
LINE
  5
21CD
  8
0
 10
120.2304125494632
 20
77.721961095831318
 30
0.0
 11
100.7304125494632
 21
77.721961095831318
 31
0.0
  0
LINE
  5
21CE
  8
0
 10
120.2304125494631
 20
85.321961095831341
 30
0.0
 11
100.7304125494632
 21
85.321961095831341
 31
0.0
  0
LINE
  5
21CF
  8
0
 10
120.2304125494631
 20
88.721961095831276
 30
0.0
 11
100.7304125494632
 21
88.721961095831318
 31
0.0
  0
LINE
  5
21D0
  8
0
 10
120.2304125494631
 20
96.261364068815055
 30
0.0
 11
100.730412549463
 21
96.261364068815126
 31
0.0
  0
LINE
  5
21D1
  8
0
 10
120.2304125494632
 20
74.32196109583117
 30
0.0
 11
100.7304125494632
 21
74.321961095831227
 31
0.0
  0
ARC
  5
2205
  8
0
  6
CONTINUOUS
 62
     3
 10
108.2304125494632
 20
81.521961095830989
 30
0.0
 40
2.5
 50
165.0288771525527
 51
104.8481071849008
  0
CIRCLE
  5
2206
  8
0
 10
108.2304125494632
 20
81.521961095830989
 30
0.0
 40
2.1000000000000001
  0
ARC
  5
2207
  8
0
  6
CONTINUOUS
 62
     3
 10
112.7304125494632
 20
81.521961095830989
 30
0.0
 40
2.5
 50
165.0288771525527
 51
104.8481071849008
  0
CIRCLE
  5
2208
  8
0
 10
112.7304125494632
 20
81.521961095830989
 30
0.0
 40
2.1000000000000001
  0
DIMENSION
  5
2209
  8
DIM
  2
*D9
 10
181.5617879528385
 20
93.521961095831273
 30
0.0
 11
179.0617879528385
 21
81.521961095831301
 31
0.0
 70
     0
  1
\U+25A1<>
 13
190.37463399784059
 23
69.521961095831273
 33
0.0
 14
190.37463399784059
 24
93.521961095831273
 34
0.0
 50
90.0
  0
DIMENSION
  5
2216
  8
DIM
  2
*D10
 10
172.19815827363729
 20
64.521961095831273
 30
0.0
 11
169.69815827363729
 21
81.521961095831301
 31
0.0
 70
     0
  1
\U+25A1<>
 13
191.88523102485681
 23
98.521961095831273
 33
0.0
 14
191.88523102485689
 24
64.521961095831273
 34
0.0
 50
90.0
  0
LINE
  5
2223
  8
CENTER
 10
112.7304125494632
 20
78.310202241443335
 30
0.0
 11
112.7304125494632
 21
84.881456245588993
 31
0.0
  0
LINE
  5
2224
  8
CENTER
 10
108.2304125494632
 20
78.236334093758146
 30
0.0
 11
108.2304125494632
 21
84.807588097903817
 31
0.0
  0
DIMENSION
  5
2225
  8
DIM
  2
*D11
 10
120.2304125494632
 20
106.5420240773867
 30
0.0
 11
116.4804125494632
 21
106.5420240773867
 31
0.0
 70
   128
 13
112.7304125494632
 23
84.881456245588993
 33
0.0
 14
120.2304125494632
 24
98.521961095830989
 34
0.0
  0
DIMENSION
  5
2234
  8
DIM
  2
*D12
 10
100.7304125494632
 20
106.5420240773867
 30
0.0
 11
104.4804125494632
 21
106.5420240773867
 31
0.0
 70
   128
 13
108.2304125494632
 23
84.807588097903817
 33
0.0
 14
100.7304125494632
 24
98.521961095830989
 34
0.0
  0
DIMENSION
  5
2259
  8
DIM
  2
*D13
 10
100.7304125494632
 20
115.18363794929731
 30
0.0
 11
110.4804125494632
 21
117.68363794929731
 31
0.0
 70
     0
 13
120.2304125494632
 23
98.521961095830989
 33
0.0
 14
100.7304125494632
 24
98.521961095830974
 34
0.0
  0
DIMENSION
  5
2266
  8
DIM
  2
*D14
 10
125.7304125494631
 20
115.18363794929731
 30
0.0
 11
122.9804125494631
 21
115.18363794929731
 31
0.0
 70
   128
 13
120.2304125494632
 23
98.521961095830989
 33
0.0
 14
125.7304125494631
 24
85.521961095831159
 34
0.0
  0
DIMENSION
  5
2280
  8
DIM
  2
*D15
 10
100.7304125494632
 20
124.03602410345781
 30
0.0
 11
113.2304125494631
 21
126.53602410345781
 31
0.0
 70
     0
 13
125.7304125494631
 23
85.521961095831159
 33
0.0
 14
100.7304125494632
 24
98.521961095830989
 34
0.0
  0
POLYLINE
  8
0
  5
28ED
  66
     1
 10
0.000000
 20
0.000000
 30
0.000000
  70
     8
  0
VERTEX
  8
0
  5
28EE
 10
218.625
 20
93.5220
 30
0.000000
  70
    32
  0
VERTEX
  8
0
  5
28EF
 10
224.328
 20
115.284
 30
0.000000
  70
    32
  0
VERTEX
  8
0
  5
28F0
 10
227.328
 20
115.284
 30
0.000000
  70
    32
  0
SEQEND
  8
0
  5
28F1
  0
INSERT
  5
22A0
  8
0
  2
*U33
 10
0.0
 20
0.0
 30
0.0
  0
POLYLINE
  8
0
  5
28F2
  66
     1
 10
0.000000
 20
0.000000
 30
0.000000
  70
     8
  0
VERTEX
  8
0
  5
28F3
 10
108.230
 20
81.5220
 30
0.000000
  70
    32
  0
VERTEX
  8
0
  5
28F4
 10
96.2007
 20
94.6814
 30
0.000000
  70
    32
  0
VERTEX
  8
0
  5
28F5
 10
93.2007
 20
94.6814
 30
0.000000
  70
    32
  0
SEQEND
  8
0
  5
28F6
  0
TEXT
  5
22A2
  8
0
 10
74.200696225254433
 20
95.681360694872296
 30
0.0
 40
3.0
  1
2-5*0.8
  7
CHINESET
  0
DIMENSION
  5
22A3
  8
DIM
  2
*D16
 10
142.6736632050642
 20
75.021961095830989
 30
0.0
 11
140.1736632050642
 21
81.521961095830989
 31
0.0
 70
     0
  1
%%c<>
 13
121.2304125494634
 23
88.021961095830974
 33
0.0
 14
121.2304125494634
 24
75.021961095830989
 34
0.0
 50
90.0
  0
DIMENSION
  5
22B0
  8
DIM
  2
*D17
 10
135.01632236581659
 20
76.521961095831443
 30
0.0
 11
132.51632236581659
 21
81.52196109583123
 31
0.0
 70
     0
  1
%%c<>
 13
121.7304125494634
 23
86.521961095830989
 33
0.0
 14
121.7304125494634
 24
76.521961095831443
 34
0.0
 50
90.0
  0
DIMENSION
  5
22CF
  8
DIM
  2
*D18
 10
120.2304125494632
 20
55.976125733641993
 30
0.0
 11
110.37326969232031
 21
58.476125733641993
 31
0.0
 70
     0
 13
121.7304125494634
 23
75.521961095830989
 33
0.0
 14
120.2304125494632
 24
64.521961095830974
 34
0.0
  0
POLYLINE
  8
0
  5
28F7
  66
     1
 10
0.000000
 20
0.000000
 30
0.000000
  70
     8
  0
VERTEX
  8
0
  5
28F8
 10
110.706
 20
189.827
 30
0.000000
  70
    32
  0
VERTEX
  8
0
  5
28F9
 10
110.698
 20
189.818
 30
0.000000
  70
    32
  0
VERTEX
  8
0
  5
28FA
 10
110.691
 20
189.808
 30
0.000000
  70
    32
  0
VERTEX
  8
0
  5
28FB
 10
110.683
 20
189.799
 30
0.000000
  70
    32
  0
VERTEX
  8
0
  5
28FC
 10
110.676
 20
189.789
 30
0.000000
  70
    32
  0
VERTEX
  8
0
  5
28FD
 10
110.668
 20
189.780
 30
0.000000
  70
    32
  0
VERTEX
  8
0
  5
28FE
 10
110.660
 20
189.770
 30
0.000000
  70
    32
  0
VERTEX
  8
0
  5
28FF
 10
110.653
 20
189.761
 30
0.000000
  70
    32
  0
VERTEX
  8
0
  5
2900
 10
110.645
 20
189.751
 30
0.000000
  70
    32
  0
VERTEX
  8
0
  5
2901
 10
110.637
 20
189.742
 30
0.000000
  70
    32
  0
VERTEX
  8
0
  5
2902
 10
110.629
 20
189.732
 30
0.000000
  70
    32
  0
VERTEX
  8
0
  5
2903
 10
110.621
 20
189.723
 30
0.000000
  70
    32
  0
VERTEX
  8
0
  5
2904
 10
110.613
 20
189.713
 30
0.000000
  70
    32
  0
VERTEX
  8
0
  5
2905
 10
110.606
 20
189.703
 30
0.000000
  70
    32
  0
VERTEX
  8
0
  5
2906
 10
110.598
 20
189.694
 30
0.000000
  70
    32
  0
VERTEX
  8
0
  5
2907
 10
110.590
 20
189.684
 30
0.000000
  70
    32
  0
VERTEX
  8
0
  5
2908
 10
110.582
 20
189.675
 30
0.000000
  70
    32
  0
VERTEX
  8
0
  5
2909
 10
110.574
 20
189.665
 30
0.000000
  70
    32
  0
VERTEX
  8
0
  5
290A
 10
110.565
 20
189.656
 30
0.000000
  70
    32
  0
VERTEX
  8
0
  5
290B
 10
110.557
 20
189.646
 30
0.000000
  70
    32
  0
VERTEX
  8
0
  5
290C
 10
110.549
 20
189.636
 30
0.000000
  70
    32
  0
VERTEX
  8
0
  5
290D
 10
110.541
 20
189.627
 30
0.000000
  70
    32
  0
VERTEX
  8
0
  5
290E
 10
110.533
 20
189.617
 30
0.000000
  70
    32
  0
VERTEX
  8
0
  5
290F
 10
110.525
 20
189.607
 30
0.000000
  70
    32
  0
VERTEX
  8
0
  5
2910
 10
110.516
 20
189.598
 30
0.000000
  70
    32
  0
VERTEX
  8
0
  5
2911
 10
110.508
 20
189.588
 30
0.000000
  70
    32
  0
VERTEX
  8
0
  5
2912
 10
110.500
 20
189.578
 30
0.000000
  70
    32
  0
VERTEX
  8
0
  5
2913
 10
110.491
 20
189.569
 30
0.000000
  70
    32
  0
VERTEX
  8
0
  5
2914
 10
110.483
 20
189.559
 30
0.000000
  70
    32
  0
VERTEX
  8
0
  5
2915
 10
110.474
 20
189.549
 30
0.000000
  70
    32
  0
VERTEX
  8
0
  5
2916
 10
110.466
 20
189.540
 30
0.000000
  70
    32
  0
VERTEX
  8
0
  5
2917
 10
110.457
 20
189.530
 30
0.000000
  70
    32
  0
VERTEX
  8
0
  5
2918
 10
110.449
 20
189.520
 30
0.000000
  70
    32
  0
VERTEX
  8
0
  5
2919
 10
110.440
 20
189.510
 30
0.000000
  70
    32
  0
VERTEX
  8
0
  5
291A
 10
110.431
 20
189.501
 30
0.000000
  70
    32
  0
VERTEX
  8
0
  5
291B
 10
110.423
 20
189.491
 30
0.000000
  70
    32
  0
VERTEX
  8
0
  5
291C
 10
110.414
 20
189.481
 30
0.000000
  70
    32
  0
VERTEX
  8
0
  5
291D
 10
110.405
 20
189.471
 30
0.000000
  70
    32
  0
VERTEX
  8
0
  5
291E
 10
110.397
 20
189.461
 30
0.000000
  70
    32
  0
VERTEX
  8
0
  5
291F
 10
110.388
 20
189.452
 30
0.000000
  70
    32
  0
VERTEX
  8
0
  5
2920
 10
110.379
 20
189.442
 30
0.000000
  70
    32
  0
VERTEX
  8
0
  5
2921
 10
110.370
 20
189.432
 30
0.000000
  70
    32
  0
VERTEX
  8
0
  5
2922
 10
110.361
 20
189.422
 30
0.000000
  70
    32
  0
VERTEX
  8
0
  5
2923
 10
110.352
 20
189.412
 30
0.000000
  70
    32
  0
VERTEX
  8
0
  5
2924
 10
110.343
 20
189.402
 30
0.000000
  70
    32
  0
VERTEX
  8
0
  5
2925
 10
110.334
 20
189.393
 30
0.000000
  70
    32
  0
VERTEX
  8
0
  5
2926
 10
110.325
 20
189.383
 30
0.000000
  70
    32
  0
VERTEX
  8
0
  5
2927
 10
110.316
 20
189.373
 30
0.000000
  70
    32
  0
VERTEX
  8
0
  5
2928
 10
110.307
 20
189.363
 30
0.000000
  70
    32
  0
VERTEX
  8
0
  5
2929
 10
110.298
 20
189.353
 30
0.000000
  70
    32
  0
VERTEX
  8
0
  5
292A
 10
110.288
 20
189.343
 30
0.000000
  70
    32
  0
VERTEX
  8
0
  5
292B
 10
110.279
 20
189.333
 30
0.000000
  70
    32
  0
VERTEX
  8
0
  5
292C
 10
110.270
 20
189.323
 30
0.000000
  70
    32
  0
VERTEX
  8
0
  5
292D
 10
110.261
 20
189.313
 30
0.000000
  70
    32
  0
VERTEX
  8
0
  5
292E
 10
110.251
 20
189.303
 30
0.000000
  70
    32
  0
VERTEX
  8
0
  5
292F
 10
110.242
 20
189.293
 30
0.000000
  70
    32
  0
VERTEX
  8
0
  5
2930
 10
110.232
 20
189.283
 30
0.000000
  70
    32
  0
VERTEX
  8
0
  5
2931
 10
110.223
 20
189.273
 30
0.000000
  70
    32
  0
VERTEX
  8
0
  5
2932
 10
110.214
 20
189.263
 30
0.000000
  70
    32
  0
VERTEX
  8
0
  5
2933
 10
110.204
 20
189.253
 30
0.000000
  70
    32
  0
VERTEX
  8
0
  5
2934
 10
110.194
 20
189.243
 30
0.000000
  70
    32
  0
VERTEX
  8
0
  5
2935
 10
110.185
 20
189.233
 30
0.000000
  70
    32
  0
VERTEX
  8
0
  5
2936
 10
110.175
 20
189.223
 30
0.000000
  70
    32
  0
VERTEX
  8
0
  5
2937
 10
110.165
 20
189.213
 30
0.000000
  70
    32
  0
VERTEX
  8
0
  5
2938
 10
110.156
 20
189.203
 30
0.000000
  70
    32
  0
VERTEX
  8
0
  5
2939
 10
110.146
 20
189.193
 30
0.000000
  70
    32
  0
VERTEX
  8
0
  5
293A
 10
110.136
 20
189.183
 30
0.000000
  70
    32
  0
VERTEX
  8
0
  5
293B
 10
110.126
 20
189.172
 30
0.000000
  70
    32
  0
VERTEX
  8
0
  5
293C
 10
110.116
 20
189.162
 30
0.000000
  70
    32
  0
VERTEX
  8
0
  5
293D
 10
110.107
 20
189.152
 30
0.000000
  70
    32
  0
VERTEX
  8
0
  5
293E
 10
110.097
 20
189.142
 30
0.000000
  70
    32
  0
VERTEX
  8
0
  5
293F
 10
110.087
 20
189.132
 30
0.000000
  70
    32
  0
VERTEX
  8
0
  5
2940
 10
110.077
 20
189.122
 30
0.000000
  70
    32
  0
VERTEX
  8
0
  5
2941
 10
110.067
 20
189.111
 30
0.000000
  70
    32
  0
VERTEX
  8
0
  5
2942
 10
110.057
 20
189.101
 30
0.000000
  70
    32
  0
VERTEX
  8
0
  5
2943
 10
110.046
 20
189.091
 30
0.000000
  70
    32
  0
VERTEX
  8
0
  5
2944
 10
110.036
 20
189.081
 30
0.000000
  70
    32
  0
VERTEX
  8
0
  5
2945
 10
110.026
 20
189.071
 30
0.000000
  70
    32
  0
VERTEX
  8
0
  5
2946
 10
110.016
 20
189.060
 30
0.000000
  70
    32
  0
VERTEX
  8
0
  5
2947
 10
110.005
 20
189.050
 30
0.000000
  70
    32
  0
VERTEX
  8
0
  5
2948
 10
109.995
 20
189.040
 30
0.000000
  70
    32
  0
VERTEX
  8
0
  5
2949
 10
109.985
 20
189.029
 30
0.000000
  70
    32
  0
VERTEX
  8
0
  5
294A
 10
109.974
 20
189.019
 30
0.000000
  70
    32
  0
VERTEX
  8
0
  5
294B
 10
109.964
 20
189.009
 30
0.000000
  70
    32
  0
VERTEX
  8
0
  5
294C
 10
109.953
 20
188.998
 30
0.000000
  70
    32
  0
VERTEX
  8
0
  5
294D
 10
109.943
 20
188.988
 30
0.000000
  70
    32
  0
VERTEX
  8
0
  5
294E
 10
109.932
 20
188.978
 30
0.000000
  70
    32
  0
VERTEX
  8
0
  5
294F
 10
109.922
 20
188.967
 30
0.000000
  70
    32
  0
VERTEX
  8
0
  5
2950
 10
109.911
 20
188.957
 30
0.000000
  70
    32
  0
VERTEX
  8
0
  5
2951
 10
109.901
 20
188.946
 30
0.000000
  70
    32
  0
VERTEX
  8
0
  5
2952
 10
109.890
 20
188.936
 30
0.000000
  70
    32
  0
VERTEX
  8
0
  5
2953
 10
109.879
 20
188.926
 30
0.000000
  70
    32
  0
VERTEX
  8
0
  5
2954
 10
109.868
 20
188.915
 30
0.000000
  70
    32
  0
VERTEX
  8
0
  5
2955
 10
109.857
 20
188.905
 30
0.000000
  70
    32
  0
VERTEX
  8
0
  5
2956
 10
109.847
 20
188.894
 30
0.000000
  70
    32
  0
VERTEX
  8
0
  5
2957
 10
109.836
 20
188.884
 30
0.000000
  70
    32
  0
SEQEND
  8
0
  5
2958
  0
POLYLINE
  8
0
  5
2959
  66
     1
 10
0.000000
 20
0.000000
 30
0.000000
  70
     8
  0
VERTEX
  8
0
  5
295A
 10
109.836
 20
187.884
 30
0.000000
  70
    32
  0
VERTEX
  8
0
  5
295B
 10
109.843
 20
187.884
 30
0.000000
  70
    32
  0
VERTEX
  8
0
  5
295C
 10
109.851
 20
187.884
 30
0.000000
  70
    32
  0
VERTEX
  8
0
  5
295D
 10
109.860
 20
187.884
 30
0.000000
  70
    32
  0
VERTEX
  8
0
  5
295E
 10
109.870
 20
187.884
 30
0.000000
  70
    32
  0
VERTEX
  8
0
  5
295F
 10
109.882
 20
187.884
 30
0.000000
  70
    32
  0
VERTEX
  8
0
  5
2960
 10
109.894
 20
187.884
 30
0.000000
  70
    32
  0
VERTEX
  8
0
  5
2961
 10
109.908
 20
187.884
 30
0.000000
  70
    32
  0
VERTEX
  8
0
  5
2962
 10
109.923
 20
187.884
 30
0.000000
  70
    32
  0
VERTEX
  8
0
  5
2963
 10
109.938
 20
187.884
 30
0.000000
  70
    32
  0
VERTEX
  8
0
  5
2964
 10
109.955
 20
187.884
 30
0.000000
  70
    32
  0
VERTEX
  8
0
  5
2965
 10
109.973
 20
187.884
 30
0.000000
  70
    32
  0
VERTEX
  8
0
  5
2966
 10
109.992
 20
187.884
 30
0.000000
  70
    32
  0
VERTEX
  8
0
  5
2967
 10
110.012
 20
187.884
 30
0.000000
  70
    32
  0
VERTEX
  8
0
  5
2968
 10
110.033
 20
187.884
 30
0.000000
  70
    32
  0
VERTEX
  8
0
  5
2969
 10
110.056
 20
187.884
 30
0.000000
  70
    32
  0
VERTEX
  8
0
  5
296A
 10
110.079
 20
187.884
 30
0.000000
  70
    32
  0
VERTEX
  8
0
  5
296B
 10
110.104
 20
187.884
 30
0.000000
  70
    32
  0
VERTEX
  8
0
  5
296C
 10
110.129
 20
187.884
 30
0.000000
  70
    32
  0
VERTEX
  8
0
  5
296D
 10
110.156
 20
187.884
 30
0.000000
  70
    32
  0
VERTEX
  8
0
  5
296E
 10
110.183
 20
187.884
 30
0.000000
  70
    32
  0
VERTEX
  8
0
  5
296F
 10
110.212
 20
187.884
 30
0.000000
  70
    32
  0
VERTEX
  8
0
  5
2970
 10
110.242
 20
187.884
 30
0.000000
  70
    32
  0
VERTEX
  8
0
  5
2971
 10
110.273
 20
187.884
 30
0.000000
  70
    32
  0
VERTEX
  8
0
  5
2972
 10
110.305
 20
187.884
 30
0.000000
  70
    32
  0
VERTEX
  8
0
  5
2973
 10
110.338
 20
187.884
 30
0.000000
  70
    32
  0
VERTEX
  8
0
  5
2974
 10
110.373
 20
187.884
 30
0.000000
  70
    32
  0
VERTEX
  8
0
  5
2975
 10
110.408
 20
187.884
 30
0.000000
  70
    32
  0
VERTEX
  8
0
  5
2976
 10
110.444
 20
187.884
 30
0.000000
  70
    32
  0
VERTEX
  8
0
  5
2977
 10
110.482
 20
187.884
 30
0.000000
  70
    32
  0
VERTEX
  8
0
  5
2978
 10
110.520
 20
187.884
 30
0.000000
  70
    32
  0
VERTEX
  8
0
  5
2979
 10
110.560
 20
187.884
 30
0.000000
  70
    32
  0
VERTEX
  8
0
  5
297A
 10
110.601
 20
187.884
 30
0.000000
  70
    32
  0
VERTEX
  8
0
  5
297B
 10
110.642
 20
187.884
 30
0.000000
  70
    32
  0
VERTEX
  8
0
  5
297C
 10
110.685
 20
187.884
 30
0.000000
  70
    32
  0
VERTEX
  8
0
  5
297D
 10
110.729
 20
187.884
 30
0.000000
  70
    32
  0
VERTEX
  8
0
  5
297E
 10
110.774
 20
187.884
 30
0.000000
  70
    32
  0
VERTEX
  8
0
  5
297F
 10
110.821
 20
187.884
 30
0.000000
  70
    32
  0
VERTEX
  8
0
  5
2980
 10
110.868
 20
187.884
 30
0.000000
  70
    32
  0
VERTEX
  8
0
  5
2981
 10
110.916
 20
187.884
 30
0.000000
  70
    32
  0
VERTEX
  8
0
  5
2982
 10
110.966
 20
187.884
 30
0.000000
  70
    32
  0
VERTEX
  8
0
  5
2983
 10
111.016
 20
187.884
 30
0.000000
  70
    32
  0
VERTEX
  8
0
  5
2984
 10
111.068
 20
187.884
 30
0.000000
  70
    32
  0
VERTEX
  8
0
  5
2985
 10
111.120
 20
187.884
 30
0.000000
  70
    32
  0
VERTEX
  8
0
  5
2986
 10
111.174
 20
187.884
 30
0.000000
  70
    32
  0
VERTEX
  8
0
  5
2987
 10
111.229
 20
187.884
 30
0.000000
  70
    32
  0
VERTEX
  8
0
  5
2988
 10
111.285
 20
187.884
 30
0.000000
  70
    32
  0
VERTEX
  8
0
  5
2989
 10
111.342
 20
187.884
 30
0.000000
  70
    32
  0
VERTEX
  8
0
  5
298A
 10
111.400
 20
187.884
 30
0.000000
  70
    32
  0
VERTEX
  8
0
  5
298B
 10
111.459
 20
187.884
 30
0.000000
  70
    32
  0
VERTEX
  8
0
  5
298C
 10
111.519
 20
187.884
 30
0.000000
  70
    32
  0
VERTEX
  8
0
  5
298D
 10
111.581
 20
187.884
 30
0.000000
  70
    32
  0
VERTEX
  8
0
  5
298E
 10
111.643
 20
187.884
 30
0.000000
  70
    32
  0
VERTEX
  8
0
  5
298F
 10
111.707
 20
187.884
 30
0.000000
  70
    32
  0
VERTEX
  8
0
  5
2990
 10
111.771
 20
187.884
 30
0.000000
  70
    32
  0
VERTEX
  8
0
  5
2991
 10
111.837
 20
187.884
 30
0.000000
  70
    32
  0
VERTEX
  8
0
  5
2992
 10
111.904
 20
187.884
 30
0.000000
  70
    32
  0
VERTEX
  8
0
  5
2993
 10
111.972
 20
187.884
 30
0.000000
  70
    32
  0
VERTEX
  8
0
  5
2994
 10
112.041
 20
187.884
 30
0.000000
  70
    32
  0
VERTEX
  8
0
  5
2995
 10
112.111
 20
187.884
 30
0.000000
  70
    32
  0
VERTEX
  8
0
  5
2996
 10
112.182
 20
187.884
 30
0.000000
  70
    32
  0
VERTEX
  8
0
  5
2997
 10
112.254
 20
187.884
 30
0.000000
  70
    32
  0
VERTEX
  8
0
  5
2998
 10
112.327
 20
187.884
 30
0.000000
  70
    32
  0
VERTEX
  8
0
  5
2999
 10
112.402
 20
187.884
 30
0.000000
  70
    32
  0
VERTEX
  8
0
  5
299A
 10
112.477
 20
187.884
 30
0.000000
  70
    32
  0
VERTEX
  8
0
  5
299B
 10
112.554
 20
187.884
 30
0.000000
  70
    32
  0
VERTEX
  8
0
  5
299C
 10
112.632
 20
187.884
 30
0.000000
  70
    32
  0
VERTEX
  8
0
  5
299D
 10
112.710
 20
187.884
 30
0.000000
  70
    32
  0
VERTEX
  8
0
  5
299E
 10
112.790
 20
187.884
 30
0.000000
  70
    32
  0
VERTEX
  8
0
  5
299F
 10
112.871
 20
187.884
 30
0.000000
  70
    32
  0
VERTEX
  8
0
  5
29A0
 10
112.953
 20
187.884
 30
0.000000
  70
    32
  0
VERTEX
  8
0
  5
29A1
 10
113.036
 20
187.884
 30
0.000000
  70
    32
  0
VERTEX
  8
0
  5
29A2
 10
113.120
 20
187.884
 30
0.000000
  70
    32
  0
VERTEX
  8
0
  5
29A3
 10
113.206
 20
187.884
 30
0.000000
  70
    32
  0
VERTEX
  8
0
  5
29A4
 10
113.292
 20
187.884
 30
0.000000
  70
    32
  0
VERTEX
  8
0
  5
29A5
 10
113.379
 20
187.884
 30
0.000000
  70
    32
  0
VERTEX
  8
0
  5
29A6
 10
113.468
 20
187.884
 30
0.000000
  70
    32
  0
VERTEX
  8
0
  5
29A7
 10
113.557
 20
187.884
 30
0.000000
  70
    32
  0
VERTEX
  8
0
  5
29A8
 10
113.648
 20
187.884
 30
0.000000
  70
    32
  0
VERTEX
  8
0
  5
29A9
 10
113.740
 20
187.884
 30
0.000000
  70
    32
  0
VERTEX
  8
0
  5
29AA
 10
113.833
 20
187.884
 30
0.000000
  70
    32
  0
VERTEX
  8
0
  5
29AB
 10
113.927
 20
187.884
 30
0.000000
  70
    32
  0
VERTEX
  8
0
  5
29AC
 10
114.022
 20
187.884
 30
0.000000
  70
    32
  0
VERTEX
  8
0
  5
29AD
 10
114.118
 20
187.884
 30
0.000000
  70
    32
  0
VERTEX
  8
0
  5
29AE
 10
114.215
 20
187.884
 30
0.000000
  70
    32
  0
VERTEX
  8
0
  5
29AF
 10
114.314
 20
187.884
 30
0.000000
  70
    32
  0
VERTEX
  8
0
  5
29B0
 10
114.413
 20
187.884
 30
0.000000
  70
    32
  0
VERTEX
  8
0
  5
29B1
 10
114.514
 20
187.884
 30
0.000000
  70
    32
  0
VERTEX
  8
0
  5
29B2
 10
114.615
 20
187.884
 30
0.000000
  70
    32
  0
VERTEX
  8
0
  5
29B3
 10
114.718
 20
187.884
 30
0.000000
  70
    32
  0
VERTEX
  8
0
  5
29B4
 10
114.822
 20
187.884
 30
0.000000
  70
    32
  0
VERTEX
  8
0
  5
29B5
 10
114.927
 20
187.884
 30
0.000000
  70
    32
  0
VERTEX
  8
0
  5
29B6
 10
115.033
 20
187.884
 30
0.000000
  70
    32
  0
VERTEX
  8
0
  5
29B7
 10
115.140
 20
187.884
 30
0.000000
  70
    32
  0
VERTEX
  8
0
  5
29B8
 10
115.248
 20
187.884
 30
0.000000
  70
    32
  0
VERTEX
  8
0
  5
29B9
 10
115.357
 20
187.884
 30
0.000000
  70
    32
  0
SEQEND
  8
0
  5
29BA
  0
POLYLINE
  8
0
  5
29BB
  66
     1
 10
0.000000
 20
0.000000
 30
0.000000
  70
     8
  0
VERTEX
  8
0
  5
29BC
 10
110.706
 20
193.940
 30
0.000000
  70
    32
  0
VERTEX
  8
0
  5
29BD
 10
110.698
 20
193.950
 30
0.000000
  70
    32
  0
VERTEX
  8
0
  5
29BE
 10
110.691
 20
193.959
 30
0.000000
  70
    32
  0
VERTEX
  8
0
  5
29BF
 10
110.683
 20
193.969
 30
0.000000
  70
    32
  0
VERTEX
  8
0
  5
29C0
 10
110.676
 20
193.978
 30
0.000000
  70
    32
  0
VERTEX
  8
0
  5
29C1
 10
110.668
 20
193.988
 30
0.000000
  70
    32
  0
VERTEX
  8
0
  5
29C2
 10
110.660
 20
193.997
 30
0.000000
  70
    32
  0
VERTEX
  8
0
  5
29C3
 10
110.653
 20
194.007
 30
0.000000
  70
    32
  0
VERTEX
  8
0
  5
29C4
 10
110.645
 20
194.016
 30
0.000000
  70
    32
  0
VERTEX
  8
0
  5
29C5
 10
110.637
 20
194.026
 30
0.000000
  70
    32
  0
VERTEX
  8
0
  5
29C6
 10
110.629
 20
194.035
 30
0.000000
  70
    32
  0
VERTEX
  8
0
  5
29C7
 10
110.621
 20
194.045
 30
0.000000
  70
    32
  0
VERTEX
  8
0
  5
29C8
 10
110.613
 20
194.054
 30
0.000000
  70
    32
  0
VERTEX
  8
0
  5
29C9
 10
110.606
 20
194.064
 30
0.000000
  70
    32
  0
VERTEX
  8
0
  5
29CA
 10
110.598
 20
194.073
 30
0.000000
  70
    32
  0
VERTEX
  8
0
  5
29CB
 10
110.590
 20
194.083
 30
0.000000
  70
    32
  0
VERTEX
  8
0
  5
29CC
 10
110.582
 20
194.092
 30
0.000000
  70
    32
  0
VERTEX
  8
0
  5
29CD
 10
110.574
 20
194.102
 30
0.000000
  70
    32
  0
VERTEX
  8
0
  5
29CE
 10
110.565
 20
194.112
 30
0.000000
  70
    32
  0
VERTEX
  8
0
  5
29CF
 10
110.557
 20
194.121
 30
0.000000
  70
    32
  0
VERTEX
  8
0
  5
29D0
 10
110.549
 20
194.131
 30
0.000000
  70
    32
  0
VERTEX
  8
0
  5
29D1
 10
110.541
 20
194.141
 30
0.000000
  70
    32
  0
VERTEX
  8
0
  5
29D2
 10
110.533
 20
194.150
 30
0.000000
  70
    32
  0
VERTEX
  8
0
  5
29D3
 10
110.525
 20
194.160
 30
0.000000
  70
    32
  0
VERTEX
  8
0
  5
29D4
 10
110.516
 20
194.169
 30
0.000000
  70
    32
  0
VERTEX
  8
0
  5
29D5
 10
110.508
 20
194.179
 30
0.000000
  70
    32
  0
VERTEX
  8
0
  5
29D6
 10
110.500
 20
194.189
 30
0.000000
  70
    32
  0
VERTEX
  8
0
  5
29D7
 10
110.491
 20
194.199
 30
0.000000
  70
    32
  0
VERTEX
  8
0
  5
29D8
 10
110.483
 20
194.208
 30
0.000000
  70
    32
  0
VERTEX
  8
0
  5
29D9
 10
110.474
 20
194.218
 30
0.000000
  70
    32
  0
VERTEX
  8
0
  5
29DA
 10
110.466
 20
194.228
 30
0.000000
  70
    32
  0
VERTEX
  8
0
  5
29DB
 10
110.457
 20
194.237
 30
0.000000
  70
    32
  0
VERTEX
  8
0
  5
29DC
 10
110.449
 20
194.247
 30
0.000000
  70
    32
  0
VERTEX
  8
0
  5
29DD
 10
110.440
 20
194.257
 30
0.000000
  70
    32
  0
VERTEX
  8
0
  5
29DE
 10
110.431
 20
194.267
 30
0.000000
  70
    32
  0
VERTEX
  8
0
  5
29DF
 10
110.423
 20
194.276
 30
0.000000
  70
    32
  0
VERTEX
  8
0
  5
29E0
 10
110.414
 20
194.286
 30
0.000000
  70
    32
  0
VERTEX
  8
0
  5
29E1
 10
110.405
 20
194.296
 30
0.000000
  70
    32
  0
VERTEX
  8
0
  5
29E2
 10
110.397
 20
194.306
 30
0.000000
  70
    32
  0
VERTEX
  8
0
  5
29E3
 10
110.388
 20
194.316
 30
0.000000
  70
    32
  0
VERTEX
  8
0
  5
29E4
 10
110.379
 20
194.325
 30
0.000000
  70
    32
  0
VERTEX
  8
0
  5
29E5
 10
110.370
 20
194.335
 30
0.000000
  70
    32
  0
VERTEX
  8
0
  5
29E6
 10
110.361
 20
194.345
 30
0.000000
  70
    32
  0
VERTEX
  8
0
  5
29E7
 10
110.352
 20
194.355
 30
0.000000
  70
    32
  0
VERTEX
  8
0
  5
29E8
 10
110.343
 20
194.365
 30
0.000000
  70
    32
  0
VERTEX
  8
0
  5
29E9
 10
110.334
 20
194.375
 30
0.000000
  70
    32
  0
VERTEX
  8
0
  5
29EA
 10
110.325
 20
194.385
 30
0.000000
  70
    32
  0
VERTEX
  8
0
  5
29EB
 10
110.316
 20
194.394
 30
0.000000
  70
    32
  0
VERTEX
  8
0
  5
29EC
 10
110.307
 20
194.404
 30
0.000000
  70
    32
  0
VERTEX
  8
0
  5
29ED
 10
110.298
 20
194.414
 30
0.000000
  70
    32
  0
VERTEX
  8
0
  5
29EE
 10
110.288
 20
194.424
 30
0.000000
  70
    32
  0
VERTEX
  8
0
  5
29EF
 10
110.279
 20
194.434
 30
0.000000
  70
    32
  0
VERTEX
  8
0
  5
29F0
 10
110.270
 20
194.444
 30
0.000000
  70
    32
  0
VERTEX
  8
0
  5
29F1
 10
110.261
 20
194.454
 30
0.000000
  70
    32
  0
VERTEX
  8
0
  5
29F2
 10
110.251
 20
194.464
 30
0.000000
  70
    32
  0
VERTEX
  8
0
  5
29F3
 10
110.242
 20
194.474
 30
0.000000
  70
    32
  0
VERTEX
  8
0
  5
29F4
 10
110.232
 20
194.484
 30
0.000000
  70
    32
  0
VERTEX
  8
0
  5
29F5
 10
110.223
 20
194.494
 30
0.000000
  70
    32
  0
VERTEX
  8
0
  5
29F6
 10
110.214
 20
194.504
 30
0.000000
  70
    32
  0
VERTEX
  8
0
  5
29F7
 10
110.204
 20
194.514
 30
0.000000
  70
    32
  0
VERTEX
  8
0
  5
29F8
 10
110.194
 20
194.524
 30
0.000000
  70
    32
  0
VERTEX
  8
0
  5
29F9
 10
110.185
 20
194.534
 30
0.000000
  70
    32
  0
VERTEX
  8
0
  5
29FA
 10
110.175
 20
194.544
 30
0.000000
  70
    32
  0
VERTEX
  8
0
  5
29FB
 10
110.165
 20
194.554
 30
0.000000
  70
    32
  0
VERTEX
  8
0
  5
29FC
 10
110.156
 20
194.564
 30
0.000000
  70
    32
  0
VERTEX
  8
0
  5
29FD
 10
110.146
 20
194.574
 30
0.000000
  70
    32
  0
VERTEX
  8
0
  5
29FE
 10
110.136
 20
194.585
 30
0.000000
  70
    32
  0
VERTEX
  8
0
  5
29FF
 10
110.126
 20
194.595
 30
0.000000
  70
    32
  0
VERTEX
  8
0
  5
2A00
 10
110.116
 20
194.605
 30
0.000000
  70
    32
  0
VERTEX
  8
0
  5
2A01
 10
110.107
 20
194.615
 30
0.000000
  70
    32
  0
VERTEX
  8
0
  5
2A02
 10
110.097
 20
194.625
 30
0.000000
  70
    32
  0
VERTEX
  8
0
  5
2A03
 10
110.087
 20
194.635
 30
0.000000
  70
    32
  0
VERTEX
  8
0
  5
2A04
 10
110.077
 20
194.646
 30
0.000000
  70
    32
  0
VERTEX
  8
0
  5
2A05
 10
110.067
 20
194.656
 30
0.000000
  70
    32
  0
VERTEX
  8
0
  5
2A06
 10
110.057
 20
194.666
 30
0.000000
  70
    32
  0
VERTEX
  8
0
  5
2A07
 10
110.046
 20
194.676
 30
0.000000
  70
    32
  0
VERTEX
  8
0
  5
2A08
 10
110.036
 20
194.686
 30
0.000000
  70
    32
  0
VERTEX
  8
0
  5
2A09
 10
110.026
 20
194.697
 30
0.000000
  70
    32
  0
VERTEX
  8
0
  5
2A0A
 10
110.016
 20
194.707
 30
0.000000
  70
    32
  0
VERTEX
  8
0
  5
2A0B
 10
110.005
 20
194.717
 30
0.000000
  70
    32
  0
VERTEX
  8
0
  5
2A0C
 10
109.995
 20
194.728
 30
0.000000
  70
    32
  0
VERTEX
  8
0
  5
2A0D
 10
109.985
 20
194.738
 30
0.000000
  70
    32
  0
VERTEX
  8
0
  5
2A0E
 10
109.974
 20
194.748
 30
0.000000
  70
    32
  0
VERTEX
  8
0
  5
2A0F
 10
109.964
 20
194.759
 30
0.000000
  70
    32
  0
VERTEX
  8
0
  5
2A10
 10
109.953
 20
194.769
 30
0.000000
  70
    32
  0
VERTEX
  8
0
  5
2A11
 10
109.943
 20
194.779
 30
0.000000
  70
    32
  0
VERTEX
  8
0
  5
2A12
 10
109.932
 20
194.790
 30
0.000000
  70
    32
  0
VERTEX
  8
0
  5
2A13
 10
109.922
 20
194.800
 30
0.000000
  70
    32
  0
VERTEX
  8
0
  5
2A14
 10
109.911
 20
194.810
 30
0.000000
  70
    32
  0
VERTEX
  8
0
  5
2A15
 10
109.901
 20
194.821
 30
0.000000
  70
    32
  0
VERTEX
  8
0
  5
2A16
 10
109.890
 20
194.831
 30
0.000000
  70
    32
  0
VERTEX
  8
0
  5
2A17
 10
109.879
 20
194.842
 30
0.000000
  70
    32
  0
VERTEX
  8
0
  5
2A18
 10
109.868
 20
194.852
 30
0.000000
  70
    32
  0
VERTEX
  8
0
  5
2A19
 10
109.857
 20
194.863
 30
0.000000
  70
    32
  0
VERTEX
  8
0
  5
2A1A
 10
109.847
 20
194.873
 30
0.000000
  70
    32
  0
VERTEX
  8
0
  5
2A1B
 10
109.836
 20
194.884
 30
0.000000
  70
    32
  0
SEQEND
  8
0
  5
2A1C
  0
DIMENSION
  5
22F4
  8
DIM
  2
*D26
 10
105.2057360071742
 20
166.33778229859209
 30
0.0
 11
95.348593150031405
 21
168.83778229859209
 31
0.0
 70
     0
 13
106.70573600717449
 23
185.88361766078111
 33
0.0
 14
105.2057360071742
 24
174.88361766078111
 34
0.0
  0
POLYLINE
  8
0
  5
2A1D
  66
     1
 10
0.000000
 20
0.000000
 30
0.000000
  70
     8
  0
VERTEX
  8
0
  5
2A1E
 10
93.2057
 20
191.884
 30
0.000000
  70
    32
  0
VERTEX
  8
0
  5
2A1F
 10
81.1760
 20
205.043
 30
0.000000
  70
    32
  0
VERTEX
  8
0
  5
2A20
 10
78.1760
 20
205.043
 30
0.000000
  70
    32
  0
SEQEND
  8
0
  5
2A21
  0
DIMENSION
  5
22F6
  8
DIM
  2
*D25
 10
85.705736007174266
 20
234.39768066840799
 30
0.0
 11
105.2057360071742
 21
236.89768066840799
 31
0.0
 70
     0
 13
124.7057360071742
 23
194.88361766078131
 33
0.0
 14
85.705736007174266
 24
208.88361766078111
 34
0.0
  0
DIMENSION
  5
22F7
  8
DIM
  2
*D23
 10
85.705736007174266
 20
225.5452945142475
 30
0.0
 11
95.455736007174266
 21
228.0452945142475
 31
0.0
 70
     0
 13
105.2057360071742
 23
208.88361766078111
 33
0.0
 14
85.705736007174266
 24
208.88361766078111
 34
0.0
  0
DIMENSION
  5
22F8
  8
DIM
  2
*D21
 10
105.2057360071742
 20
216.90368064233689
 30
0.0
 11
101.4557360071742
 21
216.90368064233689
 31
0.0
 70
   128
 13
97.705736007174266
 23
195.24311281053909
 33
0.0
 14
105.2057360071742
 24
208.88361766078111
 34
0.0
  0
DIMENSION
  5
22F9
  8
DIM
  2
*D22
 10
85.705736007174266
 20
216.90368064233689
 30
0.0
 11
89.455736007174266
 21
216.90368064233689
 31
0.0
 70
   128
 13
93.205736007174266
 23
195.169244662854
 33
0.0
 14
85.705736007174266
 24
208.88361766078111
 34
0.0
  0
CIRCLE
  5
22FA
  8
0
 10
93.205736007174266
 20
191.88361766078111
 30
0.0
 40
2.1000000000000001
  0
ARC
  5
22FB
  8
0
  6
CONTINUOUS
 62
     3
 10
93.205736007174266
 20
191.88361766078111
 30
0.0
 40
2.5
 50
165.0288771525527
 51
104.8481071849008
  0
LINE
  5
22FC
  8
0
 10
105.2057360071742
 20
184.68361766078129
 30
0.0
 11
85.705736007174266
 21
184.68361766078141
 31
0.0
  0
LINE
  5
22FD
  8
0
 10
105.2057360071742
 20
188.08361766078141
 30
0.0
 11
85.705736007174266
 21
188.08361766078141
 31
0.0
  0
LINE
  5
22FE
  8
0
 10
105.2057360071742
 20
195.68361766078149
 30
0.0
 11
85.705736007174266
 21
195.68361766078149
 31
0.0
  0
LINE
  5
22FF
  8
0
 10
105.2057360071742
 20
199.08361766078141
 30
0.0
 11
85.705736007174266
 21
199.0836176607815
 31
0.0
  0
LINE
  5
2300
  8
0
 10
105.2057360071742
 20
206.62302063376521
 30
0.0
 11
85.705736007174139
 21
206.62302063376521
 31
0.0
  0
LINE
  5
2301
  8
0
 10
85.705736007174266
 20
208.88361766078111
 30
0.0
 11
105.2057360071742
 21
208.88361766078111
 31
0.0
  0
LINE
  5
2302
  8
0
 10
105.2057360071742
 20
174.88361766078111
 30
0.0
 11
85.705736007174266
 21
174.88361766078111
 31
0.0
  0
LINE
  5
2303
  8
0
 10
85.705736007174266
 20
177.1442146877975
 30
0.0
 11
105.2057360071742
 21
177.1442146877975
 31
0.0
  0
LINE
  5
2304
  8
CENTER
 10
83.840278283320345
 20
191.88361766078111
 30
0.0
 11
127.7800920891647
 21
191.88361766078111
 31
0.0
  0
TEXT
  5
2305
  8
0
 10
59.176019682965489
 20
206.04301725982239
 30
0.0
 40
3.0
  1
2-5*0.8
  7
CHINESET
  0
LINE
  5
2306
  8
0
 10
85.705736007174266
 20
191.8836176607812
 30
0.0
 11
85.705736007174266
 21
208.88361766078111
 31
0.0
  0
LINE
  5
2307
  8
0
 10
85.705736007174266
 20
177.1442146877975
 30
0.0
 11
85.705736007174266
 21
174.88361766078111
 31
0.0
  0
LINE
  5
2308
  8
0
 10
85.705736007174266
 20
188.03361766078109
 30
0.0
 11
85.705736007174266
 21
177.1442146877975
 31
0.0
  0
LINE
  5
2309
  8
0
 10
85.705736007174266
 20
188.23361766078111
 30
0.0
 11
85.705736007174266
 21
191.8836176607812
 31
0.0
  0
LINE
  5
230A
  8
0
 10
85.705736007174266
 20
188.03361766078109
 30
0.0
 11
85.705736007174266
 21
188.23361766078111
 31
0.0
  0
DIMENSION
  5
230B
  8
DIM
  2
*D24
 10
124.7057360071742
 20
225.5452945142475
 30
0.0
 11
114.9557360071742
 21
225.5452945142475
 31
0.0
 70
   128
 13
105.2057360071742
 23
208.88361766078111
 33
0.0
 14
124.7057360071742
 24
194.88361766078131
 34
0.0
  0
LINE
  5
230E
  8
CENTER
 10
97.705736007174266
 20
188.67185880639349
 30
0.0
 11
97.705736007174266
 21
195.24311281053909
 31
0.0
  0
LINE
  5
230F
  8
CENTER
 10
93.205736007174266
 20
188.59799065870831
 30
0.0
 11
93.205736007174266
 21
195.169244662854
 31
0.0
  0
LINE
  5
2310
  8
0
 10
110.7057360071742
 20
195.88361766078131
 30
0.0
 11
110.7057360071742
 21
191.8836176607812
 31
0.0
  0
LINE
  5
2311
  8
0
 10
110.7057360071742
 20
191.88361766078111
 30
0.0
 11
110.7057360071742
 21
193.9401566606667
 31
0.0
  0
ARC
  5
2312
  8
0
 10
111.7057360071741
 20
191.88361766078111
 30
0.0
 40
5.0000000000000062
 50
143.13010235415351
 51
179.99999999999929
  0
LINE
  5
2313
  8
0
 10
107.7057360071742
 20
191.8836176607812
 30
0.0
 11
107.70573600717429
 21
194.8836176607812
 31
0.0
  0
LINE
  5
2314
  8
0
 10
106.70573600717449
 20
197.88361766078111
 30
0.0
 11
106.70573600717449
 21
191.88361766078131
 31
0.0
  0
LINE
  5
2315
  8
0
 10
105.2057360071742
 20
208.88361766078111
 30
0.0
 11
105.2057360071742
 21
191.8836176607812
 31
0.0
  0
ARC
  5
2316
  8
0
  6
CONTINUOUS
 62
     3
 10
97.705736007174266
 20
191.88361766078111
 30
0.0
 40
2.5
 50
165.0288771525527
 51
104.8481071849008
  0
CIRCLE
  5
2317
  8
0
 10
97.705736007174266
 20
191.88361766078111
 30
0.0
 40
2.1000000000000001
  0
LINE
  5
2318
  8
0
 10
105.2057360071742
 20
174.88361766078111
 30
0.0
 11
105.2057360071742
 21
177.1442146877975
 31
0.0
  0
LINE
  5
2319
  8
0
 10
107.7057360071742
 20
187.8836176607812
 30
0.0
 11
109.83573600717421
 21
187.8836176607812
 31
0.0
  0
LINE
  5
231A
  8
0
 10
109.83573600717421
 20
188.8836176607812
 30
0.0
 11
107.7057360071742
 21
188.8836176607812
 31
0.0
  0
LINE
  5
231B
  8
0
 10
105.2057360071742
 20
177.1442146877975
 30
0.0
 11
105.2057360071742
 21
188.08361766078141
 31
0.0
  0
ARC
  5
231C
  8
0
 10
106.20573600717439
 20
185.88361766078111
 30
0.0
 40
0.5
 50
270.0
 51
0.0
  0
LINE
  5
231D
  8
0
 10
105.2057360071742
 20
188.23361766078111
 30
0.0
 11
105.2057360071742
 21
188.03361766078109
 31
0.0
  0
LINE
  5
231E
  8
0
 10
105.2057360071742
 20
191.8836176607812
 30
0.0
 11
105.2057360071742
 21
188.23361766078111
 31
0.0
  0
LINE
  5
231F
  8
0
 10
105.20573600717429
 20
185.38361766078111
 30
0.0
 11
106.20573600717439
 21
185.38361766078111
 31
0.0
  0
LINE
  5
2320
  8
0
 10
107.7057360071742
 20
191.8836176607812
 30
0.0
 11
107.7057360071742
 21
188.8836176607812
 31
0.0
  0
LINE
  5
2321
  8
0
 10
106.70573600717449
 20
191.88361766078131
 30
0.0
 11
106.70573600717449
 21
185.88361766078111
 31
0.0
  0
ARC
  5
2322
  8
0
 10
111.7057360071741
 20
191.88361766078131
 30
0.0
 40
5.0000000000000062
 50
180.0000000000019
 51
216.8698976458447
  0
LINE
  5
2323
  8
0
 10
107.7057360071742
 20
187.88361766078131
 30
0.0
 11
106.70573600717449
 21
186.8836176607816
 31
0.0
  0
LINE
  5
2324
  8
0
 10
109.83573600717421
 20
187.8836176607812
 30
0.0
 11
109.83573600717421
 21
188.8836176607812
 31
0.0
  0
LINE
  5
2325
  8
0
 10
110.7057360071742
 20
189.82707866089569
 30
0.0
 11
110.7057360071742
 21
187.8836176607812
 31
0.0
  0
LINE
  5
2326
  8
0
 10
110.7057360071742
 20
191.8836176607812
 30
0.0
 11
110.7057360071742
 21
189.82707866089569
 31
0.0
  0
LINE
  5
2327
  8
0
 10
107.7057360071742
 20
195.88361766078131
 30
0.0
 11
115.35716960074581
 21
195.88361766078131
 31
0.0
  0
LINE
  5
2328
  8
0
 10
109.8357360071743
 20
194.8836176607812
 30
0.0
 11
107.70573600717429
 21
194.8836176607812
 31
0.0
  0
ARC
  5
2329
  8
0
 10
106.20573600717439
 20
197.88361766078111
 30
0.0
 40
0.5
 50
0.0
 51
90.0
  0
LINE
  5
232A
  8
0
 10
106.20573600717439
 20
198.38361766078111
 30
0.0
 11
105.2057360071742
 21
198.38361766078111
 31
0.0
  0
LINE
  5
232B
  8
0
 10
106.70573600717449
 20
196.88361766078111
 30
0.0
 11
106.70573600717449
 21
196.383617660781
 31
0.0
  0
LINE
  5
232C
  8
0
 10
106.7057360071742
 20
196.883617660781
 30
0.0
 11
107.7057360071742
 21
195.88361766078131
 31
0.0
  0
LINE
  5
232D
  8
0
 10
109.8357360071743
 20
195.8836176607812
 30
0.0
 11
109.8357360071743
 21
194.8836176607812
 31
0.0
  0
INSERT
  5
232E
  8
0
  2
*U34
 10
0.0
 20
0.0
 30
0.0
  0
POLYLINE
  8
0
  5
2A22
  66
     1
 10
0.000000
 20
0.000000
 30
0.000000
  70
     8
  0
VERTEX
  8
0
  5
2A23
 10
203.600
 20
203.884
 30
0.000000
  70
    32
  0
VERTEX
  8
0
  5
2A24
 10
209.303
 20
225.646
 30
0.000000
  70
    32
  0
VERTEX
  8
0
  5
2A25
 10
212.303
 20
225.646
 30
0.000000
  70
    32
  0
SEQEND
  8
0
  5
2A26
  0
LINE
  5
2330
  8
CENTER
 10
178.0999574555517
 20
203.8836176607814
 30
0.0
 11
175.3499574555517
 21
203.8836176607814
 31
0.0
  0
LINE
  5
2331
  8
0
 10
176.0999574555517
 20
199.5336176607814
 30
0.0
 11
178.19995745555161
 21
199.5336176607814
 31
0.0
  0
LINE
  5
2332
  8
0
 10
178.19995745555161
 20
195.23361766078131
 30
0.0
 11
176.0999574555517
 21
195.23361766078131
 31
0.0
  0
LINE
  5
2333
  8
0
 10
176.0999574555517
 20
188.5336176607814
 30
0.0
 11
178.19995745555161
 21
188.5336176607814
 31
0.0
  0
LINE
  5
2334
  8
0
 10
178.19995745555161
 20
184.23361766078131
 30
0.0
 11
176.0999574555517
 21
184.23361766078131
 31
0.0
  0
LINE
  5
2335
  8
CENTER
 10
178.0999574555517
 20
179.8836176607814
 30
0.0
 11
175.3499574555517
 21
179.8836176607814
 31
0.0
  0
CIRCLE
  5
2336
  8
0
 10
179.5999574555515
 20
179.8836176607814
 30
0.0
 40
3.25
  0
LINE
  5
2337
  8
0
 10
187.74995745555151
 20
174.8836176607814
 30
0.0
 11
176.86055448256789
 21
174.8836176607814
 31
0.0
  0
LINE
  5
2338
  8
0
 10
176.86055448256789
 20
208.8836176607814
 30
0.0
 11
187.74995745555151
 21
208.8836176607814
 31
0.0
  0
CIRCLE
  5
2339
  8
0
 10
179.5999574555515
 20
179.8836176607814
 30
0.0
 40
2.149999999999999
  0
ARC
  5
233B
  8
0
  6
CONTINUOUS
 62
     3
 10
179.5999574555515
 20
179.8836176607814
 30
0.0
 40
2.5
 50
350.00000000000131
 51
280.00000000000182
  0
CIRCLE
  5
233C
  8
0
 10
179.5999574555515
 20
203.8836176607814
 30
0.0
 40
2.149999999999999
  0
ARC
  5
233D
  8
0
  6
CONTINUOUS
 62
     3
 10
179.5999574555515
 20
203.8836176607814
 30
0.0
 40
2.5
 50
350.00000000000131
 51
280.00000000000182
  0
CIRCLE
  5
233F
  8
0
 10
179.5999574555515
 20
203.8836176607814
 30
0.0
 40
3.25
  0
DIMENSION
  5
2340
  8
DIM
  2
*D20
 10
157.17348173134829
 20
174.8836176607814
 30
0.0
 11
154.67348173134829
 21
191.8836176607814
 31
0.0
 70
     0
  1
\U+25A1<>
 13
176.86055448256789
 23
208.8836176607814
 33
0.0
 14
176.86055448256789
 24
174.8836176607814
 34
0.0
 50
90.0
  0
DIMENSION
  5
2341
  8
DIM
  2
*D19
 10
166.53711141054961
 20
203.8836176607814
 30
0.0
 11
164.0371114105495
 21
191.8836176607814
 31
0.0
 70
     0
  1
\U+25A1<>
 13
175.3499574555517
 23
179.8836176607814
 33
0.0
 14
175.3499574555517
 24
203.8836176607814
 34
0.0
 50
90.0
  0
LINE
  5
2342
  8
0
 10
174.5999574555517
 20
188.08361766078141
 30
0.0
 11
174.5999574555517
 21
195.68361766078141
 31
0.0
  0
ARC
  5
2343
  8
0
 10
191.5999574555515
 20
191.8836176607814
 30
0.0
 40
22.5
 50
220.92606330960541
 51
229.0739366903945
  0
LINE
  5
2344
  8
0
 10
174.5999574555517
 20
177.1442146877977
 30
0.0
 11
174.5999574555517
 21
184.68361766078141
 31
0.0
  0
LINE
  5
2345
  8
0
 10
175.5999574555517
 20
184.68361766078141
 30
0.0
 11
176.0999574555517
 21
184.23361766078139
 31
0.0
  0
LINE
  5
2346
  8
0
 10
174.5999574555517
 20
188.0836176607813
 30
0.0
 11
175.5999574555517
 21
188.0836176607813
 31
0.0
  0
LINE
  5
2347
  8
0
 10
175.5999574555517
 20
184.68361766078141
 30
0.0
 11
174.5999574555517
 21
184.68361766078141
 31
0.0
  0
LINE
  5
2348
  8
0
 10
176.0999574555517
 20
188.5336176607814
 30
0.0
 11
175.5999574555517
 21
188.0836176607813
 31
0.0
  0
ARC
  5
2349
  8
0
 10
191.5999574555515
 20
191.8836176607814
 30
0.0
 40
22.5
 50
130.9260633096055
 51
139.0739366903945
  0
LINE
  5
234A
  8
0
 10
174.5999574555517
 20
199.0836176607815
 30
0.0
 11
174.5999574555517
 21
206.62302063376501
 31
0.0
  0
LINE
  5
234B
  8
0
 10
174.5999574555517
 20
199.08361766078141
 30
0.0
 11
175.5999574555517
 21
199.08361766078141
 31
0.0
  0
LINE
  5
234C
  8
0
 10
175.5999574555517
 20
195.68361766078141
 30
0.0
 11
174.5999574555517
 21
195.68361766078141
 31
0.0
  0
LINE
  5
234D
  8
0
 10
176.0999574555517
 20
199.5336176607814
 30
0.0
 11
175.5999574555517
 21
199.08361766078141
 31
0.0
  0
LINE
  5
234E
  8
0
 10
175.5999574555517
 20
195.68361766078141
 30
0.0
 11
176.0999574555517
 21
195.23361766078139
 31
0.0
  0
CIRCLE
  5
234F
  8
0
 10
199.8677257854535
 20
195.635757010839
 30
0.0
 40
1.0
  0
ARC
  5
2350
  8
0
 10
199.8677257854535
 20
195.635757010839
 30
0.0
 40
2.0499999999999998
 50
206.03031967779111
 51
284.99999999999761
  0
CIRCLE
  5
2351
  8
0
 10
199.8677257854535
 20
188.13147831072379
 30
0.0
 40
1.0
  0
ARC
  5
2352
  8
0
 10
199.8677257854535
 20
188.13147831072379
 30
0.0
 40
2.0499999999999998
 50
75.000000000002373
 51
153.9696803222088
  0
LINE
  5
2353
  8
0
 10
195.44995745555161
 20
208.8836176607814
 30
0.0
 11
206.33936042853529
 21
208.8836176607814
 31
0.0
  0
LINE
  5
2354
  8
0
 10
206.33936042853529
 20
174.8836176607814
 30
0.0
 11
195.44995745555161
 21
174.8836176607814
 31
0.0
  0
CIRCLE
  5
2355
  8
0
 10
191.5999574555515
 20
191.8836176607814
 30
0.0
 40
10.999999999999989
  0
ARC
  5
2356
  8
0
 10
192.29572544034789
 20
191.8836176607814
 30
0.0
 40
9.3607042761687076
 50
55.31809554936838
 51
304.68190445063158
  0
CIRCLE
  5
2357
  8
0
 10
191.59995745555139
 20
191.88361766078131
 30
0.0
 40
5.0000000000001128
  0
CIRCLE
  5
2358
  8
0
 10
191.5999574555515
 20
191.8836176607814
 30
0.0
 40
6.5
  0
LINE
  5
235A
  8
0
 10
187.59995745555139
 20
194.8836176607814
 30
0.0
 11
187.59995745555139
 21
188.8836176607812
 31
0.0
  0
LINE
  5
235B
  8
0
 10
195.59995745555139
 20
188.8836176607812
 30
0.0
 11
195.59995745555139
 21
194.8836176607816
 31
0.0
  0
ARC
  5
235D
  8
0
 10
191.59995745555139
 20
191.88361766078131
 30
0.0
 40
4.4977052658050303
 50
207.20927073568299
 51
242.79072926431689
  0
LINE
  5
235E
  8
0
 10
186.44995745555161
 20
177.8836176607814
 30
0.0
 11
196.74995745555159
 21
177.8836176607814
 31
0.0
  0
LINE
  5
235F
  8
0
 10
188.59995745555119
 20
187.88361766078131
 30
0.0
 11
194.59995745555159
 21
187.88361766078131
 31
0.0
  0
LINE
  5
2360
  8
0
 10
187.94995745555161
 20
175.08361766078141
 30
0.0
 11
187.94995745555161
 21
176.38361766078131
 31
0.0
  0
LINE
  5
2361
  8
CENTER
 10
179.5999574555517
 20
175.6336176607814
 30
0.0
 11
179.5999574555517
 21
178.3836176607814
 31
0.0
  0
ARC
  5
2362
  8
0
 10
187.74995745555151
 20
175.08361766078141
 30
0.0
 40
0.2
 50
270.0
 51
0.0
  0
LINE
  5
2363
  8
CENTER
 10
183.84995745555159
 20
179.8836176607814
 30
0.0
 11
181.09995745555159
 21
179.8836176607814
 31
0.0
  0
ARC
  5
2364
  8
0
 10
178.19995745555161
 20
185.93361766078129
 30
0.0
 40
1.7
 50
270.0
 51
0.0
  0
LINE
  5
2365
  8
CENTER
 10
179.5999574555517
 20
181.3836176607814
 30
0.0
 11
179.5999574555517
 21
184.1336176607814
 31
0.0
  0
LINE
  5
2366
  8
CENTER
 10
179.5999574555517
 20
179.3836176607814
 30
0.0
 11
179.5999574555517
 21
180.3836176607814
 31
0.0
  0
LINE
  5
2367
  8
CENTER
 10
180.09995745555159
 20
179.8836176607814
 30
0.0
 11
179.0999574555517
 21
179.8836176607814
 31
0.0
  0
LINE
  5
2368
  8
0
 10
179.8999574555516
 20
186.83361766078141
 30
0.0
 11
179.8999574555516
 21
185.93361766078129
 31
0.0
  0
ARC
  5
2369
  8
0
 10
178.19995745555161
 20
186.83361766078141
 30
0.0
 40
1.7
 50
0.0
 51
90.0
  0
ARC
  5
236A
  8
0
 10
187.74995745555151
 20
176.38361766078131
 30
0.0
 40
0.2
 50
0.0
 51
90.0
  0
LINE
  5
236B
  8
0
 10
186.24995745555151
 20
176.78361766078129
 30
0.0
 11
186.24995745555151
 21
177.68361766078141
 31
0.0
  0
ARC
  5
236C
  8
0
 10
186.44995745555161
 20
176.78361766078129
 30
0.0
 40
0.2000000000000001
 50
180.0
 51
270.0
  0
ARC
  5
236D
  8
0
 10
186.44995745555161
 20
177.68361766078141
 30
0.0
 40
0.2000000000000001
 50
90.0
 51
180.0
  0
LINE
  5
236E
  8
0
 10
187.74995745555151
 20
176.5836176607813
 30
0.0
 11
186.44995745555161
 21
176.5836176607813
 31
0.0
  0
LINE
  5
236F
  8
0
 10
195.24995745555151
 20
176.3836176607814
 30
0.0
 11
195.24995745555151
 21
175.08361766078141
 31
0.0
  0
ARC
  5
2370
  8
0
 10
195.44995745555161
 20
175.08361766078141
 30
0.0
 40
0.2
 50
180.0
 51
270.0
  0
ARC
  5
2371
  8
0
 10
191.59995745555139
 20
191.88361766078131
 30
0.0
 40
4.4977052658050303
 50
297.20927073568311
 51
332.79072926431678
  0
ARC
  5
2372
  8
0
 10
196.4494541115009
 20
185.86753953879261
 30
0.0
 40
2.0499999999999998
 50
304.89314161129249
 51
33.516711938771437
  0
LINE
  5
2373
  8
0
 10
196.74995745555151
 20
176.5836176607813
 30
0.0
 11
195.44995745555161
 21
176.5836176607813
 31
0.0
  0
ARC
  5
2374
  8
0
 10
195.44995745555161
 20
176.3836176607814
 30
0.0
 40
0.2
 50
90.0
 51
180.0
  0
LINE
  5
2375
  8
0
 10
196.94995745555161
 20
177.68361766078141
 30
0.0
 11
196.94995745555161
 21
176.78361766078129
 31
0.0
  0
ARC
  5
2376
  8
0
 10
196.74995745555151
 20
176.78361766078129
 30
0.0
 40
0.2
 50
270.0
 51
0.0
  0
ARC
  5
2377
  8
0
 10
196.74995745555151
 20
177.68361766078141
 30
0.0
 40
0.2000000000000001
 50
0.0
 51
90.0
  0
ARC
  5
2378
  8
0
 10
199.8677257854535
 20
188.13147831072379
 30
0.0
 40
2.0499999999999998
 50
153.9696803222088
 51
213.51671193877141
  0
ARC
  5
2379
  8
0
 10
191.59995745555139
 20
191.88361766078131
 30
0.0
 40
4.4977052658050303
 50
117.20927073568311
 51
152.79072926431681
  0
LINE
  5
237A
  8
0
 10
196.74995745555151
 20
205.8836176607814
 30
0.0
 11
186.44995745555161
 21
205.8836176607814
 31
0.0
  0
LINE
  5
237B
  8
0
 10
194.59995745555159
 20
195.88361766078131
 30
0.0
 11
188.59995745555119
 21
195.88361766078131
 31
0.0
  0
ARC
  5
237C
  8
0
 10
187.74995745555151
 20
208.68361766078141
 30
0.0
 40
0.2
 50
0.0
 51
90.0
  0
LINE
  5
237D
  8
CENTER
 10
183.84995745555159
 20
203.8836176607814
 30
0.0
 11
181.09995745555159
 21
203.8836176607814
 31
0.0
  0
LINE
  5
237E
  8
CENTER
 10
179.5999574555517
 20
199.6336176607814
 30
0.0
 11
179.5999574555517
 21
202.3836176607814
 31
0.0
  0
LINE
  5
237F
  8
0
 10
179.8999574555516
 20
197.8336176607815
 30
0.0
 11
179.8999574555516
 21
196.93361766078141
 31
0.0
  0
ARC
  5
2380
  8
0
 10
178.19995745555161
 20
197.8336176607815
 30
0.0
 40
1.7
 50
0.0
 51
90.0
  0
ARC
  5
2381
  8
0
 10
178.19995745555161
 20
196.93361766078141
 30
0.0
 40
1.7
 50
270.0
 51
0.0
  0
LINE
  5
2382
  8
CENTER
 10
179.5999574555517
 20
203.3836176607814
 30
0.0
 11
179.5999574555517
 21
204.3836176607814
 31
0.0
  0
LINE
  5
2383
  8
CENTER
 10
179.5999574555517
 20
205.3836176607814
 30
0.0
 11
179.5999574555517
 21
208.1336176607814
 31
0.0
  0
LINE
  5
2384
  8
CENTER
 10
180.09995745555159
 20
203.8836176607814
 30
0.0
 11
179.0999574555517
 21
203.8836176607814
 31
0.0
  0
LINE
  5
2385
  8
0
 10
187.94995745555161
 20
207.38361766078131
 30
0.0
 11
187.94995745555161
 21
208.68361766078141
 31
0.0
  0
ARC
  5
2386
  8
0
 10
187.74995745555151
 20
207.38361766078131
 30
0.0
 40
0.2
 50
270.0
 51
0.0
  0
LINE
  5
2387
  8
0
 10
186.24995745555151
 20
206.0836176607813
 30
0.0
 11
186.24995745555151
 21
206.98361766078131
 31
0.0
  0
ARC
  5
2388
  8
0
 10
186.44995745555161
 20
206.0836176607813
 30
0.0
 40
0.2000000000000001
 50
180.0
 51
270.0
  0
ARC
  5
2389
  8
0
 10
186.44995745555161
 20
206.98361766078131
 30
0.0
 40
0.2
 50
90.0
 51
180.0
  0
LINE
  5
238A
  8
0
 10
186.44995745555161
 20
207.18361766078129
 30
0.0
 11
187.74995745555151
 21
207.18361766078129
 31
0.0
  0
ARC
  5
238B
  8
0
 10
195.44995745555161
 20
208.68361766078141
 30
0.0
 40
0.2
 50
90.0
 51
180.0
  0
ARC
  5
238C
  8
0
 10
191.59995745555139
 20
191.88361766078131
 30
0.0
 40
4.4977052658050303
 50
27.209270735683148
 51
62.790729264316852
  0
ARC
  5
238D
  8
0
 10
199.8677257854535
 20
195.635757010839
 30
0.0
 40
2.0499999999999998
 50
146.48328806122851
 51
206.03031967779111
  0
ARC
  5
238E
  8
0
 10
196.4494541115009
 20
197.89969578277021
 30
0.0
 40
2.0499999999999998
 50
326.48328806122862
 51
55.106858388707423
  0
LINE
  5
238F
  8
0
 10
195.44995745555161
 20
207.18361766078129
 30
0.0
 11
196.74995745555151
 21
207.18361766078129
 31
0.0
  0
LINE
  5
2390
  8
0
 10
195.24995745555151
 20
208.68361766078141
 30
0.0
 11
195.24995745555151
 21
207.3836176607814
 31
0.0
  0
ARC
  5
2391
  8
0
 10
195.44995745555161
 20
207.3836176607814
 30
0.0
 40
0.2
 50
180.0
 51
270.0
  0
LINE
  5
2392
  8
0
 10
196.94995745555161
 20
206.98361766078139
 30
0.0
 11
196.94995745555161
 21
206.0836176607813
 31
0.0
  0
ARC
  5
2393
  8
0
 10
196.74995745555151
 20
206.0836176607813
 30
0.0
 40
0.2
 50
270.0
 51
0.0
  0
ARC
  5
2394
  8
0
 10
196.74995745555151
 20
206.98361766078139
 30
0.0
 40
0.2000000000000001
 50
0.0
 51
90.0
  0
LINE
  5
2395
  8
0
 10
205.59995745555159
 20
186.73361766078131
 30
0.0
 11
205.59995745555159
 21
197.0336176607814
 31
0.0
  0
LINE
  5
2396
  8
CENTER
 10
203.5999574555517
 20
175.6336176607814
 30
0.0
 11
203.5999574555517
 21
178.3836176607814
 31
0.0
  0
ARC
  5
2397
  8
0
 10
191.5999574555515
 20
191.8836176607814
 30
0.0
 40
22.5
 50
310.92606330960541
 51
319.07393669039448
  0
ARC
  5
2398
  8
0
  6
CONTINUOUS
 62
     3
 10
203.5999574555515
 20
179.8836176607814
 30
0.0
 40
2.5
 50
350.00000000000131
 51
280.00000000000182
  0
CIRCLE
  5
239A
  8
0
 10
203.5999574555515
 20
179.8836176607814
 30
0.0
 40
2.149999999999999
  0
CIRCLE
  5
239B
  8
0
 10
203.5999574555515
 20
179.8836176607814
 30
0.0
 40
3.25
  0
LINE
  5
239C
  8
CENTER
 10
202.0999574555517
 20
179.8836176607814
 30
0.0
 11
199.3499574555517
 21
179.8836176607814
 31
0.0
  0
LINE
  5
239D
  8
CENTER
 10
203.5999574555517
 20
181.3836176607814
 30
0.0
 11
203.5999574555517
 21
184.1336176607814
 31
0.0
  0
LINE
  5
239E
  8
CENTER
 10
203.5999574555517
 20
179.3836176607814
 30
0.0
 11
203.5999574555517
 21
180.3836176607814
 31
0.0
  0
LINE
  5
239F
  8
CENTER
 10
204.0999574555517
 20
179.8836176607814
 30
0.0
 11
203.09995745555159
 21
179.8836176607814
 31
0.0
  0
ARC
  5
23A0
  8
0
 10
201.29758010059501
 20
188.83538999111801
 30
0.0
 40
1.0
 50
17.499565168121268
 51
75.000000000002373
  0
LINE
  5
23A1
  8
0
 10
200.39830482791371
 20
190.1116262546162
 30
0.0
 11
201.55639914569741
 21
189.8013158174071
 31
0.0
  0
LINE
  5
23A2
  8
0
 10
208.5999574555517
 20
188.0336176607814
 30
0.0
 11
208.5999574555517
 21
177.1442146877977
 31
0.0
  0
LINE
  5
23A3
  8
CENTER
 10
207.8499574555517
 20
179.8836176607814
 30
0.0
 11
205.09995745555159
 21
179.8836176607814
 31
0.0
  0
LINE
  5
23A4
  8
0
 10
208.3999574555516
 20
188.23361766078131
 30
0.0
 11
207.09995745555159
 21
188.23361766078131
 31
0.0
  0
ARC
  5
23A5
  8
0
 10
206.69995745555161
 20
186.73361766078131
 30
0.0
 40
0.2000000000000001
 50
270.0
 51
0.0
  0
LINE
  5
23A6
  8
0
 10
206.8999574555516
 20
188.03361766078129
 30
0.0
 11
206.8999574555516
 21
186.73361766078131
 31
0.0
  0
ARC
  5
23A7
  8
0
 10
207.09995745555159
 20
188.0336176607814
 30
0.0
 40
0.2
 50
90.0
 51
180.0
  0
ARC
  5
23A8
  8
0
 10
205.79995745555149
 20
186.73361766078131
 30
0.0
 40
0.2000000000000001
 50
180.0
 51
270.0
  0
LINE
  5
23A9
  8
0
 10
206.69995745555161
 20
186.53361766078129
 30
0.0
 11
205.79995745555161
 21
186.53361766078129
 31
0.0
  0
ARC
  5
23AA
  8
0
 10
208.3999574555516
 20
188.0336176607814
 30
0.0
 40
0.2
 50
0.0
 51
90.0
  0
ARC
  5
23AB
  8
0
 10
191.5999574555515
 20
191.8836176607814
 30
0.0
 40
22.5
 50
40.926063309605482
 51
49.073936690394511
  0
ARC
  5
23AC
  8
0
  6
CONTINUOUS
 62
     3
 10
203.5999574555515
 20
203.8836176607814
 30
0.0
 40
2.5
 50
350.00000000000131
 51
280.00000000000182
  0
CIRCLE
  5
23AE
  8
0
 10
203.5999574555515
 20
203.8836176607814
 30
0.0
 40
2.149999999999999
  0
CIRCLE
  5
23AF
  8
0
 10
203.5999574555515
 20
203.8836176607814
 30
0.0
 40
3.25
  0
LINE
  5
23B0
  8
CENTER
 10
203.5999574555517
 20
199.6336176607814
 30
0.0
 11
203.5999574555517
 21
202.3836176607814
 31
0.0
  0
ARC
  5
23B1
  8
0
 10
201.29758010059501
 20
194.9318453304447
 30
0.0
 40
1.0
 50
284.99999999999761
 51
342.50043483187869
  0
LINE
  5
23B2
  8
0
 10
200.39830482791371
 20
193.65560906694651
 30
0.0
 11
201.55639914569741
 21
193.96591950415569
 31
0.0
  0
LINE
  5
23B3
  8
CENTER
 10
202.0999574555517
 20
203.8836176607814
 30
0.0
 11
199.3499574555517
 21
203.8836176607814
 31
0.0
  0
LINE
  5
23B4
  8
CENTER
 10
203.5999574555517
 20
203.3836176607814
 30
0.0
 11
203.5999574555517
 21
204.3836176607814
 31
0.0
  0
LINE
  5
23B5
  8
CENTER
 10
203.5999574555517
 20
205.3836176607814
 30
0.0
 11
203.5999574555517
 21
208.1336176607814
 31
0.0
  0
LINE
  5
23B6
  8
CENTER
 10
204.0999574555517
 20
203.8836176607814
 30
0.0
 11
203.09995745555159
 21
203.8836176607814
 31
0.0
  0
LINE
  5
23B7
  8
0
 10
208.5999574555517
 20
206.62302063376501
 30
0.0
 11
208.5999574555517
 21
195.73361766078131
 31
0.0
  0
LINE
  5
23B8
  8
0
 10
207.09995745555159
 20
195.5336176607814
 30
0.0
 11
208.3999574555516
 21
195.5336176607814
 31
0.0
  0
ARC
  5
23B9
  8
0
 10
206.69995745555161
 20
197.0336176607814
 30
0.0
 40
0.2
 50
0.0
 51
90.0
  0
ARC
  5
23BA
  8
0
 10
207.09995745555159
 20
195.73361766078131
 30
0.0
 40
0.2
 50
180.0
 51
270.0
  0
LINE
  5
23BB
  8
0
 10
206.8999574555516
 20
197.03361766078129
 30
0.0
 11
206.8999574555516
 21
195.73361766078131
 31
0.0
  0
ARC
  5
23BC
  8
0
 10
205.79995745555149
 20
197.0336176607814
 30
0.0
 40
0.2000000000000001
 50
90.0
 51
180.0
  0
LINE
  5
23BD
  8
0
 10
205.79995745555161
 20
197.23361766078131
 30
0.0
 11
206.69995745555161
 21
197.23361766078131
 31
0.0
  0
ARC
  5
23BE
  8
0
 10
208.3999574555516
 20
195.73361766078131
 30
0.0
 40
0.2
 50
270.0
 51
0.0
  0
LINE
  5
23BF
  8
CENTER
 10
207.8499574555517
 20
203.8836176607814
 30
0.0
 11
205.09995745555159
 21
203.8836176607814
 31
0.0
  0
POLYLINE
  8
0
  5
2A27
  66
     1
 10
0.000000
 20
0.000000
 30
0.000000
  70
     8
  0
VERTEX
  8
0
  5
2A28
 10
206.625
 20
81.5220
 30
0.000000
  70
    32
  0
VERTEX
  8
0
  5
2A29
 10
195.798
 20
110.251
 30
0.000000
  70
    32
  0
VERTEX
  8
0
  5
2A2A
 10
192.798
 20
110.251
 30
0.000000
  70
    32
  0
SEQEND
  8
0
  5
2A2B
  0
TEXT
  5
24A3
  8
0
 10
166.94095509593561
 20
111.2510486866932
 30
0.0
 40
3.0
  1
M5*0.8*10L
  7
CHINESET
  0
LINE
  5
24A4
  8
CENTER
 10
206.62463399784039
 20
62.998741277534968
 30
0.0
 11
206.62463399784039
 21
102.2444842052218
 31
0.0
  0
LINE
  5
24A5
  8
CENTER
 10
186.61143150064771
 20
81.521961095831145
 30
0.0
 11
225.21712976418411
 21
81.521961095831145
 31
0.0
  0
LINE
  5
24A6
  8
CENTER
 10
191.59995745555139
 20
173.3618729603385
 30
0.0
 11
191.59995745555139
 21
212.60761588802541
 31
0.0
  0
LINE
  5
24A7
  8
CENTER
 10
171.5867549583588
 20
191.88509277863469
 30
0.0
 11
210.19245322189519
 21
191.88509277863469
 31
0.0
  0
LINE
  5
24A8
  8
0
 10
124.7057360071742
 20
194.88361766078131
 30
0.0
 11
124.7057360071742
 21
188.883617660781
 31
0.0
  0
LINE
  5
24AA
  8
0
 10
123.7057360071742
 20
195.88361766078131
 30
0.0
 11
124.7057360071742
 21
194.88361766078131
 31
0.0
  0
LINE
  5
24AB
  8
0
 10
123.7057360071742
 20
187.883617660781
 30
0.0
 11
124.7057360071742
 21
188.883617660781
 31
0.0
  0
LINE
  5
24AC
  8
0
 10
123.7057360071742
 20
195.88361766078131
 30
0.0
 11
123.7057360071751
 21
187.8836176607812
 31
0.0
  0
LINE
  5
24AD
  8
0
 10
111.7057360071742
 20
195.88361766078131
 30
0.0
 11
111.7057360071742
 21
187.8836176607812
 31
0.0
  0
LINE
  5
24AE
  8
0
  6
CONTINUOUS
 62
     3
 10
111.7057360071742
 20
195.38361766078131
 30
0.0
 11
115.35716960074581
 21
195.38361766078131
 31
0.0
  0
LINE
  5
24AF
  8
0
  6
CONTINUOUS
 62
     3
 10
111.7057360071742
 20
188.3836176607812
 30
0.0
 11
115.35716960074581
 21
188.3836176607812
 31
0.0
  0
LINE
  5
24B0
  8
0
 10
111.7057360071742
 20
195.38361766078131
 30
0.0
 11
111.20573600717429
 21
195.88361766078131
 31
0.0
  0
LINE
  5
24B1
  8
0
 10
111.7057360071742
 20
188.38361766078091
 30
0.0
 11
111.20573600717429
 21
187.883617660781
 31
0.0
  0
DIMENSION
  5
24B2
  8
DIM
  2
*D27
 10
111.7057360071742
 20
212.71445608751441
 30
0.0
 11
118.2057360071742
 21
215.21445608751441
 31
0.0
 70
     0
 13
124.7057360071742
 23
194.88361766078131
 33
0.0
 14
111.7057360071742
 24
195.88361766078131
 34
0.0
  0
ARC
  5
24F7
  8
0
 10
117.10716960074591
 20
186.25445253618221
 30
0.0
 40
3.25
 50
324.73561031724529
 51
34.341093726744162
  0
ARC
  5
24F8
  8
0
 10
118.60716960074591
 20
186.25445253618221
 30
0.0
 40
3.25
 50
145.65890627325581
 51
215.26438968275471
  0
LINE
  5
24F9
  8
0
 10
115.9535557127307
 20
184.3780641613159
 30
0.0
 11
119.76078348876101
 21
184.3780641613159
 31
0.0
  0
ARC
  5
24FA
  8
0
 10
107.35716960074591
 20
191.883617660781
 30
0.0
 40
13.00000000000002
 50
343.02328118023439
 51
16.97671881976709
  0
ARC
  5
24FB
  8
0
 10
128.35716960074589
 20
191.88361766078091
 30
0.0
 40
13.00000000000002
 50
163.0232811802328
 51
196.97671881976549
  0
LINE
  5
24FC
  8
0
 10
115.35716960074581
 20
186.25445253618221
 30
0.0
 11
115.35716960074591
 21
197.5127827853799
 31
0.0
  0
LINE
  5
24FD
  8
0
 10
120.35716960074581
 20
186.25445253618221
 30
0.0
 11
120.35716960074591
 21
197.5127827853799
 31
0.0
  0
LINE
  5
24FE
  8
0
 10
115.92366439508859
 20
188.0878373324567
 30
0.0
 11
119.7906748064031
 21
188.0878373324567
 31
0.0
  0
ARC
  5
24FF
  8
0
 10
117.10716960074591
 20
197.5127827853799
 30
0.0
 40
3.25
 50
325.65890627325439
 51
35.264389682754711
  0
ARC
  5
2500
  8
0
 10
118.60716960074591
 20
197.5127827853799
 30
0.0
 40
3.25
 50
144.7356103172452
 51
214.34109372674419
  0
LINE
  5
2501
  8
0
 10
115.92366439508859
 20
195.67939798910541
 30
0.0
 11
119.7906748064031
 21
195.67939798910541
 31
0.0
  0
LINE
  5
2502
  8
0
 10
115.9535557127307
 20
199.38917116024621
 30
0.0
 11
119.76078348876101
 21
199.38917116024621
 31
0.0
  0
LINE
  5
2503
  8
0
 10
120.35716960074591
 20
195.88361766078131
 30
0.0
 11
123.7057360071742
 21
195.88361766078131
 31
0.0
  0
LINE
  5
2504
  8
0
  6
CONTINUOUS
 62
     3
 10
120.35716960074591
 20
195.38361766078131
 30
0.0
 11
124.2057360071742
 21
195.38361766078131
 31
0.0
  0
LINE
  5
2505
  8
0
  6
CONTINUOUS
 62
     3
 10
120.35716960074591
 20
188.38361766078111
 30
0.0
 11
124.20573600717429
 21
188.383617660781
 31
0.0
  0
POLYLINE
  8
0
  5
2A2C
  66
     1
 10
0.000000
 20
0.000000
 30
0.000000
  70
     8
  0
VERTEX
  8
0
  5
2A2D
 10
120.357
 20
187.884
 30
0.000000
  70
    32
  0
VERTEX
  8
0
  5
2A2E
 10
120.390
 20
187.884
 30
0.000000
  70
    32
  0
VERTEX
  8
0
  5
2A2F
 10
120.423
 20
187.884
 30
0.000000
  70
    32
  0
VERTEX
  8
0
  5
2A30
 10
120.456
 20
187.884
 30
0.000000
  70
    32
  0
VERTEX
  8
0
  5
2A31
 10
120.489
 20
187.884
 30
0.000000
  70
    32
  0
VERTEX
  8
0
  5
2A32
 10
120.522
 20
187.884
 30
0.000000
  70
    32
  0
VERTEX
  8
0
  5
2A33
 10
120.555
 20
187.884
 30
0.000000
  70
    32
  0
VERTEX
  8
0
  5
2A34
 10
120.588
 20
187.884
 30
0.000000
  70
    32
  0
VERTEX
  8
0
  5
2A35
 10
120.621
 20
187.884
 30
0.000000
  70
    32
  0
VERTEX
  8
0
  5
2A36
 10
120.654
 20
187.884
 30
0.000000
  70
    32
  0
VERTEX
  8
0
  5
2A37
 10
120.688
 20
187.884
 30
0.000000
  70
    32
  0
VERTEX
  8
0
  5
2A38
 10
120.721
 20
187.884
 30
0.000000
  70
    32
  0
VERTEX
  8
0
  5
2A39
 10
120.754
 20
187.884
 30
0.000000
  70
    32
  0
VERTEX
  8
0
  5
2A3A
 10
120.788
 20
187.884
 30
0.000000
  70
    32
  0
VERTEX
  8
0
  5
2A3B
 10
120.821
 20
187.884
 30
0.000000
  70
    32
  0
VERTEX
  8
0
  5
2A3C
 10
120.855
 20
187.884
 30
0.000000
  70
    32
  0
VERTEX
  8
0
  5
2A3D
 10
120.888
 20
187.884
 30
0.000000
  70
    32
  0
VERTEX
  8
0
  5
2A3E
 10
120.922
 20
187.884
 30
0.000000
  70
    32
  0
VERTEX
  8
0
  5
2A3F
 10
120.956
 20
187.884
 30
0.000000
  70
    32
  0
VERTEX
  8
0
  5
2A40
 10
120.989
 20
187.884
 30
0.000000
  70
    32
  0
VERTEX
  8
0
  5
2A41
 10
121.023
 20
187.884
 30
0.000000
  70
    32
  0
VERTEX
  8
0
  5
2A42
 10
121.057
 20
187.884
 30
0.000000
  70
    32
  0
VERTEX
  8
0
  5
2A43
 10
121.091
 20
187.884
 30
0.000000
  70
    32
  0
VERTEX
  8
0
  5
2A44
 10
121.125
 20
187.884
 30
0.000000
  70
    32
  0
VERTEX
  8
0
  5
2A45
 10
121.159
 20
187.884
 30
0.000000
  70
    32
  0
VERTEX
  8
0
  5
2A46
 10
121.193
 20
187.884
 30
0.000000
  70
    32
  0
VERTEX
  8
0
  5
2A47
 10
121.227
 20
187.884
 30
0.000000
  70
    32
  0
VERTEX
  8
0
  5
2A48
 10
121.261
 20
187.884
 30
0.000000
  70
    32
  0
VERTEX
  8
0
  5
2A49
 10
121.295
 20
187.884
 30
0.000000
  70
    32
  0
VERTEX
  8
0
  5
2A4A
 10
121.330
 20
187.884
 30
0.000000
  70
    32
  0
VERTEX
  8
0
  5
2A4B
 10
121.364
 20
187.884
 30
0.000000
  70
    32
  0
VERTEX
  8
0
  5
2A4C
 10
121.398
 20
187.884
 30
0.000000
  70
    32
  0
VERTEX
  8
0
  5
2A4D
 10
121.433
 20
187.884
 30
0.000000
  70
    32
  0
VERTEX
  8
0
  5
2A4E
 10
121.467
 20
187.884
 30
0.000000
  70
    32
  0
VERTEX
  8
0
  5
2A4F
 10
121.502
 20
187.884
 30
0.000000
  70
    32
  0
VERTEX
  8
0
  5
2A50
 10
121.536
 20
187.884
 30
0.000000
  70
    32
  0
VERTEX
  8
0
  5
2A51
 10
121.571
 20
187.884
 30
0.000000
  70
    32
  0
VERTEX
  8
0
  5
2A52
 10
121.606
 20
187.884
 30
0.000000
  70
    32
  0
VERTEX
  8
0
  5
2A53
 10
121.640
 20
187.884
 30
0.000000
  70
    32
  0
VERTEX
  8
0
  5
2A54
 10
121.675
 20
187.884
 30
0.000000
  70
    32
  0
VERTEX
  8
0
  5
2A55
 10
121.710
 20
187.884
 30
0.000000
  70
    32
  0
VERTEX
  8
0
  5
2A56
 10
121.745
 20
187.884
 30
0.000000
  70
    32
  0
VERTEX
  8
0
  5
2A57
 10
121.780
 20
187.884
 30
0.000000
  70
    32
  0
VERTEX
  8
0
  5
2A58
 10
121.815
 20
187.884
 30
0.000000
  70
    32
  0
VERTEX
  8
0
  5
2A59
 10
121.850
 20
187.884
 30
0.000000
  70
    32
  0
VERTEX
  8
0
  5
2A5A
 10
121.885
 20
187.884
 30
0.000000
  70
    32
  0
VERTEX
  8
0
  5
2A5B
 10
121.920
 20
187.884
 30
0.000000
  70
    32
  0
VERTEX
  8
0
  5
2A5C
 10
121.955
 20
187.884
 30
0.000000
  70
    32
  0
VERTEX
  8
0
  5
2A5D
 10
121.991
 20
187.884
 30
0.000000
  70
    32
  0
VERTEX
  8
0
  5
2A5E
 10
122.026
 20
187.884
 30
0.000000
  70
    32
  0
VERTEX
  8
0
  5
2A5F
 10
122.061
 20
187.884
 30
0.000000
  70
    32
  0
VERTEX
  8
0
  5
2A60
 10
122.097
 20
187.884
 30
0.000000
  70
    32
  0
VERTEX
  8
0
  5
2A61
 10
122.132
 20
187.884
 30
0.000000
  70
    32
  0
VERTEX
  8
0
  5
2A62
 10
122.168
 20
187.884
 30
0.000000
  70
    32
  0
VERTEX
  8
0
  5
2A63
 10
122.203
 20
187.884
 30
0.000000
  70
    32
  0
VERTEX
  8
0
  5
2A64
 10
122.239
 20
187.884
 30
0.000000
  70
    32
  0
VERTEX
  8
0
  5
2A65
 10
122.274
 20
187.884
 30
0.000000
  70
    32
  0
VERTEX
  8
0
  5
2A66
 10
122.310
 20
187.884
 30
0.000000
  70
    32
  0
VERTEX
  8
0
  5
2A67
 10
122.346
 20
187.884
 30
0.000000
  70
    32
  0
VERTEX
  8
0
  5
2A68
 10
122.382
 20
187.884
 30
0.000000
  70
    32
  0
VERTEX
  8
0
  5
2A69
 10
122.418
 20
187.884
 30
0.000000
  70
    32
  0
VERTEX
  8
0
  5
2A6A
 10
122.453
 20
187.884
 30
0.000000
  70
    32
  0
VERTEX
  8
0
  5
2A6B
 10
122.489
 20
187.884
 30
0.000000
  70
    32
  0
VERTEX
  8
0
  5
2A6C
 10
122.525
 20
187.884
 30
0.000000
  70
    32
  0
VERTEX
  8
0
  5
2A6D
 10
122.562
 20
187.884
 30
0.000000
  70
    32
  0
VERTEX
  8
0
  5
2A6E
 10
122.598
 20
187.884
 30
0.000000
  70
    32
  0
VERTEX
  8
0
  5
2A6F
 10
122.634
 20
187.884
 30
0.000000
  70
    32
  0
VERTEX
  8
0
  5
2A70
 10
122.670
 20
187.884
 30
0.000000
  70
    32
  0
VERTEX
  8
0
  5
2A71
 10
122.706
 20
187.884
 30
0.000000
  70
    32
  0
VERTEX
  8
0
  5
2A72
 10
122.743
 20
187.884
 30
0.000000
  70
    32
  0
VERTEX
  8
0
  5
2A73
 10
122.779
 20
187.884
 30
0.000000
  70
    32
  0
VERTEX
  8
0
  5
2A74
 10
122.816
 20
187.884
 30
0.000000
  70
    32
  0
VERTEX
  8
0
  5
2A75
 10
122.852
 20
187.884
 30
0.000000
  70
    32
  0
VERTEX
  8
0
  5
2A76
 10
122.889
 20
187.884
 30
0.000000
  70
    32
  0
VERTEX
  8
0
  5
2A77
 10
122.925
 20
187.884
 30
0.000000
  70
    32
  0
VERTEX
  8
0
  5
2A78
 10
122.962
 20
187.884
 30
0.000000
  70
    32
  0
VERTEX
  8
0
  5
2A79
 10
122.998
 20
187.884
 30
0.000000
  70
    32
  0
VERTEX
  8
0
  5
2A7A
 10
123.035
 20
187.884
 30
0.000000
  70
    32
  0
VERTEX
  8
0
  5
2A7B
 10
123.072
 20
187.884
 30
0.000000
  70
    32
  0
VERTEX
  8
0
  5
2A7C
 10
123.109
 20
187.884
 30
0.000000
  70
    32
  0
VERTEX
  8
0
  5
2A7D
 10
123.146
 20
187.884
 30
0.000000
  70
    32
  0
VERTEX
  8
0
  5
2A7E
 10
123.183
 20
187.884
 30
0.000000
  70
    32
  0
VERTEX
  8
0
  5
2A7F
 10
123.220
 20
187.884
 30
0.000000
  70
    32
  0
VERTEX
  8
0
  5
2A80
 10
123.257
 20
187.884
 30
0.000000
  70
    32
  0
VERTEX
  8
0
  5
2A81
 10
123.294
 20
187.884
 30
0.000000
  70
    32
  0
VERTEX
  8
0
  5
2A82
 10
123.331
 20
187.884
 30
0.000000
  70
    32
  0
VERTEX
  8
0
  5
2A83
 10
123.368
 20
187.884
 30
0.000000
  70
    32
  0
VERTEX
  8
0
  5
2A84
 10
123.406
 20
187.884
 30
0.000000
  70
    32
  0
VERTEX
  8
0
  5
2A85
 10
123.443
 20
187.884
 30
0.000000
  70
    32
  0
VERTEX
  8
0
  5
2A86
 10
123.480
 20
187.884
 30
0.000000
  70
    32
  0
VERTEX
  8
0
  5
2A87
 10
123.518
 20
187.884
 30
0.000000
  70
    32
  0
VERTEX
  8
0
  5
2A88
 10
123.555
 20
187.884
 30
0.000000
  70
    32
  0
VERTEX
  8
0
  5
2A89
 10
123.593
 20
187.884
 30
0.000000
  70
    32
  0
VERTEX
  8
0
  5
2A8A
 10
123.630
 20
187.884
 30
0.000000
  70
    32
  0
VERTEX
  8
0
  5
2A8B
 10
123.668
 20
187.884
 30
0.000000
  70
    32
  0
VERTEX
  8
0
  5
2A8C
 10
123.706
 20
187.884
 30
0.000000
  70
    32
  0
SEQEND
  8
0
  5
2A8D
  0
POLYLINE
  8
0
  5
2A8E
  66
     1
 10
0.000000
 20
0.000000
 30
0.000000
  70
     8
  0
VERTEX
  8
0
  5
2A8F
 10
122.031
 20
195.884
 30
0.000000
  70
    32
  0
VERTEX
  8
0
  5
2A90
 10
130.975
 20
218.540
 30
0.000000
  70
    32
  0
VERTEX
  8
0
  5
2A91
 10
133.975
 20
218.540
 30
0.000000
  70
    32
  0
SEQEND
  8
0
  5
2A92
  0
TEXT
  5
2508
  8
0
 10
134.97469176890741
 20
219.53982138667561
 30
0.0
 40
3.0
  1
M8*1
  7
CHINESET
  0
DIMENSION
  5
2509
  8
DIM
  2
*D28
 10
134.6063825149742
 20
186.8836176607816
 30
0.0
 11
132.1063825149742
 21
191.8836176607814
 31
0.0
 70
     0
  1
%%c<>
 13
106.70573600717449
 23
196.88361766078111
 33
0.0
 14
106.70573600717449
 24
186.8836176607816
 34
0.0
 50
90.0
  0
DIMENSION
  5
2516
  8
DIM
  2
*D29
 10
142.58193786811549
 20
185.38361766078111
 30
0.0
 11
140.08193786811549
 21
191.88361766078111
 31
0.0
 70
     0
  1
%%c<>
 13
106.20573600717439
 23
198.38361766078111
 33
0.0
 14
106.20573600717439
 24
185.38361766078111
 34
0.0
 50
90.0
  0
CIRCLE
  5
2535
  8
0
 10
191.59995745555139
 20
191.88361766078131
 30
0.0
 40
4.0
  0
ARC
  5
2536
  8
0
  6
CONTINUOUS
 62
     3
 10
191.59995745555139
 20
191.88361766078131
 30
0.0
 40
3.5
 50
164.19805235627231
 51
109.0409169954941
  0
DIMENSION
  5
2543
  8
DIM
  2
*D30
 10
187.59995745555139
 20
162.2868017860369
 30
0.0
 11
191.59995745555139
 21
162.2868017860369
 31
0.0
 70
   128
 13
195.59995745555139
 23
188.88361766078111
 33
0.0
 14
187.59995745555139
 24
188.88361766078111
 34
0.0
  0
DIMENSION
  5
255D
  8
DIM
  2
*D31
 10
202.62463399784039
 20
46.606166797207948
 30
0.0
 11
206.62463399784039
 21
46.606166797207948
 31
0.0
 70
   128
 13
210.62463399784039
 23
78.521961095830974
 33
0.0
 14
202.62463399784039
 24
78.521961095830974
 34
0.0
  0
ENDSEC
  0
EOF
