  0
SECTION
  2
HEADER
  9
$ACADVER
  1
AC1009
  9
$INSBASE
 10
0.0
 20
0.0
 30
0.0
  9
$EXTMIN
 10
57.1339595094488
 20
6.9954494032084531
 30
-0.00000000000001
  9
$EXTMAX
 10
279.57107959079309
 20
280.81213670542331
 30
0.0000000000000053
  9
$LIMMIN
 10
0.0
 20
0.0
  9
$LIMMAX
 10
12.0
 20
9.0
  9
$ORTHOMODE
 70
     1
  9
$REGENMODE
 70
     1
  9
$FILLMODE
 70
     1
  9
$QTEXTMODE
 70
     0
  9
$MIRRTEXT
 70
     1
  9
$DRAGMODE
 70
     2
  9
$LTSCALE
 40
5.0
  9
$OSMODE
 70
    39
  9
$ATTMODE
 70
     1
  9
$TEXTSIZE
 40
4.5
  9
$TRACEWID
 40
0.05
  9
$TEXTSTYLE
  7
CHINESET
  9
$CLAYER
  8
0
  9
$CELTYPE
  6
BYLAYER
  9
$CECOLOR
 62
   256
  9
$DIMSCALE
 40
1.0
  9
$DIMASZ
 40
3.0
  9
$DIMEXO
 40
3.0
  9
$DIMDLI
 40
2.0
  9
$DIMRND
 40
0.0
  9
$DIMDLE
 40
0.0
  9
$DIMEXE
 40
2.0
  9
$DIMTP
 40
0.0
  9
$DIMTM
 40
0.0
  9
$DIMTXT
 40
3.0
  9
$DIMCEN
 40
-3.0
  9
$DIMTSZ
 40
0.0
  9
$DIMTOL
 70
     0
  9
$DIMLIM
 70
     0
  9
$DIMTIH
 70
     0
  9
$DIMTOH
 70
     0
  9
$DIMSE1
 70
     0
  9
$DIMSE2
 70
     0
  9
$DIMTAD
 70
     1
  9
$DIMZIN
 70
     8
  9
$DIMBLK
  1

  9
$DIMASO
 70
     1
  9
$DIMSHO
 70
     1
  9
$DIMPOST
  1

  9
$DIMAPOST
  1

  9
$DIMALT
 70
     0
  9
$DIMALTD
 70
     2
  9
$DIMALTF
 40
25.399999999999999
  9
$DIMLFAC
 40
1.0
  9
$DIMTOFL
 70
     1
  9
$DIMTVP
 40
0.0
  9
$DIMTIX
 70
     0
  9
$DIMSOXD
 70
     0
  9
$DIMSAH
 70
     0
  9
$DIMBLK1
  1

  9
$DIMBLK2
  1

  9
$DIMSTYLE
  2
ISO-25-1
  9
$DIMCLRD
 70
   256
  9
$DIMCLRE
 70
   256
  9
$DIMCLRT
 70
   256
  9
$DIMTFAC
 40
0.7
  9
$DIMGAP
 40
1.0
  9
$LUNITS
 70
     2
  9
$LUPREC
 70
     2
  9
$SKETCHINC
 40
0.1
  9
$FILLETRAD
 40
0.5
  9
$AUNITS
 70
     0
  9
$AUPREC
 70
     0
  9
$MENU
  1
.
  9
$ELEVATION
 40
0.0
  9
$PELEVATION
 40
0.0
  9
$THICKNESS
 40
0.0
  9
$LIMCHECK
 70
     0
  9
$BLIPMODE
 70
     0
  9
$CHAMFERA
 40
1.0
  9
$CHAMFERB
 40
1.0
  9
$SKPOLY
 70
     0
  9
$TDCREATE
 40
2452019.6310852999
  9
$TDUPDATE
 40
2452047.648544421
  9
$TDINDWG
 40
0.2137546991
  9
$TDUSRTIMER
 40
0.2137546991
  9
$USRTIMER
 70
     1
  9
$ANGBASE
 50
0.0
  9
$ANGDIR
 70
     0
  9
$PDMODE
 70
     0
  9
$PDSIZE
 40
0.0
  9
$PLINEWID
 40
0.0
  9
$COORDS
 70
     2
  9
$SPLFRAME
 70
     0
  9
$SPLINETYPE
 70
     6
  9
$SPLINESEGS
 70
     8
  9
$ATTDIA
 70
     0
  9
$ATTREQ
 70
     1
  9
$HANDLING
 70
 12289
  9
$HANDSEED
  5
2F72
  9
$SURFTAB1
 70
     6
  9
$SURFTAB2
 70
     6
  9
$SURFTYPE
 70
     6
  9
$SURFU
 70
     6
  9
$SURFV
 70
     6
  9
$UCSNAME
  2

  9
$UCSORG
 10
0.0
 20
0.0
 30
0.0
  9
$UCSXDIR
 10
1.0
 20
0.0
 30
0.0
  9
$UCSYDIR
 10
0.0
 20
1.0
 30
0.0
  9
$PUCSNAME
  2

  9
$PUCSORG
 10
0.0
 20
0.0
 30
0.0
  9
$PUCSXDIR
 10
1.0
 20
0.0
 30
0.0
  9
$PUCSYDIR
 10
0.0
 20
1.0
 30
0.0
  9
$USERI1
 70
     0
  9
$USERI2
 70
     0
  9
$USERI3
 70
     0
  9
$USERI4
 70
     0
  9
$USERI5
 70
     0
  9
$USERR1
 40
0.0
  9
$USERR2
 40
0.0
  9
$USERR3
 40
0.0
  9
$USERR4
 40
0.0
  9
$USERR5
 40
0.0
  9
$WORLDVIEW
 70
     1
  9
$SHADEDGE
 70
     3
  9
$SHADEDIF
 70
    70
  9
$TILEMODE
 70
     1
  9
$MAXACTVP
 70
    64
  9
$PLIMCHECK
 70
     0
  9
$PEXTMIN
 10
1.0000000000000000E+020
 20
1.0000000000000000E+020
 30
1.0000000000000000E+020
  9
$PEXTMAX
 10
-1.0000000000000000E+020
 20
-1.0000000000000000E+020
 30
-1.0000000000000000E+020
  9
$PLIMMIN
 10
0.0
 20
0.0
  9
$PLIMMAX
 10
12.0
 20
9.0
  9
$UNITMODE
 70
     0
  9
$VISRETAIN
 70
     1
  9
$PLINEGEN
 70
     0
  9
$PSLTSCALE
 70
     1
  0
ENDSEC
  0
SECTION
  2
TABLES
  0
TABLE
  2
VPORT
 70
     2
  0
VPORT
  2
*ACTIVE
 70
     0
 10
0.0
 20
0.0
 11
1.0
 21
1.0
 12
168.35251955012089
 22
143.9037930543158
 13
0.0
 23
0.0
 14
0.5
 24
0.5
 15
0.5
 25
0.5
 16
0.0
 26
0.0
 36
1.0
 17
0.0
 27
0.0
 37
0.0
 40
276.83672429451872
 41
1.7274401473296499
 42
50.0
 43
0.0
 44
0.0
 50
0.0
 51
0.0
 71
     0
 72
   100
 73
     1
 74
     3
 75
     0
 76
     0
 77
     0
 78
     0
  0
ENDTAB
  0
TABLE
  2
LTYPE
 70
     5
  0
LTYPE
  2
CONTINUOUS
 70
     0
  3
Solid line
 72
    65
 73
     0
 40
0.0
  0
LTYPE
  2
CENTER
 70
     0
  3
Center ____ _ ____ _ ____ _ ____ _ ____ _ ____
 72
    65
 73
     4
 40
2.0
 49
1.25
 49
-0.25
 49
0.25
 49
-0.25
  0
ENDTAB
  0
TABLE
  2
LAYER
 70
    13
  0
LAYER
  2
0
 70
     0
 62
     7
  6
CONTINUOUS
  0
LAYER
  2
DIM
 70
     0
 62
     5
  6
CONTINUOUS
  0
LAYER
  2
CENTER
 70
     0
 62
     1
  6
CENTER
  0
LAYER
  2
LOGO
 70
     0
 62
     7
  6
CONTINUOUS
  0
LAYER
  2
DEFPOINTS
 70
     0
 62
     7
  6
CONTINUOUS
  0
ENDTAB
  0
TABLE
  2
STYLE
 70
     8
  0
STYLE
  2
STANDARD
 70
     0
 40
3.0
 41
1.0
 50
0.0
 71
     0
 42
3.0
  3
txt
  4

  0
STYLE
  2
CHINESET
 70
     0
 40
3.0
 41
1.0
 50
0.0
 71
     0
 42
4.5
  3
simplex.shx
  4
CHINESET.shx
  0
STYLE
  2
LOGO
 70
     0
 40
0.0
 41
1.0
 50
0.0
 71
     0
 42
5.0
  3
txt
  4

  0
ENDTAB
  0
TABLE
  2
VIEW
 70
     0
  0
ENDTAB
  0
TABLE
  2
UCS
 70
     0
  0
ENDTAB
  0
TABLE
  2
APPID
 70
     6
  0
APPID
  2
ACAD
 70
     0
  0
APPID
  2
AD_DRAW
 70
     0
  0
APPID
  2
DESIGNERASSEMBLIES
 70
     0
  0
APPID
  2
MCAD_NO_VIS
 70
     0
  0
APPID
  2
ASURF_PCURVE_APPNAME
 70
     0
  0
APPID
  2
CONTENTBLOCKICON
 70
     0
  0
ENDTAB
  0
TABLE
  2
DIMSTYLE
 70
     2
  0
DIMSTYLE
  2
ISO-25-1
 70
     0
  3

  4

  5

  6

  7

 40
1.0
 41
3.0
 42
3.0
 43
2.0
 44
2.0
 45
0.0
 46
0.0
 47
0.0
 48
0.0
140
3.0
141
-3.0
142
0.0
143
25.399999999999999
144
1.0
145
0.0
146
0.7
147
1.0
 71
     0
 72
     0
 73
     0
 74
     0
 75
     0
 76
     0
 77
     1
 78
     8
170
     0
171
     2
172
     1
173
     0
174
     0
175
     0
176
   256
177
   256
178
   256
  0
ENDTAB
  0
ENDSEC
  0
SECTION
  2
BLOCKS
  0
BLOCK
  8
0
  2
$MODEL_SPACE
 70
     0
 10
0.0
 20
0.0
 30
0.0
  3
$MODEL_SPACE
  1

  0
ENDBLK
  5
21
  8
0
  0
BLOCK
 67
     1
  8
0
  2
$PAPER_SPACE
 70
     0
 10
0.0
 20
0.0
 30
0.0
  3
$PAPER_SPACE
  1

  0
ENDBLK
  5
1D
 67
     1
  8
0
  0
BLOCK
  8
0
  2
*D9
 70
     1
 10
0.0
 20
0.0
 30
0.0
  3
*D9
  1

  0
LINE
  5
2E98
  8
DIM
 10
113.7085399830505
 20
84.382787378604434
 30
0.0
 11
113.7085399830505
 21
103.50955215550211
 31
0.0
  0
LINE
  5
2E99
  8
DIM
 10
121.708539983051
 20
99.632787378604476
 30
0.0
 11
121.708539983051
 21
103.50955215550211
 31
0.0
  0
LINE
  5
2E9A
  8
DIM
 10
116.7085399830505
 20
101.50955215550211
 30
0.0
 11
118.708539983051
 21
101.50955215550211
 31
0.0
  0
SOLID
  5
2E9B
  8
DIM
 10
116.7085399830505
 20
102.00955215550201
 30
0.0
 11
116.7085399830505
 21
101.00955215550201
 31
0.0
 12
113.7085399830505
 22
101.50955215550211
 32
0.0
 13
113.7085399830505
 23
101.50955215550211
 33
0.0
  0
SOLID
  5
2E9C
  8
DIM
 10
118.708539983051
 20
102.00955215550201
 30
0.0
 11
118.708539983051
 21
101.00955215550201
 31
0.0
 12
121.708539983051
 22
101.50955215550211
 32
0.0
 13
121.708539983051
 23
101.50955215550211
 33
0.0
  0
TEXT
  5
2E9D
  8
0
 10
116.7085399830507
 20
102.50955215550211
 30
0.0
 40
3.0
  1
8
  7
CHINESET
  0
POINT
  5
2E9E
  8
DEFPOINTS
 62
     0
 10
113.7085399830505
 20
81.382787378604434
 30
0.0
  0
POINT
  5
2E9F
  8
DEFPOINTS
 62
     0
 10
121.708539983051
 20
96.632787378604462
 30
0.0
  0
POINT
  5
2EA0
  8
DEFPOINTS
 62
     0
 10
121.708539983051
 20
101.50955215550211
 30
0.0
  0
ENDBLK
  5
28BD
  8
0
  0
BLOCK
  8
0
  2
*D10
 70
     1
 10
0.0
 20
0.0
 30
0.0
  3
*D10
  1

  0
LINE
  5
2EA1
  8
DIM
 10
108.708539983051
 20
84.432787378605326
 30
0.0
 11
108.708539983051
 21
103.50955215550211
 31
0.0
  0
LINE
  5
2EA2
  8
DIM
 10
100.708539983051
 20
99.632787378604476
 30
0.0
 11
100.708539983051
 21
103.50955215550211
 31
0.0
  0
LINE
  5
2EA3
  8
DIM
 10
105.708539983051
 20
101.50955215550211
 30
0.0
 11
103.708539983051
 21
101.50955215550211
 31
0.0
  0
SOLID
  5
2EA4
  8
DIM
 10
105.708539983051
 20
102.00955215550201
 30
0.0
 11
105.708539983051
 21
101.00955215550201
 31
0.0
 12
108.708539983051
 22
101.50955215550211
 32
0.0
 13
108.708539983051
 23
101.50955215550211
 33
0.0
  0
SOLID
  5
2EA5
  8
DIM
 10
103.708539983051
 20
102.00955215550201
 30
0.0
 11
103.708539983051
 21
101.00955215550201
 31
0.0
 12
100.708539983051
 22
101.50955215550211
 32
0.0
 13
100.708539983051
 23
101.50955215550211
 33
0.0
  0
TEXT
  5
2EA6
  8
0
 10
103.708539983051
 20
102.50955215550211
 30
0.0
 40
3.0
  1
8
  7
CHINESET
  0
POINT
  5
2EA7
  8
DEFPOINTS
 62
     0
 10
108.708539983051
 20
81.432787378605326
 30
0.0
  0
POINT
  5
2EA8
  8
DEFPOINTS
 62
     0
 10
100.708539983051
 20
96.632787378604462
 30
0.0
  0
POINT
  5
2EA9
  8
DEFPOINTS
 62
     0
 10
100.708539983051
 20
101.50955215550211
 30
0.0
  0
ENDBLK
  5
28CA
  8
0
  0
BLOCK
  8
0
  2
*D11
 70
     1
 10
0.0
 20
0.0
 30
0.0
  3
*D11
  1

  0
LINE
  5
2E8F
  8
DIM
 10
100.708539983051
 20
99.632787378604476
 30
0.0
 11
100.708539983051
 21
111.53850351602981
 31
0.0
  0
LINE
  5
2E90
  8
DIM
 10
121.708539983051
 20
99.632787378604434
 30
0.0
 11
121.708539983051
 21
111.53850351602981
 31
0.0
  0
LINE
  5
2E91
  8
DIM
 10
103.708539983051
 20
109.53850351602981
 30
0.0
 11
118.708539983051
 21
109.53850351602981
 31
0.0
  0
SOLID
  5
2E92
  8
DIM
 10
103.708539983051
 20
110.03850351602981
 30
0.0
 11
103.708539983051
 21
109.03850351602981
 31
0.0
 12
100.708539983051
 22
109.53850351602981
 32
0.0
 13
100.708539983051
 23
109.53850351602981
 33
0.0
  0
SOLID
  5
2E93
  8
DIM
 10
118.708539983051
 20
110.03850351602981
 30
0.0
 11
118.708539983051
 21
109.03850351602981
 31
0.0
 12
121.708539983051
 22
109.53850351602981
 32
0.0
 13
121.708539983051
 23
109.53850351602981
 33
0.0
  0
TEXT
  5
2E94
  8
0
 10
109.42282569733671
 20
110.53850351602981
 30
0.0
 40
3.0
  1
21
  7
CHINESET
  0
POINT
  5
2E95
  8
DEFPOINTS
 62
     0
 10
100.708539983051
 20
96.632787378604462
 30
0.0
  0
POINT
  5
2E96
  8
DEFPOINTS
 62
     0
 10
121.708539983051
 20
96.632787378604434
 30
0.0
  0
POINT
  5
2E97
  8
DEFPOINTS
 62
     0
 10
121.708539983051
 20
109.53850351602981
 30
0.0
  0
ENDBLK
  5
28D7
  8
0
  0
BLOCK
  8
0
  2
*D12
 70
     1
 10
0.0
 20
0.0
 30
0.0
  3
*D12
  1

  0
LINE
  5
2EAA
  8
DIM
 10
121.708539983051
 20
99.632787378604476
 30
0.0
 11
121.708539983051
 21
111.53850351602981
 31
0.0
  0
LINE
  5
2EAB
  8
DIM
 10
127.7035399830513
 20
84.632787378604476
 30
0.0
 11
127.7035399830513
 21
111.53850351602981
 31
0.0
  0
LINE
  5
2EAC
  8
DIM
 10
118.708539983051
 20
109.53850351602981
 30
0.0
 11
115.708539983051
 21
109.53850351602981
 31
0.0
  0
LINE
  5
2EAD
  8
DIM
 10
130.70353998305129
 20
109.53850351602981
 30
0.0
 11
133.70353998305129
 21
109.53850351602981
 31
0.0
  0
LINE
  5
2EAE
  8
DIM
 10
121.708539983051
 20
109.53850351602981
 30
0.0
 11
127.7035399830513
 21
109.53850351602981
 31
0.0
  0
SOLID
  5
2EAF
  8
DIM
 10
118.708539983051
 20
110.03850351602981
 30
0.0
 11
118.708539983051
 21
109.03850351602981
 31
0.0
 12
121.708539983051
 22
109.53850351602981
 32
0.0
 13
121.708539983051
 23
109.53850351602981
 33
0.0
  0
SOLID
  5
2EB0
  8
DIM
 10
130.70353998305129
 20
110.03850351602981
 30
0.0
 11
130.70353998305129
 21
109.03850351602981
 31
0.0
 12
127.7035399830513
 22
109.53850351602981
 32
0.0
 13
127.7035399830513
 23
109.53850351602981
 33
0.0
  0
TEXT
  5
2EB1
  8
0
 10
123.7774685544797
 20
110.53850351602981
 30
0.0
 40
3.0
  1
6
  7
CHINESET
  0
POINT
  5
2EB2
  8
DEFPOINTS
 62
     0
 10
121.708539983051
 20
96.632787378604462
 30
0.0
  0
POINT
  5
2EB3
  8
DEFPOINTS
 62
     0
 10
127.7035399830513
 20
81.632787378604462
 30
0.0
  0
POINT
  5
2EB4
  8
DEFPOINTS
 62
     0
 10
127.7035399830513
 20
109.53850351602981
 30
0.0
  0
ENDBLK
  5
28E6
  8
0
  0
BLOCK
  8
0
  2
*D13
 70
     1
 10
0.0
 20
0.0
 30
0.0
  3
*D13
  1

  0
LINE
  5
2E86
  8
DIM
 10
127.7035399830513
 20
84.632787378604476
 30
0.0
 11
127.7035399830513
 21
119.4661691780158
 31
0.0
  0
LINE
  5
2E87
  8
DIM
 10
100.708539983051
 20
99.632787378604476
 30
0.0
 11
100.708539983051
 21
119.4661691780158
 31
0.0
  0
LINE
  5
2E88
  8
DIM
 10
124.7035399830513
 20
117.4661691780158
 30
0.0
 11
103.708539983051
 21
117.4661691780158
 31
0.0
  0
SOLID
  5
2E89
  8
DIM
 10
124.7035399830513
 20
117.9661691780159
 30
0.0
 11
124.7035399830513
 21
116.9661691780158
 31
0.0
 12
127.7035399830513
 22
117.4661691780158
 32
0.0
 13
127.7035399830513
 23
117.4661691780158
 33
0.0
  0
SOLID
  5
2E8A
  8
DIM
 10
103.708539983051
 20
117.9661691780159
 30
0.0
 11
103.708539983051
 21
116.9661691780158
 31
0.0
 12
100.708539983051
 22
117.4661691780158
 32
0.0
 13
100.708539983051
 23
117.4661691780158
 33
0.0
  0
TEXT
  5
2E8B
  8
0
 10
111.7774685544797
 20
118.4661691780158
 30
0.0
 40
3.0
  1
27
  7
CHINESET
  0
POINT
  5
2E8C
  8
DEFPOINTS
 62
     0
 10
127.7035399830513
 20
81.632787378604462
 30
0.0
  0
POINT
  5
2E8D
  8
DEFPOINTS
 62
     0
 10
100.708539983051
 20
96.632787378604462
 30
0.0
  0
POINT
  5
2E8E
  8
DEFPOINTS
 62
     0
 10
100.708539983051
 20
117.4661691780158
 30
0.0
  0
ENDBLK
  5
28FE
  8
0
  0
BLOCK
  8
0
  2
*D14
 70
     1
 10
0.0
 20
0.0
 30
0.0
  3
*D14
  1

  0
LINE
  5
2EB5
  8
DIM
 10
123.7085399830508
 20
65.632787378604135
 30
0.0
 11
123.7085399830508
 21
48.111118266112271
 31
0.0
  0
LINE
  5
2EB6
  8
DIM
 10
121.7085399830508
 20
53.632787378604178
 30
0.0
 11
121.7085399830508
 21
48.111118266112271
 31
0.0
  0
LINE
  5
2EB7
  8
DIM
 10
126.7085399830508
 20
50.111118266112271
 30
0.0
 11
129.7085399830508
 21
50.111118266112271
 31
0.0
  0
LINE
  5
2EB8
  8
DIM
 10
118.7085399830507
 20
50.111118266112271
 30
0.0
 11
111.7085399830507
 21
50.111118266112271
 31
0.0
  0
LINE
  5
2EB9
  8
DIM
 10
123.7085399830508
 20
50.111118266112271
 30
0.0
 11
121.7085399830508
 21
50.111118266112271
 31
0.0
  0
SOLID
  5
2EBA
  8
DIM
 10
126.7085399830508
 20
50.611118266112271
 30
0.0
 11
126.7085399830508
 21
49.611118266112271
 31
0.0
 12
123.7085399830508
 22
50.111118266112271
 32
0.0
 13
123.7085399830508
 23
50.111118266112271
 33
0.0
  0
SOLID
  5
2EBB
  8
DIM
 10
118.7085399830507
 20
50.611118266112271
 30
0.0
 11
118.7085399830507
 21
49.611118266112271
 31
0.0
 12
121.7085399830508
 22
50.111118266112271
 32
0.0
 13
121.7085399830508
 23
50.111118266112271
 33
0.0
  0
TEXT
  5
2EBC
  8
0
 10
112.7085399830507
 20
51.111118266112271
 30
0.0
 40
3.0
  1
2
  7
CHINESET
  0
POINT
  5
2EBD
  8
DEFPOINTS
 62
     0
 10
123.7085399830508
 20
68.632787378604149
 30
0.0
  0
POINT
  5
2EBE
  8
DEFPOINTS
 62
     0
 10
121.7085399830508
 20
56.632787378604178
 30
0.0
  0
POINT
  5
2EBF
  8
DEFPOINTS
 62
     0
 10
121.7085399830508
 20
50.111118266112271
 30
0.0
  0
ENDBLK
  5
2921
  8
0
  0
BLOCK
  8
0
  2
*D15
 70
     1
 10
0.0
 20
0.0
 30
0.0
  3
*D15
  1

  0
LINE
  5
2E6B
  8
DIM
 10
126.2085399830509
 20
85.132787378604405
 30
0.0
 11
154.8600355265016
 21
85.132787378604405
 31
0.0
  0
LINE
  5
2E6C
  8
DIM
 10
126.2085399830508
 20
68.132787378604135
 30
0.0
 11
154.8600355265016
 21
68.132787378604135
 31
0.0
  0
LINE
  5
2E6D
  8
DIM
 10
152.8600355265016
 20
82.132787378604405
 30
0.0
 11
152.8600355265016
 21
71.132787378604149
 31
0.0
  0
SOLID
  5
2E6E
  8
DIM
 10
152.3600355265016
 20
82.132787378604405
 30
0.0
 11
153.3600355265016
 21
82.132787378604405
 31
0.0
 12
152.8600355265016
 22
85.132787378604405
 32
0.0
 13
152.8600355265016
 23
85.132787378604405
 33
0.0
  0
SOLID
  5
2E6F
  8
DIM
 10
152.3600355265016
 20
71.132787378604149
 30
0.0
 11
153.3600355265016
 21
71.132787378604149
 31
0.0
 12
152.8600355265016
 22
68.132787378604135
 32
0.0
 13
152.8600355265016
 23
68.132787378604135
 33
0.0
  0
INSERT
  5
2E70
  8
0
  2
*U38
 10
0.0
 20
0.0
 30
0.0
  0
POINT
  5
2E71
  8
DEFPOINTS
 62
     0
 10
123.2085399830509
 20
85.132787378604405
 30
0.0
  0
POINT
  5
2E72
  8
DEFPOINTS
 62
     0
 10
123.2085399830508
 20
68.132787378604135
 30
0.0
  0
POINT
  5
2E73
  8
DEFPOINTS
 62
     0
 10
152.8600355265016
 20
68.132787378604135
 30
0.0
  0
ENDBLK
  5
292E
  8
0
  0
BLOCK
  8
0
  2
*D16
 70
     1
 10
0.0
 20
0.0
 30
0.0
  3
*D16
  1

  0
LINE
  5
2E62
  8
DIM
 10
126.7085399830509
 20
82.632787378604206
 30
0.0
 11
143.7953638198027
 21
82.632787378604206
 31
0.0
  0
LINE
  5
2E63
  8
DIM
 10
126.7085399830508
 20
70.632787378604235
 30
0.0
 11
143.7953638198027
 21
70.632787378604235
 31
0.0
  0
LINE
  5
2E64
  8
DIM
 10
141.7953638198027
 20
79.632787378604206
 30
0.0
 11
141.7953638198027
 21
73.632787378604235
 31
0.0
  0
SOLID
  5
2E65
  8
DIM
 10
141.2953638198027
 20
79.632787378604206
 30
0.0
 11
142.2953638198027
 21
79.632787378604206
 31
0.0
 12
141.7953638198027
 22
82.632787378604206
 32
0.0
 13
141.7953638198027
 23
82.632787378604206
 33
0.0
  0
SOLID
  5
2E66
  8
DIM
 10
141.2953638198027
 20
73.632787378604235
 30
0.0
 11
142.2953638198027
 21
73.632787378604235
 31
0.0
 12
141.7953638198027
 22
70.632787378604235
 32
0.0
 13
141.7953638198027
 23
70.632787378604235
 33
0.0
  0
INSERT
  5
2E67
  8
0
  2
*U37
 10
0.0
 20
0.0
 30
0.0
  0
POINT
  5
2E68
  8
DEFPOINTS
 62
     0
 10
123.7085399830509
 20
82.632787378604206
 30
0.0
  0
POINT
  5
2E69
  8
DEFPOINTS
 62
     0
 10
123.7085399830508
 20
70.632787378604235
 30
0.0
  0
POINT
  5
2E6A
  8
DEFPOINTS
 62
     0
 10
141.7953638198027
 20
70.632787378604235
 30
0.0
  0
ENDBLK
  5
293B
  8
0
  0
BLOCK
  8
0
  2
*D17
 70
     1
 10
0.0
 20
0.0
 30
0.0
  3
*D17
  1

  0
LINE
  5
2E7D
  8
DIM
 10
184.68804522465561
 20
90.632787378604263
 30
0.0
 11
177.78073586868319
 21
90.632787378604263
 31
0.0
  0
LINE
  5
2E7E
  8
DIM
 10
184.68804522465561
 20
62.632787378604263
 30
0.0
 11
177.78073586868319
 21
62.632787378604263
 31
0.0
  0
LINE
  5
2E7F
  8
DIM
 10
179.78073586868319
 20
87.632787378604263
 30
0.0
 11
179.78073586868319
 21
65.632787378604263
 31
0.0
  0
SOLID
  5
2E80
  8
DIM
 10
179.28073586868319
 20
87.632787378604263
 30
0.0
 11
180.28073586868319
 21
87.632787378604263
 31
0.0
 12
179.78073586868319
 22
90.632787378604263
 32
0.0
 13
179.78073586868319
 23
90.632787378604263
 33
0.0
  0
SOLID
  5
2E81
  8
DIM
 10
179.28073586868319
 20
65.632787378604263
 30
0.0
 11
180.28073586868319
 21
65.632787378604263
 31
0.0
 12
179.78073586868319
 22
62.632787378604263
 32
0.0
 13
179.78073586868319
 23
62.632787378604263
 33
0.0
  0
TEXT
  5
2E82
  8
0
 10
178.78073586868319
 20
72.797965950032861
 30
0.0
 40
3.0
  1
\U+25A128
 50
90.0
  7
CHINESET
  0
POINT
  5
2E83
  8
DEFPOINTS
 62
     0
 10
187.68804522465561
 20
90.632787378604263
 30
0.0
  0
POINT
  5
2E84
  8
DEFPOINTS
 62
     0
 10
187.68804522465561
 20
62.632787378604263
 30
0.0
  0
POINT
  5
2E85
  8
DEFPOINTS
 62
     0
 10
179.78073586868319
 20
62.632787378604263
 30
0.0
  0
ENDBLK
  5
295A
  8
0
  0
BLOCK
  8
0
  2
*D18
 70
     1
 10
0.0
 20
0.0
 30
0.0
  3
*D18
  1

  0
LINE
  5
2E74
  8
DIM
 10
186.89718672214741
 20
96.632787378604462
 30
0.0
 11
169.19725221502239
 21
96.632787378604462
 31
0.0
  0
LINE
  5
2E75
  8
DIM
 10
186.8971867221473
 20
56.632787378604078
 30
0.0
 11
169.19725221502239
 21
56.632787378604093
 31
0.0
  0
LINE
  5
2E76
  8
DIM
 10
171.19725221502239
 20
93.632787378604448
 30
0.0
 11
171.19725221502239
 21
59.632787378604093
 31
0.0
  0
SOLID
  5
2E77
  8
DIM
 10
170.69725221502239
 20
93.632787378604448
 30
0.0
 11
171.69725221502239
 21
93.632787378604448
 31
0.0
 12
171.19725221502239
 22
96.632787378604462
 32
0.0
 13
171.19725221502239
 23
96.632787378604462
 33
0.0
  0
SOLID
  5
2E78
  8
DIM
 10
170.69725221502239
 20
59.632787378604093
 30
0.0
 11
171.69725221502239
 21
59.632787378604093
 31
0.0
 12
171.19725221502239
 22
56.632787378604093
 32
0.0
 13
171.19725221502239
 23
56.632787378604093
 33
0.0
  0
TEXT
  5
2E79
  8
0
 10
170.19725221502239
 20
72.797965950032875
 30
0.0
 40
3.0
  1
\U+25A140
 50
90.0
  7
CHINESET
  0
POINT
  5
2E7A
  8
DEFPOINTS
 62
     0
 10
189.89718672214741
 20
96.632787378604462
 30
0.0
  0
POINT
  5
2E7B
  8
DEFPOINTS
 62
     0
 10
189.8971867221473
 20
56.632787378604078
 30
0.0
  0
POINT
  5
2E7C
  8
DEFPOINTS
 62
     0
 10
171.19725221502239
 20
56.632787378604093
 30
0.0
  0
ENDBLK
  5
2967
  8
0
  0
BLOCK
  8
0
  2
*D19
 70
     1
 10
0.0
 20
0.0
 30
0.0
  3
*D19
  1

  0
LINE
  5
2E18
  8
DIM
 10
114.4870491023655
 20
189.30132504503499
 30
0.0
 11
114.4870491023655
 21
208.42808982193259
 31
0.0
  0
LINE
  5
2E19
  8
DIM
 10
122.487049102366
 20
204.55132504503499
 30
0.0
 11
122.487049102366
 21
208.42808982193259
 31
0.0
  0
LINE
  5
2E1A
  8
DIM
 10
117.4870491023655
 20
206.42808982193259
 30
0.0
 11
119.487049102366
 21
206.42808982193259
 31
0.0
  0
SOLID
  5
2E1B
  8
DIM
 10
117.4870491023655
 20
206.92808982193259
 30
0.0
 11
117.4870491023655
 21
205.92808982193259
 31
0.0
 12
114.4870491023655
 22
206.42808982193259
 32
0.0
 13
114.4870491023655
 23
206.42808982193259
 33
0.0
  0
SOLID
  5
2E1C
  8
DIM
 10
119.487049102366
 20
206.92808982193259
 30
0.0
 11
119.487049102366
 21
205.92808982193259
 31
0.0
 12
122.487049102366
 22
206.42808982193259
 32
0.0
 13
122.487049102366
 23
206.42808982193259
 33
0.0
  0
TEXT
  5
2E1D
  8
0
 10
117.4870491023658
 20
207.42808982193259
 30
0.0
 40
3.0
  1
8
  7
CHINESET
  0
POINT
  5
2E1E
  8
DEFPOINTS
 62
     0
 10
114.4870491023655
 20
186.30132504503499
 30
0.0
  0
POINT
  5
2E1F
  8
DEFPOINTS
 62
     0
 10
122.487049102366
 20
201.55132504503499
 30
0.0
  0
POINT
  5
2E20
  8
DEFPOINTS
 62
     0
 10
122.487049102366
 20
206.42808982193259
 30
0.0
  0
ENDBLK
  5
2A68
  8
0
  0
BLOCK
  8
0
  2
*D20
 70
     1
 10
0.0
 20
0.0
 30
0.0
  3
*D20
  1

  0
LINE
  5
2E21
  8
DIM
 10
109.487049102366
 20
189.35132504503579
 30
0.0
 11
109.487049102366
 21
208.42808982193259
 31
0.0
  0
LINE
  5
2E22
  8
DIM
 10
101.487049102366
 20
204.55132504503499
 30
0.0
 11
101.487049102366
 21
208.42808982193259
 31
0.0
  0
LINE
  5
2E23
  8
DIM
 10
106.487049102366
 20
206.42808982193259
 30
0.0
 11
104.487049102366
 21
206.42808982193259
 31
0.0
  0
SOLID
  5
2E24
  8
DIM
 10
106.487049102366
 20
206.92808982193259
 30
0.0
 11
106.487049102366
 21
205.92808982193259
 31
0.0
 12
109.487049102366
 22
206.42808982193259
 32
0.0
 13
109.487049102366
 23
206.42808982193259
 33
0.0
  0
SOLID
  5
2E25
  8
DIM
 10
104.487049102366
 20
206.92808982193259
 30
0.0
 11
104.487049102366
 21
205.92808982193259
 31
0.0
 12
101.487049102366
 22
206.42808982193259
 32
0.0
 13
101.487049102366
 23
206.42808982193259
 33
0.0
  0
TEXT
  5
2E26
  8
0
 10
104.487049102366
 20
207.42808982193259
 30
0.0
 40
3.0
  1
8
  7
CHINESET
  0
POINT
  5
2E27
  8
DEFPOINTS
 62
     0
 10
109.487049102366
 20
186.35132504503579
 30
0.0
  0
POINT
  5
2E28
  8
DEFPOINTS
 62
     0
 10
101.487049102366
 20
201.55132504503499
 30
0.0
  0
POINT
  5
2E29
  8
DEFPOINTS
 62
     0
 10
101.487049102366
 20
206.42808982193259
 30
0.0
  0
ENDBLK
  5
2A74
  8
0
  0
BLOCK
  8
0
  2
*D21
 70
     1
 10
0.0
 20
0.0
 30
0.0
  3
*D21
  1

  0
LINE
  5
2E0F
  8
DIM
 10
101.487049102366
 20
204.55132504503499
 30
0.0
 11
101.487049102366
 21
216.45704118246039
 31
0.0
  0
LINE
  5
2E10
  8
DIM
 10
122.487049102366
 20
204.55132504503499
 30
0.0
 11
122.487049102366
 21
216.45704118246039
 31
0.0
  0
LINE
  5
2E11
  8
DIM
 10
104.487049102366
 20
214.45704118246039
 30
0.0
 11
119.487049102366
 21
214.45704118246039
 31
0.0
  0
SOLID
  5
2E12
  8
DIM
 10
104.487049102366
 20
214.95704118246039
 30
0.0
 11
104.487049102366
 21
213.95704118246039
 31
0.0
 12
101.487049102366
 22
214.45704118246039
 32
0.0
 13
101.487049102366
 23
214.45704118246039
 33
0.0
  0
SOLID
  5
2E13
  8
DIM
 10
119.487049102366
 20
214.95704118246039
 30
0.0
 11
119.487049102366
 21
213.95704118246039
 31
0.0
 12
122.487049102366
 22
214.45704118246039
 32
0.0
 13
122.487049102366
 23
214.45704118246039
 33
0.0
  0
TEXT
  5
2E14
  8
0
 10
110.20133481665169
 20
215.45704118246039
 30
0.0
 40
3.0
  1
21
  7
CHINESET
  0
POINT
  5
2E15
  8
DEFPOINTS
 62
     0
 10
101.487049102366
 20
201.55132504503499
 30
0.0
  0
POINT
  5
2E16
  8
DEFPOINTS
 62
     0
 10
122.487049102366
 20
201.55132504503499
 30
0.0
  0
POINT
  5
2E17
  8
DEFPOINTS
 62
     0
 10
122.487049102366
 20
214.45704118246039
 30
0.0
  0
ENDBLK
  5
2A80
  8
0
  0
BLOCK
  8
0
  2
*D22
 70
     1
 10
0.0
 20
0.0
 30
0.0
  3
*D22
  1

  0
LINE
  5
2DFD
  8
DIM
 10
122.487049102366
 20
204.55132504503499
 30
0.0
 11
122.487049102366
 21
216.45704118246039
 31
0.0
  0
LINE
  5
2DFE
  8
DIM
 10
144.487049102366
 20
188.55132504503499
 30
0.0
 11
144.487049102366
 21
216.45704118246039
 31
0.0
  0
LINE
  5
2DFF
  8
DIM
 10
125.487049102366
 20
214.45704118246039
 30
0.0
 11
141.487049102366
 21
214.45704118246039
 31
0.0
  0
SOLID
  5
2E00
  8
DIM
 10
125.487049102366
 20
214.95704118246039
 30
0.0
 11
125.487049102366
 21
213.95704118246039
 31
0.0
 12
122.487049102366
 22
214.45704118246039
 32
0.0
 13
122.487049102366
 23
214.45704118246039
 33
0.0
  0
SOLID
  5
2E01
  8
DIM
 10
141.487049102366
 20
214.95704118246039
 30
0.0
 11
141.487049102366
 21
213.95704118246039
 31
0.0
 12
144.487049102366
 22
214.45704118246039
 32
0.0
 13
144.487049102366
 23
214.45704118246039
 33
0.0
  0
TEXT
  5
2E02
  8
0
 10
131.05847767379461
 20
215.45704118246039
 30
0.0
 40
3.0
  1
22
  7
CHINESET
  0
POINT
  5
2E03
  8
DEFPOINTS
 62
     0
 10
122.487049102366
 20
201.55132504503499
 30
0.0
  0
POINT
  5
2E04
  8
DEFPOINTS
 62
     0
 10
144.487049102366
 20
185.55132504503499
 30
0.0
  0
POINT
  5
2E05
  8
DEFPOINTS
 62
     0
 10
144.487049102366
 20
214.45704118246039
 30
0.0
  0
ENDBLK
  5
2A8E
  8
0
  0
BLOCK
  8
0
  2
*D23
 70
     1
 10
0.0
 20
0.0
 30
0.0
  3
*D23
  1

  0
LINE
  5
2DF4
  8
DIM
 10
144.487049102366
 20
188.55132504503499
 30
0.0
 11
144.487049102366
 21
224.38470684444641
 31
0.0
  0
LINE
  5
2DF5
  8
DIM
 10
101.487049102366
 20
204.55132504503499
 30
0.0
 11
101.487049102366
 21
224.38470684444641
 31
0.0
  0
LINE
  5
2DF6
  8
DIM
 10
141.487049102366
 20
222.38470684444641
 30
0.0
 11
104.487049102366
 21
222.38470684444641
 31
0.0
  0
SOLID
  5
2DF7
  8
DIM
 10
141.487049102366
 20
222.88470684444641
 30
0.0
 11
141.487049102366
 21
221.88470684444641
 31
0.0
 12
144.487049102366
 22
222.38470684444641
 32
0.0
 13
144.487049102366
 23
222.38470684444641
 33
0.0
  0
SOLID
  5
2DF8
  8
DIM
 10
104.487049102366
 20
222.88470684444641
 30
0.0
 11
104.487049102366
 21
221.88470684444641
 31
0.0
 12
101.487049102366
 22
222.38470684444641
 32
0.0
 13
101.487049102366
 23
222.38470684444641
 33
0.0
  0
TEXT
  5
2DF9
  8
0
 10
120.5584776737946
 20
223.38470684444641
 30
0.0
 40
3.0
  1
43
  7
CHINESET
  0
POINT
  5
2DFA
  8
DEFPOINTS
 62
     0
 10
144.487049102366
 20
185.55132504503499
 30
0.0
  0
POINT
  5
2DFB
  8
DEFPOINTS
 62
     0
 10
101.487049102366
 20
201.55132504503499
 30
0.0
  0
POINT
  5
2DFC
  8
DEFPOINTS
 62
     0
 10
101.487049102366
 20
222.38470684444641
 30
0.0
  0
ENDBLK
  5
2A9A
  8
0
  0
BLOCK
  8
0
  2
*D24
 70
     1
 10
0.0
 20
0.0
 30
0.0
  3
*D24
  1

  0
LINE
  5
2E4E
  8
DIM
 10
124.4870491023658
 20
170.55132504503459
 30
0.0
 11
124.4870491023658
 21
153.02965593254279
 31
0.0
  0
LINE
  5
2E4F
  8
DIM
 10
122.4870491023658
 20
158.5513250450347
 30
0.0
 11
122.4870491023658
 21
153.02965593254279
 31
0.0
  0
LINE
  5
2E50
  8
DIM
 10
127.4870491023658
 20
155.02965593254279
 30
0.0
 11
130.4870491023658
 21
155.02965593254279
 31
0.0
  0
LINE
  5
2E51
  8
DIM
 10
119.4870491023658
 20
155.02965593254279
 30
0.0
 11
112.4870491023657
 21
155.02965593254279
 31
0.0
  0
LINE
  5
2E52
  8
DIM
 10
124.4870491023658
 20
155.02965593254279
 30
0.0
 11
122.4870491023658
 21
155.02965593254279
 31
0.0
  0
SOLID
  5
2E53
  8
DIM
 10
127.4870491023658
 20
155.52965593254279
 30
0.0
 11
127.4870491023658
 21
154.52965593254279
 31
0.0
 12
124.4870491023658
 22
155.02965593254279
 32
0.0
 13
124.4870491023658
 23
155.02965593254279
 33
0.0
  0
SOLID
  5
2E54
  8
DIM
 10
119.4870491023658
 20
155.52965593254279
 30
0.0
 11
119.4870491023658
 21
154.52965593254279
 31
0.0
 12
122.4870491023658
 22
155.02965593254279
 32
0.0
 13
122.4870491023658
 23
155.02965593254279
 33
0.0
  0
TEXT
  5
2E55
  8
0
 10
113.4870491023658
 20
156.02965593254279
 30
0.0
 40
3.0
  1
2
  7
CHINESET
  0
POINT
  5
2E56
  8
DEFPOINTS
 62
     0
 10
124.4870491023658
 20
173.55132504503459
 30
0.0
  0
POINT
  5
2E57
  8
DEFPOINTS
 62
     0
 10
122.4870491023658
 20
161.5513250450347
 30
0.0
  0
POINT
  5
2E58
  8
DEFPOINTS
 62
     0
 10
122.4870491023658
 20
155.02965593254279
 30
0.0
  0
ENDBLK
  5
2AA8
  8
0
  0
BLOCK
  8
0
  2
*D25
 70
     1
 10
0.0
 20
0.0
 30
0.0
  3
*D25
  1

  0
LINE
  5
2E33
  8
DIM
 10
126.9870491023659
 20
190.0513250450349
 30
0.0
 11
165.06655740143421
 21
190.0513250450349
 31
0.0
  0
LINE
  5
2E34
  8
DIM
 10
126.9870491023658
 20
173.05132504503459
 30
0.0
 11
165.06655740143421
 21
173.05132504503459
 31
0.0
  0
LINE
  5
2E35
  8
DIM
 10
163.06655740143421
 20
187.0513250450349
 30
0.0
 11
163.06655740143421
 21
176.05132504503459
 31
0.0
  0
SOLID
  5
2E36
  8
DIM
 10
162.56655740143421
 20
187.0513250450349
 30
0.0
 11
163.56655740143421
 21
187.0513250450349
 31
0.0
 12
163.06655740143421
 22
190.0513250450349
 32
0.0
 13
163.06655740143421
 23
190.0513250450349
 33
0.0
  0
SOLID
  5
2E37
  8
DIM
 10
162.56655740143421
 20
176.05132504503459
 30
0.0
 11
163.56655740143421
 21
176.05132504503459
 31
0.0
 12
163.06655740143421
 22
173.05132504503459
 32
0.0
 13
163.06655740143421
 23
173.05132504503459
 33
0.0
  0
INSERT
  5
2E38
  8
0
  2
*U36
 10
0.0
 20
0.0
 30
0.0
  0
POINT
  5
2E39
  8
DEFPOINTS
 62
     0
 10
123.9870491023659
 20
190.0513250450349
 30
0.0
  0
POINT
  5
2E3A
  8
DEFPOINTS
 62
     0
 10
123.9870491023658
 20
173.05132504503459
 30
0.0
  0
POINT
  5
2E3B
  8
DEFPOINTS
 62
     0
 10
163.06655740143421
 20
173.05132504503459
 30
0.0
  0
ENDBLK
  5
2AB4
  8
0
  0
BLOCK
  8
0
  2
*D26
 70
     1
 10
0.0
 20
0.0
 30
0.0
  3
*D26
  1

  0
LINE
  5
2E2A
  8
DIM
 10
127.4870491023659
 20
187.55132504503479
 30
0.0
 11
157.52430885096121
 21
187.55132504503479
 31
0.0
  0
LINE
  5
2E2B
  8
DIM
 10
127.4870491023658
 20
175.5513250450347
 30
0.0
 11
157.52430885096121
 21
175.5513250450347
 31
0.0
  0
LINE
  5
2E2C
  8
DIM
 10
155.52430885096121
 20
184.5513250450347
 30
0.0
 11
155.52430885096121
 21
178.5513250450347
 31
0.0
  0
SOLID
  5
2E2D
  8
DIM
 10
155.02430885096121
 20
184.5513250450347
 30
0.0
 11
156.02430885096121
 21
184.5513250450347
 31
0.0
 12
155.52430885096121
 22
187.55132504503479
 32
0.0
 13
155.52430885096121
 23
187.55132504503479
 33
0.0
  0
SOLID
  5
2E2E
  8
DIM
 10
155.02430885096121
 20
178.5513250450347
 30
0.0
 11
156.02430885096121
 21
178.5513250450347
 31
0.0
 12
155.52430885096121
 22
175.5513250450347
 32
0.0
 13
155.52430885096121
 23
175.5513250450347
 33
0.0
  0
INSERT
  5
2E2F
  8
0
  2
*U35
 10
0.0
 20
0.0
 30
0.0
  0
POINT
  5
2E30
  8
DEFPOINTS
 62
     0
 10
124.4870491023659
 20
187.55132504503479
 30
0.0
  0
POINT
  5
2E31
  8
DEFPOINTS
 62
     0
 10
124.4870491023658
 20
175.5513250450347
 30
0.0
  0
POINT
  5
2E32
  8
DEFPOINTS
 62
     0
 10
155.52430885096121
 20
175.5513250450347
 30
0.0
  0
ENDBLK
  5
2AC0
  8
0
  0
BLOCK
  8
0
  2
*D27
 70
     1
 10
0.0
 20
0.0
 30
0.0
  3
*D27
  1

  0
LINE
  5
2E45
  8
DIM
 10
185.4665543439707
 20
195.5513250450347
 30
0.0
 11
178.5592449879982
 21
195.5513250450347
 31
0.0
  0
LINE
  5
2E46
  8
DIM
 10
185.4665543439707
 20
167.5513250450347
 30
0.0
 11
178.5592449879982
 21
167.5513250450347
 31
0.0
  0
LINE
  5
2E47
  8
DIM
 10
180.5592449879982
 20
192.5513250450347
 30
0.0
 11
180.5592449879982
 21
170.5513250450347
 31
0.0
  0
SOLID
  5
2E48
  8
DIM
 10
180.0592449879982
 20
192.5513250450347
 30
0.0
 11
181.0592449879982
 21
192.5513250450347
 31
0.0
 12
180.5592449879982
 22
195.5513250450347
 32
0.0
 13
180.5592449879982
 23
195.5513250450347
 33
0.0
  0
SOLID
  5
2E49
  8
DIM
 10
180.0592449879982
 20
170.5513250450347
 30
0.0
 11
181.0592449879982
 21
170.5513250450347
 31
0.0
 12
180.5592449879982
 22
167.5513250450347
 32
0.0
 13
180.5592449879982
 23
167.5513250450347
 33
0.0
  0
TEXT
  5
2E4A
  8
0
 10
179.5592449879982
 20
177.7165036164634
 30
0.0
 40
3.0
  1
\U+25A128
 50
90.0
  7
CHINESET
  0
POINT
  5
2E4B
  8
DEFPOINTS
 62
     0
 10
188.4665543439707
 20
195.5513250450347
 30
0.0
  0
POINT
  5
2E4C
  8
DEFPOINTS
 62
     0
 10
188.4665543439707
 20
167.5513250450347
 30
0.0
  0
POINT
  5
2E4D
  8
DEFPOINTS
 62
     0
 10
180.5592449879982
 20
167.5513250450347
 30
0.0
  0
ENDBLK
  5
2ACC
  8
0
  0
BLOCK
  8
0
  2
*D28
 70
     1
 10
0.0
 20
0.0
 30
0.0
  3
*D28
  1

  0
LINE
  5
2E3C
  8
DIM
 10
187.67569584146241
 20
201.55132504503499
 30
0.0
 11
169.97576133433739
 21
201.55132504503499
 31
0.0
  0
LINE
  5
2E3D
  8
DIM
 10
187.67569584146241
 20
161.55132504503459
 30
0.0
 11
169.97576133433739
 21
161.55132504503459
 31
0.0
  0
LINE
  5
2E3E
  8
DIM
 10
171.97576133433739
 20
198.55132504503499
 30
0.0
 11
171.97576133433739
 21
164.55132504503459
 31
0.0
  0
SOLID
  5
2E3F
  8
DIM
 10
171.47576133433739
 20
198.55132504503499
 30
0.0
 11
172.47576133433739
 21
198.55132504503499
 31
0.0
 12
171.97576133433739
 22
201.55132504503499
 32
0.0
 13
171.97576133433739
 23
201.55132504503499
 33
0.0
  0
SOLID
  5
2E40
  8
DIM
 10
171.47576133433739
 20
164.55132504503459
 30
0.0
 11
172.47576133433739
 21
164.55132504503459
 31
0.0
 12
171.97576133433739
 22
161.55132504503459
 32
0.0
 13
171.97576133433739
 23
161.55132504503459
 33
0.0
  0
TEXT
  5
2E41
  8
0
 10
170.97576133433739
 20
177.7165036164634
 30
0.0
 40
3.0
  1
\U+25A140
 50
90.0
  7
CHINESET
  0
POINT
  5
2E42
  8
DEFPOINTS
 62
     0
 10
190.67569584146241
 20
201.55132504503499
 30
0.0
  0
POINT
  5
2E43
  8
DEFPOINTS
 62
     0
 10
190.6756958414623
 20
161.55132504503459
 30
0.0
  0
POINT
  5
2E44
  8
DEFPOINTS
 62
     0
 10
171.97576133433739
 20
161.55132504503459
 30
0.0
  0
ENDBLK
  5
2AD8
  8
0
  0
BLOCK
  8
0
  2
*D29
 70
     1
 10
0.0
 20
0.0
 30
0.0
  3
*D29
  1

  0
LINE
  5
2E06
  8
DIM
 10
144.487049102366
 20
188.55132504503499
 30
0.0
 11
144.487049102366
 21
208.4897074334838
 31
0.0
  0
LINE
  5
2E07
  8
DIM
 10
129.487049102366
 20
189.55132504503499
 30
0.0
 11
129.487049102366
 21
208.4897074334838
 31
0.0
  0
LINE
  5
2E08
  8
DIM
 10
141.487049102366
 20
206.4897074334838
 30
0.0
 11
132.487049102366
 21
206.4897074334838
 31
0.0
  0
SOLID
  5
2E09
  8
DIM
 10
141.487049102366
 20
206.9897074334838
 30
0.0
 11
141.487049102366
 21
205.9897074334838
 31
0.0
 12
144.487049102366
 22
206.4897074334838
 32
0.0
 13
144.487049102366
 23
206.4897074334838
 33
0.0
  0
SOLID
  5
2E0A
  8
DIM
 10
132.487049102366
 20
206.9897074334838
 30
0.0
 11
132.487049102366
 21
205.9897074334838
 31
0.0
 12
129.487049102366
 22
206.4897074334838
 32
0.0
 13
129.487049102366
 23
206.4897074334838
 33
0.0
  0
TEXT
  5
2E0B
  8
0
 10
134.84419195950889
 20
207.4897074334838
 30
0.0
 40
3.0
  1
15
  7
CHINESET
  0
POINT
  5
2E0C
  8
DEFPOINTS
 62
     0
 10
144.487049102366
 20
185.55132504503499
 30
0.0
  0
POINT
  5
2E0D
  8
DEFPOINTS
 62
     0
 10
129.487049102366
 20
186.55132504503499
 30
0.0
  0
POINT
  5
2E0E
  8
DEFPOINTS
 62
     0
 10
129.487049102366
 20
206.4897074334838
 30
0.0
  0
ENDBLK
  5
2B7B
  8
0
  0
BLOCK
  8
0
  2
*D30
 70
     1
 10
0.0
 20
0.0
 30
0.0
  3
*D30
  1

  0
LINE
  5
2EC9
  8
DIM
 10
212.2165543439707
 20
175.23470025467901
 30
0.0
 11
212.2165543439707
 21
150.9661368120459
 31
0.0
  0
LINE
  5
2ECA
  8
DIM
 10
202.2165543439707
 20
175.23470025467901
 30
0.0
 11
202.2165543439707
 21
150.9661368120459
 31
0.0
  0
LINE
  5
2ECB
  8
DIM
 10
209.2165543439707
 20
152.9661368120459
 30
0.0
 11
205.2165543439707
 21
152.9661368120459
 31
0.0
  0
SOLID
  5
2ECC
  8
DIM
 10
209.2165543439707
 20
153.4661368120459
 30
0.0
 11
209.2165543439707
 21
152.4661368120459
 31
0.0
 12
212.2165543439707
 22
152.9661368120459
 32
0.0
 13
212.2165543439707
 23
152.9661368120459
 33
0.0
  0
SOLID
  5
2ECD
  8
DIM
 10
205.2165543439707
 20
153.4661368120459
 30
0.0
 11
205.2165543439707
 21
152.4661368120459
 31
0.0
 12
202.2165543439707
 22
152.9661368120459
 32
0.0
 13
202.2165543439707
 23
152.9661368120459
 33
0.0
  0
TEXT
  5
2ECE
  8
0
 10
205.07369720111359
 20
153.9661368120459
 30
0.0
 40
3.0
  1
10
  7
CHINESET
  0
POINT
  5
2ECF
  8
DEFPOINTS
 62
     0
 10
212.2165543439707
 20
178.23470025467901
 30
0.0
  0
POINT
  5
2ED0
  8
DEFPOINTS
 62
     0
 10
202.2165543439707
 20
178.23470025467901
 30
0.0
  0
POINT
  5
2ED1
  8
DEFPOINTS
 62
     0
 10
202.2165543439707
 20
152.9661368120459
 30
0.0
  0
ENDBLK
  5
2BC2
  8
0
  0
BLOCK
  8
0
  2
*D31
 70
     1
 10
0.0
 20
0.0
 30
0.0
  3
*D31
  1

  0
LINE
  5
2EC0
  8
DIM
 10
211.4380452246557
 20
70.316162588248545
 30
0.0
 11
211.4380452246557
 21
43.212920759600131
 31
0.0
  0
LINE
  5
2EC1
  8
DIM
 10
201.4380452246557
 20
70.316162588248517
 30
0.0
 11
201.4380452246557
 21
43.212920759600131
 31
0.0
  0
LINE
  5
2EC2
  8
DIM
 10
208.4380452246557
 20
45.212920759600138
 30
0.0
 11
204.4380452246557
 21
45.212920759600138
 31
0.0
  0
SOLID
  5
2EC3
  8
DIM
 10
208.4380452246557
 20
45.712920759600131
 30
0.0
 11
208.4380452246557
 21
44.712920759600138
 31
0.0
 12
211.4380452246557
 22
45.212920759600138
 32
0.0
 13
211.4380452246557
 23
45.212920759600138
 33
0.0
  0
SOLID
  5
2EC4
  8
DIM
 10
204.4380452246557
 20
45.712920759600131
 30
0.0
 11
204.4380452246557
 21
44.712920759600138
 31
0.0
 12
201.4380452246557
 22
45.212920759600138
 32
0.0
 13
201.4380452246557
 23
45.212920759600138
 33
0.0
  0
TEXT
  5
2EC5
  8
0
 10
204.29518808179861
 20
46.212920759600131
 30
0.0
 40
3.0
  1
10
  7
CHINESET
  0
POINT
  5
2EC6
  8
DEFPOINTS
 62
     0
 10
211.4380452246557
 20
73.316162588248545
 30
0.0
  0
POINT
  5
2EC7
  8
DEFPOINTS
 62
     0
 10
201.4380452246557
 20
73.316162588248517
 30
0.0
  0
POINT
  5
2EC8
  8
DEFPOINTS
 62
     0
 10
201.4380452246557
 20
45.212920759600138
 30
0.0
  0
ENDBLK
  5
2BCF
  8
0
  0
BLOCK
  8
0
  2
*U32
 70
     1
 10
0.0
 20
0.0
 30
0.0
  3
*U32
  1

  0
SOLID
  5
2F11
  8
DIM
  6
CONTINUOUS
 10
0.25
 20
0.0
 30
0.0
 11
0.1767766952966369
 21
0.1767766952966369
 31
0.0
 12
0.1767766952966368
 22
-0.1767766952966369
 32
0.0
 13
0.1767766952966368
 23
-0.1767766952966369
 33
0.0
210
0.0
220
0.0
230
1.0
  0
SOLID
  5
2F12
  8
DIM
  6
CONTINUOUS
 10
0.0000000000000001
 20
0.25
 30
0.0
 11
0.1767766952966368
 21
-0.1767766952966369
 31
0.0
 12
0.1767766952966369
 22
0.1767766952966369
 32
0.0
 13
0.1767766952966369
 23
0.1767766952966369
 33
0.0
  0
SOLID
  5
2F13
  8
DIM
  6
CONTINUOUS
 10
0.1767766952966368
 20
-0.1767766952966369
 30
0.0
 11
0.0000000000000001
 21
0.25
 31
0.0
 12
-0.0000000000000001
 22
-0.25
 32
0.0
 13
-0.0000000000000001
 23
-0.25
 33
0.0
  0
SOLID
  5
2F14
  8
DIM
  6
CONTINUOUS
 10
-0.1767766952966368
 20
0.1767766952966369
 30
0.0
 11
-0.0000000000000001
 21
-0.25
 31
0.0
 12
0.0000000000000001
 22
0.25
 32
0.0
 13
0.0000000000000001
 23
0.25
 33
0.0
  0
SOLID
  5
2F15
  8
DIM
  6
CONTINUOUS
 10
-0.0000000000000001
 20
-0.25
 30
0.0
 11
-0.1767766952966368
 21
0.1767766952966369
 31
0.0
 12
-0.1767766952966369
 22
-0.1767766952966368
 32
0.0
 13
-0.1767766952966369
 23
-0.1767766952966368
 33
0.0
  0
SOLID
  5
2F16
  8
DIM
  6
CONTINUOUS
 10
-0.25
 20
0.0
 30
0.0
 11
-0.1767766952966369
 21
-0.1767766952966368
 31
0.0
 12
-0.1767766952966368
 22
0.1767766952966369
 32
0.0
 13
-0.1767766952966368
 23
0.1767766952966369
 33
0.0
210
0.0
220
0.0
230
1.0
  0
ENDBLK
  5
2F18
  8
0
  0
BLOCK
  8
0
  2
*U33
 70
     1
 10
0.0
 20
0.0
 30
0.0
  3
*U33
  1

  0
TEXT
  5
2F2F
  8
0
 10
234.77007512845049
 20
125.0100879039197
 30
0.0
 40
3.0
  1
沉孔
  7
CHINESET
  0
TEXT
  5
2F30
  8
0
 10
240.77007512845049
 20
125.0100879039197
 30
0.0
 40
3.0
  1
\U+2205
  7
CHINESET
  0
TEXT
  5
2F31
  8
0
 10
243.48436084273629
 20
125.0100879039197
 30
0.0
 40
3.0
  1
8*6深
  7
CHINESET
  0
TEXT
  5
2F32
  8
0
 10
234.77007512845049
 20
120.0100879039197
 30
0.0
 40
3.0
  1
M6*1*8L
  7
CHINESET
  0
TEXT
  5
2F33
  8
0
 10
234.77007512845049
 20
115.0100879039197
 30
0.0
 40
3.0
  1
\U+2205
  7
CHINESET
  0
TEXT
  5
2F34
  8
0
 10
237.48436084273621
 20
115.0100879039197
 30
0.0
 40
3.0
  1
5.1貫通
  7
CHINESET
  0
ENDBLK
  5
2F36
  8
0
  0
BLOCK
  8
0
  2
*U34
 70
     1
 10
0.0
 20
0.0
 30
0.0
  3
*U34
  1

  0
TEXT
  5
2F38
  8
0
 10
235.54858424776549
 20
229.92862557035031
 30
0.0
 40
3.0
  1
沉孔
  7
CHINESET
  0
TEXT
  5
2F39
  8
0
 10
241.54858424776549
 20
229.92862557035031
 30
0.0
 40
3.0
  1
\U+2205
  7
CHINESET
  0
TEXT
  5
2F3A
  8
0
 10
244.2628699620513
 20
229.92862557035031
 30
0.0
 40
3.0
  1
8*6深
  7
CHINESET
  0
TEXT
  5
2F3B
  8
0
 10
235.54858424776549
 20
224.92862557035019
 30
0.0
 40
3.0
  1
M6*1*8L
  7
CHINESET
  0
TEXT
  5
2F3C
  8
0
 10
235.54858424776549
 20
219.92862557035031
 30
0.0
 40
3.0
  1
\U+2205
  7
CHINESET
  0
TEXT
  5
2F3D
  8
0
 10
238.2628699620513
 20
219.92862557035031
 30
0.0
 40
3.0
  1
5.1貫通
  7
CHINESET
  0
ENDBLK
  5
2F3F
  8
0
  0
BLOCK
  8
0
  2
*U35
 70
     1
 10
0.0
 20
0.0
 30
0.0
  3
*U35
  1

  0
TEXT
  5
2F41
  8
0
 10
154.52430885096121
 20
178.05132504503479
 30
0.0
 40
3.0
  1
\U+2205
 50
90.0
  7
CHINESET
  0
TEXT
  5
2F42
  8
0
 10
154.52430885096121
 20
180.76561075932051
 30
0.0
 40
3.0
  1
12
 50
90.0
  7
CHINESET
  0
ENDBLK
  5
2F44
  8
0
  0
BLOCK
  8
0
  2
*U36
 70
     1
 10
0.0
 20
0.0
 30
0.0
  3
*U36
  1

  0
TEXT
  5
2F46
  8
0
 10
162.06655740143421
 20
178.05132504503479
 30
0.0
 40
3.0
  1
\U+2205
 50
90.0
  7
CHINESET
  0
TEXT
  5
2F47
  8
0
 10
162.06655740143421
 20
180.76561075932051
 30
0.0
 40
3.0
  1
17
 50
90.0
  7
CHINESET
  0
ENDBLK
  5
2F49
  8
0
  0
BLOCK
  8
0
  2
*U37
 70
     1
 10
0.0
 20
0.0
 30
0.0
  3
*U37
  1

  0
TEXT
  5
2F4B
  8
0
 10
140.7953638198027
 20
73.132787378604235
 30
0.0
 40
3.0
  1
\U+2205
 50
90.0
  7
CHINESET
  0
TEXT
  5
2F4C
  8
0
 10
140.7953638198027
 20
75.847073092889943
 30
0.0
 40
3.0
  1
12
 50
90.0
  7
CHINESET
  0
ENDBLK
  5
2F4E
  8
0
  0
BLOCK
  8
0
  2
*U38
 70
     1
 10
0.0
 20
0.0
 30
0.0
  3
*U38
  1

  0
TEXT
  5
2F50
  8
0
 10
151.86003552650149
 20
73.132787378604291
 30
0.0
 40
3.0
  1
\U+2205
 50
90.0
  7
CHINESET
  0
TEXT
  5
2F51
  8
0
 10
151.86003552650149
 20
75.84707309289
 30
0.0
 40
3.0
  1
17
 50
90.0
  7
CHINESET
  0
ENDBLK
  5
2F53
  8
0
  0
ENDSEC
  0
SECTION
  2
ENTITIES
  0
LINE
  5
17B4
  8
0
 62
     4
 10
271.62778414727939
 20
34.879980365997589
 30
0.0
 11
271.62778414727939
 21
251.55816802600239
 31
0.0
  0
LINE
  5
17B5
  8
0
 62
     4
 10
57.146046931457697
 20
34.879980365997568
 30
0.0
 11
57.146046931457697
 21
251.55816802600239
 31
0.0
  0
TEXT
  5
17BD
  8
LOGO
  6
CONTINUOUS
 62
     7
 10
186.55227337623191
 20
25.542410867149918
 30
0.0
 40
4.6424618444983068
  1
11/12
  7
CHINESET
 72
     1
 11
195.83719706522851
 21
27.863641789399079
 31
0.0
 73
     2
  0
TEXT
  5
17BE
  8
LOGO
 62
     6
 10
188.4479452960687
 20
14.54819077615536
 30
0.0
 40
3.713969475598645
  1
作動型式
  7
CHINESET
 72
     4
 11
195.83719706522851
 21
16.31013298800433
 31
0.0
  0
LINE
  5
17BF
  8
0
 62
     4
 10
271.62778414727939
 20
144.1593953270845
 30
0.0
 11
57.146046931457697
 21
144.1593953270845
 31
0.0
  0
LINE
  5
17C0
  8
0
 62
     4
 10
271.62778414727939
 20
34.879980365997568
 30
0.0
 11
57.146046931457697
 21
34.879980365997568
 31
0.0
  0
LINE
  5
17C1
  8
LOGO
 62
     1
 10
271.62778414727939
 20
7.0252092990077228
 30
0.0
 11
57.146046931457697
 21
7.0252092990077228
 31
0.0
  0
LINE
  5
17C2
  8
LOGO
 62
     1
 10
271.62778414727939
 20
34.879980365997568
 30
0.0
 11
57.146046931457697
 21
34.879980365997568
 31
0.0
  0
TEXT
  5
17C3
  8
LOGO
  6
CONTINUOUS
 62
     6
 10
185.8890645413035
 20
10.893927502756309
 30
0.0
 40
2.321230922249153
  1
Acting type
  7
CHINESET
 72
     4
 11
195.83719706522851
 21
11.667671143506031
 31
0.0
  0
LINE
  5
17C4
  8
LOGO
 62
     6
 10
206.0763342266807
 20
23.738071939201621
 30
0.0
 11
185.5980599037764
 21
23.738071939201621
 31
0.0
  0
LINE
  5
17C5
  8
LOGO
 62
     6
 10
206.0763342266807
 20
19.559856279153159
 30
0.0
 11
185.5980599037764
 21
19.559856279153159
 31
0.0
  0
LINE
  5
17C6
  8
LOGO
 62
     6
 10
206.0763342266807
 20
9.3464402212568771
 30
0.0
 11
185.5980599037764
 21
9.3464402212568523
 31
0.0
  0
LINE
  5
17C7
  8
LOGO
 62
     6
 10
206.0763342266807
 20
32.094503259298627
 30
0.0
 11
185.5980599037764
 21
32.09450325929857
 31
0.0
  0
TEXT
  5
17C8
  8
LOGO
 62
     6
 10
81.115657742333013
 20
19.559856279153149
 30
0.0
 40
2.7854771066989841
  1
單位 Unit:
 41
0.9
  7
CHINESET
 72
     4
 11
88.714787474046176
 21
20.952594832502641
 31
0.0
  0
TEXT
  5
17C9
  8
LOGO
 62
     6
 10
80.843327614490562
 20
25.1699926877446
 30
0.0
 40
2.7854771066989841
  1
投影 View:
 41
0.9
  7
CHINESET
 72
     4
 11
88.714787474046176
 21
26.523549045900609
 31
0.0
  0
TEXT
  5
17CA
  8
LOGO
 62
     6
 10
79.869654143711415
 20
30.703135511611819
 30
0.0
 40
2.7854771066989841
  1
比例 Scale:
 41
0.9
  7
CHINESET
 72
     4
 11
88.714787474046176
 21
32.09450325929857
 31
0.0
  0
TEXT
  5
17CB
  8
LOGO
  6
CONTINUOUS
 62
     5
 10
58.057780618771531
 20
12.497237038603091
 30
0.0
 40
4.1782156600484761
  1
金器工業股份有限公司
 41
0.8
  7
LOGO
  0
TEXT
  5
17CC
  8
LOGO
  6
CONTINUOUS
 62
     5
 10
59.254169577868822
 20
8.3182027758700094
 30
0.0
 40
2.7854771066989841
  1
MINDMAN INDUSTRIAL CO.,LTD
 41
0.85
  7
CHINESET
  0
LINE
  5
17CD
  8
LOGO
 62
     1
 10
118.4265432788353
 20
18.167117725803681
 30
0.0
 11
57.146046931457697
 21
18.167117725803681
 31
0.0
  0
LINE
  5
17CE
  8
LOGO
 62
     1
 10
118.4265432788353
 20
23.738071939201621
 30
0.0
 11
77.572879047250225
 21
23.738071939201621
 31
0.0
  0
LINE
  5
17CF
  8
LOGO
 62
     1
 10
118.4265432788353
 20
29.309026152599589
 30
0.0
 11
77.572879047250225
 21
29.309026152599589
 31
0.0
  0
SOLID
  5
17D0
  8
LOGO
 62
     2
 10
61.2403913431828
 20
22.79757693424536
 30
0.0
 11
61.738750188708003
 21
22.797576934245761
 31
0.0
 12
67.469876912238348
 22
34.218300477513282
 32
0.0
 13
67.968235757763196
 23
34.218300477513282
 33
0.0
  0
SOLID
  5
17D1
  8
LOGO
 62
     5
 10
61.738750188708003
 20
22.797576934245761
 30
0.0
 11
62.94311739872515
 21
22.797576934245761
 31
0.0
 12
67.469876912238348
 22
33.30464259405219
 32
0.0
 13
66.265509702221195
 23
28.88862949065496
 33
0.0
  0
SOLID
  5
17D2
  8
LOGO
 62
     5
 10
60.036024133165547
 20
22.797576934245761
 30
0.0
 11
61.2403913431828
 21
22.79757693424536
 31
0.0
 12
66.265509702221195
 22
34.21830047751407
 32
0.0
 13
67.469876912238348
 23
34.218300477513282
 33
0.0
  0
LINE
  5
17D3
  8
LOGO
 62
     1
 10
57.146046931457697
 20
7.0252092990077228
 30
0.0
 11
57.146046931457697
 21
34.879980365997568
 31
0.0
  0
SOLID
  5
17D4
  8
LOGO
 62
     5
 10
58.105128148489911
 20
18.64458655487579
 30
0.0
 11
58.520427186427433
 21
18.64458655487579
 31
0.0
 12
59.689941601551652
 22
20.721081744560578
 32
0.0
 13
60.105240639488372
 23
20.721081744560578
 33
0.0
  0
SOLID
  5
17D5
  8
LOGO
 62
     5
 10
61.274755054613848
 20
20.721081744560578
 30
0.0
 11
61.690054092550469
 21
20.721081744560578
 31
0.0
 12
61.274755054613848
 22
18.64458655487579
 32
0.0
 13
61.690054092550469
 23
18.64458655487579
 33
0.0
  0
SOLID
  5
17D6
  8
LOGO
 62
     5
 10
59.689941601551652
 20
18.64458655487579
 30
0.0
 11
60.105240639488372
 21
18.64458655487579
 31
0.0
 12
61.274755054613848
 22
20.721081744560578
 32
0.0
 13
61.690054092550469
 23
20.721081744560578
 33
0.0
  0
SOLID
  5
17D7
  8
LOGO
 62
     5
 10
59.689941601551652
 20
20.721081744560578
 30
0.0
 11
60.105240639488372
 21
20.721081744560578
 31
0.0
 12
59.689941601551652
 22
18.64458655487579
 32
0.0
 13
60.105240639488372
 23
18.64458655487579
 33
0.0
  0
SOLID
  5
17D8
  8
LOGO
 62
     5
 10
64.327392151976539
 20
19.890483668686489
 30
0.0
 11
64.742691189913884
 21
19.890483668686489
 31
0.0
 12
64.327392151976539
 22
18.64458655487579
 32
0.0
 13
64.742691189913884
 23
18.64458655487579
 33
0.0
  0
SOLID
  5
17D9
  8
LOGO
 62
     5
 10
63.081495038165862
 20
20.721081744560578
 30
0.0
 11
63.496794076102489
 21
20.721081744560578
 31
0.0
 12
63.081495038165862
 22
18.64458655487579
 32
0.0
 13
63.496794076102489
 23
18.64458655487579
 33
0.0
  0
POLYLINE
  5
17DA
  8
LOGO
 62
     5
 66
     1
 10
0.0
 20
0.0
 30
0.0
 40
0.4159645812670484
 41
0.4159645812670484
  0
VERTEX
  5
2F19
  8
LOGO
 62
     5
 10
64.536039985940192
 20
19.890483668686489
 30
0.0
 42
1.0
  0
VERTEX
  5
2F1A
  8
LOGO
 62
     5
 10
63.288146242139042
 20
19.890483668686489
 30
0.0
 42
1.0
  0
SEQEND
  5
2F1B
  8
LOGO
 62
     5
  0
SOLID
  5
17DB
  8
LOGO
 62
     5
 10
62.181666612667293
 20
20.721081744560578
 30
0.0
 11
62.596965650605178
 21
20.721081744560578
 31
0.0
 12
62.181666612667293
 22
18.644586554874991
 32
0.0
 13
62.596965650605178
 23
18.64458655487579
 33
0.0
  0
SOLID
  5
17DC
  8
LOGO
 62
     5
 10
62.181666612667293
 20
21.011791071116289
 30
0.0
 11
62.596965650605178
 21
21.011791071116289
 31
0.0
 12
62.181666612667293
 22
21.344030301466319
 32
0.0
 13
62.596965650605178
 23
21.344030301466319
 33
0.0
  0
LINE
  5
17DD
  8
LOGO
 62
     1
 10
77.572879047250225
 20
18.16711772580366
 30
0.0
 11
77.572879047250225
 21
34.879980365997568
 31
0.0
  0
POLYLINE
  5
17DE
  8
LOGO
 62
     5
 66
     1
 10
0.0
 20
0.0
 30
0.0
 70
     1
 40
0.4159645812670484
 41
0.4159645812670484
  0
VERTEX
  5
2F1C
  8
LOGO
 62
     5
 10
71.386227770053324
 20
19.682834149717969
 30
0.0
 42
1.0
  0
VERTEX
  5
2F1D
  8
LOGO
 62
     5
 10
73.0500860951215
 20
19.682834149717969
 30
0.0
 42
1.0
  0
SEQEND
  5
2F1E
  8
LOGO
 62
     5
  0
CIRCLE
  5
17DF
  8
LOGO
 62
     5
 10
72.218156932587632
 20
19.682834149718179
 30
0.0
 40
0.6229485569055319
  0
POLYLINE
  5
17E0
  8
LOGO
 62
     5
 66
     1
 10
0.0
 20
0.0
 30
0.0
 70
     1
  0
VERTEX
  5
2F1F
  8
LOGO
 62
     5
 10
71.59520837568202
 20
19.682834149718179
 30
0.0
 42
1.0000000573306349
  0
VERTEX
  5
2F20
  8
LOGO
 62
     5
 10
72.84110548949333
 20
19.682834149718179
 30
0.0
 42
1.0000000573306349
  0
SEQEND
  5
2F21
  8
LOGO
 62
     5
  0
POLYLINE
  5
17E1
  8
LOGO
 62
     5
 66
     1
 10
0.0
 20
0.0
 30
0.0
 40
0.4159645812670484
 41
0.4159645812670484
  0
VERTEX
  5
2F22
  8
LOGO
 62
     5
 10
69.242790102495945
 20
19.890483668686489
 30
0.0
 42
1.0
  0
VERTEX
  5
2F23
  8
LOGO
 62
     5
 10
67.994896358694689
 20
19.890483668686489
 30
0.0
 42
1.0
  0
SEQEND
  5
2F24
  8
LOGO
 62
     5
  0
SOLID
  5
17E2
  8
LOGO
 62
     5
 10
67.788245154721622
 20
20.721081744560578
 30
0.0
 11
68.203544192658342
 21
20.721081744560578
 31
0.0
 12
67.788245154721622
 22
18.64458655487579
 32
0.0
 13
68.203544192658342
 23
18.64458655487579
 33
0.0
  0
SOLID
  5
17E3
  8
LOGO
 62
     5
 10
66.888416729223138
 20
21.344030301466319
 30
0.0
 11
67.303715767159758
 21
21.344030301466319
 31
0.0
 12
66.888416729223138
 22
18.64458655487579
 32
0.0
 13
67.303715767159758
 23
18.64458655487579
 33
0.0
  0
POLYLINE
  5
17E4
  8
LOGO
 62
     5
 66
     1
 10
0.0
 20
0.0
 30
0.0
 70
     1
 40
0.4159645812670484
 41
0.4159645812670484
  0
VERTEX
  5
2F25
  8
LOGO
 62
     5
 10
65.433580539686801
 20
19.682834149717969
 30
0.0
 42
1.0
  0
VERTEX
  5
2F26
  8
LOGO
 62
     5
 10
67.097438864754963
 20
19.682834149717969
 30
0.0
 42
1.0
  0
SEQEND
  5
2F27
  8
LOGO
 62
     5
  0
SOLID
  5
17E5
  8
LOGO
 62
     5
 10
70.280039382343162
 20
19.890483668686489
 30
0.0
 11
70.695338420279782
 21
19.890483668686489
 31
0.0
 12
70.280039382343162
 22
18.644586554874991
 32
0.0
 13
70.695338420279782
 23
18.644586554874991
 33
0.0
  0
SOLID
  5
17E6
  8
LOGO
 62
     5
 10
69.034142268532392
 20
19.890483668686489
 30
0.0
 11
69.449441306469012
 21
19.890483668686489
 31
0.0
 12
69.034142268532392
 22
18.64458655487579
 32
0.0
 13
69.449441306469012
 23
18.64458655487579
 33
0.0
  0
POLYLINE
  5
17E7
  8
LOGO
 62
     5
 66
     1
 10
0.0
 20
0.0
 30
0.0
 40
0.4159645812670484
 41
0.4159645812670484
  0
VERTEX
  5
2F28
  8
LOGO
 62
     5
 10
70.488687216306616
 20
19.890483668686489
 30
0.0
 42
1.0
  0
VERTEX
  5
2F29
  8
LOGO
 62
     5
 10
69.240793472505459
 20
19.890483668686489
 30
0.0
 42
1.0
  0
SEQEND
  5
2F2A
  8
LOGO
 62
     5
  0
POLYLINE
  5
17E8
  8
LOGO
 62
     5
 66
     1
 10
0.0
 20
0.0
 30
0.0
 40
0.4159645812670484
 41
0.4159645812670484
  0
VERTEX
  5
2F2B
  8
LOGO
 62
     5
 10
75.195437332862468
 20
19.890483668686489
 30
0.0
 42
1.0
  0
VERTEX
  5
2F2C
  8
LOGO
 62
     5
 10
73.947543589061311
 20
19.890483668686489
 30
0.0
 42
1.0
  0
SEQEND
  5
2F2D
  8
LOGO
 62
     5
  0
SOLID
  5
17E9
  8
LOGO
 62
     5
 10
73.740892385087335
 20
18.64458655487579
 30
0.0
 11
74.156191423024765
 21
18.64458655487579
 31
0.0
 12
73.740892385087335
 22
20.721081744560578
 32
0.0
 13
74.156191423024765
 23
20.721081744560578
 33
0.0
  0
SOLID
  5
17EA
  8
LOGO
 62
     5
 10
72.841063959590116
 20
20.721081744560578
 30
0.0
 11
73.256362997526736
 21
20.721081744560578
 31
0.0
 12
72.841063959590116
 22
18.64458655487579
 32
0.0
 13
73.256362997526736
 23
18.64458655487579
 33
0.0
  0
SOLID
  5
17EB
  8
LOGO
 62
     5
 10
74.986789498898915
 20
19.890483668686489
 30
0.0
 11
75.402088536835535
 21
19.890483668686421
 31
0.0
 12
74.986789498898915
 22
18.64458655487579
 32
0.0
 13
75.402088536835535
 23
18.64458655487579
 33
0.0
  0
LINE
  5
17EC
  8
LOGO
 62
     5
 10
75.402088536835535
 20
18.64458655487579
 30
0.0
 11
75.402088536835535
 21
19.890483668686489
 31
0.0
  0
SOLID
  5
17ED
  8
LOGO
 62
     2
 10
73.699362481293548
 20
34.21830047751407
 30
0.0
 11
74.197721326818296
 21
34.218300477513282
 31
0.0
 12
73.699362481293548
 22
22.79757693424536
 32
0.0
 13
74.197721326818296
 23
22.79757693424536
 33
0.0
  0
SOLID
  5
17EE
  8
LOGO
 62
     5
 10
74.197721326818296
 20
22.79757693424536
 30
0.0
 11
75.402088536835535
 21
22.79757693424536
 31
0.0
 12
74.197721326818296
 22
34.218300477513282
 32
0.0
 13
75.402088536835535
 23
34.21830047751407
 33
0.0
  0
SOLID
  5
17EF
  8
LOGO
 62
     5
 10
73.699362481293548
 20
33.30464259405219
 30
0.0
 11
72.49499527127621
 21
28.88862949065496
 31
0.0
 12
73.699362481293548
 22
22.79757693424536
 32
0.0
 13
72.49499527127621
 23
22.79757693424536
 33
0.0
  0
SOLID
  5
17F0
  8
LOGO
 62
     2
 10
67.469876912238348
 20
34.218300477513282
 30
0.0
 11
67.968235757763196
 21
34.218300477513282
 31
0.0
 12
67.469876912238348
 22
22.797576934245761
 32
0.0
 13
67.968235757763196
 23
22.797576934245761
 33
0.0
  0
SOLID
  5
17F1
  8
LOGO
 62
     5
 10
67.968235757763196
 20
34.218300477513282
 30
0.0
 11
69.17260296778025
 21
34.21830047751407
 31
0.0
 12
67.968235757763196
 22
23.711234817706838
 32
0.0
 13
69.17260296778025
 23
28.127247921104068
 33
0.0
  0
SOLID
  5
17F2
  8
LOGO
 62
     5
 10
66.265509702221195
 20
22.797576934245761
 30
0.0
 11
67.469876912238348
 21
22.797576934245761
 31
0.0
 12
66.265509702221195
 22
28.88862949065496
 32
0.0
 13
67.469876912238348
 23
33.30464259405219
 33
0.0
  0
SOLID
  5
17F3
  8
LOGO
 62
     2
 10
67.469876912238348
 20
22.797576934245761
 30
0.0
 11
67.968235757763196
 21
22.797576934245761
 31
0.0
 12
73.699362481293548
 22
34.21830047751407
 32
0.0
 13
74.197721326818296
 23
34.218300477513282
 33
0.0
  0
SOLID
  5
17F4
  8
LOGO
 62
     5
 10
67.968235757763196
 20
22.797576934245761
 30
0.0
 11
69.17260296778025
 21
22.797576934245761
 31
0.0
 12
73.699362481293548
 22
33.30464259405219
 32
0.0
 13
72.49499527127621
 23
28.88862949065496
 33
0.0
  0
SOLID
  5
17F5
  8
LOGO
 62
     5
 10
67.968235757763196
 20
23.711234817706838
 30
0.0
 11
69.17260296778025
 21
28.127247921104068
 31
0.0
 12
73.699362481293548
 22
34.21830047751407
 32
0.0
 13
72.49499527127621
 23
34.21830047751407
 33
0.0
  0
TEXT
  5
17F6
  8
LOGO
 62
     7
 10
120.7065924502436
 20
27.90577918543217
 30
0.0
 40
5.570954213397969
  1
訂購代號:
  7
CHINESET
  0
TEXT
  5
17F7
  8
LOGO
 62
     7
 10
120.04027561304321
 20
22.677279150981441
 30
0.0
 40
3.713969475598645
  1
Order example:
 41
0.8
  7
CHINESET
  0
LINE
  5
17F8
  8
LOGO
 62
     1
 10
99.856695900842141
 20
18.16711772580366
 30
0.0
 11
99.856695900842141
 21
34.879980365997568
 31
0.0
  0
TEXT
  5
17F9
  8
LOGO
 62
     6
 10
104.0353708491167
 20
19.559856279153149
 30
0.0
 40
2.7854771066989841
  1
m/m
  7
CHINESET
 72
     1
 11
108.9431162275863
 21
20.952594832502641
 31
0.0
 73
     2
  0
CIRCLE
  5
17FA
  8
LOGO
  6
CONTINUOUS
 62
     6
 10
105.0143551658643
 20
26.529507201815441
 30
0.0
 40
1.617313570889868
  0
TEXT
  5
17FB
  8
LOGO
 62
     6
 10
104.0353708491167
 20
30.701764705949081
 30
0.0
 40
2.7854771066989841
  1
1 : 1
  7
CHINESET
 72
     1
 11
108.9431162275863
 21
32.09450325929857
 31
0.0
 73
     2
  0
LINE
  5
17FC
  8
LOGO
  6
CONTINUOUS
 62
     6
 10
110.1075561039561
 20
25.581904621943899
 30
0.0
 11
115.1777413104672
 21
24.912193630925579
 31
0.0
  0
LINE
  5
17FD
  8
LOGO
  6
CONTINUOUS
 62
     6
 10
110.1075561039561
 20
27.477109781686991
 30
0.0
 11
115.1777413104672
 21
28.146820772705311
 31
0.0
  0
LINE
  5
17FE
  8
LOGO
 62
     6
 10
110.1075561039561
 20
25.581904621943899
 30
0.0
 11
110.1075561039561
 21
27.477109781687009
 31
0.0
  0
CIRCLE
  5
17FF
  8
LOGO
  6
CONTINUOUS
 62
     6
 10
105.0143551658643
 20
26.529507201815441
 30
0.0
 40
0.9476025798715483
  0
LINE
  5
1800
  8
LOGO
 62
     6
 10
115.1777413104672
 20
24.912193630925579
 30
0.0
 11
115.1777413104672
 21
28.146820772705311
 31
0.0
  0
LINE
  5
1801
  8
LOGO
 62
     1
 10
118.4265432788353
 20
7.0252092990077228
 30
0.0
 11
118.4265432788353
 21
34.879980365997568
 31
0.0
  0
LINE
  5
1802
  8
LOGO
 62
     6
 10
177.16637673977391
 20
19.559856279153159
 30
0.0
 11
158.59652936178071
 21
19.559856279153159
 31
0.0
  0
TEXT
  5
1803
  8
LOGO
  6
CONTINUOUS
 62
     7
 10
159.5913426141731
 20
25.595056677000951
 30
0.0
 40
4.6424618444983068
  1
MCJT
  7
CHINESET
 72
     1
 11
167.8814530507772
 21
27.916287599250111
 31
0.0
 73
     2
  0
LINE
  5
1804
  8
LOGO
 62
     6
 10
177.16637673977391
 20
9.3464402212568771
 30
0.0
 11
158.59652936178071
 21
9.3464402212568523
 31
0.0
  0
TEXT
  5
1805
  8
LOGO
  6
CONTINUOUS
 62
     6
 10
163.46006081792169
 20
10.50705568238145
 30
0.0
 40
2.321230922249153
  1
Model
  7
CHINESET
 72
     4
 11
167.8814530507772
 21
11.667671143506031
 31
0.0
  0
TEXT
  5
1806
  8
LOGO
 62
     6
 10
164.16748357517861
 20
14.54819077615536
 30
0.0
 40
3.713969475598645
  1
型式
  7
CHINESET
 72
     4
 11
167.8814530507772
 21
16.31013298800433
 31
0.0
  0
LINE
  5
1807
  8
LOGO
 62
     6
 10
179.02336147757319
 20
23.738071939201621
 30
0.0
 11
156.7395446239814
 21
23.738071939201621
 31
0.0
  0
LINE
  5
1808
  8
LOGO
 62
     6
 10
179.02336147757319
 20
32.09450325929857
 30
0.0
 11
156.7395446239814
 21
32.09450325929857
 31
0.0
  0
LINE
  5
1809
  8
LOGO
 62
     6
 10
167.8814530507772
 20
23.738071939201621
 30
0.0
 11
167.8814530507772
 21
19.559856279153159
 31
0.0
  0
LINE
  5
180A
  8
LOGO
 62
     6
 10
158.59652936178071
 20
19.559856279153159
 30
0.0
 11
158.59652936178071
 21
9.3464402212568523
 31
0.0
  0
LINE
  5
180B
  8
LOGO
 62
     6
 10
156.7395446239814
 20
32.09450325929857
 30
0.0
 11
156.7395446239814
 21
23.738071939201621
 31
0.0
  0
LINE
  5
180C
  8
LOGO
 62
     6
 10
177.16637673977391
 20
19.559856279153159
 30
0.0
 11
177.16637673977391
 21
9.3464402212568771
 31
0.0
  0
LINE
  5
180D
  8
LOGO
 62
     6
 10
185.5980599037764
 20
19.559856279153159
 30
0.0
 11
185.5980599037764
 21
9.3464402212568771
 31
0.0
  0
LINE
  5
180E
  8
LOGO
  6
CONTINUOUS
 62
     7
 10
180.46304900944509
 20
27.886687798886008
 30
0.0
 11
184.15294416776979
 21
27.886687798886008
 31
0.0
  0
LINE
  5
180F
  8
LOGO
 62
     6
 10
179.0233614775733
 20
32.09450325929857
 30
0.0
 11
179.0233614775733
 21
23.738071939201621
 31
0.0
  0
LINE
  5
1810
  8
LOGO
 62
     6
 10
185.5980599037764
 20
32.09450325929857
 30
0.0
 11
185.5980599037764
 21
23.738071939201621
 31
0.0
  0
TEXT
  5
1811
  8
0
 10
67.731028174152698
 20
137.0102880028399
 30
0.0
 40
4.0
  1
MCJT-12-%%C25
  7
CHINESET
  0
TEXT
  5
1812
  8
0
 10
67.240099216565341
 20
128.72135325245509
 30
0.0
 40
5.0
  1
stroke=0mm
  7
CHINESET
  0
LINE
  5
1868
  8
LOGO
 62
     6
 10
249.6002653278228
 20
32.09450325929857
 30
0.0
 11
234.13305118859321
 21
32.09450325929857
 31
0.0
  0
LINE
  5
1869
  8
LOGO
 62
     6
 10
249.6002653278228
 20
23.738071939201621
 30
0.0
 11
234.13305118859321
 21
23.738071939201621
 31
0.0
  0
LINE
  5
186A
  8
LOGO
 62
     6
 10
248.6717729589231
 20
19.559856279153159
 30
0.0
 11
235.06154355749291
 21
19.559856279153159
 31
0.0
  0
LINE
  5
186B
  8
LOGO
 62
     6
 10
248.6717729589231
 20
9.3464402212568771
 30
0.0
 11
235.06154355749291
 21
9.3464402212568523
 31
0.0
  0
LINE
  5
186C
  8
LOGO
 62
     6
 10
227.55835276239009
 20
23.738071939201681
 30
0.0
 11
212.65103265288371
 21
23.738071939201681
 31
0.0
  0
LINE
  5
186D
  8
LOGO
 62
     6
 10
227.55835276239009
 20
19.559856279153198
 30
0.0
 11
212.65103265288371
 21
19.559856279153198
 31
0.0
  0
LINE
  5
186E
  8
LOGO
 62
     6
 10
227.55835276239009
 20
32.094503259298691
 30
0.0
 11
212.65103265288371
 21
32.094503259298627
 31
0.0
  0
TEXT
  5
186F
  8
LOGO
  6
CONTINUOUS
 62
     7
 10
216.7798058681108
 20
25.542410867149972
 30
0.0
 40
4.6424618444983068
  1
25
  7
CHINESET
 72
     1
 11
220.53798926603801
 21
27.863641789399122
 31
0.0
 73
     2
  0
LINE
  5
1870
  8
LOGO
 62
     6
 10
227.55835276239009
 20
9.3464402212569322
 30
0.0
 11
212.65103265288371
 21
9.3464402212568984
 31
0.0
  0
TEXT
  5
1871
  8
LOGO
  6
CONTINUOUS
 62
     6
 10
217.2307877562809
 20
10.50705568238148
 30
0.0
 40
2.321230922249153
  1
Bore
 41
0.8
  7
CHINESET
 72
     4
 11
220.10469270763701
 21
11.667671143506061
 31
0.0
  0
TEXT
  5
1872
  8
LOGO
 62
     6
 10
216.5532093965958
 20
14.453148250205039
 30
0.0
 40
3.713969475598645
  1
內徑
 41
0.9
  7
CHINESET
 72
     4
 11
220.10469270763701
 21
16.310132988004369
 31
0.0
  0
LINE
  5
1873
  8
LOGO
 62
     6
 10
220.10469249354111
 20
23.738071939201681
 30
0.0
 11
220.10469249354111
 21
19.559856279153198
 31
0.0
  0
LINE
  5
1874
  8
LOGO
 62
     6
 10
195.83719706522851
 20
23.738071939201621
 30
0.0
 11
195.83719706522851
 21
19.559856279153159
 31
0.0
  0
LINE
  5
1875
  8
LOGO
 62
     6
 10
206.0763342266807
 20
19.559856279153159
 30
0.0
 11
206.0763342266807
 21
9.3464402212568984
 31
0.0
  0
LINE
  5
1876
  8
LOGO
 62
     6
 10
212.65103265288371
 20
19.559856279153198
 30
0.0
 11
212.65103265288371
 21
9.3464402212569322
 31
0.0
  0
LINE
  5
1877
  8
LOGO
 62
     6
 10
206.0763342266807
 20
32.094503259298627
 30
0.0
 11
206.0763342266807
 21
23.738071939201621
 31
0.0
  0
LINE
  5
1878
  8
LOGO
 62
     6
 10
212.65103265288371
 20
32.094503259298627
 30
0.0
 11
212.65103265288371
 21
23.738071939201681
 31
0.0
  0
LINE
  5
1879
  8
LOGO
  6
CONTINUOUS
 62
     7
 10
207.51602175855251
 20
27.886687798886062
 30
0.0
 11
211.2059169168773
 21
27.886687798886062
 31
0.0
  0
LINE
  5
187A
  8
LOGO
 62
     6
 10
242.0633045113652
 20
23.738071939201621
 30
0.0
 11
242.0633045113652
 21
19.559856279153159
 31
0.0
  0
LINE
  5
187B
  8
LOGO
 62
     6
 10
227.55835276239009
 20
19.559856279153198
 30
0.0
 11
227.55835276239009
 21
9.3464402212569553
 31
0.0
  0
LINE
  5
187C
  8
LOGO
 62
     6
 10
235.06154355749291
 20
19.559856279153159
 30
0.0
 11
235.06154355749291
 21
9.3464402212568523
 31
0.0
  0
TEXT
  5
187D
  8
LOGO
  6
CONTINUOUS
 62
     6
 10
237.66633563699531
 20
10.50705568238142
 30
0.0
 40
2.321230922249153
  1
Stroke
 41
0.8
  7
CHINESET
 72
     4
 11
241.86665825820799
 21
11.667671143506
 31
0.0
  0
TEXT
  5
187E
  8
LOGO
 62
     6
 10
238.5240857301693
 20
14.453148250204981
 30
0.0
 40
3.713969475598645
  1
行程
 41
0.9
  7
CHINESET
 72
     4
 11
241.86665825820799
 21
16.310132988004309
 31
0.0
  0
LINE
  5
187F
  8
LOGO
 62
     6
 10
227.55835276239009
 20
32.094503259298691
 30
0.0
 11
227.55835276239009
 21
23.738071939201681
 31
0.0
  0
LINE
  5
1880
  8
LOGO
  6
CONTINUOUS
 62
     7
 10
228.99804029426201
 20
27.886687798886118
 30
0.0
 11
232.6879354525868
 21
27.886687798886118
 31
0.0
  0
LINE
  5
1881
  8
LOGO
 62
     6
 10
234.13305118859321
 20
32.09450325929857
 30
0.0
 11
234.13305118859321
 21
23.738071939201621
 31
0.0
  0
TEXT
  5
1882
  8
LOGO
  6
CONTINUOUS
 62
     7
 10
241.08407195257379
 20
25.542410867149918
 30
0.0
 40
4.6424618444983068
  1
?
  7
CHINESET
 72
     1
 11
242.2999548166091
 21
27.863641789399079
 31
0.0
 73
     2
  0
LINE
  5
1883
  8
LOGO
 62
     6
 10
257.63270635542972
 20
23.738071939201621
 30
0.0
 11
257.63270635542972
 21
19.559856279153159
 31
0.0
  0
LINE
  5
1884
  8
LOGO
 62
     1
 10
271.62778414727939
 20
7.0252092990077228
 30
0.0
 11
271.62778414727939
 21
34.879980365997568
 31
0.0
  0
LINE
  5
1885
  8
LOGO
 62
     6
 10
264.43782105614491
 20
9.3464402212568771
 30
0.0
 11
250.82759165471461
 21
9.3464402212568523
 31
0.0
  0
LINE
  5
1886
  8
LOGO
 62
     6
 10
264.43782105614491
 20
19.559856279153159
 30
0.0
 11
250.82759165471461
 21
19.559856279153159
 31
0.0
  0
TEXT
  5
1887
  8
LOGO
  6
CONTINUOUS
 62
     6
 10
252.23860783134589
 20
10.50705568238142
 30
0.0
 40
2.321230922249153
  1
MAGNET
 41
0.8
  7
CHINESET
 72
     4
 11
257.63270635542972
 21
11.667671143506
 31
0.0
  0
TEXT
  5
1888
  8
LOGO
 62
     6
 10
252.6188475633715
 20
14.491835432242469
 30
0.0
 40
3.713969475598645
  1
附磁石
 41
0.9
  7
CHINESET
 72
     4
 11
257.63270635542972
 21
16.310132988004309
 31
0.0
  0
LINE
  5
1889
  8
LOGO
 62
     6
 10
250.82759165471461
 20
19.559856279153159
 30
0.0
 11
250.82759165471461
 21
9.3464402212568523
 31
0.0
  0
LINE
  5
188A
  8
LOGO
 62
     6
 10
248.6717729589231
 20
19.559856279153159
 30
0.0
 11
248.6717729589231
 21
9.3079288704267622
 31
0.0
  0
LINE
  5
188B
  8
LOGO
 62
     6
 10
264.43782105614491
 20
19.559856279153159
 30
0.0
 11
264.43782105614491
 21
9.3079288704267622
 31
0.0
  0
TEXT
  5
188C
  8
LOGO
  6
CONTINUOUS
 62
     7
 10
253.0919368659641
 20
25.542410867149918
 30
0.0
 40
4.6424618444983068
  1
(M)
  7
CHINESET
 72
     1
 11
258.06600312792648
 21
27.863641789399079
 31
0.0
 73
     2
  0
LINE
  5
188D
  8
LOGO
 62
     6
 10
263.7329108013318
 20
23.738071939201621
 30
0.0
 11
251.53250190952761
 21
23.738071939201621
 31
0.0
  0
LINE
  5
188E
  8
LOGO
 62
     6
 10
263.7329108013318
 20
32.094503259298627
 30
0.0
 11
251.53250190952761
 21
32.09450325929857
 31
0.0
  0
LINE
  5
188F
  8
LOGO
 62
     6
 10
251.53250190952761
 20
32.09450325929857
 30
0.0
 11
251.53250190952761
 21
23.738071939201621
 31
0.0
  0
LINE
  5
1890
  8
LOGO
 62
     6
 10
249.6002653278228
 20
32.09450325929857
 30
0.0
 11
249.6002653278228
 21
23.738071939201621
 31
0.0
  0
LINE
  5
1891
  8
LOGO
 62
     6
 10
263.73291080133163
 20
32.094503259298627
 30
0.0
 11
263.7329108013318
 21
23.738071939201621
 31
0.0
  0
LINE
  5
18E7
  8
0
 62
     4
 10
271.62778414727939
 20
251.55816802600239
 30
0.0
 11
57.146046931457697
 21
251.55816802600251
 31
0.0
  0
TEXT
  5
18E8
  8
0
 10
79.075201085251024
 20
255.55816874359891
 30
0.0
 40
10.0
  1
2.附磁型本體長度皆較不附磁型增加10MM
  7
CHINESET
  0
TEXT
  5
18E9
  8
0
 10
60.729380188496968
 20
270.78167957937569
 30
0.0
 40
10.0
  1
註：1.本圖檔為不附磁型
  7
CHINESET
  0
TEXT
  5
18EA
  8
0
 10
67.9636587653481
 20
244.01876069856939
 30
0.0
 40
4.0
  1
MCJT-11-%%C25
  7
CHINESET
  0
TEXT
  5
18EB
  8
0
 10
67.472729807760629
 20
235.72982594818461
 30
0.0
 40
5.0
  1
stroke=0mm
  7
CHINESET
  0
LINE
  5
26C7
  8
CENTER
 10
132.2264236103783
 20
76.63278737860432
 30
0.0
 11
98.430040225968582
 21
76.63278737860432
 31
0.0
  0
LINE
  5
26D4
  8
0
 10
121.708539983051
 20
76.632787378604476
 30
0.0
 11
121.708539983051
 21
96.632787378604462
 31
0.0
  0
LINE
  5
26DD
  8
0
 10
100.708539983051
 20
96.632787378604462
 30
0.0
 11
100.708539983051
 21
76.632787378604434
 31
0.0
  0
LINE
  5
26E1
  8
0
 10
121.7085399830508
 20
56.632787378604178
 30
0.0
 11
100.7085399830507
 21
56.632787378604462
 31
0.0
  0
LINE
  5
26E4
  8
0
 10
121.7085399830508
 20
60.091928876096681
 30
0.0
 11
100.7085399830508
 21
60.091928876097249
 31
0.0
  0
LINE
  5
26E5
  8
0
 10
100.7085399830507
 20
56.632787378604462
 30
0.0
 11
100.708539983051
 21
76.63278737860449
 31
0.0
  0
LINE
  5
272F
  8
0
 10
121.708539983051
 20
76.63278737860432
 30
0.0
 11
121.7085399830508
 21
56.632787378604178
 31
0.0
  0
LINE
  5
2730
  8
0
 10
127.7035399830514
 20
71.632787378604405
 30
0.0
 11
124.7035399830515
 21
71.632787378604291
 31
0.0
  0
LINE
  5
2731
  8
0
 10
127.7035399830513
 20
81.632787378604462
 30
0.0
 11
124.7035399830513
 21
81.632787378604462
 31
0.0
  0
LINE
  5
2734
  8
0
 10
124.7035399830513
 20
73.510288379405324
 30
0.0
 11
126.2035399830513
 21
76.632787378604462
 31
0.0
  0
LINE
  5
2735
  8
0
 10
127.7035399830513
 20
73.510288379405324
 30
0.0
 11
124.7035399830513
 21
73.510288379405353
 31
0.0
  0
LINE
  5
2739
  8
0
 10
123.7085399830508
 20
76.632787378604263
 30
0.0
 11
123.7085399830508
 21
68.632787378604149
 31
0.0
  0
LINE
  5
273A
  8
0
 10
123.2085399830509
 20
68.132787378604135
 30
0.0
 11
121.7085399830509
 21
68.132787378604064
 31
0.0
  0
ARC
  5
273B
  8
0
 10
123.2085399830508
 20
68.632787378604149
 30
0.0
 40
0.5
 50
270.00000000000318
 51
0.0
  0
LINE
  5
273C
  8
0
 10
123.7085399830511
 20
70.632787378604519
 30
0.0
 11
124.7035399830515
 21
71.632787378604291
 31
0.0
  0
ARC
  5
273D
  8
0
 10
129.0785399830512
 20
76.632787378604462
 30
0.0
 40
5.3749999999998144
 50
180.0
 51
215.5159837645358
  0
LINE
  5
273E
  8
0
 10
124.7035399830513
 20
73.510288379405324
 30
0.0
 11
124.7035399830513
 21
76.632787378604462
 31
0.0
  0
LINE
  5
275C
  8
0
 10
123.7085399830509
 20
84.632787378604405
 30
0.0
 11
123.7035399830513
 21
76.632787378604462
 31
0.0
  0
LINE
  5
2762
  8
0
 10
123.7085399830509
 20
82.632787378604206
 30
0.0
 11
124.7035399830513
 21
81.632787378604462
 31
0.0
  0
ARC
  5
276A
  8
0
 10
123.2085399830509
 20
84.632787378604405
 30
0.0
 40
0.5
 50
0.0
 51
89.999999999996746
  0
LINE
  5
276C
  8
0
 10
127.7035399830513
 20
71.632787378604434
 30
0.0
 11
127.7035399830513
 21
81.632787378604462
 31
0.0
  0
LINE
  5
276D
  8
0
 10
125.9714891754824
 20
71.632787378604348
 30
0.0
 11
125.9714891754824
 21
73.510288379405324
 31
0.0
  0
LINE
  5
276E
  8
0
 10
126.2035399830513
 20
76.632787378604462
 30
0.0
 11
127.7035399830513
 21
73.510288379405324
 31
0.0
  0
LINE
  5
2771
  8
0
 10
121.708539983051
 20
96.632787378604462
 30
0.0
 11
100.708539983051
 21
96.632787378604462
 31
0.0
  0
ARC
  5
27A5
  8
0
 10
206.43804522465561
 20
76.632787378604263
 30
0.0
 40
26.0
 50
129.87527735708269
 51
140.124722642916
  0
LINE
  5
27A6
  8
CENTER
 10
192.4380452246557
 20
95.382787378604263
 30
0.0
 11
192.4380452246557
 21
85.882787378604249
 31
0.0
  0
LINE
  5
27A7
  8
0
 10
196.33804522465579
 20
93.837787378603963
 30
0.0
 11
196.33804522465579
 21
94.737787378604509
 31
0.0
  0
LINE
  5
27A8
  8
0
 10
205.3380452246557
 20
93.837787378603906
 30
0.0
 11
205.3380452246557
 21
96.432787378604502
 31
0.0
  0
LINE
  5
27A9
  8
0
 10
207.53804522465569
 20
93.837787378604375
 30
0.0
 11
207.53804522465569
 21
96.432787378604502
 31
0.0
  0
LINE
  5
27AA
  8
0
 10
216.5380452246558
 20
93.837787378604375
 30
0.0
 11
216.5380452246558
 21
94.737787378604452
 31
0.0
  0
ARC
  5
27AB
  8
0
 10
206.43804522465561
 20
76.632787378604263
 30
0.0
 40
26.0
 50
39.875277357083931
 51
50.124722642917263
  0
LINE
  5
27AC
  8
CENTER
 10
220.4380452246557
 20
95.382787378604263
 30
0.0
 11
220.4380452246557
 21
85.882787378604249
 31
0.0
  0
CIRCLE
  5
27AD
  8
0
 10
220.4380452246557
 20
90.632787378604263
 30
0.0
 40
4.0
  0
CIRCLE
  5
27AE
  8
0
 10
192.4380452246557
 20
90.632787378604263
 30
0.0
 40
4.0
  0
CIRCLE
  5
27AF
  8
0
 10
192.4380452246557
 20
90.632787378604263
 30
0.0
 40
2.5499999999999989
  0
CIRCLE
  5
27B0
  8
0
 10
192.4380452246557
 20
62.632787378604263
 30
0.0
 40
2.5499999999999989
  0
ARC
  5
27B1
  8
DIM
 10
192.4380452246557
 20
90.632787378604263
 30
0.0
 40
3.0
 50
255.53517889307969
 51
198.86246051801231
  0
CIRCLE
  5
27B2
  8
0
 10
192.4380452246557
 20
62.632787378604263
 30
0.0
 40
4.0
  0
ARC
  5
27B3
  8
DIM
 10
192.4380452246557
 20
62.632787378604263
 30
0.0
 40
3.0
 50
255.53517889307969
 51
198.86246051801231
  0
LINE
  5
27B4
  8
CENTER
 10
197.18804522465561
 20
90.632787378604263
 30
0.0
 11
187.68804522465561
 21
90.632787378604263
 31
0.0
  0
LINE
  5
27B5
  8
CENTER
 10
196.78804522465569
 20
62.632787378604263
 30
0.0
 11
187.68804522465561
 21
62.632787378604263
 31
0.0
  0
LINE
  5
27B6
  8
CENTER
 10
200.4380452246557
 20
76.632787378604263
 30
0.0
 11
184.38536437242061
 21
76.632787378604263
 31
0.0
  0
LINE
  5
27B7
  8
0
 10
189.89718672214741
 20
56.63278737860427
 30
0.0
 11
197.8380452246557
 21
56.63278737860427
 31
0.0
  0
CIRCLE
  5
27B8
  8
0
 10
206.4380452246557
 20
76.632787378604263
 30
0.0
 40
13.50775365504402
  0
CIRCLE
  5
27B9
  8
0
 10
220.4380452246557
 20
62.632787378604263
 30
0.0
 40
2.5499999999999989
  0
ARC
  5
27BA
  8
DIM
 10
220.4380452246557
 20
62.632787378604263
 30
0.0
 40
3.0
 50
255.53517889307969
 51
198.86246051801231
  0
CIRCLE
  5
27BB
  8
0
 10
220.4380452246557
 20
62.632787378604263
 30
0.0
 40
4.0
  0
LINE
  5
27BC
  8
CENTER
 10
220.4380452246557
 20
67.382787378604263
 30
0.0
 11
220.4380452246557
 21
57.88278737860427
 31
0.0
  0
LINE
  5
27BD
  8
CENTER
 10
206.4380452246557
 20
70.632787378604263
 30
0.0
 11
206.4380452246557
 21
61.132787378604263
 31
0.0
  0
LINE
  5
27BE
  8
0
 10
226.4380452246557
 20
68.03278737860424
 30
0.0
 11
226.4380452246557
 21
60.091928876096318
 31
0.0
  0
LINE
  5
27BF
  8
0
 10
215.03804522465569
 20
58.327787378604263
 30
0.0
 11
216.3380452246557
 21
58.327787378604263
 31
0.0
  0
LINE
  5
27C0
  8
0
 10
207.73804522465559
 20
59.627787378604502
 30
0.0
 11
216.3380452246557
 21
59.627787378604431
 31
0.0
  0
LINE
  5
27C1
  8
CENTER
 10
225.18804522465561
 20
62.632787378604263
 30
0.0
 11
215.6880452246557
 21
62.632787378604263
 31
0.0
  0
LINE
  5
27C2
  8
0
 10
215.03804522465569
 20
56.63278737860427
 30
0.0
 11
222.97890372716381
 21
56.63278737860427
 31
0.0
  0
ARC
  5
27C3
  8
0
 10
206.43804522465561
 20
76.632787378604263
 30
0.0
 40
26.0
 50
309.87527735708272
 51
320.12472264291603
  0
ARC
  5
27C4
  8
0
 10
222.97890372716381
 20
56.832787378604081
 30
0.0
 40
0.2
 50
270.0
 51
309.87527735708142
  0
ARC
  5
27C5
  8
0
 10
226.23804522465559
 20
60.091928876096318
 30
0.0
 40
0.2
 50
320.12472264291961
 51
0.0
  0
LINE
  5
27C6
  8
0
 10
216.5380452246556
 20
59.42778737860462
 30
0.0
 11
216.5380452246556
 21
58.527787378604081
 31
0.0
  0
ARC
  5
27C7
  8
0
 10
216.33804522465559
 20
58.527787378604081
 30
0.0
 40
0.2
 50
270.0
 51
0.0
  0
ARC
  5
27C8
  8
0
 10
216.33804522465559
 20
59.42778737860462
 30
0.0
 40
0.2
 50
0.0
 51
90.0
  0
ARC
  5
27C9
  8
0
 10
205.13804522465571
 20
59.427787378604158
 30
0.0
 40
0.2
 50
0.0
 51
90.0
  0
LINE
  5
27CA
  8
0
 10
214.83804522465559
 20
58.127787378604438
 30
0.0
 11
214.83804522465559
 21
56.832787378604081
 31
0.0
  0
LINE
  5
27CB
  8
0
 10
214.83804522465559
 20
56.832787378604081
 30
0.0
 11
214.83804522465559
 21
56.832787378604081
 31
0.0
  0
ARC
  5
27CC
  8
0
 10
215.0380452246556
 20
56.832787378604081
 30
0.0
 40
0.2
 50
180.0
 51
270.0
  0
ARC
  5
27CD
  8
0
 10
215.0380452246556
 20
58.127787378604438
 30
0.0
 40
0.2
 50
90.0
 51
180.0
  0
LINE
  5
27CE
  8
0
 10
205.33804522465559
 20
59.427787378604222
 30
0.0
 11
205.33804522465559
 21
56.832787378604081
 31
0.0
  0
LINE
  5
27CF
  8
0
 10
207.53804522465569
 20
59.427787378604677
 30
0.0
 11
207.53804522465569
 21
56.832787378604081
 31
0.0
  0
ARC
  5
27D0
  8
0
 10
205.5380452246556
 20
56.832787378604081
 30
0.0
 40
0.2
 50
180.0
 51
270.0
  0
ARC
  5
27D1
  8
0
 10
207.3380452246555
 20
56.832787378604081
 30
0.0
 40
0.2
 50
269.99999999999829
 51
0.0
  0
LINE
  5
27D2
  8
0
 10
205.53804522465569
 20
56.63278737860427
 30
0.0
 11
207.33804522465559
 21
56.63278737860427
 31
0.0
  0
ARC
  5
27D3
  8
0
 10
207.73804522465551
 20
59.42778737860462
 30
0.0
 40
0.2
 50
90.0
 51
180.0
  0
LINE
  5
27D4
  8
0
 10
196.53804522465569
 20
59.627787378604502
 30
0.0
 11
205.13804522465571
 21
59.627787378604502
 31
0.0
  0
LINE
  5
27D5
  8
0
 10
196.33804522465559
 20
59.427787378604222
 30
0.0
 11
196.33804522465559
 21
58.527787378604131
 31
0.0
  0
LINE
  5
27D6
  8
0
 10
196.53804522465569
 20
58.327787378604313
 30
0.0
 11
197.8380452246557
 21
58.327787378604313
 31
0.0
  0
LINE
  5
27D7
  8
0
 10
198.0380452246556
 20
58.127787378604488
 30
0.0
 11
198.0380452246556
 21
56.832787378604081
 31
0.0
  0
ARC
  5
27D8
  8
0
 10
197.8380452246557
 20
56.832787378604081
 30
0.0
 40
0.2
 50
270.0
 51
359.9999999999967
  0
ARC
  5
27D9
  8
0
 10
197.8380452246557
 20
58.127787378604438
 30
0.0
 40
0.2
 50
359.9999999999967
 51
90.0
  0
ARC
  5
27DA
  8
0
 10
196.5380452246556
 20
58.527787378604081
 30
0.0
 40
0.2
 50
180.0
 51
270.0
  0
ARC
  5
27DB
  8
0
 10
196.5380452246556
 20
59.427787378604158
 30
0.0
 40
0.2
 50
90.0
 51
180.0
  0
ARC
  5
27DC
  8
0
 10
217.41574605568999
 20
81.955388665973516
 30
0.0
 40
2.2999999999999989
 50
205.86669347855641
 51
284.99999999999909
  0
ARC
  5
27DD
  8
0
 10
217.41574605568999
 20
71.310186091235011
 30
0.0
 40
2.2999999999999989
 50
75.000000000000853
 51
154.1333065214435
  0
ARC
  5
27DE
  8
0
 10
207.4380452246557
 20
76.632787378604263
 30
0.0
 40
12.5
 50
52.069314781602102
 51
307.9306852183978
  0
LINE
  5
27DF
  8
0
 10
216.33804522465579
 20
93.637787378604088
 30
0.0
 11
207.73804522465571
 21
93.637787378604088
 31
0.0
  0
LINE
  5
27E0
  8
CENTER
 10
212.4380452246557
 20
76.632787378604263
 30
0.0
 11
221.9380452246557
 21
76.632787378604263
 31
0.0
  0
LINE
  5
27E1
  8
CENTER
 10
225.18804522465561
 20
90.632787378604263
 30
0.0
 11
215.6880452246557
 21
90.632787378604263
 31
0.0
  0
LINE
  5
27E2
  8
0
 10
223.44304522465549
 20
77.932787378604218
 30
0.0
 11
223.44304522465549
 21
86.532787378604226
 31
0.0
  0
CIRCLE
  5
27E3
  8
0
 10
217.41574605568999
 20
71.310186091234954
 30
0.0
 40
1.0
  0
LINE
  5
27E4
  8
0
 10
223.44304522465549
 20
66.732787378604229
 30
0.0
 11
223.44304522465549
 21
75.332787378604309
 31
0.0
  0
LINE
  5
27E5
  8
0
 10
224.7430452246557
 20
66.732787378604229
 30
0.0
 11
224.7430452246557
 21
68.03278737860424
 31
0.0
  0
ARC
  5
27E6
  8
0
 10
224.5430452246558
 20
66.732787378604229
 30
0.0
 40
0.2
 50
270.0
 51
0.0
  0
ARC
  5
27E7
  8
0
 10
223.64304522465571
 20
66.732787378604229
 30
0.0
 40
0.2
 50
180.0
 51
270.0
  0
LINE
  5
27E8
  8
0
 10
223.64304522465579
 20
66.532787378604183
 30
0.0
 11
224.54304522465591
 21
66.532787378604183
 31
0.0
  0
ARC
  5
27E9
  8
0
 10
224.94304522465549
 20
68.03278737860424
 30
0.0
 40
0.2
 50
89.999999999998394
 51
180.0
  0
ARC
  5
27EA
  8
0
 10
226.23804522465591
 20
68.03278737860424
 30
0.0
 40
0.2
 50
0.0
 51
89.999999999998394
  0
LINE
  5
27EB
  8
0
 10
224.94304522465561
 20
68.232787378604172
 30
0.0
 11
226.23804522465591
 21
68.232787378604172
 31
0.0
  0
LINE
  5
27EC
  8
0
 10
223.64304522465531
 20
77.732787378604286
 30
0.0
 11
226.23804522465591
 21
77.732787378604286
 31
0.0
  0
LINE
  5
27ED
  8
0
 10
223.64304522465579
 20
75.53278737860424
 30
0.0
 11
226.23804522465591
 21
75.53278737860424
 31
0.0
  0
LINE
  5
27EE
  8
0
 10
226.4380452246557
 20
75.732787378604286
 30
0.0
 11
226.4380452246557
 21
77.53278737860424
 31
0.0
  0
ARC
  5
27EF
  8
0
 10
226.23804522465591
 20
75.732787378604229
 30
0.0
 40
0.2
 50
270.0
 51
0.0
  0
ARC
  5
27F0
  8
0
 10
226.23804522465591
 20
77.532787378604183
 30
0.0
 40
0.2
 50
359.9999999999967
 51
90.0
  0
ARC
  5
27F1
  8
0
 10
223.64304522465571
 20
75.332787378604252
 30
0.0
 40
0.2
 50
90.0
 51
180.0
  0
ARC
  5
27F2
  8
0
 10
223.64304522465531
 20
77.932787378604161
 30
0.0
 40
0.2
 50
180.0
 51
270.0
  0
LINE
  5
27F3
  8
0
 10
218.0110298594258
 20
73.531815491699859
 30
0.0
 11
219.48553333521329
 21
73.136723476125695
 31
0.0
  0
LINE
  5
27F4
  8
0
 10
224.7430452246557
 20
85.232787378604215
 30
0.0
 11
224.7430452246557
 21
86.532787378604226
 31
0.0
  0
LINE
  5
27F5
  8
0
 10
226.4380452246557
 20
93.173645881112208
 30
0.0
 11
226.4380452246557
 21
85.232787378604215
 31
0.0
  0
LINE
  5
27F6
  8
0
 10
224.94304522465561
 20
85.032787378604169
 30
0.0
 11
226.23804522465591
 21
85.032787378604169
 31
0.0
  0
ARC
  5
27F7
  8
0
 10
226.23804522465591
 20
85.232787378604215
 30
0.0
 40
0.2
 50
270.0
 51
0.0
  0
ARC
  5
27F8
  8
0
 10
224.94304522465549
 20
85.232787378604215
 30
0.0
 40
0.2
 50
180.0
 51
270.0
  0
CIRCLE
  5
27F9
  8
0
 10
217.41574605568999
 20
81.955388665973516
 30
0.0
 40
1.0
  0
LINE
  5
27FA
  8
0
 10
218.0110298594258
 20
79.733759265508667
 30
0.0
 11
219.48553333521329
 21
80.128851281082831
 31
0.0
  0
CIRCLE
  5
27FB
  8
0
 10
220.4380452246557
 20
90.632787378604263
 30
0.0
 40
2.5499999999999989
  0
ARC
  5
27FC
  8
DIM
 10
220.4380452246557
 20
90.632787378604263
 30
0.0
 40
3.0
 50
255.53517889307969
 51
198.86246051801231
  0
ARC
  5
27FD
  8
0
 10
224.5430452246558
 20
86.532787378604226
 30
0.0
 40
0.2
 50
0.0
 51
90.0
  0
ARC
  5
27FE
  8
0
 10
223.64304522465531
 20
86.532787378604226
 30
0.0
 40
0.2
 50
90.0
 51
180.0
  0
LINE
  5
27FF
  8
0
 10
223.64304522465531
 20
86.732787378604172
 30
0.0
 11
224.54304522465591
 21
86.732787378604172
 31
0.0
  0
ARC
  5
2800
  8
0
 10
226.23804522465559
 20
93.173645881112208
 30
0.0
 40
0.2
 50
0.0
 51
39.875277357080421
  0
ARC
  5
2801
  8
0
 10
216.33804522465579
 20
93.837787378604375
 30
0.0
 40
0.2
 50
270.0
 51
0.0
  0
LINE
  5
2802
  8
0
 10
211.4380452246557
 20
73.316162588248545
 30
0.0
 11
211.4380452246557
 21
79.949412168959981
 31
0.0
  0
LINE
  5
2803
  8
0
 10
201.4380452246557
 20
79.949412168959981
 30
0.0
 11
201.4380452246557
 21
73.316162588248488
 31
0.0
  0
LINE
  5
2804
  8
CENTER
 10
206.4380452246557
 20
73.632787378604263
 30
0.0
 11
206.4380452246557
 21
79.632787378604263
 31
0.0
  0
ARC
  5
2805
  8
DIM
 10
206.4380452246557
 20
76.632787378604263
 30
0.0
 40
2.5
 50
255.04119508791419
 51
202.18120810721979
  0
CIRCLE
  5
2806
  8
0
 10
206.4380452246557
 20
76.632787378604263
 30
0.0
 40
2.1000000000000001
  0
CIRCLE
  5
2807
  8
0
 10
206.4380452246557
 20
76.632787378604263
 30
0.0
 40
8.5000000000001421
  0
CIRCLE
  5
2808
  8
0
 10
206.4380452246557
 20
76.632787378604263
 30
0.0
 40
5.0000000000001981
  0
CIRCLE
  5
2809
  8
0
 10
206.4380452246557
 20
76.632787378604263
 30
0.0
 40
6.0000000000001839
  0
LINE
  5
280A
  8
0
 10
203.12142043429989
 20
71.632787378604263
 30
0.0
 11
209.75467001501141
 21
71.632787378604263
 31
0.0
  0
LINE
  5
280B
  8
CENTER
 10
209.4380452246557
 20
76.632787378604263
 30
0.0
 11
203.4380452246557
 21
76.632787378604263
 31
0.0
  0
LINE
  5
280C
  8
0
 10
209.75467001501141
 20
71.632787378604263
 30
0.0
 11
203.12142043429989
 21
71.632787378604263
 31
0.0
  0
ARC
  5
280D
  8
0
 10
217.41574605568999
 20
71.310186091234954
 30
0.0
 40
2.2999999999999989
 50
154.1333065214435
 51
216.29132946895709
  0
ARC
  5
280E
  8
0
 10
213.70806389063421
 20
68.587486518581585
 30
0.0
 40
2.2999999999999989
 50
307.9306852183978
 51
36.291329468957088
  0
ARC
  5
280F
  8
0
 10
206.4380452246557
 20
76.632787378604263
 30
0.0
 40
9.9000000000000004
 50
334.1333065214435
 51
334.1333065214435
  0
ARC
  5
2810
  8
0
 10
205.13804522465571
 20
93.837787378603934
 30
0.0
 40
0.2
 50
270.0
 51
0.0
  0
LINE
  5
2811
  8
0
 10
209.75467001501141
 20
81.632787378604263
 30
0.0
 11
203.12142043429989
 21
81.632787378604263
 31
0.0
  0
ARC
  5
2812
  8
0
 10
213.70806389063421
 20
84.678088238626955
 30
0.0
 40
2.2999999999999989
 50
323.7086705310428
 51
52.069314781602102
  0
LINE
  5
2813
  8
CENTER
 10
206.4380452246557
 20
82.632787378604263
 30
0.0
 11
206.4380452246557
 21
92.132787378604249
 31
0.0
  0
ARC
  5
2814
  8
0
 10
217.41574605568999
 20
81.955388665973587
 30
0.0
 40
2.2999999999999989
 50
143.7086705310428
 51
205.86669347855641
  0
ARC
  5
2815
  8
0
 10
206.4380452246557
 20
76.632787378604263
 30
0.0
 40
9.9000000000000004
 50
25.86669347855641
 51
25.86669347855641
  0
ARC
  5
2816
  8
0
 10
207.73804522465571
 20
93.837787378604375
 30
0.0
 40
0.2
 50
180.0
 51
270.0
  0
LINE
  5
2817
  8
0
 10
205.13804522465571
 20
93.637787378604088
 30
0.0
 11
196.53804522465569
 21
93.637787378604145
 31
0.0
  0
ARC
  5
2818
  8
0
 10
196.53804522465569
 20
93.837787378603934
 30
0.0
 40
0.2
 50
180.0
 51
270.0
  0
LINE
  5
2819
  8
0
 10
186.4380452246557
 20
68.432787378604445
 30
0.0
 11
186.4380452246557
 21
60.091928876096318
 31
0.0
  0
LINE
  5
281A
  8
CENTER
 10
192.4380452246557
 20
67.382787378604263
 30
0.0
 11
192.4380452246557
 21
57.88278737860427
 31
0.0
  0
ARC
  5
281B
  8
0
 10
206.43804522465561
 20
76.632787378604263
 30
0.0
 40
26.0
 50
219.87527735708389
 51
230.12472264291719
  0
ARC
  5
281C
  8
0
 10
189.8971867221473
 20
56.832787378604081
 30
0.0
 40
0.2
 50
230.12472264291259
 51
270.0
  0
ARC
  5
281D
  8
0
 10
186.63804522465551
 20
60.091928876096318
 30
0.0
 40
0.2
 50
180.0
 51
219.87527735708491
  0
LINE
  5
281E
  8
0
 10
186.4380452246557
 20
81.432787378604445
 30
0.0
 11
186.4380452246555
 21
71.832787378604081
 31
0.0
  0
ARC
  5
281F
  8
0
 10
190.0380452246556
 20
70.582787378604309
 30
0.0
 40
1.7
 50
0.0
 51
90.0
  0
LINE
  5
2820
  8
0
 10
187.93804522465561
 20
67.982787378604229
 30
0.0
 11
190.0380452246556
 21
67.982787378604229
 31
0.0
  0
LINE
  5
2821
  8
CENTER
 10
185.94928977058501
 20
70.132787378604263
 30
0.0
 11
192.43770875695779
 21
70.132787378604263
 31
0.0
  0
ARC
  5
2822
  8
0
 10
190.0380452246556
 20
69.682787378604218
 30
0.0
 40
1.7
 50
270.0
 51
0.0
  0
LINE
  5
2823
  8
0
 10
191.73804522465559
 20
69.682787378604218
 30
0.0
 11
191.73804522465559
 21
70.582787378604309
 31
0.0
  0
LINE
  5
2824
  8
0
 10
187.43804522465561
 20
68.432787378604218
 30
0.0
 11
187.93804522465561
 21
67.982787378604229
 31
0.0
  0
LINE
  5
2825
  8
0
 10
186.43804522465561
 20
68.432787378604218
 30
0.0
 11
187.43804522465561
 21
68.432787378604218
 31
0.0
  0
LINE
  5
2826
  8
0
 10
190.0380452246556
 20
72.28278737860424
 30
0.0
 11
187.93804522465561
 21
72.28278737860424
 31
0.0
  0
LINE
  5
2827
  8
0
 10
187.43804522465561
 20
71.832787378604252
 30
0.0
 11
187.93804522465561
 21
72.28278737860424
 31
0.0
  0
LINE
  5
2828
  8
0
 10
187.43804522465561
 20
71.832787378604252
 30
0.0
 11
186.43804522465561
 21
71.832787378604252
 31
0.0
  0
LINE
  5
2829
  8
0
 10
186.4380452246557
 20
93.173645881112208
 30
0.0
 11
186.4380452246557
 21
84.832787378604067
 31
0.0
  0
LINE
  5
282A
  8
0
 10
190.0380452246556
 20
85.282787378604297
 30
0.0
 11
187.93804522465561
 21
85.282787378604226
 31
0.0
  0
LINE
  5
282B
  8
CENTER
 10
185.94928977058501
 20
83.132787378604263
 30
0.0
 11
192.43770875695779
 21
83.132787378604263
 31
0.0
  0
LINE
  5
282C
  8
0
 10
187.93804522465561
 20
80.982787378604229
 30
0.0
 11
190.0380452246556
 21
80.982787378604229
 31
0.0
  0
ARC
  5
282D
  8
0
 10
190.0380452246556
 20
82.682787378604218
 30
0.0
 40
1.7
 50
270.0
 51
0.0
  0
ARC
  5
282E
  8
0
 10
190.0380452246556
 20
83.582787378604294
 30
0.0
 40
1.7
 50
0.0
 51
90.0
  0
LINE
  5
282F
  8
0
 10
191.73804522465559
 20
82.682787378604218
 30
0.0
 11
191.73804522465559
 21
83.582787378604294
 31
0.0
  0
LINE
  5
2830
  8
0
 10
186.43804522465561
 20
81.432787378604218
 30
0.0
 11
187.43804522465561
 21
81.432787378604218
 31
0.0
  0
LINE
  5
2831
  8
0
 10
187.43804522465561
 20
81.432787378604218
 30
0.0
 11
187.93804522465561
 21
80.982787378604229
 31
0.0
  0
LINE
  5
2832
  8
0
 10
187.4380452246557
 20
84.832787378604252
 30
0.0
 11
186.43804522465561
 21
84.832787378604252
 31
0.0
  0
LINE
  5
2833
  8
0
 10
187.43804522465561
 20
84.832787378604252
 30
0.0
 11
187.93804522465561
 21
85.282787378604226
 31
0.0
  0
ARC
  5
2834
  8
0
 10
186.63804522465571
 20
93.173645881112208
 30
0.0
 40
0.2
 50
140.12472264291961
 51
180.0
  0
LINE
  5
2835
  8
0
 10
189.89718672214741
 20
96.632787378604263
 30
0.0
 11
197.83804522465579
 21
96.632787378604263
 31
0.0
  0
LINE
  5
2836
  8
0
 10
216.33804522465579
 20
94.93778737860427
 30
0.0
 11
215.03804522465569
 21
94.93778737860427
 31
0.0
  0
LINE
  5
2837
  8
0
 10
215.03804522465569
 20
96.632787378604263
 30
0.0
 11
222.97890372716381
 21
96.632787378604263
 31
0.0
  0
ARC
  5
2838
  8
0
 10
222.97890372716381
 20
96.432787378604473
 30
0.0
 40
0.2
 50
50.124722642918542
 51
90.0
  0
ARC
  5
2839
  8
0
 10
216.33804522465579
 20
94.737787378604466
 30
0.0
 40
0.2
 50
0.0
 51
90.0
  0
LINE
  5
283A
  8
0
 10
214.8380452246557
 20
95.137787378604088
 30
0.0
 11
214.8380452246557
 21
96.432787378604502
 31
0.0
  0
ARC
  5
283B
  8
0
 10
215.03804522465569
 20
95.137787378604116
 30
0.0
 40
0.2
 50
179.9999999999967
 51
270.0
  0
ARC
  5
283C
  8
0
 10
215.03804522465569
 20
96.432787378604544
 30
0.0
 40
0.2
 50
90.0
 51
179.9999999999967
  0
ARC
  5
283D
  8
0
 10
205.53804522465569
 20
96.432787378604544
 30
0.0
 40
0.2
 50
89.999999999998394
 51
180.0
  0
ARC
  5
283E
  8
0
 10
207.3380452246557
 20
96.432787378604544
 30
0.0
 40
0.2
 50
0.0
 51
90.0
  0
LINE
  5
283F
  8
0
 10
207.3380452246557
 20
96.63278737860432
 30
0.0
 11
205.53804522465569
 21
96.63278737860432
 31
0.0
  0
LINE
  5
2840
  8
0
 10
197.83804522465579
 20
94.937787378604327
 30
0.0
 11
196.53804522465569
 21
94.937787378604327
 31
0.0
  0
LINE
  5
2841
  8
0
 10
198.0380452246558
 20
95.137787378604145
 30
0.0
 11
198.0380452246558
 21
96.432787378604502
 31
0.0
  0
ARC
  5
2842
  8
0
 10
197.83804522465579
 20
95.137787378604116
 30
0.0
 40
0.2
 50
270.0
 51
0.0
  0
ARC
  5
2843
  8
0
 10
197.83804522465579
 20
96.432787378604544
 30
0.0
 40
0.2
 50
0.0
 51
90.0
  0
ARC
  5
2844
  8
0
 10
196.53804522465569
 20
94.737787378604466
 30
0.0
 40
0.2
 50
90.0
 51
180.0
  0
ARC
  5
2845
  8
0
 10
189.89718672214741
 20
96.432787378604473
 30
0.0
 40
0.2
 50
90.0
 51
129.8752773570873
  0
LINE
  5
2846
  8
0
 10
123.2085399830509
 20
85.132787378604405
 30
0.0
 11
121.708539983051
 21
85.132787378604405
 31
0.0
  0
LINE
  5
2847
  8
0
 10
126.2035399830513
 20
76.632787378604334
 30
0.0
 11
127.7035399830513
 21
79.755286377803415
 31
0.0
  0
LINE
  5
2848
  8
0
 10
124.7035399830513
 20
79.755286377803515
 30
0.0
 11
124.7035399830513
 21
76.632787378604377
 31
0.0
  0
ARC
  5
2849
  8
0
 10
129.0785399830512
 20
76.632787378604263
 30
0.0
 40
5.3749999999998144
 50
144.4840162354626
 51
179.99999999999841
  0
LINE
  5
284A
  8
0
 10
124.7035399830513
 20
79.755286377803515
 30
0.0
 11
126.2035399830513
 21
76.632787378604334
 31
0.0
  0
LINE
  5
284B
  8
0
 10
127.7035399830513
 20
79.755286377803415
 30
0.0
 11
124.7035399830513
 21
79.755286377803486
 31
0.0
  0
LINE
  5
284C
  8
0
 10
125.9714891754826
 20
81.632787378604462
 30
0.0
 11
125.9714891754825
 21
79.755286377803486
 31
0.0
  0
ARC
  5
28A5
  8
DIM
 10
108.708539983051
 20
76.632787378604434
 30
0.0
 40
2.5
 50
165.1546885249054
 51
107.3098521012363
  0
CIRCLE
  5
28A6
  8
0
 10
108.708539983051
 20
76.632787378604434
 30
0.0
 40
2.1000000000000001
  0
ARC
  5
28A7
  8
DIM
 10
113.7085399830505
 20
76.632787378604434
 30
0.0
 40
2.5
 50
72.690147898763684
 51
14.84531147509457
  0
CIRCLE
  5
28A8
  8
0
 10
113.7085399830505
 20
76.632787378604434
 30
0.0
 40
2.1000000000000001
  0
LINE
  5
28A9
  8
CENTER
 10
113.7085399830505
 20
81.382787378604434
 30
0.0
 11
113.7085399830505
 21
71.882787378604434
 31
0.0
  0
LINE
  5
28AB
  8
CENTER
 10
108.708539983051
 20
81.382787378604547
 30
0.0
 11
108.708539983051
 21
71.882787378604533
 31
0.0
  0
LINE
  5
28AC
  8
0
 10
121.7085399830509
 20
68.432787378605127
 30
0.0
 11
100.7085399830509
 21
68.432787378605425
 31
0.0
  0
LINE
  5
28AD
  8
0
 10
121.708539983051
 20
71.832787378604991
 30
0.0
 11
100.7085399830508
 21
71.832787378605303
 31
0.0
  0
LINE
  5
28AE
  8
0
 10
121.708539983051
 20
81.432787378605141
 30
0.0
 11
100.7085399830509
 21
81.43278737860544
 31
0.0
  0
LINE
  5
28AF
  8
0
 10
121.708539983051
 20
84.832787378605005
 30
0.0
 11
100.7085399830509
 21
84.832787378605303
 31
0.0
  0
LINE
  5
28B0
  8
0
 10
121.708539983051
 20
93.301869590435757
 30
0.0
 11
100.7550516109583
 21
93.301869590436056
 31
0.0
  0
DIMENSION
  5
28B1
  8
DIM
  2
*D9
 10
121.708539983051
 20
101.50955215550211
 30
0.0
 11
117.7085399830507
 21
104.00955215550201
 31
0.0
 70
     0
 13
113.7085399830505
 23
81.382787378604434
 33
0.0
 14
121.708539983051
 24
96.632787378604462
 34
0.0
  0
DIMENSION
  5
28BE
  8
DIM
  2
*D10
 10
100.708539983051
 20
101.50955215550211
 30
0.0
 11
104.708539983051
 21
104.00955215550201
 31
0.0
 70
     0
 13
108.708539983051
 23
81.432787378605326
 33
0.0
 14
100.708539983051
 24
96.632787378604462
 34
0.0
  0
DIMENSION
  5
28CB
  8
DIM
  2
*D11
 10
121.708539983051
 20
109.53850351602981
 30
0.0
 11
111.208539983051
 21
112.03850351602981
 31
0.0
 70
     0
 13
100.708539983051
 23
96.632787378604462
 33
0.0
 14
121.708539983051
 24
96.632787378604434
 34
0.0
  0
DIMENSION
  5
28D8
  8
DIM
  2
*D12
 10
127.7035399830513
 20
109.53850351602981
 30
0.0
 11
124.7060399830512
 21
109.53850351602981
 31
0.0
 70
   128
 13
121.708539983051
 23
96.632787378604462
 33
0.0
 14
127.7035399830513
 24
81.632787378604462
 34
0.0
  0
DIMENSION
  5
28F2
  8
DIM
  2
*D13
 10
100.708539983051
 20
117.4661691780158
 30
0.0
 11
114.2060399830511
 21
119.9661691780159
 31
0.0
 70
     0
 13
127.7035399830513
 23
81.632787378604462
 33
0.0
 14
100.708539983051
 24
96.632787378604462
 34
0.0
  0
DIMENSION
  5
2913
  8
DIM
  2
*D14
 10
121.7085399830508
 20
50.111118266112271
 30
0.0
 11
113.7085399830507
 21
52.611118266112271
 31
0.0
 70
     0
 13
123.7085399830508
 23
68.632787378604149
 33
0.0
 14
121.7085399830508
 24
56.632787378604178
 34
0.0
  0
DIMENSION
  5
2922
  8
DIM
  2
*D15
 10
152.8600355265016
 20
68.132787378604135
 30
0.0
 11
150.3600355265016
 21
76.632787378604291
 31
0.0
 70
     0
  1
%%c<>
 13
123.2085399830509
 23
85.132787378604405
 33
0.0
 14
123.2085399830508
 24
68.132787378604135
 34
0.0
 50
90.0
  0
DIMENSION
  5
292F
  8
DIM
  2
*D16
 10
141.7953638198027
 20
70.632787378604235
 30
0.0
 11
139.2953638198027
 21
76.632787378604235
 31
0.0
 70
     0
  1
%%c<>
 13
123.7085399830509
 23
82.632787378604206
 33
0.0
 14
123.7085399830508
 24
70.632787378604235
 34
0.0
 50
90.0
  0
DIMENSION
  5
294E
  8
DIM
  2
*D17
 10
179.78073586868319
 20
62.632787378604263
 30
0.0
 11
177.28073586868319
 21
76.632787378604291
 31
0.0
 70
     0
  1
\U+25A1<>
 13
187.68804522465561
 23
90.632787378604263
 33
0.0
 14
187.68804522465561
 24
62.632787378604263
 34
0.0
 50
90.0
  0
DIMENSION
  5
295B
  8
DIM
  2
*D18
 10
171.19725221502239
 20
56.632787378604093
 30
0.0
 11
168.69725221502239
 21
76.632787378604306
 31
0.0
 70
     0
  1
\U+25A1<>
 13
189.89718672214741
 23
96.632787378604462
 33
0.0
 14
189.8971867221473
 24
56.632787378604078
 34
0.0
 50
90.0
  0
POLYLINE
  8
0
  5
2F54
  66
     1
 10
0.000000
 20
0.000000
 30
0.000000
  70
     8
  0
VERTEX
  8
0
  5
2F55
 10
108.709
 20
76.6328
 30
0.000000
  70
    32
  0
VERTEX
  8
0
  5
2F56
 10
96.8897
 20
91.1387
 30
0.000000
  70
    32
  0
VERTEX
  8
0
  5
2F57
 10
93.8897
 20
91.1387
 30
0.000000
  70
    32
  0
SEQEND
  8
0
  5
2F58
  0
TEXT
  5
297C
  8
0
 10
71.46115492735899
 20
92.138707852925904
 30
0.0
 40
3.0
  1
2-M5*0.8
  7
CHINESET
  0
POLYLINE
  8
0
  5
2F59
  66
     1
 10
0.000000
 20
0.000000
 30
0.000000
  70
     8
  0
VERTEX
  8
0
  5
2F5A
 10
206.438
 20
76.6328
 30
0.000000
  70
    32
  0
VERTEX
  8
0
  5
2F5B
 10
189.238
 20
115.659
 30
0.000000
  70
    32
  0
VERTEX
  8
0
  5
2F5C
 10
186.238
 20
115.659
 30
0.000000
  70
    32
  0
SEQEND
  8
0
  5
2F5D
  0
TEXT
  5
297E
  8
0
 10
165.23753155275509
 20
116.659450161565
 30
0.0
 40
3.0
  1
M6*1*10L
  7
CHINESET
  0
POLYLINE
  8
0
  5
2F5E
  66
     1
 10
0.000000
 20
0.000000
 30
0.000000
  70
     8
  0
VERTEX
  8
0
  5
2F5F
 10
220.438
 20
90.6328
 30
0.000000
  70
    32
  0
VERTEX
  8
0
  5
2F60
 10
230.770
 20
113.907
 30
0.000000
  70
    32
  0
VERTEX
  8
0
  5
2F61
 10
233.770
 20
113.907
 30
0.000000
  70
    32
  0
SEQEND
  8
0
  5
2F62
  0
INSERT
  5
2980
  8
0
  2
*U33
 10
0.0
 20
0.0
 30
0.0
  0
TEXT
  5
2982
  8
0
 10
72.239664046673994
 20
197.0572455193564
 30
0.0
 40
3.0
  1
2-M5*0.8
  7
CHINESET
  0
POLYLINE
  8
0
  5
2F63
  66
     1
 10
0.000000
 20
0.000000
 30
0.000000
  70
     8
  0
VERTEX
  8
0
  5
2F64
 10
109.487
 20
181.551
 30
0.000000
  70
    32
  0
VERTEX
  8
0
  5
2F65
 10
97.6682
 20
196.057
 30
0.000000
  70
    32
  0
VERTEX
  8
0
  5
2F66
 10
94.6682
 20
196.057
 30
0.000000
  70
    32
  0
SEQEND
  8
0
  5
2F67
  0
DIMENSION
  5
2984
  8
DIM
  2
*D24
 10
122.4870491023658
 20
155.02965593254279
 30
0.0
 11
114.4870491023658
 21
157.52965593254279
 31
0.0
 70
     0
 13
124.4870491023658
 23
173.55132504503459
 33
0.0
 14
122.4870491023658
 24
161.5513250450347
 34
0.0
  0
DIMENSION
  5
2985
  8
DIM
  2
*D23
 10
101.487049102366
 20
222.38470684444641
 30
0.0
 11
122.987049102366
 21
224.88470684444641
 31
0.0
 70
     0
 13
144.487049102366
 23
185.55132504503499
 33
0.0
 14
101.487049102366
 24
201.55132504503499
 34
0.0
  0
DIMENSION
  5
2986
  8
DIM
  2
*D22
 10
144.487049102366
 20
214.45704118246039
 30
0.0
 11
133.487049102366
 21
214.45704118246039
 31
0.0
 70
   128
 13
122.487049102366
 23
201.55132504503499
 33
0.0
 14
144.487049102366
 24
185.55132504503499
 34
0.0
  0
LINE
  5
2987
  8
CENTER
 10
146.80495319648659
 20
181.5513250450349
 30
0.0
 11
99.208549345283586
 21
181.5513250450349
 31
0.0
  0
DIMENSION
  5
2988
  8
DIM
  2
*D21
 10
122.487049102366
 20
214.45704118246039
 30
0.0
 11
111.987049102366
 21
216.95704118246039
 31
0.0
 70
     0
 13
101.487049102366
 23
201.55132504503499
 33
0.0
 14
122.487049102366
 24
201.55132504503499
 34
0.0
  0
DIMENSION
  5
2989
  8
DIM
  2
*D19
 10
122.487049102366
 20
206.42808982193259
 30
0.0
 11
118.4870491023658
 21
208.92808982193259
 31
0.0
 70
     0
 13
114.4870491023655
 23
186.30132504503499
 33
0.0
 14
122.487049102366
 24
201.55132504503499
 34
0.0
  0
LINE
  5
298A
  8
0
 10
122.487049102366
 20
176.75132504503549
 30
0.0
 11
101.4870491023658
 21
176.7513250450358
 31
0.0
  0
LINE
  5
298B
  8
0
 10
122.4870491023659
 20
173.35132504503559
 30
0.0
 11
101.4870491023659
 21
173.35132504503591
 31
0.0
  0
LINE
  5
298C
  8
0
 10
122.487049102366
 20
186.35132504503571
 30
0.0
 11
101.4870491023659
 21
186.35132504503599
 31
0.0
  0
LINE
  5
298D
  8
0
 10
122.487049102366
 20
189.75132504503549
 30
0.0
 11
101.4870491023659
 21
189.7513250450358
 31
0.0
  0
LINE
  5
298E
  8
0
 10
122.487049102366
 20
198.22040725686631
 30
0.0
 11
101.53356073027329
 21
198.22040725686659
 31
0.0
  0
LINE
  5
298F
  8
0
 10
122.4870491023658
 20
161.5513250450347
 30
0.0
 11
101.4870491023657
 21
161.55132504503499
 31
0.0
  0
LINE
  5
2990
  8
0
 10
122.4870491023658
 20
165.01046654252721
 30
0.0
 11
101.4870491023658
 21
165.01046654252781
 31
0.0
  0
LINE
  5
2991
  8
0
 10
122.487049102366
 20
201.55132504503499
 30
0.0
 11
101.487049102366
 21
201.55132504503499
 31
0.0
  0
LINE
  5
2992
  8
CENTER
 10
109.487049102366
 20
186.3013250450351
 30
0.0
 11
109.487049102366
 21
176.8013250450351
 31
0.0
  0
ARC
  5
2993
  8
DIM
 10
109.487049102366
 20
181.55132504503499
 30
0.0
 40
2.5
 50
165.1546885249054
 51
107.3098521012363
  0
CIRCLE
  5
2994
  8
0
 10
109.487049102366
 20
181.55132504503499
 30
0.0
 40
2.1000000000000001
  0
ARC
  5
2995
  8
DIM
 10
114.4870491023655
 20
181.55132504503499
 30
0.0
 40
2.5
 50
72.690147898763684
 51
14.84531147509457
  0
LINE
  5
2996
  8
CENTER
 10
114.4870491023655
 20
186.30132504503499
 30
0.0
 11
114.4870491023655
 21
176.80132504503499
 31
0.0
  0
CIRCLE
  5
2997
  8
0
 10
114.4870491023655
 20
181.55132504503499
 30
0.0
 40
2.1000000000000001
  0
LINE
  5
2998
  8
0
 10
101.4870491023657
 20
161.55132504503499
 30
0.0
 11
101.487049102366
 21
181.55132504503499
 31
0.0
  0
DIMENSION
  5
2999
  8
DIM
  2
*D20
 10
101.487049102366
 20
206.42808982193259
 30
0.0
 11
105.487049102366
 21
208.92808982193259
 31
0.0
 70
     0
 13
109.487049102366
 23
186.35132504503579
 33
0.0
 14
101.487049102366
 24
201.55132504503499
 34
0.0
  0
LINE
  5
299A
  8
0
 10
101.487049102366
 20
201.55132504503499
 30
0.0
 11
101.487049102366
 21
181.55132504503499
 31
0.0
  0
DIMENSION
  5
299B
  8
DIM
  2
*D26
 10
155.52430885096121
 20
175.5513250450347
 30
0.0
 11
153.02430885096121
 21
181.55132504503479
 31
0.0
 70
     0
  1
%%c<>
 13
124.4870491023659
 23
187.55132504503479
 33
0.0
 14
124.4870491023658
 24
175.5513250450347
 34
0.0
 50
90.0
  0
DIMENSION
  5
299C
  8
DIM
  2
*D25
 10
163.06655740143421
 20
173.05132504503459
 30
0.0
 11
160.56655740143421
 21
181.55132504503479
 31
0.0
 70
     0
  1
%%c<>
 13
123.9870491023659
 23
190.0513250450349
 33
0.0
 14
123.9870491023658
 24
173.05132504503459
 34
0.0
 50
90.0
  0
LINE
  5
299D
  8
0
 10
128.48204910236629
 20
176.55132504503499
 30
0.0
 11
128.48204910236629
 21
186.55132504503499
 31
0.0
  0
LINE
  5
299E
  8
0
 10
125.4820491023663
 20
178.42882604583579
 30
0.0
 11
126.9820491023663
 21
181.55132504503499
 31
0.0
  0
LINE
  5
299F
  8
0
 10
124.4870491023658
 20
181.5513250450347
 30
0.0
 11
124.4870491023658
 21
173.55132504503459
 31
0.0
  0
ARC
  5
29A0
  8
0
 10
129.8570491023662
 20
181.55132504503499
 30
0.0
 40
5.3749999999998144
 50
180.0
 51
215.5159837645358
  0
LINE
  5
29A1
  8
0
 10
125.4820491023663
 20
178.42882604583579
 30
0.0
 11
125.4820491023663
 21
181.55132504503499
 31
0.0
  0
LINE
  5
29A2
  8
0
 10
126.9820491023663
 20
181.55132504503499
 30
0.0
 11
128.48204910236629
 21
178.42882604583579
 31
0.0
  0
LINE
  5
29A3
  8
0
 10
122.487049102366
 20
181.5513250450349
 30
0.0
 11
122.4870491023658
 21
161.5513250450347
 31
0.0
  0
LINE
  5
29A4
  8
0
 10
143.487049102366
 20
176.5513250450355
 30
0.0
 11
139.26100813882061
 21
176.5513250450353
 31
0.0
  0
LINE
  5
29A5
  8
0
 10
128.48204910236629
 20
178.42882604583579
 30
0.0
 11
125.4820491023663
 21
178.42882604583579
 31
0.0
  0
ARC
  5
29A6
  8
0
 10
123.9870491023658
 20
173.55132504503459
 30
0.0
 40
0.5
 50
270.00000000000318
 51
0.0
  0
LINE
  5
29A7
  8
0
 10
123.9870491023659
 20
173.05132504503459
 30
0.0
 11
122.4870491023659
 21
173.05132504503459
 31
0.0
  0
LINE
  5
29A8
  8
0
 10
124.4870491023661
 20
175.55132504503499
 30
0.0
 11
125.4820491023665
 21
176.55132504503479
 31
0.0
  0
LINE
  5
29A9
  8
0
 10
126.74999829479739
 20
176.55132504503479
 30
0.0
 11
126.74999829479739
 21
178.42882604583579
 31
0.0
  0
LINE
  5
29AA
  8
0
 10
122.487049102366
 20
181.55132504503499
 30
0.0
 11
122.487049102366
 21
201.55132504503499
 31
0.0
  0
LINE
  5
29AB
  8
0
 10
125.4820491023663
 20
184.67382404423401
 30
0.0
 11
126.9820491023663
 21
181.5513250450349
 31
0.0
  0
LINE
  5
29AC
  8
0
 10
143.487049102366
 20
186.55132504503499
 30
0.0
 11
139.26100813882039
 21
186.55132504503499
 31
0.0
  0
LINE
  5
29AD
  8
0
 10
128.4820491023664
 20
184.6738240442339
 30
0.0
 11
125.4820491023663
 21
184.67382404423401
 31
0.0
  0
ARC
  5
29AE
  8
0
 10
123.9870491023659
 20
189.5513250450349
 30
0.0
 40
0.5
 50
0.0
 51
89.999999999996746
  0
LINE
  5
29AF
  8
0
 10
125.4820491023663
 20
184.67382404423401
 30
0.0
 11
125.4820491023663
 21
181.5513250450349
 31
0.0
  0
LINE
  5
29B0
  8
0
 10
124.4870491023659
 20
189.5513250450349
 30
0.0
 11
124.4820491023663
 21
181.55132504503499
 31
0.0
  0
LINE
  5
29B1
  8
0
 10
124.4870491023659
 20
187.55132504503479
 30
0.0
 11
125.4820491023663
 21
186.55132504503499
 31
0.0
  0
ARC
  5
29B2
  8
0
 10
129.8570491023662
 20
181.5513250450347
 30
0.0
 40
5.3749999999998144
 50
144.4840162354626
 51
179.99999999999841
  0
LINE
  5
29B3
  8
0
 10
123.9870491023659
 20
190.0513250450349
 30
0.0
 11
122.487049102366
 21
190.0513250450349
 31
0.0
  0
LINE
  5
29B4
  8
0
 10
126.74999829479761
 20
186.55132504503499
 30
0.0
 11
126.74999829479751
 21
184.67382404423401
 31
0.0
  0
LINE
  5
29B5
  8
0
 10
126.9820491023663
 20
181.5513250450349
 30
0.0
 11
128.4820491023664
 21
184.6738240442339
 31
0.0
  0
INSERT
  5
29B6
  8
0
  2
*U34
 10
0.0
 20
0.0
 30
0.0
  0
POLYLINE
  8
0
  5
2F68
  66
     1
 10
0.000000
 20
0.000000
 30
0.000000
  70
     8
  0
VERTEX
  8
0
  5
2F69
 10
221.217
 20
195.551
 30
0.000000
  70
    32
  0
VERTEX
  8
0
  5
2F6A
 10
231.549
 20
218.826
 30
0.000000
  70
    32
  0
VERTEX
  8
0
  5
2F6B
 10
234.549
 20
218.826
 30
0.000000
  70
    32
  0
SEQEND
  8
0
  5
2F6C
  0
LINE
  5
29B9
  8
0
 10
205.9165543439708
 20
198.55632504503461
 30
0.0
 11
197.31655434397069
 21
198.55632504503461
 31
0.0
  0
LINE
  5
29BA
  8
CENTER
 10
210.2165543439707
 20
181.5513250450347
 30
0.0
 11
204.2165543439707
 21
181.5513250450347
 31
0.0
  0
LINE
  5
29BB
  8
0
 10
210.53317913432639
 20
186.55132504503479
 30
0.0
 11
203.8999295536149
 21
186.55132504503479
 31
0.0
  0
LINE
  5
29BC
  8
0
 10
197.31655434397069
 20
164.54632504503499
 30
0.0
 11
205.91655434397069
 21
164.54632504503499
 31
0.0
  0
LINE
  5
29BD
  8
0
 10
203.8999295536149
 20
176.5513250450347
 30
0.0
 11
210.53317913432639
 21
176.5513250450347
 31
0.0
  0
LINE
  5
29BE
  8
0
 10
210.53317913432639
 20
176.5513250450347
 30
0.0
 11
203.8999295536149
 21
176.5513250450347
 31
0.0
  0
CIRCLE
  5
29BF
  8
0
 10
207.2165543439707
 20
181.5513250450347
 30
0.0
 40
13.50775365504402
  0
ARC
  5
29C0
  8
0
 10
208.2165543439707
 20
181.5513250450347
 30
0.0
 40
12.5
 50
52.069314781602102
 51
307.9306852183978
  0
CIRCLE
  5
29C1
  8
0
 10
207.2165543439707
 20
181.5513250450347
 30
0.0
 40
8.5000000000001421
  0
CIRCLE
  5
29C3
  8
0
 10
207.2165543439707
 20
181.5513250450347
 30
0.0
 40
5.0000000000001981
  0
CIRCLE
  5
29C4
  8
0
 10
207.2165543439707
 20
181.5513250450347
 30
0.0
 40
6.0000000000001839
  0
DIMENSION
  5
29C6
  8
DIM
  2
*D28
 10
171.97576133433739
 20
161.55132504503459
 30
0.0
 11
169.47576133433739
 21
181.55132504503479
 31
0.0
 70
     0
  1
\U+25A1<>
 13
190.67569584146241
 23
201.55132504503499
 33
0.0
 14
190.6756958414623
 24
161.55132504503459
 34
0.0
 50
90.0
  0
DIMENSION
  5
29C7
  8
DIM
  2
*D27
 10
180.5592449879982
 20
167.5513250450347
 30
0.0
 11
178.0592449879982
 21
181.55132504503479
 31
0.0
 70
     0
  1
\U+25A1<>
 13
188.4665543439707
 23
195.5513250450347
 33
0.0
 14
188.4665543439707
 24
167.5513250450347
 34
0.0
 50
90.0
  0
LINE
  5
29C8
  8
0
 10
202.2165543439707
 20
184.86794983539039
 30
0.0
 11
202.2165543439707
 21
178.23470025467901
 31
0.0
  0
LINE
  5
29C9
  8
0
 10
187.2165543439707
 20
186.35132504503491
 30
0.0
 11
187.21655434397061
 21
176.7513250450346
 31
0.0
  0
LINE
  5
29CA
  8
0
 10
190.67569584146241
 20
161.5513250450347
 30
0.0
 11
198.61655434397071
 21
161.5513250450347
 31
0.0
  0
LINE
  5
29CB
  8
CENTER
 10
197.56655434397069
 20
167.5513250450347
 30
0.0
 11
188.4665543439707
 21
167.5513250450347
 31
0.0
  0
CIRCLE
  5
29CC
  8
0
 10
193.2165543439707
 20
167.5513250450347
 30
0.0
 40
2.5499999999999989
  0
CIRCLE
  5
29CD
  8
0
 10
193.2165543439707
 20
167.5513250450347
 30
0.0
 40
4.0
  0
ARC
  5
29CE
  8
DIM
 10
193.2165543439707
 20
167.5513250450347
 30
0.0
 40
3.0
 50
255.53517889307969
 51
198.86246051801231
  0
LINE
  5
29CF
  8
0
 10
187.2165543439707
 20
173.35132504503491
 30
0.0
 11
187.2165543439707
 21
165.01046654252681
 31
0.0
  0
LINE
  5
29D0
  8
CENTER
 10
193.2165543439707
 20
172.3013250450347
 30
0.0
 11
193.2165543439707
 21
162.8013250450347
 31
0.0
  0
ARC
  5
29D1
  8
0
 10
207.2165543439707
 20
181.5513250450347
 30
0.0
 40
26.0
 50
219.87527735708389
 51
230.12472264291719
  0
ARC
  5
29D2
  8
0
 10
187.4165543439706
 20
165.01046654252681
 30
0.0
 40
0.2
 50
180.0
 51
219.87527735708491
  0
ARC
  5
29D3
  8
0
 10
190.6756958414623
 20
161.75132504503449
 30
0.0
 40
0.2
 50
230.12472264291259
 51
270.0
  0
LINE
  5
29D4
  8
0
 10
190.81655434397061
 20
177.20132504503471
 30
0.0
 11
188.71655434397061
 21
177.20132504503471
 31
0.0
  0
LINE
  5
29D5
  8
0
 10
188.71655434397061
 20
172.90132504503481
 30
0.0
 11
190.81655434397061
 21
172.90132504503481
 31
0.0
  0
LINE
  5
29D6
  8
CENTER
 10
186.72779888989999
 20
175.05132504503479
 30
0.0
 11
193.21621787627279
 21
175.05132504503479
 31
0.0
  0
LINE
  5
29D7
  8
0
 10
188.21655434397061
 20
173.35132504503471
 30
0.0
 11
188.71655434397061
 21
172.90132504503481
 31
0.0
  0
LINE
  5
29D8
  8
0
 10
188.21655434397061
 20
176.7513250450348
 30
0.0
 11
188.71655434397061
 21
177.20132504503471
 31
0.0
  0
LINE
  5
29D9
  8
0
 10
188.21655434397061
 20
176.7513250450348
 30
0.0
 11
187.21655434397061
 21
176.7513250450348
 31
0.0
  0
LINE
  5
29DA
  8
0
 10
187.21655434397061
 20
173.35132504503471
 30
0.0
 11
188.21655434397061
 21
173.35132504503471
 31
0.0
  0
ARC
  5
29DB
  8
0
 10
190.81655434397061
 20
174.60132504503471
 30
0.0
 40
1.7
 50
270.0
 51
0.0
  0
ARC
  5
29DC
  8
0
 10
190.81655434397061
 20
175.5013250450348
 30
0.0
 40
1.7
 50
0.0
 51
90.0
  0
LINE
  5
29DD
  8
0
 10
192.51655434397051
 20
174.60132504503471
 30
0.0
 11
192.51655434397051
 21
175.5013250450348
 31
0.0
  0
LINE
  5
29DE
  8
0
 10
197.31655434397069
 20
163.24632504503481
 30
0.0
 11
198.61655434397071
 21
163.24632504503481
 31
0.0
  0
ARC
  5
29DF
  8
0
 10
197.31655434397061
 20
164.34632504503469
 30
0.0
 40
0.2
 50
90.0
 51
180.0
  0
ARC
  5
29E0
  8
0
 10
197.31655434397061
 20
163.4463250450346
 30
0.0
 40
0.2
 50
180.0
 51
270.0
  0
LINE
  5
29E1
  8
0
 10
197.11655434397059
 20
164.34632504503469
 30
0.0
 11
197.11655434397059
 21
163.4463250450346
 31
0.0
  0
ARC
  5
29E2
  8
0
 10
198.61655434397071
 20
161.75132504503449
 30
0.0
 40
0.2
 50
270.0
 51
359.9999999999967
  0
LINE
  5
29E3
  8
0
 10
198.81655434397061
 20
163.04632504503499
 30
0.0
 11
198.81655434397061
 21
161.75132504503449
 31
0.0
  0
ARC
  5
29E4
  8
0
 10
198.61655434397071
 20
163.04632504503499
 30
0.0
 40
0.2
 50
359.9999999999967
 51
90.0
  0
LINE
  5
29E5
  8
0
 10
190.67569584146241
 20
201.5513250450347
 30
0.0
 11
198.61655434397071
 21
201.5513250450347
 31
0.0
  0
CIRCLE
  5
29E6
  8
0
 10
193.2165543439707
 20
195.5513250450347
 30
0.0
 40
4.0
  0
CIRCLE
  5
29E7
  8
0
 10
193.2165543439707
 20
195.5513250450347
 30
0.0
 40
2.5499999999999989
  0
ARC
  5
29E8
  8
DIM
 10
193.2165543439707
 20
195.5513250450347
 30
0.0
 40
3.0
 50
255.53517889307969
 51
198.86246051801231
  0
LINE
  5
29E9
  8
CENTER
 10
197.9665543439707
 20
195.5513250450347
 30
0.0
 11
188.4665543439707
 21
195.5513250450347
 31
0.0
  0
LINE
  5
29EA
  8
CENTER
 10
201.2165543439707
 20
181.5513250450347
 30
0.0
 11
185.16387349173559
 21
181.5513250450347
 31
0.0
  0
LINE
  5
29EB
  8
CENTER
 10
193.2165543439707
 20
200.3013250450347
 30
0.0
 11
193.2165543439707
 21
190.8013250450347
 31
0.0
  0
LINE
  5
29EC
  8
0
 10
187.2165543439707
 20
198.0921835475427
 30
0.0
 11
187.2165543439707
 21
189.75132504503449
 31
0.0
  0
LINE
  5
29ED
  8
0
 10
190.81655434397061
 20
190.20132504503479
 30
0.0
 11
188.71655434397061
 21
190.20132504503471
 31
0.0
  0
LINE
  5
29EE
  8
0
 10
188.71655434397061
 20
185.9013250450347
 30
0.0
 11
190.81655434397061
 21
185.9013250450347
 31
0.0
  0
LINE
  5
29EF
  8
CENTER
 10
186.7277988899001
 20
188.0513250450347
 30
0.0
 11
193.21621787627279
 21
188.0513250450347
 31
0.0
  0
LINE
  5
29F0
  8
0
 10
188.21655434397061
 20
186.35132504503471
 30
0.0
 11
188.71655434397061
 21
185.9013250450347
 31
0.0
  0
LINE
  5
29F1
  8
0
 10
187.21655434397061
 20
186.35132504503471
 30
0.0
 11
188.21655434397061
 21
186.35132504503471
 31
0.0
  0
LINE
  5
29F2
  8
0
 10
188.21655434397061
 20
189.7513250450348
 30
0.0
 11
188.71655434397061
 21
190.20132504503471
 31
0.0
  0
LINE
  5
29F3
  8
0
 10
188.2165543439707
 20
189.7513250450348
 30
0.0
 11
187.21655434397061
 21
189.7513250450348
 31
0.0
  0
ARC
  5
29F4
  8
0
 10
190.81655434397061
 20
188.5013250450348
 30
0.0
 40
1.7
 50
0.0
 51
90.0
  0
ARC
  5
29F5
  8
0
 10
190.81655434397061
 20
187.60132504503471
 30
0.0
 40
1.7
 50
270.0
 51
0.0
  0
LINE
  5
29F6
  8
0
 10
192.5165543439706
 20
187.60132504503471
 30
0.0
 11
192.5165543439706
 21
188.5013250450348
 31
0.0
  0
ARC
  5
29F7
  8
0
 10
207.2165543439707
 20
181.5513250450347
 30
0.0
 40
26.0
 50
129.87527735708269
 51
140.124722642916
  0
ARC
  5
29F8
  8
0
 10
187.41655434397069
 20
198.0921835475427
 30
0.0
 40
0.2
 50
140.12472264291961
 51
180.0
  0
ARC
  5
29F9
  8
0
 10
190.67569584146241
 20
201.351325045035
 30
0.0
 40
0.2
 50
90.0
 51
129.8752773570873
  0
LINE
  5
29FA
  8
0
 10
198.61655434397071
 20
199.85632504503479
 30
0.0
 11
197.31655434397069
 21
199.85632504503479
 31
0.0
  0
ARC
  5
29FB
  8
0
 10
197.31655434397069
 20
199.656325045035
 30
0.0
 40
0.2
 50
90.0
 51
180.0
  0
LINE
  5
29FC
  8
0
 10
197.11655434397079
 20
198.7563250450344
 30
0.0
 11
197.11655434397079
 21
199.656325045035
 31
0.0
  0
ARC
  5
29FD
  8
0
 10
197.31655434397069
 20
198.7563250450344
 30
0.0
 40
0.2
 50
180.0
 51
270.0
  0
LINE
  5
29FE
  8
0
 10
198.81655434397081
 20
200.05632504503461
 30
0.0
 11
198.81655434397081
 21
201.351325045035
 31
0.0
  0
ARC
  5
29FF
  8
0
 10
198.61655434397071
 20
200.05632504503461
 30
0.0
 40
0.2
 50
270.0
 51
0.0
  0
ARC
  5
2A00
  8
0
 10
198.61655434397071
 20
201.351325045035
 30
0.0
 40
0.2
 50
0.0
 51
90.0
  0
ARC
  5
2A02
  8
0
 10
227.01655434397091
 20
190.15132504503481
 30
0.0
 40
0.2
 50
270.0
 51
0.0
  0
ARC
  5
2A03
  8
0
 10
227.01655434397091
 20
180.65132504503481
 30
0.0
 40
0.2
 50
270.0
 51
0.0
  0
ARC
  5
2A04
  8
0
 10
227.01655434397091
 20
182.45132504503471
 30
0.0
 40
0.2
 50
359.9999999999967
 51
90.0
  0
ARC
  5
2A05
  8
0
 10
207.2165543439707
 20
181.5513250450347
 30
0.0
 40
26.0
 50
39.875277357083931
 51
50.124722642917263
  0
ARC
  5
2A06
  8
0
 10
227.01655434397091
 20
172.95132504503471
 30
0.0
 40
0.2
 50
0.0
 51
89.999999999998394
  0
ARC
  5
2A07
  8
0
 10
207.2165543439707
 20
181.5513250450347
 30
0.0
 40
26.0
 50
309.87527735708272
 51
320.12472264291603
  0
LINE
  5
2A08
  8
0
 10
212.2165543439707
 20
178.23470025467901
 30
0.0
 11
212.2165543439707
 21
184.86794983539039
 31
0.0
  0
LINE
  5
2A09
  8
CENTER
 10
207.2165543439707
 20
178.5513250450347
 30
0.0
 11
207.2165543439707
 21
184.5513250450347
 31
0.0
  0
ARC
  5
2A0A
  8
0
 10
218.194255175005
 20
176.22872375766551
 30
0.0
 40
2.2999999999999989
 50
75.000000000000853
 51
154.1333065214435
  0
ARC
  5
2A0B
  8
0
 10
214.48657300994921
 20
173.50602418501211
 30
0.0
 40
2.2999999999999989
 50
307.9306852183978
 51
36.291329468957088
  0
LINE
  5
2A0C
  8
0
 10
208.5165543439706
 20
164.54632504503499
 30
0.0
 11
217.11655434397071
 21
164.54632504503499
 31
0.0
  0
LINE
  5
2A0D
  8
0
 10
215.81655434397069
 20
163.24632504503481
 30
0.0
 11
217.11655434397071
 21
163.24632504503481
 31
0.0
  0
LINE
  5
2A0E
  8
0
 10
215.81655434397069
 20
161.5513250450347
 30
0.0
 11
223.75741284647879
 21
161.5513250450347
 31
0.0
  0
ARC
  5
2A0F
  8
0
 10
208.5165543439706
 20
164.3463250450352
 30
0.0
 40
0.2
 50
90.0
 51
180.0
  0
ARC
  5
2A10
  8
0
 10
205.9165543439706
 20
164.34632504503469
 30
0.0
 40
0.2
 50
0.0
 51
90.0
  0
ARC
  5
2A11
  8
0
 10
206.31655434397061
 20
161.75132504503449
 30
0.0
 40
0.2
 50
180.0
 51
270.0
  0
LINE
  5
2A12
  8
0
 10
206.11655434397059
 20
164.34632504503469
 30
0.0
 11
206.11655434397059
 21
161.75132504503449
 31
0.0
  0
ARC
  5
2A13
  8
0
 10
208.11655434397059
 20
161.75132504503449
 30
0.0
 40
0.2
 50
269.99999999999829
 51
0.0
  0
LINE
  5
2A14
  8
0
 10
208.31655434397069
 20
164.3463250450352
 30
0.0
 11
208.31655434397069
 21
161.75132504503449
 31
0.0
  0
LINE
  5
2A15
  8
0
 10
206.31655434397069
 20
161.5513250450347
 30
0.0
 11
208.11655434397059
 21
161.5513250450347
 31
0.0
  0
LINE
  5
2A16
  8
0
 10
215.61655434397059
 20
161.75132504503449
 30
0.0
 11
215.61655434397059
 21
161.75132504503449
 31
0.0
  0
ARC
  5
2A17
  8
0
 10
215.81655434397061
 20
161.75132504503449
 30
0.0
 40
0.2
 50
180.0
 51
270.0
  0
LINE
  5
2A18
  8
0
 10
215.61655434397059
 20
163.04632504503499
 30
0.0
 11
215.61655434397059
 21
161.75132504503449
 31
0.0
  0
ARC
  5
2A19
  8
0
 10
215.81655434397061
 20
163.04632504503499
 30
0.0
 40
0.2
 50
90.0
 51
180.0
  0
LINE
  5
2A1A
  8
CENTER
 10
207.2165543439707
 20
175.5513250450347
 30
0.0
 11
207.2165543439707
 21
166.0513250450347
 31
0.0
  0
ARC
  5
2A1B
  8
0
 10
218.194255175005
 20
176.22872375766551
 30
0.0
 40
2.2999999999999989
 50
154.1333065214435
 51
216.29132946895709
  0
ARC
  5
2A1C
  8
0
 10
207.2165543439707
 20
181.5513250450347
 30
0.0
 40
9.9000000000000004
 50
334.1333065214435
 51
334.1333065214435
  0
CIRCLE
  5
2A1D
  8
0
 10
221.2165543439707
 20
167.5513250450347
 30
0.0
 40
2.5499999999999989
  0
ARC
  5
2A1E
  8
DIM
 10
221.2165543439707
 20
167.5513250450347
 30
0.0
 40
3.0
 50
255.53517889307969
 51
198.86246051801231
  0
CIRCLE
  5
2A1F
  8
0
 10
221.2165543439707
 20
167.5513250450347
 30
0.0
 40
4.0
  0
LINE
  5
2A20
  8
CENTER
 10
221.2165543439707
 20
172.3013250450347
 30
0.0
 11
221.2165543439707
 21
162.8013250450347
 31
0.0
  0
ARC
  5
2A21
  8
0
 10
217.11655434397059
 20
164.3463250450352
 30
0.0
 40
0.2
 50
0.0
 51
90.0
  0
ARC
  5
2A22
  8
0
 10
217.11655434397059
 20
163.4463250450346
 30
0.0
 40
0.2
 50
270.0
 51
0.0
  0
LINE
  5
2A23
  8
0
 10
217.31655434397061
 20
164.3463250450352
 30
0.0
 11
217.31655434397061
 21
163.4463250450346
 31
0.0
  0
ARC
  5
2A24
  8
0
 10
223.75741284647879
 20
161.75132504503449
 30
0.0
 40
0.2
 50
270.0
 51
309.87527735708142
  0
LINE
  5
2A25
  8
CENTER
 10
225.9665543439707
 20
167.5513250450347
 30
0.0
 11
216.46655434397061
 21
167.5513250450347
 31
0.0
  0
LINE
  5
2A26
  8
0
 10
218.78953897874081
 20
178.4503531581303
 30
0.0
 11
220.26404245452829
 21
178.05526114255619
 31
0.0
  0
CIRCLE
  5
2A27
  8
0
 10
218.194255175005
 20
176.22872375766551
 30
0.0
 40
1.0
  0
LINE
  5
2A28
  8
0
 10
224.2215543439705
 20
171.65132504503481
 30
0.0
 11
224.2215543439705
 21
180.2513250450348
 31
0.0
  0
ARC
  5
2A29
  8
0
 10
224.42155434397071
 20
171.65132504503481
 30
0.0
 40
0.2
 50
180.0
 51
270.0
  0
ARC
  5
2A2A
  8
0
 10
225.7215543439705
 20
172.95132504503471
 30
0.0
 40
0.2
 50
89.999999999998394
 51
180.0
  0
LINE
  5
2A2B
  8
0
 10
225.7215543439705
 20
173.1513250450347
 30
0.0
 11
227.01655434397091
 21
173.1513250450347
 31
0.0
  0
ARC
  5
2A2C
  8
0
 10
225.3215543439708
 20
171.65132504503481
 30
0.0
 40
0.2
 50
270.0
 51
0.0
  0
LINE
  5
2A2D
  8
0
 10
224.4215543439708
 20
171.45132504503471
 30
0.0
 11
225.32155434397089
 21
171.45132504503471
 31
0.0
  0
LINE
  5
2A2E
  8
0
 10
225.52155434397071
 20
171.65132504503481
 30
0.0
 11
225.52155434397071
 21
172.95132504503471
 31
0.0
  0
ARC
  5
2A2F
  8
0
 10
224.42155434397071
 20
180.2513250450348
 30
0.0
 40
0.2
 50
90.0
 51
180.0
  0
LINE
  5
2A30
  8
0
 10
224.4215543439708
 20
180.45132504503471
 30
0.0
 11
227.01655434397091
 21
180.45132504503471
 31
0.0
  0
LINE
  5
2A31
  8
0
 10
215.81655434397069
 20
201.5513250450347
 30
0.0
 11
223.75741284647879
 21
201.5513250450347
 31
0.0
  0
LINE
  5
2A32
  8
0
 10
217.11655434397079
 20
199.85632504503479
 30
0.0
 11
215.81655434397069
 21
199.85632504503479
 31
0.0
  0
LINE
  5
2A33
  8
0
 10
217.11655434397079
 20
198.55632504503461
 30
0.0
 11
208.5165543439706
 21
198.55632504503461
 31
0.0
  0
LINE
  5
2A34
  8
CENTER
 10
213.2165543439707
 20
181.5513250450347
 30
0.0
 11
222.7165543439707
 21
181.5513250450347
 31
0.0
  0
ARC
  5
2A35
  8
0
 10
218.194255175005
 20
186.87392633240401
 30
0.0
 40
2.2999999999999989
 50
205.86669347855641
 51
284.99999999999909
  0
ARC
  5
2A36
  8
0
 10
214.48657300994921
 20
189.59662590505749
 30
0.0
 40
2.2999999999999989
 50
323.7086705310428
 51
52.069314781602102
  0
LINE
  5
2A37
  8
CENTER
 10
207.2165543439707
 20
187.55132504503479
 30
0.0
 11
207.2165543439707
 21
197.0513250450347
 31
0.0
  0
ARC
  5
2A38
  8
0
 10
207.2165543439707
 20
181.5513250450347
 30
0.0
 40
9.9000000000000004
 50
25.86669347855641
 51
25.86669347855641
  0
ARC
  5
2A39
  8
0
 10
218.194255175005
 20
186.8739263324041
 30
0.0
 40
2.2999999999999989
 50
143.7086705310428
 51
205.86669347855641
  0
ARC
  5
2A3A
  8
0
 10
208.5165543439706
 20
198.75632504503491
 30
0.0
 40
0.2
 50
180.0
 51
270.0
  0
LINE
  5
2A3B
  8
0
 10
208.11655434397071
 20
201.5513250450349
 30
0.0
 11
206.31655434397081
 21
201.5513250450349
 31
0.0
  0
LINE
  5
2A3C
  8
0
 10
206.11655434397071
 20
198.7563250450344
 30
0.0
 11
206.11655434397071
 21
201.351325045035
 31
0.0
  0
ARC
  5
2A3D
  8
0
 10
205.9165543439708
 20
198.7563250450344
 30
0.0
 40
0.2
 50
270.0
 51
0.0
  0
LINE
  5
2A3E
  8
0
 10
208.31655434397069
 20
198.75632504503491
 30
0.0
 11
208.31655434397069
 21
201.351325045035
 31
0.0
  0
ARC
  5
2A3F
  8
0
 10
206.31655434397081
 20
201.351325045035
 30
0.0
 40
0.2
 50
89.999999999998394
 51
180.0
  0
ARC
  5
2A40
  8
0
 10
208.11655434397071
 20
201.351325045035
 30
0.0
 40
0.2
 50
0.0
 51
90.0
  0
LINE
  5
2A41
  8
0
 10
215.61655434397079
 20
200.05632504503461
 30
0.0
 11
215.61655434397079
 21
201.351325045035
 31
0.0
  0
ARC
  5
2A42
  8
0
 10
215.81655434397069
 20
200.05632504503461
 30
0.0
 40
0.2
 50
179.9999999999967
 51
270.0
  0
ARC
  5
2A43
  8
0
 10
215.81655434397069
 20
201.351325045035
 30
0.0
 40
0.2
 50
90.0
 51
179.9999999999967
  0
LINE
  5
2A44
  8
CENTER
 10
221.2165543439707
 20
200.3013250450347
 30
0.0
 11
221.2165543439707
 21
190.8013250450347
 31
0.0
  0
CIRCLE
  5
2A45
  8
0
 10
221.2165543439707
 20
195.5513250450347
 30
0.0
 40
4.0
  0
CIRCLE
  5
2A46
  8
0
 10
221.2165543439707
 20
195.5513250450347
 30
0.0
 40
2.5499999999999989
  0
ARC
  5
2A47
  8
DIM
 10
221.2165543439707
 20
195.5513250450347
 30
0.0
 40
3.0
 50
255.53517889307969
 51
198.86246051801231
  0
LINE
  5
2A48
  8
CENTER
 10
225.9665543439707
 20
195.5513250450347
 30
0.0
 11
216.46655434397061
 21
195.5513250450347
 31
0.0
  0
CIRCLE
  5
2A49
  8
0
 10
218.194255175005
 20
186.87392633240401
 30
0.0
 40
1.0
  0
LINE
  5
2A4A
  8
0
 10
218.78953897874081
 20
184.65229693193911
 30
0.0
 11
220.26404245452829
 21
185.0473889475133
 31
0.0
  0
LINE
  5
2A4B
  8
0
 10
224.2215543439705
 20
182.85132504503471
 30
0.0
 11
224.2215543439705
 21
191.45132504503471
 31
0.0
  0
ARC
  5
2A4C
  8
0
 10
224.42155434397031
 20
182.85132504503471
 30
0.0
 40
0.2
 50
180.0
 51
270.0
  0
LINE
  5
2A4D
  8
0
 10
224.42155434397031
 20
182.65132504503481
 30
0.0
 11
227.01655434397091
 21
182.65132504503481
 31
0.0
  0
ARC
  5
2A4E
  8
0
 10
224.42155434397031
 20
191.45132504503471
 30
0.0
 40
0.2
 50
90.0
 51
180.0
  0
ARC
  5
2A4F
  8
0
 10
225.3215543439708
 20
191.45132504503471
 30
0.0
 40
0.2
 50
0.0
 51
90.0
  0
LINE
  5
2A50
  8
0
 10
224.42155434397031
 20
191.65132504503461
 30
0.0
 11
225.32155434397089
 21
191.65132504503461
 31
0.0
  0
LINE
  5
2A51
  8
0
 10
225.7215543439705
 20
189.95132504503471
 30
0.0
 11
227.01655434397091
 21
189.95132504503471
 31
0.0
  0
ARC
  5
2A52
  8
0
 10
225.7215543439705
 20
190.15132504503481
 30
0.0
 40
0.2
 50
180.0
 51
270.0
  0
LINE
  5
2A53
  8
0
 10
225.52155434397071
 20
190.15132504503481
 30
0.0
 11
225.52155434397071
 21
191.45132504503471
 31
0.0
  0
ARC
  5
2A54
  8
0
 10
217.11655434397079
 20
199.656325045035
 30
0.0
 40
0.2
 50
0.0
 51
90.0
  0
LINE
  5
2A55
  8
0
 10
217.31655434397081
 20
198.75632504503491
 30
0.0
 11
217.31655434397081
 21
199.656325045035
 31
0.0
  0
ARC
  5
2A56
  8
0
 10
217.11655434397079
 20
198.75632504503491
 30
0.0
 40
0.2
 50
270.0
 51
0.0
  0
ARC
  5
2A57
  8
0
 10
223.75741284647879
 20
201.351325045035
 30
0.0
 40
0.2
 50
50.124722642918542
 51
90.0
  0
LINE
  5
2A58
  8
0
 10
227.2165543439707
 20
180.65132504503481
 30
0.0
 11
227.2165543439707
 21
182.45132504503471
 31
0.0
  0
LINE
  5
2A59
  8
0
 10
227.2165543439707
 20
172.95132504503471
 30
0.0
 11
227.2165543439707
 21
165.01046654252681
 31
0.0
  0
ARC
  5
2A5A
  8
0
 10
227.0165543439706
 20
165.01046654252681
 30
0.0
 40
0.2
 50
320.12472264291961
 51
0.0
  0
LINE
  5
2A5B
  8
0
 10
227.2165543439707
 20
198.0921835475427
 30
0.0
 11
227.2165543439707
 21
190.15132504503481
 31
0.0
  0
ARC
  5
2A5C
  8
0
 10
227.01655434397071
 20
198.0921835475427
 30
0.0
 40
0.2
 50
0.0
 51
39.875277357080421
  0
LINE
  5
2B37
  8
0
 10
144.487049102366
 20
177.5513250450355
 30
0.0
 11
144.487049102366
 21
185.55132504503499
 31
0.0
  0
LINE
  5
2B4A
  8
0
 10
143.487049102366
 20
186.55132504503499
 30
0.0
 11
144.487049102366
 21
185.55132504503499
 31
0.0
  0
LINE
  5
2B4B
  8
0
 10
144.487049102366
 20
177.5513250450355
 30
0.0
 11
143.487049102366
 21
176.5513250450355
 31
0.0
  0
LINE
  5
2B4C
  8
0
 10
143.487049102366
 20
186.55132504503499
 30
0.0
 11
143.487049102366
 21
176.5513250450355
 31
0.0
  0
LINE
  5
2B4D
  8
DIM
 10
144.112049102366
 20
185.92632504503499
 30
0.0
 11
139.26100813882039
 21
185.92632504503499
 31
0.0
  0
LINE
  5
2B4E
  8
DIM
 10
144.112049102366
 20
177.1763250450355
 30
0.0
 11
139.26100813882061
 21
177.1763250450353
 31
0.0
  0
LINE
  5
2B4F
  8
0
 10
129.487049102366
 20
176.5513250450349
 30
0.0
 11
129.487049102366
 21
186.55132504503499
 31
0.0
  0
LINE
  5
2B50
  8
0
 10
129.487049102366
 20
185.92632504503499
 30
0.0
 11
128.86204910236609
 21
186.5513250450349
 31
0.0
  0
LINE
  5
2B51
  8
0
 10
129.487049102366
 20
177.1763250450347
 30
0.0
 11
128.86204910236609
 21
176.55132504503479
 31
0.0
  0
DIMENSION
  5
2B6F
  8
DIM
  2
*D29
 10
129.487049102366
 20
206.4897074334838
 30
0.0
 11
136.987049102366
 21
208.9897074334838
 31
0.0
 70
     0
 13
144.487049102366
 23
185.55132504503499
 33
0.0
 14
129.487049102366
 24
186.55132504503499
 34
0.0
  0
ARC
  5
2B8C
  8
0
 10
122.2610081388205
 20
181.5513250450347
 30
0.0
 40
17.000000000000021
 50
343.0232811802349
 51
16.976718819766688
  0
LINE
  5
2B8D
  8
0
 10
139.26100813882061
 20
174.19010911286711
 30
0.0
 11
139.26100813882039
 21
188.91254097720261
 31
0.0
  0
ARC
  5
2B8E
  8
0
 10
150.2610081388207
 20
181.5513250450349
 30
0.0
 40
17.000000000000021
 50
163.0232811802349
 51
196.97671881976501
  0
LINE
  5
2B8F
  8
0
 10
133.26100813882061
 20
174.19010911286711
 30
0.0
 11
133.26100813882061
 21
188.91254097720261
 31
0.0
  0
ARC
  5
2B90
  8
0
 10
135.01100813882061
 20
174.19010911286711
 30
0.0
 40
4.2499999999999432
 50
324.73561031724529
 51
34.341093726746401
  0
ARC
  5
2B91
  8
0
 10
137.51100813882061
 20
174.19010911286711
 30
0.0
 40
4.2499999999999432
 50
145.65890627325351
 51
215.26438968275471
  0
LINE
  5
2B92
  8
0
 10
134.04089766987781
 20
171.7363704688112
 30
0.0
 11
138.48111860776331
 21
171.7363704688112
 31
0.0
  0
LINE
  5
2B93
  8
0
 10
134.0018090237304
 20
176.5876123079953
 30
0.0
 11
138.5202072539108
 21
176.5876123079953
 31
0.0
  0
ARC
  5
2B94
  8
0
 10
135.0110081388205
 20
188.91254097720261
 30
0.0
 40
4.2499999999999432
 50
325.65890627325672
 51
35.264389682756061
  0
ARC
  5
2B95
  8
0
 10
137.51100813882061
 20
188.91254097720261
 30
0.0
 40
4.2499999999999432
 50
144.7356103172452
 51
214.34109372674641
  0
LINE
  5
2B96
  8
0
 10
134.0018090237304
 20
186.5150377820745
 30
0.0
 11
138.52020725391071
 21
186.5150377820745
 31
0.0
  0
LINE
  5
2B97
  8
0
 10
134.04089766987781
 20
191.36627962125851
 30
0.0
 11
138.48111860776319
 21
191.36627962125851
 31
0.0
  0
LINE
  5
2B98
  8
DIM
 10
133.26100813882061
 20
185.92632504503499
 30
0.0
 11
129.487049102366
 21
185.92632504503499
 31
0.0
  0
LINE
  5
2B99
  8
0
 10
133.26100813882061
 20
186.55132504503499
 30
0.0
 11
125.4820491023663
 21
186.55132504503499
 31
0.0
  0
LINE
  5
2B9A
  8
DIM
 10
133.26100813882061
 20
177.1763250450351
 30
0.0
 11
129.487049102366
 21
177.17632504503499
 31
0.0
  0
LINE
  5
2B9B
  8
0
 10
133.26100813882061
 20
176.5513250450351
 30
0.0
 11
125.4820491023665
 21
176.55132504503479
 31
0.0
  0
POLYLINE
  8
0
  5
2F6D
  66
     1
 10
0.000000
 20
0.000000
 30
0.000000
  70
     8
  0
VERTEX
  8
0
  5
2F6E
 10
141.374
 20
186.551
 30
0.000000
  70
    32
  0
VERTEX
  8
0
  5
2F6F
 10
150.038
 20
209.037
 30
0.000000
  70
    32
  0
VERTEX
  8
0
  5
2F70
 10
153.038
 20
209.037
 30
0.000000
  70
    32
  0
SEQEND
  8
0
  5
2F71
  0
TEXT
  5
2B9D
  8
0
 10
154.03838253895171
 20
210.03688215305391
 30
0.0
 40
3.0
  1
M10*1.25
  7
CHINESET
  0
ARC
  5
2BAB
  8
DIM
 10
207.2165543439707
 20
181.5513250450347
 30
0.0
 40
4.3750000000002274
 50
168.6453955648428
 51
113.1134752417864
  0
DIMENSION
  5
2BB6
  8
DIM
  2
*D30
 10
202.2165543439707
 20
152.9661368120459
 30
0.0
 11
207.2165543439707
 21
155.4661368120459
 31
0.0
 70
     0
 13
212.2165543439707
 23
178.23470025467901
 33
0.0
 14
202.2165543439707
 24
178.23470025467901
 34
0.0
  0
DIMENSION
  5
2BC3
  8
DIM
  2
*D31
 10
201.4380452246557
 20
45.212920759600138
 30
0.0
 11
206.4380452246557
 21
47.712920759600138
 31
0.0
 70
     0
 13
211.4380452246557
 23
73.316162588248545
 33
0.0
 14
201.4380452246557
 24
73.316162588248517
 34
0.0
  0
ENDSEC
  0
EOF
