  0
SECTION
  2
HEADER
  9
$ACADVER
  1
AC1012
  9
$DWGCODEPAGE
  3
big5
  9
$INSBASE
 10
0.0
 20
0.0
 30
0.0
  9
$EXTMIN
 10
-0.4789582232191379
 20
-0.4674391976606103
 30
-0.0015258207003583
  9
$EXTMAX
 10
271.6360885661943
 20
325.944201763787
 30
0.0000000349246037
  9
$LIMMIN
 10
0.0
 20
0.0
  9
$LIMMAX
 10
12.0
 20
9.0
  9
$ORTHOMODE
 70
     1
  9
$REGENMODE
 70
     1
  9
$FILLMODE
 70
     1
  9
$QTEXTMODE
 70
     0
  9
$MIRRTEXT
 70
     1
  9
$DRAGMODE
 70
     2
  9
$LTSCALE
 40
5.0
  9
$OSMODE
 70
    55
  9
$ATTMODE
 70
     1
  9
$TEXTSIZE
 40
4.5
  9
$TRACEWID
 40
0.05
  9
$TEXTSTYLE
  7
CHINESET
  9
$CLAYER
  8
0
  9
$CELTYPE
  6
BYLAYER
  9
$CECOLOR
 62
   256
  9
$CELTSCALE
 40
1.0
  9
$DELOBJ
 70
     1
  9
$DISPSILH
 70
     0
  9
$DIMSCALE
 40
1.0
  9
$DIMASZ
 40
3.0
  9
$DIMEXO
 40
3.0
  9
$DIMDLI
 40
2.0
  9
$DIMRND
 40
0.0
  9
$DIMDLE
 40
0.0
  9
$DIMEXE
 40
2.0
  9
$DIMTP
 40
0.0
  9
$DIMTM
 40
0.0
  9
$DIMTXT
 40
3.0
  9
$DIMCEN
 40
-3.0
  9
$DIMTSZ
 40
0.0
  9
$DIMTOL
 70
     0
  9
$DIMLIM
 70
     0
  9
$DIMTIH
 70
     0
  9
$DIMTOH
 70
     0
  9
$DIMSE1
 70
     0
  9
$DIMSE2
 70
     0
  9
$DIMTAD
 70
     1
  9
$DIMZIN
 70
     8
  9
$DIMBLK
  1

  9
$DIMASO
 70
     1
  9
$DIMSHO
 70
     1
  9
$DIMPOST
  1

  9
$DIMAPOST
  1

  9
$DIMALT
 70
     0
  9
$DIMALTD
 70
     2
  9
$DIMALTF
 40
25.4
  9
$DIMLFAC
 40
1.0
  9
$DIMTOFL
 70
     1
  9
$DIMTVP
 40
0.0
  9
$DIMTIX
 70
     0
  9
$DIMSOXD
 70
     0
  9
$DIMSAH
 70
     0
  9
$DIMBLK1
  1

  9
$DIMBLK2
  1

  9
$DIMSTYLE
  2
ISO-25-1
  9
$DIMCLRD
 70
   256
  9
$DIMCLRE
 70
   256
  9
$DIMCLRT
 70
   256
  9
$DIMTFAC
 40
0.7
  9
$DIMGAP
 40
1.0
  9
$DIMJUST
 70
     0
  9
$DIMSD1
 70
     0
  9
$DIMSD2
 70
     0
  9
$DIMTOLJ
 70
     1
  9
$DIMTZIN
 70
     8
  9
$DIMALTZ
 70
     0
  9
$DIMALTTZ
 70
     0
  9
$DIMFIT
 70
     0
  9
$DIMUPT
 70
     0
  9
$DIMUNIT
 70
     2
  9
$DIMDEC
 70
     2
  9
$DIMTDEC
 70
     2
  9
$DIMALTU
 70
     2
  9
$DIMALTTD
 70
     2
  9
$DIMTXSTY
  7
CHINESET
  9
$DIMAUNIT
 70
     0
  9
$LUNITS
 70
     2
  9
$LUPREC
 70
     2
  9
$SKETCHINC
 40
0.1
  9
$FILLETRAD
 40
0.5
  9
$AUNITS
 70
     0
  9
$AUPREC
 70
     0
  9
$MENU
  1
.
  9
$ELEVATION
 40
0.0
  9
$PELEVATION
 40
0.0
  9
$THICKNESS
 40
0.0
  9
$LIMCHECK
 70
     0
  9
$BLIPMODE
 70
     0
  9
$CHAMFERA
 40
1.199999999999999
  9
$CHAMFERB
 40
1.199999999999999
  9
$CHAMFERC
 40
1.0
  9
$CHAMFERD
 40
0.0
  9
$SKPOLY
 70
     0
  9
$TDCREATE
 40
2452019.631085300
  9
$TDUPDATE
 40
2452968.376896262
  9
$TDINDWG
 40
0.2757480093
  9
$TDUSRTIMER
 40
0.2757480093
  9
$USRTIMER
 70
     1
  9
$ANGBASE
 50
0.0
  9
$ANGDIR
 70
     0
  9
$PDMODE
 70
     0
  9
$PDSIZE
 40
0.0
  9
$PLINEWID
 40
0.0
  9
$COORDS
 70
     1
  9
$SPLFRAME
 70
     0
  9
$SPLINETYPE
 70
     6
  9
$SPLINESEGS
 70
     8
  9
$ATTDIA
 70
     1
  9
$ATTREQ
 70
     1
  9
$HANDLING
 70
 22529
  9
$HANDSEED
  5
35E5
  9
$SURFTAB1
 70
     6
  9
$SURFTAB2
 70
     6
  9
$SURFTYPE
 70
     6
  9
$SURFU
 70
     6
  9
$SURFV
 70
     6
  9
$UCSNAME
  2

  9
$UCSORG
 10
0.0
 20
0.0
 30
0.0
  9
$UCSXDIR
 10
1.0
 20
0.0
 30
0.0
  9
$UCSYDIR
 10
0.0
 20
1.0
 30
0.0
  9
$PUCSNAME
  2

  9
$PUCSORG
 10
0.0
 20
0.0
 30
0.0
  9
$PUCSXDIR
 10
1.0
 20
0.0
 30
0.0
  9
$PUCSYDIR
 10
0.0
 20
1.0
 30
0.0
  9
$USERI1
 70
     0
  9
$USERI2
 70
     0
  9
$USERI3
 70
     0
  9
$USERI4
 70
     0
  9
$USERI5
 70
     0
  9
$USERR1
 40
0.0
  9
$USERR2
 40
0.0
  9
$USERR3
 40
0.0
  9
$USERR4
 40
0.0
  9
$USERR5
 40
0.0
  9
$WORLDVIEW
 70
     1
  9
$SHADEDGE
 70
     3
  9
$SHADEDIF
 70
    70
  9
$TILEMODE
 70
     1
  9
$MAXACTVP
 70
    48
  9
$PINSBASE
 10
0.0
 20
0.0
 30
0.0
  9
$PLIMCHECK
 70
     0
  9
$PEXTMIN
 10
1.000000000000000E+20
 20
1.000000000000000E+20
 30
1.000000000000000E+20
  9
$PEXTMAX
 10
-1.000000000000000E+20
 20
-1.000000000000000E+20
 30
-1.000000000000000E+20
  9
$PLIMMIN
 10
0.0
 20
0.0
  9
$PLIMMAX
 10
12.0
 20
9.0
  9
$UNITMODE
 70
     0
  9
$VISRETAIN
 70
     1
  9
$PLINEGEN
 70
     0
  9
$PSLTSCALE
 70
     1
  9
$TREEDEPTH
 70
  3020
  9
$PICKSTYLE
 70
     1
  9
$CMLSTYLE
  2
STANDARD
  9
$CMLJUST
 70
     0
  9
$CMLSCALE
 40
1.0
  9
$SAVEIMAGES
 70
     1
  0
ENDSEC
  0
SECTION
  2
CLASSES
  0
CLASS
  1
ACDBDICTIONARYWDFLT
  2
AcDbDictionaryWithDefault
  3
AutoCAD 2000
 90
    32768
280
     0
281
     0
  0
CLASS
  1
ACDBPLACEHOLDER
  2
AcDbPlaceHolder
  3
AutoCAD 2000
 90
    32768
280
     0
281
     0
  0
CLASS
  1
LAYOUT
  2
AcDbLayout
  3
AutoCAD 2000
 90
    32768
280
     0
281
     0
  0
CLASS
  1
DICTIONARYVAR
  2
AcDbDictionaryVar
  3
AutoCAD 2000
 90
    32768
280
     0
281
     0
  0
CLASS
  1
LONG_TRANSACTION
  2
AcDbLongTransaction
  3
AutoCAD 2000
 90
    32768
280
     0
281
     0
  0
CLASS
  1
LWPOLYLINE
  2
AcDbPolyline
  3
AutoCAD 2000
 90
    32768
280
     0
281
     1
  0
CLASS
  1
HATCH
  2
AcDbHatch
  3
AutoCAD 2000
 90
    32768
280
     0
281
     1
  0
CLASS
  1
XRECORD
  2
AcDbXrecord
  3
AutoCAD 2000
 90
    32768
280
     0
281
     0
  0
CLASS
  1
ACME_DOCUMENT
  2
AcMeDbDoc
  3
AcMeServices
 90
    32768
280
     0
281
     0
  0
CLASS
  1
AMGSETTINGSOBJ
  2
AmgSettingsObj
  3
"AcadM|Product Description: AutoCAD Mechanical 2000|Company: Autodesk"
 90
    32768
280
     0
281
     0
  0
CLASS
  1
ACMESCOPE
  2
AcMeScope
  3
AcMeServices
 90
    32768
280
     0
281
     0
  0
CLASS
  1
ACMECOMMANDHISTORY
  2
AcMeCommandHistory
  3
AcMeServices
 90
    32768
280
     0
281
     0
  0
CLASS
  1
ACIMSYSVARMAN
  2
AcImSysVarManager
  3
AcMeServices
 90
    32768
280
     0
281
     0
  0
CLASS
  1
ACIMREALSYSVAR
  2
AcImRealSysVar
  3
AcMeServices
 90
    32768
280
     0
281
     0
  0
CLASS
  1
ACIMINTSYSVAR
  2
AcImIntSysVar
  3
AcMeServices
 90
    32768
280
     0
281
     0
  0
CLASS
  1
ACMEDRAWINGMAN
  2
AcMeDrawingMan
  3
AcMeServices
 90
    32768
280
     0
281
     0
  0
CLASS
  1
ACMEVIEW
  2
AcMeView
  3
AcMeServices
 90
    32768
280
     0
281
     0
  0
CLASS
  1
ACDBENTITYCACHE
  2
AcMeEntityCache
  3
AcMeServices
 90
    32768
280
     0
281
     0
  0
CLASS
  1
GSMANAGER
  2
AcMeGSManager
  3
AcMeServices
 90
    32768
280
     0
281
     0
  0
CLASS
  1
AMDTINTERNALREACTOR
  2
AmdtInternalReactor
  3
AcMeServices
 90
    32768
280
     0
281
     0
  0
CLASS
  1
ACMESTATEMGR
  2
AcMeStateMgr
  3
AcMeServices
 90
    32768
280
     0
281
     0
  0
CLASS
  1
ACGREFMASTER
  2
AcGrefMaster
  3
AcAttribServices
 90
    32768
280
     0
281
     0
  0
CLASS
  1
ACME_DATABASE
  2
AcMeDbDatabase
  3
AcMeServices
 90
    32768
280
     0
281
     0
  0
CLASS
  1
ACRFINSADJUSTERMGR
  2
AcRfInsAdjusterMgr
  3
AcMeServices
 90
    32768
280
     0
281
     0
  0
CLASS
  1
ACGREFACADMASTER
  2
AcGrefacadMaster
  3
AcGrefServices
 90
    32768
280
     0
281
     0
  0
CLASS
  1
AMIMASTER
  2
AmiMaster
  3
AmiServices
 90
    32768
280
     0
281
     0
  0
CLASS
  1
ACMDATADICTIONARY
  2
AcmDataDictionary
  3
"AcmSymBB|Product Description: AutoCAD Mechanical 2000|Company: Autodesk"
 90
    32768
280
     0
281
     0
  0
CLASS
  1
ACMDATAENTRYBLOCK
  2
AcmDataEntryBlock
  3
"AcmSymBB|Product Description: AutoCAD Mechanical 2000|Company: Autodesk"
 90
    32768
280
     0
281
     0
  0
CLASS
  1
ACIMSTRSYSVAR
  2
AcImStrSysVar
  3
AcMeServices
 90
    32768
280
     0
281
     0
  0
CLASS
  1
ACMSTANDARDISO
  2
AcmStandardISO
  3
"Amdt_StdImp|Product Description: AutoCAD Mechanical 2000|Company: Autodesk"
 90
    32768
280
     0
281
     0
  0
CLASS
  1
AMGOBJPROPCFG
  2
AmgObjPropCfg
  3
"AmgLay|Product Description: AutoCAD Mechanical 2000|Company: Autodesk"
 90
    32769
280
     0
281
     0
  0
CLASS
  1
AMDTEDGESTANDARDISO
  2
AmdtEdgeStdISO
  3
"Amdt_StdImp|Product Description: AutoCAD Mechanical 2000|Company: Autodesk"
 90
    32768
280
     0
281
     0
  0
CLASS
  1
ACMSURFSTANDARDISO
  2
AcmSurfTextStdISO
  3
"Amdt_StdImp|Product Description: AutoCAD Mechanical 2000|Company: Autodesk"
 90
    32768
280
     0
281
     0
  0
CLASS
  1
ACMFCFSTANDARDISO
  2
AcmFCFStdISO
  3
"Amdt_StdImp|Product Description: AutoCAD Mechanical 2000|Company: Autodesk"
 90
    32768
280
     0
281
     0
  0
CLASS
  1
ACMWELDSTANDARDISO
  2
AcmWeldingStdISO
  3
"Amdt_StdImp|Product Description: AutoCAD Mechanical 2000|Company: Autodesk"
 90
    32768
280
     0
281
     0
  0
CLASS
  1
ACMIDSTANDARDISO
  2
AcmIdStdISO
  3
"Amdt_StdImp|Product Description: AutoCAD Mechanical 2000|Company: Autodesk"
 90
    32768
280
     0
281
     0
  0
CLASS
  1
ACMDATUMSTANDARDISO
  2
AcmDatumStdISO
  3
"Amdt_StdImp|Product Description: AutoCAD Mechanical 2000|Company: Autodesk"
 90
    32768
280
     0
281
     0
  0
CLASS
  1
ACMBOMSTANDARDISO
  2
AcmBOMStdISO
  3
"Amdt_StdImp|Product Description: AutoCAD Mechanical 2000|Company: Autodesk"
 90
    32768
280
     0
281
     0
  0
CLASS
  1
ACMDETAILSTANDARDISO
  2
AmdtDetailSymStdISO
  3
"Amdt_StdImp|Product Description: AutoCAD Mechanical 2000|Company: Autodesk"
 90
    32768
280
     0
281
     0
  0
CLASS
  1
ACMSECTIONSTANDARDISO
  2
AmdtSectionSymStdISO
  3
"Amdt_StdImp|Product Description: AutoCAD Mechanical 2000|Company: Autodesk"
 90
    32768
280
     0
281
     0
  0
CLASS
  1
ACMCENTERLINESTANDARDISO
  2
AmdtCenterLineStdISO
  3
"Amdt_StdImp|Product Description: AutoCAD Mechanical 2000|Company: Autodesk"
 90
    32768
280
     0
281
     0
  0
CLASS
  1
ACMNOTESTANDARDISO
  2
AmdtNoteStdISO
  3
"Amdt_StdImp|Product Description: AutoCAD Mechanical 2000|Company: Autodesk"
 90
    32768
280
     0
281
     0
  0
CLASS
  1
ACAMGLAYSTD
  2
AcAmgLayStd
  3
"AcAmgLayStd|Product Description: AutoCAD Mechanical 2000|Company: Autodesk"
 90
    32768
280
     0
281
     0
  0
CLASS
  1
ACAMGDIMSTD
  2
AcAmgDimStd
  3
"AcAmgDimStd|Product Description: AutoCAD Mechanical 2000|Company: Autodesk"
 90
    32768
280
     0
281
     0
  0
CLASS
  1
ACAMGHOLECHARTSTDISO
  2
AcAmgHoleChartStdISO
  3
ACMSYMBB_MODULE_NAME
 90
    32768
280
     0
281
     0
  0
CLASS
  1
ACAMGTITLESTD
  2
AcAmgTitleStd
  3
"TITLEAPP"
 90
    32768
280
     0
281
     0
  0
CLASS
  1
ACAMGFILTERDAT
  2
AcAmgFilterDat
  3
"AcadM|Product Description: AutoCAD Mechanical 2000|Company: Autodesk"
 90
    32768
280
     0
281
     0
  0
CLASS
  1
LAYER_INDEX
  2
AcDbLayerIndex
  3
AutoCAD 2000
 90
    32768
280
     0
281
     0
  0
CLASS
  1
IDBUFFER
  2
AcDbIdBuffer
  3
AutoCAD 2000
 90
    32768
280
     0
281
     0
  0
CLASS
  1
LONG_TRANSACTION
  2
AcDbLongTransaction
  3
AutoCAD 2000
 90
    32768
280
     0
281
     0
  0
CLASS
  1
LWPOLYLINE
  2
AcDbPolyline
  3
AutoCAD 2000
 90
    32768
280
     0
281
     1
  0
CLASS
  1
HATCH
  2
AcDbHatch
  3
AutoCAD 2000
 90
    32768
280
     0
281
     1
  0
CLASS
  1
XRECORD
  2
AcDbXrecord
  3
AutoCAD 2000
 90
    32768
280
     0
281
     0
  0
ENDSEC
  0
SECTION
  2
TABLES
  0
TABLE
  2
VPORT
  5
8
330
0
100
AcDbSymbolTable
 70
     9
  0
VPORT
  5
35CC
330
8
100
AcDbSymbolTableRecord
100
AcDbViewportTableRecord
  2
*ACTIVE
 70
     0
 10
0.0
 20
0.0
 11
1.0
 21
1.0
 12
135.5785651714876
 22
162.7383812830632
 13
0.0
 23
0.0
 14
0.5
 24
0.5
 15
0.5
 25
0.5
 16
0.0
 26
0.0
 36
1.0
 17
0.0
 27
0.0
 37
0.0
 40
329.8902730143228
 41
1.717081850533807
 42
50.0
 43
0.0
 44
0.0
 50
0.0
 51
0.0
 71
     0
 72
   100
 73
     1
 74
     3
 75
     0
 76
     0
 77
     0
 78
     0
  0
ENDTAB
  0
TABLE
  2
LTYPE
  5
5
330
0
100
AcDbSymbolTable
 70
    12
  0
LTYPE
  5
14
330
5
100
AcDbSymbolTableRecord
100
AcDbLinetypeTableRecord
  2
BYBLOCK
 70
     0
  3

 72
    65
 73
     0
 40
0.0
  0
LTYPE
  5
15
330
5
100
AcDbSymbolTableRecord
100
AcDbLinetypeTableRecord
  2
BYLAYER
 70
     0
  3

 72
    65
 73
     0
 40
0.0
  0
LTYPE
  5
16
330
5
100
AcDbSymbolTableRecord
100
AcDbLinetypeTableRecord
  2
CONTINUOUS
 70
     0
  3
Solid line
 72
    65
 73
     0
 40
0.0
  0
LTYPE
  5
4F
330
5
100
AcDbSymbolTableRecord
100
AcDbLinetypeTableRecord
  2
CENTER
 70
     0
  3
Center ____ _ ____ _ ____ _ ____ _ ____ _ ____
 72
    65
 73
     4
 40
2.0
 49
1.25
 74
     0
 49
-0.25
 74
     0
 49
0.25
 74
     0
 49
-0.25
 74
     0
  0
LTYPE
  5
350E
330
5
100
AcDbSymbolTableRecord
100
AcDbLinetypeTableRecord
  2
AM_ISO02W050
 70
     0
  3
__ __ __ __ __ __ __ __ __ __ __ __ __ __ __
 72
    65
 73
     2
 40
7.5
 49
6.0
 74
     0
 49
-1.5
 74
     0
  0
LTYPE
  5
350F
330
5
100
AcDbSymbolTableRecord
100
AcDbLinetypeTableRecord
  2
AM_ISO08W050
 70
     0
  3
____ . ____ . ____ . ____ . ____ . ____ . ____
 72
    65
 73
     4
 40
18.0
 49
12.0
 74
     0
 49
-1.5
 74
     0
 49
3.0
 74
     0
 49
-1.5
 74
     0
  0
LTYPE
  5
3510
330
5
100
AcDbSymbolTableRecord
100
AcDbLinetypeTableRecord
  2
AM_ISO09W050
 70
     0
  3
_____ . . _____ . . _____ . . ____ .. ____
 72
    65
 73
     6
 40
22.5
 49
12.0
 74
     0
 49
-1.5
 74
     0
 49
3.0
 74
     0
 49
-1.5
 74
     0
 49
3.0
 74
     0
 49
-1.5
 74
     0
  0
LTYPE
  5
3511
330
5
100
AcDbSymbolTableRecord
100
AcDbLinetypeTableRecord
  2
AMCONSTR
 70
     0
  3
_______________________
 72
    65
 73
     2
 40
9999.0
 49
9999.0
 74
     0
 49
0.0
 74
     0
  0
LTYPE
  5
3512
330
5
100
AcDbSymbolTableRecord
100
AcDbLinetypeTableRecord
  2
AM_ISO08W050X2
 70
     0
  3
__ . __ . __ . __ . __ . __
 72
    65
 73
     4
 40
9.0
 49
6.0
 74
     0
 49
-0.75
 74
     0
 49
1.5
 74
     0
 49
-0.75
 74
     0
  0
LTYPE
  5
3513
330
5
100
AcDbSymbolTableRecord
100
AcDbLinetypeTableRecord
  2
AM_ISO02W050X2
 70
     0
  3
 _ _ _ _ _ _ _ _ _ _ _ _
 72
    65
 73
     2
 40
3.75
 49
3.0
 74
     0
 49
-0.75
 74
     0
  0
LTYPE
  5
3516
330
5
100
AcDbSymbolTableRecord
100
AcDbLinetypeTableRecord
  2
AMZIGZAG
 70
     0
  3
/\/-/\/-/\/-/\/-/\/-/\/
 72
    65
 73
     2
 40
11.00009999999999
 49
0.0001
 74
     4
 75
   135
340
3515
 46
0.04
 50
0.0
 44
0.0
 45
0.0
 49
-11.0
 74
     0
  0
LTYPE
  5
3524
330
5
100
AcDbSymbolTableRecord
100
AcDbLinetypeTableRecord
  2
ACISOWELD
 70
     0
  3
_ _ _ _ _
 72
    65
 73
     2
 40
2.0
 49
2.0
 74
     0
 49
-1.0
 74
     0
  0
LTYPE
  5
3525
330
5
100
AcDbSymbolTableRecord
100
AcDbLinetypeTableRecord
  2
ACISOTGB
 70
     0
  3
__ . . __ . .
 72
    65
 73
     6
 40
9.0
 49
4.0
 74
     0
 49
-1.0
 74
     0
 49
1.0
 74
     0
 49
-1.0
 74
     0
 49
1.0
 74
     0
 49
-1.0
 74
     0
  0
LTYPE
  5
3526
330
5
100
AcDbSymbolTableRecord
100
AcDbLinetypeTableRecord
  2
ACISOTGL
 70
     0
  3
_ _ _ _ _
 72
    65
 73
     2
 40
3.0
 49
2.0
 74
     0
 49
-1.0
 74
     0
  0
ENDTAB
  0
TABLE
  2
LAYER
  5
2
330
0
100
AcDbSymbolTable
 70
     6
  0
LAYER
  5
10
330
2
100
AcDbSymbolTableRecord
100
AcDbLayerTableRecord
  2
0
 70
     0
 62
     7
  6
CONTINUOUS
  0
LAYER
  5
48
330
2
100
AcDbSymbolTableRecord
100
AcDbLayerTableRecord
  2
DIM
 70
     0
 62
     5
  6
CONTINUOUS
  0
LAYER
  5
4A
330
2
100
AcDbSymbolTableRecord
100
AcDbLayerTableRecord
  2
CENTER
 70
     0
 62
     1
  6
CENTER
  0
LAYER
  5
1545
330
2
100
AcDbSymbolTableRecord
100
AcDbLayerTableRecord
  2
LOGO
 70
     0
 62
     7
  6
CONTINUOUS
  0
LAYER
  5
1A52
330
2
100
AcDbSymbolTableRecord
100
AcDbLayerTableRecord
  2
DEFPOINTS
 70
     0
 62
     7
  6
CONTINUOUS
  0
ENDTAB
  0
TABLE
  2
STYLE
  5
3
330
0
100
AcDbSymbolTable
 70
     6
  0
STYLE
  5
11
330
3
100
AcDbSymbolTableRecord
100
AcDbTextStyleTableRecord
  2
STANDARD
 70
     0
 40
3.0
 41
1.0
 50
0.0
 71
     0
 42
3.0
  3
KAIU.TTF
  4

1001
ACAD
1000
DFKai-SB
1071
    34865
  0
STYLE
  5
5C
330
3
100
AcDbSymbolTableRecord
100
AcDbTextStyleTableRecord
  2
CHINESET
 70
     0
 40
3.0
 41
1.0
 50
0.0
 71
     0
 42
4.5
  3
simplex.shx
  4
CHINESET.shx
  0
STYLE
  5
1546
330
3
100
AcDbSymbolTableRecord
100
AcDbTextStyleTableRecord
  2
LOGO
 70
     0
 40
0.0
 41
1.0
 50
0.0
 71
     0
 42
5.0
  3

  4

1001
ACAD
1000
文鼎中粗隸
1071
    34865
  0
STYLE
  5
3515
330
3
100
AcDbSymbolTableRecord
100
AcDbTextStyleTableRecord
  2

 70
     1
 40
0.0
 41
1.0
 50
0.0
 71
     0
 42
4.5
  3
ltypeshp.shx
  4

  0
STYLE
  5
3517
330
3
100
AcDbSymbolTableRecord
100
AcDbTextStyleTableRecord
  2
ACISOTS
 70
     0
 40
1.0
 41
1.0
 50
0.0
 71
     0
 42
4.5
  3
isocp.shx
  4
chineset.shx
  0
STYLE
  5
3523
330
3
100
AcDbSymbolTableRecord
100
AcDbTextStyleTableRecord
  2
ACISOGDT
 70
     0
 40
0.0
 41
1.0
 50
0.0
 71
     0
 42
4.5
  3
amgdt.shx
  4

  0
ENDTAB
  0
TABLE
  2
VIEW
  5
6
330
0
100
AcDbSymbolTable
 70
     0
  0
ENDTAB
  0
TABLE
  2
UCS
  5
7
330
0
100
AcDbSymbolTable
 70
     0
  0
ENDTAB
  0
TABLE
  2
APPID
  5
9
330
0
100
AcDbSymbolTable
 70
     8
  0
APPID
  5
12
330
9
100
AcDbSymbolTableRecord
100
AcDbRegAppTableRecord
  2
ACAD
 70
     0
  0
APPID
  5
5F
330
9
100
AcDbSymbolTableRecord
100
AcDbRegAppTableRecord
  2
AD_DRAW
 70
     0
  0
APPID
  5
60
330
9
100
AcDbSymbolTableRecord
100
AcDbRegAppTableRecord
  2
DESIGNERASSEMBLIES
 70
     0
  0
APPID
  5
61
330
9
100
AcDbSymbolTableRecord
100
AcDbRegAppTableRecord
  2
MCAD_NO_VIS
 70
     0
  0
APPID
  5
62
330
9
100
AcDbSymbolTableRecord
100
AcDbRegAppTableRecord
  2
ASURF_PCURVE_APPNAME
 70
     0
  0
APPID
  5
11A1
330
9
100
AcDbSymbolTableRecord
100
AcDbRegAppTableRecord
  2
CONTENTBLOCKICON
 70
     0
  0
APPID
  5
34F1
330
9
100
AcDbSymbolTableRecord
100
AcDbRegAppTableRecord
  2
ACAD_TEMP_GRAPHIC
 70
     0
  0
APPID
  5
3502
330
9
100
AcDbSymbolTableRecord
100
AcDbRegAppTableRecord
  2
ACATTRIBSERVICES
 70
     0
  0
ENDTAB
  0
TABLE
  2
DIMSTYLE
  5
A
330
0
100
AcDbSymbolTable
 70
     8
  0
DIMSTYLE
105
1A4
102
{ACAD_REACTORS
330
2E9E
330
2EAB
330
2EB8
330
2EC5
330
2EEA
330
2F04
330
2F11
330
2F44
330
2F51
330
2F5E
330
2F8A
330
2F7E
330
2F7D
330
2F90
330
2F94
330
2F92
330
2F93
330
2FB6
330
2F7A
330
2FAE
330
3149
330
3156
330
31B2
330
31BF
330
31D8
102
}
330
A
100
AcDbSymbolTableRecord
100
AcDbDimStyleTableRecord
  2
ISO-25-1
 70
     0
  3

  4

  5

  6

  7

 40
1.0
 41
3.0
 42
3.0
 43
2.0
 44
2.0
 45
0.0
 46
0.0
 47
0.0
 48
0.0
140
3.0
141
-3.0
142
0.0
143
25.4
144
1.0
145
0.0
146
0.7
147
1.0
 71
     0
 72
     0
 73
     0
 74
     0
 75
     0
 76
     0
 77
     1
 78
     8
170
     0
171
     2
172
     1
173
     0
174
     0
175
     0
176
   256
177
   256
178
   256
270
     2
271
     2
272
     2
273
     2
274
     2
340
5C
275
     0
280
     0
281
     0
282
     0
283
     1
284
     8
285
     0
286
     0
287
     0
288
     0
  0
DIMSTYLE
105
352A
330
A
100
AcDbSymbolTableRecord
100
AcDbDimStyleTableRecord
  2
AM_ISO
 70
     0
  3

  4
"
  5

  6

  7

 40
1.0
 41
2.5
 42
1.0
 43
10.0
 44
1.0
 45
0.0
 46
0.0
 47
0.1
 48
0.1
140
3.5
141
0.0
142
0.0
143
0.0393701
144
1.0
145
0.0
146
0.71
147
1.5
 71
     0
 72
     0
 73
     0
 74
     0
 75
     0
 76
     0
 77
     1
 78
     8
170
     0
171
     2
172
     1
173
     0
174
     0
175
     0
176
   256
177
   256
178
     2
270
     2
271
     2
272
     3
273
     2
274
     4
340
11
275
     0
280
     0
281
     0
282
     0
283
     0
284
     8
285
     0
286
     0
287
     3
288
     0
  0
DIMSTYLE
105
352B
330
A
100
AcDbSymbolTableRecord
100
AcDbDimStyleTableRecord
  2
AM_ISO$3
 70
     0
  3

  4
"
  5

  6

  7

 40
1.0
 41
2.5
 42
1.0
 43
10.0
 44
1.0
 45
0.0
 46
0.0
 47
0.1
 48
0.1
140
3.5
141
0.0
142
0.0
143
0.0393701
144
1.0
145
0.0
146
0.71
147
1.5
 71
     0
 72
     0
 73
     0
 74
     1
 75
     0
 76
     0
 77
     1
 78
     8
170
     0
171
     2
172
     0
173
     0
174
     0
175
     0
176
   256
177
   256
178
     2
270
     2
271
     2
272
     3
273
     2
274
     4
340
11
275
     0
280
     0
281
     0
282
     0
283
     0
284
     8
285
     0
286
     0
287
     0
288
     1
  0
DIMSTYLE
105
352C
330
A
100
AcDbSymbolTableRecord
100
AcDbDimStyleTableRecord
  2
AM_ISO$4
 70
     0
  3

  4
"
  5

  6

  7

 40
1.0
 41
2.5
 42
1.0
 43
10.0
 44
1.0
 45
0.0
 46
0.0
 47
0.1
 48
0.1
140
3.5
141
0.0
142
0.0
143
0.0393701
144
1.0
145
0.0
146
0.71
147
1.5
 71
     0
 72
     0
 73
     0
 74
     1
 75
     0
 76
     0
 77
     1
 78
     8
170
     0
171
     2
172
     0
173
     0
174
     0
175
     0
176
   256
177
   256
178
     2
270
     2
271
     2
272
     3
273
     2
274
     4
340
11
275
     0
280
     0
281
     0
282
     0
283
     0
284
     8
285
     0
286
     0
287
     0
288
     1
  0
DIMSTYLE
105
352D
330
A
100
AcDbSymbolTableRecord
100
AcDbDimStyleTableRecord
  2
AM_ISO$6
 70
     0
  3

  4
"
  5

  6

  7

 40
1.0
 41
2.5
 42
1.0
 43
10.0
 44
1.0
 45
0.0
 46
0.0
 47
0.1
 48
0.1
140
3.5
141
0.0
142
0.0
143
0.0393701
144
1.0
145
0.0
146
0.71
147
1.5
 71
     0
 72
     0
 73
     0
 74
     0
 75
     0
 76
     0
 77
     0
 78
     8
170
     0
171
     2
172
     1
173
     0
174
     0
175
     0
176
   256
177
   256
178
     2
270
     2
271
     2
272
     3
273
     2
274
     4
340
11
275
     0
280
     0
281
     0
282
     0
283
     0
284
     8
285
     0
286
     0
287
     3
288
     0
  0
DIMSTYLE
105
352E
330
A
100
AcDbSymbolTableRecord
100
AcDbDimStyleTableRecord
  2
AM_ISO$7
 70
     0
  3

  4
"
  5

  6

  7

 40
1.0
 41
2.5
 42
1.0
 43
10.0
 44
1.0
 45
0.0
 46
0.0
 47
0.1
 48
0.1
140
5.0
141
0.0
142
0.0
143
0.0393701
144
1.0
145
0.0
146
0.71
147
1.5
 71
     0
 72
     0
 73
     0
 74
     0
 75
     0
 76
     0
 77
     1
 78
     8
170
     0
171
     2
172
     1
173
     0
174
     0
175
     0
176
   256
177
   256
178
     2
270
     2
271
     2
272
     3
273
     2
274
     4
340
11
275
     0
280
     0
281
     0
282
     0
283
     0
284
     8
285
     0
286
     0
287
     3
288
     0
  0
DIMSTYLE
105
352F
330
A
100
AcDbSymbolTableRecord
100
AcDbDimStyleTableRecord
  2
AM_ISO$SF
 70
     0
  3

  4
"
  5

  6

  7

 40
1.0
 41
2.5
 42
1.0
 43
10.0
 44
1.0
 45
0.0
 46
0.0
 47
0.1
 48
0.1
140
3.5
141
0.0
142
0.0
143
0.0393701
144
1.0
145
0.0
146
0.71
147
1.5
 71
     0
 72
     0
 73
     0
 74
     0
 75
     1
 76
     1
 77
     1
 78
     8
170
     0
171
     2
172
     1
173
     0
174
     0
175
     0
176
   256
177
   256
178
     2
270
     2
271
     2
272
     3
273
     2
274
     4
340
11
275
     0
280
     0
281
     0
282
     0
283
     0
284
     8
285
     0
286
     0
287
     3
288
     0
  0
DIMSTYLE
105
3534
330
A
100
AcDbSymbolTableRecord
100
AcDbDimStyleTableRecord
  2
AM_ISO$SH
 70
     0
  3

  4
"
  5

  6
GENAXEH
  7

 40
1.0
 41
2.5
 42
1.0
 43
10.0
 44
1.0
 45
0.0
 46
0.0
 47
0.1
 48
0.1
140
3.5
141
0.0
142
0.0
143
0.0393701
144
2.0
145
0.0
146
0.71
147
1.5
 71
     0
 72
     0
 73
     0
 74
     0
 75
     1
 76
     1
 77
     1
 78
     8
170
     0
171
     2
172
     1
173
     1
174
     0
175
     0
176
   256
177
   256
178
     2
270
     2
271
     2
272
     3
273
     2
274
     4
340
11
275
     0
280
     0
281
     0
282
     0
283
     0
284
     8
285
     0
286
     0
287
     3
288
     0
  0
ENDTAB
  0
TABLE
  2
BLOCK_RECORD
  5
1
330
0
100
AcDbSymbolTable
 70
    27
  0
BLOCK_RECORD
  5
1F
102
{ACAD_XDICTIONARY
360
344C
102
}
330
1
100
AcDbSymbolTableRecord
100
AcDbBlockTableRecord
  2
*MODEL_SPACE
  0
BLOCK_RECORD
  5
1B
102
{ACAD_XDICTIONARY
360
344E
102
}
330
1
100
AcDbSymbolTableRecord
100
AcDbBlockTableRecord
  2
*PAPER_SPACE
  0
BLOCK_RECORD
  5
2E9F
330
1
100
AcDbSymbolTableRecord
100
AcDbBlockTableRecord
  2
*D1
  0
BLOCK_RECORD
  5
2EAC
330
1
100
AcDbSymbolTableRecord
100
AcDbBlockTableRecord
  2
*D2
  0
BLOCK_RECORD
  5
2EB9
330
1
100
AcDbSymbolTableRecord
100
AcDbBlockTableRecord
  2
*D3
  0
BLOCK_RECORD
  5
2EC6
330
1
100
AcDbSymbolTableRecord
100
AcDbBlockTableRecord
  2
*D4
  0
BLOCK_RECORD
  5
2EEB
330
1
100
AcDbSymbolTableRecord
100
AcDbBlockTableRecord
  2
*D5
  0
BLOCK_RECORD
  5
2F05
330
1
100
AcDbSymbolTableRecord
100
AcDbBlockTableRecord
  2
*D6
  0
BLOCK_RECORD
  5
2F12
330
1
100
AcDbSymbolTableRecord
100
AcDbBlockTableRecord
  2
*D7
  0
BLOCK_RECORD
  5
2F45
330
1
100
AcDbSymbolTableRecord
100
AcDbBlockTableRecord
  2
*D8
  0
BLOCK_RECORD
  5
2F52
330
1
100
AcDbSymbolTableRecord
100
AcDbBlockTableRecord
  2
*D9
  0
BLOCK_RECORD
  5
2F5F
330
1
100
AcDbSymbolTableRecord
100
AcDbBlockTableRecord
  2
*D10
  0
BLOCK_RECORD
  5
3026
330
1
100
AcDbSymbolTableRecord
100
AcDbBlockTableRecord
  2
*D11
  0
BLOCK_RECORD
  5
3032
330
1
100
AcDbSymbolTableRecord
100
AcDbBlockTableRecord
  2
*D12
  0
BLOCK_RECORD
  5
303E
330
1
100
AcDbSymbolTableRecord
100
AcDbBlockTableRecord
  2
*D13
  0
BLOCK_RECORD
  5
304A
330
1
100
AcDbSymbolTableRecord
100
AcDbBlockTableRecord
  2
*D14
  0
BLOCK_RECORD
  5
3058
330
1
100
AcDbSymbolTableRecord
100
AcDbBlockTableRecord
  2
*D15
  0
BLOCK_RECORD
  5
3066
330
1
100
AcDbSymbolTableRecord
100
AcDbBlockTableRecord
  2
*D16
  0
BLOCK_RECORD
  5
3072
330
1
100
AcDbSymbolTableRecord
100
AcDbBlockTableRecord
  2
*D17
  0
BLOCK_RECORD
  5
307E
330
1
100
AcDbSymbolTableRecord
100
AcDbBlockTableRecord
  2
*D18
  0
BLOCK_RECORD
  5
308A
330
1
100
AcDbSymbolTableRecord
100
AcDbBlockTableRecord
  2
*D19
  0
BLOCK_RECORD
  5
3096
330
1
100
AcDbSymbolTableRecord
100
AcDbBlockTableRecord
  2
*D20
  0
BLOCK_RECORD
  5
314A
330
1
100
AcDbSymbolTableRecord
100
AcDbBlockTableRecord
  2
*D21
  0
BLOCK_RECORD
  5
3157
330
1
100
AcDbSymbolTableRecord
100
AcDbBlockTableRecord
  2
*D22
  0
BLOCK_RECORD
  5
31B3
330
1
100
AcDbSymbolTableRecord
100
AcDbBlockTableRecord
  2
*D23
  0
BLOCK_RECORD
  5
31C0
330
1
100
AcDbSymbolTableRecord
100
AcDbBlockTableRecord
  2
*D24
  0
BLOCK_RECORD
  5
31D9
330
1
100
AcDbSymbolTableRecord
100
AcDbBlockTableRecord
  2
*D25
  0
BLOCK_RECORD
  5
3530
330
1
100
AcDbSymbolTableRecord
100
AcDbBlockTableRecord
  2
GENAXEH
  0
ENDTAB
  0
ENDSEC
  0
SECTION
  2
BLOCKS
  0
BLOCK
  5
20
330
1F
100
AcDbEntity
  8
0
100
AcDbBlockBegin
  2
*MODEL_SPACE
 70
     0
 10
0.0
 20
0.0
 30
0.0
  3
*MODEL_SPACE
  1

  0
ENDBLK
  5
21
330
1F
100
AcDbEntity
  8
0
100
AcDbBlockEnd
  0
BLOCK
  5
1C
330
1B
100
AcDbEntity
 67
     1
  8
0
100
AcDbBlockBegin
  2
*PAPER_SPACE
 70
     0
 10
0.0
 20
0.0
 30
0.0
  3
*PAPER_SPACE
  1

  0
ENDBLK
  5
1D
330
1B
100
AcDbEntity
 67
     1
  8
0
100
AcDbBlockEnd
  0
BLOCK
  5
2EA9
330
2E9F
100
AcDbEntity
  8
0
100
AcDbBlockBegin
  2
*D1
 70
     1
 10
0.0
 20
0.0
 30
0.0
  3
*D1
  1

  0
LINE
  5
336A
330
2E9F
100
AcDbEntity
  8
DIM
100
AcDbLine
 10
85.50443357537853
 20
85.76101367821797
 30
0.0
 11
85.50443357537853
 21
114.9481385250124
 31
0.0
  0
LINE
  5
336B
330
2E9F
100
AcDbEntity
  8
DIM
100
AcDbLine
 10
76.50443357537858
 20
107.9690337713985
 30
0.0
 11
76.50443357537858
 21
114.9481385250124
 31
0.0
  0
LINE
  5
336C
330
2E9F
100
AcDbEntity
  8
DIM
100
AcDbLine
 10
82.50443357537852
 20
112.9481385250125
 30
0.0
 11
79.50443357537858
 21
112.9481385250125
 31
0.0
  0
SOLID
  5
336D
330
2E9F
100
AcDbEntity
  8
DIM
100
AcDbTrace
 10
82.50443357537852
 20
113.4481385250124
 30
0.0
 11
82.50443357537852
 21
112.4481385250124
 31
0.0
 12
85.50443357537853
 22
112.9481385250125
 32
0.0
 13
85.50443357537853
 23
112.9481385250125
 33
0.0
  0
SOLID
  5
336E
330
2E9F
100
AcDbEntity
  8
DIM
100
AcDbTrace
 10
79.50443357537858
 20
113.4481385250124
 30
0.0
 11
79.50443357537858
 21
112.4481385250124
 31
0.0
 12
76.50443357537858
 22
112.9481385250125
 32
0.0
 13
76.50443357537858
 23
112.9481385250125
 33
0.0
  0
MTEXT
  5
336F
330
2E9F
100
AcDbEntity
  8
DIM
100
AcDbMText
 10
81.00443357537855
 20
115.4481385250125
 30
0.0
 40
3.0
 41
0.0
 71
     5
 72
     1
  1
\A1;9
  7
CHINESET
1001
ACAD
1000
MTEXTBEGIN
1070
    73
1070
     1
1070
    44
1040
1.0
1070
    74
1070
     0
1000
MTEXTEND
  0
POINT
  5
3370
330
2E9F
100
AcDbEntity
  8
DEFPOINTS
 62
     0
100
AcDbPoint
 10
85.50443357537853
 20
82.76101367821798
 30
0.0
  0
POINT
  5
3371
330
2E9F
100
AcDbEntity
  8
DEFPOINTS
 62
     0
100
AcDbPoint
 10
76.50443357537858
 20
104.9690337713985
 30
0.0
  0
POINT
  5
3372
330
2E9F
100
AcDbEntity
  8
DEFPOINTS
 62
     0
100
AcDbPoint
 10
76.50443357537858
 20
112.9481385250125
 30
0.0
  0
ENDBLK
  5
2EAA
330
2E9F
100
AcDbEntity
  8
0
100
AcDbBlockEnd
  0
BLOCK
  5
2EB6
330
2EAC
100
AcDbEntity
  8
0
100
AcDbBlockBegin
  2
*D2
 70
     1
 10
0.0
 20
0.0
 30
0.0
  3
*D2
  1

  0
LINE
  5
3361
330
2EAC
100
AcDbEntity
  8
DIM
100
AcDbLine
 10
91.50443357537865
 20
85.76101367821797
 30
0.0
 11
91.50443357537865
 21
114.9481385250124
 31
0.0
  0
LINE
  5
3362
330
2EAC
100
AcDbEntity
  8
DIM
100
AcDbLine
 10
100.5044335753786
 20
107.9690337713985
 30
0.0
 11
100.5044335753786
 21
114.9481385250124
 31
0.0
  0
LINE
  5
3363
330
2EAC
100
AcDbEntity
  8
DIM
100
AcDbLine
 10
94.50443357537864
 20
112.9481385250125
 30
0.0
 11
97.50443357537864
 21
112.9481385250125
 31
0.0
  0
SOLID
  5
3364
330
2EAC
100
AcDbEntity
  8
DIM
100
AcDbTrace
 10
94.50443357537864
 20
113.4481385250124
 30
0.0
 11
94.50443357537864
 21
112.4481385250124
 31
0.0
 12
91.50443357537865
 22
112.9481385250125
 32
0.0
 13
91.50443357537865
 23
112.9481385250125
 33
0.0
  0
SOLID
  5
3365
330
2EAC
100
AcDbEntity
  8
DIM
100
AcDbTrace
 10
97.50443357537864
 20
113.4481385250124
 30
0.0
 11
97.50443357537864
 21
112.4481385250124
 31
0.0
 12
100.5044335753786
 22
112.9481385250125
 32
0.0
 13
100.5044335753786
 23
112.9481385250125
 33
0.0
  0
MTEXT
  5
3366
330
2EAC
100
AcDbEntity
  8
DIM
100
AcDbMText
 10
96.00443357537864
 20
115.4481385250125
 30
0.0
 40
3.0
 41
0.0
 71
     5
 72
     1
  1
\A1;9
  7
CHINESET
1001
ACAD
1000
MTEXTBEGIN
1070
    73
1070
     1
1070
    44
1040
1.0
1070
    74
1070
     0
1000
MTEXTEND
  0
POINT
  5
3367
330
2EAC
100
AcDbEntity
  8
DEFPOINTS
 62
     0
100
AcDbPoint
 10
91.50443357537865
 20
82.76101367821798
 30
0.0
  0
POINT
  5
3368
330
2EAC
100
AcDbEntity
  8
DEFPOINTS
 62
     0
100
AcDbPoint
 10
100.5044335753786
 20
104.9690337713985
 30
0.0
  0
POINT
  5
3369
330
2EAC
100
AcDbEntity
  8
DEFPOINTS
 62
     0
100
AcDbPoint
 10
100.5044335753786
 20
112.9481385250125
 30
0.0
  0
ENDBLK
  5
2EB7
330
2EAC
100
AcDbEntity
  8
0
100
AcDbBlockEnd
  0
BLOCK
  5
2EC3
330
2EB9
100
AcDbEntity
  8
0
100
AcDbBlockBegin
  2
*D3
 70
     1
 10
0.0
 20
0.0
 30
0.0
  3
*D3
  1

  0
LINE
  5
3358
330
2EB9
100
AcDbEntity
  8
DIM
100
AcDbLine
 10
100.5044335753786
 20
107.9690337713985
 30
0.0
 11
100.5044335753786
 21
125.6748430674931
 31
0.0
  0
LINE
  5
3359
330
2EB9
100
AcDbEntity
  8
DIM
100
AcDbLine
 10
76.50443357537858
 20
107.9690337713985
 30
0.0
 11
76.50443357537858
 21
125.6748430674931
 31
0.0
  0
LINE
  5
335A
330
2EB9
100
AcDbEntity
  8
DIM
100
AcDbLine
 10
97.50443357537864
 20
123.6748430674931
 30
0.0
 11
79.50443357537858
 21
123.6748430674931
 31
0.0
  0
SOLID
  5
335B
330
2EB9
100
AcDbEntity
  8
DIM
100
AcDbTrace
 10
97.50443357537864
 20
124.1748430674931
 30
0.0
 11
97.50443357537864
 21
123.1748430674931
 31
0.0
 12
100.5044335753786
 22
123.6748430674931
 32
0.0
 13
100.5044335753786
 23
123.6748430674931
 33
0.0
  0
SOLID
  5
335C
330
2EB9
100
AcDbEntity
  8
DIM
100
AcDbTrace
 10
79.50443357537858
 20
124.1748430674931
 30
0.0
 11
79.50443357537858
 21
123.1748430674931
 31
0.0
 12
76.50443357537858
 22
123.6748430674931
 32
0.0
 13
76.50443357537858
 23
123.6748430674931
 33
0.0
  0
MTEXT
  5
335D
330
2EB9
100
AcDbEntity
  8
DIM
100
AcDbMText
 10
88.5044335753786
 20
126.1748430674931
 30
0.0
 40
3.0
 41
0.0
 71
     5
 72
     1
  1
\A1;24
  7
CHINESET
1001
ACAD
1000
MTEXTBEGIN
1070
    73
1070
     1
1070
    44
1040
1.0
1070
    74
1070
     0
1000
MTEXTEND
  0
POINT
  5
335E
330
2EB9
100
AcDbEntity
  8
DEFPOINTS
 62
     0
100
AcDbPoint
 10
100.5044335753786
 20
104.9690337713985
 30
0.0
  0
POINT
  5
335F
330
2EB9
100
AcDbEntity
  8
DEFPOINTS
 62
     0
100
AcDbPoint
 10
76.50443357537858
 20
104.9690337713985
 30
0.0
  0
POINT
  5
3360
330
2EB9
100
AcDbEntity
  8
DEFPOINTS
 62
     0
100
AcDbPoint
 10
76.50443357537858
 20
123.6748430674931
 30
0.0
  0
ENDBLK
  5
2EC4
330
2EB9
100
AcDbEntity
  8
0
100
AcDbBlockEnd
  0
BLOCK
  5
2ED2
330
2EC6
100
AcDbEntity
  8
0
100
AcDbBlockBegin
  2
*D4
 70
     1
 10
0.0
 20
0.0
 30
0.0
  3
*D4
  1

  0
LINE
  5
3373
330
2EC6
100
AcDbEntity
  8
DIM
100
AcDbLine
 10
100.5044335753786
 20
107.9690337713985
 30
0.0
 11
100.5044335753786
 21
125.6748430674931
 31
0.0
  0
LINE
  5
3374
330
2EC6
100
AcDbEntity
  8
DIM
100
AcDbLine
 10
107.5044335753783
 20
88.46903377139858
 30
0.0
 11
107.5044335753783
 21
125.6748430674931
 31
0.0
  0
LINE
  5
3375
330
2EC6
100
AcDbEntity
  8
DIM
100
AcDbLine
 10
97.50443357537864
 20
123.6748430674931
 30
0.0
 11
94.50443357537864
 21
123.6748430674931
 31
0.0
  0
LINE
  5
3376
330
2EC6
100
AcDbEntity
  8
DIM
100
AcDbLine
 10
110.5044335753783
 20
123.6748430674931
 30
0.0
 11
113.5044335753783
 21
123.6748430674931
 31
0.0
  0
LINE
  5
3377
330
2EC6
100
AcDbEntity
  8
DIM
100
AcDbLine
 10
100.5044335753786
 20
123.6748430674931
 30
0.0
 11
107.5044335753783
 21
123.6748430674931
 31
0.0
  0
SOLID
  5
3378
330
2EC6
100
AcDbEntity
  8
DIM
100
AcDbTrace
 10
97.50443357537864
 20
124.1748430674931
 30
0.0
 11
97.50443357537864
 21
123.1748430674931
 31
0.0
 12
100.5044335753786
 22
123.6748430674931
 32
0.0
 13
100.5044335753786
 23
123.6748430674931
 33
0.0
  0
SOLID
  5
3379
330
2EC6
100
AcDbEntity
  8
DIM
100
AcDbTrace
 10
110.5044335753783
 20
124.1748430674931
 30
0.0
 11
110.5044335753783
 21
123.1748430674931
 31
0.0
 12
107.5044335753783
 22
123.6748430674931
 32
0.0
 13
107.5044335753783
 23
123.6748430674931
 33
0.0
  0
MTEXT
  5
337A
330
2EC6
100
AcDbEntity
  8
DIM
100
AcDbMText
 10
104.0044335753784
 20
126.1748430674931
 30
0.0
 40
3.0
 41
0.0
 71
     5
 72
     1
  1
\A1;7
  7
CHINESET
1001
ACAD
1000
MTEXTBEGIN
1070
    73
1070
     1
1070
    44
1040
1.0
1070
    74
1070
     0
1000
MTEXTEND
  0
POINT
  5
337B
330
2EC6
100
AcDbEntity
  8
DEFPOINTS
 62
     0
100
AcDbPoint
 10
100.5044335753786
 20
104.9690337713985
 30
0.0
  0
POINT
  5
337C
330
2EC6
100
AcDbEntity
  8
DEFPOINTS
 62
     0
100
AcDbPoint
 10
107.5044335753783
 20
85.46903377139859
 30
0.0
  0
POINT
  5
337D
330
2EC6
100
AcDbEntity
  8
DEFPOINTS
 62
     0
100
AcDbPoint
 10
107.5044335753783
 20
123.6748430674931
 30
0.0
  0
ENDBLK
  5
2ED3
330
2EC6
100
AcDbEntity
  8
0
100
AcDbBlockEnd
  0
BLOCK
  5
2EF7
330
2EEB
100
AcDbEntity
  8
0
100
AcDbBlockBegin
  2
*D5
 70
     1
 10
0.0
 20
0.0
 30
0.0
  3
*D5
  1

  0
LINE
  5
33AB
330
2EEB
100
AcDbEntity
  8
DIM
100
AcDbLine
 10
103.8044335753786
 20
65.46903377139869
 30
0.0
 11
103.8044335753786
 21
46.53561544946444
 31
0.0
  0
LINE
  5
33AC
330
2EEB
100
AcDbEntity
  8
DIM
100
AcDbLine
 10
100.5044335753785
 20
53.46903377139859
 30
0.0
 11
100.5044335753785
 21
46.53561544946444
 31
0.0
  0
LINE
  5
33AD
330
2EEB
100
AcDbEntity
  8
DIM
100
AcDbLine
 10
97.50443357537859
 20
48.53561544946444
 30
0.0
 11
94.50443357537858
 21
48.53561544946444
 31
0.0
  0
LINE
  5
33AE
330
2EEB
100
AcDbEntity
  8
DIM
100
AcDbLine
 10
106.8044335753786
 20
48.53561544946444
 30
0.0
 11
118.0901478610929
 21
48.53561544946444
 31
0.0
  0
LINE
  5
33AF
330
2EEB
100
AcDbEntity
  8
DIM
100
AcDbLine
 10
100.5044335753785
 20
48.53561544946444
 30
0.0
 11
103.8044335753786
 21
48.53561544946444
 31
0.0
  0
SOLID
  5
33B0
330
2EEB
100
AcDbEntity
  8
DIM
100
AcDbTrace
 10
97.50443357537859
 20
49.03561544946445
 30
0.0
 11
97.50443357537859
 21
48.03561544946444
 31
0.0
 12
100.5044335753785
 22
48.53561544946444
 32
0.0
 13
100.5044335753785
 23
48.53561544946444
 33
0.0
  0
SOLID
  5
33B1
330
2EEB
100
AcDbEntity
  8
DIM
100
AcDbTrace
 10
106.8044335753786
 20
49.03561544946445
 30
0.0
 11
106.8044335753786
 21
48.03561544946444
 31
0.0
 12
103.8044335753786
 22
48.53561544946444
 32
0.0
 13
103.8044335753786
 23
48.53561544946444
 33
0.0
  0
MTEXT
  5
33B2
330
2EEB
100
AcDbEntity
  8
DIM
100
AcDbMText
 10
113.9472907182357
 20
51.03561544946444
 30
0.0
 40
3.0
 41
0.0
 71
     5
 72
     1
  1
\A1;3.3
  7
CHINESET
1001
ACAD
1000
MTEXTBEGIN
1070
    73
1070
     1
1070
    44
1040
1.0
1070
    74
1070
     0
1000
MTEXTEND
  0
POINT
  5
33B3
330
2EEB
100
AcDbEntity
  8
DEFPOINTS
 62
     0
100
AcDbPoint
 10
103.8044335753786
 20
68.4690337713987
 30
0.0
  0
POINT
  5
33B4
330
2EEB
100
AcDbEntity
  8
DEFPOINTS
 62
     0
100
AcDbPoint
 10
100.5044335753785
 20
56.46903377139858
 30
0.0
  0
POINT
  5
33B5
330
2EEB
100
AcDbEntity
  8
DEFPOINTS
 62
     0
100
AcDbPoint
 10
100.5044335753785
 20
48.53561544946444
 30
0.0
  0
ENDBLK
  5
2EF8
330
2EEB
100
AcDbEntity
  8
0
100
AcDbBlockEnd
  0
BLOCK
  5
2F0F
330
2F05
100
AcDbEntity
  8
0
100
AcDbBlockBegin
  2
*D6
 70
     1
 10
0.0
 20
0.0
 30
0.0
  3
*D6
  1

  0
LINE
  5
3399
330
2F05
100
AcDbEntity
  8
DIM
100
AcDbLine
 10
106.8044335753785
 20
86.46903377139855
 30
0.0
 11
119.0668517486383
 21
86.46903377139855
 31
0.0
  0
LINE
  5
339A
330
2F05
100
AcDbEntity
  8
DIM
100
AcDbLine
 10
106.8044335753786
 20
70.46903377139866
 30
0.0
 11
119.0668517486383
 21
70.46903377139866
 31
0.0
  0
LINE
  5
339B
330
2F05
100
AcDbEntity
  8
DIM
100
AcDbLine
 10
117.0668517486383
 20
83.46903377139856
 30
0.0
 11
117.0668517486383
 21
73.46903377139866
 31
0.0
  0
SOLID
  5
339C
330
2F05
100
AcDbEntity
  8
DIM
100
AcDbTrace
 10
116.5668517486383
 20
83.46903377139856
 30
0.0
 11
117.5668517486383
 21
83.46903377139856
 31
0.0
 12
117.0668517486383
 22
86.46903377139855
 32
0.0
 13
117.0668517486383
 23
86.46903377139855
 33
0.0
  0
SOLID
  5
339D
330
2F05
100
AcDbEntity
  8
DIM
100
AcDbTrace
 10
116.5668517486383
 20
73.46903377139866
 30
0.0
 11
117.5668517486383
 21
73.46903377139866
 31
0.0
 12
117.0668517486383
 22
70.46903377139866
 32
0.0
 13
117.0668517486383
 23
70.46903377139866
 33
0.0
  0
MTEXT
  5
339E
330
2F05
100
AcDbEntity
  8
DIM
100
AcDbMText
 10
114.5668517486383
 20
78.46903377139864
 30
0.0
 40
3.0
 41
0.0
 71
     5
 72
     1
  1
\A1;%%c16
  7
CHINESET
 11
0.0000000000000001
 21
1.0
 31
0.0
1001
ACAD
1000
MTEXTBEGIN
1070
    73
1070
     1
1070
    44
1040
1.0
1070
    74
1070
     0
1000
MTEXTEND
  0
POINT
  5
339F
330
2F05
100
AcDbEntity
  8
DEFPOINTS
 62
     0
100
AcDbPoint
 10
103.8044335753785
 20
86.46903377139855
 30
0.0
  0
POINT
  5
33A0
330
2F05
100
AcDbEntity
  8
DEFPOINTS
 62
     0
100
AcDbPoint
 10
103.8044335753786
 20
70.46903377139866
 30
0.0
  0
POINT
  5
33A1
330
2F05
100
AcDbEntity
  8
DEFPOINTS
 62
     0
100
AcDbPoint
 10
117.0668517486383
 20
70.46903377139866
 30
0.0
  0
ENDBLK
  5
2F10
330
2F05
100
AcDbEntity
  8
0
100
AcDbBlockEnd
  0
BLOCK
  5
2F1C
330
2F12
100
AcDbEntity
  8
0
100
AcDbBlockBegin
  2
*D7
 70
     1
 10
0.0
 20
0.0
 30
0.0
  3
*D7
  1

  0
LINE
  5
3390
330
2F12
100
AcDbEntity
  8
DIM
100
AcDbLine
 10
105.8044335753786
 20
89.46903377139852
 30
0.0
 11
127.4833895420194
 21
89.46903377139852
 31
0.0
  0
LINE
  5
3391
330
2F12
100
AcDbEntity
  8
DIM
100
AcDbLine
 10
105.8044335753786
 20
67.4690337713987
 30
0.0
 11
127.4833895420194
 21
67.4690337713987
 31
0.0
  0
LINE
  5
3392
330
2F12
100
AcDbEntity
  8
DIM
100
AcDbLine
 10
125.4833895420194
 20
86.46903377139853
 30
0.0
 11
125.4833895420194
 21
70.46903377139869
 31
0.0
  0
SOLID
  5
3393
330
2F12
100
AcDbEntity
  8
DIM
100
AcDbTrace
 10
124.9833895420195
 20
86.46903377139853
 30
0.0
 11
125.9833895420195
 21
86.46903377139853
 31
0.0
 12
125.4833895420194
 22
89.46903377139852
 32
0.0
 13
125.4833895420194
 23
89.46903377139852
 33
0.0
  0
SOLID
  5
3394
330
2F12
100
AcDbEntity
  8
DIM
100
AcDbTrace
 10
124.9833895420195
 20
70.46903377139869
 30
0.0
 11
125.9833895420195
 21
70.46903377139869
 31
0.0
 12
125.4833895420194
 22
67.4690337713987
 32
0.0
 13
125.4833895420194
 23
67.4690337713987
 33
0.0
  0
MTEXT
  5
3395
330
2F12
100
AcDbEntity
  8
DIM
100
AcDbMText
 10
122.9833895420194
 20
78.46903377139863
 30
0.0
 40
3.0
 41
0.0
 71
     5
 72
     1
  1
\A1;%%c22
  7
CHINESET
 11
0.0000000000000001
 21
1.0
 31
0.0
1001
ACAD
1000
MTEXTBEGIN
1070
    73
1070
     1
1070
    44
1040
1.0
1070
    74
1070
     0
1000
MTEXTEND
  0
POINT
  5
3396
330
2F12
100
AcDbEntity
  8
DEFPOINTS
 62
     0
100
AcDbPoint
 10
102.8044335753786
 20
89.46903377139852
 30
0.0
  0
POINT
  5
3397
330
2F12
100
AcDbEntity
  8
DEFPOINTS
 62
     0
100
AcDbPoint
 10
102.8044335753786
 20
67.4690337713987
 30
0.0
  0
POINT
  5
3398
330
2F12
100
AcDbEntity
  8
DEFPOINTS
 62
     0
100
AcDbPoint
 10
125.4833895420194
 20
67.4690337713987
 30
0.0
  0
ENDBLK
  5
2F1D
330
2F12
100
AcDbEntity
  8
0
100
AcDbBlockEnd
  0
BLOCK
  5
2F4F
330
2F45
100
AcDbEntity
  8
0
100
AcDbBlockBegin
  2
*D8
 70
     1
 10
0.0
 20
0.0
 30
0.0
  3
*D8
  1

  0
LINE
  5
33A2
330
2F45
100
AcDbEntity
  8
DIM
100
AcDbLine
 10
158.3291874876846
 20
95.46903377139866
 30
0.0
 11
146.5150712918705
 21
95.46903377139866
 31
0.0
  0
LINE
  5
33A3
330
2F45
100
AcDbEntity
  8
DIM
100
AcDbLine
 10
158.3291874876846
 20
61.46903377139864
 30
0.0
 11
146.5150712918705
 21
61.46903377139864
 31
0.0
  0
LINE
  5
33A4
330
2F45
100
AcDbEntity
  8
DIM
100
AcDbLine
 10
148.5150712918705
 20
92.46903377139865
 30
0.0
 11
148.5150712918705
 21
64.46903377139864
 31
0.0
  0
SOLID
  5
33A5
330
2F45
100
AcDbEntity
  8
DIM
100
AcDbTrace
 10
148.0150712918705
 20
92.46903377139865
 30
0.0
 11
149.0150712918705
 21
92.46903377139865
 31
0.0
 12
148.5150712918705
 22
95.46903377139866
 32
0.0
 13
148.5150712918705
 23
95.46903377139866
 33
0.0
  0
SOLID
  5
33A6
330
2F45
100
AcDbEntity
  8
DIM
100
AcDbTrace
 10
148.0150712918705
 20
64.46903377139864
 30
0.0
 11
149.0150712918705
 21
64.46903377139864
 31
0.0
 12
148.5150712918705
 22
61.46903377139864
 32
0.0
 13
148.5150712918705
 23
61.46903377139864
 33
0.0
  0
MTEXT
  5
33A7
330
2F45
100
AcDbEntity
  8
DIM
100
AcDbMText
 10
146.0150712918705
 20
78.46903377139866
 30
0.0
 40
3.0
 41
0.0
 71
     5
 72
     1
  1
\A1;\U+25A134
  7
CHINESET
 11
0.0000000000000001
 21
1.0
 31
0.0
1001
ACAD
1000
MTEXTBEGIN
1070
    73
1070
     1
1070
    44
1040
1.0
1070
    74
1070
     0
1000
MTEXTEND
  0
POINT
  5
33A8
330
2F45
100
AcDbEntity
  8
DEFPOINTS
 62
     0
100
AcDbPoint
 10
161.3291874876846
 20
95.46903377139864
 30
0.0
  0
POINT
  5
33A9
330
2F45
100
AcDbEntity
  8
DEFPOINTS
 62
     0
100
AcDbPoint
 10
161.3291874876846
 20
61.46903377139864
 30
0.0
  0
POINT
  5
33AA
330
2F45
100
AcDbEntity
  8
DEFPOINTS
 62
     0
100
AcDbPoint
 10
148.5150712918705
 20
61.46903377139864
 30
0.0
  0
ENDBLK
  5
2F50
330
2F45
100
AcDbEntity
  8
0
100
AcDbBlockEnd
  0
BLOCK
  5
2F5C
330
2F52
100
AcDbEntity
  8
0
100
AcDbBlockBegin
  2
*D9
 70
     1
 10
0.0
 20
0.0
 30
0.0
  3
*D9
  1

  0
LINE
  5
3387
330
2F52
100
AcDbEntity
  8
DIM
100
AcDbLine
 10
160.5750055765263
 20
100.4690337713986
 30
0.0
 11
137.0309296758728
 21
100.4690337713986
 31
0.0
  0
LINE
  5
3388
330
2F52
100
AcDbEntity
  8
DIM
100
AcDbLine
 10
160.5750055765263
 20
56.46903377139856
 30
0.0
 11
137.0309296758728
 21
56.46903377139857
 31
0.0
  0
LINE
  5
3389
330
2F52
100
AcDbEntity
  8
DIM
100
AcDbLine
 10
139.0309296758728
 20
97.46903377139865
 30
0.0
 11
139.0309296758728
 21
59.46903377139856
 31
0.0
  0
SOLID
  5
338A
330
2F52
100
AcDbEntity
  8
DIM
100
AcDbTrace
 10
138.5309296758728
 20
97.46903377139865
 30
0.0
 11
139.5309296758728
 21
97.46903377139865
 31
0.0
 12
139.0309296758728
 22
100.4690337713986
 32
0.0
 13
139.0309296758728
 23
100.4690337713986
 33
0.0
  0
SOLID
  5
338B
330
2F52
100
AcDbEntity
  8
DIM
100
AcDbTrace
 10
138.5309296758728
 20
59.46903377139856
 30
0.0
 11
139.5309296758728
 21
59.46903377139856
 31
0.0
 12
139.0309296758728
 22
56.46903377139857
 32
0.0
 13
139.0309296758728
 23
56.46903377139857
 33
0.0
  0
MTEXT
  5
338C
330
2F52
100
AcDbEntity
  8
DIM
100
AcDbMText
 10
136.5309296758728
 20
78.46903377139863
 30
0.0
 40
3.0
 41
0.0
 71
     5
 72
     1
  1
\A1;44
  7
CHINESET
 11
0.0000000000000001
 21
1.0
 31
0.0
1001
ACAD
1000
MTEXTBEGIN
1070
    73
1070
     1
1070
    44
1040
1.0
1070
    74
1070
     0
1000
MTEXTEND
  0
POINT
  5
338D
330
2F52
100
AcDbEntity
  8
DEFPOINTS
 62
     0
100
AcDbPoint
 10
163.5750055765263
 20
100.4690337713986
 30
0.0
  0
POINT
  5
338E
330
2F52
100
AcDbEntity
  8
DEFPOINTS
 62
     0
100
AcDbPoint
 10
163.5750055765263
 20
56.46903377139856
 30
0.0
  0
POINT
  5
338F
330
2F52
100
AcDbEntity
  8
DEFPOINTS
 62
     0
100
AcDbPoint
 10
139.0309296758728
 20
56.46903377139857
 30
0.0
  0
ENDBLK
  5
2F5D
330
2F52
100
AcDbEntity
  8
0
100
AcDbBlockEnd
  0
BLOCK
  5
2F69
330
2F5F
100
AcDbEntity
  8
0
100
AcDbBlockBegin
  2
*D10
 70
     1
 10
0.0
 20
0.0
 30
0.0
  3
*D10
  1

  0
LINE
  5
337E
330
2F5F
100
AcDbEntity
  8
DIM
100
AcDbLine
 10
205.2282495835597
 20
101.1222777784321
 30
0.0
 11
205.2282495835597
 21
113.5831567002696
 31
0.0
  0
LINE
  5
337F
330
2F5F
100
AcDbEntity
  8
DIM
100
AcDbLine
 10
156.7282495835597
 20
88.28500719508538
 30
0.0
 11
156.7282495835597
 21
113.5831567002696
 31
0.0
  0
LINE
  5
3380
330
2F5F
100
AcDbEntity
  8
DIM
100
AcDbLine
 10
202.2282495835598
 20
111.5831567002696
 30
0.0
 11
159.7282495835597
 21
111.5831567002696
 31
0.0
  0
SOLID
  5
3381
330
2F5F
100
AcDbEntity
  8
DIM
100
AcDbTrace
 10
202.2282495835598
 20
112.0831567002696
 30
0.0
 11
202.2282495835598
 21
111.0831567002696
 31
0.0
 12
205.2282495835597
 22
111.5831567002696
 32
0.0
 13
205.2282495835597
 23
111.5831567002696
 33
0.0
  0
SOLID
  5
3382
330
2F5F
100
AcDbEntity
  8
DIM
100
AcDbTrace
 10
159.7282495835597
 20
112.0831567002696
 30
0.0
 11
159.7282495835597
 21
111.0831567002696
 31
0.0
 12
156.7282495835597
 22
111.5831567002696
 32
0.0
 13
156.7282495835597
 23
111.5831567002696
 33
0.0
  0
MTEXT
  5
3383
330
2F5F
100
AcDbEntity
  8
DIM
100
AcDbMText
 10
180.9782495835597
 20
114.0831567002696
 30
0.0
 40
3.0
 41
0.0
 71
     5
 72
     1
  1
\A1;48.5
  7
CHINESET
1001
ACAD
1000
MTEXTBEGIN
1070
    73
1070
     1
1070
    44
1040
1.0
1070
    74
1070
     0
1000
MTEXTEND
  0
POINT
  5
3384
330
2F5F
100
AcDbEntity
  8
DEFPOINTS
 62
     0
100
AcDbPoint
 10
205.2282495835597
 20
98.12227777843219
 30
0.0
  0
POINT
  5
3385
330
2F5F
100
AcDbEntity
  8
DEFPOINTS
 62
     0
100
AcDbPoint
 10
156.7282495835597
 20
85.28500719508537
 30
0.0
  0
POINT
  5
3386
330
2F5F
100
AcDbEntity
  8
DEFPOINTS
 62
     0
100
AcDbPoint
 10
156.7282495835597
 20
111.5831567002696
 30
0.0
  0
ENDBLK
  5
2F6A
330
2F5F
100
AcDbEntity
  8
0
100
AcDbBlockEnd
  0
BLOCK
  5
3030
330
3026
100
AcDbEntity
  8
0
100
AcDbBlockBegin
  2
*D11
 70
     1
 10
0.0
 20
0.0
 30
0.0
  3
*D11
  1

  0
LINE
  5
32F3
330
3026
100
AcDbEntity
  8
DIM
100
AcDbLine
 10
85.50443357537853
 20
228.5608069737696
 30
0.0
 11
85.50443357537853
 21
257.7479318205642
 31
0.0
  0
LINE
  5
32F4
330
3026
100
AcDbEntity
  8
DIM
100
AcDbLine
 10
76.50443357537858
 20
250.7688270669502
 30
0.0
 11
76.50443357537858
 21
257.7479318205642
 31
0.0
  0
LINE
  5
32F5
330
3026
100
AcDbEntity
  8
DIM
100
AcDbLine
 10
82.50443357537852
 20
255.7479318205642
 30
0.0
 11
79.50443357537858
 21
255.7479318205642
 31
0.0
  0
SOLID
  5
32F6
330
3026
100
AcDbEntity
  8
DIM
100
AcDbTrace
 10
82.50443357537852
 20
256.2479318205642
 30
0.0
 11
82.50443357537852
 21
255.2479318205641
 31
0.0
 12
85.50443357537853
 22
255.7479318205642
 32
0.0
 13
85.50443357537853
 23
255.7479318205642
 33
0.0
  0
SOLID
  5
32F7
330
3026
100
AcDbEntity
  8
DIM
100
AcDbTrace
 10
79.50443357537858
 20
256.2479318205642
 30
0.0
 11
79.50443357537858
 21
255.2479318205641
 31
0.0
 12
76.50443357537858
 22
255.7479318205642
 32
0.0
 13
76.50443357537858
 23
255.7479318205642
 33
0.0
  0
MTEXT
  5
32F8
330
3026
100
AcDbEntity
  8
DIM
100
AcDbMText
 10
81.00443357537855
 20
258.2479318205642
 30
0.0
 40
3.0
 41
0.0
 71
     5
 72
     1
  1
\A1;9
  7
CHINESET
1001
ACAD
1000
MTEXTBEGIN
1070
    73
1070
     1
1070
    44
1040
1.0
1070
    74
1070
     0
1000
MTEXTEND
  0
POINT
  5
32F9
330
3026
100
AcDbEntity
  8
DEFPOINTS
 62
     0
100
AcDbPoint
 10
85.50443357537853
 20
225.5608069737696
 30
0.0
  0
POINT
  5
32FA
330
3026
100
AcDbEntity
  8
DEFPOINTS
 62
     0
100
AcDbPoint
 10
76.50443357537858
 20
247.7688270669502
 30
0.0
  0
POINT
  5
32FB
330
3026
100
AcDbEntity
  8
DEFPOINTS
 62
     0
100
AcDbPoint
 10
76.50443357537858
 20
255.7479318205642
 30
0.0
  0
ENDBLK
  5
3031
330
3026
100
AcDbEntity
  8
0
100
AcDbBlockEnd
  0
BLOCK
  5
303C
330
3032
100
AcDbEntity
  8
0
100
AcDbBlockBegin
  2
*D12
 70
     1
 10
0.0
 20
0.0
 30
0.0
  3
*D12
  1

  0
LINE
  5
32E1
330
3032
100
AcDbEntity
  8
DIM
100
AcDbLine
 10
91.50443357537865
 20
228.5608069737696
 30
0.0
 11
91.50443357537865
 21
257.7479318205642
 31
0.0
  0
LINE
  5
32E2
330
3032
100
AcDbEntity
  8
DIM
100
AcDbLine
 10
100.5044335753786
 20
250.7688270669502
 30
0.0
 11
100.5044335753786
 21
257.7479318205642
 31
0.0
  0
LINE
  5
32E3
330
3032
100
AcDbEntity
  8
DIM
100
AcDbLine
 10
94.50443357537864
 20
255.7479318205642
 30
0.0
 11
97.50443357537864
 21
255.7479318205642
 31
0.0
  0
SOLID
  5
32E4
330
3032
100
AcDbEntity
  8
DIM
100
AcDbTrace
 10
94.50443357537864
 20
256.2479318205642
 30
0.0
 11
94.50443357537864
 21
255.2479318205641
 31
0.0
 12
91.50443357537865
 22
255.7479318205642
 32
0.0
 13
91.50443357537865
 23
255.7479318205642
 33
0.0
  0
SOLID
  5
32E5
330
3032
100
AcDbEntity
  8
DIM
100
AcDbTrace
 10
97.50443357537864
 20
256.2479318205642
 30
0.0
 11
97.50443357537864
 21
255.2479318205641
 31
0.0
 12
100.5044335753786
 22
255.7479318205642
 32
0.0
 13
100.5044335753786
 23
255.7479318205642
 33
0.0
  0
MTEXT
  5
32E6
330
3032
100
AcDbEntity
  8
DIM
100
AcDbMText
 10
96.00443357537864
 20
258.2479318205642
 30
0.0
 40
3.0
 41
0.0
 71
     5
 72
     1
  1
\A1;9
  7
CHINESET
1001
ACAD
1000
MTEXTBEGIN
1070
    73
1070
     1
1070
    44
1040
1.0
1070
    74
1070
     0
1000
MTEXTEND
  0
POINT
  5
32E7
330
3032
100
AcDbEntity
  8
DEFPOINTS
 62
     0
100
AcDbPoint
 10
91.50443357537865
 20
225.5608069737696
 30
0.0
  0
POINT
  5
32E8
330
3032
100
AcDbEntity
  8
DEFPOINTS
 62
     0
100
AcDbPoint
 10
100.5044335753786
 20
247.7688270669502
 30
0.0
  0
POINT
  5
32E9
330
3032
100
AcDbEntity
  8
DEFPOINTS
 62
     0
100
AcDbPoint
 10
100.5044335753786
 20
255.7479318205642
 30
0.0
  0
ENDBLK
  5
303D
330
3032
100
AcDbEntity
  8
0
100
AcDbBlockEnd
  0
BLOCK
  5
3048
330
303E
100
AcDbEntity
  8
0
100
AcDbBlockBegin
  2
*D13
 70
     1
 10
0.0
 20
0.0
 30
0.0
  3
*D13
  1

  0
LINE
  5
32EA
330
303E
100
AcDbEntity
  8
DIM
100
AcDbLine
 10
100.5044335753786
 20
250.7688270669502
 30
0.0
 11
100.5044335753786
 21
268.4746363630448
 31
0.0
  0
LINE
  5
32EB
330
303E
100
AcDbEntity
  8
DIM
100
AcDbLine
 10
76.50443357537858
 20
250.7688270669502
 30
0.0
 11
76.50443357537858
 21
268.4746363630448
 31
0.0
  0
LINE
  5
32EC
330
303E
100
AcDbEntity
  8
DIM
100
AcDbLine
 10
97.50443357537864
 20
266.4746363630448
 30
0.0
 11
79.50443357537858
 21
266.4746363630448
 31
0.0
  0
SOLID
  5
32ED
330
303E
100
AcDbEntity
  8
DIM
100
AcDbTrace
 10
97.50443357537864
 20
266.9746363630448
 30
0.0
 11
97.50443357537864
 21
265.9746363630448
 31
0.0
 12
100.5044335753786
 22
266.4746363630448
 32
0.0
 13
100.5044335753786
 23
266.4746363630448
 33
0.0
  0
SOLID
  5
32EE
330
303E
100
AcDbEntity
  8
DIM
100
AcDbTrace
 10
79.50443357537858
 20
266.9746363630448
 30
0.0
 11
79.50443357537858
 21
265.9746363630448
 31
0.0
 12
76.50443357537858
 22
266.4746363630448
 32
0.0
 13
76.50443357537858
 23
266.4746363630448
 33
0.0
  0
MTEXT
  5
32EF
330
303E
100
AcDbEntity
  8
DIM
100
AcDbMText
 10
88.5044335753786
 20
268.9746363630448
 30
0.0
 40
3.0
 41
0.0
 71
     5
 72
     1
  1
\A1;24
  7
CHINESET
1001
ACAD
1000
MTEXTBEGIN
1070
    73
1070
     1
1070
    44
1040
1.0
1070
    74
1070
     0
1000
MTEXTEND
  0
POINT
  5
32F0
330
303E
100
AcDbEntity
  8
DEFPOINTS
 62
     0
100
AcDbPoint
 10
100.5044335753786
 20
247.7688270669502
 30
0.0
  0
POINT
  5
32F1
330
303E
100
AcDbEntity
  8
DEFPOINTS
 62
     0
100
AcDbPoint
 10
76.50443357537858
 20
247.7688270669502
 30
0.0
  0
POINT
  5
32F2
330
303E
100
AcDbEntity
  8
DEFPOINTS
 62
     0
100
AcDbPoint
 10
76.50443357537858
 20
266.4746363630448
 30
0.0
  0
ENDBLK
  5
3049
330
303E
100
AcDbEntity
  8
0
100
AcDbBlockEnd
  0
BLOCK
  5
3056
330
304A
100
AcDbEntity
  8
0
100
AcDbBlockBegin
  2
*D14
 70
     1
 10
0.0
 20
0.0
 30
0.0
  3
*D14
  1

  0
LINE
  5
3305
330
304A
100
AcDbEntity
  8
DIM
100
AcDbLine
 10
100.5044335753786
 20
250.7688270669502
 30
0.0
 11
100.5044335753786
 21
268.4746363630448
 31
0.0
  0
LINE
  5
3306
330
304A
100
AcDbEntity
  8
DIM
100
AcDbLine
 10
124.5044335753786
 20
230.0688270669502
 30
0.0
 11
124.5044335753786
 21
268.4746363630448
 31
0.0
  0
LINE
  5
3307
330
304A
100
AcDbEntity
  8
DIM
100
AcDbLine
 10
103.5044335753786
 20
266.4746363630448
 30
0.0
 11
121.5044335753786
 21
266.4746363630448
 31
0.0
  0
SOLID
  5
3308
330
304A
100
AcDbEntity
  8
DIM
100
AcDbTrace
 10
103.5044335753786
 20
266.9746363630448
 30
0.0
 11
103.5044335753786
 21
265.9746363630448
 31
0.0
 12
100.5044335753786
 22
266.4746363630448
 32
0.0
 13
100.5044335753786
 23
266.4746363630448
 33
0.0
  0
SOLID
  5
3309
330
304A
100
AcDbEntity
  8
DIM
100
AcDbTrace
 10
121.5044335753786
 20
266.9746363630448
 30
0.0
 11
121.5044335753786
 21
265.9746363630448
 31
0.0
 12
124.5044335753786
 22
266.4746363630448
 32
0.0
 13
124.5044335753786
 23
266.4746363630448
 33
0.0
  0
MTEXT
  5
330A
330
304A
100
AcDbEntity
  8
DIM
100
AcDbMText
 10
112.5044335753786
 20
268.9746363630448
 30
0.0
 40
3.0
 41
0.0
 71
     5
 72
     1
  1
\A1;24
  7
CHINESET
1001
ACAD
1000
MTEXTBEGIN
1070
    73
1070
     1
1070
    44
1040
1.0
1070
    74
1070
     0
1000
MTEXTEND
  0
POINT
  5
330B
330
304A
100
AcDbEntity
  8
DEFPOINTS
 62
     0
100
AcDbPoint
 10
100.5044335753786
 20
247.7688270669502
 30
0.0
  0
POINT
  5
330C
330
304A
100
AcDbEntity
  8
DEFPOINTS
 62
     0
100
AcDbPoint
 10
124.5044335753786
 20
227.0688270669503
 30
0.0
  0
POINT
  5
330D
330
304A
100
AcDbEntity
  8
DEFPOINTS
 62
     0
100
AcDbPoint
 10
124.5044335753786
 20
266.4746363630448
 30
0.0
  0
ENDBLK
  5
3057
330
304A
100
AcDbEntity
  8
0
100
AcDbBlockEnd
  0
BLOCK
  5
3064
330
3058
100
AcDbEntity
  8
0
100
AcDbBlockBegin
  2
*D15
 70
     1
 10
0.0
 20
0.0
 30
0.0
  3
*D15
  1

  0
LINE
  5
333B
330
3058
100
AcDbEntity
  8
DIM
100
AcDbLine
 10
103.8044335753786
 20
208.2688270669503
 30
0.0
 11
103.8044335753786
 21
189.3354087450161
 31
0.0
  0
LINE
  5
333C
330
3058
100
AcDbEntity
  8
DIM
100
AcDbLine
 10
100.5044335753785
 20
196.2688270669502
 30
0.0
 11
100.5044335753785
 21
189.3354087450161
 31
0.0
  0
LINE
  5
333D
330
3058
100
AcDbEntity
  8
DIM
100
AcDbLine
 10
97.50443357537859
 20
191.3354087450161
 30
0.0
 11
94.50443357537858
 21
191.3354087450161
 31
0.0
  0
LINE
  5
333E
330
3058
100
AcDbEntity
  8
DIM
100
AcDbLine
 10
106.8044335753786
 20
191.3354087450161
 30
0.0
 11
118.0901478610929
 21
191.3354087450161
 31
0.0
  0
LINE
  5
333F
330
3058
100
AcDbEntity
  8
DIM
100
AcDbLine
 10
100.5044335753785
 20
191.3354087450161
 30
0.0
 11
103.8044335753786
 21
191.3354087450161
 31
0.0
  0
SOLID
  5
3340
330
3058
100
AcDbEntity
  8
DIM
100
AcDbTrace
 10
97.50443357537859
 20
191.8354087450161
 30
0.0
 11
97.50443357537859
 21
190.8354087450161
 31
0.0
 12
100.5044335753785
 22
191.3354087450161
 32
0.0
 13
100.5044335753785
 23
191.3354087450161
 33
0.0
  0
SOLID
  5
3341
330
3058
100
AcDbEntity
  8
DIM
100
AcDbTrace
 10
106.8044335753786
 20
191.8354087450161
 30
0.0
 11
106.8044335753786
 21
190.8354087450161
 31
0.0
 12
103.8044335753786
 22
191.3354087450161
 32
0.0
 13
103.8044335753786
 23
191.3354087450161
 33
0.0
  0
MTEXT
  5
3342
330
3058
100
AcDbEntity
  8
DIM
100
AcDbMText
 10
113.9472907182357
 20
193.8354087450161
 30
0.0
 40
3.0
 41
0.0
 71
     5
 72
     1
  1
\A1;3.3
  7
CHINESET
1001
ACAD
1000
MTEXTBEGIN
1070
    73
1070
     1
1070
    44
1040
1.0
1070
    74
1070
     0
1000
MTEXTEND
  0
POINT
  5
3343
330
3058
100
AcDbEntity
  8
DEFPOINTS
 62
     0
100
AcDbPoint
 10
103.8044335753786
 20
211.2688270669504
 30
0.0
  0
POINT
  5
3344
330
3058
100
AcDbEntity
  8
DEFPOINTS
 62
     0
100
AcDbPoint
 10
100.5044335753785
 20
199.2688270669502
 30
0.0
  0
POINT
  5
3345
330
3058
100
AcDbEntity
  8
DEFPOINTS
 62
     0
100
AcDbPoint
 10
100.5044335753785
 20
191.3354087450161
 30
0.0
  0
ENDBLK
  5
3065
330
3058
100
AcDbEntity
  8
0
100
AcDbBlockEnd
  0
BLOCK
  5
3070
330
3066
100
AcDbEntity
  8
0
100
AcDbBlockBegin
  2
*D16
 70
     1
 10
0.0
 20
0.0
 30
0.0
  3
*D16
  1

  0
LINE
  5
3320
330
3066
100
AcDbEntity
  8
DIM
100
AcDbLine
 10
106.8044335753785
 20
229.2688270669502
 30
0.0
 11
139.8146621443172
 21
229.2688270669502
 31
0.0
  0
LINE
  5
3321
330
3066
100
AcDbEntity
  8
DIM
100
AcDbLine
 10
106.8044335753786
 20
213.2688270669503
 30
0.0
 11
139.8146621443172
 21
213.2688270669503
 31
0.0
  0
LINE
  5
3322
330
3066
100
AcDbEntity
  8
DIM
100
AcDbLine
 10
137.8146621443172
 20
226.2688270669503
 30
0.0
 11
137.8146621443172
 21
216.2688270669503
 31
0.0
  0
SOLID
  5
3323
330
3066
100
AcDbEntity
  8
DIM
100
AcDbTrace
 10
137.3146621443172
 20
226.2688270669503
 30
0.0
 11
138.3146621443172
 21
226.2688270669503
 31
0.0
 12
137.8146621443172
 22
229.2688270669502
 32
0.0
 13
137.8146621443172
 23
229.2688270669502
 33
0.0
  0
SOLID
  5
3324
330
3066
100
AcDbEntity
  8
DIM
100
AcDbTrace
 10
137.3146621443172
 20
216.2688270669503
 30
0.0
 11
138.3146621443172
 21
216.2688270669503
 31
0.0
 12
137.8146621443172
 22
213.2688270669503
 32
0.0
 13
137.8146621443172
 23
213.2688270669503
 33
0.0
  0
MTEXT
  5
3325
330
3066
100
AcDbEntity
  8
DIM
100
AcDbMText
 10
135.3146621443171
 20
221.2688270669503
 30
0.0
 40
3.0
 41
0.0
 71
     5
 72
     1
  1
\A1;%%C16
  7
CHINESET
 11
0.0000000000000001
 21
1.0
 31
0.0
1001
ACAD
1000
MTEXTBEGIN
1070
    73
1070
     1
1070
    44
1040
1.0
1070
    74
1070
     0
1000
MTEXTEND
  0
POINT
  5
3326
330
3066
100
AcDbEntity
  8
DEFPOINTS
 62
     0
100
AcDbPoint
 10
103.8044335753785
 20
229.2688270669502
 30
0.0
  0
POINT
  5
3327
330
3066
100
AcDbEntity
  8
DEFPOINTS
 62
     0
100
AcDbPoint
 10
103.8044335753786
 20
213.2688270669503
 30
0.0
  0
POINT
  5
3328
330
3066
100
AcDbEntity
  8
DEFPOINTS
 62
     0
100
AcDbPoint
 10
137.8146621443172
 20
213.2688270669503
 30
0.0
  0
ENDBLK
  5
3071
330
3066
100
AcDbEntity
  8
0
100
AcDbBlockEnd
  0
BLOCK
  5
307C
330
3072
100
AcDbEntity
  8
0
100
AcDbBlockBegin
  2
*D17
 70
     1
 10
0.0
 20
0.0
 30
0.0
  3
*D17
  1

  0
LINE
  5
3317
330
3072
100
AcDbEntity
  8
DIM
100
AcDbLine
 10
105.8044335753786
 20
232.2688270669502
 30
0.0
 11
147.2256481744884
 21
232.2688270669502
 31
0.0
  0
LINE
  5
3318
330
3072
100
AcDbEntity
  8
DIM
100
AcDbLine
 10
105.8044335753786
 20
210.2688270669503
 30
0.0
 11
147.2256481744884
 21
210.2688270669503
 31
0.0
  0
LINE
  5
3319
330
3072
100
AcDbEntity
  8
DIM
100
AcDbLine
 10
145.2256481744884
 20
229.2688270669502
 30
0.0
 11
145.2256481744884
 21
213.2688270669504
 31
0.0
  0
SOLID
  5
331A
330
3072
100
AcDbEntity
  8
DIM
100
AcDbTrace
 10
144.7256481744884
 20
229.2688270669502
 30
0.0
 11
145.7256481744884
 21
229.2688270669502
 31
0.0
 12
145.2256481744884
 22
232.2688270669502
 32
0.0
 13
145.2256481744884
 23
232.2688270669502
 33
0.0
  0
SOLID
  5
331B
330
3072
100
AcDbEntity
  8
DIM
100
AcDbTrace
 10
144.7256481744884
 20
213.2688270669504
 30
0.0
 11
145.7256481744884
 21
213.2688270669504
 31
0.0
 12
145.2256481744884
 22
210.2688270669503
 32
0.0
 13
145.2256481744884
 23
210.2688270669503
 33
0.0
  0
MTEXT
  5
331C
330
3072
100
AcDbEntity
  8
DIM
100
AcDbMText
 10
142.7256481744884
 20
221.2688270669503
 30
0.0
 40
3.0
 41
0.0
 71
     5
 72
     1
  1
\A1;%%c22
  7
CHINESET
 11
0.0000000000000001
 21
1.0
 31
0.0
1001
ACAD
1000
MTEXTBEGIN
1070
    73
1070
     1
1070
    44
1040
1.0
1070
    74
1070
     0
1000
MTEXTEND
  0
POINT
  5
331D
330
3072
100
AcDbEntity
  8
DEFPOINTS
 62
     0
100
AcDbPoint
 10
102.8044335753786
 20
232.2688270669502
 30
0.0
  0
POINT
  5
331E
330
3072
100
AcDbEntity
  8
DEFPOINTS
 62
     0
100
AcDbPoint
 10
102.8044335753786
 20
210.2688270669503
 30
0.0
  0
POINT
  5
331F
330
3072
100
AcDbEntity
  8
DEFPOINTS
 62
     0
100
AcDbPoint
 10
145.2256481744884
 20
210.2688270669503
 30
0.0
  0
ENDBLK
  5
307D
330
3072
100
AcDbEntity
  8
0
100
AcDbBlockEnd
  0
BLOCK
  5
3088
330
307E
100
AcDbEntity
  8
0
100
AcDbBlockBegin
  2
*D18
 70
     1
 10
0.0
 20
0.0
 30
0.0
  3
*D18
  1

  0
LINE
  5
3329
330
307E
100
AcDbEntity
  8
DIM
100
AcDbLine
 10
177.223251340804
 20
238.2688270669503
 30
0.0
 11
165.4091351449899
 21
238.2688270669503
 31
0.0
  0
LINE
  5
332A
330
307E
100
AcDbEntity
  8
DIM
100
AcDbLine
 10
177.223251340804
 20
204.2688270669503
 30
0.0
 11
165.4091351449899
 21
204.2688270669503
 31
0.0
  0
LINE
  5
332B
330
307E
100
AcDbEntity
  8
DIM
100
AcDbLine
 10
167.4091351449899
 20
235.2688270669503
 30
0.0
 11
167.4091351449899
 21
207.2688270669503
 31
0.0
  0
SOLID
  5
332C
330
307E
100
AcDbEntity
  8
DIM
100
AcDbTrace
 10
166.9091351449899
 20
235.2688270669503
 30
0.0
 11
167.9091351449899
 21
235.2688270669503
 31
0.0
 12
167.4091351449899
 22
238.2688270669503
 32
0.0
 13
167.4091351449899
 23
238.2688270669503
 33
0.0
  0
SOLID
  5
332D
330
307E
100
AcDbEntity
  8
DIM
100
AcDbTrace
 10
166.9091351449899
 20
207.2688270669503
 30
0.0
 11
167.9091351449899
 21
207.2688270669503
 31
0.0
 12
167.4091351449899
 22
204.2688270669503
 32
0.0
 13
167.4091351449899
 23
204.2688270669503
 33
0.0
  0
MTEXT
  5
332E
330
307E
100
AcDbEntity
  8
DIM
100
AcDbMText
 10
164.9091351449898
 20
221.2688270669503
 30
0.0
 40
3.0
 41
0.0
 71
     5
 72
     1
  1
\A1;\U+25A134
  7
CHINESET
 11
0.0000000000000001
 21
1.0
 31
0.0
1001
ACAD
1000
MTEXTBEGIN
1070
    73
1070
     1
1070
    44
1040
1.0
1070
    74
1070
     0
1000
MTEXTEND
  0
POINT
  5
332F
330
307E
100
AcDbEntity
  8
DEFPOINTS
 62
     0
100
AcDbPoint
 10
180.223251340804
 20
238.2688270669503
 30
0.0
  0
POINT
  5
3330
330
307E
100
AcDbEntity
  8
DEFPOINTS
 62
     0
100
AcDbPoint
 10
180.223251340804
 20
204.2688270669503
 30
0.0
  0
POINT
  5
3331
330
307E
100
AcDbEntity
  8
DEFPOINTS
 62
     0
100
AcDbPoint
 10
167.4091351449899
 20
204.2688270669503
 30
0.0
  0
ENDBLK
  5
3089
330
307E
100
AcDbEntity
  8
0
100
AcDbBlockEnd
  0
BLOCK
  5
3094
330
308A
100
AcDbEntity
  8
0
100
AcDbBlockBegin
  2
*D19
 70
     1
 10
0.0
 20
0.0
 30
0.0
  3
*D19
  1

  0
LINE
  5
3332
330
308A
100
AcDbEntity
  8
DIM
100
AcDbLine
 10
179.4690694296457
 20
243.2688270669503
 30
0.0
 11
155.9249935289922
 21
243.2688270669503
 31
0.0
  0
LINE
  5
3333
330
308A
100
AcDbEntity
  8
DIM
100
AcDbLine
 10
179.4690694296457
 20
199.2688270669502
 30
0.0
 11
155.9249935289922
 21
199.2688270669502
 31
0.0
  0
LINE
  5
3334
330
308A
100
AcDbEntity
  8
DIM
100
AcDbLine
 10
157.9249935289922
 20
240.2688270669503
 30
0.0
 11
157.9249935289922
 21
202.2688270669502
 31
0.0
  0
SOLID
  5
3335
330
308A
100
AcDbEntity
  8
DIM
100
AcDbTrace
 10
157.4249935289922
 20
240.2688270669503
 30
0.0
 11
158.4249935289922
 21
240.2688270669503
 31
0.0
 12
157.9249935289922
 22
243.2688270669503
 32
0.0
 13
157.9249935289922
 23
243.2688270669503
 33
0.0
  0
SOLID
  5
3336
330
308A
100
AcDbEntity
  8
DIM
100
AcDbTrace
 10
157.4249935289922
 20
202.2688270669502
 30
0.0
 11
158.4249935289922
 21
202.2688270669502
 31
0.0
 12
157.9249935289922
 22
199.2688270669502
 32
0.0
 13
157.9249935289922
 23
199.2688270669502
 33
0.0
  0
MTEXT
  5
3337
330
308A
100
AcDbEntity
  8
DIM
100
AcDbMText
 10
155.4249935289921
 20
221.2688270669503
 30
0.0
 40
3.0
 41
0.0
 71
     5
 72
     1
  1
\A1;44
  7
CHINESET
 11
0.0000000000000001
 21
1.0
 31
0.0
1001
ACAD
1000
MTEXTBEGIN
1070
    73
1070
     1
1070
    44
1040
1.0
1070
    74
1070
     0
1000
MTEXTEND
  0
POINT
  5
3338
330
308A
100
AcDbEntity
  8
DEFPOINTS
 62
     0
100
AcDbPoint
 10
182.4690694296457
 20
243.2688270669503
 30
0.0
  0
POINT
  5
3339
330
308A
100
AcDbEntity
  8
DEFPOINTS
 62
     0
100
AcDbPoint
 10
182.4690694296457
 20
199.2688270669502
 30
0.0
  0
POINT
  5
333A
330
308A
100
AcDbEntity
  8
DEFPOINTS
 62
     0
100
AcDbPoint
 10
157.9249935289922
 20
199.2688270669502
 30
0.0
  0
ENDBLK
  5
3095
330
308A
100
AcDbEntity
  8
0
100
AcDbBlockEnd
  0
BLOCK
  5
30A0
330
3096
100
AcDbEntity
  8
0
100
AcDbBlockBegin
  2
*D20
 70
     1
 10
0.0
 20
0.0
 30
0.0
  3
*D20
  1

  0
LINE
  5
330E
330
3096
100
AcDbEntity
  8
DIM
100
AcDbLine
 10
224.1223134366792
 20
243.9220710739838
 30
0.0
 11
224.1223134366792
 21
256.3829499958213
 31
0.0
  0
LINE
  5
330F
330
3096
100
AcDbEntity
  8
DIM
100
AcDbLine
 10
175.6223134366791
 20
231.084800490637
 30
0.0
 11
175.6223134366791
 21
256.3829499958213
 31
0.0
  0
LINE
  5
3310
330
3096
100
AcDbEntity
  8
DIM
100
AcDbLine
 10
221.1223134366792
 20
254.3829499958213
 30
0.0
 11
178.6223134366791
 21
254.3829499958213
 31
0.0
  0
SOLID
  5
3311
330
3096
100
AcDbEntity
  8
DIM
100
AcDbTrace
 10
221.1223134366792
 20
254.8829499958213
 30
0.0
 11
221.1223134366792
 21
253.8829499958213
 31
0.0
 12
224.1223134366792
 22
254.3829499958213
 32
0.0
 13
224.1223134366792
 23
254.3829499958213
 33
0.0
  0
SOLID
  5
3312
330
3096
100
AcDbEntity
  8
DIM
100
AcDbTrace
 10
178.6223134366791
 20
254.8829499958213
 30
0.0
 11
178.6223134366791
 21
253.8829499958213
 31
0.0
 12
175.6223134366791
 22
254.3829499958213
 32
0.0
 13
175.6223134366791
 23
254.3829499958213
 33
0.0
  0
MTEXT
  5
3313
330
3096
100
AcDbEntity
  8
DIM
100
AcDbMText
 10
199.8723134366791
 20
256.8829499958213
 30
0.0
 40
3.0
 41
0.0
 71
     5
 72
     1
  1
\A1;48.5
  7
CHINESET
1001
ACAD
1000
MTEXTBEGIN
1070
    73
1070
     1
1070
    44
1040
1.0
1070
    74
1070
     0
1000
MTEXTEND
  0
POINT
  5
3314
330
3096
100
AcDbEntity
  8
DEFPOINTS
 62
     0
100
AcDbPoint
 10
224.1223134366792
 20
240.9220710739838
 30
0.0
  0
POINT
  5
3315
330
3096
100
AcDbEntity
  8
DEFPOINTS
 62
     0
100
AcDbPoint
 10
175.6223134366791
 20
228.084800490637
 30
0.0
  0
POINT
  5
3316
330
3096
100
AcDbEntity
  8
DEFPOINTS
 62
     0
100
AcDbPoint
 10
175.6223134366791
 20
254.3829499958213
 30
0.0
  0
ENDBLK
  5
30A1
330
3096
100
AcDbEntity
  8
0
100
AcDbBlockEnd
  0
BLOCK
  5
3154
330
314A
100
AcDbEntity
  8
0
100
AcDbBlockBegin
  2
*D21
 70
     1
 10
0.0
 20
0.0
 30
0.0
  3
*D21
  1

  0
LINE
  5
32FC
330
314A
100
AcDbEntity
  8
DIM
100
AcDbLine
 10
124.5044335753786
 20
230.0688270669502
 30
0.0
 11
124.5044335753786
 21
257.7479318205642
 31
0.0
  0
LINE
  5
32FD
330
314A
100
AcDbEntity
  8
DIM
100
AcDbLine
 10
108.5044335753786
 20
231.2688270669502
 30
0.0
 11
108.5044335753786
 21
257.7479318205642
 31
0.0
  0
LINE
  5
32FE
330
314A
100
AcDbEntity
  8
DIM
100
AcDbLine
 10
121.5044335753786
 20
255.7479318205642
 30
0.0
 11
111.5044335753786
 21
255.7479318205642
 31
0.0
  0
SOLID
  5
32FF
330
314A
100
AcDbEntity
  8
DIM
100
AcDbTrace
 10
121.5044335753786
 20
256.2479318205642
 30
0.0
 11
121.5044335753786
 21
255.2479318205641
 31
0.0
 12
124.5044335753786
 22
255.7479318205642
 32
0.0
 13
124.5044335753786
 23
255.7479318205642
 33
0.0
  0
SOLID
  5
3300
330
314A
100
AcDbEntity
  8
DIM
100
AcDbTrace
 10
111.5044335753786
 20
256.2479318205642
 30
0.0
 11
111.5044335753786
 21
255.2479318205641
 31
0.0
 12
108.5044335753786
 22
255.7479318205642
 32
0.0
 13
108.5044335753786
 23
255.7479318205642
 33
0.0
  0
MTEXT
  5
3301
330
314A
100
AcDbEntity
  8
DIM
100
AcDbMText
 10
116.5044335753786
 20
258.2479318205642
 30
0.0
 40
3.0
 41
0.0
 71
     5
 72
     1
  1
\A1;16
  7
CHINESET
1001
ACAD
1000
MTEXTBEGIN
1070
    73
1070
     1
1070
    44
1040
1.0
1070
    74
1070
     0
1000
MTEXTEND
  0
POINT
  5
3302
330
314A
100
AcDbEntity
  8
DEFPOINTS
 62
     0
100
AcDbPoint
 10
124.5044335753786
 20
227.0688270669503
 30
0.0
  0
POINT
  5
3303
330
314A
100
AcDbEntity
  8
DEFPOINTS
 62
     0
100
AcDbPoint
 10
108.5044335753786
 20
228.2688270669502
 30
0.0
  0
POINT
  5
3304
330
314A
100
AcDbEntity
  8
DEFPOINTS
 62
     0
100
AcDbPoint
 10
108.5044335753786
 20
255.7479318205642
 30
0.0
  0
ENDBLK
  5
3155
330
314A
100
AcDbEntity
  8
0
100
AcDbBlockEnd
  0
BLOCK
  5
3161
330
3157
100
AcDbEntity
  8
0
100
AcDbBlockBegin
  2
*D22
 70
     1
 10
0.0
 20
0.0
 30
0.0
  3
*D22
  1

  0
LINE
  5
32D8
330
3157
100
AcDbEntity
  8
DIM
100
AcDbLine
 10
124.5044335753786
 20
230.0688270669502
 30
0.0
 11
124.5044335753786
 21
277.7268940322217
 31
0.0
  0
LINE
  5
32D9
330
3157
100
AcDbEntity
  8
DIM
100
AcDbLine
 10
76.50443357537858
 20
250.7688270669502
 30
0.0
 11
76.50443357537858
 21
277.7268940322217
 31
0.0
  0
LINE
  5
32DA
330
3157
100
AcDbEntity
  8
DIM
100
AcDbLine
 10
121.5044335753786
 20
275.7268940322217
 30
0.0
 11
79.50443357537858
 21
275.7268940322217
 31
0.0
  0
SOLID
  5
32DB
330
3157
100
AcDbEntity
  8
DIM
100
AcDbTrace
 10
121.5044335753786
 20
276.2268940322217
 30
0.0
 11
121.5044335753786
 21
275.2268940322216
 31
0.0
 12
124.5044335753786
 22
275.7268940322217
 32
0.0
 13
124.5044335753786
 23
275.7268940322217
 33
0.0
  0
SOLID
  5
32DC
330
3157
100
AcDbEntity
  8
DIM
100
AcDbTrace
 10
79.50443357537858
 20
276.2268940322217
 30
0.0
 11
79.50443357537858
 21
275.2268940322216
 31
0.0
 12
76.50443357537858
 22
275.7268940322217
 32
0.0
 13
76.50443357537858
 23
275.7268940322217
 33
0.0
  0
MTEXT
  5
32DD
330
3157
100
AcDbEntity
  8
DIM
100
AcDbMText
 10
100.5044335753785
 20
278.2268940322217
 30
0.0
 40
3.0
 41
0.0
 71
     5
 72
     1
  1
\A1;48
  7
CHINESET
1001
ACAD
1000
MTEXTBEGIN
1070
    73
1070
     1
1070
    44
1040
1.0
1070
    74
1070
     0
1000
MTEXTEND
  0
POINT
  5
32DE
330
3157
100
AcDbEntity
  8
DEFPOINTS
 62
     0
100
AcDbPoint
 10
124.5044335753786
 20
227.0688270669503
 30
0.0
  0
POINT
  5
32DF
330
3157
100
AcDbEntity
  8
DEFPOINTS
 62
     0
100
AcDbPoint
 10
76.50443357537858
 20
247.7688270669502
 30
0.0
  0
POINT
  5
32E0
330
3157
100
AcDbEntity
  8
DEFPOINTS
 62
     0
100
AcDbPoint
 10
76.50443357537858
 20
275.7268940322217
 30
0.0
  0
ENDBLK
  5
3162
330
3157
100
AcDbEntity
  8
0
100
AcDbBlockEnd
  0
BLOCK
  5
31BD
330
31B3
100
AcDbEntity
  8
0
100
AcDbBlockBegin
  2
*D23
 70
     1
 10
0.0
 20
0.0
 30
0.0
  3
*D23
  1

  0
LINE
  5
3346
330
31B3
100
AcDbEntity
  8
DIM
100
AcDbLine
 10
209.1223134366791
 20
214.3958437207426
 30
0.0
 11
209.1223134366791
 21
182.2615524150044
 31
0.0
  0
LINE
  5
3347
330
31B3
100
AcDbEntity
  8
DIM
100
AcDbLine
 10
195.1223134366791
 20
214.3958437207426
 30
0.0
 11
195.1223134366791
 21
182.2615524150044
 31
0.0
  0
LINE
  5
3348
330
31B3
100
AcDbEntity
  8
DIM
100
AcDbLine
 10
206.1223134366791
 20
184.2615524150044
 30
0.0
 11
198.1223134366791
 21
184.2615524150044
 31
0.0
  0
SOLID
  5
3349
330
31B3
100
AcDbEntity
  8
DIM
100
AcDbTrace
 10
206.1223134366791
 20
184.7615524150044
 30
0.0
 11
206.1223134366791
 21
183.7615524150044
 31
0.0
 12
209.1223134366791
 22
184.2615524150044
 32
0.0
 13
209.1223134366791
 23
184.2615524150044
 33
0.0
  0
SOLID
  5
334A
330
31B3
100
AcDbEntity
  8
DIM
100
AcDbTrace
 10
198.1223134366791
 20
184.7615524150044
 30
0.0
 11
198.1223134366791
 21
183.7615524150044
 31
0.0
 12
195.1223134366791
 22
184.2615524150044
 32
0.0
 13
195.1223134366791
 23
184.2615524150044
 33
0.0
  0
MTEXT
  5
334B
330
31B3
100
AcDbEntity
  8
DIM
100
AcDbMText
 10
202.1223134366791
 20
186.7615524150044
 30
0.0
 40
3.0
 41
0.0
 71
     5
 72
     1
  1
\A1;14
  7
CHINESET
1001
ACAD
1000
MTEXTBEGIN
1070
    73
1070
     1
1070
    44
1040
1.0
1070
    74
1070
     0
1000
MTEXTEND
  0
POINT
  5
334C
330
31B3
100
AcDbEntity
  8
DEFPOINTS
 62
     0
100
AcDbPoint
 10
209.1223134366791
 20
217.3958437207426
 30
0.0
  0
POINT
  5
334D
330
31B3
100
AcDbEntity
  8
DEFPOINTS
 62
     0
100
AcDbPoint
 10
195.1223134366791
 20
217.3958437207426
 30
0.0
  0
POINT
  5
334E
330
31B3
100
AcDbEntity
  8
DEFPOINTS
 62
     0
100
AcDbPoint
 10
195.1223134366791
 20
184.2615524150044
 30
0.0
  0
ENDBLK
  5
31BE
330
31B3
100
AcDbEntity
  8
0
100
AcDbBlockEnd
  0
BLOCK
  5
31CA
330
31C0
100
AcDbEntity
  8
0
100
AcDbBlockBegin
  2
*D24
 70
     1
 10
0.0
 20
0.0
 30
0.0
  3
*D24
  1

  0
LINE
  5
33B6
330
31C0
100
AcDbEntity
  8
DIM
100
AcDbLine
 10
190.2282495835597
 20
71.59605042519108
 30
0.0
 11
190.2282495835597
 21
41.19284871933325
 31
0.0
  0
LINE
  5
33B7
330
31C0
100
AcDbEntity
  8
DIM
100
AcDbLine
 10
176.2282495835597
 20
71.59605042519098
 30
0.0
 11
176.2282495835597
 21
41.19284871933325
 31
0.0
  0
LINE
  5
33B8
330
31C0
100
AcDbEntity
  8
DIM
100
AcDbLine
 10
187.2282495835597
 20
43.19284871933326
 30
0.0
 11
179.2282495835597
 21
43.19284871933326
 31
0.0
  0
SOLID
  5
33B9
330
31C0
100
AcDbEntity
  8
DIM
100
AcDbTrace
 10
187.2282495835597
 20
43.69284871933325
 30
0.0
 11
187.2282495835597
 21
42.69284871933325
 31
0.0
 12
190.2282495835597
 22
43.19284871933326
 32
0.0
 13
190.2282495835597
 23
43.19284871933326
 33
0.0
  0
SOLID
  5
33BA
330
31C0
100
AcDbEntity
  8
DIM
100
AcDbTrace
 10
179.2282495835597
 20
43.69284871933325
 30
0.0
 11
179.2282495835597
 21
42.69284871933325
 31
0.0
 12
176.2282495835597
 22
43.19284871933326
 32
0.0
 13
176.2282495835597
 23
43.19284871933326
 33
0.0
  0
MTEXT
  5
33BB
330
31C0
100
AcDbEntity
  8
DIM
100
AcDbMText
 10
183.2282495835597
 20
45.69284871933326
 30
0.0
 40
3.0
 41
0.0
 71
     5
 72
     1
  1
\A1;14
  7
CHINESET
1001
ACAD
1000
MTEXTBEGIN
1070
    73
1070
     1
1070
    44
1040
1.0
1070
    74
1070
     0
1000
MTEXTEND
  0
POINT
  5
33BC
330
31C0
100
AcDbEntity
  8
DEFPOINTS
 62
     0
100
AcDbPoint
 10
190.2282495835597
 20
74.59605042519108
 30
0.0
  0
POINT
  5
33BD
330
31C0
100
AcDbEntity
  8
DEFPOINTS
 62
     0
100
AcDbPoint
 10
176.2282495835597
 20
74.59605042519098
 30
0.0
  0
POINT
  5
33BE
330
31C0
100
AcDbEntity
  8
DEFPOINTS
 62
     0
100
AcDbPoint
 10
176.2282495835597
 20
43.19284871933326
 30
0.0
  0
ENDBLK
  5
31CB
330
31C0
100
AcDbEntity
  8
0
100
AcDbBlockEnd
  0
BLOCK
  5
31E3
330
31D9
100
AcDbEntity
  8
0
100
AcDbBlockBegin
  2
*D25
 70
     1
 10
0.0
 20
0.0
 30
0.0
  3
*D25
  1

  0
LINE
  5
334F
330
31D9
100
AcDbEntity
  8
DIM
100
AcDbLine
 10
107.5044335753783
 20
88.46903377139858
 30
0.0
 11
107.5044335753783
 21
134.4167745327052
 31
0.0
  0
LINE
  5
3350
330
31D9
100
AcDbEntity
  8
DIM
100
AcDbLine
 10
76.50443357537858
 20
107.9690337713985
 30
0.0
 11
76.50443357537858
 21
134.4167745327052
 31
0.0
  0
LINE
  5
3351
330
31D9
100
AcDbEntity
  8
DIM
100
AcDbLine
 10
104.5044335753783
 20
132.4167745327052
 30
0.0
 11
79.50443357537858
 21
132.4167745327052
 31
0.0
  0
SOLID
  5
3352
330
31D9
100
AcDbEntity
  8
DIM
100
AcDbTrace
 10
104.5044335753783
 20
132.9167745327052
 30
0.0
 11
104.5044335753783
 21
131.9167745327052
 31
0.0
 12
107.5044335753783
 22
132.4167745327052
 32
0.0
 13
107.5044335753783
 23
132.4167745327052
 33
0.0
  0
SOLID
  5
3353
330
31D9
100
AcDbEntity
  8
DIM
100
AcDbTrace
 10
79.50443357537858
 20
132.9167745327052
 30
0.0
 11
79.50443357537858
 21
131.9167745327052
 31
0.0
 12
76.50443357537858
 22
132.4167745327052
 32
0.0
 13
76.50443357537858
 23
132.4167745327052
 33
0.0
  0
MTEXT
  5
3354
330
31D9
100
AcDbEntity
  8
DIM
100
AcDbMText
 10
92.00443357537848
 20
134.9167745327052
 30
0.0
 40
3.0
 41
0.0
 71
     5
 72
     1
  1
\A1;31
  7
CHINESET
1001
ACAD
1000
MTEXTBEGIN
1070
    73
1070
     1
1070
    44
1040
1.0
1070
    74
1070
     0
1000
MTEXTEND
  0
POINT
  5
3355
330
31D9
100
AcDbEntity
  8
DEFPOINTS
 62
     0
100
AcDbPoint
 10
107.5044335753783
 20
85.46903377139859
 30
0.0
  0
POINT
  5
3356
330
31D9
100
AcDbEntity
  8
DEFPOINTS
 62
     0
100
AcDbPoint
 10
76.50443357537858
 20
104.9690337713985
 30
0.0
  0
POINT
  5
3357
330
31D9
100
AcDbEntity
  8
DEFPOINTS
 62
     0
100
AcDbPoint
 10
76.50443357537858
 20
132.4167745327052
 30
0.0
  0
ENDBLK
  5
31E4
330
31D9
100
AcDbEntity
  8
0
100
AcDbBlockEnd
  0
BLOCK
  5
3532
330
3530
100
AcDbEntity
  8
0
100
AcDbBlockBegin
  2
GENAXEH
 70
     0
 10
0.0
 20
0.0
 30
0.0
  3
GENAXEH
  1

  0
LINE
  5
3531
330
3530
100
AcDbEntity
  8
0
100
AcDbLine
 10
-1.0
 20
0.0
 30
0.0
 11
1.0
 21
0.0
 31
0.0
  0
ENDBLK
  5
3533
330
3530
100
AcDbEntity
  8
0
100
AcDbBlockEnd
  0
ENDSEC
  0
SECTION
  2
ENTITIES
  0
MTEXT
  5
A9
330
1F
100
AcDbEntity
  8
0
100
AcDbMText
 10
-112.8858816556398
 20
179.1757813154577
 30
0.0
 40
3.0
 41
0.0
 71
     4
 72
     1
  1

1001
ACAD
1000
MTEXTBEGIN
1070
    73
1070
     1
1070
    44
1040
1.0
1070
    74
1070
     0
1000
MTEXTEND
  0
MTEXT
  5
AA
330
1F
100
AcDbEntity
  8
0
100
AcDbMText
 10
-176.2667196970538
 20
189.9084924046809
 30
0.0
 40
1.799999999999999
 41
0.0
 71
     9
 72
     1
  1

1001
ACAD
1000
MTEXTBEGIN
1070
    73
1070
     1
1070
    44
1040
1.0
1070
    74
1070
     0
1000
MTEXTEND
  0
MTEXT
  5
AB
330
1F
100
AcDbEntity
  8
0
100
AcDbMText
 10
82.64233389287733
 20
174.944592339129
 30
0.0
 40
3.0
 41
0.0
 71
     4
 72
     1
  1

1001
ACAD
1000
MTEXTBEGIN
1070
    73
1070
     1
1070
    44
1040
1.0
1070
    74
1070
     0
1000
MTEXTEND
  0
MTEXT
  5
AC
330
1F
100
AcDbEntity
  8
0
100
AcDbMText
 10
19.26149585146331
 20
185.6773034283523
 30
0.0
 40
1.799999999999999
 41
0.0
 71
     9
 72
     1
  1

1001
ACAD
1000
MTEXTBEGIN
1070
    73
1070
     1
1070
    44
1040
1.0
1070
    74
1070
     0
1000
MTEXTEND
  0
MTEXT
  5
B1
330
1F
100
AcDbEntity
  8
0
100
AcDbMText
 10
-211.0828086697474
 20
93.72900974557683
 30
0.0
 40
3.0
 41
59.51
 71
     1
 72
     1
  1

  7
CHINESET
1001
ACAD
1000
MTEXTBEGIN
1070
    73
1070
     1
1070
    44
1040
1.0
1070
    74
1070
     0
1000
MTEXTEND
  0
MTEXT
  5
B2
330
1F
100
AcDbEntity
  8
0
100
AcDbMText
 10
-179.9099428209695
 20
86.93407807798587
 30
0.0
 40
3.0
 41
38.26
 71
     1
 72
     1
  1

  7
CHINESET
1001
ACAD
1000
MTEXTBEGIN
1070
    73
1070
     1
1070
    44
1040
1.0
1070
    74
1070
     0
1000
MTEXTEND
  0
MTEXT
  5
10B3
330
1F
100
AcDbEntity
  8
0
100
AcDbMText
 10
81.67014302795905
 20
125.5492500028813
 30
0.0
 40
3.0
 41
0.0
 71
     7
 72
     1
  1

  7
CHINESET
1001
ACAD
1000
MTEXTBEGIN
1070
    73
1070
     1
1070
    44
1040
1.0
1070
    74
1070
     0
1000
MTEXTEND
  0
LINE
  5
17B4
330
1F
100
AcDbEntity
  8
0
 62
     4
100
AcDbLine
 10
271.6277841472794
 20
34.87998036599759
 30
0.0
 11
271.6277841472794
 21
296.7107287656602
 31
0.0
  0
LINE
  5
17B5
330
1F
100
AcDbEntity
  8
0
 62
     4
100
AcDbLine
 10
-0.4706550713615343
 20
34.87998036599757
 30
0.0
 11
-0.4706550713615343
 21
296.7107287656602
 31
0.0
  0
TEXT
  5
17BD
330
1F
100
AcDbEntity
  8
LOGO
  6
CONTINUOUS
 62
     7
100
AcDbText
 10
163.6982513253909
 20
23.0340389832335
 30
0.0
 40
5.889576606464092
  1
11/12
  7
CHINESET
 72
     1
 11
175.477404538319
 21
25.97882728646554
 31
0.0
100
AcDbText
 73
     2
  0
TEXT
  5
17BE
330
1F
100
AcDbEntity
  8
LOGO
 62
     6
100
AcDbText
 10
166.1031617730304
 20
9.086417306821752
 30
0.0
 40
4.711661285171273
  1
作動型式
  7
CHINESET
 72
     4
 11
175.477404538319
 21
11.32167394014119
 31
0.0
100
AcDbText
  0
LINE
  5
17BF
330
1F
100
AcDbEntity
  8
0
 62
     4
100
AcDbLine
 10
271.6277841472794
 20
169.5305281784775
 30
0.0
 11
-0.4706550713615343
 21
169.5305281784775
 31
0.0
  0
LINE
  5
17C0
330
1F
100
AcDbEntity
  8
0
 62
     4
100
AcDbLine
 10
271.6277841472794
 20
34.87998036599757
 30
0.0
 11
-0.4706550713615343
 21
34.87998036599757
 31
0.0
  0
LINE
  5
17C1
330
1F
100
AcDbEntity
  8
LOGO
 62
     1
100
AcDbLine
 10
271.6277841472794
 20
-0.4574792727869835
 30
0.0
 11
-0.4706550713615343
 21
-0.4574792727869835
 31
0.0
  0
LINE
  5
17C2
330
1F
100
AcDbEntity
  8
LOGO
 62
     1
100
AcDbLine
 10
271.6277841472794
 20
34.87998036599757
 30
0.0
 11
-0.4706550713615343
 21
34.87998036599757
 31
0.0
  0
TEXT
  5
17C3
330
1F
100
AcDbEntity
  8
LOGO
  6
CONTINUOUS
 62
     6
100
AcDbText
 10
162.8568832387531
 20
4.450501232599758
 30
0.0
 40
2.944788303232046
  1
Acting type
  7
CHINESET
 72
     4
 11
175.477404538319
 21
5.432097333677106
 31
0.0
100
AcDbText
  0
LINE
  5
17C4
330
1F
100
AcDbEntity
  8
LOGO
 62
     6
100
AcDbLine
 10
188.4671036928595
 20
20.74499651048374
 30
0.0
 11
162.4877053837787
 21
20.74499651048374
 31
0.0
  0
LINE
  5
17C5
330
1F
100
AcDbEntity
  8
LOGO
 62
     6
100
AcDbLine
 10
188.4671036928595
 20
15.44437756466606
 30
0.0
 11
162.4877053837787
 21
15.44437756466606
 31
0.0
  0
LINE
  5
17C6
330
1F
100
AcDbEntity
  8
LOGO
 62
     6
100
AcDbLine
 10
188.4671036928595
 20
2.487309030445061
 30
0.0
 11
162.4877053837787
 21
2.487309030445032
 31
0.0
  0
LINE
  5
17C7
330
1F
100
AcDbEntity
  8
LOGO
 62
     6
100
AcDbLine
 10
188.4671036928595
 20
31.34623440211917
 30
0.0
 11
162.4877053837787
 21
31.3462344021191
 31
0.0
  0
TEXT
  5
17C8
330
1F
100
AcDbEntity
  8
LOGO
 62
     6
100
AcDbText
 10
29.93796514488835
 20
15.44437756466606
 30
0.0
 40
3.533745963878454
  1
單位 Unit:
 41
0.9
  7
CHINESET
 72
     4
 11
39.57846585259426
 21
17.21125054660529
 31
0.0
100
AcDbText
  0
TEXT
  5
17C9
330
1F
100
AcDbEntity
  8
LOGO
 62
     6
100
AcDbText
 10
29.59247837431274
 20
22.56157728710844
 30
0.0
 40
3.533745963878454
  1
投影 View:
 41
0.9
  7
CHINESET
 72
     4
 11
39.57846585259426
 21
24.2787424743622
 31
0.0
100
AcDbText
  0
TEXT
  5
17CA
330
1F
100
AcDbEntity
  8
LOGO
 62
     6
100
AcDbText
 10
28.35724485211772
 20
29.58110046839045
 30
0.0
 40
3.533745963878454
  1
比例 Scale:
 41
0.9
  7
CHINESET
 72
     4
 11
39.57846585259426
 21
31.3462344021191
 31
0.0
100
AcDbText
  0
TEXT
  5
17CB
330
1F
100
AcDbEntity
  8
LOGO
  6
CONTINUOUS
 62
     5
100
AcDbText
 10
0.6859996467579777
 20
6.484511344375803
 30
0.0
 40
5.300618945817682
  1
金器工業股份有限公司
 41
0.8
  7
LOGO
100
AcDbText
  0
TEXT
  5
17CC
330
1F
100
AcDbEntity
  8
LOGO
  6
CONTINUOUS
 62
     5
100
AcDbText
 10
2.203777209988061
 20
1.182853892829314
 30
0.0
 40
3.533745963878454
  1
MINDMAN INDUSTRIAL CO.,LTD
 41
0.85
  7
CHINESET
100
AcDbText
  0
LINE
  5
17CD
330
1F
100
AcDbEntity
  8
LOGO
 62
     1
100
AcDbLine
 10
77.27175613396446
 20
13.67750458272686
 30
0.0
 11
-0.4706550713615343
 21
13.67750458272686
 31
0.0
  0
LINE
  5
17CE
330
1F
100
AcDbEntity
  8
LOGO
 62
     1
100
AcDbLine
 10
77.27175613396446
 20
20.74499651048374
 30
0.0
 11
25.44348199708042
 21
20.74499651048374
 31
0.0
  0
LINE
  5
17CF
330
1F
100
AcDbEntity
  8
LOGO
 62
     1
100
AcDbLine
 10
77.27175613396446
 20
27.81248843824065
 30
0.0
 11
25.44348199708042
 21
27.81248843824065
 31
0.0
  0
SOLID
  5
17D0
330
1F
100
AcDbEntity
  8
LOGO
 62
     2
100
AcDbTrace
 10
4.723562107758652
 20
19.55185425854449
 30
0.0
 11
5.355796188843896
 21
19.551854258545
 31
0.0
 12
12.62648812131215
 22
34.04055195005848
 32
0.0
 13
13.25872220239693
 23
34.04055195005848
 33
0.0
  0
SOLID
  5
17D1
330
1F
100
AcDbEntity
  8
LOGO
 62
     5
100
AcDbTrace
 10
5.355796188843896
 20
19.551854258545
 30
0.0
 11
6.883695218130583
 21
19.551854258545
 31
0.0
 12
12.62648812131215
 22
32.8814561347378
 32
0.0
 13
11.09858909202546
 23
27.27915969401868
 33
0.0
  0
SOLID
  5
17D2
330
1F
100
AcDbEntity
  8
LOGO
 62
     5
100
AcDbTrace
 10
3.195663078471852
 20
19.551854258545
 30
0.0
 11
4.723562107758652
 21
19.55185425854449
 31
0.0
 12
11.09858909202546
 22
34.04055195005949
 32
0.0
 13
12.62648812131215
 23
34.04055195005848
 33
0.0
  0
LINE
  5
17D3
330
1F
100
AcDbEntity
  8
LOGO
 62
     1
100
AcDbLine
 10
-0.4706550713615343
 20
-0.4574792727869835
 30
0.0
 11
-0.4706550713615343
 21
34.87998036599757
 31
0.0
  0
SOLID
  5
17D4
330
1F
100
AcDbEntity
  8
LOGO
 62
     5
100
AcDbTrace
 10
0.7460662477864162
 20
14.2832369161765
 30
0.0
 11
1.272927982023929
 21
14.2832369161765
 31
0.0
 12
2.756611633274815
 22
16.9175455873605
 32
0.0
 13
3.283473367511305
 23
16.9175455873605
 33
0.0
  0
SOLID
  5
17D5
330
1F
100
AcDbEntity
  8
LOGO
 62
     5
100
AcDbTrace
 10
4.767157018763782
 20
16.9175455873605
 30
0.0
 11
5.294018753000159
 21
16.9175455873605
 31
0.0
 12
4.767157018763782
 22
14.2832369161765
 32
0.0
 13
5.294018753000159
 23
14.2832369161765
 33
0.0
  0
SOLID
  5
17D6
330
1F
100
AcDbEntity
  8
LOGO
 62
     5
100
AcDbTrace
 10
2.756611633274815
 20
14.2832369161765
 30
0.0
 11
3.283473367511305
 21
14.2832369161765
 31
0.0
 12
4.767157018763782
 22
16.9175455873605
 32
0.0
 13
5.294018753000159
 23
16.9175455873605
 33
0.0
  0
SOLID
  5
17D7
330
1F
100
AcDbEntity
  8
LOGO
 62
     5
100
AcDbTrace
 10
2.756611633274815
 20
16.9175455873605
 30
0.0
 11
3.283473367511305
 21
16.9175455873605
 31
0.0
 12
2.756611633274815
 22
14.2832369161765
 32
0.0
 13
3.283473367511305
 23
14.2832369161765
 33
0.0
  0
SOLID
  5
17D8
330
1F
100
AcDbEntity
  8
LOGO
 62
     5
100
AcDbTrace
 10
8.639830750688588
 20
15.86382211888669
 30
0.0
 11
9.166692484925874
 21
15.86382211888669
 31
0.0
 12
8.639830750688588
 22
14.2832369161765
 32
0.0
 13
9.166692484925874
 23
14.2832369161765
 33
0.0
  0
SOLID
  5
17D9
330
1F
100
AcDbEntity
  8
LOGO
 62
     5
100
AcDbTrace
 10
7.059245547978434
 20
16.9175455873605
 30
0.0
 11
7.586107282214811
 21
16.9175455873605
 31
0.0
 12
7.059245547978434
 22
14.2832369161765
 32
0.0
 13
7.586107282214811
 23
14.2832369161765
 33
0.0
  0
POLYLINE
  5
17DA
330
1F
100
AcDbEntity
  8
LOGO
 62
     5
100
AcDb2dPolyline
 66
     1
 10
0.0
 20
0.0
 30
0.0
 40
0.5277060639391827
 41
0.5277060639391827
  0
VERTEX
  5
35D0
330
17DA
100
AcDbEntity
  8
LOGO
 62
     5
100
AcDbVertex
100
AcDb2dVertex
 10
8.904528112360594
 20
15.86382211888669
 30
0.0
 42
1.0
  0
VERTEX
  5
35D1
330
17DA
100
AcDbEntity
  8
LOGO
 62
     5
100
AcDbVertex
100
AcDb2dVertex
 10
7.321409920543032
 20
15.86382211888669
 30
0.0
 42
1.0
  0
SEQEND
  5
35D2
330
17DA
100
AcDbEntity
  8
LOGO
 62
     5
  0
SOLID
  5
17DB
330
1F
100
AcDbEntity
  8
LOGO
 62
     5
100
AcDbTrace
 10
5.917694228406844
 20
16.9175455873605
 30
0.0
 11
6.444555962644813
 21
16.9175455873605
 31
0.0
 12
5.917694228406844
 22
14.28323691617549
 32
0.0
 13
6.444555962644813
 23
14.2832369161765
 33
0.0
  0
SOLID
  5
17DC
330
1F
100
AcDbEntity
  8
LOGO
 62
     5
100
AcDbTrace
 10
5.917694228406844
 20
17.28634880132607
 30
0.0
 11
6.444555962644813
 21
17.28634880132607
 31
0.0
 12
5.917694228406844
 22
17.70783818871608
 32
0.0
 13
6.444555962644813
 23
17.70783818871608
 33
0.0
  0
LINE
  5
17DD
330
1F
100
AcDbEntity
  8
LOGO
 62
     1
100
AcDbLine
 10
25.44348199708042
 20
13.67750458272684
 30
0.0
 11
25.44348199708042
 21
34.87998036599757
 31
0.0
  0
POLYLINE
  5
17DE
330
1F
100
AcDbEntity
  8
LOGO
 62
     5
100
AcDb2dPolyline
 66
     1
 10
0.0
 20
0.0
 30
0.0
 70
     1
 40
0.5277060639391827
 41
0.5277060639391827
  0
VERTEX
  5
35D3
330
17DE
100
AcDbEntity
  8
LOGO
 62
     5
100
AcDbVertex
100
AcDb2dVertex
 10
17.59489694565763
 20
15.60039125176824
 30
0.0
 42
1.0
  0
VERTEX
  5
35D4
330
17DE
100
AcDbEntity
  8
LOGO
 62
     5
100
AcDbVertex
100
AcDb2dVertex
 10
19.70572120141435
 20
15.60039125176824
 30
0.0
 42
1.0
  0
SEQEND
  5
35D5
330
17DE
100
AcDbEntity
  8
LOGO
 62
     5
  0
CIRCLE
  5
17DF
330
1F
100
AcDbEntity
  8
LOGO
 62
     5
100
AcDbCircle
 10
18.65030907353627
 20
15.60039125176849
 30
0.0
 40
0.7902926013553202
  0
POLYLINE
  5
17E0
330
1F
100
AcDbEntity
  8
LOGO
 62
     5
100
AcDb2dPolyline
 66
     1
 10
0.0
 20
0.0
 30
0.0
 70
     1
  0
VERTEX
  5
35D6
330
17E0
100
AcDbEntity
  8
LOGO
 62
     5
100
AcDbVertex
100
AcDb2dVertex
 10
17.86001647218085
 20
15.60039125176849
 30
0.0
 42
1.000000057330635
  0
VERTEX
  5
35D7
330
17E0
100
AcDbEntity
  8
LOGO
 62
     5
100
AcDbVertex
100
AcDb2dVertex
 10
19.44060167489181
 20
15.60039125176849
 30
0.0
 42
1.000000057330635
  0
SEQEND
  5
35D8
330
17E0
100
AcDbEntity
  8
LOGO
 62
     5
  0
POLYLINE
  5
17E1
330
1F
100
AcDbEntity
  8
LOGO
 62
     5
100
AcDb2dPolyline
 66
     1
 10
0.0
 20
0.0
 30
0.0
 40
0.5277060639391827
 41
0.5277060639391827
  0
VERTEX
  5
35D9
330
17E1
100
AcDbEntity
  8
LOGO
 62
     5
100
AcDbVertex
100
AcDb2dVertex
 10
14.87566289116125
 20
15.86382211888669
 30
0.0
 42
1.0
  0
VERTEX
  5
35DA
330
17E1
100
AcDbEntity
  8
LOGO
 62
     5
100
AcDbVertex
100
AcDb2dVertex
 10
13.29254469934358
 20
15.86382211888669
 30
0.0
 42
1.0
  0
SEQEND
  5
35DB
330
17E1
100
AcDbEntity
  8
LOGO
 62
     5
  0
SOLID
  5
17E2
330
1F
100
AcDbEntity
  8
LOGO
 62
     5
100
AcDbTrace
 10
13.03038032677909
 20
16.9175455873605
 30
0.0
 11
13.55724206101558
 21
16.9175455873605
 31
0.0
 12
13.03038032677909
 22
14.2832369161765
 32
0.0
 13
13.55724206101558
 23
14.2832369161765
 33
0.0
  0
SOLID
  5
17E3
330
1F
100
AcDbEntity
  8
LOGO
 62
     5
100
AcDbTrace
 10
11.88882900720761
 20
17.70783818871608
 30
0.0
 11
12.41569074144399
 21
17.70783818871608
 31
0.0
 12
11.88882900720761
 22
14.2832369161765
 32
0.0
 13
12.41569074144399
 23
14.2832369161765
 33
0.0
  0
POLYLINE
  5
17E4
330
1F
100
AcDbEntity
  8
LOGO
 62
     5
100
AcDb2dPolyline
 66
     1
 10
0.0
 20
0.0
 30
0.0
 70
     1
 40
0.5277060639391827
 41
0.5277060639391827
  0
VERTEX
  5
35DC
330
17E4
100
AcDbEntity
  8
LOGO
 62
     5
100
AcDbVertex
100
AcDb2dVertex
 10
10.0431769641467
 20
15.60039125176824
 30
0.0
 42
1.0
  0
VERTEX
  5
35DD
330
17E4
100
AcDbEntity
  8
LOGO
 62
     5
100
AcDbVertex
100
AcDb2dVertex
 10
12.15400121990342
 20
15.60039125176824
 30
0.0
 42
1.0
  0
SEQEND
  5
35DE
330
17E4
100
AcDbEntity
  8
LOGO
 62
     5
  0
SOLID
  5
17E5
330
1F
100
AcDbEntity
  8
LOGO
 62
     5
100
AcDbTrace
 10
16.19155073219963
 20
15.86382211888669
 30
0.0
 11
16.718412466436
 21
15.86382211888669
 31
0.0
 12
16.19155073219963
 22
14.28323691617549
 32
0.0
 13
16.718412466436
 23
14.28323691617549
 33
0.0
  0
SOLID
  5
17E6
330
1F
100
AcDbEntity
  8
LOGO
 62
     5
100
AcDbTrace
 10
14.61096552948936
 20
15.86382211888669
 30
0.0
 11
15.13782726372574
 21
15.86382211888669
 31
0.0
 12
14.61096552948936
 22
14.2832369161765
 32
0.0
 13
15.13782726372574
 23
14.2832369161765
 33
0.0
  0
POLYLINE
  5
17E7
330
1F
100
AcDbEntity
  8
LOGO
 62
     5
100
AcDb2dPolyline
 66
     1
 10
0.0
 20
0.0
 30
0.0
 40
0.5277060639391827
 41
0.5277060639391827
  0
VERTEX
  5
35DF
330
17E7
100
AcDbEntity
  8
LOGO
 62
     5
100
AcDbVertex
100
AcDb2dVertex
 10
16.45624809387141
 20
15.86382211888669
 30
0.0
 42
1.0
  0
VERTEX
  5
35E0
330
17E7
100
AcDbEntity
  8
LOGO
 62
     5
100
AcDbVertex
100
AcDb2dVertex
 10
14.87312990205384
 20
15.86382211888669
 30
0.0
 42
1.0
  0
SEQEND
  5
35E1
330
17E7
100
AcDbEntity
  8
LOGO
 62
     5
  0
POLYLINE
  5
17E8
330
1F
100
AcDbEntity
  8
LOGO
 62
     5
100
AcDb2dPolyline
 66
     1
 10
0.0
 20
0.0
 30
0.0
 40
0.5277060639391827
 41
0.5277060639391827
  0
VERTEX
  5
35E2
330
17E8
100
AcDbEntity
  8
LOGO
 62
     5
100
AcDbVertex
100
AcDb2dVertex
 10
22.42738287267218
 20
15.86382211888669
 30
0.0
 42
1.0
  0
VERTEX
  5
35E3
330
17E8
100
AcDbEntity
  8
LOGO
 62
     5
100
AcDbVertex
100
AcDb2dVertex
 10
20.84426468085462
 20
15.86382211888669
 30
0.0
 42
1.0
  0
SEQEND
  5
35E4
330
17E8
100
AcDbEntity
  8
LOGO
 62
     5
  0
SOLID
  5
17E9
330
1F
100
AcDbEntity
  8
LOGO
 62
     5
100
AcDbTrace
 10
20.582100308289
 20
14.2832369161765
 30
0.0
 11
21.1089620425264
 21
14.2832369161765
 31
0.0
 12
20.582100308289
 22
16.9175455873605
 32
0.0
 13
21.1089620425264
 23
16.9175455873605
 33
0.0
  0
SOLID
  5
17EA
330
1F
100
AcDbEntity
  8
LOGO
 62
     5
100
AcDbTrace
 10
19.44054898871911
 20
16.9175455873605
 30
0.0
 11
19.96741072295549
 21
16.9175455873605
 31
0.0
 12
19.44054898871911
 22
14.2832369161765
 32
0.0
 13
19.96741072295549
 23
14.2832369161765
 33
0.0
  0
SOLID
  5
17EB
330
1F
100
AcDbEntity
  8
LOGO
 62
     5
100
AcDbTrace
 10
22.16268551100029
 20
15.86382211888669
 30
0.0
 11
22.68954724523666
 21
15.8638221188866
 31
0.0
 12
22.16268551100029
 22
14.2832369161765
 32
0.0
 13
22.68954724523666
 23
14.2832369161765
 33
0.0
  0
LINE
  5
17EC
330
1F
100
AcDbEntity
  8
LOGO
 62
     5
100
AcDbLine
 10
22.68954724523666
 20
14.2832369161765
 30
0.0
 11
22.68954724523666
 21
15.86382211888669
 31
0.0
  0
SOLID
  5
17ED
330
1F
100
AcDbEntity
  8
LOGO
 62
     2
100
AcDbTrace
 10
20.52941413486519
 20
34.04055195005949
 30
0.0
 11
21.16164821594986
 21
34.04055195005848
 31
0.0
 12
20.52941413486519
 22
19.55185425854449
 32
0.0
 13
21.16164821594986
 23
19.55185425854449
 33
0.0
  0
SOLID
  5
17EE
330
1F
100
AcDbEntity
  8
LOGO
 62
     5
100
AcDbTrace
 10
21.16164821594986
 20
19.55185425854449
 30
0.0
 11
22.68954724523666
 21
19.55185425854449
 31
0.0
 12
21.16164821594986
 22
34.04055195005848
 32
0.0
 13
22.68954724523666
 23
34.04055195005949
 33
0.0
  0
SOLID
  5
17EF
330
1F
100
AcDbEntity
  8
LOGO
 62
     5
100
AcDbTrace
 10
20.52941413486519
 20
32.8814561347378
 30
0.0
 11
19.00151510557827
 21
27.27915969401868
 31
0.0
 12
20.52941413486519
 22
19.55185425854449
 32
0.0
 13
19.00151510557827
 23
19.55185425854449
 33
0.0
  0
SOLID
  5
17F0
330
1F
100
AcDbEntity
  8
LOGO
 62
     2
100
AcDbTrace
 10
12.62648812131215
 20
34.04055195005848
 30
0.0
 11
13.25872220239693
 21
34.04055195005848
 31
0.0
 12
12.62648812131215
 22
19.551854258545
 32
0.0
 13
13.25872220239693
 23
19.551854258545
 33
0.0
  0
SOLID
  5
17F1
330
1F
100
AcDbEntity
  8
LOGO
 62
     5
100
AcDbTrace
 10
13.25872220239693
 20
34.04055195005848
 30
0.0
 11
14.78662123168351
 21
34.04055195005949
 31
0.0
 12
13.25872220239693
 22
20.71095007386567
 32
0.0
 13
14.78662123168351
 23
26.3132465145848
 33
0.0
  0
SOLID
  5
17F2
330
1F
100
AcDbEntity
  8
LOGO
 62
     5
100
AcDbTrace
 10
11.09858909202546
 20
19.551854258545
 30
0.0
 11
12.62648812131215
 21
19.551854258545
 31
0.0
 12
11.09858909202546
 22
27.27915969401868
 32
0.0
 13
12.62648812131215
 23
32.8814561347378
 33
0.0
  0
SOLID
  5
17F3
330
1F
100
AcDbEntity
  8
LOGO
 62
     2
100
AcDbTrace
 10
12.62648812131215
 20
19.551854258545
 30
0.0
 11
13.25872220239693
 21
19.551854258545
 31
0.0
 12
20.52941413486519
 22
34.04055195005949
 32
0.0
 13
21.16164821594986
 23
34.04055195005848
 33
0.0
  0
SOLID
  5
17F4
330
1F
100
AcDbEntity
  8
LOGO
 62
     5
100
AcDbTrace
 10
13.25872220239693
 20
19.551854258545
 30
0.0
 11
14.78662123168351
 21
19.551854258545
 31
0.0
 12
20.52941413486519
 22
32.8814561347378
 32
0.0
 13
19.00151510557827
 23
27.27915969401868
 33
0.0
  0
SOLID
  5
17F5
330
1F
100
AcDbEntity
  8
LOGO
 62
     5
100
AcDbTrace
 10
13.25872220239693
 20
20.71095007386567
 30
0.0
 11
14.78662123168351
 21
26.3132465145848
 31
0.0
 12
20.52941413486519
 22
34.04055195005949
 32
0.0
 13
19.00151510557827
 23
34.04055195005949
 33
0.0
  0
TEXT
  5
17F6
330
1F
100
AcDbEntity
  8
LOGO
 62
     7
100
AcDbText
 10
80.16429994182113
 20
26.03228414410841
 30
0.0
 40
7.067491927756909
  1
訂購代號:
  7
CHINESET
100
AcDbText
  0
TEXT
  5
17F7
330
1F
100
AcDbEntity
  8
LOGO
 62
     7
100
AcDbText
 10
79.31898894340782
 20
19.39924061650448
 30
0.0
 40
4.711661285171273
  1
Order example:
 41
0.8
  7
CHINESET
100
AcDbText
  0
LINE
  5
17F8
330
1F
100
AcDbEntity
  8
LOGO
 62
     1
100
AcDbLine
 10
53.7134497081081
 20
13.67750458272684
 30
0.0
 11
53.7134497081081
 21
34.87998036599757
 31
0.0
  0
TEXT
  5
17F9
330
1F
100
AcDbEntity
  8
LOGO
 62
     6
100
AcDbText
 10
59.01465132176085
 20
15.44437756466606
 30
0.0
 40
3.533745963878454
  1
m/m
  7
CHINESET
 72
     1
 11
65.24077516288002
 21
17.21125054660529
 31
0.0
100
AcDbText
 73
     2
  0
CIRCLE
  5
17FA
330
1F
100
AcDbEntity
  8
LOGO
  6
CONTINUOUS
 62
     6
100
AcDbCircle
 10
60.25662235418735
 20
24.28630118283823
 30
0.0
 40
2.051776081631799
  0
TEXT
  5
17FB
330
1F
100
AcDbEntity
  8
LOGO
 62
     6
100
AcDbText
 10
59.01465132176085
 20
29.57936142017988
 30
0.0
 40
3.533745963878454
  1
1 : 1
  7
CHINESET
 72
     1
 11
65.24077516288002
 21
31.3462344021191
 31
0.0
100
AcDbText
 73
     2
  0
LINE
  5
17FC
330
1F
100
AcDbEntity
  8
LOGO
  6
CONTINUOUS
 62
     6
100
AcDbLine
 10
66.71802109084137
 20
23.08414203246194
 30
0.0
 11
73.15022132919046
 21
22.23452510120644
 31
0.0
  0
LINE
  5
17FD
330
1F
100
AcDbEntity
  8
LOGO
  6
CONTINUOUS
 62
     6
100
AcDbLine
 10
66.71802109084137
 20
25.48846033321454
 30
0.0
 11
73.15022132919046
 21
26.33807726447003
 31
0.0
  0
LINE
  5
17FE
330
1F
100
AcDbEntity
  8
LOGO
 62
     6
100
AcDbLine
 10
66.71802109084149
 20
23.08414203246194
 30
0.0
 11
66.71802109084137
 21
25.48846033321456
 31
0.0
  0
CIRCLE
  5
17FF
330
1F
100
AcDbEntity
  8
LOGO
  6
CONTINUOUS
 62
     6
100
AcDbCircle
 10
60.25662235418735
 20
24.28630118283823
 30
0.0
 40
1.202159150376303
  0
LINE
  5
1800
330
1F
100
AcDbEntity
  8
LOGO
 62
     6
100
AcDbLine
 10
73.15022132919046
 20
22.23452510120644
 30
0.0
 11
73.15022132919046
 21
26.33807726447003
 31
0.0
  0
LINE
  5
1801
330
1F
100
AcDbEntity
  8
LOGO
 62
     1
100
AcDbLine
 10
77.27175613396446
 20
-0.4574792727869835
 30
0.0
 11
77.27175613396446
 21
34.87998036599757
 31
0.0
  0
LINE
  5
1802
330
1F
100
AcDbEntity
  8
LOGO
 62
     6
100
AcDbLine
 10
151.7910005794783
 20
15.44437756466606
 30
0.0
 11
128.2326941536219
 21
15.44437756466606
 31
0.0
  0
TEXT
  5
1803
330
1F
100
AcDbEntity
  8
LOGO
  6
CONTINUOUS
 62
     7
100
AcDbText
 10
129.4947462835785
 20
23.10082715306938
 30
0.0
 40
5.889576606464092
  1
MCJT
  7
CHINESET
 72
     1
 11
140.0118473665501
 21
26.04561545630143
 31
0.0
100
AcDbText
 73
     2
  0
LINE
  5
1804
330
1F
100
AcDbEntity
  8
LOGO
 62
     6
100
AcDbLine
 10
151.7910005794783
 20
2.487309030445061
 30
0.0
 11
128.2326941536219
 21
2.487309030445032
 31
0.0
  0
TEXT
  5
1805
330
1F
100
AcDbEntity
  8
LOGO
  6
CONTINUOUS
 62
     6
100
AcDbText
 10
134.4027267889652
 20
3.959703182061082
 30
0.0
 40
2.944788303232046
  1
Model
  7
CHINESET
 72
     4
 11
140.0118473665501
 21
5.432097333677106
 31
0.0
100
AcDbText
  0
TEXT
  5
1806
330
1F
100
AcDbEntity
  8
LOGO
 62
     6
100
AcDbText
 10
135.3001860813788
 20
9.086417306821752
 30
0.0
 40
4.711661285171273
  1
型式
  7
CHINESET
 72
     4
 11
140.0118473665501
 21
11.32167394014119
 31
0.0
100
AcDbText
  0
LINE
  5
1807
330
1F
100
AcDbEntity
  8
LOGO
 62
     6
100
AcDbLine
 10
154.1468312220639
 20
20.74499651048374
 30
0.0
 11
125.8768635110363
 21
20.74499651048374
 31
0.0
  0
LINE
  5
1808
330
1F
100
AcDbEntity
  8
LOGO
 62
     6
100
AcDbLine
 10
154.1468312220639
 20
31.3462344021191
 30
0.0
 11
125.8768635110363
 21
31.3462344021191
 31
0.0
  0
LINE
  5
1809
330
1F
100
AcDbEntity
  8
LOGO
 62
     6
100
AcDbLine
 10
140.0118473665501
 20
20.74499651048374
 30
0.0
 11
140.0118473665501
 21
15.44437756466606
 31
0.0
  0
LINE
  5
180A
330
1F
100
AcDbEntity
  8
LOGO
 62
     6
100
AcDbLine
 10
128.2326941536219
 20
15.44437756466606
 30
0.0
 11
128.2326941536219
 21
2.487309030445032
 31
0.0
  0
LINE
  5
180B
330
1F
100
AcDbEntity
  8
LOGO
 62
     6
100
AcDbLine
 10
125.8768635110363
 20
31.3462344021191
 30
0.0
 11
125.8768635110363
 21
20.74499651048374
 31
0.0
  0
LINE
  5
180C
330
1F
100
AcDbEntity
  8
LOGO
 62
     6
100
AcDbLine
 10
151.7910005794783
 20
15.44437756466606
 30
0.0
 11
151.7910005794783
 21
2.487309030445061
 31
0.0
  0
LINE
  5
180D
330
1F
100
AcDbEntity
  8
LOGO
 62
     6
100
AcDbLine
 10
162.4877053837787
 20
15.44437756466606
 30
0.0
 11
162.4877053837787
 21
2.487309030445061
 31
0.0
  0
LINE
  5
180E
330
1F
100
AcDbEntity
  8
LOGO
  6
CONTINUOUS
 62
     7
100
AcDbLine
 10
155.973265190149
 20
26.00806419629765
 30
0.0
 11
160.6543850211129
 21
26.00806419629765
 31
0.0
  0
LINE
  5
180F
330
1F
100
AcDbEntity
  8
LOGO
 62
     6
100
AcDbLine
 10
154.146831222064
 20
31.3462344021191
 30
0.0
 11
154.146831222064
 21
20.74499651048374
 31
0.0
  0
LINE
  5
1810
330
1F
100
AcDbEntity
  8
LOGO
 62
     6
100
AcDbLine
 10
162.4877053837787
 20
31.3462344021191
 30
0.0
 11
162.4877053837787
 21
20.74499651048374
 31
0.0
  0
TEXT
  5
1811
330
1F
100
AcDbEntity
  8
0
100
AcDbText
 10
12.03841565317816
 20
156.9107914129011
 30
0.0
 40
4.0
  1
MCJT-12-%%C32
  7
CHINESET
100
AcDbText
  0
TEXT
  5
1812
330
1F
100
AcDbEntity
  8
0
100
AcDbText
 10
11.5474866955908
 20
148.6218566625163
 30
0.0
 40
5.0
  1
stroke=0mm
  7
CHINESET
100
AcDbText
  0
LINE
  5
1868
330
1F
100
AcDbEntity
  8
LOGO
 62
     6
100
AcDbLine
 10
243.6829643764367
 20
31.3462344021191
 30
0.0
 11
224.0607583976127
 21
31.3462344021191
 31
0.0
  0
LINE
  5
1869
330
1F
100
AcDbEntity
  8
LOGO
 62
     6
100
AcDbLine
 10
243.6829643764367
 20
20.74499651048374
 30
0.0
 11
224.0607583976127
 21
20.74499651048374
 31
0.0
  0
LINE
  5
186A
330
1F
100
AcDbEntity
  8
LOGO
 62
     6
100
AcDbLine
 10
242.5050490551439
 20
15.44437756466606
 30
0.0
 11
225.2386737189055
 21
15.44437756466606
 31
0.0
  0
LINE
  5
186B
330
1F
100
AcDbEntity
  8
LOGO
 62
     6
100
AcDbLine
 10
242.5050490551439
 20
2.487309030445061
 30
0.0
 11
225.2386737189055
 21
2.487309030445032
 31
0.0
  0
LINE
  5
186C
330
1F
100
AcDbEntity
  8
LOGO
 62
     6
100
AcDbLine
 10
215.719884235898
 20
20.74499651048381
 30
0.0
 11
196.8079778545741
 21
20.74499651048381
 31
0.0
  0
LINE
  5
186D
330
1F
100
AcDbEntity
  8
LOGO
 62
     6
100
AcDbLine
 10
215.719884235898
 20
15.44437756466612
 30
0.0
 11
196.8079778545741
 21
15.44437756466612
 31
0.0
  0
LINE
  5
186E
330
1F
100
AcDbEntity
  8
LOGO
 62
     6
100
AcDbLine
 10
215.719884235898
 20
31.34623440211925
 30
0.0
 11
196.8079778545741
 21
31.34623440211917
 31
0.0
  0
TEXT
  5
186F
330
1F
100
AcDbEntity
  8
LOGO
  6
CONTINUOUS
 62
     7
100
AcDbText
 10
202.0458725225968
 20
23.03403898323356
 30
0.0
 40
5.889576606464092
  1
32
  7
CHINESET
 72
     1
 11
206.8136250135439
 21
25.97882728646561
 31
0.0
100
AcDbText
 73
     2
  0
LINE
  5
1870
330
1F
100
AcDbEntity
  8
LOGO
 62
     6
100
AcDbLine
 10
215.719884235898
 20
2.487309030445132
 30
0.0
 11
196.8079778545741
 21
2.487309030445089
 31
0.0
  0
TEXT
  5
1871
330
1F
100
AcDbEntity
  8
LOGO
  6
CONTINUOUS
 62
     6
100
AcDbText
 10
202.618002669806
 20
3.959703182061126
 30
0.0
 40
2.944788303232046
  1
Bore
 41
0.8
  7
CHINESET
 72
     4
 11
206.2639310452361
 21
5.432097333677148
 31
0.0
100
AcDbText
  0
TEXT
  5
1872
330
1F
100
AcDbEntity
  8
LOGO
 62
     6
100
AcDbText
 10
201.7584049412911
 20
8.965843297555601
 30
0.0
 40
4.711661285171273
  1
內徑
 41
0.9
  7
CHINESET
 72
     4
 11
206.2639310452361
 21
11.32167394014123
 31
0.0
100
AcDbText
  0
LINE
  5
1873
330
1F
100
AcDbEntity
  8
LOGO
 62
     6
100
AcDbLine
 10
206.2639307736271
 20
20.74499651048381
 30
0.0
 11
206.2639307736271
 21
15.44437756466612
 31
0.0
  0
LINE
  5
1874
330
1F
100
AcDbEntity
  8
LOGO
 62
     6
100
AcDbLine
 10
175.477404538319
 20
20.74499651048374
 30
0.0
 11
175.477404538319
 21
15.44437756466606
 31
0.0
  0
LINE
  5
1875
330
1F
100
AcDbEntity
  8
LOGO
 62
     6
100
AcDbLine
 10
188.4671036928595
 20
15.44437756466606
 30
0.0
 11
188.4671036928595
 21
2.487309030445089
 31
0.0
  0
LINE
  5
1876
330
1F
100
AcDbEntity
  8
LOGO
 62
     6
100
AcDbLine
 10
196.8079778545741
 20
15.44437756466612
 30
0.0
 11
196.8079778545741
 21
2.487309030445132
 31
0.0
  0
LINE
  5
1877
330
1F
100
AcDbEntity
  8
LOGO
 62
     6
100
AcDbLine
 10
188.4671036928595
 20
31.34623440211917
 30
0.0
 11
188.4671036928595
 21
20.74499651048374
 31
0.0
  0
LINE
  5
1878
330
1F
100
AcDbEntity
  8
LOGO
 62
     6
100
AcDbLine
 10
196.8079778545741
 20
31.34623440211917
 30
0.0
 11
196.8079778545741
 21
20.74499651048381
 31
0.0
  0
LINE
  5
1879
330
1F
100
AcDbEntity
  8
LOGO
  6
CONTINUOUS
 62
     7
100
AcDbLine
 10
190.2935376609444
 20
26.00806419629771
 30
0.0
 11
194.9746574919084
 21
26.00806419629771
 31
0.0
  0
LINE
  5
187A
330
1F
100
AcDbEntity
  8
LOGO
 62
     6
100
AcDbLine
 10
234.1213331567746
 20
20.74499651048374
 30
0.0
 11
234.1213331567746
 21
15.44437756466606
 31
0.0
  0
LINE
  5
187B
330
1F
100
AcDbEntity
  8
LOGO
 62
     6
100
AcDbLine
 10
215.719884235898
 20
15.44437756466612
 30
0.0
 11
215.719884235898
 21
2.48730903044516
 31
0.0
  0
LINE
  5
187C
330
1F
100
AcDbEntity
  8
LOGO
 62
     6
100
AcDbLine
 10
225.2386737189055
 20
15.44437756466606
 30
0.0
 11
225.2386737189055
 21
2.487309030445032
 31
0.0
  0
TEXT
  5
187D
330
1F
100
AcDbEntity
  8
LOGO
  6
CONTINUOUS
 62
     6
100
AcDbText
 10
228.5431968383191
 20
3.959703182061055
 30
0.0
 40
2.944788303232046
  1
Stroke
 41
0.8
  7
CHINESET
 72
     4
 11
233.8718613870247
 21
5.432097333677077
 31
0.0
100
AcDbText
  0
TEXT
  5
187E
330
1F
100
AcDbEntity
  8
LOGO
 62
     6
100
AcDbText
 10
229.6313662303706
 20
8.96584329755553
 30
0.0
 40
4.711661285171273
  1
行程
 41
0.9
  7
CHINESET
 72
     4
 11
233.8718613870247
 21
11.32167394014116
 31
0.0
100
AcDbText
  0
LINE
  5
187F
330
1F
100
AcDbEntity
  8
LOGO
 62
     6
100
AcDbLine
 10
215.719884235898
 20
31.34623440211925
 30
0.0
 11
215.719884235898
 21
20.74499651048381
 31
0.0
  0
LINE
  5
1880
330
1F
100
AcDbEntity
  8
LOGO
  6
CONTINUOUS
 62
     7
100
AcDbLine
 10
217.546318203983
 20
26.00806419629778
 30
0.0
 11
222.2274380349471
 21
26.00806419629778
 31
0.0
  0
LINE
  5
1881
330
1F
100
AcDbEntity
  8
LOGO
 62
     6
100
AcDbLine
 10
224.0607583976127
 20
31.3462344021191
 30
0.0
 11
224.0607583976127
 21
20.74499651048374
 31
0.0
  0
TEXT
  5
1882
330
1F
100
AcDbEntity
  8
LOGO
  6
CONTINUOUS
 62
     7
100
AcDbText
 10
232.8790471964968
 20
23.0340389832335
 30
0.0
 40
5.889576606464092
  1
?
  7
CHINESET
 72
     1
 11
234.4215553553326
 21
25.97882728646554
 31
0.0
100
AcDbText
 73
     2
  0
LINE
  5
1883
330
1F
100
AcDbEntity
  8
LOGO
 62
     6
100
AcDbLine
 10
253.8731777489083
 20
20.74499651048374
 30
0.0
 11
253.8731777489083
 21
15.44437756466606
 31
0.0
  0
LINE
  5
1884
330
1F
100
AcDbEntity
  8
LOGO
 62
     1
100
AcDbLine
 10
271.6277841472794
 20
-0.4574792727869835
 30
0.0
 11
271.6277841472794
 21
34.87998036599757
 31
0.0
  0
LINE
  5
1885
330
1F
100
AcDbEntity
  8
LOGO
 62
     6
100
AcDbLine
 10
262.5063654170276
 20
2.487309030445061
 30
0.0
 11
245.2399900807892
 21
2.487309030445032
 31
0.0
  0
LINE
  5
1886
330
1F
100
AcDbEntity
  8
LOGO
 62
     6
100
AcDbLine
 10
262.5063654170276
 20
15.44437756466606
 30
0.0
 11
245.2399900807892
 21
15.44437756466606
 31
0.0
  0
TEXT
  5
1887
330
1F
100
AcDbEntity
  8
LOGO
  6
CONTINUOUS
 62
     6
100
AcDbText
 10
247.0300506442548
 20
3.959703182061054
 30
0.0
 40
2.944788303232046
  1
MAGNET
 41
0.8
  7
CHINESET
 72
     4
 11
253.8731777489083
 21
5.432097333677077
 31
0.0
100
AcDbText
  0
TEXT
  5
1888
330
1F
100
AcDbEntity
  8
LOGO
 62
     6
100
AcDbText
 10
247.5124350139271
 20
9.014923102609396
 30
0.0
 40
4.711661285171273
  1
附磁石
 41
0.9
  7
CHINESET
 72
     4
 11
253.8731777489083
 21
11.32167394014116
 31
0.0
100
AcDbText
  0
LINE
  5
1889
330
1F
100
AcDbEntity
  8
LOGO
 62
     6
100
AcDbLine
 10
245.2399900807892
 20
15.44437756466606
 30
0.0
 11
245.2399900807892
 21
2.487309030445032
 31
0.0
  0
LINE
  5
188A
330
1F
100
AcDbEntity
  8
LOGO
 62
     6
100
AcDbLine
 10
242.5050490551439
 20
15.44437756466606
 30
0.0
 11
242.5050490551439
 21
2.438452290523514
 31
0.0
  0
LINE
  5
188B
330
1F
100
AcDbEntity
  8
LOGO
 62
     6
100
AcDbLine
 10
262.5063654170276
 20
15.44437756466606
 30
0.0
 11
262.5063654170276
 21
2.438452290523514
 31
0.0
  0
TEXT
  5
188C
330
1F
100
AcDbEntity
  8
LOGO
  6
CONTINUOUS
 62
     7
100
AcDbText
 10
248.1126113390422
 20
23.0340389832335
 30
0.0
 40
5.889576606464092
  1
(M)
  7
CHINESET
 72
     1
 11
254.4228719888251
 21
25.97882728646554
 31
0.0
100
AcDbText
 73
     2
  0
LINE
  5
188D
330
1F
100
AcDbEntity
  8
LOGO
 62
     6
100
AcDbLine
 10
261.6120935661293
 20
20.74499651048374
 30
0.0
 11
246.1342619316873
 21
20.74499651048374
 31
0.0
  0
LINE
  5
188E
330
1F
100
AcDbEntity
  8
LOGO
 62
     6
100
AcDbLine
 10
261.6120935661293
 20
31.34623440211917
 30
0.0
 11
246.1342619316873
 21
31.3462344021191
 31
0.0
  0
LINE
  5
188F
330
1F
100
AcDbEntity
  8
LOGO
 62
     6
100
AcDbLine
 10
246.1342619316873
 20
31.3462344021191
 30
0.0
 11
246.1342619316873
 21
20.74499651048374
 31
0.0
  0
LINE
  5
1890
330
1F
100
AcDbEntity
  8
LOGO
 62
     6
100
AcDbLine
 10
243.6829643764367
 20
31.3462344021191
 30
0.0
 11
243.6829643764367
 21
20.74499651048374
 31
0.0
  0
LINE
  5
1891
330
1F
100
AcDbEntity
  8
LOGO
 62
     6
100
AcDbLine
 10
261.6120935661292
 20
31.34623440211917
 30
0.0
 11
261.6120935661293
 21
20.74499651048374
 31
0.0
  0
LINE
  5
18E7
330
1F
100
AcDbEntity
  8
0
 62
     4
100
AcDbLine
 10
271.6277841472794
 20
296.7107287656602
 30
0.0
 11
-0.4706550713615343
 21
296.7107287656602
 31
0.0
  0
TEXT
  5
18E8
330
1F
100
AcDbEntity
  8
0
100
AcDbText
 10
21.45849908243178
 20
300.7107294832566
 30
0.0
 40
10.0
  1
2.附磁型本體長度皆較不附磁型增加10MM
  7
CHINESET
100
AcDbText
  0
TEXT
  5
18E9
330
1F
100
AcDbEntity
  8
0
100
AcDbText
 10
3.112678185677737
 20
315.9342403190334
 30
0.0
 40
10.0
  1
註：1.本圖檔為不附磁型
  7
CHINESET
100
AcDbText
  0
TEXT
  5
18EA
330
1F
100
AcDbEntity
  8
0
100
AcDbText
 10
12.47687941544859
 20
284.0909920000838
 30
0.0
 40
4.0
  1
MCJT-11-%%C32
  7
CHINESET
100
AcDbText
  0
TEXT
  5
18EB
330
1F
100
AcDbEntity
  8
0
100
AcDbText
 10
11.98595045786112
 20
275.802057249699
 30
0.0
 40
5.0
  1
stroke=0mm
  7
CHINESET
100
AcDbText
  0
LINE
  5
2CFC
330
1F
100
AcDbEntity
  8
0
100
AcDbLine
 10
104.8044335753785
 20
71.4690337713986
 30
0.0
 11
107.5044335753784
 21
71.46903377139864
 31
0.0
  0
LINE
  5
2CFD
330
1F
100
AcDbEntity
  8
0
100
AcDbLine
 10
104.8044335753786
 20
85.46903377139861
 30
0.0
 11
107.5044335753783
 21
85.46903377139859
 31
0.0
  0
LINE
  5
2CFE
330
1F
100
AcDbEntity
  8
0
100
AcDbLine
 10
104.5044335753785
 20
74.59605042519092
 30
0.0
 11
106.0044335753783
 21
78.46903377139864
 31
0.0
  0
LINE
  5
2CFF
330
1F
100
AcDbEntity
  8
0
100
AcDbLine
 10
107.5044335753783
 20
74.59605042519109
 30
0.0
 11
104.5044335753783
 21
74.59605042519109
 31
0.0
  0
LINE
  5
2D02
330
1F
100
AcDbEntity
  8
CENTER
100
AcDbLine
 10
73.4054248033126
 20
78.46903377139852
 30
0.0
 11
109.6030994866534
 21
78.46903377139864
 31
0.0
  0
LINE
  5
2D12
330
1F
100
AcDbEntity
  8
0
100
AcDbLine
 10
100.5044335753785
 20
78.46903377139861
 30
0.0
 11
100.5044335753786
 21
104.9690337713985
 31
0.0
  0
LINE
  5
2D15
330
1F
100
AcDbEntity
  8
0
100
AcDbLine
 10
76.50443357537858
 20
56.46903377139858
 30
0.0
 11
76.50443357537858
 21
104.9690337713985
 31
0.0
  0
LINE
  5
2D23
330
1F
100
AcDbEntity
  8
0
100
AcDbLine
 10
100.5044335753785
 20
56.46903377139858
 30
0.0
 11
76.50443357537858
 21
56.46903377139858
 31
0.0
  0
LINE
  5
2D63
330
1F
100
AcDbEntity
  8
0
100
AcDbLine
 10
100.5044335753785
 20
56.46903377139858
 30
0.0
 11
100.5044335753785
 21
78.46903377139859
 31
0.0
  0
LINE
  5
2D64
330
1F
100
AcDbEntity
  8
0
100
AcDbLine
 10
103.8044335753786
 20
78.46903377139864
 30
0.0
 11
103.8044335753786
 21
68.4690337713987
 31
0.0
  0
LINE
  5
2D65
330
1F
100
AcDbEntity
  8
0
100
AcDbLine
 10
102.8044335753786
 20
67.4690337713987
 30
0.0
 11
100.5044335753785
 21
67.4690337713987
 31
0.0
  0
ARC
  5
2D66
330
1F
100
AcDbEntity
  8
0
100
AcDbCircle
 10
102.8044335753786
 20
68.4690337713987
 30
0.0
 40
1.0
100
AcDbArc
 50
270.0
 51
0.0
  0
LINE
  5
2D73
330
1F
100
AcDbEntity
  8
0
100
AcDbLine
 10
104.5044335753783
 20
74.59605042519109
 30
0.0
 11
104.5044335753783
 21
78.46903377139852
 31
0.0
  0
ARC
  5
2D74
330
1F
100
AcDbEntity
  8
0
100
AcDbCircle
 10
111.5044335753786
 20
78.46903377139852
 30
0.0
 40
8.000000000000158
100
AcDbArc
 50
180.0
 51
208.9550243718606
  0
ARC
  5
2D99
330
1F
100
AcDbEntity
  8
0
100
AcDbCircle
 10
102.8044335753786
 20
88.46903377139852
 30
0.0
 40
1.0
100
AcDbArc
 50
0.0
 51
90.0
  0
LINE
  5
2DA0
330
1F
100
AcDbEntity
  8
0
100
AcDbLine
 10
103.8044335753784
 20
78.46903377139861
 30
0.0
 11
103.8044335753786
 21
88.46903377139852
 31
0.0
  0
LINE
  5
2DA1
330
1F
100
AcDbEntity
  8
0
100
AcDbLine
 10
102.8044335753786
 20
89.46903377139852
 30
0.0
 11
100.5044335753785
 21
89.4690337713985
 31
0.0
  0
LINE
  5
2DA2
330
1F
100
AcDbEntity
  8
0
100
AcDbLine
 10
100.5044335753786
 20
104.9690337713985
 30
0.0
 11
76.50443357537858
 21
104.9690337713985
 31
0.0
  0
ARC
  5
2DC4
330
1F
100
AcDbEntity
  8
0
100
AcDbCircle
 10
196.8401564791424
 20
84.33034140972798
 30
0.0
 40
2.6
100
AcDbArc
 50
143.9981311727822
 51
204.5631279302023
  0
ARC
  5
2DC5
330
1F
100
AcDbEntity
  8
0
100
AcDbCircle
 10
184.1645381970532
 20
78.46903377139844
 30
0.0
 40
14.89838549086941
100
AcDbArc
 50
46.50926046536644
 51
313.4907395346335
  0
CIRCLE
  5
2DC6
330
1F
100
AcDbEntity
  8
0
100
AcDbCircle
 10
183.2282495835597
 20
78.46903377139867
 30
0.0
 40
10.99999999999997
  0
CIRCLE
  5
2DC7
330
1F
100
AcDbEntity
  8
0
100
AcDbCircle
 10
183.2282495835597
 20
78.46903377139867
 30
0.0
 40
8.000000000000071
  0
LINE
  5
2DC8
330
1F
100
AcDbEntity
  8
0
100
AcDbLine
 10
161.2282495835597
 20
85.96903377139865
 30
0.0
 11
156.911640487589
 21
85.48431634673438
 31
0.0
  0
LINE
  5
2DC9
330
1F
100
AcDbEntity
  8
0
100
AcDbLine
 10
202.2282495835595
 20
79.56903377139844
 30
0.0
 11
202.2282495835595
 21
88.56903377139843
 31
0.0
  0
LINE
  5
2DCA
330
1F
100
AcDbEntity
  8
CENTER
  6
CENTER
100
AcDbLine
 10
183.2282495835597
 20
102.6437043858636
 30
0.0
 11
183.2282495835597
 21
55.49147317394766
 31
0.0
  0
CIRCLE
  5
2DCB
330
1F
100
AcDbEntity
  8
0
100
AcDbCircle
 10
183.2282495835597
 20
78.46903377139867
 30
0.0
 40
17.0
  0
LINE
  5
2DCC
330
1F
100
AcDbEntity
  8
CENTER
  6
CENTER
100
AcDbLine
 10
160.7394941294892
 20
68.46903377139864
 30
0.0
 11
167.2279131158619
 21
68.46903377139864
 31
0.0
  0
ARC
  5
2DCD
330
1F
100
AcDbEntity
  8
0
 62
     5
100
AcDbCircle
 10
166.2282495835597
 20
61.46903377139867
 30
0.0
 40
3.05
100
AcDbArc
 50
253.8051719534513
 51
192.3546205970243
  0
CIRCLE
  5
2DCE
330
1F
100
AcDbEntity
  8
0
100
AcDbCircle
 10
166.2282495835597
 20
61.46903377139867
 30
0.0
 40
2.55
  0
LINE
  5
2DCF
330
1F
100
AcDbEntity
  8
CENTER
  6
CENTER
100
AcDbLine
 10
171.1273116794349
 20
61.46903377139864
 30
0.0
 11
161.3291874876846
 21
61.46903377139864
 31
0.0
  0
CIRCLE
  5
2DD0
330
1F
100
AcDbEntity
  8
0
100
AcDbCircle
 10
166.2282495835597
 20
61.46903377139867
 30
0.0
 40
4.0
  0
LINE
  5
2DD1
330
1F
100
AcDbEntity
  8
0
100
AcDbLine
 10
174.8282495835599
 20
56.46903377139864
 30
0.0
 11
163.5750055765262
 21
56.46903377139864
 31
0.0
  0
LINE
  5
2DD2
330
1F
100
AcDbEntity
  8
0
100
AcDbLine
 10
105.7723827678095
 20
71.46903377139858
 30
0.0
 11
105.7723827678095
 21
74.59605042519109
 31
0.0
  0
LINE
  5
2DD3
330
1F
100
AcDbEntity
  8
0
100
AcDbLine
 10
107.5044335753783
 20
71.46903377139864
 30
0.0
 11
107.5044335753783
 21
85.46903377139859
 31
0.0
  0
LINE
  5
2DD4
330
1F
100
AcDbEntity
  8
0
100
AcDbLine
 10
106.0044335753783
 20
78.46903377139864
 30
0.0
 11
107.5044335753783
 21
74.59605042519109
 31
0.0
  0
CIRCLE
  5
2DD7
330
1F
100
AcDbEntity
  8
0
100
AcDbCircle
 10
183.2282495835597
 20
78.46903377139867
 30
0.0
 40
6.999999999999957
  0
LINE
  5
2DD8
330
1F
100
AcDbEntity
  8
0
100
AcDbLine
 10
184.3282495835596
 20
59.46903377139875
 30
0.0
 11
193.3282495835596
 21
59.46903377139875
 31
0.0
  0
ARC
  5
2DD9
330
1F
100
AcDbEntity
  8
0
100
AcDbCircle
 10
192.6333678045216
 20
69.55110560590478
 30
0.0
 40
2.6
100
AcDbArc
 50
313.3505184042766
 51
36.00186882721772
  0
LINE
  5
2DDA
330
1F
100
AcDbEntity
  8
0
100
AcDbLine
 10
203.5282495835597
 20
70.06903377139867
 30
0.0
 11
203.5282495835597
 21
68.36903377139861
 31
0.0
  0
LINE
  5
2DDB
330
1F
100
AcDbEntity
  8
0
100
AcDbLine
 10
202.2282495835595
 20
77.36903377139862
 30
0.0
 11
202.2282495835595
 21
68.36903377139861
 31
0.0
  0
LINE
  5
2DDC
330
1F
100
AcDbEntity
  8
0
100
AcDbLine
 10
205.2282495835597
 20
70.06903377139867
 30
0.0
 11
205.2282495835597
 21
58.68729446202968
 31
0.0
  0
LINE
  5
2DDD
330
1F
100
AcDbEntity
  8
CENTER
  6
CENTER
100
AcDbLine
 10
205.1273116794348
 20
61.56490128810543
 30
0.0
 11
195.3291874876846
 21
61.56490128810543
 31
0.0
  0
LINE
  5
2DDE
330
1F
100
AcDbEntity
  8
0
100
AcDbLine
 10
202.8814935905934
 20
56.46903377139864
 30
0.0
 11
191.6282495835596
 21
56.46903377139864
 31
0.0
  0
ARC
  5
2DDF
330
1F
100
AcDbEntity
  8
0
 62
     5
100
AcDbCircle
 10
200.2282495835597
 20
61.46903377139867
 30
0.0
 40
3.05
100
AcDbArc
 50
253.8051719534513
 51
192.3546205970243
  0
CIRCLE
  5
2DE0
330
1F
100
AcDbEntity
  8
0
100
AcDbCircle
 10
200.2282495835597
 20
61.46903377139867
 30
0.0
 40
4.0
  0
CIRCLE
  5
2DE1
330
1F
100
AcDbEntity
  8
0
100
AcDbCircle
 10
200.2282495835597
 20
61.46903377139867
 30
0.0
 40
2.55
  0
LINE
  5
2DE2
330
1F
100
AcDbEntity
  8
CENTER
  6
CENTER
100
AcDbLine
 10
200.2282495835597
 20
66.36903377139862
 30
0.0
 11
200.2282495835597
 21
56.56903377139861
 31
0.0
  0
LINE
  5
2DE3
330
1F
100
AcDbEntity
  8
0
100
AcDbLine
 10
205.2282495835597
 20
58.68729446202968
 30
0.0
 11
202.8814935905934
 21
56.46903377139864
 31
0.0
  0
LINE
  5
2DE4
330
1F
100
AcDbEntity
  8
0
100
AcDbLine
 10
202.2282495835595
 20
68.36903377139861
 30
0.0
 11
203.5282495835597
 21
68.36903377139861
 31
0.0
  0
LINE
  5
2DE5
330
1F
100
AcDbEntity
  8
0
100
AcDbLine
 10
193.3282495835596
 20
59.46903377139875
 30
0.0
 11
193.3282495835596
 21
58.16903377139857
 31
0.0
  0
LINE
  5
2DE6
330
1F
100
AcDbEntity
  8
0
100
AcDbLine
 10
191.6282495835596
 20
58.16903377139857
 30
0.0
 11
193.3282495835596
 21
58.16903377139857
 31
0.0
  0
LINE
  5
2DE7
330
1F
100
AcDbEntity
  8
0
100
AcDbLine
 10
191.6282495835596
 20
58.16903377139857
 30
0.0
 11
191.6282495835596
 21
56.46903377139864
 31
0.0
  0
LINE
  5
2DE8
330
1F
100
AcDbEntity
  8
0
100
AcDbLine
 10
205.2282495835597
 20
79.56903377139844
 30
0.0
 11
205.2282495835597
 21
77.36903377139862
 31
0.0
  0
LINE
  5
2DE9
330
1F
100
AcDbEntity
  8
0
100
AcDbLine
 10
203.5282495835597
 20
70.06903377139867
 30
0.0
 11
205.2282495835597
 21
70.06903377139867
 31
0.0
  0
LINE
  5
2DEA
330
1F
100
AcDbEntity
  8
0
100
AcDbLine
 10
202.2282495835595
 20
77.36903377139862
 30
0.0
 11
205.2282495835597
 21
77.36903377139862
 31
0.0
  0
LINE
  5
2DEB
330
1F
100
AcDbEntity
  8
0
100
AcDbLine
 10
202.2282495835595
 20
79.56903377139844
 30
0.0
 11
205.2282495835597
 21
79.56903377139844
 31
0.0
  0
LINE
  5
2DEC
330
1F
100
AcDbEntity
  8
0
100
AcDbLine
 10
190.2282495835597
 20
74.59605042519098
 30
0.0
 11
190.2282495835597
 21
82.34201711760618
 31
0.0
  0
ARC
  5
2DED
330
1F
100
AcDbEntity
  8
0
100
AcDbCircle
 10
196.8401564791424
 20
72.60772613306901
 30
0.0
 40
2.6
100
AcDbArc
 50
74.99999999999838
 51
155.4368720697977
  0
ARC
  5
2DEE
330
1F
100
AcDbEntity
  8
0
100
AcDbCircle
 10
196.8401564791424
 20
72.60772613306901
 30
0.0
 40
2.6
100
AcDbArc
 50
155.4368720697977
 51
216.0018688272177
  0
CIRCLE
  5
2DEF
330
1F
100
AcDbEntity
  8
0
100
AcDbCircle
 10
196.8401564791424
 20
72.60772613306901
 30
0.0
 40
1.25
  0
ARC
  5
2DF0
330
1F
100
AcDbEntity
  8
0
100
AcDbCircle
 10
184.0161527061837
 20
78.46903377139844
 30
0.0
 40
13.05
100
AcDbArc
 50
335.4368720697976
 51
335.4368720697976
  0
LINE
  5
2DF1
330
1F
100
AcDbEntity
  8
0
100
AcDbLine
 10
197.5130859964091
 20
75.11913328142049
 30
0.0
 11
199.2406208861489
 21
74.65624170281825
 31
0.0
  0
ARC
  5
2DF2
330
1F
100
AcDbEntity
  8
0
100
AcDbCircle
 10
198.9818018410463
 20
73.69031587652907
 30
0.0
 40
1.0
100
AcDbArc
 50
42.06040187611127
 51
75.00000000000085
  0
ARC
  5
2DF3
330
1F
100
AcDbEntity
  8
0
100
AcDbCircle
 10
196.8401564791424
 20
84.33034140972798
 30
0.0
 40
2.6
100
AcDbArc
 50
204.5631279302023
 51
285.0000000000015
  0
CIRCLE
  5
2DF4
330
1F
100
AcDbEntity
  8
0
100
AcDbCircle
 10
196.8401564791424
 20
84.33034140972798
 30
0.0
 40
1.25
  0
LINE
  5
2DF5
330
1F
100
AcDbEntity
  8
0
100
AcDbLine
 10
197.5130859964091
 20
81.81893426137634
 30
0.0
 11
199.2406208861489
 21
82.28182583997881
 31
0.0
  0
ARC
  5
2DF6
330
1F
100
AcDbEntity
  8
0
100
AcDbCircle
 10
198.9818018410463
 20
83.24775166626793
 30
0.0
 40
1.0
100
AcDbArc
 50
284.9999999999991
 51
317.9395981238898
  0
LINE
  5
2DF7
330
1F
100
AcDbEntity
  8
0
100
AcDbLine
 10
182.1282495835598
 20
59.46903377139875
 30
0.0
 11
173.1282495835598
 21
59.46903377139875
 31
0.0
  0
LINE
  5
2DF8
330
1F
100
AcDbEntity
  8
0
100
AcDbLine
 10
184.3282495835596
 20
56.46903377139864
 30
0.0
 11
182.1282495835598
 21
56.46903377139864
 31
0.0
  0
LINE
  5
2DF9
330
1F
100
AcDbEntity
  8
0
100
AcDbLine
 10
184.3282495835596
 20
59.46903377139875
 30
0.0
 11
184.3282495835596
 21
56.46903377139864
 31
0.0
  0
LINE
  5
2DFA
330
1F
100
AcDbEntity
  8
0
100
AcDbLine
 10
182.1282495835598
 20
59.46903377139875
 30
0.0
 11
182.1282495835598
 21
56.46903377139864
 31
0.0
  0
LINE
  5
2DFB
330
1F
100
AcDbEntity
  8
0
100
AcDbLine
 10
173.1282495835598
 20
59.46903377139875
 30
0.0
 11
173.1282495835598
 21
58.16903377139857
 31
0.0
  0
LINE
  5
2DFC
330
1F
100
AcDbEntity
  8
0
100
AcDbLine
 10
174.8282495835599
 20
58.16903377139857
 30
0.0
 11
173.1282495835598
 21
58.16903377139857
 31
0.0
  0
LINE
  5
2DFD
330
1F
100
AcDbEntity
  8
0
100
AcDbLine
 10
174.8282495835599
 20
58.16903377139857
 30
0.0
 11
174.8282495835599
 21
56.46903377139864
 31
0.0
  0
CIRCLE
  5
2DFE
330
1F
100
AcDbEntity
  8
0
100
AcDbCircle
 10
183.2282495835597
 20
78.46903377139867
 30
0.0
 40
2.55
  0
ARC
  5
2DFF
330
1F
100
AcDbEntity
  8
0
 62
     5
100
AcDbCircle
 10
183.2282495835597
 20
78.46903377139867
 30
0.0
 40
3.05
100
AcDbArc
 50
253.8051719534513
 51
192.3546205970243
  0
LINE
  5
2E00
330
1F
100
AcDbEntity
  8
0
100
AcDbLine
 10
179.3552662373522
 20
71.46903377139858
 30
0.0
 11
187.1012329297673
 21
71.46903377139858
 31
0.0
  0
LINE
  5
2E01
330
1F
100
AcDbEntity
  8
0
100
AcDbLine
 10
187.1012329297673
 20
85.46903377139864
 30
0.0
 11
179.3552662373521
 21
85.46903377139864
 31
0.0
  0
LINE
  5
2E02
330
1F
100
AcDbEntity
  8
0
100
AcDbLine
 10
176.2282495835597
 20
82.34201711760618
 30
0.0
 11
176.2282495835597
 21
74.59605042519098
 31
0.0
  0
ARC
  5
2E03
330
1F
100
AcDbEntity
  8
0
100
AcDbCircle
 10
164.8282495835597
 20
68.91903377139866
 30
0.0
 40
1.7
100
AcDbArc
 50
0.0
 51
90.0
  0
LINE
  5
2E04
330
1F
100
AcDbEntity
  8
0
100
AcDbLine
 10
161.2282495835597
 20
66.7690337713986
 30
0.0
 11
161.2282495835597
 21
58.81578976436509
 31
0.0
  0
LINE
  5
2E05
330
1F
100
AcDbEntity
  8
CENTER
  6
CENTER
100
AcDbLine
 10
166.2282495835597
 20
56.91884520011581
 30
0.0
 11
166.2282495835597
 21
66.63521651590122
 31
0.0
  0
ARC
  5
2E06
330
1F
100
AcDbEntity
  8
0
100
AcDbCircle
 10
183.2282495835597
 20
78.46903377139867
 30
0.0
 40
29.5
100
AcDbArc
 50
221.7753480097252
 51
228.2246519902747
  0
LINE
  5
2E07
330
1F
100
AcDbEntity
  8
0
100
AcDbLine
 10
161.2282495835597
 20
66.7690337713986
 30
0.0
 11
162.2282495835597
 21
66.7690337713986
 31
0.0
  0
ARC
  5
2E08
330
1F
100
AcDbEntity
  8
0
100
AcDbCircle
 10
164.8282495835597
 20
68.01903377139862
 30
0.0
 40
1.7
100
AcDbArc
 50
270.0
 51
0.0
  0
LINE
  5
2E09
330
1F
100
AcDbEntity
  8
0
100
AcDbLine
 10
162.7282495835597
 20
66.31903377139855
 30
0.0
 11
164.8282495835597
 21
66.31903377139855
 31
0.0
  0
LINE
  5
2E0A
330
1F
100
AcDbEntity
  8
0
100
AcDbLine
 10
166.5282495835597
 20
68.0190337713986
 30
0.0
 11
166.5282495835597
 21
68.91903377139863
 31
0.0
  0
LINE
  5
2E0B
330
1F
100
AcDbEntity
  8
0
100
AcDbLine
 10
162.2282495835597
 20
66.7690337713986
 30
0.0
 11
162.7282495835597
 21
66.31903377139855
 31
0.0
  0
LINE
  5
2E0C
330
1F
100
AcDbEntity
  8
0
100
AcDbLine
 10
156.7282495835597
 20
85.28500719508537
 30
0.0
 11
156.7282495835597
 21
71.6530603477118
 31
0.0
  0
LINE
  5
2E10
330
1F
100
AcDbEntity
  8
0
100
AcDbLine
 10
162.2282495835597
 20
70.16903377139858
 30
0.0
 11
161.2282495835597
 21
70.16903377139858
 31
0.0
  0
LINE
  5
2E14
330
1F
100
AcDbEntity
  8
0
100
AcDbLine
 10
164.8282495835597
 20
70.61903377139862
 30
0.0
 11
162.7282495835597
 21
70.61903377139862
 31
0.0
  0
LINE
  5
2E15
330
1F
100
AcDbEntity
  8
0
100
AcDbLine
 10
162.2282495835597
 20
70.16903377139858
 30
0.0
 11
162.7282495835597
 21
70.61903377139862
 31
0.0
  0
LINE
  5
2E18
330
1F
100
AcDbEntity
  8
0
100
AcDbLine
 10
161.2282495835597
 20
70.96903377139864
 30
0.0
 11
156.911640487589
 21
71.45375119606285
 31
0.0
  0
LINE
  5
2E19
330
1F
100
AcDbEntity
  8
0
100
AcDbLine
 10
161.2282495835597
 20
70.96903377139864
 30
0.0
 11
161.2282495835597
 21
70.16903377139863
 31
0.0
  0
ARC
  5
2E1A
330
1F
100
AcDbEntity
  8
0
100
AcDbCircle
 10
156.9282495835597
 20
71.65306034771183
 30
0.0
 40
0.2
100
AcDbArc
 50
180.0
 51
265.2363583092732
  0
ARC
  5
2E20
330
1F
100
AcDbEntity
  8
0
100
AcDbCircle
 10
156.9282495835597
 20
85.2850071950854
 30
0.0
 40
0.2
100
AcDbArc
 50
94.7636416907267
 51
180.0
  0
CIRCLE
  5
2E21
330
1F
100
AcDbEntity
  8
0
100
AcDbCircle
 10
166.2282495835597
 20
95.37316625469188
 30
0.0
 40
2.55
  0
LINE
  5
2E22
330
1F
100
AcDbEntity
  8
CENTER
  6
CENTER
100
AcDbLine
 10
160.7394941294892
 20
88.46903377139865
 30
0.0
 11
167.2279131158619
 21
88.46903377139865
 31
0.0
  0
ARC
  5
2E23
330
1F
100
AcDbEntity
  8
0
 62
     5
100
AcDbCircle
 10
166.2282495835597
 20
95.37316625469188
 30
0.0
 40
3.05
100
AcDbArc
 50
253.8051719534513
 51
192.3546205970243
  0
CIRCLE
  5
2E24
330
1F
100
AcDbEntity
  8
0
100
AcDbCircle
 10
166.2282495835597
 20
95.37316625469188
 30
0.0
 40
4.0
  0
LINE
  5
2E25
330
1F
100
AcDbEntity
  8
CENTER
  6
CENTER
100
AcDbLine
 10
171.1273116794349
 20
95.46903377139864
 30
0.0
 11
161.3291874876846
 21
95.46903377139864
 31
0.0
  0
LINE
  5
2E26
330
1F
100
AcDbEntity
  8
0
100
AcDbLine
 10
174.8282495835599
 20
100.4690337713986
 30
0.0
 11
163.5750055765263
 21
100.4690337713986
 31
0.0
  0
LINE
  5
2E27
330
1F
100
AcDbEntity
  8
0
100
AcDbLine
 10
184.3282495835596
 20
97.46903377139842
 30
0.0
 11
193.3282495835596
 21
97.4690337713983
 31
0.0
  0
CIRCLE
  5
2E28
330
1F
100
AcDbEntity
  8
0
100
AcDbCircle
 10
200.2282495835597
 20
95.46903377139868
 30
0.0
 40
2.55
  0
LINE
  5
2E29
330
1F
100
AcDbEntity
  8
CENTER
  6
CENTER
100
AcDbLine
 10
205.1273116794348
 20
95.56490128810542
 30
0.0
 11
195.3291874876846
 21
95.56490128810542
 31
0.0
  0
LINE
  5
2E2A
330
1F
100
AcDbEntity
  8
0
100
AcDbLine
 10
202.8814935905934
 20
100.4690337713986
 30
0.0
 11
191.6282495835597
 21
100.4690337713986
 31
0.0
  0
ARC
  5
2E2B
330
1F
100
AcDbEntity
  8
0
 62
     5
100
AcDbCircle
 10
200.2282495835597
 20
95.46903377139868
 30
0.0
 40
3.05
100
AcDbArc
 50
253.8051719534513
 51
192.3546205970243
  0
CIRCLE
  5
2E2C
330
1F
100
AcDbEntity
  8
0
100
AcDbCircle
 10
200.2282495835597
 20
95.46903377139868
 30
0.0
 40
4.0
  0
LINE
  5
2E2D
330
1F
100
AcDbEntity
  8
0
100
AcDbLine
 10
205.2282495835597
 20
98.12227777843219
 30
0.0
 11
205.2282495835597
 21
86.8690337713985
 31
0.0
  0
LINE
  5
2E2E
330
1F
100
AcDbEntity
  8
CENTER
  6
CENTER
100
AcDbLine
 10
200.2282495835597
 20
100.3690337713986
 30
0.0
 11
200.2282495835597
 21
90.56903377139866
 31
0.0
  0
LINE
  5
2E2F
330
1F
100
AcDbEntity
  8
0
100
AcDbLine
 10
202.2282495835595
 20
88.56903377139843
 30
0.0
 11
203.5282495835597
 21
88.56903377139843
 31
0.0
  0
LINE
  5
2E30
330
1F
100
AcDbEntity
  8
0
100
AcDbLine
 10
203.5282495835597
 20
86.8690337713985
 30
0.0
 11
203.5282495835597
 21
88.56903377139843
 31
0.0
  0
LINE
  5
2E31
330
1F
100
AcDbEntity
  8
0
100
AcDbLine
 10
203.5282495835597
 20
86.8690337713985
 30
0.0
 11
205.2282495835597
 21
86.8690337713985
 31
0.0
  0
ARC
  5
2E32
330
1F
100
AcDbEntity
  8
0
100
AcDbCircle
 10
183.2282495835597
 20
78.46903377139867
 30
0.0
 40
29.5
100
AcDbArc
 50
41.77534800972525
 51
48.22465199027475
  0
ARC
  5
2E33
330
1F
100
AcDbEntity
  8
0
100
AcDbCircle
 10
192.6333678045216
 20
87.38696193689222
 30
0.0
 40
2.6
100
AcDbArc
 50
323.9981311727822
 51
46.64948159572339
  0
LINE
  5
2E34
330
1F
100
AcDbEntity
  8
0
100
AcDbLine
 10
191.6282495835597
 20
98.76903377139848
 30
0.0
 11
193.3282495835596
 21
98.76903377139848
 31
0.0
  0
LINE
  5
2E35
330
1F
100
AcDbEntity
  8
0
100
AcDbLine
 10
193.3282495835596
 20
97.4690337713983
 30
0.0
 11
193.3282495835596
 21
98.76903377139848
 31
0.0
  0
LINE
  5
2E36
330
1F
100
AcDbEntity
  8
0
100
AcDbLine
 10
191.6282495835597
 20
98.76903377139848
 30
0.0
 11
191.6282495835597
 21
100.4690337713986
 31
0.0
  0
LINE
  5
2E37
330
1F
100
AcDbEntity
  8
0
100
AcDbLine
 10
182.1282495835598
 20
97.46903377139842
 30
0.0
 11
173.1282495835598
 21
97.46903377139842
 31
0.0
  0
LINE
  5
2E38
330
1F
100
AcDbEntity
  8
0
100
AcDbLine
 10
182.1282495835598
 20
100.4690337713985
 30
0.0
 11
184.3282495835596
 21
100.4690337713985
 31
0.0
  0
LINE
  5
2E39
330
1F
100
AcDbEntity
  8
0
100
AcDbLine
 10
184.3282495835596
 20
97.46903377139842
 30
0.0
 11
184.3282495835596
 21
100.4690337713985
 31
0.0
  0
LINE
  5
2E3A
330
1F
100
AcDbEntity
  8
0
100
AcDbLine
 10
182.1282495835598
 20
97.46903377139842
 30
0.0
 11
182.1282495835598
 21
100.4690337713985
 31
0.0
  0
LINE
  5
2E3B
330
1F
100
AcDbEntity
  8
0
100
AcDbLine
 10
174.8282495835599
 20
98.76903377139861
 30
0.0
 11
174.8282495835599
 21
100.4690337713986
 31
0.0
  0
LINE
  5
2E3C
330
1F
100
AcDbEntity
  8
0
100
AcDbLine
 10
174.8282495835599
 20
98.76903377139861
 30
0.0
 11
173.1282495835598
 21
98.76903377139861
 31
0.0
  0
LINE
  5
2E3D
330
1F
100
AcDbEntity
  8
0
100
AcDbLine
 10
173.1282495835598
 20
97.46903377139842
 30
0.0
 11
173.1282495835598
 21
98.76903377139861
 31
0.0
  0
LINE
  5
2E3E
330
1F
100
AcDbEntity
  8
CENTER
  6
CENTER
100
AcDbLine
 10
166.2282495835597
 20
100.2731662546918
 30
0.0
 11
166.2282495835597
 21
90.47316625469177
 31
0.0
  0
LINE
  5
2E3F
330
1F
100
AcDbEntity
  8
0
100
AcDbLine
 10
161.2282495835597
 20
98.2507730807676
 30
0.0
 11
161.2282495835597
 21
90.16903377139868
 31
0.0
  0
LINE
  5
2E40
330
1F
100
AcDbEntity
  8
0
100
AcDbLine
 10
161.2282495835597
 20
90.16903377139868
 30
0.0
 11
162.2282495835597
 21
90.16903377139868
 31
0.0
  0
LINE
  5
2E41
330
1F
100
AcDbEntity
  8
0
100
AcDbLine
 10
162.2282495835597
 20
86.7690337713986
 30
0.0
 11
161.2282495835597
 21
86.7690337713986
 31
0.0
  0
ARC
  5
2E42
330
1F
100
AcDbEntity
  8
0
100
AcDbCircle
 10
164.8282495835597
 20
88.91903377139872
 30
0.0
 40
1.7
100
AcDbArc
 50
0.0
 51
90.0
  0
LINE
  5
2E43
330
1F
100
AcDbEntity
  8
0
100
AcDbLine
 10
164.8282495835597
 20
86.31903377139867
 30
0.0
 11
162.7282495835597
 21
86.31903377139867
 31
0.0
  0
ARC
  5
2E44
330
1F
100
AcDbEntity
  8
0
100
AcDbCircle
 10
164.8282495835597
 20
88.01903377139863
 30
0.0
 40
1.7
100
AcDbArc
 50
270.0
 51
0.0
  0
LINE
  5
2E45
330
1F
100
AcDbEntity
  8
0
100
AcDbLine
 10
166.5282495835597
 20
88.91903377139868
 30
0.0
 11
166.5282495835597
 21
88.0190337713986
 31
0.0
  0
LINE
  5
2E46
330
1F
100
AcDbEntity
  8
0
100
AcDbLine
 10
162.2282495835597
 20
86.7690337713986
 30
0.0
 11
162.7282495835597
 21
86.31903377139867
 31
0.0
  0
LINE
  5
2E47
330
1F
100
AcDbEntity
  8
0
100
AcDbLine
 10
162.7282495835597
 20
90.61903377139861
 30
0.0
 11
164.8282495835597
 21
90.61903377139861
 31
0.0
  0
LINE
  5
2E48
330
1F
100
AcDbEntity
  8
0
100
AcDbLine
 10
162.2282495835597
 20
90.16903377139868
 30
0.0
 11
162.7282495835597
 21
90.61903377139861
 31
0.0
  0
LINE
  5
2E49
330
1F
100
AcDbEntity
  8
0
100
AcDbLine
 10
161.2282495835597
 20
86.7690337713986
 30
0.0
 11
161.2282495835597
 21
85.96903377139865
 31
0.0
  0
LINE
  5
2E4A
330
1F
100
AcDbEntity
  8
0
100
AcDbLine
 10
161.2282495835597
 20
98.2507730807676
 30
0.0
 11
163.5750055765263
 21
100.4690337713986
 31
0.0
  0
ARC
  5
2E4B
330
1F
100
AcDbEntity
  8
0
100
AcDbCircle
 10
111.5044335753786
 20
78.46903377139875
 30
0.0
 40
8.000000000000158
100
AcDbArc
 50
151.0449756281393
 51
180.0
  0
LINE
  5
2E4C
330
1F
100
AcDbEntity
  8
0
100
AcDbLine
 10
106.0044335753783
 20
78.46903377139864
 30
0.0
 11
107.5044335753783
 21
82.34201711760618
 31
0.0
  0
LINE
  5
2E4D
330
1F
100
AcDbEntity
  8
0
100
AcDbLine
 10
107.5044335753783
 20
82.34201711760618
 30
0.0
 11
104.5044335753783
 21
82.34201711760618
 31
0.0
  0
LINE
  5
2E4E
330
1F
100
AcDbEntity
  8
0
100
AcDbLine
 10
104.5044335753783
 20
82.34201711760618
 30
0.0
 11
104.5044335753783
 21
78.46903377139875
 31
0.0
  0
LINE
  5
2E4F
330
1F
100
AcDbEntity
  8
0
100
AcDbLine
 10
104.5044335753785
 20
82.34201711760636
 30
0.0
 11
106.0044335753783
 21
78.46903377139864
 31
0.0
  0
LINE
  5
2E50
330
1F
100
AcDbEntity
  8
0
100
AcDbLine
 10
105.7723827678095
 20
85.46903377139869
 30
0.0
 11
105.7723827678095
 21
82.34201711760618
 31
0.0
  0
LINE
  5
2E55
330
1F
100
AcDbEntity
  8
0
100
AcDbLine
 10
100.5044335753785
 20
66.76903377139862
 30
0.0
 11
76.50443357537858
 21
66.7690337713986
 31
0.0
  0
LINE
  5
2E56
330
1F
100
AcDbEntity
  8
0
100
AcDbLine
 10
100.5044335753785
 20
70.16903377139858
 30
0.0
 11
76.50443357537858
 21
70.16903377139858
 31
0.0
  0
LINE
  5
2E57
330
1F
100
AcDbEntity
  8
0
100
AcDbLine
 10
100.5044335753785
 20
71.65306034771183
 30
0.0
 11
76.50443357537858
 21
71.65306034771183
 31
0.0
  0
LINE
  5
2E58
330
1F
100
AcDbEntity
  8
0
100
AcDbLine
 10
100.5044335753785
 20
85.28500719508546
 30
0.0
 11
76.50443357537858
 21
85.28500719508533
 31
0.0
  0
LINE
  5
2E59
330
1F
100
AcDbEntity
  8
0
100
AcDbLine
 10
100.5044335753785
 20
86.7690337713987
 30
0.0
 11
76.50443357537858
 21
86.7690337713986
 31
0.0
  0
LINE
  5
2E5A
330
1F
100
AcDbEntity
  8
0
100
AcDbLine
 10
100.5044335753785
 20
90.16903377139867
 30
0.0
 11
76.50443357537858
 21
90.16903377139858
 31
0.0
  0
LINE
  5
2E97
330
1F
100
AcDbEntity
  8
CENTER
100
AcDbLine
 10
91.50443357537865
 20
74.71129349493921
 30
0.0
 11
91.50443357537865
 21
82.76101367821798
 31
0.0
  0
LINE
  5
2E98
330
1F
100
AcDbEntity
  8
CENTER
100
AcDbLine
 10
85.50443357537853
 20
74.71129349493921
 30
0.0
 11
85.50443357537853
 21
82.76101367821798
 31
0.0
  0
ARC
  5
2E9A
330
1F
100
AcDbEntity
  8
0
100
AcDbCircle
 10
91.50443357537865
 20
78.46903377139859
 30
0.0
 40
2.5
100
AcDbArc
 50
170.1289708211868
 51
105.1067450930745
  0
CIRCLE
  5
2E9B
330
1F
100
AcDbEntity
  8
0
100
AcDbCircle
 10
91.50443357537865
 20
78.46903377139859
 30
0.0
 40
2.2
  0
ARC
  5
2E9C
330
1F
100
AcDbEntity
  8
0
100
AcDbCircle
 10
85.50443357537853
 20
78.46903377139859
 30
0.0
 40
2.5
100
AcDbArc
 50
170.1289708211868
 51
105.1067450930745
  0
CIRCLE
  5
2E9D
330
1F
100
AcDbEntity
  8
0
100
AcDbCircle
 10
85.50443357537853
 20
78.46903377139859
 30
0.0
 40
2.2
  0
DIMENSION
  5
2E9E
330
1F
100
AcDbEntity
  8
DIM
100
AcDbDimension
  2
*D1
 10
76.50443357537858
 20
112.9481385250125
 30
0.0
 11
81.00443357537855
 21
115.4481385250125
 31
0.0
 70
    32
  3
ISO-25-1
100
AcDbAlignedDimension
 13
85.50443357537853
 23
82.76101367821798
 33
0.0
 14
76.50443357537858
 24
104.9690337713985
 34
0.0
100
AcDbRotatedDimension
  0
DIMENSION
  5
2EAB
330
1F
100
AcDbEntity
  8
DIM
100
AcDbDimension
  2
*D2
 10
100.5044335753786
 20
112.9481385250125
 30
0.0
 11
96.00443357537864
 21
115.4481385250125
 31
0.0
 70
    32
  3
ISO-25-1
100
AcDbAlignedDimension
 13
91.50443357537865
 23
82.76101367821798
 33
0.0
 14
100.5044335753786
 24
104.9690337713985
 34
0.0
100
AcDbRotatedDimension
  0
DIMENSION
  5
2EB8
330
1F
100
AcDbEntity
  8
DIM
100
AcDbDimension
  2
*D3
 10
76.50443357537858
 20
123.6748430674931
 30
0.0
 11
88.5044335753786
 21
126.1748430674931
 31
0.0
 70
    32
  3
ISO-25-1
100
AcDbAlignedDimension
 13
100.5044335753786
 23
104.9690337713985
 33
0.0
 14
76.50443357537858
 24
104.9690337713985
 34
0.0
100
AcDbRotatedDimension
  0
DIMENSION
  5
2EC5
330
1F
100
AcDbEntity
  8
DIM
100
AcDbDimension
  2
*D4
 10
107.5044335753783
 20
123.6748430674931
 30
0.0
 11
104.0044335753784
 21
123.6748430674931
 31
0.0
 70
   160
  3
ISO-25-1
100
AcDbAlignedDimension
 13
100.5044335753786
 23
104.9690337713985
 33
0.0
 14
107.5044335753783
 24
85.46903377139859
 34
0.0
100
AcDbRotatedDimension
  0
DIMENSION
  5
2EEA
330
1F
100
AcDbEntity
  8
DIM
100
AcDbDimension
  2
*D5
 10
100.5044335753785
 20
48.53561544946444
 30
0.0
 11
113.9472907182357
 21
48.53561544946444
 31
0.0
 70
   160
  3
ISO-25-1
100
AcDbAlignedDimension
 13
103.8044335753786
 23
68.4690337713987
 33
0.0
 14
100.5044335753785
 24
56.46903377139858
 34
0.0
100
AcDbRotatedDimension
  0
DIMENSION
  5
2F04
330
1F
100
AcDbEntity
  8
DIM
100
AcDbDimension
  2
*D6
 10
117.0668517486383
 20
70.46903377139866
 30
0.0
 11
114.5668517486383
 21
78.46903377139864
 31
0.0
 70
    32
  1
%%c<>
  3
ISO-25-1
100
AcDbAlignedDimension
 13
103.8044335753785
 23
86.46903377139855
 33
0.0
 14
103.8044335753786
 24
70.46903377139866
 34
0.0
 50
90.0
100
AcDbRotatedDimension
  0
DIMENSION
  5
2F11
330
1F
100
AcDbEntity
  8
DIM
100
AcDbDimension
  2
*D7
 10
125.4833895420194
 20
67.4690337713987
 30
0.0
 11
122.9833895420194
 21
78.46903377139863
 31
0.0
 70
    32
  1
%%c<>
  3
ISO-25-1
100
AcDbAlignedDimension
 13
102.8044335753786
 23
89.46903377139852
 33
0.0
 14
102.8044335753786
 24
67.4690337713987
 34
0.0
 50
90.0
100
AcDbRotatedDimension
  0
LEADER
  5
2F42
330
1F
100
AcDbEntity
  8
DIM
100
AcDbLeader
  3
ISO-25-1
 73
     0
 75
     1
 40
10.14285714285714
 41
45.85714285714284
 76
     3
 10
85.50443357537853
 20
78.46903377139859
 30
0.0
 10
68.44947245697063
 20
99.59092643025996
 30
0.0
 10
65.44947245697063
 20
99.59092643025996
 30
0.0
340
2F43
1001
ACAD
1000
DSTYLE
1002
{
1070
     5
1000

1070
    77
1070
     1
1070
   147
1040
1.0
1070
   342
1005
0
1002
}
1000
LEANOF
1010
0.0
1020
0.0
1030
0.0
  0
MTEXT
  5
2F43
330
1F
100
AcDbEntity
  8
DIM
100
AcDbMText
 10
64.44947245697062
 20
100.5909264302599
 30
0.0
 40
3.0
 41
0.0
 71
     9
 72
     1
  1
2-M5*0.8(ST=5mm)\P2-PT1/8
  7
CHINESET
1001
ACAD
1000
MTEXTBEGIN
1070
    73
1070
     1
1070
    44
1040
1.0
1070
    74
1070
     0
1000
MTEXTEND
  0
DIMENSION
  5
2F44
330
1F
100
AcDbEntity
  8
DIM
100
AcDbDimension
  2
*D8
 10
148.5150712918705
 20
61.46903377139864
 30
0.0
 11
146.0150712918705
 21
78.46903377139866
 31
0.0
 70
    32
  1
\U+25A1<>
  3
ISO-25-1
100
AcDbAlignedDimension
 13
161.3291874876846
 23
95.46903377139864
 33
0.0
 14
161.3291874876846
 24
61.46903377139864
 34
0.0
 50
90.0
100
AcDbRotatedDimension
  0
DIMENSION
  5
2F51
330
1F
100
AcDbEntity
  8
DIM
100
AcDbDimension
  2
*D9
 10
139.0309296758728
 20
56.46903377139857
 30
0.0
 11
136.5309296758728
 21
78.46903377139863
 31
0.0
 70
    32
  3
ISO-25-1
100
AcDbAlignedDimension
 13
163.5750055765263
 23
100.4690337713986
 33
0.0
 14
163.5750055765263
 24
56.46903377139856
 34
0.0
 50
90.0
100
AcDbRotatedDimension
  0
DIMENSION
  5
2F5E
330
1F
100
AcDbEntity
  8
DIM
100
AcDbDimension
  2
*D10
 10
156.7282495835597
 20
111.5831567002696
 30
0.0
 11
180.9782495835597
 21
114.0831567002696
 31
0.0
 70
    32
  3
ISO-25-1
100
AcDbAlignedDimension
 13
205.2282495835597
 23
98.12227777843219
 33
0.0
 14
156.7282495835597
 24
85.28500719508537
 34
0.0
100
AcDbRotatedDimension
  0
LEADER
  5
2F74
330
1F
100
AcDbEntity
  8
DIM
100
AcDbLeader
  3
ISO-25-1
 73
     0
 74
     0
 75
     1
 40
13.10260826771653
 41
18.65178571428571
 76
     3
 10
200.2282495835597
 20
95.56490128810542
 30
0.0
 10
221.0822542778284
 20
122.8892938683786
 30
0.0
 10
224.0822542778285
 20
122.8892938683786
 30
0.0
340
2F75
1001
ACAD
1000
DSTYLE
1002
{
1070
     5
1000

1070
    77
1070
     1
1070
   147
1040
1.0
1070
   342
1005
0
1002
}
1000
LEANOF
1010
0.0
1020
0.0
1030
0.0
  0
MTEXT
  5
2F75
330
1F
100
AcDbEntity
  8
DIM
100
AcDbMText
 10
225.0822542778284
 20
123.8892938683786
 30
0.0
 40
3.0
 41
0.0
 71
     7
 72
     1
  1
沉孔%%C8*6深\PM6*1*8L\P%%C5.1貫通
  7
CHINESET
1001
ACAD
1000
MTEXTBEGIN
1070
    73
1070
     1
1070
    44
1040
1.0
1070
    74
1070
     0
1000
MTEXTEND
  0
LEADER
  5
2F76
330
1F
100
AcDbEntity
  8
DIM
100
AcDbLeader
  3
ISO-25-1
 73
     0
 75
     1
 40
3.0
 41
27.14285714285713
 76
     3
 10
183.2282495835597
 20
79.06758877990563
 30
0.0
 10
156.7160515928617
 20
128.0840049081132
 30
0.0
 10
153.7160515928617
 20
128.0840049081132
 30
0.0
340
2F77
1001
ACAD
1000
DSTYLE
1002
{
1070
     5
1000

1070
    77
1070
     1
1070
   147
1040
1.0
1070
   342
1005
0
1002
}
1000
LEANOF
1010
0.0
1020
0.0
1030
0.0
  0
MTEXT
  5
2F77
330
1F
100
AcDbEntity
  8
DIM
100
AcDbMText
 10
152.7160515928617
 20
129.0840049081132
 30
0.0
 40
3.0
 41
0.0
 71
     9
 72
     1
  1
M8*1.25*12L
  7
CHINESET
1001
ACAD
1000
MTEXTBEGIN
1070
    73
1070
     1
1070
    44
1040
1.0
1070
    74
1070
     0
1000
MTEXTEND
  0
DIMENSION
  5
2F7A
330
1F
100
AcDbEntity
  8
DIM
100
AcDbDimension
  2
*D19
 10
157.9249935289922
 20
199.2688270669502
 30
0.0
 11
155.4249935289921
 21
221.2688270669503
 31
0.0
 70
    32
  3
ISO-25-1
100
AcDbAlignedDimension
 13
182.4690694296457
 23
243.2688270669503
 33
0.0
 14
182.4690694296457
 24
199.2688270669502
 34
0.0
 50
90.0
100
AcDbRotatedDimension
  0
MTEXT
  5
2F7B
330
1F
100
AcDbEntity
  8
DIM
100
AcDbMText
 10
64.44947245697062
 20
243.3907197258116
 30
0.0
 40
3.0
 41
0.0
 71
     9
 72
     1
  1
2-M5*0.8(ST=5mm)\P2-PT1/8
  7
CHINESET
1001
ACAD
1000
MTEXTBEGIN
1070
    73
1070
     1
1070
    44
1040
1.0
1070
    74
1070
     0
1000
MTEXTEND
  0
LEADER
  5
2F7C
330
1F
100
AcDbEntity
  8
DIM
100
AcDbLeader
  3
ISO-25-1
 73
     0
 75
     1
 40
10.14285714285714
 41
45.85714285714284
 76
     3
 10
85.50443357537853
 20
221.2688270669502
 30
0.0
 10
68.44947245697063
 20
242.3907197258116
 30
0.0
 10
65.44947245697063
 20
242.3907197258116
 30
0.0
340
2F7B
1001
ACAD
1000
DSTYLE
1002
{
1070
     5
1000

1070
    77
1070
     1
1070
   147
1040
1.0
1070
   342
1005
0
1002
}
1000
LEANOF
1010
0.0
1020
0.0
1030
0.0
  0
DIMENSION
  5
2F7D
330
1F
100
AcDbEntity
  8
DIM
100
AcDbDimension
  2
*D13
 10
76.50443357537858
 20
266.4746363630448
 30
0.0
 11
88.5044335753786
 21
268.9746363630448
 31
0.0
 70
    32
  3
ISO-25-1
100
AcDbAlignedDimension
 13
100.5044335753786
 23
247.7688270669502
 33
0.0
 14
76.50443357537858
 24
247.7688270669502
 34
0.0
100
AcDbRotatedDimension
  0
DIMENSION
  5
2F7E
330
1F
100
AcDbEntity
  8
DIM
100
AcDbDimension
  2
*D12
 10
100.5044335753786
 20
255.7479318205642
 30
0.0
 11
96.00443357537864
 21
258.2479318205642
 31
0.0
 70
    32
  3
ISO-25-1
100
AcDbAlignedDimension
 13
91.50443357537865
 23
225.5608069737696
 33
0.0
 14
100.5044335753786
 24
247.7688270669502
 34
0.0
100
AcDbRotatedDimension
  0
LINE
  5
2F7F
330
1F
100
AcDbEntity
  8
0
100
AcDbLine
 10
100.5044335753785
 20
232.9688270669503
 30
0.0
 11
76.50443357537858
 21
232.9688270669502
 31
0.0
  0
LINE
  5
2F80
330
1F
100
AcDbEntity
  8
0
100
AcDbLine
 10
100.5044335753786
 20
247.7688270669502
 30
0.0
 11
76.50443357537858
 21
247.7688270669502
 31
0.0
  0
CIRCLE
  5
2F81
330
1F
100
AcDbEntity
  8
0
100
AcDbCircle
 10
91.50443357537865
 20
221.2688270669502
 30
0.0
 40
2.2
  0
ARC
  5
2F82
330
1F
100
AcDbEntity
  8
0
100
AcDbCircle
 10
91.50443357537865
 20
221.2688270669502
 30
0.0
 40
2.5
100
AcDbArc
 50
170.1289708211868
 51
105.1067450930745
  0
LINE
  5
2F83
330
1F
100
AcDbEntity
  8
0
100
AcDbLine
 10
100.5044335753785
 20
229.5688270669504
 30
0.0
 11
76.50443357537858
 21
229.5688270669502
 31
0.0
  0
LINE
  5
2F84
330
1F
100
AcDbEntity
  8
0
100
AcDbLine
 10
100.5044335753785
 20
228.0848004906371
 30
0.0
 11
76.50443357537858
 21
228.084800490637
 31
0.0
  0
LINE
  5
2F85
330
1F
100
AcDbEntity
  8
0
100
AcDbLine
 10
100.5044335753785
 20
214.4528536432635
 30
0.0
 11
76.50443357537858
 21
214.4528536432635
 31
0.0
  0
LINE
  5
2F86
330
1F
100
AcDbEntity
  8
0
100
AcDbLine
 10
100.5044335753785
 20
212.9688270669502
 30
0.0
 11
76.50443357537858
 21
212.9688270669502
 31
0.0
  0
LINE
  5
2F87
330
1F
100
AcDbEntity
  8
0
100
AcDbLine
 10
100.5044335753785
 20
209.5688270669503
 30
0.0
 11
76.50443357537858
 21
209.5688270669502
 31
0.0
  0
LINE
  5
2F88
330
1F
100
AcDbEntity
  8
0
100
AcDbLine
 10
100.5044335753785
 20
199.2688270669502
 30
0.0
 11
76.50443357537858
 21
199.2688270669502
 31
0.0
  0
LINE
  5
2F89
330
1F
100
AcDbEntity
  8
CENTER
100
AcDbLine
 10
73.4054248033126
 20
221.2688270669502
 30
0.0
 11
128.2373889225966
 21
221.2688270669503
 31
0.0
  0
DIMENSION
  5
2F8A
330
1F
100
AcDbEntity
  8
DIM
100
AcDbDimension
  2
*D11
 10
76.50443357537858
 20
255.7479318205642
 30
0.0
 11
81.00443357537855
 21
258.2479318205642
 31
0.0
 70
    32
  3
ISO-25-1
100
AcDbAlignedDimension
 13
85.50443357537853
 23
225.5608069737696
 33
0.0
 14
76.50443357537858
 24
247.7688270669502
 34
0.0
100
AcDbRotatedDimension
  0
LINE
  5
2F8B
330
1F
100
AcDbEntity
  8
0
100
AcDbLine
 10
76.50443357537858
 20
199.2688270669502
 30
0.0
 11
76.50443357537858
 21
247.7688270669502
 31
0.0
  0
ARC
  5
2F8C
330
1F
100
AcDbEntity
  8
0
100
AcDbCircle
 10
85.50443357537853
 20
221.2688270669502
 30
0.0
 40
2.5
100
AcDbArc
 50
170.1289708211868
 51
105.1067450930745
  0
CIRCLE
  5
2F8D
330
1F
100
AcDbEntity
  8
0
100
AcDbCircle
 10
85.50443357537853
 20
221.2688270669502
 30
0.0
 40
2.2
  0
LINE
  5
2F8E
330
1F
100
AcDbEntity
  8
CENTER
100
AcDbLine
 10
85.50443357537853
 20
217.5110867904909
 30
0.0
 11
85.50443357537853
 21
225.5608069737696
 31
0.0
  0
LINE
  5
2F8F
330
1F
100
AcDbEntity
  8
CENTER
100
AcDbLine
 10
91.50443357537865
 20
217.5110867904909
 30
0.0
 11
91.50443357537865
 21
225.5608069737696
 31
0.0
  0
DIMENSION
  5
2F90
330
1F
100
AcDbEntity
  8
DIM
100
AcDbDimension
  2
*D14
 10
124.5044335753786
 20
266.4746363630448
 30
0.0
 11
112.5044335753786
 21
266.4746363630448
 31
0.0
 70
   160
  3
ISO-25-1
100
AcDbAlignedDimension
 13
100.5044335753786
 23
247.7688270669502
 33
0.0
 14
124.5044335753786
 24
227.0688270669503
 34
0.0
100
AcDbRotatedDimension
  0
LINE
  5
2F91
330
1F
100
AcDbEntity
  8
0
100
AcDbLine
 10
100.5044335753785
 20
221.2688270669502
 30
0.0
 11
100.5044335753786
 21
247.7688270669502
 31
0.0
  0
DIMENSION
  5
2F92
330
1F
100
AcDbEntity
  8
DIM
100
AcDbDimension
  2
*D16
 10
137.8146621443172
 20
213.2688270669503
 30
0.0
 11
135.3146621443171
 21
221.2688270669503
 31
0.0
 70
    32
  1
%%C<>
  3
ISO-25-1
100
AcDbAlignedDimension
 13
103.8044335753785
 23
229.2688270669502
 33
0.0
 14
103.8044335753786
 24
213.2688270669503
 34
0.0
 50
90.0
100
AcDbRotatedDimension
  0
DIMENSION
  5
2F93
330
1F
100
AcDbEntity
  8
DIM
100
AcDbDimension
  2
*D17
 10
145.2256481744884
 20
210.2688270669503
 30
0.0
 11
142.7256481744884
 21
221.2688270669503
 31
0.0
 70
    32
  1
%%c<>
  3
ISO-25-1
100
AcDbAlignedDimension
 13
102.8044335753786
 23
232.2688270669502
 33
0.0
 14
102.8044335753786
 24
210.2688270669503
 34
0.0
 50
90.0
100
AcDbRotatedDimension
  0
DIMENSION
  5
2F94
330
1F
100
AcDbEntity
  8
DIM
100
AcDbDimension
  2
*D15
 10
100.5044335753785
 20
191.3354087450161
 30
0.0
 11
113.9472907182357
 21
191.3354087450161
 31
0.0
 70
   160
  3
ISO-25-1
100
AcDbAlignedDimension
 13
103.8044335753786
 23
211.2688270669504
 33
0.0
 14
100.5044335753785
 24
199.2688270669502
 34
0.0
100
AcDbRotatedDimension
  0
ARC
  5
2F95
330
1F
100
AcDbEntity
  8
0
100
AcDbCircle
 10
102.8044335753786
 20
211.2688270669504
 30
0.0
 40
1.0
100
AcDbArc
 50
270.0
 51
0.0
  0
LINE
  5
2F96
330
1F
100
AcDbEntity
  8
0
100
AcDbLine
 10
100.5044335753785
 20
199.2688270669502
 30
0.0
 11
100.5044335753785
 21
221.2688270669502
 31
0.0
  0
LINE
  5
2F97
330
1F
100
AcDbEntity
  8
0
100
AcDbLine
 10
102.8044335753786
 20
210.2688270669503
 30
0.0
 11
100.5044335753785
 21
210.2688270669503
 31
0.0
  0
ARC
  5
2F98
330
1F
100
AcDbEntity
  8
0
100
AcDbCircle
 10
111.5044335753785
 20
221.2688270669504
 30
0.0
 40
8.000000000000158
100
AcDbArc
 50
151.0449756281393
 51
180.0
  0
ARC
  5
2F99
330
1F
100
AcDbEntity
  8
0
100
AcDbCircle
 10
111.5044335753785
 20
221.2688270669502
 30
0.0
 40
8.000000000000158
100
AcDbArc
 50
180.0
 51
208.9550243718606
  0
ARC
  5
2F9A
330
1F
100
AcDbEntity
  8
0
100
AcDbCircle
 10
102.8044335753786
 20
231.2688270669502
 30
0.0
 40
1.0
100
AcDbArc
 50
0.0
 51
90.0
  0
LINE
  5
2F9B
330
1F
100
AcDbEntity
  8
0
100
AcDbLine
 10
102.8044335753786
 20
232.2688270669502
 30
0.0
 11
100.5044335753785
 21
232.2688270669501
 31
0.0
  0
LINE
  5
2F9C
330
1F
100
AcDbEntity
  8
0
100
AcDbLine
 10
107.5044335753783
 20
214.2688270669503
 30
0.0
 11
107.5044335753783
 21
228.2688270669502
 31
0.0
  0
LINE
  5
2F9D
330
1F
100
AcDbEntity
  8
0
100
AcDbLine
 10
105.7723827678095
 20
228.2688270669503
 30
0.0
 11
105.7723827678095
 21
225.1418104131579
 31
0.0
  0
LINE
  5
2F9E
330
1F
100
AcDbEntity
  8
0
100
AcDbLine
 10
103.8044335753784
 20
221.2688270669502
 30
0.0
 11
103.8044335753786
 21
231.2688270669502
 31
0.0
  0
LINE
  5
2F9F
330
1F
100
AcDbEntity
  8
0
100
AcDbLine
 10
106.0044335753783
 20
221.2688270669503
 30
0.0
 11
107.5044335753783
 21
217.3958437207427
 31
0.0
  0
LINE
  5
2FA0
330
1F
100
AcDbEntity
  8
0
100
AcDbLine
 10
104.5044335753783
 20
217.3958437207427
 30
0.0
 11
104.5044335753783
 21
221.2688270669502
 31
0.0
  0
LINE
  5
2FA1
330
1F
100
AcDbEntity
  8
0
100
AcDbLine
 10
104.5044335753785
 20
217.3958437207426
 30
0.0
 11
106.0044335753783
 21
221.2688270669503
 31
0.0
  0
LINE
  5
2FA2
330
1F
100
AcDbEntity
  8
0
100
AcDbLine
 10
103.8044335753786
 20
221.2688270669503
 30
0.0
 11
103.8044335753786
 21
211.2688270669504
 31
0.0
  0
LINE
  5
2FA3
330
1F
100
AcDbEntity
  8
0
100
AcDbLine
 10
104.8044335753785
 20
214.2688270669502
 30
0.0
 11
111.5517804830762
 21
214.2688270669504
 31
0.0
  0
LINE
  5
2FA4
330
1F
100
AcDbEntity
  8
0
100
AcDbLine
 10
107.5044335753783
 20
217.3958437207427
 30
0.0
 11
104.5044335753783
 21
217.3958437207427
 31
0.0
  0
LINE
  5
2FA6
330
1F
100
AcDbEntity
  8
0
100
AcDbLine
 10
105.7723827678095
 20
214.2688270669502
 30
0.0
 11
105.7723827678095
 21
217.3958437207427
 31
0.0
  0
LINE
  5
2FA7
330
1F
100
AcDbEntity
  8
0
100
AcDbLine
 10
106.0044335753783
 20
221.2688270669503
 30
0.0
 11
107.5044335753783
 21
225.1418104131579
 31
0.0
  0
LINE
  5
2FA8
330
1F
100
AcDbEntity
  8
0
100
AcDbLine
 10
107.5044335753783
 20
225.1418104131579
 30
0.0
 11
104.5044335753783
 21
225.1418104131579
 31
0.0
  0
LINE
  5
2FA9
330
1F
100
AcDbEntity
  8
0
100
AcDbLine
 10
104.5044335753785
 20
225.141810413158
 30
0.0
 11
106.0044335753783
 21
221.2688270669503
 31
0.0
  0
LINE
  5
2FAA
330
1F
100
AcDbEntity
  8
0
100
AcDbLine
 10
104.5044335753783
 20
225.1418104131579
 30
0.0
 11
104.5044335753783
 21
221.2688270669504
 31
0.0
  0
LINE
  5
2FAB
330
1F
100
AcDbEntity
  8
0
100
AcDbLine
 10
104.8044335753786
 20
228.2688270669502
 30
0.0
 11
111.5517804830762
 21
228.2688270669502
 31
0.0
  0
LEADER
  5
2FAD
330
1F
100
AcDbEntity
  8
DIM
100
AcDbLeader
  3
ISO-25-1
 73
     0
 74
     0
 75
     1
 40
13.10260826771653
 41
18.65178571428571
 76
     3
 10
219.1223134366791
 20
238.3646945836571
 30
0.0
 10
233.8635326599903
 20
258.4735931119349
 30
0.0
 10
236.8635326599903
 20
258.4735931119349
 30
0.0
340
3025
1001
ACAD
1000
DSTYLE
1002
{
1070
     5
1000

1070
    77
1070
     1
1070
   147
1040
1.0
1070
   342
1005
0
1002
}
1000
LEANOF
1010
0.0
1020
0.0
1030
0.0
  0
DIMENSION
  5
2FAE
330
1F
100
AcDbEntity
  8
DIM
100
AcDbDimension
  2
*D20
 10
175.6223134366791
 20
254.3829499958213
 30
0.0
 11
199.8723134366791
 21
256.8829499958213
 31
0.0
 70
    32
  3
ISO-25-1
100
AcDbAlignedDimension
 13
224.1223134366792
 23
240.9220710739838
 33
0.0
 14
175.6223134366791
 24
228.084800490637
 34
0.0
100
AcDbRotatedDimension
  0
CIRCLE
  5
2FAF
330
1F
100
AcDbEntity
  8
0
100
AcDbCircle
 10
202.1223134366791
 20
221.2688270669504
 30
0.0
 40
10.99999999999997
  0
ARC
  5
2FB0
330
1F
100
AcDbEntity
  8
0
100
AcDbCircle
 10
203.0586020501726
 20
221.2688270669501
 30
0.0
 40
14.89838549086941
100
AcDbArc
 50
46.50926046536644
 51
313.4907395346335
  0
CIRCLE
  5
2FB1
330
1F
100
AcDbEntity
  8
0
100
AcDbCircle
 10
202.1223134366791
 20
221.2688270669504
 30
0.0
 40
8.000000000000071
  0
CIRCLE
  5
2FB2
330
1F
100
AcDbEntity
  8
0
100
AcDbCircle
 10
202.1223134366791
 20
221.2688270669504
 30
0.0
 40
6.999999999999957
  0
LINE
  5
2FB3
330
1F
100
AcDbEntity
  8
0
100
AcDbLine
 10
201.0223134366792
 20
202.2688270669504
 30
0.0
 11
192.0223134366792
 21
202.2688270669504
 31
0.0
  0
LINE
  5
2FB4
330
1F
100
AcDbEntity
  8
0
100
AcDbLine
 10
201.0223134366792
 20
240.26882706695
 30
0.0
 11
192.0223134366792
 21
240.26882706695
 31
0.0
  0
CIRCLE
  5
2FB5
330
1F
100
AcDbEntity
  8
0
100
AcDbCircle
 10
202.1223134366791
 20
221.2688270669504
 30
0.0
 40
17.0
  0
DIMENSION
  5
2FB6
330
1F
100
AcDbEntity
  8
DIM
100
AcDbDimension
  2
*D18
 10
167.4091351449899
 20
204.2688270669503
 30
0.0
 11
164.9091351449898
 21
221.2688270669503
 31
0.0
 70
    32
  1
\U+25A1<>
  3
ISO-25-1
100
AcDbAlignedDimension
 13
180.223251340804
 23
238.2688270669503
 33
0.0
 14
180.223251340804
 24
204.2688270669503
 34
0.0
 50
90.0
100
AcDbRotatedDimension
  0
ARC
  5
2FB7
330
1F
100
AcDbEntity
  8
0
100
AcDbCircle
 10
175.8223134366791
 20
228.0848004906371
 30
0.0
 40
0.2
100
AcDbArc
 50
94.7636416907267
 51
180.0
  0
ARC
  5
2FB8
330
1F
100
AcDbEntity
  8
0
100
AcDbCircle
 10
175.8223134366791
 20
214.4528536432635
 30
0.0
 40
0.2
100
AcDbArc
 50
180.0
 51
265.2363583092732
  0
LINE
  5
2FB9
330
1F
100
AcDbEntity
  8
0
100
AcDbLine
 10
175.6223134366791
 20
228.084800490637
 30
0.0
 11
175.6223134366791
 21
214.4528536432634
 31
0.0
  0
LINE
  5
2FBA
330
1F
100
AcDbEntity
  8
0
100
AcDbLine
 10
185.4223134366791
 20
210.8188270669502
 30
0.0
 11
185.4223134366791
 21
211.7188270669503
 31
0.0
  0
LINE
  5
2FBB
330
1F
100
AcDbEntity
  8
CENTER
  6
CENTER
100
AcDbLine
 10
190.0213755325543
 20
204.2688270669503
 30
0.0
 11
180.223251340804
 21
204.2688270669503
 31
0.0
  0
CIRCLE
  5
2FBC
330
1F
100
AcDbEntity
  8
0
100
AcDbCircle
 10
185.1223134366791
 20
204.2688270669503
 30
0.0
 40
4.0
  0
ARC
  5
2FBD
330
1F
100
AcDbEntity
  8
0
 62
     5
100
AcDbCircle
 10
185.1223134366791
 20
204.2688270669503
 30
0.0
 40
3.05
100
AcDbArc
 50
253.8051719534513
 51
192.3546205970243
  0
LINE
  5
2FBE
330
1F
100
AcDbEntity
  8
0
100
AcDbLine
 10
193.7223134366793
 20
199.2688270669503
 30
0.0
 11
182.4690694296456
 21
199.2688270669503
 31
0.0
  0
CIRCLE
  5
2FBF
330
1F
100
AcDbEntity
  8
0
100
AcDbCircle
 10
185.1223134366791
 20
204.2688270669503
 30
0.0
 40
2.55
  0
LINE
  5
2FC0
330
1F
100
AcDbEntity
  8
0
100
AcDbLine
 10
180.1223134366791
 20
209.5688270669502
 30
0.0
 11
181.1223134366791
 21
209.5688270669502
 31
0.0
  0
ARC
  5
2FC1
330
1F
100
AcDbEntity
  8
0
100
AcDbCircle
 10
202.1223134366791
 20
221.2688270669504
 30
0.0
 40
29.5
100
AcDbArc
 50
221.7753480097252
 51
228.2246519902747
  0
LINE
  5
2FC2
330
1F
100
AcDbEntity
  8
0
100
AcDbLine
 10
180.1223134366791
 20
209.5688270669502
 30
0.0
 11
180.1223134366791
 21
201.6155830599168
 31
0.0
  0
LINE
  5
2FC3
330
1F
100
AcDbEntity
  8
CENTER
  6
CENTER
100
AcDbLine
 10
185.1223134366791
 20
199.7186384956675
 30
0.0
 11
185.1223134366791
 21
209.4350098114529
 31
0.0
  0
LINE
  5
2FC4
330
1F
100
AcDbEntity
  8
0
100
AcDbLine
 10
181.6223134366791
 20
209.1188270669502
 30
0.0
 11
183.7223134366792
 21
209.1188270669502
 31
0.0
  0
LINE
  5
2FC5
330
1F
100
AcDbEntity
  8
0
100
AcDbLine
 10
181.1223134366791
 20
209.5688270669502
 30
0.0
 11
181.6223134366791
 21
209.1188270669502
 31
0.0
  0
ARC
  5
2FC6
330
1F
100
AcDbEntity
  8
0
100
AcDbCircle
 10
183.7223134366791
 20
210.8188270669503
 30
0.0
 40
1.7
100
AcDbArc
 50
270.0
 51
0.0
  0
LINE
  5
2FC7
330
1F
100
AcDbEntity
  8
0
100
AcDbLine
 10
193.7223134366793
 20
200.9688270669502
 30
0.0
 11
193.7223134366793
 21
199.2688270669503
 31
0.0
  0
LINE
  5
2FC8
330
1F
100
AcDbEntity
  8
0
100
AcDbLine
 10
192.0223134366792
 20
202.2688270669504
 30
0.0
 11
192.0223134366792
 21
200.9688270669502
 31
0.0
  0
LINE
  5
2FC9
330
1F
100
AcDbEntity
  8
0
100
AcDbLine
 10
193.7223134366793
 20
200.9688270669502
 30
0.0
 11
192.0223134366792
 21
200.9688270669502
 31
0.0
  0
LINE
  5
2FCA
330
1F
100
AcDbEntity
  8
CENTER
  6
CENTER
100
AcDbLine
 10
190.0213755325543
 20
238.2688270669503
 30
0.0
 11
180.223251340804
 21
238.2688270669503
 31
0.0
  0
CIRCLE
  5
2FCB
330
1F
100
AcDbEntity
  8
0
100
AcDbCircle
 10
185.1223134366791
 20
238.1729595502436
 30
0.0
 40
4.0
  0
ARC
  5
2FCC
330
1F
100
AcDbEntity
  8
0
 62
     5
100
AcDbCircle
 10
185.1223134366791
 20
238.1729595502436
 30
0.0
 40
3.05
100
AcDbArc
 50
253.8051719534513
 51
192.3546205970243
  0
LINE
  5
2FCD
330
1F
100
AcDbEntity
  8
0
100
AcDbLine
 10
193.7223134366793
 20
243.2688270669503
 30
0.0
 11
182.4690694296457
 21
243.2688270669503
 31
0.0
  0
CIRCLE
  5
2FCE
330
1F
100
AcDbEntity
  8
0
100
AcDbCircle
 10
185.1223134366791
 20
238.1729595502436
 30
0.0
 40
2.55
  0
LINE
  5
2FCF
330
1F
100
AcDbEntity
  8
0
100
AcDbLine
 10
181.1223134366791
 20
212.9688270669502
 30
0.0
 11
180.1223134366791
 21
212.9688270669502
 31
0.0
  0
LINE
  5
2FD0
330
1F
100
AcDbEntity
  8
CENTER
  6
CENTER
100
AcDbLine
 10
179.6335579826086
 20
211.2688270669503
 30
0.0
 11
186.1219769689813
 21
211.2688270669503
 31
0.0
  0
LINE
  5
2FD1
330
1F
100
AcDbEntity
  8
0
100
AcDbLine
 10
180.1223134366791
 20
213.7688270669503
 30
0.0
 11
175.8057043407084
 21
214.2535444916145
 31
0.0
  0
LINE
  5
2FD2
330
1F
100
AcDbEntity
  8
0
100
AcDbLine
 10
180.1223134366791
 20
213.7688270669503
 30
0.0
 11
180.1223134366791
 21
212.9688270669503
 31
0.0
  0
LINE
  5
2FD3
330
1F
100
AcDbEntity
  8
0
100
AcDbLine
 10
183.7223134366792
 20
213.4188270669503
 30
0.0
 11
181.6223134366791
 21
213.4188270669503
 31
0.0
  0
LINE
  5
2FD4
330
1F
100
AcDbEntity
  8
0
100
AcDbLine
 10
181.1223134366791
 20
212.9688270669502
 30
0.0
 11
181.6223134366791
 21
213.4188270669503
 31
0.0
  0
ARC
  5
2FD5
330
1F
100
AcDbEntity
  8
0
100
AcDbCircle
 10
183.7223134366791
 20
211.7188270669503
 30
0.0
 40
1.7
100
AcDbArc
 50
0.0
 51
90.0
  0
LINE
  5
2FD6
330
1F
100
AcDbEntity
  8
0
100
AcDbLine
 10
181.1223134366791
 20
229.5688270669502
 30
0.0
 11
180.1223134366791
 21
229.5688270669502
 31
0.0
  0
LINE
  5
2FD7
330
1F
100
AcDbEntity
  8
0
100
AcDbLine
 10
180.1223134366791
 20
232.9688270669503
 30
0.0
 11
181.1223134366791
 21
232.9688270669503
 31
0.0
  0
LINE
  5
2FD8
330
1F
100
AcDbEntity
  8
0
100
AcDbLine
 10
180.1223134366791
 20
241.0505663763192
 30
0.0
 11
182.4690694296457
 21
243.2688270669503
 31
0.0
  0
LINE
  5
2FD9
330
1F
100
AcDbEntity
  8
CENTER
  6
CENTER
100
AcDbLine
 10
179.6335579826086
 20
231.2688270669503
 30
0.0
 11
186.1219769689813
 21
231.2688270669503
 31
0.0
  0
LINE
  5
2FDA
330
1F
100
AcDbEntity
  8
0
100
AcDbLine
 10
180.1223134366791
 20
241.0505663763192
 30
0.0
 11
180.1223134366791
 21
232.9688270669503
 31
0.0
  0
LINE
  5
2FDB
330
1F
100
AcDbEntity
  8
0
100
AcDbLine
 10
180.1223134366791
 20
228.7688270669503
 30
0.0
 11
175.8057043407084
 21
228.284109642286
 31
0.0
  0
LINE
  5
2FDC
330
1F
100
AcDbEntity
  8
0
100
AcDbLine
 10
180.1223134366791
 20
229.5688270669502
 30
0.0
 11
180.1223134366791
 21
228.7688270669503
 31
0.0
  0
LINE
  5
2FDD
330
1F
100
AcDbEntity
  8
CENTER
  6
CENTER
100
AcDbLine
 10
185.1223134366791
 20
243.0729595502435
 30
0.0
 11
185.1223134366791
 21
233.2729595502434
 31
0.0
  0
LINE
  5
2FDE
330
1F
100
AcDbEntity
  8
0
100
AcDbLine
 10
183.7223134366792
 20
229.1188270669503
 30
0.0
 11
181.6223134366791
 21
229.1188270669503
 31
0.0
  0
LINE
  5
2FDF
330
1F
100
AcDbEntity
  8
0
100
AcDbLine
 10
181.6223134366791
 20
233.4188270669503
 30
0.0
 11
183.7223134366792
 21
233.4188270669503
 31
0.0
  0
LINE
  5
2FE0
330
1F
100
AcDbEntity
  8
0
100
AcDbLine
 10
181.1223134366791
 20
229.5688270669502
 30
0.0
 11
181.6223134366791
 21
229.1188270669503
 31
0.0
  0
LINE
  5
2FE1
330
1F
100
AcDbEntity
  8
0
100
AcDbLine
 10
181.1223134366791
 20
232.9688270669503
 30
0.0
 11
181.6223134366791
 21
233.4188270669503
 31
0.0
  0
LINE
  5
2FE2
330
1F
100
AcDbEntity
  8
0
100
AcDbLine
 10
185.4223134366791
 20
231.7188270669503
 30
0.0
 11
185.4223134366791
 21
230.8188270669503
 31
0.0
  0
ARC
  5
2FE3
330
1F
100
AcDbEntity
  8
0
100
AcDbCircle
 10
183.7223134366791
 20
230.8188270669503
 30
0.0
 40
1.7
100
AcDbArc
 50
270.0
 51
0.0
  0
ARC
  5
2FE4
330
1F
100
AcDbEntity
  8
0
100
AcDbCircle
 10
183.7223134366791
 20
231.7188270669504
 30
0.0
 40
1.7
100
AcDbArc
 50
0.0
 51
90.0
  0
LINE
  5
2FE5
330
1F
100
AcDbEntity
  8
0
100
AcDbLine
 10
195.1223134366791
 20
225.1418104131579
 30
0.0
 11
195.1223134366791
 21
217.3958437207426
 31
0.0
  0
LINE
  5
2FE6
330
1F
100
AcDbEntity
  8
0
100
AcDbLine
 10
193.7223134366793
 20
241.5688270669503
 30
0.0
 11
193.7223134366793
 21
243.2688270669503
 31
0.0
  0
LINE
  5
2FE7
330
1F
100
AcDbEntity
  8
0
100
AcDbLine
 10
192.0223134366792
 20
240.26882706695
 30
0.0
 11
192.0223134366792
 21
241.5688270669503
 31
0.0
  0
LINE
  5
2FE8
330
1F
100
AcDbEntity
  8
0
100
AcDbLine
 10
193.7223134366793
 20
241.5688270669503
 30
0.0
 11
192.0223134366792
 21
241.5688270669503
 31
0.0
  0
LINE
  5
2FE9
330
1F
100
AcDbEntity
  8
CENTER
  6
CENTER
100
AcDbLine
 10
202.1223134366791
 20
245.4434976814153
 30
0.0
 11
202.1223134366791
 21
198.2912664694993
 31
0.0
  0
ARC
  5
2FEA
330
1F
100
AcDbEntity
  8
0
100
AcDbCircle
 10
217.8758656941657
 20
226.0475449618196
 30
0.0
 40
1.0
100
AcDbArc
 50
284.9999999999991
 51
317.9395981238898
  0
ARC
  5
2FEB
330
1F
100
AcDbEntity
  8
0
100
AcDbCircle
 10
217.8758656941657
 20
216.4901091720807
 30
0.0
 40
1.0
100
AcDbArc
 50
42.06040187611127
 51
75.00000000000085
  0
LINE
  5
2FEC
330
1F
100
AcDbEntity
  8
0
100
AcDbLine
 10
221.7755574437128
 20
199.2688270669503
 30
0.0
 11
210.522313436679
 21
199.2688270669503
 31
0.0
  0
LINE
  5
2FED
330
1F
100
AcDbEntity
  8
CENTER
  6
CENTER
100
AcDbLine
 10
224.0213755325543
 20
204.3646945836571
 30
0.0
 11
214.223251340804
 21
204.3646945836571
 31
0.0
  0
CIRCLE
  5
2FEE
330
1F
100
AcDbEntity
  8
0
100
AcDbCircle
 10
219.1223134366791
 20
204.2688270669503
 30
0.0
 40
2.55
  0
CIRCLE
  5
2FEF
330
1F
100
AcDbEntity
  8
0
100
AcDbCircle
 10
219.1223134366791
 20
204.2688270669503
 30
0.0
 40
4.0
  0
ARC
  5
2FF0
330
1F
100
AcDbEntity
  8
0
 62
     5
100
AcDbCircle
 10
219.1223134366791
 20
204.2688270669503
 30
0.0
 40
3.05
100
AcDbArc
 50
253.8051719534513
 51
192.3546205970243
  0
LINE
  5
2FF1
330
1F
100
AcDbEntity
  8
0
100
AcDbLine
 10
221.7755574437128
 20
243.2688270669503
 30
0.0
 11
210.5223134366791
 21
243.2688270669503
 31
0.0
  0
LINE
  5
2FF2
330
1F
100
AcDbEntity
  8
CENTER
  6
CENTER
100
AcDbLine
 10
224.0213755325543
 20
238.3646945836571
 30
0.0
 11
214.223251340804
 21
238.3646945836571
 31
0.0
  0
CIRCLE
  5
2FF3
330
1F
100
AcDbEntity
  8
0
100
AcDbCircle
 10
219.1223134366791
 20
238.2688270669504
 30
0.0
 40
4.0
  0
ARC
  5
2FF4
330
1F
100
AcDbEntity
  8
0
 62
     5
100
AcDbCircle
 10
219.1223134366791
 20
238.2688270669504
 30
0.0
 40
3.05
100
AcDbArc
 50
253.8051719534513
 51
192.3546205970243
  0
CIRCLE
  5
2FF5
330
1F
100
AcDbEntity
  8
0
100
AcDbCircle
 10
219.1223134366791
 20
238.2688270669504
 30
0.0
 40
2.55
  0
ARC
  5
2FF6
330
1F
100
AcDbEntity
  8
0
100
AcDbCircle
 10
211.527431657641
 20
212.3508989014564
 30
0.0
 40
2.6
100
AcDbArc
 50
313.3505184042766
 51
36.00186882721772
  0
LINE
  5
2FF7
330
1F
100
AcDbEntity
  8
0
100
AcDbLine
 10
203.222313436679
 20
202.2688270669504
 30
0.0
 11
212.222313436679
 21
202.2688270669504
 31
0.0
  0
LINE
  5
2FF8
330
1F
100
AcDbEntity
  8
0
100
AcDbLine
 10
203.222313436679
 20
199.2688270669503
 30
0.0
 11
201.0223134366792
 21
199.2688270669503
 31
0.0
  0
LINE
  5
2FF9
330
1F
100
AcDbEntity
  8
0
100
AcDbLine
 10
201.0223134366792
 20
202.2688270669504
 30
0.0
 11
201.0223134366792
 21
199.2688270669503
 31
0.0
  0
LINE
  5
2FFA
330
1F
100
AcDbEntity
  8
0
100
AcDbLine
 10
203.222313436679
 20
202.2688270669504
 30
0.0
 11
203.222313436679
 21
199.2688270669503
 31
0.0
  0
LINE
  5
2FFB
330
1F
100
AcDbEntity
  8
0
100
AcDbLine
 10
212.222313436679
 20
202.2688270669504
 30
0.0
 11
212.222313436679
 21
200.9688270669502
 31
0.0
  0
LINE
  5
2FFC
330
1F
100
AcDbEntity
  8
0
100
AcDbLine
 10
210.522313436679
 20
200.9688270669502
 30
0.0
 11
210.522313436679
 21
199.2688270669503
 31
0.0
  0
LINE
  5
2FFD
330
1F
100
AcDbEntity
  8
0
100
AcDbLine
 10
210.522313436679
 20
200.9688270669502
 30
0.0
 11
212.222313436679
 21
200.9688270669502
 31
0.0
  0
LINE
  5
2FFE
330
1F
100
AcDbEntity
  8
0
100
AcDbLine
 10
203.222313436679
 20
240.26882706695
 30
0.0
 11
212.222313436679
 21
240.26882706695
 31
0.0
  0
LINE
  5
2FFF
330
1F
100
AcDbEntity
  8
0
100
AcDbLine
 10
198.2493300904716
 20
214.2688270669502
 30
0.0
 11
205.9952967828867
 21
214.2688270669502
 31
0.0
  0
LINE
  5
3002
330
1F
100
AcDbEntity
  8
0
100
AcDbLine
 10
205.9952967828867
 20
228.2688270669503
 30
0.0
 11
198.2493300904715
 21
228.2688270669503
 31
0.0
  0
LINE
  5
3003
330
1F
100
AcDbEntity
  8
0
100
AcDbLine
 10
201.0223134366792
 20
243.2688270669502
 30
0.0
 11
203.222313436679
 21
243.2688270669502
 31
0.0
  0
LINE
  5
3004
330
1F
100
AcDbEntity
  8
0
100
AcDbLine
 10
201.0223134366792
 20
240.26882706695
 30
0.0
 11
201.0223134366792
 21
243.2688270669502
 31
0.0
  0
LINE
  5
3005
330
1F
100
AcDbEntity
  8
0
100
AcDbLine
 10
203.222313436679
 20
240.26882706695
 30
0.0
 11
203.222313436679
 21
243.2688270669502
 31
0.0
  0
ARC
  5
3006
330
1F
100
AcDbEntity
  8
0
100
AcDbCircle
 10
215.7342203322619
 20
227.1301347052797
 30
0.0
 40
2.6
100
AcDbArc
 50
143.9981311727822
 51
204.5631279302023
  0
CIRCLE
  5
3007
330
1F
100
AcDbEntity
  8
0
100
AcDbCircle
 10
215.7342203322619
 20
227.1301347052797
 30
0.0
 40
1.25
  0
LINE
  5
3008
330
1F
100
AcDbEntity
  8
0
100
AcDbLine
 10
209.1223134366791
 20
217.3958437207426
 30
0.0
 11
209.1223134366791
 21
225.1418104131579
 31
0.0
  0
CIRCLE
  5
3009
330
1F
100
AcDbEntity
  8
0
100
AcDbCircle
 10
215.7342203322619
 20
215.4075194286207
 30
0.0
 40
1.25
  0
ARC
  5
300A
330
1F
100
AcDbEntity
  8
0
100
AcDbCircle
 10
215.7342203322619
 20
215.4075194286207
 30
0.0
 40
2.6
100
AcDbArc
 50
74.99999999999838
 51
155.4368720697977
  0
ARC
  5
300B
330
1F
100
AcDbEntity
  8
0
100
AcDbCircle
 10
202.9102165593032
 20
221.2688270669501
 30
0.0
 40
13.05
100
AcDbArc
 50
335.4368720697976
 51
335.4368720697976
  0
ARC
  5
300C
330
1F
100
AcDbEntity
  8
0
100
AcDbCircle
 10
215.7342203322619
 20
215.4075194286207
 30
0.0
 40
2.6
100
AcDbArc
 50
155.4368720697977
 51
216.0018688272177
  0
LINE
  5
300D
330
1F
100
AcDbEntity
  8
0
100
AcDbLine
 10
216.4071498495285
 20
217.9189265769721
 30
0.0
 11
218.1346847392683
 21
217.4560349983699
 31
0.0
  0
ARC
  5
300E
330
1F
100
AcDbEntity
  8
0
100
AcDbCircle
 10
215.7342203322619
 20
227.1301347052797
 30
0.0
 40
2.6
100
AcDbArc
 50
204.5631279302023
 51
285.0000000000015
  0
LINE
  5
300F
330
1F
100
AcDbEntity
  8
0
100
AcDbLine
 10
216.4071498495285
 20
224.618727556928
 30
0.0
 11
218.1346847392683
 21
225.0816191355304
 31
0.0
  0
LINE
  5
3010
330
1F
100
AcDbEntity
  8
0
100
AcDbLine
 10
212.222313436679
 20
240.26882706695
 30
0.0
 11
212.222313436679
 21
241.5688270669501
 31
0.0
  0
LINE
  5
3011
330
1F
100
AcDbEntity
  8
0
100
AcDbLine
 10
210.5223134366791
 20
241.5688270669501
 30
0.0
 11
210.5223134366791
 21
243.2688270669503
 31
0.0
  0
LINE
  5
3012
330
1F
100
AcDbEntity
  8
0
100
AcDbLine
 10
210.5223134366791
 20
241.5688270669501
 30
0.0
 11
212.222313436679
 21
241.5688270669501
 31
0.0
  0
ARC
  5
3013
330
1F
100
AcDbEntity
  8
0
100
AcDbCircle
 10
211.527431657641
 20
230.1867552324439
 30
0.0
 40
2.6
100
AcDbArc
 50
323.9981311727822
 51
46.64948159572339
  0
LINE
  5
3014
330
1F
100
AcDbEntity
  8
0
100
AcDbLine
 10
221.1223134366789
 20
220.1688270669503
 30
0.0
 11
221.1223134366789
 21
211.1688270669503
 31
0.0
  0
LINE
  5
3015
330
1F
100
AcDbEntity
  8
0
100
AcDbLine
 10
224.1223134366791
 20
212.8688270669503
 30
0.0
 11
224.1223134366791
 21
201.4870877575813
 31
0.0
  0
LINE
  5
3016
330
1F
100
AcDbEntity
  8
0
100
AcDbLine
 10
222.4223134366791
 20
212.8688270669503
 30
0.0
 11
222.4223134366791
 21
211.1688270669503
 31
0.0
  0
LINE
  5
3017
330
1F
100
AcDbEntity
  8
0
100
AcDbLine
 10
224.1223134366791
 20
201.4870877575813
 30
0.0
 11
221.7755574437128
 21
199.2688270669503
 31
0.0
  0
LINE
  5
3018
330
1F
100
AcDbEntity
  8
CENTER
  6
CENTER
100
AcDbLine
 10
219.1223134366791
 20
209.1688270669503
 30
0.0
 11
219.1223134366791
 21
199.3688270669503
 31
0.0
  0
LINE
  5
3019
330
1F
100
AcDbEntity
  8
0
100
AcDbLine
 10
221.1223134366789
 20
211.1688270669503
 30
0.0
 11
222.4223134366791
 21
211.1688270669503
 31
0.0
  0
LINE
  5
301A
330
1F
100
AcDbEntity
  8
0
100
AcDbLine
 10
221.1223134366789
 20
222.3688270669501
 30
0.0
 11
221.1223134366789
 21
231.3688270669501
 31
0.0
  0
LINE
  5
301B
330
1F
100
AcDbEntity
  8
0
100
AcDbLine
 10
221.1223134366789
 20
220.1688270669503
 30
0.0
 11
224.1223134366791
 21
220.1688270669503
 31
0.0
  0
LINE
  5
301C
330
1F
100
AcDbEntity
  8
0
100
AcDbLine
 10
221.1223134366789
 20
222.3688270669501
 30
0.0
 11
224.1223134366791
 21
222.3688270669501
 31
0.0
  0
LINE
  5
301D
330
1F
100
AcDbEntity
  8
0
100
AcDbLine
 10
222.4223134366791
 20
212.8688270669503
 30
0.0
 11
224.1223134366791
 21
212.8688270669503
 31
0.0
  0
LINE
  5
301E
330
1F
100
AcDbEntity
  8
0
100
AcDbLine
 10
224.1223134366791
 20
222.3688270669501
 30
0.0
 11
224.1223134366791
 21
220.1688270669503
 31
0.0
  0
ARC
  5
301F
330
1F
100
AcDbEntity
  8
0
100
AcDbCircle
 10
202.1223134366791
 20
221.2688270669504
 30
0.0
 40
29.5
100
AcDbArc
 50
41.77534800972525
 51
48.22465199027475
  0
LINE
  5
3020
330
1F
100
AcDbEntity
  8
0
100
AcDbLine
 10
222.4223134366791
 20
229.6688270669501
 30
0.0
 11
224.1223134366791
 21
229.6688270669501
 31
0.0
  0
LINE
  5
3021
330
1F
100
AcDbEntity
  8
CENTER
  6
CENTER
100
AcDbLine
 10
219.1223134366791
 20
243.1688270669503
 30
0.0
 11
219.1223134366791
 21
233.3688270669503
 31
0.0
  0
LINE
  5
3022
330
1F
100
AcDbEntity
  8
0
100
AcDbLine
 10
222.4223134366791
 20
229.6688270669501
 30
0.0
 11
222.4223134366791
 21
231.3688270669501
 31
0.0
  0
LINE
  5
3023
330
1F
100
AcDbEntity
  8
0
100
AcDbLine
 10
221.1223134366789
 20
231.3688270669501
 30
0.0
 11
222.4223134366791
 21
231.3688270669501
 31
0.0
  0
LINE
  5
3024
330
1F
100
AcDbEntity
  8
0
100
AcDbLine
 10
224.1223134366791
 20
240.9220710739838
 30
0.0
 11
224.1223134366791
 21
229.6688270669501
 31
0.0
  0
MTEXT
  5
3025
330
1F
100
AcDbEntity
  8
DIM
100
AcDbMText
 10
237.8635326599903
 20
259.4735931119349
 30
0.0
 40
3.0
 41
0.0
 71
     7
 72
     1
  1
沉孔%%C8*6深\PM6*1*8L\P%%C5.1貫通
  7
CHINESET
1001
ACAD
1000
MTEXTBEGIN
1070
    73
1070
     1
1070
    44
1040
1.0
1070
    74
1070
     0
1000
MTEXTEND
  0
LINE
  5
311B
330
1F
100
AcDbEntity
  8
0
100
AcDbLine
 10
124.5044335753785
 20
215.4688270669506
 30
0.0
 11
124.5044335753786
 21
227.0688270669503
 31
0.0
  0
LINE
  5
312F
330
1F
100
AcDbEntity
  8
0
100
AcDbLine
 10
123.3044335753786
 20
228.2688270669502
 30
0.0
 11
124.5044335753786
 21
227.0688270669503
 31
0.0
  0
LINE
  5
3130
330
1F
100
AcDbEntity
  8
0
100
AcDbLine
 10
124.5044335753785
 20
215.4688270669506
 30
0.0
 11
123.3044335753785
 21
214.2688270669506
 31
0.0
  0
LINE
  5
3131
330
1F
100
AcDbEntity
  8
0
100
AcDbLine
 10
123.3044335753786
 20
228.2688270669502
 30
0.0
 11
123.3044335753785
 21
214.2688270669506
 31
0.0
  0
LINE
  5
3132
330
1F
100
AcDbEntity
  8
0
100
AcDbLine
 10
108.5044335753785
 20
214.2688270669503
 30
0.0
 11
108.5044335753786
 21
228.2688270669502
 31
0.0
  0
LINE
  5
3133
330
1F
100
AcDbEntity
  8
0
100
AcDbLine
 10
108.5044335753786
 20
227.5188270669502
 30
0.0
 11
111.5517804830762
 21
227.5188270669502
 31
0.0
  0
LINE
  5
3134
330
1F
100
AcDbEntity
  8
0
100
AcDbLine
 10
108.5044335753786
 20
215.0188270669504
 30
0.0
 11
111.5517804830762
 21
215.0188270669504
 31
0.0
  0
DIMENSION
  5
3149
330
1F
100
AcDbEntity
  8
DIM
100
AcDbDimension
  2
*D21
 10
108.5044335753786
 20
255.7479318205642
 30
0.0
 11
116.5044335753786
 21
258.2479318205642
 31
0.0
 70
    32
  3
ISO-25-1
100
AcDbAlignedDimension
 13
124.5044335753786
 23
227.0688270669503
 33
0.0
 14
108.5044335753786
 24
228.2688270669502
 34
0.0
100
AcDbRotatedDimension
  0
DIMENSION
  5
3156
330
1F
100
AcDbEntity
  8
DIM
100
AcDbDimension
  2
*D22
 10
76.50443357537858
 20
275.7268940322217
 30
0.0
 11
100.5044335753785
 21
278.2268940322217
 31
0.0
 70
    32
  3
ISO-25-1
100
AcDbAlignedDimension
 13
124.5044335753786
 23
227.0688270669503
 33
0.0
 14
76.50443357537858
 24
247.7688270669502
 34
0.0
100
AcDbRotatedDimension
  0
LEADER
  5
3190
330
1F
100
AcDbEntity
  8
DIM
100
AcDbLeader
  3
ISO-25-1
 73
     0
 74
     0
 75
     1
 40
3.0
 41
16.57142857142856
 76
     3
 10
121.3888715671525
 20
228.2688270669502
 30
0.0
 10
132.1119153520271
 20
254.4766400561234
 30
0.0
 10
135.1119153520271
 20
254.4766400561234
 30
0.0
340
3191
1001
ACAD
1000
DSTYLE
1002
{
1070
     5
1000

1070
    77
1070
     1
1070
   147
1040
1.0
1070
   342
1005
0
1002
}
1000
LEANOF
1010
0.0
1020
0.0
1030
0.0
  0
MTEXT
  5
3191
330
1F
100
AcDbEntity
  8
DIM
100
AcDbMText
 10
136.1119153520271
 20
255.4766400561234
 30
0.0
 40
3.0
 41
0.0
 71
     7
 72
     1
  1
\A1;M14*1.5
  7
CHINESET
1001
ACAD
1000
MTEXTBEGIN
1070
    73
1070
     1
1070
    44
1040
1.0
1070
    74
1070
     0
1000
MTEXTEND
  0
ARC
  5
31A2
330
1F
100
AcDbEntity
  8
0
100
AcDbCircle
 10
97.5517804830763
 20
221.2688270669503
 30
0.0
 40
22.0
100
AcDbArc
 50
343.0232811802349
 51
16.97671881976509
  0
LINE
  5
31A3
330
1F
100
AcDbEntity
  8
0
100
AcDbLine
 10
119.5517804830762
 20
211.7425476253214
 30
0.0
 11
119.5517804830762
 21
230.7951065085791
 31
0.0
  0
ARC
  5
31A4
330
1F
100
AcDbEntity
  8
0
100
AcDbCircle
 10
133.5517804830762
 20
221.2688270669503
 30
0.0
 40
22.0
100
AcDbArc
 50
163.0232811802349
 51
196.976718819765
  0
LINE
  5
31A5
330
1F
100
AcDbEntity
  8
0
100
AcDbLine
 10
111.5517804830762
 20
211.7425476253214
 30
0.0
 11
111.5517804830762
 21
230.7951065085791
 31
0.0
  0
LINE
  5
31A6
330
1F
100
AcDbEntity
  8
0
100
AcDbLine
 10
112.5104639811947
 20
214.8451988190168
 30
0.0
 11
118.5930969849577
 21
214.8451988190168
 31
0.0
  0
LINE
  5
31A7
330
1F
100
AcDbEntity
  8
0
100
AcDbLine
 10
112.5610492879737
 20
208.5671211447785
 30
0.0
 11
118.5425116781787
 21
208.5671211447785
 31
0.0
  0
ARC
  5
31A8
330
1F
100
AcDbEntity
  8
0
100
AcDbCircle
 10
114.0517804830762
 20
211.7425476253214
 30
0.0
 40
5.500000000000028
100
AcDbArc
 50
324.7356103172453
 51
34.34109372674328
  0
ARC
  5
31A9
330
1F
100
AcDbEntity
  8
0
100
AcDbCircle
 10
117.0517804830762
 20
211.7425476253214
 30
0.0
 40
5.500000000000028
100
AcDbArc
 50
145.6589062732567
 51
215.2643896827547
  0
LINE
  5
31AA
330
1F
100
AcDbEntity
  8
0
100
AcDbLine
 10
112.5104639811947
 20
227.6924553148838
 30
0.0
 11
118.5930969849577
 21
227.6924553148838
 31
0.0
  0
LINE
  5
31AB
330
1F
100
AcDbEntity
  8
0
100
AcDbLine
 10
112.5610492879737
 20
233.970532989122
 30
0.0
 11
118.5425116781787
 21
233.970532989122
 31
0.0
  0
ARC
  5
31AC
330
1F
100
AcDbEntity
  8
0
100
AcDbCircle
 10
114.0517804830762
 20
230.7951065085791
 30
0.0
 40
5.500000000000028
100
AcDbArc
 50
325.6589062732567
 51
35.26438968275471
  0
ARC
  5
31AD
330
1F
100
AcDbEntity
  8
0
100
AcDbCircle
 10
117.0517804830762
 20
230.7951065085791
 30
0.0
 40
5.500000000000028
100
AcDbArc
 50
144.7356103172452
 51
214.3410937267432
  0
LINE
  5
31AE
330
1F
100
AcDbEntity
  8
0
100
AcDbLine
 10
119.5517804830762
 20
215.0188270669505
 30
0.0
 11
124.0544335753786
 21
215.0188270669506
 31
0.0
  0
LINE
  5
31AF
330
1F
100
AcDbEntity
  8
0
100
AcDbLine
 10
119.5517804830762
 20
214.2688270669505
 30
0.0
 11
123.3044335753785
 21
214.2688270669506
 31
0.0
  0
LINE
  5
31B0
330
1F
100
AcDbEntity
  8
0
100
AcDbLine
 10
119.5517804830762
 20
228.2688270669502
 30
0.0
 11
123.3044335753786
 21
228.2688270669502
 31
0.0
  0
LINE
  5
31B1
330
1F
100
AcDbEntity
  8
0
100
AcDbLine
 10
119.5517804830762
 20
227.5188270669502
 30
0.0
 11
124.0544335753786
 21
227.5188270669502
 31
0.0
  0
DIMENSION
  5
31B2
330
1F
100
AcDbEntity
  8
DIM
100
AcDbDimension
  2
*D23
 10
195.1223134366791
 20
184.2615524150044
 30
0.0
 11
202.1223134366791
 21
186.7615524150044
 31
0.0
 70
    32
  3
ISO-25-1
100
AcDbAlignedDimension
 13
209.1223134366791
 23
217.3958437207426
 33
0.0
 14
195.1223134366791
 24
217.3958437207426
 34
0.0
100
AcDbRotatedDimension
  0
DIMENSION
  5
31BF
330
1F
100
AcDbEntity
  8
DIM
100
AcDbDimension
  2
*D24
 10
176.2282495835597
 20
43.19284871933326
 30
0.0
 11
183.2282495835597
 21
45.69284871933326
 31
0.0
 70
    32
  3
ISO-25-1
100
AcDbAlignedDimension
 13
190.2282495835597
 23
74.59605042519108
 33
0.0
 14
176.2282495835597
 24
74.59605042519098
 34
0.0
100
AcDbRotatedDimension
  0
DIMENSION
  5
31D8
330
1F
100
AcDbEntity
  8
DIM
100
AcDbDimension
  2
*D25
 10
76.50443357537858
 20
132.4167745327052
 30
0.0
 11
92.00443357537848
 21
134.9167745327052
 31
0.0
 70
    32
  3
ISO-25-1
100
AcDbAlignedDimension
 13
107.5044335753783
 23
85.46903377139859
 33
0.0
 14
76.50443357537858
 24
104.9690337713985
 34
0.0
100
AcDbRotatedDimension
  0
LINE
  5
3570
330
1F
100
AcDbEntity
  8
0
100
AcDbLine
 10
103.8044335753786
 20
229.2688270669502
 30
0.0
 11
104.8044335753786
 21
228.2688270669502
 31
0.0
  0
LINE
  5
3571
330
1F
100
AcDbEntity
  8
0
100
AcDbLine
 10
103.8044335753786
 20
213.2688270669503
 30
0.0
 11
104.8044335753786
 21
214.2688270669503
 31
0.0
  0
LINE
  5
3572
330
1F
100
AcDbEntity
  8
0
100
AcDbLine
 10
103.8044335753786
 20
86.46903377139862
 30
0.0
 11
104.8044335753786
 21
85.46903377139861
 31
0.0
  0
LINE
  5
3573
330
1F
100
AcDbEntity
  8
0
100
AcDbLine
 10
103.8044335753786
 20
70.46903377139867
 30
0.0
 11
104.8044335753786
 21
71.46903377139867
 31
0.0
  0
ENDSEC
  0
SECTION
  2
OBJECTS
  0
DICTIONARY
  5
C
330
0
100
AcDbDictionary
  3
ACAD_GROUP
350
D
  3
ACAD_LAYOUT
350
1A
  3
ACAD_MLINESTYLE
350
17
  3
ACAD_PLOTSETTINGS
350
19
  3
ACADDIM
350
1E82
  3
ACMDICTIONARY
350
3505
  3
AMG
350
34EC
  3
AMGSNAPSETTINGS
350
3538
  3
DWGPROPS
350
3508
1001
ACAD
1000
TREAT_AS_HARD
1070
     0
  0
DICTIONARY
  5
344C
330
1F
100
AcDbDictionary
  3
ACAD_INDEX
350
353F
  3
ACAD_LAYOUTSELFREF
350
35CE
1001
ACAD
1000
TREAT_AS_HARD
1070
     1
  0
DICTIONARY
  5
344E
330
1B
100
AcDbDictionary
  3
ACAD_LAYOUTSELFREF
350
35CD
1001
ACAD
1000
TREAT_AS_HARD
1070
     1
  0
DICTIONARY
  5
D
102
{ACAD_REACTORS
330
C
102
}
330
C
100
AcDbDictionary
1001
ACAD
1000
TREAT_AS_HARD
1070
     0
  0
DICTIONARY
  5
1A
102
{ACAD_REACTORS
330
C
102
}
330
C
100
AcDbDictionary
1001
ACAD
1000
TREAT_AS_HARD
1070
     0
  0
DICTIONARY
  5
17
102
{ACAD_REACTORS
330
C
102
}
330
C
100
AcDbDictionary
  3
STANDARD
350
18
1001
ACAD
1000
TREAT_AS_HARD
1070
     0
  0
DICTIONARY
  5
19
102
{ACAD_REACTORS
330
C
102
}
330
C
100
AcDbDictionary
1001
ACAD
1000
TREAT_AS_HARD
1070
     0
  0
XRECORD
  5
1E82
102
{ACAD_REACTORS
330
C
102
}
330
C
100
AcDbXrecord
 90
   990106
  3

 60
     0
 61
     0
 62
     4
 63
     4
 64
     1
 65
     0
 66
     0
 67
     3
 68
     1
 69
     0
 70
     0
 71
     0
 72
     0
 40
0.0
170
     2
340
3191
  0
DICTIONARY
  5
3505
102
{ACAD_REACTORS
330
C
102
}
330
C
100
AcDbDictionary
  3
ACMSTDDICTIONARY
350
350B
1001
ACAD
1000
TREAT_AS_HARD
1070
     0
  0
DICTIONARY
  5
34EC
102
{ACAD_REACTORS
330
C
102
}
330
C
100
AcDbDictionary
  3
ACMGSETTINGS
350
34ED
1001
ACAD
1000
TREAT_AS_HARD
1070
     0
  0
DICTIONARY
  5
3538
102
{ACAD_REACTORS
330
C
102
}
330
C
100
AcDbDictionary
1001
ACAD
1000
TREAT_AS_HARD
1070
     0
  0
XRECORD
  5
3508
102
{ACAD_REACTORS
330
C
102
}
330
C
100
AcDbXrecord
  1
DWGPROPS COOKIE
  2

  3

  4

  6

  7

  8

  9

300
AmdtFileType=84
301
=
302
=
303
=
304
=
305
=
306
=
307
=
308
=
309
=
 40
0.2599833333333334
 41
2452019.6310853
 42
2452332.697948981
  1

 90
        1
  0
DICTIONARY
  5
353F
102
{ACAD_REACTORS
330
344C
102
}
330
344C
100
AcDbDictionary
  3
*A1
350
3540
1001
ACAD
1000
TREAT_AS_HARD
1070
     0
  0
XRECORD
  5
35CE
102
{ACAD_REACTORS
330
344C
102
}
330
344C
100
AcDbXrecord
340
1F
  0
XRECORD
  5
35CD
102
{ACAD_REACTORS
330
344E
102
}
330
344E
100
AcDbXrecord
340
1B
  0
MLINESTYLE
  5
18
102
{ACAD_REACTORS
330
17
102
}
330
17
100
AcDbMlineStyle
  2
STANDARD
 70
     0
  3

 62
   256
 51
90.0
 52
90.0
 71
     2
 49
0.5
 62
   256
  6
BYLAYER
 49
-0.5
 62
   256
  6
BYLAYER
  0
DICTIONARY
  5
350B
102
{ACAD_REACTORS
330
3505
102
}
330
3505
100
AcDbDictionary
1001
ACAD
1000
TREAT_AS_HARD
1070
     0
  0
DICTIONARY
  5
34ED
102
{ACAD_REACTORS
330
34EC
102
}
330
34EC
100
AcDbDictionary
  3
DWGSETTINGS
350
34EE
1001
ACAD
1000
TREAT_AS_HARD
1070
     0
  0
LAYER_INDEX
  5
3540
102
{ACAD_REACTORS
330
353F
102
}
330
353F
100
AcDbIndex
 40
2452968.376896262
100
AcDbLayerIndex
  8
0
360
3541
 90
      327
  8
DIM
360
3542
 90
       37
  8
CENTER
360
3543
 90
       28
  8
LOGO
360
3544
 90
      124
  8
Defpoints
360
3545
 90
        0
  0
XRECORD
  5
34EE
102
{ACAD_REACTORS
330
34ED
102
}
330
34ED
100
AcDbXrecord
  1
VERSION
140
15.0
  1
PRODUCT
  2
AutoCAD Mechanical 2000
  0
IDBUFFER
  5
3541
330
0
100
AcDbIdBuffer
330
2FDE
330
2FDF
330
2FE0
330
2FE1
330
2FE2
330
2FE3
330
2FE4
330
2FE5
330
2FE6
330
2FE7
330
2FE8
330
2FEA
330
2FEB
330
2FEC
330
2FEE
330
2FEF
330
2FF0
330
2FF1
330
2FF3
330
2FF4
330
2FF5
330
2FF6
330
2FF7
330
2FF8
330
2FF9
330
2FFA
330
2FFB
330
2FFC
330
2FFD
330
2FFE
330
2FFF
330
3002
330
3003
330
3004
330
3005
330
3006
330
3007
330
3008
330
3009
330
300A
330
300B
330
300C
330
300D
330
300E
330
300F
330
3010
330
3011
330
3012
330
3013
330
3014
330
3015
330
3016
330
3017
330
3019
330
301A
330
301B
330
301C
330
301D
330
301E
330
301F
330
3020
330
3022
330
3023
330
3024
330
311B
330
312F
330
3130
330
3131
330
3132
330
3133
330
3134
330
31A2
330
31A3
330
31A4
330
31A5
330
31A6
330
31A7
330
31A8
330
31A9
330
31AA
330
31AB
330
31AC
330
31AD
330
31AE
330
31AF
330
31B0
330
31B1
330
3570
330
3571
330
3572
330
3573
330
A9
330
AA
330
AB
330
AC
330
B1
330
B2
330
10B3
330
17B4
330
17B5
330
17BF
330
17C0
330
1811
330
1812
330
18E7
330
18E8
330
18E9
330
18EA
330
18EB
330
2CFC
330
2CFD
330
2CFE
330
2CFF
330
2D12
330
2D15
330
2D23
330
2D63
330
2D64
330
2D65
330
2D66
330
2DD1
330
2D73
330
2D74
330
2D99
330
2DD0
330
2DA0
330
2DA1
330
2DA2
330
2DC4
330
2DC5
330
2DC6
330
2DC7
330
2DC8
330
2DC9
330
2DCB
330
2DCD
330
2DCE
330
2DD2
330
2DD3
330
2DD4
330
2DD7
330
2DD8
330
2DD9
330
2DDA
330
2DDB
330
2DDC
330
2DDE
330
2DDF
330
2DE0
330
2DE1
330
2DE3
330
2DE4
330
2DE5
330
2DE6
330
2DE7
330
2DE8
330
2DE9
330
2DEA
330
2DEB
330
2DEC
330
2DED
330
2DEE
330
2DEF
330
2DF0
330
2DF1
330
2DF2
330
2DF3
330
2DF4
330
2DF5
330
2DF6
330
2DF7
330
2DF8
330
2DF9
330
2DFA
330
2DFB
330
2DFC
330
2DFD
330
2DFE
330
2DFF
330
2E00
330
2E01
330
2E02
330
2E03
330
2E04
330
2E06
330
2E07
330
2E08
330
2E09
330
2E0A
330
2E0B
330
2E0C
330
2E10
330
2E14
330
2E15
330
2E18
330
2E19
330
2E1A
330
2E20
330
2E21
330
2E23
330
2E24
330
2E26
330
2E27
330
2E28
330
2E2A
330
2E2B
330
2E2C
330
2E2D
330
2E2F
330
2E30
330
2E31
330
2E32
330
2E33
330
2E34
330
2E35
330
2E36
330
2E37
330
2E38
330
2E39
330
2E3A
330
2E3B
330
2E3C
330
2E3D
330
2E3F
330
2E40
330
2E41
330
2E42
330
2E43
330
2E44
330
2E45
330
2E46
330
2E47
330
2E48
330
2E49
330
2E4A
330
2E4B
330
2E4C
330
2E4D
330
2E4E
330
2E4F
330
2E50
330
2E55
330
2E56
330
2E57
330
2E58
330
2E59
330
2E5A
330
2E9A
330
2E9B
330
2E9C
330
2E9D
330
2F7F
330
2F80
330
2F81
330
2F82
330
2F83
330
2F84
330
2F85
330
2F86
330
2F87
330
2F88
330
2F8B
330
2F8C
330
2F8D
330
2F91
330
2F95
330
2F96
330
2F97
330
2F98
330
2F99
330
2F9A
330
2F9B
330
2F9C
330
2F9D
330
2F9E
330
2F9F
330
2FA0
330
2FA1
330
2FA2
330
2FA3
330
2FA4
330
2FDC
330
2FA6
330
2FA7
330
2FA8
330
2FA9
330
2FAA
330
2FAB
330
2FDB
330
2FAF
330
2FB0
330
2FB1
330
2FB2
330
2FB3
330
2FB4
330
2FB5
330
2FB7
330
2FB8
330
2FB9
330
2FBA
330
2FBC
330
2FBD
330
2FBE
330
2FBF
330
2FC0
330
2FC1
330
2FC2
330
2FC4
330
2FC5
330
2FC6
330
2FC7
330
2FC8
330
2FC9
330
2FCB
330
2FCC
330
2FCD
330
2FCE
330
2FCF
330
2FD1
330
2FD2
330
2FD3
330
2FD4
330
2FD5
330
2FD6
330
2FD7
330
2FD8
330
2FDA
  0
IDBUFFER
  5
3542
330
0
100
AcDbIdBuffer
330
2F7A
330
2F7B
330
2F7C
330
2F7D
330
2F7E
330
2F8A
330
2F90
330
2F92
330
2F93
330
2F94
330
2FAD
330
2FAE
330
2FB6
330
3025
330
3149
330
3156
330
3190
330
3191
330
31B2
330
31BF
330
31D8
330
2E9E
330
2EAB
330
2EB8
330
2EC5
330
2EEA
330
2F04
330
2F11
330
2F42
330
2F43
330
2F44
330
2F51
330
2F5E
330
2F74
330
2F75
330
2F76
330
2F77
  0
IDBUFFER
  5
3543
330
0
100
AcDbIdBuffer
330
2F8F
330
2FBB
330
2FC3
330
2FCA
330
2FD0
330
2FD9
330
2FDD
330
2FE9
330
2FED
330
2FF2
330
3018
330
3021
330
2D02
330
2DCA
330
2DCC
330
2DCF
330
2DDD
330
2DE2
330
2E05
330
2E22
330
2E25
330
2E29
330
2E2E
330
2E3E
330
2E97
330
2E98
330
2F89
330
2F8E
  0
IDBUFFER
  5
3544
330
0
100
AcDbIdBuffer
330
1886
330
1887
330
1888
330
1889
330
188A
330
188B
330
188C
330
188D
330
188E
330
188F
330
1890
330
1891
330
17BD
330
17BE
330
17C1
330
17C2
330
17C3
330
17C4
330
17C5
330
17C6
330
17C7
330
17C8
330
17C9
330
17CA
330
17CB
330
17CC
330
17CD
330
17CE
330
17CF
330
17D0
330
17D1
330
17D2
330
17D3
330
17D4
330
17D5
330
17D6
330
17D7
330
17D8
330
17D9
330
17DA
330
17DB
330
17DC
330
17DD
330
17DE
330
17DF
330
17E0
330
17E1
330
17E2
330
17E3
330
17E4
330
17E5
330
17E6
330
17E7
330
17E8
330
17E9
330
17EA
330
17EB
330
17EC
330
17ED
330
17EE
330
17EF
330
17F0
330
17F1
330
17F2
330
17F3
330
17F4
330
17F5
330
17F6
330
17F7
330
17F8
330
17F9
330
17FA
330
17FB
330
17FC
330
17FD
330
17FE
330
17FF
330
1800
330
1801
330
1802
330
1803
330
1804
330
1805
330
1806
330
1807
330
1808
330
1809
330
180A
330
180B
330
180C
330
180D
330
180E
330
180F
330
1810
330
1868
330
1869
330
186A
330
186B
330
186C
330
186D
330
186E
330
186F
330
1870
330
1871
330
1872
330
1873
330
1874
330
1875
330
1876
330
1877
330
1878
330
1879
330
187A
330
187B
330
187C
330
187D
330
187E
330
187F
330
1880
330
1881
330
1882
330
1883
330
1884
330
1885
  0
IDBUFFER
  5
3545
330
0
100
AcDbIdBuffer
  0
ENDSEC
  0
EOF
