  0
SECTION
  2
HEADER
  9
$ACADVER
  1
AC1012
  9
$DWGCODEPAGE
  3
big5
  9
$INSBASE
 10
0.0
 20
0.0
 30
0.0
  9
$EXTMIN
 10
-0.4870947940048609
 20
-0.4894054010007949
 30
-0.0000000000000024
  9
$EXTMAX
 10
271.6277873152922
 20
418.0685389355657
 30
0.0000000000000129
  9
$LIMMIN
 10
0.0
 20
0.0
  9
$LIMMAX
 10
12.0
 20
9.0
  9
$ORTHOMODE
 70
     0
  9
$REGENMODE
 70
     1
  9
$FILLMODE
 70
     1
  9
$QTEXTMODE
 70
     0
  9
$MIRRTEXT
 70
     1
  9
$DRAGMODE
 70
     2
  9
$LTSCALE
 40
5.0
  9
$OSMODE
 70
    55
  9
$ATTMODE
 70
     1
  9
$TEXTSIZE
 40
4.5
  9
$TRACEWID
 40
0.05
  9
$TEXTSTYLE
  7
CHINESET
  9
$CLAYER
  8
0
  9
$CELTYPE
  6
BYLAYER
  9
$CECOLOR
 62
   256
  9
$CELTSCALE
 40
1.0
  9
$DELOBJ
 70
     1
  9
$DISPSILH
 70
     0
  9
$DIMSCALE
 40
1.0
  9
$DIMASZ
 40
3.0
  9
$DIMEXO
 40
3.0
  9
$DIMDLI
 40
2.0
  9
$DIMRND
 40
0.0
  9
$DIMDLE
 40
0.0
  9
$DIMEXE
 40
2.0
  9
$DIMTP
 40
0.0
  9
$DIMTM
 40
0.0
  9
$DIMTXT
 40
3.0
  9
$DIMCEN
 40
-3.0
  9
$DIMTSZ
 40
0.0
  9
$DIMTOL
 70
     0
  9
$DIMLIM
 70
     0
  9
$DIMTIH
 70
     0
  9
$DIMTOH
 70
     0
  9
$DIMSE1
 70
     0
  9
$DIMSE2
 70
     0
  9
$DIMTAD
 70
     1
  9
$DIMZIN
 70
     8
  9
$DIMBLK
  1

  9
$DIMASO
 70
     1
  9
$DIMSHO
 70
     1
  9
$DIMPOST
  1

  9
$DIMAPOST
  1

  9
$DIMALT
 70
     0
  9
$DIMALTD
 70
     2
  9
$DIMALTF
 40
25.4
  9
$DIMLFAC
 40
1.0
  9
$DIMTOFL
 70
     1
  9
$DIMTVP
 40
0.0
  9
$DIMTIX
 70
     0
  9
$DIMSOXD
 70
     0
  9
$DIMSAH
 70
     0
  9
$DIMBLK1
  1

  9
$DIMBLK2
  1

  9
$DIMSTYLE
  2
ISO-25-1
  9
$DIMCLRD
 70
   256
  9
$DIMCLRE
 70
   256
  9
$DIMCLRT
 70
   256
  9
$DIMTFAC
 40
0.7
  9
$DIMGAP
 40
1.0
  9
$DIMJUST
 70
     0
  9
$DIMSD1
 70
     0
  9
$DIMSD2
 70
     0
  9
$DIMTOLJ
 70
     1
  9
$DIMTZIN
 70
     8
  9
$DIMALTZ
 70
     0
  9
$DIMALTTZ
 70
     0
  9
$DIMFIT
 70
     0
  9
$DIMUPT
 70
     0
  9
$DIMUNIT
 70
     2
  9
$DIMDEC
 70
     2
  9
$DIMTDEC
 70
     2
  9
$DIMALTU
 70
     2
  9
$DIMALTTD
 70
     2
  9
$DIMTXSTY
  7
CHINESET
  9
$DIMAUNIT
 70
     0
  9
$LUNITS
 70
     2
  9
$LUPREC
 70
     2
  9
$SKETCHINC
 40
0.1
  9
$FILLETRAD
 40
0.5
  9
$AUNITS
 70
     0
  9
$AUPREC
 70
     0
  9
$MENU
  1
.
  9
$ELEVATION
 40
0.0
  9
$PELEVATION
 40
0.0
  9
$THICKNESS
 40
0.0
  9
$LIMCHECK
 70
     0
  9
$BLIPMODE
 70
     0
  9
$CHAMFERA
 40
0.0
  9
$CHAMFERB
 40
0.0
  9
$CHAMFERC
 40
1.0
  9
$CHAMFERD
 40
0.0
  9
$SKPOLY
 70
     0
  9
$TDCREATE
 40
2452019.631085300
  9
$TDUPDATE
 40
2452968.408482650
  9
$TDINDWG
 40
0.3013293519
  9
$TDUSRTIMER
 40
0.3013293519
  9
$USRTIMER
 70
     1
  9
$ANGBASE
 50
0.0
  9
$ANGDIR
 70
     0
  9
$PDMODE
 70
     0
  9
$PDSIZE
 40
0.0
  9
$PLINEWID
 40
0.0
  9
$COORDS
 70
     1
  9
$SPLFRAME
 70
     0
  9
$SPLINETYPE
 70
     6
  9
$SPLINESEGS
 70
     8
  9
$ATTDIA
 70
     1
  9
$ATTREQ
 70
     1
  9
$HANDLING
 70
 22529
  9
$HANDSEED
  5
4E22
  9
$SURFTAB1
 70
     6
  9
$SURFTAB2
 70
     6
  9
$SURFTYPE
 70
     6
  9
$SURFU
 70
     6
  9
$SURFV
 70
     6
  9
$UCSNAME
  2

  9
$UCSORG
 10
0.0
 20
0.0
 30
0.0
  9
$UCSXDIR
 10
1.0
 20
0.0
 30
0.0
  9
$UCSYDIR
 10
0.0
 20
1.0
 30
0.0
  9
$PUCSNAME
  2

  9
$PUCSORG
 10
0.0
 20
0.0
 30
0.0
  9
$PUCSXDIR
 10
1.0
 20
0.0
 30
0.0
  9
$PUCSYDIR
 10
0.0
 20
1.0
 30
0.0
  9
$USERI1
 70
     0
  9
$USERI2
 70
     0
  9
$USERI3
 70
     0
  9
$USERI4
 70
     0
  9
$USERI5
 70
     0
  9
$USERR1
 40
0.0
  9
$USERR2
 40
0.0
  9
$USERR3
 40
0.0
  9
$USERR4
 40
0.0
  9
$USERR5
 40
0.0
  9
$WORLDVIEW
 70
     1
  9
$SHADEDGE
 70
     3
  9
$SHADEDIF
 70
    70
  9
$TILEMODE
 70
     1
  9
$MAXACTVP
 70
    48
  9
$PINSBASE
 10
0.0
 20
0.0
 30
0.0
  9
$PLIMCHECK
 70
     0
  9
$PEXTMIN
 10
1.000000000000000E+20
 20
1.000000000000000E+20
 30
1.000000000000000E+20
  9
$PEXTMAX
 10
-1.000000000000000E+20
 20
-1.000000000000000E+20
 30
-1.000000000000000E+20
  9
$PLIMMIN
 10
0.0
 20
0.0
  9
$PLIMMAX
 10
12.0
 20
9.0
  9
$UNITMODE
 70
     0
  9
$VISRETAIN
 70
     1
  9
$PLINEGEN
 70
     0
  9
$PSLTSCALE
 70
     1
  9
$TREEDEPTH
 70
  3020
  9
$PICKSTYLE
 70
     1
  9
$CMLSTYLE
  2
STANDARD
  9
$CMLJUST
 70
     0
  9
$CMLSCALE
 40
1.0
  9
$SAVEIMAGES
 70
     1
  0
ENDSEC
  0
SECTION
  2
CLASSES
  0
CLASS
  1
ACDBDICTIONARYWDFLT
  2
AcDbDictionaryWithDefault
  3
AutoCAD 2000
 90
    32768
280
     0
281
     0
  0
CLASS
  1
ACDBPLACEHOLDER
  2
AcDbPlaceHolder
  3
AutoCAD 2000
 90
    32768
280
     0
281
     0
  0
CLASS
  1
LAYOUT
  2
AcDbLayout
  3
AutoCAD 2000
 90
    32768
280
     0
281
     0
  0
CLASS
  1
DICTIONARYVAR
  2
AcDbDictionaryVar
  3
AutoCAD 2000
 90
    32768
280
     0
281
     0
  0
CLASS
  1
LONG_TRANSACTION
  2
AcDbLongTransaction
  3
AutoCAD 2000
 90
    32768
280
     0
281
     0
  0
CLASS
  1
LWPOLYLINE
  2
AcDbPolyline
  3
AutoCAD 2000
 90
    32768
280
     0
281
     1
  0
CLASS
  1
HATCH
  2
AcDbHatch
  3
AutoCAD 2000
 90
    32768
280
     0
281
     1
  0
CLASS
  1
XRECORD
  2
AcDbXrecord
  3
AutoCAD 2000
 90
    32768
280
     0
281
     0
  0
CLASS
  1
ACME_DOCUMENT
  2
AcMeDbDoc
  3
AcMeServices
 90
    32768
280
     0
281
     0
  0
CLASS
  1
AMGSETTINGSOBJ
  2
AmgSettingsObj
  3
"AcadM|Product Description: AutoCAD Mechanical 2000|Company: Autodesk"
 90
    32768
280
     0
281
     0
  0
CLASS
  1
ACMESCOPE
  2
AcMeScope
  3
AcMeServices
 90
    32768
280
     0
281
     0
  0
CLASS
  1
ACMECOMMANDHISTORY
  2
AcMeCommandHistory
  3
AcMeServices
 90
    32768
280
     0
281
     0
  0
CLASS
  1
ACIMSYSVARMAN
  2
AcImSysVarManager
  3
AcMeServices
 90
    32768
280
     0
281
     0
  0
CLASS
  1
ACIMREALSYSVAR
  2
AcImRealSysVar
  3
AcMeServices
 90
    32768
280
     0
281
     0
  0
CLASS
  1
ACIMINTSYSVAR
  2
AcImIntSysVar
  3
AcMeServices
 90
    32768
280
     0
281
     0
  0
CLASS
  1
ACMEDRAWINGMAN
  2
AcMeDrawingMan
  3
AcMeServices
 90
    32768
280
     0
281
     0
  0
CLASS
  1
ACMEVIEW
  2
AcMeView
  3
AcMeServices
 90
    32768
280
     0
281
     0
  0
CLASS
  1
ACDBENTITYCACHE
  2
AcMeEntityCache
  3
AcMeServices
 90
    32768
280
     0
281
     0
  0
CLASS
  1
GSMANAGER
  2
AcMeGSManager
  3
AcMeServices
 90
    32768
280
     0
281
     0
  0
CLASS
  1
AMDTINTERNALREACTOR
  2
AmdtInternalReactor
  3
AcMeServices
 90
    32768
280
     0
281
     0
  0
CLASS
  1
ACMESTATEMGR
  2
AcMeStateMgr
  3
AcMeServices
 90
    32768
280
     0
281
     0
  0
CLASS
  1
ACGREFMASTER
  2
AcGrefMaster
  3
AcAttribServices
 90
    32768
280
     0
281
     0
  0
CLASS
  1
ACME_DATABASE
  2
AcMeDbDatabase
  3
AcMeServices
 90
    32768
280
     0
281
     0
  0
CLASS
  1
ACRFINSADJUSTERMGR
  2
AcRfInsAdjusterMgr
  3
AcMeServices
 90
    32768
280
     0
281
     0
  0
CLASS
  1
ACGREFACADMASTER
  2
AcGrefacadMaster
  3
AcGrefServices
 90
    32768
280
     0
281
     0
  0
CLASS
  1
AMIMASTER
  2
AmiMaster
  3
AmiServices
 90
    32768
280
     0
281
     0
  0
CLASS
  1
ACMDATADICTIONARY
  2
AcmDataDictionary
  3
"AcmSymBB|Product Description: AutoCAD Mechanical 2000|Company: Autodesk"
 90
    32768
280
     0
281
     0
  0
CLASS
  1
ACMDATAENTRYBLOCK
  2
AcmDataEntryBlock
  3
"AcmSymBB|Product Description: AutoCAD Mechanical 2000|Company: Autodesk"
 90
    32768
280
     0
281
     0
  0
CLASS
  1
ACIMSTRSYSVAR
  2
AcImStrSysVar
  3
AcMeServices
 90
    32768
280
     0
281
     0
  0
CLASS
  1
ACMSTANDARDISO
  2
AcmStandardISO
  3
"Amdt_StdImp|Product Description: AutoCAD Mechanical 2000|Company: Autodesk"
 90
    32768
280
     0
281
     0
  0
CLASS
  1
AMGOBJPROPCFG
  2
AmgObjPropCfg
  3
"AmgLay|Product Description: AutoCAD Mechanical 2000|Company: Autodesk"
 90
    32769
280
     0
281
     0
  0
CLASS
  1
AMDTEDGESTANDARDISO
  2
AmdtEdgeStdISO
  3
"Amdt_StdImp|Product Description: AutoCAD Mechanical 2000|Company: Autodesk"
 90
    32768
280
     0
281
     0
  0
CLASS
  1
ACMSURFSTANDARDISO
  2
AcmSurfTextStdISO
  3
"Amdt_StdImp|Product Description: AutoCAD Mechanical 2000|Company: Autodesk"
 90
    32768
280
     0
281
     0
  0
CLASS
  1
ACMFCFSTANDARDISO
  2
AcmFCFStdISO
  3
"Amdt_StdImp|Product Description: AutoCAD Mechanical 2000|Company: Autodesk"
 90
    32768
280
     0
281
     0
  0
CLASS
  1
ACMWELDSTANDARDISO
  2
AcmWeldingStdISO
  3
"Amdt_StdImp|Product Description: AutoCAD Mechanical 2000|Company: Autodesk"
 90
    32768
280
     0
281
     0
  0
CLASS
  1
ACMIDSTANDARDISO
  2
AcmIdStdISO
  3
"Amdt_StdImp|Product Description: AutoCAD Mechanical 2000|Company: Autodesk"
 90
    32768
280
     0
281
     0
  0
CLASS
  1
ACMDATUMSTANDARDISO
  2
AcmDatumStdISO
  3
"Amdt_StdImp|Product Description: AutoCAD Mechanical 2000|Company: Autodesk"
 90
    32768
280
     0
281
     0
  0
CLASS
  1
ACMBOMSTANDARDISO
  2
AcmBOMStdISO
  3
"Amdt_StdImp|Product Description: AutoCAD Mechanical 2000|Company: Autodesk"
 90
    32768
280
     0
281
     0
  0
CLASS
  1
ACMDETAILSTANDARDISO
  2
AmdtDetailSymStdISO
  3
"Amdt_StdImp|Product Description: AutoCAD Mechanical 2000|Company: Autodesk"
 90
    32768
280
     0
281
     0
  0
CLASS
  1
ACMSECTIONSTANDARDISO
  2
AmdtSectionSymStdISO
  3
"Amdt_StdImp|Product Description: AutoCAD Mechanical 2000|Company: Autodesk"
 90
    32768
280
     0
281
     0
  0
CLASS
  1
ACMCENTERLINESTANDARDISO
  2
AmdtCenterLineStdISO
  3
"Amdt_StdImp|Product Description: AutoCAD Mechanical 2000|Company: Autodesk"
 90
    32768
280
     0
281
     0
  0
CLASS
  1
ACMNOTESTANDARDISO
  2
AmdtNoteStdISO
  3
"Amdt_StdImp|Product Description: AutoCAD Mechanical 2000|Company: Autodesk"
 90
    32768
280
     0
281
     0
  0
CLASS
  1
ACAMGLAYSTD
  2
AcAmgLayStd
  3
"AcAmgLayStd|Product Description: AutoCAD Mechanical 2000|Company: Autodesk"
 90
    32768
280
     0
281
     0
  0
CLASS
  1
ACAMGDIMSTD
  2
AcAmgDimStd
  3
"AcAmgDimStd|Product Description: AutoCAD Mechanical 2000|Company: Autodesk"
 90
    32768
280
     0
281
     0
  0
CLASS
  1
ACAMGHOLECHARTSTDISO
  2
AcAmgHoleChartStdISO
  3
ACMSYMBB_MODULE_NAME
 90
    32768
280
     0
281
     0
  0
CLASS
  1
ACAMGTITLESTD
  2
AcAmgTitleStd
  3
"TITLEAPP"
 90
    32768
280
     0
281
     0
  0
CLASS
  1
ACAMGFILTERDAT
  2
AcAmgFilterDat
  3
"AcadM|Product Description: AutoCAD Mechanical 2000|Company: Autodesk"
 90
    32768
280
     0
281
     0
  0
CLASS
  1
LAYER_INDEX
  2
AcDbLayerIndex
  3
AutoCAD 2000
 90
    32768
280
     0
281
     0
  0
CLASS
  1
IDBUFFER
  2
AcDbIdBuffer
  3
AutoCAD 2000
 90
    32768
280
     0
281
     0
  0
CLASS
  1
LONG_TRANSACTION
  2
AcDbLongTransaction
  3
AutoCAD 2000
 90
    32768
280
     0
281
     0
  0
CLASS
  1
LWPOLYLINE
  2
AcDbPolyline
  3
AutoCAD 2000
 90
    32768
280
     0
281
     1
  0
CLASS
  1
HATCH
  2
AcDbHatch
  3
AutoCAD 2000
 90
    32768
280
     0
281
     1
  0
CLASS
  1
XRECORD
  2
AcDbXrecord
  3
AutoCAD 2000
 90
    32768
280
     0
281
     0
  0
ENDSEC
  0
SECTION
  2
TABLES
  0
TABLE
  2
VPORT
  5
8
330
0
100
AcDbSymbolTable
 70
     5
  0
VPORT
  5
4E1E
330
8
100
AcDbSymbolTableRecord
100
AcDbViewportTableRecord
  2
*ACTIVE
 70
     0
 10
0.0
 20
0.0
 11
1.0
 21
1.0
 12
135.5703462606437
 22
208.7895667672824
 13
0.0
 23
0.0
 14
0.5
 24
0.5
 15
0.5
 25
0.5
 16
0.0
 26
0.0
 36
1.0
 17
0.0
 27
0.0
 37
0.0
 40
423.0185973845583
 41
1.717081850533807
 42
50.0
 43
0.0
 44
0.0
 50
0.0
 51
0.0
 71
     0
 72
   100
 73
     1
 74
     3
 75
     0
 76
     0
 77
     0
 78
     0
  0
ENDTAB
  0
TABLE
  2
LTYPE
  5
5
330
0
100
AcDbSymbolTable
 70
    12
  0
LTYPE
  5
14
330
5
100
AcDbSymbolTableRecord
100
AcDbLinetypeTableRecord
  2
BYBLOCK
 70
     0
  3

 72
    65
 73
     0
 40
0.0
  0
LTYPE
  5
15
330
5
100
AcDbSymbolTableRecord
100
AcDbLinetypeTableRecord
  2
BYLAYER
 70
     0
  3

 72
    65
 73
     0
 40
0.0
  0
LTYPE
  5
16
330
5
100
AcDbSymbolTableRecord
100
AcDbLinetypeTableRecord
  2
CONTINUOUS
 70
     0
  3
Solid line
 72
    65
 73
     0
 40
0.0
  0
LTYPE
  5
4F
330
5
100
AcDbSymbolTableRecord
100
AcDbLinetypeTableRecord
  2
CENTER
 70
     0
  3
Center ____ _ ____ _ ____ _ ____ _ ____ _ ____
 72
    65
 73
     4
 40
2.0
 49
1.25
 74
     0
 49
-0.25
 74
     0
 49
0.25
 74
     0
 49
-0.25
 74
     0
  0
LTYPE
  5
4D8C
330
5
100
AcDbSymbolTableRecord
100
AcDbLinetypeTableRecord
  2
AM_ISO02W050
 70
     0
  3
__ __ __ __ __ __ __ __ __ __ __ __ __ __ __
 72
    65
 73
     2
 40
7.5
 49
6.0
 74
     0
 49
-1.5
 74
     0
  0
LTYPE
  5
4D8D
330
5
100
AcDbSymbolTableRecord
100
AcDbLinetypeTableRecord
  2
AM_ISO08W050
 70
     0
  3
____ . ____ . ____ . ____ . ____ . ____ . ____
 72
    65
 73
     4
 40
18.0
 49
12.0
 74
     0
 49
-1.5
 74
     0
 49
3.0
 74
     0
 49
-1.5
 74
     0
  0
LTYPE
  5
4D8E
330
5
100
AcDbSymbolTableRecord
100
AcDbLinetypeTableRecord
  2
AM_ISO09W050
 70
     0
  3
_____ . . _____ . . _____ . . ____ .. ____
 72
    65
 73
     6
 40
22.5
 49
12.0
 74
     0
 49
-1.5
 74
     0
 49
3.0
 74
     0
 49
-1.5
 74
     0
 49
3.0
 74
     0
 49
-1.5
 74
     0
  0
LTYPE
  5
4D8F
330
5
100
AcDbSymbolTableRecord
100
AcDbLinetypeTableRecord
  2
AMCONSTR
 70
     0
  3
_______________________
 72
    65
 73
     2
 40
9999.0
 49
9999.0
 74
     0
 49
0.0
 74
     0
  0
LTYPE
  5
4D90
330
5
100
AcDbSymbolTableRecord
100
AcDbLinetypeTableRecord
  2
AM_ISO08W050X2
 70
     0
  3
__ . __ . __ . __ . __ . __
 72
    65
 73
     4
 40
9.0
 49
6.0
 74
     0
 49
-0.75
 74
     0
 49
1.5
 74
     0
 49
-0.75
 74
     0
  0
LTYPE
  5
4D91
330
5
100
AcDbSymbolTableRecord
100
AcDbLinetypeTableRecord
  2
AM_ISO02W050X2
 70
     0
  3
 _ _ _ _ _ _ _ _ _ _ _ _
 72
    65
 73
     2
 40
3.75
 49
3.0
 74
     0
 49
-0.75
 74
     0
  0
LTYPE
  5
4D94
330
5
100
AcDbSymbolTableRecord
100
AcDbLinetypeTableRecord
  2
AMZIGZAG
 70
     0
  3
/\/-/\/-/\/-/\/-/\/-/\/
 72
    65
 73
     2
 40
11.00009999999999
 49
0.0001
 74
     4
 75
   135
340
4D93
 46
0.04
 50
0.0
 44
0.0
 45
0.0
 49
-11.0
 74
     0
  0
LTYPE
  5
4DA2
330
5
100
AcDbSymbolTableRecord
100
AcDbLinetypeTableRecord
  2
ACISOWELD
 70
     0
  3
_ _ _ _ _
 72
    65
 73
     2
 40
2.0
 49
2.0
 74
     0
 49
-1.0
 74
     0
  0
LTYPE
  5
4DA3
330
5
100
AcDbSymbolTableRecord
100
AcDbLinetypeTableRecord
  2
ACISOTGB
 70
     0
  3
__ . . __ . .
 72
    65
 73
     6
 40
9.0
 49
4.0
 74
     0
 49
-1.0
 74
     0
 49
1.0
 74
     0
 49
-1.0
 74
     0
 49
1.0
 74
     0
 49
-1.0
 74
     0
  0
LTYPE
  5
4DA4
330
5
100
AcDbSymbolTableRecord
100
AcDbLinetypeTableRecord
  2
ACISOTGL
 70
     0
  3
_ _ _ _ _
 72
    65
 73
     2
 40
3.0
 49
2.0
 74
     0
 49
-1.0
 74
     0
  0
ENDTAB
  0
TABLE
  2
LAYER
  5
2
330
0
100
AcDbSymbolTable
 70
     4
  0
LAYER
  5
10
330
2
100
AcDbSymbolTableRecord
100
AcDbLayerTableRecord
  2
0
 70
     0
 62
     7
  6
CONTINUOUS
  0
LAYER
  5
48
330
2
100
AcDbSymbolTableRecord
100
AcDbLayerTableRecord
  2
DIM
 70
     0
 62
     5
  6
CONTINUOUS
  0
LAYER
  5
1545
330
2
100
AcDbSymbolTableRecord
100
AcDbLayerTableRecord
  2
LOGO
 70
     0
 62
     7
  6
CONTINUOUS
  0
LAYER
  5
1A52
330
2
100
AcDbSymbolTableRecord
100
AcDbLayerTableRecord
  2
DEFPOINTS
 70
     0
 62
     7
  6
CONTINUOUS
  0
ENDTAB
  0
TABLE
  2
STYLE
  5
3
330
0
100
AcDbSymbolTable
 70
     6
  0
STYLE
  5
11
330
3
100
AcDbSymbolTableRecord
100
AcDbTextStyleTableRecord
  2
STANDARD
 70
     0
 40
3.0
 41
1.0
 50
0.0
 71
     0
 42
3.0
  3
KAIU.TTF
  4

1001
ACAD
1000
DFKai-SB
1071
    34865
  0
STYLE
  5
5C
330
3
100
AcDbSymbolTableRecord
100
AcDbTextStyleTableRecord
  2
CHINESET
 70
     0
 40
3.0
 41
1.0
 50
0.0
 71
     0
 42
4.5
  3
simplex.shx
  4
CHINESET.shx
  0
STYLE
  5
1546
330
3
100
AcDbSymbolTableRecord
100
AcDbTextStyleTableRecord
  2
LOGO
 70
     0
 40
0.0
 41
1.0
 50
0.0
 71
     0
 42
5.0
  3
LEI00DP.TTF
  4

1001
ACAD
1000
文鼎中粗隸
1071
    34865
  0
STYLE
  5
4D93
330
3
100
AcDbSymbolTableRecord
100
AcDbTextStyleTableRecord
  2

 70
     1
 40
0.0
 41
1.0
 50
0.0
 71
     0
 42
4.5
  3
ltypeshp.shx
  4

  0
STYLE
  5
4D95
330
3
100
AcDbSymbolTableRecord
100
AcDbTextStyleTableRecord
  2
ACISOTS
 70
     0
 40
1.0
 41
1.0
 50
0.0
 71
     0
 42
4.5
  3
isocp.shx
  4
chineset.shx
  0
STYLE
  5
4DA1
330
3
100
AcDbSymbolTableRecord
100
AcDbTextStyleTableRecord
  2
ACISOGDT
 70
     0
 40
0.0
 41
1.0
 50
0.0
 71
     0
 42
4.5
  3
amgdt.shx
  4

  0
ENDTAB
  0
TABLE
  2
VIEW
  5
6
330
0
100
AcDbSymbolTable
 70
     0
  0
ENDTAB
  0
TABLE
  2
UCS
  5
7
330
0
100
AcDbSymbolTable
 70
     0
  0
ENDTAB
  0
TABLE
  2
APPID
  5
9
330
0
100
AcDbSymbolTable
 70
    12
  0
APPID
  5
12
330
9
100
AcDbSymbolTableRecord
100
AcDbRegAppTableRecord
  2
ACAD
 70
     0
  0
APPID
  5
5F
330
9
100
AcDbSymbolTableRecord
100
AcDbRegAppTableRecord
  2
AD_DRAW
 70
     0
  0
APPID
  5
60
330
9
100
AcDbSymbolTableRecord
100
AcDbRegAppTableRecord
  2
DESIGNERASSEMBLIES
 70
     0
  0
APPID
  5
61
330
9
100
AcDbSymbolTableRecord
100
AcDbRegAppTableRecord
  2
MCAD_NO_VIS
 70
     0
  0
APPID
  5
62
330
9
100
AcDbSymbolTableRecord
100
AcDbRegAppTableRecord
  2
ASURF_PCURVE_APPNAME
 70
     0
  0
APPID
  5
11A1
330
9
100
AcDbSymbolTableRecord
100
AcDbRegAppTableRecord
  2
CONTENTBLOCKICON
 70
     0
  0
APPID
  5
31CE
330
9
100
AcDbSymbolTableRecord
100
AcDbRegAppTableRecord
  2
GENIUS_GENODEF_13
 70
     0
  0
APPID
  5
31CF
330
9
100
AcDbSymbolTableRecord
100
AcDbRegAppTableRecord
  2
GENIUS_GENOBJ-N-FIL_13
 70
     0
  0
APPID
  5
3922
330
9
100
AcDbSymbolTableRecord
100
AcDbRegAppTableRecord
  2
GENIUS_GENFIL_13
 70
     0
  0
APPID
  5
3923
330
9
100
AcDbSymbolTableRecord
100
AcDbRegAppTableRecord
  2
GENIUS_GENOBJ-N-CHA_13
 70
     0
  0
APPID
  5
4D6F
330
9
100
AcDbSymbolTableRecord
100
AcDbRegAppTableRecord
  2
ACAD_TEMP_GRAPHIC
 70
     0
  0
APPID
  5
4D80
330
9
100
AcDbSymbolTableRecord
100
AcDbRegAppTableRecord
  2
ACATTRIBSERVICES
 70
     0
  0
ENDTAB
  0
TABLE
  2
DIMSTYLE
  5
A
330
0
100
AcDbSymbolTable
 70
     8
  0
DIMSTYLE
105
1A4
102
{ACAD_REACTORS
330
4633
330
4656
330
4663
330
4682
330
468F
330
469C
330
46E4
330
46F1
330
4765
330
4772
330
477F
330
47A7
330
4837
330
4835
330
484E
330
484D
330
4836
330
4849
330
484C
330
4848
330
4882
330
4881
330
487E
330
4AC5
330
4AFD
102
}
330
A
100
AcDbSymbolTableRecord
100
AcDbDimStyleTableRecord
  2
ISO-25-1
 70
     0
  3

  4

  5

  6

  7

 40
1.0
 41
3.0
 42
3.0
 43
2.0
 44
2.0
 45
0.0
 46
0.0
 47
0.0
 48
0.0
140
3.0
141
-3.0
142
0.0
143
25.4
144
1.0
145
0.0
146
0.7
147
1.0
 71
     0
 72
     0
 73
     0
 74
     0
 75
     0
 76
     0
 77
     1
 78
     8
170
     0
171
     2
172
     1
173
     0
174
     0
175
     0
176
   256
177
   256
178
   256
270
     2
271
     2
272
     2
273
     2
274
     2
340
5C
275
     0
280
     0
281
     0
282
     0
283
     1
284
     8
285
     0
286
     0
287
     0
288
     0
  0
DIMSTYLE
105
4DA8
330
A
100
AcDbSymbolTableRecord
100
AcDbDimStyleTableRecord
  2
AM_ISO
 70
     0
  3

  4
"
  5

  6

  7

 40
1.0
 41
2.5
 42
1.0
 43
10.0
 44
1.0
 45
0.0
 46
0.0
 47
0.1
 48
0.1
140
3.5
141
0.0
142
0.0
143
0.0393701
144
1.0
145
0.0
146
0.71
147
1.5
 71
     0
 72
     0
 73
     0
 74
     0
 75
     0
 76
     0
 77
     1
 78
     8
170
     0
171
     2
172
     1
173
     0
174
     0
175
     0
176
   256
177
   256
178
     2
270
     2
271
     2
272
     3
273
     2
274
     4
340
11
275
     0
280
     0
281
     0
282
     0
283
     0
284
     8
285
     0
286
     0
287
     3
288
     0
  0
DIMSTYLE
105
4DA9
330
A
100
AcDbSymbolTableRecord
100
AcDbDimStyleTableRecord
  2
AM_ISO$3
 70
     0
  3

  4
"
  5

  6

  7

 40
1.0
 41
2.5
 42
1.0
 43
10.0
 44
1.0
 45
0.0
 46
0.0
 47
0.1
 48
0.1
140
3.5
141
0.0
142
0.0
143
0.0393701
144
1.0
145
0.0
146
0.71
147
1.5
 71
     0
 72
     0
 73
     0
 74
     1
 75
     0
 76
     0
 77
     1
 78
     8
170
     0
171
     2
172
     0
173
     0
174
     0
175
     0
176
   256
177
   256
178
     2
270
     2
271
     2
272
     3
273
     2
274
     4
340
11
275
     0
280
     0
281
     0
282
     0
283
     0
284
     8
285
     0
286
     0
287
     0
288
     1
  0
DIMSTYLE
105
4DAA
330
A
100
AcDbSymbolTableRecord
100
AcDbDimStyleTableRecord
  2
AM_ISO$4
 70
     0
  3

  4
"
  5

  6

  7

 40
1.0
 41
2.5
 42
1.0
 43
10.0
 44
1.0
 45
0.0
 46
0.0
 47
0.1
 48
0.1
140
3.5
141
0.0
142
0.0
143
0.0393701
144
1.0
145
0.0
146
0.71
147
1.5
 71
     0
 72
     0
 73
     0
 74
     1
 75
     0
 76
     0
 77
     1
 78
     8
170
     0
171
     2
172
     0
173
     0
174
     0
175
     0
176
   256
177
   256
178
     2
270
     2
271
     2
272
     3
273
     2
274
     4
340
11
275
     0
280
     0
281
     0
282
     0
283
     0
284
     8
285
     0
286
     0
287
     0
288
     1
  0
DIMSTYLE
105
4DAB
330
A
100
AcDbSymbolTableRecord
100
AcDbDimStyleTableRecord
  2
AM_ISO$6
 70
     0
  3

  4
"
  5

  6

  7

 40
1.0
 41
2.5
 42
1.0
 43
10.0
 44
1.0
 45
0.0
 46
0.0
 47
0.1
 48
0.1
140
3.5
141
0.0
142
0.0
143
0.0393701
144
1.0
145
0.0
146
0.71
147
1.5
 71
     0
 72
     0
 73
     0
 74
     0
 75
     0
 76
     0
 77
     0
 78
     8
170
     0
171
     2
172
     1
173
     0
174
     0
175
     0
176
   256
177
   256
178
     2
270
     2
271
     2
272
     3
273
     2
274
     4
340
11
275
     0
280
     0
281
     0
282
     0
283
     0
284
     8
285
     0
286
     0
287
     3
288
     0
  0
DIMSTYLE
105
4DAC
330
A
100
AcDbSymbolTableRecord
100
AcDbDimStyleTableRecord
  2
AM_ISO$7
 70
     0
  3

  4
"
  5

  6

  7

 40
1.0
 41
2.5
 42
1.0
 43
10.0
 44
1.0
 45
0.0
 46
0.0
 47
0.1
 48
0.1
140
5.0
141
0.0
142
0.0
143
0.0393701
144
1.0
145
0.0
146
0.71
147
1.5
 71
     0
 72
     0
 73
     0
 74
     0
 75
     0
 76
     0
 77
     1
 78
     8
170
     0
171
     2
172
     1
173
     0
174
     0
175
     0
176
   256
177
   256
178
     2
270
     2
271
     2
272
     3
273
     2
274
     4
340
11
275
     0
280
     0
281
     0
282
     0
283
     0
284
     8
285
     0
286
     0
287
     3
288
     0
  0
DIMSTYLE
105
4DAD
330
A
100
AcDbSymbolTableRecord
100
AcDbDimStyleTableRecord
  2
AM_ISO$SF
 70
     0
  3

  4
"
  5

  6

  7

 40
1.0
 41
2.5
 42
1.0
 43
10.0
 44
1.0
 45
0.0
 46
0.0
 47
0.1
 48
0.1
140
3.5
141
0.0
142
0.0
143
0.0393701
144
1.0
145
0.0
146
0.71
147
1.5
 71
     0
 72
     0
 73
     0
 74
     0
 75
     1
 76
     1
 77
     1
 78
     8
170
     0
171
     2
172
     1
173
     0
174
     0
175
     0
176
   256
177
   256
178
     2
270
     2
271
     2
272
     3
273
     2
274
     4
340
11
275
     0
280
     0
281
     0
282
     0
283
     0
284
     8
285
     0
286
     0
287
     3
288
     0
  0
DIMSTYLE
105
4DB2
330
A
100
AcDbSymbolTableRecord
100
AcDbDimStyleTableRecord
  2
AM_ISO$SH
 70
     0
  3

  4
"
  5

  6
GENAXEH
  7

 40
1.0
 41
2.5
 42
1.0
 43
10.0
 44
1.0
 45
0.0
 46
0.0
 47
0.1
 48
0.1
140
3.5
141
0.0
142
0.0
143
0.0393701
144
2.0
145
0.0
146
0.71
147
1.5
 71
     0
 72
     0
 73
     0
 74
     0
 75
     1
 76
     1
 77
     1
 78
     8
170
     0
171
     2
172
     1
173
     1
174
     0
175
     0
176
   256
177
   256
178
     2
270
     2
271
     2
272
     3
273
     2
274
     4
340
11
275
     0
280
     0
281
     0
282
     0
283
     0
284
     8
285
     0
286
     0
287
     3
288
     0
  0
ENDTAB
  0
TABLE
  2
BLOCK_RECORD
  5
1
330
0
100
AcDbSymbolTable
 70
    28
  0
BLOCK_RECORD
  5
1F
102
{ACAD_XDICTIONARY
360
4CD1
102
}
330
1
100
AcDbSymbolTableRecord
100
AcDbBlockTableRecord
  2
*MODEL_SPACE
  0
BLOCK_RECORD
  5
1B
102
{ACAD_XDICTIONARY
360
4CD3
102
}
330
1
100
AcDbSymbolTableRecord
100
AcDbBlockTableRecord
  2
*PAPER_SPACE
  0
BLOCK_RECORD
  5
4634
330
1
100
AcDbSymbolTableRecord
100
AcDbBlockTableRecord
  2
*D1
  0
BLOCK_RECORD
  5
4657
330
1
100
AcDbSymbolTableRecord
100
AcDbBlockTableRecord
  2
*D2
  0
BLOCK_RECORD
  5
4664
330
1
100
AcDbSymbolTableRecord
100
AcDbBlockTableRecord
  2
*D3
  0
BLOCK_RECORD
  5
4683
330
1
100
AcDbSymbolTableRecord
100
AcDbBlockTableRecord
  2
*D4
  0
BLOCK_RECORD
  5
4690
330
1
100
AcDbSymbolTableRecord
100
AcDbBlockTableRecord
  2
*D5
  0
BLOCK_RECORD
  5
469D
330
1
100
AcDbSymbolTableRecord
100
AcDbBlockTableRecord
  2
*D6
  0
BLOCK_RECORD
  5
46E5
330
1
100
AcDbSymbolTableRecord
100
AcDbBlockTableRecord
  2
*D7
  0
BLOCK_RECORD
  5
46F2
330
1
100
AcDbSymbolTableRecord
100
AcDbBlockTableRecord
  2
*D8
  0
BLOCK_RECORD
  5
4766
330
1
100
AcDbSymbolTableRecord
100
AcDbBlockTableRecord
  2
*D9
  0
BLOCK_RECORD
  5
4773
330
1
100
AcDbSymbolTableRecord
100
AcDbBlockTableRecord
  2
*D10
  0
BLOCK_RECORD
  5
4780
330
1
100
AcDbSymbolTableRecord
100
AcDbBlockTableRecord
  2
*D11
  0
BLOCK_RECORD
  5
47A8
330
1
100
AcDbSymbolTableRecord
100
AcDbBlockTableRecord
  2
*D12
  0
BLOCK_RECORD
  5
4963
330
1
100
AcDbSymbolTableRecord
100
AcDbBlockTableRecord
  2
*D13
  0
BLOCK_RECORD
  5
496F
330
1
100
AcDbSymbolTableRecord
100
AcDbBlockTableRecord
  2
*D14
  0
BLOCK_RECORD
  5
497B
330
1
100
AcDbSymbolTableRecord
100
AcDbBlockTableRecord
  2
*D15
  0
BLOCK_RECORD
  5
4987
330
1
100
AcDbSymbolTableRecord
100
AcDbBlockTableRecord
  2
*D16
  0
BLOCK_RECORD
  5
4993
330
1
100
AcDbSymbolTableRecord
100
AcDbBlockTableRecord
  2
*D17
  0
BLOCK_RECORD
  5
499F
330
1
100
AcDbSymbolTableRecord
100
AcDbBlockTableRecord
  2
*D18
  0
BLOCK_RECORD
  5
49AD
330
1
100
AcDbSymbolTableRecord
100
AcDbBlockTableRecord
  2
*D19
  0
BLOCK_RECORD
  5
49B9
330
1
100
AcDbSymbolTableRecord
100
AcDbBlockTableRecord
  2
*D20
  0
BLOCK_RECORD
  5
49C5
330
1
100
AcDbSymbolTableRecord
100
AcDbBlockTableRecord
  2
*D21
  0
BLOCK_RECORD
  5
49D1
330
1
100
AcDbSymbolTableRecord
100
AcDbBlockTableRecord
  2
*D22
  0
BLOCK_RECORD
  5
49DD
330
1
100
AcDbSymbolTableRecord
100
AcDbBlockTableRecord
  2
*D23
  0
BLOCK_RECORD
  5
4AC6
330
1
100
AcDbSymbolTableRecord
100
AcDbBlockTableRecord
  2
*D24
  0
BLOCK_RECORD
  5
4AFE
330
1
100
AcDbSymbolTableRecord
100
AcDbBlockTableRecord
  2
*D25
  0
BLOCK_RECORD
  5
4DAE
330
1
100
AcDbSymbolTableRecord
100
AcDbBlockTableRecord
  2
GENAXEH
  0
ENDTAB
  0
ENDSEC
  0
SECTION
  2
BLOCKS
  0
BLOCK
  5
20
330
1F
100
AcDbEntity
  8
0
100
AcDbBlockBegin
  2
*MODEL_SPACE
 70
     0
 10
0.0
 20
0.0
 30
0.0
  3
*MODEL_SPACE
  1

  0
ENDBLK
  5
21
330
1F
100
AcDbEntity
  8
0
100
AcDbBlockEnd
  0
BLOCK
  5
1C
330
1B
100
AcDbEntity
 67
     1
  8
0
100
AcDbBlockBegin
  2
*PAPER_SPACE
 70
     0
 10
0.0
 20
0.0
 30
0.0
  3
*PAPER_SPACE
  1

  0
ENDBLK
  5
1D
330
1B
100
AcDbEntity
 67
     1
  8
0
100
AcDbBlockEnd
  0
BLOCK
  5
463E
330
4634
100
AcDbEntity
  8
0
100
AcDbBlockBegin
  2
*D1
 70
     1
 10
0.0
 20
0.0
 30
0.0
  3
*D1
  1

  0
LINE
  5
4B99
330
4634
100
AcDbEntity
  8
DIM
100
AcDbLine
 10
82.38195459159147
 20
135.840579905614
 30
0.0
 11
82.38195459159147
 21
153.264351989436
 31
0.0
  0
LINE
  5
4B9A
330
4634
100
AcDbEntity
  8
DIM
100
AcDbLine
 10
49.88195459159147
 20
135.840579905614
 30
0.0
 11
49.88195459159147
 21
153.264351989436
 31
0.0
  0
LINE
  5
4B9B
330
4634
100
AcDbEntity
  8
DIM
100
AcDbLine
 10
79.38195459159146
 20
151.264351989436
 30
0.0
 11
52.88195459159147
 21
151.264351989436
 31
0.0
  0
SOLID
  5
4B9C
330
4634
100
AcDbEntity
  8
DIM
100
AcDbTrace
 10
79.38195459159146
 20
151.764351989436
 30
0.0
 11
79.38195459159146
 21
150.764351989436
 31
0.0
 12
82.38195459159147
 22
151.264351989436
 32
0.0
 13
82.38195459159147
 23
151.264351989436
 33
0.0
  0
SOLID
  5
4B9D
330
4634
100
AcDbEntity
  8
DIM
100
AcDbTrace
 10
52.88195459159147
 20
151.764351989436
 30
0.0
 11
52.88195459159147
 21
150.764351989436
 31
0.0
 12
49.88195459159147
 22
151.264351989436
 32
0.0
 13
49.88195459159147
 23
151.264351989436
 33
0.0
  0
MTEXT
  5
4B9E
330
4634
100
AcDbEntity
  8
DIM
100
AcDbMText
 10
66.13195459159147
 20
153.764351989436
 30
0.0
 40
3.0
 41
0.0
 71
     5
 72
     1
  1
\A1;32.5
  7
CHINESET
1001
ACAD
1000
MTEXTBEGIN
1070
    73
1070
     1
1070
    44
1040
1.0
1070
    74
1070
     0
1000
MTEXTEND
  0
POINT
  5
4B9F
330
4634
100
AcDbEntity
  8
DEFPOINTS
 62
     0
100
AcDbPoint
 10
82.38195459159147
 20
132.8405799056139
 30
0.0
  0
POINT
  5
4BA0
330
4634
100
AcDbEntity
  8
DEFPOINTS
 62
     0
100
AcDbPoint
 10
49.88195459159147
 20
132.8405799056139
 30
0.0
  0
POINT
  5
4BA1
330
4634
100
AcDbEntity
  8
DEFPOINTS
 62
     0
100
AcDbPoint
 10
49.88195459159147
 20
151.264351989436
 30
0.0
  0
ENDBLK
  5
463F
330
4634
100
AcDbEntity
  8
0
100
AcDbBlockEnd
  0
BLOCK
  5
4661
330
4657
100
AcDbEntity
  8
0
100
AcDbBlockBegin
  2
*D2
 70
     1
 10
0.0
 20
0.0
 30
0.0
  3
*D2
  1

  0
LINE
  5
4BBD
330
4657
100
AcDbEntity
  8
DIM
100
AcDbLine
 10
60.88195459159146
 20
105.447975588923
 30
0.0
 11
60.88195459159146
 21
144.0482769153807
 31
0.0
  0
LINE
  5
4BBE
330
4657
100
AcDbEntity
  8
DIM
100
AcDbLine
 10
49.88195459159147
 20
135.840579905614
 30
0.0
 11
49.88195459159147
 21
144.0482769153807
 31
0.0
  0
LINE
  5
4BBF
330
4657
100
AcDbEntity
  8
DIM
100
AcDbLine
 10
57.88195459159147
 20
142.0482769153807
 30
0.0
 11
52.88195459159147
 21
142.0482769153807
 31
0.0
  0
SOLID
  5
4BC0
330
4657
100
AcDbEntity
  8
DIM
100
AcDbTrace
 10
57.88195459159147
 20
142.5482769153807
 30
0.0
 11
57.88195459159147
 21
141.5482769153807
 31
0.0
 12
60.88195459159146
 22
142.0482769153807
 32
0.0
 13
60.88195459159146
 23
142.0482769153807
 33
0.0
  0
SOLID
  5
4BC1
330
4657
100
AcDbEntity
  8
DIM
100
AcDbTrace
 10
52.88195459159147
 20
142.5482769153807
 30
0.0
 11
52.88195459159147
 21
141.5482769153807
 31
0.0
 12
49.88195459159147
 22
142.0482769153807
 32
0.0
 13
49.88195459159147
 23
142.0482769153807
 33
0.0
  0
MTEXT
  5
4BC2
330
4657
100
AcDbEntity
  8
DIM
100
AcDbMText
 10
55.38195459159147
 20
144.5482769153807
 30
0.0
 40
3.0
 41
0.0
 71
     5
 72
     1
  1
\A1;11
  7
CHINESET
1001
ACAD
1000
MTEXTBEGIN
1070
    73
1070
     1
1070
    44
1040
1.0
1070
    74
1070
     0
1000
MTEXTEND
  0
POINT
  5
4BC3
330
4657
100
AcDbEntity
  8
DEFPOINTS
 62
     0
100
AcDbPoint
 10
60.88195459159146
 20
102.4479755889231
 30
0.0
  0
POINT
  5
4BC4
330
4657
100
AcDbEntity
  8
DEFPOINTS
 62
     0
100
AcDbPoint
 10
49.88195459159147
 20
132.8405799056139
 30
0.0
  0
POINT
  5
4BC5
330
4657
100
AcDbEntity
  8
DEFPOINTS
 62
     0
100
AcDbPoint
 10
49.88195459159147
 20
142.0482769153807
 30
0.0
  0
ENDBLK
  5
4662
330
4657
100
AcDbEntity
  8
0
100
AcDbBlockEnd
  0
BLOCK
  5
466E
330
4664
100
AcDbEntity
  8
0
100
AcDbBlockBegin
  2
*D3
 70
     1
 10
0.0
 20
0.0
 30
0.0
  3
*D3
  1

  0
LINE
  5
4BAB
330
4664
100
AcDbEntity
  8
DIM
100
AcDbLine
 10
71.38195459159146
 20
105.447975588923
 30
0.0
 11
71.38195459159146
 21
144.0482769153807
 31
0.0
  0
LINE
  5
4BAC
330
4664
100
AcDbEntity
  8
DIM
100
AcDbLine
 10
82.38195459159147
 20
135.840579905614
 30
0.0
 11
82.38195459159147
 21
144.0482769153807
 31
0.0
  0
LINE
  5
4BAD
330
4664
100
AcDbEntity
  8
DIM
100
AcDbLine
 10
74.38195459159146
 20
142.0482769153807
 30
0.0
 11
79.38195459159146
 21
142.0482769153807
 31
0.0
  0
SOLID
  5
4BAE
330
4664
100
AcDbEntity
  8
DIM
100
AcDbTrace
 10
74.38195459159146
 20
142.5482769153807
 30
0.0
 11
74.38195459159146
 21
141.5482769153807
 31
0.0
 12
71.38195459159146
 22
142.0482769153807
 32
0.0
 13
71.38195459159146
 23
142.0482769153807
 33
0.0
  0
SOLID
  5
4BAF
330
4664
100
AcDbEntity
  8
DIM
100
AcDbTrace
 10
79.38195459159146
 20
142.5482769153807
 30
0.0
 11
79.38195459159146
 21
141.5482769153807
 31
0.0
 12
82.38195459159147
 22
142.0482769153807
 32
0.0
 13
82.38195459159147
 23
142.0482769153807
 33
0.0
  0
MTEXT
  5
4BB0
330
4664
100
AcDbEntity
  8
DIM
100
AcDbMText
 10
76.88195459159146
 20
144.5482769153807
 30
0.0
 40
3.0
 41
0.0
 71
     5
 72
     1
  1
\A1;11
  7
CHINESET
1001
ACAD
1000
MTEXTBEGIN
1070
    73
1070
     1
1070
    44
1040
1.0
1070
    74
1070
     0
1000
MTEXTEND
  0
POINT
  5
4BB1
330
4664
100
AcDbEntity
  8
DEFPOINTS
 62
     0
100
AcDbPoint
 10
71.38195459159146
 20
102.4479755889231
 30
0.0
  0
POINT
  5
4BB2
330
4664
100
AcDbEntity
  8
DEFPOINTS
 62
     0
100
AcDbPoint
 10
82.38195459159147
 20
132.8405799056139
 30
0.0
  0
POINT
  5
4BB3
330
4664
100
AcDbEntity
  8
DEFPOINTS
 62
     0
100
AcDbPoint
 10
82.38195459159147
 20
142.0482769153807
 30
0.0
  0
ENDBLK
  5
466F
330
4664
100
AcDbEntity
  8
0
100
AcDbBlockEnd
  0
BLOCK
  5
468D
330
4683
100
AcDbEntity
  8
0
100
AcDbBlockBegin
  2
*D4
 70
     1
 10
0.0
 20
0.0
 30
0.0
  3
*D4
  1

  0
LINE
  5
4BA2
330
4683
100
AcDbEntity
  8
DIM
100
AcDbLine
 10
82.38195459159147
 20
135.840579905614
 30
0.0
 11
82.38195459159147
 21
153.264351989436
 31
0.0
  0
LINE
  5
4BA3
330
4683
100
AcDbEntity
  8
DIM
100
AcDbLine
 10
91.38195459159192
 20
106.8405799056143
 30
0.0
 11
91.38195459159192
 21
153.264351989436
 31
0.0
  0
LINE
  5
4BA4
330
4683
100
AcDbEntity
  8
DIM
100
AcDbLine
 10
85.38195459159146
 20
151.264351989436
 30
0.0
 11
88.38195459159193
 21
151.264351989436
 31
0.0
  0
SOLID
  5
4BA5
330
4683
100
AcDbEntity
  8
DIM
100
AcDbTrace
 10
85.38195459159146
 20
151.764351989436
 30
0.0
 11
85.38195459159146
 21
150.764351989436
 31
0.0
 12
82.38195459159147
 22
151.264351989436
 32
0.0
 13
82.38195459159147
 23
151.264351989436
 33
0.0
  0
SOLID
  5
4BA6
330
4683
100
AcDbEntity
  8
DIM
100
AcDbTrace
 10
88.38195459159193
 20
151.764351989436
 30
0.0
 11
88.38195459159193
 21
150.764351989436
 31
0.0
 12
91.38195459159192
 22
151.264351989436
 32
0.0
 13
91.38195459159192
 23
151.264351989436
 33
0.0
  0
MTEXT
  5
4BA7
330
4683
100
AcDbEntity
  8
DIM
100
AcDbMText
 10
86.88195459159169
 20
153.764351989436
 30
0.0
 40
3.0
 41
0.0
 71
     5
 72
     1
  1
\A1;9
  7
CHINESET
1001
ACAD
1000
MTEXTBEGIN
1070
    73
1070
     1
1070
    44
1040
1.0
1070
    74
1070
     0
1000
MTEXTEND
  0
POINT
  5
4BA8
330
4683
100
AcDbEntity
  8
DEFPOINTS
 62
     0
100
AcDbPoint
 10
82.38195459159147
 20
132.8405799056139
 30
0.0
  0
POINT
  5
4BA9
330
4683
100
AcDbEntity
  8
DEFPOINTS
 62
     0
100
AcDbPoint
 10
91.38195459159192
 20
103.8405799056143
 30
0.0
  0
POINT
  5
4BAA
330
4683
100
AcDbEntity
  8
DEFPOINTS
 62
     0
100
AcDbPoint
 10
91.38195459159192
 20
151.264351989436
 30
0.0
  0
ENDBLK
  5
468E
330
4683
100
AcDbEntity
  8
0
100
AcDbBlockEnd
  0
BLOCK
  5
469A
330
4690
100
AcDbEntity
  8
0
100
AcDbBlockBegin
  2
*D5
 70
     1
 10
0.0
 20
0.0
 30
0.0
  3
*D5
  1

  0
LINE
  5
4B90
330
4690
100
AcDbEntity
  8
DIM
100
AcDbLine
 10
91.38195459159192
 20
106.8405799056143
 30
0.0
 11
91.38195459159192
 21
162.3825533515312
 31
0.0
  0
LINE
  5
4B91
330
4690
100
AcDbEntity
  8
DIM
100
AcDbLine
 10
49.88195459159147
 20
135.840579905614
 30
0.0
 11
49.88195459159147
 21
162.3825533515312
 31
0.0
  0
LINE
  5
4B92
330
4690
100
AcDbEntity
  8
DIM
100
AcDbLine
 10
88.38195459159193
 20
160.3825533515312
 30
0.0
 11
52.88195459159147
 21
160.3825533515312
 31
0.0
  0
SOLID
  5
4B93
330
4690
100
AcDbEntity
  8
DIM
100
AcDbTrace
 10
88.38195459159193
 20
160.8825533515312
 30
0.0
 11
88.38195459159193
 21
159.8825533515312
 31
0.0
 12
91.38195459159192
 22
160.3825533515312
 32
0.0
 13
91.38195459159192
 23
160.3825533515312
 33
0.0
  0
SOLID
  5
4B94
330
4690
100
AcDbEntity
  8
DIM
100
AcDbTrace
 10
52.88195459159147
 20
160.8825533515312
 30
0.0
 11
52.88195459159147
 21
159.8825533515312
 31
0.0
 12
49.88195459159147
 22
160.3825533515312
 32
0.0
 13
49.88195459159147
 23
160.3825533515312
 33
0.0
  0
MTEXT
  5
4B95
330
4690
100
AcDbEntity
  8
DIM
100
AcDbMText
 10
70.63195459159169
 20
162.8825533515312
 30
0.0
 40
3.0
 41
0.0
 71
     5
 72
     1
  1
\A1;41.5
  7
CHINESET
1001
ACAD
1000
MTEXTBEGIN
1070
    73
1070
     1
1070
    44
1040
1.0
1070
    74
1070
     0
1000
MTEXTEND
  0
POINT
  5
4B96
330
4690
100
AcDbEntity
  8
DEFPOINTS
 62
     0
100
AcDbPoint
 10
91.38195459159192
 20
103.8405799056143
 30
0.0
  0
POINT
  5
4B97
330
4690
100
AcDbEntity
  8
DEFPOINTS
 62
     0
100
AcDbPoint
 10
49.88195459159147
 20
132.8405799056139
 30
0.0
  0
POINT
  5
4B98
330
4690
100
AcDbEntity
  8
DEFPOINTS
 62
     0
100
AcDbPoint
 10
49.88195459159147
 20
160.3825533515312
 30
0.0
  0
ENDBLK
  5
469B
330
4690
100
AcDbEntity
  8
0
100
AcDbBlockEnd
  0
BLOCK
  5
46A9
330
469D
100
AcDbEntity
  8
0
100
AcDbBlockBegin
  2
*D6
 70
     1
 10
0.0
 20
0.0
 30
0.0
  3
*D6
  1

  0
LINE
  5
4BEA
330
469D
100
AcDbEntity
  8
DIM
100
AcDbLine
 10
86.38195459159147
 20
74.34057990561438
 30
0.0
 11
86.38195459159147
 21
43.78853066452511
 31
0.0
  0
LINE
  5
4BEB
330
469D
100
AcDbEntity
  8
DIM
100
AcDbLine
 10
82.38195459159147
 20
54.84057990561318
 30
0.0
 11
82.38195459159147
 21
43.78853066452511
 31
0.0
  0
LINE
  5
4BEC
330
469D
100
AcDbEntity
  8
DIM
100
AcDbLine
 10
89.38195459159146
 20
45.78853066452511
 30
0.0
 11
92.38195459159147
 21
45.78853066452511
 31
0.0
  0
LINE
  5
4BED
330
469D
100
AcDbEntity
  8
DIM
100
AcDbLine
 10
79.38195459159146
 20
45.78853066452511
 30
0.0
 11
76.38195459159146
 21
45.78853066452511
 31
0.0
  0
LINE
  5
4BEE
330
469D
100
AcDbEntity
  8
DIM
100
AcDbLine
 10
86.38195459159147
 20
45.78853066452511
 30
0.0
 11
82.38195459159147
 21
45.78853066452511
 31
0.0
  0
SOLID
  5
4BEF
330
469D
100
AcDbEntity
  8
DIM
100
AcDbTrace
 10
89.38195459159146
 20
46.28853066452511
 30
0.0
 11
89.38195459159146
 21
45.28853066452511
 31
0.0
 12
86.38195459159147
 22
45.78853066452511
 32
0.0
 13
86.38195459159147
 23
45.78853066452511
 33
0.0
  0
SOLID
  5
4BF0
330
469D
100
AcDbEntity
  8
DIM
100
AcDbTrace
 10
79.38195459159146
 20
46.28853066452511
 30
0.0
 11
79.38195459159146
 21
45.28853066452511
 31
0.0
 12
82.38195459159147
 22
45.78853066452511
 32
0.0
 13
82.38195459159147
 23
45.78853066452511
 33
0.0
  0
MTEXT
  5
4BF1
330
469D
100
AcDbEntity
  8
DIM
100
AcDbMText
 10
84.38195459159146
 20
48.28853066452511
 30
0.0
 40
3.0
 41
0.0
 71
     5
 72
     1
  1
\A1;4
  7
CHINESET
1001
ACAD
1000
MTEXTBEGIN
1070
    73
1070
     1
1070
    44
1040
1.0
1070
    74
1070
     0
1000
MTEXTEND
  0
POINT
  5
4BF2
330
469D
100
AcDbEntity
  8
DEFPOINTS
 62
     0
100
AcDbPoint
 10
86.38195459159147
 20
77.34057990561438
 30
0.0
  0
POINT
  5
4BF3
330
469D
100
AcDbEntity
  8
DEFPOINTS
 62
     0
100
AcDbPoint
 10
82.38195459159147
 20
57.84057990561318
 30
0.0
  0
POINT
  5
4BF4
330
469D
100
AcDbEntity
  8
DEFPOINTS
 62
     0
100
AcDbPoint
 10
82.38195459159147
 20
45.78853066452511
 30
0.0
  0
ENDBLK
  5
46AA
330
469D
100
AcDbEntity
  8
0
100
AcDbBlockEnd
  0
BLOCK
  5
46EF
330
46E5
100
AcDbEntity
  8
0
100
AcDbBlockBegin
  2
*D7
 70
     1
 10
0.0
 20
0.0
 30
0.0
  3
*D7
  1

  0
LINE
  5
4BCF
330
46E5
100
AcDbEntity
  8
DIM
100
AcDbLine
 10
89.38195459159146
 20
105.3405799056143
 30
0.0
 11
112.5400902557522
 21
105.3405799056143
 31
0.0
  0
LINE
  5
4BD0
330
46E5
100
AcDbEntity
  8
DIM
100
AcDbLine
 10
89.38195459159146
 20
85.34057990561432
 30
0.0
 11
112.5400902557522
 21
85.3405799056143
 31
0.0
  0
LINE
  5
4BD1
330
46E5
100
AcDbEntity
  8
DIM
100
AcDbLine
 10
110.5400902557522
 20
102.3405799056143
 30
0.0
 11
110.5400902557522
 21
88.34057990561431
 31
0.0
  0
SOLID
  5
4BD2
330
46E5
100
AcDbEntity
  8
DIM
100
AcDbTrace
 10
110.0400902557522
 20
102.3405799056143
 30
0.0
 11
111.0400902557522
 21
102.3405799056143
 31
0.0
 12
110.5400902557522
 22
105.3405799056143
 32
0.0
 13
110.5400902557522
 23
105.3405799056143
 33
0.0
  0
SOLID
  5
4BD3
330
46E5
100
AcDbEntity
  8
DIM
100
AcDbTrace
 10
110.0400902557522
 20
88.34057990561431
 30
0.0
 11
111.0400902557522
 21
88.34057990561431
 31
0.0
 12
110.5400902557522
 22
85.3405799056143
 32
0.0
 13
110.5400902557522
 23
85.3405799056143
 33
0.0
  0
MTEXT
  5
4BD4
330
46E5
100
AcDbEntity
  8
DIM
100
AcDbMText
 10
108.0400902557522
 20
95.34057990561434
 30
0.0
 40
3.0
 41
0.0
 71
     5
 72
     1
  1
\A1;%%c20
  7
CHINESET
 11
0.0000000000000001
 21
1.0
 31
0.0
1001
ACAD
1000
MTEXTBEGIN
1070
    73
1070
     1
1070
    44
1040
1.0
1070
    74
1070
     0
1000
MTEXTEND
  0
POINT
  5
4BD5
330
46E5
100
AcDbEntity
  8
DEFPOINTS
 62
     0
100
AcDbPoint
 10
86.38195459159147
 20
105.3405799056143
 30
0.0
  0
POINT
  5
4BD6
330
46E5
100
AcDbEntity
  8
DEFPOINTS
 62
     0
100
AcDbPoint
 10
86.38195459159147
 20
85.34057990561432
 30
0.0
  0
POINT
  5
4BD7
330
46E5
100
AcDbEntity
  8
DEFPOINTS
 62
     0
100
AcDbPoint
 10
110.5400902557522
 20
85.3405799056143
 30
0.0
  0
ENDBLK
  5
46F0
330
46E5
100
AcDbEntity
  8
0
100
AcDbBlockEnd
  0
BLOCK
  5
46FC
330
46F2
100
AcDbEntity
  8
0
100
AcDbBlockBegin
  2
*D8
 70
     1
 10
0.0
 20
0.0
 30
0.0
  3
*D8
  1

  0
LINE
  5
4BC6
330
46F2
100
AcDbEntity
  8
DIM
100
AcDbLine
 10
87.38195459159147
 20
115.3405799056142
 30
0.0
 11
120.774338483193
 21
115.3405799056142
 31
0.0
  0
LINE
  5
4BC7
330
46F2
100
AcDbEntity
  8
DIM
100
AcDbLine
 10
87.38195459159147
 20
75.34057990561437
 30
0.0
 11
120.7743384831929
 21
75.34057990561436
 31
0.0
  0
LINE
  5
4BC8
330
46F2
100
AcDbEntity
  8
DIM
100
AcDbLine
 10
118.774338483193
 20
112.3405799056142
 30
0.0
 11
118.7743384831929
 21
78.34057990561436
 31
0.0
  0
SOLID
  5
4BC9
330
46F2
100
AcDbEntity
  8
DIM
100
AcDbTrace
 10
118.2743384831929
 20
112.3405799056142
 30
0.0
 11
119.2743384831929
 21
112.3405799056142
 31
0.0
 12
118.774338483193
 22
115.3405799056142
 32
0.0
 13
118.774338483193
 23
115.3405799056142
 33
0.0
  0
SOLID
  5
4BCA
330
46F2
100
AcDbEntity
  8
DIM
100
AcDbTrace
 10
118.2743384831929
 20
78.34057990561436
 30
0.0
 11
119.2743384831929
 21
78.34057990561436
 31
0.0
 12
118.7743384831929
 22
75.34057990561436
 32
0.0
 13
118.7743384831929
 23
75.34057990561436
 33
0.0
  0
MTEXT
  5
4BCB
330
46F2
100
AcDbEntity
  8
DIM
100
AcDbMText
 10
116.2743384831929
 20
95.34057990561432
 30
0.0
 40
3.0
 41
0.0
 71
     5
 72
     1
  1
\A1;%%c40
  7
CHINESET
 11
0.0000000000000001
 21
1.0
 31
0.0
1001
ACAD
1000
MTEXTBEGIN
1070
    73
1070
     1
1070
    44
1040
1.0
1070
    74
1070
     0
1000
MTEXTEND
  0
POINT
  5
4BCC
330
46F2
100
AcDbEntity
  8
DEFPOINTS
 62
     0
100
AcDbPoint
 10
84.38195459159146
 20
115.3405799056142
 30
0.0
  0
POINT
  5
4BCD
330
46F2
100
AcDbEntity
  8
DEFPOINTS
 62
     0
100
AcDbPoint
 10
84.38195459159146
 20
75.34057990561437
 30
0.0
  0
POINT
  5
4BCE
330
46F2
100
AcDbEntity
  8
DEFPOINTS
 62
     0
100
AcDbPoint
 10
118.7743384831929
 20
75.34057990561436
 30
0.0
  0
ENDBLK
  5
46FD
330
46F2
100
AcDbEntity
  8
0
100
AcDbBlockEnd
  0
BLOCK
  5
4770
330
4766
100
AcDbEntity
  8
0
100
AcDbBlockBegin
  2
*D9
 70
     1
 10
0.0
 20
0.0
 30
0.0
  3
*D9
  1

  0
LINE
  5
4BE1
330
4766
100
AcDbEntity
  8
DIM
100
AcDbLine
 10
173.1973189678999
 20
125.3405799056142
 30
0.0
 11
154.2622481571671
 21
125.3405799056142
 31
0.0
  0
LINE
  5
4BE2
330
4766
100
AcDbEntity
  8
DIM
100
AcDbLine
 10
173.1973189678999
 20
65.34057990561421
 30
0.0
 11
154.2622481571671
 21
65.34057990561422
 31
0.0
  0
LINE
  5
4BE3
330
4766
100
AcDbEntity
  8
DIM
100
AcDbLine
 10
156.2622481571671
 20
122.3405799056142
 30
0.0
 11
156.2622481571671
 21
68.34057990561422
 31
0.0
  0
SOLID
  5
4BE4
330
4766
100
AcDbEntity
  8
DIM
100
AcDbTrace
 10
155.7622481571671
 20
122.3405799056142
 30
0.0
 11
156.7622481571671
 21
122.3405799056142
 31
0.0
 12
156.2622481571671
 22
125.3405799056142
 32
0.0
 13
156.2622481571671
 23
125.3405799056142
 33
0.0
  0
SOLID
  5
4BE5
330
4766
100
AcDbEntity
  8
DIM
100
AcDbTrace
 10
155.7622481571671
 20
68.34057990561422
 30
0.0
 11
156.7622481571671
 21
68.34057990561422
 31
0.0
 12
156.2622481571671
 22
65.34057990561422
 32
0.0
 13
156.2622481571671
 23
65.34057990561422
 33
0.0
  0
MTEXT
  5
4BE6
330
4766
100
AcDbEntity
  8
DIM
100
AcDbMText
 10
153.7622481571671
 20
95.34057990561423
 30
0.0
 40
3.0
 41
0.0
 71
     5
 72
     1
  1
\A1;\U+25A160
  7
CHINESET
 11
0.0000000000000001
 21
1.0
 31
0.0
1001
ACAD
1000
MTEXTBEGIN
1070
    73
1070
     1
1070
    44
1040
1.0
1070
    74
1070
     0
1000
MTEXTEND
  0
POINT
  5
4BE7
330
4766
100
AcDbEntity
  8
DEFPOINTS
 62
     0
100
AcDbPoint
 10
176.1973189678999
 20
125.3405799056142
 30
0.0
  0
POINT
  5
4BE8
330
4766
100
AcDbEntity
  8
DEFPOINTS
 62
     0
100
AcDbPoint
 10
176.1973189678999
 20
65.34057990561421
 30
0.0
  0
POINT
  5
4BE9
330
4766
100
AcDbEntity
  8
DEFPOINTS
 62
     0
100
AcDbPoint
 10
156.2622481571671
 20
65.34057990561422
 30
0.0
  0
ENDBLK
  5
4771
330
4766
100
AcDbEntity
  8
0
100
AcDbBlockEnd
  0
BLOCK
  5
477D
330
4773
100
AcDbEntity
  8
0
100
AcDbBlockBegin
  2
*D10
 70
     1
 10
0.0
 20
0.0
 30
0.0
  3
*D10
  1

  0
LINE
  5
4BD8
330
4773
100
AcDbEntity
  8
DIM
100
AcDbLine
 10
175.7254275795928
 20
132.8405799056142
 30
0.0
 11
140.0793315802635
 21
132.8405799056142
 31
0.0
  0
LINE
  5
4BD9
330
4773
100
AcDbEntity
  8
DIM
100
AcDbLine
 10
175.7254275795926
 20
57.84057990561412
 30
0.0
 11
140.0793315802635
 21
57.84057990561413
 31
0.0
  0
LINE
  5
4BDA
330
4773
100
AcDbEntity
  8
DIM
100
AcDbLine
 10
142.0793315802635
 20
129.8405799056142
 30
0.0
 11
142.0793315802635
 21
60.84057990561412
 31
0.0
  0
SOLID
  5
4BDB
330
4773
100
AcDbEntity
  8
DIM
100
AcDbTrace
 10
141.5793315802635
 20
129.8405799056142
 30
0.0
 11
142.5793315802635
 21
129.8405799056142
 31
0.0
 12
142.0793315802635
 22
132.8405799056142
 32
0.0
 13
142.0793315802635
 23
132.8405799056142
 33
0.0
  0
SOLID
  5
4BDC
330
4773
100
AcDbEntity
  8
DIM
100
AcDbTrace
 10
141.5793315802635
 20
60.84057990561412
 30
0.0
 11
142.5793315802635
 21
60.84057990561412
 31
0.0
 12
142.0793315802635
 22
57.84057990561413
 32
0.0
 13
142.0793315802635
 23
57.84057990561413
 33
0.0
  0
MTEXT
  5
4BDD
330
4773
100
AcDbEntity
  8
DIM
100
AcDbMText
 10
139.5793315802635
 20
95.3405799056142
 30
0.0
 40
3.0
 41
0.0
 71
     5
 72
     1
  1
\A1;75
  7
CHINESET
 11
0.0000000000000001
 21
1.0
 31
0.0
1001
ACAD
1000
MTEXTBEGIN
1070
    73
1070
     1
1070
    44
1040
1.0
1070
    74
1070
     0
1000
MTEXTEND
  0
POINT
  5
4BDE
330
4773
100
AcDbEntity
  8
DEFPOINTS
 62
     0
100
AcDbPoint
 10
178.7254275795928
 20
132.8405799056142
 30
0.0
  0
POINT
  5
4BDF
330
4773
100
AcDbEntity
  8
DEFPOINTS
 62
     0
100
AcDbPoint
 10
178.7254275795926
 20
57.84057990561411
 30
0.0
  0
POINT
  5
4BE0
330
4773
100
AcDbEntity
  8
DEFPOINTS
 62
     0
100
AcDbPoint
 10
142.0793315802635
 20
57.84057990561413
 30
0.0
  0
ENDBLK
  5
477E
330
4773
100
AcDbEntity
  8
0
100
AcDbBlockEnd
  0
BLOCK
  5
478A
330
4780
100
AcDbEntity
  8
0
100
AcDbBlockBegin
  2
*D11
 70
     1
 10
0.0
 20
0.0
 30
0.0
  3
*D11
  1

  0
LINE
  5
4BB4
330
4780
100
AcDbEntity
  8
DIM
100
AcDbLine
 10
166.2973189678998
 20
108.207784872687
 30
0.0
 11
166.2973189678998
 21
148.598694479257
 31
0.0
  0
LINE
  5
4BB5
330
4780
100
AcDbEntity
  8
DIM
100
AcDbLine
 10
249.2973189678998
 20
131.4124712939219
 30
0.0
 11
249.2973189678998
 21
148.598694479257
 31
0.0
  0
LINE
  5
4BB6
330
4780
100
AcDbEntity
  8
DIM
100
AcDbLine
 10
169.2973189678998
 20
146.598694479257
 30
0.0
 11
246.2973189678998
 21
146.598694479257
 31
0.0
  0
SOLID
  5
4BB7
330
4780
100
AcDbEntity
  8
DIM
100
AcDbTrace
 10
169.2973189678998
 20
147.098694479257
 30
0.0
 11
169.2973189678998
 21
146.098694479257
 31
0.0
 12
166.2973189678998
 22
146.598694479257
 32
0.0
 13
166.2973189678998
 23
146.598694479257
 33
0.0
  0
SOLID
  5
4BB8
330
4780
100
AcDbEntity
  8
DIM
100
AcDbTrace
 10
246.2973189678998
 20
147.098694479257
 30
0.0
 11
246.2973189678998
 21
146.098694479257
 31
0.0
 12
249.2973189678998
 22
146.598694479257
 32
0.0
 13
249.2973189678998
 23
146.598694479257
 33
0.0
  0
MTEXT
  5
4BB9
330
4780
100
AcDbEntity
  8
DIM
100
AcDbMText
 10
207.7973189678998
 20
149.098694479257
 30
0.0
 40
3.0
 41
0.0
 71
     5
 72
     1
  1
\A1;83
  7
CHINESET
1001
ACAD
1000
MTEXTBEGIN
1070
    73
1070
     1
1070
    44
1040
1.0
1070
    74
1070
     0
1000
MTEXTEND
  0
POINT
  5
4BBA
330
4780
100
AcDbEntity
  8
DEFPOINTS
 62
     0
100
AcDbPoint
 10
166.2973189678998
 20
105.207784872687
 30
0.0
  0
POINT
  5
4BBB
330
4780
100
AcDbEntity
  8
DEFPOINTS
 62
     0
100
AcDbPoint
 10
249.2973189678998
 20
128.4124712939219
 30
0.0
  0
POINT
  5
4BBC
330
4780
100
AcDbEntity
  8
DEFPOINTS
 62
     0
100
AcDbPoint
 10
249.2973189678998
 20
146.598694479257
 30
0.0
  0
ENDBLK
  5
478B
330
4780
100
AcDbEntity
  8
0
100
AcDbBlockEnd
  0
BLOCK
  5
47B2
330
47A8
100
AcDbEntity
  8
0
100
AcDbBlockBegin
  2
*D12
 70
     1
 10
0.0
 20
0.0
 30
0.0
  3
*D12
  1

  0
LINE
  5
4BF5
330
47A8
100
AcDbEntity
  8
DIM
100
AcDbLine
 10
220.2973189679001
 20
84.80402897033874
 30
0.0
 11
220.2973189679001
 21
41.30695876400413
 31
0.0
  0
LINE
  5
4BF6
330
47A8
100
AcDbEntity
  8
DIM
100
AcDbLine
 10
203.2973189679
 20
84.80402897033874
 30
0.0
 11
203.2973189679
 21
41.30695876400413
 31
0.0
  0
LINE
  5
4BF7
330
47A8
100
AcDbEntity
  8
DIM
100
AcDbLine
 10
217.2973189679002
 20
43.30695876400413
 30
0.0
 11
206.2973189679
 21
43.30695876400413
 31
0.0
  0
SOLID
  5
4BF8
330
47A8
100
AcDbEntity
  8
DIM
100
AcDbTrace
 10
217.2973189679002
 20
43.80695876400413
 30
0.0
 11
217.2973189679002
 21
42.80695876400414
 31
0.0
 12
220.2973189679001
 22
43.30695876400413
 32
0.0
 13
220.2973189679001
 23
43.30695876400413
 33
0.0
  0
SOLID
  5
4BF9
330
47A8
100
AcDbEntity
  8
DIM
100
AcDbTrace
 10
206.2973189679
 20
43.80695876400413
 30
0.0
 11
206.2973189679
 21
42.80695876400414
 31
0.0
 12
203.2973189679
 22
43.30695876400413
 32
0.0
 13
203.2973189679
 23
43.30695876400413
 33
0.0
  0
MTEXT
  5
4BFA
330
47A8
100
AcDbEntity
  8
DIM
100
AcDbMText
 10
211.7973189679001
 20
45.80695876400413
 30
0.0
 40
3.0
 41
0.0
 71
     5
 72
     1
  1
\A1;17
  7
CHINESET
1001
ACAD
1000
MTEXTBEGIN
1070
    73
1070
     1
1070
    44
1040
1.0
1070
    74
1070
     0
1000
MTEXTEND
  0
POINT
  5
4BFB
330
47A8
100
AcDbEntity
  8
DEFPOINTS
 62
     0
100
AcDbPoint
 10
220.2973189679001
 20
87.80402897033875
 30
0.0
  0
POINT
  5
4BFC
330
47A8
100
AcDbEntity
  8
DEFPOINTS
 62
     0
100
AcDbPoint
 10
203.2973189679
 20
87.80402897033875
 30
0.0
  0
POINT
  5
4BFD
330
47A8
100
AcDbEntity
  8
DEFPOINTS
 62
     0
100
AcDbPoint
 10
203.2973189679
 20
43.30695876400413
 30
0.0
  0
ENDBLK
  5
47B3
330
47A8
100
AcDbEntity
  8
0
100
AcDbBlockEnd
  0
BLOCK
  5
496D
330
4963
100
AcDbEntity
  8
0
100
AcDbBlockBegin
  2
*D13
 70
     1
 10
0.0
 20
0.0
 30
0.0
  3
*D13
  1

  0
LINE
  5
4B19
330
4963
100
AcDbEntity
  8
DIM
100
AcDbLine
 10
70.19213456137709
 20
317.9408739168582
 30
0.0
 11
70.19213456137709
 21
335.3646460006803
 31
0.0
  0
LINE
  5
4B1A
330
4963
100
AcDbEntity
  8
DIM
100
AcDbLine
 10
37.69213456137709
 20
317.9408739168582
 30
0.0
 11
37.69213456137709
 21
335.3646460006803
 31
0.0
  0
LINE
  5
4B1B
330
4963
100
AcDbEntity
  8
DIM
100
AcDbLine
 10
67.19213456137708
 20
333.3646460006803
 30
0.0
 11
40.69213456137709
 21
333.3646460006803
 31
0.0
  0
SOLID
  5
4B1C
330
4963
100
AcDbEntity
  8
DIM
100
AcDbTrace
 10
67.19213456137708
 20
333.8646460006803
 30
0.0
 11
67.19213456137708
 21
332.8646460006802
 31
0.0
 12
70.19213456137709
 22
333.3646460006803
 32
0.0
 13
70.19213456137709
 23
333.3646460006803
 33
0.0
  0
SOLID
  5
4B1D
330
4963
100
AcDbEntity
  8
DIM
100
AcDbTrace
 10
40.69213456137709
 20
333.8646460006803
 30
0.0
 11
40.69213456137709
 21
332.8646460006802
 31
0.0
 12
37.69213456137709
 22
333.3646460006803
 32
0.0
 13
37.69213456137709
 23
333.3646460006803
 33
0.0
  0
MTEXT
  5
4B1E
330
4963
100
AcDbEntity
  8
DIM
100
AcDbMText
 10
53.94213456137709
 20
335.8646460006803
 30
0.0
 40
3.0
 41
0.0
 71
     5
 72
     1
  1
\A1;32.5
  7
CHINESET
1001
ACAD
1000
MTEXTBEGIN
1070
    73
1070
     1
1070
    44
1040
1.0
1070
    74
1070
     0
1000
MTEXTEND
  0
POINT
  5
4B1F
330
4963
100
AcDbEntity
  8
DEFPOINTS
 62
     0
100
AcDbPoint
 10
70.19213456137709
 20
314.9408739168582
 30
0.0
  0
POINT
  5
4B20
330
4963
100
AcDbEntity
  8
DEFPOINTS
 62
     0
100
AcDbPoint
 10
37.69213456137709
 20
314.9408739168582
 30
0.0
  0
POINT
  5
4B21
330
4963
100
AcDbEntity
  8
DEFPOINTS
 62
     0
100
AcDbPoint
 10
37.69213456137709
 20
333.3646460006803
 30
0.0
  0
ENDBLK
  5
496E
330
4963
100
AcDbEntity
  8
0
100
AcDbBlockEnd
  0
BLOCK
  5
4979
330
496F
100
AcDbEntity
  8
0
100
AcDbBlockBegin
  2
*D14
 70
     1
 10
0.0
 20
0.0
 30
0.0
  3
*D14
  1

  0
LINE
  5
4B4F
330
496F
100
AcDbEntity
  8
DIM
100
AcDbLine
 10
48.69213456137709
 20
287.5482696001673
 30
0.0
 11
48.69213456137709
 21
326.148570926625
 31
0.0
  0
LINE
  5
4B50
330
496F
100
AcDbEntity
  8
DIM
100
AcDbLine
 10
37.69213456137709
 20
317.9408739168582
 30
0.0
 11
37.69213456137709
 21
326.148570926625
 31
0.0
  0
LINE
  5
4B51
330
496F
100
AcDbEntity
  8
DIM
100
AcDbLine
 10
45.69213456137709
 20
324.148570926625
 30
0.0
 11
40.69213456137709
 21
324.148570926625
 31
0.0
  0
SOLID
  5
4B52
330
496F
100
AcDbEntity
  8
DIM
100
AcDbTrace
 10
45.69213456137709
 20
324.648570926625
 30
0.0
 11
45.69213456137709
 21
323.648570926625
 31
0.0
 12
48.69213456137709
 22
324.148570926625
 32
0.0
 13
48.69213456137709
 23
324.148570926625
 33
0.0
  0
SOLID
  5
4B53
330
496F
100
AcDbEntity
  8
DIM
100
AcDbTrace
 10
40.69213456137709
 20
324.648570926625
 30
0.0
 11
40.69213456137709
 21
323.648570926625
 31
0.0
 12
37.69213456137709
 22
324.148570926625
 32
0.0
 13
37.69213456137709
 23
324.148570926625
 33
0.0
  0
MTEXT
  5
4B54
330
496F
100
AcDbEntity
  8
DIM
100
AcDbMText
 10
43.19213456137709
 20
326.648570926625
 30
0.0
 40
3.0
 41
0.0
 71
     5
 72
     1
  1
\A1;11
  7
CHINESET
1001
ACAD
1000
MTEXTBEGIN
1070
    73
1070
     1
1070
    44
1040
1.0
1070
    74
1070
     0
1000
MTEXTEND
  0
POINT
  5
4B55
330
496F
100
AcDbEntity
  8
DEFPOINTS
 62
     0
100
AcDbPoint
 10
48.69213456137709
 20
284.5482696001673
 30
0.0
  0
POINT
  5
4B56
330
496F
100
AcDbEntity
  8
DEFPOINTS
 62
     0
100
AcDbPoint
 10
37.69213456137709
 20
314.9408739168582
 30
0.0
  0
POINT
  5
4B57
330
496F
100
AcDbEntity
  8
DEFPOINTS
 62
     0
100
AcDbPoint
 10
37.69213456137709
 20
324.148570926625
 30
0.0
  0
ENDBLK
  5
497A
330
496F
100
AcDbEntity
  8
0
100
AcDbBlockEnd
  0
BLOCK
  5
4985
330
497B
100
AcDbEntity
  8
0
100
AcDbBlockBegin
  2
*D15
 70
     1
 10
0.0
 20
0.0
 30
0.0
  3
*D15
  1

  0
LINE
  5
4B3D
330
497B
100
AcDbEntity
  8
DIM
100
AcDbLine
 10
59.19213456137708
 20
287.5482696001673
 30
0.0
 11
59.19213456137708
 21
326.148570926625
 31
0.0
  0
LINE
  5
4B3E
330
497B
100
AcDbEntity
  8
DIM
100
AcDbLine
 10
70.19213456137709
 20
317.9408739168582
 30
0.0
 11
70.19213456137709
 21
326.148570926625
 31
0.0
  0
LINE
  5
4B3F
330
497B
100
AcDbEntity
  8
DIM
100
AcDbLine
 10
62.19213456137708
 20
324.148570926625
 30
0.0
 11
67.19213456137708
 21
324.148570926625
 31
0.0
  0
SOLID
  5
4B40
330
497B
100
AcDbEntity
  8
DIM
100
AcDbTrace
 10
62.19213456137708
 20
324.648570926625
 30
0.0
 11
62.19213456137708
 21
323.648570926625
 31
0.0
 12
59.19213456137708
 22
324.148570926625
 32
0.0
 13
59.19213456137708
 23
324.148570926625
 33
0.0
  0
SOLID
  5
4B41
330
497B
100
AcDbEntity
  8
DIM
100
AcDbTrace
 10
67.19213456137708
 20
324.648570926625
 30
0.0
 11
67.19213456137708
 21
323.648570926625
 31
0.0
 12
70.19213456137709
 22
324.148570926625
 32
0.0
 13
70.19213456137709
 23
324.148570926625
 33
0.0
  0
MTEXT
  5
4B42
330
497B
100
AcDbEntity
  8
DIM
100
AcDbMText
 10
64.69213456137708
 20
326.648570926625
 30
0.0
 40
3.0
 41
0.0
 71
     5
 72
     1
  1
\A1;11
  7
CHINESET
1001
ACAD
1000
MTEXTBEGIN
1070
    73
1070
     1
1070
    44
1040
1.0
1070
    74
1070
     0
1000
MTEXTEND
  0
POINT
  5
4B43
330
497B
100
AcDbEntity
  8
DEFPOINTS
 62
     0
100
AcDbPoint
 10
59.19213456137708
 20
284.5482696001673
 30
0.0
  0
POINT
  5
4B44
330
497B
100
AcDbEntity
  8
DEFPOINTS
 62
     0
100
AcDbPoint
 10
70.19213456137709
 20
314.9408739168582
 30
0.0
  0
POINT
  5
4B45
330
497B
100
AcDbEntity
  8
DEFPOINTS
 62
     0
100
AcDbPoint
 10
70.19213456137709
 20
324.148570926625
 30
0.0
  0
ENDBLK
  5
4986
330
497B
100
AcDbEntity
  8
0
100
AcDbBlockEnd
  0
BLOCK
  5
4991
330
4987
100
AcDbEntity
  8
0
100
AcDbBlockBegin
  2
*D16
 70
     1
 10
0.0
 20
0.0
 30
0.0
  3
*D16
  1

  0
LINE
  5
4B34
330
4987
100
AcDbEntity
  8
DIM
100
AcDbLine
 10
70.19213456137709
 20
317.9408739168582
 30
0.0
 11
70.19213456137709
 21
335.3646460006803
 31
0.0
  0
LINE
  5
4B35
330
4987
100
AcDbEntity
  8
DIM
100
AcDbLine
 10
106.192134561377
 20
288.2408739168585
 30
0.0
 11
106.192134561377
 21
335.3646460006803
 31
0.0
  0
LINE
  5
4B36
330
4987
100
AcDbEntity
  8
DIM
100
AcDbLine
 10
73.19213456137709
 20
333.3646460006803
 30
0.0
 11
103.192134561377
 21
333.3646460006803
 31
0.0
  0
SOLID
  5
4B37
330
4987
100
AcDbEntity
  8
DIM
100
AcDbTrace
 10
73.19213456137709
 20
333.8646460006803
 30
0.0
 11
73.19213456137709
 21
332.8646460006802
 31
0.0
 12
70.19213456137709
 22
333.3646460006803
 32
0.0
 13
70.19213456137709
 23
333.3646460006803
 33
0.0
  0
SOLID
  5
4B38
330
4987
100
AcDbEntity
  8
DIM
100
AcDbTrace
 10
103.192134561377
 20
333.8646460006803
 30
0.0
 11
103.192134561377
 21
332.8646460006802
 31
0.0
 12
106.192134561377
 22
333.3646460006803
 32
0.0
 13
106.192134561377
 23
333.3646460006803
 33
0.0
  0
MTEXT
  5
4B39
330
4987
100
AcDbEntity
  8
DIM
100
AcDbMText
 10
88.19213456137708
 20
335.8646460006803
 30
0.0
 40
3.0
 41
0.0
 71
     5
 72
     1
  1
\A1;36
  7
CHINESET
1001
ACAD
1000
MTEXTBEGIN
1070
    73
1070
     1
1070
    44
1040
1.0
1070
    74
1070
     0
1000
MTEXTEND
  0
POINT
  5
4B3A
330
4987
100
AcDbEntity
  8
DEFPOINTS
 62
     0
100
AcDbPoint
 10
70.19213456137709
 20
314.9408739168582
 30
0.0
  0
POINT
  5
4B3B
330
4987
100
AcDbEntity
  8
DEFPOINTS
 62
     0
100
AcDbPoint
 10
106.192134561377
 20
285.2408739168585
 30
0.0
  0
POINT
  5
4B3C
330
4987
100
AcDbEntity
  8
DEFPOINTS
 62
     0
100
AcDbPoint
 10
106.192134561377
 20
333.3646460006803
 30
0.0
  0
ENDBLK
  5
4992
330
4987
100
AcDbEntity
  8
0
100
AcDbBlockEnd
  0
BLOCK
  5
499D
330
4993
100
AcDbEntity
  8
0
100
AcDbBlockBegin
  2
*D17
 70
     1
 10
0.0
 20
0.0
 30
0.0
  3
*D17
  1

  0
LINE
  5
4B22
330
4993
100
AcDbEntity
  8
DIM
100
AcDbLine
 10
106.192134561377
 20
288.2408739168585
 30
0.0
 11
106.192134561377
 21
344.4828473627755
 31
0.0
  0
LINE
  5
4B23
330
4993
100
AcDbEntity
  8
DIM
100
AcDbLine
 10
37.69213456137709
 20
317.9408739168582
 30
0.0
 11
37.69213456137709
 21
344.4828473627755
 31
0.0
  0
LINE
  5
4B24
330
4993
100
AcDbEntity
  8
DIM
100
AcDbLine
 10
103.192134561377
 20
342.4828473627755
 30
0.0
 11
40.69213456137709
 21
342.4828473627755
 31
0.0
  0
SOLID
  5
4B25
330
4993
100
AcDbEntity
  8
DIM
100
AcDbTrace
 10
103.192134561377
 20
342.9828473627755
 30
0.0
 11
103.192134561377
 21
341.9828473627755
 31
0.0
 12
106.192134561377
 22
342.4828473627755
 32
0.0
 13
106.192134561377
 23
342.4828473627755
 33
0.0
  0
SOLID
  5
4B26
330
4993
100
AcDbEntity
  8
DIM
100
AcDbTrace
 10
40.69213456137709
 20
342.9828473627755
 30
0.0
 11
40.69213456137709
 21
341.9828473627755
 31
0.0
 12
37.69213456137709
 22
342.4828473627755
 32
0.0
 13
37.69213456137709
 23
342.4828473627755
 33
0.0
  0
MTEXT
  5
4B27
330
4993
100
AcDbEntity
  8
DIM
100
AcDbMText
 10
71.94213456137709
 20
344.9828473627755
 30
0.0
 40
3.0
 41
0.0
 71
     5
 72
     1
  1
\A1;68.5
  7
CHINESET
1001
ACAD
1000
MTEXTBEGIN
1070
    73
1070
     1
1070
    44
1040
1.0
1070
    74
1070
     0
1000
MTEXTEND
  0
POINT
  5
4B28
330
4993
100
AcDbEntity
  8
DEFPOINTS
 62
     0
100
AcDbPoint
 10
106.192134561377
 20
285.2408739168585
 30
0.0
  0
POINT
  5
4B29
330
4993
100
AcDbEntity
  8
DEFPOINTS
 62
     0
100
AcDbPoint
 10
37.69213456137709
 20
314.9408739168582
 30
0.0
  0
POINT
  5
4B2A
330
4993
100
AcDbEntity
  8
DEFPOINTS
 62
     0
100
AcDbPoint
 10
37.69213456137709
 20
342.4828473627755
 30
0.0
  0
ENDBLK
  5
499E
330
4993
100
AcDbEntity
  8
0
100
AcDbBlockEnd
  0
BLOCK
  5
49AB
330
499F
100
AcDbEntity
  8
0
100
AcDbBlockBegin
  2
*D18
 70
     1
 10
0.0
 20
0.0
 30
0.0
  3
*D18
  1

  0
LINE
  5
4B7C
330
499F
100
AcDbEntity
  8
DIM
100
AcDbLine
 10
74.19213456137708
 20
256.4408739168586
 30
0.0
 11
74.19213456137708
 21
225.8888246757694
 31
0.0
  0
LINE
  5
4B7D
330
499F
100
AcDbEntity
  8
DIM
100
AcDbLine
 10
70.19213456137709
 20
236.9408739168574
 30
0.0
 11
70.19213456137709
 21
225.8888246757694
 31
0.0
  0
LINE
  5
4B7E
330
499F
100
AcDbEntity
  8
DIM
100
AcDbLine
 10
77.19213456137708
 20
227.8888246757694
 30
0.0
 11
80.19213456137709
 21
227.8888246757694
 31
0.0
  0
LINE
  5
4B7F
330
499F
100
AcDbEntity
  8
DIM
100
AcDbLine
 10
67.19213456137708
 20
227.8888246757694
 30
0.0
 11
64.19213456137708
 21
227.8888246757694
 31
0.0
  0
LINE
  5
4B80
330
499F
100
AcDbEntity
  8
DIM
100
AcDbLine
 10
74.19213456137708
 20
227.8888246757694
 30
0.0
 11
70.19213456137709
 21
227.8888246757694
 31
0.0
  0
SOLID
  5
4B81
330
499F
100
AcDbEntity
  8
DIM
100
AcDbTrace
 10
77.19213456137708
 20
228.3888246757693
 30
0.0
 11
77.19213456137708
 21
227.3888246757694
 31
0.0
 12
74.19213456137708
 22
227.8888246757694
 32
0.0
 13
74.19213456137708
 23
227.8888246757694
 33
0.0
  0
SOLID
  5
4B82
330
499F
100
AcDbEntity
  8
DIM
100
AcDbTrace
 10
67.19213456137708
 20
228.3888246757693
 30
0.0
 11
67.19213456137708
 21
227.3888246757694
 31
0.0
 12
70.19213456137709
 22
227.8888246757694
 32
0.0
 13
70.19213456137709
 23
227.8888246757694
 33
0.0
  0
MTEXT
  5
4B83
330
499F
100
AcDbEntity
  8
DIM
100
AcDbMText
 10
72.19213456137708
 20
230.3888246757693
 30
0.0
 40
3.0
 41
0.0
 71
     5
 72
     1
  1
\A1;4
  7
CHINESET
1001
ACAD
1000
MTEXTBEGIN
1070
    73
1070
     1
1070
    44
1040
1.0
1070
    74
1070
     0
1000
MTEXTEND
  0
POINT
  5
4B84
330
499F
100
AcDbEntity
  8
DEFPOINTS
 62
     0
100
AcDbPoint
 10
74.19213456137708
 20
259.4408739168586
 30
0.0
  0
POINT
  5
4B85
330
499F
100
AcDbEntity
  8
DEFPOINTS
 62
     0
100
AcDbPoint
 10
70.19213456137709
 20
239.9408739168574
 30
0.0
  0
POINT
  5
4B86
330
499F
100
AcDbEntity
  8
DEFPOINTS
 62
     0
100
AcDbPoint
 10
70.19213456137709
 20
227.8888246757694
 30
0.0
  0
ENDBLK
  5
49AC
330
499F
100
AcDbEntity
  8
0
100
AcDbBlockEnd
  0
BLOCK
  5
49B7
330
49AD
100
AcDbEntity
  8
0
100
AcDbBlockBegin
  2
*D19
 70
     1
 10
0.0
 20
0.0
 30
0.0
  3
*D19
  1

  0
LINE
  5
4B58
330
49AD
100
AcDbEntity
  8
DIM
100
AcDbLine
 10
77.19213456137708
 20
287.4408739168586
 30
0.0
 11
120.2803412304308
 21
287.4408739168586
 31
0.0
  0
LINE
  5
4B59
330
49AD
100
AcDbEntity
  8
DIM
100
AcDbLine
 10
77.19213456137708
 20
267.4408739168586
 30
0.0
 11
120.2803412304308
 21
267.4408739168586
 31
0.0
  0
LINE
  5
4B5A
330
49AD
100
AcDbEntity
  8
DIM
100
AcDbLine
 10
118.2803412304308
 20
284.4408739168585
 30
0.0
 11
118.2803412304308
 21
270.4408739168586
 31
0.0
  0
SOLID
  5
4B5B
330
49AD
100
AcDbEntity
  8
DIM
100
AcDbTrace
 10
117.7803412304308
 20
284.4408739168585
 30
0.0
 11
118.7803412304308
 21
284.4408739168585
 31
0.0
 12
118.2803412304308
 22
287.4408739168586
 32
0.0
 13
118.2803412304308
 23
287.4408739168586
 33
0.0
  0
SOLID
  5
4B5C
330
49AD
100
AcDbEntity
  8
DIM
100
AcDbTrace
 10
117.7803412304308
 20
270.4408739168586
 30
0.0
 11
118.7803412304308
 21
270.4408739168586
 31
0.0
 12
118.2803412304308
 22
267.4408739168586
 32
0.0
 13
118.2803412304308
 23
267.4408739168586
 33
0.0
  0
MTEXT
  5
4B5D
330
49AD
100
AcDbEntity
  8
DIM
100
AcDbMText
 10
115.7803412304308
 20
277.4408739168586
 30
0.0
 40
3.0
 41
0.0
 71
     5
 72
     1
  1
\A1;%%c20
  7
CHINESET
 11
0.0000000000000001
 21
1.0
 31
0.0
1001
ACAD
1000
MTEXTBEGIN
1070
    73
1070
     1
1070
    44
1040
1.0
1070
    74
1070
     0
1000
MTEXTEND
  0
POINT
  5
4B5E
330
49AD
100
AcDbEntity
  8
DEFPOINTS
 62
     0
100
AcDbPoint
 10
74.19213456137708
 20
287.4408739168586
 30
0.0
  0
POINT
  5
4B5F
330
49AD
100
AcDbEntity
  8
DEFPOINTS
 62
     0
100
AcDbPoint
 10
74.19213456137708
 20
267.4408739168586
 30
0.0
  0
POINT
  5
4B60
330
49AD
100
AcDbEntity
  8
DEFPOINTS
 62
     0
100
AcDbPoint
 10
118.2803412304308
 20
267.4408739168586
 30
0.0
  0
ENDBLK
  5
49B8
330
49AD
100
AcDbEntity
  8
0
100
AcDbBlockEnd
  0
BLOCK
  5
49C3
330
49B9
100
AcDbEntity
  8
0
100
AcDbBlockBegin
  2
*D20
 70
     1
 10
0.0
 20
0.0
 30
0.0
  3
*D20
  1

  0
LINE
  5
4B61
330
49B9
100
AcDbEntity
  8
DIM
100
AcDbLine
 10
75.19213456137709
 20
297.4408739168585
 30
0.0
 11
132.0120100708488
 21
297.4408739168584
 31
0.0
  0
LINE
  5
4B62
330
49B9
100
AcDbEntity
  8
DIM
100
AcDbLine
 10
75.19213456137709
 20
257.4408739168586
 30
0.0
 11
132.0120100708488
 21
257.4408739168585
 31
0.0
  0
LINE
  5
4B63
330
49B9
100
AcDbEntity
  8
DIM
100
AcDbLine
 10
130.0120100708488
 20
294.4408739168585
 30
0.0
 11
130.0120100708488
 21
260.4408739168586
 31
0.0
  0
SOLID
  5
4B64
330
49B9
100
AcDbEntity
  8
DIM
100
AcDbTrace
 10
129.5120100708488
 20
294.4408739168585
 30
0.0
 11
130.5120100708488
 21
294.4408739168585
 31
0.0
 12
130.0120100708488
 22
297.4408739168584
 32
0.0
 13
130.0120100708488
 23
297.4408739168584
 33
0.0
  0
SOLID
  5
4B65
330
49B9
100
AcDbEntity
  8
DIM
100
AcDbTrace
 10
129.5120100708488
 20
260.4408739168586
 30
0.0
 11
130.5120100708488
 21
260.4408739168586
 31
0.0
 12
130.0120100708488
 22
257.4408739168585
 32
0.0
 13
130.0120100708488
 23
257.4408739168585
 33
0.0
  0
MTEXT
  5
4B66
330
49B9
100
AcDbEntity
  8
DIM
100
AcDbMText
 10
127.5120100708488
 20
277.4408739168586
 30
0.0
 40
3.0
 41
0.0
 71
     5
 72
     1
  1
\A1;%%c40
  7
CHINESET
 11
0.0000000000000001
 21
1.0
 31
0.0
1001
ACAD
1000
MTEXTBEGIN
1070
    73
1070
     1
1070
    44
1040
1.0
1070
    74
1070
     0
1000
MTEXTEND
  0
POINT
  5
4B67
330
49B9
100
AcDbEntity
  8
DEFPOINTS
 62
     0
100
AcDbPoint
 10
72.19213456137708
 20
297.4408739168585
 30
0.0
  0
POINT
  5
4B68
330
49B9
100
AcDbEntity
  8
DEFPOINTS
 62
     0
100
AcDbPoint
 10
72.19213456137708
 20
257.4408739168586
 30
0.0
  0
POINT
  5
4B69
330
49B9
100
AcDbEntity
  8
DEFPOINTS
 62
     0
100
AcDbPoint
 10
130.0120100708488
 20
257.4408739168585
 30
0.0
  0
ENDBLK
  5
49C4
330
49B9
100
AcDbEntity
  8
0
100
AcDbBlockEnd
  0
BLOCK
  5
49CF
330
49C5
100
AcDbEntity
  8
0
100
AcDbBlockBegin
  2
*D21
 70
     1
 10
0.0
 20
0.0
 30
0.0
  3
*D21
  1

  0
LINE
  5
4B6A
330
49C5
100
AcDbEntity
  8
DIM
100
AcDbLine
 10
172.1900256471099
 20
307.4408739168585
 30
0.0
 11
153.2549548363771
 21
307.4408739168585
 31
0.0
  0
LINE
  5
4B6B
330
49C5
100
AcDbEntity
  8
DIM
100
AcDbLine
 10
172.1900256471099
 20
247.4408739168584
 30
0.0
 11
153.2549548363771
 21
247.4408739168584
 31
0.0
  0
LINE
  5
4B6C
330
49C5
100
AcDbEntity
  8
DIM
100
AcDbLine
 10
155.2549548363771
 20
304.4408739168584
 30
0.0
 11
155.2549548363771
 21
250.4408739168585
 31
0.0
  0
SOLID
  5
4B6D
330
49C5
100
AcDbEntity
  8
DIM
100
AcDbTrace
 10
154.7549548363771
 20
304.4408739168584
 30
0.0
 11
155.7549548363771
 21
304.4408739168584
 31
0.0
 12
155.2549548363771
 22
307.4408739168585
 32
0.0
 13
155.2549548363771
 23
307.4408739168585
 33
0.0
  0
SOLID
  5
4B6E
330
49C5
100
AcDbEntity
  8
DIM
100
AcDbTrace
 10
154.7549548363771
 20
250.4408739168585
 30
0.0
 11
155.7549548363771
 21
250.4408739168585
 31
0.0
 12
155.2549548363771
 22
247.4408739168584
 32
0.0
 13
155.2549548363771
 23
247.4408739168584
 33
0.0
  0
MTEXT
  5
4B6F
330
49C5
100
AcDbEntity
  8
DIM
100
AcDbMText
 10
152.754954836377
 20
277.4408739168585
 30
0.0
 40
3.0
 41
0.0
 71
     5
 72
     1
  1
\A1;\U+25A160
  7
CHINESET
 11
0.0000000000000001
 21
1.0
 31
0.0
1001
ACAD
1000
MTEXTBEGIN
1070
    73
1070
     1
1070
    44
1040
1.0
1070
    74
1070
     0
1000
MTEXTEND
  0
POINT
  5
4B70
330
49C5
100
AcDbEntity
  8
DEFPOINTS
 62
     0
100
AcDbPoint
 10
175.1900256471099
 20
307.4408739168585
 30
0.0
  0
POINT
  5
4B71
330
49C5
100
AcDbEntity
  8
DEFPOINTS
 62
     0
100
AcDbPoint
 10
175.1900256471099
 20
247.4408739168584
 30
0.0
  0
POINT
  5
4B72
330
49C5
100
AcDbEntity
  8
DEFPOINTS
 62
     0
100
AcDbPoint
 10
155.2549548363771
 20
247.4408739168584
 30
0.0
  0
ENDBLK
  5
49D0
330
49C5
100
AcDbEntity
  8
0
100
AcDbBlockEnd
  0
BLOCK
  5
49DB
330
49D1
100
AcDbEntity
  8
0
100
AcDbBlockBegin
  2
*D22
 70
     1
 10
0.0
 20
0.0
 30
0.0
  3
*D22
  1

  0
LINE
  5
4B73
330
49D1
100
AcDbEntity
  8
DIM
100
AcDbLine
 10
174.7181342588028
 20
314.9408739168585
 30
0.0
 11
139.0720382594735
 21
314.9408739168585
 31
0.0
  0
LINE
  5
4B74
330
49D1
100
AcDbEntity
  8
DIM
100
AcDbLine
 10
174.7181342588025
 20
239.9408739168583
 30
0.0
 11
139.0720382594735
 21
239.9408739168583
 31
0.0
  0
LINE
  5
4B75
330
49D1
100
AcDbEntity
  8
DIM
100
AcDbLine
 10
141.0720382594735
 20
311.9408739168584
 30
0.0
 11
141.0720382594735
 21
242.9408739168583
 31
0.0
  0
SOLID
  5
4B76
330
49D1
100
AcDbEntity
  8
DIM
100
AcDbTrace
 10
140.5720382594735
 20
311.9408739168584
 30
0.0
 11
141.5720382594735
 21
311.9408739168584
 31
0.0
 12
141.0720382594735
 22
314.9408739168585
 32
0.0
 13
141.0720382594735
 23
314.9408739168585
 33
0.0
  0
SOLID
  5
4B77
330
49D1
100
AcDbEntity
  8
DIM
100
AcDbTrace
 10
140.5720382594735
 20
242.9408739168583
 30
0.0
 11
141.5720382594735
 21
242.9408739168583
 31
0.0
 12
141.0720382594735
 22
239.9408739168583
 32
0.0
 13
141.0720382594735
 23
239.9408739168583
 33
0.0
  0
MTEXT
  5
4B78
330
49D1
100
AcDbEntity
  8
DIM
100
AcDbMText
 10
138.5720382594734
 20
277.4408739168584
 30
0.0
 40
3.0
 41
0.0
 71
     5
 72
     1
  1
\A1;75
  7
CHINESET
 11
0.0000000000000001
 21
1.0
 31
0.0
1001
ACAD
1000
MTEXTBEGIN
1070
    73
1070
     1
1070
    44
1040
1.0
1070
    74
1070
     0
1000
MTEXTEND
  0
POINT
  5
4B79
330
49D1
100
AcDbEntity
  8
DEFPOINTS
 62
     0
100
AcDbPoint
 10
177.7181342588028
 20
314.9408739168585
 30
0.0
  0
POINT
  5
4B7A
330
49D1
100
AcDbEntity
  8
DEFPOINTS
 62
     0
100
AcDbPoint
 10
177.7181342588026
 20
239.9408739168583
 30
0.0
  0
POINT
  5
4B7B
330
49D1
100
AcDbEntity
  8
DEFPOINTS
 62
     0
100
AcDbPoint
 10
141.0720382594735
 20
239.9408739168583
 30
0.0
  0
ENDBLK
  5
49DC
330
49D1
100
AcDbEntity
  8
0
100
AcDbBlockEnd
  0
BLOCK
  5
49E7
330
49DD
100
AcDbEntity
  8
0
100
AcDbBlockBegin
  2
*D23
 70
     1
 10
0.0
 20
0.0
 30
0.0
  3
*D23
  1

  0
LINE
  5
4B46
330
49DD
100
AcDbEntity
  8
DIM
100
AcDbLine
 10
165.2900256471098
 20
290.3080788839313
 30
0.0
 11
165.2900256471098
 21
330.6989884905013
 31
0.0
  0
LINE
  5
4B47
330
49DD
100
AcDbEntity
  8
DIM
100
AcDbLine
 10
248.2900256471098
 20
313.5127653051661
 30
0.0
 11
248.2900256471098
 21
330.6989884905013
 31
0.0
  0
LINE
  5
4B48
330
49DD
100
AcDbEntity
  8
DIM
100
AcDbLine
 10
168.2900256471098
 20
328.6989884905013
 30
0.0
 11
245.2900256471098
 21
328.6989884905013
 31
0.0
  0
SOLID
  5
4B49
330
49DD
100
AcDbEntity
  8
DIM
100
AcDbTrace
 10
168.2900256471098
 20
329.1989884905013
 30
0.0
 11
168.2900256471098
 21
328.1989884905013
 31
0.0
 12
165.2900256471098
 22
328.6989884905013
 32
0.0
 13
165.2900256471098
 23
328.6989884905013
 33
0.0
  0
SOLID
  5
4B4A
330
49DD
100
AcDbEntity
  8
DIM
100
AcDbTrace
 10
245.2900256471098
 20
329.1989884905013
 30
0.0
 11
245.2900256471098
 21
328.1989884905013
 31
0.0
 12
248.2900256471098
 22
328.6989884905013
 32
0.0
 13
248.2900256471098
 23
328.6989884905013
 33
0.0
  0
MTEXT
  5
4B4B
330
49DD
100
AcDbEntity
  8
DIM
100
AcDbMText
 10
206.7900256471097
 20
331.1989884905013
 30
0.0
 40
3.0
 41
0.0
 71
     5
 72
     1
  1
\A1;83
  7
CHINESET
1001
ACAD
1000
MTEXTBEGIN
1070
    73
1070
     1
1070
    44
1040
1.0
1070
    74
1070
     0
1000
MTEXTEND
  0
POINT
  5
4B4C
330
49DD
100
AcDbEntity
  8
DEFPOINTS
 62
     0
100
AcDbPoint
 10
165.2900256471098
 20
287.3080788839313
 30
0.0
  0
POINT
  5
4B4D
330
49DD
100
AcDbEntity
  8
DEFPOINTS
 62
     0
100
AcDbPoint
 10
248.2900256471098
 20
310.5127653051661
 30
0.0
  0
POINT
  5
4B4E
330
49DD
100
AcDbEntity
  8
DEFPOINTS
 62
     0
100
AcDbPoint
 10
248.2900256471098
 20
328.6989884905013
 30
0.0
  0
ENDBLK
  5
49E8
330
49DD
100
AcDbEntity
  8
0
100
AcDbBlockEnd
  0
BLOCK
  5
4AD0
330
4AC6
100
AcDbEntity
  8
0
100
AcDbBlockBegin
  2
*D24
 70
     1
 10
0.0
 20
0.0
 30
0.0
  3
*D24
  1

  0
LINE
  5
4B2B
330
4AC6
100
AcDbEntity
  8
DIM
100
AcDbLine
 10
106.192134561377
 20
288.2408739168585
 30
0.0
 11
106.192134561377
 21
326.148570926625
 31
0.0
  0
LINE
  5
4B2C
330
4AC6
100
AcDbEntity
  8
DIM
100
AcDbLine
 10
81.19213456137709
 20
289.4408739168585
 30
0.0
 11
81.19213456137709
 21
326.148570926625
 31
0.0
  0
LINE
  5
4B2D
330
4AC6
100
AcDbEntity
  8
DIM
100
AcDbLine
 10
103.192134561377
 20
324.148570926625
 30
0.0
 11
84.19213456137709
 21
324.148570926625
 31
0.0
  0
SOLID
  5
4B2E
330
4AC6
100
AcDbEntity
  8
DIM
100
AcDbTrace
 10
103.192134561377
 20
324.648570926625
 30
0.0
 11
103.192134561377
 21
323.648570926625
 31
0.0
 12
106.192134561377
 22
324.148570926625
 32
0.0
 13
106.192134561377
 23
324.148570926625
 33
0.0
  0
SOLID
  5
4B2F
330
4AC6
100
AcDbEntity
  8
DIM
100
AcDbTrace
 10
84.19213456137709
 20
324.648570926625
 30
0.0
 11
84.19213456137709
 21
323.648570926625
 31
0.0
 12
81.19213456137709
 22
324.148570926625
 32
0.0
 13
81.19213456137709
 23
324.148570926625
 33
0.0
  0
MTEXT
  5
4B30
330
4AC6
100
AcDbEntity
  8
DIM
100
AcDbMText
 10
93.69213456137709
 20
326.648570926625
 30
0.0
 40
3.0
 41
0.0
 71
     5
 72
     1
  1
\A1;25
  7
CHINESET
1001
ACAD
1000
MTEXTBEGIN
1070
    73
1070
     1
1070
    44
1040
1.0
1070
    74
1070
     0
1000
MTEXTEND
  0
POINT
  5
4B31
330
4AC6
100
AcDbEntity
  8
DEFPOINTS
 62
     0
100
AcDbPoint
 10
106.192134561377
 20
285.2408739168585
 30
0.0
  0
POINT
  5
4B32
330
4AC6
100
AcDbEntity
  8
DEFPOINTS
 62
     0
100
AcDbPoint
 10
81.19213456137709
 20
286.4408739168585
 30
0.0
  0
POINT
  5
4B33
330
4AC6
100
AcDbEntity
  8
DEFPOINTS
 62
     0
100
AcDbPoint
 10
81.19213456137709
 20
324.148570926625
 30
0.0
  0
ENDBLK
  5
4AD1
330
4AC6
100
AcDbEntity
  8
0
100
AcDbBlockEnd
  0
BLOCK
  5
4B08
330
4AFE
100
AcDbEntity
  8
0
100
AcDbBlockBegin
  2
*D25
 70
     1
 10
0.0
 20
0.0
 30
0.0
  3
*D25
  1

  0
LINE
  5
4B87
330
4AFE
100
AcDbEntity
  8
DIM
100
AcDbLine
 10
219.29002564711
 20
266.9043229815829
 30
0.0
 11
219.29002564711
 21
222.9590091531937
 31
0.0
  0
LINE
  5
4B88
330
4AFE
100
AcDbEntity
  8
DIM
100
AcDbLine
 10
202.29002564711
 20
266.9043229815829
 30
0.0
 11
202.29002564711
 21
222.9590091531937
 31
0.0
  0
LINE
  5
4B89
330
4AFE
100
AcDbEntity
  8
DIM
100
AcDbLine
 10
216.29002564711
 20
224.9590091531937
 30
0.0
 11
205.29002564711
 21
224.9590091531937
 31
0.0
  0
SOLID
  5
4B8A
330
4AFE
100
AcDbEntity
  8
DIM
100
AcDbTrace
 10
216.29002564711
 20
225.4590091531937
 30
0.0
 11
216.29002564711
 21
224.4590091531937
 31
0.0
 12
219.29002564711
 22
224.9590091531937
 32
0.0
 13
219.29002564711
 23
224.9590091531937
 33
0.0
  0
SOLID
  5
4B8B
330
4AFE
100
AcDbEntity
  8
DIM
100
AcDbTrace
 10
205.29002564711
 20
225.4590091531937
 30
0.0
 11
205.29002564711
 21
224.4590091531937
 31
0.0
 12
202.29002564711
 22
224.9590091531937
 32
0.0
 13
202.29002564711
 23
224.9590091531937
 33
0.0
  0
MTEXT
  5
4B8C
330
4AFE
100
AcDbEntity
  8
DIM
100
AcDbMText
 10
210.79002564711
 20
227.4590091531937
 30
0.0
 40
3.0
 41
0.0
 71
     5
 72
     1
  1
\A1;17
  7
CHINESET
1001
ACAD
1000
MTEXTBEGIN
1070
    73
1070
     1
1070
    44
1040
1.0
1070
    74
1070
     0
1000
MTEXTEND
  0
POINT
  5
4B8D
330
4AFE
100
AcDbEntity
  8
DEFPOINTS
 62
     0
100
AcDbPoint
 10
219.29002564711
 20
269.9043229815829
 30
0.0
  0
POINT
  5
4B8E
330
4AFE
100
AcDbEntity
  8
DEFPOINTS
 62
     0
100
AcDbPoint
 10
202.29002564711
 20
269.9043229815829
 30
0.0
  0
POINT
  5
4B8F
330
4AFE
100
AcDbEntity
  8
DEFPOINTS
 62
     0
100
AcDbPoint
 10
202.29002564711
 20
224.9590091531937
 30
0.0
  0
ENDBLK
  5
4B09
330
4AFE
100
AcDbEntity
  8
0
100
AcDbBlockEnd
  0
BLOCK
  5
4DB0
330
4DAE
100
AcDbEntity
  8
0
100
AcDbBlockBegin
  2
GENAXEH
 70
     0
 10
0.0
 20
0.0
 30
0.0
  3
GENAXEH
  1

  0
LINE
  5
4DAF
330
4DAE
100
AcDbEntity
  8
0
100
AcDbLine
 10
-1.0
 20
0.0
 30
0.0
 11
1.0
 21
0.0
 31
0.0
  0
ENDBLK
  5
4DB1
330
4DAE
100
AcDbEntity
  8
0
100
AcDbBlockEnd
  0
ENDSEC
  0
SECTION
  2
ENTITIES
  0
MTEXT
  5
A9
330
1F
100
AcDbEntity
  8
0
100
AcDbMText
 10
-112.8858816556398
 20
179.1757813154577
 30
0.0
 40
3.0
 41
0.0
 71
     4
 72
     1
  1

1001
ACAD
1000
MTEXTBEGIN
1070
    73
1070
     1
1070
    44
1040
1.0
1070
    74
1070
     0
1000
MTEXTEND
  0
MTEXT
  5
AA
330
1F
100
AcDbEntity
  8
0
100
AcDbMText
 10
-176.2667196970538
 20
189.9084924046809
 30
0.0
 40
1.799999999999999
 41
0.0
 71
     9
 72
     1
  1

1001
ACAD
1000
MTEXTBEGIN
1070
    73
1070
     1
1070
    44
1040
1.0
1070
    74
1070
     0
1000
MTEXTEND
  0
MTEXT
  5
AB
330
1F
100
AcDbEntity
  8
0
100
AcDbMText
 10
82.64233389287733
 20
174.944592339129
 30
0.0
 40
3.0
 41
0.0
 71
     4
 72
     1
  1

1001
ACAD
1000
MTEXTBEGIN
1070
    73
1070
     1
1070
    44
1040
1.0
1070
    74
1070
     0
1000
MTEXTEND
  0
MTEXT
  5
AC
330
1F
100
AcDbEntity
  8
0
100
AcDbMText
 10
19.26149585146331
 20
185.6773034283523
 30
0.0
 40
1.799999999999999
 41
0.0
 71
     9
 72
     1
  1

1001
ACAD
1000
MTEXTBEGIN
1070
    73
1070
     1
1070
    44
1040
1.0
1070
    74
1070
     0
1000
MTEXTEND
  0
MTEXT
  5
B1
330
1F
100
AcDbEntity
  8
0
100
AcDbMText
 10
-211.0828086697474
 20
93.72900974557683
 30
0.0
 40
3.0
 41
59.51
 71
     1
 72
     1
  1

  7
CHINESET
1001
ACAD
1000
MTEXTBEGIN
1070
    73
1070
     1
1070
    44
1040
1.0
1070
    74
1070
     0
1000
MTEXTEND
  0
MTEXT
  5
B2
330
1F
100
AcDbEntity
  8
0
100
AcDbMText
 10
-179.9099428209695
 20
86.93407807798587
 30
0.0
 40
3.0
 41
38.26
 71
     1
 72
     1
  1

  7
CHINESET
1001
ACAD
1000
MTEXTBEGIN
1070
    73
1070
     1
1070
    44
1040
1.0
1070
    74
1070
     0
1000
MTEXTEND
  0
MTEXT
  5
10B3
330
1F
100
AcDbEntity
  8
0
100
AcDbMText
 10
81.67014302795905
 20
125.5492500028813
 30
0.0
 40
3.0
 41
0.0
 71
     7
 72
     1
  1

  7
CHINESET
1001
ACAD
1000
MTEXTBEGIN
1070
    73
1070
     1
1070
    44
1040
1.0
1070
    74
1070
     0
1000
MTEXTEND
  0
LINE
  5
17B4
330
1F
100
AcDbEntity
  8
0
 62
     4
100
AcDbLine
 10
271.6277841472794
 20
34.87998036599759
 30
0.0
 11
271.6277841472794
 21
388.8450254330407
 31
0.0
  0
LINE
  5
17B5
330
1F
100
AcDbEntity
  8
0
 62
     4
100
AcDbLine
 10
-0.4706550713615343
 20
34.87998036599757
 30
0.0
 11
-0.4706550713615343
 21
388.8450254330407
 31
0.0
  0
TEXT
  5
17BD
330
1F
100
AcDbEntity
  8
LOGO
  6
CONTINUOUS
 62
     7
100
AcDbText
 10
163.6982513253909
 20
23.0340389832335
 30
0.0
 40
5.889576606464092
  1
11/12
  7
CHINESET
 72
     1
 11
175.477404538319
 21
25.97882728646554
 31
0.0
100
AcDbText
 73
     2
  0
TEXT
  5
17BE
330
1F
100
AcDbEntity
  8
LOGO
 62
     6
100
AcDbText
 10
166.1031617730304
 20
9.086417306821752
 30
0.0
 40
4.711661285171273
  1
作動型式
  7
CHINESET
 72
     4
 11
175.477404538319
 21
11.32167394014119
 31
0.0
100
AcDbText
  0
LINE
  5
17BF
330
1F
100
AcDbEntity
  8
0
 62
     4
100
AcDbLine
 10
271.6277841472794
 20
211.8625028995191
 30
0.0
 11
-0.4706550713615343
 21
211.8625028995192
 31
0.0
  0
LINE
  5
17C0
330
1F
100
AcDbEntity
  8
0
 62
     4
100
AcDbLine
 10
271.6277841472794
 20
34.87998036599757
 30
0.0
 11
-0.4706550713615343
 21
34.87998036599757
 31
0.0
  0
LINE
  5
17C1
330
1F
100
AcDbEntity
  8
LOGO
 62
     1
100
AcDbLine
 10
271.6277841472794
 20
-0.4574792727869835
 30
0.0
 11
-0.4706550713615343
 21
-0.4574792727869835
 31
0.0
  0
LINE
  5
17C2
330
1F
100
AcDbEntity
  8
LOGO
 62
     1
100
AcDbLine
 10
271.6277841472794
 20
34.87998036599757
 30
0.0
 11
-0.4706550713615343
 21
34.87998036599757
 31
0.0
  0
TEXT
  5
17C3
330
1F
100
AcDbEntity
  8
LOGO
  6
CONTINUOUS
 62
     6
100
AcDbText
 10
162.8568832387531
 20
4.450501232599758
 30
0.0
 40
2.944788303232046
  1
Acting type
  7
CHINESET
 72
     4
 11
175.477404538319
 21
5.432097333677106
 31
0.0
100
AcDbText
  0
LINE
  5
17C4
330
1F
100
AcDbEntity
  8
LOGO
 62
     6
100
AcDbLine
 10
188.4671036928595
 20
20.74499651048374
 30
0.0
 11
162.4877053837787
 21
20.74499651048374
 31
0.0
  0
LINE
  5
17C5
330
1F
100
AcDbEntity
  8
LOGO
 62
     6
100
AcDbLine
 10
188.4671036928595
 20
15.44437756466606
 30
0.0
 11
162.4877053837787
 21
15.44437756466606
 31
0.0
  0
LINE
  5
17C6
330
1F
100
AcDbEntity
  8
LOGO
 62
     6
100
AcDbLine
 10
188.4671036928595
 20
2.487309030445061
 30
0.0
 11
162.4877053837787
 21
2.487309030445032
 31
0.0
  0
LINE
  5
17C7
330
1F
100
AcDbEntity
  8
LOGO
 62
     6
100
AcDbLine
 10
188.4671036928595
 20
31.34623440211917
 30
0.0
 11
162.4877053837787
 21
31.3462344021191
 31
0.0
  0
TEXT
  5
17C8
330
1F
100
AcDbEntity
  8
LOGO
 62
     6
100
AcDbText
 10
29.93796514488835
 20
15.44437756466606
 30
0.0
 40
3.533745963878454
  1
單位 Unit:
 41
0.9
  7
CHINESET
 72
     4
 11
39.57846585259426
 21
17.21125054660529
 31
0.0
100
AcDbText
  0
TEXT
  5
17C9
330
1F
100
AcDbEntity
  8
LOGO
 62
     6
100
AcDbText
 10
29.59247837431274
 20
22.56157728710844
 30
0.0
 40
3.533745963878454
  1
投影 View:
 41
0.9
  7
CHINESET
 72
     4
 11
39.57846585259426
 21
24.2787424743622
 31
0.0
100
AcDbText
  0
TEXT
  5
17CA
330
1F
100
AcDbEntity
  8
LOGO
 62
     6
100
AcDbText
 10
28.35724485211772
 20
29.58110046839045
 30
0.0
 40
3.533745963878454
  1
比例 Scale:
 41
0.9
  7
CHINESET
 72
     4
 11
39.57846585259426
 21
31.3462344021191
 31
0.0
100
AcDbText
  0
TEXT
  5
17CB
330
1F
100
AcDbEntity
  8
LOGO
  6
CONTINUOUS
 62
     5
100
AcDbText
 10
0.6859996467579777
 20
6.484511344375803
 30
0.0
 40
5.300618945817682
  1
金器工業股份有限公司
 41
0.8
  7
LOGO
100
AcDbText
  0
TEXT
  5
17CC
330
1F
100
AcDbEntity
  8
LOGO
  6
CONTINUOUS
 62
     5
100
AcDbText
 10
2.203777209988061
 20
1.182853892829314
 30
0.0
 40
3.533745963878454
  1
MINDMAN INDUSTRIAL CO.,LTD
 41
0.85
  7
CHINESET
100
AcDbText
  0
LINE
  5
17CD
330
1F
100
AcDbEntity
  8
LOGO
 62
     1
100
AcDbLine
 10
77.27175613396446
 20
13.67750458272686
 30
0.0
 11
-0.4706550713615343
 21
13.67750458272686
 31
0.0
  0
LINE
  5
17CE
330
1F
100
AcDbEntity
  8
LOGO
 62
     1
100
AcDbLine
 10
77.27175613396446
 20
20.74499651048374
 30
0.0
 11
25.44348199708042
 21
20.74499651048374
 31
0.0
  0
LINE
  5
17CF
330
1F
100
AcDbEntity
  8
LOGO
 62
     1
100
AcDbLine
 10
77.27175613396446
 20
27.81248843824065
 30
0.0
 11
25.44348199708042
 21
27.81248843824065
 31
0.0
  0
SOLID
  5
17D0
330
1F
100
AcDbEntity
  8
LOGO
 62
     2
100
AcDbTrace
 10
4.723562107758652
 20
19.55185425854449
 30
0.0
 11
5.355796188843896
 21
19.551854258545
 31
0.0
 12
12.62648812131215
 22
34.04055195005848
 32
0.0
 13
13.25872220239693
 23
34.04055195005848
 33
0.0
  0
SOLID
  5
17D1
330
1F
100
AcDbEntity
  8
LOGO
 62
     5
100
AcDbTrace
 10
5.355796188843896
 20
19.551854258545
 30
0.0
 11
6.883695218130583
 21
19.551854258545
 31
0.0
 12
12.62648812131215
 22
32.8814561347378
 32
0.0
 13
11.09858909202546
 23
27.27915969401868
 33
0.0
  0
SOLID
  5
17D2
330
1F
100
AcDbEntity
  8
LOGO
 62
     5
100
AcDbTrace
 10
3.195663078471852
 20
19.551854258545
 30
0.0
 11
4.723562107758652
 21
19.55185425854449
 31
0.0
 12
11.09858909202546
 22
34.04055195005949
 32
0.0
 13
12.62648812131215
 23
34.04055195005848
 33
0.0
  0
LINE
  5
17D3
330
1F
100
AcDbEntity
  8
LOGO
 62
     1
100
AcDbLine
 10
-0.4706550713615343
 20
-0.4574792727869835
 30
0.0
 11
-0.4706550713615343
 21
34.87998036599757
 31
0.0
  0
SOLID
  5
17D4
330
1F
100
AcDbEntity
  8
LOGO
 62
     5
100
AcDbTrace
 10
0.7460662477864162
 20
14.2832369161765
 30
0.0
 11
1.272927982023929
 21
14.2832369161765
 31
0.0
 12
2.756611633274815
 22
16.9175455873605
 32
0.0
 13
3.283473367511305
 23
16.9175455873605
 33
0.0
  0
SOLID
  5
17D5
330
1F
100
AcDbEntity
  8
LOGO
 62
     5
100
AcDbTrace
 10
4.767157018763782
 20
16.9175455873605
 30
0.0
 11
5.294018753000159
 21
16.9175455873605
 31
0.0
 12
4.767157018763782
 22
14.2832369161765
 32
0.0
 13
5.294018753000159
 23
14.2832369161765
 33
0.0
  0
SOLID
  5
17D6
330
1F
100
AcDbEntity
  8
LOGO
 62
     5
100
AcDbTrace
 10
2.756611633274815
 20
14.2832369161765
 30
0.0
 11
3.283473367511305
 21
14.2832369161765
 31
0.0
 12
4.767157018763782
 22
16.9175455873605
 32
0.0
 13
5.294018753000159
 23
16.9175455873605
 33
0.0
  0
SOLID
  5
17D7
330
1F
100
AcDbEntity
  8
LOGO
 62
     5
100
AcDbTrace
 10
2.756611633274815
 20
16.9175455873605
 30
0.0
 11
3.283473367511305
 21
16.9175455873605
 31
0.0
 12
2.756611633274815
 22
14.2832369161765
 32
0.0
 13
3.283473367511305
 23
14.2832369161765
 33
0.0
  0
SOLID
  5
17D8
330
1F
100
AcDbEntity
  8
LOGO
 62
     5
100
AcDbTrace
 10
8.639830750688588
 20
15.86382211888669
 30
0.0
 11
9.166692484925874
 21
15.86382211888669
 31
0.0
 12
8.639830750688588
 22
14.2832369161765
 32
0.0
 13
9.166692484925874
 23
14.2832369161765
 33
0.0
  0
SOLID
  5
17D9
330
1F
100
AcDbEntity
  8
LOGO
 62
     5
100
AcDbTrace
 10
7.059245547978434
 20
16.9175455873605
 30
0.0
 11
7.586107282214811
 21
16.9175455873605
 31
0.0
 12
7.059245547978434
 22
14.2832369161765
 32
0.0
 13
7.586107282214811
 23
14.2832369161765
 33
0.0
  0
POLYLINE
  5
17DA
330
1F
100
AcDbEntity
  8
LOGO
 62
     5
100
AcDb2dPolyline
 66
     1
 10
0.0
 20
0.0
 30
0.0
 40
0.5277060639391827
 41
0.5277060639391827
  0
VERTEX
  5
4D4F
330
17DA
100
AcDbEntity
  8
LOGO
 62
     5
100
AcDbVertex
100
AcDb2dVertex
 10
8.904528112360594
 20
15.86382211888669
 30
0.0
 42
1.0
  0
VERTEX
  5
4D50
330
17DA
100
AcDbEntity
  8
LOGO
 62
     5
100
AcDbVertex
100
AcDb2dVertex
 10
7.321409920543032
 20
15.86382211888669
 30
0.0
 42
1.0
  0
SEQEND
  5
4D51
330
17DA
100
AcDbEntity
  8
LOGO
 62
     5
  0
SOLID
  5
17DB
330
1F
100
AcDbEntity
  8
LOGO
 62
     5
100
AcDbTrace
 10
5.917694228406844
 20
16.9175455873605
 30
0.0
 11
6.444555962644813
 21
16.9175455873605
 31
0.0
 12
5.917694228406844
 22
14.28323691617549
 32
0.0
 13
6.444555962644813
 23
14.2832369161765
 33
0.0
  0
SOLID
  5
17DC
330
1F
100
AcDbEntity
  8
LOGO
 62
     5
100
AcDbTrace
 10
5.917694228406844
 20
17.28634880132607
 30
0.0
 11
6.444555962644813
 21
17.28634880132607
 31
0.0
 12
5.917694228406844
 22
17.70783818871608
 32
0.0
 13
6.444555962644813
 23
17.70783818871608
 33
0.0
  0
LINE
  5
17DD
330
1F
100
AcDbEntity
  8
LOGO
 62
     1
100
AcDbLine
 10
25.44348199708042
 20
13.67750458272684
 30
0.0
 11
25.44348199708042
 21
34.87998036599757
 31
0.0
  0
POLYLINE
  5
17DE
330
1F
100
AcDbEntity
  8
LOGO
 62
     5
100
AcDb2dPolyline
 66
     1
 10
0.0
 20
0.0
 30
0.0
 70
     1
 40
0.5277060639391827
 41
0.5277060639391827
  0
VERTEX
  5
4D52
330
17DE
100
AcDbEntity
  8
LOGO
 62
     5
100
AcDbVertex
100
AcDb2dVertex
 10
17.59489694565763
 20
15.60039125176824
 30
0.0
 42
1.0
  0
VERTEX
  5
4D53
330
17DE
100
AcDbEntity
  8
LOGO
 62
     5
100
AcDbVertex
100
AcDb2dVertex
 10
19.70572120141435
 20
15.60039125176824
 30
0.0
 42
1.0
  0
SEQEND
  5
4D54
330
17DE
100
AcDbEntity
  8
LOGO
 62
     5
  0
CIRCLE
  5
17DF
330
1F
100
AcDbEntity
  8
LOGO
 62
     5
100
AcDbCircle
 10
18.65030907353627
 20
15.60039125176849
 30
0.0
 40
0.7902926013553202
  0
POLYLINE
  5
17E0
330
1F
100
AcDbEntity
  8
LOGO
 62
     5
100
AcDb2dPolyline
 66
     1
 10
0.0
 20
0.0
 30
0.0
 70
     1
  0
VERTEX
  5
4D55
330
17E0
100
AcDbEntity
  8
LOGO
 62
     5
100
AcDbVertex
100
AcDb2dVertex
 10
17.86001647218085
 20
15.60039125176849
 30
0.0
 42
1.000000057330635
  0
VERTEX
  5
4D56
330
17E0
100
AcDbEntity
  8
LOGO
 62
     5
100
AcDbVertex
100
AcDb2dVertex
 10
19.44060167489181
 20
15.60039125176849
 30
0.0
 42
1.000000057330635
  0
SEQEND
  5
4D57
330
17E0
100
AcDbEntity
  8
LOGO
 62
     5
  0
POLYLINE
  5
17E1
330
1F
100
AcDbEntity
  8
LOGO
 62
     5
100
AcDb2dPolyline
 66
     1
 10
0.0
 20
0.0
 30
0.0
 40
0.5277060639391827
 41
0.5277060639391827
  0
VERTEX
  5
4D58
330
17E1
100
AcDbEntity
  8
LOGO
 62
     5
100
AcDbVertex
100
AcDb2dVertex
 10
14.87566289116125
 20
15.86382211888669
 30
0.0
 42
1.0
  0
VERTEX
  5
4D59
330
17E1
100
AcDbEntity
  8
LOGO
 62
     5
100
AcDbVertex
100
AcDb2dVertex
 10
13.29254469934358
 20
15.86382211888669
 30
0.0
 42
1.0
  0
SEQEND
  5
4D5A
330
17E1
100
AcDbEntity
  8
LOGO
 62
     5
  0
SOLID
  5
17E2
330
1F
100
AcDbEntity
  8
LOGO
 62
     5
100
AcDbTrace
 10
13.03038032677909
 20
16.9175455873605
 30
0.0
 11
13.55724206101558
 21
16.9175455873605
 31
0.0
 12
13.03038032677909
 22
14.2832369161765
 32
0.0
 13
13.55724206101558
 23
14.2832369161765
 33
0.0
  0
SOLID
  5
17E3
330
1F
100
AcDbEntity
  8
LOGO
 62
     5
100
AcDbTrace
 10
11.88882900720761
 20
17.70783818871608
 30
0.0
 11
12.41569074144399
 21
17.70783818871608
 31
0.0
 12
11.88882900720761
 22
14.2832369161765
 32
0.0
 13
12.41569074144399
 23
14.2832369161765
 33
0.0
  0
POLYLINE
  5
17E4
330
1F
100
AcDbEntity
  8
LOGO
 62
     5
100
AcDb2dPolyline
 66
     1
 10
0.0
 20
0.0
 30
0.0
 70
     1
 40
0.5277060639391827
 41
0.5277060639391827
  0
VERTEX
  5
4D5B
330
17E4
100
AcDbEntity
  8
LOGO
 62
     5
100
AcDbVertex
100
AcDb2dVertex
 10
10.0431769641467
 20
15.60039125176824
 30
0.0
 42
1.0
  0
VERTEX
  5
4D5C
330
17E4
100
AcDbEntity
  8
LOGO
 62
     5
100
AcDbVertex
100
AcDb2dVertex
 10
12.15400121990342
 20
15.60039125176824
 30
0.0
 42
1.0
  0
SEQEND
  5
4D5D
330
17E4
100
AcDbEntity
  8
LOGO
 62
     5
  0
SOLID
  5
17E5
330
1F
100
AcDbEntity
  8
LOGO
 62
     5
100
AcDbTrace
 10
16.19155073219963
 20
15.86382211888669
 30
0.0
 11
16.718412466436
 21
15.86382211888669
 31
0.0
 12
16.19155073219963
 22
14.28323691617549
 32
0.0
 13
16.718412466436
 23
14.28323691617549
 33
0.0
  0
SOLID
  5
17E6
330
1F
100
AcDbEntity
  8
LOGO
 62
     5
100
AcDbTrace
 10
14.61096552948936
 20
15.86382211888669
 30
0.0
 11
15.13782726372574
 21
15.86382211888669
 31
0.0
 12
14.61096552948936
 22
14.2832369161765
 32
0.0
 13
15.13782726372574
 23
14.2832369161765
 33
0.0
  0
POLYLINE
  5
17E7
330
1F
100
AcDbEntity
  8
LOGO
 62
     5
100
AcDb2dPolyline
 66
     1
 10
0.0
 20
0.0
 30
0.0
 40
0.5277060639391827
 41
0.5277060639391827
  0
VERTEX
  5
4D5E
330
17E7
100
AcDbEntity
  8
LOGO
 62
     5
100
AcDbVertex
100
AcDb2dVertex
 10
16.45624809387141
 20
15.86382211888669
 30
0.0
 42
1.0
  0
VERTEX
  5
4D5F
330
17E7
100
AcDbEntity
  8
LOGO
 62
     5
100
AcDbVertex
100
AcDb2dVertex
 10
14.87312990205384
 20
15.86382211888669
 30
0.0
 42
1.0
  0
SEQEND
  5
4D60
330
17E7
100
AcDbEntity
  8
LOGO
 62
     5
  0
POLYLINE
  5
17E8
330
1F
100
AcDbEntity
  8
LOGO
 62
     5
100
AcDb2dPolyline
 66
     1
 10
0.0
 20
0.0
 30
0.0
 40
0.5277060639391827
 41
0.5277060639391827
  0
VERTEX
  5
4D61
330
17E8
100
AcDbEntity
  8
LOGO
 62
     5
100
AcDbVertex
100
AcDb2dVertex
 10
22.42738287267218
 20
15.86382211888669
 30
0.0
 42
1.0
  0
VERTEX
  5
4D62
330
17E8
100
AcDbEntity
  8
LOGO
 62
     5
100
AcDbVertex
100
AcDb2dVertex
 10
20.84426468085462
 20
15.86382211888669
 30
0.0
 42
1.0
  0
SEQEND
  5
4D63
330
17E8
100
AcDbEntity
  8
LOGO
 62
     5
  0
SOLID
  5
17E9
330
1F
100
AcDbEntity
  8
LOGO
 62
     5
100
AcDbTrace
 10
20.582100308289
 20
14.2832369161765
 30
0.0
 11
21.1089620425264
 21
14.2832369161765
 31
0.0
 12
20.582100308289
 22
16.9175455873605
 32
0.0
 13
21.1089620425264
 23
16.9175455873605
 33
0.0
  0
SOLID
  5
17EA
330
1F
100
AcDbEntity
  8
LOGO
 62
     5
100
AcDbTrace
 10
19.44054898871911
 20
16.9175455873605
 30
0.0
 11
19.96741072295549
 21
16.9175455873605
 31
0.0
 12
19.44054898871911
 22
14.2832369161765
 32
0.0
 13
19.96741072295549
 23
14.2832369161765
 33
0.0
  0
SOLID
  5
17EB
330
1F
100
AcDbEntity
  8
LOGO
 62
     5
100
AcDbTrace
 10
22.16268551100029
 20
15.86382211888669
 30
0.0
 11
22.68954724523666
 21
15.8638221188866
 31
0.0
 12
22.16268551100029
 22
14.2832369161765
 32
0.0
 13
22.68954724523666
 23
14.2832369161765
 33
0.0
  0
LINE
  5
17EC
330
1F
100
AcDbEntity
  8
LOGO
 62
     5
100
AcDbLine
 10
22.68954724523666
 20
14.2832369161765
 30
0.0
 11
22.68954724523666
 21
15.86382211888669
 31
0.0
  0
SOLID
  5
17ED
330
1F
100
AcDbEntity
  8
LOGO
 62
     2
100
AcDbTrace
 10
20.52941413486519
 20
34.04055195005949
 30
0.0
 11
21.16164821594986
 21
34.04055195005848
 31
0.0
 12
20.52941413486519
 22
19.55185425854449
 32
0.0
 13
21.16164821594986
 23
19.55185425854449
 33
0.0
  0
SOLID
  5
17EE
330
1F
100
AcDbEntity
  8
LOGO
 62
     5
100
AcDbTrace
 10
21.16164821594986
 20
19.55185425854449
 30
0.0
 11
22.68954724523666
 21
19.55185425854449
 31
0.0
 12
21.16164821594986
 22
34.04055195005848
 32
0.0
 13
22.68954724523666
 23
34.04055195005949
 33
0.0
  0
SOLID
  5
17EF
330
1F
100
AcDbEntity
  8
LOGO
 62
     5
100
AcDbTrace
 10
20.52941413486519
 20
32.8814561347378
 30
0.0
 11
19.00151510557827
 21
27.27915969401868
 31
0.0
 12
20.52941413486519
 22
19.55185425854449
 32
0.0
 13
19.00151510557827
 23
19.55185425854449
 33
0.0
  0
SOLID
  5
17F0
330
1F
100
AcDbEntity
  8
LOGO
 62
     2
100
AcDbTrace
 10
12.62648812131215
 20
34.04055195005848
 30
0.0
 11
13.25872220239693
 21
34.04055195005848
 31
0.0
 12
12.62648812131215
 22
19.551854258545
 32
0.0
 13
13.25872220239693
 23
19.551854258545
 33
0.0
  0
SOLID
  5
17F1
330
1F
100
AcDbEntity
  8
LOGO
 62
     5
100
AcDbTrace
 10
13.25872220239693
 20
34.04055195005848
 30
0.0
 11
14.78662123168351
 21
34.04055195005949
 31
0.0
 12
13.25872220239693
 22
20.71095007386567
 32
0.0
 13
14.78662123168351
 23
26.3132465145848
 33
0.0
  0
SOLID
  5
17F2
330
1F
100
AcDbEntity
  8
LOGO
 62
     5
100
AcDbTrace
 10
11.09858909202546
 20
19.551854258545
 30
0.0
 11
12.62648812131215
 21
19.551854258545
 31
0.0
 12
11.09858909202546
 22
27.27915969401868
 32
0.0
 13
12.62648812131215
 23
32.8814561347378
 33
0.0
  0
SOLID
  5
17F3
330
1F
100
AcDbEntity
  8
LOGO
 62
     2
100
AcDbTrace
 10
12.62648812131215
 20
19.551854258545
 30
0.0
 11
13.25872220239693
 21
19.551854258545
 31
0.0
 12
20.52941413486519
 22
34.04055195005949
 32
0.0
 13
21.16164821594986
 23
34.04055195005848
 33
0.0
  0
SOLID
  5
17F4
330
1F
100
AcDbEntity
  8
LOGO
 62
     5
100
AcDbTrace
 10
13.25872220239693
 20
19.551854258545
 30
0.0
 11
14.78662123168351
 21
19.551854258545
 31
0.0
 12
20.52941413486519
 22
32.8814561347378
 32
0.0
 13
19.00151510557827
 23
27.27915969401868
 33
0.0
  0
SOLID
  5
17F5
330
1F
100
AcDbEntity
  8
LOGO
 62
     5
100
AcDbTrace
 10
13.25872220239693
 20
20.71095007386567
 30
0.0
 11
14.78662123168351
 21
26.3132465145848
 31
0.0
 12
20.52941413486519
 22
34.04055195005949
 32
0.0
 13
19.00151510557827
 23
34.04055195005949
 33
0.0
  0
TEXT
  5
17F6
330
1F
100
AcDbEntity
  8
LOGO
 62
     7
100
AcDbText
 10
80.16429994182113
 20
26.03228414410841
 30
0.0
 40
7.067491927756909
  1
訂購代號:
  7
CHINESET
100
AcDbText
  0
TEXT
  5
17F7
330
1F
100
AcDbEntity
  8
LOGO
 62
     7
100
AcDbText
 10
79.31898894340782
 20
19.39924061650448
 30
0.0
 40
4.711661285171273
  1
Order example:
 41
0.8
  7
CHINESET
100
AcDbText
  0
LINE
  5
17F8
330
1F
100
AcDbEntity
  8
LOGO
 62
     1
100
AcDbLine
 10
53.7134497081081
 20
13.67750458272684
 30
0.0
 11
53.7134497081081
 21
34.87998036599757
 31
0.0
  0
TEXT
  5
17F9
330
1F
100
AcDbEntity
  8
LOGO
 62
     6
100
AcDbText
 10
59.01465132176085
 20
15.44437756466606
 30
0.0
 40
3.533745963878454
  1
m/m
  7
CHINESET
 72
     1
 11
65.24077516288002
 21
17.21125054660529
 31
0.0
100
AcDbText
 73
     2
  0
CIRCLE
  5
17FA
330
1F
100
AcDbEntity
  8
LOGO
  6
CONTINUOUS
 62
     6
100
AcDbCircle
 10
60.25662235418735
 20
24.28630118283823
 30
0.0
 40
2.051776081631799
  0
TEXT
  5
17FB
330
1F
100
AcDbEntity
  8
LOGO
 62
     6
100
AcDbText
 10
59.01465132176085
 20
29.57936142017988
 30
0.0
 40
3.533745963878454
  1
1 : 1
  7
CHINESET
 72
     1
 11
65.24077516288002
 21
31.3462344021191
 31
0.0
100
AcDbText
 73
     2
  0
LINE
  5
17FC
330
1F
100
AcDbEntity
  8
LOGO
  6
CONTINUOUS
 62
     6
100
AcDbLine
 10
66.71802109084137
 20
23.08414203246194
 30
0.0
 11
73.15022132919046
 21
22.23452510120644
 31
0.0
  0
LINE
  5
17FD
330
1F
100
AcDbEntity
  8
LOGO
  6
CONTINUOUS
 62
     6
100
AcDbLine
 10
66.71802109084137
 20
25.48846033321454
 30
0.0
 11
73.15022132919046
 21
26.33807726447003
 31
0.0
  0
LINE
  5
17FE
330
1F
100
AcDbEntity
  8
LOGO
 62
     6
100
AcDbLine
 10
66.71802109084149
 20
23.08414203246194
 30
0.0
 11
66.71802109084137
 21
25.48846033321456
 31
0.0
  0
CIRCLE
  5
17FF
330
1F
100
AcDbEntity
  8
LOGO
  6
CONTINUOUS
 62
     6
100
AcDbCircle
 10
60.25662235418735
 20
24.28630118283823
 30
0.0
 40
1.202159150376303
  0
LINE
  5
1800
330
1F
100
AcDbEntity
  8
LOGO
 62
     6
100
AcDbLine
 10
73.15022132919046
 20
22.23452510120644
 30
0.0
 11
73.15022132919046
 21
26.33807726447003
 31
0.0
  0
LINE
  5
1801
330
1F
100
AcDbEntity
  8
LOGO
 62
     1
100
AcDbLine
 10
77.27175613396446
 20
-0.4574792727869835
 30
0.0
 11
77.27175613396446
 21
34.87998036599757
 31
0.0
  0
LINE
  5
1802
330
1F
100
AcDbEntity
  8
LOGO
 62
     6
100
AcDbLine
 10
151.7910005794783
 20
15.44437756466606
 30
0.0
 11
128.2326941536219
 21
15.44437756466606
 31
0.0
  0
TEXT
  5
1803
330
1F
100
AcDbEntity
  8
LOGO
  6
CONTINUOUS
 62
     7
100
AcDbText
 10
129.4947462835785
 20
23.10082715306938
 30
0.0
 40
5.889576606464092
  1
MCJT
  7
CHINESET
 72
     1
 11
140.0118473665501
 21
26.04561545630143
 31
0.0
100
AcDbText
 73
     2
  0
LINE
  5
1804
330
1F
100
AcDbEntity
  8
LOGO
 62
     6
100
AcDbLine
 10
151.7910005794783
 20
2.487309030445061
 30
0.0
 11
128.2326941536219
 21
2.487309030445032
 31
0.0
  0
TEXT
  5
1805
330
1F
100
AcDbEntity
  8
LOGO
  6
CONTINUOUS
 62
     6
100
AcDbText
 10
134.4027267889652
 20
3.959703182061082
 30
0.0
 40
2.944788303232046
  1
Model
  7
CHINESET
 72
     4
 11
140.0118473665501
 21
5.432097333677106
 31
0.0
100
AcDbText
  0
TEXT
  5
1806
330
1F
100
AcDbEntity
  8
LOGO
 62
     6
100
AcDbText
 10
135.3001860813788
 20
9.086417306821752
 30
0.0
 40
4.711661285171273
  1
型式
  7
CHINESET
 72
     4
 11
140.0118473665501
 21
11.32167394014119
 31
0.0
100
AcDbText
  0
LINE
  5
1807
330
1F
100
AcDbEntity
  8
LOGO
 62
     6
100
AcDbLine
 10
154.1468312220639
 20
20.74499651048374
 30
0.0
 11
125.8768635110363
 21
20.74499651048374
 31
0.0
  0
LINE
  5
1808
330
1F
100
AcDbEntity
  8
LOGO
 62
     6
100
AcDbLine
 10
154.1468312220639
 20
31.3462344021191
 30
0.0
 11
125.8768635110363
 21
31.3462344021191
 31
0.0
  0
LINE
  5
1809
330
1F
100
AcDbEntity
  8
LOGO
 62
     6
100
AcDbLine
 10
140.0118473665501
 20
20.74499651048374
 30
0.0
 11
140.0118473665501
 21
15.44437756466606
 31
0.0
  0
LINE
  5
180A
330
1F
100
AcDbEntity
  8
LOGO
 62
     6
100
AcDbLine
 10
128.2326941536219
 20
15.44437756466606
 30
0.0
 11
128.2326941536219
 21
2.487309030445032
 31
0.0
  0
LINE
  5
180B
330
1F
100
AcDbEntity
  8
LOGO
 62
     6
100
AcDbLine
 10
125.8768635110363
 20
31.3462344021191
 30
0.0
 11
125.8768635110363
 21
20.74499651048374
 31
0.0
  0
LINE
  5
180C
330
1F
100
AcDbEntity
  8
LOGO
 62
     6
100
AcDbLine
 10
151.7910005794783
 20
15.44437756466606
 30
0.0
 11
151.7910005794783
 21
2.487309030445061
 31
0.0
  0
LINE
  5
180D
330
1F
100
AcDbEntity
  8
LOGO
 62
     6
100
AcDbLine
 10
162.4877053837787
 20
15.44437756466606
 30
0.0
 11
162.4877053837787
 21
2.487309030445061
 31
0.0
  0
LINE
  5
180E
330
1F
100
AcDbEntity
  8
LOGO
  6
CONTINUOUS
 62
     7
100
AcDbLine
 10
155.973265190149
 20
26.00806419629765
 30
0.0
 11
160.6543850211129
 21
26.00806419629765
 31
0.0
  0
LINE
  5
180F
330
1F
100
AcDbEntity
  8
LOGO
 62
     6
100
AcDbLine
 10
154.146831222064
 20
31.3462344021191
 30
0.0
 11
154.146831222064
 21
20.74499651048374
 31
0.0
  0
LINE
  5
1810
330
1F
100
AcDbEntity
  8
LOGO
 62
     6
100
AcDbLine
 10
162.4877053837787
 20
31.3462344021191
 30
0.0
 11
162.4877053837787
 21
20.74499651048374
 31
0.0
  0
TEXT
  5
1811
330
1F
100
AcDbEntity
  8
0
100
AcDbText
 10
12.03841565317816
 20
199.2427661339428
 30
0.0
 40
4.0
  1
MCJT-12-%%C63
  7
CHINESET
100
AcDbText
  0
TEXT
  5
1812
330
1F
100
AcDbEntity
  8
0
100
AcDbText
 10
11.5474866955908
 20
190.953831383558
 30
0.0
 40
5.0
  1
stroke=0mm
  7
CHINESET
100
AcDbText
  0
LINE
  5
1868
330
1F
100
AcDbEntity
  8
LOGO
 62
     6
100
AcDbLine
 10
243.6829643764367
 20
31.3462344021191
 30
0.0
 11
224.0607583976127
 21
31.3462344021191
 31
0.0
  0
LINE
  5
1869
330
1F
100
AcDbEntity
  8
LOGO
 62
     6
100
AcDbLine
 10
243.6829643764367
 20
20.74499651048374
 30
0.0
 11
224.0607583976127
 21
20.74499651048374
 31
0.0
  0
LINE
  5
186A
330
1F
100
AcDbEntity
  8
LOGO
 62
     6
100
AcDbLine
 10
242.5050490551439
 20
15.44437756466606
 30
0.0
 11
225.2386737189055
 21
15.44437756466606
 31
0.0
  0
LINE
  5
186B
330
1F
100
AcDbEntity
  8
LOGO
 62
     6
100
AcDbLine
 10
242.5050490551439
 20
2.487309030445061
 30
0.0
 11
225.2386737189055
 21
2.487309030445032
 31
0.0
  0
LINE
  5
186C
330
1F
100
AcDbEntity
  8
LOGO
 62
     6
100
AcDbLine
 10
215.719884235898
 20
20.74499651048381
 30
0.0
 11
196.8079778545741
 21
20.74499651048381
 31
0.0
  0
LINE
  5
186D
330
1F
100
AcDbEntity
  8
LOGO
 62
     6
100
AcDbLine
 10
215.719884235898
 20
15.44437756466612
 30
0.0
 11
196.8079778545741
 21
15.44437756466612
 31
0.0
  0
LINE
  5
186E
330
1F
100
AcDbEntity
  8
LOGO
 62
     6
100
AcDbLine
 10
215.719884235898
 20
31.34623440211925
 30
0.0
 11
196.8079778545741
 21
31.34623440211917
 31
0.0
  0
TEXT
  5
186F
330
1F
100
AcDbEntity
  8
LOGO
  6
CONTINUOUS
 62
     7
100
AcDbText
 10
202.0458725225968
 20
23.03403898323356
 30
0.0
 40
5.889576606464092
  1
63
  7
CHINESET
 72
     1
 11
206.8136250135439
 21
25.97882728646561
 31
0.0
100
AcDbText
 73
     2
  0
LINE
  5
1870
330
1F
100
AcDbEntity
  8
LOGO
 62
     6
100
AcDbLine
 10
215.719884235898
 20
2.487309030445132
 30
0.0
 11
196.8079778545741
 21
2.487309030445089
 31
0.0
  0
TEXT
  5
1871
330
1F
100
AcDbEntity
  8
LOGO
  6
CONTINUOUS
 62
     6
100
AcDbText
 10
202.618002669806
 20
3.959703182061126
 30
0.0
 40
2.944788303232046
  1
Bore
 41
0.8
  7
CHINESET
 72
     4
 11
206.2639310452361
 21
5.432097333677148
 31
0.0
100
AcDbText
  0
TEXT
  5
1872
330
1F
100
AcDbEntity
  8
LOGO
 62
     6
100
AcDbText
 10
201.7584049412911
 20
8.965843297555601
 30
0.0
 40
4.711661285171273
  1
內徑
 41
0.9
  7
CHINESET
 72
     4
 11
206.2639310452361
 21
11.32167394014123
 31
0.0
100
AcDbText
  0
LINE
  5
1873
330
1F
100
AcDbEntity
  8
LOGO
 62
     6
100
AcDbLine
 10
206.2639307736271
 20
20.74499651048381
 30
0.0
 11
206.2639307736271
 21
15.44437756466612
 31
0.0
  0
LINE
  5
1874
330
1F
100
AcDbEntity
  8
LOGO
 62
     6
100
AcDbLine
 10
175.477404538319
 20
20.74499651048374
 30
0.0
 11
175.477404538319
 21
15.44437756466606
 31
0.0
  0
LINE
  5
1875
330
1F
100
AcDbEntity
  8
LOGO
 62
     6
100
AcDbLine
 10
188.4671036928595
 20
15.44437756466606
 30
0.0
 11
188.4671036928595
 21
2.487309030445089
 31
0.0
  0
LINE
  5
1876
330
1F
100
AcDbEntity
  8
LOGO
 62
     6
100
AcDbLine
 10
196.8079778545741
 20
15.44437756466612
 30
0.0
 11
196.8079778545741
 21
2.487309030445132
 31
0.0
  0
LINE
  5
1877
330
1F
100
AcDbEntity
  8
LOGO
 62
     6
100
AcDbLine
 10
188.4671036928595
 20
31.34623440211917
 30
0.0
 11
188.4671036928595
 21
20.74499651048374
 31
0.0
  0
LINE
  5
1878
330
1F
100
AcDbEntity
  8
LOGO
 62
     6
100
AcDbLine
 10
196.8079778545741
 20
31.34623440211917
 30
0.0
 11
196.8079778545741
 21
20.74499651048381
 31
0.0
  0
LINE
  5
1879
330
1F
100
AcDbEntity
  8
LOGO
  6
CONTINUOUS
 62
     7
100
AcDbLine
 10
190.2935376609444
 20
26.00806419629771
 30
0.0
 11
194.9746574919084
 21
26.00806419629771
 31
0.0
  0
LINE
  5
187A
330
1F
100
AcDbEntity
  8
LOGO
 62
     6
100
AcDbLine
 10
234.1213331567746
 20
20.74499651048374
 30
0.0
 11
234.1213331567746
 21
15.44437756466606
 31
0.0
  0
LINE
  5
187B
330
1F
100
AcDbEntity
  8
LOGO
 62
     6
100
AcDbLine
 10
215.719884235898
 20
15.44437756466612
 30
0.0
 11
215.719884235898
 21
2.48730903044516
 31
0.0
  0
LINE
  5
187C
330
1F
100
AcDbEntity
  8
LOGO
 62
     6
100
AcDbLine
 10
225.2386737189055
 20
15.44437756466606
 30
0.0
 11
225.2386737189055
 21
2.487309030445032
 31
0.0
  0
TEXT
  5
187D
330
1F
100
AcDbEntity
  8
LOGO
  6
CONTINUOUS
 62
     6
100
AcDbText
 10
228.5431968383191
 20
3.959703182061055
 30
0.0
 40
2.944788303232046
  1
Stroke
 41
0.8
  7
CHINESET
 72
     4
 11
233.8718613870247
 21
5.432097333677077
 31
0.0
100
AcDbText
  0
TEXT
  5
187E
330
1F
100
AcDbEntity
  8
LOGO
 62
     6
100
AcDbText
 10
229.6313662303706
 20
8.96584329755553
 30
0.0
 40
4.711661285171273
  1
行程
 41
0.9
  7
CHINESET
 72
     4
 11
233.8718613870247
 21
11.32167394014116
 31
0.0
100
AcDbText
  0
LINE
  5
187F
330
1F
100
AcDbEntity
  8
LOGO
 62
     6
100
AcDbLine
 10
215.719884235898
 20
31.34623440211925
 30
0.0
 11
215.719884235898
 21
20.74499651048381
 31
0.0
  0
LINE
  5
1880
330
1F
100
AcDbEntity
  8
LOGO
  6
CONTINUOUS
 62
     7
100
AcDbLine
 10
217.546318203983
 20
26.00806419629778
 30
0.0
 11
222.2274380349471
 21
26.00806419629778
 31
0.0
  0
LINE
  5
1881
330
1F
100
AcDbEntity
  8
LOGO
 62
     6
100
AcDbLine
 10
224.0607583976127
 20
31.3462344021191
 30
0.0
 11
224.0607583976127
 21
20.74499651048374
 31
0.0
  0
TEXT
  5
1882
330
1F
100
AcDbEntity
  8
LOGO
  6
CONTINUOUS
 62
     7
100
AcDbText
 10
232.8790471964968
 20
23.0340389832335
 30
0.0
 40
5.889576606464092
  1
?
  7
CHINESET
 72
     1
 11
234.4215553553326
 21
25.97882728646554
 31
0.0
100
AcDbText
 73
     2
  0
LINE
  5
1883
330
1F
100
AcDbEntity
  8
LOGO
 62
     6
100
AcDbLine
 10
253.8731777489083
 20
20.74499651048374
 30
0.0
 11
253.8731777489083
 21
15.44437756466606
 31
0.0
  0
LINE
  5
1884
330
1F
100
AcDbEntity
  8
LOGO
 62
     1
100
AcDbLine
 10
271.6277841472794
 20
-0.4574792727869835
 30
0.0
 11
271.6277841472794
 21
34.87998036599757
 31
0.0
  0
LINE
  5
1885
330
1F
100
AcDbEntity
  8
LOGO
 62
     6
100
AcDbLine
 10
262.5063654170276
 20
2.487309030445061
 30
0.0
 11
245.2399900807892
 21
2.487309030445032
 31
0.0
  0
LINE
  5
1886
330
1F
100
AcDbEntity
  8
LOGO
 62
     6
100
AcDbLine
 10
262.5063654170276
 20
15.44437756466606
 30
0.0
 11
245.2399900807892
 21
15.44437756466606
 31
0.0
  0
TEXT
  5
1887
330
1F
100
AcDbEntity
  8
LOGO
  6
CONTINUOUS
 62
     6
100
AcDbText
 10
247.0300506442548
 20
3.959703182061054
 30
0.0
 40
2.944788303232046
  1
MAGNET
 41
0.8
  7
CHINESET
 72
     4
 11
253.8731777489083
 21
5.432097333677077
 31
0.0
100
AcDbText
  0
TEXT
  5
1888
330
1F
100
AcDbEntity
  8
LOGO
 62
     6
100
AcDbText
 10
247.5124350139271
 20
9.014923102609396
 30
0.0
 40
4.711661285171273
  1
附磁石
 41
0.9
  7
CHINESET
 72
     4
 11
253.8731777489083
 21
11.32167394014116
 31
0.0
100
AcDbText
  0
LINE
  5
1889
330
1F
100
AcDbEntity
  8
LOGO
 62
     6
100
AcDbLine
 10
245.2399900807892
 20
15.44437756466606
 30
0.0
 11
245.2399900807892
 21
2.487309030445032
 31
0.0
  0
LINE
  5
188A
330
1F
100
AcDbEntity
  8
LOGO
 62
     6
100
AcDbLine
 10
242.5050490551439
 20
15.44437756466606
 30
0.0
 11
242.5050490551439
 21
2.438452290523514
 31
0.0
  0
LINE
  5
188B
330
1F
100
AcDbEntity
  8
LOGO
 62
     6
100
AcDbLine
 10
262.5063654170276
 20
15.44437756466606
 30
0.0
 11
262.5063654170276
 21
2.438452290523514
 31
0.0
  0
TEXT
  5
188C
330
1F
100
AcDbEntity
  8
LOGO
  6
CONTINUOUS
 62
     7
100
AcDbText
 10
248.1126113390422
 20
23.0340389832335
 30
0.0
 40
5.889576606464092
  1
(M)
  7
CHINESET
 72
     1
 11
254.4228719888251
 21
25.97882728646554
 31
0.0
100
AcDbText
 73
     2
  0
LINE
  5
188D
330
1F
100
AcDbEntity
  8
LOGO
 62
     6
100
AcDbLine
 10
261.6120935661293
 20
20.74499651048374
 30
0.0
 11
246.1342619316873
 21
20.74499651048374
 31
0.0
  0
LINE
  5
188E
330
1F
100
AcDbEntity
  8
LOGO
 62
     6
100
AcDbLine
 10
261.6120935661293
 20
31.34623440211917
 30
0.0
 11
246.1342619316873
 21
31.3462344021191
 31
0.0
  0
LINE
  5
188F
330
1F
100
AcDbEntity
  8
LOGO
 62
     6
100
AcDbLine
 10
246.1342619316873
 20
31.3462344021191
 30
0.0
 11
246.1342619316873
 21
20.74499651048374
 31
0.0
  0
LINE
  5
1890
330
1F
100
AcDbEntity
  8
LOGO
 62
     6
100
AcDbLine
 10
243.6829643764367
 20
31.3462344021191
 30
0.0
 11
243.6829643764367
 21
20.74499651048374
 31
0.0
  0
LINE
  5
1891
330
1F
100
AcDbEntity
  8
LOGO
 62
     6
100
AcDbLine
 10
261.6120935661292
 20
31.34623440211917
 30
0.0
 11
261.6120935661293
 21
20.74499651048374
 31
0.0
  0
LINE
  5
18E7
330
1F
100
AcDbEntity
  8
0
 62
     4
100
AcDbLine
 10
271.6277841472794
 20
388.8450254330407
 30
0.0
 11
-0.4706550713615343
 21
388.8450254330408
 31
0.0
  0
TEXT
  5
18E8
330
1F
100
AcDbEntity
  8
0
100
AcDbText
 10
21.45849908243178
 20
392.8450261506372
 30
0.0
 40
10.0
  1
2.附磁型本體長度皆較不附磁型增加10MM
  7
CHINESET
100
AcDbText
  0
TEXT
  5
18E9
330
1F
100
AcDbEntity
  8
0
100
AcDbText
 10
3.112678185677737
 20
408.068536986414
 30
0.0
 40
10.0
  1
註：1.本圖檔為不附磁型
  7
CHINESET
100
AcDbText
  0
TEXT
  5
18EA
330
1F
100
AcDbEntity
  8
0
100
AcDbText
 10
12.47687941544859
 20
376.2252886674644
 30
0.0
 40
4.0
  1
MCJT-11-%%C63
  7
CHINESET
100
AcDbText
  0
TEXT
  5
18EB
330
1F
100
AcDbEntity
  8
0
100
AcDbText
 10
11.98595045786112
 20
367.9363539170796
 30
0.0
 40
5.0
  1
stroke=0mm
  7
CHINESET
100
AcDbText
  0
LINE
  5
443A
330
1F
100
AcDbEntity
  8
0
100
AcDbLine
 10
193.3473202812173
 20
125.8630154788753
 30
0.0
 11
194.2473176545835
 21
125.8651894875796
 31
0.0
  0
LINE
  5
443B
330
1F
100
AcDbEntity
  8
0
100
AcDbLine
 10
193.3473202812166
 20
64.81814433235256
 30
0.0
 11
194.2473176545828
 21
64.8159703236485
 31
0.0
  0
LINE
  5
443C
330
1F
100
AcDbEntity
  8
DIM
  6
CENTER
 62
     1
100
AcDbLine
 10
250.9973189679001
 20
95.34057990561409
 30
0.0
 11
164.7242760499212
 21
95.34057990561409
 31
0.0
  0
ARC
  5
443D
330
1F
100
AcDbEntity
  8
0
100
AcDbCircle
 10
213.2869042559466
 20
95.34057990561406
 30
0.0
 40
29.59391121830052
100
AcDbArc
 50
32.6732027800026
 51
327.3267972199974
  0
CIRCLE
  5
443E
330
1F
100
AcDbEntity
  8
0
100
AcDbCircle
 10
211.7973189679001
 20
95.34057990561406
 30
0.0
 40
32.79999999999999
  0
LINE
  5
4449
330
1F
100
AcDbEntity
  8
0
100
AcDbLine
 10
49.88195459159147
 20
132.8405799056139
 30
0.0
 11
49.88195459159147
 21
95.3405799056142
 31
0.0
  0
LINE
  5
444E
330
1F
100
AcDbEntity
  8
0
100
AcDbLine
 10
246.7973189679002
 20
96.64057990561394
 30
0.0
 11
246.7973189679002
 21
105.2405799056138
 31
0.0
  0
CIRCLE
  5
444F
330
1F
100
AcDbEntity
  8
0
100
AcDbCircle
 10
211.7973189679001
 20
95.34057990561406
 30
0.0
 40
18.00000000000004
  0
CIRCLE
  5
4450
330
1F
100
AcDbEntity
  8
0
100
AcDbCircle
 10
211.7973189679001
 20
95.34057990561439
 30
0.0
 40
17.20000000000004
  0
CIRCLE
  5
4452
330
1F
100
AcDbEntity
  8
0
100
AcDbCircle
 10
211.7973189679001
 20
95.34057990561406
 30
0.0
 40
11.36000000000003
  0
LINE
  5
4453
330
1F
100
AcDbEntity
  8
DIM
  6
CENTER
 62
     1
100
AcDbLine
 10
211.7973189679001
 20
56.14057990561438
 30
0.0
 11
211.7973189679001
 21
134.5405799056144
 31
0.0
  0
LINE
  5
4454
330
1F
100
AcDbEntity
  8
DIM
  6
CENTER
 62
     1
100
AcDbLine
 10
236.1973189679
 20
65.34057990561421
 30
0.0
 11
247.3973189679
 21
65.34057990561421
 31
0.0
  0
CIRCLE
  5
4455
330
1F
100
AcDbEntity
  8
0
100
AcDbCircle
 10
241.7973189678999
 20
65.34057990561416
 30
0.0
 40
5.5
  0
LINE
  5
4456
330
1F
100
AcDbEntity
  8
0
100
AcDbLine
 10
49.88195459159147
 20
95.3405799056142
 30
0.0
 11
49.88195459159147
 21
57.84057990561454
 31
0.0
  0
LINE
  5
4457
330
1F
100
AcDbEntity
  8
0
100
AcDbLine
 10
82.38195459159147
 20
95.34057990561437
 30
0.0
 11
82.38195459159147
 21
57.84057990561318
 31
0.0
  0
LINE
  5
445D
330
1F
100
AcDbEntity
  8
0
100
AcDbLine
 10
49.88195459159124
 20
71.84057990561455
 30
0.0
 11
49.88195459159147
 21
57.84057990561454
 31
0.0
  0
LINE
  5
445F
330
1F
100
AcDbEntity
  8
0
100
AcDbLine
 10
237.1488788704474
 20
81.85281569111218
 30
0.0
 11
238.1979744028972
 21
79.36440497760457
 31
0.0
  0
ARC
  5
4460
330
1F
100
AcDbEntity
  8
0
100
AcDbCircle
 10
238.5997209194858
 20
83.34057990561417
 30
0.0
 40
2.078072426362859
100
AcDbArc
 50
89.63420348799621
 51
225.7198558604197
  0
CIRCLE
  5
4461
330
1F
100
AcDbEntity
  8
0
100
AcDbCircle
 10
238.5997209194858
 20
83.34057990561417
 30
0.0
 40
1.242449324426689
  0
LINE
  5
4462
330
1F
100
AcDbEntity
  8
DIM
  6
CENTER
 62
     1
100
AcDbLine
 10
236.1973189679
 20
65.34057990561421
 30
0.0
 11
247.3973189679
 21
65.34057990561421
 31
0.0
  0
LINE
  5
4463
330
1F
100
AcDbEntity
  8
0
100
AcDbLine
 10
231.7077009369561
 20
57.84057990561421
 30
0.0
 11
244.8692103562075
 21
57.84057990561421
 31
0.0
  0
LINE
  5
4465
330
1F
100
AcDbEntity
  8
0
100
AcDbLine
 10
82.38195459159147
 20
57.84057990561318
 30
0.0
 11
49.88195459159147
 21
57.84057990561318
 31
0.0
  0
ARC
  5
4476
330
1F
100
AcDbEntity
  8
0
100
AcDbCircle
 10
211.7973189679001
 20
95.34057990561406
 30
0.0
 40
50.0
100
AcDbArc
 50
311.4096221092709
 51
318.5903778907312
  0
LINE
  5
4477
330
1F
100
AcDbEntity
  8
0
100
AcDbLine
 10
246.9973189679
 20
94.24057990561385
 30
0.0
 11
249.0973189679001
 21
94.24057990561385
 31
0.0
  0
LINE
  5
4478
330
1F
100
AcDbEntity
  8
0
100
AcDbLine
 10
246.9973189679
 20
96.44057990561412
 30
0.0
 11
249.0973189679001
 21
96.44057990561412
 31
0.0
  0
LINE
  5
4479
330
1F
100
AcDbEntity
  8
DIM
  6
CENTER
 62
     1
100
AcDbLine
 10
240.3208240406474
 20
77.33333323106767
 30
0.0
 11
251.2973189679003
 21
77.34019624919351
 31
0.0
  0
LINE
  5
447A
330
1F
100
AcDbEntity
  8
0
100
AcDbLine
 10
246.6167225351555
 20
75.63019793655716
 30
0.0
 11
249.0973189678999
 21
75.63019793655716
 31
0.0
  0
LINE
  5
447B
330
1F
100
AcDbEntity
  8
0
100
AcDbLine
 10
246.624935456927
 20
79.03018801371858
 30
0.0
 11
249.0973189678999
 21
79.03018801371892
 31
0.0
  0
LINE
  5
447C
330
1F
100
AcDbEntity
  8
0
100
AcDbLine
 10
248.2959565206131
 20
86.94057062387029
 30
0.0
 11
249.0973189678999
 21
86.94057062387029
 31
0.0
  0
LINE
  5
447D
330
1F
100
AcDbEntity
  8
0
100
AcDbLine
 10
249.2973189678998
 20
75.43019793655735
 30
0.0
 11
249.2973189678998
 21
62.26868851730675
 31
0.0
  0
ARC
  5
447E
330
1F
100
AcDbEntity
  8
0
100
AcDbCircle
 10
249.0973189678999
 20
75.4301979365573
 30
0.0
 40
0.2
100
AcDbArc
 50
0.0
 51
90.0
  0
LINE
  5
447F
330
1F
100
AcDbEntity
  8
0
100
AcDbLine
 10
249.2973189678998
 20
86.74057062387026
 30
0.0
 11
249.2973189678998
 21
79.23018801371897
 31
0.0
  0
ARC
  5
4480
330
1F
100
AcDbEntity
  8
0
100
AcDbCircle
 10
249.0973189678999
 20
79.23018801371893
 30
0.0
 40
0.2
100
AcDbArc
 50
270.0000000000016
 51
0.0
  0
ARC
  5
4481
330
1F
100
AcDbEntity
  8
0
100
AcDbCircle
 10
249.0973189678998
 20
86.74057062387021
 30
0.0
 40
0.2
100
AcDbArc
 50
0.0
 51
90.0
  0
ARC
  5
4482
330
1F
100
AcDbEntity
  8
0
100
AcDbCircle
 10
249.0973189679
 20
94.44057990561384
 30
0.0
 40
0.2
100
AcDbArc
 50
270.0
 51
0.0
  0
ARC
  5
4483
330
1F
100
AcDbEntity
  8
0
100
AcDbCircle
 10
249.0973189679
 20
96.24057990561368
 30
0.0
 40
0.2
100
AcDbArc
 50
0.0
 51
90.0
  0
LINE
  5
4484
330
1F
100
AcDbEntity
  8
0
100
AcDbLine
 10
249.2973189679001
 20
94.440579905614
 30
0.0
 11
249.2973189679001
 21
96.24057990561373
 31
0.0
  0
ARC
  5
4485
330
1F
100
AcDbEntity
  8
0
100
AcDbCircle
 10
244.0219235884463
 20
77.78647213141084
 30
0.0
 40
1.6999999983
100
AcDbArc
 50
89.86159817262524
 51
179.8615981726284
  0
CIRCLE
  5
4486
330
1F
100
AcDbEntity
  8
0
100
AcDbCircle
 10
241.7973189678999
 20
65.34057990561416
 30
0.0
 40
3.45
  0
ARC
  5
4487
330
1F
100
AcDbEntity
  8
0
 62
     3
100
AcDbCircle
 10
241.7973189679
 20
65.34057990561416
 30
0.0
 40
4.0
100
AcDbArc
 50
270.0
 51
180.0
  0
ARC
  5
4488
330
1F
100
AcDbEntity
  8
0
100
AcDbCircle
 10
244.0197495797422
 20
76.88647475804464
 30
0.0
 40
1.6999999983
100
AcDbArc
 50
179.8615981726284
 51
269.8615981726252
  0
CIRCLE
  5
4489
330
1F
100
AcDbEntity
  8
0
100
AcDbCircle
 10
241.7973189678999
 20
65.34057990561416
 30
0.0
 40
3.45
  0
LINE
  5
448A
330
1F
100
AcDbEntity
  8
0
100
AcDbLine
 10
246.1156369900442
 20
75.18140703248757
 30
0.0
 11
244.0156431188563
 21
75.18647971946397
 31
0.0
  0
LINE
  5
448B
330
1F
100
AcDbEntity
  8
0
100
AcDbLine
 10
246.1156369900444
 20
75.18140703248779
 30
0.0
 11
246.6167225351555
 21
75.63019793655716
 31
0.0
  0
LINE
  5
448C
330
1F
100
AcDbEntity
  8
DIM
  6
CENTER
 62
     1
100
AcDbLine
 10
241.7973189679
 20
70.94057990561434
 30
0.0
 11
241.7973189679
 21
59.74057990561418
 31
0.0
  0
LINE
  5
448D
330
1F
100
AcDbEntity
  8
0
100
AcDbLine
 10
242.3197545411615
 20
76.89058121893054
 30
0.0
 11
242.3219285498656
 21
77.79057859229673
 31
0.0
  0
LINE
  5
448E
330
1F
100
AcDbEntity
  8
0
100
AcDbLine
 10
238.6129879783865
 20
85.41860998103622
 30
0.0
 11
243.0606283387227
 21
85.41860998103622
 31
0.0
  0
LINE
  5
448F
330
1F
100
AcDbEntity
  8
0
100
AcDbLine
 10
246.7973189679002
 20
85.440579905614
 30
0.0
 11
246.7973189679002
 21
94.04057990561403
 31
0.0
  0
LINE
  5
4490
330
1F
100
AcDbEntity
  8
0
100
AcDbLine
 10
246.12602392052
 20
79.48139448301542
 30
0.0
 11
244.026030049332
 21
79.4864671699916
 31
0.0
  0
LINE
  5
4491
330
1F
100
AcDbEntity
  8
0
100
AcDbLine
 10
246.12602392052
 20
79.48139448301542
 30
0.0
 11
246.624935456927
 21
79.03018801371858
 31
0.0
  0
ARC
  5
4492
330
1F
100
AcDbEntity
  8
0
100
AcDbCircle
 10
248.295956520613
 20
86.74057062386998
 30
0.0
 40
0.2
100
AcDbArc
 50
90.0
 51
180.0
  0
ARC
  5
4493
330
1F
100
AcDbEntity
  8
0
100
AcDbCircle
 10
246.9973189679
 20
85.44057990561396
 30
0.0
 40
0.2
100
AcDbArc
 50
180.0
 51
270.0
  0
LINE
  5
4494
330
1F
100
AcDbEntity
  8
0
100
AcDbLine
 10
248.0973189679001
 20
85.440579905614
 30
0.0
 11
248.095956520613
 21
86.74057062387003
 31
0.0
  0
LINE
  5
4495
330
1F
100
AcDbEntity
  8
0
100
AcDbLine
 10
246.9973189679
 20
85.24057990561408
 30
0.0
 11
247.8973189679001
 21
85.24057990561408
 31
0.0
  0
ARC
  5
4496
330
1F
100
AcDbEntity
  8
0
100
AcDbCircle
 10
247.8973189679001
 20
85.44057990561396
 30
0.0
 40
0.2
100
AcDbArc
 50
270.0
 51
0.0
  0
ARC
  5
4497
330
1F
100
AcDbEntity
  8
0
100
AcDbCircle
 10
246.9973189679
 20
94.04057990561398
 30
0.0
 40
0.2
100
AcDbArc
 50
90.0
 51
180.0
  0
ARC
  5
4498
330
1F
100
AcDbEntity
  8
0
100
AcDbCircle
 10
246.9973189679
 20
96.64057990561389
 30
0.0
 40
0.2
100
AcDbArc
 50
180.0
 51
270.0
  0
LINE
  5
4499
330
1F
100
AcDbEntity
  8
0
100
AcDbLine
 10
88.38195459159193
 20
86.84057990561424
 30
0.0
 11
91.38195459159192
 21
86.84057990561425
 31
0.0
  0
LINE
  5
449B
330
1F
100
AcDbEntity
  8
0
100
AcDbLine
 10
91.38195459159181
 20
100.6084067820407
 30
0.0
 11
88.3819545915918
 21
90.07275302918792
 31
0.0
  0
LINE
  5
449C
330
1F
100
AcDbEntity
  8
0
100
AcDbLine
 10
91.38195459159181
 20
90.07275302918786
 30
0.0
 11
88.3819545915918
 21
90.07275302918786
 31
0.0
  0
LINE
  5
449D
330
1F
100
AcDbEntity
  8
0
100
AcDbLine
 10
88.38382164620567
 20
100.6084067820407
 30
0.0
 11
91.38195459159181
 21
90.07275302918786
 31
0.0
  0
LINE
  5
44A0
330
1F
100
AcDbEntity
  8
DIM
  6
CENTER
 62
     1
100
AcDbLine
 10
47.66291814166197
 20
95.34057990561432
 30
0.0
 11
94.68778218416446
 21
95.34057990561432
 31
0.0
  0
LINE
  5
44A1
330
1F
100
AcDbEntity
  8
0
100
AcDbLine
 10
86.38195459159147
 20
95.34057990561427
 30
0.0
 11
86.38195459159147
 21
83.62622055166934
 31
0.0
  0
LINE
  5
44A2
330
1F
100
AcDbEntity
  8
0
100
AcDbLine
 10
88.3819545915918
 20
90.07275302918792
 30
0.0
 11
88.3819545915918
 21
95.34057990561432
 31
0.0
  0
LINE
  5
44A3
330
1F
100
AcDbEntity
  8
0
100
AcDbLine
 10
88.3819545915918
 20
90.07275302918792
 30
0.0
 11
88.38382164620567
 21
95.26576227434457
 31
0.0
  0
LINE
  5
44A4
330
1F
100
AcDbEntity
  8
0
100
AcDbLine
 10
88.3819545915918
 20
90.07275302918792
 30
0.0
 11
88.38382164620567
 21
95.26576227434457
 31
0.0
  0
ARC
  5
44A5
330
1F
100
AcDbEntity
  8
0
100
AcDbCircle
 10
96.88195459159215
 20
95.34057990561432
 30
0.0
 40
10.00000000000029
100
AcDbArc
 50
180.0
 51
211.7883306170545
  0
LINE
  5
44AB
330
1F
100
AcDbEntity
  8
0
100
AcDbLine
 10
86.38195459159147
 20
77.34057990561438
 30
0.0
 11
86.38195459159147
 21
83.62622055166934
 31
0.0
  0
ARC
  5
44AC
330
1F
100
AcDbEntity
  8
0
100
AcDbCircle
 10
84.38195459159146
 20
77.34057990561438
 30
0.0
 40
2.0
100
AcDbArc
 50
270.0
 51
0.0000000000002036
  0
LINE
  5
44AF
330
1F
100
AcDbEntity
  8
0
100
AcDbLine
 10
84.38195459159146
 20
75.34057990561437
 30
0.0
 11
82.38195459159147
 21
75.34057990561437
 31
0.0
  0
LINE
  5
44B2
330
1F
100
AcDbEntity
  8
0
100
AcDbLine
 10
86.88195459159192
 20
85.3405799056142
 30
0.0
 11
88.38195459159193
 21
86.84057990561424
 31
0.0
  0
LINE
  5
44B3
330
1F
100
AcDbEntity
  8
0
100
AcDbLine
 10
86.38195459159147
 20
85.34057990561432
 30
0.0
 11
86.88195459159215
 21
85.34057990561432
 31
0.0
  0
LINE
  5
44C4
330
1F
100
AcDbEntity
  8
0
100
AcDbLine
 10
49.88195459159147
 20
95.34057990561432
 30
0.0
 11
49.88195459159147
 21
100.5605799056136
 31
0.0
  0
LINE
  5
44D0
330
1F
100
AcDbEntity
  8
0
100
AcDbLine
 10
59.38195459159181
 20
95.3405799056142
 30
0.0
 11
59.38195459159181
 21
95.3405799056142
 31
0.0
  0
LINE
  5
4502
330
1F
100
AcDbEntity
  8
0
100
AcDbLine
 10
213.0973189679001
 20
60.34057990561421
 30
0.0
 11
221.6973189678999
 21
60.34057990561421
 31
0.0
  0
LINE
  5
4503
330
1F
100
AcDbEntity
  8
0
100
AcDbLine
 10
91.38195459159168
 20
86.84057990561425
 30
0.0
 11
91.38195459159181
 21
103.8405799056143
 31
0.0
  0
LINE
  5
4504
330
1F
100
AcDbEntity
  8
DIM
  6
CENTER
 62
     1
100
AcDbLine
 10
229.8045656424455
 20
66.81707483286668
 30
0.0
 11
229.7977026243198
 21
55.84057990561364
 31
0.0
  0
LINE
  5
4505
330
1F
100
AcDbEntity
  8
0
100
AcDbLine
 10
231.5077009369559
 20
60.52117633835853
 30
0.0
 11
231.5077009369561
 21
58.04057990561436
 31
0.0
  0
LINE
  5
4506
330
1F
100
AcDbEntity
  8
0
100
AcDbLine
 10
228.1077108597945
 20
60.51296341658694
 30
0.0
 11
228.1077108597945
 21
58.04057990561425
 31
0.0
  0
LINE
  5
4507
330
1F
100
AcDbEntity
  8
0
100
AcDbLine
 10
220.1974802247923
 20
58.84625664540583
 30
0.0
 11
220.1974802247923
 21
58.04625664540587
 31
0.0
  0
LINE
  5
4508
330
1F
100
AcDbEntity
  8
0
100
AcDbLine
 10
220.3974802247923
 20
57.84625664540583
 30
0.0
 11
227.9077108597946
 21
57.84057990561421
 31
0.0
  0
ARC
  5
4509
330
1F
100
AcDbEntity
  8
0
100
AcDbCircle
 10
231.7077009369561
 20
58.04057990561432
 30
0.0
 40
0.2
100
AcDbArc
 50
180.0
 51
270.0
  0
ARC
  5
450A
330
1F
100
AcDbEntity
  8
0
100
AcDbCircle
 10
227.9077108597946
 20
58.04057990561421
 30
0.0
 40
0.2
100
AcDbArc
 50
269.9999999999983
 51
0.0
  0
LINE
  5
450B
330
1F
100
AcDbEntity
  8
0
100
AcDbLine
 10
90.04862125825843
 20
86.84057990561425
 30
0.0
 11
90.04862125825843
 21
90.07275302918786
 31
0.0
  0
ARC
  5
450C
330
1F
100
AcDbEntity
  8
0
100
AcDbCircle
 10
220.3974802247922
 20
58.04625664540584
 30
0.0
 40
0.2
100
AcDbArc
 50
180.0
 51
270.0
  0
ARC
  5
450D
330
1F
100
AcDbEntity
  8
0
100
AcDbCircle
 10
230.2514241154685
 20
63.11814929377181
 30
0.0
 40
1.6999999983
100
AcDbArc
 50
0.1384018273715615
 51
90.13840182737153
  0
LINE
  5
450E
330
1F
100
AcDbEntity
  8
0
100
AcDbLine
 10
227.656504390498
 20
61.01187495299386
 30
0.0
 11
227.6514317035215
 21
63.11186882418216
 31
0.0
  0
LINE
  5
450F
330
1F
100
AcDbEntity
  8
0
100
AcDbLine
 10
231.9564918410258
 20
61.02226188346996
 30
0.0
 11
231.9514191540493
 21
63.1222557546577
 31
0.0
  0
LINE
  5
4510
330
1F
100
AcDbEntity
  8
0
100
AcDbLine
 10
231.9564918410256
 20
61.02226188346962
 30
0.0
 11
231.5077009369559
 21
60.52117633835853
 31
0.0
  0
LINE
  5
4511
330
1F
100
AcDbEntity
  8
0
100
AcDbLine
 10
227.656504390498
 20
61.01187495299386
 30
0.0
 11
228.1077108597945
 21
60.51296341658694
 31
0.0
  0
ARC
  5
4512
330
1F
100
AcDbEntity
  8
0
100
AcDbCircle
 10
229.3514267421023
 20
63.11597528506775
 30
0.0
 40
1.6999999983
100
AcDbArc
 50
90.13840182737153
 51
180.1384018273845
  0
LINE
  5
4513
330
1F
100
AcDbEntity
  8
0
100
AcDbLine
 10
230.2473176545828
 20
64.81814433235256
 30
0.0
 11
229.3473202812166
 21
64.8159703236485
 31
0.0
  0
LINE
  5
4514
330
1F
100
AcDbEntity
  8
0
100
AcDbLine
 10
220.3974802247923
 20
59.04625664540588
 30
0.0
 11
221.6973189679001
 21
59.04057990561425
 31
0.0
  0
ARC
  5
4515
330
1F
100
AcDbEntity
  8
0
100
AcDbCircle
 10
221.6973189678998
 20
60.14057990561434
 30
0.0
 40
0.2
100
AcDbArc
 50
0.0
 51
90.0
  0
ARC
  5
4516
330
1F
100
AcDbEntity
  8
0
100
AcDbCircle
 10
221.6973189679
 20
59.24057990561414
 30
0.0
 40
0.2
100
AcDbArc
 50
270.0
 51
0.0
  0
LINE
  5
4517
330
1F
100
AcDbEntity
  8
0
100
AcDbLine
 10
221.8973189679002
 20
60.14057990561439
 30
0.0
 11
221.8973189679002
 21
59.24057990561419
 31
0.0
  0
ARC
  5
4518
330
1F
100
AcDbEntity
  8
0
100
AcDbCircle
 10
220.3974802247922
 20
58.84625664540578
 30
0.0
 40
0.2
100
AcDbArc
 50
90.0
 51
180.0
  0
LINE
  5
451A
330
1F
100
AcDbEntity
  8
0
100
AcDbLine
 10
212.8973189679001
 20
60.14057990561439
 30
0.0
 11
212.8973189679001
 21
58.04057990561425
 31
0.0
  0
LINE
  5
451B
330
1F
100
AcDbEntity
  8
0
100
AcDbLine
 10
210.6973189679
 20
60.14057990561439
 30
0.0
 11
210.6973189679
 21
58.04057990561425
 31
0.0
  0
LINE
  5
451C
330
1F
100
AcDbEntity
  8
0
100
AcDbLine
 10
203.3973096861564
 20
58.84194235290128
 30
0.0
 11
203.3973096861564
 21
58.04194235290144
 31
0.0
  0
LINE
  5
451D
330
1F
100
AcDbEntity
  8
DIM
  6
CENTER
 62
     1
100
AcDbLine
 10
193.7900722933538
 20
66.81707483286668
 30
0.0
 11
193.7969353114796
 21
55.84057990561364
 31
0.0
  0
LINE
  5
451E
330
1F
100
AcDbEntity
  8
0
100
AcDbLine
 10
195.4869270760048
 20
60.51296341658694
 30
0.0
 11
195.4869270760049
 21
58.04057990561436
 31
0.0
  0
LINE
  5
4521
330
1F
100
AcDbEntity
  8
0
100
AcDbLine
 10
210.8973189679001
 20
57.84057990561421
 30
0.0
 11
212.6973189679
 21
57.84057990561421
 31
0.0
  0
ARC
  5
4522
330
1F
100
AcDbEntity
  8
0
100
AcDbCircle
 10
212.6973189678999
 20
58.04057990561421
 30
0.0
 40
0.2
100
AcDbArc
 50
270.0
 51
0.0
  0
ARC
  5
4523
330
1F
100
AcDbEntity
  8
0
100
AcDbCircle
 10
210.8973189678999
 20
58.04057990561421
 30
0.0
 40
0.2
100
AcDbArc
 50
180.0
 51
270.0
  0
LINE
  5
4524
330
1F
100
AcDbEntity
  8
0
100
AcDbLine
 10
195.6869270760049
 20
57.84057990561421
 30
0.0
 11
203.1973096861561
 21
57.84194235290128
 31
0.0
  0
ARC
  5
4525
330
1F
100
AcDbEntity
  8
0
100
AcDbCircle
 10
203.197309686156
 20
58.0419423529014
 30
0.0
 40
0.2
100
AcDbArc
 50
270.0
 51
0.0
  0
ARC
  5
4526
330
1F
100
AcDbEntity
  8
0
100
AcDbCircle
 10
195.6869270760049
 20
58.04057990561433
 30
0.0
 40
0.2
100
AcDbArc
 50
180.0
 51
270.0
  0
LINE
  5
4528
330
1F
100
AcDbEntity
  8
0
100
AcDbLine
 10
201.8973189679001
 20
60.34057990561421
 30
0.0
 11
210.4973189679002
 21
60.34057990561421
 31
0.0
  0
ARC
  5
4529
330
1F
100
AcDbEntity
  8
0
100
AcDbCircle
 10
213.0973189679
 20
60.14057990561434
 30
0.0
 40
0.2
100
AcDbArc
 50
90.0
 51
180.0
  0
ARC
  5
452A
330
1F
100
AcDbEntity
  8
0
100
AcDbCircle
 10
210.4973189679001
 20
60.14057990561434
 30
0.0
 40
0.2
100
AcDbArc
 50
0.0
 51
90.0
  0
ARC
  5
452B
330
1F
100
AcDbEntity
  8
0
100
AcDbCircle
 10
201.8973189679001
 20
59.24057990561414
 30
0.0
 40
0.2
100
AcDbArc
 50
180.0
 51
270.0
  0
LINE
  5
452C
330
1F
100
AcDbEntity
  8
0
100
AcDbLine
 10
201.6973189679
 20
60.14057990561439
 30
0.0
 11
201.6973189679
 21
59.24057990561419
 31
0.0
  0
ARC
  5
452D
330
1F
100
AcDbEntity
  8
0
100
AcDbCircle
 10
201.8973189679001
 20
60.14057990561434
 30
0.0
 40
0.2
100
AcDbArc
 50
90.0
 51
180.0
  0
ARC
  5
452E
330
1F
100
AcDbEntity
  8
0
100
AcDbCircle
 10
203.197309686156
 20
58.84194235290124
 30
0.0
 40
0.2
100
AcDbArc
 50
0.0
 51
90.0
  0
LINE
  5
452F
330
1F
100
AcDbEntity
  8
0
100
AcDbLine
 10
201.8973189679001
 20
59.04057990561425
 30
0.0
 11
203.1973096861561
 21
59.0419423529011
 31
0.0
  0
LINE
  5
4530
330
1F
100
AcDbEntity
  8
0
100
AcDbLine
 10
195.9381335453014
 20
61.01187495299386
 30
0.0
 11
195.9432062322778
 21
63.11186882418216
 31
0.0
  0
LINE
  5
4531
330
1F
100
AcDbEntity
  8
0
100
AcDbLine
 10
195.9381335453014
 20
61.01187495299386
 30
0.0
 11
195.4869270760048
 21
60.51296341658694
 31
0.0
  0
ARC
  5
4532
330
1F
100
AcDbEntity
  8
0
100
AcDbCircle
 10
194.2432111936971
 20
63.11597528506776
 30
0.0
 40
1.6999999983
100
AcDbArc
 50
359.8615981726154
 51
89.86159817262842
  0
LINE
  5
4533
330
1F
100
AcDbEntity
  8
DIM
  6
CENTER
 62
     1
100
AcDbLine
 10
236.1973189678999
 20
125.3405799056142
 30
0.0
 11
247.3973189679
 21
125.3405799056142
 31
0.0
  0
CIRCLE
  5
4534
330
1F
100
AcDbEntity
  8
0
100
AcDbCircle
 10
241.7973189678997
 20
125.3405799056141
 30
0.0
 40
5.5
  0
LINE
  5
4535
330
1F
100
AcDbEntity
  8
DIM
  6
CENTER
 62
     1
100
AcDbLine
 10
236.1973189678999
 20
125.3405799056142
 30
0.0
 11
247.3973189679
 21
125.3405799056139
 31
0.0
  0
LINE
  5
4536
330
1F
100
AcDbEntity
  8
0
100
AcDbLine
 10
231.7077009369567
 20
132.8405799056142
 30
0.0
 11
244.8692103562075
 21
132.8405799056142
 31
0.0
  0
LINE
  5
4537
330
1F
100
AcDbEntity
  8
0
100
AcDbLine
 10
237.1488788704474
 20
108.8283441201166
 30
0.0
 11
238.1979744028972
 21
111.316754833624
 31
0.0
  0
ARC
  5
4538
330
1F
100
AcDbEntity
  8
0
100
AcDbCircle
 10
238.5997209194858
 20
107.3640778401623
 30
0.0
 40
2.078072426362859
100
AcDbArc
 50
133.6407183530381
 51
270.3031829139994
  0
CIRCLE
  5
4539
330
1F
100
AcDbEntity
  8
0
100
AcDbCircle
 10
238.5997209194858
 20
107.3640778401623
 30
0.0
 40
1.242449324426689
  0
ARC
  5
453A
330
1F
100
AcDbEntity
  8
0
100
AcDbCircle
 10
211.7973189679001
 20
95.34057990561406
 30
0.0
 40
50.0
100
AcDbArc
 50
41.40962210926879
 51
48.59037789072904
  0
LINE
  5
453B
330
1F
100
AcDbEntity
  8
DIM
  6
CENTER
 62
     1
100
AcDbLine
 10
240.3208240406474
 20
113.3478265801594
 30
0.0
 11
251.2973189679003
 21
113.3409635620338
 31
0.0
  0
LINE
  5
453C
330
1F
100
AcDbEntity
  8
0
100
AcDbLine
 10
248.2916422281085
 20
103.7407411625062
 30
0.0
 11
249.0973189678999
 21
103.7407411625062
 31
0.0
  0
LINE
  5
453D
330
1F
100
AcDbEntity
  8
0
100
AcDbLine
 10
246.624935456927
 20
111.6509717975085
 30
0.0
 11
249.0973189678999
 21
111.6509717975085
 31
0.0
  0
LINE
  5
453E
330
1F
100
AcDbEntity
  8
0
100
AcDbLine
 10
246.6167225351555
 20
115.0509618746699
 30
0.0
 11
249.0973189679
 21
115.0509618746699
 31
0.0
  0
LINE
  5
453F
330
1F
100
AcDbEntity
  8
0
100
AcDbLine
 10
249.2973189678998
 20
128.4124712939219
 30
0.0
 11
249.2973189678998
 21
115.25096187467
 31
0.0
  0
LINE
  5
4540
330
1F
100
AcDbEntity
  8
0
100
AcDbLine
 10
249.2973189678998
 20
111.4509717975085
 30
0.0
 11
249.2973189678998
 21
103.9407411625062
 31
0.0
  0
ARC
  5
4541
330
1F
100
AcDbEntity
  8
0
100
AcDbCircle
 10
249.0973189678998
 20
103.9407411625062
 30
0.0
 40
0.2
100
AcDbArc
 50
270.0
 51
0.0
  0
ARC
  5
4542
330
1F
100
AcDbEntity
  8
0
100
AcDbCircle
 10
249.0973189678999
 20
111.4509717975084
 30
0.0
 40
0.2
100
AcDbArc
 50
0.0
 51
90.0
  0
ARC
  5
4543
330
1F
100
AcDbEntity
  8
0
100
AcDbCircle
 10
249.0973189678999
 20
115.25096187467
 30
0.0
 40
0.2
100
AcDbArc
 50
270.0000000000016
 51
0.0
  0
LINE
  5
4544
330
1F
100
AcDbEntity
  8
0
100
AcDbLine
 10
238.610717071671
 20
105.2860345071573
 30
0.0
 11
243.0531653453164
 21
105.2860345071573
 31
0.0
  0
ARC
  5
4545
330
1F
100
AcDbEntity
  8
0
100
AcDbCircle
 10
244.0219235884463
 20
112.8946876798162
 30
0.0
 40
1.6999999983
100
AcDbArc
 50
180.1384018273715
 51
270.1384018273747
  0
ARC
  5
4546
330
1F
100
AcDbEntity
  8
0
100
AcDbCircle
 10
244.0197495797422
 20
113.7946850531824
 30
0.0
 40
1.6999999983
100
AcDbArc
 50
90.1384018273748
 51
180.1384018273715
  0
LINE
  5
4547
330
1F
100
AcDbEntity
  8
0
100
AcDbLine
 10
248.0916422281085
 20
103.9407411625062
 30
0.0
 11
248.0973189679001
 21
105.240579905614
 31
0.0
  0
ARC
  5
4548
330
1F
100
AcDbEntity
  8
0
100
AcDbCircle
 10
248.2916422281085
 20
103.9407411625062
 30
0.0
 40
0.2
100
AcDbArc
 50
180.0
 51
270.0
  0
LINE
  5
4549
330
1F
100
AcDbEntity
  8
0
100
AcDbLine
 10
246.9973189679
 20
105.4405799056141
 30
0.0
 11
247.8973189679001
 21
105.4405799056141
 31
0.0
  0
ARC
  5
454A
330
1F
100
AcDbEntity
  8
0
100
AcDbCircle
 10
247.8973189679001
 20
105.240579905614
 30
0.0
 40
0.2
100
AcDbArc
 50
0.0
 51
90.0
  0
ARC
  5
454B
330
1F
100
AcDbEntity
  8
0
100
AcDbCircle
 10
246.9973189679
 20
105.2405799056137
 30
0.0
 40
0.2
100
AcDbArc
 50
90.0
 51
180.0
  0
LINE
  5
454C
330
1F
100
AcDbEntity
  8
0
100
AcDbLine
 10
246.1156369900442
 20
115.4997527787397
 30
0.0
 11
244.0156431188563
 21
115.4946800917631
 31
0.0
  0
LINE
  5
454D
330
1F
100
AcDbEntity
  8
0
100
AcDbLine
 10
246.12602392052
 20
111.199765328212
 30
0.0
 11
244.026030049332
 21
111.1946926412355
 31
0.0
  0
LINE
  5
454E
330
1F
100
AcDbEntity
  8
0
100
AcDbLine
 10
246.12602392052
 20
111.199765328212
 30
0.0
 11
246.624935456927
 21
111.6509717975085
 31
0.0
  0
LINE
  5
454F
330
1F
100
AcDbEntity
  8
0
100
AcDbLine
 10
246.1156369900444
 20
115.4997527787397
 30
0.0
 11
246.6167225351555
 21
115.0509618746699
 31
0.0
  0
LINE
  5
4550
330
1F
100
AcDbEntity
  8
0
100
AcDbLine
 10
242.3197545411615
 20
113.7905785922968
 30
0.0
 11
242.3219285498656
 21
112.8905812189306
 31
0.0
  0
CIRCLE
  5
4551
330
1F
100
AcDbEntity
  8
0
100
AcDbCircle
 10
241.7973189678997
 20
125.3405799056141
 30
0.0
 40
3.45
  0
ARC
  5
4552
330
1F
100
AcDbEntity
  8
0
 62
     3
100
AcDbCircle
 10
241.7973189678999
 20
125.3405799056141
 30
0.0
 40
4.0
100
AcDbArc
 50
270.0
 51
180.0
  0
CIRCLE
  5
4553
330
1F
100
AcDbEntity
  8
0
100
AcDbCircle
 10
241.7973189678999
 20
125.3405799056139
 30
0.0
 40
3.45
  0
LINE
  5
4554
330
1F
100
AcDbEntity
  8
DIM
  6
CENTER
 62
     1
100
AcDbLine
 10
241.7973189678999
 20
130.9405799056141
 30
0.0
 11
241.7973189678999
 21
119.740579905614
 31
0.0
  0
LINE
  5
4555
330
1F
100
AcDbEntity
  8
0
100
AcDbLine
 10
221.6973189679003
 20
130.3405799056142
 30
0.0
 11
213.0973189679002
 21
130.3405799056142
 31
0.0
  0
LINE
  5
4557
330
1F
100
AcDbEntity
  8
0
100
AcDbLine
 10
220.397328249644
 20
132.8405799056142
 30
0.0
 11
227.9077108597951
 21
132.8405799056142
 31
0.0
  0
ARC
  5
4558
330
1F
100
AcDbEntity
  8
0
100
AcDbCircle
 10
230.2514241154692
 20
127.563010517456
 30
0.0
 40
1.6999999983
100
AcDbArc
 50
269.8615981726284
 51
359.8615981726154
  0
LINE
  5
4559
330
1F
100
AcDbEntity
  8
0
100
AcDbLine
 10
231.9564918410264
 20
129.6588979277582
 30
0.0
 11
231.9514191540501
 21
127.5589040565702
 31
0.0
  0
LINE
  5
455A
330
1F
100
AcDbEntity
  8
0
100
AcDbLine
 10
227.6565043904987
 20
129.6692848582339
 30
0.0
 11
227.6514317035223
 21
127.569290987046
 31
0.0
  0
LINE
  5
455B
330
1F
100
AcDbEntity
  8
DIM
  6
CENTER
 62
     1
100
AcDbLine
 10
229.8045656424462
 20
123.8640849783613
 30
0.0
 11
229.7977026243205
 21
134.8405799056142
 31
0.0
  0
ARC
  5
455C
330
1F
100
AcDbEntity
  8
0
100
AcDbCircle
 10
229.351426742103
 20
127.5651845261603
 30
0.0
 40
1.6999999983
100
AcDbArc
 50
179.8615981726154
 51
269.8615981726284
  0
LINE
  5
455D
330
1F
100
AcDbEntity
  8
0
100
AcDbLine
 10
230.2473176545835
 20
125.8630154788753
 30
0.0
 11
229.3473202812173
 21
125.8651894875796
 31
0.0
  0
ARC
  5
455E
330
1F
100
AcDbEntity
  8
0
100
AcDbCircle
 10
231.7077009369567
 20
132.6405799056143
 30
0.0
 40
0.2
100
AcDbArc
 50
90.0
 51
180.0
  0
ARC
  5
455F
330
1F
100
AcDbEntity
  8
0
100
AcDbCircle
 10
227.9077108597951
 20
132.6405799056143
 30
0.0
 40
0.2
100
AcDbArc
 50
0.0
 51
90.0
  0
LINE
  5
4560
330
1F
100
AcDbEntity
  8
0
100
AcDbLine
 10
231.9564918410264
 20
129.6588979277584
 30
0.0
 11
231.5077009369567
 21
130.1599834728694
 31
0.0
  0
LINE
  5
4561
330
1F
100
AcDbEntity
  8
0
100
AcDbLine
 10
227.6565043904987
 20
129.6692848582339
 30
0.0
 11
228.1077108597953
 21
130.1681963946409
 31
0.0
  0
LINE
  5
4562
330
1F
100
AcDbEntity
  8
0
100
AcDbLine
 10
228.1077108597953
 20
130.1681963946409
 30
0.0
 11
228.1077108597952
 21
132.6405799056143
 31
0.0
  0
LINE
  5
4563
330
1F
100
AcDbEntity
  8
0
100
AcDbLine
 10
231.5077009369567
 20
130.1599834728694
 30
0.0
 11
231.5077009369567
 21
132.6405799056143
 31
0.0
  0
LINE
  5
4565
330
1F
100
AcDbEntity
  8
0
100
AcDbLine
 10
221.6973189679003
 20
131.6405799056139
 30
0.0
 11
220.3973282496442
 21
131.6392174583269
 31
0.0
  0
ARC
  5
4566
330
1F
100
AcDbEntity
  8
0
100
AcDbCircle
 10
221.6973189679003
 20
131.440579905614
 30
0.0
 40
0.2
100
AcDbArc
 50
0.0
 51
90.0
  0
ARC
  5
4567
330
1F
100
AcDbEntity
  8
0
100
AcDbCircle
 10
221.6973189679003
 20
130.5405799056139
 30
0.0
 40
0.2
100
AcDbArc
 50
270.0
 51
0.0
  0
LINE
  5
4568
330
1F
100
AcDbEntity
  8
0
100
AcDbLine
 10
221.8973189679003
 20
130.540579905614
 30
0.0
 11
221.8973189679003
 21
131.4405799056141
 31
0.0
  0
ARC
  5
4569
330
1F
100
AcDbEntity
  8
0
100
AcDbCircle
 10
220.3973282496443
 20
131.8392174583269
 30
0.0
 40
0.2
100
AcDbArc
 50
180.0
 51
270.0
  0
ARC
  5
456A
330
1F
100
AcDbEntity
  8
0
100
AcDbCircle
 10
220.397328249644
 20
132.6405799056141
 30
0.0
 40
0.2
100
AcDbArc
 50
90.0
 51
180.0
  0
LINE
  5
456B
330
1F
100
AcDbEntity
  8
0
100
AcDbLine
 10
220.1973282496439
 20
131.839217458327
 30
0.0
 11
220.1973282496439
 21
132.6405799056141
 31
0.0
  0
LINE
  5
456C
330
1F
100
AcDbEntity
  8
0
100
AcDbLine
 10
210.4973189679003
 20
130.3405799056142
 30
0.0
 11
201.8973189679004
 21
130.3405799056142
 31
0.0
  0
LINE
  5
456E
330
1F
100
AcDbEntity
  8
0
100
AcDbLine
 10
212.6973189679004
 20
132.8405799056139
 30
0.0
 11
210.8973189679004
 21
132.8405799056142
 31
0.0
  0
ARC
  5
456F
330
1F
100
AcDbEntity
  8
0
100
AcDbCircle
 10
212.6973189679004
 20
132.6405799056138
 30
0.0
 40
0.2
100
AcDbArc
 50
0.0
 51
90.0
  0
ARC
  5
4570
330
1F
100
AcDbEntity
  8
0
100
AcDbCircle
 10
210.8973189679004
 20
132.6405799056138
 30
0.0
 40
0.2
100
AcDbArc
 50
90.0
 51
180.0
  0
ARC
  5
4571
330
1F
100
AcDbEntity
  8
0
100
AcDbCircle
 10
213.0973189679002
 20
130.5405799056139
 30
0.0
 40
0.2
100
AcDbArc
 50
180.0
 51
270.0
  0
ARC
  5
4572
330
1F
100
AcDbEntity
  8
0
100
AcDbCircle
 10
210.4973189679003
 20
130.5405799056139
 30
0.0
 40
0.2
100
AcDbArc
 50
270.0
 51
0.0
  0
LINE
  5
4573
330
1F
100
AcDbEntity
  8
0
100
AcDbLine
 10
212.8973189679004
 20
130.540579905614
 30
0.0
 11
212.8973189679004
 21
132.6405799056139
 31
0.0
  0
LINE
  5
4574
330
1F
100
AcDbEntity
  8
0
100
AcDbLine
 10
210.6973189679004
 20
130.540579905614
 30
0.0
 11
210.6973189679004
 21
132.6405799056139
 31
0.0
  0
LINE
  5
4575
330
1F
100
AcDbEntity
  8
0
100
AcDbLine
 10
195.6869270760056
 20
132.8405799056142
 30
0.0
 11
203.1971577110081
 21
132.8405799056142
 31
0.0
  0
ARC
  5
4576
330
1F
100
AcDbEntity
  8
0
100
AcDbCircle
 10
201.8973189679003
 20
131.440579905614
 30
0.0
 40
0.2
100
AcDbArc
 50
90.0
 51
180.0
  0
ARC
  5
4577
330
1F
100
AcDbEntity
  8
0
100
AcDbCircle
 10
201.8973189679005
 20
130.5405799056139
 30
0.0
 40
0.2
100
AcDbArc
 50
180.0
 51
270.0
  0
LINE
  5
4578
330
1F
100
AcDbEntity
  8
0
100
AcDbLine
 10
201.6973189679001
 20
130.540579905614
 30
0.0
 11
201.6973189679001
 21
131.4405799056141
 31
0.0
  0
ARC
  5
4579
330
1F
100
AcDbEntity
  8
0
100
AcDbCircle
 10
203.1971577110081
 20
131.8349031658225
 30
0.0
 40
0.2
100
AcDbArc
 50
270.0
 51
0.0
  0
ARC
  5
457A
330
1F
100
AcDbEntity
  8
0
100
AcDbCircle
 10
203.1971577110081
 20
132.6405799056141
 30
0.0
 40
0.2
100
AcDbArc
 50
0.0
 51
90.0
  0
LINE
  5
457B
330
1F
100
AcDbEntity
  8
0
100
AcDbLine
 10
203.397157711008
 20
131.8349031658226
 30
0.0
 11
203.397157711008
 21
132.6405799056141
 31
0.0
  0
LINE
  5
457C
330
1F
100
AcDbEntity
  8
0
100
AcDbLine
 10
203.197157711008
 20
131.6349031658225
 30
0.0
 11
201.8973189679002
 21
131.6405799056141
 31
0.0
  0
LINE
  5
457D
330
1F
100
AcDbEntity
  8
0
100
AcDbLine
 10
195.938133545302
 20
129.6692848582339
 30
0.0
 11
195.9432062322786
 21
127.569290987046
 31
0.0
  0
LINE
  5
457E
330
1F
100
AcDbEntity
  8
DIM
  6
CENTER
 62
     1
100
AcDbLine
 10
193.7900722933545
 20
123.8640849783613
 30
0.0
 11
193.7969353114803
 21
134.8405799056142
 31
0.0
  0
ARC
  5
457F
330
1F
100
AcDbEntity
  8
0
100
AcDbCircle
 10
194.2432111936977
 20
127.5651845261603
 30
0.0
 40
1.6999999983
100
AcDbArc
 50
270.1384018273715
 51
0.1384018273715615
  0
ARC
  5
4580
330
1F
100
AcDbEntity
  8
0
100
AcDbCircle
 10
195.6869270760056
 20
132.6405799056143
 30
0.0
 40
0.2
100
AcDbArc
 50
90.0
 51
180.0
  0
LINE
  5
4581
330
1F
100
AcDbEntity
  8
0
100
AcDbLine
 10
195.938133545302
 20
129.6692848582339
 30
0.0
 11
195.4869270760056
 21
130.1681963946409
 31
0.0
  0
LINE
  5
4582
330
1F
100
AcDbEntity
  8
0
100
AcDbLine
 10
195.4869270760056
 20
130.1681963946409
 30
0.0
 11
195.4869270760056
 21
132.6405799056143
 31
0.0
  0
LINE
  5
4586
330
1F
100
AcDbEntity
  8
0
100
AcDbLine
 10
166.2973189678998
 20
105.207784872687
 30
0.0
 11
166.2973189678998
 21
85.47337493854142
 31
0.0
  0
LINE
  5
4591
330
1F
100
AcDbEntity
  8
0
100
AcDbLine
 10
82.38195459159147
 20
132.8405799056139
 30
0.0
 11
82.38195459159147
 21
95.34057990561432
 31
0.0
  0
LINE
  5
45D9
330
1F
100
AcDbEntity
  8
0
100
AcDbLine
 10
166.4197075678882
 20
85.28904786351363
 30
0.0
 11
174.2973189678998
 21
81.34057990561421
 31
0.0
  0
ARC
  5
45DA
330
1F
100
AcDbEntity
  8
0
100
AcDbCircle
 10
211.7973189679001
 20
95.34057990561406
 30
0.0
 40
50.0
100
AcDbArc
 50
221.4096221092688
 51
228.590377890729
  0
LINE
  5
45DB
330
1F
100
AcDbEntity
  8
0
100
AcDbLine
 10
192.0869369988433
 20
60.52117633835853
 30
0.0
 11
192.0869369988433
 21
58.04057990561436
 31
0.0
  0
LINE
  5
45DC
330
1F
100
AcDbEntity
  8
0
100
AcDbLine
 10
178.7254275795927
 20
57.84057990561421
 30
0.0
 11
191.8869369988434
 21
57.84057990561421
 31
0.0
  0
ARC
  5
45DD
330
1F
100
AcDbEntity
  8
0
100
AcDbCircle
 10
191.8869369988434
 20
58.04057990561433
 30
0.0
 40
0.2
100
AcDbArc
 50
270.0
 51
0.0
  0
CIRCLE
  5
45DE
330
1F
100
AcDbEntity
  8
0
100
AcDbCircle
 10
181.7973189678999
 20
65.34057990561416
 30
0.0
 40
3.45
  0
LINE
  5
45DF
330
1F
100
AcDbEntity
  8
DIM
  6
CENTER
 62
     1
100
AcDbLine
 10
176.1973189679
 20
65.34057990561421
 30
0.0
 11
187.3973189679001
 21
65.34057990561421
 31
0.0
  0
ARC
  5
45E0
330
1F
100
AcDbEntity
  8
0
 62
     3
100
AcDbCircle
 10
181.7973189679
 20
65.34057990561416
 30
0.0
 40
4.0
100
AcDbArc
 50
270.0
 51
180.0
  0
CIRCLE
  5
45E1
330
1F
100
AcDbEntity
  8
0
100
AcDbCircle
 10
181.7973189678999
 20
65.34057990561416
 30
0.0
 40
5.5
  0
LINE
  5
45E2
330
1F
100
AcDbEntity
  8
DIM
  6
CENTER
 62
     1
100
AcDbLine
 10
183.2738138951527
 20
77.33333323106823
 30
0.0
 11
172.2973189678999
 21
77.34019624919408
 31
0.0
  0
CIRCLE
  5
45E3
330
1F
100
AcDbEntity
  8
0
100
AcDbCircle
 10
181.7973189678999
 20
65.34057990561416
 30
0.0
 40
3.45
  0
LINE
  5
45E4
330
1F
100
AcDbEntity
  8
DIM
  6
CENTER
 62
     1
100
AcDbLine
 10
176.1973189679
 20
65.34057990561421
 30
0.0
 11
187.3973189679001
 21
65.34057990561421
 31
0.0
  0
LINE
  5
45E5
330
1F
100
AcDbEntity
  8
0
100
AcDbLine
 10
191.6381460947736
 20
61.02226188346996
 30
0.0
 11
191.64321878175
 21
63.1222557546577
 31
0.0
  0
LINE
  5
45E6
330
1F
100
AcDbEntity
  8
0
100
AcDbLine
 10
191.6381460947737
 20
61.02226188346962
 30
0.0
 11
192.0869369988433
 21
60.52117633835853
 31
0.0
  0
ARC
  5
45E7
330
1F
100
AcDbEntity
  8
0
100
AcDbCircle
 10
193.3432138203309
 20
63.11814929377181
 30
0.0
 40
1.6999999983
100
AcDbArc
 50
89.86159817262842
 51
179.8615981726284
  0
ARC
  5
45E8
330
1F
100
AcDbEntity
  8
0
100
AcDbCircle
 10
179.5727143473537
 20
77.78647213141141
 30
0.0
 40
1.6999999983
100
AcDbArc
 50
0.1384018273715615
 51
90.1384018273748
  0
LINE
  5
45E9
330
1F
100
AcDbEntity
  8
0
100
AcDbLine
 10
177.4790009457557
 20
75.18140703248814
 30
0.0
 11
176.9779154006446
 21
75.63019793655796
 31
0.0
  0
LINE
  5
45EA
330
1F
100
AcDbEntity
  8
DIM
  6
CENTER
 62
     1
100
AcDbLine
 10
181.7973189679
 20
70.940579905614
 30
0.0
 11
181.7973189679
 21
59.74057990561418
 31
0.0
  0
LINE
  5
45EB
330
1F
100
AcDbEntity
  8
0
100
AcDbLine
 10
177.4790009457559
 20
75.18140703248814
 30
0.0
 11
179.5789948169438
 21
75.18647971946454
 31
0.0
  0
LINE
  5
45EC
330
1F
100
AcDbEntity
  8
0
100
AcDbLine
 10
181.2748833946387
 20
76.8905812189311
 30
0.0
 11
181.2727093859344
 21
77.7905785922973
 31
0.0
  0
ARC
  5
45ED
330
1F
100
AcDbEntity
  8
0
100
AcDbCircle
 10
179.5748883560579
 20
76.88647475804521
 30
0.0
 40
1.6999999983
100
AcDbArc
 50
270.1384018273747
 51
0.1384018273715615
  0
LINE
  5
45EE
330
1F
100
AcDbEntity
  8
0
100
AcDbLine
 10
174.2973189678998
 20
75.63019793655773
 30
0.0
 11
174.2973189678999
 21
62.2686885173071
 31
0.0
  0
LINE
  5
45EF
330
1F
100
AcDbEntity
  8
0
100
AcDbLine
 10
176.9779154006446
 20
75.63019793655796
 30
0.0
 11
174.2973189678999
 21
75.63019793655773
 31
0.0
  0
LINE
  5
45F0
330
1F
100
AcDbEntity
  8
0
100
AcDbLine
 10
177.46861401528
 20
79.48139448301576
 30
0.0
 11
176.9697024788731
 21
79.03018801371938
 31
0.0
  0
LINE
  5
45F1
330
1F
100
AcDbEntity
  8
0
100
AcDbLine
 10
177.46861401528
 20
79.48139448301576
 30
0.0
 11
179.5686078864681
 21
79.48646716999239
 31
0.0
  0
LINE
  5
45F2
330
1F
100
AcDbEntity
  8
0
100
AcDbLine
 10
174.2973189678998
 20
81.34057990561421
 30
0.0
 11
174.2973189678998
 21
79.03018801371938
 31
0.0
  0
LINE
  5
45F3
330
1F
100
AcDbEntity
  8
0
100
AcDbLine
 10
176.9697024788731
 20
79.03018801371938
 30
0.0
 11
174.2973189678999
 21
79.03018801371938
 31
0.0
  0
ARC
  5
45F7
330
1F
100
AcDbEntity
  8
0
100
AcDbCircle
 10
166.4973189678998
 20
85.47337493854138
 30
0.0
 40
0.2
100
AcDbArc
 50
180.0
 51
247.1663458220828
  0
LINE
  5
45FA
330
1F
100
AcDbEntity
  8
0
100
AcDbLine
 10
174.2973189678999
 20
109.3405799056142
 30
0.0
 11
166.4197075678882
 21
105.3921119477146
 31
0.0
  0
CIRCLE
  5
45FB
330
1F
100
AcDbEntity
  8
0
100
AcDbCircle
 10
181.7973189678999
 20
125.3405799056141
 30
0.0
 40
3.45
  0
LINE
  5
45FC
330
1F
100
AcDbEntity
  8
DIM
  6
CENTER
 62
     1
100
AcDbLine
 10
176.1973189679
 20
125.3405799056142
 30
0.0
 11
187.3973189679001
 21
125.3405799056142
 31
0.0
  0
ARC
  5
45FD
330
1F
100
AcDbEntity
  8
0
 62
     3
100
AcDbCircle
 10
181.7973189679
 20
125.3405799056141
 30
0.0
 40
4.0
100
AcDbArc
 50
270.0
 51
180.0
  0
CIRCLE
  5
45FE
330
1F
100
AcDbEntity
  8
0
100
AcDbCircle
 10
181.7973189678999
 20
125.3405799056141
 30
0.0
 40
5.5
  0
CIRCLE
  5
45FF
330
1F
100
AcDbEntity
  8
0
100
AcDbCircle
 10
181.7973189678999
 20
125.3405799056141
 30
0.0
 40
3.45
  0
LINE
  5
4600
330
1F
100
AcDbEntity
  8
DIM
  6
CENTER
 62
     1
100
AcDbLine
 10
176.1973189678999
 20
125.3405799056142
 30
0.0
 11
187.3973189678999
 21
125.3405799056142
 31
0.0
  0
LINE
  5
4601
330
1F
100
AcDbEntity
  8
0
100
AcDbLine
 10
178.7254275795927
 20
132.8405799056142
 30
0.0
 11
191.8869369988441
 21
132.8405799056142
 31
0.0
  0
LINE
  5
4602
330
1F
100
AcDbEntity
  8
DIM
  6
CENTER
 62
     1
100
AcDbLine
 10
183.2738138951527
 20
113.3478265801601
 30
0.0
 11
172.2973189678999
 21
113.3409635620343
 31
0.0
  0
LINE
  5
4603
330
1F
100
AcDbEntity
  8
0
100
AcDbLine
 10
191.6381460947743
 20
129.6588979277582
 30
0.0
 11
191.6432187817508
 21
127.5589040565702
 31
0.0
  0
ARC
  5
4604
330
1F
100
AcDbEntity
  8
0
100
AcDbCircle
 10
193.3432138203315
 20
127.563010517456
 30
0.0
 40
1.6999999983
100
AcDbArc
 50
180.1384018273715
 51
270.1384018273715
  0
ARC
  5
4605
330
1F
100
AcDbEntity
  8
0
100
AcDbCircle
 10
191.8869369988441
 20
132.6405799056143
 30
0.0
 40
0.2
100
AcDbArc
 50
0.0
 51
90.0
  0
LINE
  5
4606
330
1F
100
AcDbEntity
  8
0
100
AcDbLine
 10
191.6381460947744
 20
129.6588979277584
 30
0.0
 11
192.0869369988441
 21
130.1599834728694
 31
0.0
  0
LINE
  5
4607
330
1F
100
AcDbEntity
  8
0
100
AcDbLine
 10
192.0869369988441
 20
130.1599834728694
 30
0.0
 11
192.086936998844
 21
132.6405799056143
 31
0.0
  0
LINE
  5
4608
330
1F
100
AcDbEntity
  8
0
100
AcDbLine
 10
174.2973189678999
 20
128.4124712939216
 30
0.0
 11
174.2973189678999
 21
115.0509618746706
 31
0.0
  0
LINE
  5
4609
330
1F
100
AcDbEntity
  8
0
100
AcDbLine
 10
177.46861401528
 20
111.1997653282125
 30
0.0
 11
176.9697024788731
 21
111.6509717975092
 31
0.0
  0
LINE
  5
460A
330
1F
100
AcDbEntity
  8
0
100
AcDbLine
 10
177.4790009457557
 20
115.4997527787401
 30
0.0
 11
176.9779154006446
 21
115.0509618746706
 31
0.0
  0
LINE
  5
460B
330
1F
100
AcDbEntity
  8
0
100
AcDbLine
 10
177.4790009457559
 20
115.4997527787401
 30
0.0
 11
179.5789948169438
 21
115.4946800917638
 31
0.0
  0
LINE
  5
460C
330
1F
100
AcDbEntity
  8
0
100
AcDbLine
 10
177.46861401528
 20
111.1997653282125
 30
0.0
 11
179.5686078864681
 21
111.1946926412362
 31
0.0
  0
ARC
  5
460D
330
1F
100
AcDbEntity
  8
0
100
AcDbCircle
 10
179.5727143473537
 20
112.8946876798169
 30
0.0
 40
1.6999999983
100
AcDbArc
 50
269.8615981726252
 51
359.8615981726284
  0
LINE
  5
460E
330
1F
100
AcDbEntity
  8
0
100
AcDbLine
 10
181.2748833946387
 20
113.7905785922973
 30
0.0
 11
181.2727093859344
 21
112.890581218931
 31
0.0
  0
ARC
  5
460F
330
1F
100
AcDbEntity
  8
0
100
AcDbCircle
 10
179.5748883560579
 20
113.7946850531831
 30
0.0
 40
1.6999999983
100
AcDbArc
 50
359.8615981726284
 51
89.86159817262524
  0
LINE
  5
4612
330
1F
100
AcDbEntity
  8
0
100
AcDbLine
 10
176.9697024788731
 20
111.6509717975092
 30
0.0
 11
174.2973189678999
 21
111.650971797509
 31
0.0
  0
LINE
  5
4613
330
1F
100
AcDbEntity
  8
0
100
AcDbLine
 10
174.2973189678998
 20
111.6509717975092
 30
0.0
 11
174.2973189678999
 21
109.3405799056142
 31
0.0
  0
LINE
  5
4614
330
1F
100
AcDbEntity
  8
0
100
AcDbLine
 10
176.9779154006446
 20
115.0509618746706
 30
0.0
 11
174.2973189678999
 21
115.0509618746706
 31
0.0
  0
ARC
  5
4615
330
1F
100
AcDbEntity
  8
0
100
AcDbCircle
 10
211.7973189679001
 20
95.34057990561406
 30
0.0
 40
50.0
100
AcDbArc
 50
131.4096221092709
 51
138.5903778907311
  0
LINE
  5
4616
330
1F
100
AcDbEntity
  8
DIM
  6
CENTER
 62
     1
100
AcDbLine
 10
181.7973189678999
 20
130.9405799056141
 30
0.0
 11
181.7973189678999
 21
119.7405799056143
 31
0.0
  0
ARC
  5
4617
330
1F
100
AcDbEntity
  8
0
100
AcDbCircle
 10
166.4973189678998
 20
105.207784872687
 30
0.0
 40
0.2
100
AcDbArc
 50
112.8336541779171
 51
180.0
  0
LINE
  5
4619
330
1F
100
AcDbEntity
  8
0
100
AcDbLine
 10
82.38195459159147
 20
132.8405799056139
 30
0.0
 11
49.88195459159147
 21
132.8405799056139
 31
0.0
  0
LINE
  5
461C
330
1F
100
AcDbEntity
  8
0
100
AcDbLine
 10
86.38195459159147
 20
95.34057990561437
 30
0.0
 11
86.38195459159147
 21
107.0549392595593
 31
0.0
  0
LINE
  5
461D
330
1F
100
AcDbEntity
  8
0
100
AcDbLine
 10
88.3819545915918
 20
100.6084067820407
 30
0.0
 11
88.3819545915918
 21
95.34057990561432
 31
0.0
  0
LINE
  5
461E
330
1F
100
AcDbEntity
  8
0
100
AcDbLine
 10
88.3819545915918
 20
100.6084067820407
 30
0.0
 11
88.38382164620567
 21
95.41539753688407
 31
0.0
  0
LINE
  5
461F
330
1F
100
AcDbEntity
  8
0
100
AcDbLine
 10
88.3819545915918
 20
100.6084067820407
 30
0.0
 11
88.38382164620567
 21
95.41539753688407
 31
0.0
  0
ARC
  5
4620
330
1F
100
AcDbEntity
  8
0
100
AcDbCircle
 10
96.88195459159215
 20
95.34057990561432
 30
0.0
 40
10.00000000000029
100
AcDbArc
 50
148.2116693829454
 51
180.0
  0
LINE
  5
4621
330
1F
100
AcDbEntity
  8
0
100
AcDbLine
 10
88.38195459159193
 20
103.8405799056144
 30
0.0
 11
91.38195459159192
 21
103.8405799056143
 31
0.0
  0
LINE
  5
4622
330
1F
100
AcDbEntity
  8
0
100
AcDbLine
 10
91.38195459159181
 20
100.6084067820407
 30
0.0
 11
88.3819545915918
 21
100.6084067820407
 31
0.0
  0
LINE
  5
4623
330
1F
100
AcDbEntity
  8
0
100
AcDbLine
 10
86.38195459159147
 20
113.3405799056142
 30
0.0
 11
86.38195459159147
 21
107.0549392595593
 31
0.0
  0
LINE
  5
4624
330
1F
100
AcDbEntity
  8
0
100
AcDbLine
 10
86.88195459159192
 20
105.3405799056144
 30
0.0
 11
88.38195459159193
 21
103.8405799056144
 31
0.0
  0
LINE
  5
4625
330
1F
100
AcDbEntity
  8
0
100
AcDbLine
 10
86.38195459159147
 20
105.3405799056143
 30
0.0
 11
86.88195459159215
 21
105.3405799056143
 31
0.0
  0
LINE
  5
4626
330
1F
100
AcDbEntity
  8
0
100
AcDbLine
 10
90.04862125825843
 20
103.8405799056143
 30
0.0
 11
90.04862125825843
 21
100.6084067820407
 31
0.0
  0
LINE
  5
4627
330
1F
100
AcDbEntity
  8
0
100
AcDbLine
 10
84.38195459159146
 20
115.3405799056142
 30
0.0
 11
82.38195459159147
 21
115.3405799056142
 31
0.0
  0
ARC
  5
4628
330
1F
100
AcDbEntity
  8
0
100
AcDbCircle
 10
84.38195459159146
 20
113.3405799056142
 30
0.0
 40
2.0
100
AcDbArc
 50
359.9999999999997
 51
90.00000000000003
  0
LINE
  5
4629
330
1F
100
AcDbEntity
  8
0
100
AcDbLine
 10
82.38195459159147
 20
85.36274555727748
 30
0.0
 11
49.88195459159147
 21
85.36274555727748
 31
0.0
  0
LINE
  5
462A
330
1F
100
AcDbEntity
  8
0
100
AcDbLine
 10
82.38195459159147
 20
78.91955863245543
 30
0.0
 11
49.88195459159147
 21
78.91955863245543
 31
0.0
  0
LINE
  5
462B
330
1F
100
AcDbEntity
  8
0
100
AcDbLine
 10
82.38195459159147
 20
62.26868851730801
 30
0.0
 11
49.88195459159147
 21
62.26868851730801
 31
0.0
  0
LINE
  5
462C
330
1F
100
AcDbEntity
  8
0
100
AcDbLine
 10
82.38195459159147
 20
105.3184142539511
 30
0.0
 11
49.88195459159147
 21
105.3184142539511
 31
0.0
  0
LINE
  5
462D
330
1F
100
AcDbEntity
  8
0
100
AcDbLine
 10
82.38195459159147
 20
111.7616011787732
 30
0.0
 11
49.88195459159147
 21
111.7616011787732
 31
0.0
  0
LINE
  5
462E
330
1F
100
AcDbEntity
  8
0
100
AcDbLine
 10
82.38195459159147
 20
128.4124712939206
 30
0.0
 11
49.88195459159147
 21
128.4124712939206
 31
0.0
  0
ARC
  5
4630
330
1F
100
AcDbEntity
  8
0
100
AcDbCircle
 10
71.38195459159146
 20
95.34057990561414
 30
0.0
 40
5.360000000000255
100
AcDbArc
 50
156.741891435958
 51
102.4660569609088
  0
CIRCLE
  5
4631
330
1F
100
AcDbEntity
  8
0
100
AcDbCircle
 10
71.38195459159146
 20
95.34057990561432
 30
0.0
 40
4.361997852010862
  0
DIMENSION
  5
4633
330
1F
100
AcDbEntity
  8
DIM
100
AcDbDimension
  2
*D1
 10
49.88195459159147
 20
151.264351989436
 30
0.0
 11
66.13195459159147
 21
153.764351989436
 31
0.0
 70
    32
  3
ISO-25-1
100
AcDbAlignedDimension
 13
82.38195459159147
 23
132.8405799056139
 33
0.0
 14
49.88195459159147
 24
132.8405799056139
 34
0.0
100
AcDbRotatedDimension
  0
ARC
  5
4649
330
1F
100
AcDbEntity
  8
0
100
AcDbCircle
 10
60.88195459159146
 20
95.34057990561414
 30
0.0
 40
5.360000000000255
100
AcDbArc
 50
164.9093071312345
 51
107.3954216806358
  0
CIRCLE
  5
464A
330
1F
100
AcDbEntity
  8
0
100
AcDbCircle
 10
60.88195459159146
 20
95.34057990561432
 30
0.0
 40
4.361997852010862
  0
LINE
  5
464B
330
1F
100
AcDbEntity
  8
DIM
  6
CENTER
 62
     1
100
AcDbLine
 10
71.38195459159146
 20
102.447975588923
 30
0.0
 11
71.38195459159146
 21
88.47289986639673
 31
0.0
  0
LINE
  5
464C
330
1F
100
AcDbEntity
  8
DIM
  6
CENTER
 62
     1
100
AcDbLine
 10
60.88195459159146
 20
102.447975588923
 30
0.0
 11
60.88195459159146
 21
88.47289986639673
 31
0.0
  0
DIMENSION
  5
4656
330
1F
100
AcDbEntity
  8
DIM
100
AcDbDimension
  2
*D2
 10
49.88195459159147
 20
142.0482769153807
 30
0.0
 11
55.38195459159147
 21
144.5482769153807
 31
0.0
 70
    32
  3
ISO-25-1
100
AcDbAlignedDimension
 13
60.88195459159146
 23
102.4479755889231
 33
0.0
 14
49.88195459159147
 24
132.8405799056139
 34
0.0
100
AcDbRotatedDimension
  0
DIMENSION
  5
4663
330
1F
100
AcDbEntity
  8
DIM
100
AcDbDimension
  2
*D3
 10
82.38195459159147
 20
142.0482769153807
 30
0.0
 11
76.88195459159146
 21
144.5482769153807
 31
0.0
 70
    32
  3
ISO-25-1
100
AcDbAlignedDimension
 13
71.38195459159146
 23
102.4479755889231
 33
0.0
 14
82.38195459159147
 24
132.8405799056139
 34
0.0
100
AcDbRotatedDimension
  0
DIMENSION
  5
4682
330
1F
100
AcDbEntity
  8
DIM
100
AcDbDimension
  2
*D4
 10
91.38195459159192
 20
151.264351989436
 30
0.0
 11
86.88195459159169
 21
153.764351989436
 31
0.0
 70
    32
  3
ISO-25-1
100
AcDbAlignedDimension
 13
82.38195459159147
 23
132.8405799056139
 33
0.0
 14
91.38195459159192
 24
103.8405799056143
 34
0.0
100
AcDbRotatedDimension
  0
DIMENSION
  5
468F
330
1F
100
AcDbEntity
  8
DIM
100
AcDbDimension
  2
*D5
 10
49.88195459159147
 20
160.3825533515312
 30
0.0
 11
70.63195459159169
 21
162.8825533515312
 31
0.0
 70
    32
  3
ISO-25-1
100
AcDbAlignedDimension
 13
91.38195459159192
 23
103.8405799056143
 33
0.0
 14
49.88195459159147
 24
132.8405799056139
 34
0.0
100
AcDbRotatedDimension
  0
DIMENSION
  5
469C
330
1F
100
AcDbEntity
  8
DIM
100
AcDbDimension
  2
*D6
 10
82.38195459159147
 20
45.78853066452511
 30
0.0
 11
84.38195459159146
 21
45.78853066452511
 31
0.0
 70
   160
  3
ISO-25-1
100
AcDbAlignedDimension
 13
86.38195459159147
 23
77.34057990561438
 33
0.0
 14
82.38195459159147
 24
57.84057990561318
 34
0.0
100
AcDbRotatedDimension
  0
DIMENSION
  5
46E4
330
1F
100
AcDbEntity
  8
DIM
100
AcDbDimension
  2
*D7
 10
110.5400902557522
 20
85.3405799056143
 30
0.0
 11
108.0400902557522
 21
95.34057990561434
 31
0.0
 70
    32
  1
%%c<>
  3
ISO-25-1
100
AcDbAlignedDimension
 13
86.38195459159147
 23
105.3405799056143
 33
0.0
 14
86.38195459159147
 24
85.34057990561432
 34
0.0
 50
90.0
100
AcDbRotatedDimension
  0
DIMENSION
  5
46F1
330
1F
100
AcDbEntity
  8
DIM
100
AcDbDimension
  2
*D8
 10
118.7743384831929
 20
75.34057990561436
 30
0.0
 11
116.2743384831929
 21
95.34057990561432
 31
0.0
 70
    32
  1
%%c<>
  3
ISO-25-1
100
AcDbAlignedDimension
 13
84.38195459159146
 23
115.3405799056142
 33
0.0
 14
84.38195459159146
 24
75.34057990561437
 34
0.0
 50
90.0
100
AcDbRotatedDimension
  0
LEADER
  5
4763
330
1F
100
AcDbEntity
  8
DIM
100
AcDbLeader
  3
ISO-25-1
 73
     0
 75
     1
 40
4.571428571428571
 41
19.71428571428571
 76
     3
 10
60.88195459159146
 20
95.34057990561414
 30
0.0
 10
43.82699347318356
 20
116.4624725644755
 30
0.0
 10
40.82699347318356
 20
116.4624725644755
 30
0.0
340
4764
1001
ACAD
1000
DSTYLE
1002
{
1070
     5
1000

1070
    77
1070
     1
1070
   147
1040
1.0
1070
   342
1005
0
1002
}
1000
LEANOF
1010
0.0
1020
0.0
1030
0.0
  0
MTEXT
  5
4764
330
1F
100
AcDbEntity
  8
DIM
100
AcDbMText
 10
39.82699347318356
 20
117.4624725644755
 30
0.0
 40
3.0
 41
0.0
 71
     9
 72
     1
  1
2-PT1/4
  7
CHINESET
1001
ACAD
1000
MTEXTBEGIN
1070
    73
1070
     1
1070
    44
1040
1.0
1070
    74
1070
     0
1000
MTEXTEND
  0
DIMENSION
  5
4765
330
1F
100
AcDbEntity
  8
DIM
100
AcDbDimension
  2
*D9
 10
156.2622481571671
 20
65.34057990561422
 30
0.0
 11
153.7622481571671
 21
95.34057990561423
 31
0.0
 70
    32
  1
\U+25A1<>
  3
ISO-25-1
100
AcDbAlignedDimension
 13
176.1973189678999
 23
125.3405799056142
 33
0.0
 14
176.1973189678999
 24
65.34057990561421
 34
0.0
 50
90.0
100
AcDbRotatedDimension
  0
DIMENSION
  5
4772
330
1F
100
AcDbEntity
  8
DIM
100
AcDbDimension
  2
*D10
 10
142.0793315802635
 20
57.84057990561413
 30
0.0
 11
139.5793315802635
 21
95.3405799056142
 31
0.0
 70
    32
  3
ISO-25-1
100
AcDbAlignedDimension
 13
178.7254275795928
 23
132.8405799056142
 33
0.0
 14
178.7254275795926
 24
57.84057990561411
 34
0.0
 50
90.0
100
AcDbRotatedDimension
  0
DIMENSION
  5
477F
330
1F
100
AcDbEntity
  8
DIM
100
AcDbDimension
  2
*D11
 10
249.2973189678998
 20
146.598694479257
 30
0.0
 11
207.7973189678998
 21
149.098694479257
 31
0.0
 70
    32
  3
ISO-25-1
100
AcDbAlignedDimension
 13
166.2973189678998
 23
105.207784872687
 33
0.0
 14
249.2973189678998
 24
128.4124712939219
 34
0.0
100
AcDbRotatedDimension
  0
LINE
  5
47A3
330
1F
100
AcDbEntity
  8
0
100
AcDbLine
 10
203.2973189679
 20
87.80402897033864
 30
0.0
 11
203.2973189679
 21
102.8771308408894
 31
0.0
  0
LINE
  5
47A4
330
1F
100
AcDbEntity
  8
0
100
AcDbLine
 10
220.2973189679001
 20
87.80402897033859
 30
0.0
 11
220.2973189679001
 21
102.8771308408894
 31
0.0
  0
LINE
  5
47A5
330
1F
100
AcDbEntity
  8
0
100
AcDbLine
 10
219.3338699031755
 20
86.84057990561409
 30
0.0
 11
204.2607680326245
 21
86.84057990561409
 31
0.0
  0
LINE
  5
47A6
330
1F
100
AcDbEntity
  8
0
100
AcDbLine
 10
219.3338699031754
 20
103.840579905614
 30
0.0
 11
204.2607680326247
 21
103.840579905614
 31
0.0
  0
DIMENSION
  5
47A7
330
1F
100
AcDbEntity
  8
DIM
100
AcDbDimension
  2
*D12
 10
203.2973189679
 20
43.30695876400413
 30
0.0
 11
211.7973189679001
 21
45.80695876400413
 31
0.0
 70
    32
  3
ISO-25-1
100
AcDbAlignedDimension
 13
220.2973189679001
 23
87.80402897033875
 33
0.0
 14
203.2973189679
 24
87.80402897033875
 34
0.0
100
AcDbRotatedDimension
  0
ARC
  5
47B4
330
1F
100
AcDbEntity
  8
0
100
AcDbCircle
 10
211.7973189679001
 20
95.34057990561443
 30
0.0
 40
5.0
100
AcDbArc
 50
169.0441022243952
 51
108.4778014461094
  0
CIRCLE
  5
47B5
330
1F
100
AcDbEntity
  8
0
100
AcDbCircle
 10
211.7973189679001
 20
95.34057990561443
 30
0.0
 40
4.25
  0
LEADER
  5
47B7
330
1F
100
AcDbEntity
  8
DIM
100
AcDbLeader
  3
ISO-25-1
 73
     0
 75
     1
 40
3.0
 41
26.57142857142856
 76
     3
 10
211.7973189679001
 20
95.34057990561406
 30
0.0
 10
170.111574537099
 20
166.2993920567837
 30
0.0
 10
167.111574537099
 20
166.2993920567837
 30
0.0
340
47B8
1001
ACAD
1000
DSTYLE
1002
{
1070
     5
1000

1070
    77
1070
     1
1070
   147
1040
1.0
1070
   342
1005
0
1002
}
1000
LEANOF
1010
0.0
1020
0.0
1030
0.0
  0
MTEXT
  5
47B8
330
1F
100
AcDbEntity
  8
DIM
100
AcDbMText
 10
166.111574537099
 20
167.2993920567837
 30
0.0
 40
3.0
 41
0.0
 71
     9
 72
     1
  1
\A1;M10*1.5*15L
  7
CHINESET
1001
ACAD
1000
MTEXTBEGIN
1070
    73
1070
     1
1070
    44
1040
1.0
1070
    74
1070
     0
1000
MTEXTEND
  0
LEADER
  5
47B9
330
1F
100
AcDbEntity
  8
DIM
100
AcDbLeader
  3
ISO-25-1
 73
     0
 75
     1
 40
13.10260826771653
 41
27.14285714285713
 76
     3
 10
241.7973189678997
 20
125.3405799056141
 30
0.0
 10
225.6209268429348
 20
176.0301080043314
 30
0.0
 10
222.6209268429348
 20
176.0301080043314
 30
0.0
340
47BA
1001
ACAD
1000
DSTYLE
1002
{
1070
     5
1000

1070
    77
1070
     1
1070
   147
1040
1.0
1070
   342
1005
0
1002
}
1000
LEANOF
1010
0.0
1020
0.0
1030
0.0
  0
MTEXT
  5
47BA
330
1F
100
AcDbEntity
  8
DIM
100
AcDbMText
 10
221.6209268429348
 20
177.0301080043314
 30
0.0
 40
3.0
 41
0.0
 71
     9
 72
     1
  1
沉孔%%C11*8.5深\PM8*1.25*10L\P%%C6.9貫通
  7
CHINESET
1001
ACAD
1000
MTEXTBEGIN
1070
    73
1070
     1
1070
    44
1040
1.0
1070
    74
1070
     0
1000
MTEXTEND
  0
LEADER
  5
4834
330
1F
100
AcDbEntity
  8
DIM
100
AcDbLeader
  3
ISO-25-1
 73
     0
 75
     1
 40
4.571428571428571
 41
19.71428571428571
 76
     3
 10
48.69213456137709
 20
277.4408739168584
 30
0.0
 10
31.63717344296918
 20
298.5627665757198
 30
0.0
 10
28.63717344296918
 20
298.5627665757198
 30
0.0
340
4843
1001
ACAD
1000
DSTYLE
1002
{
1070
     5
1000

1070
    77
1070
     1
1070
   147
1040
1.0
1070
   342
1005
0
1002
}
1000
LEANOF
1010
0.0
1020
0.0
1030
0.0
  0
DIMENSION
  5
4835
330
1F
100
AcDbEntity
  8
DIM
100
AcDbDimension
  2
*D14
 10
37.69213456137709
 20
324.148570926625
 30
0.0
 11
43.19213456137709
 21
326.648570926625
 31
0.0
 70
    32
  3
ISO-25-1
100
AcDbAlignedDimension
 13
48.69213456137709
 23
284.5482696001673
 33
0.0
 14
37.69213456137709
 24
314.9408739168582
 34
0.0
100
AcDbRotatedDimension
  0
DIMENSION
  5
4836
330
1F
100
AcDbEntity
  8
DIM
100
AcDbDimension
  2
*D17
 10
37.69213456137709
 20
342.4828473627755
 30
0.0
 11
71.94213456137709
 21
344.9828473627755
 31
0.0
 70
    32
  3
ISO-25-1
100
AcDbAlignedDimension
 13
106.192134561377
 23
285.2408739168585
 33
0.0
 14
37.69213456137709
 24
314.9408739168582
 34
0.0
100
AcDbRotatedDimension
  0
DIMENSION
  5
4837
330
1F
100
AcDbEntity
  8
DIM
100
AcDbDimension
  2
*D13
 10
37.69213456137709
 20
333.3646460006803
 30
0.0
 11
53.94213456137709
 21
335.8646460006803
 31
0.0
 70
    32
  3
ISO-25-1
100
AcDbAlignedDimension
 13
70.19213456137709
 23
314.9408739168582
 33
0.0
 14
37.69213456137709
 24
314.9408739168582
 34
0.0
100
AcDbRotatedDimension
  0
LINE
  5
4838
330
1F
100
AcDbEntity
  8
DIM
  6
CENTER
 62
     1
100
AcDbLine
 10
35.4730981114476
 20
277.4408739168586
 30
0.0
 11
110.4354678986249
 21
277.4408739168586
 31
0.0
  0
LINE
  5
4839
330
1F
100
AcDbEntity
  8
0
100
AcDbLine
 10
70.19213456137709
 20
314.9408739168582
 30
0.0
 11
37.69213456137709
 21
314.9408739168582
 31
0.0
  0
LINE
  5
483A
330
1F
100
AcDbEntity
  8
0
100
AcDbLine
 10
70.19213456137709
 20
287.4187082651954
 30
0.0
 11
37.69213456137709
 21
287.4187082651954
 31
0.0
  0
LINE
  5
483B
330
1F
100
AcDbEntity
  8
0
100
AcDbLine
 10
70.19213456137709
 20
293.8618951900174
 30
0.0
 11
37.69213456137709
 21
293.8618951900174
 31
0.0
  0
LINE
  5
483C
330
1F
100
AcDbEntity
  8
0
100
AcDbLine
 10
70.19213456137709
 20
310.5127653051649
 30
0.0
 11
37.69213456137709
 21
310.5127653051649
 31
0.0
  0
LINE
  5
483D
330
1F
100
AcDbEntity
  8
0
100
AcDbLine
 10
70.19213456137709
 20
239.9408739168574
 30
0.0
 11
37.69213456137709
 21
239.9408739168574
 31
0.0
  0
LINE
  5
483E
330
1F
100
AcDbEntity
  8
0
100
AcDbLine
 10
70.19213456137709
 20
244.3689825285523
 30
0.0
 11
37.69213456137709
 21
244.3689825285523
 31
0.0
  0
LINE
  5
483F
330
1F
100
AcDbEntity
  8
0
100
AcDbLine
 10
70.19213456137709
 20
261.0198526436997
 30
0.0
 11
37.69213456137709
 21
261.0198526436997
 31
0.0
  0
LINE
  5
4840
330
1F
100
AcDbEntity
  8
0
100
AcDbLine
 10
70.19213456137709
 20
267.4630395685217
 30
0.0
 11
37.69213456137709
 21
267.4630395685217
 31
0.0
  0
LINE
  5
4841
330
1F
100
AcDbEntity
  8
0
100
AcDbLine
 10
37.69213456137709
 20
277.4408739168584
 30
0.0
 11
37.69213456137709
 21
239.9408739168588
 31
0.0
  0
LINE
  5
4842
330
1F
100
AcDbEntity
  8
0
100
AcDbLine
 10
37.69213456137686
 20
253.9408739168588
 30
0.0
 11
37.69213456137709
 21
239.9408739168588
 31
0.0
  0
MTEXT
  5
4843
330
1F
100
AcDbEntity
  8
DIM
100
AcDbMText
 10
27.63717344296918
 20
299.5627665757197
 30
0.0
 40
3.0
 41
0.0
 71
     9
 72
     1
  1
2-PT1/4
  7
CHINESET
1001
ACAD
1000
MTEXTBEGIN
1070
    73
1070
     1
1070
    44
1040
1.0
1070
    74
1070
     0
1000
MTEXTEND
  0
LINE
  5
4844
330
1F
100
AcDbEntity
  8
0
100
AcDbLine
 10
37.69213456137709
 20
314.9408739168582
 30
0.0
 11
37.69213456137709
 21
277.4408739168584
 31
0.0
  0
LINE
  5
4845
330
1F
100
AcDbEntity
  8
0
100
AcDbLine
 10
37.69213456137709
 20
277.4408739168586
 30
0.0
 11
37.69213456137709
 21
282.6608739168579
 31
0.0
  0
LINE
  5
4846
330
1F
100
AcDbEntity
  8
0
100
AcDbLine
 10
74.19213456137708
 20
259.4408739168586
 30
0.0
 11
74.19213456137708
 21
265.7265145629136
 31
0.0
  0
LINE
  5
4847
330
1F
100
AcDbEntity
  8
0
100
AcDbLine
 10
70.19213456137709
 20
277.4408739168586
 30
0.0
 11
70.19213456137709
 21
239.9408739168574
 31
0.0
  0
DIMENSION
  5
4848
330
1F
100
AcDbEntity
  8
DIM
100
AcDbDimension
  2
*D20
 10
130.0120100708488
 20
257.4408739168585
 30
0.0
 11
127.5120100708488
 21
277.4408739168586
 31
0.0
 70
    32
  1
%%c<>
  3
ISO-25-1
100
AcDbAlignedDimension
 13
72.19213456137708
 23
297.4408739168585
 33
0.0
 14
72.19213456137708
 24
257.4408739168586
 34
0.0
 50
90.0
100
AcDbRotatedDimension
  0
DIMENSION
  5
4849
330
1F
100
AcDbEntity
  8
DIM
100
AcDbDimension
  2
*D18
 10
70.19213456137709
 20
227.8888246757694
 30
0.0
 11
72.19213456137708
 21
227.8888246757694
 31
0.0
 70
   160
  3
ISO-25-1
100
AcDbAlignedDimension
 13
74.19213456137708
 23
259.4408739168586
 33
0.0
 14
70.19213456137709
 24
239.9408739168574
 34
0.0
100
AcDbRotatedDimension
  0
LINE
  5
484A
330
1F
100
AcDbEntity
  8
0
100
AcDbLine
 10
72.19213456137708
 20
257.4408739168586
 30
0.0
 11
70.19213456137709
 21
257.4408739168586
 31
0.0
  0
ARC
  5
484B
330
1F
100
AcDbEntity
  8
0
100
AcDbCircle
 10
72.19213456137708
 20
259.4408739168586
 30
0.0
 40
2.0
100
AcDbArc
 50
270.0
 51
0.0000000000002036
  0
DIMENSION
  5
484C
330
1F
100
AcDbEntity
  8
DIM
100
AcDbDimension
  2
*D19
 10
118.2803412304308
 20
267.4408739168586
 30
0.0
 11
115.7803412304308
 21
277.4408739168586
 31
0.0
 70
    32
  1
%%c<>
  3
ISO-25-1
100
AcDbAlignedDimension
 13
74.19213456137708
 23
287.4408739168586
 33
0.0
 14
74.19213456137708
 24
267.4408739168586
 34
0.0
 50
90.0
100
AcDbRotatedDimension
  0
DIMENSION
  5
484D
330
1F
100
AcDbEntity
  8
DIM
100
AcDbDimension
  2
*D16
 10
106.192134561377
 20
333.3646460006803
 30
0.0
 11
88.19213456137708
 21
335.8646460006803
 31
0.0
 70
    32
  3
ISO-25-1
100
AcDbAlignedDimension
 13
70.19213456137709
 23
314.9408739168582
 33
0.0
 14
106.192134561377
 24
285.2408739168585
 34
0.0
100
AcDbRotatedDimension
  0
DIMENSION
  5
484E
330
1F
100
AcDbEntity
  8
DIM
100
AcDbDimension
  2
*D15
 10
70.19213456137709
 20
324.148570926625
 30
0.0
 11
64.69213456137708
 21
326.648570926625
 31
0.0
 70
    32
  3
ISO-25-1
100
AcDbAlignedDimension
 13
59.19213456137708
 23
284.5482696001673
 33
0.0
 14
70.19213456137709
 24
314.9408739168582
 34
0.0
100
AcDbRotatedDimension
  0
CIRCLE
  5
484F
330
1F
100
AcDbEntity
  8
0
100
AcDbCircle
 10
59.19213456137708
 20
277.4408739168586
 30
0.0
 40
4.361997852010862
  0
ARC
  5
4850
330
1F
100
AcDbEntity
  8
0
100
AcDbCircle
 10
59.19213456137708
 20
277.4408739168584
 30
0.0
 40
5.360000000000255
100
AcDbArc
 50
156.741891435958
 51
102.4660569609088
  0
CIRCLE
  5
4851
330
1F
100
AcDbEntity
  8
0
100
AcDbCircle
 10
48.69213456137709
 20
277.4408739168586
 30
0.0
 40
4.361997852010862
  0
ARC
  5
4852
330
1F
100
AcDbEntity
  8
0
100
AcDbCircle
 10
48.69213456137709
 20
277.4408739168584
 30
0.0
 40
5.360000000000255
100
AcDbArc
 50
164.9093071312345
 51
107.3954216806358
  0
LINE
  5
4853
330
1F
100
AcDbEntity
  8
DIM
  6
CENTER
 62
     1
100
AcDbLine
 10
48.69213456137709
 20
284.5482696001673
 30
0.0
 11
48.69213456137709
 21
270.573193877641
 31
0.0
  0
LINE
  5
4854
330
1F
100
AcDbEntity
  8
0
100
AcDbLine
 10
47.19213456137743
 20
277.4408739168584
 30
0.0
 11
47.19213456137743
 21
277.4408739168584
 31
0.0
  0
LINE
  5
4855
330
1F
100
AcDbEntity
  8
DIM
  6
CENTER
 62
     1
100
AcDbLine
 10
59.19213456137708
 20
284.5482696001673
 30
0.0
 11
59.19213456137708
 21
270.573193877641
 31
0.0
  0
LINE
  5
4856
330
1F
100
AcDbEntity
  8
0
100
AcDbLine
 10
74.19213456137708
 20
295.4408739168585
 30
0.0
 11
74.19213456137708
 21
289.1552332708036
 31
0.0
  0
LINE
  5
4857
330
1F
100
AcDbEntity
  8
0
100
AcDbLine
 10
70.19213456137709
 20
314.9408739168582
 30
0.0
 11
70.19213456137709
 21
277.4408739168586
 31
0.0
  0
LINE
  5
4858
330
1F
100
AcDbEntity
  8
0
100
AcDbLine
 10
76.19400161599128
 20
282.708700793285
 30
0.0
 11
79.19213456137743
 21
272.1730470404321
 31
0.0
  0
LINE
  5
4859
330
1F
100
AcDbEntity
  8
0
100
AcDbLine
 10
79.19213456137743
 20
282.708700793285
 30
0.0
 11
76.19213456137742
 21
272.1730470404322
 31
0.0
  0
LINE
  5
485A
330
1F
100
AcDbEntity
  8
0
100
AcDbLine
 10
74.19213456137708
 20
277.4408739168585
 30
0.0
 11
74.19213456137708
 21
265.7265145629136
 31
0.0
  0
LINE
  5
485B
330
1F
100
AcDbEntity
  8
0
100
AcDbLine
 10
76.19213456137742
 20
272.1730470404322
 30
0.0
 11
76.19213456137742
 21
277.4408739168586
 31
0.0
  0
LINE
  5
485C
330
1F
100
AcDbEntity
  8
0
100
AcDbLine
 10
76.19213456137742
 20
272.1730470404322
 30
0.0
 11
76.19400161599128
 21
277.3660562855888
 31
0.0
  0
LINE
  5
485D
330
1F
100
AcDbEntity
  8
0
100
AcDbLine
 10
76.19213456137742
 20
272.1730470404322
 30
0.0
 11
76.19400161599128
 21
277.3660562855888
 31
0.0
  0
ARC
  5
485E
330
1F
100
AcDbEntity
  8
0
100
AcDbCircle
 10
84.69213456137778
 20
277.4408739168586
 30
0.0
 40
10.00000000000029
100
AcDbArc
 50
180.0
 51
211.7883306170545
  0
LINE
  5
485F
330
1F
100
AcDbEntity
  8
0
100
AcDbLine
 10
79.19213456137732
 20
268.4408739168585
 30
0.0
 11
79.19213456137744
 21
286.4408739168585
 31
0.0
  0
LINE
  5
4860
330
1F
100
AcDbEntity
  8
0
100
AcDbLine
 10
74.69213456137755
 20
267.4408739168585
 30
0.0
 11
76.19213456137754
 21
268.9408739168584
 31
0.0
  0
LINE
  5
4861
330
1F
100
AcDbEntity
  8
0
100
AcDbLine
 10
74.19213456137708
 20
267.4408739168586
 30
0.0
 11
74.69213456137777
 21
267.4408739168586
 31
0.0
  0
LINE
  5
4862
330
1F
100
AcDbEntity
  8
0
100
AcDbLine
 10
76.19213456137754
 20
268.9408739168584
 30
0.0
 11
79.19213456137754
 21
268.9408739168585
 31
0.0
  0
LINE
  5
4863
330
1F
100
AcDbEntity
  8
0
100
AcDbLine
 10
79.19213456137743
 20
272.1730470404321
 30
0.0
 11
76.19213456137742
 21
272.1730470404321
 31
0.0
  0
LINE
  5
4864
330
1F
100
AcDbEntity
  8
0
100
AcDbLine
 10
77.85880122804406
 20
268.9408739168585
 30
0.0
 11
77.85880122804406
 21
272.1730470404321
 31
0.0
  0
ARC
  5
4865
330
1F
100
AcDbEntity
  8
0
100
AcDbCircle
 10
84.69213456137778
 20
277.4408739168586
 30
0.0
 40
10.00000000000029
100
AcDbArc
 50
148.2116693829454
 51
180.0
  0
LINE
  5
4866
330
1F
100
AcDbEntity
  8
0
100
AcDbLine
 10
74.69213456137755
 20
287.4408739168586
 30
0.0
 11
76.19213456137754
 21
285.9408739168586
 31
0.0
  0
LINE
  5
4867
330
1F
100
AcDbEntity
  8
0
100
AcDbLine
 10
74.19213456137708
 20
277.4408739168586
 30
0.0
 11
74.19213456137708
 21
289.1552332708036
 31
0.0
  0
LINE
  5
4868
330
1F
100
AcDbEntity
  8
0
100
AcDbLine
 10
74.19213456137708
 20
287.4408739168586
 30
0.0
 11
74.69213456137777
 21
287.4408739168586
 31
0.0
  0
LINE
  5
4869
330
1F
100
AcDbEntity
  8
0
100
AcDbLine
 10
77.85880122804406
 20
285.9408739168586
 30
0.0
 11
77.85880122804406
 21
282.708700793285
 31
0.0
  0
LINE
  5
486A
330
1F
100
AcDbEntity
  8
0
100
AcDbLine
 10
79.19213456137743
 20
282.708700793285
 30
0.0
 11
76.19213456137742
 21
282.708700793285
 31
0.0
  0
LINE
  5
486B
330
1F
100
AcDbEntity
  8
0
100
AcDbLine
 10
76.19213456137742
 20
282.7087007932849
 30
0.0
 11
76.19400161599128
 21
277.5156915481283
 31
0.0
  0
LINE
  5
486C
330
1F
100
AcDbEntity
  8
0
100
AcDbLine
 10
76.19213456137742
 20
282.7087007932849
 30
0.0
 11
76.19400161599128
 21
277.5156915481283
 31
0.0
  0
LINE
  5
486D
330
1F
100
AcDbEntity
  8
0
100
AcDbLine
 10
76.19213456137742
 20
282.7087007932849
 30
0.0
 11
76.19213456137742
 21
277.4408739168586
 31
0.0
  0
LINE
  5
486E
330
1F
100
AcDbEntity
  8
0
100
AcDbLine
 10
76.19213456137754
 20
285.9408739168586
 30
0.0
 11
79.19213456137754
 21
285.9408739168586
 31
0.0
  0
LINE
  5
486F
330
1F
100
AcDbEntity
  8
0
100
AcDbLine
 10
72.19213456137708
 20
297.4408739168585
 30
0.0
 11
70.19213456137709
 21
297.4408739168585
 31
0.0
  0
ARC
  5
4870
330
1F
100
AcDbEntity
  8
0
100
AcDbCircle
 10
72.19213456137708
 20
295.4408739168585
 30
0.0
 40
2.0
100
AcDbArc
 50
359.9999999999997
 51
90.00000000000003
  0
LEADER
  5
4871
330
1F
100
AcDbEntity
  8
DIM
100
AcDbLeader
  3
ISO-25-1
 73
     0
 75
     1
 40
13.10260826771653
 41
27.14285714285713
 76
     3
 10
240.7900256471096
 20
307.4408739168584
 30
0.0
 10
224.6136335221448
 20
358.1304020155757
 30
0.0
 10
221.6136335221448
 20
358.1304020155757
 30
0.0
340
4962
1001
ACAD
1000
DSTYLE
1002
{
1070
     5
1000

1070
    77
1070
     1
1070
   147
1040
1.0
1070
   342
1005
0
1002
}
1000
LEANOF
1010
0.0
1020
0.0
1030
0.0
  0
LINE
  5
4872
330
1F
100
AcDbEntity
  8
0
100
AcDbLine
 10
220.6900256471102
 20
313.7408739168582
 30
0.0
 11
219.3900349288542
 21
313.7395114695712
 31
0.0
  0
LINE
  5
4873
330
1F
100
AcDbEntity
  8
0
100
AcDbLine
 10
219.390034928854
 20
314.9408739168585
 30
0.0
 11
226.9004175390051
 21
314.9408739168585
 31
0.0
  0
LINE
  5
4874
330
1F
100
AcDbEntity
  8
0
100
AcDbLine
 10
220.6900256471102
 20
312.4408739168584
 30
0.0
 11
212.0900256471102
 21
312.4408739168584
 31
0.0
  0
LINE
  5
4875
330
1F
100
AcDbEntity
  8
0
100
AcDbLine
 10
219.3901869040023
 20
241.1465506566501
 30
0.0
 11
220.6900256471101
 21
241.1408739168585
 31
0.0
  0
LINE
  5
4876
330
1F
100
AcDbEntity
  8
0
100
AcDbLine
 10
219.3901869040023
 20
239.9465506566501
 30
0.0
 11
226.9004175390045
 21
239.9408739168584
 31
0.0
  0
LINE
  5
4877
330
1F
100
AcDbEntity
  8
0
100
AcDbLine
 10
212.0900256471101
 20
242.4408739168585
 30
0.0
 11
220.6900256471099
 21
242.4408739168585
 31
0.0
  0
CIRCLE
  5
4878
330
1F
100
AcDbEntity
  8
0
100
AcDbCircle
 10
210.79002564711
 20
277.4408739168583
 30
0.0
 40
18.00000000000004
  0
CIRCLE
  5
4879
330
1F
100
AcDbEntity
  8
0
100
AcDbCircle
 10
210.79002564711
 20
277.4408739168586
 30
0.0
 40
17.20000000000004
  0
CIRCLE
  5
487A
330
1F
100
AcDbEntity
  8
0
100
AcDbCircle
 10
210.79002564711
 20
277.4408739168583
 30
0.0
 40
11.36000000000003
  0
ARC
  5
487B
330
1F
100
AcDbEntity
  8
0
100
AcDbCircle
 10
212.2796109351566
 20
277.4408739168583
 30
0.0
 40
29.59391121830052
100
AcDbArc
 50
32.6732027800026
 51
327.3267972199974
  0
CIRCLE
  5
487C
330
1F
100
AcDbEntity
  8
0
100
AcDbCircle
 10
210.79002564711
 20
277.4408739168583
 30
0.0
 40
32.79999999999999
  0
LINE
  5
487D
330
1F
100
AcDbEntity
  8
DIM
  6
CENTER
 62
     1
100
AcDbLine
 10
249.9900256471101
 20
277.4408739168583
 30
0.0
 11
163.7169827291312
 21
277.4408739168583
 31
0.0
  0
DIMENSION
  5
487E
330
1F
100
AcDbEntity
  8
DIM
100
AcDbDimension
  2
*D23
 10
248.2900256471098
 20
328.6989884905013
 30
0.0
 11
206.7900256471097
 21
331.1989884905013
 31
0.0
 70
    32
  3
ISO-25-1
100
AcDbAlignedDimension
 13
165.2900256471098
 23
287.3080788839313
 33
0.0
 14
248.2900256471098
 24
310.5127653051661
 34
0.0
100
AcDbRotatedDimension
  0
LINE
  5
487F
330
1F
100
AcDbEntity
  8
DIM
  6
CENTER
 62
     1
100
AcDbLine
 10
210.79002564711
 20
238.2408739168586
 30
0.0
 11
210.79002564711
 21
316.6408739168587
 31
0.0
  0
ARC
  5
4880
330
1F
100
AcDbEntity
  8
0
100
AcDbCircle
 10
178.5654210265637
 20
259.8867661426556
 30
0.0
 40
1.6999999983
100
AcDbArc
 50
0.1384018273715615
 51
90.1384018273748
  0
DIMENSION
  5
4881
330
1F
100
AcDbEntity
  8
DIM
100
AcDbDimension
  2
*D22
 10
141.0720382594735
 20
239.9408739168583
 30
0.0
 11
138.5720382594734
 21
277.4408739168584
 31
0.0
 70
    32
  3
ISO-25-1
100
AcDbAlignedDimension
 13
177.7181342588028
 23
314.9408739168585
 33
0.0
 14
177.7181342588026
 24
239.9408739168583
 34
0.0
 50
90.0
100
AcDbRotatedDimension
  0
DIMENSION
  5
4882
330
1F
100
AcDbEntity
  8
DIM
100
AcDbDimension
  2
*D21
 10
155.2549548363771
 20
247.4408739168584
 30
0.0
 11
152.754954836377
 21
277.4408739168585
 31
0.0
 70
    32
  1
\U+25A1<>
  3
ISO-25-1
100
AcDbAlignedDimension
 13
175.1900256471099
 23
307.4408739168585
 33
0.0
 14
175.1900256471099
 24
247.4408739168584
 34
0.0
 50
90.0
100
AcDbRotatedDimension
  0
ARC
  5
4883
330
1F
100
AcDbEntity
  8
0
 62
     3
100
AcDbCircle
 10
180.79002564711
 20
247.4408739168584
 30
0.0
 40
4.0
100
AcDbArc
 50
270.0
 51
180.0
  0
LINE
  5
4884
330
1F
100
AcDbEntity
  8
DIM
  6
CENTER
 62
     1
100
AcDbLine
 10
175.19002564711
 20
247.4408739168584
 30
0.0
 11
186.39002564711
 21
247.4408739168584
 31
0.0
  0
LINE
  5
4885
330
1F
100
AcDbEntity
  8
DIM
  6
CENTER
 62
     1
100
AcDbLine
 10
175.19002564711
 20
247.4408739168584
 30
0.0
 11
186.39002564711
 21
247.4408739168584
 31
0.0
  0
CIRCLE
  5
4886
330
1F
100
AcDbEntity
  8
0
100
AcDbCircle
 10
180.7900256471099
 20
247.4408739168584
 30
0.0
 40
5.5
  0
ARC
  5
4887
330
1F
100
AcDbEntity
  8
0
100
AcDbCircle
 10
210.79002564711
 20
277.4408739168583
 30
0.0
 40
50.0
100
AcDbArc
 50
221.4096221092688
 51
228.590377890729
  0
LINE
  5
4888
330
1F
100
AcDbEntity
  8
0
100
AcDbLine
 10
176.4717076249659
 20
257.2817010437324
 30
0.0
 11
178.5717014961537
 21
257.2867737307088
 31
0.0
  0
LINE
  5
4889
330
1F
100
AcDbEntity
  8
DIM
  6
CENTER
 62
     1
100
AcDbLine
 10
182.2665205743627
 20
259.4336272423125
 30
0.0
 11
171.2900256471099
 21
259.4404902604383
 31
0.0
  0
LINE
  5
488A
330
1F
100
AcDbEntity
  8
0
100
AcDbLine
 10
173.2900256471098
 20
257.730491947802
 30
0.0
 11
173.2900256471099
 21
244.3689825285513
 31
0.0
  0
LINE
  5
488B
330
1F
100
AcDbEntity
  8
0
100
AcDbLine
 10
175.9706220798545
 20
257.7304919478022
 30
0.0
 11
173.2900256471099
 21
257.730491947802
 31
0.0
  0
LINE
  5
488C
330
1F
100
AcDbEntity
  8
0
100
AcDbLine
 10
176.4717076249656
 20
257.2817010437324
 30
0.0
 11
175.9706220798545
 21
257.7304919478022
 31
0.0
  0
LINE
  5
488D
330
1F
100
AcDbEntity
  8
0
100
AcDbLine
 10
194.6796337552149
 20
239.9408739168584
 30
0.0
 11
202.190016365366
 21
239.9422363641455
 31
0.0
  0
LINE
  5
488E
330
1F
100
AcDbEntity
  8
0
100
AcDbLine
 10
177.7181342588027
 20
239.9408739168584
 30
0.0
 11
190.8796436780534
 21
239.9408739168584
 31
0.0
  0
LINE
  5
488F
330
1F
100
AcDbEntity
  8
DIM
  6
CENTER
 62
     1
100
AcDbLine
 10
180.79002564711
 20
253.0408739168582
 30
0.0
 11
180.79002564711
 21
241.8408739168584
 31
0.0
  0
CIRCLE
  5
4890
330
1F
100
AcDbEntity
  8
0
100
AcDbCircle
 10
180.7900256471099
 20
247.4408739168584
 30
0.0
 40
3.45
  0
CIRCLE
  5
4891
330
1F
100
AcDbEntity
  8
0
100
AcDbCircle
 10
180.7900256471099
 20
247.4408739168584
 30
0.0
 40
3.45
  0
ARC
  5
4892
330
1F
100
AcDbEntity
  8
0
100
AcDbCircle
 10
178.5675950352679
 20
258.9867687692894
 30
0.0
 40
1.6999999983
100
AcDbArc
 50
270.1384018273747
 51
0.1384018273715615
  0
LINE
  5
4893
330
1F
100
AcDbEntity
  8
0
100
AcDbLine
 10
180.2675900738487
 20
258.9908752301754
 30
0.0
 11
180.2654160651444
 21
259.8908726035416
 31
0.0
  0
LINE
  5
4894
330
1F
100
AcDbEntity
  8
0
100
AcDbLine
 10
194.9308402245113
 20
243.1121689642381
 30
0.0
 11
194.9359129114877
 21
245.2121628354264
 31
0.0
  0
LINE
  5
4895
330
1F
100
AcDbEntity
  8
0
100
AcDbLine
 10
190.6308527739836
 20
243.1225558947142
 30
0.0
 11
190.63592546096
 21
245.222549765902
 31
0.0
  0
LINE
  5
4896
330
1F
100
AcDbEntity
  8
DIM
  6
CENTER
 62
     1
100
AcDbLine
 10
192.7827789725638
 20
248.9173688441109
 30
0.0
 11
192.7896419906895
 21
237.9408739168579
 31
0.0
  0
LINE
  5
4897
330
1F
100
AcDbEntity
  8
0
100
AcDbLine
 10
191.0796436780533
 20
242.6214703496028
 30
0.0
 11
191.0796436780533
 21
240.1408739168586
 31
0.0
  0
ARC
  5
4898
330
1F
100
AcDbEntity
  8
0
100
AcDbCircle
 10
190.8796436780534
 20
240.1408739168585
 30
0.0
 40
0.2
100
AcDbArc
 50
270.0
 51
0.0
  0
LINE
  5
4899
330
1F
100
AcDbEntity
  8
0
100
AcDbLine
 10
190.6308527739837
 20
243.1225558947139
 30
0.0
 11
191.0796436780533
 21
242.6214703496028
 31
0.0
  0
LINE
  5
489A
330
1F
100
AcDbEntity
  8
0
100
AcDbLine
 10
194.4796337552147
 20
242.6132574278312
 30
0.0
 11
194.4796337552148
 21
240.1408739168586
 31
0.0
  0
ARC
  5
489B
330
1F
100
AcDbEntity
  8
0
100
AcDbCircle
 10
194.6796337552149
 20
240.1408739168585
 30
0.0
 40
0.2
100
AcDbArc
 50
180.0
 51
270.0
  0
LINE
  5
489C
330
1F
100
AcDbEntity
  8
0
100
AcDbLine
 10
194.9308402245113
 20
243.1121689642381
 30
0.0
 11
194.4796337552147
 21
242.6132574278312
 31
0.0
  0
LINE
  5
489D
330
1F
100
AcDbEntity
  8
0
100
AcDbLine
 10
192.3400269604266
 20
246.9184383435968
 30
0.0
 11
193.2400243337928
 21
246.9162643348927
 31
0.0
  0
ARC
  5
489E
330
1F
100
AcDbEntity
  8
0
100
AcDbCircle
 10
192.3359204995408
 20
245.218443305016
 30
0.0
 40
1.6999999983
100
AcDbArc
 50
89.86159817262842
 51
179.8615981726284
  0
ARC
  5
489F
330
1F
100
AcDbEntity
  8
0
100
AcDbCircle
 10
193.235917872907
 20
245.216269296312
 30
0.0
 40
1.6999999983
100
AcDbArc
 50
359.8615981726154
 51
89.86159817262842
  0
LINE
  5
48A0
330
1F
100
AcDbEntity
  8
0
100
AcDbLine
 10
200.89002564711
 20
242.4408739168585
 30
0.0
 11
209.4900256471102
 21
242.4408739168585
 31
0.0
  0
LINE
  5
48A1
330
1F
100
AcDbEntity
  8
0
100
AcDbLine
 10
200.89002564711
 20
241.1408739168585
 30
0.0
 11
202.190016365366
 21
241.1422363641453
 31
0.0
  0
ARC
  5
48A2
330
1F
100
AcDbEntity
  8
0
100
AcDbCircle
 10
200.89002564711
 20
242.2408739168586
 30
0.0
 40
0.2
100
AcDbArc
 50
90.0
 51
180.0
  0
ARC
  5
48A3
330
1F
100
AcDbEntity
  8
0
100
AcDbCircle
 10
200.89002564711
 20
241.3408739168584
 30
0.0
 40
0.2
100
AcDbArc
 50
180.0
 51
270.0
  0
LINE
  5
48A4
330
1F
100
AcDbEntity
  8
0
100
AcDbLine
 10
200.69002564711
 20
242.2408739168586
 30
0.0
 11
200.69002564711
 21
241.3408739168584
 31
0.0
  0
LINE
  5
48A5
330
1F
100
AcDbEntity
  8
0
100
AcDbLine
 10
202.3900163653663
 20
240.9422363641455
 30
0.0
 11
202.3900163653663
 21
240.1422363641457
 31
0.0
  0
ARC
  5
48A6
330
1F
100
AcDbEntity
  8
0
100
AcDbCircle
 10
202.1900163653659
 20
240.1422363641456
 30
0.0
 40
0.2
100
AcDbArc
 50
270.0
 51
0.0
  0
ARC
  5
48A7
330
1F
100
AcDbEntity
  8
0
100
AcDbCircle
 10
202.1900163653659
 20
240.9422363641455
 30
0.0
 40
0.2
100
AcDbArc
 50
0.0
 51
90.0
  0
LINE
  5
48A8
330
1F
100
AcDbEntity
  8
0
100
AcDbLine
 10
209.89002564711
 20
239.9408739168584
 30
0.0
 11
211.69002564711
 21
239.9408739168584
 31
0.0
  0
LINE
  5
48A9
330
1F
100
AcDbEntity
  8
0
100
AcDbLine
 10
209.69002564711
 20
242.2408739168586
 30
0.0
 11
209.69002564711
 21
240.1408739168585
 31
0.0
  0
ARC
  5
48AA
330
1F
100
AcDbEntity
  8
0
100
AcDbCircle
 10
209.8900256471099
 20
240.1408739168584
 30
0.0
 40
0.2
100
AcDbArc
 50
180.0
 51
270.0
  0
ARC
  5
48AB
330
1F
100
AcDbEntity
  8
0
100
AcDbCircle
 10
209.49002564711
 20
242.2408739168586
 30
0.0
 40
0.2
100
AcDbArc
 50
0.0
 51
90.0
  0
LINE
  5
48AC
330
1F
100
AcDbEntity
  8
0
100
AcDbLine
 10
211.89002564711
 20
242.2408739168586
 30
0.0
 11
211.89002564711
 21
240.1408739168585
 31
0.0
  0
ARC
  5
48AD
330
1F
100
AcDbEntity
  8
0
100
AcDbCircle
 10
211.6900256471099
 20
240.1408739168584
 30
0.0
 40
0.2
100
AcDbArc
 50
270.0
 51
0.0
  0
ARC
  5
48AE
330
1F
100
AcDbEntity
  8
0
100
AcDbCircle
 10
212.09002564711
 20
242.2408739168586
 30
0.0
 40
0.2
100
AcDbArc
 50
90.0
 51
180.0
  0
LINE
  5
48AF
330
1F
100
AcDbEntity
  8
0
100
AcDbLine
 10
219.1901869040023
 20
240.9465506566501
 30
0.0
 11
219.1901869040023
 21
240.1465506566501
 31
0.0
  0
ARC
  5
48B0
330
1F
100
AcDbEntity
  8
0
100
AcDbCircle
 10
219.3901869040022
 20
240.1465506566501
 30
0.0
 40
0.2
100
AcDbArc
 50
180.0
 51
270.0
  0
ARC
  5
48B1
330
1F
100
AcDbEntity
  8
0
100
AcDbCircle
 10
219.3901869040022
 20
240.94655065665
 30
0.0
 40
0.2
100
AcDbArc
 50
90.0
 51
180.0
  0
LINE
  5
48B3
330
1F
100
AcDbEntity
  8
DIM
  6
CENTER
 62
     1
100
AcDbLine
 10
175.19002564711
 20
307.4408739168585
 30
0.0
 11
186.39002564711
 21
307.4408739168585
 31
0.0
  0
LINE
  5
48B4
330
1F
100
AcDbEntity
  8
DIM
  6
CENTER
 62
     1
100
AcDbLine
 10
175.1900256471099
 20
307.4408739168585
 30
0.0
 11
186.3900256471099
 21
307.4408739168585
 31
0.0
  0
ARC
  5
48B5
330
1F
100
AcDbEntity
  8
0
100
AcDbCircle
 10
210.79002564711
 20
277.4408739168583
 30
0.0
 40
50.0
100
AcDbArc
 50
131.4096221092709
 51
138.5903778907311
  0
LINE
  5
48B6
330
1F
100
AcDbEntity
  8
DIM
  6
CENTER
 62
     1
100
AcDbLine
 10
182.2665205743627
 20
295.4481205914044
 30
0.0
 11
171.2900256471099
 21
295.4412575732786
 31
0.0
  0
LINE
  5
48B7
330
1F
100
AcDbEntity
  8
0
100
AcDbLine
 10
176.46132069449
 20
293.3000593394568
 30
0.0
 11
178.5613145656781
 21
293.2949866524805
 31
0.0
  0
LINE
  5
48B8
330
1F
100
AcDbEntity
  8
0
100
AcDbLine
 10
176.4717076249659
 20
297.6000467899844
 30
0.0
 11
178.5717014961537
 21
297.5949741030081
 31
0.0
  0
ARC
  5
48B9
330
1F
100
AcDbEntity
  8
0
 62
     3
100
AcDbCircle
 10
180.79002564711
 20
307.4408739168584
 30
0.0
 40
4.0
100
AcDbArc
 50
270.0
 51
180.0
  0
CIRCLE
  5
48BA
330
1F
100
AcDbEntity
  8
0
100
AcDbCircle
 10
180.7900256471099
 20
307.4408739168584
 30
0.0
 40
5.5
  0
LINE
  5
48BB
330
1F
100
AcDbEntity
  8
0
100
AcDbLine
 10
176.46132069449
 20
261.58168849426
 30
0.0
 11
178.5613145656781
 21
261.5867611812366
 31
0.0
  0
LINE
  5
48BC
330
1F
100
AcDbEntity
  8
0
100
AcDbLine
 10
173.2900256471098
 20
293.7512658087535
 30
0.0
 11
173.2900256471099
 21
291.4408739168584
 31
0.0
  0
LINE
  5
48BD
330
1F
100
AcDbEntity
  8
0
100
AcDbLine
 10
173.2900256471099
 20
291.4408739168584
 30
0.0
 11
165.4124142470982
 21
287.4924059589589
 31
0.0
  0
LINE
  5
48BE
330
1F
100
AcDbEntity
  8
0
100
AcDbLine
 10
165.4124142470982
 20
267.3893418747579
 30
0.0
 11
173.2900256471098
 21
263.4408739168585
 31
0.0
  0
LINE
  5
48BF
330
1F
100
AcDbEntity
  8
0
100
AcDbLine
 10
165.2900256471098
 20
287.3080788839313
 30
0.0
 11
165.2900256471098
 21
267.5736689497857
 31
0.0
  0
ARC
  5
48C0
330
1F
100
AcDbEntity
  8
0
100
AcDbCircle
 10
165.4900256471098
 20
267.5736689497856
 30
0.0
 40
0.2
100
AcDbArc
 50
180.0
 51
247.1663458220828
  0
ARC
  5
48C1
330
1F
100
AcDbEntity
  8
0
100
AcDbCircle
 10
165.4900256471098
 20
287.3080788839313
 30
0.0
 40
0.2
100
AcDbArc
 50
112.8336541779171
 51
180.0
  0
LINE
  5
48C2
330
1F
100
AcDbEntity
  8
0
100
AcDbLine
 10
175.9624091580831
 20
261.1304820249636
 30
0.0
 11
173.2900256471099
 21
261.1304820249636
 31
0.0
  0
LINE
  5
48C3
330
1F
100
AcDbEntity
  8
0
100
AcDbLine
 10
173.2900256471098
 20
263.4408739168585
 30
0.0
 11
173.2900256471098
 21
261.1304820249636
 31
0.0
  0
LINE
  5
48C4
330
1F
100
AcDbEntity
  8
0
100
AcDbLine
 10
176.46132069449
 20
261.58168849426
 30
0.0
 11
175.9624091580831
 21
261.1304820249636
 31
0.0
  0
LINE
  5
48C5
330
1F
100
AcDbEntity
  8
0
100
AcDbLine
 10
173.2900256471099
 20
310.5127653051659
 30
0.0
 11
173.2900256471099
 21
297.1512558859149
 31
0.0
  0
LINE
  5
48C6
330
1F
100
AcDbEntity
  8
0
100
AcDbLine
 10
175.9706220798545
 20
297.1512558859149
 30
0.0
 11
173.2900256471099
 21
297.1512558859149
 31
0.0
  0
LINE
  5
48C7
330
1F
100
AcDbEntity
  8
0
100
AcDbLine
 10
175.9624091580831
 20
293.7512658087535
 30
0.0
 11
173.2900256471099
 21
293.7512658087533
 31
0.0
  0
LINE
  5
48C8
330
1F
100
AcDbEntity
  8
0
100
AcDbLine
 10
176.4717076249656
 20
297.6000467899844
 30
0.0
 11
175.9706220798545
 21
297.1512558859149
 31
0.0
  0
LINE
  5
48C9
330
1F
100
AcDbEntity
  8
0
100
AcDbLine
 10
176.46132069449
 20
293.3000593394568
 30
0.0
 11
175.9624091580831
 21
293.7512658087535
 31
0.0
  0
LINE
  5
48CB
330
1F
100
AcDbEntity
  8
0
100
AcDbLine
 10
194.6796337552156
 20
314.9408739168585
 30
0.0
 11
202.189864390218
 21
314.9408739168585
 31
0.0
  0
LINE
  5
48CC
330
1F
100
AcDbEntity
  8
0
100
AcDbLine
 10
177.7181342588027
 20
314.9408739168585
 30
0.0
 11
190.8796436780541
 21
314.9408739168585
 31
0.0
  0
CIRCLE
  5
48CD
330
1F
100
AcDbEntity
  8
0
100
AcDbCircle
 10
180.7900256471099
 20
307.4408739168584
 30
0.0
 40
3.45
  0
CIRCLE
  5
48CE
330
1F
100
AcDbEntity
  8
0
100
AcDbCircle
 10
180.7900256471099
 20
307.4408739168584
 30
0.0
 40
3.45
  0
LINE
  5
48CF
330
1F
100
AcDbEntity
  8
DIM
  6
CENTER
 62
     1
100
AcDbLine
 10
180.7900256471099
 20
313.0408739168584
 30
0.0
 11
180.7900256471099
 21
301.8408739168585
 31
0.0
  0
ARC
  5
48D0
330
1F
100
AcDbEntity
  8
0
100
AcDbCircle
 10
178.5654210265637
 20
294.9949816910611
 30
0.0
 40
1.6999999983
100
AcDbArc
 50
269.8615981726252
 51
359.8615981726284
  0
ARC
  5
48D1
330
1F
100
AcDbEntity
  8
0
100
AcDbCircle
 10
178.5675950352679
 20
295.8949790644274
 30
0.0
 40
1.6999999983
100
AcDbArc
 50
359.8615981726284
 51
89.86159817262524
  0
LINE
  5
48D2
330
1F
100
AcDbEntity
  8
0
100
AcDbLine
 10
180.2675900738487
 20
295.8908726035415
 30
0.0
 11
180.2654160651444
 21
294.9908752301753
 31
0.0
  0
ARC
  5
48D3
330
1F
100
AcDbEntity
  8
0
100
AcDbCircle
 10
193.2359178729077
 20
309.6654785374046
 30
0.0
 40
1.6999999983
100
AcDbArc
 50
270.1384018273715
 51
0.1384018273715615
  0
LINE
  5
48D4
330
1F
100
AcDbEntity
  8
DIM
  6
CENTER
 62
     1
100
AcDbLine
 10
192.7827789725645
 20
305.9643789896056
 30
0.0
 11
192.7896419906902
 21
316.9408739168584
 31
0.0
  0
ARC
  5
48D5
330
1F
100
AcDbEntity
  8
0
100
AcDbCircle
 10
192.3359204995415
 20
309.6633045287003
 30
0.0
 40
1.6999999983
100
AcDbArc
 50
180.1384018273715
 51
270.1384018273715
  0
LINE
  5
48D6
330
1F
100
AcDbEntity
  8
0
100
AcDbLine
 10
192.3400269604272
 20
307.9633094901196
 30
0.0
 11
193.2400243337934
 21
307.9654834988239
 31
0.0
  0
ARC
  5
48D7
330
1F
100
AcDbEntity
  8
0
100
AcDbCircle
 10
190.8796436780541
 20
314.7408739168586
 30
0.0
 40
0.2
100
AcDbArc
 50
0.0
 51
90.0
  0
LINE
  5
48D8
330
1F
100
AcDbEntity
  8
0
100
AcDbLine
 10
190.6308527739843
 20
311.7591919390025
 30
0.0
 11
190.6359254609608
 21
309.6591980678145
 31
0.0
  0
LINE
  5
48D9
330
1F
100
AcDbEntity
  8
0
100
AcDbLine
 10
190.6308527739844
 20
311.7591919390027
 30
0.0
 11
191.0796436780541
 21
312.2602774841137
 31
0.0
  0
LINE
  5
48DA
330
1F
100
AcDbEntity
  8
0
100
AcDbLine
 10
191.0796436780541
 20
312.2602774841137
 30
0.0
 11
191.079643678054
 21
314.7408739168586
 31
0.0
  0
ARC
  5
48DB
330
1F
100
AcDbEntity
  8
0
100
AcDbCircle
 10
194.6796337552156
 20
314.7408739168586
 30
0.0
 40
0.2
100
AcDbArc
 50
90.0
 51
180.0
  0
LINE
  5
48DC
330
1F
100
AcDbEntity
  8
0
100
AcDbLine
 10
194.930840224512
 20
311.7695788694782
 30
0.0
 11
194.4796337552155
 21
312.2684904058851
 31
0.0
  0
LINE
  5
48DD
330
1F
100
AcDbEntity
  8
0
100
AcDbLine
 10
194.930840224512
 20
311.7695788694782
 30
0.0
 11
194.9359129114885
 21
309.6695849982903
 31
0.0
  0
LINE
  5
48DE
330
1F
100
AcDbEntity
  8
0
100
AcDbLine
 10
194.4796337552155
 20
312.2684904058851
 30
0.0
 11
194.4796337552155
 21
314.7408739168586
 31
0.0
  0
LINE
  5
48DF
330
1F
100
AcDbEntity
  8
0
100
AcDbLine
 10
218.3265765823854
 20
285.9408739168583
 30
0.0
 11
213.7480655386608
 21
285.9408739168583
 31
0.0
  0
LINE
  5
48E0
330
1F
100
AcDbEntity
  8
0
100
AcDbLine
 10
218.3265765823855
 20
268.9408739168583
 30
0.0
 11
213.7480655386589
 21
268.9408739168583
 31
0.0
  0
LINE
  5
48E3
330
1F
100
AcDbEntity
  8
0
100
AcDbLine
 10
202.29002564711
 20
269.9043229815829
 30
0.0
 11
202.29002564711
 21
274.4828340253089
 31
0.0
  0
LINE
  5
48E4
330
1F
100
AcDbEntity
  8
0
100
AcDbLine
 10
219.29002564711
 20
269.9043229815828
 30
0.0
 11
219.29002564711
 21
274.4828340253089
 31
0.0
  0
LINE
  5
48E5
330
1F
100
AcDbEntity
  8
0
100
AcDbLine
 10
209.4900256471103
 20
312.4408739168584
 30
0.0
 11
200.8900256471104
 21
312.4408739168584
 31
0.0
  0
LINE
  5
48E6
330
1F
100
AcDbEntity
  8
0
100
AcDbLine
 10
202.1898643902179
 20
313.7351971770668
 30
0.0
 11
200.8900256471101
 21
313.7408739168584
 31
0.0
  0
ARC
  5
48E7
330
1F
100
AcDbEntity
  8
0
100
AcDbCircle
 10
200.8900256471103
 20
313.5408739168583
 30
0.0
 40
0.2
100
AcDbArc
 50
90.0
 51
180.0
  0
ARC
  5
48E8
330
1F
100
AcDbEntity
  8
0
100
AcDbCircle
 10
200.8900256471105
 20
312.6408739168582
 30
0.0
 40
0.2
100
AcDbArc
 50
180.0
 51
270.0
  0
LINE
  5
48E9
330
1F
100
AcDbEntity
  8
0
100
AcDbLine
 10
200.6900256471101
 20
312.6408739168583
 30
0.0
 11
200.6900256471101
 21
313.5408739168584
 31
0.0
  0
ARC
  5
48EA
330
1F
100
AcDbEntity
  8
0
100
AcDbCircle
 10
202.189864390218
 20
314.7408739168584
 30
0.0
 40
0.2
100
AcDbArc
 50
0.0
 51
90.0
  0
ARC
  5
48EB
330
1F
100
AcDbEntity
  8
0
100
AcDbCircle
 10
202.189864390218
 20
313.9351971770668
 30
0.0
 40
0.2
100
AcDbArc
 50
270.0
 51
0.0
  0
LINE
  5
48EC
330
1F
100
AcDbEntity
  8
0
100
AcDbLine
 10
202.3898643902179
 20
313.9351971770668
 30
0.0
 11
202.3898643902179
 21
314.7408739168584
 31
0.0
  0
LINE
  5
48ED
330
1F
100
AcDbEntity
  8
0
100
AcDbLine
 10
211.6900256471103
 20
314.9408739168582
 30
0.0
 11
209.8900256471103
 21
314.9408739168585
 31
0.0
  0
ARC
  5
48EE
330
1F
100
AcDbEntity
  8
0
100
AcDbCircle
 10
209.8900256471103
 20
314.7408739168581
 30
0.0
 40
0.2
100
AcDbArc
 50
90.0
 51
180.0
  0
ARC
  5
48EF
330
1F
100
AcDbEntity
  8
0
100
AcDbCircle
 10
209.4900256471103
 20
312.6408739168582
 30
0.0
 40
0.2
100
AcDbArc
 50
270.0
 51
0.0
  0
LINE
  5
48F0
330
1F
100
AcDbEntity
  8
0
100
AcDbLine
 10
209.6900256471103
 20
312.6408739168583
 30
0.0
 11
209.6900256471103
 21
314.7408739168582
 31
0.0
  0
ARC
  5
48F1
330
1F
100
AcDbEntity
  8
0
100
AcDbCircle
 10
211.6900256471103
 20
314.7408739168581
 30
0.0
 40
0.2
100
AcDbArc
 50
0.0
 51
90.0
  0
ARC
  5
48F2
330
1F
100
AcDbEntity
  8
0
100
AcDbCircle
 10
212.0900256471102
 20
312.6408739168582
 30
0.0
 40
0.2
100
AcDbArc
 50
180.0
 51
270.0
  0
LINE
  5
48F3
330
1F
100
AcDbEntity
  8
0
100
AcDbLine
 10
211.8900256471103
 20
312.6408739168583
 30
0.0
 11
211.8900256471103
 21
314.7408739168582
 31
0.0
  0
ARC
  5
48F4
330
1F
100
AcDbEntity
  8
0
100
AcDbCircle
 10
219.390034928854
 20
314.7408739168584
 30
0.0
 40
0.2
100
AcDbArc
 50
90.0
 51
180.0
  0
ARC
  5
48F5
330
1F
100
AcDbEntity
  8
0
100
AcDbCircle
 10
219.3900349288543
 20
313.9395114695712
 30
0.0
 40
0.2
100
AcDbArc
 50
180.0
 51
270.0
  0
LINE
  5
48F6
330
1F
100
AcDbEntity
  8
0
100
AcDbLine
 10
219.1900349288539
 20
313.9395114695712
 30
0.0
 11
219.1900349288539
 21
314.7408739168584
 31
0.0
  0
ARC
  5
48F7
330
1F
100
AcDbEntity
  8
0
100
AcDbCircle
 10
243.0146302676563
 20
259.8867661426551
 30
0.0
 40
1.6999999983
100
AcDbArc
 50
89.86159817262524
 51
179.8615981726284
  0
CIRCLE
  5
48F8
330
1F
100
AcDbEntity
  8
0
100
AcDbCircle
 10
240.7900256471099
 20
247.4408739168584
 30
0.0
 40
5.5
  0
LINE
  5
48F9
330
1F
100
AcDbEntity
  8
0
100
AcDbLine
 10
230.7004076161661
 20
239.9408739168584
 30
0.0
 11
243.8619170354174
 21
239.9408739168584
 31
0.0
  0
CIRCLE
  5
48FA
330
1F
100
AcDbEntity
  8
0
100
AcDbCircle
 10
240.7900256471099
 20
247.4408739168584
 30
0.0
 40
3.45
  0
CIRCLE
  5
48FB
330
1F
100
AcDbEntity
  8
0
100
AcDbCircle
 10
240.7900256471099
 20
247.4408739168584
 30
0.0
 40
3.45
  0
ARC
  5
48FC
330
1F
100
AcDbEntity
  8
0
 62
     3
100
AcDbCircle
 10
240.79002564711
 20
247.4408739168584
 30
0.0
 40
4.0
100
AcDbArc
 50
270.0
 51
180.0
  0
LINE
  5
48FD
330
1F
100
AcDbEntity
  8
DIM
  6
CENTER
 62
     1
100
AcDbLine
 10
235.19002564711
 20
247.4408739168584
 30
0.0
 11
246.39002564711
 21
247.4408739168584
 31
0.0
  0
LINE
  5
48FE
330
1F
100
AcDbEntity
  8
DIM
  6
CENTER
 62
     1
100
AcDbLine
 10
235.19002564711
 20
247.4408739168584
 30
0.0
 11
246.39002564711
 21
247.4408739168584
 31
0.0
  0
LINE
  5
48FF
330
1F
100
AcDbEntity
  8
DIM
  6
CENTER
 62
     1
100
AcDbLine
 10
239.3135307198573
 20
259.4336272423119
 30
0.0
 11
250.2900256471102
 21
259.4404902604377
 31
0.0
  0
ARC
  5
4900
330
1F
100
AcDbEntity
  8
0
100
AcDbCircle
 10
229.2441307946785
 20
245.218443305016
 30
0.0
 40
1.6999999983
100
AcDbArc
 50
0.1384018273715615
 51
90.13840182737153
  0
LINE
  5
4901
330
1F
100
AcDbEntity
  8
0
100
AcDbLine
 10
226.649211069708
 20
243.1121689642381
 30
0.0
 11
226.6441383827315
 21
245.2121628354264
 31
0.0
  0
LINE
  5
4902
330
1F
100
AcDbEntity
  8
DIM
  6
CENTER
 62
     1
100
AcDbLine
 10
228.7972723216555
 20
248.9173688441109
 30
0.0
 11
228.7904093035298
 21
237.9408739168579
 31
0.0
  0
ARC
  5
4903
330
1F
100
AcDbEntity
  8
0
100
AcDbCircle
 10
220.6900256471097
 20
242.2408739168586
 30
0.0
 40
0.2
100
AcDbArc
 50
0.0
 51
90.0
  0
ARC
  5
4904
330
1F
100
AcDbEntity
  8
0
100
AcDbCircle
 10
220.69002564711
 20
241.3408739168584
 30
0.0
 40
0.2
100
AcDbArc
 50
270.0
 51
0.0
  0
LINE
  5
4905
330
1F
100
AcDbEntity
  8
0
100
AcDbLine
 10
220.8900256471101
 20
242.2408739168586
 30
0.0
 11
220.8900256471101
 21
241.3408739168584
 31
0.0
  0
LINE
  5
4906
330
1F
100
AcDbEntity
  8
0
100
AcDbLine
 10
227.1004175390045
 20
242.6132574278312
 30
0.0
 11
227.1004175390045
 21
240.1408739168585
 31
0.0
  0
ARC
  5
4907
330
1F
100
AcDbEntity
  8
0
100
AcDbCircle
 10
226.9004175390045
 20
240.1408739168584
 30
0.0
 40
0.2
100
AcDbArc
 50
269.9999999999983
 51
0.0
  0
LINE
  5
4908
330
1F
100
AcDbEntity
  8
0
100
AcDbLine
 10
226.649211069708
 20
243.1121689642381
 30
0.0
 11
227.1004175390045
 21
242.6132574278312
 31
0.0
  0
ARC
  5
4909
330
1F
100
AcDbEntity
  8
0
100
AcDbCircle
 10
228.3441334213123
 20
245.216269296312
 30
0.0
 40
1.6999999983
100
AcDbArc
 50
90.13840182737153
 51
180.1384018273845
  0
LINE
  5
490A
330
1F
100
AcDbEntity
  8
0
100
AcDbLine
 10
229.2400243337928
 20
246.9184383435968
 30
0.0
 11
228.3400269604265
 21
246.9162643348927
 31
0.0
  0
LINE
  5
490B
330
1F
100
AcDbEntity
  8
DIM
  6
CENTER
 62
     1
100
AcDbLine
 10
240.79002564711
 20
253.0408739168586
 30
0.0
 11
240.79002564711
 21
241.8408739168584
 31
0.0
  0
LINE
  5
490C
330
1F
100
AcDbEntity
  8
0
100
AcDbLine
 10
230.9491985202357
 20
243.1225558947142
 30
0.0
 11
230.9441258332592
 21
245.222549765902
 31
0.0
  0
LINE
  5
490D
330
1F
100
AcDbEntity
  8
0
100
AcDbLine
 10
230.5004076161659
 20
242.6214703496028
 30
0.0
 11
230.500407616166
 21
240.1408739168586
 31
0.0
  0
ARC
  5
490E
330
1F
100
AcDbEntity
  8
0
100
AcDbCircle
 10
230.7004076161661
 20
240.1408739168585
 30
0.0
 40
0.2
100
AcDbArc
 50
180.0
 51
270.0
  0
LINE
  5
490F
330
1F
100
AcDbEntity
  8
0
100
AcDbLine
 10
230.9491985202356
 20
243.1225558947139
 30
0.0
 11
230.5004076161659
 21
242.6214703496028
 31
0.0
  0
ARC
  5
4910
330
1F
100
AcDbEntity
  8
0
100
AcDbCircle
 10
210.79002564711
 20
277.4408739168583
 30
0.0
 40
50.0
100
AcDbArc
 50
311.4096221092709
 51
318.5903778907312
  0
LINE
  5
4911
330
1F
100
AcDbEntity
  8
0
100
AcDbLine
 10
245.6094292143654
 20
257.7304919478014
 30
0.0
 11
248.0900256471098
 21
257.7304919478014
 31
0.0
  0
LINE
  5
4912
330
1F
100
AcDbEntity
  8
0
100
AcDbLine
 10
245.1083436692541
 20
257.2817010437318
 30
0.0
 11
243.0083497980663
 21
257.2867737307082
 31
0.0
  0
LINE
  5
4913
330
1F
100
AcDbEntity
  8
0
100
AcDbLine
 10
241.3124612203714
 20
258.9908752301748
 30
0.0
 11
241.3146352290756
 21
259.890872603541
 31
0.0
  0
ARC
  5
4914
330
1F
100
AcDbEntity
  8
0
100
AcDbCircle
 10
243.0124562589521
 20
258.9867687692889
 30
0.0
 40
1.6999999983
100
AcDbArc
 50
179.8615981726284
 51
269.8615981726252
  0
LINE
  5
4915
330
1F
100
AcDbEntity
  8
0
100
AcDbLine
 10
245.1083436692544
 20
257.281701043732
 30
0.0
 11
245.6094292143654
 21
257.7304919478014
 31
0.0
  0
LINE
  5
4916
330
1F
100
AcDbEntity
  8
0
100
AcDbLine
 10
248.2900256471098
 20
257.5304919478016
 30
0.0
 11
248.2900256471098
 21
244.368982528551
 31
0.0
  0
ARC
  5
4917
330
1F
100
AcDbEntity
  8
0
100
AcDbCircle
 10
248.0900256471098
 20
257.5304919478015
 30
0.0
 40
0.2
100
AcDbArc
 50
0.0
 51
90.0
  0
LINE
  5
4918
330
1F
100
AcDbEntity
  8
0
100
AcDbLine
 10
230.7004076161666
 20
314.9408739168585
 30
0.0
 11
243.8619170354174
 21
314.9408739168585
 31
0.0
  0
LINE
  5
4919
330
1F
100
AcDbEntity
  8
DIM
  6
CENTER
 62
     1
100
AcDbLine
 10
235.1900256471099
 20
307.4408739168585
 30
0.0
 11
246.3900256471099
 21
307.4408739168585
 31
0.0
  0
LINE
  5
491A
330
1F
100
AcDbEntity
  8
DIM
  6
CENTER
 62
     1
100
AcDbLine
 10
235.1900256471099
 20
307.4408739168585
 30
0.0
 11
246.3900256471099
 21
307.4408739168582
 31
0.0
  0
LINE
  5
491B
330
1F
100
AcDbEntity
  8
DIM
  6
CENTER
 62
     1
100
AcDbLine
 10
239.3135307198573
 20
295.4481205914037
 30
0.0
 11
250.2900256471102
 21
295.4412575732781
 31
0.0
  0
LINE
  5
491C
330
1F
100
AcDbEntity
  8
0
100
AcDbLine
 10
237.603423750881
 20
287.3863285184016
 30
0.0
 11
242.0458720245263
 21
287.3863285184016
 31
0.0
  0
CIRCLE
  5
491D
330
1F
100
AcDbEntity
  8
0
100
AcDbCircle
 10
240.7900256471096
 20
307.4408739168584
 30
0.0
 40
5.5
  0
CIRCLE
  5
491E
330
1F
100
AcDbEntity
  8
0
100
AcDbCircle
 10
240.7900256471096
 20
307.4408739168584
 30
0.0
 40
3.45
  0
ARC
  5
491F
330
1F
100
AcDbEntity
  8
0
 62
     3
100
AcDbCircle
 10
240.7900256471099
 20
307.4408739168584
 30
0.0
 40
4.0
100
AcDbArc
 50
270.0
 51
180.0
  0
CIRCLE
  5
4920
330
1F
100
AcDbEntity
  8
0
100
AcDbCircle
 10
240.7900256471099
 20
307.4408739168582
 30
0.0
 40
3.45
  0
LINE
  5
4921
330
1F
100
AcDbEntity
  8
0
100
AcDbLine
 10
237.6056946575964
 20
267.5189039922805
 30
0.0
 11
242.0533350179326
 21
267.5189039922805
 31
0.0
  0
LINE
  5
4922
330
1F
100
AcDbEntity
  8
0
100
AcDbLine
 10
236.1415855496574
 20
290.9286381313609
 30
0.0
 11
237.1906810821071
 21
293.4170488448683
 31
0.0
  0
ARC
  5
4923
330
1F
100
AcDbEntity
  8
0
100
AcDbCircle
 10
237.5924275986957
 20
265.4408739168584
 30
0.0
 40
2.078072426362859
100
AcDbArc
 50
89.63420348799621
 51
225.7198558604197
  0
CIRCLE
  5
4924
330
1F
100
AcDbEntity
  8
0
100
AcDbCircle
 10
237.5924275986957
 20
265.4408739168584
 30
0.0
 40
1.242449324426689
  0
LINE
  5
4925
330
1F
100
AcDbEntity
  8
0
100
AcDbLine
 10
236.1415855496574
 20
263.9531097023564
 30
0.0
 11
237.1906810821071
 21
261.4646989888488
 31
0.0
  0
ARC
  5
4926
330
1F
100
AcDbEntity
  8
0
100
AcDbCircle
 10
237.5924275986957
 20
289.4643718514066
 30
0.0
 40
2.078072426362859
100
AcDbArc
 50
133.6407183530381
 51
270.3031829139994
  0
CIRCLE
  5
4927
330
1F
100
AcDbEntity
  8
0
100
AcDbCircle
 10
237.5924275986957
 20
289.4643718514066
 30
0.0
 40
1.242449324426689
  0
ARC
  5
4928
330
1F
100
AcDbEntity
  8
0
100
AcDbCircle
 10
229.2441307946792
 20
309.6633045287003
 30
0.0
 40
1.6999999983
100
AcDbArc
 50
269.8615981726284
 51
359.8615981726154
  0
ARC
  5
4929
330
1F
100
AcDbEntity
  8
0
100
AcDbCircle
 10
228.344133421313
 20
309.6654785374046
 30
0.0
 40
1.6999999983
100
AcDbArc
 50
179.8615981726154
 51
269.8615981726284
  0
LINE
  5
492A
330
1F
100
AcDbEntity
  8
DIM
  6
CENTER
 62
     1
100
AcDbLine
 10
228.7972723216562
 20
305.9643789896056
 30
0.0
 11
228.7904093035304
 21
316.9408739168584
 31
0.0
  0
LINE
  5
492B
330
1F
100
AcDbEntity
  8
0
100
AcDbLine
 10
229.2400243337934
 20
307.9633094901196
 30
0.0
 11
228.3400269604273
 21
307.9654834988239
 31
0.0
  0
ARC
  5
492C
330
1F
100
AcDbEntity
  8
0
100
AcDbCircle
 10
220.6900256471102
 20
313.5408739168583
 30
0.0
 40
0.2
100
AcDbArc
 50
0.0
 51
90.0
  0
ARC
  5
492D
330
1F
100
AcDbEntity
  8
0
100
AcDbCircle
 10
220.6900256471102
 20
312.6408739168582
 30
0.0
 40
0.2
100
AcDbArc
 50
270.0
 51
0.0
  0
LINE
  5
492E
330
1F
100
AcDbEntity
  8
0
100
AcDbLine
 10
220.8900256471102
 20
312.6408739168583
 30
0.0
 11
220.8900256471102
 21
313.5408739168584
 31
0.0
  0
ARC
  5
492F
330
1F
100
AcDbEntity
  8
0
100
AcDbCircle
 10
226.9004175390051
 20
314.7408739168586
 30
0.0
 40
0.2
100
AcDbArc
 50
0.0
 51
90.0
  0
LINE
  5
4930
330
1F
100
AcDbEntity
  8
0
100
AcDbLine
 10
226.6492110697087
 20
311.7695788694782
 30
0.0
 11
226.6441383827323
 21
309.6695849982903
 31
0.0
  0
LINE
  5
4931
330
1F
100
AcDbEntity
  8
0
100
AcDbLine
 10
226.6492110697087
 20
311.7695788694782
 30
0.0
 11
227.1004175390053
 21
312.2684904058851
 31
0.0
  0
LINE
  5
4932
330
1F
100
AcDbEntity
  8
0
100
AcDbLine
 10
227.1004175390053
 20
312.2684904058851
 30
0.0
 11
227.1004175390052
 21
314.7408739168586
 31
0.0
  0
LINE
  5
4933
330
1F
100
AcDbEntity
  8
DIM
  6
CENTER
 62
     1
100
AcDbLine
 10
240.7900256471099
 20
313.0408739168584
 30
0.0
 11
240.7900256471099
 21
301.8408739168583
 31
0.0
  0
ARC
  5
4934
330
1F
100
AcDbEntity
  8
0
100
AcDbCircle
 10
230.7004076161666
 20
314.7408739168586
 30
0.0
 40
0.2
100
AcDbArc
 50
90.0
 51
180.0
  0
LINE
  5
4935
330
1F
100
AcDbEntity
  8
0
100
AcDbLine
 10
230.9491985202364
 20
311.7591919390025
 30
0.0
 11
230.94412583326
 21
309.6591980678145
 31
0.0
  0
LINE
  5
4936
330
1F
100
AcDbEntity
  8
0
100
AcDbLine
 10
230.9491985202363
 20
311.7591919390027
 30
0.0
 11
230.5004076161667
 21
312.2602774841137
 31
0.0
  0
LINE
  5
4937
330
1F
100
AcDbEntity
  8
0
100
AcDbLine
 10
230.5004076161667
 20
312.2602774841137
 30
0.0
 11
230.5004076161667
 21
314.7408739168586
 31
0.0
  0
LINE
  5
4938
330
1F
100
AcDbEntity
  8
0
100
AcDbLine
 10
248.2900256471098
 20
293.5512658087528
 30
0.0
 11
248.2900256471098
 21
286.0410351737505
 31
0.0
  0
ARC
  5
4939
330
1F
100
AcDbEntity
  8
0
100
AcDbCircle
 10
248.09002564711
 20
276.5408739168581
 30
0.0
 40
0.2
100
AcDbArc
 50
270.0
 51
0.0
  0
LINE
  5
493A
330
1F
100
AcDbEntity
  8
0
100
AcDbLine
 10
245.9900256471099
 20
276.3408739168581
 30
0.0
 11
248.0900256471101
 21
276.3408739168581
 31
0.0
  0
LINE
  5
493B
330
1F
100
AcDbEntity
  8
0
100
AcDbLine
 10
245.9900256471099
 20
267.3408739168583
 30
0.0
 11
246.89002564711
 21
267.3408739168583
 31
0.0
  0
LINE
  5
493C
330
1F
100
AcDbEntity
  8
0
100
AcDbLine
 10
245.6176421361369
 20
261.1304820249628
 30
0.0
 11
248.0900256471098
 21
261.1304820249632
 31
0.0
  0
LINE
  5
493D
330
1F
100
AcDbEntity
  8
0
100
AcDbLine
 10
245.7900256471101
 20
267.5408739168582
 30
0.0
 11
245.7900256471101
 21
276.1408739168583
 31
0.0
  0
LINE
  5
493E
330
1F
100
AcDbEntity
  8
0
100
AcDbLine
 10
245.11873059973
 20
261.5816884942597
 30
0.0
 11
243.0187367285419
 21
261.5867611812358
 31
0.0
  0
ARC
  5
493F
330
1F
100
AcDbEntity
  8
0
100
AcDbCircle
 10
245.9900256471099
 20
267.5408739168582
 30
0.0
 40
0.2
100
AcDbArc
 50
180.0
 51
270.0
  0
LINE
  5
4940
330
1F
100
AcDbEntity
  8
0
100
AcDbLine
 10
245.11873059973
 20
261.5816884942597
 30
0.0
 11
245.6176421361369
 21
261.1304820249628
 31
0.0
  0
ARC
  5
4941
330
1F
100
AcDbEntity
  8
0
100
AcDbCircle
 10
245.9900256471099
 20
276.1408739168582
 30
0.0
 40
0.2
100
AcDbArc
 50
90.0
 51
180.0
  0
LINE
  5
4942
330
1F
100
AcDbEntity
  8
0
100
AcDbLine
 10
247.0900256471101
 20
267.5408739168582
 30
0.0
 11
247.088663199823
 21
268.8408646351143
 31
0.0
  0
LINE
  5
4943
330
1F
100
AcDbEntity
  8
0
100
AcDbLine
 10
248.2900256471098
 20
268.8408646351145
 30
0.0
 11
248.2900256471098
 21
261.3304820249632
 31
0.0
  0
ARC
  5
4944
330
1F
100
AcDbEntity
  8
0
100
AcDbCircle
 10
246.89002564711
 20
267.5408739168582
 30
0.0
 40
0.2
100
AcDbArc
 50
270.0
 51
0.0
  0
ARC
  5
4945
330
1F
100
AcDbEntity
  8
0
100
AcDbCircle
 10
248.0900256471098
 20
261.3304820249632
 30
0.0
 40
0.2
100
AcDbArc
 50
270.0000000000016
 51
0.0
  0
LINE
  5
4946
330
1F
100
AcDbEntity
  8
0
100
AcDbLine
 10
247.288663199823
 20
269.0408646351146
 30
0.0
 11
248.0900256471098
 21
269.0408646351146
 31
0.0
  0
ARC
  5
4947
330
1F
100
AcDbEntity
  8
0
100
AcDbCircle
 10
247.2886631998229
 20
268.8408646351142
 30
0.0
 40
0.2
100
AcDbArc
 50
90.0
 51
180.0
  0
ARC
  5
4948
330
1F
100
AcDbEntity
  8
0
100
AcDbCircle
 10
248.0900256471097
 20
268.8408646351144
 30
0.0
 40
0.2
100
AcDbArc
 50
0.0
 51
90.0
  0
LINE
  5
4949
330
1F
100
AcDbEntity
  8
0
100
AcDbLine
 10
245.9900256471099
 20
287.5408739168583
 30
0.0
 11
246.89002564711
 21
287.5408739168583
 31
0.0
  0
LINE
  5
494A
330
1F
100
AcDbEntity
  8
0
100
AcDbLine
 10
245.9900256471099
 20
278.5408739168584
 30
0.0
 11
248.0900256471101
 21
278.5408739168584
 31
0.0
  0
LINE
  5
494B
330
1F
100
AcDbEntity
  8
0
100
AcDbLine
 10
245.7900256471101
 20
278.7408739168582
 30
0.0
 11
245.7900256471101
 21
287.3408739168581
 31
0.0
  0
ARC
  5
494C
330
1F
100
AcDbEntity
  8
0
100
AcDbCircle
 10
245.9900256471099
 20
278.7408739168581
 30
0.0
 40
0.2
100
AcDbArc
 50
180.0
 51
270.0
  0
ARC
  5
494D
330
1F
100
AcDbEntity
  8
0
100
AcDbCircle
 10
245.9900256471099
 20
287.340873916858
 30
0.0
 40
0.2
100
AcDbArc
 50
90.0
 51
180.0
  0
LINE
  5
494E
330
1F
100
AcDbEntity
  8
0
100
AcDbLine
 10
248.2900256471101
 20
276.5408739168583
 30
0.0
 11
248.2900256471101
 21
278.340873916858
 31
0.0
  0
ARC
  5
494F
330
1F
100
AcDbEntity
  8
0
100
AcDbCircle
 10
248.09002564711
 20
278.3408739168579
 30
0.0
 40
0.2
100
AcDbArc
 50
0.0
 51
90.0
  0
ARC
  5
4950
330
1F
100
AcDbEntity
  8
0
100
AcDbCircle
 10
246.89002564711
 20
287.3408739168583
 30
0.0
 40
0.2
100
AcDbArc
 50
0.0
 51
90.0
  0
LINE
  5
4951
330
1F
100
AcDbEntity
  8
0
100
AcDbLine
 10
247.2843489073185
 20
285.8410351737505
 30
0.0
 11
248.0900256471098
 21
285.8410351737505
 31
0.0
  0
ARC
  5
4952
330
1F
100
AcDbEntity
  8
0
100
AcDbCircle
 10
247.2843489073185
 20
286.0410351737505
 30
0.0
 40
0.2
100
AcDbArc
 50
180.0
 51
270.0
  0
LINE
  5
4953
330
1F
100
AcDbEntity
  8
0
100
AcDbLine
 10
247.0843489073184
 20
286.0410351737505
 30
0.0
 11
247.0900256471101
 21
287.3408739168583
 31
0.0
  0
ARC
  5
4954
330
1F
100
AcDbEntity
  8
0
100
AcDbCircle
 10
248.0900256471097
 20
286.0410351737505
 30
0.0
 40
0.2
100
AcDbArc
 50
270.0
 51
0.0
  0
LINE
  5
4955
330
1F
100
AcDbEntity
  8
0
100
AcDbLine
 10
248.2900256471098
 20
310.5127653051661
 30
0.0
 11
248.2900256471098
 21
297.3512558859143
 31
0.0
  0
LINE
  5
4956
330
1F
100
AcDbEntity
  8
0
100
AcDbLine
 10
245.6176421361369
 20
293.7512658087528
 30
0.0
 11
248.0900256471098
 21
293.7512658087528
 31
0.0
  0
LINE
  5
4957
330
1F
100
AcDbEntity
  8
0
100
AcDbLine
 10
245.6094292143654
 20
297.1512558859142
 30
0.0
 11
248.09002564711
 21
297.1512558859142
 31
0.0
  0
LINE
  5
4958
330
1F
100
AcDbEntity
  8
0
100
AcDbLine
 10
245.1083436692541
 20
297.600046789984
 30
0.0
 11
243.0083497980663
 21
297.5949741030074
 31
0.0
  0
LINE
  5
4959
330
1F
100
AcDbEntity
  8
0
100
AcDbLine
 10
245.11873059973
 20
293.3000593394563
 30
0.0
 11
243.0187367285419
 21
293.2949866524798
 31
0.0
  0
LINE
  5
495A
330
1F
100
AcDbEntity
  8
0
100
AcDbLine
 10
241.3124612203714
 20
295.8908726035411
 30
0.0
 11
241.3146352290756
 21
294.9908752301749
 31
0.0
  0
ARC
  5
495B
330
1F
100
AcDbEntity
  8
0
100
AcDbCircle
 10
243.0146302676563
 20
294.9949816910605
 30
0.0
 40
1.6999999983
100
AcDbArc
 50
180.1384018273715
 51
270.1384018273747
  0
ARC
  5
495C
330
1F
100
AcDbEntity
  8
0
100
AcDbCircle
 10
243.0124562589521
 20
295.8949790644266
 30
0.0
 40
1.6999999983
100
AcDbArc
 50
90.1384018273748
 51
180.1384018273715
  0
LINE
  5
495D
330
1F
100
AcDbEntity
  8
0
100
AcDbLine
 10
245.1083436692544
 20
297.600046789984
 30
0.0
 11
245.6094292143654
 21
297.1512558859142
 31
0.0
  0
LINE
  5
495E
330
1F
100
AcDbEntity
  8
0
100
AcDbLine
 10
245.11873059973
 20
293.3000593394563
 30
0.0
 11
245.6176421361369
 21
293.7512658087528
 31
0.0
  0
ARC
  5
495F
330
1F
100
AcDbEntity
  8
0
100
AcDbCircle
 10
248.0900256471098
 20
297.3512558859142
 30
0.0
 40
0.2
100
AcDbArc
 50
270.0000000000016
 51
0.0
  0
ARC
  5
4960
330
1F
100
AcDbEntity
  8
0
100
AcDbCircle
 10
248.0900256471098
 20
293.5512658087527
 30
0.0
 40
0.2
100
AcDbArc
 50
0.0
 51
90.0
  0
ARC
  5
4961
330
1F
100
AcDbEntity
  8
0
100
AcDbCircle
 10
210.79002564711
 20
277.4408739168583
 30
0.0
 40
50.0
100
AcDbArc
 50
41.40962210926879
 51
48.59037789072904
  0
MTEXT
  5
4962
330
1F
100
AcDbEntity
  8
DIM
100
AcDbMText
 10
220.6136335221448
 20
359.1304020155757
 30
0.0
 40
3.0
 41
0.0
 71
     9
 72
     1
  1
沉孔%%C11*8.5深\PM8*1.25*10L\P%%C6.9貫通
  7
CHINESET
1001
ACAD
1000
MTEXTBEGIN
1070
    73
1070
     1
1070
    44
1040
1.0
1070
    74
1070
     0
1000
MTEXTEND
  0
LINE
  5
4A98
330
1F
100
AcDbEntity
  8
0
100
AcDbLine
 10
106.192134561377
 20
285.2408739168585
 30
0.0
 11
106.192134561377
 21
269.6408739168585
 31
0.0
  0
LINE
  5
4AAB
330
1F
100
AcDbEntity
  8
0
100
AcDbLine
 10
79.19213456137744
 20
286.4408739168585
 30
0.0
 11
88.19994084377574
 21
286.4408739168585
 31
0.0
  0
LINE
  5
4AAC
330
1F
100
AcDbEntity
  8
0
100
AcDbLine
 10
79.19213456137732
 20
268.4408739168585
 30
0.0
 11
88.19994084377574
 21
268.4408739168585
 31
0.0
  0
LINE
  5
4AAD
330
1F
100
AcDbEntity
  8
0
100
AcDbLine
 10
104.992134561377
 20
286.4408739168585
 30
0.0
 11
106.192134561377
 21
285.2408739168585
 31
0.0
  0
LINE
  5
4AAE
330
1F
100
AcDbEntity
  8
0
100
AcDbLine
 10
106.192134561377
 20
269.6408739168585
 30
0.0
 11
104.992134561377
 21
268.4408739168585
 31
0.0
  0
LINE
  5
4AAF
330
1F
100
AcDbEntity
  8
0
100
AcDbLine
 10
81.19213456137709
 20
286.4408739168585
 30
0.0
 11
81.19213456137707
 21
268.4408739168585
 31
0.0
  0
LINE
  5
4AB0
330
1F
100
AcDbEntity
  8
0
100
AcDbLine
 10
81.19213456137707
 20
285.6908739168585
 30
0.0
 11
88.19994084377574
 21
285.6908739168585
 31
0.0
  0
LINE
  5
4AB1
330
1F
100
AcDbEntity
  8
0
100
AcDbLine
 10
81.19213456137707
 20
269.1908739168585
 30
0.0
 11
88.19994084377572
 21
269.1908739168585
 31
0.0
  0
LINE
  5
4AB2
330
1F
100
AcDbEntity
  8
0
100
AcDbLine
 10
104.992134561377
 20
286.4408739168585
 30
0.0
 11
104.992134561377
 21
268.4408739168585
 31
0.0
  0
DIMENSION
  5
4AC5
330
1F
100
AcDbEntity
  8
DIM
100
AcDbDimension
  2
*D24
 10
81.19213456137709
 20
324.148570926625
 30
0.0
 11
93.69213456137709
 21
326.648570926625
 31
0.0
 70
    32
  3
ISO-25-1
100
AcDbAlignedDimension
 13
106.192134561377
 23
285.2408739168585
 33
0.0
 14
81.19213456137709
 24
286.4408739168585
 34
0.0
100
AcDbRotatedDimension
  0
ARC
  5
4AE4
330
1F
100
AcDbEntity
  8
0
100
AcDbCircle
 10
72.19994084377592
 20
277.4408739168585
 30
0.0
 40
26.99999999999983
100
AcDbArc
 50
343.0232811802348
 51
16.97671881976525
  0
LINE
  5
4AE5
330
1F
100
AcDbEntity
  8
0
100
AcDbLine
 10
99.19994084377572
 20
265.7495309657686
 30
0.0
 11
99.19994084377572
 21
289.1322168679484
 31
0.0
  0
ARC
  5
4AE6
330
1F
100
AcDbEntity
  8
0
100
AcDbCircle
 10
115.1999408437755
 20
277.4408739168585
 30
0.0
 40
26.99999999999983
100
AcDbArc
 50
163.0232811802347
 51
196.9767188197652
  0
LINE
  5
4AE7
330
1F
100
AcDbEntity
  8
0
100
AcDbLine
 10
88.19994084377572
 20
265.7495309657686
 30
0.0
 11
88.19994084377572
 21
289.1322168679484
 31
0.0
  0
LINE
  5
4AE8
330
1F
100
AcDbEntity
  8
0
100
AcDbLine
 10
99.19994084377572
 20
265.7495309657686
 30
0.0
 11
99.19994084377572
 21
289.1322168679484
 31
0.0
  0
ARC
  5
4AE9
330
1F
100
AcDbEntity
  8
0
100
AcDbCircle
 10
92.4499408437758
 20
265.7495309657686
 30
0.0
 40
6.749999999999914
100
AcDbArc
 50
324.7356103172459
 51
34.34109372674336
  0
ARC
  5
4AEA
330
1F
100
AcDbEntity
  8
0
100
AcDbCircle
 10
94.94994084377569
 20
265.7495309657686
 30
0.0
 40
6.749999999999914
100
AcDbArc
 50
145.6589062732565
 51
215.264389682754
  0
LINE
  5
4AEB
330
1F
100
AcDbEntity
  8
0
100
AcDbLine
 10
89.43858892251359
 20
261.8524166487387
 30
0.0
 11
97.9612927650378
 21
261.8524166487387
 31
0.0
  0
LINE
  5
4AEC
330
1F
100
AcDbEntity
  8
0
100
AcDbLine
 10
89.37650695510297
 20
269.557330158031
 30
0.0
 11
98.02337473244847
 21
269.557330158031
 31
0.0
  0
LINE
  5
4AEE
330
1F
100
AcDbEntity
  8
0
100
AcDbLine
 10
89.37650695510297
 20
285.3244176756861
 30
0.0
 11
98.02337473244847
 21
285.3244176756861
 31
0.0
  0
LINE
  5
4AEF
330
1F
100
AcDbEntity
  8
0
100
AcDbLine
 10
89.43858892251364
 20
293.0293311849784
 30
0.0
 11
97.9612927650378
 21
293.0293311849784
 31
0.0
  0
ARC
  5
4AF0
330
1F
100
AcDbEntity
  8
0
100
AcDbCircle
 10
92.4499408437758
 20
289.1322168679484
 30
0.0
 40
6.749999999999914
100
AcDbArc
 50
325.6589062732565
 51
35.26438968275583
  0
ARC
  5
4AF1
330
1F
100
AcDbEntity
  8
0
100
AcDbCircle
 10
94.94994084377569
 20
289.1322168679484
 30
0.0
 40
6.749999999999914
100
AcDbArc
 50
144.7356103172441
 51
214.3410937267434
  0
LINE
  5
4AF2
330
1F
100
AcDbEntity
  8
0
100
AcDbLine
 10
99.19994084377572
 20
285.6908739168585
 30
0.0
 11
105.7421345613771
 21
285.6908739168585
 31
0.0
  0
LINE
  5
4AF3
330
1F
100
AcDbEntity
  8
0
100
AcDbLine
 10
99.19994084377572
 20
286.4408739168585
 30
0.0
 11
104.992134561377
 21
286.4408739168585
 31
0.0
  0
LINE
  5
4AF4
330
1F
100
AcDbEntity
  8
0
100
AcDbLine
 10
99.1999408437757
 20
268.4408739168585
 30
0.0
 11
104.992134561377
 21
268.4408739168585
 31
0.0
  0
LINE
  5
4AF5
330
1F
100
AcDbEntity
  8
0
100
AcDbLine
 10
99.19994084377572
 20
269.1908739168585
 30
0.0
 11
105.742134561377
 21
269.1908739168585
 31
0.0
  0
CIRCLE
  5
4AF6
330
1F
100
AcDbEntity
  8
0
100
AcDbCircle
 10
210.79002564711
 20
277.4408739168587
 30
0.0
 40
9.0
  0
CIRCLE
  5
4AF8
330
1F
100
AcDbEntity
  8
0
100
AcDbCircle
 10
210.79002564711
 20
277.4408739168587
 30
0.0
 40
8.25
  0
LINE
  5
4AF9
330
1F
100
AcDbEntity
  8
0
100
AcDbLine
 10
207.8319857555611
 20
268.9408739168583
 30
0.0
 11
203.2534747118345
 21
268.9408739168583
 31
0.0
  0
LINE
  5
4AFA
330
1F
100
AcDbEntity
  8
0
100
AcDbLine
 10
202.29002564711
 20
280.3989138084085
 30
0.0
 11
202.29002564711
 21
284.9774248521337
 31
0.0
  0
LINE
  5
4AFB
330
1F
100
AcDbEntity
  8
0
100
AcDbLine
 10
207.8319857555593
 20
285.9408739168584
 30
0.0
 11
203.2534747118346
 21
285.9408739168583
 31
0.0
  0
LINE
  5
4AFC
330
1F
100
AcDbEntity
  8
0
100
AcDbLine
 10
219.29002564711
 20
280.3989138084085
 30
0.0
 11
219.29002564711
 21
284.9774248521337
 31
0.0
  0
DIMENSION
  5
4AFD
330
1F
100
AcDbEntity
  8
DIM
100
AcDbDimension
  2
*D25
 10
202.29002564711
 20
224.9590091531937
 30
0.0
 11
210.79002564711
 21
227.4590091531937
 31
0.0
 70
    32
  3
ISO-25-1
100
AcDbAlignedDimension
 13
219.29002564711
 23
269.9043229815829
 33
0.0
 14
202.29002564711
 24
269.9043229815829
 34
0.0
100
AcDbRotatedDimension
  0
LEADER
  5
4B0A
330
1F
100
AcDbEntity
  8
DIM
100
AcDbLeader
  3
ISO-25-1
 73
     0
 74
     0
 75
     1
 40
3.0
 41
16.57142857142857
 76
     3
 10
102.0960377025764
 20
286.4408739168585
 30
0.0
 10
115.0476382976351
 20
324.5149512843676
 30
0.0
 10
118.0476382976351
 20
324.5149512843676
 30
0.0
340
4B0B
1001
ACAD
1000
DSTYLE
1002
{
1070
     5
1000

1070
    77
1070
     1
1070
   147
1040
1.0
1070
   342
1005
0
1002
}
1000
LEANOF
1010
0.0
1020
0.0
1030
0.0
  0
MTEXT
  5
4B0B
330
1F
100
AcDbEntity
  8
DIM
100
AcDbMText
 10
119.0476382976351
 20
325.5149512843676
 30
0.0
 40
3.0
 41
0.0
 71
     7
 72
     1
  1
\A1;M18*1.5
  7
CHINESET
1001
ACAD
1000
MTEXTBEGIN
1070
    73
1070
     1
1070
    44
1040
1.0
1070
    74
1070
     0
1000
MTEXTEND
  0
ENDSEC
  0
SECTION
  2
OBJECTS
  0
DICTIONARY
  5
C
330
0
100
AcDbDictionary
  3
ACAD_GROUP
350
D
  3
ACAD_LAYOUT
350
1A
  3
ACAD_MLINESTYLE
350
17
  3
ACAD_PLOTSETTINGS
350
19
  3
ACADDIM
350
1E82
  3
ACMDICTIONARY
350
4D83
  3
AMG
350
4D6A
  3
AMGSNAPSETTINGS
350
4DB6
  3
DWGPROPS
350
4D86
1001
ACAD
1000
TREAT_AS_HARD
1070
     0
  0
DICTIONARY
  5
4CD1
330
1F
100
AcDbDictionary
  3
ACAD_INDEX
350
4DBD
  3
ACAD_LAYOUTSELFREF
350
4E20
1001
ACAD
1000
TREAT_AS_HARD
1070
     1
  0
DICTIONARY
  5
4CD3
330
1B
100
AcDbDictionary
  3
ACAD_LAYOUTSELFREF
350
4E1F
1001
ACAD
1000
TREAT_AS_HARD
1070
     1
  0
DICTIONARY
  5
D
102
{ACAD_REACTORS
330
C
102
}
330
C
100
AcDbDictionary
1001
ACAD
1000
TREAT_AS_HARD
1070
     0
  0
DICTIONARY
  5
1A
102
{ACAD_REACTORS
330
C
102
}
330
C
100
AcDbDictionary
1001
ACAD
1000
TREAT_AS_HARD
1070
     0
  0
DICTIONARY
  5
17
102
{ACAD_REACTORS
330
C
102
}
330
C
100
AcDbDictionary
  3
STANDARD
350
18
1001
ACAD
1000
TREAT_AS_HARD
1070
     0
  0
DICTIONARY
  5
19
102
{ACAD_REACTORS
330
C
102
}
330
C
100
AcDbDictionary
1001
ACAD
1000
TREAT_AS_HARD
1070
     0
  0
XRECORD
  5
1E82
102
{ACAD_REACTORS
330
C
102
}
330
C
100
AcDbXrecord
 90
   990106
  3

 60
     0
 61
     0
 62
     4
 63
     4
 64
     1
 65
     0
 66
     0
 67
     3
 68
     1
 69
     0
 70
     0
 71
     0
 72
     0
 40
0.0
170
     2
340
4B0B
  0
DICTIONARY
  5
4D83
102
{ACAD_REACTORS
330
C
102
}
330
C
100
AcDbDictionary
  3
ACMSTDDICTIONARY
350
4D89
1001
ACAD
1000
TREAT_AS_HARD
1070
     0
  0
DICTIONARY
  5
4D6A
102
{ACAD_REACTORS
330
C
102
}
330
C
100
AcDbDictionary
  3
ACMGSETTINGS
350
4D6B
1001
ACAD
1000
TREAT_AS_HARD
1070
     0
  0
DICTIONARY
  5
4DB6
102
{ACAD_REACTORS
330
C
102
}
330
C
100
AcDbDictionary
1001
ACAD
1000
TREAT_AS_HARD
1070
     0
  0
XRECORD
  5
4D86
102
{ACAD_REACTORS
330
C
102
}
330
C
100
AcDbXrecord
  1
DWGPROPS COOKIE
  2

  3

  4

  6

  7

  8

  9

300
AmdtFileType=84
301
=
302
=
303
=
304
=
305
=
306
=
307
=
308
=
309
=
 40
0.2706007986111111
 41
2452019.6310853
 42
2452047.675098229
  1

 90
        1
  0
DICTIONARY
  5
4DBD
102
{ACAD_REACTORS
330
4CD1
102
}
330
4CD1
100
AcDbDictionary
  3
*A1
350
4DBE
1001
ACAD
1000
TREAT_AS_HARD
1070
     0
  0
XRECORD
  5
4E20
102
{ACAD_REACTORS
330
4CD1
102
}
330
4CD1
100
AcDbXrecord
340
1F
  0
XRECORD
  5
4E1F
102
{ACAD_REACTORS
330
4CD3
102
}
330
4CD3
100
AcDbXrecord
340
1B
  0
MLINESTYLE
  5
18
102
{ACAD_REACTORS
330
17
102
}
330
17
100
AcDbMlineStyle
  2
STANDARD
 70
     0
  3

 62
   256
 51
90.0
 52
90.0
 71
     2
 49
0.5
 62
   256
  6
BYLAYER
 49
-0.5
 62
   256
  6
BYLAYER
  0
DICTIONARY
  5
4D89
102
{ACAD_REACTORS
330
4D83
102
}
330
4D83
100
AcDbDictionary
1001
ACAD
1000
TREAT_AS_HARD
1070
     0
  0
DICTIONARY
  5
4D6B
102
{ACAD_REACTORS
330
4D6A
102
}
330
4D6A
100
AcDbDictionary
1001
ACAD
1000
TREAT_AS_HARD
1070
     0
  0
LAYER_INDEX
  5
4DBE
102
{ACAD_REACTORS
330
4DBD
102
}
330
4DBD
100
AcDbIndex
 40
2452968.408336608
100
AcDbLayerIndex
  8
0
360
4DBF
 90
      570
  8
DIM
360
4DC0
 90
       87
  8
LOGO
360
4DC1
 90
      124
  8
Defpoints
360
4DC2
 90
        0
  0
IDBUFFER
  5
4DBF
330
0
100
AcDbIdBuffer
330
4938
330
4939
330
493A
330
493B
330
493C
330
493D
330
493E
330
493F
330
4940
330
4941
330
4942
330
4943
330
4944
330
4945
330
4946
330
4947
330
4948
330
4949
330
494A
330
494B
330
494C
330
494D
330
494E
330
494F
330
4950
330
4951
330
4952
330
4953
330
4954
330
4955
330
4956
330
4957
330
4958
330
4959
330
495A
330
495B
330
495C
330
495D
330
495E
330
495F
330
4960
330
4961
330
4A98
330
4AAB
330
4AAC
330
4AAD
330
4AAE
330
4AAF
330
4AB0
330
4AB1
330
4AB2
330
4AE4
330
4AE5
330
4AE6
330
4AE7
330
4AE8
330
4AE9
330
4AEA
330
4AEB
330
4AEC
330
4AEE
330
4AEF
330
4AF0
330
4AF1
330
4AF2
330
4AF3
330
4AF4
330
4AF5
330
4AF6
330
4AF8
330
4AF9
330
4AFA
330
4AFB
330
4AFC
330
A9
330
AA
330
AB
330
AC
330
B1
330
B2
330
10B3
330
17B4
330
17B5
330
17BF
330
17C0
330
1811
330
1812
330
18E7
330
18E8
330
18E9
330
18EA
330
18EB
330
443A
330
443B
330
443D
330
443E
330
4449
330
444E
330
444F
330
4450
330
4452
330
4455
330
4456
330
4457
330
445D
330
445F
330
4460
330
4461
330
4463
330
4465
330
4476
330
4477
330
4478
330
447A
330
447B
330
447C
330
447D
330
447E
330
447F
330
4480
330
4481
330
4482
330
4483
330
4484
330
4485
330
4486
330
4487
330
4488
330
4489
330
448A
330
448B
330
448D
330
448E
330
448F
330
4490
330
4491
330
4492
330
4493
330
4494
330
4495
330
4496
330
4497
330
4498
330
4499
330
449B
330
449C
330
449D
330
44A1
330
44A2
330
44A3
330
44A4
330
44A5
330
44AB
330
44AC
330
44AF
330
44B2
330
44B3
330
44C4
330
44D0
330
4502
330
4503
330
4505
330
4506
330
4507
330
4508
330
4509
330
450A
330
450B
330
450C
330
450D
330
450E
330
450F
330
4510
330
4511
330
4512
330
4513
330
4514
330
4515
330
4516
330
4517
330
4518
330
451A
330
451B
330
451C
330
451E
330
4521
330
4522
330
4523
330
4524
330
4525
330
4526
330
4528
330
4529
330
452A
330
452B
330
452C
330
452D
330
452E
330
452F
330
4530
330
4531
330
4532
330
4534
330
4536
330
4537
330
4538
330
4539
330
453A
330
453C
330
453D
330
453E
330
453F
330
4540
330
4541
330
4542
330
4543
330
4544
330
4545
330
4546
330
4547
330
4548
330
4549
330
454A
330
454B
330
454C
330
454D
330
454E
330
454F
330
4550
330
4551
330
4552
330
4553
330
4555
330
4557
330
4558
330
4559
330
455A
330
455C
330
455D
330
455E
330
455F
330
4560
330
4561
330
4562
330
4563
330
4565
330
4566
330
4567
330
4568
330
4569
330
456A
330
456B
330
456C
330
456E
330
456F
330
4570
330
4571
330
4572
330
4573
330
4574
330
4575
330
4576
330
4577
330
4578
330
4579
330
457A
330
457B
330
457C
330
457D
330
457F
330
4580
330
4581
330
4582
330
4586
330
4591
330
45D9
330
45DA
330
45DB
330
45DC
330
45DD
330
45DE
330
45E0
330
45E1
330
45E3
330
45E5
330
45E6
330
45E7
330
45E8
330
45E9
330
45EB
330
45EC
330
45ED
330
45EE
330
45EF
330
45F0
330
45F1
330
45F2
330
45F3
330
45F7
330
45FA
330
45FB
330
45FD
330
45FE
330
45FF
330
4601
330
4603
330
4604
330
4605
330
4606
330
4607
330
4608
330
4609
330
460A
330
460B
330
460C
330
460D
330
460E
330
460F
330
4612
330
4613
330
4614
330
4615
330
4617
330
4619
330
461C
330
461D
330
461E
330
461F
330
4620
330
4621
330
4622
330
4623
330
4624
330
4625
330
4626
330
4627
330
4628
330
4629
330
462A
330
462B
330
462C
330
462D
330
462E
330
4630
330
4631
330
4649
330
464A
330
47A3
330
47A4
330
47A5
330
47A6
330
47B4
330
47B5
330
4839
330
483A
330
483B
330
483C
330
483D
330
483E
330
483F
330
4840
330
4841
330
4842
330
4844
330
4845
330
4846
330
4847
330
484A
330
484B
330
484F
330
4850
330
4851
330
4852
330
4854
330
4856
330
4857
330
4858
330
4859
330
485A
330
485B
330
485C
330
485D
330
485E
330
485F
330
4860
330
4861
330
4862
330
4863
330
4864
330
4865
330
4866
330
4867
330
4868
330
4869
330
486A
330
486B
330
486C
330
486D
330
486E
330
486F
330
4870
330
4872
330
4873
330
4874
330
4875
330
4876
330
4877
330
4878
330
4879
330
487A
330
487B
330
487C
330
4880
330
4883
330
4886
330
4887
330
4888
330
488A
330
488B
330
488C
330
488D
330
488E
330
4890
330
4891
330
4892
330
4893
330
4894
330
4895
330
4897
330
4898
330
4899
330
489A
330
489B
330
489C
330
489D
330
489E
330
489F
330
48A0
330
48A1
330
48A2
330
48A3
330
48A4
330
48A5
330
48A6
330
48A7
330
48A8
330
48A9
330
48AA
330
48AB
330
48AC
330
48AD
330
48AE
330
48AF
330
48B0
330
48B1
330
48B5
330
48B7
330
48B8
330
48B9
330
48BA
330
48BB
330
48BC
330
48BD
330
48BE
330
48BF
330
48C0
330
48C1
330
48C2
330
48C3
330
48C4
330
48C5
330
48C6
330
48C7
330
48C8
330
48C9
330
48CB
330
48CC
330
48CD
330
48CE
330
48D0
330
48D1
330
48D2
330
48D3
330
48D5
330
48D6
330
48D7
330
48D8
330
48D9
330
48DA
330
48DB
330
48DC
330
48DD
330
48DE
330
48DF
330
48E0
330
48E3
330
48E4
330
48E5
330
48E6
330
48E7
330
48E8
330
48E9
330
48EA
330
48EB
330
48EC
330
48ED
330
48EE
330
48EF
330
48F0
330
48F1
330
48F2
330
48F3
330
48F4
330
48F5
330
48F6
330
48F7
330
48F8
330
48F9
330
48FA
330
48FB
330
48FC
330
4900
330
4901
330
4903
330
4904
330
4905
330
4906
330
4907
330
4908
330
4909
330
490A
330
490C
330
490D
330
490E
330
490F
330
4910
330
4911
330
4912
330
4913
330
4914
330
4915
330
4916
330
4917
330
4918
330
491C
330
491D
330
491E
330
491F
330
4920
330
4921
330
4922
330
4923
330
4924
330
4925
330
4926
330
4927
330
4928
330
4929
330
492B
330
492C
330
492D
330
492E
330
492F
330
4930
330
4931
330
4932
330
4934
330
4935
330
4936
330
4937
  0
IDBUFFER
  5
4DC0
330
0
100
AcDbIdBuffer
330
4843
330
4848
330
4849
330
484C
330
484D
330
484E
330
4853
330
4855
330
4871
330
487D
330
487E
330
487F
330
4881
330
4882
330
4884
330
4885
330
4889
330
488F
330
4896
330
48B3
330
48B4
330
48B6
330
48CF
330
48D4
330
48FD
330
48FE
330
48FF
330
4902
330
490B
330
4919
330
491A
330
491B
330
492A
330
4933
330
4962
330
4AC5
330
4AFD
330
4B0A
330
4B0B
330
443C
330
4453
330
4454
330
4462
330
4479
330
448C
330
44A0
330
4504
330
451D
330
4533
330
4535
330
453B
330
4554
330
455B
330
457E
330
45DF
330
45E2
330
45E4
330
45EA
330
45FC
330
4600
330
4602
330
4616
330
4633
330
464B
330
464C
330
4656
330
4663
330
4682
330
468F
330
469C
330
46E4
330
46F1
330
4763
330
4764
330
4765
330
4772
330
477F
330
47A7
330
47B7
330
47B8
330
47B9
330
47BA
330
4834
330
4835
330
4836
330
4837
330
4838
  0
IDBUFFER
  5
4DC1
330
0
100
AcDbIdBuffer
330
1886
330
1887
330
1888
330
1889
330
188A
330
188B
330
188C
330
188D
330
188E
330
188F
330
1890
330
1891
330
17BD
330
17BE
330
17C1
330
17C2
330
17C3
330
17C4
330
17C5
330
17C6
330
17C7
330
17C8
330
17C9
330
17CA
330
17CB
330
17CC
330
17CD
330
17CE
330
17CF
330
17D0
330
17D1
330
17D2
330
17D3
330
17D4
330
17D5
330
17D6
330
17D7
330
17D8
330
17D9
330
17DA
330
17DB
330
17DC
330
17DD
330
17DE
330
17DF
330
17E0
330
17E1
330
17E2
330
17E3
330
17E4
330
17E5
330
17E6
330
17E7
330
17E8
330
17E9
330
17EA
330
17EB
330
17EC
330
17ED
330
17EE
330
17EF
330
17F0
330
17F1
330
17F2
330
17F3
330
17F4
330
17F5
330
17F6
330
17F7
330
17F8
330
17F9
330
17FA
330
17FB
330
17FC
330
17FD
330
17FE
330
17FF
330
1800
330
1801
330
1802
330
1803
330
1804
330
1805
330
1806
330
1807
330
1808
330
1809
330
180A
330
180B
330
180C
330
180D
330
180E
330
180F
330
1810
330
1868
330
1869
330
186A
330
186B
330
186C
330
186D
330
186E
330
186F
330
1870
330
1871
330
1872
330
1873
330
1874
330
1875
330
1876
330
1877
330
1878
330
1879
330
187A
330
187B
330
187C
330
187D
330
187E
330
187F
330
1880
330
1881
330
1882
330
1883
330
1884
330
1885
  0
IDBUFFER
  5
4DC2
330
0
100
AcDbIdBuffer
  0
ENDSEC
  0
EOF
