  0
SECTION
  2
HEADER
  9
$ACADVER
  1
AC1009
  9
$INSBASE
 10
0.0
 20
0.0
 30
0.0
  9
$EXTMIN
 10
-0.4820973571052037
 20
-0.4766328058566387
 30
-0.00000000000001
  9
$EXTMAX
 10
271.64119630340429
 20
418.08769831555497
 30
0.0000000000000053
  9
$LIMMIN
 10
0.0
 20
0.0
  9
$LIMMAX
 10
12.0
 20
9.0
  9
$ORTHOMODE
 70
     0
  9
$REGENMODE
 70
     1
  9
$FILLMODE
 70
     1
  9
$QTEXTMODE
 70
     0
  9
$MIRRTEXT
 70
     1
  9
$DRAGMODE
 70
     2
  9
$LTSCALE
 40
5.0
  9
$OSMODE
 70
    39
  9
$ATTMODE
 70
     1
  9
$TEXTSIZE
 40
4.5
  9
$TRACEWID
 40
0.05
  9
$TEXTSTYLE
  7
CHINESET
  9
$CLAYER
  8
0
  9
$CELTYPE
  6
BYLAYER
  9
$CECOLOR
 62
   256
  9
$DIMSCALE
 40
1.0
  9
$DIMASZ
 40
3.0
  9
$DIMEXO
 40
3.0
  9
$DIMDLI
 40
2.0
  9
$DIMRND
 40
0.0
  9
$DIMDLE
 40
0.0
  9
$DIMEXE
 40
2.0
  9
$DIMTP
 40
0.0
  9
$DIMTM
 40
0.0
  9
$DIMTXT
 40
3.0
  9
$DIMCEN
 40
-3.0
  9
$DIMTSZ
 40
0.0
  9
$DIMTOL
 70
     0
  9
$DIMLIM
 70
     0
  9
$DIMTIH
 70
     0
  9
$DIMTOH
 70
     0
  9
$DIMSE1
 70
     0
  9
$DIMSE2
 70
     0
  9
$DIMTAD
 70
     1
  9
$DIMZIN
 70
     8
  9
$DIMBLK
  1

  9
$DIMASO
 70
     1
  9
$DIMSHO
 70
     1
  9
$DIMPOST
  1

  9
$DIMAPOST
  1

  9
$DIMALT
 70
     0
  9
$DIMALTD
 70
     2
  9
$DIMALTF
 40
25.399999999999999
  9
$DIMLFAC
 40
1.0
  9
$DIMTOFL
 70
     1
  9
$DIMTVP
 40
0.0
  9
$DIMTIX
 70
     0
  9
$DIMSOXD
 70
     0
  9
$DIMSAH
 70
     0
  9
$DIMBLK1
  1

  9
$DIMBLK2
  1

  9
$DIMSTYLE
  2
ISO-25-1
  9
$DIMCLRD
 70
   256
  9
$DIMCLRE
 70
   256
  9
$DIMCLRT
 70
   256
  9
$DIMTFAC
 40
0.7
  9
$DIMGAP
 40
1.0
  9
$LUNITS
 70
     2
  9
$LUPREC
 70
     2
  9
$SKETCHINC
 40
0.1
  9
$FILLETRAD
 40
0.5
  9
$AUNITS
 70
     0
  9
$AUPREC
 70
     0
  9
$MENU
  1
.
  9
$ELEVATION
 40
0.0
  9
$PELEVATION
 40
0.0
  9
$THICKNESS
 40
0.0
  9
$LIMCHECK
 70
     0
  9
$BLIPMODE
 70
     0
  9
$CHAMFERA
 40
1.5
  9
$CHAMFERB
 40
1.5
  9
$SKPOLY
 70
     0
  9
$TDCREATE
 40
2452019.6310852999
  9
$TDUPDATE
 40
2452047.6801921302
  9
$TDINDWG
 40
0.2828228819
  9
$TDUSRTIMER
 40
0.2828228819
  9
$USRTIMER
 70
     1
  9
$ANGBASE
 50
0.0
  9
$ANGDIR
 70
     0
  9
$PDMODE
 70
     0
  9
$PDSIZE
 40
0.0
  9
$PLINEWID
 40
0.0
  9
$COORDS
 70
     2
  9
$SPLFRAME
 70
     0
  9
$SPLINETYPE
 70
     6
  9
$SPLINESEGS
 70
     8
  9
$ATTDIA
 70
     0
  9
$ATTREQ
 70
     1
  9
$HANDLING
 70
 12289
  9
$HANDSEED
  5
57AD
  9
$SURFTAB1
 70
     6
  9
$SURFTAB2
 70
     6
  9
$SURFTYPE
 70
     6
  9
$SURFU
 70
     6
  9
$SURFV
 70
     6
  9
$UCSNAME
  2

  9
$UCSORG
 10
0.0
 20
0.0
 30
0.0
  9
$UCSXDIR
 10
1.0
 20
0.0
 30
0.0
  9
$UCSYDIR
 10
0.0
 20
1.0
 30
0.0
  9
$PUCSNAME
  2

  9
$PUCSORG
 10
0.0
 20
0.0
 30
0.0
  9
$PUCSXDIR
 10
1.0
 20
0.0
 30
0.0
  9
$PUCSYDIR
 10
0.0
 20
1.0
 30
0.0
  9
$USERI1
 70
     0
  9
$USERI2
 70
     0
  9
$USERI3
 70
     0
  9
$USERI4
 70
     0
  9
$USERI5
 70
     0
  9
$USERR1
 40
0.0
  9
$USERR2
 40
0.0
  9
$USERR3
 40
0.0
  9
$USERR4
 40
0.0
  9
$USERR5
 40
0.0
  9
$WORLDVIEW
 70
     1
  9
$SHADEDGE
 70
     3
  9
$SHADEDIF
 70
    70
  9
$TILEMODE
 70
     1
  9
$MAXACTVP
 70
    64
  9
$PLIMCHECK
 70
     0
  9
$PEXTMIN
 10
1.0000000000000000E+020
 20
1.0000000000000000E+020
 30
1.0000000000000000E+020
  9
$PEXTMAX
 10
-1.0000000000000000E+020
 20
-1.0000000000000000E+020
 30
-1.0000000000000000E+020
  9
$PLIMMIN
 10
0.0
 20
0.0
  9
$PLIMMAX
 10
12.0
 20
9.0
  9
$UNITMODE
 70
     0
  9
$VISRETAIN
 70
     1
  9
$PLINEGEN
 70
     0
  9
$PSLTSCALE
 70
     1
  0
ENDSEC
  0
SECTION
  2
TABLES
  0
TABLE
  2
VPORT
 70
     2
  0
VPORT
  2
*ACTIVE
 70
     0
 10
0.0
 20
0.0
 11
1.0
 21
1.0
 12
135.5795494731494
 22
208.80553275484911
 13
0.0
 23
0.0
 14
0.5
 24
0.5
 15
0.5
 25
0.5
 16
0.0
 26
0.0
 36
1.0
 17
0.0
 27
0.0
 37
0.0
 40
423.18084947936831
 41
1.7274401473296499
 42
50.0
 43
0.0
 44
0.0
 50
0.0
 51
0.0
 71
     0
 72
   100
 73
     1
 74
     3
 75
     0
 76
     0
 77
     0
 78
     0
  0
ENDTAB
  0
TABLE
  2
LTYPE
 70
     6
  0
LTYPE
  2
CONTINUOUS
 70
     0
  3
Solid line
 72
    65
 73
     0
 40
0.0
  0
LTYPE
  2
CENTER
 70
     0
  3
Center ____ _ ____ _ ____ _ ____ _ ____ _ ____
 72
    65
 73
     4
 40
2.0
 49
1.25
 49
-0.25
 49
0.25
 49
-0.25
  0
ENDTAB
  0
TABLE
  2
LAYER
 70
    15
  0
LAYER
  2
0
 70
     0
 62
     7
  6
CONTINUOUS
  0
LAYER
  2
DIM
 70
     0
 62
     5
  6
CONTINUOUS
  0
LAYER
  2
CENTER
 70
     0
 62
     1
  6
CENTER
  0
LAYER
  2
LOGO
 70
     0
 62
     7
  6
CONTINUOUS
  0
LAYER
  2
DEFPOINTS
 70
     0
 62
     7
  6
CONTINUOUS
  0
ENDTAB
  0
TABLE
  2
STYLE
 70
     9
  0
STYLE
  2
STANDARD
 70
     0
 40
3.0
 41
1.0
 50
0.0
 71
     0
 42
3.0
  3
txt
  4

  0
STYLE
  2
CHINESET
 70
     0
 40
3.0
 41
1.0
 50
0.0
 71
     0
 42
4.5
  3
simplex.shx
  4
CHINESET.shx
  0
STYLE
  2
LOGO
 70
     0
 40
0.0
 41
1.0
 50
0.0
 71
     0
 42
5.0
  3
txt
  4

  0
ENDTAB
  0
TABLE
  2
VIEW
 70
     0
  0
ENDTAB
  0
TABLE
  2
UCS
 70
     0
  0
ENDTAB
  0
TABLE
  2
APPID
 70
    10
  0
APPID
  2
ACAD
 70
     0
  0
APPID
  2
AD_DRAW
 70
     0
  0
APPID
  2
DESIGNERASSEMBLIES
 70
     0
  0
APPID
  2
MCAD_NO_VIS
 70
     0
  0
APPID
  2
ASURF_PCURVE_APPNAME
 70
     0
  0
APPID
  2
CONTENTBLOCKICON
 70
     0
  0
APPID
  2
GENIUS_GENODEF_13
 70
     0
  0
APPID
  2
GENIUS_GENOBJ-N-FIL_13
 70
     0
  0
APPID
  2
GENIUS_GENFIL_13
 70
     0
  0
APPID
  2
GENIUS_GENOBJ-N-CHA_13
 70
     0
  0
ENDTAB
  0
TABLE
  2
DIMSTYLE
 70
     3
  0
DIMSTYLE
  2
ISO-25-1
 70
     0
  3

  4

  5

  6

  7

 40
1.0
 41
3.0
 42
3.0
 43
2.0
 44
2.0
 45
0.0
 46
0.0
 47
0.0
 48
0.0
140
3.0
141
-3.0
142
0.0
143
25.399999999999999
144
1.0
145
0.0
146
0.7
147
1.0
 71
     0
 72
     0
 73
     0
 74
     0
 75
     0
 76
     0
 77
     1
 78
     8
170
     0
171
     2
172
     1
173
     0
174
     0
175
     0
176
   256
177
   256
178
   256
  0
ENDTAB
  0
ENDSEC
  0
SECTION
  2
BLOCKS
  0
BLOCK
  8
0
  2
$MODEL_SPACE
 70
     0
 10
0.0
 20
0.0
 30
0.0
  3
$MODEL_SPACE
  1

  0
ENDBLK
  5
21
  8
0
  0
BLOCK
 67
     1
  8
0
  2
$PAPER_SPACE
 70
     0
 10
0.0
 20
0.0
 30
0.0
  3
$PAPER_SPACE
  1

  0
ENDBLK
  5
1D
 67
     1
  8
0
  0
BLOCK
  8
0
  2
*D141
 70
     1
 10
0.0
 20
0.0
 30
0.0
  3
*D141
  1

  0
LINE
  5
5656
  8
DIM
 10
78.435661721482404
 20
149.46579195757491
 30
0.0
 11
78.435661721482404
 21
165.6027513010049
 31
0.0
  0
LINE
  5
5657
  8
DIM
 10
37.43566172148234
 20
149.46579195757491
 30
0.0
 11
37.43566172148234
 21
165.6027513010049
 31
0.0
  0
LINE
  5
5658
  8
DIM
 10
75.435661721482404
 20
163.6027513010049
 30
0.0
 11
40.43566172148234
 21
163.6027513010049
 31
0.0
  0
SOLID
  5
5659
  8
DIM
 10
75.435661721482404
 20
164.1027513010049
 30
0.0
 11
75.435661721482404
 21
163.1027513010049
 31
0.0
 12
78.435661721482404
 22
163.6027513010049
 32
0.0
 13
78.435661721482404
 23
163.6027513010049
 33
0.0
  0
SOLID
  5
565A
  8
DIM
 10
40.43566172148234
 20
164.1027513010049
 30
0.0
 11
40.43566172148234
 21
163.1027513010049
 31
0.0
 12
37.43566172148234
 22
163.6027513010049
 32
0.0
 13
37.43566172148234
 23
163.6027513010049
 33
0.0
  0
TEXT
  5
565B
  8
0
 10
56.149947435768091
 20
164.60275130100479
 30
0.0
 40
3.0
  1
41
  7
CHINESET
  0
POINT
  5
565C
  8
DEFPOINTS
 62
     0
 10
78.435661721482404
 20
146.46579195757491
 30
0.0
  0
POINT
  5
565D
  8
DEFPOINTS
 62
     0
 10
37.43566172148234
 20
146.46579195757491
 30
0.0
  0
POINT
  5
565E
  8
DEFPOINTS
 62
     0
 10
37.43566172148234
 20
163.6027513010049
 30
0.0
  0
ENDBLK
  5
4EDA
  8
0
  0
BLOCK
  8
0
  2
*D142
 70
     1
 10
0.0
 20
0.0
 30
0.0
  3
*D142
  1

  0
LINE
  5
564D
  8
DIM
 10
65.43566172148229
 20
113.11457392125619
 30
0.0
 11
65.43566172148229
 21
156.4183169211673
 31
0.0
  0
LINE
  5
564E
  8
DIM
 10
78.435661721482404
 20
149.46579195757491
 30
0.0
 11
78.435661721482404
 21
156.4183169211673
 31
0.0
  0
LINE
  5
564F
  8
DIM
 10
68.43566172148229
 20
154.4183169211673
 30
0.0
 11
75.435661721482404
 21
154.4183169211673
 31
0.0
  0
SOLID
  5
5650
  8
DIM
 10
68.43566172148229
 20
154.91831692116739
 30
0.0
 11
68.43566172148229
 21
153.9183169211673
 31
0.0
 12
65.43566172148229
 22
154.4183169211673
 32
0.0
 13
65.43566172148229
 23
154.4183169211673
 33
0.0
  0
SOLID
  5
5651
  8
DIM
 10
75.435661721482404
 20
154.91831692116739
 30
0.0
 11
75.435661721482404
 21
153.9183169211673
 31
0.0
 12
78.435661721482404
 22
154.4183169211673
 32
0.0
 13
78.435661721482404
 23
154.4183169211673
 33
0.0
  0
TEXT
  5
5652
  8
0
 10
69.792804578625208
 20
155.4183169211673
 30
0.0
 40
3.0
  1
13
  7
CHINESET
  0
POINT
  5
5653
  8
DEFPOINTS
 62
     0
 10
65.43566172148229
 20
110.11457392125619
 30
0.0
  0
POINT
  5
5654
  8
DEFPOINTS
 62
     0
 10
78.435661721482404
 20
146.46579195757491
 30
0.0
  0
POINT
  5
5655
  8
DEFPOINTS
 62
     0
 10
78.435661721482404
 20
154.4183169211673
 30
0.0
  0
ENDBLK
  5
4EF4
  8
0
  0
BLOCK
  8
0
  2
*D143
 70
     1
 10
0.0
 20
0.0
 30
0.0
  3
*D143
  1

  0
LINE
  5
565F
  8
DIM
 10
50.435661721482347
 20
113.11457392125619
 30
0.0
 11
50.435661721482347
 21
156.4183169211673
 31
0.0
  0
LINE
  5
5660
  8
DIM
 10
37.43566172148234
 20
149.46579195757479
 30
0.0
 11
37.43566172148234
 21
156.4183169211673
 31
0.0
  0
LINE
  5
5661
  8
DIM
 10
47.43566172148234
 20
154.4183169211673
 30
0.0
 11
40.43566172148234
 21
154.4183169211673
 31
0.0
  0
SOLID
  5
5662
  8
DIM
 10
47.43566172148234
 20
154.91831692116739
 30
0.0
 11
47.43566172148234
 21
153.9183169211673
 31
0.0
 12
50.435661721482347
 22
154.4183169211673
 32
0.0
 13
50.435661721482347
 23
154.4183169211673
 33
0.0
  0
SOLID
  5
5663
  8
DIM
 10
40.43566172148234
 20
154.91831692116739
 30
0.0
 11
40.43566172148234
 21
153.9183169211673
 31
0.0
 12
37.43566172148234
 22
154.4183169211673
 32
0.0
 13
37.43566172148234
 23
154.4183169211673
 33
0.0
  0
TEXT
  5
5664
  8
0
 10
41.792804578625201
 20
155.4183169211673
 30
0.0
 40
3.0
  1
13
  7
CHINESET
  0
POINT
  5
5665
  8
DEFPOINTS
 62
     0
 10
50.435661721482347
 20
110.11457392125619
 30
0.0
  0
POINT
  5
5666
  8
DEFPOINTS
 62
     0
 10
37.43566172148234
 20
146.46579195757479
 30
0.0
  0
POINT
  5
5667
  8
DEFPOINTS
 62
     0
 10
37.43566172148234
 20
154.4183169211673
 30
0.0
  0
ENDBLK
  5
4F01
  8
0
  0
BLOCK
  8
0
  2
*D144
 70
     1
 10
0.0
 20
0.0
 30
0.0
  3
*D144
  1

  0
LINE
  5
5668
  8
DIM
 10
78.435661721482404
 20
149.46579195757491
 30
0.0
 11
78.435661721482404
 21
165.6027513010049
 31
0.0
  0
LINE
  5
5669
  8
DIM
 10
89.435661721482404
 20
112.96579195757511
 30
0.0
 11
89.435661721482404
 21
165.6027513010049
 31
0.0
  0
LINE
  5
566A
  8
DIM
 10
81.435661721482404
 20
163.6027513010049
 30
0.0
 11
86.435661721482404
 21
163.6027513010049
 31
0.0
  0
SOLID
  5
566B
  8
DIM
 10
81.435661721482404
 20
164.1027513010049
 30
0.0
 11
81.435661721482404
 21
163.1027513010049
 31
0.0
 12
78.435661721482404
 22
163.6027513010049
 32
0.0
 13
78.435661721482404
 23
163.6027513010049
 33
0.0
  0
SOLID
  5
566C
  8
DIM
 10
86.435661721482404
 20
164.1027513010049
 30
0.0
 11
86.435661721482404
 21
163.1027513010049
 31
0.0
 12
89.435661721482404
 22
163.6027513010049
 32
0.0
 13
89.435661721482404
 23
163.6027513010049
 33
0.0
  0
TEXT
  5
566D
  8
0
 10
82.435661721482404
 20
164.60275130100479
 30
0.0
 40
3.0
  1
11
  7
CHINESET
  0
POINT
  5
566E
  8
DEFPOINTS
 62
     0
 10
78.435661721482404
 20
146.46579195757491
 30
0.0
  0
POINT
  5
566F
  8
DEFPOINTS
 62
     0
 10
89.435661721482404
 20
109.96579195757511
 30
0.0
  0
POINT
  5
5670
  8
DEFPOINTS
 62
     0
 10
89.435661721482404
 20
163.6027513010049
 30
0.0
  0
ENDBLK
  5
4F0E
  8
0
  0
BLOCK
  8
0
  2
*D145
 70
     1
 10
0.0
 20
0.0
 30
0.0
  3
*D145
  1

  0
LINE
  5
5644
  8
DIM
 10
89.435661721482404
 20
112.96579195757511
 30
0.0
 11
89.435661721482404
 21
174.30288438112211
 31
0.0
  0
LINE
  5
5645
  8
DIM
 10
37.43566172148234
 20
149.46579195757491
 30
0.0
 11
37.43566172148234
 21
174.30288438112211
 31
0.0
  0
LINE
  5
5646
  8
DIM
 10
86.435661721482404
 20
172.30288438112211
 30
0.0
 11
40.43566172148234
 21
172.30288438112211
 31
0.0
  0
SOLID
  5
5647
  8
DIM
 10
86.435661721482404
 20
172.80288438112211
 30
0.0
 11
86.435661721482404
 21
171.80288438112211
 31
0.0
 12
89.435661721482404
 22
172.30288438112211
 32
0.0
 13
89.435661721482404
 23
172.30288438112211
 33
0.0
  0
SOLID
  5
5648
  8
DIM
 10
40.43566172148234
 20
172.80288438112211
 30
0.0
 11
40.43566172148234
 21
171.80288438112211
 31
0.0
 12
37.43566172148234
 22
172.30288438112211
 32
0.0
 13
37.43566172148234
 23
172.30288438112211
 33
0.0
  0
TEXT
  5
5649
  8
0
 10
61.007090292910952
 20
173.30288438112211
 30
0.0
 40
3.0
  1
52
  7
CHINESET
  0
POINT
  5
564A
  8
DEFPOINTS
 62
     0
 10
89.435661721482404
 20
109.96579195757511
 30
0.0
  0
POINT
  5
564B
  8
DEFPOINTS
 62
     0
 10
37.43566172148234
 20
146.46579195757491
 30
0.0
  0
POINT
  5
564C
  8
DEFPOINTS
 62
     0
 10
37.43566172148234
 20
172.30288438112211
 30
0.0
  0
ENDBLK
  5
4F1B
  8
0
  0
BLOCK
  8
0
  2
*D146
 70
     1
 10
0.0
 20
0.0
 30
0.0
  3
*D146
  1

  0
LINE
  5
567A
  8
DIM
 10
87.435661721482475
 20
111.96579195757521
 30
0.0
 11
106.4629376789146
 21
111.96579195757521
 31
0.0
  0
LINE
  5
567B
  8
DIM
 10
87.435661721482475
 20
86.965791957575135
 30
0.0
 11
106.4629376789146
 21
86.965791957575107
 31
0.0
  0
LINE
  5
567C
  8
DIM
 10
104.4629376789146
 20
108.96579195757521
 30
0.0
 11
104.4629376789146
 21
89.965791957575107
 31
0.0
  0
SOLID
  5
567D
  8
DIM
 10
103.9629376789146
 20
108.96579195757521
 30
0.0
 11
104.9629376789146
 21
108.96579195757521
 31
0.0
 12
104.4629376789146
 22
111.96579195757521
 32
0.0
 13
104.4629376789146
 23
111.96579195757521
 33
0.0
  0
SOLID
  5
567E
  8
DIM
 10
103.9629376789146
 20
89.965791957575107
 30
0.0
 11
104.9629376789146
 21
89.965791957575107
 31
0.0
 12
104.4629376789146
 22
86.965791957575107
 32
0.0
 13
104.4629376789146
 23
86.965791957575107
 33
0.0
  0
INSERT
  5
567F
  8
0
  2
*U192
 10
0.0
 20
0.0
 30
0.0
  0
POINT
  5
5680
  8
DEFPOINTS
 62
     0
 10
84.435661721482461
 20
111.96579195757521
 30
0.0
  0
POINT
  5
5681
  8
DEFPOINTS
 62
     0
 10
84.435661721482461
 20
86.965791957575135
 30
0.0
  0
POINT
  5
5682
  8
DEFPOINTS
 62
     0
 10
104.4629376789146
 20
86.965791957575107
 30
0.0
  0
ENDBLK
  5
4F28
  8
0
  0
BLOCK
  8
0
  2
*D147
 70
     1
 10
0.0
 20
0.0
 30
0.0
  3
*D147
  1

  0
LINE
  5
5671
  8
DIM
 10
84.935661721482475
 20
121.96579195757511
 30
0.0
 11
116.3347336851604
 21
121.96579195757511
 31
0.0
  0
LINE
  5
5672
  8
DIM
 10
84.935661721482475
 20
76.965791957575135
 30
0.0
 11
116.3347336851604
 21
76.965791957575135
 31
0.0
  0
LINE
  5
5673
  8
DIM
 10
114.3347336851604
 20
118.96579195757511
 30
0.0
 11
114.3347336851604
 21
79.965791957575135
 31
0.0
  0
SOLID
  5
5674
  8
DIM
 10
113.8347336851604
 20
118.96579195757511
 30
0.0
 11
114.8347336851604
 21
118.96579195757511
 31
0.0
 12
114.3347336851604
 22
121.96579195757511
 32
0.0
 13
114.3347336851604
 23
121.96579195757511
 33
0.0
  0
SOLID
  5
5675
  8
DIM
 10
113.8347336851604
 20
79.965791957575135
 30
0.0
 11
114.8347336851604
 21
79.965791957575135
 31
0.0
 12
114.3347336851604
 22
76.965791957575135
 32
0.0
 13
114.3347336851604
 23
76.965791957575135
 33
0.0
  0
INSERT
  5
5676
  8
0
  2
*U191
 10
0.0
 20
0.0
 30
0.0
  0
POINT
  5
5677
  8
DEFPOINTS
 62
     0
 10
81.935661721482461
 20
121.96579195757511
 30
0.0
  0
POINT
  5
5678
  8
DEFPOINTS
 62
     0
 10
81.935661721482461
 20
76.965791957575135
 30
0.0
  0
POINT
  5
5679
  8
DEFPOINTS
 62
     0
 10
114.3347336851604
 20
76.965791957575135
 30
0.0
  0
ENDBLK
  5
4F35
  8
0
  0
BLOCK
  8
0
  2
*D148
 70
     1
 10
0.0
 20
0.0
 30
0.0
  3
*D148
  1

  0
LINE
  5
569E
  8
DIM
 10
83.435661721482333
 20
75.465791957575149
 30
0.0
 11
83.435661721482333
 21
40.788503985862903
 31
0.0
  0
LINE
  5
569F
  8
DIM
 10
78.435661721482347
 20
49.465791957575121
 30
0.0
 11
78.435661721482347
 21
40.788503985862903
 31
0.0
  0
LINE
  5
56A0
  8
DIM
 10
86.435661721482347
 20
42.788503985862903
 30
0.0
 11
89.435661721482347
 21
42.788503985862903
 31
0.0
  0
LINE
  5
56A1
  8
DIM
 10
75.435661721482347
 20
42.788503985862903
 30
0.0
 11
72.435661721482333
 21
42.788503985862903
 31
0.0
  0
LINE
  5
56A2
  8
DIM
 10
83.435661721482333
 20
42.788503985862903
 30
0.0
 11
78.435661721482347
 21
42.788503985862903
 31
0.0
  0
SOLID
  5
56A3
  8
DIM
 10
86.435661721482347
 20
43.288503985862903
 30
0.0
 11
86.435661721482347
 21
42.288503985862903
 31
0.0
 12
83.435661721482333
 22
42.788503985862903
 32
0.0
 13
83.435661721482333
 23
42.788503985862903
 33
0.0
  0
SOLID
  5
56A4
  8
DIM
 10
75.435661721482347
 20
43.288503985862903
 30
0.0
 11
75.435661721482347
 21
42.288503985862903
 31
0.0
 12
78.435661721482347
 22
42.788503985862903
 32
0.0
 13
78.435661721482347
 23
42.788503985862903
 33
0.0
  0
TEXT
  5
56A5
  8
0
 10
79.935661721482333
 20
43.788503985862903
 30
0.0
 40
3.0
  1
5
  7
CHINESET
  0
POINT
  5
56A6
  8
DEFPOINTS
 62
     0
 10
83.435661721482333
 20
78.465791957575149
 30
0.0
  0
POINT
  5
56A7
  8
DEFPOINTS
 62
     0
 10
78.435661721482347
 20
52.465791957575121
 30
0.0
  0
POINT
  5
56A8
  8
DEFPOINTS
 62
     0
 10
78.435661721482347
 20
42.788503985862903
 30
0.0
  0
ENDBLK
  5
4F66
  8
0
  0
BLOCK
  8
0
  2
*D149
 70
     1
 10
0.0
 20
0.0
 30
0.0
  3
*D149
  1

  0
LINE
  5
5695
  8
DIM
 10
229.45303088136649
 20
90.528620914055466
 30
0.0
 11
229.45303088136649
 21
40.696106469426581
 31
0.0
  0
LINE
  5
5696
  8
DIM
 10
207.45303088136691
 20
90.528620914055466
 30
0.0
 11
207.45303088136691
 21
40.696106469426581
 31
0.0
  0
LINE
  5
5697
  8
DIM
 10
226.45303088136649
 20
42.696106469426581
 30
0.0
 11
210.453030881367
 21
42.696106469426581
 31
0.0
  0
SOLID
  5
5698
  8
DIM
 10
226.45303088136649
 20
43.196106469426581
 30
0.0
 11
226.45303088136649
 21
42.196106469426567
 31
0.0
 12
229.45303088136649
 22
42.696106469426581
 32
0.0
 13
229.45303088136649
 23
42.696106469426581
 33
0.0
  0
SOLID
  5
5699
  8
DIM
 10
210.453030881367
 20
43.196106469426581
 30
0.0
 11
210.453030881367
 21
42.196106469426567
 31
0.0
 12
207.45303088136691
 22
42.696106469426581
 32
0.0
 13
207.45303088136691
 23
42.696106469426581
 33
0.0
  0
TEXT
  5
569A
  8
0
 10
216.0244594527953
 20
43.696106469426581
 30
0.0
 40
3.0
  1
22
  7
CHINESET
  0
POINT
  5
569B
  8
DEFPOINTS
 62
     0
 10
229.45303088136649
 20
93.528620914055466
 30
0.0
  0
POINT
  5
569C
  8
DEFPOINTS
 62
     0
 10
207.45303088136691
 20
93.528620914055466
 30
0.0
  0
POINT
  5
569D
  8
DEFPOINTS
 62
     0
 10
207.45303088136691
 20
42.696106469426581
 30
0.0
  0
ENDBLK
  5
4F89
  8
0
  0
BLOCK
  8
0
  2
*D150
 70
     1
 10
0.0
 20
0.0
 30
0.0
  3
*D150
  1

  0
LINE
  5
563B
  8
DIM
 10
265.45303088136671
 20
142.90092519588629
 30
0.0
 11
265.45303088136671
 21
165.87661320490639
 31
0.0
  0
LINE
  5
563C
  8
DIM
 10
163.45303088136669
 20
115.96579195757479
 30
0.0
 11
163.45303088136669
 21
165.87661320490639
 31
0.0
  0
LINE
  5
563D
  8
DIM
 10
262.45303088136671
 20
163.87661320490639
 30
0.0
 11
166.45303088136669
 21
163.87661320490639
 31
0.0
  0
SOLID
  5
563E
  8
DIM
 10
262.45303088136671
 20
164.37661320490639
 30
0.0
 11
262.45303088136671
 21
163.37661320490639
 31
0.0
 12
265.45303088136671
 22
163.87661320490639
 32
0.0
 13
265.45303088136671
 23
163.87661320490639
 33
0.0
  0
SOLID
  5
563F
  8
DIM
 10
166.45303088136669
 20
164.37661320490639
 30
0.0
 11
166.45303088136669
 21
163.37661320490639
 31
0.0
 12
163.45303088136669
 22
163.87661320490639
 32
0.0
 13
163.45303088136669
 23
163.87661320490639
 33
0.0
  0
TEXT
  5
5640
  8
0
 10
210.8816023099381
 20
164.87661320490639
 30
0.0
 40
3.0
  1
102
  7
CHINESET
  0
POINT
  5
5641
  8
DEFPOINTS
 62
     0
 10
265.45303088136671
 20
139.90092519588629
 30
0.0
  0
POINT
  5
5642
  8
DEFPOINTS
 62
     0
 10
163.45303088136669
 20
112.96579195757479
 30
0.0
  0
POINT
  5
5643
  8
DEFPOINTS
 62
     0
 10
163.45303088136669
 20
163.87661320490639
 30
0.0
  0
ENDBLK
  5
4F96
  8
0
  0
BLOCK
  8
0
  2
*D151
 70
     1
 10
0.0
 20
0.0
 30
0.0
  3
*D151
  1

  0
LINE
  5
568C
  8
DIM
 10
170.55303088136671
 20
136.46579195757479
 30
0.0
 11
145.36060847081711
 21
136.46579195757479
 31
0.0
  0
LINE
  5
568D
  8
DIM
 10
170.55303088136671
 20
62.465791957574872
 30
0.0
 11
145.36060847081711
 21
62.465791957574872
 31
0.0
  0
LINE
  5
568E
  8
DIM
 10
147.3606084708172
 20
133.46579195757479
 30
0.0
 11
147.3606084708172
 21
65.465791957574865
 31
0.0
  0
SOLID
  5
568F
  8
DIM
 10
146.8606084708172
 20
133.46579195757479
 30
0.0
 11
147.86060847081711
 21
133.46579195757479
 31
0.0
 12
147.3606084708172
 22
136.46579195757479
 32
0.0
 13
147.3606084708172
 23
136.46579195757479
 33
0.0
  0
SOLID
  5
5690
  8
DIM
 10
146.8606084708172
 20
65.465791957574865
 30
0.0
 11
147.86060847081711
 21
65.465791957574865
 31
0.0
 12
147.36060847081711
 22
62.465791957574872
 32
0.0
 13
147.36060847081711
 23
62.465791957574872
 33
0.0
  0
TEXT
  5
5691
  8
0
 10
146.36060847081711
 20
96.965791957574893
 30
0.0
 40
3.0
  1
74
 50
90.0
  7
CHINESET
  0
POINT
  5
5692
  8
DEFPOINTS
 62
     0
 10
173.55303088136671
 20
136.46579195757479
 30
0.0
  0
POINT
  5
5693
  8
DEFPOINTS
 62
     0
 10
173.55303088136671
 20
62.465791957574872
 30
0.0
  0
POINT
  5
5694
  8
DEFPOINTS
 62
     0
 10
147.36060847081711
 20
62.465791957574872
 30
0.0
  0
ENDBLK
  5
4FA3
  8
0
  0
BLOCK
  8
0
  2
*D152
 70
     1
 10
0.0
 20
0.0
 30
0.0
  3
*D152
  1

  0
LINE
  5
5683
  8
DIM
 10
175.01789764305531
 20
146.46579195757479
 30
0.0
 11
132.199414744904
 21
146.46579195757479
 31
0.0
  0
LINE
  5
5684
  8
DIM
 10
175.01789764305531
 20
52.465791957574858
 30
0.0
 11
132.199414744904
 21
52.465791957574872
 31
0.0
  0
LINE
  5
5685
  8
DIM
 10
134.199414744904
 20
143.46579195757479
 30
0.0
 11
134.199414744904
 21
55.465791957574872
 31
0.0
  0
SOLID
  5
5686
  8
DIM
 10
133.699414744904
 20
143.46579195757479
 30
0.0
 11
134.69941474490409
 21
143.46579195757479
 31
0.0
 12
134.199414744904
 22
146.46579195757479
 32
0.0
 13
134.199414744904
 23
146.46579195757479
 33
0.0
  0
SOLID
  5
5687
  8
DIM
 10
133.699414744904
 20
55.465791957574872
 30
0.0
 11
134.699414744904
 21
55.465791957574872
 31
0.0
 12
134.199414744904
 22
52.465791957574872
 32
0.0
 13
134.199414744904
 23
52.465791957574872
 33
0.0
  0
TEXT
  5
5688
  8
0
 10
133.199414744904
 20
96.965791957574893
 30
0.0
 40
3.0
  1
94
 50
90.0
  7
CHINESET
  0
POINT
  5
5689
  8
DEFPOINTS
 62
     0
 10
178.01789764305531
 20
146.46579195757479
 30
0.0
  0
POINT
  5
568A
  8
DEFPOINTS
 62
     0
 10
178.01789764305531
 20
52.465791957574851
 30
0.0
  0
POINT
  5
568B
  8
DEFPOINTS
 62
     0
 10
134.199414744904
 20
52.465791957574872
 30
0.0
  0
ENDBLK
  5
4FB0
  8
0
  0
BLOCK
  8
0
  2
*D153
 70
     1
 10
0.0
 20
0.0
 30
0.0
  3
*D153
  1

  0
LINE
  5
55E8
  8
DIM
 10
66.200947602271356
 20
326.34831273041061
 30
0.0
 11
66.200947602271356
 21
340.2241319542137
 31
0.0
  0
LINE
  5
55E9
  8
DIM
 10
25.200947602271292
 20
326.34831273041061
 30
0.0
 11
25.200947602271292
 21
340.2241319542137
 31
0.0
  0
LINE
  5
55EA
  8
DIM
 10
63.200947602271349
 20
338.2241319542137
 30
0.0
 11
28.200947602271299
 21
338.2241319542137
 31
0.0
  0
SOLID
  5
55EB
  8
DIM
 10
63.200947602271349
 20
338.7241319542137
 30
0.0
 11
63.200947602271349
 21
337.72413195421359
 31
0.0
 12
66.200947602271356
 22
338.2241319542137
 32
0.0
 13
66.200947602271356
 23
338.2241319542137
 33
0.0
  0
SOLID
  5
55EC
  8
DIM
 10
28.200947602271299
 20
338.7241319542137
 30
0.0
 11
28.200947602271299
 21
337.72413195421359
 31
0.0
 12
25.200947602271292
 22
338.2241319542137
 32
0.0
 13
25.200947602271292
 23
338.2241319542137
 33
0.0
  0
TEXT
  5
55ED
  8
0
 10
43.915233316557043
 20
339.2241319542137
 30
0.0
 40
3.0
  1
41
  7
CHINESET
  0
POINT
  5
55EE
  8
DEFPOINTS
 62
     0
 10
66.200947602271356
 20
323.34831273041061
 30
0.0
  0
POINT
  5
55EF
  8
DEFPOINTS
 62
     0
 10
25.200947602271292
 20
323.34831273041061
 30
0.0
  0
POINT
  5
55F0
  8
DEFPOINTS
 62
     0
 10
25.200947602271292
 20
338.2241319542137
 30
0.0
  0
ENDBLK
  5
52CD
  8
0
  0
BLOCK
  8
0
  2
*D154
 70
     1
 10
0.0
 20
0.0
 30
0.0
  3
*D154
  1

  0
LINE
  5
55FA
  8
DIM
 10
53.200947602271242
 20
289.99709469409191
 30
0.0
 11
53.200947602271242
 21
331.56168519241407
 31
0.0
  0
LINE
  5
55FB
  8
DIM
 10
66.200947602271356
 20
326.34831273041061
 30
0.0
 11
66.200947602271356
 21
331.56168519241407
 31
0.0
  0
LINE
  5
55FC
  8
DIM
 10
56.200947602271242
 20
329.56168519241407
 30
0.0
 11
63.200947602271349
 21
329.56168519241407
 31
0.0
  0
SOLID
  5
55FD
  8
DIM
 10
56.200947602271242
 20
330.06168519241419
 30
0.0
 11
56.200947602271242
 21
329.06168519241407
 31
0.0
 12
53.200947602271242
 22
329.56168519241407
 32
0.0
 13
53.200947602271242
 23
329.56168519241407
 33
0.0
  0
SOLID
  5
55FE
  8
DIM
 10
63.200947602271349
 20
330.06168519241419
 30
0.0
 11
63.200947602271349
 21
329.06168519241407
 31
0.0
 12
66.200947602271356
 22
329.56168519241407
 32
0.0
 13
66.200947602271356
 23
329.56168519241407
 33
0.0
  0
TEXT
  5
55FF
  8
0
 10
57.558090459414153
 20
330.56168519241419
 30
0.0
 40
3.0
  1
13
  7
CHINESET
  0
POINT
  5
5600
  8
DEFPOINTS
 62
     0
 10
53.200947602271242
 20
286.99709469409191
 30
0.0
  0
POINT
  5
5601
  8
DEFPOINTS
 62
     0
 10
66.200947602271356
 20
323.34831273041061
 30
0.0
  0
POINT
  5
5602
  8
DEFPOINTS
 62
     0
 10
66.200947602271356
 20
329.56168519241407
 30
0.0
  0
ENDBLK
  5
52D9
  8
0
  0
BLOCK
  8
0
  2
*D155
 70
     1
 10
0.0
 20
0.0
 30
0.0
  3
*D155
  1

  0
LINE
  5
55F1
  8
DIM
 10
38.200947602271299
 20
289.99709469409203
 30
0.0
 11
38.200947602271299
 21
331.56168519241407
 31
0.0
  0
LINE
  5
55F2
  8
DIM
 10
25.200947602271292
 20
326.34831273041061
 30
0.0
 11
25.200947602271292
 21
331.56168519241407
 31
0.0
  0
LINE
  5
55F3
  8
DIM
 10
35.200947602271292
 20
329.56168519241407
 30
0.0
 11
28.200947602271299
 21
329.56168519241407
 31
0.0
  0
SOLID
  5
55F4
  8
DIM
 10
35.200947602271292
 20
330.06168519241419
 30
0.0
 11
35.200947602271292
 21
329.06168519241407
 31
0.0
 12
38.200947602271299
 22
329.56168519241407
 32
0.0
 13
38.200947602271299
 23
329.56168519241407
 33
0.0
  0
SOLID
  5
55F5
  8
DIM
 10
28.200947602271299
 20
330.06168519241419
 30
0.0
 11
28.200947602271299
 21
329.06168519241407
 31
0.0
 12
25.200947602271292
 22
329.56168519241407
 32
0.0
 13
25.200947602271292
 23
329.56168519241407
 33
0.0
  0
TEXT
  5
55F6
  8
0
 10
29.55809045941416
 20
330.56168519241419
 30
0.0
 40
3.0
  1
13
  7
CHINESET
  0
POINT
  5
55F7
  8
DEFPOINTS
 62
     0
 10
38.200947602271299
 20
286.99709469409203
 30
0.0
  0
POINT
  5
55F8
  8
DEFPOINTS
 62
     0
 10
25.200947602271292
 20
323.34831273041061
 30
0.0
  0
POINT
  5
55F9
  8
DEFPOINTS
 62
     0
 10
25.200947602271292
 20
329.56168519241407
 30
0.0
  0
ENDBLK
  5
52E5
  8
0
  0
BLOCK
  8
0
  2
*D156
 70
     1
 10
0.0
 20
0.0
 30
0.0
  3
*D156
  1

  0
LINE
  5
55CD
  8
DIM
 10
66.200947602271356
 20
326.34831273041061
 30
0.0
 11
66.200947602271356
 21
340.2241319542137
 31
0.0
  0
LINE
  5
55CE
  8
DIM
 10
110.2009476022713
 20
288.84831273041061
 30
0.0
 11
110.2009476022713
 21
340.2241319542137
 31
0.0
  0
LINE
  5
55CF
  8
DIM
 10
69.200947602271356
 20
338.2241319542137
 30
0.0
 11
107.2009476022713
 21
338.2241319542137
 31
0.0
  0
SOLID
  5
55D0
  8
DIM
 10
69.200947602271356
 20
338.7241319542137
 30
0.0
 11
69.200947602271356
 21
337.72413195421359
 31
0.0
 12
66.200947602271356
 22
338.2241319542137
 32
0.0
 13
66.200947602271356
 23
338.2241319542137
 33
0.0
  0
SOLID
  5
55D1
  8
DIM
 10
107.2009476022713
 20
338.7241319542137
 30
0.0
 11
107.2009476022713
 21
337.72413195421359
 31
0.0
 12
110.2009476022713
 22
338.2241319542137
 32
0.0
 13
110.2009476022713
 23
338.2241319542137
 33
0.0
  0
TEXT
  5
55D2
  8
0
 10
85.700947602271327
 20
339.2241319542137
 30
0.0
 40
3.0
  1
44
  7
CHINESET
  0
POINT
  5
55D3
  8
DEFPOINTS
 62
     0
 10
66.200947602271356
 20
323.34831273041061
 30
0.0
  0
POINT
  5
55D4
  8
DEFPOINTS
 62
     0
 10
110.2009476022713
 20
285.84831273041061
 30
0.0
  0
POINT
  5
55D5
  8
DEFPOINTS
 62
     0
 10
110.2009476022713
 20
338.2241319542137
 30
0.0
  0
ENDBLK
  5
52F1
  8
0
  0
BLOCK
  8
0
  2
*D157
 70
     1
 10
0.0
 20
0.0
 30
0.0
  3
*D157
  1

  0
LINE
  5
55C4
  8
DIM
 10
110.2009476022713
 20
288.84831273041061
 30
0.0
 11
110.2009476022713
 21
348.92426503433092
 31
0.0
  0
LINE
  5
55C5
  8
DIM
 10
25.200947602271292
 20
326.34831273041061
 30
0.0
 11
25.200947602271292
 21
348.92426503433092
 31
0.0
  0
LINE
  5
55C6
  8
DIM
 10
107.2009476022713
 20
346.92426503433092
 30
0.0
 11
28.200947602271299
 21
346.92426503433092
 31
0.0
  0
SOLID
  5
55C7
  8
DIM
 10
107.2009476022713
 20
347.42426503433092
 30
0.0
 11
107.2009476022713
 21
346.42426503433092
 31
0.0
 12
110.2009476022713
 22
346.92426503433092
 32
0.0
 13
110.2009476022713
 23
346.92426503433092
 33
0.0
  0
SOLID
  5
55C8
  8
DIM
 10
28.200947602271299
 20
347.42426503433092
 30
0.0
 11
28.200947602271299
 21
346.42426503433092
 31
0.0
 12
25.200947602271292
 22
346.92426503433092
 32
0.0
 13
25.200947602271292
 23
346.92426503433092
 33
0.0
  0
TEXT
  5
55C9
  8
0
 10
65.272376173699868
 20
347.92426503433092
 30
0.0
 40
3.0
  1
85
  7
CHINESET
  0
POINT
  5
55CA
  8
DEFPOINTS
 62
     0
 10
110.2009476022713
 20
285.84831273041061
 30
0.0
  0
POINT
  5
55CB
  8
DEFPOINTS
 62
     0
 10
25.200947602271292
 20
323.34831273041061
 30
0.0
  0
POINT
  5
55CC
  8
DEFPOINTS
 62
     0
 10
25.200947602271292
 20
346.92426503433092
 30
0.0
  0
ENDBLK
  5
52FD
  8
0
  0
BLOCK
  8
0
  2
*D158
 70
     1
 10
0.0
 20
0.0
 30
0.0
  3
*D158
  1

  0
LINE
  5
5603
  8
DIM
 10
75.200947602271413
 20
288.84831273041101
 30
0.0
 11
122.3988952313034
 21
288.84831273041101
 31
0.0
  0
LINE
  5
5604
  8
DIM
 10
75.200947602271413
 20
263.84831273041078
 30
0.0
 11
122.3988952313034
 21
263.84831273041078
 31
0.0
  0
LINE
  5
5605
  8
DIM
 10
120.3988952313034
 20
285.84831273041101
 30
0.0
 11
120.3988952313034
 21
266.84831273041078
 31
0.0
  0
SOLID
  5
5606
  8
DIM
 10
119.8988952313034
 20
285.84831273041101
 30
0.0
 11
120.8988952313034
 21
285.84831273041101
 31
0.0
 12
120.3988952313034
 22
288.84831273041101
 32
0.0
 13
120.3988952313034
 23
288.84831273041101
 33
0.0
  0
SOLID
  5
5607
  8
DIM
 10
119.8988952313034
 20
266.84831273041078
 30
0.0
 11
120.8988952313034
 21
266.84831273041078
 31
0.0
 12
120.3988952313034
 22
263.84831273041078
 32
0.0
 13
120.3988952313034
 23
263.84831273041078
 33
0.0
  0
INSERT
  5
5608
  8
0
  2
*U189
 10
0.0
 20
0.0
 30
0.0
  0
POINT
  5
5609
  8
DEFPOINTS
 62
     0
 10
72.200947602271413
 20
288.84831273041101
 30
0.0
  0
POINT
  5
560A
  8
DEFPOINTS
 62
     0
 10
72.200947602271413
 20
263.84831273041078
 30
0.0
  0
POINT
  5
560B
  8
DEFPOINTS
 62
     0
 10
120.3988952313034
 20
263.84831273041078
 30
0.0
  0
ENDBLK
  5
5309
  8
0
  0
BLOCK
  8
0
  2
*D159
 70
     1
 10
0.0
 20
0.0
 30
0.0
  3
*D159
  1

  0
LINE
  5
560C
  8
DIM
 10
72.700947602271413
 20
298.84831273041078
 30
0.0
 11
128.97949209425971
 21
298.84831273041073
 31
0.0
  0
LINE
  5
560D
  8
DIM
 10
72.700947602271413
 20
253.84831273041081
 30
0.0
 11
128.97949209425971
 21
253.84831273041081
 31
0.0
  0
LINE
  5
560E
  8
DIM
 10
126.9794920942597
 20
295.84831273041078
 30
0.0
 11
126.9794920942597
 21
256.8483127304109
 31
0.0
  0
SOLID
  5
560F
  8
DIM
 10
126.4794920942597
 20
295.84831273041078
 30
0.0
 11
127.4794920942597
 21
295.84831273041078
 31
0.0
 12
126.9794920942597
 22
298.84831273041078
 32
0.0
 13
126.9794920942597
 23
298.84831273041078
 33
0.0
  0
SOLID
  5
5610
  8
DIM
 10
126.4794920942597
 20
256.8483127304109
 30
0.0
 11
127.4794920942597
 21
256.8483127304109
 31
0.0
 12
126.9794920942597
 22
253.84831273041081
 32
0.0
 13
126.9794920942597
 23
253.84831273041081
 33
0.0
  0
INSERT
  5
5611
  8
0
  2
*U190
 10
0.0
 20
0.0
 30
0.0
  0
POINT
  5
5612
  8
DEFPOINTS
 62
     0
 10
69.700947602271413
 20
298.84831273041078
 30
0.0
  0
POINT
  5
5613
  8
DEFPOINTS
 62
     0
 10
69.700947602271413
 20
253.84831273041081
 30
0.0
  0
POINT
  5
5614
  8
DEFPOINTS
 62
     0
 10
126.9794920942597
 20
253.84831273041081
 30
0.0
  0
ENDBLK
  5
5315
  8
0
  0
BLOCK
  8
0
  2
*D160
 70
     1
 10
0.0
 20
0.0
 30
0.0
  3
*D160
  1

  0
LINE
  5
5627
  8
DIM
 10
71.200947602271299
 20
252.3483127304109
 30
0.0
 11
71.200947602271299
 21
217.67102475869859
 31
0.0
  0
LINE
  5
5628
  8
DIM
 10
66.200947602271299
 20
226.34831273041081
 30
0.0
 11
66.200947602271299
 21
217.67102475869859
 31
0.0
  0
LINE
  5
5629
  8
DIM
 10
74.200947602271285
 20
219.67102475869859
 30
0.0
 11
77.200947602271299
 21
219.67102475869859
 31
0.0
  0
LINE
  5
562A
  8
DIM
 10
63.200947602271299
 20
219.67102475869859
 30
0.0
 11
60.200947602271299
 21
219.67102475869859
 31
0.0
  0
LINE
  5
562B
  8
DIM
 10
71.200947602271299
 20
219.67102475869859
 30
0.0
 11
66.200947602271299
 21
219.67102475869859
 31
0.0
  0
SOLID
  5
562C
  8
DIM
 10
74.200947602271285
 20
220.17102475869859
 30
0.0
 11
74.200947602271285
 21
219.17102475869859
 31
0.0
 12
71.200947602271299
 22
219.67102475869859
 32
0.0
 13
71.200947602271299
 23
219.67102475869859
 33
0.0
  0
SOLID
  5
562D
  8
DIM
 10
63.200947602271299
 20
220.17102475869859
 30
0.0
 11
63.200947602271299
 21
219.17102475869859
 31
0.0
 12
66.200947602271299
 22
219.67102475869859
 32
0.0
 13
66.200947602271299
 23
219.67102475869859
 33
0.0
  0
TEXT
  5
562E
  8
0
 10
67.700947602271299
 20
220.67102475869859
 30
0.0
 40
3.0
  1
5
  7
CHINESET
  0
POINT
  5
562F
  8
DEFPOINTS
 62
     0
 10
71.200947602271299
 20
255.34831273041081
 30
0.0
  0
POINT
  5
5630
  8
DEFPOINTS
 62
     0
 10
66.200947602271299
 20
229.34831273041081
 30
0.0
  0
POINT
  5
5631
  8
DEFPOINTS
 62
     0
 10
66.200947602271299
 20
219.67102475869859
 30
0.0
  0
ENDBLK
  5
5323
  8
0
  0
BLOCK
  8
0
  2
*D161
 70
     1
 10
0.0
 20
0.0
 30
0.0
  3
*D161
  1

  0
LINE
  5
5632
  8
DIM
 10
229.45303088136649
 20
267.4111416868912
 30
0.0
 11
229.45303088136649
 21
217.57862724226229
 31
0.0
  0
LINE
  5
5633
  8
DIM
 10
207.45303088136691
 20
267.4111416868912
 30
0.0
 11
207.45303088136691
 21
217.57862724226229
 31
0.0
  0
LINE
  5
5634
  8
DIM
 10
226.45303088136649
 20
219.57862724226229
 30
0.0
 11
210.453030881367
 21
219.57862724226229
 31
0.0
  0
SOLID
  5
5635
  8
DIM
 10
226.45303088136649
 20
220.07862724226229
 30
0.0
 11
226.45303088136649
 21
219.07862724226229
 31
0.0
 12
229.45303088136649
 22
219.57862724226229
 32
0.0
 13
229.45303088136649
 23
219.57862724226229
 33
0.0
  0
SOLID
  5
5636
  8
DIM
 10
210.453030881367
 20
220.07862724226229
 30
0.0
 11
210.453030881367
 21
219.07862724226229
 31
0.0
 12
207.45303088136691
 22
219.57862724226229
 32
0.0
 13
207.45303088136691
 23
219.57862724226229
 33
0.0
  0
TEXT
  5
5637
  8
0
 10
216.0244594527953
 20
220.57862724226229
 30
0.0
 40
3.0
  1
22
  7
CHINESET
  0
POINT
  5
5638
  8
DEFPOINTS
 62
     0
 10
229.45303088136649
 20
270.41114168689109
 30
0.0
  0
POINT
  5
5639
  8
DEFPOINTS
 62
     0
 10
207.45303088136691
 20
270.41114168689109
 30
0.0
  0
POINT
  5
563A
  8
DEFPOINTS
 62
     0
 10
207.45303088136691
 20
219.57862724226229
 30
0.0
  0
ENDBLK
  5
532F
  8
0
  0
BLOCK
  8
0
  2
*D162
 70
     1
 10
0.0
 20
0.0
 30
0.0
  3
*D162
  1

  0
LINE
  5
55DF
  8
DIM
 10
265.45303088136671
 20
319.78344596872199
 30
0.0
 11
265.45303088136671
 21
337.29344453980531
 31
0.0
  0
LINE
  5
55E0
  8
DIM
 10
163.45303088136669
 20
292.84831273041061
 30
0.0
 11
163.45303088136669
 21
337.29344453980531
 31
0.0
  0
LINE
  5
55E1
  8
DIM
 10
262.45303088136671
 20
335.29344453980531
 30
0.0
 11
166.45303088136669
 21
335.29344453980531
 31
0.0
  0
SOLID
  5
55E2
  8
DIM
 10
262.45303088136671
 20
335.79344453980531
 30
0.0
 11
262.45303088136671
 21
334.79344453980531
 31
0.0
 12
265.45303088136671
 22
335.29344453980531
 32
0.0
 13
265.45303088136671
 23
335.29344453980531
 33
0.0
  0
SOLID
  5
55E3
  8
DIM
 10
166.45303088136669
 20
335.79344453980531
 30
0.0
 11
166.45303088136669
 21
334.79344453980531
 31
0.0
 12
163.45303088136669
 22
335.29344453980531
 32
0.0
 13
163.45303088136669
 23
335.29344453980531
 33
0.0
  0
TEXT
  5
55E4
  8
0
 10
210.8816023099381
 20
336.29344453980531
 30
0.0
 40
3.0
  1
102
  7
CHINESET
  0
POINT
  5
55E5
  8
DEFPOINTS
 62
     0
 10
265.45303088136671
 20
316.78344596872199
 30
0.0
  0
POINT
  5
55E6
  8
DEFPOINTS
 62
     0
 10
163.45303088136669
 20
289.8483127304105
 30
0.0
  0
POINT
  5
55E7
  8
DEFPOINTS
 62
     0
 10
163.45303088136669
 20
335.29344453980531
 30
0.0
  0
ENDBLK
  5
533B
  8
0
  0
BLOCK
  8
0
  2
*D163
 70
     1
 10
0.0
 20
0.0
 30
0.0
  3
*D163
  1

  0
LINE
  5
5615
  8
DIM
 10
170.55303088136671
 20
313.34831273041061
 30
0.0
 11
152.65698912747709
 21
313.34831273041061
 31
0.0
  0
LINE
  5
5616
  8
DIM
 10
170.55303088136671
 20
239.34831273041061
 30
0.0
 11
152.65698912747709
 21
239.34831273041061
 31
0.0
  0
LINE
  5
5617
  8
DIM
 10
154.65698912747709
 20
310.34831273041061
 30
0.0
 11
154.65698912747709
 21
242.3483127304105
 31
0.0
  0
SOLID
  5
5618
  8
DIM
 10
154.15698912747709
 20
310.34831273041061
 30
0.0
 11
155.15698912747709
 21
310.34831273041061
 31
0.0
 12
154.65698912747709
 22
313.34831273041061
 32
0.0
 13
154.65698912747709
 23
313.34831273041061
 33
0.0
  0
SOLID
  5
5619
  8
DIM
 10
154.15698912747709
 20
242.3483127304105
 30
0.0
 11
155.15698912747709
 21
242.3483127304105
 31
0.0
 12
154.65698912747709
 22
239.34831273041061
 32
0.0
 13
154.65698912747709
 23
239.34831273041061
 33
0.0
  0
TEXT
  5
561A
  8
0
 10
153.656989127477
 20
273.84831273041061
 30
0.0
 40
3.0
  1
74
 50
90.0
  7
CHINESET
  0
POINT
  5
561B
  8
DEFPOINTS
 62
     0
 10
173.55303088136671
 20
313.34831273041061
 30
0.0
  0
POINT
  5
561C
  8
DEFPOINTS
 62
     0
 10
173.55303088136671
 20
239.34831273041061
 30
0.0
  0
POINT
  5
561D
  8
DEFPOINTS
 62
     0
 10
154.65698912747709
 20
239.34831273041061
 30
0.0
  0
ENDBLK
  5
5347
  8
0
  0
BLOCK
  8
0
  2
*D164
 70
     1
 10
0.0
 20
0.0
 30
0.0
  3
*D164
  1

  0
LINE
  5
561E
  8
DIM
 10
175.01789764305531
 20
323.34831273041061
 30
0.0
 11
143.14398663695511
 21
323.34831273041061
 31
0.0
  0
LINE
  5
561F
  8
DIM
 10
175.01789764305531
 20
229.34831273041061
 30
0.0
 11
143.14398663695511
 21
229.34831273041061
 31
0.0
  0
LINE
  5
5620
  8
DIM
 10
145.14398663695511
 20
320.34831273041061
 30
0.0
 11
145.14398663695511
 21
232.3483127304105
 31
0.0
  0
SOLID
  5
5621
  8
DIM
 10
144.64398663695511
 20
320.34831273041061
 30
0.0
 11
145.64398663695511
 21
320.34831273041061
 31
0.0
 12
145.14398663695511
 22
323.34831273041061
 32
0.0
 13
145.14398663695511
 23
323.34831273041061
 33
0.0
  0
SOLID
  5
5622
  8
DIM
 10
144.64398663695511
 20
232.3483127304105
 30
0.0
 11
145.64398663695499
 21
232.3483127304105
 31
0.0
 12
145.14398663695511
 22
229.34831273041061
 32
0.0
 13
145.14398663695511
 23
229.34831273041061
 33
0.0
  0
TEXT
  5
5623
  8
0
 10
144.14398663695499
 20
273.84831273041061
 30
0.0
 40
3.0
  1
94
 50
90.0
  7
CHINESET
  0
POINT
  5
5624
  8
DEFPOINTS
 62
     0
 10
178.01789764305531
 20
323.34831273041061
 30
0.0
  0
POINT
  5
5625
  8
DEFPOINTS
 62
     0
 10
178.01789764305531
 20
229.34831273041061
 30
0.0
  0
POINT
  5
5626
  8
DEFPOINTS
 62
     0
 10
145.14398663695511
 20
229.34831273041061
 30
0.0
  0
ENDBLK
  5
5353
  8
0
  0
BLOCK
  8
0
  2
*D165
 70
     1
 10
0.0
 20
0.0
 30
0.0
  3
*D165
  1

  0
LINE
  5
55D6
  8
DIM
 10
110.2009476022713
 20
288.84831273041061
 30
0.0
 11
110.2009476022713
 21
331.56168519241407
 31
0.0
  0
LINE
  5
55D7
  8
DIM
 10
80.200947602271313
 20
290.34831273041061
 30
0.0
 11
80.200947602271313
 21
331.56168519241407
 31
0.0
  0
LINE
  5
55D8
  8
DIM
 10
107.2009476022713
 20
329.56168519241407
 30
0.0
 11
83.200947602271313
 21
329.56168519241407
 31
0.0
  0
SOLID
  5
55D9
  8
DIM
 10
107.2009476022713
 20
330.06168519241419
 30
0.0
 11
107.2009476022713
 21
329.06168519241407
 31
0.0
 12
110.2009476022713
 22
329.56168519241407
 32
0.0
 13
110.2009476022713
 23
329.56168519241407
 33
0.0
  0
SOLID
  5
55DA
  8
DIM
 10
83.200947602271313
 20
330.06168519241419
 30
0.0
 11
83.200947602271313
 21
329.06168519241407
 31
0.0
 12
80.200947602271313
 22
329.56168519241407
 32
0.0
 13
80.200947602271313
 23
329.56168519241407
 33
0.0
  0
TEXT
  5
55DB
  8
0
 10
92.772376173699897
 20
330.56168519241419
 30
0.0
 40
3.0
  1
30
  7
CHINESET
  0
POINT
  5
55DC
  8
DEFPOINTS
 62
     0
 10
110.2009476022713
 20
285.84831273041061
 30
0.0
  0
POINT
  5
55DD
  8
DEFPOINTS
 62
     0
 10
80.200947602271313
 20
287.34831273041061
 30
0.0
  0
POINT
  5
55DE
  8
DEFPOINTS
 62
     0
 10
80.200947602271313
 20
329.56168519241407
 30
0.0
  0
ENDBLK
  5
555F
  8
0
  0
BLOCK
  8
0
  2
*U166
 70
     1
 10
0.0
 20
0.0
 30
0.0
  3
*U166
  1

  0
SOLID
  5
56E8
  8
DIM
  6
CONTINUOUS
 10
0.25
 20
0.0
 30
0.0
 11
0.1767766952966369
 21
0.1767766952966369
 31
0.0
 12
0.1767766952966368
 22
-0.1767766952966369
 32
0.0
 13
0.1767766952966368
 23
-0.1767766952966369
 33
0.0
210
0.0
220
0.0
230
1.0
  0
SOLID
  5
56E9
  8
DIM
  6
CONTINUOUS
 10
0.0000000000000001
 20
0.25
 30
0.0
 11
0.1767766952966368
 21
-0.1767766952966369
 31
0.0
 12
0.1767766952966369
 22
0.1767766952966369
 32
0.0
 13
0.1767766952966369
 23
0.1767766952966369
 33
0.0
  0
SOLID
  5
56EA
  8
DIM
  6
CONTINUOUS
 10
0.1767766952966368
 20
-0.1767766952966369
 30
0.0
 11
0.0000000000000001
 21
0.25
 31
0.0
 12
-0.0000000000000001
 22
-0.25
 32
0.0
 13
-0.0000000000000001
 23
-0.25
 33
0.0
  0
SOLID
  5
56EB
  8
DIM
  6
CONTINUOUS
 10
-0.1767766952966368
 20
0.1767766952966369
 30
0.0
 11
-0.0000000000000001
 21
-0.25
 31
0.0
 12
0.0000000000000001
 22
0.25
 32
0.0
 13
0.0000000000000001
 23
0.25
 33
0.0
  0
SOLID
  5
56EC
  8
DIM
  6
CONTINUOUS
 10
-0.0000000000000001
 20
-0.25
 30
0.0
 11
-0.1767766952966368
 21
0.1767766952966369
 31
0.0
 12
-0.1767766952966369
 22
-0.1767766952966368
 32
0.0
 13
-0.1767766952966369
 23
-0.1767766952966368
 33
0.0
  0
SOLID
  5
56ED
  8
DIM
  6
CONTINUOUS
 10
-0.25
 20
0.0
 30
0.0
 11
-0.1767766952966369
 21
-0.1767766952966368
 31
0.0
 12
-0.1767766952966368
 22
0.1767766952966369
 32
0.0
 13
-0.1767766952966368
 23
0.1767766952966369
 33
0.0
210
0.0
220
0.0
230
1.0
  0
ENDBLK
  5
56EF
  8
0
  0
BLOCK
  8
0
  2
*U167
 70
     1
 10
0.0
 20
0.0
 30
0.0
  3
*U167
  1

  0
TEXT
  5
5706
  8
0
 10
124.97224199550639
 20
107.3606501907225
 30
0.0
 40
3.0
  1
\U+2205
 50
90.0
  7
CHINESET
  0
TEXT
  5
5707
  8
0
 10
124.97224199550639
 20
110.0749359050082
 30
0.0
 40
3.0
  1
17
 50
90.0
  7
CHINESET
  0
ENDBLK
  5
5709
  8
0
  0
BLOCK
  8
0
  2
*U168
 70
     1
 10
0.0
 20
0.0
 30
0.0
  3
*U168
  1

  0
TEXT
  5
570B
  8
0
 10
113.90757028880761
 20
107.3606501907224
 30
0.0
 40
3.0
  1
\U+2205
 50
90.0
  7
CHINESET
  0
TEXT
  5
570C
  8
0
 10
113.90757028880761
 20
110.0749359050082
 30
0.0
 40
3.0
  1
12
 50
90.0
  7
CHINESET
  0
ENDBLK
  5
570E
  8
0
  0
BLOCK
  8
0
  2
*U169
 70
     1
 10
0.0
 20
0.0
 30
0.0
  3
*U169
  1

  0
TEXT
  5
5710
  8
0
 10
134.40025475112401
 20
274.53695373977217
 30
0.0
 40
3.0
  1
\U+2205
 50
90.0
  7
CHINESET
  0
TEXT
  5
5711
  8
0
 10
134.40025475112401
 20
277.2512394540579
 30
0.0
 40
3.0
  1
17
 50
90.0
  7
CHINESET
  0
ENDBLK
  5
5713
  8
0
  0
BLOCK
  8
0
  2
*U170
 70
     1
 10
0.0
 20
0.0
 30
0.0
  3
*U170
  1

  0
TEXT
  5
5715
  8
0
 10
126.858006200651
 20
274.53695373977217
 30
0.0
 40
3.0
  1
\U+2205
 50
90.0
  7
CHINESET
  0
TEXT
  5
5716
  8
0
 10
126.858006200651
 20
277.2512394540579
 30
0.0
 40
3.0
  1
12
 50
90.0
  7
CHINESET
  0
ENDBLK
  5
5718
  8
0
  0
BLOCK
  8
0
  2
*U171
 70
     1
 10
0.0
 20
0.0
 30
0.0
  3
*U171
  1

  0
TEXT
  5
571A
  8
0
 10
136.8146621443172
 20
260.1722303594205
 30
0.0
 40
3.0
  1
\U+2205
 50
90.0
  7
CHINESET
  0
TEXT
  5
571B
  8
0
 10
136.8146621443172
 20
262.88651607370628
 30
0.0
 40
3.0
  1
16
 50
90.0
  7
CHINESET
  0
ENDBLK
  5
571D
  8
0
  0
BLOCK
  8
0
  2
*U172
 70
     1
 10
0.0
 20
0.0
 30
0.0
  3
*U172
  1

  0
TEXT
  5
571F
  8
0
 10
144.22564817448841
 20
259.81508750227772
 30
0.0
 40
3.0
  1
\U+2205
 50
90.0
  7
CHINESET
  0
TEXT
  5
5720
  8
0
 10
144.22564817448841
 20
262.52937321656339
 30
0.0
 40
3.0
  1
22
 50
90.0
  7
CHINESET
  0
ENDBLK
  5
5722
  8
0
  0
BLOCK
  8
0
  2
*U173
 70
     1
 10
0.0
 20
0.0
 30
0.0
  3
*U173
  1

  0
TEXT
  5
5724
  8
0
 10
116.0668517486383
 20
117.3724370638688
 30
0.0
 40
3.0
  1
\U+2205
 50
90.0
  7
CHINESET
  0
TEXT
  5
5725
  8
0
 10
116.0668517486383
 20
120.0867227781545
 30
0.0
 40
3.0
  1
16
 50
90.0
  7
CHINESET
  0
ENDBLK
  5
5727
  8
0
  0
BLOCK
  8
0
  2
*U174
 70
     1
 10
0.0
 20
0.0
 30
0.0
  3
*U174
  1

  0
TEXT
  5
5729
  8
0
 10
124.4833895420194
 20
117.015294206726
 30
0.0
 40
3.0
  1
\U+2205
 50
90.0
  7
CHINESET
  0
TEXT
  5
572A
  8
0
 10
124.4833895420194
 20
119.72957992101161
 30
0.0
 40
3.0
  1
22
 50
90.0
  7
CHINESET
  0
ENDBLK
  5
572C
  8
0
  0
BLOCK
  8
0
  2
*U175
 70
     1
 10
0.0
 20
0.0
 30
0.0
  3
*U175
  1

  0
TEXT
  5
572E
  8
0
 10
114.7177579265032
 20
97.713114439560883
 30
0.0
 40
3.0
  1
\U+2205
 50
90.0
  7
CHINESET
  0
TEXT
  5
572F
  8
0
 10
114.7177579265032
 20
100.42740015384651
 30
0.0
 40
3.0
  1
16
 50
90.0
  7
CHINESET
  0
ENDBLK
  5
5731
  8
0
  0
BLOCK
  8
0
  2
*U176
 70
     1
 10
0.0
 20
0.0
 30
0.0
  3
*U176
  1

  0
TEXT
  5
5733
  8
0
 10
123.8613252588372
 20
97.355971582418022
 30
0.0
 40
3.0
  1
\U+2205
 50
90.0
  7
CHINESET
  0
TEXT
  5
5734
  8
0
 10
123.8613252588372
 20
100.0702572967037
 30
0.0
 40
3.0
  1
28
 50
90.0
  7
CHINESET
  0
ENDBLK
  5
5736
  8
0
  0
BLOCK
  8
0
  2
*U177
 70
     1
 10
0.0
 20
0.0
 30
0.0
  3
*U177
  1

  0
TEXT
  5
5738
  8
0
 10
141.47239996973201
 20
277.79291937522407
 30
0.0
 40
3.0
  1
\U+2205
 50
90.0
  7
CHINESET
  0
TEXT
  5
5739
  8
0
 10
141.47239996973201
 20
280.5072050895098
 30
0.0
 40
3.0
  1
28
 50
90.0
  7
CHINESET
  0
ENDBLK
  5
573B
  8
0
  0
BLOCK
  8
0
  2
*U178
 70
     1
 10
0.0
 20
0.0
 30
0.0
  3
*U178
  1

  0
TEXT
  5
573D
  8
0
 10
134.32883263739811
 20
278.15006223236691
 30
0.0
 40
3.0
  1
\U+2205
 50
90.0
  7
CHINESET
  0
TEXT
  5
573E
  8
0
 10
134.32883263739811
 20
280.86434794665257
 30
0.0
 40
3.0
  1
16
 50
90.0
  7
CHINESET
  0
ENDBLK
  5
5740
  8
0
  0
BLOCK
  8
0
  2
*U179
 70
     1
 10
0.0
 20
0.0
 30
0.0
  3
*U179
  1

  0
TEXT
  5
5742
  8
0
 10
117.510950190466
 20
86.015294206725088
 30
0.0
 40
3.0
  1
\U+2205
 50
90.0
  7
CHINESET
  0
TEXT
  5
5743
  8
0
 10
117.510950190466
 20
88.729579921010796
 30
0.0
 40
3.0
  1
38
 50
90.0
  7
CHINESET
  0
ENDBLK
  5
5745
  8
0
  0
BLOCK
  8
0
  2
*U180
 70
     1
 10
0.0
 20
0.0
 30
0.0
  3
*U180
  1

  0
TEXT
  5
5747
  8
0
 10
108.2283793513959
 20
86.015294206725045
 30
0.0
 40
3.0
  1
\U+2205
 50
90.0
  7
CHINESET
  0
TEXT
  5
5748
  8
0
 10
108.2283793513959
 20
88.729579921010753
 30
0.0
 40
3.0
  1
20
 50
90.0
  7
CHINESET
  0
ENDBLK
  5
574A
  8
0
  0
BLOCK
  8
0
  2
*U181
 70
     1
 10
0.0
 20
0.0
 30
0.0
  3
*U181
  1

  0
TEXT
  5
574C
  8
0
 10
133.59561499073371
 20
270.88014321649268
 30
0.0
 40
3.0
  1
\U+2205
 50
90.0
  7
CHINESET
  0
TEXT
  5
574D
  8
0
 10
133.59561499073371
 20
273.59442893077841
 30
0.0
 40
3.0
  1
20
 50
90.0
  7
CHINESET
  0
ENDBLK
  5
574F
  8
0
  0
BLOCK
  8
0
  2
*U182
 70
     1
 10
0.0
 20
0.0
 30
0.0
  3
*U182
  1

  0
TEXT
  5
5751
  8
0
 10
142.79162497570101
 20
270.88014321649268
 30
0.0
 40
3.0
  1
\U+2205
 50
90.0
  7
CHINESET
  0
TEXT
  5
5752
  8
0
 10
142.79162497570101
 20
273.59442893077841
 30
0.0
 40
3.0
  1
38
 50
90.0
  7
CHINESET
  0
ENDBLK
  5
5754
  8
0
  0
BLOCK
  8
0
  2
*U183
 70
     1
 10
0.0
 20
0.0
 30
0.0
  3
*U183
  1

  0
TEXT
  5
5756
  8
0
 10
117.77433848319291
 20
91.554865619900013
 30
0.0
 40
3.0
  1
\U+2205
 50
90.0
  7
CHINESET
  0
TEXT
  5
5757
  8
0
 10
117.77433848319291
 20
94.269151334185736
 30
0.0
 40
3.0
  1
40
 50
90.0
  7
CHINESET
  0
ENDBLK
  5
5759
  8
0
  0
BLOCK
  8
0
  2
*U184
 70
     1
 10
0.0
 20
0.0
 30
0.0
  3
*U184
  1

  0
TEXT
  5
575B
  8
0
 10
109.5400902557522
 20
91.554865619900042
 30
0.0
 40
3.0
  1
\U+2205
 50
90.0
  7
CHINESET
  0
TEXT
  5
575C
  8
0
 10
109.5400902557522
 20
94.26915133418575
 30
0.0
 40
3.0
  1
20
 50
90.0
  7
CHINESET
  0
ENDBLK
  5
575E
  8
0
  0
BLOCK
  8
0
  2
*U185
 70
     1
 10
0.0
 20
0.0
 30
0.0
  3
*U185
  1

  0
TEXT
  5
5760
  8
0
 10
129.01201007084879
 20
273.65515963114427
 30
0.0
 40
3.0
  1
\U+2205
 50
90.0
  7
CHINESET
  0
TEXT
  5
5761
  8
0
 10
129.01201007084879
 20
276.36944534542999
 30
0.0
 40
3.0
  1
40
 50
90.0
  7
CHINESET
  0
ENDBLK
  5
5763
  8
0
  0
BLOCK
  8
0
  2
*U186
 70
     1
 10
0.0
 20
0.0
 30
0.0
  3
*U186
  1

  0
TEXT
  5
5765
  8
0
 10
117.28034123043081
 20
273.65515963114427
 30
0.0
 40
3.0
  1
\U+2205
 50
90.0
  7
CHINESET
  0
TEXT
  5
5766
  8
0
 10
117.28034123043081
 20
276.36944534542999
 30
0.0
 40
3.0
  1
20
 50
90.0
  7
CHINESET
  0
ENDBLK
  5
5768
  8
0
  0
BLOCK
  8
0
  2
*U187
 70
     1
 10
0.0
 20
0.0
 30
0.0
  3
*U187
  1

  0
TEXT
  5
576A
  8
0
 10
207.76771018497331
 20
187.30349434774001
 30
0.0
 40
3.0
  1
沉孔
  7
CHINESET
  0
TEXT
  5
576B
  8
0
 10
213.76771018497331
 20
187.30349434774001
 30
0.0
 40
3.0
  1
\U+2205
  7
CHINESET
  0
TEXT
  5
576C
  8
0
 10
216.481995899259
 20
187.30349434774001
 30
0.0
 40
3.0
  1
14*10.5深
  7
CHINESET
  0
TEXT
  5
576D
  8
0
 10
205.84806732783039
 20
182.30349434774001
 30
0.0
 40
3.0
  1
M12*1.75*12L
  7
CHINESET
  0
TEXT
  5
576E
  8
0
 10
218.1337816135447
 20
177.3034943477401
 30
0.0
 40
3.0
  1
\U+2205
  7
CHINESET
  0
TEXT
  5
576F
  8
0
 10
220.84806732783039
 20
177.3034943477401
 30
0.0
 40
3.0
  1
10.5貫通
  7
CHINESET
  0
ENDBLK
  5
5771
  8
0
  0
BLOCK
  8
0
  2
*U188
 70
     1
 10
0.0
 20
0.0
 30
0.0
  3
*U188
  1

  0
TEXT
  5
5773
  8
0
 10
207.76771018497331
 20
364.1860151205758
 30
0.0
 40
3.0
  1
沉孔
  7
CHINESET
  0
TEXT
  5
5774
  8
0
 10
213.76771018497331
 20
364.1860151205758
 30
0.0
 40
3.0
  1
\U+2205
  7
CHINESET
  0
TEXT
  5
5775
  8
0
 10
216.481995899259
 20
364.1860151205758
 30
0.0
 40
3.0
  1
14*10.5深
  7
CHINESET
  0
TEXT
  5
5776
  8
0
 10
205.84806732783039
 20
359.1860151205758
 30
0.0
 40
3.0
  1
M12*1.75*12L
  7
CHINESET
  0
TEXT
  5
5777
  8
0
 10
218.1337816135447
 20
354.1860151205758
 30
0.0
 40
3.0
  1
\U+2205
  7
CHINESET
  0
TEXT
  5
5778
  8
0
 10
220.84806732783039
 20
354.1860151205758
 30
0.0
 40
3.0
  1
10.5貫通
  7
CHINESET
  0
ENDBLK
  5
577A
  8
0
  0
BLOCK
  8
0
  2
*U189
 70
     1
 10
0.0
 20
0.0
 30
0.0
  3
*U189
  1

  0
TEXT
  5
577C
  8
0
 10
119.3988952313033
 20
272.56259844469668
 30
0.0
 40
3.0
  1
\U+2205
 50
90.0
  7
CHINESET
  0
TEXT
  5
577D
  8
0
 10
119.3988952313033
 20
275.2768841589824
 30
0.0
 40
3.0
  1
25
 50
90.0
  7
CHINESET
  0
ENDBLK
  5
577F
  8
0
  0
BLOCK
  8
0
  2
*U190
 70
     1
 10
0.0
 20
0.0
 30
0.0
  3
*U190
  1

  0
TEXT
  5
5781
  8
0
 10
125.9794920942596
 20
272.56259844469662
 30
0.0
 40
3.0
  1
\U+2205
 50
90.0
  7
CHINESET
  0
TEXT
  5
5782
  8
0
 10
125.9794920942596
 20
275.27688415898228
 30
0.0
 40
3.0
  1
45
 50
90.0
  7
CHINESET
  0
ENDBLK
  5
5784
  8
0
  0
BLOCK
  8
0
  2
*U191
 70
     1
 10
0.0
 20
0.0
 30
0.0
  3
*U191
  1

  0
TEXT
  5
5786
  8
0
 10
113.3347336851604
 20
95.680077671860857
 30
0.0
 40
3.0
  1
\U+2205
 50
90.0
  7
CHINESET
  0
TEXT
  5
5787
  8
0
 10
113.3347336851604
 20
98.394363386146566
 30
0.0
 40
3.0
  1
45
 50
90.0
  7
CHINESET
  0
ENDBLK
  5
5789
  8
0
  0
BLOCK
  8
0
  2
*U192
 70
     1
 10
0.0
 20
0.0
 30
0.0
  3
*U192
  1

  0
TEXT
  5
578B
  8
0
 10
103.4629376789145
 20
95.680077671860914
 30
0.0
 40
3.0
  1
\U+2205
 50
90.0
  7
CHINESET
  0
TEXT
  5
578C
  8
0
 10
103.4629376789145
 20
98.394363386146622
 30
0.0
 40
3.0
  1
25
 50
90.0
  7
CHINESET
  0
ENDBLK
  5
578E
  8
0
  0
ENDSEC
  0
SECTION
  2
ENTITIES
  0
LINE
  5
17B4
  8
0
 62
     4
 10
271.62778414727939
 20
34.879980365997589
 30
0.0
 11
271.62778414727939
 21
388.84502543304069
 31
0.0
  0
LINE
  5
17B5
  8
0
 62
     4
 10
-0.4706550713615343
 20
34.879980365997568
 30
0.0
 11
-0.4706550713615343
 21
388.84502543304069
 31
0.0
  0
TEXT
  5
17BD
  8
LOGO
  6
CONTINUOUS
 62
     7
 10
163.69825132539091
 20
23.034038983233501
 30
0.0
 40
5.8895766064640922
  1
11/12
  7
CHINESET
 72
     1
 11
175.47740453831901
 21
25.978827286465538
 31
0.0
 73
     2
  0
TEXT
  5
17BE
  8
LOGO
 62
     6
 10
166.10316177303039
 20
9.0864173068217529
 30
0.0
 40
4.7116612851712727
  1
作動型式
  7
CHINESET
 72
     4
 11
175.47740453831901
 21
11.32167394014119
 31
0.0
  0
LINE
  5
17BF
  8
0
 62
     4
 10
271.62778414727939
 20
211.86250289951909
 30
0.0
 11
-0.4706550713615343
 21
211.8625028995192
 31
0.0
  0
LINE
  5
17C0
  8
0
 62
     4
 10
271.62778414727939
 20
34.879980365997568
 30
0.0
 11
-0.4706550713615343
 21
34.879980365997568
 31
0.0
  0
LINE
  5
17C1
  8
LOGO
 62
     1
 10
271.62778414727939
 20
-0.4574792727869835
 30
0.0
 11
-0.4706550713615343
 21
-0.4574792727869835
 31
0.0
  0
LINE
  5
17C2
  8
LOGO
 62
     1
 10
271.62778414727939
 20
34.879980365997568
 30
0.0
 11
-0.4706550713615343
 21
34.879980365997568
 31
0.0
  0
TEXT
  5
17C3
  8
LOGO
  6
CONTINUOUS
 62
     6
 10
162.85688323875311
 20
4.4505012325997582
 30
0.0
 40
2.9447883032320461
  1
Acting type
  7
CHINESET
 72
     4
 11
175.47740453831901
 21
5.4320973336771061
 31
0.0
  0
LINE
  5
17C4
  8
LOGO
 62
     6
 10
188.4671036928595
 20
20.744996510483741
 30
0.0
 11
162.48770538377869
 21
20.744996510483741
 31
0.0
  0
LINE
  5
17C5
  8
LOGO
 62
     6
 10
188.4671036928595
 20
15.444377564666061
 30
0.0
 11
162.48770538377869
 21
15.444377564666061
 31
0.0
  0
LINE
  5
17C6
  8
LOGO
 62
     6
 10
188.4671036928595
 20
2.4873090304450609
 30
0.0
 11
162.48770538377869
 21
2.487309030445032
 31
0.0
  0
LINE
  5
17C7
  8
LOGO
 62
     6
 10
188.4671036928595
 20
31.346234402119169
 30
0.0
 11
162.48770538377869
 21
31.346234402119102
 31
0.0
  0
TEXT
  5
17C8
  8
LOGO
 62
     6
 10
29.937965144888349
 20
15.444377564666061
 30
0.0
 40
3.5337459638784541
  1
單位 Unit:
 41
0.9
  7
CHINESET
 72
     4
 11
39.578465852594263
 21
17.211250546605289
 31
0.0
  0
TEXT
  5
17C9
  8
LOGO
 62
     6
 10
29.592478374312741
 20
22.561577287108442
 30
0.0
 40
3.5337459638784541
  1
投影 View:
 41
0.9
  7
CHINESET
 72
     4
 11
39.578465852594263
 21
24.2787424743622
 31
0.0
  0
TEXT
  5
17CA
  8
LOGO
 62
     6
 10
28.35724485211772
 20
29.581100468390449
 30
0.0
 40
3.5337459638784541
  1
比例 Scale:
 41
0.9
  7
CHINESET
 72
     4
 11
39.578465852594263
 21
31.346234402119102
 31
0.0
  0
TEXT
  5
17CB
  8
LOGO
  6
CONTINUOUS
 62
     5
 10
0.6859996467579778
 20
6.4845113443758029
 30
0.0
 40
5.300618945817682
  1
金器工業股份有限公司
 41
0.8
  7
LOGO
  0
TEXT
  5
17CC
  8
LOGO
  6
CONTINUOUS
 62
     5
 10
2.2037772099880608
 20
1.182853892829314
 30
0.0
 40
3.5337459638784541
  1
MINDMAN INDUSTRIAL CO.,LTD
 41
0.85
  7
CHINESET
  0
LINE
  5
17CD
  8
LOGO
 62
     1
 10
77.271756133964459
 20
13.67750458272686
 30
0.0
 11
-0.4706550713615343
 21
13.67750458272686
 31
0.0
  0
LINE
  5
17CE
  8
LOGO
 62
     1
 10
77.271756133964459
 20
20.744996510483741
 30
0.0
 11
25.443481997080418
 21
20.744996510483741
 31
0.0
  0
LINE
  5
17CF
  8
LOGO
 62
     1
 10
77.271756133964459
 20
27.812488438240649
 30
0.0
 11
25.443481997080418
 21
27.812488438240649
 31
0.0
  0
SOLID
  5
17D0
  8
LOGO
 62
     2
 10
4.723562107758652
 20
19.551854258544491
 30
0.0
 11
5.3557961888438959
 21
19.551854258544999
 31
0.0
 12
12.62648812131215
 22
34.040551950058479
 32
0.0
 13
13.25872220239693
 23
34.040551950058479
 33
0.0
  0
SOLID
  5
17D1
  8
LOGO
 62
     5
 10
5.3557961888438959
 20
19.551854258544999
 30
0.0
 11
6.8836952181305833
 21
19.551854258544999
 31
0.0
 12
12.62648812131215
 22
32.881456134737803
 32
0.0
 13
11.09858909202546
 23
27.279159694018681
 33
0.0
  0
SOLID
  5
17D2
  8
LOGO
 62
     5
 10
3.1956630784718518
 20
19.551854258544999
 30
0.0
 11
4.723562107758652
 21
19.551854258544491
 31
0.0
 12
11.09858909202546
 22
34.040551950059488
 32
0.0
 13
12.62648812131215
 23
34.040551950058479
 33
0.0
  0
LINE
  5
17D3
  8
LOGO
 62
     1
 10
-0.4706550713615343
 20
-0.4574792727869835
 30
0.0
 11
-0.4706550713615343
 21
34.879980365997568
 31
0.0
  0
SOLID
  5
17D4
  8
LOGO
 62
     5
 10
0.7460662477864162
 20
14.2832369161765
 30
0.0
 11
1.272927982023929
 21
14.2832369161765
 31
0.0
 12
2.7566116332748152
 22
16.9175455873605
 32
0.0
 13
3.2834733675113048
 23
16.9175455873605
 33
0.0
  0
SOLID
  5
17D5
  8
LOGO
 62
     5
 10
4.7671570187637817
 20
16.9175455873605
 30
0.0
 11
5.2940187530001586
 21
16.9175455873605
 31
0.0
 12
4.7671570187637817
 22
14.2832369161765
 32
0.0
 13
5.2940187530001586
 23
14.2832369161765
 33
0.0
  0
SOLID
  5
17D6
  8
LOGO
 62
     5
 10
2.7566116332748152
 20
14.2832369161765
 30
0.0
 11
3.2834733675113048
 21
14.2832369161765
 31
0.0
 12
4.7671570187637817
 22
16.9175455873605
 32
0.0
 13
5.2940187530001586
 23
16.9175455873605
 33
0.0
  0
SOLID
  5
17D7
  8
LOGO
 62
     5
 10
2.7566116332748152
 20
16.9175455873605
 30
0.0
 11
3.2834733675113048
 21
16.9175455873605
 31
0.0
 12
2.7566116332748152
 22
14.2832369161765
 32
0.0
 13
3.2834733675113048
 23
14.2832369161765
 33
0.0
  0
SOLID
  5
17D8
  8
LOGO
 62
     5
 10
8.6398307506885885
 20
15.86382211888669
 30
0.0
 11
9.1666924849258749
 21
15.86382211888669
 31
0.0
 12
8.6398307506885885
 22
14.2832369161765
 32
0.0
 13
9.1666924849258749
 23
14.2832369161765
 33
0.0
  0
SOLID
  5
17D9
  8
LOGO
 62
     5
 10
7.059245547978434
 20
16.9175455873605
 30
0.0
 11
7.5861072822148108
 21
16.9175455873605
 31
0.0
 12
7.059245547978434
 22
14.2832369161765
 32
0.0
 13
7.5861072822148108
 23
14.2832369161765
 33
0.0
  0
POLYLINE
  5
17DA
  8
LOGO
 62
     5
 66
     1
 10
0.0
 20
0.0
 30
0.0
 40
0.5277060639391827
 41
0.5277060639391827
  0
VERTEX
  5
56F0
  8
LOGO
 62
     5
 10
8.9045281123605946
 20
15.86382211888669
 30
0.0
 42
1.0
  0
VERTEX
  5
56F1
  8
LOGO
 62
     5
 10
7.3214099205430321
 20
15.86382211888669
 30
0.0
 42
1.0
  0
SEQEND
  5
56F2
  8
LOGO
 62
     5
  0
SOLID
  5
17DB
  8
LOGO
 62
     5
 10
5.9176942284068437
 20
16.9175455873605
 30
0.0
 11
6.444555962644813
 21
16.9175455873605
 31
0.0
 12
5.9176942284068437
 22
14.28323691617549
 32
0.0
 13
6.444555962644813
 23
14.2832369161765
 33
0.0
  0
SOLID
  5
17DC
  8
LOGO
 62
     5
 10
5.9176942284068437
 20
17.286348801326071
 30
0.0
 11
6.444555962644813
 21
17.286348801326071
 31
0.0
 12
5.9176942284068437
 22
17.707838188716082
 32
0.0
 13
6.444555962644813
 23
17.707838188716082
 33
0.0
  0
LINE
  5
17DD
  8
LOGO
 62
     1
 10
25.443481997080418
 20
13.67750458272684
 30
0.0
 11
25.443481997080418
 21
34.879980365997568
 31
0.0
  0
POLYLINE
  5
17DE
  8
LOGO
 62
     5
 66
     1
 10
0.0
 20
0.0
 30
0.0
 70
     1
 40
0.5277060639391827
 41
0.5277060639391827
  0
VERTEX
  5
56F3
  8
LOGO
 62
     5
 10
17.594896945657631
 20
15.60039125176824
 30
0.0
 42
1.0
  0
VERTEX
  5
56F4
  8
LOGO
 62
     5
 10
19.705721201414349
 20
15.60039125176824
 30
0.0
 42
1.0
  0
SEQEND
  5
56F5
  8
LOGO
 62
     5
  0
CIRCLE
  5
17DF
  8
LOGO
 62
     5
 10
18.65030907353627
 20
15.600391251768491
 30
0.0
 40
0.7902926013553202
  0
POLYLINE
  5
17E0
  8
LOGO
 62
     5
 66
     1
 10
0.0
 20
0.0
 30
0.0
 70
     1
  0
VERTEX
  5
56F6
  8
LOGO
 62
     5
 10
17.860016472180849
 20
15.600391251768491
 30
0.0
 42
1.0000000573306349
  0
VERTEX
  5
56F7
  8
LOGO
 62
     5
 10
19.440601674891809
 20
15.600391251768491
 30
0.0
 42
1.0000000573306349
  0
SEQEND
  5
56F8
  8
LOGO
 62
     5
  0
POLYLINE
  5
17E1
  8
LOGO
 62
     5
 66
     1
 10
0.0
 20
0.0
 30
0.0
 40
0.5277060639391827
 41
0.5277060639391827
  0
VERTEX
  5
56F9
  8
LOGO
 62
     5
 10
14.87566289116125
 20
15.86382211888669
 30
0.0
 42
1.0
  0
VERTEX
  5
56FA
  8
LOGO
 62
     5
 10
13.29254469934358
 20
15.86382211888669
 30
0.0
 42
1.0
  0
SEQEND
  5
56FB
  8
LOGO
 62
     5
  0
SOLID
  5
17E2
  8
LOGO
 62
     5
 10
13.03038032677909
 20
16.9175455873605
 30
0.0
 11
13.557242061015581
 21
16.9175455873605
 31
0.0
 12
13.03038032677909
 22
14.2832369161765
 32
0.0
 13
13.557242061015581
 23
14.2832369161765
 33
0.0
  0
SOLID
  5
17E3
  8
LOGO
 62
     5
 10
11.88882900720761
 20
17.707838188716082
 30
0.0
 11
12.41569074144399
 21
17.707838188716082
 31
0.0
 12
11.88882900720761
 22
14.2832369161765
 32
0.0
 13
12.41569074144399
 23
14.2832369161765
 33
0.0
  0
POLYLINE
  5
17E4
  8
LOGO
 62
     5
 66
     1
 10
0.0
 20
0.0
 30
0.0
 70
     1
 40
0.5277060639391827
 41
0.5277060639391827
  0
VERTEX
  5
56FC
  8
LOGO
 62
     5
 10
10.043176964146699
 20
15.60039125176824
 30
0.0
 42
1.0
  0
VERTEX
  5
56FD
  8
LOGO
 62
     5
 10
12.154001219903421
 20
15.60039125176824
 30
0.0
 42
1.0
  0
SEQEND
  5
56FE
  8
LOGO
 62
     5
  0
SOLID
  5
17E5
  8
LOGO
 62
     5
 10
16.19155073219963
 20
15.86382211888669
 30
0.0
 11
16.718412466436
 21
15.86382211888669
 31
0.0
 12
16.19155073219963
 22
14.28323691617549
 32
0.0
 13
16.718412466436
 23
14.28323691617549
 33
0.0
  0
SOLID
  5
17E6
  8
LOGO
 62
     5
 10
14.610965529489359
 20
15.86382211888669
 30
0.0
 11
15.13782726372574
 21
15.86382211888669
 31
0.0
 12
14.610965529489359
 22
14.2832369161765
 32
0.0
 13
15.13782726372574
 23
14.2832369161765
 33
0.0
  0
POLYLINE
  5
17E7
  8
LOGO
 62
     5
 66
     1
 10
0.0
 20
0.0
 30
0.0
 40
0.5277060639391827
 41
0.5277060639391827
  0
VERTEX
  5
56FF
  8
LOGO
 62
     5
 10
16.456248093871409
 20
15.86382211888669
 30
0.0
 42
1.0
  0
VERTEX
  5
5700
  8
LOGO
 62
     5
 10
14.87312990205384
 20
15.86382211888669
 30
0.0
 42
1.0
  0
SEQEND
  5
5701
  8
LOGO
 62
     5
  0
POLYLINE
  5
17E8
  8
LOGO
 62
     5
 66
     1
 10
0.0
 20
0.0
 30
0.0
 40
0.5277060639391827
 41
0.5277060639391827
  0
VERTEX
  5
5702
  8
LOGO
 62
     5
 10
22.42738287267218
 20
15.86382211888669
 30
0.0
 42
1.0
  0
VERTEX
  5
5703
  8
LOGO
 62
     5
 10
20.844264680854621
 20
15.86382211888669
 30
0.0
 42
1.0
  0
SEQEND
  5
5704
  8
LOGO
 62
     5
  0
SOLID
  5
17E9
  8
LOGO
 62
     5
 10
20.582100308289
 20
14.2832369161765
 30
0.0
 11
21.1089620425264
 21
14.2832369161765
 31
0.0
 12
20.582100308289
 22
16.9175455873605
 32
0.0
 13
21.1089620425264
 23
16.9175455873605
 33
0.0
  0
SOLID
  5
17EA
  8
LOGO
 62
     5
 10
19.440548988719112
 20
16.9175455873605
 30
0.0
 11
19.967410722955488
 21
16.9175455873605
 31
0.0
 12
19.440548988719112
 22
14.2832369161765
 32
0.0
 13
19.967410722955488
 23
14.2832369161765
 33
0.0
  0
SOLID
  5
17EB
  8
LOGO
 62
     5
 10
22.162685511000291
 20
15.86382211888669
 30
0.0
 11
22.68954724523666
 21
15.863822118886601
 31
0.0
 12
22.162685511000291
 22
14.2832369161765
 32
0.0
 13
22.68954724523666
 23
14.2832369161765
 33
0.0
  0
LINE
  5
17EC
  8
LOGO
 62
     5
 10
22.68954724523666
 20
14.2832369161765
 30
0.0
 11
22.68954724523666
 21
15.86382211888669
 31
0.0
  0
SOLID
  5
17ED
  8
LOGO
 62
     2
 10
20.529414134865188
 20
34.040551950059488
 30
0.0
 11
21.16164821594986
 21
34.040551950058479
 31
0.0
 12
20.529414134865188
 22
19.551854258544491
 32
0.0
 13
21.16164821594986
 23
19.551854258544491
 33
0.0
  0
SOLID
  5
17EE
  8
LOGO
 62
     5
 10
21.16164821594986
 20
19.551854258544491
 30
0.0
 11
22.68954724523666
 21
19.551854258544491
 31
0.0
 12
21.16164821594986
 22
34.040551950058479
 32
0.0
 13
22.68954724523666
 23
34.040551950059488
 33
0.0
  0
SOLID
  5
17EF
  8
LOGO
 62
     5
 10
20.529414134865188
 20
32.881456134737803
 30
0.0
 11
19.001515105578271
 21
27.279159694018681
 31
0.0
 12
20.529414134865188
 22
19.551854258544491
 32
0.0
 13
19.001515105578271
 23
19.551854258544491
 33
0.0
  0
SOLID
  5
17F0
  8
LOGO
 62
     2
 10
12.62648812131215
 20
34.040551950058479
 30
0.0
 11
13.25872220239693
 21
34.040551950058479
 31
0.0
 12
12.62648812131215
 22
19.551854258544999
 32
0.0
 13
13.25872220239693
 23
19.551854258544999
 33
0.0
  0
SOLID
  5
17F1
  8
LOGO
 62
     5
 10
13.25872220239693
 20
34.040551950058479
 30
0.0
 11
14.78662123168351
 21
34.040551950059488
 31
0.0
 12
13.25872220239693
 22
20.710950073865671
 32
0.0
 13
14.78662123168351
 23
26.313246514584801
 33
0.0
  0
SOLID
  5
17F2
  8
LOGO
 62
     5
 10
11.09858909202546
 20
19.551854258544999
 30
0.0
 11
12.62648812131215
 21
19.551854258544999
 31
0.0
 12
11.09858909202546
 22
27.279159694018681
 32
0.0
 13
12.62648812131215
 23
32.881456134737803
 33
0.0
  0
SOLID
  5
17F3
  8
LOGO
 62
     2
 10
12.62648812131215
 20
19.551854258544999
 30
0.0
 11
13.25872220239693
 21
19.551854258544999
 31
0.0
 12
20.529414134865188
 22
34.040551950059488
 32
0.0
 13
21.16164821594986
 23
34.040551950058479
 33
0.0
  0
SOLID
  5
17F4
  8
LOGO
 62
     5
 10
13.25872220239693
 20
19.551854258544999
 30
0.0
 11
14.78662123168351
 21
19.551854258544999
 31
0.0
 12
20.529414134865188
 22
32.881456134737803
 32
0.0
 13
19.001515105578271
 23
27.279159694018681
 33
0.0
  0
SOLID
  5
17F5
  8
LOGO
 62
     5
 10
13.25872220239693
 20
20.710950073865671
 30
0.0
 11
14.78662123168351
 21
26.313246514584801
 31
0.0
 12
20.529414134865188
 22
34.040551950059488
 32
0.0
 13
19.001515105578271
 23
34.040551950059488
 33
0.0
  0
TEXT
  5
17F6
  8
LOGO
 62
     7
 10
80.164299941821128
 20
26.032284144108409
 30
0.0
 40
7.067491927756909
  1
訂購代號:
  7
CHINESET
  0
TEXT
  5
17F7
  8
LOGO
 62
     7
 10
79.318988943407817
 20
19.399240616504478
 30
0.0
 40
4.7116612851712727
  1
Order example:
 41
0.8
  7
CHINESET
  0
LINE
  5
17F8
  8
LOGO
 62
     1
 10
53.713449708108101
 20
13.67750458272684
 30
0.0
 11
53.713449708108101
 21
34.879980365997568
 31
0.0
  0
TEXT
  5
17F9
  8
LOGO
 62
     6
 10
59.014651321760851
 20
15.444377564666061
 30
0.0
 40
3.5337459638784541
  1
m/m
  7
CHINESET
 72
     1
 11
65.240775162880027
 21
17.211250546605289
 31
0.0
 73
     2
  0
CIRCLE
  5
17FA
  8
LOGO
  6
CONTINUOUS
 62
     6
 10
60.25662235418735
 20
24.28630118283823
 30
0.0
 40
2.0517760816317989
  0
TEXT
  5
17FB
  8
LOGO
 62
     6
 10
59.014651321760851
 20
29.579361420179879
 30
0.0
 40
3.5337459638784541
  1
1 : 1
  7
CHINESET
 72
     1
 11
65.240775162880027
 21
31.346234402119102
 31
0.0
 73
     2
  0
LINE
  5
17FC
  8
LOGO
  6
CONTINUOUS
 62
     6
 10
66.718021090841376
 20
23.084142032461941
 30
0.0
 11
73.150221329190458
 21
22.23452510120644
 31
0.0
  0
LINE
  5
17FD
  8
LOGO
  6
CONTINUOUS
 62
     6
 10
66.718021090841376
 20
25.48846033321454
 30
0.0
 11
73.150221329190458
 21
26.33807726447003
 31
0.0
  0
LINE
  5
17FE
  8
LOGO
 62
     6
 10
66.718021090841489
 20
23.084142032461941
 30
0.0
 11
66.718021090841376
 21
25.488460333214562
 31
0.0
  0
CIRCLE
  5
17FF
  8
LOGO
  6
CONTINUOUS
 62
     6
 10
60.25662235418735
 20
24.28630118283823
 30
0.0
 40
1.2021591503763029
  0
LINE
  5
1800
  8
LOGO
 62
     6
 10
73.150221329190458
 20
22.23452510120644
 30
0.0
 11
73.150221329190458
 21
26.33807726447003
 31
0.0
  0
LINE
  5
1801
  8
LOGO
 62
     1
 10
77.271756133964459
 20
-0.4574792727869835
 30
0.0
 11
77.271756133964459
 21
34.879980365997568
 31
0.0
  0
LINE
  5
1802
  8
LOGO
 62
     6
 10
151.79100057947829
 20
15.444377564666061
 30
0.0
 11
128.23269415362191
 21
15.444377564666061
 31
0.0
  0
TEXT
  5
1803
  8
LOGO
  6
CONTINUOUS
 62
     7
 10
129.49474628357851
 20
23.100827153069378
 30
0.0
 40
5.8895766064640922
  1
MCJT
  7
CHINESET
 72
     1
 11
140.01184736655011
 21
26.04561545630143
 31
0.0
 73
     2
  0
LINE
  5
1804
  8
LOGO
 62
     6
 10
151.79100057947829
 20
2.4873090304450609
 30
0.0
 11
128.23269415362191
 21
2.487309030445032
 31
0.0
  0
TEXT
  5
1805
  8
LOGO
  6
CONTINUOUS
 62
     6
 10
134.4027267889652
 20
3.959703182061082
 30
0.0
 40
2.9447883032320461
  1
Model
  7
CHINESET
 72
     4
 11
140.01184736655011
 21
5.4320973336771061
 31
0.0
  0
TEXT
  5
1806
  8
LOGO
 62
     6
 10
135.3001860813788
 20
9.0864173068217529
 30
0.0
 40
4.7116612851712727
  1
型式
  7
CHINESET
 72
     4
 11
140.01184736655011
 21
11.32167394014119
 31
0.0
  0
LINE
  5
1807
  8
LOGO
 62
     6
 10
154.14683122206389
 20
20.744996510483741
 30
0.0
 11
125.8768635110363
 21
20.744996510483741
 31
0.0
  0
LINE
  5
1808
  8
LOGO
 62
     6
 10
154.14683122206389
 20
31.346234402119102
 30
0.0
 11
125.8768635110363
 21
31.346234402119102
 31
0.0
  0
LINE
  5
1809
  8
LOGO
 62
     6
 10
140.01184736655011
 20
20.744996510483741
 30
0.0
 11
140.01184736655011
 21
15.444377564666061
 31
0.0
  0
LINE
  5
180A
  8
LOGO
 62
     6
 10
128.23269415362191
 20
15.444377564666061
 30
0.0
 11
128.23269415362191
 21
2.487309030445032
 31
0.0
  0
LINE
  5
180B
  8
LOGO
 62
     6
 10
125.8768635110363
 20
31.346234402119102
 30
0.0
 11
125.8768635110363
 21
20.744996510483741
 31
0.0
  0
LINE
  5
180C
  8
LOGO
 62
     6
 10
151.79100057947829
 20
15.444377564666061
 30
0.0
 11
151.79100057947829
 21
2.4873090304450609
 31
0.0
  0
LINE
  5
180D
  8
LOGO
 62
     6
 10
162.48770538377869
 20
15.444377564666061
 30
0.0
 11
162.48770538377869
 21
2.4873090304450609
 31
0.0
  0
LINE
  5
180E
  8
LOGO
  6
CONTINUOUS
 62
     7
 10
155.97326519014899
 20
26.008064196297649
 30
0.0
 11
160.65438502111289
 21
26.008064196297649
 31
0.0
  0
LINE
  5
180F
  8
LOGO
 62
     6
 10
154.14683122206401
 20
31.346234402119102
 30
0.0
 11
154.14683122206401
 21
20.744996510483741
 31
0.0
  0
LINE
  5
1810
  8
LOGO
 62
     6
 10
162.48770538377869
 20
31.346234402119102
 30
0.0
 11
162.48770538377869
 21
20.744996510483741
 31
0.0
  0
TEXT
  5
1811
  8
0
 10
12.038415653178159
 20
199.24276613394281
 30
0.0
 40
4.0
  1
MCJT-12-%%C80
  7
CHINESET
  0
TEXT
  5
1812
  8
0
 10
11.5474866955908
 20
190.953831383558
 30
0.0
 40
5.0
  1
stroke=0mm
  7
CHINESET
  0
LINE
  5
1868
  8
LOGO
 62
     6
 10
243.6829643764367
 20
31.346234402119102
 30
0.0
 11
224.06075839761269
 21
31.346234402119102
 31
0.0
  0
LINE
  5
1869
  8
LOGO
 62
     6
 10
243.6829643764367
 20
20.744996510483741
 30
0.0
 11
224.06075839761269
 21
20.744996510483741
 31
0.0
  0
LINE
  5
186A
  8
LOGO
 62
     6
 10
242.5050490551439
 20
15.444377564666061
 30
0.0
 11
225.23867371890549
 21
15.444377564666061
 31
0.0
  0
LINE
  5
186B
  8
LOGO
 62
     6
 10
242.5050490551439
 20
2.4873090304450609
 30
0.0
 11
225.23867371890549
 21
2.487309030445032
 31
0.0
  0
LINE
  5
186C
  8
LOGO
 62
     6
 10
215.71988423589801
 20
20.744996510483809
 30
0.0
 11
196.80797785457409
 21
20.744996510483809
 31
0.0
  0
LINE
  5
186D
  8
LOGO
 62
     6
 10
215.71988423589801
 20
15.444377564666119
 30
0.0
 11
196.80797785457409
 21
15.444377564666119
 31
0.0
  0
LINE
  5
186E
  8
LOGO
 62
     6
 10
215.71988423589801
 20
31.346234402119251
 30
0.0
 11
196.80797785457409
 21
31.346234402119169
 31
0.0
  0
TEXT
  5
186F
  8
LOGO
  6
CONTINUOUS
 62
     7
 10
202.0458725225968
 20
23.034038983233561
 30
0.0
 40
5.8895766064640922
  1
80
  7
CHINESET
 72
     1
 11
206.81362501354391
 21
25.978827286465609
 31
0.0
 73
     2
  0
LINE
  5
1870
  8
LOGO
 62
     6
 10
215.71988423589801
 20
2.487309030445132
 30
0.0
 11
196.80797785457409
 21
2.4873090304450889
 31
0.0
  0
TEXT
  5
1871
  8
LOGO
  6
CONTINUOUS
 62
     6
 10
202.618002669806
 20
3.9597031820611259
 30
0.0
 40
2.9447883032320461
  1
Bore
 41
0.8
  7
CHINESET
 72
     4
 11
206.26393104523609
 21
5.4320973336771479
 31
0.0
  0
TEXT
  5
1872
  8
LOGO
 62
     6
 10
201.7584049412911
 20
8.9658432975556011
 30
0.0
 40
4.7116612851712727
  1
內徑
 41
0.9
  7
CHINESET
 72
     4
 11
206.26393104523609
 21
11.321673940141229
 31
0.0
  0
LINE
  5
1873
  8
LOGO
 62
     6
 10
206.2639307736271
 20
20.744996510483809
 30
0.0
 11
206.2639307736271
 21
15.444377564666119
 31
0.0
  0
LINE
  5
1874
  8
LOGO
 62
     6
 10
175.47740453831901
 20
20.744996510483741
 30
0.0
 11
175.47740453831901
 21
15.444377564666061
 31
0.0
  0
LINE
  5
1875
  8
LOGO
 62
     6
 10
188.4671036928595
 20
15.444377564666061
 30
0.0
 11
188.4671036928595
 21
2.4873090304450889
 31
0.0
  0
LINE
  5
1876
  8
LOGO
 62
     6
 10
196.80797785457409
 20
15.444377564666119
 30
0.0
 11
196.80797785457409
 21
2.487309030445132
 31
0.0
  0
LINE
  5
1877
  8
LOGO
 62
     6
 10
188.4671036928595
 20
31.346234402119169
 30
0.0
 11
188.4671036928595
 21
20.744996510483741
 31
0.0
  0
LINE
  5
1878
  8
LOGO
 62
     6
 10
196.80797785457409
 20
31.346234402119169
 30
0.0
 11
196.80797785457409
 21
20.744996510483809
 31
0.0
  0
LINE
  5
1879
  8
LOGO
  6
CONTINUOUS
 62
     7
 10
190.29353766094439
 20
26.00806419629771
 30
0.0
 11
194.9746574919084
 21
26.00806419629771
 31
0.0
  0
LINE
  5
187A
  8
LOGO
 62
     6
 10
234.1213331567746
 20
20.744996510483741
 30
0.0
 11
234.1213331567746
 21
15.444377564666061
 31
0.0
  0
LINE
  5
187B
  8
LOGO
 62
     6
 10
215.71988423589801
 20
15.444377564666119
 30
0.0
 11
215.71988423589801
 21
2.4873090304451599
 31
0.0
  0
LINE
  5
187C
  8
LOGO
 62
     6
 10
225.23867371890549
 20
15.444377564666061
 30
0.0
 11
225.23867371890549
 21
2.487309030445032
 31
0.0
  0
TEXT
  5
187D
  8
LOGO
  6
CONTINUOUS
 62
     6
 10
228.54319683831909
 20
3.9597031820610549
 30
0.0
 40
2.9447883032320461
  1
Stroke
 41
0.8
  7
CHINESET
 72
     4
 11
233.87186138702469
 21
5.4320973336770768
 31
0.0
  0
TEXT
  5
187E
  8
LOGO
 62
     6
 10
229.63136623037059
 20
8.96584329755553
 30
0.0
 40
4.7116612851712727
  1
行程
 41
0.9
  7
CHINESET
 72
     4
 11
233.87186138702469
 21
11.32167394014116
 31
0.0
  0
LINE
  5
187F
  8
LOGO
 62
     6
 10
215.71988423589801
 20
31.346234402119251
 30
0.0
 11
215.71988423589801
 21
20.744996510483809
 31
0.0
  0
LINE
  5
1880
  8
LOGO
  6
CONTINUOUS
 62
     7
 10
217.54631820398299
 20
26.008064196297781
 30
0.0
 11
222.22743803494711
 21
26.008064196297781
 31
0.0
  0
LINE
  5
1881
  8
LOGO
 62
     6
 10
224.06075839761269
 20
31.346234402119102
 30
0.0
 11
224.06075839761269
 21
20.744996510483741
 31
0.0
  0
TEXT
  5
1882
  8
LOGO
  6
CONTINUOUS
 62
     7
 10
232.8790471964968
 20
23.034038983233501
 30
0.0
 40
5.8895766064640922
  1
?
  7
CHINESET
 72
     1
 11
234.4215553553326
 21
25.978827286465538
 31
0.0
 73
     2
  0
LINE
  5
1883
  8
LOGO
 62
     6
 10
253.87317774890829
 20
20.744996510483741
 30
0.0
 11
253.87317774890829
 21
15.444377564666061
 31
0.0
  0
LINE
  5
1884
  8
LOGO
 62
     1
 10
271.62778414727939
 20
-0.4574792727869835
 30
0.0
 11
271.62778414727939
 21
34.879980365997568
 31
0.0
  0
LINE
  5
1885
  8
LOGO
 62
     6
 10
262.50636541702761
 20
2.4873090304450609
 30
0.0
 11
245.2399900807892
 21
2.487309030445032
 31
0.0
  0
LINE
  5
1886
  8
LOGO
 62
     6
 10
262.50636541702761
 20
15.444377564666061
 30
0.0
 11
245.2399900807892
 21
15.444377564666061
 31
0.0
  0
TEXT
  5
1887
  8
LOGO
  6
CONTINUOUS
 62
     6
 10
247.0300506442548
 20
3.959703182061054
 30
0.0
 40
2.9447883032320461
  1
MAGNET
 41
0.8
  7
CHINESET
 72
     4
 11
253.87317774890829
 21
5.4320973336770768
 31
0.0
  0
TEXT
  5
1888
  8
LOGO
 62
     6
 10
247.5124350139271
 20
9.0149231026093961
 30
0.0
 40
4.7116612851712727
  1
附磁石
 41
0.9
  7
CHINESET
 72
     4
 11
253.87317774890829
 21
11.32167394014116
 31
0.0
  0
LINE
  5
1889
  8
LOGO
 62
     6
 10
245.2399900807892
 20
15.444377564666061
 30
0.0
 11
245.2399900807892
 21
2.487309030445032
 31
0.0
  0
LINE
  5
188A
  8
LOGO
 62
     6
 10
242.5050490551439
 20
15.444377564666061
 30
0.0
 11
242.5050490551439
 21
2.438452290523514
 31
0.0
  0
LINE
  5
188B
  8
LOGO
 62
     6
 10
262.50636541702761
 20
15.444377564666061
 30
0.0
 11
262.50636541702761
 21
2.438452290523514
 31
0.0
  0
TEXT
  5
188C
  8
LOGO
  6
CONTINUOUS
 62
     7
 10
248.11261133904219
 20
23.034038983233501
 30
0.0
 40
5.8895766064640922
  1
(M)
  7
CHINESET
 72
     1
 11
254.42287198882511
 21
25.978827286465538
 31
0.0
 73
     2
  0
LINE
  5
188D
  8
LOGO
 62
     6
 10
261.61209356612932
 20
20.744996510483741
 30
0.0
 11
246.13426193168729
 21
20.744996510483741
 31
0.0
  0
LINE
  5
188E
  8
LOGO
 62
     6
 10
261.61209356612932
 20
31.346234402119169
 30
0.0
 11
246.13426193168729
 21
31.346234402119102
 31
0.0
  0
LINE
  5
188F
  8
LOGO
 62
     6
 10
246.13426193168729
 20
31.346234402119102
 30
0.0
 11
246.13426193168729
 21
20.744996510483741
 31
0.0
  0
LINE
  5
1890
  8
LOGO
 62
     6
 10
243.6829643764367
 20
31.346234402119102
 30
0.0
 11
243.6829643764367
 21
20.744996510483741
 31
0.0
  0
LINE
  5
1891
  8
LOGO
 62
     6
 10
261.6120935661292
 20
31.346234402119169
 30
0.0
 11
261.61209356612932
 21
20.744996510483741
 31
0.0
  0
LINE
  5
18E7
  8
0
 62
     4
 10
271.62778414727939
 20
388.84502543304069
 30
0.0
 11
-0.4706550713615343
 21
388.8450254330408
 31
0.0
  0
TEXT
  5
18E8
  8
0
 10
21.458499082431779
 20
392.84502615063718
 30
0.0
 40
10.0
  1
2.附磁型本體長度皆較不附磁型增加10MM
  7
CHINESET
  0
TEXT
  5
18E9
  8
0
 10
3.112678185677737
 20
408.06853698641402
 30
0.0
 40
10.0
  1
註：1.本圖檔為不附磁型
  7
CHINESET
  0
TEXT
  5
18EA
  8
0
 10
12.47687941544859
 20
376.22528866746438
 30
0.0
 40
4.0
  1
MCJT-11-%%C80
  7
CHINESET
  0
TEXT
  5
18EB
  8
0
 10
11.98595045786112
 20
367.9363539170796
 30
0.0
 40
5.0
  1
stroke=0mm
  7
CHINESET
  0
LINE
  5
4CE3
  8
0
 10
78.435661721482347
 20
99.465791957575092
 30
0.0
 11
78.435661721482347
 21
52.465791957575107
 31
0.0
  0
LINE
  5
4CE4
  8
0
 10
37.43566172148234
 20
146.46579195757491
 30
0.0
 11
37.43566172148234
 21
52.465791957575107
 31
0.0
  0
LINE
  5
4CE5
  8
0
 10
78.435661721482347
 20
52.465791957575107
 30
0.0
 11
37.43566172148234
 21
52.465791957575107
 31
0.0
  0
LINE
  5
4CF2
  8
0
 10
78.435661721482404
 20
146.46579195757491
 30
0.0
 11
78.435661721482347
 21
99.465791957575135
 31
0.0
  0
LINE
  5
4CF3
  8
0
 10
78.435661721482404
 20
146.46579195757491
 30
0.0
 11
78.435661721482347
 21
99.465791957575135
 31
0.0
  0
LINE
  5
4CFB
  8
CENTER
 10
94.831502412292991
 20
99.465791957575135
 30
0.0
 11
51.435661721482397
 21
99.465791957575135
 31
0.0
  0
LINE
  5
4CFD
  8
CENTER
 10
85.227245721251833
 20
99.465791957575135
 30
0.0
 11
29.863252661898571
 21
99.465791957575092
 31
0.0
  0
LINE
  5
4D62
  8
0
 10
83.435661721482333
 20
78.465791957575149
 30
0.0
 11
83.435661721482333
 21
99.465791957575135
 31
0.0
  0
LINE
  5
4D63
  8
0
 10
87.435661721482333
 20
99.465791957575178
 30
0.0
 11
89.435661721482347
 21
93.528620914056106
 31
0.0
  0
LINE
  5
4D64
  8
0
 10
89.435661721482347
 20
109.96579195757511
 30
0.0
 11
89.435661721482347
 21
88.965791957575121
 31
0.0
  0
LINE
  5
4D65
  8
0
 10
85.435661721482305
 20
99.465791957575135
 30
0.0
 11
85.435661721482347
 21
93.528620914056106
 31
0.0
  0
ARC
  5
4D66
  8
0
 10
102.5606617214827
 20
99.465791957575092
 30
0.0
 40
18.125000000000369
 50
180.0
 51
199.12123278536271
  0
LINE
  5
4D67
  8
0
 10
87.435661721482333
 20
99.465791957575178
 30
0.0
 11
85.435661721482305
 21
93.528620914056134
 31
0.0
  0
LINE
  5
4D68
  8
0
 10
84.435661721482404
 20
86.965791957574993
 30
0.0
 11
85.435661721482347
 21
88.465791957575334
 31
0.0
  0
LINE
  5
4D69
  8
0
 10
81.935661721482347
 20
76.965791957575135
 30
0.0
 11
78.435661721482347
 21
76.965791957575135
 31
0.0
  0
ARC
  5
4D6A
  8
0
 10
81.935661721482347
 20
78.465791957575149
 30
0.0
 40
1.5
 50
270.0
 51
0.0
  0
LINE
  5
4D6B
  8
0
 10
84.435661721482461
 20
86.965791957575135
 30
0.0
 11
83.435661721482333
 21
86.965791957575135
 31
0.0
  0
LINE
  5
4D6C
  8
0
 10
87.435661721482333
 20
93.528620914056106
 30
0.0
 11
87.435661721482333
 21
88.465791957575334
 31
0.0
  0
LINE
  5
4D6D
  8
0
 10
89.435661721482347
 20
88.965791957575121
 30
0.0
 11
88.569636317698269
 21
88.465791957575334
 31
0.0
  0
LINE
  5
4D6E
  8
0
 10
88.569636317698269
 20
88.465791957575334
 30
0.0
 11
85.435661721482347
 21
88.465791957575334
 31
0.0
  0
LINE
  5
4D6F
  8
0
 10
85.435661721482347
 20
93.528620914056106
 30
0.0
 11
89.435661721482347
 21
93.528620914056106
 31
0.0
  0
ARC
  5
4DCE
  8
0
 10
218.45303088136669
 20
99.465791957574865
 30
0.0
 40
62.0
 50
40.706134267907842
 51
49.293865732091611
  0
LINE
  5
4DCF
  8
0
 62
     7
 10
261.93303088136679
 20
119.76579195757481
 30
0.0
 11
265.45303088136671
 21
119.76579195757481
 31
0.0
  0
LINE
  5
4DD0
  8
0
 62
     7
 10
261.93303088136679
 20
123.1657919575749
 30
0.0
 11
265.45303088136671
 21
123.1657919575749
 31
0.0
  0
LINE
  5
4DD1
  8
CENTER
 10
266.08172857171741
 20
121.46579195757479
 30
0.0
 11
255.95336734906451
 21
121.46579195757479
 31
0.0
  0
LINE
  5
4DD2
  8
0
 10
263.9530308813666
 20
107.865791957575
 30
0.0
 11
265.25303088136661
 21
107.865791957575
 31
0.0
  0
LINE
  5
4DD3
  8
0
 10
262.65303088136642
 20
100.565791957575
 30
0.0
 11
265.25303088136661
 21
100.5657919575751
 31
0.0
  0
LINE
  5
4DD4
  8
0
 10
262.65303088136642
 20
98.365791957575183
 30
0.0
 11
265.25303088136661
 21
98.365791957575183
 31
0.0
  0
LINE
  5
4DD5
  8
0
 10
263.9530308813666
 20
91.065791957575115
 30
0.0
 11
265.25303088136661
 21
91.065791957575115
 31
0.0
  0
LINE
  5
4DD6
  8
0
 62
     7
 10
261.93303088136679
 20
75.765791957574805
 30
0.0
 11
265.45303088136671
 21
75.765791957574805
 31
0.0
  0
LINE
  5
4DD7
  8
0
 62
     7
 10
261.93303088136679
 20
79.16579195757491
 30
0.0
 11
265.45303088136671
 21
79.16579195757491
 31
0.0
  0
LINE
  5
4DD8
  8
CENTER
 10
266.08172857171741
 20
77.465791957574865
 30
0.0
 11
255.95336734906451
 21
77.465791957574865
 31
0.0
  0
ARC
  5
4DD9
  8
0
 10
218.45303088136669
 20
99.465791957574865
 30
0.0
 40
62.0
 50
310.7061342679084
 51
319.2938657320916
  0
LINE
  5
4DDA
  8
0
 10
265.45303088136671
 20
139.90092519588649
 30
0.0
 11
265.45303088136671
 21
123.1657919575748
 31
0.0
  0
LINE
  5
4DDB
  8
0
 10
265.45303088136671
 20
75.765791957574805
 30
0.0
 11
265.45303088136671
 21
59.030658719263442
 31
0.0
  0
LINE
  5
4DDC
  8
0
 10
265.45303088136671
 20
90.865791957575055
 30
0.0
 11
265.45303088136671
 21
79.16579195757491
 31
0.0
  0
ARC
  5
4DDD
  8
0
 10
265.25303088136639
 20
90.865791957575055
 30
0.0
 40
0.2
 50
0.0
 51
90.0
  0
LINE
  5
4DDE
  8
0
 10
265.45303088136671
 20
119.76579195757481
 30
0.0
 11
265.45303088136671
 21
108.0657919575749
 31
0.0
  0
LINE
  5
4DDF
  8
0
 10
265.4530308813666
 20
98.565791957575001
 30
0.0
 11
265.4530308813666
 21
100.3657919575749
 31
0.0
  0
ARC
  5
4DE0
  8
0
 10
265.25303088136639
 20
98.565791957575001
 30
0.0
 40
0.2
 50
270.0
 51
0.0
  0
ARC
  5
4DE1
  8
0
 10
265.25303088136639
 20
100.3657919575749
 30
0.0
 40
0.2
 50
0.0
 51
90.0
  0
ARC
  5
4DE2
  8
0
 10
265.25303088136639
 20
108.065791957575
 30
0.0
 40
0.2
 50
270.0
 51
0.0
  0
ARC
  5
4DE3
  8
0
 10
220.23476626089081
 20
99.465791957575092
 30
0.0
 40
38.531735379524143
 50
33.064780445523311
 51
326.9352195544767
  0
CIRCLE
  5
4DE4
  8
0
 10
218.45303088136669
 20
99.465791957575092
 30
0.0
 40
41.0
  0
LINE
  5
4DE5
  8
0
 10
171.45303088136669
 20
139.90092519588629
 30
0.0
 11
171.45303088136669
 21
123.1657919575749
 31
0.0
  0
LINE
  5
4DE6
  8
CENTER
 10
218.45303088136669
 20
151.46579195757479
 30
0.0
 11
218.45303088136669
 21
47.465791957574879
 31
0.0
  0
CIRCLE
  5
4DE7
  8
0
 62
     7
 10
181.45303088136669
 20
62.465791957574879
 30
0.0
 40
7.0
  0
ARC
  5
4DE8
  8
0
 62
     3
 10
181.45303088136669
 20
62.465791957574879
 30
0.0
 40
6.0
 50
253.76950040672301
 51
199.43524081545999
  0
LINE
  5
4DEB
  8
CENTER
 10
170.824333191016
 20
121.46579195757479
 30
0.0
 11
180.95269441366889
 21
121.46579195757479
 31
0.0
  0
LINE
  5
4DEC
  8
0
 62
     7
 10
175.4730308813667
 20
119.3157919575748
 30
0.0
 11
177.57303088136669
 21
119.3157919575748
 31
0.0
  0
LINE
  5
4DED
  8
0
 62
     7
 10
177.57303088136669
 20
123.6157919575749
 30
0.0
 11
175.4730308813667
 21
123.6157919575749
 31
0.0
  0
LINE
  5
4DEE
  8
0
 62
     7
 10
177.57303088136669
 20
75.315791957574774
 30
0.0
 11
175.4730308813667
 21
75.315791957574774
 31
0.0
  0
LINE
  5
4DEF
  8
0
 62
     7
 10
175.4730308813667
 20
79.615791957574842
 30
0.0
 11
177.57303088136669
 21
79.615791957574956
 31
0.0
  0
LINE
  5
4DF0
  8
CENTER
 10
170.824333191016
 20
77.465791957574865
 30
0.0
 11
180.95269441366889
 21
77.465791957574865
 31
0.0
  0
ARC
  5
4DF1
  8
0
 10
218.45303088136669
 20
99.465791957574865
 30
0.0
 40
62.0
 50
220.7061342679084
 51
229.2938657320928
  0
LINE
  5
4DF2
  8
CENTER
 10
173.55303088136671
 20
62.465791957574879
 30
0.0
 11
189.35303088136669
 21
62.465791957574879
 31
0.0
  0
CIRCLE
  5
4DF3
  8
0
 62
     7
 10
255.45303088136669
 20
62.465791957574879
 30
0.0
 40
7.0
  0
ARC
  5
4DF4
  8
0
 62
     3
 10
255.45303088136669
 20
62.465791957574879
 30
0.0
 40
6.0
 50
253.76950040672301
 51
199.43524081545999
  0
CIRCLE
  5
4DF5
  8
0
 62
     7
 10
181.45303088136669
 20
62.465791957574879
 30
0.0
 40
5.25
  0
LINE
  5
4DF6
  8
CENTER
 10
181.45303088136669
 20
54.141555714656079
 30
0.0
 11
181.45303088136669
 21
70.758375000432338
 31
0.0
  0
LINE
  5
4DF7
  8
CENTER
 10
255.45303088136669
 20
54.565791957574902
 30
0.0
 11
255.45303088136669
 21
70.365791957574842
 31
0.0
  0
CIRCLE
  5
4DF8
  8
0
 62
     7
 10
255.45303088136669
 20
62.465791957574879
 30
0.0
 40
5.25
  0
LINE
  5
4DF9
  8
0
 10
219.7530308813667
 20
55.465791957574872
 30
0.0
 11
228.35303088136669
 21
55.465791957574872
 31
0.0
  0
ARC
  5
4DFA
  8
0
 62
     7
 10
240.90303088136679
 20
58.585791957574891
 30
0.0
 40
1.7
 50
0.0
 51
90.0
  0
LINE
  5
4DFB
  8
0
 10
242.15303088136679
 20
52.465791957574879
 30
0.0
 11
258.88816411967832
 21
52.465791957574879
 31
0.0
  0
LINE
  5
4DFC
  8
CENTER
 10
263.35303088136669
 20
62.465791957574879
 30
0.0
 11
247.55303088136671
 21
62.465791957574879
 31
0.0
  0
LINE
  5
4DFD
  8
0
 10
227.05303088136671
 20
52.465791957574879
 30
0.0
 11
238.75303088136681
 21
52.465791957574879
 31
0.0
  0
LINE
  5
4DFE
  8
0
 62
     7
 10
238.75303088136681
 20
55.985791957574861
 30
0.0
 11
238.30303088136679
 21
56.485791957574861
 31
0.0
  0
LINE
  5
4DFF
  8
0
 62
     7
 10
242.15303088136679
 20
55.985791957574861
 30
0.0
 11
242.60303088136681
 21
56.485791957574861
 31
0.0
  0
LINE
  5
4E00
  8
CENTER
 10
240.45303088136669
 20
51.837094267224188
 30
0.0
 11
240.45303088136669
 21
61.965455489877058
 31
0.0
  0
LINE
  5
4E01
  8
0
 62
     7
 10
238.75303088136681
 20
55.985791957574861
 30
0.0
 11
238.75303088136681
 21
52.465791957574879
 31
0.0
  0
LINE
  5
4E02
  8
0
 62
     7
 10
242.15303088136679
 20
55.985791957574861
 30
0.0
 11
242.15303088136679
 21
52.465791957574879
 31
0.0
  0
ARC
  5
4E03
  8
0
 62
     7
 10
240.0030308813667
 20
58.585791957574891
 30
0.0
 40
1.7
 50
90.0
 51
180.0
  0
LINE
  5
4E04
  8
0
 62
     7
 10
242.60303088136681
 20
58.58579195757499
 30
0.0
 11
242.60303088136681
 21
56.485791957574861
 31
0.0
  0
LINE
  5
4E05
  8
0
 62
     7
 10
238.30303088136679
 20
56.485791957574861
 30
0.0
 11
238.30303088136679
 21
58.585791957574891
 31
0.0
  0
LINE
  5
4E06
  8
0
 62
     7
 10
240.0030308813667
 20
60.285791957574929
 30
0.0
 11
240.90303088136679
 21
60.285791957574929
 31
0.0
  0
ARC
  5
4E07
  8
0
 10
227.05303088136671
 20
52.665791957574932
 30
0.0
 40
0.2
 50
180.0
 51
270.0
  0
ARC
  5
4E08
  8
0
 10
228.35303088136669
 20
55.265791957575061
 30
0.0
 40
0.2
 50
0.0
 51
90.0
  0
ARC
  5
4E09
  8
0
 10
228.35303088136669
 20
54.36579195757497
 30
0.0
 40
0.2
 50
270.0
 51
0.0
  0
ARC
  5
4E0A
  8
0
 10
227.05303088136671
 20
53.965791957574879
 30
0.0
 40
0.2
 50
90.0
 51
180.0
  0
LINE
  5
4E0B
  8
0
 10
227.05303088136671
 20
54.165791957574918
 30
0.0
 11
228.35303088136669
 21
54.165791957574918
 31
0.0
  0
LINE
  5
4E0C
  8
0
 10
228.55303088136679
 20
55.265791957575061
 30
0.0
 11
228.55303088136679
 21
54.36579195757497
 31
0.0
  0
LINE
  5
4E0D
  8
0
 10
226.85303088136669
 20
53.965791957574879
 30
0.0
 11
226.85303088136681
 21
52.665791957574932
 31
0.0
  0
ARC
  5
4E0E
  8
0
 62
     7
 10
196.9030308813667
 20
58.585791957574891
 30
0.0
 40
1.7
 50
0.0
 51
90.0
  0
LINE
  5
4E0F
  8
0
 62
     7
 10
198.15303088136679
 20
55.985791957574861
 30
0.0
 11
198.60303088136681
 21
56.485791957574861
 31
0.0
  0
LINE
  5
4E10
  8
0
 10
198.15303088136679
 20
52.465791957574879
 30
0.0
 11
209.85303088136669
 21
52.465791957574879
 31
0.0
  0
LINE
  5
4E11
  8
0
 10
208.55303088136671
 20
54.165791957574918
 30
0.0
 11
209.85303088136669
 21
54.165791957574918
 31
0.0
  0
LINE
  5
4E12
  8
0
 10
208.55303088136671
 20
55.465791957574872
 30
0.0
 11
217.15303088136679
 21
55.465791957574872
 31
0.0
  0
ARC
  5
4E13
  8
0
 10
217.55303088136679
 20
52.665791957574932
 30
0.0
 40
0.2
 50
180.0
 51
270.0
  0
ARC
  5
4E14
  8
0
 10
219.35303088136669
 20
52.665791957574932
 30
0.0
 40
0.2
 50
270.0
 51
0.0
  0
ARC
  5
4E15
  8
0
 10
217.15303088136679
 20
55.265791957575061
 30
0.0
 40
0.2
 50
0.0
 51
90.0
  0
ARC
  5
4E16
  8
0
 10
219.7530308813667
 20
55.265791957575061
 30
0.0
 40
0.2
 50
90.0
 51
180.0
  0
LINE
  5
4E17
  8
0
 10
217.55303088136679
 20
52.465791957574879
 30
0.0
 11
219.35303088136669
 21
52.465791957574879
 31
0.0
  0
LINE
  5
4E18
  8
0
 10
217.35303088136681
 20
55.265791957575061
 30
0.0
 11
217.35303088136681
 21
52.665791957574932
 31
0.0
  0
LINE
  5
4E19
  8
0
 10
219.55303088136679
 20
55.265791957575061
 30
0.0
 11
219.55303088136679
 21
52.665791957574932
 31
0.0
  0
ARC
  5
4E1A
  8
0
 10
209.85303088136669
 20
52.665791957574932
 30
0.0
 40
0.2
 50
270.0
 51
0.0
  0
ARC
  5
4E1B
  8
0
 10
209.85303088136669
 20
53.965791957574879
 30
0.0
 40
0.2
 50
0.0
 51
90.0
  0
LINE
  5
4E1C
  8
0
 10
210.05303088136671
 20
53.965791957574879
 30
0.0
 11
210.05303088136671
 21
52.665791957574932
 31
0.0
  0
ARC
  5
4E1D
  8
0
 10
208.55303088136671
 20
54.36579195757497
 30
0.0
 40
0.2
 50
180.0
 51
270.0
  0
ARC
  5
4E1E
  8
0
 10
208.55303088136671
 20
55.265791957574827
 30
0.0
 40
0.2
 50
90.0
 51
180.0
  0
LINE
  5
4E1F
  8
0
 10
208.35303088136681
 20
55.265791957574827
 30
0.0
 11
208.35303088136681
 21
54.36579195757497
 31
0.0
  0
LINE
  5
4E20
  8
0
 62
     7
 10
198.60303088136669
 20
56.485791957574861
 30
0.0
 11
198.60303088136669
 21
58.585791957574891
 31
0.0
  0
LINE
  5
4E21
  8
0
 10
178.01789764305531
 20
52.465791957574879
 30
0.0
 11
194.75303088136681
 21
52.465791957574879
 31
0.0
  0
LINE
  5
4E22
  8
0
 62
     7
 10
194.75303088136681
 20
55.985791957574861
 30
0.0
 11
194.30303088136679
 21
56.485791957574861
 31
0.0
  0
LINE
  5
4E23
  8
CENTER
 10
196.45303088136669
 20
51.837094267224188
 30
0.0
 11
196.45303088136669
 21
61.965455489877058
 31
0.0
  0
LINE
  5
4E24
  8
0
 62
     7
 10
194.75303088136681
 20
55.985791957574861
 30
0.0
 11
194.75303088136681
 21
52.465791957574879
 31
0.0
  0
LINE
  5
4E25
  8
0
 62
     7
 10
198.15303088136679
 20
55.985791957574861
 30
0.0
 11
198.15303088136679
 21
52.465791957574879
 31
0.0
  0
ARC
  5
4E26
  8
0
 62
     7
 10
196.0030308813667
 20
58.585791957574891
 30
0.0
 40
1.7
 50
90.0
 51
180.0
  0
LINE
  5
4E27
  8
0
 62
     7
 10
194.30303088136679
 20
58.58579195757499
 30
0.0
 11
194.3030308813666
 21
56.485791957574861
 31
0.0
  0
LINE
  5
4E28
  8
0
 62
     7
 10
196.90303088136679
 20
60.285791957574929
 30
0.0
 11
196.0030308813667
 21
60.285791957574929
 31
0.0
  0
LINE
  5
4E29
  8
0
 10
224.3902019248863
 20
88.465791957575334
 30
0.0
 11
212.5158598378471
 21
88.465791957575334
 31
0.0
  0
CIRCLE
  5
4E2A
  8
0
 10
218.45303088136669
 20
99.465791957575092
 30
0.0
 40
6.25
  0
ARC
  5
4E2B
  8
DIM
 10
218.45303088136669
 20
99.465791957575092
 30
0.0
 40
7.0
 50
250.56403052650231
 51
200.2981581249945
  0
LINE
  5
4E2C
  8
0
 10
212.5158598378471
 20
110.46579195757479
 30
0.0
 11
224.3902019248863
 21
110.46579195757479
 31
0.0
  0
CIRCLE
  5
4E2D
  8
0
 10
218.45303088136669
 20
99.465791957575092
 30
0.0
 40
22.499999999999972
  0
CIRCLE
  5
4E2E
  8
0
 10
218.45303088136669
 20
99.465791957575092
 30
0.0
 40
12.50000000000008
  0
CIRCLE
  5
4E2F
  8
0
 10
218.45303088136669
 20
99.465791957575092
 30
0.0
 40
10.5
  0
LINE
  5
4E30
  8
0
 10
229.45303088136649
 20
105.40296300109461
 30
0.0
 11
229.45303088136649
 21
93.528620914055509
 31
0.0
  0
LINE
  5
4E31
  8
0
 10
262.4530308813666
 20
89.565791957575001
 30
0.0
 11
262.4530308813666
 21
98.165791957575138
 31
0.0
  0
ARC
  5
4E32
  8
0
 10
249.17423370609771
 20
80.625728998304098
 30
0.0
 40
4.0
 50
326.9352195544767
 51
36.339280608073352
  0
ARC
  5
4E33
  8
0
 62
     7
 10
259.33303088136671
 20
77.91579195757491
 30
0.0
 40
1.7
 50
90.0
 51
180.0
  0
ARC
  5
4E34
  8
0
 62
     7
 10
259.33303088136671
 20
77.015791957574805
 30
0.0
 40
1.7
 50
180.0
 51
269.9999999999992
  0
LINE
  5
4E35
  8
0
 62
     7
 10
261.93303088136679
 20
75.765791957574805
 30
0.0
 11
261.43303088136668
 21
75.315791957574774
 31
0.0
  0
LINE
  5
4E36
  8
0
 62
     7
 10
259.33303088136671
 20
75.315791957574774
 30
0.0
 11
261.43303088136668
 21
75.315791957574774
 31
0.0
  0
LINE
  5
4E37
  8
0
 62
     7
 10
261.93303088136679
 20
79.16579195757491
 30
0.0
 11
261.43303088136668
 21
79.615791957574956
 31
0.0
  0
LINE
  5
4E38
  8
0
 62
     7
 10
261.43303088136668
 20
79.615791957574842
 30
0.0
 11
259.33303088136671
 21
79.615791957574842
 31
0.0
  0
LINE
  5
4E39
  8
0
 62
     7
 10
257.63303088136678
 20
77.91579195757491
 30
0.0
 11
257.63303088136678
 21
77.015791957574805
 31
0.0
  0
ARC
  5
4E3A
  8
0
 10
255.61841148920169
 20
85.366253515670095
 30
0.0
 40
4.0
 50
75.000000000000853
 51
159.22461175031711
  0
CIRCLE
  5
4E3B
  8
0
 10
255.61841148920169
 20
85.366253515670095
 30
0.0
 40
1.25
  0
LINE
  5
4E3C
  8
0
 10
263.75303088136661
 20
89.565791957575001
 30
0.0
 11
263.75303088136661
 21
90.865791957575055
 31
0.0
  0
ARC
  5
4E3D
  8
0
 10
263.9530308813666
 20
90.865791957575055
 30
0.0
 40
0.2
 50
90.0
 51
180.0
  0
ARC
  5
4E3E
  8
0
 10
263.55303088136651
 20
89.565791957575001
 30
0.0
 40
0.2
 50
270.0
 51
0.0
  0
ARC
  5
4E3F
  8
0
 10
262.65303088136659
 20
89.565791957575001
 30
0.0
 40
0.2
 50
180.0
 51
270.00000000000159
  0
LINE
  5
4E40
  8
0
 10
262.65303088136659
 20
89.365791957575183
 30
0.0
 11
263.55303088136651
 21
89.365791957575183
 31
0.0
  0
LINE
  5
4E41
  8
0
 10
256.65368766961188
 20
89.229956820826345
 30
0.0
 11
258.05598975921862
 21
88.854211108371814
 31
0.0
  0
ARC
  5
4E42
  8
0
 10
255.61841148920169
 20
85.366253515670095
 30
0.0
 40
4.0
 50
159.22461175031711
 51
216.3392806080733
  0
ARC
  5
4E43
  8
0
 10
218.45303088136669
 20
99.465791957575092
 30
0.0
 40
35.75
 50
339.22461175031708
 51
339.22461175031708
  0
ARC
  5
4E44
  8
0
 10
255.61841148920189
 20
113.5653303994801
 30
0.0
 40
4.0
 50
200.77538824967931
 51
285.0
  0
LINE
  5
4E45
  8
0
 10
262.4530308813666
 20
100.765791957575
 30
0.0
 11
262.4530308813666
 21
109.3657919575749
 31
0.0
  0
ARC
  5
4E46
  8
0
 10
262.65303088136642
 20
98.165791957575024
 30
0.0
 40
0.2
 50
90.0
 51
180.0
  0
ARC
  5
4E47
  8
0
 10
262.65303088136642
 20
100.7657919575749
 30
0.0
 40
0.2
 50
180.0
 51
270.0
  0
ARC
  5
4E48
  8
0
 10
262.65303088136642
 20
109.3657919575749
 30
0.0
 40
0.2
 50
89.999999999998394
 51
180.0
  0
ARC
  5
4E49
  8
0
 10
263.55303088136651
 20
109.3657919575749
 30
0.0
 40
0.2
 50
0.0
 51
89.999999999999204
  0
LINE
  5
4E4A
  8
0
 10
263.75303088136661
 20
108.0657919575749
 30
0.0
 11
263.75303088136661
 21
109.3657919575749
 31
0.0
  0
LINE
  5
4E4B
  8
0
 10
262.65303088136642
 20
109.565791957575
 30
0.0
 11
263.55303088136651
 21
109.565791957575
 31
0.0
  0
ARC
  5
4E4C
  8
0
 10
263.9530308813666
 20
108.065791957575
 30
0.0
 40
0.2
 50
180.0
 51
270.0
  0
LINE
  5
4E4D
  8
0
 10
256.65368766961188
 20
109.7016270943238
 30
0.0
 11
258.05598975921862
 21
110.0773728067783
 31
0.0
  0
CIRCLE
  5
4E4E
  8
0
 10
255.61841148920189
 20
113.5653303994801
 30
0.0
 40
1.25
  0
ARC
  5
4E4F
  8
0
 62
     7
 10
259.33303088136671
 20
121.01579195757481
 30
0.0
 40
1.7
 50
180.0
 51
270.0
  0
ARC
  5
4E50
  8
0
 62
     7
 10
259.33303088136671
 20
121.9157919575749
 30
0.0
 40
1.7
 50
90.00000000000081
 51
180.0
  0
LINE
  5
4E51
  8
0
 62
     7
 10
261.93303088136679
 20
119.76579195757481
 30
0.0
 11
261.43303088136668
 21
119.3157919575747
 31
0.0
  0
LINE
  5
4E52
  8
0
 62
     7
 10
261.43303088136668
 20
119.3157919575748
 30
0.0
 11
259.33303088136671
 21
119.3157919575747
 31
0.0
  0
LINE
  5
4E53
  8
0
 62
     7
 10
259.33303088136671
 20
123.6157919575749
 30
0.0
 11
261.43303088136668
 21
123.6157919575749
 31
0.0
  0
LINE
  5
4E54
  8
0
 62
     7
 10
261.93303088136679
 20
123.1657919575749
 30
0.0
 11
261.43303088136668
 21
123.6157919575749
 31
0.0
  0
LINE
  5
4E55
  8
0
 62
     7
 10
257.63303088136678
 20
121.01579195757481
 30
0.0
 11
257.63303088136678
 21
121.9157919575749
 31
0.0
  0
ARC
  5
4E56
  8
0
 10
249.17423370609771
 20
118.3058549168461
 30
0.0
 40
4.0
 50
323.66071939192659
 51
33.064780445523311
  0
ARC
  5
4E57
  8
0
 10
255.61841148920189
 20
113.5653303994801
 30
0.0
 40
4.0
 50
143.66071939192659
 51
200.77538824967931
  0
ARC
  5
4E58
  8
0
 10
218.45303088136669
 20
99.465791957575092
 30
0.0
 40
35.75
 50
20.775388249682852
 51
20.775388249682852
  0
LINE
  5
4E59
  8
0
 10
207.45303088136691
 20
93.528620914055509
 30
0.0
 11
207.45303088136691
 21
105.40296300109461
 31
0.0
  0
ARC
  5
4E5B
  8
0
 62
     7
 10
177.57303088136669
 20
77.915791957574939
 30
0.0
 40
1.7
 50
0.0
 51
90.0
  0
ARC
  5
4E5C
  8
0
 62
     7
 10
177.57303088136669
 20
77.015791957574848
 30
0.0
 40
1.7
 50
270.0000000000008
 51
0.0
  0
LINE
  5
4E5D
  8
0
 62
     7
 10
179.27303088136679
 20
77.91579195757491
 30
0.0
 11
179.27303088136679
 21
77.015791957574805
 31
0.0
  0
ARC
  5
4E60
  8
0
 62
     7
 10
177.57303088136669
 20
121.9157919575749
 30
0.0
 40
1.7
 50
0.0
 51
89.999999999999204
  0
LINE
  5
4E61
  8
0
 62
     7
 10
179.27303088136679
 20
121.01579195757481
 30
0.0
 11
179.27303088136679
 21
121.9157919575749
 31
0.0
  0
ARC
  5
4E62
  8
0
 62
     7
 10
177.57303088136669
 20
121.01579195757481
 30
0.0
 40
1.7
 50
270.0
 51
0.0
  0
LINE
  5
4E63
  8
0
 10
171.45303088136669
 20
75.765791957574805
 30
0.0
 11
171.45303088136669
 21
59.030658719263442
 31
0.0
  0
LINE
  5
4E66
  8
0
 10
163.45303088136669
 20
112.96579195757479
 30
0.0
 11
163.4530308813668
 21
85.965791957574865
 31
0.0
  0
LINE
  5
4E67
  8
0
 10
171.45303088136669
 20
79.965791957574865
 30
0.0
 11
171.45303088136669
 21
79.16579195757491
 31
0.0
  0
LINE
  5
4E68
  8
0
 62
     7
 10
174.9730308813667
 20
75.765791957574805
 30
0.0
 11
171.45303088136669
 21
75.765791957574805
 31
0.0
  0
LINE
  5
4E69
  8
0
 62
     7
 10
174.9730308813667
 20
75.765791957574805
 30
0.0
 11
175.4730308813667
 21
75.315791957574774
 31
0.0
  0
LINE
  5
4E6A
  8
0
 62
     7
 10
174.9730308813667
 20
79.16579195757491
 30
0.0
 11
171.45303088136669
 21
79.16579195757491
 31
0.0
  0
LINE
  5
4E6B
  8
0
 62
     7
 10
174.97303088136681
 20
79.16579195757491
 30
0.0
 11
175.4730308813667
 21
79.615791957574956
 31
0.0
  0
LINE
  5
4E6E
  8
0
 10
163.4530308813668
 20
85.965791957574865
 30
0.0
 11
171.45303088136669
 21
79.965791957574865
 31
0.0
  0
LINE
  5
4E73
  8
0
 10
163.45303088136669
 20
112.96579195757479
 30
0.0
 11
171.4530308813666
 21
118.96579195757469
 31
0.0
  0
LINE
  5
4E74
  8
0
 62
     7
 10
174.9730308813667
 20
119.76579195757481
 30
0.0
 11
171.45303088136669
 21
119.76579195757481
 31
0.0
  0
LINE
  5
4E75
  8
0
 10
171.45303088136669
 20
119.7657919575749
 30
0.0
 11
171.4530308813666
 21
118.96579195757469
 31
0.0
  0
LINE
  5
4E76
  8
0
 62
     7
 10
174.97303088136681
 20
119.76579195757481
 30
0.0
 11
175.4730308813667
 21
119.3157919575747
 31
0.0
  0
LINE
  5
4E77
  8
0
 62
     7
 10
174.9730308813667
 20
123.1657919575749
 30
0.0
 11
171.45303088136669
 21
123.1657919575749
 31
0.0
  0
LINE
  5
4E78
  8
0
 62
     7
 10
174.9730308813667
 20
123.1657919575749
 30
0.0
 11
175.4730308813667
 21
123.6157919575749
 31
0.0
  0
CIRCLE
  5
4E79
  8
0
 62
     7
 10
181.45303088136669
 20
136.46579195757479
 30
0.0
 40
7.0
  0
ARC
  5
4E7A
  8
0
 62
     3
 10
181.45303088136669
 20
136.46579195757479
 30
0.0
 40
6.0
 50
253.76950040672301
 51
199.43524081545999
  0
ARC
  5
4E7B
  8
0
 10
218.45303088136669
 20
99.465791957574865
 30
0.0
 40
62.0
 50
130.70613426790709
 51
139.2938657320916
  0
LINE
  5
4E7C
  8
CENTER
 10
173.55303088136671
 20
136.46579195757479
 30
0.0
 11
189.35303088136669
 21
136.46579195757479
 31
0.0
  0
LINE
  5
4E7D
  8
0
 10
228.35303088136641
 20
143.46579195757479
 30
0.0
 11
219.7530308813663
 21
143.46579195757479
 31
0.0
  0
ARC
  5
4E7E
  8
0
 62
     7
 10
240.90303088136679
 20
140.34579195757479
 30
0.0
 40
1.7
 50
270.0
 51
0.0
  0
LINE
  5
4E7F
  8
0
 10
242.15303088136679
 20
146.46579195757479
 30
0.0
 11
258.88816411967832
 21
146.46579195757479
 31
0.0
  0
CIRCLE
  5
4E80
  8
0
 62
     7
 10
255.4530308813666
 20
136.46579195757479
 30
0.0
 40
7.0
  0
ARC
  5
4E81
  8
0
 62
     3
 10
255.4530308813666
 20
136.46579195757479
 30
0.0
 40
6.0
 50
253.76950040672301
 51
199.43524081545999
  0
LINE
  5
4E82
  8
CENTER
 10
255.45303088136669
 20
144.3657919575748
 30
0.0
 11
255.45303088136669
 21
128.5657919575749
 31
0.0
  0
LINE
  5
4E83
  8
CENTER
 10
263.35303088136669
 20
136.46579195757479
 30
0.0
 11
247.55303088136671
 21
136.46579195757479
 31
0.0
  0
CIRCLE
  5
4E84
  8
0
 62
     7
 10
255.4530308813666
 20
136.46579195757479
 30
0.0
 40
5.25
  0
LINE
  5
4E85
  8
0
 62
     7
 10
242.60303088136681
 20
140.34579195757479
 30
0.0
 11
242.60303088136681
 21
142.4457919575749
 31
0.0
  0
LINE
  5
4E86
  8
0
 62
     7
 10
238.30303088136679
 20
142.4457919575749
 30
0.0
 11
238.30303088136679
 21
140.34579195757479
 31
0.0
  0
LINE
  5
4E87
  8
CENTER
 10
240.45303088136669
 20
147.09448964792551
 30
0.0
 11
240.45303088136669
 21
136.96612842527259
 31
0.0
  0
ARC
  5
4E88
  8
0
 62
     7
 10
240.00303088136681
 20
140.34579195757479
 30
0.0
 40
1.7
 50
180.0
 51
270.0
  0
LINE
  5
4E89
  8
0
 62
     7
 10
240.00303088136681
 20
138.64579195757489
 30
0.0
 11
240.90303088136679
 21
138.64579195757489
 31
0.0
  0
LINE
  5
4E8A
  8
0
 10
227.0530308813664
 20
146.46579195757479
 30
0.0
 11
234.75303088136681
 21
146.46579195757479
 31
0.0
  0
LINE
  5
4E8B
  8
0
 10
227.0530308813664
 20
146.46579195757471
 30
0.0
 11
238.75303088136681
 21
146.46579195757479
 31
0.0
  0
LINE
  5
4E8C
  8
0
 62
     7
 10
242.15303088136679
 20
142.9457919575749
 30
0.0
 11
242.15303088136679
 21
146.46579195757479
 31
0.0
  0
LINE
  5
4E8D
  8
0
 62
     7
 10
238.75303088136681
 20
142.9457919575749
 30
0.0
 11
238.75303088136681
 21
146.46579195757479
 31
0.0
  0
LINE
  5
4E8E
  8
0
 62
     7
 10
238.75303088136681
 20
142.9457919575749
 30
0.0
 11
238.30303088136679
 21
142.4457919575749
 31
0.0
  0
LINE
  5
4E8F
  8
0
 62
     7
 10
242.15303088136679
 20
142.9457919575749
 30
0.0
 11
242.60303088136681
 21
142.4457919575749
 31
0.0
  0
LINE
  5
4E90
  8
0
 10
226.85303088136641
 20
144.96579195757479
 30
0.0
 11
226.85303088136641
 21
146.26579195757481
 31
0.0
  0
LINE
  5
4E91
  8
0
 10
228.35303088136641
 20
144.76579195757481
 30
0.0
 11
227.0530308813664
 21
144.76579195757481
 31
0.0
  0
ARC
  5
4E92
  8
0
 10
227.0530308813664
 20
144.96579195757479
 30
0.0
 40
0.2
 50
180.0
 51
270.0
  0
ARC
  5
4E93
  8
0
 10
228.35303088136641
 20
144.5657919575747
 30
0.0
 40
0.2
 50
0.0
 51
90.0
  0
ARC
  5
4E94
  8
0
 10
228.35303088136641
 20
143.6657919575749
 30
0.0
 40
0.2
 50
270.0
 51
0.0
  0
LINE
  5
4E95
  8
0
 10
228.55303088136631
 20
143.6657919575749
 30
0.0
 11
228.55303088136631
 21
144.5657919575747
 31
0.0
  0
ARC
  5
4E96
  8
0
 10
227.0530308813664
 20
146.26579195757481
 30
0.0
 40
0.2
 50
90.0
 51
180.0
  0
ARC
  5
4E97
  8
0
 62
     7
 10
196.90303088136679
 20
140.3457919575749
 30
0.0
 40
1.7
 50
270.0
 51
0.0
  0
LINE
  5
4E98
  8
0
 62
     7
 10
198.15303088136679
 20
142.9457919575749
 30
0.0
 11
198.60303088136681
 21
142.4457919575749
 31
0.0
  0
LINE
  5
4E99
  8
0
 10
198.1530308813667
 20
146.46579195757471
 30
0.0
 11
209.85303088136649
 21
146.4657919575746
 31
0.0
  0
LINE
  5
4E9A
  8
0
 62
     7
 10
198.60303088136669
 20
142.4457919575749
 30
0.0
 11
198.60303088136681
 21
140.34579195757479
 31
0.0
  0
LINE
  5
4E9B
  8
0
 10
217.15303088136639
 20
143.46579195757479
 30
0.0
 11
208.5530308813664
 21
143.46579195757479
 31
0.0
  0
LINE
  5
4E9C
  8
0
 10
209.85303088136649
 20
144.76579195757481
 30
0.0
 11
208.5530308813664
 21
144.76579195757481
 31
0.0
  0
LINE
  5
4E9D
  8
0
 10
219.55303088136631
 20
143.66579195757461
 30
0.0
 11
219.55303088136631
 21
146.26579195757481
 31
0.0
  0
LINE
  5
4E9E
  8
0
 10
217.35303088136629
 20
143.66579195757461
 30
0.0
 11
217.35303088136629
 21
146.26579195757481
 31
0.0
  0
ARC
  5
4E9F
  8
0
 10
219.7530308813663
 20
143.66579195757461
 30
0.0
 40
0.2
 50
180.0
 51
270.0
  0
ARC
  5
4EA0
  8
0
 10
217.15303088136639
 20
143.66579195757461
 30
0.0
 40
0.2
 50
270.0
 51
0.0
  0
ARC
  5
4EA1
  8
0
 10
217.5530308813664
 20
146.26579195757481
 30
0.0
 40
0.2
 50
90.0
 51
180.0
  0
ARC
  5
4EA2
  8
0
 10
219.35303088136629
 20
146.26579195757481
 30
0.0
 40
0.2
 50
0.0
 51
90.0
  0
LINE
  5
4EA3
  8
0
 10
219.35303088136629
 20
146.46579195757479
 30
0.0
 11
217.5530308813664
 21
146.46579195757479
 31
0.0
  0
LINE
  5
4EA4
  8
0
 10
210.0530308813664
 20
144.96579195757479
 30
0.0
 11
210.05303088136631
 21
146.26579195757481
 31
0.0
  0
ARC
  5
4EA5
  8
0
 10
209.85303088136649
 20
144.96579195757479
 30
0.0
 40
0.2
 50
270.0
 51
0.0
  0
ARC
  5
4EA6
  8
0
 10
209.85303088136649
 20
146.26579195757481
 30
0.0
 40
0.2
 50
0.0
 51
90.0
  0
ARC
  5
4EA7
  8
0
 10
208.5530308813664
 20
143.66579195757461
 30
0.0
 40
0.2
 50
180.0
 51
270.0
  0
ARC
  5
4EA8
  8
0
 10
208.5530308813664
 20
144.5657919575747
 30
0.0
 40
0.2
 50
90.0
 51
180.0
  0
LINE
  5
4EA9
  8
0
 10
208.35303088136641
 20
143.66579195757461
 30
0.0
 11
208.35303088136641
 21
144.5657919575747
 31
0.0
  0
LINE
  5
4EAA
  8
CENTER
 10
181.45303088136669
 20
144.3657919575748
 30
0.0
 11
181.45303088136669
 21
128.5657919575749
 31
0.0
  0
LINE
  5
4EAB
  8
0
 62
     7
 10
194.30303088136679
 20
140.34579195757479
 30
0.0
 11
194.3030308813666
 21
142.4457919575749
 31
0.0
  0
LINE
  5
4EAC
  8
CENTER
 10
196.45303088136669
 20
147.09448964792551
 30
0.0
 11
196.45303088136669
 21
136.96612842527259
 31
0.0
  0
ARC
  5
4EAD
  8
0
 62
     7
 10
196.0030308813667
 20
140.3457919575749
 30
0.0
 40
1.7
 50
180.0
 51
270.0
  0
LINE
  5
4EAE
  8
0
 62
     7
 10
196.90303088136679
 20
138.64579195757489
 30
0.0
 11
196.0030308813667
 21
138.64579195757489
 31
0.0
  0
CIRCLE
  5
4EAF
  8
0
 62
     7
 10
181.45303088136669
 20
136.46579195757479
 30
0.0
 40
5.25
  0
LINE
  5
4EB0
  8
0
 10
178.01789764305531
 20
146.46579195757479
 30
0.0
 11
194.75303088136681
 21
146.46579195757471
 31
0.0
  0
LINE
  5
4EB1
  8
0
 62
     7
 10
198.15303088136679
 20
142.9457919575749
 30
0.0
 11
198.15303088136679
 21
146.46579195757479
 31
0.0
  0
LINE
  5
4EB2
  8
0
 62
     7
 10
194.75303088136681
 20
142.9457919575749
 30
0.0
 11
194.75303088136681
 21
146.46579195757479
 31
0.0
  0
LINE
  5
4EB3
  8
0
 62
     7
 10
194.75303088136681
 20
142.9457919575749
 30
0.0
 11
194.30303088136679
 21
142.4457919575749
 31
0.0
  0
LINE
  5
4EB4
  8
CENTER
 10
157.8895630887227
 20
99.465791957574865
 30
0.0
 11
270.45303088136671
 21
99.465791957574865
 31
0.0
  0
LINE
  5
4EB5
  8
0
 10
78.435661721482404
 20
146.46579195757491
 30
0.0
 11
37.43566172148234
 21
146.46579195757479
 31
0.0
  0
ARC
  5
4EB6
  8
0
 10
102.5606617214827
 20
99.465791957575092
 30
0.0
 40
18.125000000000369
 50
160.87876721463701
 51
179.9999999999998
  0
LINE
  5
4EB7
  8
0
 10
83.435661721482461
 20
120.46579195757511
 30
0.0
 11
83.435661721482333
 21
99.465791957575135
 31
0.0
  0
LINE
  5
4EB8
  8
0
 10
87.435661721482333
 20
99.465791957575092
 30
0.0
 11
85.435661721482347
 21
105.40296300109409
 31
0.0
  0
LINE
  5
4EB9
  8
0
 10
85.435661721482305
 20
99.465791957575135
 30
0.0
 11
85.435661721482404
 21
105.40296300109409
 31
0.0
  0
LINE
  5
4EBA
  8
0
 10
87.435661721482333
 20
99.465791957575092
 30
0.0
 11
89.435661721482404
 21
105.40296300109409
 31
0.0
  0
LINE
  5
4EBB
  8
0
 10
85.435661721482404
 20
105.40296300109409
 30
0.0
 11
89.435661721482404
 21
105.40296300109409
 31
0.0
  0
LINE
  5
4EBC
  8
0
 10
87.435661721482404
 20
105.40296300109409
 30
0.0
 11
87.435661721482404
 21
110.46579195757489
 31
0.0
  0
LINE
  5
4EBD
  8
0
 10
84.435661721482461
 20
111.96579195757521
 30
0.0
 11
85.435661721482404
 21
110.46579195757489
 31
0.0
  0
LINE
  5
4EBE
  8
0
 10
81.935661721482461
 20
121.96579195757511
 30
0.0
 11
78.435661721482461
 21
121.96579195757511
 31
0.0
  0
ARC
  5
4EBF
  8
0
 10
81.935661721482461
 20
120.46579195757511
 30
0.0
 40
1.5
 50
359.99999999999972
 51
89.999999999999815
  0
LINE
  5
4EC0
  8
0
 10
84.435661721482504
 20
111.96579195757511
 30
0.0
 11
83.435661721482404
 21
111.96579195757511
 31
0.0
  0
LINE
  5
4EC1
  8
0
 10
88.569636317698325
 20
110.46579195757489
 30
0.0
 11
85.435661721482404
 21
110.46579195757489
 31
0.0
  0
LINE
  5
4EC2
  8
0
 10
89.435661721482404
 20
109.96579195757511
 30
0.0
 11
88.569636317698325
 21
110.46579195757489
 31
0.0
  0
LINE
  5
4EC3
  8
0
 10
78.435661721482347
 20
85.965791957574865
 30
0.0
 11
37.43566172148234
 21
85.965791957574865
 31
0.0
  0
LINE
  5
4EC4
  8
0
 10
78.435661721482347
 20
75.765791957574805
 30
0.0
 11
37.43566172148234
 21
75.765791957574805
 31
0.0
  0
LINE
  5
4EC5
  8
0
 10
78.435661721482347
 20
79.16579195757491
 30
0.0
 11
37.43566172148234
 21
79.16579195757491
 31
0.0
  0
LINE
  5
4EC6
  8
0
 10
78.435661721482347
 20
59.030658719263442
 30
0.0
 11
37.43566172148234
 21
59.030658719263442
 31
0.0
  0
LINE
  5
4EC7
  8
0
 10
78.435661721482347
 20
112.96579195757531
 30
0.0
 11
37.43566172148234
 21
112.96579195757531
 31
0.0
  0
LINE
  5
4EC8
  8
0
 10
78.435661721482347
 20
119.7657919575753
 30
0.0
 11
37.43566172148234
 21
119.7657919575752
 31
0.0
  0
LINE
  5
4EC9
  8
0
 10
78.435661721482347
 20
123.16579195757539
 30
0.0
 11
37.43566172148234
 21
123.16579195757529
 31
0.0
  0
LINE
  5
4ECA
  8
0
 10
78.435661721482347
 20
139.9009251958868
 30
0.0
 11
37.43566172148234
 21
139.90092519588671
 31
0.0
  0
CIRCLE
  5
4ECC
  8
0
 10
65.435661721482347
 20
99.465791957575036
 30
0.0
 40
6.5042100795988063
  0
ARC
  5
4ECD
  8
0
 62
     3
 10
65.435661721482347
 20
99.465791957575036
 30
0.0
 40
7.4800177361643048
 50
160.7656408300856
 51
105.56979648685849
  0
DIMENSION
  5
4ECE
  8
DIM
  2
*D141
 10
37.43566172148234
 20
163.6027513010049
 30
0.0
 11
57.935661721482383
 21
166.1027513010049
 31
0.0
 70
     0
 13
78.435661721482404
 23
146.46579195757491
 33
0.0
 14
37.43566172148234
 24
146.46579195757491
 34
0.0
  0
LINE
  5
4EE4
  8
CENTER
 10
65.435661721482347
 20
89.134556185091625
 30
0.0
 11
65.43566172148229
 21
110.11457392125619
 31
0.0
  0
CIRCLE
  5
4EE5
  8
0
 10
50.43566172148229
 20
99.465791957575036
 30
0.0
 40
6.5042100795988063
  0
ARC
  5
4EE6
  8
0
 62
     3
 10
50.43566172148229
 20
99.465791957575036
 30
0.0
 40
7.4800177361643048
 50
166.0413341500668
 51
112.4100164318278
  0
LINE
  5
4EE7
  8
CENTER
 10
50.435661721482226
 20
89.134556185091625
 30
0.0
 11
50.435661721482347
 21
110.11457392125619
 31
0.0
  0
DIMENSION
  5
4EE8
  8
DIM
  2
*D142
 10
78.435661721482404
 20
154.4183169211673
 30
0.0
 11
71.935661721482333
 21
156.9183169211673
 31
0.0
 70
     0
 13
65.43566172148229
 23
110.11457392125619
 33
0.0
 14
78.435661721482404
 24
146.46579195757491
 34
0.0
  0
DIMENSION
  5
4EF5
  8
DIM
  2
*D143
 10
37.43566172148234
 20
154.4183169211673
 30
0.0
 11
43.935661721482347
 21
156.9183169211673
 31
0.0
 70
     0
 13
50.435661721482347
 23
110.11457392125619
 33
0.0
 14
37.43566172148234
 24
146.46579195757479
 34
0.0
  0
DIMENSION
  5
4F02
  8
DIM
  2
*D144
 10
89.435661721482404
 20
163.6027513010049
 30
0.0
 11
83.935661721482404
 21
166.1027513010049
 31
0.0
 70
     0
 13
78.435661721482404
 23
146.46579195757491
 33
0.0
 14
89.435661721482404
 24
109.96579195757511
 34
0.0
  0
DIMENSION
  5
4F0F
  8
DIM
  2
*D145
 10
37.43566172148234
 20
172.30288438112211
 30
0.0
 11
63.435661721482369
 21
174.80288438112211
 31
0.0
 70
     0
 13
89.435661721482404
 23
109.96579195757511
 33
0.0
 14
37.43566172148234
 24
146.46579195757491
 34
0.0
  0
DIMENSION
  5
4F1C
  8
DIM
  2
*D146
 10
104.4629376789146
 20
86.965791957575107
 30
0.0
 11
101.9629376789146
 21
99.46579195757522
 31
0.0
 70
     0
  1
%%c<>
 13
84.435661721482461
 23
111.96579195757521
 33
0.0
 14
84.435661721482461
 24
86.965791957575135
 34
0.0
 50
90.0
  0
DIMENSION
  5
4F29
  8
DIM
  2
*D147
 10
114.3347336851604
 20
76.965791957575135
 30
0.0
 11
111.8347336851604
 21
99.465791957575135
 31
0.0
 70
     0
  1
%%c<>
 13
81.935661721482461
 23
121.96579195757511
 33
0.0
 14
81.935661721482461
 24
76.965791957575135
 34
0.0
 50
90.0
  0
DIMENSION
  5
4F5A
  8
DIM
  2
*D148
 10
78.435661721482347
 20
42.788503985862903
 30
0.0
 11
80.935661721482333
 21
42.788503985862903
 31
0.0
 70
   128
 13
83.435661721482333
 23
78.465791957575149
 33
0.0
 14
78.435661721482347
 24
52.465791957575121
 34
0.0
  0
DIMENSION
  5
4F7D
  8
DIM
  2
*D149
 10
207.45303088136691
 20
42.696106469426581
 30
0.0
 11
218.45303088136669
 21
45.196106469426581
 31
0.0
 70
     0
 13
229.45303088136649
 23
93.528620914055466
 33
0.0
 14
207.45303088136691
 24
93.528620914055466
 34
0.0
  0
DIMENSION
  5
4F8A
  8
DIM
  2
*D150
 10
163.45303088136669
 20
163.87661320490639
 30
0.0
 11
214.45303088136669
 21
166.37661320490639
 31
0.0
 70
     0
 13
265.45303088136671
 23
139.90092519588629
 33
0.0
 14
163.45303088136669
 24
112.96579195757479
 34
0.0
  0
DIMENSION
  5
4F97
  8
DIM
  2
*D151
 10
147.36060847081711
 20
62.465791957574872
 30
0.0
 11
144.86060847081711
 21
99.465791957574893
 31
0.0
 70
     0
 13
173.55303088136671
 23
136.46579195757479
 33
0.0
 14
173.55303088136671
 24
62.465791957574872
 34
0.0
 50
90.0
  0
DIMENSION
  5
4FA4
  8
DIM
  2
*D152
 10
134.199414744904
 20
52.465791957574872
 30
0.0
 11
131.699414744904
 21
99.465791957574893
 31
0.0
 70
     0
 13
178.01789764305531
 23
146.46579195757479
 33
0.0
 14
178.01789764305531
 24
52.465791957574851
 34
0.0
 50
90.0
  0
POLYLINE
  8
0
  5
578F
  66
     1
 10
0.000000
 20
0.000000
 30
0.000000
  70
     8
  0
VERTEX
  8
0
  5
5790
 10
218.453
 20
99.4658
 30
0.000000
  70
    32
  0
VERTEX
  8
0
  5
5791
 10
165.587
 20
174.408
 30
0.000000
  70
    32
  0
VERTEX
  8
0
  5
5792
 10
162.587
 20
174.408
 30
0.000000
  70
    32
  0
SEQEND
  8
0
  5
5793
  0
TEXT
  5
4FB2
  8
0
 10
138.15832439368671
 20
175.40826934839811
 30
0.0
 40
3.0
  1
M14*2*20L
  7
CHINESET
  0
POLYLINE
  8
0
  5
5794
  66
     1
 10
0.000000
 20
0.000000
 30
0.000000
  70
     8
  0
VERTEX
  8
0
  5
5795
 10
255.453
 20
136.466
 30
0.000000
  70
    32
  0
VERTEX
  8
0
  5
5796
 10
239.277
 20
176.201
 30
0.000000
  70
    32
  0
VERTEX
  8
0
  5
5797
 10
236.277
 20
176.201
 30
0.000000
  70
    32
  0
SEQEND
  8
0
  5
5798
  0
INSERT
  5
4FB4
  8
0
  2
*U187
 10
0.0
 20
0.0
 30
0.0
  0
POLYLINE
  8
0
  5
5799
  66
     1
 10
0.000000
 20
0.000000
 30
0.000000
  70
     8
  0
VERTEX
  8
0
  5
579A
 10
51.4357
 20
99.4658
 30
0.000000
  70
    32
  0
VERTEX
  8
0
  5
579B
 10
26.9889
 20
129.978
 30
0.000000
  70
    32
  0
VERTEX
  8
0
  5
579C
 10
23.9889
 20
129.978
 30
0.000000
  70
    32
  0
SEQEND
  8
0
  5
579D
  0
TEXT
  5
5024
  8
0
 10
2.845997387748386
 20
132.26409662824139
 30
0.0
 40
3.0
  1
2-PT3/8
  7
CHINESET
  0
DIMENSION
  5
51A5
  8
DIM
  2
*D164
 10
145.14398663695511
 20
229.34831273041061
 30
0.0
 11
142.64398663695499
 21
276.34831273041061
 31
0.0
 70
     0
 13
178.01789764305531
 23
323.34831273041061
 33
0.0
 14
178.01789764305531
 24
229.34831273041061
 34
0.0
 50
90.0
  0
LINE
  5
51A6
  8
0
 10
66.200947602271299
 20
235.91317949209909
 30
0.0
 11
25.200947602271292
 21
235.91317949209909
 31
0.0
  0
LINE
  5
51A7
  8
0
 10
66.200947602271299
 20
229.34831273041081
 30
0.0
 11
25.200947602271292
 21
229.34831273041081
 31
0.0
  0
LINE
  5
51A8
  8
0
 10
66.200947602271299
 20
316.7834459687225
 30
0.0
 11
25.200947602271292
 21
316.7834459687225
 31
0.0
  0
LINE
  5
51A9
  8
0
 10
66.200947602271299
 20
300.04831273041111
 30
0.0
 11
25.200947602271292
 21
300.04831273041111
 31
0.0
  0
LINE
  5
51AA
  8
0
 10
66.200947602271299
 20
296.64831273041102
 30
0.0
 11
25.200947602271292
 21
296.64831273041102
 31
0.0
  0
LINE
  5
51AB
  8
0
 10
66.200947602271299
 20
289.84831273041112
 30
0.0
 11
25.200947602271292
 21
289.84831273041101
 31
0.0
  0
LINE
  5
51AC
  8
0
 10
66.200947602271299
 20
262.84831273041061
 30
0.0
 11
25.200947602271292
 21
262.84831273041061
 31
0.0
  0
LINE
  5
51AD
  8
0
 10
66.200947602271299
 20
256.0483127304106
 30
0.0
 11
25.200947602271292
 21
256.0483127304106
 31
0.0
  0
LINE
  5
51AE
  8
0
 10
66.200947602271299
 20
252.64831273041051
 30
0.0
 11
25.200947602271292
 21
252.64831273041051
 31
0.0
  0
LINE
  5
51AF
  8
0
 10
66.200947602271356
 20
323.34831273041061
 30
0.0
 11
25.200947602271292
 21
323.34831273041061
 31
0.0
  0
LINE
  5
51B0
  8
CENTER
 10
72.992531602040799
 20
276.34831273041078
 30
0.0
 11
17.628538542687519
 21
276.34831273041078
 31
0.0
  0
DIMENSION
  5
51B1
  8
DIM
  2
*D153
 10
25.200947602271292
 20
338.2241319542137
 30
0.0
 11
45.70094760227132
 21
340.7241319542137
 31
0.0
 70
     0
 13
66.200947602271356
 23
323.34831273041061
 33
0.0
 14
25.200947602271292
 24
323.34831273041061
 34
0.0
  0
ARC
  5
51B2
  8
0
 62
     3
 10
38.200947602271242
 20
276.34831273041078
 30
0.0
 40
7.4800177361643048
 50
166.0413341500668
 51
112.4100164318278
  0
CIRCLE
  5
51B3
  8
0
 10
38.200947602271242
 20
276.34831273041078
 30
0.0
 40
6.5042100795988063
  0
POLYLINE
  8
0
  5
579E
  66
     1
 10
0.000000
 20
0.000000
 30
0.000000
  70
     8
  0
VERTEX
  8
0
  5
579F
 10
53.2009
 20
276.507
 30
0.000000
  70
    32
  0
VERTEX
  8
0
  5
57A0
 10
80.8710
 20
230.218
 30
0.000000
  70
    32
  0
VERTEX
  8
0
  5
57A1
 10
83.8710
 20
230.218
 30
0.000000
  70
    32
  0
SEQEND
  8
0
  5
57A2
  0
LINE
  5
51B5
  8
0
 10
25.200947602271292
 20
323.34831273041061
 30
0.0
 11
25.200947602271292
 21
229.34831273041081
 31
0.0
  0
TEXT
  5
51B6
  8
0
 10
84.871004491575604
 20
232.50403710721719
 30
0.0
 40
3.0
  1
2-PT3/8
  7
CHINESET
  0
DIMENSION
  5
51B7
  8
DIM
  2
*D155
 10
25.200947602271292
 20
329.56168519241407
 30
0.0
 11
31.700947602271292
 21
332.06168519241419
 31
0.0
 70
     0
 13
38.200947602271299
 23
286.99709469409203
 33
0.0
 14
25.200947602271292
 24
323.34831273041061
 34
0.0
  0
LINE
  5
51B8
  8
CENTER
 10
38.200947602271178
 20
266.01707695792732
 30
0.0
 11
38.200947602271299
 21
286.99709469409203
 31
0.0
  0
ARC
  5
51B9
  8
0
 10
69.700947602271299
 20
255.34831273041081
 30
0.0
 40
1.5
 50
270.0
 51
0.0
  0
DIMENSION
  5
51BA
  8
DIM
  2
*D159
 10
126.9794920942597
 20
253.84831273041081
 30
0.0
 11
124.4794920942597
 21
276.34831273041078
 31
0.0
 70
     0
  1
%%c<>
 13
69.700947602271413
 23
298.84831273041078
 33
0.0
 14
69.700947602271413
 24
253.84831273041081
 34
0.0
 50
90.0
  0
LINE
  5
51BB
  8
0
 10
66.200947602271299
 20
276.34831273041078
 30
0.0
 11
66.200947602271299
 21
229.34831273041081
 31
0.0
  0
DIMENSION
  5
51BC
  8
DIM
  2
*D160
 10
66.200947602271299
 20
219.67102475869859
 30
0.0
 11
68.700947602271299
 21
219.67102475869859
 31
0.0
 70
   128
 13
71.200947602271299
 23
255.34831273041081
 33
0.0
 14
66.200947602271299
 24
229.34831273041081
 34
0.0
  0
LINE
  5
51BD
  8
0
 10
69.700947602271299
 20
253.84831273041081
 30
0.0
 11
66.200947602271299
 21
253.84831273041081
 31
0.0
  0
DIMENSION
  5
51BE
  8
DIM
  2
*D158
 10
120.3988952313034
 20
263.84831273041078
 30
0.0
 11
117.8988952313033
 21
276.3483127304109
 31
0.0
 70
     0
  1
%%c<>
 13
72.200947602271413
 23
288.84831273041101
 33
0.0
 14
72.200947602271413
 24
263.84831273041078
 34
0.0
 50
90.0
  0
LINE
  5
51BF
  8
CENTER
 10
112.6475961511055
 20
276.34831273041078
 30
0.0
 11
39.200947602271349
 21
276.34831273041078
 31
0.0
  0
LINE
  5
51C0
  8
0
 10
66.200947602271356
 20
323.34831273041061
 30
0.0
 11
66.200947602271299
 21
276.34831273041078
 31
0.0
  0
LINE
  5
51C1
  8
0
 10
66.200947602271356
 20
323.34831273041061
 30
0.0
 11
66.200947602271299
 21
276.34831273041078
 31
0.0
  0
DIMENSION
  5
51C2
  8
DIM
  2
*D154
 10
66.200947602271356
 20
329.56168519241407
 30
0.0
 11
59.700947602271299
 21
332.06168519241419
 31
0.0
 70
     0
 13
53.200947602271242
 23
286.99709469409191
 33
0.0
 14
66.200947602271356
 24
323.34831273041061
 34
0.0
  0
DIMENSION
  5
51C3
  8
DIM
  2
*D156
 10
110.2009476022713
 20
338.2241319542137
 30
0.0
 11
88.200947602271327
 21
340.7241319542137
 31
0.0
 70
     0
 13
66.200947602271356
 23
323.34831273041061
 33
0.0
 14
110.2009476022713
 24
285.84831273041061
 34
0.0
  0
CIRCLE
  5
51C4
  8
0
 10
53.200947602271299
 20
276.34831273041078
 30
0.0
 40
6.5042100795988063
  0
ARC
  5
51C5
  8
0
 62
     3
 10
53.200947602271299
 20
276.34831273041078
 30
0.0
 40
7.4800177361643048
 50
160.7656408300856
 51
105.56979648685849
  0
LINE
  5
51C6
  8
CENTER
 10
53.200947602271299
 20
266.01707695792732
 30
0.0
 11
53.200947602271242
 21
286.99709469409191
 31
0.0
  0
LINE
  5
51C7
  8
0
 10
72.200947602271413
 20
288.84831273041101
 30
0.0
 11
73.200947602271356
 21
287.34831273041061
 31
0.0
  0
LINE
  5
51C8
  8
0
 10
71.200947602271413
 20
297.34831273041078
 30
0.0
 11
71.200947602271299
 21
276.34831273041078
 31
0.0
  0
LINE
  5
51C9
  8
0
 10
75.200947602271299
 20
276.34831273041078
 30
0.0
 11
73.200947602271242
 21
270.41114168689182
 31
0.0
  0
LINE
  5
51CA
  8
0
 10
73.200947602271242
 20
276.34831273041078
 30
0.0
 11
73.200947602271299
 21
270.41114168689182
 31
0.0
  0
ARC
  5
51CB
  8
0
 10
90.325947602271697
 20
276.34831273041078
 30
0.0
 40
18.125000000000369
 50
180.0
 51
199.12123278536271
  0
LINE
  5
51CC
  8
0
 10
75.200947602271299
 20
276.34831273041078
 30
0.0
 11
77.200947602271299
 21
270.41114168689182
 31
0.0
  0
LINE
  5
51CD
  8
0
 10
71.200947602271299
 20
255.34831273041081
 30
0.0
 11
71.200947602271299
 21
276.34831273041078
 31
0.0
  0
LINE
  5
51CE
  8
0
 10
77.200947602271299
 20
287.34831273041061
 30
0.0
 11
77.200947602271299
 21
265.34831273041101
 31
0.0
  0
LINE
  5
51CF
  8
0
 10
73.200947602271299
 20
270.41114168689182
 30
0.0
 11
77.200947602271299
 21
270.41114168689182
 31
0.0
  0
LINE
  5
51D0
  8
0
 10
108.7009476022712
 20
265.3483127304109
 30
0.0
 11
100.8473224298321
 21
265.3483127304109
 31
0.0
  0
LINE
  5
51D1
  8
0
 10
72.200947602271356
 20
263.84831273041073
 30
0.0
 11
73.200947602271299
 21
265.34831273041101
 31
0.0
  0
LINE
  5
51D2
  8
0
 10
72.200947602271413
 20
263.84831273041078
 30
0.0
 11
71.200947602271299
 21
263.84831273041078
 31
0.0
  0
LINE
  5
51D3
  8
0
 10
75.200947602271299
 20
270.41114168689182
 30
0.0
 11
75.200947602271299
 21
265.34831273041101
 31
0.0
  0
LINE
  5
51D5
  8
0
 10
73.200947602271356
 20
282.28548377392991
 30
0.0
 11
77.200947602271356
 21
282.2854837739298
 31
0.0
  0
LINE
  5
51D6
  8
0
 10
108.7009476022713
 20
287.34831273041061
 30
0.0
 11
100.8473224298321
 21
287.34831273041061
 31
0.0
  0
LINE
  5
51D7
  8
0
 10
75.200947602271299
 20
276.34831273041078
 30
0.0
 11
77.200947602271356
 21
282.2854837739298
 31
0.0
  0
LINE
  5
51D8
  8
0
 10
75.200947602271299
 20
276.34831273041078
 30
0.0
 11
73.200947602271299
 21
282.2854837739298
 31
0.0
  0
LINE
  5
51D9
  8
0
 10
73.200947602271242
 20
276.34831273041078
 30
0.0
 11
73.200947602271356
 21
282.28548377392991
 31
0.0
  0
ARC
  5
51DA
  8
0
 10
90.325947602271697
 20
276.34831273041078
 30
0.0
 40
18.125000000000369
 50
160.87876721463701
 51
179.9999999999998
  0
LINE
  5
51DB
  8
0
 10
75.200947602271356
 20
282.28548377392991
 30
0.0
 11
75.200947602271356
 21
287.34831273041061
 31
0.0
  0
ARC
  5
51DD
  8
0
 10
69.700947602271413
 20
297.34831273041078
 30
0.0
 40
1.5
 50
359.99999999999972
 51
89.999999999999815
  0
LINE
  5
51DE
  8
0
 10
69.700947602271413
 20
298.84831273041078
 30
0.0
 11
66.200947602271413
 21
298.8483127304109
 31
0.0
  0
LINE
  5
51DF
  8
0
 10
72.200947602271469
 20
288.8483127304109
 30
0.0
 11
71.200947602271356
 21
288.8483127304109
 31
0.0
  0
CIRCLE
  5
51E0
  8
0
 10
218.45303088136669
 20
276.34831273041078
 30
0.0
 40
22.499999999999972
  0
LINE
  5
51E1
  8
CENTER
 10
157.8895630887227
 20
276.34831273041061
 30
0.0
 11
270.45303088136671
 21
276.34831273041061
 31
0.0
  0
DIMENSION
  5
51E2
  8
DIM
  2
*D162
 10
163.45303088136669
 20
335.29344453980531
 30
0.0
 11
214.45303088136669
 21
337.79344453980531
 31
0.0
 70
     0
 13
265.45303088136671
 23
316.78344596872199
 33
0.0
 14
163.45303088136669
 24
289.8483127304105
 34
0.0
  0
CIRCLE
  5
51E3
  8
0
 10
218.45303088136669
 20
276.34831273041078
 30
0.0
 40
41.0
  0
ARC
  5
51E4
  8
0
 10
220.23476626089081
 20
276.34831273041078
 30
0.0
 40
38.531735379524143
 50
33.064780445523311
 51
326.9352195544767
  0
LINE
  5
51E5
  8
0
 10
219.7530308813667
 20
232.34831273041061
 30
0.0
 11
228.35303088136669
 21
232.34831273041061
 31
0.0
  0
LINE
  5
51E6
  8
0
 10
212.5158598378471
 20
287.34831273041061
 30
0.0
 11
224.3902019248863
 21
287.34831273041061
 31
0.0
  0
LINE
  5
51E7
  8
0
 10
224.3902019248863
 20
265.34831273041101
 30
0.0
 11
212.5158598378471
 21
265.34831273041101
 31
0.0
  0
CIRCLE
  5
51EB
  8
0
 10
218.45303088136669
 20
276.34831273041078
 30
0.0
 40
12.50000000000008
  0
LINE
  5
51EC
  8
0
 10
228.35303088136641
 20
320.34831273041061
 30
0.0
 11
219.7530308813663
 21
320.34831273041061
 31
0.0
  0
DIMENSION
  5
51ED
  8
DIM
  2
*D161
 10
207.45303088136691
 20
219.57862724226229
 30
0.0
 11
218.45303088136669
 21
222.07862724226229
 31
0.0
 70
     0
 13
229.45303088136649
 23
270.41114168689109
 33
0.0
 14
207.45303088136691
 24
270.41114168689109
 34
0.0
  0
POLYLINE
  8
0
  5
57A3
  66
     1
 10
0.000000
 20
0.000000
 30
0.000000
  70
     8
  0
VERTEX
  8
0
  5
57A4
 10
255.453
 20
313.348
 30
0.000000
  70
    32
  0
VERTEX
  8
0
  5
57A5
 10
239.277
 20
353.083
 30
0.000000
  70
    32
  0
VERTEX
  8
0
  5
57A6
 10
236.277
 20
353.083
 30
0.000000
  70
    32
  0
SEQEND
  8
0
  5
57A7
  0
ARC
  5
51EF
  8
0
 62
     7
 10
177.57303088136669
 20
254.7983127304106
 30
0.0
 40
1.7
 50
0.0
 51
90.0
  0
DIMENSION
  5
51F0
  8
DIM
  2
*D163
 10
154.65698912747709
 20
239.34831273041061
 30
0.0
 11
152.156989127477
 21
276.34831273041061
 31
0.0
 70
     0
 13
173.55303088136671
 23
313.34831273041061
 33
0.0
 14
173.55303088136671
 24
239.34831273041061
 34
0.0
 50
90.0
  0
LINE
  5
51F1
  8
CENTER
 10
218.45303088136669
 20
328.34831273041061
 30
0.0
 11
218.45303088136669
 21
224.34831273041061
 31
0.0
  0
ARC
  5
51F2
  8
0
 62
     7
 10
177.57303088136669
 20
253.89831273041051
 30
0.0
 40
1.7
 50
270.0000000000008
 51
0.0
  0
LINE
  5
51F3
  8
CENTER
 10
170.824333191016
 20
254.34831273041061
 30
0.0
 11
180.95269441366889
 21
254.34831273041061
 31
0.0
  0
CIRCLE
  5
51F4
  8
0
 62
     7
 10
181.45303088136669
 20
239.34831273041061
 30
0.0
 40
5.25
  0
LINE
  5
51F5
  8
CENTER
 10
173.55303088136671
 20
239.34831273041061
 30
0.0
 11
189.35303088136669
 21
239.34831273041061
 31
0.0
  0
ARC
  5
51F6
  8
0
 62
     3
 10
181.45303088136669
 20
239.34831273041061
 30
0.0
 40
6.0
 50
253.76950040672301
 51
199.43524081545999
  0
CIRCLE
  5
51F7
  8
0
 62
     7
 10
181.45303088136669
 20
239.34831273041061
 30
0.0
 40
7.0
  0
LINE
  5
51F8
  8
0
 10
178.01789764305531
 20
229.34831273041061
 30
0.0
 11
194.75303088136681
 21
229.34831273041061
 31
0.0
  0
LINE
  5
51F9
  8
0
 10
171.45303088136669
 20
252.64831273041051
 30
0.0
 11
171.45303088136669
 21
235.91317949209909
 31
0.0
  0
ARC
  5
51FA
  8
0
 10
218.45303088136669
 20
276.34831273041061
 30
0.0
 40
62.0
 50
220.7061342679084
 51
229.2938657320928
  0
LINE
  5
51FB
  8
0
 62
     7
 10
174.9730308813667
 20
252.64831273041051
 30
0.0
 11
171.45303088136669
 21
252.64831273041051
 31
0.0
  0
LINE
  5
51FC
  8
0
 62
     7
 10
174.9730308813667
 20
252.64831273041051
 30
0.0
 11
175.4730308813667
 21
252.19831273041049
 31
0.0
  0
LINE
  5
51FD
  8
0
 62
     7
 10
177.57303088136669
 20
252.19831273041049
 30
0.0
 11
175.4730308813667
 21
252.19831273041049
 31
0.0
  0
LINE
  5
51FE
  8
0
 10
198.15303088136679
 20
229.34831273041061
 30
0.0
 11
209.85303088136669
 21
229.34831273041061
 31
0.0
  0
LINE
  5
51FF
  8
CENTER
 10
181.45303088136669
 20
231.02407648749181
 30
0.0
 11
181.45303088136669
 21
247.640895773268
 31
0.0
  0
LINE
  5
5200
  8
0
 62
     7
 10
179.27303088136679
 20
254.7983127304106
 30
0.0
 11
179.27303088136679
 21
253.89831273041051
 31
0.0
  0
LINE
  5
5201
  8
CENTER
 10
196.45303088136669
 20
228.71961504005989
 30
0.0
 11
196.45303088136669
 21
238.84797626271271
 31
0.0
  0
ARC
  5
5202
  8
0
 62
     7
 10
196.0030308813667
 20
235.46831273041059
 30
0.0
 40
1.7
 50
90.0
 51
180.0
  0
LINE
  5
5203
  8
0
 62
     7
 10
198.15303088136679
 20
232.86831273041059
 30
0.0
 11
198.15303088136679
 21
229.34831273041061
 31
0.0
  0
LINE
  5
5204
  8
0
 62
     7
 10
194.75303088136681
 20
232.86831273041059
 30
0.0
 11
194.75303088136681
 21
229.34831273041061
 31
0.0
  0
LINE
  5
5205
  8
0
 62
     7
 10
196.90303088136679
 20
237.16831273041061
 30
0.0
 11
196.0030308813667
 21
237.16831273041061
 31
0.0
  0
LINE
  5
5206
  8
0
 62
     7
 10
194.75303088136681
 20
232.86831273041059
 30
0.0
 11
194.30303088136679
 21
233.36831273041059
 31
0.0
  0
LINE
  5
5207
  8
0
 62
     7
 10
194.30303088136679
 20
235.4683127304107
 30
0.0
 11
194.3030308813666
 21
233.36831273041059
 31
0.0
  0
LINE
  5
5208
  8
0
 62
     7
 10
198.15303088136679
 20
232.86831273041059
 30
0.0
 11
198.60303088136681
 21
233.36831273041059
 31
0.0
  0
LINE
  5
5209
  8
0
 62
     7
 10
198.60303088136669
 20
233.36831273041059
 30
0.0
 11
198.60303088136669
 21
235.46831273041059
 31
0.0
  0
ARC
  5
520A
  8
0
 62
     7
 10
196.9030308813667
 20
235.46831273041059
 30
0.0
 40
1.7
 50
0.0
 51
90.0
  0
LINE
  5
520B
  8
0
 10
208.55303088136671
 20
232.34831273041061
 30
0.0
 11
217.15303088136679
 21
232.34831273041061
 31
0.0
  0
ARC
  5
520C
  8
0
 10
209.85303088136669
 20
229.5483127304106
 30
0.0
 40
0.2
 50
270.0
 51
0.0
  0
ARC
  5
520D
  8
0
 10
209.85303088136669
 20
230.84831273041061
 30
0.0
 40
0.2
 50
0.0
 51
90.0
  0
LINE
  5
520E
  8
0
 10
208.55303088136671
 20
231.0483127304106
 30
0.0
 11
209.85303088136669
 21
231.0483127304106
 31
0.0
  0
LINE
  5
520F
  8
0
 10
208.35303088136681
 20
232.14831273041051
 30
0.0
 11
208.35303088136681
 21
231.2483127304107
 31
0.0
  0
ARC
  5
5210
  8
0
 10
208.55303088136671
 20
231.2483127304107
 30
0.0
 40
0.2
 50
180.0
 51
270.0
  0
ARC
  5
5211
  8
0
 10
208.55303088136671
 20
232.14831273041051
 30
0.0
 40
0.2
 50
90.0
 51
180.0
  0
LINE
  5
5212
  8
0
 10
210.05303088136671
 20
230.84831273041061
 30
0.0
 11
210.05303088136671
 21
229.5483127304106
 31
0.0
  0
LINE
  5
5213
  8
0
 10
219.55303088136679
 20
232.14831273041071
 30
0.0
 11
219.55303088136679
 21
229.5483127304106
 31
0.0
  0
LINE
  5
5214
  8
0
 10
217.35303088136681
 20
232.14831273041071
 30
0.0
 11
217.35303088136681
 21
229.5483127304106
 31
0.0
  0
LINE
  5
5215
  8
0
 10
217.55303088136679
 20
229.34831273041061
 30
0.0
 11
219.35303088136669
 21
229.34831273041061
 31
0.0
  0
ARC
  5
5216
  8
0
 10
217.55303088136679
 20
229.5483127304106
 30
0.0
 40
0.2
 50
180.0
 51
270.0
  0
ARC
  5
5217
  8
0
 10
219.35303088136669
 20
229.5483127304106
 30
0.0
 40
0.2
 50
270.0
 51
0.0
  0
ARC
  5
5218
  8
0
 10
217.15303088136679
 20
232.14831273041071
 30
0.0
 40
0.2
 50
0.0
 51
90.0
  0
ARC
  5
5219
  8
0
 10
219.7530308813667
 20
232.14831273041071
 30
0.0
 40
0.2
 50
90.0
 51
180.0
  0
CIRCLE
  5
521A
  8
0
 62
     7
 10
181.45303088136669
 20
313.34831273041061
 30
0.0
 40
5.25
  0
ARC
  5
521B
  8
0
 62
     3
 10
181.45303088136669
 20
313.34831273041061
 30
0.0
 40
6.0
 50
253.76950040672301
 51
199.43524081545999
  0
CIRCLE
  5
521C
  8
0
 62
     7
 10
181.45303088136669
 20
313.34831273041061
 30
0.0
 40
7.0
  0
ARC
  5
521D
  8
0
 62
     7
 10
177.57303088136669
 20
297.89831273041051
 30
0.0
 40
1.7
 50
270.0
 51
0.0
  0
ARC
  5
521E
  8
0
 62
     7
 10
177.57303088136669
 20
298.7983127304106
 30
0.0
 40
1.7
 50
0.0
 51
89.999999999999204
  0
LINE
  5
521F
  8
CENTER
 10
170.824333191016
 20
298.34831273041061
 30
0.0
 11
180.95269441366889
 21
298.34831273041061
 31
0.0
  0
LINE
  5
5220
  8
CENTER
 10
173.55303088136671
 20
313.34831273041061
 30
0.0
 11
189.35303088136669
 21
313.34831273041061
 31
0.0
  0
LINE
  5
5221
  8
0
 10
178.01789764305531
 20
323.34831273041061
 30
0.0
 11
194.75303088136681
 21
323.3483127304105
 31
0.0
  0
ARC
  5
5223
  8
0
 10
218.45303088136669
 20
276.34831273041061
 30
0.0
 40
62.0
 50
130.70613426790709
 51
139.2938657320916
  0
LINE
  5
5224
  8
0
 10
163.45303088136669
 20
289.8483127304105
 30
0.0
 11
163.4530308813668
 21
262.84831273041061
 31
0.0
  0
LINE
  5
5225
  8
0
 10
163.4530308813668
 20
262.84831273041061
 30
0.0
 11
171.45303088136669
 21
256.8483127304105
 31
0.0
  0
LINE
  5
5226
  8
0
 62
     7
 10
174.9730308813667
 20
256.0483127304106
 30
0.0
 11
171.45303088136669
 21
256.0483127304106
 31
0.0
  0
LINE
  5
5227
  8
0
 10
171.45303088136669
 20
256.8483127304105
 30
0.0
 11
171.45303088136669
 21
256.0483127304106
 31
0.0
  0
LINE
  5
5228
  8
0
 62
     7
 10
174.97303088136681
 20
256.0483127304106
 30
0.0
 11
175.4730308813667
 21
256.4983127304107
 31
0.0
  0
LINE
  5
5229
  8
0
 62
     7
 10
175.4730308813667
 20
256.49831273041059
 30
0.0
 11
177.57303088136669
 21
256.4983127304107
 31
0.0
  0
LINE
  5
522A
  8
0
 10
163.45303088136669
 20
289.8483127304105
 30
0.0
 11
171.4530308813666
 21
295.8483127304105
 31
0.0
  0
LINE
  5
522B
  8
0
 10
171.45303088136669
 20
316.78344596872199
 30
0.0
 11
171.45303088136669
 21
300.0483127304106
 31
0.0
  0
LINE
  5
522C
  8
0
 62
     7
 10
174.9730308813667
 20
300.0483127304106
 30
0.0
 11
171.45303088136669
 21
300.0483127304106
 31
0.0
  0
LINE
  5
522D
  8
0
 62
     7
 10
174.9730308813667
 20
296.64831273041051
 30
0.0
 11
171.45303088136669
 21
296.64831273041051
 31
0.0
  0
LINE
  5
522E
  8
0
 10
171.45303088136669
 20
296.64831273041068
 30
0.0
 11
171.4530308813666
 21
295.8483127304105
 31
0.0
  0
LINE
  5
522F
  8
0
 62
     7
 10
174.9730308813667
 20
300.0483127304106
 30
0.0
 11
175.4730308813667
 21
300.49831273041059
 31
0.0
  0
LINE
  5
5230
  8
0
 62
     7
 10
174.97303088136681
 20
296.64831273041051
 30
0.0
 11
175.4730308813667
 21
296.19831273041052
 31
0.0
  0
LINE
  5
5231
  8
0
 62
     7
 10
177.57303088136669
 20
300.49831273041059
 30
0.0
 11
175.4730308813667
 21
300.49831273041059
 31
0.0
  0
LINE
  5
5232
  8
0
 62
     7
 10
175.4730308813667
 20
296.19831273041058
 30
0.0
 11
177.57303088136669
 21
296.19831273041058
 31
0.0
  0
LINE
  5
5234
  8
0
 62
     7
 10
198.15303088136679
 20
319.82831273041057
 30
0.0
 11
198.15303088136679
 21
323.34831273041061
 31
0.0
  0
LINE
  5
5235
  8
0
 62
     7
 10
194.75303088136681
 20
319.82831273041057
 30
0.0
 11
194.75303088136681
 21
323.34831273041061
 31
0.0
  0
LINE
  5
5236
  8
CENTER
 10
181.45303088136669
 20
321.24831273041059
 30
0.0
 11
181.45303088136669
 21
305.44831273041058
 31
0.0
  0
LINE
  5
5237
  8
CENTER
 10
196.45303088136669
 20
323.9770104207613
 30
0.0
 11
196.45303088136669
 21
313.84864919810838
 31
0.0
  0
LINE
  5
5238
  8
0
 62
     7
 10
179.27303088136679
 20
297.89831273041051
 30
0.0
 11
179.27303088136679
 21
298.7983127304106
 31
0.0
  0
ARC
  5
5239
  8
0
 62
     7
 10
196.0030308813667
 20
317.22831273041072
 30
0.0
 40
1.7
 50
180.0
 51
270.0
  0
LINE
  5
523A
  8
0
 62
     7
 10
196.90303088136679
 20
315.52831273041062
 30
0.0
 11
196.0030308813667
 21
315.52831273041062
 31
0.0
  0
LINE
  5
523B
  8
0
 62
     7
 10
194.75303088136681
 20
319.82831273041057
 30
0.0
 11
194.30303088136679
 21
319.32831273041057
 31
0.0
  0
LINE
  5
523C
  8
0
 62
     7
 10
194.30303088136679
 20
317.22831273041061
 30
0.0
 11
194.3030308813666
 21
319.32831273041057
 31
0.0
  0
LINE
  5
523D
  8
0
 62
     7
 10
198.15303088136679
 20
319.82831273041057
 30
0.0
 11
198.60303088136681
 21
319.32831273041057
 31
0.0
  0
LINE
  5
523E
  8
0
 62
     7
 10
198.60303088136669
 20
319.32831273041057
 30
0.0
 11
198.60303088136681
 21
317.22831273041061
 31
0.0
  0
ARC
  5
523F
  8
0
 62
     7
 10
196.90303088136679
 20
317.22831273041072
 30
0.0
 40
1.7
 50
270.0
 51
0.0
  0
LINE
  5
5240
  8
0
 10
207.45303088136691
 20
270.4111416868912
 30
0.0
 11
207.45303088136691
 21
282.28548377393042
 31
0.0
  0
LINE
  5
5241
  8
0
 10
198.1530308813667
 20
323.3483127304105
 30
0.0
 11
209.85303088136649
 21
323.34831273041033
 31
0.0
  0
LINE
  5
5242
  8
0
 10
217.15303088136639
 20
320.34831273041061
 30
0.0
 11
208.5530308813664
 21
320.34831273041061
 31
0.0
  0
ARC
  5
5243
  8
0
 10
209.85303088136649
 20
321.84831273041061
 30
0.0
 40
0.2
 50
270.0
 51
0.0
  0
ARC
  5
5244
  8
0
 10
209.85303088136649
 20
323.14831273041051
 30
0.0
 40
0.2
 50
0.0
 51
90.0
  0
LINE
  5
5245
  8
0
 10
209.85303088136649
 20
321.64831273041051
 30
0.0
 11
208.5530308813664
 21
321.64831273041051
 31
0.0
  0
ARC
  5
5246
  8
0
 10
208.5530308813664
 20
321.44831273041052
 30
0.0
 40
0.2
 50
90.0
 51
180.0
  0
ARC
  5
5247
  8
0
 10
208.5530308813664
 20
320.54831273041037
 30
0.0
 40
0.2
 50
180.0
 51
270.0
  0
LINE
  5
5248
  8
0
 10
208.35303088136641
 20
320.54831273041037
 30
0.0
 11
208.35303088136641
 21
321.44831273041052
 31
0.0
  0
LINE
  5
5249
  8
0
 10
210.0530308813664
 20
321.84831273041061
 30
0.0
 11
210.05303088136631
 21
323.14831273041051
 31
0.0
  0
LINE
  5
524A
  8
0
 10
219.35303088136629
 20
323.34831273041061
 30
0.0
 11
217.5530308813664
 21
323.34831273041061
 31
0.0
  0
ARC
  5
524B
  8
0
 10
217.5530308813664
 20
323.14831273041051
 30
0.0
 40
0.2
 50
90.0
 51
180.0
  0
ARC
  5
524C
  8
0
 10
217.15303088136639
 20
320.54831273041037
 30
0.0
 40
0.2
 50
270.0
 51
0.0
  0
LINE
  5
524D
  8
0
 10
217.35303088136629
 20
320.54831273041037
 30
0.0
 11
217.35303088136629
 21
323.14831273041051
 31
0.0
  0
ARC
  5
524E
  8
0
 10
219.35303088136629
 20
323.14831273041051
 30
0.0
 40
0.2
 50
0.0
 51
90.0
  0
ARC
  5
524F
  8
0
 10
219.7530308813663
 20
320.54831273041037
 30
0.0
 40
0.2
 50
180.0
 51
270.0
  0
LINE
  5
5250
  8
0
 10
219.55303088136631
 20
320.54831273041037
 30
0.0
 11
219.55303088136631
 21
323.14831273041051
 31
0.0
  0
ARC
  5
5251
  8
0
 62
     7
 10
259.33303088136671
 20
254.7983127304106
 30
0.0
 40
1.7
 50
90.0
 51
180.0
  0
LINE
  5
5252
  8
0
 62
     7
 10
261.93303088136679
 20
252.64831273041051
 30
0.0
 11
265.45303088136671
 21
252.64831273041051
 31
0.0
  0
LINE
  5
5253
  8
CENTER
 10
266.08172857171741
 20
254.34831273041061
 30
0.0
 11
255.95336734906451
 21
254.34831273041061
 31
0.0
  0
ARC
  5
5254
  8
0
 10
218.45303088136669
 20
276.34831273041061
 30
0.0
 40
62.0
 50
310.7061342679084
 51
319.2938657320916
  0
LINE
  5
5255
  8
CENTER
 10
263.35303088136669
 20
239.34831273041061
 30
0.0
 11
247.55303088136671
 21
239.34831273041061
 31
0.0
  0
ARC
  5
5256
  8
0
 62
     7
 10
240.90303088136679
 20
235.46831273041059
 30
0.0
 40
1.7
 50
0.0
 51
90.0
  0
LINE
  5
5257
  8
0
 10
227.05303088136671
 20
229.34831273041061
 30
0.0
 11
238.75303088136681
 21
229.34831273041061
 31
0.0
  0
LINE
  5
5258
  8
0
 10
226.85303088136669
 20
230.84831273041061
 30
0.0
 11
226.85303088136681
 21
229.5483127304106
 31
0.0
  0
ARC
  5
5259
  8
0
 10
227.05303088136671
 20
229.5483127304106
 30
0.0
 40
0.2
 50
180.0
 51
270.0
  0
ARC
  5
525A
  8
0
 10
228.35303088136669
 20
231.2483127304107
 30
0.0
 40
0.2
 50
270.0
 51
0.0
  0
ARC
  5
525B
  8
0
 10
228.35303088136669
 20
232.14831273041071
 30
0.0
 40
0.2
 50
0.0
 51
90.0
  0
LINE
  5
525C
  8
0
 10
227.05303088136671
 20
231.0483127304106
 30
0.0
 11
228.35303088136669
 21
231.0483127304106
 31
0.0
  0
ARC
  5
525D
  8
0
 10
227.05303088136671
 20
230.84831273041061
 30
0.0
 40
0.2
 50
90.0
 51
180.0
  0
LINE
  5
525E
  8
0
 10
228.55303088136679
 20
232.14831273041071
 30
0.0
 11
228.55303088136679
 21
231.2483127304107
 31
0.0
  0
LINE
  5
525F
  8
CENTER
 10
240.45303088136669
 20
228.71961504005989
 30
0.0
 11
240.45303088136669
 21
238.84797626271271
 31
0.0
  0
LINE
  5
5260
  8
0
 62
     7
 10
238.75303088136681
 20
232.86831273041059
 30
0.0
 11
238.75303088136681
 21
229.34831273041061
 31
0.0
  0
ARC
  5
5261
  8
0
 62
     7
 10
240.0030308813667
 20
235.46831273041059
 30
0.0
 40
1.7
 50
90.0
 51
180.0
  0
LINE
  5
5262
  8
0
 62
     7
 10
238.75303088136681
 20
232.86831273041059
 30
0.0
 11
238.30303088136679
 21
233.36831273041059
 31
0.0
  0
LINE
  5
5263
  8
0
 62
     7
 10
238.30303088136679
 20
233.36831273041059
 30
0.0
 11
238.30303088136679
 21
235.46831273041059
 31
0.0
  0
LINE
  5
5264
  8
0
 62
     7
 10
240.0030308813667
 20
237.16831273041061
 30
0.0
 11
240.90303088136679
 21
237.16831273041061
 31
0.0
  0
LINE
  5
5265
  8
0
 10
242.15303088136679
 20
229.34831273041061
 30
0.0
 11
258.88816411967832
 21
229.34831273041061
 31
0.0
  0
CIRCLE
  5
5266
  8
0
 62
     7
 10
255.45303088136669
 20
239.34831273041061
 30
0.0
 40
5.25
  0
ARC
  5
5267
  8
0
 62
     3
 10
255.45303088136669
 20
239.34831273041061
 30
0.0
 40
6.0
 50
253.76950040672301
 51
199.43524081545999
  0
CIRCLE
  5
5268
  8
0
 62
     7
 10
255.45303088136669
 20
239.34831273041061
 30
0.0
 40
7.0
  0
LINE
  5
5269
  8
0
 62
     7
 10
242.15303088136679
 20
232.86831273041059
 30
0.0
 11
242.15303088136679
 21
229.34831273041061
 31
0.0
  0
LINE
  5
526A
  8
0
 62
     7
 10
242.15303088136679
 20
232.86831273041059
 30
0.0
 11
242.60303088136681
 21
233.36831273041059
 31
0.0
  0
LINE
  5
526B
  8
0
 62
     7
 10
242.60303088136681
 20
235.4683127304107
 30
0.0
 11
242.60303088136681
 21
233.36831273041059
 31
0.0
  0
LINE
  5
526C
  8
CENTER
 10
255.45303088136669
 20
231.44831273041061
 30
0.0
 11
255.45303088136669
 21
247.2483127304105
 31
0.0
  0
ARC
  5
526D
  8
0
 62
     7
 10
259.33303088136671
 20
253.89831273041051
 30
0.0
 40
1.7
 50
180.0
 51
269.9999999999992
  0
LINE
  5
526E
  8
0
 62
     7
 10
257.63303088136678
 20
254.7983127304106
 30
0.0
 11
257.63303088136678
 21
253.89831273041051
 31
0.0
  0
LINE
  5
526F
  8
0
 62
     7
 10
259.33303088136671
 20
252.19831273041049
 30
0.0
 11
261.43303088136668
 21
252.19831273041049
 31
0.0
  0
LINE
  5
5270
  8
0
 62
     7
 10
261.93303088136679
 20
252.64831273041051
 30
0.0
 11
261.43303088136668
 21
252.19831273041049
 31
0.0
  0
LINE
  5
5271
  8
0
 10
265.45303088136671
 20
252.64831273041051
 30
0.0
 11
265.45303088136671
 21
235.91317949209909
 31
0.0
  0
LINE
  5
5272
  8
0
 62
     7
 10
261.93303088136679
 20
300.0483127304106
 30
0.0
 11
265.45303088136671
 21
300.0483127304106
 31
0.0
  0
LINE
  5
5273
  8
0
 62
     7
 10
261.93303088136679
 20
296.64831273041051
 30
0.0
 11
265.45303088136671
 21
296.64831273041051
 31
0.0
  0
LINE
  5
5274
  8
0
 10
262.65303088136642
 20
286.44831273041069
 30
0.0
 11
263.55303088136651
 21
286.44831273041069
 31
0.0
  0
LINE
  5
5275
  8
CENTER
 10
266.08172857171741
 20
298.34831273041061
 30
0.0
 11
255.95336734906451
 21
298.34831273041061
 31
0.0
  0
LINE
  5
5276
  8
0
 10
262.65303088136642
 20
275.24831273041087
 30
0.0
 11
265.25303088136661
 21
275.24831273041087
 31
0.0
  0
LINE
  5
5277
  8
0
 10
262.65303088136642
 20
277.44831273041069
 30
0.0
 11
265.25303088136661
 21
277.44831273041081
 31
0.0
  0
LINE
  5
5278
  8
0
 10
262.65303088136659
 20
266.24831273041087
 30
0.0
 11
263.55303088136651
 21
266.24831273041087
 31
0.0
  0
LINE
  5
5279
  8
0
 62
     7
 10
261.93303088136679
 20
256.0483127304106
 30
0.0
 11
265.45303088136671
 21
256.0483127304106
 31
0.0
  0
LINE
  5
527A
  8
CENTER
 10
263.35303088136669
 20
313.34831273041061
 30
0.0
 11
247.55303088136671
 21
313.34831273041061
 31
0.0
  0
ARC
  5
527B
  8
0
 10
218.45303088136669
 20
276.34831273041061
 30
0.0
 40
62.0
 50
40.706134267907842
 51
49.293865732091611
  0
LINE
  5
527C
  8
0
 62
     7
 10
242.15303088136679
 20
319.82831273041057
 30
0.0
 11
242.15303088136679
 21
323.34831273041061
 31
0.0
  0
LINE
  5
527D
  8
0
 62
     7
 10
238.75303088136681
 20
319.82831273041057
 30
0.0
 11
238.75303088136681
 21
323.34831273041061
 31
0.0
  0
LINE
  5
527E
  8
CENTER
 10
240.45303088136669
 20
323.9770104207613
 30
0.0
 11
240.45303088136669
 21
313.84864919810838
 31
0.0
  0
LINE
  5
527F
  8
CENTER
 10
255.45303088136669
 20
321.24831273041059
 30
0.0
 11
255.45303088136669
 21
305.44831273041058
 31
0.0
  0
CIRCLE
  5
5280
  8
0
 62
     7
 10
255.4530308813666
 20
313.34831273041061
 30
0.0
 40
7.0
  0
ARC
  5
5281
  8
0
 62
     7
 10
240.90303088136679
 20
317.22831273041061
 30
0.0
 40
1.7
 50
270.0
 51
0.0
  0
LINE
  5
5282
  8
0
 10
229.45303088136649
 20
282.28548377393042
 30
0.0
 11
229.45303088136649
 21
270.4111416868912
 31
0.0
  0
ARC
  5
5283
  8
0
 62
     7
 10
240.00303088136681
 20
317.22831273041061
 30
0.0
 40
1.7
 50
180.0
 51
270.0
  0
LINE
  5
5284
  8
0
 62
     7
 10
238.75303088136681
 20
319.82831273041057
 30
0.0
 11
238.30303088136679
 21
319.32831273041057
 31
0.0
  0
LINE
  5
5285
  8
0
 62
     7
 10
238.30303088136679
 20
319.32831273041057
 30
0.0
 11
238.30303088136679
 21
317.22831273041061
 31
0.0
  0
LINE
  5
5286
  8
0
 62
     7
 10
240.00303088136681
 20
315.52831273041062
 30
0.0
 11
240.90303088136679
 21
315.52831273041062
 31
0.0
  0
ARC
  5
5287
  8
0
 10
255.61841148920189
 20
290.44785117231578
 30
0.0
 40
4.0
 50
200.77538824967931
 51
285.0
  0
ARC
  5
5288
  8
0
 10
255.61841148920169
 20
262.24877428850579
 30
0.0
 40
4.0
 50
75.000000000000853
 51
159.22461175031711
  0
ARC
  5
5289
  8
0
 10
249.17423370609771
 20
257.50824977113979
 30
0.0
 40
4.0
 50
326.9352195544767
 51
36.339280608073352
  0
ARC
  5
528A
  8
0
 10
255.61841148920169
 20
262.24877428850579
 30
0.0
 40
4.0
 50
159.22461175031711
 51
216.3392806080733
  0
ARC
  5
528B
  8
0
 10
218.45303088136669
 20
276.34831273041078
 30
0.0
 40
35.75
 50
339.22461175031708
 51
339.22461175031708
  0
LINE
  5
528C
  8
0
 10
262.4530308813666
 20
266.44831273041069
 30
0.0
 11
262.4530308813666
 21
275.04831273041088
 31
0.0
  0
LINE
  5
528D
  8
0
 10
256.65368766961188
 20
266.11247759366211
 30
0.0
 11
258.05598975921862
 21
265.7367318812075
 31
0.0
  0
CIRCLE
  5
528E
  8
0
 10
255.61841148920169
 20
262.24877428850579
 30
0.0
 40
1.25
  0
LINE
  5
528F
  8
0
 62
     7
 10
261.43303088136668
 20
256.49831273041059
 30
0.0
 11
259.33303088136671
 21
256.49831273041059
 31
0.0
  0
LINE
  5
5290
  8
0
 62
     7
 10
261.93303088136679
 20
256.0483127304106
 30
0.0
 11
261.43303088136668
 21
256.4983127304107
 31
0.0
  0
ARC
  5
5291
  8
0
 10
262.65303088136659
 20
266.44831273041069
 30
0.0
 40
0.2
 50
180.0
 51
270.00000000000159
  0
LINE
  5
5292
  8
0
 10
256.65368766961188
 20
286.58414786715952
 30
0.0
 11
258.05598975921862
 21
286.95989357961412
 31
0.0
  0
LINE
  5
5293
  8
0
 10
262.4530308813666
 20
277.64831273041068
 30
0.0
 11
262.4530308813666
 21
286.24831273041059
 31
0.0
  0
ARC
  5
5294
  8
0
 10
262.65303088136642
 20
277.64831273041068
 30
0.0
 40
0.2
 50
180.0
 51
270.0
  0
ARC
  5
5295
  8
0
 10
262.65303088136642
 20
275.04831273041071
 30
0.0
 40
0.2
 50
90.0
 51
180.0
  0
ARC
  5
5296
  8
0
 10
262.65303088136642
 20
286.24831273041059
 30
0.0
 40
0.2
 50
89.999999999998394
 51
180.0
  0
ARC
  5
5297
  8
0
 10
249.17423370609771
 20
295.18837568968178
 30
0.0
 40
4.0
 50
323.66071939192659
 51
33.064780445523311
  0
CIRCLE
  5
5298
  8
0
 62
     7
 10
255.4530308813666
 20
313.34831273041061
 30
0.0
 40
5.25
  0
ARC
  5
5299
  8
DIM
 10
255.4530308813666
 20
313.34831273041061
 30
0.0
 40
6.0
 50
253.76950040672301
 51
199.43524081545999
  0
ARC
  5
529A
  8
0
 10
218.45303088136669
 20
276.34831273041078
 30
0.0
 40
35.75
 50
20.775388249682852
 51
20.775388249682852
  0
ARC
  5
529B
  8
0
 10
255.61841148920189
 20
290.44785117231578
 30
0.0
 40
4.0
 50
143.66071939192659
 51
200.77538824967931
  0
LINE
  5
529C
  8
0
 62
     7
 10
242.15303088136679
 20
319.82831273041057
 30
0.0
 11
242.60303088136681
 21
319.32831273041057
 31
0.0
  0
LINE
  5
529D
  8
0
 62
     7
 10
242.60303088136681
 20
317.22831273041061
 30
0.0
 11
242.60303088136681
 21
319.32831273041057
 31
0.0
  0
ARC
  5
529E
  8
0
 62
     7
 10
259.33303088136671
 20
298.7983127304106
 30
0.0
 40
1.7
 50
90.00000000000081
 51
180.0
  0
ARC
  5
529F
  8
0
 62
     7
 10
259.33303088136671
 20
297.89831273041051
 30
0.0
 40
1.7
 50
180.0
 51
270.0
  0
CIRCLE
  5
52A0
  8
0
 10
255.61841148920189
 20
290.44785117231578
 30
0.0
 40
1.25
  0
LINE
  5
52A1
  8
0
 62
     7
 10
257.63303088136678
 20
297.89831273041051
 30
0.0
 11
257.63303088136678
 21
298.7983127304106
 31
0.0
  0
LINE
  5
52A2
  8
0
 62
     7
 10
259.33303088136671
 20
300.49831273041059
 30
0.0
 11
261.43303088136668
 21
300.49831273041059
 31
0.0
  0
LINE
  5
52A3
  8
0
 62
     7
 10
261.43303088136668
 20
296.19831273041058
 30
0.0
 11
259.33303088136671
 21
296.19831273041052
 31
0.0
  0
LINE
  5
52A4
  8
0
 62
     7
 10
261.93303088136679
 20
300.0483127304106
 30
0.0
 11
261.43303088136668
 21
300.49831273041059
 31
0.0
  0
LINE
  5
52A5
  8
0
 62
     7
 10
261.93303088136679
 20
296.64831273041051
 30
0.0
 11
261.43303088136668
 21
296.19831273041052
 31
0.0
  0
LINE
  5
52A6
  8
0
 10
227.0530308813664
 20
323.3483127304105
 30
0.0
 11
238.75303088136681
 21
323.34831273041061
 31
0.0
  0
LINE
  5
52A7
  8
0
 10
227.0530308813664
 20
323.34831273041061
 30
0.0
 11
234.75303088136681
 21
323.34831273041061
 31
0.0
  0
ARC
  5
52A8
  8
0
 10
228.35303088136641
 20
321.44831273041052
 30
0.0
 40
0.2
 50
0.0
 51
90.0
  0
ARC
  5
52A9
  8
0
 10
228.35303088136641
 20
320.5483127304106
 30
0.0
 40
0.2
 50
270.0
 51
0.0
  0
ARC
  5
52AA
  8
0
 10
227.0530308813664
 20
323.14831273041051
 30
0.0
 40
0.2
 50
90.0
 51
180.0
  0
LINE
  5
52AB
  8
0
 10
228.35303088136641
 20
321.64831273041051
 30
0.0
 11
227.0530308813664
 21
321.64831273041051
 31
0.0
  0
ARC
  5
52AC
  8
0
 10
227.0530308813664
 20
321.84831273041061
 30
0.0
 40
0.2
 50
180.0
 51
270.0
  0
LINE
  5
52AD
  8
0
 10
228.55303088136631
 20
320.5483127304106
 30
0.0
 11
228.55303088136631
 21
321.44831273041052
 31
0.0
  0
LINE
  5
52AE
  8
0
 10
226.85303088136641
 20
321.84831273041061
 30
0.0
 11
226.85303088136641
 21
323.14831273041051
 31
0.0
  0
LINE
  5
52AF
  8
0
 10
242.15303088136679
 20
323.34831273041061
 30
0.0
 11
258.88816411967832
 21
323.34831273041061
 31
0.0
  0
LINE
  5
52B0
  8
0
 10
265.45303088136671
 20
296.64831273041051
 30
0.0
 11
265.45303088136671
 21
284.94831273041069
 31
0.0
  0
LINE
  5
52B1
  8
0
 10
265.45303088136671
 20
267.74831273041082
 30
0.0
 11
265.45303088136671
 21
256.0483127304106
 31
0.0
  0
ARC
  5
52B2
  8
0
 10
265.25303088136639
 20
267.74831273041082
 30
0.0
 40
0.2
 50
0.0
 51
90.0
  0
ARC
  5
52B3
  8
0
 10
263.9530308813666
 20
267.74831273041082
 30
0.0
 40
0.2
 50
90.0
 51
180.0
  0
LINE
  5
52B4
  8
0
 10
263.9530308813666
 20
267.94831273041081
 30
0.0
 11
265.25303088136661
 21
267.94831273041081
 31
0.0
  0
ARC
  5
52B5
  8
0
 10
263.55303088136651
 20
266.44831273041069
 30
0.0
 40
0.2
 50
270.0
 51
0.0
  0
LINE
  5
52B6
  8
0
 10
263.75303088136661
 20
266.44831273041069
 30
0.0
 11
263.75303088136661
 21
267.74831273041082
 31
0.0
  0
ARC
  5
52B7
  8
0
 10
265.25303088136639
 20
277.2483127304107
 30
0.0
 40
0.2
 50
0.0
 51
90.0
  0
ARC
  5
52B8
  8
0
 10
265.25303088136639
 20
275.44831273041069
 30
0.0
 40
0.2
 50
270.0
 51
0.0
  0
LINE
  5
52B9
  8
0
 10
265.4530308813666
 20
275.44831273041069
 30
0.0
 11
265.4530308813666
 21
277.2483127304107
 31
0.0
  0
ARC
  5
52BA
  8
0
 10
265.25303088136639
 20
284.94831273041069
 30
0.0
 40
0.2
 50
270.0
 51
0.0
  0
LINE
  5
52BB
  8
0
 10
263.75303088136661
 20
284.94831273041069
 30
0.0
 11
263.75303088136661
 21
286.24831273041059
 31
0.0
  0
ARC
  5
52BC
  8
0
 10
263.9530308813666
 20
284.94831273041069
 30
0.0
 40
0.2
 50
180.0
 51
270.0
  0
ARC
  5
52BD
  8
0
 10
263.55303088136651
 20
286.24831273041059
 30
0.0
 40
0.2
 50
0.0
 51
89.999999999999204
  0
LINE
  5
52BE
  8
0
 10
263.9530308813666
 20
284.74831273041082
 30
0.0
 11
265.25303088136661
 21
284.74831273041082
 31
0.0
  0
LINE
  5
52BF
  8
0
 10
265.45303088136671
 20
316.78344596872222
 30
0.0
 11
265.45303088136671
 21
300.04831273041049
 31
0.0
  0
DIMENSION
  5
52C0
  8
DIM
  2
*D157
 10
25.200947602271292
 20
346.92426503433092
 30
0.0
 11
67.700947602271299
 21
349.42426503433092
 31
0.0
 70
     0
 13
110.2009476022713
 23
285.84831273041061
 33
0.0
 14
25.200947602271292
 24
323.34831273041061
 34
0.0
  0
INSERT
  5
52C1
  8
0
  2
*U188
 10
0.0
 20
0.0
 30
0.0
  0
LINE
  5
551F
  8
0
 10
110.2009476022713
 20
285.84831273041061
 30
0.0
 11
110.2009476022712
 21
266.84831273041101
 31
0.0
  0
LINE
  5
553B
  8
0
 10
108.7009476022713
 20
287.34831273041061
 30
0.0
 11
110.2009476022713
 21
285.84831273041061
 31
0.0
  0
LINE
  5
553C
  8
0
 10
110.2009476022712
 20
266.84831273041101
 30
0.0
 11
108.7009476022712
 21
265.3483127304109
 31
0.0
  0
LINE
  5
553D
  8
0
 10
108.7009476022713
 20
287.34831273041061
 30
0.0
 11
108.7009476022712
 21
265.3483127304109
 31
0.0
  0
LINE
  5
553E
  8
0
 10
109.4509476022712
 20
286.59831273041061
 30
0.0
 11
100.8473224298321
 21
286.59831273041061
 31
0.0
  0
LINE
  5
553F
  8
0
 10
109.4509476022712
 20
266.09831273041101
 30
0.0
 11
100.8473224298321
 21
266.09831273041101
 31
0.0
  0
LINE
  5
5540
  8
0
 10
80.200947602271313
 20
287.34831273041061
 30
0.0
 11
80.200947602271285
 21
265.3483127304109
 31
0.0
  0
DIMENSION
  5
5553
  8
DIM
  2
*D165
 10
80.200947602271313
 20
329.56168519241407
 30
0.0
 11
95.200947602271313
 21
332.06168519241419
 31
0.0
 70
     0
 13
110.2009476022713
 23
285.84831273041061
 33
0.0
 14
80.200947602271313
 24
287.34831273041061
 34
0.0
  0
ARC
  5
5573
  8
0
 10
68.847322429832147
 20
276.34831273041078
 30
0.0
 40
32.000000000000028
 50
343.02328118023451
 51
16.976718819765491
  0
LINE
  5
5574
  8
0
 10
100.8473224298321
 20
262.49190626985978
 30
0.0
 11
100.8473224298321
 21
290.20471919096178
 31
0.0
  0
ARC
  5
5575
  8
0
 10
119.8473224298321
 20
276.34831273041073
 30
0.0
 40
32.000000000000028
 50
163.02328118023439
 51
196.97671881976549
  0
LINE
  5
5576
  8
0
 10
87.847322429832147
 20
262.49190626985978
 30
0.0
 11
87.847322429832147
 21
290.2047191909619
 31
0.0
  0
LINE
  5
5577
  8
0
 10
89.241771154368166
 20
267.00485346068922
 30
0.0
 11
99.452873705296156
 21
267.00485346068922
 31
0.0
  0
LINE
  5
5578
  8
0
 10
89.315349782410351
 20
257.8731041163428
 30
0.0
 11
99.379295077253914
 21
257.8731041163428
 31
0.0
  0
ARC
  5
5579
  8
0
 10
92.847322429832147
 20
262.49190626985978
 30
0.0
 40
8.0
 50
324.73561031724489
 51
34.341093726743601
  0
LINE
  5
557A
  8
0
 10
100.8473224298321
 20
262.49190626985978
 30
0.0
 11
100.8473224298321
 21
267.11070842337671
 31
0.0
  0
ARC
  5
557B
  8
0
 10
95.847322429832147
 20
262.49190626985978
 30
0.0
 40
8.0
 50
145.65890627325629
 51
215.26438968275471
  0
LINE
  5
557C
  8
0
 10
87.847322429832147
 20
262.49190626985978
 30
0.0
 11
87.847322429832147
 21
267.11070842337682
 31
0.0
  0
LINE
  5
557E
  8
0
 10
89.241771154368223
 20
285.69177200013229
 30
0.0
 11
99.452873705296156
 21
285.69177200013229
 31
0.0
  0
LINE
  5
557F
  8
0
 10
89.315349782410294
 20
294.82352134447882
 30
0.0
 11
99.379295077254085
 21
294.82352134447882
 31
0.0
  0
ARC
  5
5580
  8
0
 10
92.847322429832204
 20
290.20471919096178
 30
0.0
 40
8.0
 50
325.65890627325382
 51
35.264389682754071
  0
ARC
  5
5581
  8
0
 10
95.847322429832147
 20
290.20471919096178
 30
0.0
 40
8.0
 50
144.73561031724549
 51
214.3410937267457
  0
LINE
  5
5582
  8
0
 10
87.847322429832175
 20
287.34831273041073
 30
0.0
 11
73.200947602271356
 21
287.34831273041061
 31
0.0
  0
LINE
  5
5583
  8
0
 10
87.847322429832147
 20
286.59831273041073
 30
0.0
 11
80.200947602271313
 21
286.59831273041061
 31
0.0
  0
LINE
  5
5584
  8
0
 10
87.847322429832147
 20
265.3483127304109
 30
0.0
 11
73.200947602271299
 21
265.34831273041101
 31
0.0
  0
LINE
  5
5585
  8
0
 10
87.847322429832147
 20
266.09831273041101
 30
0.0
 11
80.200947602271285
 21
266.09831273041101
 31
0.0
  0
CIRCLE
  5
5586
  8
0
 10
218.45303088136669
 20
276.34831273041078
 30
0.0
 40
11.0
  0
ARC
  5
5587
  8
0
 10
218.45303088136669
 20
276.34831273041078
 30
0.0
 40
10.25
 50
169.65289460148031
 51
105.5211453386293
  0
POLYLINE
  8
0
  5
57A8
  66
     1
 10
0.000000
 20
0.000000
 30
0.000000
  70
     8
  0
VERTEX
  8
0
  5
57A9
 10
104.774
 20
287.348
 30
0.000000
  70
    32
  0
VERTEX
  8
0
  5
57AA
 10
116.528
 20
335.805
 30
0.000000
  70
    32
  0
VERTEX
  8
0
  5
57AB
 10
119.528
 20
335.805
 30
0.000000
  70
    32
  0
SEQEND
  8
0
  5
57AC
  0
TEXT
  5
5589
  8
0
 10
120.52752253366219
 20
336.80498506225069
 30
0.0
 40
3.0
  1
M22*1.5
  7
CHINESET
  0
ENDSEC
  0
EOF
