  0
SECTION
  2
HEADER
  9
$ACADVER
  1
AC1015
  9
$ACADMAINTVER
 70
    20
  9
$DWGCODEPAGE
  3
ANSI_950
  9
$INSBASE
 10
0.0
 20
0.0
 30
0.0
  9
$EXTMIN
 10
118.3924563099635
 20
-117.5552952864573
 30
0.0
  9
$EXTMAX
 10
828.7401883555805
 20
408.8014105601898
 30
229.3510200800871
  9
$LIMMIN
 10
0.0
 20
0.0
  9
$LIMMAX
 10
420.0
 20
297.0
  9
$ORTHOMODE
 70
     0
  9
$REGENMODE
 70
     1
  9
$FILLMODE
 70
     1
  9
$QTEXTMODE
 70
     0
  9
$MIRRTEXT
 70
     1
  9
$LTSCALE
 40
1.0
  9
$ATTMODE
 70
     1
  9
$TEXTSIZE
 40
3.0
  9
$TRACEWID
 40
1.0
  9
$TEXTSTYLE
  7
STANDARD
  9
$CLAYER
  8
0
  9
$CELTYPE
  6
ByLayer
  9
$CECOLOR
 62
   256
  9
$CELTSCALE
 40
1.0
  9
$DISPSILH
 70
     0
  9
$DIMSCALE
 40
1.0
  9
$DIMASZ
 40
3.0
  9
$DIMEXO
 40
1.5
  9
$DIMDLI
 40
8.0
  9
$DIMRND
 40
0.0
  9
$DIMDLE
 40
0.0
  9
$DIMEXE
 40
1.5
  9
$DIMTP
 40
0.1
  9
$DIMTM
 40
0.1
  9
$DIMTXT
 40
3.5
  9
$DIMCEN
 40
0.0
  9
$DIMTSZ
 40
0.0
  9
$DIMTOL
 70
     0
  9
$DIMLIM
 70
     0
  9
$DIMTIH
 70
     0
  9
$DIMTOH
 70
     0
  9
$DIMSE1
 70
     0
  9
$DIMSE2
 70
     0
  9
$DIMTAD
 70
     1
  9
$DIMZIN
 70
     8
  9
$DIMBLK
  1

  9
$DIMASO
 70
     1
  9
$DIMSHO
 70
     1
  9
$DIMPOST
  1

  9
$DIMAPOST
  1
"
  9
$DIMALT
 70
     0
  9
$DIMALTD
 70
     2
  9
$DIMALTF
 40
0.0393701
  9
$DIMLFAC
 40
1.0
  9
$DIMTOFL
 70
     1
  9
$DIMTVP
 40
0.0
  9
$DIMTIX
 70
     0
  9
$DIMSOXD
 70
     0
  9
$DIMSAH
 70
     0
  9
$DIMBLK1
  1

  9
$DIMBLK2
  1

  9
$DIMSTYLE
  2
AM_ISO
  9
$DIMCLRD
 70
   256
  9
$DIMCLRE
 70
   256
  9
$DIMCLRT
 70
   256
  9
$DIMTFAC
 40
0.6
  9
$DIMGAP
 40
1.0
  9
$DIMJUST
 70
     0
  9
$DIMSD1
 70
     0
  9
$DIMSD2
 70
     0
  9
$DIMTOLJ
 70
     0
  9
$DIMTZIN
 70
     8
  9
$DIMALTZ
 70
     0
  9
$DIMALTTZ
 70
     0
  9
$DIMUPT
 70
     0
  9
$DIMDEC
 70
     2
  9
$DIMTDEC
 70
     8
  9
$DIMALTU
 70
     2
  9
$DIMALTTD
 70
     2
  9
$DIMTXSTY
  7
STANDARD
  9
$DIMAUNIT
 70
     0
  9
$DIMADEC
 70
     0
  9
$DIMALTRND
 40
0.0
  9
$DIMAZIN
 70
     2
  9
$DIMDSEP
 70
    46
  9
$DIMATFIT
 70
     3
  9
$DIMFRAC
 70
     0
  9
$DIMLDRBLK
  1

  9
$DIMLUNIT
 70
     2
  9
$DIMLWD
 70
    -1
  9
$DIMLWE
 70
    -1
  9
$DIMTMOVE
 70
     0
  9
$LUNITS
 70
     2
  9
$LUPREC
 70
     2
  9
$SKETCHINC
 40
1.0
  9
$FILLETRAD
 40
2.5
  9
$AUNITS
 70
     0
  9
$AUPREC
 70
     0
  9
$MENU
  1
.
  9
$ELEVATION
 40
0.0
  9
$PELEVATION
 40
0.0
  9
$THICKNESS
 40
0.0
  9
$LIMCHECK
 70
     0
  9
$CHAMFERA
 40
2.5
  9
$CHAMFERB
 40
2.5
  9
$CHAMFERC
 40
20.0
  9
$CHAMFERD
 40
0.0
  9
$SKPOLY
 70
     0
  9
$TDCREATE
 40
2454511.659716065
  9
$TDUCREATE
 40
2454511.326382732
  9
$TDUPDATE
 40
2456272.631603368
  9
$TDUUPDATE
 40
2456272.298270035
  9
$TDINDWG
 40
1.0340695602
  9
$TDUSRTIMER
 40
1.0340695602
  9
$USRTIMER
 70
     1
  9
$ANGBASE
 50
0.0
  9
$ANGDIR
 70
     0
  9
$PDMODE
 70
     0
  9
$PDSIZE
 40
0.0
  9
$PLINEWID
 40
0.0
  9
$SPLFRAME
 70
     0
  9
$SPLINETYPE
 70
     6
  9
$SPLINESEGS
 70
     8
  9
$HANDSEED
  5
5DC7
  9
$SURFTAB1
 70
     6
  9
$SURFTAB2
 70
     6
  9
$SURFTYPE
 70
     6
  9
$SURFU
 70
     6
  9
$SURFV
 70
     6
  9
$UCSBASE
  2

  9
$UCSNAME
  2

  9
$UCSORG
 10
0.0
 20
0.0
 30
0.0
  9
$UCSXDIR
 10
1.0
 20
0.0
 30
0.0
  9
$UCSYDIR
 10
0.0
 20
1.0
 30
0.0
  9
$UCSORTHOREF
  2

  9
$UCSORTHOVIEW
 70
     0
  9
$UCSORGTOP
 10
0.0
 20
0.0
 30
0.0
  9
$UCSORGBOTTOM
 10
0.0
 20
0.0
 30
0.0
  9
$UCSORGLEFT
 10
0.0
 20
0.0
 30
0.0
  9
$UCSORGRIGHT
 10
0.0
 20
0.0
 30
0.0
  9
$UCSORGFRONT
 10
0.0
 20
0.0
 30
0.0
  9
$UCSORGBACK
 10
0.0
 20
0.0
 30
0.0
  9
$PUCSBASE
  2

  9
$PUCSNAME
  2

  9
$PUCSORG
 10
0.0
 20
0.0
 30
0.0
  9
$PUCSXDIR
 10
1.0
 20
0.0
 30
0.0
  9
$PUCSYDIR
 10
0.0
 20
1.0
 30
0.0
  9
$PUCSORTHOREF
  2

  9
$PUCSORTHOVIEW
 70
     0
  9
$PUCSORGTOP
 10
0.0
 20
0.0
 30
0.0
  9
$PUCSORGBOTTOM
 10
0.0
 20
0.0
 30
0.0
  9
$PUCSORGLEFT
 10
0.0
 20
0.0
 30
0.0
  9
$PUCSORGRIGHT
 10
0.0
 20
0.0
 30
0.0
  9
$PUCSORGFRONT
 10
0.0
 20
0.0
 30
0.0
  9
$PUCSORGBACK
 10
0.0
 20
0.0
 30
0.0
  9
$USERI1
 70
     0
  9
$USERI2
 70
     0
  9
$USERI3
 70
     0
  9
$USERI4
 70
     0
  9
$USERI5
 70
     0
  9
$USERR1
 40
0.0
  9
$USERR2
 40
0.0
  9
$USERR3
 40
0.0
  9
$USERR4
 40
0.0
  9
$USERR5
 40
0.0
  9
$WORLDVIEW
 70
     1
  9
$SHADEDGE
 70
     3
  9
$SHADEDIF
 70
    70
  9
$TILEMODE
 70
     1
  9
$MAXACTVP
 70
    64
  9
$PINSBASE
 10
0.0
 20
0.0
 30
0.0
  9
$PLIMCHECK
 70
     0
  9
$PEXTMIN
 10
1.000000000000000E+20
 20
1.000000000000000E+20
 30
1.000000000000000E+20
  9
$PEXTMAX
 10
-1.000000000000000E+20
 20
-1.000000000000000E+20
 30
-1.000000000000000E+20
  9
$PLIMMIN
 10
0.0
 20
0.0
  9
$PLIMMAX
 10
420.0
 20
297.0
  9
$UNITMODE
 70
     0
  9
$VISRETAIN
 70
     1
  9
$PLINEGEN
 70
     0
  9
$PSLTSCALE
 70
     1
  9
$TREEDEPTH
 70
  3020
  9
$CMLSTYLE
  2
Standard
  9
$CMLJUST
 70
     0
  9
$CMLSCALE
 40
20.0
  9
$PROXYGRAPHICS
 70
     1
  9
$MEASUREMENT
 70
     1
  9
$CELWEIGHT
370
    -1
  9
$ENDCAPS
280
     0
  9
$JOINSTYLE
280
     0
  9
$LWDISPLAY
290
     0
  9
$INSUNITS
 70
     4
  9
$HYPERLINKBASE
  1

  9
$STYLESHEET
  1
彩色出圖.ctb
  9
$XEDIT
290
     1
  9
$CEPSNTYPE
380
     0
  9
$PSTYLEMODE
290
     1
  9
$FINGERPRINTGUID
  2
{AAA01E1A-376A-4450-A17A-698DA31AD93F}
  9
$VERSIONGUID
  2
{3A7D8814-3AAC-43EC-84C4-6D0837332B5B}
  9
$EXTNAMES
290
     1
  9
$PSVPSCALE
 40
0.0
  9
$OLESTARTUP
290
     0
  0
ENDSEC
  0
SECTION
  2
CLASSES
  0
CLASS
  1
ACDBDICTIONARYWDFLT
  2
AcDbDictionaryWithDefault
  3
ObjectDBX Classes
 90
        0
280
     0
281
     0
  0
CLASS
  1
ACDBPLACEHOLDER
  2
AcDbPlaceHolder
  3
ObjectDBX Classes
 90
        0
280
     0
281
     0
  0
CLASS
  1
LAYOUT
  2
AcDbLayout
  3
ObjectDBX Classes
 90
        0
280
     0
281
     0
  0
CLASS
  1
ACME_DOCUMENT
  2
AcMeDbDoc
  3
AcMeServices
 90
        0
280
     0
281
     0
  0
CLASS
  1
AMGSETTINGSOBJ
  2
AmgSettingsObj
  3
"AcadM|Product Description: AutoCAD Mechanical 2000|Company: Autodesk"
 90
        0
280
     0
281
     0
  0
CLASS
  1
ACMESCOPE
  2
AcMeScope
  3
AcMeServices
 90
        0
280
     0
281
     0
  0
CLASS
  1
ACMECOMMANDHISTORY
  2
AcMeCommandHistory
  3
AcMeServices
 90
        0
280
     0
281
     0
  0
CLASS
  1
ACIMSYSVARMAN
  2
AcImSysVarManager
  3
AcMeServices
 90
        0
280
     0
281
     0
  0
CLASS
  1
ACIMREALSYSVAR
  2
AcImRealSysVar
  3
AcMeServices
 90
        0
280
     0
281
     0
  0
CLASS
  1
ACIMINTSYSVAR
  2
AcImIntSysVar
  3
AcMeServices
 90
        0
280
     0
281
     0
  0
CLASS
  1
ACMEDRAWINGMAN
  2
AcMeDrawingMan
  3
AcMeServices
 90
        0
280
     0
281
     0
  0
CLASS
  1
ACMEVIEW
  2
AcMeView
  3
AcMeServices
 90
        0
280
     0
281
     0
  0
CLASS
  1
ACDBENTITYCACHE
  2
AcMeEntityCache
  3
AcMeServices
 90
        0
280
     0
281
     0
  0
CLASS
  1
GSMANAGER
  2
AcMeGSManager
  3
AcMeServices
 90
        0
280
     0
281
     0
  0
CLASS
  1
AMDTINTERNALREACTOR
  2
AmdtInternalReactor
  3
AcMeServices
 90
        0
280
     0
281
     0
  0
CLASS
  1
ACMESTATEMGR
  2
AcMeStateMgr
  3
AcMeServices
 90
        0
280
     0
281
     0
  0
CLASS
  1
ACGREFMASTER
  2
AcGrefMaster
  3
AcAttribServices
 90
        0
280
     0
281
     0
  0
CLASS
  1
ACME_DATABASE
  2
AcMeDbDatabase
  3
AcMeServices
 90
        0
280
     0
281
     0
  0
CLASS
  1
ACRFINSADJUSTERMGR
  2
AcRfInsAdjusterMgr
  3
AcMeServices
 90
        0
280
     0
281
     0
  0
CLASS
  1
ACGREFACADMASTER
  2
AcGrefacadMaster
  3
AcGrefServices
 90
        0
280
     0
281
     0
  0
CLASS
  1
AMIMASTER
  2
AmiMaster
  3
AmiServices
 90
        0
280
     0
281
     0
  0
CLASS
  1
ACMDATADICTIONARY
  2
AcmDataDictionary
  3
"AcmSymBB|Product Description: AutoCAD Mechanical 2004 DX|Company: Autodesk"
 90
        0
280
     0
281
     0
  0
CLASS
  1
ACMDATAENTRYBLOCK
  2
AcmDataEntryBlock
  3
"AcmSymBB|Product Description: AutoCAD Mechanical 2004 DX|Company: Autodesk"
 90
        0
280
     0
281
     0
  0
CLASS
  1
ACIMSTRSYSVAR
  2
AcImStrSysVar
  3
AcMeServices
 90
        0
280
     0
281
     0
  0
CLASS
  1
ACMSTANDARDISO
  2
AcmStandardISO
  3
"Amdt_StdImp|Product Description: AutoCAD Mechanical 2004 DX|Company: Autodesk"
 90
        0
280
     0
281
     0
  0
CLASS
  1
AMGOBJPROPCFG
  2
AmgObjPropCfg
  3
"AmgLay|Product Description: AutoCAD Mechanical 2000|Company: Autodesk"
 90
        1
280
     0
281
     0
  0
CLASS
  1
AMDTEDGESTANDARDISO
  2
AmdtEdgeStdISO
  3
"Amdt_StdImp|Product Description: AutoCAD Mechanical 2004 DX|Company: Autodesk"
 90
    32768
280
     0
281
     0
  0
CLASS
  1
ACMSURFSTANDARDISO
  2
AcmSurfTextStdISO
  3
"Amdt_StdImp|Product Description: AutoCAD Mechanical 2004 DX|Company: Autodesk"
 90
        0
280
     0
281
     0
  0
CLASS
  1
ACMFCFSTANDARDISO
  2
AcmFCFStdISO
  3
"Amdt_StdImp|Product Description: AutoCAD Mechanical 2004 DX|Company: Autodesk"
 90
        0
280
     0
281
     0
  0
CLASS
  1
ACMWELDSTANDARDISO
  2
AcmWeldingStdISO
  3
"Amdt_StdImp|Product Description: AutoCAD Mechanical 2004 DX|Company: Autodesk"
 90
        0
280
     0
281
     0
  0
CLASS
  1
ACMIDSTANDARDISO
  2
AcmIdStdISO
  3
"Amdt_StdImp|Product Description: AutoCAD Mechanical 2004 DX|Company: Autodesk"
 90
        0
280
     0
281
     0
  0
CLASS
  1
ACMDATUMSTANDARDISO
  2
AcmDatumStdISO
  3
"Amdt_StdImp|Product Description: AutoCAD Mechanical 2004 DX|Company: Autodesk"
 90
        0
280
     0
281
     0
  0
CLASS
  1
ACMBOMSTANDARDISO
  2
AcmBOMStdISO
  3
"Amdt_StdImp|Product Description: AutoCAD Mechanical 2004 DX|Company: Autodesk"
 90
        0
280
     0
281
     0
  0
CLASS
  1
ACMDETAILSTANDARDISO
  2
AmdtDetailSymStdISO
  3
"Amdt_StdImp|Product Description: AutoCAD Mechanical 2004 DX|Company: Autodesk"
 90
        0
280
     0
281
     0
  0
CLASS
  1
ACMSECTIONSTANDARDISO
  2
AmdtSectionSymStdISO
  3
"Amdt_StdImp|Product Description: AutoCAD Mechanical 2004 DX|Company: Autodesk"
 90
        0
280
     0
281
     0
  0
CLASS
  1
ACMCENTERLINESTANDARDISO
  2
AmdtCenterLineStdISO
  3
"Amdt_StdImp|Product Description: AutoCAD Mechanical 2004 DX|Company: Autodesk"
 90
        0
280
     0
281
     0
  0
CLASS
  1
ACMNOTESTANDARDISO
  2
AmdtNoteStdISO
  3
"Amdt_StdImp|Product Description: AutoCAD Mechanical 2004 DX|Company: Autodesk"
 90
        0
280
     0
281
     0
  0
CLASS
  1
ACAMGLAYSTD
  2
AcAmgLayStd
  3
"AcAmgLayStd|Product Description: AutoCAD Mechanical 2000|Company: Autodesk"
 90
        0
280
     0
281
     0
  0
CLASS
  1
ACAMGDIMSTD
  2
AcAmgDimStd
  3
"AcAmgDimStd|Product Description: AutoCAD Mechanical 2000|Company: Autodesk"
 90
        0
280
     0
281
     0
  0
CLASS
  1
ACAMGHOLECHARTSTDISO
  2
AcAmgHoleChartStdISO
  3
ACMSYMBB_MODULE_NAME
 90
        0
280
     0
281
     0
  0
CLASS
  1
ACAMGTITLESTD
  2
AcAmgTitleStd
  3
"TITLEAPP"
 90
        0
280
     0
281
     0
  0
CLASS
  1
LAYER_INDEX
  2
AcDbLayerIndex
  3
ObjectDBX Classes
 90
        0
280
     0
281
     0
  0
CLASS
  1
IDBUFFER
  2
AcDbIdBuffer
  3
ObjectDBX Classes
 90
        0
280
     0
281
     0
  0
CLASS
  1
DICTIONARYVAR
  2
AcDbDictionaryVar
  3
ObjectDBX Classes
 90
        0
280
     0
281
     0
  0
CLASS
  1
AM_DRAWING_MGR
  2
AcDmDwgMgr
  3
AcMechDwgViewMgmt
 90
        0
280
     0
281
     0
  0
CLASS
  1
AM_DWG_DOCUMENT
  2
AcDmDwgDocument
  3
AcMechDwgViewMgmt
 90
        0
280
     0
281
     0
  0
CLASS
  1
AM_DWG_SHEET
  2
AcDmSheet
  3
AcMechDwgViewMgmt
 90
        0
280
     0
281
     0
  0
CLASS
  1
AM_VIEWDIMPARMAP
  2
AcDmViewDimParMap
  3
AcMechDwgViewMgmt
 90
        0
280
     0
281
     0
  0
CLASS
  1
AM_DWGMGR_NAME
  2
AcDmDwgMgrName
  3
AcMechDwgViewMgmt
 90
        0
280
     0
281
     0
  0
CLASS
  1
AMDTMENUSTATEMGR
  2
AmdtMenuStateMgr
  3
McadcomServices
 90
        0
280
     0
281
     0
  0
CLASS
  1
AMDTMCOMMENUSTATE
  2
AmdtMcomMenuState
  3
McadcomServices
 90
        0
280
     0
281
     0
  0
CLASS
  1
MAPIAMMOUDLE
  2
MApiAmModule
  3
MApiAmServices
 90
        0
280
     0
281
     0
  0
CLASS
  1
AMDTADMENUSTATE
  2
AmdtAdMenuState
  3
DesignerServices
 90
        0
280
     0
281
     0
  0
CLASS
  1
ADAPPL
  2
AcAdAppl
  3
DesignerServices
 90
        0
280
     0
281
     0
  0
CLASS
  1
DEPMGR
  2
AcAdDepMgr
  3
DesignerServices
 90
        0
280
     0
281
     0
  0
CLASS
  1
PARAMMGR
  2
AcAdParamMgr
  3
DesignerServices
 90
        0
280
     0
281
     0
  0
CLASS
  1
PARAMSCOPE
  2
AcAdParamScope
  3
DesignerServices
 90
        0
280
     0
281
     0
  0
CLASS
  1
NAMEDAPPL
  2
AcAdNamedAppl
  3
DesignerServices
 90
        0
280
     0
281
     0
  0
CLASS
  1
AMDTDMMENUSTATE
  2
AmdtDmMenuState
  3
AcMechDwgViewMgmt
 90
        0
280
     0
281
     0
  0
CLASS
  1
AMDTAMMENUSTATE
  2
AmdtAmMenuState
  3
DesignerAssemblies
 90
        0
280
     0
281
     0
  0
CLASS
  1
ACAMPROJECT
  2
AcAmProject
  3
DesignerAssemblies
 90
        0
280
     0
281
     0
  0
CLASS
  1
ACAMGRCOMPDEF
  2
AcAmGrCompDef
  3
DesignerAssemblies
 90
        0
280
     0
281
     0
  0
CLASS
  1
ACCMCONTEXT
  2
AcCmContext
  3
DesignerAssemblies
 90
        0
280
     0
281
     0
  0
CLASS
  1
ACAMCOMPDEF
  2
AcAmCompDef
  3
DesignerAssemblies
 90
        0
280
     0
281
     0
  0
CLASS
  1
ACAMCOMPDEFMGR
  2
AcAmCompDefMgr
  3
DesignerAssemblies
 90
        0
280
     0
281
     0
  0
CLASS
  1
AMCONTEXTMGR
  2
AcAmContextMgr
  3
DesignerAssemblies
 90
        0
280
     0
281
     0
  0
CLASS
  1
ACAMCONTEXTMODELER
  2
AcAmContextModeler
  3
DesignerAssemblies
 90
        0
280
     0
281
     0
  0
CLASS
  1
ACMTHREADLINESTANDARDISO
  2
AmdtThreadLineStdISO
  3
"Amdt_StdImp|Product Description: AutoCAD Mechanical 2004 DX|Company: Autodesk"
 90
        0
280
     0
281
     0
  0
CLASS
  1
CATALOGSTATE
  2
AcAmCatalogState
  3
DesignerAssemblies
 90
        0
280
     0
281
     0
  0
CLASS
  1
ACAMGRCOMPDEFSET
  2
AcAmGrCompDefSet
  3
DesignerAssemblies
 90
        0
280
     0
281
     0
  0
CLASS
  1
AMDTBROWSERDBTAB
  2
AmdtBrowserDbTab
  3
McadcomServices
 90
        0
280
     0
281
     0
  0
CLASS
  1
CBROWSERAPPOBJECT
  2
CBrowserAppObject
  3
McadcomServices
 90
        0
280
     0
281
     0
  0
CLASS
  1
DM_PLACEHOLDER
  2
AcDmSelsetPlaceholder
  3
AcMechDwgViewMgmt
 90
        0
280
     0
281
     0
  0
CLASS
  1
TABLESTYLE
  2
AcDbTableStyle
  3
ObjectDBX Classes
 90
     2047
280
     0
281
     0
  0
CLASS
  1
VAACXREFPANELOBJECT
  2
VaAcXREFPanelObject
  3
VAAC_ADDIN
 90
    32768
280
     0
281
     0
  0
CLASS
  1
VAACIMAGEINVENTORY
  2
VaAcImageInventory
  3
VAAC_ADDIN
 90
    32768
280
     0
281
     0
  0
CLASS
  1
AMDTNOTETEMPLATEDB
  2
AmdtNoteTemplateDB
  3
AMDT_STDIMP_MODULE_NAME
 90
        0
280
     0
281
     0
  0
CLASS
  1
ACMBOM
  2
AcmBom
  3
"AcmSymBB|Product Description: AutoCAD Mechanical 2004 DX|Company: Autodesk"
 90
    32768
280
     0
281
     0
  0
CLASS
  1
AMDTFORMULAUPDATEDISPATCHER
  2
AmdtFormulaUpdateDispatcher
  3
AcMeServices
 90
    32768
280
     0
281
     0
  0
CLASS
  1
ACMPARTLIST
  2
AcmPartList
  3
"AcmSymBB|Product Description: AutoCAD Mechanical 2004 DX|Company: Autodesk"
 90
    33791
280
     0
281
     1
  0
CLASS
  1
ACAMGFILTERDAT
  2
AcAmgFilterDat
  3
"AcadM|Product Description: AutoCAD Mechanical 2000|Company: Autodesk"
 90
    32768
280
     0
281
     0
  0
CLASS
  1
DIMASSOC
  2
AcDbDimAssoc
  3
"AcDbDimAssoc|Product Desc:     AcDim ARX App For Dimension|Company:          Autodesk, Inc.|WEB Address:      www.autodesk.com"
 90
        0
280
     0
281
     0
  0
CLASS
  1
MATERIAL
  2
AcDbMaterial
  3
ObjectDBX Classes
 90
        0
280
     0
281
     0
  0
CLASS
  1
ACMSTANDARDANSI
  2
AcmStandardANSI
  3
"Amdt_StdImp|Product Description: AutoCAD Mechanical 2004 DX|Company: Autodesk"
 90
    32768
280
     0
281
     0
  0
CLASS
  1
ACMSURFSTANDARDANSI
  2
AcmSurfTextStdANSI
  3
"Amdt_StdImp|Product Description: AutoCAD Mechanical 2004 DX|Company: Autodesk"
 90
    32768
280
     0
281
     0
  0
CLASS
  1
ACMFCFSTANDARDANSI
  2
AcmFCFStdANSI
  3
"Amdt_StdImp|Product Description: AutoCAD Mechanical 2004 DX|Company: Autodesk"
 90
    32768
280
     0
281
     0
  0
CLASS
  1
ACMWELDSTANDARDANSI
  2
AcmWeldingStdANSI
  3
"Amdt_StdImp|Product Description: AutoCAD Mechanical 2004 DX|Company: Autodesk"
 90
    32768
280
     0
281
     0
  0
CLASS
  1
ACMIDSTANDARDANSI
  2
AcmIdStdANSI
  3
"Amdt_StdImp|Product Description: AutoCAD Mechanical 2004 DX|Company: Autodesk"
 90
    32768
280
     0
281
     0
  0
CLASS
  1
ACMDATUMSTANDARDANSI
  2
AcmDatumStdANSI
  3
"Amdt_StdImp|Product Description: AutoCAD Mechanical 2004 DX|Company: Autodesk"
 90
    32768
280
     0
281
     0
  0
CLASS
  1
ACMBOMSTANDARDANSI
  2
AcmBOMStdANSI
  3
"Amdt_StdImp|Product Description: AutoCAD Mechanical 2004 DX|Company: Autodesk"
 90
    32768
280
     0
281
     0
  0
CLASS
  1
ACMDETAILSTANDARDANSI
  2
AmdtDetailSymStdANSI
  3
"Amdt_StdImp|Product Description: AutoCAD Mechanical 2004 DX|Company: Autodesk"
 90
    32768
280
     0
281
     0
  0
CLASS
  1
ACMSECTIONSTANDARDANSI
  2
AmdtSectionSymStdANSI
  3
"Amdt_StdImp|Product Description: AutoCAD Mechanical 2004 DX|Company: Autodesk"
 90
    32768
280
     0
281
     0
  0
CLASS
  1
ACMCENTERLINESTANDARDANSI
  2
AmdtCenterLineStdANSI
  3
"Amdt_StdImp|Product Description: AutoCAD Mechanical 2004 DX|Company: Autodesk"
 90
    32768
280
     0
281
     0
  0
CLASS
  1
ACMTHREADLINESTANDARDANSI
  2
AmdtThreadLineStdANSI
  3
"Amdt_StdImp|Product Description: AutoCAD Mechanical 2004 DX|Company: Autodesk"
 90
    32768
280
     0
281
     0
  0
CLASS
  1
ACMNOTESTANDARDANSI
  2
AmdtNoteStdANSI
  3
"Amdt_StdImp|Product Description: AutoCAD Mechanical 2004 DX|Company: Autodesk"
 90
    32768
280
     0
281
     0
  0
CLASS
  1
ACAMGHOLECHARTSTDANSI
  2
AcAmgHoleChartStdANSI
  3
ACMSYMBB_MODULE_NAME
 90
    32768
280
     0
281
     0
  0
CLASS
  1
ASAPP
  2
AcAsAppObject
  3
AutoSurfServices
 90
        0
280
     0
281
     0
  0
CLASS
  1
IM_STATIC_MAN
  2
AcImStaticVarManager
  3
AcMeServices
 90
        0
280
     0
281
     0
  0
CLASS
  1
ACIMDBLSTATICVAR
  2
AcImDblStaticVar
  3
AcMeServices
 90
        0
280
     0
281
     0
  0
CLASS
  1
ACIMSTRSTATICVAR
  2
AcImStrStaticVar
  3
AcMeServices
 90
        0
280
     0
281
     0
  0
CLASS
  1
ACIMINTSTATICVAR
  2
AcImIntStaticVar
  3
AcMeServices
 90
        0
280
     0
281
     0
  0
CLASS
  1
ACASGREFMASTER
  2
AcAsGrefMaster
  3
AutoSurfResolverServices
 90
        0
280
     0
281
     0
  0
CLASS
  1
ACADGREFMODULE
  2
AcAdGrefModule
  3
AdGrefServices
 90
        0
280
     0
281
     0
  0
CLASS
  1
AMDTMAPISURFMOUDULE
  2
AmdtMApiSurfModule
  3
MApiSurfServices
 90
        0
280
     0
281
     0
  0
CLASS
  1
MAPIADMODULE
  2
MApiAdModule
  3
MApiAdServices
 90
        0
280
     0
281
     0
  0
CLASS
  1
AMDTEDGESTANDARDISO13715
  2
AmdtEdgeStdISO13715
  3
"Amdt_StdImp|Product Description: AutoCAD Mechanical 2004 DX|Company: Autodesk"
 90
        0
280
     0
281
     0
  0
CLASS
  1
AMDTNOTE
  2
AmdtNote
  3
"AcmSymBB|Product Description: AutoCAD Mechanical 2004 DX|Company: Autodesk"
 90
    33791
280
     0
281
     1
  0
CLASS
  1
ACDBCIRCARCRES
  2
AcDbCircArcRes
  3
AcGrefServices
 90
        0
280
     0
281
     0
  0
CLASS
  1
ACDBLINERES
  2
AcDbLineRes
  3
AcGrefServices
 90
        0
280
     0
281
     0
  0
CLASS
  1
SORTENTSTABLE
  2
AcDbSortentsTable
  3
ObjectDBX Classes
 90
        0
280
     0
281
     0
  0
ENDSEC
  0
SECTION
  2
TABLES
  0
TABLE
  2
VPORT
  5
8
330
0
100
AcDbSymbolTable
 70
    50
  0
VPORT
  5
5DBE
330
8
100
AcDbSymbolTableRecord
100
AcDbViewportTableRecord
  2
*Active
 70
     0
 10
0.0
 20
0.0
 11
1.0
 21
1.0
 12
-152.9207541502206
 22
-174.0522516318808
 13
0.0
 23
0.0
 14
2.5
 24
2.5
 15
10.0
 25
10.0
 16
0.0
 26
0.0
 36
1.0
 17
484.0987504174327
 27
132.4449634208572
 37
0.0
 40
441.0772620008657
 41
1.263157894736842
 42
50.0
 43
0.0
 44
0.0
 50
0.0
 51
0.0
 71
     0
 72
  2000
 73
     1
 74
     3
 75
     0
 76
     0
 77
     0
 78
     0
281
     0
 65
     0
110
0.0
120
0.0
130
0.0
111
1.0
121
0.0
131
0.0
112
0.0
122
1.0
132
0.0
 79
     0
146
0.0
  0
ENDTAB
  0
TABLE
  2
LTYPE
  5
5
330
0
100
AcDbSymbolTable
 70
    22
  0
LTYPE
  5
14
330
5
100
AcDbSymbolTableRecord
100
AcDbLinetypeTableRecord
  2
ByBlock
 70
     0
  3

 72
    65
 73
     0
 40
0.0
  0
LTYPE
  5
15
330
5
100
AcDbSymbolTableRecord
100
AcDbLinetypeTableRecord
  2
ByLayer
 70
     0
  3

 72
    65
 73
     0
 40
0.0
  0
LTYPE
  5
16
330
5
100
AcDbSymbolTableRecord
100
AcDbLinetypeTableRecord
  2
Continuous
 70
     0
  3
Solid line
 72
    65
 73
     0
 40
0.0
  0
LTYPE
  5
64
330
5
100
AcDbSymbolTableRecord
100
AcDbLinetypeTableRecord
  2
AM_ISO02W050
 70
     0
  3
__ __ __ __ __ __ __ __ __ __ __ __ __ __ __
 72
    65
 73
     2
 40
7.5
 49
6.0
 74
     0
 49
-1.5
 74
     0
  0
LTYPE
  5
65
330
5
100
AcDbSymbolTableRecord
100
AcDbLinetypeTableRecord
  2
AM_ISO08W050
 70
     0
  3
____ . ____ . ____ . ____ . ____ . ____ . ____
 72
    65
 73
     4
 40
18.0
 49
12.0
 74
     0
 49
-1.5
 74
     0
 49
3.0
 74
     0
 49
-1.5
 74
     0
  0
LTYPE
  5
66
330
5
100
AcDbSymbolTableRecord
100
AcDbLinetypeTableRecord
  2
AM_ISO09W050
 70
     0
  3
_____ . . _____ . . _____ . . ____ .. ____
 72
    65
 73
     6
 40
22.5
 49
12.0
 74
     0
 49
-1.5
 74
     0
 49
3.0
 74
     0
 49
-1.5
 74
     0
 49
3.0
 74
     0
 49
-1.5
 74
     0
  0
LTYPE
  5
67
330
5
100
AcDbSymbolTableRecord
100
AcDbLinetypeTableRecord
  2
Amconstr
 70
     0
  3
_______________________
 72
    65
 73
     2
 40
9999.0
 49
9999.0
 74
     0
 49
0.0
 74
     0
  0
LTYPE
  5
68
330
5
100
AcDbSymbolTableRecord
100
AcDbLinetypeTableRecord
  2
AM_ISO08W050x2
 70
     0
  3
__ . __ . __ . __ . __ . __
 72
    65
 73
     4
 40
9.0
 49
6.0
 74
     0
 49
-0.75
 74
     0
 49
1.5
 74
     0
 49
-0.75
 74
     0
  0
LTYPE
  5
69
330
5
100
AcDbSymbolTableRecord
100
AcDbLinetypeTableRecord
  2
AM_ISO02W050x2
 70
     0
  3
 _ _ _ _ _ _ _ _ _ _ _ _
 72
    65
 73
     2
 40
3.75
 49
3.0
 74
     0
 49
-0.75
 74
     0
  0
LTYPE
  5
6C
330
5
100
AcDbSymbolTableRecord
100
AcDbLinetypeTableRecord
  2
Amzigzag
 70
     0
  3
/\/-/\/-/\/-/\/-/\/-/\/
 72
    65
 73
     2
 40
11.0001
 49
0.0001
 74
     4
 75
   135
340
6B
 46
0.04
 50
0.0
 44
0.0
 45
0.0
 49
-11.0
 74
     0
  0
LTYPE
  5
7A
330
5
100
AcDbSymbolTableRecord
100
AcDbLinetypeTableRecord
  2
ACISOWELD
 70
     0
  3
_ _ _ _ _
 72
    65
 73
     2
 40
2.0
 49
2.0
 74
     0
 49
-1.0
 74
     0
  0
LTYPE
  5
7B
330
5
100
AcDbSymbolTableRecord
100
AcDbLinetypeTableRecord
  2
ACISOTGB
 70
     0
  3
__ . . __ . .
 72
    65
 73
     6
 40
9.0
 49
4.0
 74
     0
 49
-1.0
 74
     0
 49
1.0
 74
     0
 49
-1.0
 74
     0
 49
1.0
 74
     0
 49
-1.0
 74
     0
  0
LTYPE
  5
7C
330
5
100
AcDbSymbolTableRecord
100
AcDbLinetypeTableRecord
  2
ACISOTGL
 70
     0
  3
_ _ _ _ _
 72
    65
 73
     2
 40
3.0
 49
2.0
 74
     0
 49
-1.0
 74
     0
  0
LTYPE
  5
7E
330
5
100
AcDbSymbolTableRecord
100
AcDbLinetypeTableRecord
  2
CENTER
 70
     0
  3
__ . __
 72
    65
 73
     4
 40
7.0
 49
4.0
 74
     0
 49
-1.0
 74
     0
 49
1.0
 74
     0
 49
-1.0
 74
     0
  0
LTYPE
  5
D8
330
5
100
AcDbSymbolTableRecord
100
AcDbLinetypeTableRecord
  2
HIDDEN
 70
     0
  3
Hidden __ __ __ __ __ __ __ __ __ __ __ __ __ _
 72
    65
 73
     2
 40
9.524999999999998
 49
6.349999999999999
 74
     0
 49
-3.174999999999999
 74
     0
  0
LTYPE
  5
D9
330
5
100
AcDbSymbolTableRecord
100
AcDbLinetypeTableRecord
  2
PHANTOM2
 70
     0
  3
Phantom (.5x) ___ _ _ ___ _ _ ___ _ _ ___ _ _
 72
    65
 73
     6
 40
31.75
 49
15.875
 74
     0
 49
-3.174999999999999
 74
     0
 49
3.174999999999999
 74
     0
 49
-3.174999999999999
 74
     0
 49
3.174999999999999
 74
     0
 49
-3.174999999999999
 74
     0
  0
LTYPE
  5
308D
330
5
100
AcDbSymbolTableRecord
100
AcDbLinetypeTableRecord
  2
CENTER2
 70
     0
  3
Center (.5x) ___ _ ___ _ ___ _ ___ _ ___ _ ___
 72
    65
 73
     4
 40
1.125
 49
0.75
 74
     0
 49
-0.125
 74
     0
 49
0.125
 74
     0
 49
-0.125
 74
     0
  0
ENDTAB
  0
TABLE
  2
LAYER
  5
2
102
{ACAD_XDICTIONARY
360
3F9
102
}
330
0
100
AcDbSymbolTable
 70
    29
  0
LAYER
  5
10
330
2
100
AcDbSymbolTableRecord
100
AcDbLayerTableRecord
  2
0
 70
     0
 62
     7
  6
Continuous
370
    -3
390
F
  0
LAYER
  5
124C
330
2
100
AcDbSymbolTableRecord
100
AcDbLayerTableRecord
  2
AM_7
 70
     0
 62
     1
  6
AM_ISO08W050
370
    25
390
F
  0
LAYER
  5
12C8
330
2
100
AcDbSymbolTableRecord
100
AcDbLayerTableRecord
  2
LOGO
 70
     0
 62
     7
  6
Continuous
370
    -3
390
F
  0
LAYER
  5
15C8
330
2
100
AcDbSymbolTableRecord
100
AcDbLayerTableRecord
  2
AM_5
 70
     0
 62
     5
  6
Continuous
370
    25
390
F
  0
LAYER
  5
1874
330
2
100
AcDbSymbolTableRecord
100
AcDbLayerTableRecord
  2
Defpoints
 70
     0
 62
     7
  6
Continuous
290
     0
370
    -3
390
F
  0
LAYER
  5
1875
330
2
100
AcDbSymbolTableRecord
100
AcDbLayerTableRecord
  2
AM_VIS
 70
     0
 62
     7
  6
Continuous
370
    50
390
F
  0
LAYER
  5
1876
330
2
100
AcDbSymbolTableRecord
100
AcDbLayerTableRecord
  2
AM_4
 70
     0
 62
     3
  6
Continuous
370
    25
390
F
  0
LAYER
  5
1877
330
2
100
AcDbSymbolTableRecord
100
AcDbLayerTableRecord
  2
AM_REFDIM
 70
     0
 62
     5
  6
Continuous
370
    25
390
F
  0
LAYER
  5
291B
330
2
100
AcDbSymbolTableRecord
100
AcDbLayerTableRecord
  2
AM_10
 70
     0
 62
     7
  6
AM_ISO08W050
370
    50
390
F
  0
LAYER
  5
547B
102
{ACAD_XDICTIONARY
360
547C
102
}
330
2
100
AcDbSymbolTableRecord
100
AcDbLayerTableRecord
  2
Default
 70
     0
 62
     7
  6
Continuous
370
    -3
390
F
  0
LAYER
  5
547E
102
{ACAD_XDICTIONARY
360
547F
102
}
330
2
100
AcDbSymbolTableRecord
100
AcDbLayerTableRecord
  2
H01308
 70
     0
 62
     7
  6
Continuous
370
    -3
390
F
  0
LAYER
  5
5481
102
{ACAD_XDICTIONARY
360
5482
102
}
330
2
100
AcDbSymbolTableRecord
100
AcDbLayerTableRecord
  2
H01309
 70
     0
 62
     7
  6
Continuous
370
    -3
390
F
  0
LAYER
  5
5484
102
{ACAD_XDICTIONARY
360
5485
102
}
330
2
100
AcDbSymbolTableRecord
100
AcDbLayerTableRecord
  2
3000104000100
 70
     0
 62
     7
  6
Continuous
370
    -3
390
F
  0
LAYER
  5
5487
102
{ACAD_XDICTIONARY
360
5488
102
}
330
2
100
AcDbSymbolTableRecord
100
AcDbLayerTableRecord
  2
H01170
 70
     0
 62
     7
  6
Continuous
370
    -3
390
F
  0
LAYER
  5
548A
102
{ACAD_XDICTIONARY
360
548B
102
}
330
2
100
AcDbSymbolTableRecord
100
AcDbLayerTableRecord
  2
H01311
 70
     0
 62
     7
  6
Continuous
370
    -3
390
F
  0
LAYER
  5
548D
102
{ACAD_XDICTIONARY
360
548E
102
}
330
2
100
AcDbSymbolTableRecord
100
AcDbLayerTableRecord
  2
3034104006100
 70
     0
 62
     7
  6
Continuous
370
    -3
390
F
  0
LAYER
  5
5490
102
{ACAD_XDICTIONARY
360
5491
102
}
330
2
100
AcDbSymbolTableRecord
100
AcDbLayerTableRecord
  2
H01313
 70
     0
 62
     7
  6
Continuous
370
    -3
390
F
  0
LAYER
  5
5493
102
{ACAD_XDICTIONARY
360
5494
102
}
330
2
100
AcDbSymbolTableRecord
100
AcDbLayerTableRecord
  2
H01166-M4
 70
     0
 62
     7
  6
Continuous
370
    -3
390
F
  0
LAYER
  5
549C
102
{ACAD_XDICTIONARY
360
549D
102
}
330
2
100
AcDbSymbolTableRecord
100
AcDbLayerTableRecord
  2
3121018000100
 70
     0
 62
     7
  6
Continuous
370
    -3
390
F
  0
LAYER
  5
549F
102
{ACAD_XDICTIONARY
360
54A0
102
}
330
2
100
AcDbSymbolTableRecord
100
AcDbLayerTableRecord
  2
H01310
 70
     0
 62
     7
  6
Continuous
370
    -3
390
F
  0
ENDTAB
  0
TABLE
  2
STYLE
  5
3
330
0
100
AcDbSymbolTable
 70
    19
  0
STYLE
  5
11
330
3
100
AcDbSymbolTableRecord
100
AcDbTextStyleTableRecord
  2
STANDARD
 70
     0
 40
0.0
 41
1.0
 50
0.0
 71
     0
 42
3.0
  3
ISOCP.SHX
  4
CHINESET.SHX
  0
STYLE
  5
6B
330
3
100
AcDbSymbolTableRecord
100
AcDbTextStyleTableRecord
  2

 70
     1
 40
0.0
 41
1.0
 50
0.0
 71
     0
 42
2.5
  3
ltypeshp.shx
  4

  0
STYLE
  5
6D
330
3
100
AcDbSymbolTableRecord
100
AcDbTextStyleTableRecord
  2
ACISOTS
 70
     0
 40
1.0
 41
1.0
 50
0.0
 71
     0
 42
1.0
  3
isocp.shx
  4
chineset.shx
  0
STYLE
  5
79
330
3
100
AcDbSymbolTableRecord
100
AcDbTextStyleTableRecord
  2
ACISOGDT
 70
     0
 40
0.0
 41
1.0
 50
0.0
 71
     0
 42
2.5
  3
amgdt.shx
  4
chineset.shx
  0
STYLE
  5
12C9
330
3
100
AcDbSymbolTableRecord
100
AcDbTextStyleTableRecord
  2
CHINESET
 70
     0
 40
0.0
 41
1.0
 50
0.0
 71
     0
 42
3.0
  3
simplex.shx
  4
CHINESET.SHX
  0
STYLE
  5
291C
330
3
100
AcDbSymbolTableRecord
100
AcDbTextStyleTableRecord
  2
DAYUS
 70
     0
 40
0.0
 41
1.0
 50
0.0
 71
     0
 42
2.7
  3
simplex
  4
I:\dayus.shx
  0
ENDTAB
  0
TABLE
  2
VIEW
  5
6
330
0
100
AcDbSymbolTable
 70
     0
  0
ENDTAB
  0
TABLE
  2
UCS
  5
7
330
0
100
AcDbSymbolTable
 70
     0
  0
ENDTAB
  0
TABLE
  2
APPID
  5
9
330
0
100
AcDbSymbolTable
 70
    30
  0
APPID
  5
12
330
9
100
AcDbSymbolTableRecord
100
AcDbRegAppTableRecord
  2
ACAD
 70
     0
  0
APPID
  5
46
330
9
100
AcDbSymbolTableRecord
100
AcDbRegAppTableRecord
  2
MCAD_NO_VIS
 70
     0
  0
APPID
  5
47
330
9
100
AcDbSymbolTableRecord
100
AcDbRegAppTableRecord
  2
ACAD_TEMP_GRAPHIC
 70
     0
  0
APPID
  5
58
330
9
100
AcDbSymbolTableRecord
100
AcDbRegAppTableRecord
  2
ACATTRIBSERVICES
 70
     0
  0
APPID
  5
EE
330
9
100
AcDbSymbolTableRecord
100
AcDbRegAppTableRecord
  2
AD_DRAW
 70
     0
  0
APPID
  5
10C
330
9
100
AcDbSymbolTableRecord
100
AcDbRegAppTableRecord
  2
DESIGNERASSEMBLIES
 70
     0
  0
APPID
  5
111
330
9
100
AcDbSymbolTableRecord
100
AcDbRegAppTableRecord
  2
ACADM_DIM_EDIT
 70
     0
  0
APPID
  5
112
330
9
100
AcDbSymbolTableRecord
100
AcDbRegAppTableRecord
  2
AMDT_DM_ADJ
 70
     0
  0
APPID
  5
22C
330
9
100
AcDbSymbolTableRecord
100
AcDbRegAppTableRecord
  2
ACAD_DSTYLE_DIMTEXT_FILL
 70
     0
  0
APPID
  5
452
330
9
100
AcDbSymbolTableRecord
100
AcDbRegAppTableRecord
  2
GENIUS_GENOENT_13
 70
     0
  0
APPID
  5
453
330
9
100
AcDbSymbolTableRecord
100
AcDbRegAppTableRecord
  2
GENIUS_GENOBJ-N-CRS_13
 70
     0
  0
APPID
  5
454
330
9
100
AcDbSymbolTableRecord
100
AcDbRegAppTableRecord
  2
GENIUS_GENOLIS_13
 70
     0
  0
APPID
  5
455
330
9
100
AcDbSymbolTableRecord
100
AcDbRegAppTableRecord
  2
GENIUS_GENODEF_13
 70
     0
  0
APPID
  5
456
330
9
100
AcDbSymbolTableRecord
100
AcDbRegAppTableRecord
  2
GENIUS_GENOREF_13
 70
     0
  0
APPID
  5
6F3
330
9
100
AcDbSymbolTableRecord
100
AcDbRegAppTableRecord
  2
ACAD_PSEXT
 70
     0
  0
APPID
  5
808
330
9
100
AcDbSymbolTableRecord
100
AcDbRegAppTableRecord
  2
GENIUS_GENDTOL_13
 70
     0
  0
APPID
  5
124E
330
9
100
AcDbSymbolTableRecord
100
AcDbRegAppTableRecord
  2
GENIUS_GENOBJ-N-CEN_13
 70
     0
  0
APPID
  5
124F
330
9
100
AcDbSymbolTableRecord
100
AcDbRegAppTableRecord
  2
GENIUS_GENCEN_19
 70
     0
  0
APPID
  5
12CA
330
9
100
AcDbSymbolTableRecord
100
AcDbRegAppTableRecord
  2
GENIUS_GENREC_14
 70
     0
  0
APPID
  5
12CB
330
9
100
AcDbSymbolTableRecord
100
AcDbRegAppTableRecord
  2
GENIUS_GENOBJ-N-REC_13
 70
     0
  0
APPID
  5
1636
330
9
100
AcDbSymbolTableRecord
100
AcDbRegAppTableRecord
  2
GENIUS_GENDIM_13
 70
     0
  0
APPID
  5
1637
330
9
100
AcDbSymbolTableRecord
100
AcDbRegAppTableRecord
  2
GENIUS_GE3DTOL_13
 70
     0
  0
APPID
  5
16B7
330
9
100
AcDbSymbolTableRecord
100
AcDbRegAppTableRecord
  2
ASURF_PCURVE_APPNAME
 70
     0
  0
APPID
  5
16BC
330
9
100
AcDbSymbolTableRecord
100
AcDbRegAppTableRecord
  2
AMG_3D2D_5.0
 70
     0
  0
APPID
  5
3096
330
9
100
AcDbSymbolTableRecord
100
AcDbRegAppTableRecord
  2
SHEETFLAG
 70
     0
  0
APPID
  5
4553
330
9
100
AcDbSymbolTableRecord
100
AcDbRegAppTableRecord
  2
GENIUS_GENOBJ-N-HTC_13
 70
     0
  0
APPID
  5
4554
330
9
100
AcDbSymbolTableRecord
100
AcDbRegAppTableRecord
  2
GENIUS_GENHATCH_13
 70
     0
  0
APPID
  5
4555
330
9
100
AcDbSymbolTableRecord
100
AcDbRegAppTableRecord
  2
AMG_3D2D_5_0
 70
     0
  0
APPID
  5
4556
330
9
100
AcDbSymbolTableRecord
100
AcDbRegAppTableRecord
  2
ACAECLAYERSTANDARD
 70
     0
  0
APPID
  5
4557
330
9
100
AcDbSymbolTableRecord
100
AcDbRegAppTableRecord
  2
GENIUS_GENDIMSH_14
 70
     0
  0
ENDTAB
  0
TABLE
  2
DIMSTYLE
  5
A
330
0
100
AcDbSymbolTable
 70
    17
100
AcDbDimStyleTable
 71
     3
340
81
340
8B
340
86
  0
DIMSTYLE
105
81
330
A
100
AcDbSymbolTableRecord
100
AcDbDimStyleTableRecord
  2
AM_ISO
 70
     0
  4
"
 41
3.0
 42
1.5
 43
8.0
 44
1.5
 47
0.1
 48
0.1
 73
     0
 74
     0
 77
     1
 78
     8
 79
     2
140
3.5
141
0.0
143
0.0393701
146
0.6
147
1.0
172
     1
176
   256
177
   256
178
   256
271
     2
272
     2
283
     0
284
     8
340
11
371
    -1
372
    -1
  0
DIMSTYLE
105
82
330
A
100
AcDbSymbolTableRecord
100
AcDbDimStyleTableRecord
  2
AM_ISO$3
 70
     0
  4
"
 41
3.0
 42
1.5
 43
8.0
 44
1.5
 47
0.1
 48
0.1
 73
     0
 77
     1
 78
     8
 79
     2
140
3.5
141
0.0
143
0.0393701
146
0.6
147
1.0
176
   256
177
   256
178
   256
271
     2
272
     2
283
     0
284
     8
288
     1
289
     0
340
11
371
    -1
372
    -1
  0
DIMSTYLE
105
83
330
A
100
AcDbSymbolTableRecord
100
AcDbDimStyleTableRecord
  2
AM_ISO$4
 70
     0
  4
"
 41
3.0
 42
1.5
 43
8.0
 44
1.5
 47
0.1
 48
0.1
 73
     0
 77
     1
 78
     8
 79
     2
140
3.5
141
0.0
143
0.0393701
146
0.6
147
1.0
176
   256
177
   256
178
   256
271
     2
272
     2
283
     0
284
     8
288
     1
289
     0
340
11
371
    -1
372
    -1
  0
DIMSTYLE
105
84
330
A
100
AcDbSymbolTableRecord
100
AcDbDimStyleTableRecord
  2
AM_ISO$6
 70
     0
  4
"
 41
3.0
 42
1.5
 43
8.0
 44
1.5
 47
0.1
 48
0.1
 73
     0
 74
     0
 78
     8
 79
     2
140
3.5
141
0.0
143
0.0393701
146
0.6
147
1.0
172
     1
176
   256
177
   256
178
   256
271
     2
272
     2
283
     0
284
     8
340
11
371
    -1
372
    -1
  0
DIMSTYLE
105
85
330
A
100
AcDbSymbolTableRecord
100
AcDbDimStyleTableRecord
  2
AM_ISO$7
 70
     0
  4
"
 41
3.0
 42
1.5
 43
8.0
 44
1.5
 47
0.1
 48
0.1
 73
     0
 74
     0
 77
     1
 78
     8
 79
     2
140
5.0
141
0.0
143
0.0393701
146
0.6
147
1.0
172
     1
176
   256
177
   256
178
   256
271
     2
272
     2
283
     0
284
     8
340
11
371
    -1
372
    -1
  0
DIMSTYLE
105
86
330
A
100
AcDbSymbolTableRecord
100
AcDbDimStyleTableRecord
  2
AM_ISO$SF
 70
     0
  4
"
 41
2.5
 42
1.0
 43
10.0
 44
1.0
 47
0.1
 48
0.1
 73
     0
 74
     0
 75
     1
 76
     1
 77
     1
 78
     8
 79
     2
140
3.5
141
0.0
143
0.0393701
146
0.71
147
1.5
172
     1
176
   256
177
   256
178
     2
271
     2
272
     3
274
     4
283
     0
284
     8
340
11
371
    -1
372
    -1
  0
DIMSTYLE
105
8B
330
A
100
AcDbSymbolTableRecord
100
AcDbDimStyleTableRecord
  2
AM_ISO$SH
 70
     0
  4
"
 41
2.5
 42
1.0
 43
10.0
 44
1.0
 47
0.1
 48
0.1
 73
     0
 74
     0
 75
     1
 76
     1
 77
     1
 78
     8
 79
     2
140
3.5
141
0.0
143
0.0393701
144
2.0
146
0.71
147
1.5
172
     1
173
     1
176
   256
177
   256
178
     2
271
     2
272
     3
274
     4
283
     0
284
     8
340
11
343
87
371
    -1
372
    -1
  0
DIMSTYLE
105
40B
102
{ACAD_REACTORS
330
54E8
330
54E7
330
54E6
330
54E5
330
54E4
330
54E3
330
54E0
330
54DF
330
54F0
330
54E2
330
54E1
330
54EB
330
54EF
330
54EE
330
54ED
330
54EC
330
54E9
330
5AAF
102
}
330
A
100
AcDbSymbolTableRecord
100
AcDbDimStyleTableRecord
  2
AM_ISO$0
 70
     0
  4
"
 41
3.0
 42
1.5
 43
8.0
 44
1.5
 47
0.1
 48
0.1
 73
     0
 74
     0
 77
     1
 78
     8
 79
     2
140
3.5
141
0.0
143
0.0393701
146
0.6
147
1.0
172
     1
176
   256
177
   256
178
   256
271
     2
272
     2
283
     0
284
     8
340
11
371
    -1
372
    -1
  0
DIMSTYLE
105
291D
330
A
100
AcDbSymbolTableRecord
100
AcDbDimStyleTableRecord
  2
STANDARD
 70
     0
 41
2.5
 42
0.625
 43
3.75
 44
1.25
 73
     0
 74
     0
 77
     1
 78
     8
140
2.5
141
2.5
143
0.0394
147
0.625
171
     4
172
     1
273
     8
274
     4
277
     6
340
11
  0
ENDTAB
  0
TABLE
  2
BLOCK_RECORD
  5
1
330
0
100
AcDbSymbolTable
 70
   115
  0
BLOCK_RECORD
  5
1F
102
{ACAD_XDICTIONARY
360
8F
102
}
330
1
100
AcDbSymbolTableRecord
100
AcDbBlockTableRecord
  2
*Model_Space
340
22
  0
BLOCK_RECORD
  5
1B
330
1
100
AcDbSymbolTableRecord
100
AcDbBlockTableRecord
  2
*Paper_Space
340
1E
  0
BLOCK_RECORD
  5
23
330
1
100
AcDbSymbolTableRecord
100
AcDbBlockTableRecord
  2
*Paper_Space0
340
26
  0
BLOCK_RECORD
  5
87
330
1
100
AcDbSymbolTableRecord
100
AcDbBlockTableRecord
  2
GENAXEH
340
0
  0
BLOCK_RECORD
  5
286A
102
{ACAD_XDICTIONARY
360
286B
102
}
330
1
100
AcDbSymbolTableRecord
100
AcDbBlockTableRecord
  2
S1
340
0
102
{BLKREFS
331
34B0
331
34B1
331
34B2
331
34B3
102
}
1001
ACAD
1000
DesignCenter Data
1002
{
1070
     1
1070
     4
1002
}
  0
BLOCK_RECORD
  5
2B95
330
1
100
AcDbSymbolTableRecord
100
AcDbBlockTableRecord
  2
*D5
340
0
  0
BLOCK_RECORD
  5
2BA1
330
1
100
AcDbSymbolTableRecord
100
AcDbBlockTableRecord
  2
*D6
340
0
  0
BLOCK_RECORD
  5
2BAD
330
1
100
AcDbSymbolTableRecord
100
AcDbBlockTableRecord
  2
*D7
340
0
  0
BLOCK_RECORD
  5
2BB9
330
1
100
AcDbSymbolTableRecord
100
AcDbBlockTableRecord
  2
*D8
340
0
  0
BLOCK_RECORD
  5
2BC5
330
1
100
AcDbSymbolTableRecord
100
AcDbBlockTableRecord
  2
*D9
340
0
  0
BLOCK_RECORD
  5
2BD1
330
1
100
AcDbSymbolTableRecord
100
AcDbBlockTableRecord
  2
*D10
340
0
  0
BLOCK_RECORD
  5
2BDF
330
1
100
AcDbSymbolTableRecord
100
AcDbBlockTableRecord
  2
*D11
340
0
  0
BLOCK_RECORD
  5
2BEC
330
1
100
AcDbSymbolTableRecord
100
AcDbBlockTableRecord
  2
*D12
340
0
  0
BLOCK_RECORD
  5
2BF5
330
1
100
AcDbSymbolTableRecord
100
AcDbBlockTableRecord
  2
*D13
340
0
  0
BLOCK_RECORD
  5
2C01
330
1
100
AcDbSymbolTableRecord
100
AcDbBlockTableRecord
  2
*D14
340
0
  0
BLOCK_RECORD
  5
2C0D
330
1
100
AcDbSymbolTableRecord
100
AcDbBlockTableRecord
  2
*D15
340
0
  0
BLOCK_RECORD
  5
2C19
330
1
100
AcDbSymbolTableRecord
100
AcDbBlockTableRecord
  2
*D16
340
0
  0
BLOCK_RECORD
  5
2C25
330
1
100
AcDbSymbolTableRecord
100
AcDbBlockTableRecord
  2
*D17
340
0
  0
BLOCK_RECORD
  5
2C31
330
1
100
AcDbSymbolTableRecord
100
AcDbBlockTableRecord
  2
*D18
340
0
  0
BLOCK_RECORD
  5
3E47
330
1
100
AcDbSymbolTableRecord
100
AcDbBlockTableRecord
  2
*D40
340
0
  0
BLOCK_RECORD
  5
3E53
330
1
100
AcDbSymbolTableRecord
100
AcDbBlockTableRecord
  2
*D41
340
0
  0
BLOCK_RECORD
  5
3E5F
330
1
100
AcDbSymbolTableRecord
100
AcDbBlockTableRecord
  2
*D42
340
0
  0
BLOCK_RECORD
  5
3E6D
330
1
100
AcDbSymbolTableRecord
100
AcDbBlockTableRecord
  2
*D43
340
0
  0
BLOCK_RECORD
  5
41B3
330
1
100
AcDbSymbolTableRecord
100
AcDbBlockTableRecord
  2
*D44
340
0
  0
BLOCK_RECORD
  5
51F7
330
1
100
AcDbSymbolTableRecord
100
AcDbBlockTableRecord
  2
SEANNOT_GROUP1
340
0
102
{BLKREFS
331
54A7
102
}
  0
BLOCK_RECORD
  5
5200
330
1
100
AcDbSymbolTableRecord
100
AcDbBlockTableRecord
  2
SEANNOT_GROUP2
340
0
102
{BLKREFS
331
54A8
102
}
  0
BLOCK_RECORD
  5
5209
330
1
100
AcDbSymbolTableRecord
100
AcDbBlockTableRecord
  2
SEANNOT_GROUP3
340
0
102
{BLKREFS
331
54A9
102
}
  0
BLOCK_RECORD
  5
5212
330
1
100
AcDbSymbolTableRecord
100
AcDbBlockTableRecord
  2
SEANNOT_GROUP4
340
0
102
{BLKREFS
331
54AA
102
}
  0
BLOCK_RECORD
  5
521B
330
1
100
AcDbSymbolTableRecord
100
AcDbBlockTableRecord
  2
SEANNOT_GROUP5
340
0
102
{BLKREFS
331
54AB
102
}
  0
BLOCK_RECORD
  5
5224
330
1
100
AcDbSymbolTableRecord
100
AcDbBlockTableRecord
  2
SEANNOT_GROUP6
340
0
102
{BLKREFS
331
54AC
102
}
  0
BLOCK_RECORD
  5
522D
330
1
100
AcDbSymbolTableRecord
100
AcDbBlockTableRecord
  2
SEANNOT_GROUP7
340
0
102
{BLKREFS
331
54AD
331
54D5
102
}
  0
BLOCK_RECORD
  5
5236
330
1
100
AcDbSymbolTableRecord
100
AcDbBlockTableRecord
  2
SEANNOT_GROUP8
340
0
102
{BLKREFS
331
54AE
331
54D6
102
}
  0
BLOCK_RECORD
  5
523F
330
1
100
AcDbSymbolTableRecord
100
AcDbBlockTableRecord
  2
SEANNOT_GROUP9
340
0
102
{BLKREFS
331
54AF
331
54D7
102
}
  0
BLOCK_RECORD
  5
524F
330
1
100
AcDbSymbolTableRecord
100
AcDbBlockTableRecord
  2
SEANNOT_GROUP11
340
0
102
{BLKREFS
331
54B1
102
}
  0
BLOCK_RECORD
  5
5253
330
1
100
AcDbSymbolTableRecord
100
AcDbBlockTableRecord
  2
SEANNOT_GROUP12
340
0
102
{BLKREFS
331
54B2
102
}
  0
BLOCK_RECORD
  5
5257
330
1
100
AcDbSymbolTableRecord
100
AcDbBlockTableRecord
  2
SEANNOT_GROUP13
340
0
102
{BLKREFS
331
54B3
331
54DB
102
}
  0
BLOCK_RECORD
  5
525B
330
1
100
AcDbSymbolTableRecord
100
AcDbBlockTableRecord
  2
SE
340
0
102
{BLKREFS
331
54B4
102
}
  0
BLOCK_RECORD
  5
53C7
330
1
100
AcDbSymbolTableRecord
100
AcDbBlockTableRecord
  2
SE6
340
0
102
{BLKREFS
331
54C2
331
54EA
102
}
  0
BLOCK_RECORD
  5
54F1
330
1
100
AcDbSymbolTableRecord
100
AcDbBlockTableRecord
  2
*D97
340
0
  0
BLOCK_RECORD
  5
54FB
330
1
100
AcDbSymbolTableRecord
100
AcDbBlockTableRecord
  2
*D98
340
0
  0
BLOCK_RECORD
  5
5506
330
1
100
AcDbSymbolTableRecord
100
AcDbBlockTableRecord
  2
*D99
340
0
  0
BLOCK_RECORD
  5
5510
330
1
100
AcDbSymbolTableRecord
100
AcDbBlockTableRecord
  2
*D100
340
0
  0
BLOCK_RECORD
  5
551A
330
1
100
AcDbSymbolTableRecord
100
AcDbBlockTableRecord
  2
*D101
340
0
  0
BLOCK_RECORD
  5
5524
330
1
100
AcDbSymbolTableRecord
100
AcDbBlockTableRecord
  2
*D102
340
0
  0
BLOCK_RECORD
  5
552E
330
1
100
AcDbSymbolTableRecord
100
AcDbBlockTableRecord
  2
*D103
340
0
  0
BLOCK_RECORD
  5
5538
330
1
100
AcDbSymbolTableRecord
100
AcDbBlockTableRecord
  2
*D104
340
0
  0
BLOCK_RECORD
  5
5544
330
1
100
AcDbSymbolTableRecord
100
AcDbBlockTableRecord
  2
*D105
340
0
  0
BLOCK_RECORD
  5
554E
330
1
100
AcDbSymbolTableRecord
100
AcDbBlockTableRecord
  2
*D106
340
0
  0
BLOCK_RECORD
  5
5558
330
1
100
AcDbSymbolTableRecord
100
AcDbBlockTableRecord
  2
*D107
340
0
  0
BLOCK_RECORD
  5
5562
330
1
100
AcDbSymbolTableRecord
100
AcDbBlockTableRecord
  2
*D108
340
0
  0
BLOCK_RECORD
  5
556C
330
1
100
AcDbSymbolTableRecord
100
AcDbBlockTableRecord
  2
*D109
340
0
  0
BLOCK_RECORD
  5
5576
330
1
100
AcDbSymbolTableRecord
100
AcDbBlockTableRecord
  2
*D110
340
0
  0
BLOCK_RECORD
  5
5580
330
1
100
AcDbSymbolTableRecord
100
AcDbBlockTableRecord
  2
*D111
340
0
  0
BLOCK_RECORD
  5
558A
330
1
100
AcDbSymbolTableRecord
100
AcDbBlockTableRecord
  2
*D112
340
0
  0
BLOCK_RECORD
  5
5594
330
1
100
AcDbSymbolTableRecord
100
AcDbBlockTableRecord
  2
*D113
340
0
  0
BLOCK_RECORD
  5
5AB0
330
1
100
AcDbSymbolTableRecord
100
AcDbBlockTableRecord
  2
*D114
340
0
  0
ENDTAB
  0
ENDSEC
  0
SECTION
  2
BLOCKS
  0
BLOCK
  5
20
330
1F
100
AcDbEntity
  8
0
100
AcDbBlockBegin
  2
*Model_Space
 70
     0
 10
0.0
 20
0.0
 30
0.0
  3
*Model_Space
  1

  0
ENDBLK
  5
21
330
1F
100
AcDbEntity
  8
0
100
AcDbBlockEnd
  0
BLOCK
  5
1C
330
1B
100
AcDbEntity
 67
     1
  8
0
100
AcDbBlockBegin
  2
*Paper_Space
 70
     0
 10
0.0
 20
0.0
 30
0.0
  3
*Paper_Space
  1

  0
ENDBLK
  5
1D
330
1B
100
AcDbEntity
 67
     1
  8
0
100
AcDbBlockEnd
  0
BLOCK
  5
24
330
23
100
AcDbEntity
  8
0
100
AcDbBlockBegin
  2
*Paper_Space0
 70
     0
 10
0.0
 20
0.0
 30
0.0
  3
*Paper_Space0
  1

  0
ENDBLK
  5
25
330
23
100
AcDbEntity
  8
0
100
AcDbBlockEnd
  0
BLOCK
  5
89
330
87
100
AcDbEntity
  8
0
100
AcDbBlockBegin
  2
GENAXEH
 70
     0
 10
0.0
 20
0.0
 30
0.0
  3
GENAXEH
  1

  0
LINE
  5
88
330
87
100
AcDbEntity
  8
0
100
AcDbLine
 10
-1.0
 20
0.0
 30
0.0
 11
1.0
 21
0.0
 31
0.0
  0
ENDBLK
  5
8A
330
87
100
AcDbEntity
  8
0
100
AcDbBlockEnd
  0
BLOCK
  5
286C
330
286A
100
AcDbEntity
  8
0
100
AcDbBlockBegin
  2
S1
 70
     0
 10
0.0
 20
0.0
 30
0.0
  3
S1
  1

  0
LINE
  5
286D
330
286A
100
AcDbEntity
  8
AM_5
100
AcDbLine
 10
0.0
 20
4.000000000000028
 30
0.0
 11
3.999999999999971
 21
4.0
 31
0.0
  0
LINE
  5
286E
330
286A
100
AcDbEntity
  8
AM_5
100
AcDbLine
 10
0.0
 20
0.0
 30
0.0
 11
3.999999999999971
 21
0.0
 31
0.0
  0
LINE
  5
286F
330
286A
100
AcDbEntity
  8
AM_5
100
AcDbLine
 10
-0.0000000000000284
 20
4.0
 30
0.0
 11
-0.0000000000000284
 21
0.0
 31
0.0
  0
TEXT
  5
2870
330
286A
100
AcDbEntity
  8
AM_5
100
AcDbText
 10
1.6785714285714
 20
0.5
 30
0.0
 40
3.0
  1
1
 41
0.9
  7
DAYUS
 72
     4
 11
1.999999999999971
 21
2.0
 31
0.0
100
AcDbText
  0
LINE
  5
2871
330
286A
100
AcDbEntity
  8
AM_5
100
AcDbLine
 10
3.999999999999971
 20
4.0
 30
0.0
 11
3.999999999999971
 21
0.0
 31
0.0
  0
ENDBLK
  5
2872
330
286A
100
AcDbEntity
  8
0
100
AcDbBlockEnd
  0
BLOCK
  5
2B9F
330
2B95
100
AcDbEntity
  8
0
100
AcDbBlockBegin
  2
*D5
 70
     1
 10
0.0
 20
0.0
 30
0.0
  3
*D5
  1

  0
LINE
  5
586B
330
2B95
100
AcDbEntity
  8
AM_REFDIM
100
AcDbLine
 10
197.7372914933157
 20
381.4621675580884
 30
0.0
 11
197.7372914933157
 21
402.2792226283502
 31
0.0
  0
LINE
  5
586C
330
2B95
100
AcDbEntity
  8
AM_REFDIM
100
AcDbLine
 10
233.7372914933157
 20
381.4621675580884
 30
0.0
 11
233.7372914933157
 21
402.2792226283502
 31
0.0
  0
LINE
  5
586D
330
2B95
100
AcDbEntity
  8
AM_REFDIM
100
AcDbLine
 10
200.7372914933157
 20
400.7792226283501
 30
0.0
 11
230.7372914933157
 21
400.7792226283501
 31
0.0
  0
SOLID
  5
586E
330
2B95
100
AcDbEntity
  8
AM_REFDIM
100
AcDbTrace
 10
200.7372914933157
 20
401.2792226283501
 30
0.0
 11
200.7372914933157
 21
400.2792226283501
 31
0.0
 12
197.7372914933157
 22
400.7792226283501
 32
0.0
 13
197.7372914933157
 23
400.7792226283501
 33
0.0
  0
SOLID
  5
586F
330
2B95
100
AcDbEntity
  8
AM_REFDIM
100
AcDbTrace
 10
230.7372914933157
 20
401.2792226283501
 30
0.0
 11
230.7372914933157
 21
400.2792226283501
 31
0.0
 12
233.7372914933157
 22
400.7792226283501
 32
0.0
 13
233.7372914933157
 23
400.7792226283501
 33
0.0
  0
MTEXT
  5
5870
330
2B95
100
AcDbEntity
  8
AM_REFDIM
100
AcDbMText
 10
215.7372914933157
 20
403.5292226283501
 30
0.0
 40
3.5
 41
0.0
 71
     5
 72
     1
  1
{\Famgdt|c136;o}36
 73
     1
 44
1.0
1001
ACAD
1000
MTEXTBEGIN
1070
    73
1070
     1
1070
    44
1040
1.0
1070
    74
1070
     0
1000
MTEXTEND
  0
POINT
  5
5871
330
2B95
100
AcDbEntity
  8
Defpoints
 62
     0
100
AcDbPoint
 10
197.7372914933157
 20
379.9621675580884
 30
0.0
  0
POINT
  5
5872
330
2B95
100
AcDbEntity
  8
Defpoints
 62
     0
100
AcDbPoint
 10
233.7372914933157
 20
379.9621675580884
 30
0.0
  0
POINT
  5
5873
330
2B95
100
AcDbEntity
  8
Defpoints
 62
     0
100
AcDbPoint
 10
233.7372914933157
 20
400.7792226283501
 30
0.0
  0
ENDBLK
  5
2BA0
330
2B95
100
AcDbEntity
  8
0
100
AcDbBlockEnd
  0
BLOCK
  5
2BAB
330
2BA1
100
AcDbEntity
  8
0
100
AcDbBlockBegin
  2
*D6
 70
     1
 10
0.0
 20
0.0
 30
0.0
  3
*D6
  1

  0
LINE
  5
5874
330
2BA1
100
AcDbEntity
  8
AM_REFDIM
100
AcDbLine
 10
348.6773424993616
 20
368.8462726283503
 30
0.0
 11
348.6773424993616
 21
389.728806774129
 31
0.0
  0
LINE
  5
5875
330
2BA1
100
AcDbEntity
  8
AM_REFDIM
100
AcDbLine
 10
320.6773424993616
 20
384.3542226283503
 30
0.0
 11
320.6773424993616
 21
389.728806774129
 31
0.0
  0
LINE
  5
5876
330
2BA1
100
AcDbEntity
  8
AM_REFDIM
100
AcDbLine
 10
345.6773424993616
 20
388.228806774129
 30
0.0
 11
323.6773424993616
 21
388.228806774129
 31
0.0
  0
SOLID
  5
5877
330
2BA1
100
AcDbEntity
  8
AM_REFDIM
100
AcDbTrace
 10
345.6773424993616
 20
388.728806774129
 30
0.0
 11
345.6773424993616
 21
387.728806774129
 31
0.0
 12
348.6773424993616
 22
388.228806774129
 32
0.0
 13
348.6773424993616
 23
388.228806774129
 33
0.0
  0
SOLID
  5
5878
330
2BA1
100
AcDbEntity
  8
AM_REFDIM
100
AcDbTrace
 10
323.6773424993616
 20
388.728806774129
 30
0.0
 11
323.6773424993616
 21
387.728806774129
 31
0.0
 12
320.6773424993616
 22
388.228806774129
 32
0.0
 13
320.6773424993616
 23
388.228806774129
 33
0.0
  0
MTEXT
  5
5879
330
2BA1
100
AcDbEntity
  8
AM_REFDIM
100
AcDbMText
 10
334.6773424993616
 20
390.979151262318
 30
0.0
 40
3.5
 41
0.0
 71
     5
 72
     1
  1
28
 73
     1
 44
1.0
1001
ACAD
1000
MTEXTBEGIN
1070
    73
1070
     1
1070
    44
1040
1.0
1070
    74
1070
     0
1000
MTEXTEND
  0
POINT
  5
587A
330
2BA1
100
AcDbEntity
  8
Defpoints
 62
     0
100
AcDbPoint
 10
348.6773424993616
 20
367.3462726283503
 30
0.0
  0
POINT
  5
587B
330
2BA1
100
AcDbEntity
  8
Defpoints
 62
     0
100
AcDbPoint
 10
320.6773424993616
 20
382.8542226283503
 30
0.0
  0
POINT
  5
587C
330
2BA1
100
AcDbEntity
  8
Defpoints
 62
     0
100
AcDbPoint
 10
320.6773424993616
 20
388.228806774129
 30
0.0
  0
ENDBLK
  5
2BAC
330
2BA1
100
AcDbEntity
  8
0
100
AcDbBlockEnd
  0
BLOCK
  5
2BB7
330
2BAD
100
AcDbEntity
  8
0
100
AcDbBlockBegin
  2
*D7
 70
     1
 10
0.0
 20
0.0
 30
0.0
  3
*D7
  1

  0
LINE
  5
587D
330
2BAD
100
AcDbEntity
  8
AM_REFDIM
100
AcDbLine
 10
383.9773424993616
 20
368.8462726283503
 30
0.0
 11
383.9773424993616
 21
389.7288067741288
 31
0.0
  0
LINE
  5
587E
330
2BAD
100
AcDbEntity
  8
AM_REFDIM
100
AcDbLine
 10
392.6773424993616
 20
384.3542226283503
 30
0.0
 11
392.6773424993616
 21
389.7288067741288
 31
0.0
  0
LINE
  5
587F
330
2BAD
100
AcDbEntity
  8
AM_REFDIM
100
AcDbLine
 10
386.9773424993616
 20
388.2288067741288
 30
0.0
 11
389.6773424993616
 21
388.2288067741288
 31
0.0
  0
SOLID
  5
5880
330
2BAD
100
AcDbEntity
  8
AM_REFDIM
100
AcDbTrace
 10
386.9773424993616
 20
388.7288067741288
 30
0.0
 11
386.9773424993616
 21
387.7288067741288
 31
0.0
 12
383.9773424993616
 22
388.2288067741288
 32
0.0
 13
383.9773424993616
 23
388.2288067741288
 33
0.0
  0
SOLID
  5
5881
330
2BAD
100
AcDbEntity
  8
AM_REFDIM
100
AcDbTrace
 10
389.6773424993616
 20
388.7288067741288
 30
0.0
 11
389.6773424993616
 21
387.7288067741288
 31
0.0
 12
392.6773424993616
 22
388.2288067741288
 32
0.0
 13
392.6773424993616
 23
388.2288067741288
 33
0.0
  0
MTEXT
  5
5882
330
2BAD
100
AcDbEntity
  8
AM_REFDIM
100
AcDbMText
 10
388.3273424993616
 20
390.9788067741288
 30
0.0
 40
3.5
 41
0.0
 71
     5
 72
     1
  1
8.7
 73
     1
 44
1.0
1001
ACAD
1000
MTEXTBEGIN
1070
    73
1070
     1
1070
    44
1040
1.0
1070
    74
1070
     0
1000
MTEXTEND
  0
POINT
  5
5883
330
2BAD
100
AcDbEntity
  8
Defpoints
 62
     0
100
AcDbPoint
 10
383.9773424993616
 20
367.3462726283503
 30
0.0
  0
POINT
  5
5884
330
2BAD
100
AcDbEntity
  8
Defpoints
 62
     0
100
AcDbPoint
 10
392.6773424993616
 20
382.8542226283503
 30
0.0
  0
POINT
  5
5885
330
2BAD
100
AcDbEntity
  8
Defpoints
 62
     0
100
AcDbPoint
 10
392.6773424993616
 20
388.2288067741288
 30
0.0
  0
ENDBLK
  5
2BB8
330
2BAD
100
AcDbEntity
  8
0
100
AcDbBlockEnd
  0
BLOCK
  5
2BC3
330
2BB9
100
AcDbEntity
  8
0
100
AcDbBlockBegin
  2
*D8
 70
     1
 10
0.0
 20
0.0
 30
0.0
  3
*D8
  1

  0
LINE
  5
5886
330
2BB9
100
AcDbEntity
  8
AM_REFDIM
100
AcDbLine
 10
320.6773424993616
 20
384.3542226283503
 30
0.0
 11
320.6773424993616
 21
397.7288067741291
 31
0.0
  0
LINE
  5
5887
330
2BB9
100
AcDbEntity
  8
AM_REFDIM
100
AcDbLine
 10
392.6773424993616
 20
384.3542226283503
 30
0.0
 11
392.6773424993616
 21
397.7288067741291
 31
0.0
  0
LINE
  5
5888
330
2BB9
100
AcDbEntity
  8
AM_REFDIM
100
AcDbLine
 10
323.6773424993616
 20
396.2288067741291
 30
0.0
 11
389.6773424993616
 21
396.2288067741291
 31
0.0
  0
SOLID
  5
5889
330
2BB9
100
AcDbEntity
  8
AM_REFDIM
100
AcDbTrace
 10
323.6773424993616
 20
396.7288067741291
 30
0.0
 11
323.6773424993616
 21
395.728806774129
 31
0.0
 12
320.6773424993616
 22
396.2288067741291
 32
0.0
 13
320.6773424993616
 23
396.2288067741291
 33
0.0
  0
SOLID
  5
588A
330
2BB9
100
AcDbEntity
  8
AM_REFDIM
100
AcDbTrace
 10
389.6773424993616
 20
396.7288067741291
 30
0.0
 11
389.6773424993616
 21
395.728806774129
 31
0.0
 12
392.6773424993616
 22
396.2288067741291
 32
0.0
 13
392.6773424993616
 23
396.2288067741291
 33
0.0
  0
MTEXT
  5
588B
330
2BB9
100
AcDbEntity
  8
AM_REFDIM
100
AcDbMText
 10
356.6773424993616
 20
398.9791512623181
 30
0.0
 40
3.5
 41
0.0
 71
     5
 72
     1
  1
62+ST=72
 73
     1
 44
1.0
1001
ACAD
1000
MTEXTBEGIN
1070
    73
1070
     1
1070
    44
1040
1.0
1070
    74
1070
     0
1000
MTEXTEND
  0
POINT
  5
588C
330
2BB9
100
AcDbEntity
  8
Defpoints
 62
     0
100
AcDbPoint
 10
320.6773424993616
 20
382.8542226283503
 30
0.0
  0
POINT
  5
588D
330
2BB9
100
AcDbEntity
  8
Defpoints
 62
     0
100
AcDbPoint
 10
392.6773424993616
 20
382.8542226283503
 30
0.0
  0
POINT
  5
588E
330
2BB9
100
AcDbEntity
  8
Defpoints
 62
     0
100
AcDbPoint
 10
392.6773424993616
 20
396.2288067741291
 30
0.0
  0
ENDBLK
  5
2BC4
330
2BB9
100
AcDbEntity
  8
0
100
AcDbBlockEnd
  0
BLOCK
  5
2BCF
330
2BC5
100
AcDbEntity
  8
0
100
AcDbBlockBegin
  2
*D9
 70
     1
 10
0.0
 20
0.0
 30
0.0
  3
*D9
  1

  0
LINE
  5
588F
330
2BC5
100
AcDbEntity
  8
AM_REFDIM
100
AcDbLine
 10
229.5540909358744
 20
376.5374231857916
 30
0.0
 11
250.7298213337274
 21
355.3616927879386
 31
0.0
  0
LINE
  5
5890
330
2BC5
100
AcDbEntity
  8
AM_REFDIM
100
AcDbLine
 10
204.0540909358743
 20
351.0374231857917
 30
0.0
 11
225.2298213337274
 21
329.8616927879386
 31
0.0
  0
LINE
  5
5891
330
2BC5
100
AcDbEntity
  8
AM_REFDIM
100
AcDbLine
 10
247.5294230060515
 20
354.29489334538
 30
0.0
 11
226.296620776286
 21
333.0620911156145
 31
0.0
  0
SOLID
  5
5892
330
2BC5
100
AcDbEntity
  8
AM_REFDIM
100
AcDbTrace
 10
247.1738231918653
 20
354.6504931595662
 30
0.0
 11
247.8850228202377
 21
353.9392935311937
 31
0.0
 12
249.6630218911688
 22
356.4284922304972
 32
0.0
 13
249.6630218911688
 23
356.4284922304972
 33
0.0
  0
SOLID
  5
5893
330
2BC5
100
AcDbEntity
  8
AM_REFDIM
100
AcDbTrace
 10
225.9410209620998
 20
333.4176909298006
 30
0.0
 11
226.6522205904722
 21
332.7064913014282
 31
0.0
 12
224.1630218911687
 22
330.9284922304972
 32
0.0
 13
224.1630218911687
 23
330.9284922304972
 33
0.0
  0
MTEXT
  5
5894
330
2BC5
100
AcDbEntity
  8
AM_REFDIM
100
AcDbMText
 10
234.8327629781795
 20
345.7587511434865
 30
0.0
 40
3.520258559996435
 41
0.0
 71
     5
 72
     1
  1
(36)
 11
0.7071067811865476
 21
0.7071067811865475
 31
0.0
 73
     1
 44
1.0
1001
ACAD
1000
MTEXTBEGIN
1070
    73
1070
     1
1070
    44
1040
1.0
1070
    74
1070
     0
1000
MTEXTEND
  0
POINT
  5
5895
330
2BC5
100
AcDbEntity
  8
Defpoints
 62
     0
100
AcDbPoint
 10
228.4872914933158
 20
377.6042226283503
 30
0.0
  0
POINT
  5
5896
330
2BC5
100
AcDbEntity
  8
Defpoints
 62
     0
100
AcDbPoint
 10
202.9872914933157
 20
352.1042226283503
 30
0.0
  0
POINT
  5
5897
330
2BC5
100
AcDbEntity
  8
Defpoints
 62
     0
100
AcDbPoint
 10
224.1630218911687
 20
330.9284922304972
 30
0.0
  0
ENDBLK
  5
2BD0
330
2BC5
100
AcDbEntity
  8
0
100
AcDbBlockEnd
  0
BLOCK
  5
2BDD
330
2BD1
100
AcDbEntity
  8
0
100
AcDbBlockBegin
  2
*D10
 70
     1
 10
0.0
 20
0.0
 30
0.0
  3
*D10
  1

  0
LINE
  5
5898
330
2BD1
100
AcDbEntity
  8
AM_REFDIM
100
AcDbLine
 10
320.6773424993616
 20
384.3629048683487
 30
0.0
 11
320.6773424993616
 21
389.7374890141275
 31
0.0
  0
LINE
  5
5899
330
2BD1
100
AcDbEntity
  8
AM_REFDIM
100
AcDbLine
 10
317.6773424993616
 20
375.3129048683487
 30
0.0
 11
317.6773424993616
 21
389.7374890141275
 31
0.0
  0
LINE
  5
589A
330
2BD1
100
AcDbEntity
  8
AM_REFDIM
100
AcDbLine
 10
323.6947069793586
 20
388.228806774129
 30
0.0
 11
326.7120714593555
 21
388.228806774129
 31
0.0
  0
LINE
  5
589B
330
2BD1
100
AcDbEntity
  8
AM_REFDIM
100
AcDbLine
 10
314.6599780193647
 20
388.228806774129
 30
0.0
 11
308.0771199115101
 21
388.228806774129
 31
0.0
  0
LINE
  5
589C
330
2BD1
100
AcDbEntity
  8
AM_REFDIM
100
AcDbLine
 10
320.6773424993616
 20
388.228806774129
 30
0.0
 11
317.6773424993616
 21
388.228806774129
 31
0.0
  0
SOLID
  5
589D
330
2BD1
100
AcDbEntity
  8
AM_REFDIM
100
AcDbTrace
 10
323.6947069793586
 20
388.7317008541285
 30
0.0
 11
323.6947069793586
 21
387.7259126941295
 31
0.0
 12
320.6773424993616
 22
388.228806774129
 32
0.0
 13
320.6773424993616
 23
388.228806774129
 33
0.0
  0
SOLID
  5
589E
330
2BD1
100
AcDbEntity
  8
AM_REFDIM
100
AcDbTrace
 10
314.6599780193647
 20
388.7317008541285
 30
0.0
 11
314.6599780193647
 21
387.7259126941295
 31
0.0
 12
317.6773424993616
 22
388.228806774129
 32
0.0
 13
317.6773424993616
 23
388.228806774129
 33
0.0
  0
MTEXT
  5
589F
330
2BD1
100
AcDbEntity
  8
AM_REFDIM
100
AcDbMText
 10
309.8598667254389
 20
390.9947242141262
 30
0.0
 40
3.520258559996435
 41
0.0
 71
     5
 72
     1
  1
3
 73
     1
 44
1.0
1001
ACAD
1000
MTEXTBEGIN
1070
    73
1070
     1
1070
    44
1040
1.0
1070
    74
1070
     0
1000
MTEXTEND
  0
POINT
  5
58A0
330
2BD1
100
AcDbEntity
  8
Defpoints
 62
     0
100
AcDbPoint
 10
320.6773424993616
 20
382.8542226283503
 30
0.0
  0
POINT
  5
58A1
330
2BD1
100
AcDbEntity
  8
Defpoints
 62
     0
100
AcDbPoint
 10
317.6773424993616
 20
373.8042226283503
 30
0.0
  0
POINT
  5
58A2
330
2BD1
100
AcDbEntity
  8
Defpoints
 62
     0
100
AcDbPoint
 10
317.6773424993616
 20
388.228806774129
 30
0.0
  0
ENDBLK
  5
2BDE
330
2BD1
100
AcDbEntity
  8
0
100
AcDbBlockEnd
  0
BLOCK
  5
2BEA
330
2BDF
100
AcDbEntity
  8
0
100
AcDbBlockBegin
  2
*D11
 70
     1
 10
0.0
 20
0.0
 30
0.0
  3
*D11
  1

  0
LINE
  5
58A3
330
2BDF
100
AcDbEntity
  8
AM_REFDIM
100
AcDbLine
 10
316.2186602593631
 20
373.5882012441229
 30
0.0
 11
309.6131835957968
 21
372.4234774878961
 31
0.0
  0
LINE
  5
58A4
330
2BDF
100
AcDbEntity
  8
AM_REFDIM
100
AcDbLine
 10
316.2186602593631
 20
355.5882012441228
 30
0.0
 11
309.6131835957968
 21
354.423477487896
 31
0.0
  0
LINE
  5
58A5
330
2BDF
100
AcDbEntity
  8
AM_REFDIM
100
AcDbLine
 10
311.1218658357952
 20
369.6721343921264
 30
0.0
 11
311.1218658357952
 21
357.7068633521204
 31
0.0
  0
LINE
  5
58A6
330
2BDF
100
AcDbEntity
  8
AM_REFDIM
100
AcDbLine
 10
311.1218658357952
 20
354.6894988721234
 30
0.0
 11
311.1218658357952
 21
335.5692828264412
 31
0.0
  0
SOLID
  5
58A7
330
2BDF
100
AcDbEntity
  8
AM_REFDIM
100
AcDbTrace
 10
310.6189717557958
 20
369.6721343921264
 30
0.0
 11
311.6247599157947
 21
369.6721343921264
 31
0.0
 12
311.1218658357952
 22
372.6894988721234
 32
0.0
 13
311.1218658357952
 23
372.6894988721234
 33
0.0
  0
SOLID
  5
58A8
330
2BDF
100
AcDbEntity
  8
AM_REFDIM
100
AcDbTrace
 10
310.6189717557958
 20
357.7068633521204
 30
0.0
 11
311.6247599157947
 21
357.7068633521204
 31
0.0
 12
311.1218658357952
 22
354.6894988721234
 32
0.0
 13
311.1218658357952
 23
354.6894988721234
 33
0.0
  0
MTEXT
  5
58A9
330
2BDF
100
AcDbEntity
  8
AM_REFDIM
100
AcDbMText
 10
307.1366615698767
 20
343.6207086092839
 30
0.0
 40
3.520258559996435
 41
0.0
 71
     5
 72
     1
  1
%%c18{}{\H0.71x;\C3;\S 0^ -0,05;}
 11
0.0000000000000001
 21
1.0
 31
0.0
 73
     1
 44
1.0
1001
ACAD
1000
MTEXTBEGIN
1070
    73
1070
     1
1070
    44
1040
1.0
1070
    74
1070
     0
1000
MTEXTEND
  0
POINT
  5
58AA
330
2BDF
100
AcDbEntity
  8
Defpoints
 62
     0
100
AcDbPoint
 10
317.7273424993615
 20
373.8542226283503
 30
0.0
  0
POINT
  5
58AB
330
2BDF
100
AcDbEntity
  8
Defpoints
 62
     0
100
AcDbPoint
 10
317.7273424993615
 20
355.8542226283503
 30
0.0
  0
POINT
  5
58AC
330
2BDF
100
AcDbEntity
  8
Defpoints
 62
     0
100
AcDbPoint
 10
311.1218658357952
 20
354.6894988721234
 30
0.0
  0
ENDBLK
  5
2BEB
330
2BDF
100
AcDbEntity
  8
0
100
AcDbBlockEnd
  0
BLOCK
  5
2BF3
330
2BEC
100
AcDbEntity
  8
0
100
AcDbBlockBegin
  2
*D12
 70
     1
 10
0.0
 20
0.0
 30
0.0
  3
*D12
  1

  0
LINE
  5
58AD
330
2BEC
100
AcDbEntity
  8
AM_REFDIM
100
AcDbLine
 10
197.0405469622003
 20
346.0499049618353
 30
0.0
 11
193.8373236403666
 21
342.8282516520675
 31
0.0
  0
LINE
  5
58AE
330
2BEC
100
AcDbEntity
  8
AM_REFDIM
100
AcDbLine
 10
193.8373236403666
 20
342.8282516520675
 30
0.0
 11
185.4389925043751
 21
342.8282516520676
 31
0.0
  0
SOLID
  5
58AF
330
2BEC
100
AcDbEntity
  8
AM_REFDIM
100
AcDbTrace
 10
196.6839285644687
 20
346.4044832664423
 30
0.0
 11
197.3971653599318
 21
345.6953266572284
 31
0.0
 12
199.1680167898417
 22
348.1896153482247
 32
0.0
 13
199.1680167898417
 23
348.1896153482247
 33
0.0
  0
MTEXT
  5
58B0
330
2BEC
100
AcDbEntity
  8
AM_REFDIM
100
AcDbMText
 10
189.1352639923713
 20
345.5941690920648
 30
0.0
 40
3.520258559996435
 41
0.0
 71
     5
 72
     1
  1
\U+220547
 73
     1
 44
1.0
1001
ACAD
1000
MTEXTBEGIN
1070
    73
1070
     1
1070
    44
1040
1.0
1070
    74
1070
     0
1000
MTEXTEND
  0
POINT
  5
58B1
330
2BEC
100
AcDbEntity
  8
Defpoints
 62
     0
100
AcDbPoint
 10
199.1680167898417
 20
348.1896153482247
 30
0.0
  0
POINT
  5
58B2
330
2BEC
100
AcDbEntity
  8
Defpoints
 62
     0
100
AcDbPoint
 10
232.3065661967897
 20
381.5188299084758
 30
0.0
  0
ENDBLK
  5
2BF4
330
2BEC
100
AcDbEntity
  8
0
100
AcDbBlockEnd
  0
BLOCK
  5
2BFF
330
2BF5
100
AcDbEntity
  8
0
100
AcDbBlockBegin
  2
*D13
 70
     1
 10
0.0
 20
0.0
 30
0.0
  3
*D13
  1

  0
LINE
  5
58B3
330
2BF5
100
AcDbEntity
  8
AM_REFDIM
100
AcDbLine
 10
202.9872914933157
 20
384.2878519298815
 30
0.0
 11
202.9872914933157
 21
394.2418289883817
 31
0.0
  0
LINE
  5
58B4
330
2BF5
100
AcDbEntity
  8
AM_REFDIM
100
AcDbLine
 10
228.4872914933157
 20
384.2878519298815
 30
0.0
 11
228.4872914933157
 21
394.2418289883817
 31
0.0
  0
LINE
  5
58B5
330
2BF5
100
AcDbEntity
  8
AM_REFDIM
100
AcDbLine
 10
206.004550096378
 20
392.7331996868505
 30
0.0
 11
225.4700328902534
 21
392.7331996868505
 31
0.0
  0
SOLID
  5
58B6
330
2BF5
100
AcDbEntity
  8
AM_REFDIM
100
AcDbTrace
 10
206.004550096378
 20
393.2360761206942
 30
0.0
 11
206.004550096378
 21
392.2303232530068
 31
0.0
 12
202.9872914933157
 22
392.7331996868505
 32
0.0
 13
202.9872914933157
 23
392.7331996868505
 33
0.0
  0
SOLID
  5
58B7
330
2BF5
100
AcDbEntity
  8
AM_REFDIM
100
AcDbTrace
 10
225.4700328902534
 20
393.2360761206942
 30
0.0
 11
225.4700328902534
 21
392.2303232530068
 31
0.0
 12
228.4872914933157
 22
392.7331996868505
 32
0.0
 13
228.4872914933157
 23
392.7331996868505
 33
0.0
  0
MTEXT
  5
58B8
330
2BF5
100
AcDbEntity
  8
AM_REFDIM
100
AcDbMText
 10
215.7372914933157
 20
395.499366542975
 30
0.0
 40
3.520135036906051
 41
0.0
 71
     5
 72
     1
  1
{\Famgdt|c136;o}25.5
 73
     1
 44
1.0
1001
ACAD
1000
MTEXTBEGIN
1070
    73
1070
     1
1070
    44
1040
1.0
1070
    74
1070
     0
1000
MTEXTEND
  0
POINT
  5
58B9
330
2BF5
100
AcDbEntity
  8
Defpoints
 62
     0
100
AcDbPoint
 10
202.9872914933157
 20
382.7792226283503
 30
0.0
  0
POINT
  5
58BA
330
2BF5
100
AcDbEntity
  8
Defpoints
 62
     0
100
AcDbPoint
 10
228.4872914933157
 20
382.7792226283503
 30
0.0
  0
POINT
  5
58BB
330
2BF5
100
AcDbEntity
  8
Defpoints
 62
     0
100
AcDbPoint
 10
228.4872914933157
 20
392.7331996868505
 30
0.0
  0
ENDBLK
  5
2C00
330
2BF5
100
AcDbEntity
  8
0
100
AcDbBlockEnd
  0
BLOCK
  5
2C0B
330
2C01
100
AcDbEntity
  8
0
100
AcDbBlockBegin
  2
*D14
 70
     1
 10
0.0
 20
0.0
 30
0.0
  3
*D14
  1

  0
LINE
  5
58BC
330
2C01
100
AcDbEntity
  8
AM_REFDIM
100
AcDbLine
 10
392.6773424993616
 20
384.3628519298815
 30
0.0
 11
392.6773424993616
 21
405.7834590171595
 31
0.0
  0
LINE
  5
58BD
330
2C01
100
AcDbEntity
  8
AM_REFDIM
100
AcDbLine
 10
288.6773424993616
 20
374.3628519298815
 30
0.0
 11
288.6773424993616
 21
405.7834590171595
 31
0.0
  0
LINE
  5
58BE
330
2C01
100
AcDbEntity
  8
AM_REFDIM
100
AcDbLine
 10
389.6600838962993
 20
404.2748297156284
 30
0.0
 11
291.6946011024239
 21
404.2748297156284
 31
0.0
  0
SOLID
  5
58BF
330
2C01
100
AcDbEntity
  8
AM_REFDIM
100
AcDbTrace
 10
389.6600838962993
 20
404.7777061494721
 30
0.0
 11
389.6600838962993
 21
403.7719532817846
 31
0.0
 12
392.6773424993616
 22
404.2748297156284
 32
0.0
 13
392.6773424993616
 23
404.2748297156284
 33
0.0
  0
SOLID
  5
58C0
330
2C01
100
AcDbEntity
  8
AM_REFDIM
100
AcDbTrace
 10
291.6946011024239
 20
404.7777061494721
 30
0.0
 11
291.6946011024239
 21
403.7719532817846
 31
0.0
 12
288.6773424993616
 22
404.2748297156284
 32
0.0
 13
288.6773424993616
 23
404.2748297156284
 33
0.0
  0
MTEXT
  5
58C1
330
2C01
100
AcDbEntity
  8
AM_REFDIM
100
AcDbMText
 10
340.6773424993616
 20
407.0409965717528
 30
0.0
 40
3.520135036906051
 41
0.0
 71
     5
 72
     1
  1
84+ST*2104
 73
     1
 44
1.0
1001
ACAD
1000
MTEXTBEGIN
1070
    73
1070
     1
1070
    44
1040
1.0
1070
    74
1070
     0
1000
MTEXTEND
  0
POINT
  5
58C2
330
2C01
100
AcDbEntity
  8
Defpoints
 62
     0
100
AcDbPoint
 10
392.6773424993616
 20
382.8542226283503
 30
0.0
  0
POINT
  5
58C3
330
2C01
100
AcDbEntity
  8
Defpoints
 62
     0
100
AcDbPoint
 10
288.6773424993616
 20
372.8542226283503
 30
0.0
  0
POINT
  5
58C4
330
2C01
100
AcDbEntity
  8
Defpoints
 62
     0
100
AcDbPoint
 10
288.6773424993616
 20
404.2748297156284
 30
0.0
  0
ENDBLK
  5
2C0C
330
2C01
100
AcDbEntity
  8
0
100
AcDbBlockEnd
  0
BLOCK
  5
2C17
330
2C0D
100
AcDbEntity
  8
0
100
AcDbBlockBegin
  2
*D15
 70
     1
 10
0.0
 20
0.0
 30
0.0
  3
*D15
  1

  0
LINE
  5
58C5
330
2C0D
100
AcDbEntity
  8
AM_REFDIM
100
AcDbLine
 10
320.6773424993616
 20
384.3628519298815
 30
0.0
 11
320.6773424993616
 21
397.7374360756599
 31
0.0
  0
LINE
  5
58C6
330
2C0D
100
AcDbEntity
  8
AM_REFDIM
100
AcDbLine
 10
288.6773424993616
 20
374.3628519298815
 30
0.0
 11
288.6773424993616
 21
397.7374360756599
 31
0.0
  0
LINE
  5
58C7
330
2C0D
100
AcDbEntity
  8
AM_REFDIM
100
AcDbLine
 10
317.6600838962993
 20
396.2288067741288
 30
0.0
 11
291.6946011024239
 21
396.2288067741288
 31
0.0
  0
SOLID
  5
58C8
330
2C0D
100
AcDbEntity
  8
AM_REFDIM
100
AcDbTrace
 10
317.6600838962993
 20
396.7316832079725
 30
0.0
 11
317.6600838962993
 21
395.725930340285
 31
0.0
 12
320.6773424993616
 22
396.2288067741288
 32
0.0
 13
320.6773424993616
 23
396.2288067741288
 33
0.0
  0
SOLID
  5
58C9
330
2C0D
100
AcDbEntity
  8
AM_REFDIM
100
AcDbTrace
 10
291.6946011024239
 20
396.7316832079725
 30
0.0
 11
291.6946011024239
 21
395.725930340285
 31
0.0
 12
288.6773424993616
 22
396.2288067741288
 32
0.0
 13
288.6773424993616
 23
396.2288067741288
 33
0.0
  0
MTEXT
  5
58CA
330
2C0D
100
AcDbEntity
  8
AM_REFDIM
100
AcDbMText
 10
304.6773424993616
 20
398.9949736302532
 30
0.0
 40
3.520135036906051
 41
0.0
 71
     5
 72
     1
  1
22+ST=32
 73
     1
 44
1.0
1001
ACAD
1000
MTEXTBEGIN
1070
    73
1070
     1
1070
    44
1040
1.0
1070
    74
1070
     0
1000
MTEXTEND
  0
POINT
  5
58CB
330
2C0D
100
AcDbEntity
  8
Defpoints
 62
     0
100
AcDbPoint
 10
320.6773424993616
 20
382.8542226283503
 30
0.0
  0
POINT
  5
58CC
330
2C0D
100
AcDbEntity
  8
Defpoints
 62
     0
100
AcDbPoint
 10
288.6773424993616
 20
372.8542226283503
 30
0.0
  0
POINT
  5
58CD
330
2C0D
100
AcDbEntity
  8
Defpoints
 62
     0
100
AcDbPoint
 10
288.6773424993616
 20
396.2288067741288
 30
0.0
  0
ENDBLK
  5
2C18
330
2C0D
100
AcDbEntity
  8
0
100
AcDbBlockEnd
  0
BLOCK
  5
2C23
330
2C19
100
AcDbEntity
  8
0
100
AcDbBlockBegin
  2
*D16
 70
     1
 10
0.0
 20
0.0
 30
0.0
  3
*D16
  1

  0
LINE
  5
58CE
330
2C19
100
AcDbEntity
  8
AM_REFDIM
100
AcDbLine
 10
304.1773424993616
 20
374.3128519298815
 30
0.0
 11
304.1773424993616
 21
389.6914131341603
 31
0.0
  0
LINE
  5
58CF
330
2C19
100
AcDbEntity
  8
AM_REFDIM
100
AcDbLine
 10
288.6773424993616
 20
374.3628519298815
 30
0.0
 11
288.6773424993616
 21
389.6914131341603
 31
0.0
  0
LINE
  5
58D0
330
2C19
100
AcDbEntity
  8
AM_REFDIM
100
AcDbLine
 10
301.1600838962993
 20
388.1827838326291
 30
0.0
 11
291.6946011024239
 21
388.1827838326291
 31
0.0
  0
SOLID
  5
58D1
330
2C19
100
AcDbEntity
  8
AM_REFDIM
100
AcDbTrace
 10
301.1600838962993
 20
388.6856602664729
 30
0.0
 11
301.1600838962993
 21
387.6799073987854
 31
0.0
 12
304.1773424993616
 22
388.1827838326291
 32
0.0
 13
304.1773424993616
 23
388.1827838326291
 33
0.0
  0
SOLID
  5
58D2
330
2C19
100
AcDbEntity
  8
AM_REFDIM
100
AcDbTrace
 10
291.6946011024239
 20
388.6856602664729
 30
0.0
 11
291.6946011024239
 21
387.6799073987854
 31
0.0
 12
288.6773424993616
 22
388.1827838326291
 32
0.0
 13
288.6773424993616
 23
388.1827838326291
 33
0.0
  0
MTEXT
  5
58D3
330
2C19
100
AcDbEntity
  8
AM_REFDIM
100
AcDbMText
 10
296.4273424993616
 20
390.9486042187696
 30
0.0
 40
3.520135036906051
 41
0.0
 71
     5
 72
     1
  1
15.5
 73
     1
 44
1.0
1001
ACAD
1000
MTEXTBEGIN
1070
    73
1070
     1
1070
    44
1040
1.0
1070
    74
1070
     0
1000
MTEXTEND
  0
POINT
  5
58D4
330
2C19
100
AcDbEntity
  8
Defpoints
 62
     0
100
AcDbPoint
 10
304.1773424993616
 20
372.8042226283502
 30
0.0
  0
POINT
  5
58D5
330
2C19
100
AcDbEntity
  8
Defpoints
 62
     0
100
AcDbPoint
 10
288.6773424993616
 20
372.8542226283503
 30
0.0
  0
POINT
  5
58D6
330
2C19
100
AcDbEntity
  8
Defpoints
 62
     0
100
AcDbPoint
 10
288.6773424993616
 20
388.1827838326291
 30
0.0
  0
ENDBLK
  5
2C24
330
2C19
100
AcDbEntity
  8
0
100
AcDbBlockEnd
  0
BLOCK
  5
2C2F
330
2C25
100
AcDbEntity
  8
0
100
AcDbBlockBegin
  2
*D17
 70
     1
 10
0.0
 20
0.0
 30
0.0
  3
*D17
  1

  0
LINE
  5
58D7
330
2C25
100
AcDbEntity
  8
AM_REFDIM
100
AcDbLine
 10
302.6773424993616
 20
374.3628519298815
 30
0.0
 11
302.6773424993616
 21
381.6453901926608
 31
0.0
  0
LINE
  5
58D8
330
2C25
100
AcDbEntity
  8
AM_REFDIM
100
AcDbLine
 10
288.6773424993616
 20
374.3628519298815
 30
0.0
 11
288.6773424993616
 21
381.6453901926608
 31
0.0
  0
LINE
  5
58D9
330
2C25
100
AcDbEntity
  8
AM_REFDIM
100
AcDbLine
 10
299.6600838962993
 20
380.1367608911296
 30
0.0
 11
291.6946011024239
 21
380.1367608911296
 31
0.0
  0
SOLID
  5
58DA
330
2C25
100
AcDbEntity
  8
AM_REFDIM
100
AcDbTrace
 10
299.6600838962993
 20
380.6396373249733
 30
0.0
 11
299.6600838962993
 21
379.6338844572859
 31
0.0
 12
302.6773424993616
 22
380.1367608911296
 32
0.0
 13
302.6773424993616
 23
380.1367608911296
 33
0.0
  0
SOLID
  5
58DB
330
2C25
100
AcDbEntity
  8
AM_REFDIM
100
AcDbTrace
 10
291.6946011024239
 20
380.6396373249733
 30
0.0
 11
291.6946011024239
 21
379.6338844572859
 31
0.0
 12
288.6773424993616
 22
380.1367608911296
 32
0.0
 13
288.6773424993616
 23
380.1367608911296
 33
0.0
  0
MTEXT
  5
58DC
330
2C25
100
AcDbEntity
  8
AM_REFDIM
100
AcDbMText
 10
295.6773424993616
 20
382.9025812772701
 30
0.0
 40
3.520135036906051
 41
0.0
 71
     5
 72
     1
  1
14
 73
     1
 44
1.0
1001
ACAD
1000
MTEXTBEGIN
1070
    73
1070
     1
1070
    44
1040
1.0
1070
    74
1070
     0
1000
MTEXTEND
  0
POINT
  5
58DD
330
2C25
100
AcDbEntity
  8
Defpoints
 62
     0
100
AcDbPoint
 10
302.6773424993616
 20
372.8542226283503
 30
0.0
  0
POINT
  5
58DE
330
2C25
100
AcDbEntity
  8
Defpoints
 62
     0
100
AcDbPoint
 10
288.6773424993616
 20
372.8542226283503
 30
0.0
  0
POINT
  5
58DF
330
2C25
100
AcDbEntity
  8
Defpoints
 62
     0
100
AcDbPoint
 10
288.6773424993616
 20
380.1367608911296
 30
0.0
  0
ENDBLK
  5
2C30
330
2C25
100
AcDbEntity
  8
0
100
AcDbBlockEnd
  0
BLOCK
  5
2C3B
330
2C31
100
AcDbEntity
  8
0
100
AcDbBlockBegin
  2
*D18
 70
     1
 10
0.0
 20
0.0
 30
0.0
  3
*D18
  1

  0
LINE
  5
58E0
330
2C31
100
AcDbEntity
  8
AM_REFDIM
100
AcDbLine
 10
174.2286621917845
 20
372.8542226283503
 30
0.0
 11
164.1711335149101
 21
372.8542226283503
 31
0.0
  0
LINE
  5
58E1
330
2C31
100
AcDbEntity
  8
AM_REFDIM
100
AcDbLine
 10
174.2286621917845
 20
356.8542226283503
 30
0.0
 11
164.1711335149101
 21
356.8542226283503
 31
0.0
  0
LINE
  5
58E2
330
2C31
100
AcDbEntity
  8
AM_REFDIM
100
AcDbLine
 10
165.6797628164413
 20
369.836964025288
 30
0.0
 11
165.6797628164413
 21
359.8714812314126
 31
0.0
  0
SOLID
  5
58E3
330
2C31
100
AcDbEntity
  8
AM_REFDIM
100
AcDbTrace
 10
165.1768863825975
 20
369.836964025288
 30
0.0
 11
166.182639250285
 21
369.836964025288
 31
0.0
 12
165.6797628164413
 22
372.8542226283503
 32
0.0
 13
165.6797628164413
 23
372.8542226283503
 33
0.0
  0
SOLID
  5
58E4
330
2C31
100
AcDbEntity
  8
AM_REFDIM
100
AcDbTrace
 10
165.1768863825975
 20
359.8714812314126
 30
0.0
 11
166.182639250285
 21
359.8714812314126
 31
0.0
 12
165.6797628164413
 22
356.8542226283503
 32
0.0
 13
165.6797628164413
 23
356.8542226283503
 33
0.0
  0
MTEXT
  5
58E5
330
2C31
100
AcDbEntity
  8
AM_REFDIM
100
AcDbMText
 10
162.9139424303007
 20
364.8542226283503
 30
0.0
 40
3.520135036906051
 41
0.0
 71
     5
 72
     1
  1
16
 11
0.0000000000000001
 21
1.0
 31
0.0
 73
     1
 44
1.0
1001
ACAD
1000
MTEXTBEGIN
1070
    73
1070
     1
1070
    44
1040
1.0
1070
    74
1070
     0
1000
MTEXTEND
  0
POINT
  5
58E6
330
2C31
100
AcDbEntity
  8
Defpoints
 62
     0
100
AcDbPoint
 10
175.7372914933157
 20
372.8542226283503
 30
0.0
  0
POINT
  5
58E7
330
2C31
100
AcDbEntity
  8
Defpoints
 62
     0
100
AcDbPoint
 10
175.7372914933157
 20
356.8542226283503
 30
0.0
  0
POINT
  5
58E8
330
2C31
100
AcDbEntity
  8
Defpoints
 62
     0
100
AcDbPoint
 10
165.6797628164413
 20
356.8542226283503
 30
0.0
  0
ENDBLK
  5
2C3C
330
2C31
100
AcDbEntity
  8
0
100
AcDbBlockEnd
  0
BLOCK
  5
3E51
330
3E47
100
AcDbEntity
  8
0
100
AcDbBlockBegin
  2
*D40
 70
     1
 10
0.0
 20
0.0
 30
0.0
  3
*D40
  1

  0
LINE
  5
58E9
330
3E47
100
AcDbEntity
  8
AM_REFDIM
100
AcDbLine
 10
287.1128757853701
 20
246.2265205627975
 30
0.0
 11
275.6373424993615
 21
246.2265205627975
 31
0.0
  0
LINE
  5
58EA
330
3E47
100
AcDbEntity
  8
AM_REFDIM
100
AcDbLine
 10
279.7373424993617
 20
281.2265205627975
 30
0.0
 11
275.6373424993615
 21
281.2265205627975
 31
0.0
  0
LINE
  5
58EB
330
3E47
100
AcDbEntity
  8
AM_REFDIM
100
AcDbLine
 10
277.1373424993615
 20
249.2265205627975
 30
0.0
 11
277.1373424993615
 21
278.2265205627975
 31
0.0
  0
SOLID
  5
58EC
330
3E47
100
AcDbEntity
  8
AM_REFDIM
100
AcDbTrace
 10
276.6373424993615
 20
249.2265205627975
 30
0.0
 11
277.6373424993615
 21
249.2265205627975
 31
0.0
 12
277.1373424993615
 22
246.2265205627975
 32
0.0
 13
277.1373424993615
 23
246.2265205627975
 33
0.0
  0
SOLID
  5
58ED
330
3E47
100
AcDbEntity
  8
AM_REFDIM
100
AcDbTrace
 10
276.6373424993615
 20
278.2265205627975
 30
0.0
 11
277.6373424993615
 21
278.2265205627975
 31
0.0
 12
277.1373424993615
 22
281.2265205627975
 32
0.0
 13
277.1373424993615
 23
281.2265205627975
 33
0.0
  0
MTEXT
  5
58EE
330
3E47
100
AcDbEntity
  8
AM_REFDIM
100
AcDbMText
 10
274.3873424993615
 20
263.7265205627976
 30
0.0
 40
3.5
 41
0.0
 71
     5
 72
     1
  1
35
 11
0.0000000000000001
 21
1.0
 31
0.0
 73
     1
 44
1.0
1001
ACAD
1000
MTEXTBEGIN
1070
    73
1070
     1
1070
    44
1040
1.0
1070
    74
1070
     0
1000
MTEXTEND
  0
POINT
  5
58EF
330
3E47
100
AcDbEntity
  8
Defpoints
 62
     0
100
AcDbPoint
 10
288.6128757853701
 20
246.2265205627975
 30
0.0
  0
POINT
  5
58F0
330
3E47
100
AcDbEntity
  8
Defpoints
 62
     0
100
AcDbPoint
 10
281.2373424993617
 20
281.2265205627975
 30
0.0
  0
POINT
  5
58F1
330
3E47
100
AcDbEntity
  8
Defpoints
 62
     0
100
AcDbPoint
 10
277.1373424993615
 20
281.2265205627975
 30
0.0
  0
ENDBLK
  5
3E52
330
3E47
100
AcDbEntity
  8
0
100
AcDbBlockEnd
  0
BLOCK
  5
3E5D
330
3E53
100
AcDbEntity
  8
0
100
AcDbBlockBegin
  2
*D41
 70
     1
 10
0.0
 20
0.0
 30
0.0
  3
*D41
  1

  0
LINE
  5
58F2
330
3E53
100
AcDbEntity
  8
AM_REFDIM
100
AcDbLine
 10
302.6773424993616
 20
237.717838322799
 30
0.0
 11
302.6773424993616
 21
228.0525661950781
 31
0.0
  0
LINE
  5
58F3
330
3E53
100
AcDbEntity
  8
AM_REFDIM
100
AcDbLine
 10
324.6773424993616
 20
244.7178383227991
 30
0.0
 11
324.6773424993616
 21
228.0525661950781
 31
0.0
  0
LINE
  5
58F4
330
3E53
100
AcDbEntity
  8
AM_REFDIM
100
AcDbLine
 10
305.6947069793586
 20
229.5612484350765
 30
0.0
 11
321.6599780193647
 21
229.5612484350765
 31
0.0
  0
SOLID
  5
58F5
330
3E53
100
AcDbEntity
  8
AM_REFDIM
100
AcDbTrace
 10
305.6947069793586
 20
230.064142515076
 30
0.0
 11
305.6947069793586
 21
229.058354355077
 31
0.0
 12
302.6773424993616
 22
229.5612484350765
 32
0.0
 13
302.6773424993616
 23
229.5612484350765
 33
0.0
  0
SOLID
  5
58F6
330
3E53
100
AcDbEntity
  8
AM_REFDIM
100
AcDbTrace
 10
321.6599780193647
 20
230.064142515076
 30
0.0
 11
321.6599780193647
 21
229.058354355077
 31
0.0
 12
324.6773424993616
 22
229.5612484350765
 32
0.0
 13
324.6773424993616
 23
229.5612484350765
 33
0.0
  0
MTEXT
  5
58F7
330
3E53
100
AcDbEntity
  8
AM_REFDIM
100
AcDbMText
 10
313.6773424993616
 20
232.3271658750738
 30
0.0
 40
3.520258559996435
 41
0.0
 71
     5
 72
     1
  1
12~22
  7
CHINESET
 73
     1
 44
1.0
1001
ACAD
1000
MTEXTBEGIN
1070
    73
1070
     1
1070
    44
1040
1.0
1070
    74
1070
     0
1000
MTEXTEND
  0
POINT
  5
58F8
330
3E53
100
AcDbEntity
  8
Defpoints
 62
     0
100
AcDbPoint
 10
302.6773424993616
 20
239.2265205627975
 30
0.0
  0
POINT
  5
58F9
330
3E53
100
AcDbEntity
  8
Defpoints
 62
     0
100
AcDbPoint
 10
324.6773424993616
 20
246.2265205627975
 30
0.0
  0
POINT
  5
58FA
330
3E53
100
AcDbEntity
  8
Defpoints
 62
     0
100
AcDbPoint
 10
324.6773424993616
 20
229.5612484350765
 30
0.0
  0
ENDBLK
  5
3E5E
330
3E53
100
AcDbEntity
  8
0
100
AcDbBlockEnd
  0
BLOCK
  5
3E6B
330
3E5F
100
AcDbEntity
  8
0
100
AcDbBlockBegin
  2
*D42
 70
     1
 10
0.0
 20
0.0
 30
0.0
  3
*D42
  1

  0
LINE
  5
58FB
330
3E5F
100
AcDbEntity
  8
AM_REFDIM
100
AcDbLine
 10
287.104246483839
 20
246.2265205627975
 30
0.0
 11
275.6287131978302
 21
246.2265205627975
 31
0.0
  0
LINE
  5
58FC
330
3E5F
100
AcDbEntity
  8
AM_REFDIM
100
AcDbLine
 10
289.1687131978304
 20
239.2265205627975
 30
0.0
 11
275.6287131978302
 21
239.2265205627975
 31
0.0
  0
LINE
  5
58FD
330
3E5F
100
AcDbEntity
  8
AM_REFDIM
100
AcDbLine
 10
277.1373424993614
 20
249.2437791658598
 30
0.0
 11
277.1373424993614
 21
252.2610377689222
 31
0.0
  0
LINE
  5
58FE
330
3E5F
100
AcDbEntity
  8
AM_REFDIM
100
AcDbLine
 10
277.1373424993614
 20
236.2092619597352
 30
0.0
 11
277.1373424993614
 21
233.1920033566729
 31
0.0
  0
LINE
  5
58FF
330
3E5F
100
AcDbEntity
  8
AM_REFDIM
100
AcDbLine
 10
277.1373424993614
 20
246.2265205627975
 30
0.0
 11
277.1373424993614
 21
239.2265205627975
 31
0.0
  0
SOLID
  5
5900
330
3E5F
100
AcDbEntity
  8
AM_REFDIM
100
AcDbTrace
 10
276.6344660655177
 20
249.2437791658598
 30
0.0
 11
277.6402189332051
 21
249.2437791658598
 31
0.0
 12
277.1373424993614
 22
246.2265205627975
 32
0.0
 13
277.1373424993614
 23
246.2265205627975
 33
0.0
  0
SOLID
  5
5901
330
3E5F
100
AcDbEntity
  8
AM_REFDIM
100
AcDbTrace
 10
276.6344660655177
 20
236.2092619597352
 30
0.0
 11
277.6402189332051
 21
236.2092619597352
 31
0.0
 12
277.1373424993614
 22
239.2265205627975
 32
0.0
 13
277.1373424993614
 23
239.2265205627975
 33
0.0
  0
MTEXT
  5
5902
330
3E5F
100
AcDbEntity
  8
AM_REFDIM
100
AcDbMText
 10
274.3715221132209
 20
242.7265205627976
 30
0.0
 40
3.520135036906051
 41
0.0
 71
     5
 72
     1
  1
7
 11
0.0000000000000001
 21
1.0
 31
0.0
 73
     1
 44
1.0
1001
ACAD
1000
MTEXTBEGIN
1070
    73
1070
     1
1070
    44
1040
1.0
1070
    74
1070
     0
1000
MTEXTEND
  0
POINT
  5
5903
330
3E5F
100
AcDbEntity
  8
Defpoints
 62
     0
100
AcDbPoint
 10
288.6128757853701
 20
246.2265205627975
 30
0.0
  0
POINT
  5
5904
330
3E5F
100
AcDbEntity
  8
Defpoints
 62
     0
100
AcDbPoint
 10
290.6773424993616
 20
239.2265205627975
 30
0.0
  0
POINT
  5
5905
330
3E5F
100
AcDbEntity
  8
Defpoints
 62
     0
100
AcDbPoint
 10
277.1373424993614
 20
239.2265205627975
 30
0.0
  0
ENDBLK
  5
3E6C
330
3E5F
100
AcDbEntity
  8
0
100
AcDbBlockEnd
  0
BLOCK
  5
3E77
330
3E6D
100
AcDbEntity
  8
0
100
AcDbBlockBegin
  2
*D43
 70
     1
 10
0.0
 20
0.0
 30
0.0
  3
*D43
  1

  0
LINE
  5
5906
330
3E6D
100
AcDbEntity
  8
AM_REFDIM
100
AcDbLine
 10
287.1687131978304
 20
290.2265205627975
 30
0.0
 11
267.5826902563307
 21
290.2265205627975
 31
0.0
  0
LINE
  5
5907
330
3E6D
100
AcDbEntity
  8
AM_REFDIM
100
AcDbLine
 10
289.1687131978304
 20
239.2265205627975
 30
0.0
 11
267.5826902563307
 21
239.2265205627975
 31
0.0
  0
LINE
  5
5908
330
3E6D
100
AcDbEntity
  8
AM_REFDIM
100
AcDbLine
 10
269.0913195578619
 20
287.2092619597352
 30
0.0
 11
269.0913195578619
 21
242.2437791658599
 31
0.0
  0
SOLID
  5
5909
330
3E6D
100
AcDbEntity
  8
AM_REFDIM
100
AcDbTrace
 10
268.5884431240182
 20
287.2092619597352
 30
0.0
 11
269.5941959917056
 21
287.2092619597352
 31
0.0
 12
269.0913195578619
 22
290.2265205627975
 32
0.0
 13
269.0913195578619
 23
290.2265205627975
 33
0.0
  0
SOLID
  5
590A
330
3E6D
100
AcDbEntity
  8
AM_REFDIM
100
AcDbTrace
 10
268.5884431240182
 20
242.2437791658599
 30
0.0
 11
269.5941959917056
 21
242.2437791658599
 31
0.0
 12
269.0913195578619
 22
239.2265205627975
 32
0.0
 13
269.0913195578619
 23
239.2265205627975
 33
0.0
  0
MTEXT
  5
590B
330
3E6D
100
AcDbEntity
  8
AM_REFDIM
100
AcDbMText
 10
266.3254991717213
 20
264.7265205627976
 30
0.0
 40
3.520135036906051
 41
0.0
 71
     5
 72
     1
  1
51
 11
0.0000000000000001
 21
1.0
 31
0.0
 73
     1
 44
1.0
1001
ACAD
1000
MTEXTBEGIN
1070
    73
1070
     1
1070
    44
1040
1.0
1070
    74
1070
     0
1000
MTEXTEND
  0
POINT
  5
590C
330
3E6D
100
AcDbEntity
  8
Defpoints
 62
     0
100
AcDbPoint
 10
288.6773424993616
 20
290.2265205627975
 30
0.0
  0
POINT
  5
590D
330
3E6D
100
AcDbEntity
  8
Defpoints
 62
     0
100
AcDbPoint
 10
290.6773424993616
 20
239.2265205627975
 30
0.0
  0
POINT
  5
590E
330
3E6D
100
AcDbEntity
  8
Defpoints
 62
     0
100
AcDbPoint
 10
269.0913195578619
 20
239.2265205627975
 30
0.0
  0
ENDBLK
  5
3E78
330
3E6D
100
AcDbEntity
  8
0
100
AcDbBlockEnd
  0
BLOCK
  5
41BD
330
41B3
100
AcDbEntity
  8
0
100
AcDbBlockBegin
  2
*D44
 70
     1
 10
0.0
 20
0.0
 30
0.0
  3
*D44
  1

  0
LINE
  5
590F
330
41B3
100
AcDbEntity
  8
AM_5
100
AcDbLine
 10
300.1773424993616
 20
287.7265205627976
 30
0.0
 11
300.1773424993616
 21
307.4550646585349
 31
0.0
  0
LINE
  5
5910
330
41B3
100
AcDbEntity
  8
AM_5
100
AcDbLine
 10
320.6773424993615
 20
300.7265205627975
 30
0.0
 11
320.6773424993615
 21
307.4550646585349
 31
0.0
  0
LINE
  5
5911
330
41B3
100
AcDbEntity
  8
AM_5
100
AcDbLine
 10
303.1773424993616
 20
305.9550646585349
 30
0.0
 11
317.6773424993616
 21
305.9550646585349
 31
0.0
  0
SOLID
  5
5912
330
41B3
100
AcDbEntity
  8
AM_5
100
AcDbTrace
 10
303.1773424993616
 20
306.4550646585349
 30
0.0
 11
303.1773424993616
 21
305.4550646585349
 31
0.0
 12
300.1773424993616
 22
305.9550646585349
 32
0.0
 13
300.1773424993616
 23
305.9550646585349
 33
0.0
  0
SOLID
  5
5913
330
41B3
100
AcDbEntity
  8
AM_5
100
AcDbTrace
 10
317.6773424993616
 20
306.4550646585349
 30
0.0
 11
317.6773424993616
 21
305.4550646585349
 31
0.0
 12
320.6773424993615
 22
305.9550646585349
 32
0.0
 13
320.6773424993615
 23
305.9550646585349
 33
0.0
  0
MTEXT
  5
5914
330
41B3
100
AcDbEntity
  8
AM_5
100
AcDbMText
 10
310.4273424993615
 20
308.7050646585349
 30
0.0
 40
3.5
 41
0.0
 71
     5
 72
     1
  1
10.5+ST
 73
     1
 44
1.0
1001
ACAD
1000
MTEXTBEGIN
1070
    73
1070
     1
1070
    44
1040
1.0
1070
    74
1070
     0
1000
MTEXTEND
  0
POINT
  5
5915
330
41B3
100
AcDbEntity
  8
Defpoints
 62
     0
100
AcDbPoint
 10
300.1773424993616
 20
286.2265205627975
 30
0.0
  0
POINT
  5
5916
330
41B3
100
AcDbEntity
  8
Defpoints
 62
     0
100
AcDbPoint
 10
320.6773424993615
 20
299.2265205627975
 30
0.0
  0
POINT
  5
5917
330
41B3
100
AcDbEntity
  8
Defpoints
 62
     0
100
AcDbPoint
 10
320.6773424993615
 20
305.9550646585349
 30
0.0
  0
ENDBLK
  5
41BE
330
41B3
100
AcDbEntity
  8
0
100
AcDbBlockEnd
  0
BLOCK
  5
51F8
330
51F7
100
AcDbEntity
  8
0
100
AcDbBlockBegin
  2
SEANNOT_GROUP1
 70
     0
 10
0.0
 20
0.0
 30
0.0
  3
SEANNOT_GROUP1
  1

  0
LINE
  5
51F9
330
51F7
100
AcDbEntity
  8
Default
  6
CENTER2
 62
     7
100
AcDbLine
 10
193.925257232814
 20
234.4462226746768
 30
0.0
 11
184.9252576202441
 21
234.4462226746768
 31
0.0
  0
LINE
  5
51FA
330
51F7
100
AcDbEntity
  8
Default
  6
CENTER2
 62
     7
100
AcDbLine
 10
189.425257426529
 20
238.9462224809617
 30
0.0
 11
189.425257426529
 21
229.9462228683919
 31
0.0
  0
LINE
  5
51FB
330
51F7
100
AcDbEntity
  8
Default
  6
CENTER2
 62
     7
100
AcDbLine
 10
195.4252574786831
 20
234.4462226746768
 30
0.0
 11
198.925257426529
 21
234.4462226746768
 31
0.0
  0
LINE
  5
51FC
330
51F7
100
AcDbEntity
  8
Default
  6
CENTER2
 62
     7
100
AcDbLine
 10
189.425257426529
 20
240.4462227268309
 30
0.0
 11
189.425257426529
 21
243.9462226746768
 31
0.0
  0
LINE
  5
51FD
330
51F7
100
AcDbEntity
  8
Default
  6
CENTER2
 62
     7
100
AcDbLine
 10
183.425257374375
 20
234.4462226746768
 30
0.0
 11
179.925257426529
 21
234.4462226746768
 31
0.0
  0
LINE
  5
51FE
330
51F7
100
AcDbEntity
  8
Default
  6
CENTER2
 62
     7
100
AcDbLine
 10
189.425257426529
 20
228.4462226225227
 30
0.0
 11
189.425257426529
 21
224.9462226746768
 31
0.0
  0
ENDBLK
  5
51FF
330
51F7
100
AcDbEntity
  8
0
100
AcDbBlockEnd
  0
BLOCK
  5
5201
330
5200
100
AcDbEntity
  8
0
100
AcDbBlockBegin
  2
SEANNOT_GROUP2
 70
     0
 10
0.0
 20
0.0
 30
0.0
  3
SEANNOT_GROUP2
  1

  0
LINE
  5
5202
330
5200
100
AcDbEntity
  8
Default
  6
CENTER2
 62
     7
100
AcDbLine
 10
193.925257232814
 20
194.4462226746768
 30
0.0
 11
184.9252576202441
 21
194.4462226746768
 31
0.0
  0
LINE
  5
5203
330
5200
100
AcDbEntity
  8
Default
  6
CENTER2
 62
     7
100
AcDbLine
 10
189.425257426529
 20
198.9462224809617
 30
0.0
 11
189.425257426529
 21
189.9462228683919
 31
0.0
  0
LINE
  5
5204
330
5200
100
AcDbEntity
  8
Default
  6
CENTER2
 62
     7
100
AcDbLine
 10
195.4252574786831
 20
194.4462226746768
 30
0.0
 11
198.925257426529
 21
194.4462226746768
 31
0.0
  0
LINE
  5
5205
330
5200
100
AcDbEntity
  8
Default
  6
CENTER2
 62
     7
100
AcDbLine
 10
189.425257426529
 20
200.4462227268309
 30
0.0
 11
189.425257426529
 21
203.9462226746768
 31
0.0
  0
LINE
  5
5206
330
5200
100
AcDbEntity
  8
Default
  6
CENTER2
 62
     7
100
AcDbLine
 10
183.425257374375
 20
194.4462226746768
 30
0.0
 11
179.925257426529
 21
194.4462226746768
 31
0.0
  0
LINE
  5
5207
330
5200
100
AcDbEntity
  8
Default
  6
CENTER2
 62
     7
100
AcDbLine
 10
189.425257426529
 20
188.4462226225227
 30
0.0
 11
189.425257426529
 21
184.9462226746768
 31
0.0
  0
ENDBLK
  5
5208
330
5200
100
AcDbEntity
  8
0
100
AcDbBlockEnd
  0
BLOCK
  5
520A
330
5209
100
AcDbEntity
  8
0
100
AcDbBlockBegin
  2
SEANNOT_GROUP3
 70
     0
 10
0.0
 20
0.0
 30
0.0
  3
SEANNOT_GROUP3
  1

  0
LINE
  5
520B
330
5209
100
AcDbEntity
  8
Default
  6
CENTER2
 62
     7
100
AcDbLine
 10
173.925257232814
 20
214.4462226746768
 30
0.0
 11
164.9252576202441
 21
214.4462226746768
 31
0.0
  0
LINE
  5
520C
330
5209
100
AcDbEntity
  8
Default
  6
CENTER2
 62
     7
100
AcDbLine
 10
169.425257426529
 20
218.9462224809617
 30
0.0
 11
169.425257426529
 21
209.9462228683919
 31
0.0
  0
LINE
  5
520D
330
5209
100
AcDbEntity
  8
Default
  6
CENTER2
 62
     7
100
AcDbLine
 10
175.4252574786831
 20
214.4462226746768
 30
0.0
 11
191.0252574265291
 21
214.4462226746768
 31
0.0
  0
LINE
  5
520E
330
5209
100
AcDbEntity
  8
Default
  6
CENTER2
 62
     7
100
AcDbLine
 10
169.425257426529
 20
220.4462227268309
 30
0.0
 11
169.425257426529
 21
236.0462226746768
 31
0.0
  0
LINE
  5
520F
330
5209
100
AcDbEntity
  8
Default
  6
CENTER2
 62
     7
100
AcDbLine
 10
163.425257374375
 20
214.4462226746768
 30
0.0
 11
147.825257426529
 21
214.4462226746768
 31
0.0
  0
LINE
  5
5210
330
5209
100
AcDbEntity
  8
Default
  6
CENTER2
 62
     7
100
AcDbLine
 10
169.425257426529
 20
208.4462226225228
 30
0.0
 11
169.425257426529
 21
192.8462226746768
 31
0.0
  0
ENDBLK
  5
5211
330
5209
100
AcDbEntity
  8
0
100
AcDbBlockEnd
  0
BLOCK
  5
5213
330
5212
100
AcDbEntity
  8
0
100
AcDbBlockBegin
  2
SEANNOT_GROUP4
 70
     0
 10
0.0
 20
0.0
 30
0.0
  3
SEANNOT_GROUP4
  1

  0
LINE
  5
5214
330
5212
100
AcDbEntity
  8
Default
  6
CENTER2
 62
     7
100
AcDbLine
 10
153.925257232814
 20
234.4462226746768
 30
0.0
 11
144.9252576202441
 21
234.4462226746768
 31
0.0
  0
LINE
  5
5215
330
5212
100
AcDbEntity
  8
Default
  6
CENTER2
 62
     7
100
AcDbLine
 10
149.425257426529
 20
238.9462224809617
 30
0.0
 11
149.425257426529
 21
229.9462228683919
 31
0.0
  0
LINE
  5
5216
330
5212
100
AcDbEntity
  8
Default
  6
CENTER2
 62
     7
100
AcDbLine
 10
155.4252574786831
 20
234.4462226746768
 30
0.0
 11
158.925257426529
 21
234.4462226746768
 31
0.0
  0
LINE
  5
5217
330
5212
100
AcDbEntity
  8
Default
  6
CENTER2
 62
     7
100
AcDbLine
 10
149.425257426529
 20
240.4462227268309
 30
0.0
 11
149.425257426529
 21
243.9462226746768
 31
0.0
  0
LINE
  5
5218
330
5212
100
AcDbEntity
  8
Default
  6
CENTER2
 62
     7
100
AcDbLine
 10
143.425257374375
 20
234.4462226746768
 30
0.0
 11
139.9252574265291
 21
234.4462226746768
 31
0.0
  0
LINE
  5
5219
330
5212
100
AcDbEntity
  8
Default
  6
CENTER2
 62
     7
100
AcDbLine
 10
149.425257426529
 20
228.4462226225227
 30
0.0
 11
149.425257426529
 21
224.9462226746768
 31
0.0
  0
ENDBLK
  5
521A
330
5212
100
AcDbEntity
  8
0
100
AcDbBlockEnd
  0
BLOCK
  5
521C
330
521B
100
AcDbEntity
  8
0
100
AcDbBlockBegin
  2
SEANNOT_GROUP5
 70
     0
 10
0.0
 20
0.0
 30
0.0
  3
SEANNOT_GROUP5
  1

  0
LINE
  5
521D
330
521B
100
AcDbEntity
  8
Default
  6
CENTER2
 62
     7
100
AcDbLine
 10
123.834801220089
 20
214.4462226746767
 30
0.0
 11
114.8348016075192
 21
214.4462226746767
 31
0.0
  0
LINE
  5
521E
330
521B
100
AcDbEntity
  8
Default
  6
CENTER2
 62
     7
100
AcDbLine
 10
119.3348014138041
 20
218.9462224809616
 30
0.0
 11
119.3348014138041
 21
209.9462228683918
 31
0.0
  0
LINE
  5
521F
330
521B
100
AcDbEntity
  8
Default
  6
CENTER2
 62
     7
100
AcDbLine
 10
125.3348014659582
 20
214.4462226746767
 30
0.0
 11
126.7207820005641
 21
214.4462226746767
 31
0.0
  0
LINE
  5
5220
330
521B
100
AcDbEntity
  8
Default
  6
CENTER2
 62
     7
100
AcDbLine
 10
119.3348014138041
 20
220.4462227268308
 30
0.0
 11
119.3348014138041
 21
221.8322032614367
 31
0.0
  0
LINE
  5
5221
330
521B
100
AcDbEntity
  8
Default
  6
CENTER2
 62
     7
100
AcDbLine
 10
113.3348013616501
 20
214.4462226746767
 30
0.0
 11
111.9488208270442
 21
214.4462226746767
 31
0.0
  0
LINE
  5
5222
330
521B
100
AcDbEntity
  8
Default
  6
CENTER2
 62
     7
100
AcDbLine
 10
119.3348014138041
 20
208.4462226225227
 30
0.0
 11
119.3348014138041
 21
207.0602420879168
 31
0.0
  0
ENDBLK
  5
5223
330
521B
100
AcDbEntity
  8
0
100
AcDbBlockEnd
  0
BLOCK
  5
5225
330
5224
100
AcDbEntity
  8
0
100
AcDbBlockBegin
  2
SEANNOT_GROUP6
 70
     0
 10
0.0
 20
0.0
 30
0.0
  3
SEANNOT_GROUP6
  1

  0
LINE
  5
5226
330
5224
100
AcDbEntity
  8
Default
  6
CENTER2
 62
     7
100
AcDbLine
 10
153.925257232814
 20
194.4462226746768
 30
0.0
 11
144.9252576202441
 21
194.4462226746768
 31
0.0
  0
LINE
  5
5227
330
5224
100
AcDbEntity
  8
Default
  6
CENTER2
 62
     7
100
AcDbLine
 10
149.425257426529
 20
198.9462224809617
 30
0.0
 11
149.425257426529
 21
189.9462228683919
 31
0.0
  0
LINE
  5
5228
330
5224
100
AcDbEntity
  8
Default
  6
CENTER2
 62
     7
100
AcDbLine
 10
155.4252574786831
 20
194.4462226746768
 30
0.0
 11
158.925257426529
 21
194.4462226746768
 31
0.0
  0
LINE
  5
5229
330
5224
100
AcDbEntity
  8
Default
  6
CENTER2
 62
     7
100
AcDbLine
 10
149.425257426529
 20
200.4462227268309
 30
0.0
 11
149.425257426529
 21
203.9462226746768
 31
0.0
  0
LINE
  5
522A
330
5224
100
AcDbEntity
  8
Default
  6
CENTER2
 62
     7
100
AcDbLine
 10
143.425257374375
 20
194.4462226746768
 30
0.0
 11
139.9252574265291
 21
194.4462226746768
 31
0.0
  0
LINE
  5
522B
330
5224
100
AcDbEntity
  8
Default
  6
CENTER2
 62
     7
100
AcDbLine
 10
149.425257426529
 20
188.4462226225227
 30
0.0
 11
149.425257426529
 21
184.9462226746768
 31
0.0
  0
ENDBLK
  5
522C
330
5224
100
AcDbEntity
  8
0
100
AcDbBlockEnd
  0
BLOCK
  5
522E
330
522D
100
AcDbEntity
  8
0
100
AcDbBlockBegin
  2
SEANNOT_GROUP7
 70
     0
 10
0.0
 20
0.0
 30
0.0
  3
SEANNOT_GROUP7
  1

  0
LINE
  5
522F
330
522D
100
AcDbEntity
  8
Default
  6
CENTER2
 62
     7
100
AcDbLine
 10
314.8405428761003
 20
214.4462226746768
 30
0.0
 11
305.8405432635305
 21
214.4462226746768
 31
0.0
  0
LINE
  5
5230
330
522D
100
AcDbEntity
  8
Default
  6
CENTER2
 62
     7
100
AcDbLine
 10
310.3405430698154
 20
218.9462224809617
 30
0.0
 11
310.3405430698154
 21
209.9462228683919
 31
0.0
  0
LINE
  5
5231
330
522D
100
AcDbEntity
  8
Default
  6
CENTER2
 62
     7
100
AcDbLine
 10
316.3405431219695
 20
214.4462226746768
 30
0.0
 11
317.8415430698155
 21
214.4462226746768
 31
0.0
  0
LINE
  5
5232
330
522D
100
AcDbEntity
  8
Default
  6
CENTER2
 62
     7
100
AcDbLine
 10
310.3405430698154
 20
220.4462227268309
 30
0.0
 11
310.3405430698154
 21
221.9472226746769
 31
0.0
  0
LINE
  5
5233
330
522D
100
AcDbEntity
  8
Default
  6
CENTER2
 62
     7
100
AcDbLine
 10
304.3405430176614
 20
214.4462226746768
 30
0.0
 11
302.8395430698154
 21
214.4462226746768
 31
0.0
  0
LINE
  5
5234
330
522D
100
AcDbEntity
  8
Default
  6
CENTER2
 62
     7
100
AcDbLine
 10
310.3405430698154
 20
208.4462226225228
 30
0.0
 11
310.3405430698154
 21
206.9452226746768
 31
0.0
  0
ENDBLK
  5
5235
330
522D
100
AcDbEntity
  8
0
100
AcDbBlockEnd
  0
BLOCK
  5
5237
330
5236
100
AcDbEntity
  8
0
100
AcDbBlockBegin
  2
SEANNOT_GROUP8
 70
     0
 10
0.0
 20
0.0
 30
0.0
  3
SEANNOT_GROUP8
  1

  0
LINE
  5
5238
330
5236
100
AcDbEntity
  8
Default
  6
CENTER2
 62
     7
100
AcDbLine
 10
333.4405428761004
 20
214.4462226746768
 30
0.0
 11
324.4405432635306
 21
214.4462226746768
 31
0.0
  0
LINE
  5
5239
330
5236
100
AcDbEntity
  8
Default
  6
CENTER2
 62
     7
100
AcDbLine
 10
328.9405430698155
 20
218.9462224809617
 30
0.0
 11
328.9405430698155
 21
209.9462228683919
 31
0.0
  0
LINE
  5
523A
330
5236
100
AcDbEntity
  8
Default
  6
CENTER2
 62
     7
100
AcDbLine
 10
334.9405431219695
 20
214.4462226746768
 30
0.0
 11
336.9405430698155
 21
214.4462226746768
 31
0.0
  0
LINE
  5
523B
330
5236
100
AcDbEntity
  8
Default
  6
CENTER2
 62
     7
100
AcDbLine
 10
328.9405430698155
 20
220.4462227268309
 30
0.0
 11
328.9405430698155
 21
222.4462226746768
 31
0.0
  0
LINE
  5
523C
330
5236
100
AcDbEntity
  8
Default
  6
CENTER2
 62
     7
100
AcDbLine
 10
322.9405430176614
 20
214.4462226746768
 30
0.0
 11
320.9405430698155
 21
214.4462226746768
 31
0.0
  0
LINE
  5
523D
330
5236
100
AcDbEntity
  8
Default
  6
CENTER2
 62
     7
100
AcDbLine
 10
328.9405430698155
 20
208.4462226225228
 30
0.0
 11
328.9405430698155
 21
206.4462226746768
 31
0.0
  0
ENDBLK
  5
523E
330
5236
100
AcDbEntity
  8
0
100
AcDbBlockEnd
  0
BLOCK
  5
5240
330
523F
100
AcDbEntity
  8
0
100
AcDbBlockBegin
  2
SEANNOT_GROUP9
 70
     0
 10
0.0
 20
0.0
 30
0.0
  3
SEANNOT_GROUP9
  1

  0
LINE
  5
5241
330
523F
100
AcDbEntity
  8
Default
  6
CENTER2
 62
     7
100
AcDbLine
 10
384.4405428761004
 20
214.4462226746768
 30
0.0
 11
375.4405432635306
 21
214.4462226746768
 31
0.0
  0
LINE
  5
5242
330
523F
100
AcDbEntity
  8
Default
  6
CENTER2
 62
     7
100
AcDbLine
 10
379.9405430698155
 20
218.9462224809617
 30
0.0
 11
379.9405430698155
 21
209.9462228683919
 31
0.0
  0
LINE
  5
5243
330
523F
100
AcDbEntity
  8
Default
  6
CENTER2
 62
     7
100
AcDbLine
 10
385.9405431219696
 20
214.4462226746768
 30
0.0
 11
387.9405430698155
 21
214.4462226746768
 31
0.0
  0
LINE
  5
5244
330
523F
100
AcDbEntity
  8
Default
  6
CENTER2
 62
     7
100
AcDbLine
 10
379.9405430698155
 20
220.4462227268309
 30
0.0
 11
379.9405430698155
 21
222.4462226746768
 31
0.0
  0
LINE
  5
5245
330
523F
100
AcDbEntity
  8
Default
  6
CENTER2
 62
     7
100
AcDbLine
 10
373.9405430176614
 20
214.4462226746768
 30
0.0
 11
371.9405430698155
 21
214.4462226746768
 31
0.0
  0
LINE
  5
5246
330
523F
100
AcDbEntity
  8
Default
  6
CENTER2
 62
     7
100
AcDbLine
 10
379.9405430698155
 20
208.4462226225228
 30
0.0
 11
379.9405430698155
 21
206.4462226746768
 31
0.0
  0
ENDBLK
  5
5247
330
523F
100
AcDbEntity
  8
0
100
AcDbBlockEnd
  0
BLOCK
  5
5250
330
524F
100
AcDbEntity
  8
0
100
AcDbBlockBegin
  2
SEANNOT_GROUP11
 70
     0
 10
0.0
 20
0.0
 30
0.0
  3
SEANNOT_GROUP11
  1

  0
LINE
  5
5251
330
524F
100
AcDbEntity
  8
Default
  6
CENTER2
 62
     7
100
AcDbLine
 10
295.5122178382777
 20
194.4462226746768
 30
0.0
 11
392.9926187355611
 21
194.4462226746768
 31
0.0
  0
ENDBLK
  5
5252
330
524F
100
AcDbEntity
  8
0
100
AcDbBlockEnd
  0
BLOCK
  5
5254
330
5253
100
AcDbEntity
  8
0
100
AcDbBlockBegin
  2
SEANNOT_GROUP12
 70
     0
 10
0.0
 20
0.0
 30
0.0
  3
SEANNOT_GROUP12
  1

  0
LINE
  5
5255
330
5253
100
AcDbEntity
  8
Default
  6
CENTER2
 62
     7
100
AcDbLine
 10
231.8306358151708
 20
129.7634944723004
 30
0.0
 11
393.1732455296195
 21
129.7634944723004
 31
0.0
  0
ENDBLK
  5
5256
330
5253
100
AcDbEntity
  8
0
100
AcDbBlockEnd
  0
BLOCK
  5
5258
330
5257
100
AcDbEntity
  8
0
100
AcDbBlockBegin
  2
SEANNOT_GROUP13
 70
     0
 10
0.0
 20
0.0
 30
0.0
  3
SEANNOT_GROUP13
  1

  0
LINE
  5
5259
330
5257
100
AcDbEntity
  8
Default
  6
CENTER2
 62
     7
100
AcDbLine
 10
233.6179936248223
 20
79.76349447230038
 30
0.0
 11
295.9689520770627
 21
79.76349447230035
 31
0.0
  0
ENDBLK
  5
525A
330
5257
100
AcDbEntity
  8
0
100
AcDbBlockEnd
  0
BLOCK
  5
525C
330
525B
100
AcDbEntity
  8
0
100
AcDbBlockBegin
  2
SE
 70
     0
 10
0.0
 20
0.0
 30
0.0
  3
SE
  1

  0
LINE
  5
525D
330
525B
100
AcDbEntity
  8
H01308
  6
Continuous
 62
     7
100
AcDbLine
 10
306.9405430698154
 20
187.9462226746768
 30
0.0
 11
298.9405430698154
 21
187.9462226746768
 31
0.0
  0
LINE
  5
525E
330
525B
100
AcDbEntity
  8
H01308
  6
Continuous
 62
     7
100
AcDbLine
 10
298.9405430698154
 20
200.9462226746768
 30
0.0
 11
306.9405430698154
 21
200.9462226746768
 31
0.0
  0
CIRCLE
  5
525F
330
525B
100
AcDbEntity
  8
H01308
  6
Continuous
 62
     7
100
AcDbCircle
 10
310.3405430698154
 20
214.4462226746768
 30
0.0
 40
4.501000000000008
  0
CIRCLE
  5
5260
330
525B
100
AcDbEntity
  8
H01308
  6
Continuous
 62
     7
100
AcDbCircle
 10
310.3405430698154
 20
214.4462226746768
 30
0.0
 40
3.301
  0
LINE
  5
5261
330
525B
100
AcDbEntity
  8
H01308
  6
Continuous
 62
     7
100
AcDbLine
 10
389.9405430698154
 20
239.0022809902942
 30
0.0
 11
298.9405430698154
 21
239.0022809902942
 31
0.0
  0
LINE
  5
5262
330
525B
100
AcDbEntity
  8
H01308
  6
Continuous
 62
     7
100
AcDbLine
 10
389.9405430698154
 20
243.4462226746768
 30
0.0
 11
298.9405430698154
 21
243.4462226746768
 31
0.0
  0
LINE
  5
5263
330
525B
100
AcDbEntity
  8
H01308
  6
Continuous
 62
     7
100
AcDbLine
 10
389.9405430698154
 20
239.0022809902942
 30
0.0
 11
389.9405430698154
 21
243.4462226746768
 31
0.0
  0
LINE
  5
5264
330
525B
100
AcDbEntity
  8
H01308
  6
Continuous
 62
     7
100
AcDbLine
 10
389.9405430698154
 20
204.4462226746768
 30
0.0
 11
389.9405430698154
 21
239.0022809902942
 31
0.0
  0
LINE
  5
5265
330
525B
100
AcDbEntity
  8
H01308
  6
Continuous
 62
     7
100
AcDbLine
 10
298.9405430698154
 20
239.0022809902942
 30
0.0
 11
298.9405430698154
 21
243.4462226746768
 31
0.0
  0
LINE
  5
5266
330
525B
100
AcDbEntity
  8
H01308
  6
Continuous
 62
     7
100
AcDbLine
 10
298.9405430698154
 20
204.4462226746768
 30
0.0
 11
298.9405430698154
 21
239.0022809902942
 31
0.0
  0
CIRCLE
  5
5267
330
525B
100
AcDbEntity
  8
H01308
  6
Continuous
 62
     7
100
AcDbCircle
 10
381.9405430698155
 20
214.4462226746768
 30
0.0
 40
0.5000000000000005
  0
CIRCLE
  5
5268
330
525B
100
AcDbEntity
  8
H01308
  6
Continuous
 62
     7
100
AcDbCircle
 10
328.9405430698155
 20
214.4462226746768
 30
0.0
 40
0.5000000000000005
  0
LINE
  5
5269
330
525B
100
AcDbEntity
  8
H01308
  6
Continuous
 62
     7
100
AcDbLine
 10
381.9405430698154
 20
197.6882226746768
 30
0.0
 11
381.9405430698154
 21
191.2042226746768
 31
0.0
  0
LINE
  5
526A
330
525B
100
AcDbEntity
  8
H01308
  6
Continuous
 62
     7
100
AcDbLine
 10
389.9405430698154
 20
200.9462226746768
 30
0.0
 11
389.9405430698154
 21
187.9462226746768
 31
0.0
  0
LINE
  5
526B
330
525B
100
AcDbEntity
  8
H01308
  6
Continuous
 62
     7
100
AcDbLine
 10
306.9405430698154
 20
191.2042226746768
 30
0.0
 11
306.9405430698154
 21
197.6882226746768
 31
0.0
  0
LINE
  5
526C
330
525B
100
AcDbEntity
  8
H01308
  6
Continuous
 62
     7
100
AcDbLine
 10
298.9405430698154
 20
187.9462226746768
 30
0.0
 11
298.9405430698154
 21
200.9462226746768
 31
0.0
  0
CIRCLE
  5
526D
330
525B
100
AcDbEntity
  8
H01308
  6
Continuous
 62
     7
100
AcDbCircle
 10
379.9405430698155
 20
214.4462226746768
 30
0.0
 40
5.500000000000005
  0
CIRCLE
  5
526E
330
525B
100
AcDbEntity
  8
H01308
  6
Continuous
 62
     7
100
AcDbCircle
 10
379.9405430698155
 20
214.4462226746768
 30
0.0
 40
4.134000000000012
  0
CIRCLE
  5
526F
330
525B
100
AcDbEntity
  8
H01308
  6
Continuous
 62
     7
100
AcDbCircle
 10
328.9405430698155
 20
214.4462226746768
 30
0.0
 40
5.499999999999991
  0
CIRCLE
  5
5270
330
525B
100
AcDbEntity
  8
H01308
  6
Continuous
 62
     7
100
AcDbCircle
 10
328.9405430698155
 20
214.4462226746768
 30
0.0
 40
4.134000000000005
  0
LINE
  5
5271
330
525B
100
AcDbEntity
  8
H01308
  6
Continuous
 62
     7
100
AcDbLine
 10
298.9405430698154
 20
204.4462226746768
 30
0.0
 11
389.9405430698154
 21
204.4462226746768
 31
0.0
  0
LINE
  5
5272
330
525B
100
AcDbEntity
  8
H01308
  6
Continuous
 62
     7
100
AcDbLine
 10
389.9405430698154
 20
185.4462226746768
 30
0.0
 11
298.9405430698154
 21
185.4462226746768
 31
0.0
  0
LINE
  5
5273
330
525B
100
AcDbEntity
  8
H01308
  6
Continuous
 62
     7
100
AcDbLine
 10
389.9405430698154
 20
185.4462226746768
 30
0.0
 11
389.9405430698154
 21
187.9462226746768
 31
0.0
  0
LINE
  5
5274
330
525B
100
AcDbEntity
  8
H01308
  6
Continuous
 62
     7
100
AcDbLine
 10
389.9405430698154
 20
187.9462226746768
 30
0.0
 11
381.9405430698154
 21
187.9462226746768
 31
0.0
  0
LINE
  5
5275
330
525B
100
AcDbEntity
  8
H01308
  6
Continuous
 62
     7
100
AcDbLine
 10
381.9405430698154
 20
187.9462226746768
 30
0.0
 11
381.9405430698154
 21
191.2042226746768
 31
0.0
  0
LINE
  5
5276
330
525B
100
AcDbEntity
  8
H01308
  6
Continuous
 62
     7
100
AcDbLine
 10
381.9405430698154
 20
191.2042226746768
 30
0.0
 11
367.9405430698154
 21
191.2042226746768
 31
0.0
  0
LINE
  5
5277
330
525B
100
AcDbEntity
  8
H01308
  6
Continuous
 62
     7
100
AcDbLine
 10
367.9405430698154
 20
191.2042226746768
 30
0.0
 11
320.9405430698154
 21
191.2042226746768
 31
0.0
  0
LINE
  5
5278
330
525B
100
AcDbEntity
  8
H01308
  6
Continuous
 62
     7
100
AcDbLine
 10
320.9405430698155
 20
191.2042226746768
 30
0.0
 11
306.9405430698155
 21
191.2042226746768
 31
0.0
  0
LINE
  5
5279
330
525B
100
AcDbEntity
  8
H01308
  6
Continuous
 62
     7
100
AcDbLine
 10
306.9405430698154
 20
191.2042226746768
 30
0.0
 11
306.9405430698154
 21
187.9462226746768
 31
0.0
  0
LINE
  5
527A
330
525B
100
AcDbEntity
  8
H01308
  6
Continuous
 62
     7
100
AcDbLine
 10
389.9405430698154
 20
200.9462226746768
 30
0.0
 11
389.9405430698154
 21
204.4462226746768
 31
0.0
  0
LINE
  5
527B
330
525B
100
AcDbEntity
  8
H01308
  6
Continuous
 62
     7
100
AcDbLine
 10
381.9405430698154
 20
200.9462226746768
 30
0.0
 11
389.9405430698154
 21
200.9462226746768
 31
0.0
  0
LINE
  5
527C
330
525B
100
AcDbEntity
  8
H01308
  6
Continuous
 62
     7
100
AcDbLine
 10
381.9405430698154
 20
197.6882226746768
 30
0.0
 11
381.9405430698154
 21
200.9462226746768
 31
0.0
  0
LINE
  5
527D
330
525B
100
AcDbEntity
  8
H01308
  6
Continuous
 62
     7
100
AcDbLine
 10
367.9405430698154
 20
197.6882226746768
 30
0.0
 11
381.9405430698154
 21
197.6882226746768
 31
0.0
  0
LINE
  5
527E
330
525B
100
AcDbEntity
  8
H01308
  6
Continuous
 62
     7
100
AcDbLine
 10
320.9405430698155
 20
197.6882226746768
 30
0.0
 11
367.9405430698155
 21
197.6882226746768
 31
0.0
  0
LINE
  5
527F
330
525B
100
AcDbEntity
  8
H01308
  6
Continuous
 62
     7
100
AcDbLine
 10
306.9405430698154
 20
197.6882226746768
 30
0.0
 11
320.9405430698154
 21
197.6882226746768
 31
0.0
  0
LINE
  5
5280
330
525B
100
AcDbEntity
  8
H01308
  6
Continuous
 62
     7
100
AcDbLine
 10
306.9405430698154
 20
200.9462226746768
 30
0.0
 11
306.9405430698154
 21
197.6882226746768
 31
0.0
  0
LINE
  5
5281
330
525B
100
AcDbEntity
  8
H01308
  6
Continuous
 62
     7
100
AcDbLine
 10
298.9405430698154
 20
185.4462226746768
 30
0.0
 11
298.9405430698154
 21
187.9462226746768
 31
0.0
  0
LINE
  5
5282
330
525B
100
AcDbEntity
  8
H01308
  6
Continuous
 62
     7
100
AcDbLine
 10
298.9405430698154
 20
200.9462226746768
 30
0.0
 11
298.9405430698154
 21
204.4462226746769
 31
0.0
  0
LINE
  5
5283
330
525B
100
AcDbEntity
  8
H01308
  6
Continuous
 62
     7
100
AcDbLine
 10
306.9405430698154
 20
198.4462226746768
 30
0.0
 11
320.9405430698154
 21
198.4462226746768
 31
0.0
  0
LINE
  5
5284
330
525B
100
AcDbEntity
  8
H01308
  6
Continuous
 62
     7
100
AcDbLine
 10
306.9405430698154
 20
190.4462226746768
 30
0.0
 11
320.9405430698154
 21
190.4462226746768
 31
0.0
  0
LINE
  5
5285
330
525B
100
AcDbEntity
  8
H01308
  6
Continuous
 62
     7
100
AcDbLine
 10
320.9405430698155
 20
190.4462226746768
 30
0.0
 11
320.9405430698155
 21
198.4462226746768
 31
0.0
  0
LINE
  5
5286
330
525B
100
AcDbEntity
  8
H01308
  6
Continuous
 62
     7
100
AcDbLine
 10
381.9405430698154
 20
190.4462226746768
 30
0.0
 11
367.9405430698154
 21
190.4462226746768
 31
0.0
  0
LINE
  5
5287
330
525B
100
AcDbEntity
  8
H01308
  6
Continuous
 62
     7
100
AcDbLine
 10
381.9405430698154
 20
198.4462226746768
 30
0.0
 11
367.9405430698154
 21
198.4462226746768
 31
0.0
  0
LINE
  5
5288
330
525B
100
AcDbEntity
  8
H01308
  6
Continuous
 62
     7
100
AcDbLine
 10
367.9405430698154
 20
198.4462226746768
 30
0.0
 11
367.9405430698154
 21
190.4462226746768
 31
0.0
  0
ARC
  5
5289
330
525B
100
AcDbEntity
  8
H01308
  6
Continuous
 62
     7
100
AcDbCircle
 10
379.9405430698155
 20
214.4462226746768
 30
0.0
 40
5.000000000000015
100
AcDbArc
 50
254.9999999999995
 51
195.0000000000001
  0
ARC
  5
528A
330
525B
100
AcDbEntity
  8
H01308
  6
Continuous
 62
     7
100
AcDbCircle
 10
328.9405430698155
 20
214.4462226746768
 30
0.0
 40
5.000000000000006
100
AcDbArc
 50
255.0000000000002
 51
195.0000000000001
  0
ARC
  5
528B
330
525B
100
AcDbEntity
  8
H01308
  6
Continuous
 62
     7
100
AcDbCircle
 10
310.3405430698154
 20
214.4462226746768
 30
0.0
 40
4.0
100
AcDbArc
 50
254.9999999999996
 51
195.0
  0
HATCH
  5
528C
330
525B
100
AcDbEntity
  8
H01308
  6
Continuous
 62
     7
100
AcDbHatch
 10
0.0
 20
0.0
 30
0.0
210
0.0
220
0.0
230
1.0
  2
LINE
 70
     0
 71
     0
 91
        1
 92
        1
 93
       10
 72
     1
 10
389.9405430698154
 20
185.4462226746768
 11
389.9405430698154
 21
187.9462226746768
 72
     1
 10
389.9405430698154
 20
187.9462226746768
 11
381.9405430698154
 21
187.9462226746768
 72
     1
 10
381.9405430698154
 20
187.9462226746768
 11
381.9405430698154
 21
191.2042226746768
 72
     1
 10
381.9405430698154
 20
191.2042226746768
 11
367.9405430698154
 21
191.2042226746768
 72
     1
 10
367.9405430698154
 20
191.2042226746768
 11
320.9405430698154
 21
191.2042226746768
 72
     1
 10
320.9405430698155
 20
191.2042226746768
 11
306.9405430698155
 21
191.2042226746768
 72
     1
 10
306.9405430698154
 20
191.2042226746768
 11
306.9405430698154
 21
187.9462226746768
 72
     1
 10
306.9405430698154
 20
187.9462226746768
 11
298.9405430698154
 21
187.9462226746768
 72
     1
 10
298.9405430698154
 20
187.9462226746768
 11
298.9405430698154
 21
185.4462226746768
 72
     1
 10
298.9405430698154
 20
185.4462226746768
 11
389.9405430698154
 21
185.4462226746768
 97
        0
 75
     0
 76
     1
 52
45.0
 41
2.0
 77
     0
 78
     1
 53
45.0
 43
0.0
 44
0.0
 45
-4.490128060534575
 46
4.490128060534576
 79
     0
 98
        0
  0
HATCH
  5
528D
330
525B
100
AcDbEntity
  8
H01308
  6
Continuous
 62
     7
100
AcDbHatch
 10
0.0
 20
0.0
 30
0.0
210
0.0
220
0.0
230
1.0
  2
LINE
 70
     0
 71
     0
 91
        1
 92
        1
 93
       10
 72
     1
 10
389.9405430698154
 20
200.9462226746768
 11
389.9405430698154
 21
204.4462226746768
 72
     1
 10
389.9405430698154
 20
204.4462226746768
 11
298.9405430698155
 21
204.4462226746768
 72
     1
 10
298.9405430698154
 20
204.4462226746768
 11
298.9405430698154
 21
200.9462226746768
 72
     1
 10
298.9405430698154
 20
200.9462226746768
 11
306.9405430698154
 21
200.9462226746768
 72
     1
 10
306.9405430698154
 20
200.9462226746768
 11
306.9405430698154
 21
197.6882226746768
 72
     1
 10
306.9405430698154
 20
197.6882226746768
 11
320.9405430698154
 21
197.6882226746768
 72
     1
 10
320.9405430698155
 20
197.6882226746768
 11
367.9405430698155
 21
197.6882226746768
 72
     1
 10
367.9405430698154
 20
197.6882226746768
 11
381.9405430698154
 21
197.6882226746768
 72
     1
 10
381.9405430698155
 20
197.6882226746768
 11
381.9405430698154
 21
200.9462226746768
 72
     1
 10
381.9405430698154
 20
200.9462226746768
 11
389.9405430698154
 21
200.9462226746768
 97
        0
 75
     0
 76
     1
 52
45.0
 41
2.0
 77
     0
 78
     1
 53
45.0
 43
0.0
 44
0.0
 45
-4.490128060534575
 46
4.490128060534576
 79
     0
 98
        0
  0
LINE
  5
528E
330
525B
100
AcDbEntity
  8
H01309
  6
Continuous
 62
     7
100
AcDbLine
 10
295.9405430698154
 20
227.4462226746767
 30
0.0
 11
295.9405430698154
 21
201.4462226746769
 31
0.0
  0
LINE
  5
528F
330
525B
100
AcDbEntity
  8
H01309
  6
Continuous
 62
     7
100
AcDbLine
 10
294.9405430698154
 20
228.4462226746767
 30
0.0
 11
294.9405430698154
 21
200.4462226746769
 31
0.0
  0
LINE
  5
5290
330
525B
100
AcDbEntity
  8
H01309
  6
Continuous
 62
     7
100
AcDbLine
 10
259.9405430698154
 20
226.4462226746767
 30
0.0
 11
259.9405430698154
 21
202.446222674677
 31
0.0
  0
LINE
  5
5291
330
525B
100
AcDbEntity
  8
H01309
  6
Continuous
 62
     7
100
AcDbLine
 10
261.9405430698154
 20
200.4462226746769
 30
0.0
 11
261.9405430698154
 21
228.4462226746767
 31
0.0
  0
LINE
  5
5292
330
525B
100
AcDbEntity
  8
H01309
  6
Continuous
 62
     7
100
AcDbLine
 10
295.9405430698154
 20
201.4462226746768
 30
0.0
 11
298.9405430698154
 21
201.4462226746768
 31
0.0
  0
LINE
  5
5293
330
525B
100
AcDbEntity
  8
H01309
  6
Continuous
 62
     7
100
AcDbLine
 10
298.9405430698154
 20
227.4462226746768
 30
0.0
 11
295.9405430698154
 21
227.4462226746768
 31
0.0
  0
LINE
  5
5294
330
525B
100
AcDbEntity
  8
H01309
  6
Continuous
 62
     7
100
AcDbLine
 10
294.9405430698154
 20
200.4462226746768
 30
0.0
 11
295.9405430698154
 21
201.4462226746768
 31
0.0
  0
LINE
  5
5295
330
525B
100
AcDbEntity
  8
H01309
  6
Continuous
 62
     7
100
AcDbLine
 10
295.9405430698154
 20
227.4462226746768
 30
0.0
 11
294.9405430698154
 21
228.4462226746768
 31
0.0
  0
LINE
  5
5296
330
525B
100
AcDbEntity
  8
H01309
  6
Continuous
 62
     7
100
AcDbLine
 10
261.9405430698154
 20
200.4462226746768
 30
0.0
 11
294.9405430698154
 21
200.4462226746768
 31
0.0
  0
LINE
  5
5297
330
525B
100
AcDbEntity
  8
H01309
  6
Continuous
 62
     7
100
AcDbLine
 10
294.9405430698154
 20
228.4462226746768
 30
0.0
 11
261.9405430698154
 21
228.4462226746768
 31
0.0
  0
LINE
  5
5298
330
525B
100
AcDbEntity
  8
H01309
  6
Continuous
 62
     7
100
AcDbLine
 10
261.9405430698154
 20
228.4462226746768
 30
0.0
 11
259.9405430698154
 21
226.4462226746768
 31
0.0
  0
LINE
  5
5299
330
525B
100
AcDbEntity
  8
H01309
  6
Continuous
 62
     7
100
AcDbLine
 10
259.9405430698154
 20
202.4462226746768
 30
0.0
 11
261.9405430698154
 21
200.4462226746768
 31
0.0
  0
LINE
  5
529A
330
525B
100
AcDbEntity
  8
3000104000100
  6
Continuous
 62
     7
100
AcDbLine
 10
258.5657578521546
 20
207.0122484349626
 30
0.0
 11
259.3745173095296
 21
207.0122484349626
 31
0.0
  0
LINE
  5
529B
330
525B
100
AcDbEntity
  8
3000104000100
  6
Continuous
 62
     7
100
AcDbLine
 10
258.5657578521546
 20
221.8801969143909
 30
0.0
 11
259.3745173095295
 21
221.8801969143909
 31
0.0
  0
SPLINE
  5
529C
330
525B
100
AcDbEntity
  8
3000104000100
  6
Continuous
 62
     7
100
AcDbSpline
210
0.0
220
0.0
230
1.0
 70
     8
 71
     3
 72
    10
 73
     6
 74
     0
 42
0.0000000001
 43
0.0000000001
 40
0.2052194717954029
 40
0.2052194717954029
 40
0.2052194717954029
 40
0.2052194717954029
 40
0.5
 40
0.5
 40
1.0
 40
1.0
 40
1.0
 40
1.0
 10
257.9702646732446
 20
221.4969495696762
 30
0.0
 10
257.9983595276009
 20
221.5454598568528
 30
0.0
 10
258.0458418646069
 20
221.59389626338
 30
0.0
 10
258.2200120597829
 20
221.7225047891739
 30
0.0
 10
258.3771143563937
 20
221.8018646008747
 30
0.0
 10
258.5657578521546
 20
221.8801969143909
 30
0.0
  0
ARC
  5
529D
330
525B
100
AcDbEntity
  8
3000104000100
  6
Continuous
 62
     7
100
AcDbCircle
 10
267.4235944637852
 20
218.4902452063615
 30
0.0
 40
9.484357754804202
100
AcDbArc
 50
159.0578263459697
 51
161.8208161484061
  0
SPLINE
  5
529E
330
525B
100
AcDbEntity
  8
3000104000100
  6
Continuous
 62
     7
100
AcDbSpline
210
0.0
220
0.0
230
1.0
 70
     8
 71
     3
 72
    10
 73
     6
 74
     0
 42
0.0000000001
 43
0.0000000001
 40
0.1029422230439415
 40
0.1029422230439415
 40
0.1029422230439415
 40
0.1029422230439415
 40
0.5
 40
0.5
 40
1.0
 40
1.0
 40
1.0
 40
1.0
 10
257.9479329636992
 20
207.4461985282361
 30
0.0
 10
257.9668388301437
 20
207.3813602574082
 30
0.0
 10
258.02164737662
 20
207.3168463657998
 30
0.0
 10
258.2168599123582
 20
207.1717375109642
 30
0.0
 10
258.3760089707244
 20
207.0910397487558
 30
0.0
 10
258.5657578521546
 20
207.0122484349626
 30
0.0
  0
LINE
  5
529F
330
525B
100
AcDbEntity
  8
3000104000100
  6
Continuous
 62
     7
100
AcDbLine
 10
257.9698949342735
 20
221.4970615952151
 30
0.0
 11
257.9405430698153
 21
221.4462226746768
 31
0.0
  0
LINE
  5
52A0
330
525B
100
AcDbEntity
  8
3000104000100
  6
Continuous
 62
     7
100
AcDbLine
 10
257.9405430698153
 20
207.4462226746767
 30
0.0
 11
257.9698949342735
 21
207.3953837541384
 31
0.0
  0
LINE
  5
52A1
330
525B
100
AcDbEntity
  8
H01170
  6
Continuous
 62
     7
100
AcDbLine
 10
381.5405430698154
 20
214.1462226746768
 30
0.0
 11
381.5405430698154
 21
214.7462226746768
 31
0.0
  0
LINE
  5
52A2
330
525B
100
AcDbEntity
  8
H01170
  6
Continuous
 62
     7
100
AcDbLine
 10
382.3405430698155
 20
214.7462226746768
 30
0.0
 11
382.3405430698155
 21
214.1462226746768
 31
0.0
  0
LINE
  5
52A3
330
525B
100
AcDbEntity
  8
H01311
  6
Continuous
 62
     7
100
AcDbLine
 10
258.9405430698154
 20
207.4462226746768
 30
0.0
 11
259.9405430698154
 21
206.4462226746768
 31
0.0
  0
LINE
  5
52A4
330
525B
100
AcDbEntity
  8
H01311
  6
Continuous
 62
     7
100
AcDbLine
 10
257.9405430698154
 20
207.4462226746768
 30
0.0
 11
258.9405430698155
 21
207.4462226746768
 31
0.0
  0
ARC
  5
52A5
330
525B
100
AcDbEntity
  8
H01311
  6
Continuous
 62
     7
100
AcDbCircle
 10
251.9405430698154
 20
214.4462226746768
 30
0.0
 40
8.000000000000008
100
AcDbArc
 50
331.0449756281402
 51
28.95502437185968
  0
LINE
  5
52A6
330
525B
100
AcDbEntity
  8
H01311
  6
Continuous
 62
     7
100
AcDbLine
 10
257.9405430698154
 20
218.3192060208842
 30
0.0
 11
258.9405430698155
 21
218.3192060208842
 31
0.0
  0
LINE
  5
52A7
330
525B
100
AcDbEntity
  8
H01311
  6
Continuous
 62
     7
100
AcDbLine
 10
258.9405430698155
 20
210.5732393284694
 30
0.0
 11
257.9405430698154
 21
210.5732393284694
 31
0.0
  0
LINE
  5
52A8
330
525B
100
AcDbEntity
  8
H01311
  6
Continuous
 62
     7
100
AcDbLine
 10
258.9405430698155
 20
218.3192060208842
 30
0.0
 11
258.9405430698155
 21
210.5732393284694
 31
0.0
  0
LINE
  5
52A9
330
525B
100
AcDbEntity
  8
H01311
  6
Continuous
 62
     7
100
AcDbLine
 10
258.9405430698155
 20
221.4462226746769
 30
0.0
 11
259.9405430698155
 21
222.4462226746768
 31
0.0
  0
LINE
  5
52AA
330
525B
100
AcDbEntity
  8
H01311
  6
Continuous
 62
     7
100
AcDbLine
 10
258.9405430698155
 20
221.4462226746769
 30
0.0
 11
257.9405430698154
 21
221.4462226746769
 31
0.0
  0
ARC
  5
52AB
330
525B
100
AcDbEntity
  8
3034104006100
  6
Continuous
 62
     7
100
AcDbCircle
 10
310.3405430698154
 20
214.4462226746768
 30
0.0
 40
1.999999999999998
100
AcDbArc
 50
320.0308491531649
 51
20.03084915316467
  0
ARC
  5
52AC
330
525B
100
AcDbEntity
  8
3034104006100
  6
Continuous
 62
     7
100
AcDbCircle
 10
310.3405430698154
 20
214.4462226746768
 30
0.0
 40
2.0
100
AcDbArc
 50
260.0308491531651
 51
320.0308491531649
  0
ARC
  5
52AD
330
525B
100
AcDbEntity
  8
3034104006100
  6
Continuous
 62
     7
100
AcDbCircle
 10
310.3405430698154
 20
214.4462226746768
 30
0.0
 40
2.0
100
AcDbArc
 50
200.0308491531654
 51
260.0308491531651
  0
ARC
  5
52AE
330
525B
100
AcDbEntity
  8
3034104006100
  6
Continuous
 62
     7
100
AcDbCircle
 10
310.3405430698154
 20
214.4462226746768
 30
0.0
 40
2.0
100
AcDbArc
 50
140.0308491531655
 51
200.0308491531654
  0
ARC
  5
52AF
330
525B
100
AcDbEntity
  8
3034104006100
  6
Continuous
 62
     7
100
AcDbCircle
 10
310.3405430698154
 20
214.4462226746768
 30
0.0
 40
2.0
100
AcDbArc
 50
80.03084915316499
 51
140.0308491531655
  0
ARC
  5
52B0
330
525B
100
AcDbEntity
  8
3034104006100
  6
Continuous
 62
     7
100
AcDbCircle
 10
310.3405430698154
 20
214.4462226746768
 30
0.0
 40
2.0
100
AcDbArc
 50
20.03084915316466
 51
80.03084915316499
  0
LINE
  5
52B1
330
525B
100
AcDbEntity
  8
3034104006100
  6
Continuous
 62
     7
100
AcDbLine
 10
312.6150747440306
 20
214.0464239799253
 30
0.0
 11
311.8240447329778
 21
216.2161255388837
 31
0.0
  0
LINE
  5
52B2
330
525B
100
AcDbEntity
  8
3034104006100
  6
Continuous
 62
     7
100
AcDbLine
 10
309.391307056552
 20
217.0498645454271
 30
0.0
 11
312.1207450656102
 21
216.5701061117252
 31
0.0
  0
LINE
  5
52B3
330
525B
100
AcDbEntity
  8
3034104006100
  6
Continuous
 62
     7
100
AcDbLine
 10
307.6111050607571
 20
214.9259811083788
 30
0.0
 11
309.391307056552
 21
217.0498645454271
 31
0.0
  0
LINE
  5
52B4
330
525B
100
AcDbEntity
  8
3034104006100
  6
Continuous
 62
     7
100
AcDbLine
 10
308.5603410740207
 20
212.3223392376285
 30
0.0
 11
307.6111050607572
 21
214.9259811083788
 31
0.0
  0
LINE
  5
52B5
330
525B
100
AcDbEntity
  8
3034104006100
  6
Continuous
 62
     7
100
AcDbLine
 10
311.2897790830789
 20
211.8425808039266
 30
0.0
 11
308.5603410740207
 21
212.3223392376285
 31
0.0
  0
LINE
  5
52B6
330
525B
100
AcDbEntity
  8
3034104006100
  6
Continuous
 62
     7
100
AcDbLine
 10
313.0699810788737
 20
213.966464240975
 30
0.0
 11
311.2897790830789
 21
211.8425808039266
 31
0.0
  0
LINE
  5
52B7
330
525B
100
AcDbEntity
  8
3034104006100
  6
Continuous
 62
     7
100
AcDbLine
 10
312.1207450656103
 20
216.5701061117252
 30
0.0
 11
313.0699810788737
 21
213.966464240975
 31
0.0
  0
LINE
  5
52B8
330
525B
100
AcDbEntity
  8
3034104006100
  6
Continuous
 62
     7
100
AcDbLine
 10
311.1315730808683
 20
212.2765211157183
 30
0.0
 11
312.6150747440306
 21
214.0464239799253
 31
0.0
  0
LINE
  5
52B9
330
525B
100
AcDbEntity
  8
3034104006100
  6
Continuous
 62
     7
100
AcDbLine
 10
308.8570414066531
 20
212.6763198104699
 30
0.0
 11
311.1315730808683
 21
212.2765211157183
 31
0.0
  0
LINE
  5
52BA
330
525B
100
AcDbEntity
  8
3034104006100
  6
Continuous
 62
     7
100
AcDbLine
 10
308.0660113956002
 20
214.8460213694284
 30
0.0
 11
308.8570414066531
 21
212.6763198104699
 31
0.0
  0
LINE
  5
52BB
330
525B
100
AcDbEntity
  8
3034104006100
  6
Continuous
 62
     7
100
AcDbLine
 10
309.5495130587626
 20
216.6159242336354
 30
0.0
 11
308.0660113956002
 21
214.8460213694284
 31
0.0
  0
LINE
  5
52BC
330
525B
100
AcDbEntity
  8
3034104006100
  6
Continuous
 62
     7
100
AcDbLine
 10
311.8240447329778
 20
216.2161255388837
 30
0.0
 11
309.5495130587626
 21
216.6159242336354
 31
0.0
  0
LINE
  5
52BD
330
525B
100
AcDbEntity
  8
3034104006100
  6
Continuous
 62
     7
100
AcDbLine
 10
308.8570414066531
 20
212.6763198104699
 30
0.0
 11
308.5603410740206
 21
212.3223392376285
 31
0.0
  0
LINE
  5
52BE
330
525B
100
AcDbEntity
  8
3034104006100
  6
Continuous
 62
     7
100
AcDbLine
 10
307.6111050607571
 20
214.9259811083788
 30
0.0
 11
308.0660113956002
 21
214.8460213694284
 31
0.0
  0
LINE
  5
52BF
330
525B
100
AcDbEntity
  8
3034104006100
  6
Continuous
 62
     7
100
AcDbLine
 10
311.1315730808683
 20
212.2765211157183
 30
0.0
 11
311.2897790830789
 21
211.8425808039266
 31
0.0
  0
LINE
  5
52C0
330
525B
100
AcDbEntity
  8
3034104006100
  6
Continuous
 62
     7
100
AcDbLine
 10
309.391307056552
 20
217.0498645454271
 30
0.0
 11
309.5495130587626
 21
216.6159242336354
 31
0.0
  0
LINE
  5
52C1
330
525B
100
AcDbEntity
  8
3034104006100
  6
Continuous
 62
     7
100
AcDbLine
 10
312.6150747440306
 20
214.0464239799253
 30
0.0
 11
313.0699810788737
 21
213.9664642409749
 31
0.0
  0
LINE
  5
52C2
330
525B
100
AcDbEntity
  8
3034104006100
  6
Continuous
 62
     7
100
AcDbLine
 10
312.1207450656103
 20
216.5701061117252
 30
0.0
 11
311.8240447329778
 21
216.2161255388838
 31
0.0
  0
LINE
  5
52C3
330
525B
100
AcDbEntity
  8
H01313
  6
Continuous
 62
     7
100
AcDbLine
 10
257.9405430698154
 20
206.4462226746768
 30
0.0
 11
257.9405430698154
 21
222.4462226746768
 31
0.0
  0
LINE
  5
52C4
330
525B
100
AcDbEntity
  8
H01313
  6
Continuous
 62
     7
100
AcDbLine
 10
235.9405430698154
 20
206.4462226746768
 30
0.0
 11
235.9405430698154
 21
222.4462226746768
 31
0.0
  0
LINE
  5
52C5
330
525B
100
AcDbEntity
  8
H01313
  6
Continuous
 62
     7
100
AcDbLine
 10
257.9405430698154
 20
222.4462226746768
 30
0.0
 11
235.9405430698154
 21
222.4462226746769
 31
0.0
  0
LINE
  5
52C6
330
525B
100
AcDbEntity
  8
H01313
  6
Continuous
 62
     7
100
AcDbLine
 10
235.9405430698154
 20
206.4462226746768
 30
0.0
 11
257.9405430698154
 21
206.4462226746768
 31
0.0
  0
LINE
  5
52C7
330
525B
100
AcDbEntity
  8
H01313
  6
Continuous
 62
     7
100
AcDbLine
 10
257.9405430698154
 20
225.4462226746768
 30
0.0
 11
257.9405430698154
 21
222.4462226746768
 31
0.0
  0
LINE
  5
52C8
330
525B
100
AcDbEntity
  8
H01313
  6
Continuous
 62
     7
100
AcDbLine
 10
257.9405430698154
 20
206.4462226746768
 30
0.0
 11
257.9405430698154
 21
203.4462226746768
 31
0.0
  0
LINE
  5
52C9
330
525B
100
AcDbEntity
  8
H01313
  6
Continuous
 62
     7
100
AcDbLine
 10
257.9405430698154
 20
203.4462226746768
 30
0.0
 11
235.9405430698154
 21
203.4462226746768
 31
0.0
  0
LINE
  5
52CA
330
525B
100
AcDbEntity
  8
H01313
  6
Continuous
 62
     7
100
AcDbLine
 10
235.9405430698154
 20
222.4462226746768
 30
0.0
 11
235.9405430698154
 21
225.4462226746768
 31
0.0
  0
LINE
  5
52CB
330
525B
100
AcDbEntity
  8
H01313
  6
Continuous
 62
     7
100
AcDbLine
 10
235.9405430698154
 20
203.4462226746768
 30
0.0
 11
235.9405430698154
 21
206.4462226746768
 31
0.0
  0
LINE
  5
52CC
330
525B
100
AcDbEntity
  8
H01313
  6
Continuous
 62
     7
100
AcDbLine
 10
235.9405430698154
 20
225.4462226746768
 30
0.0
 11
257.9405430698154
 21
225.4462226746768
 31
0.0
  0
ENDBLK
  5
52CD
330
525B
100
AcDbEntity
  8
0
100
AcDbBlockEnd
  0
BLOCK
  5
53C8
330
53C7
100
AcDbEntity
  8
0
100
AcDbBlockBegin
  2
SE6
 70
     0
 10
0.0
 20
0.0
 30
0.0
  3
SE6
  1

  0
LINE
  5
53C9
330
53C7
100
AcDbEntity
  8
H01308
  6
Continuous
 62
     7
100
AcDbLine
 10
389.9405430698154
 20
100.7634944723004
 30
0.0
 11
389.9405430698154
 21
105.2074361566831
 31
0.0
  0
LINE
  5
53CA
330
53C7
100
AcDbEntity
  8
H01308
  6
Continuous
 62
     7
100
AcDbLine
 10
389.9405430698154
 20
105.2074361566831
 30
0.0
 11
389.9405430698154
 21
118.7634944723004
 31
0.0
  0
LINE
  5
53CB
330
53C7
100
AcDbEntity
  8
H01308
  6
Continuous
 62
     7
100
AcDbLine
 10
389.9405430698154
 20
154.3195527879178
 30
0.0
 11
389.9405430698154
 21
158.7634944723004
 31
0.0
  0
LINE
  5
53CC
330
53C7
100
AcDbEntity
  8
H01308
  6
Continuous
 62
     7
100
AcDbLine
 10
298.9405430698154
 20
105.2074361566831
 30
0.0
 11
298.9405430698154
 21
118.7634944723004
 31
0.0
  0
LINE
  5
53CD
330
53C7
100
AcDbEntity
  8
H01308
  6
Continuous
 62
     7
100
AcDbLine
 10
298.9405430698154
 20
100.7634944723004
 30
0.0
 11
298.9405430698154
 21
105.2074361566831
 31
0.0
  0
LINE
  5
53CE
330
53C7
100
AcDbEntity
  8
H01308
  6
Continuous
 62
     7
100
AcDbLine
 10
298.9405430698154
 20
154.3195527879178
 30
0.0
 11
298.9405430698154
 21
158.7634944723004
 31
0.0
  0
LINE
  5
53CF
330
53C7
100
AcDbEntity
  8
H01308
  6
Continuous
 62
     7
100
AcDbLine
 10
389.9405430698154
 20
154.3195527879178
 30
0.0
 11
298.9405430698154
 21
154.3195527879178
 31
0.0
  0
LINE
  5
53D0
330
53C7
100
AcDbEntity
  8
H01308
  6
Continuous
 62
     7
100
AcDbLine
 10
389.9405430698154
 20
105.2074361566831
 30
0.0
 11
298.9405430698154
 21
105.2074361566831
 31
0.0
  0
LINE
  5
53D1
330
53C7
100
AcDbEntity
  8
H01308
  6
Continuous
 62
     7
100
AcDbLine
 10
389.9405430698154
 20
100.7634944723004
 30
0.0
 11
298.9405430698154
 21
100.7634944723004
 31
0.0
  0
LINE
  5
53D2
330
53C7
100
AcDbEntity
  8
H01308
  6
Continuous
 62
     7
100
AcDbLine
 10
389.9405430698154
 20
158.7634944723004
 30
0.0
 11
298.9405430698154
 21
158.7634944723004
 31
0.0
  0
LINE
  5
53D3
330
53C7
100
AcDbEntity
  8
H01308
  6
Continuous
 62
     7
100
AcDbLine
 10
389.9405430698154
 20
140.1634944723004
 30
0.0
 11
389.9405430698154
 21
137.6634944723003
 31
0.0
  0
LINE
  5
53D4
330
53C7
100
AcDbEntity
  8
H01308
  6
Continuous
 62
     7
100
AcDbLine
 10
389.9405430698154
 20
137.6634944723003
 30
0.0
 11
389.9405430698154
 21
135.8634944723005
 31
0.0
  0
LINE
  5
53D5
330
53C7
100
AcDbEntity
  8
H01308
  6
Continuous
 62
     7
100
AcDbLine
 10
389.9405430698154
 20
135.8634944723006
 30
0.0
 11
389.9405430698154
 21
133.3634944723004
 31
0.0
  0
LINE
  5
53D6
330
53C7
100
AcDbEntity
  8
H01308
  6
Continuous
 62
     7
100
AcDbLine
 10
298.9405430698154
 20
140.1634944723004
 30
0.0
 11
298.9405430698154
 21
137.6634944723003
 31
0.0
  0
LINE
  5
53D7
330
53C7
100
AcDbEntity
  8
H01308
  6
Continuous
 62
     7
100
AcDbLine
 10
298.9405430698154
 20
137.6634944723003
 30
0.0
 11
298.9405430698154
 21
135.8634944723005
 31
0.0
  0
LINE
  5
53D8
330
53C7
100
AcDbEntity
  8
H01308
  6
Continuous
 62
     7
100
AcDbLine
 10
298.9405430698154
 20
135.8634944723006
 30
0.0
 11
298.9405430698154
 21
133.3634944723004
 31
0.0
  0
LINE
  5
53D9
330
53C7
100
AcDbEntity
  8
H01308
  6
Continuous
 62
     7
100
AcDbLine
 10
389.9405430698154
 20
126.1634944723004
 30
0.0
 11
389.9405430698154
 21
123.6634944723002
 31
0.0
  0
LINE
  5
53DA
330
53C7
100
AcDbEntity
  8
H01308
  6
Continuous
 62
     7
100
AcDbLine
 10
389.9405430698154
 20
123.6634944723003
 30
0.0
 11
389.9405430698154
 21
121.8634944723005
 31
0.0
  0
LINE
  5
53DB
330
53C7
100
AcDbEntity
  8
H01308
  6
Continuous
 62
     7
100
AcDbLine
 10
389.9405430698154
 20
121.8634944723005
 30
0.0
 11
389.9405430698154
 21
119.3634944723004
 31
0.0
  0
LINE
  5
53DC
330
53C7
100
AcDbEntity
  8
H01308
  6
Continuous
 62
     7
100
AcDbLine
 10
298.9405430698154
 20
126.1634944723004
 30
0.0
 11
298.9405430698154
 21
123.6634944723002
 31
0.0
  0
LINE
  5
53DD
330
53C7
100
AcDbEntity
  8
H01308
  6
Continuous
 62
     7
100
AcDbLine
 10
298.9405430698154
 20
123.6634944723003
 30
0.0
 11
298.9405430698154
 21
121.8634944723005
 31
0.0
  0
LINE
  5
53DE
330
53C7
100
AcDbEntity
  8
H01308
  6
Continuous
 62
     7
100
AcDbLine
 10
298.9405430698154
 20
121.8634944723005
 30
0.0
 11
298.9405430698154
 21
119.3634944723004
 31
0.0
  0
LINE
  5
53DF
330
53C7
100
AcDbEntity
  8
H01308
  6
Continuous
 62
     7
100
AcDbLine
 10
389.9405430698154
 20
140.1634944723004
 30
0.0
 11
298.9405430698154
 21
140.1634944723004
 31
0.0
  0
LINE
  5
53E0
330
53C7
100
AcDbEntity
  8
H01308
  6
Continuous
 62
     7
100
AcDbLine
 10
298.9405430698154
 20
140.7634944723004
 30
0.0
 11
298.9405430698154
 21
154.3195527879178
 31
0.0
  0
LINE
  5
53E1
330
53C7
100
AcDbEntity
  8
H01308
  6
Continuous
 62
     7
100
AcDbLine
 10
298.9405430698154
 20
140.1634944723004
 30
0.0
 11
298.9405430698154
 21
140.7634944723004
 31
0.0
  0
LINE
  5
53E2
330
53C7
100
AcDbEntity
  8
H01308
  6
Continuous
 62
     7
100
AcDbLine
 10
389.9405430698154
 20
140.7634944723004
 30
0.0
 11
389.9405430698154
 21
154.3195527879178
 31
0.0
  0
LINE
  5
53E3
330
53C7
100
AcDbEntity
  8
H01308
  6
Continuous
 62
     7
100
AcDbLine
 10
389.9405430698154
 20
140.7634944723004
 30
0.0
 11
389.9405430698154
 21
140.1634944723004
 31
0.0
  0
LINE
  5
53E4
330
53C7
100
AcDbEntity
  8
H01308
  6
Continuous
 62
     7
100
AcDbLine
 10
298.9405430698154
 20
118.7634944723004
 30
0.0
 11
298.9405430698154
 21
119.3634944723004
 31
0.0
  0
LINE
  5
53E5
330
53C7
100
AcDbEntity
  8
H01308
  6
Continuous
 62
     7
100
AcDbLine
 10
298.9405430698154
 20
119.3634944723004
 30
0.0
 11
389.9405430698154
 21
119.3634944723004
 31
0.0
  0
LINE
  5
53E6
330
53C7
100
AcDbEntity
  8
H01308
  6
Continuous
 62
     7
100
AcDbLine
 10
389.9405430698154
 20
119.3634944723004
 30
0.0
 11
389.9405430698154
 21
118.7634944723004
 31
0.0
  0
LINE
  5
53E7
330
53C7
100
AcDbEntity
  8
H01308
  6
Continuous
 62
     7
100
AcDbLine
 10
389.9405430698154
 20
126.1634944723004
 30
0.0
 11
298.9405430698154
 21
126.1634944723004
 31
0.0
  0
LINE
  5
53E8
330
53C7
100
AcDbEntity
  8
H01308
  6
Continuous
 62
     7
100
AcDbLine
 10
298.9405430698154
 20
126.7634944723004
 30
0.0
 11
298.9405430698154
 21
132.7634944723004
 31
0.0
  0
LINE
  5
53E9
330
53C7
100
AcDbEntity
  8
H01308
  6
Continuous
 62
     7
100
AcDbLine
 10
298.9405430698154
 20
126.1634944723004
 30
0.0
 11
298.9405430698154
 21
126.7634944723004
 31
0.0
  0
LINE
  5
53EA
330
53C7
100
AcDbEntity
  8
H01308
  6
Continuous
 62
     7
100
AcDbLine
 10
389.9405430698154
 20
126.7634944723004
 30
0.0
 11
389.9405430698154
 21
132.7634944723004
 31
0.0
  0
LINE
  5
53EB
330
53C7
100
AcDbEntity
  8
H01308
  6
Continuous
 62
     7
100
AcDbLine
 10
389.9405430698154
 20
126.7634944723004
 30
0.0
 11
389.9405430698154
 21
126.1634944723004
 31
0.0
  0
LINE
  5
53EC
330
53C7
100
AcDbEntity
  8
H01308
  6
Continuous
 62
     7
100
AcDbLine
 10
298.9405430698154
 20
132.7634944723004
 30
0.0
 11
298.9405430698154
 21
133.3634944723004
 31
0.0
  0
LINE
  5
53ED
330
53C7
100
AcDbEntity
  8
H01308
  6
Continuous
 62
     7
100
AcDbLine
 10
298.9405430698154
 20
133.3634944723004
 30
0.0
 11
389.9405430698154
 21
133.3634944723004
 31
0.0
  0
LINE
  5
53EE
330
53C7
100
AcDbEntity
  8
H01308
  6
Continuous
 62
     7
100
AcDbLine
 10
389.9405430698154
 20
133.3634944723004
 30
0.0
 11
389.9405430698154
 21
132.7634944723004
 31
0.0
  0
LINE
  5
53EF
330
53C7
100
AcDbEntity
  8
H01309
  6
Continuous
 62
     7
100
AcDbLine
 10
295.9405430698154
 20
142.7634944723004
 30
0.0
 11
295.9405430698154
 21
116.7634944723004
 31
0.0
  0
LINE
  5
53F0
330
53C7
100
AcDbEntity
  8
H01309
  6
Continuous
 62
     7
100
AcDbLine
 10
294.9405430698154
 20
143.7634944723004
 30
0.0
 11
294.9405430698154
 21
115.7634944723004
 31
0.0
  0
LINE
  5
53F1
330
53C7
100
AcDbEntity
  8
H01309
  6
Continuous
 62
     7
100
AcDbLine
 10
259.9405430698154
 20
141.7634944723004
 30
0.0
 11
259.9405430698154
 21
117.7634944723004
 31
0.0
  0
LINE
  5
53F2
330
53C7
100
AcDbEntity
  8
H01309
  6
Continuous
 62
     7
100
AcDbLine
 10
261.9405430698154
 20
115.7634944723004
 30
0.0
 11
261.9405430698154
 21
143.7634944723004
 31
0.0
  0
LINE
  5
53F3
330
53C7
100
AcDbEntity
  8
H01309
  6
Continuous
 62
     7
100
AcDbLine
 10
295.9405430698154
 20
116.7634944723004
 30
0.0
 11
298.9405430698154
 21
116.7634944723004
 31
0.0
  0
LINE
  5
53F4
330
53C7
100
AcDbEntity
  8
H01309
  6
Continuous
 62
     7
100
AcDbLine
 10
298.9405430698154
 20
142.7634944723004
 30
0.0
 11
295.9405430698154
 21
142.7634944723004
 31
0.0
  0
LINE
  5
53F5
330
53C7
100
AcDbEntity
  8
H01309
  6
Continuous
 62
     7
100
AcDbLine
 10
294.9405430698154
 20
115.7634944723004
 30
0.0
 11
295.9405430698154
 21
116.7634944723004
 31
0.0
  0
LINE
  5
53F6
330
53C7
100
AcDbEntity
  8
H01309
  6
Continuous
 62
     7
100
AcDbLine
 10
295.9405430698154
 20
142.7634944723004
 30
0.0
 11
294.9405430698154
 21
143.7634944723004
 31
0.0
  0
LINE
  5
53F7
330
53C7
100
AcDbEntity
  8
H01309
  6
Continuous
 62
     7
100
AcDbLine
 10
261.9405430698154
 20
115.7634944723004
 30
0.0
 11
294.9405430698154
 21
115.7634944723004
 31
0.0
  0
LINE
  5
53F8
330
53C7
100
AcDbEntity
  8
H01309
  6
Continuous
 62
     7
100
AcDbLine
 10
294.9405430698154
 20
143.7634944723004
 30
0.0
 11
261.9405430698154
 21
143.7634944723004
 31
0.0
  0
LINE
  5
53F9
330
53C7
100
AcDbEntity
  8
H01309
  6
Continuous
 62
     7
100
AcDbLine
 10
261.9405430698154
 20
143.7634944723004
 30
0.0
 11
259.9405430698154
 21
141.7634944723004
 31
0.0
  0
LINE
  5
53FA
330
53C7
100
AcDbEntity
  8
H01309
  6
Continuous
 62
     7
100
AcDbLine
 10
259.9405430698154
 20
117.7634944723004
 30
0.0
 11
261.9405430698154
 21
115.7634944723004
 31
0.0
  0
LINE
  5
53FB
330
53C7
100
AcDbEntity
  8
3000104000100
  6
Continuous
 62
     7
100
AcDbLine
 10
258.5657578521546
 20
76.59026893089929
 30
0.0
 11
263.3153282874761
 21
76.59026893089929
 31
0.0
  0
LINE
  5
53FC
330
53C7
100
AcDbEntity
  8
3000104000100
  6
Continuous
 62
     7
100
AcDbLine
 10
258.5657578521546
 20
71.73887115892829
 30
0.0
 11
263.3153282874761
 21
71.73887115892829
 31
0.0
  0
LINE
  5
53FD
330
53C7
100
AcDbEntity
  8
3000104000100
  6
Continuous
 62
     7
100
AcDbLine
 10
258.5657578521546
 20
87.78811778567241
 30
0.0
 11
263.3153282874761
 21
87.78811778567241
 31
0.0
  0
LINE
  5
53FE
330
53C7
100
AcDbEntity
  8
3000104000100
  6
Continuous
 62
     7
100
AcDbLine
 10
258.5657578521546
 20
84.61489224427138
 30
0.0
 11
263.3153282874761
 21
84.61489224427138
 31
0.0
  0
ARC
  5
53FF
330
53C7
100
AcDbEntity
  8
3000104000100
  6
Continuous
 62
     7
100
AcDbCircle
 10
260.6601580111323
 20
86.04631487404631
 30
0.0
 40
2.724039171685066
100
AcDbArc
 50
140.2514766643043
 51
176.7340568595588
  0
ARC
  5
5400
330
53C7
100
AcDbEntity
  8
3000104000100
  6
Continuous
 62
     7
100
AcDbCircle
 10
260.6483748487803
 20
86.35205192635766
 30
0.0
 40
2.712013516872663
100
AcDbArc
 50
183.182188708363
 51
219.8322777677734
  0
ARC
  5
5401
330
53C7
100
AcDbEntity
  8
3000104000100
  6
Continuous
 62
     7
100
AcDbCircle
 10
272.1660583977637
 20
80.44077030270178
 30
0.0
 40
14.22643556601536
100
AcDbArc
 50
162.9380196229299
 51
179.348308557879
  0
ARC
  5
5402
330
53C7
100
AcDbEntity
  8
3000104000100
  6
Continuous
 62
     7
100
AcDbCircle
 10
272.1561016533456
 20
80.76283937190595
 30
0.0
 40
14.21646189175537
100
AcDbArc
 50
180.6458953376067
 51
197.0677764815846
  0
ARC
  5
5403
330
53C7
100
AcDbEntity
  8
3000104000100
  6
Continuous
 62
     7
100
AcDbCircle
 10
263.5308533103634
 20
74.01711138977879
 30
0.0
 40
5.592254700972652
100
AcDbArc
 50
152.6045798462675
 51
178.489028413776
  0
ARC
  5
5404
330
53C7
100
AcDbEntity
  8
3000104000100
  6
Continuous
 62
     7
100
AcDbCircle
 10
263.5023386183874
 20
74.30467914522964
 30
0.0
 40
5.563560036892447
100
AcDbArc
 50
181.4430524401478
 51
207.4633392998089
  0
ARC
  5
5405
330
53C7
100
AcDbEntity
  8
3000104000100
  6
Continuous
 62
     7
100
AcDbCircle
 10
260.6601580111323
 20
73.48067407055442
 30
0.0
 40
2.724039171685107
100
AcDbArc
 50
209.3099776272367
 51
219.7485233356966
  0
LINE
  5
5406
330
53C7
100
AcDbEntity
  8
3000104000100
  6
Continuous
 62
     7
100
AcDbLine
 10
263.9405430698154
 20
86.20150501497191
 30
0.0
 11
263.9405430698154
 21
80.60258058758535
 31
0.0
  0
LINE
  5
5407
330
53C7
100
AcDbEntity
  8
3000104000100
  6
Continuous
 62
     7
100
AcDbLine
 10
263.9405430698154
 20
86.20150501497191
 30
0.0
 11
263.9405430698154
 21
86.76349447230036
 31
0.0
  0
LINE
  5
5408
330
53C7
100
AcDbEntity
  8
3000104000100
  6
Continuous
 62
     7
100
AcDbLine
 10
263.9405430698154
 20
80.60258058758533
 30
0.0
 11
263.9405430698154
 21
74.16457004491379
 31
0.0
  0
LINE
  5
5409
330
53C7
100
AcDbEntity
  8
3000104000100
  6
Continuous
 62
     7
100
AcDbLine
 10
263.9405430698154
 20
74.16457004491377
 30
0.0
 11
263.9405430698154
 21
72.76349447230035
 31
0.0
  0
ARC
  5
540A
330
53C7
100
AcDbEntity
  8
3000104000100
  6
Continuous
 62
     7
100
AcDbCircle
 10
258.3787475212431
 20
74.02446094459792
 30
0.0
 40
5.563560036892671
100
AcDbArc
 50
1.443052440147618
 51
27.46333929980825
  0
ARC
  5
540B
330
53C7
100
AcDbEntity
  8
3000104000100
  6
Continuous
 62
     7
100
AcDbCircle
 10
249.7249844862849
 20
80.762839371906
 30
0.0
 40
14.21646189175555
100
AcDbArc
 50
342.9322235184155
 51
359.354104662393
  0
ARC
  5
540C
330
53C7
100
AcDbEntity
  8
3000104000100
  6
Continuous
 62
     7
100
AcDbCircle
 10
249.715027741867
 20
80.44077030270171
 30
0.0
 40
14.22643556601537
100
AcDbArc
 50
0.6516914421212168
 51
17.06198037707042
  0
ARC
  5
540D
330
53C7
100
AcDbEntity
  8
3000104000100
  6
Continuous
 62
     7
100
AcDbCircle
 10
261.2209281284984
 20
86.35669515589746
 30
0.0
 40
2.724039171685059
100
AcDbArc
 50
320.2514766643028
 51
356.7340568595597
  0
ARC
  5
540E
330
53C7
100
AcDbEntity
  8
3000104000100
  6
Continuous
 62
     7
100
AcDbCircle
 10
261.2327112908505
 20
86.05095810358616
 30
0.0
 40
2.712013516872584
100
AcDbArc
 50
3.182188708363346
 51
39.83227776777497
  0
ARC
  5
540F
330
53C7
100
AcDbEntity
  8
3000104000100
  6
Continuous
 62
     7
100
AcDbCircle
 10
261.2327112908505
 20
73.47603084101455
 30
0.0
 40
2.71201351687262
100
AcDbArc
 50
320.167722232225
 51
330.6077791544636
  0
ARC
  5
5410
330
53C7
100
AcDbEntity
  8
3000104000100
  6
Continuous
 62
     7
100
AcDbCircle
 10
258.3502328292672
 20
74.3120287000488
 30
0.0
 40
5.592254700972717
100
AcDbArc
 50
332.6045798462675
 51
358.4890284137756
  0
LINE
  5
5411
330
53C7
100
AcDbEntity
  8
3000104000100
  6
Continuous
 62
     7
100
AcDbLine
 10
258.2938921153005
 20
87.37551297188666
 30
0.0
 11
257.9405430698153
 21
86.76349447230034
 31
0.0
  0
LINE
  5
5412
330
53C7
100
AcDbEntity
  8
3000104000100
  6
Continuous
 62
     7
100
AcDbLine
 10
257.9405430698153
 20
72.76349447230035
 30
0.0
 11
258.2938921153005
 21
72.15147597271403
 31
0.0
  0
LINE
  5
5413
330
53C7
100
AcDbEntity
  8
3000104000100
  6
Continuous
 62
     7
100
AcDbLine
 10
263.9405430698154
 20
86.76349447230036
 30
0.0
 11
263.5809417881072
 21
87.38634216268586
 31
0.0
  0
LINE
  5
5414
330
53C7
100
AcDbEntity
  8
3000104000100
  6
Continuous
 62
     7
100
AcDbLine
 10
263.5809417881072
 20
72.14064678191485
 30
0.0
 11
263.9405430698154
 21
72.76349447230035
 31
0.0
  0
LINE
  5
5415
330
53C7
100
AcDbEntity
  8
H01166-M4
  6
Continuous
 62
     7
100
AcDbLine
 10
287.9405430698154
 20
87.34762634704351
 30
0.0
 11
287.9405430698154
 21
85.97645028322643
 31
0.0
  0
LINE
  5
5416
330
53C7
100
AcDbEntity
  8
H01166-M4
  6
Continuous
 62
     7
100
AcDbLine
 10
292.4311413098426
 20
87.34762634704345
 30
0.0
 11
287.9405430698153
 21
87.34762634704349
 31
0.0
  0
LINE
  5
5417
330
53C7
100
AcDbEntity
  8
H01166-M4
  6
Continuous
 62
     7
100
AcDbLine
 10
287.9405430698154
 20
85.97645028322643
 30
0.0
 11
287.9405430698154
 21
78.39231840848329
 31
0.0
  0
LINE
  5
5418
330
53C7
100
AcDbEntity
  8
H01166-M4
  6
Continuous
 62
     7
100
AcDbLine
 10
292.4311413098426
 20
85.9764502832264
 30
0.0
 11
287.9405430698154
 21
85.97645028322643
 31
0.0
  0
LINE
  5
5419
330
53C7
100
AcDbEntity
  8
H01166-M4
  6
Continuous
 62
     7
100
AcDbLine
 10
287.9405430698154
 20
78.39231840848329
 30
0.0
 11
287.9405430698154
 21
72.17936259755721
 31
0.0
  0
LINE
  5
541A
330
53C7
100
AcDbEntity
  8
H01166-M4
  6
Continuous
 62
     7
100
AcDbLine
 10
292.4311413098426
 20
78.39231840848326
 30
0.0
 11
287.9405430698154
 21
78.39231840848329
 31
0.0
  0
LINE
  5
541B
330
53C7
100
AcDbEntity
  8
H01166-M4
  6
Continuous
 62
     7
100
AcDbLine
 10
292.4311413098426
 20
72.17936259755723
 30
0.0
 11
287.9405430698153
 21
72.17936259755721
 31
0.0
  0
LINE
  5
541C
330
53C7
100
AcDbEntity
  8
H01166-M4
  6
Continuous
 62
     7
100
AcDbLine
 10
237.9405430698154
 20
82.16349447230035
 30
0.0
 11
237.9405430698154
 21
77.36349447230039
 31
0.0
  0
ELLIPSE
  5
541D
330
53C7
100
AcDbEntity
  8
H01166-M4
  6
Continuous
 62
     7
100
AcDbEllipse
 10
263.5405430698765
 20
86.66203831513511
 30
0.0
 11
-29.17190429156845
 21
0.0000000000001888
 31
0.0
210
0.0
220
0.0
230
1.0
 40
0.1696390434754263
 41
3.002606429150345
 42
3.280578878029242
  0
ELLIPSE
  5
541E
330
53C7
100
AcDbEntity
  8
H01166-M4
  6
Continuous
 62
     7
100
AcDbEllipse
 10
263.5405430698396
 20
82.184384345855
 30
0.0
 11
-29.17190429160572
 21
0.0000000000019028
 31
0.0
210
0.0
220
0.0
230
1.0
 40
0.9382929813116382
 41
3.002606429150485
 42
3.280578878029222
  0
ELLIPSE
  5
541F
330
53C7
100
AcDbEntity
  8
H01166-M4
  6
Continuous
 62
     7
100
AcDbEllipse
 10
263.5405430698167
 20
75.28584050302022
 30
0.0
 11
-29.17190429162835
 21
-0.0000000000001026
 31
0.0
210
0.0
220
0.0
230
1.0
 40
0.7686539378360344
 41
3.002606429150461
 42
3.280578878029118
  0
ELLIPSE
  5
5420
330
53C7
100
AcDbEntity
  8
H01166-M4
  6
Continuous
 62
     7
100
AcDbEllipse
 10
263.5405430698386
 20
72.86495062946574
 30
0.0
 11
-29.17190429160639
 21
0.0000000000000084
 31
0.0
210
0.0
220
0.0
230
1.0
 40
0.1696390434753143
 41
-3.280578878029157
 42
-3.182909127832056
  0
LINE
  5
5421
330
53C7
100
AcDbEntity
  8
H01166-M4
  6
Continuous
 62
     7
100
AcDbLine
 10
287.9405430698154
 20
83.76349447230037
 30
0.0
 11
263.9405430698154
 21
83.76349447230039
 31
0.0
  0
LINE
  5
5422
330
53C7
100
AcDbEntity
  8
H01166-M4
  6
Continuous
 62
     7
100
AcDbLine
 10
263.9405430698154
 20
75.76349447230036
 30
0.0
 11
287.9405430698154
 21
75.76349447230036
 31
0.0
  0
LINE
  5
5423
330
53C7
100
AcDbEntity
  8
H01166-M4
  6
Continuous
 62
     7
100
AcDbLine
 10
238.8328507621231
 20
83.05580216460809
 30
0.0
 11
237.9405430698154
 21
82.16349447230038
 31
0.0
  0
LINE
  5
5424
330
53C7
100
AcDbEntity
  8
H01166-M4
  6
Continuous
 62
     7
100
AcDbLine
 10
237.9405430698154
 20
77.36349447230037
 30
0.0
 11
239.4314521607245
 21
75.87258538139128
 31
0.0
  0
ARC
  5
5425
330
53C7
100
AcDbEntity
  8
H01166-M4
  6
Continuous
 62
     7
100
AcDbCircle
 10
263.5405430698153
 20
79.76349447230035
 30
0.0
 40
30.0
100
AcDbArc
 50
346.3043170656509
 51
13.69568293434908
  0
LINE
  5
5426
330
53C7
100
AcDbEntity
  8
H01166-M4
  6
Continuous
 62
     7
100
AcDbLine
 10
287.9405430698154
 20
76.62249447230035
 30
0.0
 11
263.9405430698154
 21
76.62249447230035
 31
0.0
  0
LINE
  5
5427
330
53C7
100
AcDbEntity
  8
H01166-M4
  6
Continuous
 62
     7
100
AcDbLine
 10
287.9405430698154
 20
82.90449447230036
 30
0.0
 11
263.9405430698154
 21
82.90449447230036
 31
0.0
  0
LINE
  5
5428
330
53C7
100
AcDbEntity
  8
H01311
  6
Continuous
 62
     7
100
AcDbLine
 10
254.9405430698155
 20
125.890511126093
 30
0.0
 11
254.9405430698155
 21
122.7634944723004
 31
0.0
  0
SPLINE
  5
5429
330
53C7
100
AcDbEntity
  8
H01311
  6
Continuous
 62
     7
100
AcDbSpline
210
0.0
220
0.0
230
1.0
 70
     8
 71
     3
 72
    10
 73
     6
 74
     0
 42
0.0000000001
 43
0.0000000001
 40
0.0
 40
0.0
 40
0.0
 40
0.0
 40
0.5
 40
0.5
 40
1.0
 40
1.0
 40
1.0
 40
1.0
 10
253.9405430698154
 20
129.7634944723004
 30
0.0
 10
253.9405430698154
 20
129.0835526267981
 30
0.0
 10
254.0409001897496
 20
128.4174773799415
 30
0.0
 10
254.4009998220357
 20
127.1073495714954
 30
0.0
 10
254.6515323211274
 20
126.4874891615829
 30
0.0
 10
254.9405430698155
 20
125.890511126093
 30
0.0
  0
SPLINE
  5
542A
330
53C7
100
AcDbEntity
  8
H01311
  6
Continuous
 62
     7
100
AcDbSpline
210
0.0
220
0.0
230
1.0
 70
     8
 71
     3
 72
    12
 73
     8
 74
     0
 42
0.0000000001
 43
0.0000000001
 40
0.0
 40
0.0
 40
0.0
 40
0.0
 40
0.25
 40
0.25
 40
0.5
 40
0.5
 40
1.0
 40
1.0
 40
1.0
 40
1.0
 10
254.9405430698155
 20
133.6364778185078
 30
0.0
 10
254.7951157684362
 20
133.3360844764675
 30
0.0
 10
254.6597455961315
 20
133.0299432398031
 30
0.0
 10
254.4158265003593
 20
132.4023317684213
 30
0.0
 10
254.3072806174099
 20
132.0799755203538
 30
0.0
 10
254.0410031197328
 20
131.1072140575869
 30
0.0
 10
253.9405430698154
 20
130.442146961256
 30
0.0
 10
253.9405430698154
 20
129.7634944723004
 30
0.0
  0
ARC
  5
542B
330
53C7
100
AcDbEntity
  8
H01311
  6
Continuous
 62
     7
100
AcDbCircle
 10
251.9405430698154
 20
129.7634944723004
 30
0.0
 40
8.000000000000005
100
AcDbArc
 50
331.0449756281402
 51
28.95502437185968
  0
LINE
  5
542C
330
53C7
100
AcDbEntity
  8
H01311
  6
Continuous
 62
     7
100
AcDbLine
 10
254.9405430698155
 20
133.6364778185078
 30
0.0
 11
258.9405430698155
 21
133.6364778185078
 31
0.0
  0
LINE
  5
542D
330
53C7
100
AcDbEntity
  8
H01311
  6
Continuous
 62
     7
100
AcDbLine
 10
258.9405430698155
 20
125.890511126093
 30
0.0
 11
254.9405430698155
 21
125.890511126093
 31
0.0
  0
LINE
  5
542E
330
53C7
100
AcDbEntity
  8
H01311
  6
Continuous
 62
     7
100
AcDbLine
 10
258.9405430698155
 20
133.6364778185078
 30
0.0
 11
258.9405430698155
 21
125.890511126093
 31
0.0
  0
LINE
  5
542F
330
53C7
100
AcDbEntity
  8
H01311
  6
Continuous
 62
     7
100
AcDbLine
 10
254.9405430698155
 20
136.7634944723004
 30
0.0
 11
254.9405430698155
 21
133.6364778185078
 31
0.0
  0
LINE
  5
5430
330
53C7
100
AcDbEntity
  8
H01311
  6
Continuous
 62
     7
100
AcDbLine
 10
259.9405430698154
 20
137.7634944723004
 30
0.0
 11
258.9405430698154
 21
136.7634944723004
 31
0.0
  0
LINE
  5
5431
330
53C7
100
AcDbEntity
  8
H01311
  6
Continuous
 62
     7
100
AcDbLine
 10
258.9405430698155
 20
136.7634944723004
 30
0.0
 11
257.9405430698154
 21
136.7634944723004
 31
0.0
  0
LINE
  5
5432
330
53C7
100
AcDbEntity
  8
H01311
  6
Continuous
 62
     7
100
AcDbLine
 10
258.9405430698155
 20
122.7634944723004
 30
0.0
 11
259.9405430698155
 21
121.7634944723004
 31
0.0
  0
LINE
  5
5433
330
53C7
100
AcDbEntity
  8
H01311
  6
Continuous
 62
     7
100
AcDbLine
 10
257.9405430698154
 20
122.7634944723004
 30
0.0
 11
258.9405430698155
 21
122.7634944723004
 31
0.0
  0
LINE
  5
5434
330
53C7
100
AcDbEntity
  8
H01313
  6
Continuous
 62
     7
100
AcDbLine
 10
235.9405430698154
 20
117.7634944723004
 30
0.0
 11
235.9405430698154
 21
138.7634944723004
 31
0.0
  0
LINE
  5
5435
330
53C7
100
AcDbEntity
  8
H01313
  6
Continuous
 62
     7
100
AcDbLine
 10
235.9405430698154
 20
117.7634944723004
 30
0.0
 11
239.6905430698154
 21
72.76349447230036
 31
0.0
  0
LINE
  5
5436
330
53C7
100
AcDbEntity
  8
H01313
  6
Continuous
 62
     7
100
AcDbLine
 10
235.9405430698154
 20
141.7634944723004
 30
0.0
 11
257.9405430698154
 21
141.7634944723004
 31
0.0
  0
LINE
  5
5437
330
53C7
100
AcDbEntity
  8
H01313
  6
Continuous
 62
     7
100
AcDbLine
 10
257.9405430698153
 20
72.76349447230038
 30
0.0
 11
257.9405430698154
 21
122.7634944723003
 31
0.0
  0
LINE
  5
5438
330
53C7
100
AcDbEntity
  8
H01313
  6
Continuous
 62
     7
100
AcDbLine
 10
257.9405430698153
 20
72.76349447230038
 30
0.0
 11
257.9405430698153
 21
69.76349447230038
 31
0.0
  0
LINE
  5
5439
330
53C7
100
AcDbEntity
  8
H01313
  6
Continuous
 62
     7
100
AcDbLine
 10
257.9405430698154
 20
141.7634944723004
 30
0.0
 11
257.9405430698154
 21
138.7634944723004
 31
0.0
  0
LINE
  5
543A
330
53C7
100
AcDbEntity
  8
H01313
  6
Continuous
 62
     7
100
AcDbLine
 10
239.6905430698154
 20
72.76349447230035
 30
0.0
 11
257.9405430698153
 21
72.76349447230036
 31
0.0
  0
LINE
  5
543B
330
53C7
100
AcDbEntity
  8
H01313
  6
Continuous
 62
     7
100
AcDbLine
 10
257.9405430698154
 20
138.7634944723004
 30
0.0
 11
235.9405430698154
 21
138.7634944723004
 31
0.0
  0
LINE
  5
543C
330
53C7
100
AcDbEntity
  8
H01313
  6
Continuous
 62
     7
100
AcDbLine
 10
235.9405430698154
 20
138.7634944723004
 30
0.0
 11
235.9405430698154
 21
141.7634944723004
 31
0.0
  0
LINE
  5
543D
330
53C7
100
AcDbEntity
  8
H01313
  6
Continuous
 62
     7
100
AcDbLine
 10
257.9405430698153
 20
69.76349447230038
 30
0.0
 11
239.9405430698154
 21
69.76349447230039
 31
0.0
  0
LINE
  5
543E
330
53C7
100
AcDbEntity
  8
H01313
  6
Continuous
 62
     7
100
AcDbLine
 10
239.9405430698154
 20
69.76349447230038
 30
0.0
 11
239.6905430698154
 21
72.76349447230035
 31
0.0
  0
LINE
  5
543F
330
53C7
100
AcDbEntity
  8
H01313
  6
Continuous
 62
     7
100
AcDbLine
 10
257.9405430698154
 20
136.7634944723004
 30
0.0
 11
257.9405430698154
 21
138.7634944723004
 31
0.0
  0
LINE
  5
5440
330
53C7
100
AcDbEntity
  8
H01313
  6
Continuous
 62
     7
100
AcDbLine
 10
257.9405430698154
 20
122.7634944723003
 30
0.0
 11
253.9405430698154
 21
122.7634944723003
 31
0.0
  0
LINE
  5
5441
330
53C7
100
AcDbEntity
  8
H01313
  6
Continuous
 62
     7
100
AcDbLine
 10
253.9405430698154
 20
122.7634944723003
 30
0.0
 11
253.9405430698154
 21
136.7634944723004
 31
0.0
  0
LINE
  5
5442
330
53C7
100
AcDbEntity
  8
H01313
  6
Continuous
 62
     7
100
AcDbLine
 10
253.9405430698154
 20
136.7634944723004
 30
0.0
 11
257.9405430698153
 21
136.7634944723004
 31
0.0
  0
ENDBLK
  5
5443
330
53C7
100
AcDbEntity
  8
0
100
AcDbBlockEnd
  0
BLOCK
  5
5639
330
54F1
100
AcDbEntity
  8
0
100
AcDbBlockBegin
  2
*D97
 70
     1
 10
0.0
 20
0.0
 30
0.0
  3
*D97
  1

  0
LINE
  5
5D13
330
54F1
100
AcDbEntity
  8
AM_REFDIM
100
AcDbLine
 10
258.0432604245994
 20
45.17203261909044
 30
0.0
 11
258.0432604245994
 21
57.75885442105092
 31
0.0
  0
LINE
  5
5D14
330
54F1
100
AcDbEntity
  8
AM_REFDIM
100
AcDbLine
 10
269.0432604245994
 20
45.17203261909044
 30
0.0
 11
269.0432604245994
 21
57.75885442105092
 31
0.0
  0
LINE
  5
5D15
330
54F1
100
AcDbEntity
  8
AM_REFDIM
100
AcDbLine
 10
261.0605190276617
 20
56.25022511951975
 30
0.0
 11
266.0260018215371
 21
56.25022511951975
 31
0.0
  0
SOLID
  5
5D16
330
54F1
100
AcDbEntity
  8
AM_REFDIM
100
AcDbTrace
 10
261.0605190276617
 20
56.75310155336347
 30
0.0
 11
261.0605190276617
 21
55.74734868567603
 31
0.0
 12
258.0432604245994
 22
56.25022511951975
 32
0.0
 13
258.0432604245994
 23
56.25022511951975
 33
0.0
  0
SOLID
  5
5D17
330
54F1
100
AcDbEntity
  8
AM_REFDIM
100
AcDbTrace
 10
266.0260018215371
 20
56.75310155336347
 30
0.0
 11
266.0260018215371
 21
55.74734868567603
 31
0.0
 12
269.0432604245994
 22
56.25022511951975
 32
0.0
 13
269.0432604245994
 23
56.25022511951975
 33
0.0
  0
MTEXT
  5
5D18
330
54F1
100
AcDbEntity
  8
AM_REFDIM
100
AcDbMText
 10
263.5432603947971
 20
59.01604550566022
 30
0.0
 40
3.520135036906051
 41
0.0
 71
     5
 72
     1
  1
\A1;11
 73
     1
 44
1.0
1001
ACAD
1000
MTEXTBEGIN
1070
    73
1070
     1
1070
    44
1040
1.0
1070
    74
1070
     0
1000
MTEXTEND
  0
POINT
  5
5D19
330
54F1
100
AcDbEntity
  8
Defpoints
 62
     0
100
AcDbPoint
 10
258.0432604245994
 20
43.66340331755927
 30
0.0
  0
POINT
  5
5D1A
330
54F1
100
AcDbEntity
  8
Defpoints
 62
     0
100
AcDbPoint
 10
269.0432604245994
 20
43.66340331755927
 30
0.0
  0
POINT
  5
5D1B
330
54F1
100
AcDbEntity
  8
Defpoints
 62
     0
100
AcDbPoint
 10
269.0432604245994
 20
56.25022511951975
 30
0.0
  0
ENDBLK
  5
563A
330
54F1
100
AcDbEntity
  8
0
100
AcDbBlockEnd
  0
BLOCK
  5
563B
330
54FB
100
AcDbEntity
  8
0
100
AcDbBlockBegin
  2
*D98
 70
     1
 10
0.0
 20
0.0
 30
0.0
  3
*D98
  1

  0
LINE
  5
5D1C
330
54FB
100
AcDbEntity
  8
AM_REFDIM
100
AcDbLine
 10
258.0432604245994
 20
45.17203261909044
 30
0.0
 11
258.0432604245994
 21
76.69100764059042
 31
0.0
  0
LINE
  5
5D1D
330
54FB
100
AcDbEntity
  8
AM_REFDIM
100
AcDbLine
 10
270.0432604245994
 20
45.67203261909043
 30
0.0
 11
270.0432604245994
 21
76.69100764059042
 31
0.0
  0
LINE
  5
5D1E
330
54FB
100
AcDbEntity
  8
AM_REFDIM
100
AcDbLine
 10
261.0605190276617
 20
75.18237833905924
 30
0.0
 11
267.0260018215371
 21
75.18237833905924
 31
0.0
  0
SOLID
  5
5D1F
330
54FB
100
AcDbEntity
  8
AM_REFDIM
100
AcDbTrace
 10
261.0605190276617
 20
75.68525477290297
 30
0.0
 11
261.0605190276617
 21
74.67950190521552
 31
0.0
 12
258.0432604245994
 22
75.18237833905924
 32
0.0
 13
258.0432604245994
 23
75.18237833905924
 33
0.0
  0
SOLID
  5
5D20
330
54FB
100
AcDbEntity
  8
AM_REFDIM
100
AcDbTrace
 10
267.0260018215371
 20
75.68525477290297
 30
0.0
 11
267.0260018215371
 21
74.67950190521552
 31
0.0
 12
270.0432604245994
 22
75.18237833905924
 32
0.0
 13
270.0432604245994
 23
75.18237833905924
 33
0.0
  0
MTEXT
  5
5D21
330
54FB
100
AcDbEntity
  8
AM_REFDIM
100
AcDbMText
 10
264.0432604767535
 20
77.94854519518366
 30
0.0
 40
3.520135036906051
 41
0.0
 71
     5
 72
     1
  1
\A1;12
 73
     1
 44
1.0
1001
ACAD
1000
MTEXTBEGIN
1070
    73
1070
     1
1070
    44
1040
1.0
1070
    74
1070
     0
1000
MTEXTEND
  0
POINT
  5
5D22
330
54FB
100
AcDbEntity
  8
Defpoints
 62
     0
100
AcDbPoint
 10
258.0432604245994
 20
43.66340331755927
 30
0.0
  0
POINT
  5
5D23
330
54FB
100
AcDbEntity
  8
Defpoints
 62
     0
100
AcDbPoint
 10
270.0432604245994
 20
44.16340331755927
 30
0.0
  0
POINT
  5
5D24
330
54FB
100
AcDbEntity
  8
Defpoints
 62
     0
100
AcDbPoint
 10
270.0432604245994
 20
75.18237833905924
 30
0.0
  0
ENDBLK
  5
563C
330
54FB
100
AcDbEntity
  8
0
100
AcDbBlockEnd
  0
BLOCK
  5
563D
330
5506
100
AcDbEntity
  8
0
100
AcDbBlockBegin
  2
*D99
 70
     1
 10
0.0
 20
0.0
 30
0.0
  3
*D99
  1

  0
LINE
  5
5D25
330
5506
100
AcDbEntity
  8
AM_REFDIM
100
AcDbLine
 10
173.7345267316269
 20
51.95006177689911
 30
0.0
 11
173.7345267316269
 21
69.24543716214959
 31
0.0
  0
LINE
  5
5D26
330
5506
100
AcDbEntity
  8
AM_REFDIM
100
AcDbLine
 10
202.7345267316269
 20
51.95006177689912
 30
0.0
 11
202.7345267316269
 21
69.24543716214959
 31
0.0
  0
LINE
  5
5D27
330
5506
100
AcDbEntity
  8
AM_REFDIM
100
AcDbLine
 10
176.7517853346892
 20
67.73680786061841
 30
0.0
 11
199.7172681285645
 21
67.73680786061841
 31
0.0
  0
SOLID
  5
5D28
330
5506
100
AcDbEntity
  8
AM_REFDIM
100
AcDbTrace
 10
176.7517853346892
 20
68.23968429446214
 30
0.0
 11
176.7517853346892
 21
67.23393142677469
 31
0.0
 12
173.7345267316269
 22
67.73680786061841
 32
0.0
 13
173.7345267316269
 23
67.73680786061841
 33
0.0
  0
SOLID
  5
5D29
330
5506
100
AcDbEntity
  8
AM_REFDIM
100
AcDbTrace
 10
199.7172681285645
 20
68.23968429446214
 30
0.0
 11
199.7172681285645
 21
67.23393142677469
 31
0.0
 12
202.7345267316269
 22
67.73680786061841
 32
0.0
 13
202.7345267316269
 23
67.73680786061841
 33
0.0
  0
MTEXT
  5
5D2A
330
5506
100
AcDbEntity
  8
AM_REFDIM
100
AcDbMText
 10
188.2345263143943
 20
70.65117614473573
 30
0.0
 40
3.520135036906051
 41
0.0
 71
     5
 72
     1
  1
\A1;{\Fsemeca1.ttf|c136;q} 29
 73
     1
 44
1.0
1001
ACAD
1000
MTEXTBEGIN
1070
    73
1070
     1
1070
    44
1040
1.0
1070
    74
1070
     0
1000
MTEXTEND
  0
POINT
  5
5D2B
330
5506
100
AcDbEntity
  8
Defpoints
 62
     0
100
AcDbPoint
 10
173.7345267316269
 20
50.44143247536794
 30
0.0
  0
POINT
  5
5D2C
330
5506
100
AcDbEntity
  8
Defpoints
 62
     0
100
AcDbPoint
 10
202.7345267316269
 20
50.44143247536796
 30
0.0
  0
POINT
  5
5D2D
330
5506
100
AcDbEntity
  8
Defpoints
 62
     0
100
AcDbPoint
 10
202.7345267316269
 20
67.73680786061841
 30
0.0
  0
ENDBLK
  5
563E
330
5506
100
AcDbEntity
  8
0
100
AcDbBlockEnd
  0
BLOCK
  5
563F
330
5510
100
AcDbEntity
  8
0
100
AcDbBlockBegin
  2
*D100
 70
     1
 10
0.0
 20
0.0
 30
0.0
  3
*D100
  1

  0
LINE
  5
5D2E
330
5510
100
AcDbEntity
  8
AM_REFDIM
100
AcDbLine
 10
178.2345267316269
 20
54.42203261909043
 30
0.0
 11
178.2345267316269
 21
61.36621927004267
 31
0.0
  0
LINE
  5
5D2F
330
5510
100
AcDbEntity
  8
AM_REFDIM
100
AcDbLine
 10
198.2345267316269
 20
54.42203261909043
 30
0.0
 11
198.2345267316269
 21
61.36621927004267
 31
0.0
  0
LINE
  5
5D30
330
5510
100
AcDbEntity
  8
AM_REFDIM
100
AcDbLine
 10
181.2517853346892
 20
59.8575899685115
 30
0.0
 11
195.2172681285645
 21
59.8575899685115
 31
0.0
  0
SOLID
  5
5D31
330
5510
100
AcDbEntity
  8
AM_REFDIM
100
AcDbTrace
 10
181.2517853346892
 20
60.36046640235523
 30
0.0
 11
181.2517853346892
 21
59.35471353466778
 31
0.0
 12
178.2345267316269
 22
59.8575899685115
 32
0.0
 13
178.2345267316269
 23
59.8575899685115
 33
0.0
  0
SOLID
  5
5D32
330
5510
100
AcDbEntity
  8
AM_REFDIM
100
AcDbTrace
 10
195.2172681285645
 20
60.36046640235523
 30
0.0
 11
195.2172681285645
 21
59.35471353466778
 31
0.0
 12
198.2345267316269
 22
59.8575899685115
 32
0.0
 13
198.2345267316269
 23
59.8575899685115
 33
0.0
  0
MTEXT
  5
5D33
330
5510
100
AcDbEntity
  8
AM_REFDIM
100
AcDbMText
 10
188.2345265081093
 20
62.77195825262882
 30
0.0
 40
3.520135036906051
 41
0.0
 71
     5
 72
     1
  1
\A1;{\Fsemeca1.ttf|c136;q} 20
 73
     1
 44
1.0
1001
ACAD
1000
MTEXTBEGIN
1070
    73
1070
     1
1070
    44
1040
1.0
1070
    74
1070
     0
1000
MTEXTEND
  0
POINT
  5
5D34
330
5510
100
AcDbEntity
  8
Defpoints
 62
     0
100
AcDbPoint
 10
178.2345267316269
 20
52.91340331755925
 30
0.0
  0
POINT
  5
5D35
330
5510
100
AcDbEntity
  8
Defpoints
 62
     0
100
AcDbPoint
 10
198.2345267316269
 20
52.91340331755925
 30
0.0
  0
POINT
  5
5D36
330
5510
100
AcDbEntity
  8
Defpoints
 62
     0
100
AcDbPoint
 10
198.2345267316269
 20
59.8575899685115
 30
0.0
  0
ENDBLK
  5
5640
330
5510
100
AcDbEntity
  8
0
100
AcDbBlockEnd
  0
BLOCK
  5
5641
330
551A
100
AcDbEntity
  8
0
100
AcDbBlockBegin
  2
*D101
 70
     1
 10
0.0
 20
0.0
 30
0.0
  3
*D101
  1

  0
LINE
  5
5D37
330
551A
100
AcDbEntity
  8
AM_REFDIM
100
AcDbLine
 10
258.0432604245994
 20
45.17203261909044
 30
0.0
 11
258.0432604245994
 21
86.01831130231117
 31
0.0
  0
LINE
  5
5D38
330
551A
100
AcDbEntity
  8
AM_REFDIM
100
AcDbLine
 10
335.0432604245994
 20
54.17203261909045
 30
0.0
 11
335.0432604245994
 21
86.01831130231117
 31
0.0
  0
LINE
  5
5D39
330
551A
100
AcDbEntity
  8
AM_REFDIM
100
AcDbLine
 10
261.0605190276617
 20
84.50968200077999
 30
0.0
 11
332.0260018215371
 21
84.50968200077999
 31
0.0
  0
SOLID
  5
5D3A
330
551A
100
AcDbEntity
  8
AM_REFDIM
100
AcDbTrace
 10
261.0605190276617
 20
85.01255843462372
 30
0.0
 11
261.0605190276617
 21
84.00680556693627
 31
0.0
 12
258.0432604245994
 22
84.50968200077999
 32
0.0
 13
258.0432604245994
 23
84.50968200077999
 33
0.0
  0
SOLID
  5
5D3B
330
551A
100
AcDbEntity
  8
AM_REFDIM
100
AcDbTrace
 10
332.0260018215371
 20
85.01255843462372
 30
0.0
 11
332.0260018215371
 21
84.00680556693627
 31
0.0
 12
335.0432604245994
 22
84.50968200077999
 32
0.0
 13
335.0432604245994
 23
84.50968200077999
 33
0.0
  0
MTEXT
  5
5D3C
330
551A
100
AcDbEntity
  8
AM_REFDIM
100
AcDbMText
 10
296.5432604245994
 20
87.27584885690442
 30
0.0
 40
3.520135036906051
 41
0.0
 71
     5
 72
     1
  1
\A1;57+STx2 {}
 73
     1
 44
1.0
1001
ACAD
1000
MTEXTBEGIN
1070
    73
1070
     1
1070
    44
1040
1.0
1070
    74
1070
     0
1000
MTEXTEND
  0
POINT
  5
5D3D
330
551A
100
AcDbEntity
  8
Defpoints
 62
     0
100
AcDbPoint
 10
258.0432604245994
 20
43.66340331755927
 30
0.0
  0
POINT
  5
5D3E
330
551A
100
AcDbEntity
  8
Defpoints
 62
     0
100
AcDbPoint
 10
335.0432604245994
 20
52.66340331755928
 30
0.0
  0
POINT
  5
5D3F
330
551A
100
AcDbEntity
  8
Defpoints
 62
     0
100
AcDbPoint
 10
335.0432604245994
 20
84.50968200077999
 30
0.0
  0
ENDBLK
  5
5642
330
551A
100
AcDbEntity
  8
0
100
AcDbBlockEnd
  0
BLOCK
  5
5643
330
5524
100
AcDbEntity
  8
0
100
AcDbBlockBegin
  2
*D102
 70
     1
 10
0.0
 20
0.0
 30
0.0
  3
*D102
  1

  0
LINE
  5
5D40
330
5524
100
AcDbEntity
  8
AM_REFDIM
100
AcDbLine
 10
270.0432604245994
 20
45.67203261909043
 30
0.0
 11
270.0432604245994
 21
76.69100764059042
 31
0.0
  0
LINE
  5
5D41
330
5524
100
AcDbEntity
  8
AM_REFDIM
100
AcDbLine
 10
289.5432604245994
 20
54.17203261909045
 30
0.0
 11
289.5432604245994
 21
76.69100764059042
 31
0.0
  0
LINE
  5
5D42
330
5524
100
AcDbEntity
  8
AM_REFDIM
100
AcDbLine
 10
273.0605190276617
 20
75.18237833905925
 30
0.0
 11
286.5260018215371
 21
75.18237833905925
 31
0.0
  0
SOLID
  5
5D43
330
5524
100
AcDbEntity
  8
AM_REFDIM
100
AcDbTrace
 10
273.0605190276617
 20
75.68525477290298
 30
0.0
 11
273.0605190276617
 21
74.67950190521553
 31
0.0
 12
270.0432604245994
 22
75.18237833905925
 32
0.0
 13
270.0432604245994
 23
75.18237833905925
 33
0.0
  0
SOLID
  5
5D44
330
5524
100
AcDbEntity
  8
AM_REFDIM
100
AcDbTrace
 10
286.5260018215371
 20
75.68525477290298
 30
0.0
 11
286.5260018215371
 21
74.67950190521553
 31
0.0
 12
289.5432604245994
 22
75.18237833905925
 32
0.0
 13
289.5432604245994
 23
75.18237833905925
 33
0.0
  0
MTEXT
  5
5D45
330
5524
100
AcDbEntity
  8
AM_REFDIM
100
AcDbMText
 10
279.7932604245994
 20
77.94819872519972
 30
0.0
 40
3.520135036906051
 41
0.0
 71
     5
 72
     1
  1
\A1;9.5+ST {}
 73
     1
 44
1.0
1001
ACAD
1000
MTEXTBEGIN
1070
    73
1070
     1
1070
    44
1040
1.0
1070
    74
1070
     0
1000
MTEXTEND
  0
POINT
  5
5D46
330
5524
100
AcDbEntity
  8
Defpoints
 62
     0
100
AcDbPoint
 10
270.0432604245994
 20
44.16340331755927
 30
0.0
  0
POINT
  5
5D47
330
5524
100
AcDbEntity
  8
Defpoints
 62
     0
100
AcDbPoint
 10
289.5432604245994
 20
52.66340331755928
 30
0.0
  0
POINT
  5
5D48
330
5524
100
AcDbEntity
  8
Defpoints
 62
     0
100
AcDbPoint
 10
289.5432604245994
 20
75.18237833905925
 30
0.0
  0
ENDBLK
  5
5644
330
5524
100
AcDbEntity
  8
0
100
AcDbBlockEnd
  0
BLOCK
  5
5645
330
552E
100
AcDbEntity
  8
0
100
AcDbBlockBegin
  2
*D103
 70
     1
 10
0.0
 20
0.0
 30
0.0
  3
*D103
  1

  0
LINE
  5
5D49
330
552E
100
AcDbEntity
  8
AM_REFDIM
100
AcDbLine
 10
289.5432604245994
 20
54.17203261909045
 30
0.0
 11
289.5432604245994
 21
76.69100764059042
 31
0.0
  0
LINE
  5
5D4A
330
552E
100
AcDbEntity
  8
AM_REFDIM
100
AcDbLine
 10
335.0432604245994
 20
54.17203261909045
 30
0.0
 11
335.0432604245994
 21
76.69100764059042
 31
0.0
  0
LINE
  5
5D4B
330
552E
100
AcDbEntity
  8
AM_REFDIM
100
AcDbLine
 10
292.5605190276617
 20
75.18237833905925
 30
0.0
 11
332.0260018215371
 21
75.18237833905925
 31
0.0
  0
SOLID
  5
5D4C
330
552E
100
AcDbEntity
  8
AM_REFDIM
100
AcDbTrace
 10
292.5605190276617
 20
75.68525477290298
 30
0.0
 11
292.5605190276617
 21
74.67950190521553
 31
0.0
 12
289.5432604245994
 22
75.18237833905925
 32
0.0
 13
289.5432604245994
 23
75.18237833905925
 33
0.0
  0
SOLID
  5
5D4D
330
552E
100
AcDbEntity
  8
AM_REFDIM
100
AcDbTrace
 10
332.0260018215371
 20
75.68525477290298
 30
0.0
 11
332.0260018215371
 21
74.67950190521553
 31
0.0
 12
335.0432604245994
 22
75.18237833905925
 32
0.0
 13
335.0432604245994
 23
75.18237833905925
 33
0.0
  0
MTEXT
  5
5D4E
330
552E
100
AcDbEntity
  8
AM_REFDIM
100
AcDbMText
 10
312.2932599626634
 20
77.94819872519972
 30
0.0
 40
3.520135036906051
 41
0.0
 71
     5
 72
     1
  1
\A1;35.5+ST {}
 73
     1
 44
1.0
1001
ACAD
1000
MTEXTBEGIN
1070
    73
1070
     1
1070
    44
1040
1.0
1070
    74
1070
     0
1000
MTEXTEND
  0
POINT
  5
5D4F
330
552E
100
AcDbEntity
  8
Defpoints
 62
     0
100
AcDbPoint
 10
289.5432604245994
 20
52.66340331755928
 30
0.0
  0
POINT
  5
5D50
330
552E
100
AcDbEntity
  8
Defpoints
 62
     0
100
AcDbPoint
 10
335.0432604245994
 20
52.66340331755928
 30
0.0
  0
POINT
  5
5D51
330
552E
100
AcDbEntity
  8
Defpoints
 62
     0
100
AcDbPoint
 10
335.0432604245994
 20
75.18237833905925
 30
0.0
  0
ENDBLK
  5
5646
330
552E
100
AcDbEntity
  8
0
100
AcDbBlockEnd
  0
BLOCK
  5
5647
330
5538
100
AcDbEntity
  8
0
100
AcDbBlockBegin
  2
*D104
 70
     1
 10
0.0
 20
0.0
 30
0.0
  3
*D104
  1

  0
LINE
  5
5D52
330
5538
100
AcDbEntity
  8
AM_REFDIM
100
AcDbLine
 10
287.5432604245994
 20
46.67203261909036
 30
0.0
 11
287.5432604245994
 21
62.84501401620806
 31
0.0
  0
LINE
  5
5D53
330
5538
100
AcDbEntity
  8
AM_REFDIM
100
AcDbLine
 10
289.5432604245994
 20
54.17203261909045
 30
0.0
 11
289.5432604245994
 21
62.84501401620806
 31
0.0
  0
LINE
  5
5D54
330
5538
100
AcDbEntity
  8
AM_REFDIM
100
AcDbLine
 10
292.5605190276617
 20
61.3363847146769
 30
0.0
 11
295.577777630724
 21
61.3363847146769
 31
0.0
  0
LINE
  5
5D55
330
5538
100
AcDbEntity
  8
AM_REFDIM
100
AcDbLine
 10
284.5260018215371
 20
61.3363847146769
 30
0.0
 11
277.7883782282742
 21
61.3363847146769
 31
0.0
  0
LINE
  5
5D56
330
5538
100
AcDbEntity
  8
AM_REFDIM
100
AcDbLine
 10
289.5432604245994
 20
61.3363847146769
 30
0.0
 11
287.5432604245994
 21
61.3363847146769
 31
0.0
  0
SOLID
  5
5D57
330
5538
100
AcDbEntity
  8
AM_REFDIM
100
AcDbTrace
 10
292.5605190276617
 20
61.83926114852062
 30
0.0
 11
292.5605190276617
 21
60.83350828083317
 31
0.0
 12
289.5432604245994
 22
61.3363847146769
 32
0.0
 13
289.5432604245994
 23
61.3363847146769
 33
0.0
  0
SOLID
  5
5D58
330
5538
100
AcDbEntity
  8
AM_REFDIM
100
AcDbTrace
 10
284.5260018215371
 20
61.83926114852062
 30
0.0
 11
284.5260018215371
 21
60.83350828083317
 31
0.0
 12
287.5432604245994
 22
61.3363847146769
 32
0.0
 13
287.5432604245994
 23
61.3363847146769
 33
0.0
  0
MTEXT
  5
5D59
330
5538
100
AcDbEntity
  8
AM_REFDIM
100
AcDbMText
 10
279.6485607233745
 20
64.10255157080131
 30
0.0
 40
3.520135036906051
 41
0.0
 71
     5
 72
     1
  1
\A1;2
 73
     1
 44
1.0
1001
ACAD
1000
MTEXTBEGIN
1070
    73
1070
     1
1070
    44
1040
1.0
1070
    74
1070
     0
1000
MTEXTEND
  0
POINT
  5
5D5A
330
5538
100
AcDbEntity
  8
Defpoints
 62
     0
100
AcDbPoint
 10
287.5432604245994
 20
45.1634033175592
 30
0.0
  0
POINT
  5
5D5B
330
5538
100
AcDbEntity
  8
Defpoints
 62
     0
100
AcDbPoint
 10
289.5432604245994
 20
52.66340331755928
 30
0.0
  0
POINT
  5
5D5C
330
5538
100
AcDbEntity
  8
Defpoints
 62
     0
100
AcDbPoint
 10
289.5432604245994
 20
61.3363847146769
 30
0.0
  0
ENDBLK
  5
5648
330
5538
100
AcDbEntity
  8
0
100
AcDbBlockEnd
  0
BLOCK
  5
5649
330
5544
100
AcDbEntity
  8
0
100
AcDbBlockBegin
  2
*D105
 70
     1
 10
0.0
 20
0.0
 30
0.0
  3
*D105
  1

  0
LINE
  5
5D5D
330
5544
100
AcDbEntity
  8
AM_REFDIM
100
AcDbLine
 10
289.5432604245994
 20
54.17203261909045
 30
0.0
 11
289.5432604245994
 21
62.84501401620808
 31
0.0
  0
LINE
  5
5D5E
330
5544
100
AcDbEntity
  8
AM_REFDIM
100
AcDbLine
 10
304.5432604245994
 20
43.67203261909043
 30
0.0
 11
304.5432604245994
 21
62.84501401620808
 31
0.0
  0
LINE
  5
5D5F
330
5544
100
AcDbEntity
  8
AM_REFDIM
100
AcDbLine
 10
292.5605190276617
 20
61.33638471467691
 30
0.0
 11
301.5260018215371
 21
61.33638471467691
 31
0.0
  0
SOLID
  5
5D60
330
5544
100
AcDbEntity
  8
AM_REFDIM
100
AcDbTrace
 10
292.5605190276617
 20
61.83926114852063
 30
0.0
 11
292.5605190276617
 21
60.83350828083318
 31
0.0
 12
289.5432604245994
 22
61.33638471467691
 32
0.0
 13
289.5432604245994
 23
61.33638471467691
 33
0.0
  0
SOLID
  5
5D61
330
5544
100
AcDbEntity
  8
AM_REFDIM
100
AcDbTrace
 10
301.5260018215371
 20
61.83926114852063
 30
0.0
 11
301.5260018215371
 21
60.83350828083318
 31
0.0
 12
304.5432604245994
 22
61.33638471467691
 32
0.0
 13
304.5432604245994
 23
61.33638471467691
 33
0.0
  0
MTEXT
  5
5D62
330
5544
100
AcDbEntity
  8
AM_REFDIM
100
AcDbMText
 10
297.0432604245994
 20
64.10220510081737
 30
0.0
 40
3.520135036906051
 41
0.0
 71
     5
 72
     1
  1
\A1;15
 73
     1
 44
1.0
1001
ACAD
1000
MTEXTBEGIN
1070
    73
1070
     1
1070
    44
1040
1.0
1070
    74
1070
     0
1000
MTEXTEND
  0
POINT
  5
5D63
330
5544
100
AcDbEntity
  8
Defpoints
 62
     0
100
AcDbPoint
 10
289.5432604245994
 20
52.66340331755928
 30
0.0
  0
POINT
  5
5D64
330
5544
100
AcDbEntity
  8
Defpoints
 62
     0
100
AcDbPoint
 10
304.5432604245994
 20
42.16340331755927
 30
0.0
  0
POINT
  5
5D65
330
5544
100
AcDbEntity
  8
Defpoints
 62
     0
100
AcDbPoint
 10
304.5432604245994
 20
61.33638471467691
 30
0.0
  0
ENDBLK
  5
564A
330
5544
100
AcDbEntity
  8
0
100
AcDbBlockEnd
  0
BLOCK
  5
564B
330
554E
100
AcDbEntity
  8
0
100
AcDbBlockBegin
  2
*D106
 70
     1
 10
0.0
 20
0.0
 30
0.0
  3
*D106
  1

  0
LINE
  5
5D66
330
554E
100
AcDbEntity
  8
AM_REFDIM
100
AcDbLine
 10
335.0432604245994
 20
54.17203261909045
 30
0.0
 11
335.0432604245994
 21
62.84501401620806
 31
0.0
  0
LINE
  5
5D67
330
554E
100
AcDbEntity
  8
AM_REFDIM
100
AcDbLine
 10
330.0432604245994
 20
39.67203261909044
 30
0.0
 11
330.0432604245994
 21
62.84501401620806
 31
0.0
  0
LINE
  5
5D68
330
554E
100
AcDbEntity
  8
AM_REFDIM
100
AcDbLine
 10
338.0605190276617
 20
61.3363847146769
 30
0.0
 11
341.077777630724
 21
61.3363847146769
 31
0.0
  0
LINE
  5
5D69
330
554E
100
AcDbEntity
  8
AM_REFDIM
100
AcDbLine
 10
327.0260018215371
 20
61.3363847146769
 30
0.0
 11
324.0087432184747
 21
61.3363847146769
 31
0.0
  0
LINE
  5
5D6A
330
554E
100
AcDbEntity
  8
AM_REFDIM
100
AcDbLine
 10
335.0432604245994
 20
61.3363847146769
 30
0.0
 11
330.0432604245994
 21
61.3363847146769
 31
0.0
  0
SOLID
  5
5D6B
330
554E
100
AcDbEntity
  8
AM_REFDIM
100
AcDbTrace
 10
338.0605190276617
 20
61.83926114852062
 30
0.0
 11
338.0605190276617
 21
60.83350828083317
 31
0.0
 12
335.0432604245994
 22
61.3363847146769
 32
0.0
 13
335.0432604245994
 23
61.3363847146769
 33
0.0
  0
SOLID
  5
5D6C
330
554E
100
AcDbEntity
  8
AM_REFDIM
100
AcDbTrace
 10
327.0260018215371
 20
61.83926114852062
 30
0.0
 11
327.0260018215371
 21
60.83350828083317
 31
0.0
 12
330.0432604245994
 22
61.3363847146769
 32
0.0
 13
330.0432604245994
 23
61.3363847146769
 33
0.0
  0
MTEXT
  5
5D6D
330
554E
100
AcDbEntity
  8
AM_REFDIM
100
AcDbMText
 10
332.5432604245994
 20
64.10220510081737
 30
0.0
 40
3.520135036906051
 41
0.0
 71
     5
 72
     1
  1
\A1;5
 73
     1
 44
1.0
1001
ACAD
1000
MTEXTBEGIN
1070
    73
1070
     1
1070
    44
1040
1.0
1070
    74
1070
     0
1000
MTEXTEND
  0
POINT
  5
5D6E
330
554E
100
AcDbEntity
  8
Defpoints
 62
     0
100
AcDbPoint
 10
335.0432604245994
 20
52.66340331755928
 30
0.0
  0
POINT
  5
5D6F
330
554E
100
AcDbEntity
  8
Defpoints
 62
     0
100
AcDbPoint
 10
330.0432604245994
 20
38.16340331755927
 30
0.0
  0
POINT
  5
5D70
330
554E
100
AcDbEntity
  8
Defpoints
 62
     0
100
AcDbPoint
 10
330.0432604245994
 20
61.3363847146769
 30
0.0
  0
ENDBLK
  5
564C
330
554E
100
AcDbEntity
  8
0
100
AcDbBlockEnd
  0
BLOCK
  5
564D
330
5558
100
AcDbEntity
  8
0
100
AcDbBlockBegin
  2
*D107
 70
     1
 10
0.0
 20
0.0
 30
0.0
  3
*D107
  1

  0
LINE
  5
5D71
330
5558
100
AcDbEntity
  8
AM_REFDIM
100
AcDbLine
 10
158.2258974300957
 20
32.66340331755924
 30
0.0
 11
151.1174279364086
 21
32.66340331755924
 31
0.0
  0
LINE
  5
5D72
330
5558
100
AcDbEntity
  8
AM_REFDIM
100
AcDbLine
 10
158.2258974300957
 20
43.66340331755924
 30
0.0
 11
151.1174279364086
 21
43.66340331755924
 31
0.0
  0
LINE
  5
5D73
330
5558
100
AcDbEntity
  8
AM_REFDIM
100
AcDbLine
 10
152.6260572379397
 20
35.68066192062158
 30
0.0
 11
152.6260572379397
 21
40.64614471449691
 31
0.0
  0
SOLID
  5
5D74
330
5558
100
AcDbEntity
  8
AM_REFDIM
100
AcDbTrace
 10
152.123180804096
 20
35.68066192062158
 30
0.0
 11
153.1289336717834
 21
35.68066192062158
 31
0.0
 12
152.6260572379397
 22
32.66340331755924
 32
0.0
 13
152.6260572379397
 23
32.66340331755924
 33
0.0
  0
SOLID
  5
5D75
330
5558
100
AcDbEntity
  8
AM_REFDIM
100
AcDbTrace
 10
152.123180804096
 20
40.64614471449691
 30
0.0
 11
153.1289336717834
 21
40.64614471449691
 31
0.0
 12
152.6260572379397
 22
43.66340331755924
 32
0.0
 13
152.6260572379397
 23
43.66340331755924
 33
0.0
  0
MTEXT
  5
5D76
330
5558
100
AcDbEntity
  8
AM_REFDIM
100
AcDbMText
 10
149.8602368517992
 20
38.16340328775692
 30
0.0
 40
3.520135036906051
 41
0.0
 71
     5
 72
     1
  1
\A1;11
 11
0.0000000000000001
 21
1.0
 31
0.0
 73
     1
 44
1.0
1001
ACAD
1000
MTEXTBEGIN
1070
    73
1070
     1
1070
    44
1040
1.0
1070
    74
1070
     0
1000
MTEXTEND
  0
POINT
  5
5D77
330
5558
100
AcDbEntity
  8
Defpoints
 62
     0
100
AcDbPoint
 10
159.7345267316269
 20
32.66340331755924
 30
0.0
  0
POINT
  5
5D78
330
5558
100
AcDbEntity
  8
Defpoints
 62
     0
100
AcDbPoint
 10
159.7345267316269
 20
43.66340331755924
 30
0.0
  0
POINT
  5
5D79
330
5558
100
AcDbEntity
  8
Defpoints
 62
     0
100
AcDbPoint
 10
152.6260572379397
 20
43.66340331755924
 30
0.0
  0
ENDBLK
  5
564E
330
5558
100
AcDbEntity
  8
0
100
AcDbBlockEnd
  0
BLOCK
  5
564F
330
5562
100
AcDbEntity
  8
0
100
AcDbBlockBegin
  2
*D108
 70
     1
 10
0.0
 20
0.0
 30
0.0
  3
*D108
  1

  0
LINE
  5
5D7A
330
5562
100
AcDbEntity
  8
AM_REFDIM
100
AcDbLine
 10
267.0432604245994
 20
-28.1710614955362
 30
0.0
 11
267.0432604245994
 21
-12.30477630554997
 31
0.0
  0
LINE
  5
5D7B
330
5562
100
AcDbEntity
  8
AM_REFDIM
100
AcDbLine
 10
289.5432604245994
 20
-17.17106149553617
 30
0.0
 11
289.5432604245994
 21
-12.30477630554997
 31
0.0
  0
LINE
  5
5D7C
330
5562
100
AcDbEntity
  8
AM_REFDIM
100
AcDbLine
 10
270.0605190276617
 20
-13.81340560708113
 30
0.0
 11
286.5260018215371
 21
-13.81340560708113
 31
0.0
  0
SOLID
  5
5D7D
330
5562
100
AcDbEntity
  8
AM_REFDIM
100
AcDbTrace
 10
270.0605190276617
 20
-13.31052917323741
 30
0.0
 11
270.0605190276617
 21
-14.31628204092486
 31
0.0
 12
267.0432604245994
 22
-13.81340560708113
 32
0.0
 13
267.0432604245994
 23
-13.81340560708113
 33
0.0
  0
SOLID
  5
5D7E
330
5562
100
AcDbEntity
  8
AM_REFDIM
100
AcDbTrace
 10
286.5260018215371
 20
-13.31052917323741
 30
0.0
 11
286.5260018215371
 21
-14.31628204092486
 31
0.0
 12
289.5432604245994
 22
-13.81340560708113
 32
0.0
 13
289.5432604245994
 23
-13.81340560708113
 33
0.0
  0
MTEXT
  5
5D7F
330
5562
100
AcDbEntity
  8
AM_REFDIM
100
AcDbMText
 10
278.2932608716342
 20
-11.04723875095672
 30
0.0
 40
3.520135036906051
 41
0.0
 71
     5
 72
     1
  1
12.5+ST
 73
     1
 44
1.0
1001
ACAD
1000
MTEXTBEGIN
1070
    73
1070
     1
1070
    44
1040
1.0
1070
    74
1070
     0
1000
MTEXTEND
  0
POINT
  5
5D80
330
5562
100
AcDbEntity
  8
Defpoints
 62
     0
100
AcDbPoint
 10
267.0432604245994
 20
-29.67969079706737
 30
0.0
  0
POINT
  5
5D81
330
5562
100
AcDbEntity
  8
Defpoints
 62
     0
100
AcDbPoint
 10
289.5432604245994
 20
-18.67969079706734
 30
0.0
  0
POINT
  5
5D82
330
5562
100
AcDbEntity
  8
Defpoints
 62
     0
100
AcDbPoint
 10
289.5432604245994
 20
-13.81340560708113
 30
0.0
  0
ENDBLK
  5
5650
330
5562
100
AcDbEntity
  8
0
100
AcDbBlockEnd
  0
BLOCK
  5
5651
330
556C
100
AcDbEntity
  8
0
100
AcDbBlockBegin
  2
*D109
 70
     1
 10
0.0
 20
0.0
 30
0.0
  3
*D109
  1

  0
LINE
  5
5D83
330
556C
100
AcDbEntity
  8
AM_REFDIM
100
AcDbLine
 10
269.0432604245993
 20
-64.68832009859852
 30
0.0
 11
269.0432604245993
 21
-71.48875884168319
 31
0.0
  0
LINE
  5
5D84
330
556C
100
AcDbEntity
  8
AM_REFDIM
100
AcDbLine
 10
286.8432604245993
 20
-59.68832009859855
 30
0.0
 11
286.8432604245993
 21
-71.48875884168319
 31
0.0
  0
LINE
  5
5D85
330
556C
100
AcDbEntity
  8
AM_REFDIM
100
AcDbLine
 10
272.0605190276616
 20
-69.98012954015203
 30
0.0
 11
283.826001821537
 21
-69.98012954015203
 31
0.0
  0
SOLID
  5
5D86
330
556C
100
AcDbEntity
  8
AM_REFDIM
100
AcDbTrace
 10
272.0605190276616
 20
-69.47725310630831
 30
0.0
 11
272.0605190276616
 21
-70.48300597399576
 31
0.0
 12
269.0432604245993
 22
-69.98012954015203
 32
0.0
 13
269.0432604245993
 23
-69.98012954015203
 33
0.0
  0
SOLID
  5
5D87
330
556C
100
AcDbEntity
  8
AM_REFDIM
100
AcDbTrace
 10
283.826001821537
 20
-69.47725310630831
 30
0.0
 11
283.826001821537
 21
-70.48300597399576
 31
0.0
 12
286.8432604245993
 22
-69.98012954015203
 32
0.0
 13
286.8432604245993
 23
-69.98012954015203
 33
0.0
  0
MTEXT
  5
5D88
330
556C
100
AcDbEntity
  8
AM_REFDIM
100
AcDbMText
 10
277.9432602070423
 20
-66.5989784625209
 30
0.0
 40
3.520135036906051
 41
0.0
 71
     5
 72
     1
  1
\A1;7~20 {}
 73
     1
 44
1.0
1001
ACAD
1000
MTEXTBEGIN
1070
    73
1070
     1
1070
    44
1040
1.0
1070
    74
1070
     0
1000
MTEXTEND
  0
POINT
  5
5D89
330
556C
100
AcDbEntity
  8
Defpoints
 62
     0
100
AcDbPoint
 10
269.0432604245993
 20
-63.17969079706736
 30
0.0
  0
POINT
  5
5D8A
330
556C
100
AcDbEntity
  8
Defpoints
 62
     0
100
AcDbPoint
 10
286.8432604245993
 20
-58.17969079706738
 30
0.0
  0
POINT
  5
5D8B
330
556C
100
AcDbEntity
  8
Defpoints
 62
     0
100
AcDbPoint
 10
286.8432604245993
 20
-69.98012954015203
 30
0.0
  0
ENDBLK
  5
5652
330
556C
100
AcDbEntity
  8
0
100
AcDbBlockEnd
  0
BLOCK
  5
5653
330
5576
100
AcDbEntity
  8
0
100
AcDbBlockBegin
  2
*D110
 70
     1
 10
0.0
 20
0.0
 30
0.0
  3
*D110
  1

  0
LINE
  5
5D8C
330
5576
100
AcDbEntity
  8
AM_REFDIM
100
AcDbLine
 10
252.9710481942147
 20
-33.17969079706732
 30
0.0
 11
245.3720573454081
 21
-33.17969079706732
 31
0.0
  0
LINE
  5
5D8D
330
5576
100
AcDbEntity
  8
AM_REFDIM
100
AcDbLine
 10
255.3733564005716
 20
-58.17969079706736
 30
0.0
 11
245.3720573454081
 21
-58.17969079706736
 31
0.0
  0
LINE
  5
5D8E
330
5576
100
AcDbEntity
  8
AM_REFDIM
100
AcDbLine
 10
246.8806866469393
 20
-36.19694940012966
 30
0.0
 11
246.8806866469393
 21
-55.16243219400504
 31
0.0
  0
SOLID
  5
5D8F
330
5576
100
AcDbEntity
  8
AM_REFDIM
100
AcDbTrace
 10
246.3778102130956
 20
-36.19694940012966
 30
0.0
 11
247.383563080783
 21
-36.19694940012966
 31
0.0
 12
246.8806866469393
 22
-33.17969079706732
 32
0.0
 13
246.8806866469393
 23
-33.17969079706732
 33
0.0
  0
SOLID
  5
5D90
330
5576
100
AcDbEntity
  8
AM_REFDIM
100
AcDbTrace
 10
246.3778102130956
 20
-55.16243219400504
 30
0.0
 11
247.383563080783
 21
-55.16243219400504
 31
0.0
 12
246.8806866469393
 22
-58.17969079706736
 32
0.0
 13
246.8806866469393
 23
-58.17969079706736
 33
0.0
  0
MTEXT
  5
5D91
330
5576
100
AcDbEntity
  8
AM_REFDIM
100
AcDbMText
 10
244.1145197908149
 20
-45.67969079706734
 30
0.0
 40
3.520135036906051
 41
0.0
 71
     5
 72
     1
  1
\A1;25
 11
0.0000000000000001
 21
1.0
 31
0.0
 73
     1
 44
1.0
1001
ACAD
1000
MTEXTBEGIN
1070
    73
1070
     1
1070
    44
1040
1.0
1070
    74
1070
     0
1000
MTEXTEND
  0
POINT
  5
5D92
330
5576
100
AcDbEntity
  8
Defpoints
 62
     0
100
AcDbPoint
 10
254.4796774957459
 20
-33.17969079706732
 30
0.0
  0
POINT
  5
5D93
330
5576
100
AcDbEntity
  8
Defpoints
 62
     0
100
AcDbPoint
 10
256.8819857021028
 20
-58.17969079706736
 30
0.0
  0
POINT
  5
5D94
330
5576
100
AcDbEntity
  8
Defpoints
 62
     0
100
AcDbPoint
 10
246.8806866469393
 20
-58.17969079706736
 30
0.0
  0
ENDBLK
  5
5654
330
5576
100
AcDbEntity
  8
0
100
AcDbBlockEnd
  0
BLOCK
  5
5655
330
5580
100
AcDbEntity
  8
0
100
AcDbBlockBegin
  2
*D111
 70
     1
 10
0.0
 20
0.0
 30
0.0
  3
*D111
  1

  0
LINE
  5
5D95
330
5580
100
AcDbEntity
  8
AM_REFDIM
100
AcDbLine
 10
256.5346311230682
 20
-27.17969079706735
 30
0.0
 11
238.4986349226221
 21
-27.17969079706735
 31
0.0
  0
LINE
  5
5D96
330
5580
100
AcDbEntity
  8
AM_REFDIM
100
AcDbLine
 10
258.5346311230681
 20
-63.17969079706736
 30
0.0
 11
238.4986349226221
 21
-63.17969079706736
 31
0.0
  0
LINE
  5
5D97
330
5580
100
AcDbEntity
  8
AM_REFDIM
100
AcDbLine
 10
240.0072642241533
 20
-30.19694940012968
 30
0.0
 11
240.0072642241533
 21
-60.16243219400504
 31
0.0
  0
SOLID
  5
5D98
330
5580
100
AcDbEntity
  8
AM_REFDIM
100
AcDbTrace
 10
239.5043877903096
 20
-30.19694940012968
 30
0.0
 11
240.510140657997
 21
-30.19694940012968
 31
0.0
 12
240.0072642241533
 22
-27.17969079706735
 32
0.0
 13
240.0072642241533
 23
-27.17969079706735
 33
0.0
  0
SOLID
  5
5D99
330
5580
100
AcDbEntity
  8
AM_REFDIM
100
AcDbTrace
 10
239.5043877903096
 20
-60.16243219400503
 30
0.0
 11
240.510140657997
 21
-60.16243219400504
 31
0.0
 12
240.0072642241533
 22
-63.17969079706736
 32
0.0
 13
240.0072642241533
 23
-63.17969079706736
 33
0.0
  0
MTEXT
  5
5D9A
330
5580
100
AcDbEntity
  8
AM_REFDIM
100
AcDbMText
 10
237.2414438380128
 20
-45.17969002220697
 30
0.0
 40
3.520135036906051
 41
0.0
 71
     5
 72
     1
  1
\A1;36
 11
0.0000000000000001
 21
1.0
 31
0.0
 73
     1
 44
1.0
1001
ACAD
1000
MTEXTBEGIN
1070
    73
1070
     1
1070
    44
1040
1.0
1070
    74
1070
     0
1000
MTEXTEND
  0
POINT
  5
5D9B
330
5580
100
AcDbEntity
  8
Defpoints
 62
     0
100
AcDbPoint
 10
258.0432604245994
 20
-27.17969079706735
 30
0.0
  0
POINT
  5
5D9C
330
5580
100
AcDbEntity
  8
Defpoints
 62
     0
100
AcDbPoint
 10
260.0432604245993
 20
-63.17969079706736
 30
0.0
  0
POINT
  5
5D9D
330
5580
100
AcDbEntity
  8
Defpoints
 62
     0
100
AcDbPoint
 10
240.0072642241533
 20
-63.17969079706736
 30
0.0
  0
ENDBLK
  5
5656
330
5580
100
AcDbEntity
  8
0
100
AcDbBlockEnd
  0
BLOCK
  5
5657
330
558A
100
AcDbEntity
  8
0
100
AcDbBlockBegin
  2
*D112
 70
     1
 10
0.0
 20
0.0
 30
0.0
  3
*D112
  1

  0
LINE
  5
5D9E
330
558A
100
AcDbEntity
  8
AM_REFDIM
100
AcDbLine
 10
255.3733564005716
 20
-58.17969079706736
 30
0.0
 11
245.3720573454082
 21
-58.17969079706736
 31
0.0
  0
LINE
  5
5D9F
330
558A
100
AcDbEntity
  8
AM_REFDIM
100
AcDbLine
 10
258.5346311230681
 20
-63.17969079706736
 30
0.0
 11
245.3720573454082
 21
-63.17969079706736
 31
0.0
  0
LINE
  5
5DA0
330
558A
100
AcDbEntity
  8
AM_REFDIM
100
AcDbLine
 10
246.8806866469393
 20
-55.16243219400504
 30
0.0
 11
246.8806866469393
 21
-52.1451735909427
 31
0.0
  0
LINE
  5
5DA1
330
558A
100
AcDbEntity
  8
AM_REFDIM
100
AcDbLine
 10
246.8806866469393
 20
-66.19694940012969
 30
0.0
 11
246.8806866469393
 21
-69.21420800319203
 31
0.0
  0
LINE
  5
5DA2
330
558A
100
AcDbEntity
  8
AM_REFDIM
100
AcDbLine
 10
246.8806866469393
 20
-58.17969079706736
 30
0.0
 11
246.8806866469393
 21
-63.17969079706736
 31
0.0
  0
SOLID
  5
5DA3
330
558A
100
AcDbEntity
  8
AM_REFDIM
100
AcDbTrace
 10
246.3778102130957
 20
-55.16243219400504
 30
0.0
 11
247.3835630807831
 21
-55.16243219400504
 31
0.0
 12
246.8806866469393
 22
-58.17969079706736
 32
0.0
 13
246.8806866469393
 23
-58.17969079706736
 33
0.0
  0
SOLID
  5
5DA4
330
558A
100
AcDbEntity
  8
AM_REFDIM
100
AcDbTrace
 10
246.3778102130956
 20
-66.19694940012969
 30
0.0
 11
247.383563080783
 21
-66.19694940012969
 31
0.0
 12
246.8806866469393
 22
-63.17969079706736
 32
0.0
 13
246.8806866469393
 23
-63.17969079706736
 33
0.0
  0
MTEXT
  5
5DA5
330
558A
100
AcDbEntity
  8
AM_REFDIM
100
AcDbMText
 10
244.1148662607989
 20
-60.67969079706732
 30
0.0
 40
3.520135036906051
 41
0.0
 71
     5
 72
     1
  1
\A1;5
 11
0.0000000000000001
 21
1.0
 31
0.0
 73
     1
 44
1.0
1001
ACAD
1000
MTEXTBEGIN
1070
    73
1070
     1
1070
    44
1040
1.0
1070
    74
1070
     0
1000
MTEXTEND
  0
POINT
  5
5DA6
330
558A
100
AcDbEntity
  8
Defpoints
 62
     0
100
AcDbPoint
 10
256.8819857021028
 20
-58.17969079706736
 30
0.0
  0
POINT
  5
5DA7
330
558A
100
AcDbEntity
  8
Defpoints
 62
     0
100
AcDbPoint
 10
260.0432604245993
 20
-63.17969079706736
 30
0.0
  0
POINT
  5
5DA8
330
558A
100
AcDbEntity
  8
Defpoints
 62
     0
100
AcDbPoint
 10
246.8806866469393
 20
-63.17969079706736
 30
0.0
  0
ENDBLK
  5
5658
330
558A
100
AcDbEntity
  8
0
100
AcDbBlockEnd
  0
BLOCK
  5
5659
330
5594
100
AcDbEntity
  8
0
100
AcDbBlockBegin
  2
*D113
 70
     1
 10
0.0
 20
0.0
 30
0.0
  3
*D113
  1

  0
LINE
  5
5DA9
330
5594
100
AcDbEntity
  8
AM_REFDIM
100
AcDbLine
 10
268.5346311230682
 20
42.16340331755929
 30
0.0
 11
246.0254064102196
 21
42.16340331755929
 31
0.0
  0
LINE
  5
5DAA
330
5594
100
AcDbEntity
  8
AM_REFDIM
100
AcDbLine
 10
268.5346311230682
 20
34.16340331755927
 30
0.0
 11
246.0254064102196
 21
34.16340331755927
 31
0.0
  0
LINE
  5
5DAB
330
5594
100
AcDbEntity
  8
AM_REFDIM
100
AcDbLine
 10
247.5340357117507
 20
45.18066192062161
 30
0.0
 11
247.5340357117507
 21
48.19792052368395
 31
0.0
  0
LINE
  5
5DAC
330
5594
100
AcDbEntity
  8
AM_REFDIM
100
AcDbLine
 10
247.5340357117507
 20
31.14614471449695
 30
0.0
 11
247.5340357117507
 21
28.12888611143462
 31
0.0
  0
LINE
  5
5DAD
330
5594
100
AcDbEntity
  8
AM_REFDIM
100
AcDbLine
 10
247.5340357117507
 20
42.16340331755929
 30
0.0
 11
247.5340357117507
 21
34.16340331755927
 31
0.0
  0
SOLID
  5
5DAE
330
5594
100
AcDbEntity
  8
AM_REFDIM
100
AcDbTrace
 10
247.031159277907
 20
45.18066192062161
 30
0.0
 11
248.0369121455944
 21
45.18066192062161
 31
0.0
 12
247.5340357117507
 22
42.16340331755929
 32
0.0
 13
247.5340357117507
 23
42.16340331755929
 33
0.0
  0
SOLID
  5
5DAF
330
5594
100
AcDbEntity
  8
AM_REFDIM
100
AcDbTrace
 10
247.031159277907
 20
31.14614471449695
 30
0.0
 11
248.0369121455944
 21
31.14614471449694
 31
0.0
 12
247.5340357117507
 22
34.16340331755927
 32
0.0
 13
247.5340357117507
 23
34.16340331755927
 33
0.0
  0
MTEXT
  5
5DB0
330
5594
100
AcDbEntity
  8
AM_REFDIM
100
AcDbMText
 10
244.7682153256103
 20
38.16340331755932
 30
0.0
 40
3.520135036906051
 41
0.0
 71
     5
 72
     1
  1
\A1;%%C8
 11
0.0000000000000001
 21
1.0
 31
0.0
 73
     1
 44
1.0
1001
ACAD
1000
MTEXTBEGIN
1070
    73
1070
     1
1070
    44
1040
1.0
1070
    74
1070
     0
1000
MTEXTEND
  0
POINT
  5
5DB1
330
5594
100
AcDbEntity
  8
Defpoints
 62
     0
100
AcDbPoint
 10
270.0432604245994
 20
42.16340331755929
 30
0.0
  0
POINT
  5
5DB2
330
5594
100
AcDbEntity
  8
Defpoints
 62
     0
100
AcDbPoint
 10
270.0432604245994
 20
34.16340331755927
 30
0.0
  0
POINT
  5
5DB3
330
5594
100
AcDbEntity
  8
Defpoints
 62
     0
100
AcDbPoint
 10
247.5340357117507
 20
34.16340331755927
 30
0.0
  0
ENDBLK
  5
565A
330
5594
100
AcDbEntity
  8
0
100
AcDbBlockEnd
  0
BLOCK
  5
5ABA
330
5AB0
100
AcDbEntity
  8
0
100
AcDbBlockBegin
  2
*D114
 70
     1
 10
0.0
 20
0.0
 30
0.0
  3
*D114
  1

  0
LINE
  5
5DB4
330
5AB0
100
AcDbEntity
  8
AM_5
100
AcDbLine
 10
269.5432604245994
 20
45.16340331755927
 30
0.0
 11
238.0340357117507
 21
45.16340331755928
 31
0.0
  0
LINE
  5
5DB5
330
5AB0
100
AcDbEntity
  8
AM_5
100
AcDbLine
 10
269.5432604245994
 20
31.16340331755927
 30
0.0
 11
238.0340357117507
 21
31.16340331755929
 31
0.0
  0
LINE
  5
5DB6
330
5AB0
100
AcDbEntity
  8
AM_5
100
AcDbLine
 10
239.5340357117508
 20
42.16340331755928
 30
0.0
 11
239.5340357117508
 21
34.16340331755929
 31
0.0
  0
SOLID
  5
5DB7
330
5AB0
100
AcDbEntity
  8
AM_5
100
AcDbTrace
 10
239.0340357117507
 20
42.16340331755928
 30
0.0
 11
240.0340357117507
 21
42.16340331755927
 31
0.0
 12
239.5340357117508
 22
45.16340331755928
 32
0.0
 13
239.5340357117508
 23
45.16340331755928
 33
0.0
  0
SOLID
  5
5DB8
330
5AB0
100
AcDbEntity
  8
AM_5
100
AcDbTrace
 10
239.0340357117507
 20
34.16340331755929
 30
0.0
 11
240.0340357117507
 21
34.16340331755928
 31
0.0
 12
239.5340357117508
 22
31.16340331755929
 32
0.0
 13
239.5340357117508
 23
31.16340331755929
 33
0.0
  0
MTEXT
  5
5DB9
330
5AB0
100
AcDbEntity
  8
AM_5
100
AcDbMText
 10
236.7840357117507
 20
38.16340331755931
 30
0.0
 40
3.5
 41
0.0
 71
     5
 72
     1
  1
%%C14
 11
0.0000000000000001
 21
1.0
 31
0.0
 73
     1
 44
1.0
1001
ACAD
1000
MTEXTBEGIN
1070
    73
1070
     1
1070
    44
1040
1.0
1070
    74
1070
     0
1000
MTEXTEND
  0
POINT
  5
5DBA
330
5AB0
100
AcDbEntity
  8
Defpoints
 62
     0
100
AcDbPoint
 10
271.0432604245994
 20
45.16340331755927
 30
0.0
  0
POINT
  5
5DBB
330
5AB0
100
AcDbEntity
  8
Defpoints
 62
     0
100
AcDbPoint
 10
271.0432604245994
 20
31.16340331755927
 30
0.0
  0
POINT
  5
5DBC
330
5AB0
100
AcDbEntity
  8
Defpoints
 62
     0
100
AcDbPoint
 10
239.5340357117508
 20
31.16340331755929
 30
0.0
  0
ENDBLK
  5
5ABB
330
5AB0
100
AcDbEntity
  8
0
100
AcDbBlockEnd
  0
ENDSEC
  0
SECTION
  2
ENTITIES
  0
TEXT
  5
14E0
330
1F
100
AcDbEntity
  8
LOGO
 62
     7
100
AcDbText
 10
181.6054479681538
 20
-101.8238970051404
 30
0.0
 40
3.732792760180994
  1
Order example:
 41
0.8
  7
CHINESET
100
AcDbText
  0
TEXT
  5
14E1
330
1F
100
AcDbEntity
  8
LOGO
 62
     7
100
AcDbText
 10
182.2751418582706
 20
-96.56889768340846
 30
0.0
 40
5.599189140271492
  1
訂購代號：
  7
CHINESET
100
AcDbText
  0
LINE
  5
14E2
330
1F
100
AcDbEntity
  8
LOGO
 62
     4
100
AcDbLine
 10
179.98353685295
 20
-117.555295286457
 30
0.0
 11
179.98353685295
 21
-89.55934958509935
 31
0.0
  0
TEXT
  5
14E3
330
1F
100
AcDbEntity
  8
LOGO
  6
Continuous
100
AcDbText
 10
128.448725850102
 20
-112.0555340029911
 30
0.0
 40
4.199391855203621
  1
金器工業股份有限公司
  7
CHINESET
100
AcDbText
  0
TEXT
  5
14E4
330
1F
100
AcDbEntity
  8
LOGO
  6
Continuous
100
AcDbText
 10
120.7352738208004
 20
-116.2557486097532
 30
0.0
 40
2.799594570135746
  1
MINDMAN INDUSTRIAL CO., LTD.
 41
0.85
  7
CHINESET
100
AcDbText
  0
LINE
  5
14E5
330
1F
100
AcDbEntity
  8
LOGO
 62
     4
100
AcDbLine
 10
179.98353685295
 20
-95.15853872537087
 30
0.0
 11
138.9228164909588
 21
-95.15853872537087
 31
0.0
  0
LINE
  5
14E6
330
1F
100
AcDbEntity
  8
LOGO
 62
     4
100
AcDbLine
 10
179.98353685295
 20
-100.7577278656424
 30
0.0
 11
138.9228164909588
 21
-100.7577278656424
 31
0.0
  0
LINE
  5
14E7
330
1F
100
AcDbEntity
  8
LOGO
 62
     4
100
AcDbLine
 10
179.98353685295
 20
-106.3569170059136
 30
0.0
 11
118.3924563099635
 21
-106.3569170059136
 31
0.0
  0
LINE
  5
14E8
330
1F
100
AcDbEntity
  8
LOGO
 62
     4
100
AcDbLine
 10
138.9228164909588
 20
-106.3569170059136
 30
0.0
 11
138.9228164909588
 21
-89.55934958509935
 31
0.0
  0
TEXT
  5
14E9
330
1F
100
AcDbEntity
  8
LOGO
100
AcDbText
 10
166.9858808218987
 20
-104.9571197208462
 30
0.0
 40
2.799594570135746
  1
mm
  7
CHINESET
 72
     1
 11
170.452045527781
 21
-103.5573224357783
 31
0.0
100
AcDbText
 73
     2
  0
TEXT
  5
14EA
330
1F
100
AcDbEntity
  8
LOGO
100
AcDbText
 10
165.5194265232561
 20
-93.75874144030316
 30
0.0
 40
2.799594570135746
  1
1 : 1
  7
CHINESET
 72
     1
 11
170.452045527781
 21
-92.35894415523528
 31
0.0
100
AcDbText
 73
     2
  0
LINE
  5
14EB
330
1F
100
AcDbEntity
  8
LOGO
 62
     4
100
AcDbLine
 10
161.319573052045
 20
-106.3569170059136
 30
0.0
 11
161.319573052045
 21
-89.55934958509935
 31
0.0
  0
TEXT
  5
14EC
330
1F
100
AcDbEntity
  8
LOGO
100
AcDbText
 10
141.2312321923164
 20
-93.75736368706981
 30
183.4808160640697
 40
2.799594570135746
  1
比例 Scale:
 41
0.9
  7
CHINESET
 72
     4
 11
150.1211947715019
 21
-92.35894415523528
 31
183.4808160640697
100
AcDbText
  0
TEXT
  5
14ED
330
1F
100
AcDbEntity
  8
LOGO
100
AcDbText
 10
141.0700055407327
 20
-99.31854980065519
 30
183.4808160640697
 40
2.799594570135746
  1
投影  View:
 41
0.9
  7
CHINESET
 72
     4
 11
150.1211947715019
 21
-97.9581332955068
 31
183.4808160640697
100
AcDbText
  0
TEXT
  5
14EE
330
1F
100
AcDbEntity
  8
LOGO
100
AcDbText
 10
141.3437159027236
 20
-104.9571197208462
 30
183.4808160640697
 40
2.799594570135746
  1
單位  Unit:
 41
0.9
  7
CHINESET
 72
     4
 11
150.1211947715019
 21
-103.5573224357783
 31
183.4808160640697
100
AcDbText
  0
LWPOLYLINE
  5
14EF
330
1F
100
AcDbEntity
  8
LOGO
 62
     4
100
AcDbPolyline
 90
        4
 70
     1
 43
0.0
 10
118.3924563099635
 20
-89.55934958509933
 10
384.9791025359229
 20
-89.55934958509933
 10
384.9791025359229
 20
102.5522923034045
 10
118.3924563099635
 20
102.5522923034045
1001
GENIUS_GENREC_14
1002
{
1000
PYDIR
1011
118.3924563099635
1021
102.5522923034045
1031
0.0
1002
}
1002
{
1000
PXDIR
1011
384.9791025359229
1021
-89.55934958509933
1031
0.0
1002
}
1002
{
1000
PORI
1011
118.3924563099635
1021
-89.55934958509933
1031
0.0
1002
}
1002
{
1000
PINS
1011
118.3924563099635
1021
-89.55934958509933
1031
0.0
1002
}
1002
{
1000
PINS2
1011
384.9791025359229
1021
102.5522923034045
1031
0.0
1002
}
1002
{
1000
C
1070
     1
1002
}
1001
GENIUS_GENODEF_13
1002
{
1000
HIER
1070
     0
1002
}
1002
{
1000
MANEDIT
1070
     0
1002
}
1002
{
1000
NOSEL
1070
     0
1002
}
1002
{
1000
BEHIND
1070
     0
1002
}
1002
{
1000
OTHER
1070
     0
1002
}
1002
{
1000
REACTOR
1002
}
1001
GENIUS_GENOBJ-N-REC_13
1002
{
1000
OWNER
1000
GEN
1002
}
  0
SOLID
  5
14F0
330
1F
100
AcDbEntity
  8
LOGO
 62
     5
100
AcDbTrace
 10
121.2970806065546
 20
-101.7029895239708
 30
0.0
 11
122.5075518373198
 21
-101.7029895239711
 31
0.0
 12
127.5581386967191
 22
-90.22438302533529
 32
0.0
 13
128.7686099274848
 23
-90.22438302533593
 33
0.0
  0
SOLID
  5
14F1
330
1F
100
AcDbEntity
  8
LOGO
 62
     5
100
AcDbTrace
 10
123.0084364845343
 20
-101.7029895239708
 30
0.0
 11
124.2189077152994
 21
-101.7029895239708
 31
0.0
 12
128.7686099274848
 22
-91.14267154522659
 32
0.0
 13
127.5581386967191
 23
-95.58106605803233
 33
0.0
  0
SOLID
  5
14F2
330
1F
100
AcDbEntity
  8
LOGO
 62
     2
100
AcDbTrace
 10
122.5075518373198
 20
-101.7029895239711
 30
0.0
 11
123.0084364845343
 21
-101.7029895239708
 31
0.0
 12
128.7686099274848
 22
-90.22438302533593
 32
0.0
 13
129.2694945746987
 23
-90.22438302533593
 33
0.0
  0
SOLID
  5
14F3
330
1F
100
AcDbEntity
  8
LOGO
 62
     5
100
AcDbTrace
 10
119.3563983797309
 20
-105.877028250747
 30
0.0
 11
119.773802252409
 21
-105.877028250747
 31
0.0
 12
120.9492440459903
 22
-103.7900088873591
 32
0.0
 13
121.3666479186671
 23
-103.7900088873591
 33
0.0
  0
SOLID
  5
14F4
330
1F
100
AcDbEntity
  8
LOGO
 62
     5
100
AcDbTrace
 10
120.9492440459903
 20
-103.7900088873591
 30
0.0
 11
121.3666479186671
 21
-103.7900088873591
 31
0.0
 12
120.9492440459903
 22
-105.877028250747
 32
0.0
 13
121.3666479186671
 23
-105.877028250747
 33
0.0
  0
SOLID
  5
14F5
330
1F
100
AcDbEntity
  8
LOGO
 62
     5
100
AcDbTrace
 10
120.9492440459903
 20
-105.877028250747
 30
0.0
 11
121.3666479186671
 21
-105.877028250747
 31
0.0
 12
122.5420897122503
 22
-103.7900088873591
 32
0.0
 13
122.9594935849278
 23
-103.7900088873591
 33
0.0
  0
SOLID
  5
14F6
330
1F
100
AcDbEntity
  8
LOGO
 62
     5
100
AcDbTrace
 10
122.5420897122503
 20
-103.7900088873591
 30
0.0
 11
122.9594935849278
 21
-103.7900088873591
 31
0.0
 12
122.5420897122503
 22
-105.877028250747
 32
0.0
 13
122.9594935849278
 23
-105.877028250747
 33
0.0
  0
POLYLINE
  5
14F7
330
1F
100
AcDbEntity
  8
LOGO
 62
     5
100
AcDb2dPolyline
 66
     1
 10
0.0
 20
0.0
 30
0.0
 40
0.4180727891402714
 41
0.4180727891402714
  0
VERTEX
  5
14F8
330
14F7
100
AcDbEntity
  8
LOGO
 62
     5
100
AcDbVertex
100
AcDb2dVertex
 10
136.5333253339836
 20
-104.6248166327143
 30
0.0
 42
1.0
  0
VERTEX
  5
14F9
330
14F7
100
AcDbEntity
  8
LOGO
 62
     5
100
AcDbVertex
100
AcDb2dVertex
 10
135.2791069665625
 20
-104.6248166327143
 30
0.0
 42
1.0
  0
SEQEND
  5
14FA
330
14F7
100
AcDbEntity
  8
LOGO
 62
     5
  0
POLYLINE
  5
14FB
330
1F
100
AcDbEntity
  8
LOGO
 62
     5
100
AcDb2dPolyline
 66
     1
 10
0.0
 20
0.0
 30
0.0
 70
     1
  0
VERTEX
  5
14FC
330
14FB
100
AcDbEntity
  8
LOGO
 62
     5
100
AcDbVertex
100
AcDb2dVertex
 10
132.9148495563406
 20
-104.8335185690534
 30
0.0
 42
1.000000057330635
  0
VERTEX
  5
14FD
330
14FB
100
AcDbEntity
  8
LOGO
 62
     5
100
AcDbVertex
100
AcDb2dVertex
 10
134.1670611743736
 20
-104.8335185690534
 30
0.0
 42
1.000000057330635
  0
SEQEND
  5
14FE
330
14FB
100
AcDbEntity
  8
LOGO
 62
     5
  0
CIRCLE
  5
14FF
330
1F
100
AcDbEntity
  8
LOGO
 62
     5
100
AcDbCircle
 10
133.540955365358
 20
-104.8335185690534
 30
0.0
 40
0.6261058090164707
  0
POLYLINE
  5
1500
330
1F
100
AcDbEntity
  8
LOGO
 62
     5
100
AcDb2dPolyline
 66
     1
 10
0.0
 20
0.0
 30
0.0
 70
     1
 40
0.4180727891402714
 41
0.4180727891402714
  0
VERTEX
  5
1501
330
1500
100
AcDbEntity
  8
LOGO
 62
     5
100
AcDbVertex
100
AcDb2dVertex
 10
132.7048097870769
 20
-104.8335185690534
 30
0.0
 42
1.0
  0
VERTEX
  5
1502
330
1500
100
AcDbEntity
  8
LOGO
 62
     5
100
AcDbVertex
100
AcDb2dVertex
 10
134.3771009436379
 20
-104.8335185690534
 30
0.0
 42
1.0
  0
SEQEND
  5
1503
330
1500
100
AcDbEntity
  8
LOGO
 62
     5
  0
LINE
  5
1504
330
1F
100
AcDbEntity
  8
LOGO
100
AcDbLine
 10
136.7410238956277
 20
-105.877028250747
 30
0.0
 11
136.7410238956277
 21
-104.6248166327143
 31
0.0
  0
SOLID
  5
1505
330
1F
100
AcDbEntity
  8
LOGO
 62
     5
100
AcDbTrace
 10
134.1670194339882
 20
-103.7900088873591
 30
0.0
 11
134.584423306665
 21
-103.7900088873591
 31
0.0
 12
134.1670194339882
 22
-105.877028250747
 32
0.0
 13
134.584423306665
 23
-105.877028250747
 33
0.0
  0
SOLID
  5
1506
330
1F
100
AcDbEntity
  8
LOGO
 62
     5
100
AcDbTrace
 10
135.0714084049172
 20
-105.877028250747
 30
0.0
 11
135.4888122775953
 21
-105.877028250747
 31
0.0
 12
135.0714084049172
 22
-103.7900088873591
 32
0.0
 13
135.4888122775953
 23
-103.7900088873591
 33
0.0
  0
SOLID
  5
1507
330
1F
100
AcDbEntity
  8
LOGO
 62
     5
100
AcDbTrace
 10
136.3236200229508
 20
-104.6248166327143
 30
0.0
 11
136.7410238956277
 21
-104.6248166327143
 31
0.0
 12
136.3236200229508
 22
-105.877028250747
 32
0.0
 13
136.7410238956277
 23
-105.877028250747
 33
0.0
  0
SOLID
  5
1508
330
1F
100
AcDbEntity
  8
LOGO
 62
     5
100
AcDbTrace
 10
135.0296680176493
 20
-91.14267154522659
 30
0.0
 11
133.8191967868848
 21
-95.58106605803233
 31
0.0
 12
135.0296680176493
 22
-101.7029895239711
 32
0.0
 13
133.8191967868848
 23
-101.7029895239711
 33
0.0
  0
SOLID
  5
1509
330
1F
100
AcDbEntity
  8
LOGO
 62
     5
100
AcDbTrace
 10
135.5305526648631
 20
-101.7029895239711
 30
0.0
 11
136.7410238956277
 21
-101.7029895239711
 31
0.0
 12
135.5305526648631
 22
-90.22438302533593
 32
0.0
 13
136.7410238956277
 23
-90.22438302533529
 33
0.0
  0
SOLID
  5
150A
330
1F
100
AcDbEntity
  8
LOGO
 62
     2
100
AcDbTrace
 10
135.0296680176493
 20
-90.22438302533529
 30
0.0
 11
135.5305526648631
 21
-90.22438302533593
 31
0.0
 12
135.0296680176493
 22
-101.7029895239711
 32
0.0
 13
135.5305526648631
 23
-101.7029895239711
 33
0.0
  0
POLYLINE
  5
150B
330
1F
100
AcDbEntity
  8
LOGO
 62
     5
100
AcDb2dPolyline
 66
     1
 10
0.0
 20
0.0
 30
0.0
 40
0.4180727891402714
 41
0.4180727891402714
  0
VERTEX
  5
150C
330
150B
100
AcDbEntity
  8
LOGO
 62
     5
100
AcDbVertex
100
AcDb2dVertex
 10
130.5505086653459
 20
-104.6248166327143
 30
0.0
 42
1.0
  0
VERTEX
  5
150D
330
150B
100
AcDbEntity
  8
LOGO
 62
     5
100
AcDbVertex
100
AcDb2dVertex
 10
129.2962902979248
 20
-104.6248166327143
 30
0.0
 42
1.0
  0
SEQEND
  5
150E
330
150B
100
AcDbEntity
  8
LOGO
 62
     5
  0
POLYLINE
  5
150F
330
1F
100
AcDbEntity
  8
LOGO
 62
     5
100
AcDb2dPolyline
 66
     1
 10
0.0
 20
0.0
 30
0.0
 40
0.4180727891402714
 41
0.4180727891402714
  0
VERTEX
  5
1510
330
150F
100
AcDbEntity
  8
LOGO
 62
     5
100
AcDbVertex
100
AcDb2dVertex
 10
131.8027202833777
 20
-104.6248166327143
 30
0.0
 42
1.0
  0
VERTEX
  5
1511
330
150F
100
AcDbEntity
  8
LOGO
 62
     5
100
AcDbVertex
100
AcDb2dVertex
 10
130.5485019159572
 20
-104.6248166327143
 30
0.0
 42
1.0
  0
SEQEND
  5
1512
330
150F
100
AcDbEntity
  8
LOGO
 62
     5
  0
POLYLINE
  5
1513
330
1F
100
AcDbEntity
  8
LOGO
 62
     5
100
AcDb2dPolyline
 66
     1
 10
0.0
 20
0.0
 30
0.0
 40
0.4180727891402714
 41
0.4180727891402714
  0
VERTEX
  5
1514
330
1513
100
AcDbEntity
  8
LOGO
 62
     5
100
AcDbVertex
100
AcDb2dVertex
 10
125.81990361474
 20
-104.6248166327143
 30
0.0
 42
1.0
  0
VERTEX
  5
1515
330
1513
100
AcDbEntity
  8
LOGO
 62
     5
100
AcDbVertex
100
AcDb2dVertex
 10
124.5656852473195
 20
-104.6248166327143
 30
0.0
 42
1.0
  0
SEQEND
  5
1516
330
1513
100
AcDbEntity
  8
LOGO
 62
     5
  0
SOLID
  5
1517
330
1F
100
AcDbEntity
  8
LOGO
 62
     5
100
AcDbTrace
 10
124.3579866856748
 20
-103.7900088873591
 30
0.0
 11
124.7753905583517
 21
-103.7900088873591
 31
0.0
 12
124.3579866856748
 22
-105.877028250747
 32
0.0
 13
124.7753905583517
 23
-105.877028250747
 33
0.0
  0
SOLID
  5
1518
330
1F
100
AcDbEntity
  8
LOGO
 62
     5
100
AcDbTrace
 10
125.6101983037078
 20
-104.6248166327143
 30
0.0
 11
126.0276021763859
 21
-104.6248166327143
 31
0.0
 12
125.6101983037078
 22
-105.877028250747
 32
0.0
 13
126.0276021763859
 23
-105.877028250747
 33
0.0
  0
POLYLINE
  5
1519
330
1F
100
AcDbEntity
  8
LOGO
 62
     5
100
AcDb2dPolyline
 66
     1
 10
0.0
 20
0.0
 30
0.0
 70
     1
 40
0.4180727891402714
 41
0.4180727891402714
  0
VERTEX
  5
151A
330
1519
100
AcDbEntity
  8
LOGO
 62
     5
100
AcDbVertex
100
AcDb2dVertex
 10
126.7219931184386
 20
-104.8335185690534
 30
0.0
 42
1.0
  0
VERTEX
  5
151B
330
1519
100
AcDbEntity
  8
LOGO
 62
     5
100
AcDbVertex
100
AcDb2dVertex
 10
128.3942842750002
 20
-104.8335185690534
 30
0.0
 42
1.0
  0
SEQEND
  5
151C
330
1519
100
AcDbEntity
  8
LOGO
 62
     5
  0
SOLID
  5
151D
330
1F
100
AcDbEntity
  8
LOGO
 62
     5
100
AcDbTrace
 10
128.1842027653492
 20
-103.1639030783423
 30
0.0
 11
128.6016066380267
 21
-103.1639030783423
 31
0.0
 12
128.1842027653492
 22
-105.877028250747
 32
0.0
 13
128.6016066380267
 23
-105.877028250747
 33
0.0
  0
SOLID
  5
151E
330
1F
100
AcDbEntity
  8
LOGO
 62
     5
100
AcDbTrace
 10
129.0885917362808
 20
-103.7900088873591
 30
0.0
 11
129.5059956089576
 21
-103.7900088873591
 31
0.0
 12
129.0885917362808
 22
-105.877028250747
 32
0.0
 13
129.5059956089576
 23
-105.877028250747
 33
0.0
  0
SOLID
  5
151F
330
1F
100
AcDbEntity
  8
LOGO
 62
     5
100
AcDbTrace
 10
130.3408033543125
 20
-104.6248166327143
 30
0.0
 11
130.7582072269906
 21
-104.6248166327143
 31
0.0
 12
130.3408033543125
 22
-105.877028250747
 32
0.0
 13
130.7582072269906
 23
-105.877028250747
 33
0.0
  0
SOLID
  5
1520
330
1F
100
AcDbEntity
  8
LOGO
 62
     5
100
AcDbTrace
 10
131.5930149723455
 20
-104.6248166327143
 30
0.0
 11
132.010418845023
 21
-104.6248166327143
 31
0.0
 12
131.5930149723455
 22
-105.8770282507477
 32
0.0
 13
132.010418845023
 23
-105.8770282507477
 33
0.0
  0
SOLID
  5
1521
330
1F
100
AcDbEntity
  8
LOGO
 62
     5
100
AcDbTrace
 10
123.4535977147439
 20
-103.4978261764846
 30
0.0
 11
123.8710015874227
 21
-103.4978261764846
 31
0.0
 12
123.4535977147439
 22
-103.1639030783423
 32
0.0
 13
123.8710015874227
 23
-103.1639030783423
 33
0.0
  0
SOLID
  5
1522
330
1F
100
AcDbEntity
  8
LOGO
 62
     5
100
AcDbTrace
 10
123.4535977147439
 20
-103.7900088873591
 30
0.0
 11
123.8710015874227
 21
-103.7900088873591
 31
0.0
 12
123.4535977147439
 22
-105.8770282507477
 32
0.0
 13
123.8710015874227
 23
-105.877028250747
 33
0.0
  0
SOLID
  5
1523
330
1F
100
AcDbEntity
  8
LOGO
 62
     5
100
AcDbTrace
 10
127.5581386967191
 20
-101.7029895239708
 30
0.0
 11
128.7686099274848
 21
-101.7029895239708
 31
0.0
 12
127.5581386967191
 22
-95.58106605803233
 32
0.0
 13
128.7686099274848
 23
-91.14267154522659
 33
0.0
  0
SOLID
  5
1524
330
1F
100
AcDbEntity
  8
LOGO
 62
     5
100
AcDbTrace
 10
129.2694945746987
 20
-90.22438302533593
 30
0.0
 11
130.4799658054632
 21
-90.22438302533529
 31
0.0
 12
129.2694945746987
 22
-100.7847010040802
 32
0.0
 13
130.4799658054632
 23
-96.34630649127444
 33
0.0
  0
SOLID
  5
1525
330
1F
100
AcDbEntity
  8
LOGO
 62
     2
100
AcDbTrace
 10
128.7686099274848
 20
-90.22438302533593
 30
0.0
 11
129.2694945746987
 21
-90.22438302533593
 31
0.0
 12
128.7686099274848
 22
-101.7029895239708
 32
0.0
 13
129.2694945746987
 23
-101.7029895239708
 33
0.0
  0
SOLID
  5
1526
330
1F
100
AcDbEntity
  8
LOGO
 62
     5
100
AcDbTrace
 10
129.2694945746987
 20
-100.7847010040802
 30
0.0
 11
130.4799658054632
 21
-96.34630649127444
 31
0.0
 12
135.0296680176493
 22
-90.22438302533529
 32
0.0
 13
133.8191967868848
 23
-90.22438302533529
 33
0.0
  0
SOLID
  5
1527
330
1F
100
AcDbEntity
  8
LOGO
 62
     5
100
AcDbTrace
 10
129.2694945746987
 20
-101.7029895239708
 30
0.0
 11
130.4799658054632
 21
-101.7029895239708
 31
0.0
 12
135.0296680176493
 22
-91.14267154522659
 32
0.0
 13
133.8191967868848
 23
-95.58106605803233
 33
0.0
  0
SOLID
  5
1528
330
1F
100
AcDbEntity
  8
LOGO
 62
     2
100
AcDbTrace
 10
128.7686099274848
 20
-101.7029895239708
 30
0.0
 11
129.2694945746987
 21
-101.7029895239708
 31
0.0
 12
135.0296680176493
 22
-90.22438302533529
 32
0.0
 13
135.5305526648631
 23
-90.22438302533593
 33
0.0
  0
LWPOLYLINE
  5
1529
330
1F
100
AcDbEntity
  8
LOGO
 62
     4
100
AcDbPolyline
 90
        4
 70
     1
 43
0.0
 10
118.3924563099635
 20
-89.55934958509933
 10
384.9791025359229
 20
-89.55934958509928
 10
384.9791025359229
 20
-117.5552952864573
 10
118.3924563099635
 20
-117.5552952864573
1001
GENIUS_GENREC_14
1002
{
1000
PYDIR
1011
118.3924563099635
1021
-117.5552952864573
1031
0.0
1002
}
1002
{
1000
PXDIR
1011
384.9791025359229
1021
-89.55934958509928
1031
0.0
1002
}
1002
{
1000
PORI
1011
118.3924563099635
1021
-89.55934958509933
1031
0.0
1002
}
1002
{
1000
PINS
1011
118.3924563099635
1021
-89.55934958509933
1031
0.0
1002
}
1002
{
1000
PINS2
1011
384.9791025359229
1021
-117.5552952864573
1031
0.0
1002
}
1002
{
1000
C
1070
     1
1002
}
1001
GENIUS_GENOBJ-N-REC_13
1002
{
1000
OWNER
1000
GEN
1002
}
1001
GENIUS_GENODEF_13
1002
{
1000
HIER
1070
     0
1002
}
1002
{
1000
MANEDIT
1070
     0
1002
}
1002
{
1000
NOSEL
1070
     0
1002
}
1002
{
1000
BEHIND
1070
     0
1002
}
1002
{
1000
OTHER
1070
     0
1002
}
1002
{
1000
REACTOR
1002
}
  0
LINE
  5
152A
330
1F
100
AcDbEntity
  8
LOGO
 62
     4
100
AcDbLine
 10
237.1546814429253
 20
-104.9571197208456
 30
0.0
 11
237.1546814429253
 21
-115.2222998113439
 31
0.0
  0
LINE
  5
152B
330
1F
100
AcDbEntity
  8
LOGO
 62
     4
100
AcDbLine
 10
218.4907176420202
 20
-104.9571197208456
 30
0.0
 11
218.4907176420202
 21
-115.2222998113439
 31
0.0
  0
LINE
  5
152C
330
1F
100
AcDbEntity
  8
LOGO
 62
     4
100
AcDbLine
 10
237.1546814429253
 20
-115.2222998113439
 30
0.0
 11
218.4907176420202
 21
-115.2222998113439
 31
0.0
  0
LINE
  5
152D
330
1F
100
AcDbEntity
  8
LOGO
 62
     4
100
AcDbLine
 10
240.5022617019873
 20
-92.35894415523528
 30
0.0
 11
218.4907176420202
 21
-92.35894415523528
 31
0.0
  0
LINE
  5
152E
330
1F
100
AcDbEntity
  8
LOGO
 62
     4
100
AcDbLine
 10
240.5022617019873
 20
-100.7577278656424
 30
0.0
 11
218.4907176420202
 21
-100.7577278656424
 31
0.0
  0
LINE
  5
152F
330
1F
100
AcDbEntity
  8
LOGO
 62
     4
100
AcDbLine
 10
218.4907176420202
 20
-92.35894415523528
 30
0.0
 11
218.4907176420202
 21
-100.7577278656424
 31
0.0
  0
LINE
  5
1530
330
1F
100
AcDbEntity
  8
LOGO
 62
     4
100
AcDbLine
 10
240.5022617019873
 20
-92.35894415523528
 30
0.0
 11
240.5022617019873
 21
-100.7577278656424
 31
0.0
  0
LINE
  5
1531
330
1F
100
AcDbEntity
  8
LOGO
 62
     4
100
AcDbLine
 10
228.7964896720037
 20
-100.7577278656424
 30
0.0
 11
228.7964896720037
 21
-104.9571197208456
 31
0.0
  0
TEXT
  5
1532
330
1F
100
AcDbEntity
  8
LOGO
  6
Continuous
100
AcDbText
 10
219.9830499706121
 20
-99.00449404511544
 30
0.0
 40
4.9
  1
MCKC
  7
CHINESET
100
AcDbText
  0
LINE
  5
1533
330
1F
100
AcDbEntity
  8
LOGO
 62
     4
100
AcDbLine
 10
237.1546814429253
 20
-104.9571197208456
 30
0.0
 11
218.4907176420202
 21
-104.9571197208456
 31
0.0
  0
TEXT
  5
1534
330
1F
100
AcDbEntity
  8
LOGO
  6
Continuous
100
AcDbText
 10
224.4799245365204
 20
-113.7733914093902
 30
183.4808160640697
 40
2.1
  1
Model
 41
0.8
  7
CHINESET
100
AcDbText
  0
TEXT
  5
1535
330
1F
100
AcDbEntity
  8
LOGO
100
AcDbText
 10
223.9209728033217
 20
-109.8804439916918
 30
183.4808160640697
 40
3.5
  1
型號
  7
CHINESET
100
AcDbText
  0
LINE
  5
1536
330
1F
100
AcDbEntity
  8
LOGO
  6
Continuous
100
AcDbLine
 10
241.3951218253953
 20
-96.58808582966251
 30
0.0
 11
245.1037182539107
 21
-96.58808582966251
 31
0.0
  0
LINE
  5
1537
330
1F
100
AcDbEntity
  8
LOGO
 62
     4
100
AcDbLine
 10
243.0545815051222
 20
-104.9571197208456
 30
0.0
 11
243.0545815051222
 21
-115.2222998113439
 31
0.0
  0
LINE
  5
1538
330
1F
100
AcDbEntity
  8
LOGO
 62
     4
100
AcDbLine
 10
259.4970997989798
 20
-115.2222998113439
 30
0.0
 11
243.0545815051222
 21
-115.2222998113439
 31
0.0
  0
LINE
  5
1539
330
1F
100
AcDbEntity
  8
LOGO
 62
     4
100
AcDbLine
 10
256.4605297983463
 20
-92.35894415523528
 30
0.0
 11
246.0911515057559
 21
-92.35894415523528
 31
0.0
  0
LINE
  5
153A
330
1F
100
AcDbEntity
  8
LOGO
 62
     4
100
AcDbLine
 10
256.4605297983463
 20
-100.7577278656424
 30
0.0
 11
246.0911515057559
 21
-100.7577278656424
 31
0.0
  0
LINE
  5
153B
330
1F
100
AcDbEntity
  8
LOGO
 62
     4
100
AcDbLine
 10
246.0911515057559
 20
-92.35894415523528
 30
0.0
 11
246.0911515057559
 21
-100.7577278656424
 31
0.0
  0
LINE
  5
153C
330
1F
100
AcDbEntity
  8
LOGO
 62
     4
100
AcDbLine
 10
256.4605297983463
 20
-92.35894415523528
 30
0.0
 11
256.4605297983463
 21
-100.7577278656424
 31
0.0
  0
LINE
  5
153D
330
1F
100
AcDbEntity
  8
LOGO
 62
     4
100
AcDbLine
 10
251.2758406520511
 20
-100.7577278656424
 30
0.0
 11
251.2758406520511
 21
-104.9571197208456
 31
0.0
  0
TEXT
  5
153E
330
1F
100
AcDbEntity
  8
LOGO
  6
Continuous
100
AcDbText
 10
247.2090071592784
 20
-99.00449404511544
 30
0.0
 40
4.9
  1
16
  7
CHINESET
100
AcDbText
  0
LINE
  5
153F
330
1F
100
AcDbEntity
  8
LOGO
 62
     4
100
AcDbLine
 10
259.4970997989798
 20
-104.9571197208456
 30
0.0
 11
243.0545815051222
 21
-104.9571197208456
 31
0.0
  0
LINE
  5
1540
330
1F
100
AcDbEntity
  8
LOGO
  6
Continuous
100
AcDbLine
 10
258.6622751621807
 20
-96.58808582966251
 30
0.0
 11
262.3708715906967
 21
-96.58808582966251
 31
0.0
  0
LINE
  5
1541
330
1F
100
AcDbEntity
  8
LOGO
 62
     4
100
AcDbLine
 10
259.4970997989798
 20
-104.9571197208456
 30
0.0
 11
259.4970997989798
 21
-115.2222998113439
 31
0.0
  0
TEXT
  5
1542
330
1F
100
AcDbEntity
  8
LOGO
  6
Continuous
100
AcDbText
 10
246.9639191049247
 20
-113.7733914093902
 30
183.4808160640697
 40
2.1
  1
Tube I.D.
 41
0.8
  7
CHINESET
100
AcDbText
  0
TEXT
  5
1543
330
1F
100
AcDbEntity
  8
LOGO
100
AcDbText
 10
248.3453622998093
 20
-109.8804439916918
 30
183.4808160640697
 40
3.5
  1
內徑
  7
CHINESET
100
AcDbText
  0
TEXT
  5
1550
330
1F
100
AcDbEntity
  8
LOGO
100
AcDbText
 10
181.6540200140161
 20
-116.0659220249671
 30
0.0
 40
2.8
  1
1121210B
 41
0.7
  7
CHINESET
 72
     1
 11
188.0940200140161
 21
-116.0659220249671
 31
0.0
100
AcDbText
  0
LINE
  5
1551
330
1F
100
AcDbEntity
  8
LOGO
 62
     4
100
AcDbLine
 10
196.7835368529487
 20
-111.9561061461848
 30
0.0
 11
196.7835368529501
 21
-117.5552952864566
 31
0.0
  0
LINE
  5
1552
330
1F
100
AcDbEntity
  8
LOGO
 62
     4
100
AcDbLine
 10
196.7835368529487
 20
-111.9561061461848
 30
0.0
 11
179.98353685295
 21
-111.9561061461848
 31
0.0
  0
CIRCLE
  5
1553
330
1F
100
AcDbEntity
  8
LOGO
  6
Continuous
100
AcDbCircle
 10
166.5033725664046
 20
-97.95214494223412
 30
0.0
 40
1.625510502448883
  0
CIRCLE
  5
1554
330
1F
100
AcDbEntity
  8
LOGO
  6
Continuous
100
AcDbCircle
 10
166.5033725664046
 20
-97.95214494223412
 30
0.0
 40
0.9524052561318359
  0
LINE
  5
1555
330
1F
100
AcDbEntity
  8
LOGO
100
AcDbLine
 10
176.7182691800557
 20
-99.57765544468331
 30
0.0
 11
176.7182691800557
 21
-96.32663443978493
 31
0.0
  0
LINE
  5
1556
330
1F
100
AcDbEntity
  8
LOGO
100
AcDbLine
 10
171.6223870636337
 20
-98.90455019836579
 30
0.0
 11
171.6223870636337
 21
-96.99973968610214
 31
0.0
  0
LINE
  5
1557
330
1F
100
AcDbEntity
  8
LOGO
  6
Continuous
100
AcDbLine
 10
171.6223870636337
 20
-96.99973968610214
 30
0.0
 11
176.7182691800557
 21
-96.32663443978493
 31
0.0
  0
LINE
  5
1558
330
1F
100
AcDbEntity
  8
LOGO
  6
Continuous
100
AcDbLine
 10
171.6223870636337
 20
-98.90455019836579
 30
0.0
 11
176.7182691800557
 21
-99.57765544468331
 31
0.0
  0
LINE
  5
1559
330
1F
100
AcDbEntity
  8
LOGO
  6
AM_ISO08W050x2
 48
0.3
100
AcDbLine
 10
164.2625819986757
 20
-97.95214494223412
 30
0.0
 11
168.7441631341335
 21
-97.95214494223412
 31
0.0
1001
GENIUS_GENOREF_13
1005
1593
  0
LINE
  5
155A
330
1F
100
AcDbEntity
  8
LOGO
  6
AM_ISO08W050x2
 48
0.3
100
AcDbLine
 10
166.5033725664046
 20
-100.192935509963
 30
0.0
 11
166.5033725664046
 21
-95.71135437450521
 31
0.0
1001
GENIUS_GENOREF_13
1005
1592
  0
LINE
  5
155B
330
1F
100
AcDbEntity
  8
LOGO
  6
CENTER
 48
0.5
100
AcDbLine
 10
171.2148581337007
 20
-97.95214494223412
 30
0.0
 11
177.2314080129585
 21
-97.95214494223412
 31
0.0
1001
GENIUS_GENOREF_13
1005
1591
  0
LINE
  5
155C
330
1F
100
AcDbEntity
  8
LOGO
 62
     4
100
AcDbLine
 10
278.9998682423347
 20
-104.9571197208456
 30
0.0
 11
278.9998682423347
 21
-115.2222998113439
 31
0.0
  0
LINE
  5
155D
330
1F
100
AcDbEntity
  8
LOGO
 62
     4
100
AcDbLine
 10
261.7904818491815
 20
-104.9571197208456
 30
0.0
 11
261.7904818491815
 21
-115.2222998113439
 31
0.0
  0
LINE
  5
155E
330
1F
100
AcDbEntity
  8
LOGO
 62
     4
100
AcDbLine
 10
278.9998682423349
 20
-115.2222998113439
 30
0.0
 11
261.7904818491815
 21
-115.2222998113439
 31
0.0
  0
LINE
  5
155F
330
1F
100
AcDbEntity
  8
LOGO
 62
     4
100
AcDbLine
 10
276.7549076734905
 20
-92.35894415523528
 30
0.0
 11
264.0354424180259
 21
-92.35894415523528
 31
0.0
  0
LINE
  5
1560
330
1F
100
AcDbEntity
  8
LOGO
 62
     4
100
AcDbLine
 10
276.7549076734905
 20
-100.7577278656424
 30
0.0
 11
264.0354424180259
 21
-100.7577278656424
 31
0.0
  0
LINE
  5
1561
330
1F
100
AcDbEntity
  8
LOGO
 62
     4
100
AcDbLine
 10
264.0354424180259
 20
-92.35894415523528
 30
0.0
 11
264.0354424180259
 21
-100.7577278656424
 31
0.0
  0
LINE
  5
1562
330
1F
100
AcDbEntity
  8
LOGO
 62
     4
100
AcDbLine
 10
276.7549076734905
 20
-92.35894415523528
 30
0.0
 11
276.7549076734905
 21
-100.7577278656424
 31
0.0
  0
LINE
  5
1563
330
1F
100
AcDbEntity
  8
LOGO
 62
     4
100
AcDbLine
 10
270.3951750457581
 20
-100.7577278656424
 30
0.0
 11
270.3951750457581
 21
-104.9571197208456
 31
0.0
  0
LINE
  5
1565
330
1F
100
AcDbEntity
  8
LOGO
 62
     4
100
AcDbLine
 10
278.9998682423349
 20
-104.9571197208456
 30
0.0
 11
261.7904818491815
 21
-104.9571197208456
 31
0.0
  0
TEXT
  5
1566
330
1F
100
AcDbEntity
  8
LOGO
  6
Continuous
100
AcDbText
 10
266.1026032235475
 20
-113.7733914093902
 30
183.4808160640697
 40
2.1
  1
Stroke
 41
0.8
  7
CHINESET
100
AcDbText
  0
TEXT
  5
1567
330
1F
100
AcDbEntity
  8
LOGO
100
AcDbText
 10
266.2003094029245
 20
-109.8804439916918
 30
183.4808160640697
 40
3.5
  1
行程
  7
CHINESET
100
AcDbText
  0
POINT
  5
1591
330
1F
100
AcDbEntity
  8
0
 60
     1
100
AcDbPoint
 10
-1260.822680323498
 20
-1560.993268715076
 30
0.0
1001
GENIUS_GENOBJ-N-CRS_13
1002
{
1000
OWNER
1000
GEN
1002
}
1001
GENIUS_GENOLIS_13
1002
{
1000
ENT
1005
0
1005
0
1005
0
1005
155B
1002
}
1001
GENIUS_GENOENT_13
1002
{
1000
MYREF
1005
1591
1002
}
1002
{
1000
GRP
1005
0
1002
}
1001
GENIUS_GENODEF_13
1002
{
1000
HIER
1070
    10
1002
}
1002
{
1000
MANEDIT
1070
     1
1002
}
1002
{
1000
NOSEL
1070
     0
1002
}
1002
{
1000
BEHIND
1070
     0
1002
}
1002
{
1000
OTHER
1070
     0
1002
}
1002
{
1000
REACTOR
1002
}
  0
POINT
  5
1592
330
1F
100
AcDbEntity
  8
0
 60
     1
100
AcDbPoint
 10
-1272.147265546353
 20
-1552.11768223644
 30
0.0
1001
GENIUS_GENOBJ-N-CRS_13
1002
{
1000
OWNER
1000
GEN
1002
}
1001
GENIUS_GENOLIS_13
1002
{
1000
ENT
1005
0
1005
0
1005
0
1005
155A
1002
}
1001
GENIUS_GENOENT_13
1002
{
1000
MYREF
1005
1592
1002
}
1002
{
1000
GRP
1005
0
1002
}
1001
GENIUS_GENODEF_13
1002
{
1000
HIER
1070
    10
1002
}
1002
{
1000
MANEDIT
1070
     1
1002
}
1002
{
1000
NOSEL
1070
     0
1002
}
1002
{
1000
BEHIND
1070
     0
1002
}
1002
{
1000
OTHER
1070
     0
1002
}
1002
{
1000
REACTOR
1002
}
  0
POINT
  5
1593
330
1F
100
AcDbEntity
  8
0
 60
     1
100
AcDbPoint
 10
-1265.788591848516
 20
-1560.993268715076
 30
0.0
1001
GENIUS_GENOBJ-N-CRS_13
1002
{
1000
OWNER
1000
GEN
1002
}
1001
GENIUS_GENOLIS_13
1002
{
1000
ENT
1005
0
1005
0
1005
0
1005
1559
1002
}
1001
GENIUS_GENOENT_13
1002
{
1000
MYREF
1005
1593
1002
}
1002
{
1000
GRP
1005
0
1002
}
1001
GENIUS_GENODEF_13
1002
{
1000
HIER
1070
    10
1002
}
1002
{
1000
MANEDIT
1070
     1
1002
}
1002
{
1000
NOSEL
1070
     0
1002
}
1002
{
1000
BEHIND
1070
     0
1002
}
1002
{
1000
OTHER
1070
     0
1002
}
1002
{
1000
REACTOR
1002
}
  0
TEXT
  5
2689
330
1F
100
AcDbEntity
  8
LOGO
  6
Continuous
100
AcDbText
 10
266.3533082870925
 20
-99.00449404511544
 30
0.0
 40
4.9
  1
10
  7
CHINESET
100
AcDbText
  0
INSERT
  5
54D5
330
1F
100
AcDbEntity
  8
Default
100
AcDbBlockReference
  2
SEANNOT_GROUP7
 10
140.0729888896916
 20
-69.05970801977914
 30
0.0
 41
0.5
 42
0.5
 43
0.5
  0
INSERT
  5
54D6
330
1F
100
AcDbEntity
  8
Default
100
AcDbBlockReference
  2
SEANNOT_GROUP8
 10
140.0729888896916
 20
-69.05970801977914
 30
0.0
 41
0.5
 42
0.5
 43
0.5
  0
INSERT
  5
54D7
330
1F
100
AcDbEntity
  8
Default
100
AcDbBlockReference
  2
SEANNOT_GROUP9
 10
140.0729888896916
 20
-69.05970801977914
 30
0.0
 41
0.5
 42
0.5
 43
0.5
  0
INSERT
  5
54DB
330
1F
100
AcDbEntity
  8
Default
100
AcDbBlockReference
  2
SEANNOT_GROUP13
 10
140.0729888896916
 20
-98.06143803321756
 30
0.0
 41
0.5
 42
0.5
 43
0.5
  0
DIMENSION
  5
54DF
330
1F
100
AcDbEntity
  8
AM_REFDIM
100
AcDbDimension
  2
*D97
 10
269.0432604245994
 20
56.25022511951975
 30
0.0
 11
263.5432603947971
 21
56.25022511951975
 31
0.0
 70
   161
  1
\A1;<>
 71
     5
 42
11.0
  3
AM_ISO$0
100
AcDbAlignedDimension
 13
258.0432604245994
 23
43.66340331755927
 33
0.0
 14
269.0432604245994
 24
43.66340331755927
 34
0.0
1001
ACAD
1000
DSTYLE
1002
{
1070
    40
1040
1.005752867687443
1002
}
  0
DIMENSION
  5
54E0
330
1F
100
AcDbEntity
  8
AM_REFDIM
100
AcDbDimension
  2
*D98
 10
270.0432604245994
 20
75.18237833905924
 30
0.0
 11
264.0432604767535
 21
75.18237833905924
 31
0.0
 70
   160
  1
\A1;<>
 71
     5
 42
12.0
  3
AM_ISO$0
100
AcDbAlignedDimension
 13
258.0432604245994
 23
43.66340331755927
 33
0.0
 14
270.0432604245994
 24
44.16340331755927
 34
0.0
100
AcDbRotatedDimension
1001
ACAD
1000
DSTYLE
1002
{
1070
    40
1040
1.005752867687443
1002
}
  0
DIMENSION
  5
54E1
330
1F
100
AcDbEntity
  8
AM_REFDIM
100
AcDbDimension
  2
*D99
 10
202.7345267316269
 20
67.73680786061841
 30
0.0
 11
188.2345263143943
 21
67.73680786061841
 31
0.0
 70
   161
  1
\A1;{\Fsemeca1.ttf;q} <>
 71
     5
 42
29.0
  3
AM_ISO$0
100
AcDbAlignedDimension
 13
173.7345267316269
 23
50.44143247536794
 33
0.0
 14
202.7345267316269
 24
50.44143247536796
 34
0.0
1001
ACAD
1000
DSTYLE
1002
{
1070
    40
1040
1.005752867687443
1002
}
  0
DIMENSION
  5
54E2
330
1F
100
AcDbEntity
  8
AM_REFDIM
100
AcDbDimension
  2
*D100
 10
198.2345267316269
 20
59.8575899685115
 30
0.0
 11
188.2345265081093
 21
59.8575899685115
 31
0.0
 70
   161
  1
\A1;{\Fsemeca1.ttf;q} <>
 71
     5
 42
20.0
  3
AM_ISO$0
100
AcDbAlignedDimension
 13
178.2345267316269
 23
52.91340331755925
 33
0.0
 14
198.2345267316269
 24
52.91340331755925
 34
0.0
1001
ACAD
1000
DSTYLE
1002
{
1070
    40
1040
1.005752867687443
1002
}
  0
DIMENSION
  5
54E3
330
1F
100
AcDbEntity
  8
AM_REFDIM
100
AcDbDimension
  2
*D101
 10
335.0432604245994
 20
84.50968200077999
 30
0.0
 11
296.5432604245994
 21
84.50968200077999
 31
0.0
 70
   160
  1
\A1;57+STx2 {}
 71
     5
 42
77.0
  3
AM_ISO$0
100
AcDbAlignedDimension
 13
258.0432604245994
 23
43.66340331755927
 33
0.0
 14
335.0432604245994
 24
52.66340331755928
 34
0.0
100
AcDbRotatedDimension
1001
ACAD
1000
DSTYLE
1002
{
1070
    40
1040
1.005752867687443
1002
}
  0
DIMENSION
  5
54E4
330
1F
100
AcDbEntity
  8
AM_REFDIM
100
AcDbDimension
  2
*D102
 10
289.5432604245994
 20
75.18237833905925
 30
0.0
 11
279.7932604245994
 21
75.18237833905925
 31
0.0
 70
   160
  1
\A1;9.5+ST {}
 71
     5
 42
19.5
  3
AM_ISO$0
100
AcDbAlignedDimension
 13
270.0432604245994
 23
44.16340331755927
 33
0.0
 14
289.5432604245994
 24
52.66340331755928
 34
0.0
100
AcDbRotatedDimension
1001
ACAD
1000
DSTYLE
1002
{
1070
    40
1040
1.005752867687443
1002
}
  0
DIMENSION
  5
54E5
330
1F
100
AcDbEntity
  8
AM_REFDIM
100
AcDbDimension
  2
*D103
 10
335.0432604245994
 20
75.18237833905925
 30
0.0
 11
312.2932599626634
 21
75.18237833905925
 31
0.0
 70
   161
  1
\A1;35.5+ST {}
 71
     5
 42
45.49999999999999
  3
AM_ISO$0
100
AcDbAlignedDimension
 13
289.5432604245994
 23
52.66340331755928
 33
0.0
 14
335.0432604245994
 24
52.66340331755928
 34
0.0
1001
ACAD
1000
DSTYLE
1002
{
1070
    40
1040
1.005752867687443
1002
}
  0
DIMENSION
  5
54E6
330
1F
100
AcDbEntity
  8
AM_REFDIM
100
AcDbDimension
  2
*D104
 10
289.5432604245994
 20
61.3363847146769
 30
0.0
 11
279.6485607233745
 21
61.3363847146769
 31
0.0
 70
   160
  1
\A1;<>
 71
     5
 42
2.0
  3
AM_ISO$0
100
AcDbAlignedDimension
 13
287.5432604245994
 23
45.1634033175592
 33
0.0
 14
289.5432604245994
 24
52.66340331755928
 34
0.0
100
AcDbRotatedDimension
1001
ACAD
1000
DSTYLE
1002
{
1070
    40
1040
1.005752867687443
1002
}
  0
DIMENSION
  5
54E7
330
1F
100
AcDbEntity
  8
AM_REFDIM
100
AcDbDimension
  2
*D105
 10
304.5432604245994
 20
61.33638471467691
 30
0.0
 11
297.0432604245994
 21
61.33638471467691
 31
0.0
 70
   160
  1
\A1;<>
 71
     5
 42
15.0
  3
AM_ISO$0
100
AcDbAlignedDimension
 13
289.5432604245994
 23
52.66340331755928
 33
0.0
 14
304.5432604245994
 24
42.16340331755927
 34
0.0
100
AcDbRotatedDimension
1001
ACAD
1000
DSTYLE
1002
{
1070
    40
1040
1.005752867687443
1002
}
  0
DIMENSION
  5
54E8
330
1F
100
AcDbEntity
  8
AM_REFDIM
100
AcDbDimension
  2
*D106
 10
330.0432604245994
 20
61.3363847146769
 30
0.0
 11
332.5432604245994
 21
61.3363847146769
 31
0.0
 70
   160
  1
\A1;<>
 71
     5
 42
5.0
  3
AM_ISO$0
100
AcDbAlignedDimension
 13
335.0432604245994
 23
52.66340331755928
 33
0.0
 14
330.0432604245994
 24
38.16340331755927
 34
0.0
100
AcDbRotatedDimension
1001
ACAD
1000
DSTYLE
1002
{
1070
    40
1040
1.005752867687443
1002
}
  0
DIMENSION
  5
54E9
330
1F
100
AcDbEntity
  8
AM_REFDIM
100
AcDbDimension
  2
*D107
 10
152.6260572379397
 20
43.66340331755924
 30
0.0
 11
152.6260572379397
 21
38.16340328775692
 31
0.0
 70
   161
  1
\A1;<>
 71
     5
 42
11.0
  3
AM_ISO$0
100
AcDbAlignedDimension
 13
159.7345267316269
 23
32.66340331755924
 33
0.0
 14
159.7345267316269
 24
43.66340331755924
 34
0.0
1001
ACAD
1000
DSTYLE
1002
{
1070
    40
1040
1.005752867687443
1002
}
  0
INSERT
  5
54EA
330
1F
100
AcDbEntity
  8
Default
100
AcDbBlockReference
  2
SE6
 10
140.0729888896916
 20
-98.06143803321756
 30
0.0
 41
0.5
 42
0.5
 43
0.5
  0
DIMENSION
  5
54EB
330
1F
100
AcDbEntity
  8
AM_REFDIM
100
AcDbDimension
  2
*D108
 10
289.5432604245994
 20
-13.81340560708113
 30
0.0
 11
278.2932608716342
 21
-13.81340560708113
 31
0.0
 70
   160
  1
12.5+ST
 71
     5
 42
22.5
  3
AM_ISO$0
100
AcDbAlignedDimension
 13
267.0432604245994
 23
-29.67969079706737
 33
0.0
 14
289.5432604245994
 24
-18.67969079706734
 34
0.0
100
AcDbRotatedDimension
1001
ACAD
1000
DSTYLE
1002
{
1070
    40
1040
1.005752867687443
1002
}
  0
DIMENSION
  5
54EC
330
1F
100
AcDbEntity
  8
AM_REFDIM
100
AcDbDimension
  2
*D109
 10
286.8432604245993
 20
-69.98012954015203
 30
0.0
 11
277.9432602070423
 21
-69.98012954015203
 31
0.0
 70
   160
  1
\A1;7~20 {}
 71
     5
 42
17.80000000000007
  3
AM_ISO$0
100
AcDbAlignedDimension
 13
269.0432604245993
 23
-63.17969079706736
 33
0.0
 14
286.8432604245993
 24
-58.17969079706738
 34
0.0
100
AcDbRotatedDimension
1001
ACAD
1000
DSTYLE
1002
{
1070
    40
1040
1.005752867687443
1002
}
  0
DIMENSION
  5
54ED
330
1F
100
AcDbEntity
  8
AM_REFDIM
100
AcDbDimension
  2
*D110
 10
246.8806866469393
 20
-58.17969079706736
 30
0.0
 11
246.8806866469393
 21
-45.67969079706734
 31
0.0
 70
   160
  1
\A1;<>
 71
     5
 42
25.00000000000004
  3
AM_ISO$0
100
AcDbAlignedDimension
 13
254.4796774957459
 23
-33.17969079706732
 33
0.0
 14
256.8819857021028
 24
-58.17969079706736
 34
0.0
 50
90.0
100
AcDbRotatedDimension
1001
ACAD
1000
DSTYLE
1002
{
1070
    40
1040
1.005752867687443
1002
}
  0
DIMENSION
  5
54EE
330
1F
100
AcDbEntity
  8
AM_REFDIM
100
AcDbDimension
  2
*D111
 10
240.0072642241533
 20
-63.17969079706736
 30
0.0
 11
240.0072642241533
 21
-45.17969002220697
 31
0.0
 70
   160
  1
\A1;<>
 71
     5
 42
36.00000000000001
  3
AM_ISO$0
100
AcDbAlignedDimension
 13
258.0432604245994
 23
-27.17969079706735
 33
0.0
 14
260.0432604245993
 24
-63.17969079706736
 34
0.0
 50
90.0
100
AcDbRotatedDimension
1001
ACAD
1000
DSTYLE
1002
{
1070
    40
1040
1.005752867687443
1002
}
  0
DIMENSION
  5
54EF
330
1F
100
AcDbEntity
  8
AM_REFDIM
100
AcDbDimension
  2
*D112
 10
246.8806866469393
 20
-63.17969079706736
 30
0.0
 11
246.8806866469393
 21
-60.67969079706732
 31
0.0
 70
   160
  1
\A1;<>
 71
     5
 42
5.0
  3
AM_ISO$0
100
AcDbAlignedDimension
 13
256.8819857021028
 23
-58.17969079706736
 33
0.0
 14
260.0432604245993
 24
-63.17969079706736
 34
0.0
 50
90.0
100
AcDbRotatedDimension
1001
ACAD
1000
DSTYLE
1002
{
1070
    40
1040
1.005752867687443
1002
}
  0
DIMENSION
  5
54F0
330
1F
100
AcDbEntity
  8
AM_REFDIM
100
AcDbDimension
  2
*D113
 10
247.5340357117507
 20
34.16340331755927
 30
0.0
 11
247.5340357117507
 21
38.16340331755932
 31
0.0
 70
   161
  1
\A1;%%C<>
 71
     5
 42
8.000000000000014
  3
AM_ISO$0
100
AcDbAlignedDimension
 13
270.0432604245994
 23
42.16340331755929
 33
0.0
 14
270.0432604245994
 24
34.16340331755927
 34
0.0
1001
ACAD
1000
DSTYLE
1002
{
1070
    40
1040
1.005752867687443
1002
}
  0
LINE
  5
56EE
330
1F
100
AcDbEntity
  8
H01308
  6
Continuous
 62
     7
100
AcDbLine
 10
175.9564975738182
 20
23.66340331755927
 30
0.0
 11
182.7345267316269
 21
23.66340331755927
 31
0.0
  0
ARC
  5
56EF
330
1F
100
AcDbEntity
  8
H01308
  6
Continuous
 62
     7
100
AcDbCircle
 10
188.2345267316269
 20
38.16340331755927
 30
0.0
 40
19.0
100
AcDbArc
 50
220.2566125763524
 51
229.7433874236499
  0
LINE
  5
56F0
330
1F
100
AcDbEntity
  8
H01308
  6
Continuous
 62
     7
100
AcDbLine
 10
173.7345267316269
 20
50.44143247536794
 30
0.0
 11
173.7345267316269
 21
43.66340331755927
 31
0.0
  0
ARC
  5
56F1
330
1F
100
AcDbEntity
  8
H01308
  6
Continuous
 62
     7
100
AcDbCircle
 10
188.2345267316269
 20
38.16340331755927
 30
0.0
 40
19.0
100
AcDbArc
 50
130.2566125763501
 51
139.7433874236475
  0
LINE
  5
56F2
330
1F
100
AcDbEntity
  8
H01308
  6
Continuous
 62
     7
100
AcDbLine
 10
200.5125558894355
 20
52.66340331755928
 30
0.0
 11
193.7345267316269
 21
52.66340331755927
 31
0.0
  0
ARC
  5
56F3
330
1F
100
AcDbEntity
  8
H01308
  6
Continuous
 62
     7
100
AcDbCircle
 10
188.2345267316269
 20
38.16340331755927
 30
0.0
 40
19.0
100
AcDbArc
 50
40.25661257635246
 51
49.74338742364983
  0
LINE
  5
56F4
330
1F
100
AcDbEntity
  8
H01308
  6
Continuous
 62
     7
100
AcDbLine
 10
202.7345267316269
 20
25.8853741597506
 30
0.0
 11
202.7345267316269
 21
50.44143247536796
 31
0.0
  0
ARC
  5
56F5
330
1F
100
AcDbEntity
  8
H01308
  6
Continuous
 62
     7
100
AcDbCircle
 10
188.2345267316269
 20
38.16340331755927
 30
0.0
 40
19.0
100
AcDbArc
 50
310.2566125763502
 51
319.7433874236476
  0
LINE
  5
56F6
330
1F
100
AcDbEntity
  8
H01308
  6
Continuous
 62
     7
100
AcDbLine
 10
189.584526731627
 20
27.26340331755927
 30
0.0
 11
189.5845267316269
 21
25.16340331755927
 31
0.0
  0
LINE
  5
56F7
330
1F
100
AcDbEntity
  8
H01308
  6
Continuous
 62
     7
100
AcDbLine
 10
189.5845267316269
 20
25.16340331755927
 30
0.0
 11
190.0345267316268
 21
24.66340331755927
 31
0.0
  0
LINE
  5
56F8
330
1F
100
AcDbEntity
  8
H01308
  6
Continuous
 62
     7
100
AcDbLine
 10
190.0345267316268
 20
24.66340331755927
 30
0.0
 11
190.0345267316268
 21
23.96340331755927
 31
0.0
  0
LINE
  5
56F9
330
1F
100
AcDbEntity
  8
H01308
  6
Continuous
 62
     7
100
AcDbLine
 10
193.4345267316269
 20
24.66340331755927
 30
0.0
 11
193.8845267316268
 21
25.16340331755927
 31
0.0
  0
LINE
  5
56FA
330
1F
100
AcDbEntity
  8
H01308
  6
Continuous
 62
     7
100
AcDbLine
 10
193.8845267316268
 20
25.16340331755927
 30
0.0
 11
193.8845267316268
 21
27.26340331755928
 31
0.0
  0
ARC
  5
56FB
330
1F
100
AcDbEntity
  8
H01308
  6
Continuous
 62
     7
100
AcDbCircle
 10
192.1845267316268
 20
27.26340331755927
 30
0.0
 40
1.7
100
AcDbArc
 50
0.0
 51
90.0
  0
LINE
  5
56FC
330
1F
100
AcDbEntity
  8
H01308
  6
Continuous
 62
     7
100
AcDbLine
 10
192.1845267316268
 20
28.96340331755927
 30
0.0
 11
191.2845267316269
 21
28.96340331755927
 31
0.0
  0
ARC
  5
56FD
330
1F
100
AcDbEntity
  8
H01308
  6
Continuous
 62
     7
100
AcDbCircle
 10
191.2845267316269
 20
27.26340331755927
 30
0.0
 40
1.7
100
AcDbArc
 50
90.0
 51
180.0
  0
LINE
  5
56FE
330
1F
100
AcDbEntity
  8
H01308
  6
Continuous
 62
     7
100
AcDbLine
 10
186.4345267316269
 20
24.66340331755927
 30
0.0
 11
186.8845267316268
 21
25.16340331755927
 31
0.0
  0
LINE
  5
56FF
330
1F
100
AcDbEntity
  8
H01308
  6
Continuous
 62
     7
100
AcDbLine
 10
186.8845267316268
 20
25.16340331755927
 30
0.0
 11
186.8845267316267
 21
27.26340331755927
 31
0.0
  0
ARC
  5
5700
330
1F
100
AcDbEntity
  8
H01308
  6
Continuous
 62
     7
100
AcDbCircle
 10
185.1845267316268
 20
27.26340331755927
 30
0.0
 40
1.699999999999985
100
AcDbArc
 50
0.0
 51
90.0
  0
LINE
  5
5701
330
1F
100
AcDbEntity
  8
H01308
  6
Continuous
 62
     7
100
AcDbLine
 10
185.1845267316268
 20
28.96340331755927
 30
0.0
 11
184.2845267316269
 21
28.96340331755927
 31
0.0
  0
ARC
  5
5702
330
1F
100
AcDbEntity
  8
H01308
  6
Continuous
 62
     7
100
AcDbCircle
 10
184.2845267316268
 20
27.26340331755927
 30
0.0
 40
1.7
100
AcDbArc
 50
90.0
 51
180.0
  0
LINE
  5
5703
330
1F
100
AcDbEntity
  8
H01308
  6
Continuous
 62
     7
100
AcDbLine
 10
182.5845267316269
 20
27.26340331755928
 30
0.0
 11
182.5845267316269
 21
25.16340331755927
 31
0.0
  0
LINE
  5
5704
330
1F
100
AcDbEntity
  8
H01308
  6
Continuous
 62
     7
100
AcDbLine
 10
182.5845267316269
 20
25.16340331755927
 30
0.0
 11
183.0345267316268
 21
24.66340331755927
 31
0.0
  0
LINE
  5
5705
330
1F
100
AcDbEntity
  8
H01308
  6
Continuous
 62
     7
100
AcDbLine
 10
183.0345267316268
 20
24.66340331755927
 30
0.0
 11
183.0345267316268
 21
23.96340331755927
 31
0.0
  0
ARC
  5
5706
330
1F
100
AcDbEntity
  8
H01308
  6
Continuous
 62
     7
100
AcDbCircle
 10
177.3345267316269
 20
42.11340331755923
 30
0.0
 40
1.700000000000001
100
AcDbArc
 50
65.75037139749702
 51
90.0
  0
LINE
  5
5707
330
1F
100
AcDbEntity
  8
H01308
  6
Continuous
 62
     7
100
AcDbLine
 10
177.3345267316269
 20
43.81340331755923
 30
0.0
 11
175.2345267316269
 21
43.81340331755924
 31
0.0
  0
LINE
  5
5708
330
1F
100
AcDbEntity
  8
H01308
  6
Continuous
 62
     7
100
AcDbLine
 10
175.2345267316269
 20
43.81340331755923
 30
0.0
 11
175.0678600649601
 21
43.66340331755924
 31
0.0
  0
LINE
  5
5709
330
1F
100
AcDbEntity
  8
H01308
  6
Continuous
 62
     7
100
AcDbLine
 10
175.0678600649602
 20
32.66340331755926
 30
0.0
 11
175.2345267316269
 21
32.51340331755928
 31
0.0
  0
LINE
  5
570A
330
1F
100
AcDbEntity
  8
H01308
  6
Continuous
 62
     7
100
AcDbLine
 10
175.2345267316269
 20
32.5134033175593
 30
0.0
 11
177.3345267316269
 21
32.51340331755931
 31
0.0
  0
ARC
  5
570B
330
1F
100
AcDbEntity
  8
H01308
  6
Continuous
 62
     7
100
AcDbCircle
 10
177.3345267316269
 20
34.2134033175593
 30
0.0
 40
1.699999999999999
100
AcDbArc
 50
270.0
 51
294.249628602503
  0
LINE
  5
570C
330
1F
100
AcDbEntity
  8
H01308
  6
Continuous
 62
     7
100
AcDbLine
 10
190.0345267316268
 20
51.66340331755925
 30
0.0
 11
189.5845267316269
 21
51.16340331755925
 31
0.0
  0
LINE
  5
570D
330
1F
100
AcDbEntity
  8
H01308
  6
Continuous
 62
     7
100
AcDbLine
 10
189.5845267316269
 20
51.16340331755925
 30
0.0
 11
189.584526731627
 21
49.06340331755926
 31
0.0
  0
ARC
  5
570E
330
1F
100
AcDbEntity
  8
H01308
  6
Continuous
 62
     7
100
AcDbCircle
 10
191.2845267316269
 20
49.06340331755927
 30
0.0
 40
1.699999999999985
100
AcDbArc
 50
180.0
 51
270.0
  0
LINE
  5
570F
330
1F
100
AcDbEntity
  8
H01308
  6
Continuous
 62
     7
100
AcDbLine
 10
191.2845267316269
 20
47.36340331755926
 30
0.0
 11
192.1845267316268
 21
47.36340331755926
 31
0.0
  0
ARC
  5
5710
330
1F
100
AcDbEntity
  8
H01308
  6
Continuous
 62
     7
100
AcDbCircle
 10
192.1845267316268
 20
49.06340331755927
 30
0.0
 40
1.7
100
AcDbArc
 50
270.0
 51
0.0
  0
LINE
  5
5711
330
1F
100
AcDbEntity
  8
H01308
  6
Continuous
 62
     7
100
AcDbLine
 10
193.8845267316268
 20
49.06340331755926
 30
0.0
 11
193.8845267316268
 21
51.16340331755927
 31
0.0
  0
LINE
  5
5712
330
1F
100
AcDbEntity
  8
H01308
  6
Continuous
 62
     7
100
AcDbLine
 10
193.8845267316268
 20
51.16340331755925
 30
0.0
 11
193.4345267316269
 21
51.66340331755925
 31
0.0
  0
LINE
  5
5713
330
1F
100
AcDbEntity
  8
H01308
  6
Continuous
 62
     7
100
AcDbLine
 10
193.4345267316269
 20
51.66340331755925
 30
0.0
 11
193.4345267316269
 21
52.36340331755926
 31
0.0
  0
LINE
  5
5714
330
1F
100
AcDbEntity
  8
H01308
  6
Continuous
 62
     7
100
AcDbLine
 10
186.8845267316267
 20
49.06340331755927
 30
0.0
 11
186.8845267316268
 21
51.16340331755927
 31
0.0
  0
LINE
  5
5715
330
1F
100
AcDbEntity
  8
H01308
  6
Continuous
 62
     7
100
AcDbLine
 10
186.8845267316268
 20
51.16340331755925
 30
0.0
 11
186.4345267316269
 21
51.66340331755925
 31
0.0
  0
LINE
  5
5716
330
1F
100
AcDbEntity
  8
H01308
  6
Continuous
 62
     7
100
AcDbLine
 10
186.4345267316269
 20
51.66340331755925
 30
0.0
 11
186.4345267316269
 21
52.36340331755926
 31
0.0
  0
LINE
  5
5717
330
1F
100
AcDbEntity
  8
H01308
  6
Continuous
 62
     7
100
AcDbLine
 10
183.0345267316268
 20
51.66340331755925
 30
0.0
 11
182.5845267316269
 21
51.16340331755925
 31
0.0
  0
LINE
  5
5718
330
1F
100
AcDbEntity
  8
H01308
  6
Continuous
 62
     7
100
AcDbLine
 10
182.5845267316269
 20
51.16340331755925
 30
0.0
 11
182.5845267316269
 21
49.06340331755925
 31
0.0
  0
ARC
  5
5719
330
1F
100
AcDbEntity
  8
H01308
  6
Continuous
 62
     7
100
AcDbCircle
 10
184.2845267316268
 20
49.06340331755927
 30
0.0
 40
1.7
100
AcDbArc
 50
180.0
 51
270.0
  0
LINE
  5
571A
330
1F
100
AcDbEntity
  8
H01308
  6
Continuous
 62
     7
100
AcDbLine
 10
184.2845267316268
 20
47.36340331755926
 30
0.0
 11
185.1845267316268
 21
47.36340331755926
 31
0.0
  0
ARC
  5
571B
330
1F
100
AcDbEntity
  8
H01308
  6
Continuous
 62
     7
100
AcDbCircle
 10
185.1845267316268
 20
49.06340331755927
 30
0.0
 40
1.7
100
AcDbArc
 50
270.0
 51
0.0
  0
LINE
  5
571C
330
1F
100
AcDbEntity
  8
H01308
  6
Continuous
 62
     7
100
AcDbLine
 10
193.4345267316269
 20
23.96340331755927
 30
0.0
 11
193.4345267316269
 21
24.66340331755927
 31
0.0
  0
LINE
  5
571D
330
1F
100
AcDbEntity
  8
H01308
  6
Continuous
 62
     7
100
AcDbLine
 10
193.7345267316269
 20
23.66340331755927
 30
0.0
 11
200.5125558894355
 21
23.66340331755927
 31
0.0
  0
ARC
  5
571E
330
1F
100
AcDbEntity
  8
H01308
  6
Continuous
 62
     7
100
AcDbCircle
 10
193.7345267316269
 20
23.96340331755927
 30
0.0
 40
0.2999999999999999
100
AcDbArc
 50
180.0
 51
270.0
  0
LINE
  5
571F
330
1F
100
AcDbEntity
  8
H01308
  6
Continuous
 62
     7
100
AcDbLine
 10
183.0345267316268
 20
52.36340331755927
 30
0.0
 11
183.0345267316268
 21
51.66340331755927
 31
0.0
  0
LINE
  5
5720
330
1F
100
AcDbEntity
  8
H01308
  6
Continuous
 62
     7
100
AcDbLine
 10
182.7345267316269
 20
52.66340331755927
 30
0.0
 11
175.9564975738182
 21
52.66340331755927
 31
0.0
  0
ARC
  5
5721
330
1F
100
AcDbEntity
  8
H01308
  6
Continuous
 62
     7
100
AcDbCircle
 10
182.7345267316269
 20
52.36340331755927
 30
0.0
 40
0.2999999999999999
100
AcDbArc
 50
0.0
 51
90.0
  0
ARC
  5
5722
330
1F
100
AcDbEntity
  8
H01308
  6
Continuous
 62
     7
100
AcDbCircle
 10
186.7345267316269
 20
52.36340331755927
 30
0.0
 40
0.2999999999999999
100
AcDbArc
 50
90.0
 51
180.0
  0
LINE
  5
5723
330
1F
100
AcDbEntity
  8
H01308
  6
Continuous
 62
     7
100
AcDbLine
 10
190.0345267316268
 20
52.36340331755927
 30
0.0
 11
190.0345267316268
 21
51.66340331755927
 31
0.0
  0
LINE
  5
5724
330
1F
100
AcDbEntity
  8
H01308
  6
Continuous
 62
     7
100
AcDbLine
 10
189.7345267316269
 20
52.66340331755927
 30
0.0
 11
186.7345267316269
 21
52.66340331755927
 31
0.0
  0
ARC
  5
5725
330
1F
100
AcDbEntity
  8
H01308
  6
Continuous
 62
     7
100
AcDbCircle
 10
189.7345267316269
 20
52.36340331755927
 30
0.0
 40
0.2999999999999999
100
AcDbArc
 50
0.0
 51
90.0
  0
ARC
  5
5726
330
1F
100
AcDbEntity
  8
H01308
  6
Continuous
 62
     7
100
AcDbCircle
 10
193.7345267316269
 20
52.36340331755927
 30
0.0
 40
0.2999999999999999
100
AcDbArc
 50
90.0
 51
180.0
  0
LINE
  5
5727
330
1F
100
AcDbEntity
  8
H01308
  6
Continuous
 62
     7
100
AcDbLine
 10
173.7345267316269
 20
32.66340331755927
 30
0.0
 11
173.7345267316269
 21
25.8853741597506
 31
0.0
  0
ARC
  5
5728
330
1F
100
AcDbEntity
  8
H01308
  6
Continuous
 62
     7
100
AcDbCircle
 10
182.7345267316269
 20
23.96340331755927
 30
0.0
 40
0.2999999999999999
100
AcDbArc
 50
270.0
 51
0.0
  0
LINE
  5
5729
330
1F
100
AcDbEntity
  8
H01308
  6
Continuous
 62
     7
100
AcDbLine
 10
186.4345267316269
 20
23.96340331755927
 30
0.0
 11
186.4345267316269
 21
24.66340331755927
 31
0.0
  0
LINE
  5
572A
330
1F
100
AcDbEntity
  8
H01308
  6
Continuous
 62
     7
100
AcDbLine
 10
186.7345267316269
 20
23.66340331755927
 30
0.0
 11
189.7345267316269
 21
23.66340331755927
 31
0.0
  0
ARC
  5
572B
330
1F
100
AcDbEntity
  8
H01308
  6
Continuous
 62
     7
100
AcDbCircle
 10
186.7345267316269
 20
23.96340331755927
 30
0.0
 40
0.2999999999999999
100
AcDbArc
 50
180.0
 51
270.0
  0
ARC
  5
572C
330
1F
100
AcDbEntity
  8
H01308
  6
Continuous
 62
     7
100
AcDbCircle
 10
189.7345267316269
 20
23.96340331755927
 30
0.0
 40
0.2999999999999999
100
AcDbArc
 50
270.0
 51
0.0
  0
CIRCLE
  5
572D
330
1F
100
AcDbEntity
  8
H01308
  6
Continuous
 62
     7
100
AcDbCircle
 10
198.2345267316269
 20
48.16340331755926
 30
0.0
 40
1.620999999999999
  0
CIRCLE
  5
572E
330
1F
100
AcDbEntity
  8
H01308
  6
Continuous
 62
     7
100
AcDbCircle
 10
198.2345267316269
 20
48.16340331755926
 30
0.0
 40
3.25
  0
CIRCLE
  5
572F
330
1F
100
AcDbEntity
  8
H01308
  6
Continuous
 62
     7
100
AcDbCircle
 10
178.2345267316269
 20
48.16340331755926
 30
0.0
 40
1.620999999999999
  0
CIRCLE
  5
5730
330
1F
100
AcDbEntity
  8
H01308
  6
Continuous
 62
     7
100
AcDbCircle
 10
178.2345267316269
 20
48.16340331755926
 30
0.0
 40
3.25
  0
CIRCLE
  5
5731
330
1F
100
AcDbEntity
  8
H01308
  6
Continuous
 62
     7
100
AcDbCircle
 10
178.2345267316269
 20
28.16340331755927
 30
0.0
 40
1.620999999999999
  0
CIRCLE
  5
5732
330
1F
100
AcDbEntity
  8
H01308
  6
Continuous
 62
     7
100
AcDbCircle
 10
178.2345267316269
 20
28.16340331755927
 30
0.0
 40
3.25
  0
CIRCLE
  5
5733
330
1F
100
AcDbEntity
  8
H01308
  6
Continuous
 62
     7
100
AcDbCircle
 10
198.2345267316269
 20
28.16340331755927
 30
0.0
 40
1.620999999999999
  0
CIRCLE
  5
5734
330
1F
100
AcDbEntity
  8
H01308
  6
Continuous
 62
     7
100
AcDbCircle
 10
198.2345267316269
 20
28.16340331755927
 30
0.0
 40
3.25
  0
ARC
  5
5735
330
1F
100
AcDbEntity
  8
H01308
  6
Continuous
 62
     7
100
AcDbCircle
 10
188.2345267316269
 20
38.16340331755927
 30
0.0
 40
9.3
100
AcDbArc
 50
216.2562667086369
 51
0.0
  0
ARC
  5
5736
330
1F
100
AcDbEntity
  8
H01308
  6
Continuous
 62
     7
100
AcDbCircle
 10
188.2345267316269
 20
38.16340331755927
 30
0.0
 40
9.3
100
AcDbArc
 50
0.0
 51
143.7437332913631
  0
ARC
  5
5737
330
1F
100
AcDbEntity
  8
H01308
  6
Continuous
 62
     7
100
AcDbCircle
 10
188.2345267316269
 20
38.16340331755927
 30
0.0
 40
9.000000000000001
100
AcDbArc
 50
0.0
 51
142.3301130356693
  0
ARC
  5
5738
330
1F
100
AcDbEntity
  8
H01308
  6
Continuous
 62
     7
100
AcDbCircle
 10
188.2345267316269
 20
38.16340331755927
 30
0.0
 40
9.000000000000001
100
AcDbArc
 50
217.6698869643307
 51
0.0
  0
ARC
  5
5739
330
1F
100
AcDbEntity
  8
AM_4
100
AcDbCircle
 10
198.2345267316269
 20
28.16340331755927
 30
0.0
 40
2.0
100
AcDbArc
 50
254.9999999999988
 51
194.9999999999992
  0
ARC
  5
573A
330
1F
100
AcDbEntity
  8
AM_4
100
AcDbCircle
 10
198.2345267316269
 20
48.16340331755926
 30
0.0
 40
2.0
100
AcDbArc
 50
254.9999999999988
 51
194.9999999999992
  0
ARC
  5
573B
330
1F
100
AcDbEntity
  8
AM_4
100
AcDbCircle
 10
178.2345267316269
 20
48.16340331755926
 30
0.0
 40
2.0
100
AcDbArc
 50
254.9999999999988
 51
194.9999999999992
  0
ARC
  5
573C
330
1F
100
AcDbEntity
  8
AM_4
100
AcDbCircle
 10
178.2345267316269
 20
28.16340331755927
 30
0.0
 40
2.0
100
AcDbArc
 50
254.9999999999988
 51
194.9999999999992
  0
ARC
  5
573F
330
1F
100
AcDbEntity
  8
H01309
  6
Continuous
 62
     7
100
AcDbCircle
 10
188.2345267316269
 20
38.16340331755927
 30
0.0
 40
7.0
100
AcDbArc
 50
328.9972808661254
 51
0.0
  0
ARC
  5
5742
330
1F
100
AcDbEntity
  8
H01309
  6
Continuous
 62
     7
100
AcDbCircle
 10
188.2345267316269
 20
38.16340331755927
 30
0.0
 40
7.0
100
AcDbArc
 50
0.0
 51
31.00271913387456
  0
CIRCLE
  5
5748
330
1F
100
AcDbEntity
  8
H01166-M4
  6
Continuous
 62
     7
100
AcDbCircle
 10
163.2345267316269
 20
38.16340331755924
 30
0.0
 40
1.2
  0
LINE
  5
574F
330
1F
100
AcDbEntity
  8
H01313
  6
Continuous
 62
     7
100
AcDbLine
 10
182.2345267316269
 20
32.66340331755926
 30
0.0
 11
192.7345267316269
 21
32.66340331755927
 31
0.0
  0
LINE
  5
5750
330
1F
100
AcDbEntity
  8
H01313
  6
Continuous
 62
     7
100
AcDbLine
 10
182.2345267316269
 20
43.66340331755925
 30
0.0
 11
182.2345267316269
 21
32.66340331755926
 31
0.0
  0
LINE
  5
5751
330
1F
100
AcDbEntity
  8
H01313
  6
Continuous
 62
     7
100
AcDbLine
 10
182.2345267316269
 20
43.66340331755925
 30
0.0
 11
159.7345267316269
 21
43.66340331755923
 31
0.0
  0
LINE
  5
5752
330
1F
100
AcDbEntity
  8
H01313
  6
Continuous
 62
     7
100
AcDbLine
 10
182.2345267316269
 20
32.66340331755926
 30
0.0
 11
159.7345267316269
 21
32.66340331755924
 31
0.0
  0
LINE
  5
5753
330
1F
100
AcDbEntity
  8
H01313
  6
Continuous
 62
     7
100
AcDbLine
 10
194.2345267316269
 20
34.16340331755927
 30
0.0
 11
194.2345267316269
 21
42.16340331755929
 31
0.0
  0
LINE
  5
5754
330
1F
100
AcDbEntity
  8
H01313
  6
Continuous
 62
     7
100
AcDbLine
 10
192.7345267316269
 20
43.66340331755927
 30
0.0
 11
182.2345267316269
 21
43.66340331755925
 31
0.0
  0
LINE
  5
5755
330
1F
100
AcDbEntity
  8
H01313
  6
Continuous
 62
     7
100
AcDbLine
 10
194.2345267316269
 20
42.16340331755929
 30
0.0
 11
192.7345267316269
 21
43.66340331755927
 31
0.0
  0
LINE
  5
5756
330
1F
100
AcDbEntity
  8
H01313
  6
Continuous
 62
     7
100
AcDbLine
 10
192.7345267316269
 20
32.66340331755927
 30
0.0
 11
194.2345267316269
 21
34.16340331755927
 31
0.0
  0
LINE
  5
5757
330
1F
100
AcDbEntity
  8
H01313
  6
Continuous
 62
     7
100
AcDbLine
 10
158.2345267316268
 20
42.16340331755922
 30
0.0
 11
158.2345267316268
 21
34.16340331755923
 31
0.0
  0
LINE
  5
5758
330
1F
100
AcDbEntity
  8
H01313
  6
Continuous
 62
     7
100
AcDbLine
 10
158.2345267316268
 20
34.16340331755923
 30
0.0
 11
159.7345267316269
 21
32.66340331755924
 31
0.0
  0
LINE
  5
5759
330
1F
100
AcDbEntity
  8
H01313
  6
Continuous
 62
     7
100
AcDbLine
 10
159.7345267316269
 20
43.66340331755924
 30
0.0
 11
158.2345267316268
 21
42.16340331755922
 31
0.0
  0
CIRCLE
  5
575A
330
1F
100
AcDbEntity
  8
H01313
  6
Continuous
 62
     7
100
AcDbCircle
 10
188.2345267316269
 20
38.16340331755929
 30
0.0
 40
5.049999999999998
  0
CIRCLE
  5
575C
330
1F
100
AcDbEntity
  8
H01313
  6
Continuous
 62
     7
100
AcDbCircle
 10
163.1892987252644
 20
38.16340331755924
 30
0.0
 40
2.19299029337999
  0
ARC
  5
575D
330
1F
100
AcDbEntity
  8
3121018000100
  6
Continuous
 62
     7
100
AcDbCircle
 10
196.1194044788457
 20
34.4866244404152
 30
0.0
 40
0.5
100
AcDbArc
 50
29.43619535627704
 51
280.5638046437229
  0
ARC
  5
575E
330
1F
100
AcDbEntity
  8
3121018000100
  6
Continuous
 62
     7
100
AcDbCircle
 10
196.1194044788457
 20
41.84018219470336
 30
0.0
 40
0.5
100
AcDbArc
 50
79.43619535628025
 51
330.5638046437215
  0
ARC
  5
575F
330
1F
100
AcDbEntity
  8
3121018000100
  6
Continuous
 62
     7
100
AcDbCircle
 10
187.2595267316268
 20
38.16340331755929
 30
0.0
 40
8.775000000000002
100
AcDbArc
 50
259.736683100012
 51
300.3661946612764
  0
ARC
  5
5760
330
1F
100
AcDbEntity
  8
3121018000100
  6
Continuous
 62
     7
100
AcDbCircle
 10
187.2595267316268
 20
38.16340331755929
 30
0.0
 40
8.775000000000002
100
AcDbArc
 50
59.63380533872367
 51
100.2633168999848
  0
ARC
  5
5761
330
1F
100
AcDbEntity
  8
3121018000100
  6
Continuous
 62
     7
100
AcDbCircle
 10
192.2010314613044
 20
29.72941517394813
 30
0.0
 40
1.000000000000001
100
AcDbArc
 50
74.99999999999883
 51
120.3661946612763
  0
LINE
  5
5762
330
1F
100
AcDbEntity
  8
3121018000100
  6
Continuous
 62
     7
100
AcDbLine
 10
193.0246108047422
 20
30.54401393438116
 30
0.0
 11
192.4598505064071
 21
30.69534100023719
 31
0.0
  0
LINE
  5
5763
330
1F
100
AcDbEntity
  8
3121018000100
  6
Continuous
 62
     7
100
AcDbLine
 10
195.6238593027382
 20
36.18343762252499
 30
0.0
 11
196.9278591682285
 21
35.83403191163659
 31
0.0
  0
ARC
  5
5764
330
1F
100
AcDbEntity
  8
3121018000100
  6
Continuous
 62
     7
100
AcDbCircle
 10
188.2345267316269
 20
38.16340331755929
 30
0.0
 40
7.649999999999999
100
AcDbArc
 50
14.99999999999917
 51
134.031791393211
  0
ARC
  5
5765
330
1F
100
AcDbEntity
  8
3121018000100
  6
Continuous
 62
     7
100
AcDbCircle
 10
188.2345267316269
 20
38.16340331755929
 30
0.0
 40
7.649999999999999
100
AcDbArc
 50
225.968208606789
 51
345.0000000000009
  0
LINE
  5
5766
330
1F
100
AcDbEntity
  8
3121018000100
  6
Continuous
 62
     7
100
AcDbLine
 10
196.9278591682285
 20
40.49277472348197
 30
0.0
 11
195.6238593027382
 21
40.14336901259357
 31
0.0
  0
LINE
  5
5767
330
1F
100
AcDbEntity
  8
3121018000100
  6
Continuous
 62
     7
100
AcDbLine
 10
192.4598505064071
 20
45.63146563488136
 30
0.0
 11
193.0246108047422
 21
45.78279270073742
 31
0.0
  0
ARC
  5
5768
330
1F
100
AcDbEntity
  8
3121018000100
  6
Continuous
 62
     7
100
AcDbCircle
 10
192.2010314613044
 20
46.59739146117042
 30
0.0
 40
0.9999999999999989
100
AcDbArc
 50
239.6338053387236
 51
285.0000000000012
  0
CIRCLE
  5
5769
330
1F
100
AcDbEntity
  8
H01310
  6
Continuous
 62
     7
100
AcDbCircle
 10
188.2345267316269
 20
38.16340331755926
 30
0.0
 40
2.1505
  0
ARC
  5
576D
330
1F
100
AcDbEntity
  8
AM_4
100
AcDbCircle
 10
188.2345267316269
 20
38.16340331755926
 30
0.0
 40
2.0
100
AcDbArc
 50
254.9999999999988
 51
194.9999999999992
  0
LINE
  5
5866
330
1F
100
AcDbEntity
  8
AM_5
 62
     5
100
AcDbLine
 10
332.1571135672427
 20
14.9953274768518
 30
0.0
 11
311.2606766044921
 21
14.9953274768518
 31
0.0
  0
LINE
  5
5867
330
1F
100
AcDbEntity
  8
AM_5
 62
     5
100
AcDbLine
 10
311.2606766044921
 20
14.9953274768518
 30
0.0
 11
307.084591144798
 21
33.47517422162105
 31
0.0
  0
TRACE
  5
5868
330
1F
100
AcDbEntity
  8
AM_5
 62
     5
370
    30
100
AcDbTrace
 10
307.5692723197986
 20
33.60928839788636
 30
0.0
 11
306.5999099697974
 21
33.34106004535572
 31
0.0
 12
306.2799060839873
 22
36.38326128325716
 32
0.0
 13
306.2799060839873
 23
36.38326128325716
 33
0.0
  0
MTEXT
  5
5869
330
1F
100
AcDbEntity
  8
AM_5
 62
     5
100
AcDbMText
 10
313.2958060823235
 20
19.27346184561759
 30
0.0
 40
3.017364479996944
 41
0.0
 71
     1
 72
     5
  1
2-M5 x 0.8
 73
     1
 44
1.0
1001
ACAD
1000
MTEXTBEGIN
1070
    73
1070
     1
1070
    44
1040
1.0
1070
    74
1070
     0
1000
MTEXTEND
  0
DIMENSION
  5
5AAF
330
1F
100
AcDbEntity
  8
AM_5
100
AcDbDimension
  2
*D114
 10
239.5340357117508
 20
31.16340331755929
 30
0.0
 11
236.7840357117507
 21
38.16340331755931
 31
0.0
 70
    32
  1
%%C<>
 71
     5
 42
13.99999999999999
  3
AM_ISO$0
100
AcDbAlignedDimension
 13
271.0432604245994
 23
45.16340331755927
 33
0.0
 14
271.0432604245994
 24
31.16340331755927
 34
0.0
 50
90.0
100
AcDbRotatedDimension
1001
ACAD
1000
DSTYLE
1002
{
1070
    40
1040
1.0
1070
   144
1040
1.0
1070
   272
1070
     8
1002
}
  0
LINE
  5
5B38
330
1F
100
AcDbEntity
  8
AM_7
  6
CENTER
100
AcDbLine
 10
188.2345267316269
 20
38.1634033175593
 30
0.0
 11
188.2345267316269
 21
38.1634033175593
 31
0.0
  0
LINE
  5
5B39
330
1F
100
AcDbEntity
  8
AM_7
  6
CENTER
100
AcDbLine
 10
188.2345267316269
 20
38.1634033175593
 30
0.0
 11
188.2345267316269
 21
38.1634033175593
 31
0.0
  0
LINE
  5
5B3B
330
1F
100
AcDbEntity
  8
AM_7
  6
CENTER
100
AcDbLine
 10
171.7453525132132
 20
38.1634033175593
 30
0.0
 11
204.7237009500406
 21
38.1634033175593
 31
0.0
  0
LINE
  5
5B3C
330
1F
100
AcDbEntity
  8
AM_7
  6
CENTER
100
AcDbLine
 10
188.2345267316269
 20
21.67422909914561
 30
0.0
 11
188.2345267316269
 21
54.65257753597291
 31
0.0
  0
LINE
  5
5B45
330
1F
100
AcDbEntity
  8
AM_7
  6
CENTER
100
AcDbLine
 10
163.1892987252644
 20
38.16340331755924
 30
0.0
 11
163.1892987252644
 21
38.16340331755924
 31
0.0
  0
LINE
  5
5B46
330
1F
100
AcDbEntity
  8
AM_7
  6
CENTER
100
AcDbLine
 10
163.1892987252644
 20
38.16340331755924
 30
0.0
 11
163.1892987252644
 21
38.16340331755924
 31
0.0
  0
LINE
  5
5B47
330
1F
100
AcDbEntity
  8
AM_7
  6
CENTER
100
AcDbLine
 10
159.8914638815817
 20
38.16340331755924
 30
0.0
 11
166.4871335689471
 21
38.16340331755924
 31
0.0
  0
LINE
  5
5B48
330
1F
100
AcDbEntity
  8
AM_7
  6
CENTER
100
AcDbLine
 10
163.1892987252644
 20
34.86556847387651
 30
0.0
 11
163.1892987252644
 21
41.46123816124196
 31
0.0
  0
LINE
  5
5B49
330
1F
100
AcDbEntity
  8
AM_7
  6
CENTER
100
AcDbLine
 10
178.2345267316269
 20
48.16340331755927
 30
0.0
 11
178.2345267316269
 21
48.16340331755927
 31
0.0
  0
LINE
  5
5B4A
330
1F
100
AcDbEntity
  8
AM_7
  6
CENTER
100
AcDbLine
 10
178.2345267316269
 20
48.16340331755927
 30
0.0
 11
178.2345267316269
 21
48.16340331755927
 31
0.0
  0
LINE
  5
5B4B
330
1F
100
AcDbEntity
  8
AM_7
  6
CENTER
100
AcDbLine
 10
174.2771249192076
 20
48.16340331755927
 30
0.0
 11
182.1919285440461
 21
48.16340331755927
 31
0.0
  0
LINE
  5
5B4C
330
1F
100
AcDbEntity
  8
AM_7
  6
CENTER
100
AcDbLine
 10
178.2345267316269
 20
44.20600150513997
 30
0.0
 11
178.2345267316269
 21
52.12080512997854
 31
0.0
  0
LINE
  5
5B59
330
1F
100
AcDbEntity
  8
AM_7
  6
CENTER
100
AcDbLine
 10
178.2345267316269
 20
28.16340331755927
 30
0.0
 11
178.2345267316269
 21
28.16340331755927
 31
0.0
  0
LINE
  5
5B5A
330
1F
100
AcDbEntity
  8
AM_7
  6
CENTER
100
AcDbLine
 10
178.2345267316269
 20
28.16340331755927
 30
0.0
 11
178.2345267316269
 21
28.16340331755927
 31
0.0
  0
LINE
  5
5B5B
330
1F
100
AcDbEntity
  8
AM_7
  6
CENTER
100
AcDbLine
 10
174.2771249192076
 20
28.16340331755927
 30
0.0
 11
182.1919285440461
 21
28.16340331755927
 31
0.0
  0
LINE
  5
5B5C
330
1F
100
AcDbEntity
  8
AM_7
  6
CENTER
100
AcDbLine
 10
178.2345267316269
 20
24.20600150513997
 30
0.0
 11
178.2345267316269
 21
32.12080512997854
 31
0.0
  0
LINE
  5
5B5D
330
1F
100
AcDbEntity
  8
AM_7
  6
CENTER
100
AcDbLine
 10
198.2345267316269
 20
28.16340331755927
 30
0.0
 11
198.2345267316269
 21
28.16340331755927
 31
0.0
  0
LINE
  5
5B5E
330
1F
100
AcDbEntity
  8
AM_7
  6
CENTER
100
AcDbLine
 10
198.2345267316269
 20
28.16340331755927
 30
0.0
 11
198.2345267316269
 21
28.16340331755927
 31
0.0
  0
LINE
  5
5B5F
330
1F
100
AcDbEntity
  8
AM_7
  6
CENTER
100
AcDbLine
 10
194.2771249192076
 20
28.16340331755927
 30
0.0
 11
202.1919285440461
 21
28.16340331755927
 31
0.0
  0
LINE
  5
5B60
330
1F
100
AcDbEntity
  8
AM_7
  6
CENTER
100
AcDbLine
 10
198.2345267316269
 20
24.20600150513997
 30
0.0
 11
198.2345267316269
 21
32.12080512997854
 31
0.0
  0
LINE
  5
5B61
330
1F
100
AcDbEntity
  8
AM_7
  6
CENTER
100
AcDbLine
 10
198.2345267316269
 20
48.16340331755926
 30
0.0
 11
198.2345267316269
 21
48.16340331755926
 31
0.0
  0
LINE
  5
5B62
330
1F
100
AcDbEntity
  8
AM_7
  6
CENTER
100
AcDbLine
 10
198.2345267316269
 20
48.16340331755926
 30
0.0
 11
198.2345267316269
 21
48.16340331755926
 31
0.0
  0
LINE
  5
5B63
330
1F
100
AcDbEntity
  8
AM_7
  6
CENTER
100
AcDbLine
 10
194.2771249192076
 20
48.16340331755926
 30
0.0
 11
202.1919285440461
 21
48.16340331755926
 31
0.0
  0
LINE
  5
5B64
330
1F
100
AcDbEntity
  8
AM_7
  6
CENTER
100
AcDbLine
 10
198.2345267316269
 20
44.20600150513997
 30
0.0
 11
198.2345267316269
 21
52.12080512997852
 31
0.0
  0
CIRCLE
  5
5B67
330
1F
100
AcDbEntity
  8
H01308
  6
Continuous
 62
     7
100
AcDbCircle
 10
295.2432604245994
 20
38.16340331755929
 30
0.0
 40
2.250500000000004
  0
LINE
  5
5B69
330
1F
100
AcDbEntity
  8
H01308
  6
Continuous
 62
     7
100
AcDbLine
 10
335.0432604245994
 20
50.44143247536796
 30
0.0
 11
289.5432604245994
 21
50.44143247536796
 31
0.0
  0
LINE
  5
5B6A
330
1F
100
AcDbEntity
  8
H01308
  6
Continuous
 62
     7
100
AcDbLine
 10
335.0432604245994
 20
52.66340331755928
 30
0.0
 11
289.5432604245994
 21
52.66340331755928
 31
0.0
  0
LINE
  5
5B6B
330
1F
100
AcDbEntity
  8
H01308
  6
Continuous
 62
     7
100
AcDbLine
 10
335.0432604245994
 20
50.44143247536796
 30
0.0
 11
335.0432604245994
 21
52.66340331755928
 31
0.0
  0
LINE
  5
5B6C
330
1F
100
AcDbEntity
  8
H01308
  6
Continuous
 62
     7
100
AcDbLine
 10
335.0432604245994
 20
23.66340331755927
 30
0.0
 11
335.0432604245994
 21
50.44143247536794
 31
0.0
  0
LINE
  5
5B6D
330
1F
100
AcDbEntity
  8
H01308
  6
Continuous
 62
     7
100
AcDbLine
 10
289.5432604245994
 20
50.44143247536796
 30
0.0
 11
289.5432604245994
 21
52.66340331755928
 31
0.0
  0
LINE
  5
5B6E
330
1F
100
AcDbEntity
  8
H01308
  6
Continuous
 62
     7
100
AcDbLine
 10
289.5432604245994
 20
33.16340331755927
 30
0.0
 11
289.5432604245994
 21
50.44143247536794
 31
0.0
  0
CIRCLE
  5
5B6F
330
1F
100
AcDbEntity
  8
H01308
  6
Continuous
 62
     7
100
AcDbCircle
 10
331.0432604245994
 20
38.16340331755929
 30
0.0
 40
0.2500000000000002
  0
CIRCLE
  5
5B70
330
1F
100
AcDbEntity
  8
H01308
  6
Continuous
 62
     7
100
AcDbCircle
 10
304.5432604245994
 20
38.16340331755929
 30
0.0
 40
0.2500000000000002
  0
LINE
  5
5B74
330
1F
100
AcDbEntity
  8
H01308
  6
Continuous
 62
     7
100
AcDbLine
 10
289.5432604245994
 20
24.91340331755927
 30
0.0
 11
289.5432604245994
 21
31.41340331755927
 31
0.0
  0
CIRCLE
  5
5B75
330
1F
100
AcDbEntity
  8
H01308
  6
Continuous
 62
     7
100
AcDbCircle
 10
330.0432604245994
 20
38.16340331755927
 30
0.0
 40
2.750000000000002
  0
CIRCLE
  5
5B76
330
1F
100
AcDbEntity
  8
H01308
  6
Continuous
 62
     7
100
AcDbCircle
 10
330.0432604245994
 20
38.16340331755927
 30
0.0
 40
2.067000000000006
  0
CIRCLE
  5
5B77
330
1F
100
AcDbEntity
  8
H01308
  6
Continuous
 62
     7
100
AcDbCircle
 10
304.5432604245994
 20
38.16340331755927
 30
0.0
 40
2.749999999999995
  0
CIRCLE
  5
5B78
330
1F
100
AcDbEntity
  8
H01308
  6
Continuous
 62
     7
100
AcDbCircle
 10
304.5432604245994
 20
38.16340331755927
 30
0.0
 40
2.067000000000002
  0
LINE
  5
5B7A
330
1F
100
AcDbEntity
  8
H01308
  6
Continuous
 62
     7
100
AcDbLine
 10
335.0432604245994
 20
23.66340331755927
 30
0.0
 11
289.5432604245994
 21
23.66340331755927
 31
0.0
  0
LINE
  5
5B89
330
1F
100
AcDbEntity
  8
H01308
  6
Continuous
 62
     7
100
AcDbLine
 10
289.5432604245994
 20
23.66340331755927
 30
0.0
 11
289.5432604245994
 21
24.91340331755927
 31
0.0
  0
LINE
  5
5B8A
330
1F
100
AcDbEntity
  8
H01308
  6
Continuous
 62
     7
100
AcDbLine
 10
289.5432604245994
 20
31.41340331755927
 30
0.0
 11
289.5432604245994
 21
33.16340331755929
 31
0.0
  0
ARC
  5
5B91
330
1F
100
AcDbEntity
  8
AM_4
100
AcDbCircle
 10
330.0432604245994
 20
38.16340331755927
 30
0.0
 40
2.500000000000007
100
AcDbArc
 50
254.9999999999988
 51
194.9999999999999
  0
ARC
  5
5B92
330
1F
100
AcDbEntity
  8
AM_4
100
AcDbCircle
 10
304.5432604245994
 20
38.16340331755927
 30
0.0
 40
2.500000000000003
100
AcDbArc
 50
254.9999999999988
 51
194.9999999999999
  0
LINE
  5
5B96
330
1F
100
AcDbEntity
  8
H01309
  6
Continuous
 62
     7
100
AcDbLine
 10
288.0432604245994
 20
44.6634033175592
 30
0.0
 11
288.0432604245994
 21
31.66340331755933
 31
0.0
  0
LINE
  5
5B97
330
1F
100
AcDbEntity
  8
H01309
  6
Continuous
 62
     7
100
AcDbLine
 10
287.5432604245994
 20
45.1634033175592
 30
0.0
 11
287.5432604245994
 21
31.16340331755933
 31
0.0
  0
LINE
  5
5B98
330
1F
100
AcDbEntity
  8
H01309
  6
Continuous
 62
     7
100
AcDbLine
 10
270.0432604245994
 20
44.16340331755921
 30
0.0
 11
270.0432604245994
 21
32.16340331755933
 31
0.0
  0
LINE
  5
5B99
330
1F
100
AcDbEntity
  8
H01309
  6
Continuous
 62
     7
100
AcDbLine
 10
271.0432604245994
 20
31.16340331755933
 30
0.0
 11
271.0432604245994
 21
45.1634033175592
 31
0.0
  0
LINE
  5
5B9A
330
1F
100
AcDbEntity
  8
H01309
  6
Continuous
 62
     7
100
AcDbLine
 10
288.0432604245994
 20
31.66340331755927
 30
0.0
 11
289.5432604245994
 21
31.66340331755927
 31
0.0
  0
LINE
  5
5B9B
330
1F
100
AcDbEntity
  8
H01309
  6
Continuous
 62
     7
100
AcDbLine
 10
289.5432604245994
 20
44.66340331755927
 30
0.0
 11
288.0432604245994
 21
44.66340331755927
 31
0.0
  0
LINE
  5
5B9C
330
1F
100
AcDbEntity
  8
H01309
  6
Continuous
 62
     7
100
AcDbLine
 10
287.5432604245994
 20
31.16340331755927
 30
0.0
 11
288.0432604245994
 21
31.66340331755927
 31
0.0
  0
LINE
  5
5B9D
330
1F
100
AcDbEntity
  8
H01309
  6
Continuous
 62
     7
100
AcDbLine
 10
288.0432604245994
 20
44.66340331755927
 30
0.0
 11
287.5432604245994
 21
45.16340331755927
 31
0.0
  0
LINE
  5
5B9E
330
1F
100
AcDbEntity
  8
H01309
  6
Continuous
 62
     7
100
AcDbLine
 10
271.0432604245994
 20
31.16340331755927
 30
0.0
 11
287.5432604245994
 21
31.16340331755927
 31
0.0
  0
LINE
  5
5B9F
330
1F
100
AcDbEntity
  8
H01309
  6
Continuous
 62
     7
100
AcDbLine
 10
287.5432604245994
 20
45.16340331755927
 30
0.0
 11
271.0432604245994
 21
45.16340331755927
 31
0.0
  0
LINE
  5
5BA0
330
1F
100
AcDbEntity
  8
H01309
  6
Continuous
 62
     7
100
AcDbLine
 10
271.0432604245994
 20
45.16340331755927
 30
0.0
 11
270.0432604245994
 21
44.16340331755927
 31
0.0
  0
LINE
  5
5BA1
330
1F
100
AcDbEntity
  8
H01309
  6
Continuous
 62
     7
100
AcDbLine
 10
270.0432604245994
 20
32.16340331755927
 30
0.0
 11
271.0432604245994
 21
31.16340331755927
 31
0.0
  0
LINE
  5
5BA2
330
1F
100
AcDbEntity
  8
3000104000100
  6
Continuous
 62
     7
100
AcDbLine
 10
269.3558678157689
 20
34.44641619770218
 30
0.0
 11
269.7602475444565
 21
34.44641619770218
 31
0.0
  0
LINE
  5
5BA3
330
1F
100
AcDbEntity
  8
3000104000100
  6
Continuous
 62
     7
100
AcDbLine
 10
269.3558678157689
 20
41.88039043741629
 30
0.0
 11
269.7602475444564
 21
41.88039043741629
 31
0.0
  0
SPLINE
  5
5BA4
330
1F
100
AcDbEntity
  8
3000104000100
  6
Continuous
 62
     7
100
AcDbSpline
210
0.0
220
0.0
230
1.0
 70
     8
 71
     3
 72
    10
 73
     6
 74
     0
 42
0.0000000001
 43
0.0000000001
 40
0.2052194717954029
 40
0.2052194717954029
 40
0.2052194717954029
 40
0.2052194717954029
 40
0.5
 40
0.5
 40
1.0
 40
1.0
 40
1.0
 40
1.0
 10
269.058121226314
 20
41.68876676505897
 30
0.0
 10
269.0721686534921
 20
41.71302190864724
 30
0.0
 10
269.0959098219951
 20
41.73724011191085
 30
0.0
 10
269.1829949195831
 20
41.80154437480779
 30
0.0
 10
269.2615460678885
 20
41.84122428065822
 30
0.0
 10
269.3558678157689
 20
41.88039043741629
 30
0.0
  0
ARC
  5
5BA5
330
1F
100
AcDbEntity
  8
3000104000100
  6
Continuous
 62
     7
100
AcDbCircle
 10
273.7847861215843
 20
40.18541458340163
 30
0.0
 40
4.742178877402101
100
AcDbArc
 50
159.0578263459697
 51
161.8208161484067
  0
SPLINE
  5
5BA6
330
1F
100
AcDbEntity
  8
3000104000100
  6
Continuous
 62
     7
100
AcDbSpline
210
0.0
220
0.0
230
1.0
 70
     8
 71
     3
 72
    10
 73
     6
 74
     0
 42
0.0000000001
 43
0.0000000001
 40
0.1029422230439415
 40
0.1029422230439415
 40
0.1029422230439415
 40
0.1029422230439415
 40
0.5
 40
0.5
 40
1.0
 40
1.0
 40
1.0
 40
1.0
 10
269.0469553715412
 20
34.66339124433893
 30
0.0
 10
269.0564083047635
 20
34.63097210892498
 30
0.0
 10
269.0838125780016
 20
34.59871516312077
 30
0.0
 10
269.1814188458708
 20
34.52616073570297
 30
0.0
 10
269.2609933750538
 20
34.48581185459874
 30
0.0
 10
269.3558678157689
 20
34.44641619770218
 30
0.0
  0
LINE
  5
5BA7
330
1F
100
AcDbEntity
  8
3000104000100
  6
Continuous
 62
     7
100
AcDbLine
 10
269.0579363568284
 20
41.68882277782842
 30
0.0
 11
269.0432604245994
 21
41.66340331755924
 31
0.0
  0
LINE
  5
5BA8
330
1F
100
AcDbEntity
  8
3000104000100
  6
Continuous
 62
     7
100
AcDbLine
 10
269.0432604245994
 20
34.66340331755923
 30
0.0
 11
269.0579363568284
 21
34.63798385729004
 31
0.0
  0
LINE
  5
5BA9
330
1F
100
AcDbEntity
  8
H01170
  6
Continuous
 62
     7
100
AcDbLine
 10
330.8432604245993
 20
38.01340331755928
 30
0.0
 11
330.8432604245993
 21
38.31340331755928
 31
0.0
  0
LINE
  5
5BAA
330
1F
100
AcDbEntity
  8
H01170
  6
Continuous
 62
     7
100
AcDbLine
 10
331.2432604245994
 20
38.31340331755928
 30
0.0
 11
331.2432604245994
 21
38.01340331755928
 31
0.0
  0
LINE
  5
5BAB
330
1F
100
AcDbEntity
  8
H01311
  6
Continuous
 62
     7
100
AcDbLine
 10
269.5432604245994
 20
34.66340331755927
 30
0.0
 11
270.0432604245994
 21
34.16340331755927
 31
0.0
  0
LINE
  5
5BAC
330
1F
100
AcDbEntity
  8
H01311
  6
Continuous
 62
     7
100
AcDbLine
 10
269.0432604245994
 20
34.66340331755927
 30
0.0
 11
269.5432604245994
 21
34.66340331755927
 31
0.0
  0
ARC
  5
5BAD
330
1F
100
AcDbEntity
  8
H01311
  6
Continuous
 62
     7
100
AcDbCircle
 10
266.0432604245993
 20
38.16340331755929
 30
0.0
 40
4.000000000000004
100
AcDbArc
 50
331.04497562814
 51
28.95502437185996
  0
LINE
  5
5BAE
330
1F
100
AcDbEntity
  8
H01311
  6
Continuous
 62
     7
100
AcDbLine
 10
269.0432604245994
 20
40.09989499066299
 30
0.0
 11
269.5432604245994
 21
40.09989499066299
 31
0.0
  0
LINE
  5
5BAF
330
1F
100
AcDbEntity
  8
H01311
  6
Continuous
 62
     7
100
AcDbLine
 10
269.5432604245994
 20
36.22691164445557
 30
0.0
 11
269.0432604245994
 21
36.22691164445557
 31
0.0
  0
LINE
  5
5BB0
330
1F
100
AcDbEntity
  8
H01311
  6
Continuous
 62
     7
100
AcDbLine
 10
269.5432604245994
 20
40.09989499066299
 30
0.0
 11
269.5432604245994
 21
36.22691164445557
 31
0.0
  0
LINE
  5
5BB1
330
1F
100
AcDbEntity
  8
H01311
  6
Continuous
 62
     7
100
AcDbLine
 10
269.5432604245994
 20
41.66340331755928
 30
0.0
 11
270.0432604245994
 21
42.16340331755929
 31
0.0
  0
LINE
  5
5BB2
330
1F
100
AcDbEntity
  8
H01311
  6
Continuous
 62
     7
100
AcDbLine
 10
269.5432604245994
 20
41.66340331755928
 30
0.0
 11
269.0432604245994
 21
41.66340331755928
 31
0.0
  0
LINE
  5
5BBA
330
1F
100
AcDbEntity
  8
3034104006100
  6
Continuous
 62
     7
100
AcDbLine
 10
294.7686424179677
 20
39.46522425293439
 30
0.0
 11
296.1333614224967
 21
39.22534503608344
 31
0.0
  0
LINE
  5
5BBB
330
1F
100
AcDbEntity
  8
3034104006100
  6
Continuous
 62
     7
100
AcDbLine
 10
293.8785414200702
 20
38.40328253441025
 30
0.0
 11
294.7686424179677
 21
39.46522425293441
 31
0.0
  0
LINE
  5
5BBC
330
1F
100
AcDbEntity
  8
3034104006100
  6
Continuous
 62
     7
100
AcDbLine
 10
294.353159426702
 20
37.10146159903513
 30
0.0
 11
293.8785414200702
 21
38.40328253441025
 31
0.0
  0
LINE
  5
5BBD
330
1F
100
AcDbEntity
  8
3034104006100
  6
Continuous
 62
     7
100
AcDbLine
 10
295.7178784312311
 20
36.86158238218415
 30
0.0
 11
294.353159426702
 21
37.10146159903512
 31
0.0
  0
LINE
  5
5BBE
330
1F
100
AcDbEntity
  8
3034104006100
  6
Continuous
 62
     7
100
AcDbLine
 10
296.6079794291285
 20
37.92352410070833
 30
0.0
 11
295.7178784312311
 21
36.86158238218418
 31
0.0
  0
LINE
  5
5BBF
330
1F
100
AcDbEntity
  8
3034104006100
  6
Continuous
 62
     7
100
AcDbLine
 10
296.1333614224967
 20
39.22534503608344
 30
0.0
 11
296.6079794291285
 21
37.92352410070833
 31
0.0
  0
LINE
  5
5BCB
330
1F
100
AcDbEntity
  8
H01313
  6
Continuous
 62
     7
100
AcDbLine
 10
269.0432604245994
 20
34.16340331755927
 30
0.0
 11
269.0432604245994
 21
42.16340331755927
 31
0.0
  0
LINE
  5
5BCC
330
1F
100
AcDbEntity
  8
H01313
  6
Continuous
 62
     7
100
AcDbLine
 10
258.0432604245994
 20
34.16340331755927
 30
0.0
 11
258.0432604245994
 21
42.16340331755929
 31
0.0
  0
LINE
  5
5BCD
330
1F
100
AcDbEntity
  8
H01313
  6
Continuous
 62
     7
100
AcDbLine
 10
269.0432604245994
 20
42.16340331755929
 30
0.0
 11
258.0432604245994
 21
42.1634033175593
 31
0.0
  0
LINE
  5
5BCE
330
1F
100
AcDbEntity
  8
H01313
  6
Continuous
 62
     7
100
AcDbLine
 10
258.0432604245994
 20
34.16340331755927
 30
0.0
 11
269.0432604245994
 21
34.16340331755927
 31
0.0
  0
LINE
  5
5BCF
330
1F
100
AcDbEntity
  8
H01313
  6
Continuous
 62
     7
100
AcDbLine
 10
269.0432604245994
 20
43.66340331755927
 30
0.0
 11
269.0432604245994
 21
42.16340331755927
 31
0.0
  0
LINE
  5
5BD0
330
1F
100
AcDbEntity
  8
H01313
  6
Continuous
 62
     7
100
AcDbLine
 10
269.0432604245994
 20
34.16340331755927
 30
0.0
 11
269.0432604245994
 21
32.66340331755927
 31
0.0
  0
LINE
  5
5BD1
330
1F
100
AcDbEntity
  8
H01313
  6
Continuous
 62
     7
100
AcDbLine
 10
269.0432604245994
 20
32.66340331755927
 30
0.0
 11
258.0432604245994
 21
32.66340331755927
 31
0.0
  0
LINE
  5
5BD2
330
1F
100
AcDbEntity
  8
H01313
  6
Continuous
 62
     7
100
AcDbLine
 10
258.0432604245994
 20
42.16340331755929
 30
0.0
 11
258.0432604245994
 21
43.66340331755927
 31
0.0
  0
LINE
  5
5BD3
330
1F
100
AcDbEntity
  8
H01313
  6
Continuous
 62
     7
100
AcDbLine
 10
258.0432604245994
 20
32.66340331755927
 30
0.0
 11
258.0432604245994
 21
34.16340331755927
 31
0.0
  0
LINE
  5
5BD4
330
1F
100
AcDbEntity
  8
H01313
  6
Continuous
 62
     7
100
AcDbLine
 10
258.0432604245994
 20
43.66340331755927
 30
0.0
 11
269.0432604245994
 21
43.66340331755927
 31
0.0
  0
LINE
  5
5BDF
330
1F
100
AcDbEntity
  8
AM_7
  6
CENTER
100
AcDbLine
 10
254.5190758622112
 20
38.16340331755931
 30
0.0
 11
340.3400419169468
 21
38.1634033175593
 31
0.0
  0
LINE
  5
5BE0
330
1F
100
AcDbEntity
  8
H01308
  6
Continuous
 62
     7
100
AcDbLine
 10
335.0432604245993
 20
25.88537415975057
 30
0.0
 11
289.5432604245993
 21
25.88537415975067
 31
0.0
  0
LINE
  5
5BE2
330
1F
100
AcDbEntity
  8
AM_7
  6
CENTER
100
AcDbLine
 10
254.4796774957459
 20
-33.17969079706732
 30
0.0
 11
340.3006435504815
 21
-33.17969079706734
 31
0.0
  0
ENDSEC
  0
SECTION
  2
OBJECTS
  0
DICTIONARY
  5
C
330
0
100
AcDbDictionary
281
     1
  3
ACAD_COLOR
350
BE
  3
ACAD_GROUP
350
D
  3
ACAD_LAYOUT
350
1A
  3
ACAD_MATERIAL
350
BD
  3
ACAD_MLINESTYLE
350
17
  3
ACAD_PLOTSETTINGS
350
19
  3
ACAD_PLOTSTYLENAME
350
E
  3
ACAD_TABLESTYLE
350
11A
  3
ACDBHEADERROUNDTRIPXREC
350
5DC0
  3
AcDbVariableDictionary
350
94
  3
AcmDictionary
350
5B
  3
AMG
350
41
  3
AMGSNAPSETTINGS
350
1B8
  3
DWGPROPS
350
5DBF
  3
MAPISURF_MODULE
350
16BA
  0
DICTIONARY
  5
3F9
330
2
100
AcDbDictionary
280
     1
281
     1
  3
ACAD_LAYERFILTERS
360
5B1F
  3
ACAD_LAYERSTATES
360
12CC
  3
ACLYDICTIONARY
360
5B1E
  0
DICTIONARY
  5
547C
330
547B
100
AcDbDictionary
280
     1
281
     1
  3
ACAD_XREC_ROUNDTRIP
360
547D
  0
DICTIONARY
  5
547F
330
547E
100
AcDbDictionary
280
     1
281
     1
  3
ACAD_XREC_ROUNDTRIP
360
5480
  0
DICTIONARY
  5
5482
330
5481
100
AcDbDictionary
280
     1
281
     1
  3
ACAD_XREC_ROUNDTRIP
360
5483
  0
DICTIONARY
  5
5485
330
5484
100
AcDbDictionary
280
     1
281
     1
  3
ACAD_XREC_ROUNDTRIP
360
5486
  0
DICTIONARY
  5
5488
330
5487
100
AcDbDictionary
280
     1
281
     1
  3
ACAD_XREC_ROUNDTRIP
360
5489
  0
DICTIONARY
  5
548B
330
548A
100
AcDbDictionary
280
     1
281
     1
  3
ACAD_XREC_ROUNDTRIP
360
548C
  0
DICTIONARY
  5
548E
330
548D
100
AcDbDictionary
280
     1
281
     1
  3
ACAD_XREC_ROUNDTRIP
360
548F
  0
DICTIONARY
  5
5491
330
5490
100
AcDbDictionary
280
     1
281
     1
  3
ACAD_XREC_ROUNDTRIP
360
5492
  0
DICTIONARY
  5
5494
330
5493
100
AcDbDictionary
280
     1
281
     1
  3
ACAD_XREC_ROUNDTRIP
360
5495
  0
DICTIONARY
  5
549D
330
549C
100
AcDbDictionary
280
     1
281
     1
  3
ACAD_XREC_ROUNDTRIP
360
549E
  0
DICTIONARY
  5
54A0
330
549F
100
AcDbDictionary
280
     1
281
     1
  3
ACAD_XREC_ROUNDTRIP
360
54A1
  0
DICTIONARY
  5
8F
330
1F
100
AcDbDictionary
280
     1
281
     1
  3
ACAD_INDEX
360
5AD3
  3
ACAD_SORTENTS
360
576E
  0
DICTIONARY
  5
286B
330
286A
100
AcDbDictionary
280
     1
281
     1
  0
DICTIONARY
  5
BE
102
{ACAD_REACTORS
330
C
102
}
330
C
100
AcDbDictionary
281
     1
  0
DICTIONARY
  5
D
102
{ACAD_REACTORS
330
C
102
}
330
C
100
AcDbDictionary
281
     1
  0
DICTIONARY
  5
1A
102
{ACAD_REACTORS
330
C
102
}
330
C
100
AcDbDictionary
281
     1
  3
Model
350
22
  3
配置1
350
1E
  3
配置2
350
26
  0
DICTIONARY
  5
BD
102
{ACAD_REACTORS
330
C
102
}
330
C
100
AcDbDictionary
281
     1
  3
Global
350
AE1
  0
DICTIONARY
  5
17
102
{ACAD_REACTORS
330
C
102
}
330
C
100
AcDbDictionary
281
     1
  3
Standard
350
18
  0
DICTIONARY
  5
19
102
{ACAD_REACTORS
330
C
102
}
330
C
100
AcDbDictionary
281
     1
  0
ACDBDICTIONARYWDFLT
  5
E
102
{ACAD_REACTORS
330
C
102
}
330
C
100
AcDbDictionary
281
     1
  3
Normal
350
F
100
AcDbDictionaryWithDefault
340
F
  0
DICTIONARY
  5
11A
102
{ACAD_REACTORS
330
C
102
}
330
C
100
AcDbDictionary
281
     1
  3
Standard
350
11B
  0
DICTIONARY
  5
5DC0
102
{ACAD_REACTORS
330
C
102
}
330
C
100
AcDbDictionary
281
     1
  0
DICTIONARY
  5
94
102
{ACAD_REACTORS
330
C
102
}
330
C
100
AcDbDictionary
281
     1
  3
CTABLESTYLE
350
138
  3
DIMASSOC
350
96
  3
INDEXCTL
350
95
  3
PROJECTNAME
350
1628
  0
DICTIONARY
  5
5B
102
{ACAD_REACTORS
330
C
102
}
330
C
100
AcDbDictionary
281
     1
  3
AcmBOM
350
1B5
  3
AcmStdDictionary
350
61
  3
AMDTSECTSYM_ARROWCOLOR
350
123
  0
DICTIONARY
  5
41
102
{ACAD_REACTORS
330
C
102
}
330
C
100
AcDbDictionary
281
     1
  3
AcMgSettings
350
1634
  0
DICTIONARY
  5
1B8
102
{ACAD_REACTORS
330
C
102
}
330
C
100
AcDbDictionary
281
     1
  0
XRECORD
  5
5DBF
102
{ACAD_REACTORS
330
C
102
}
330
C
100
AcDbXrecord
280
     1
  1
DWGPROPS COOKIE
  2

  3

  4

  6

  7

  8

  9

300
AmdtFileType=84
301
=
302
=
303
=
304
=
305
=
306
=
307
=
308
=
309
=
 40
1.034068657407407
 41
2454511.659716065
 42
2456272.631603368
  1

 90
        1
  0
DICTIONARY
  5
5B1F
102
{ACAD_REACTORS
330
3F9
102
}
330
3F9
100
AcDbDictionary
281
     1
  0
DICTIONARY
  5
12CC
102
{ACAD_REACTORS
330
3F9
102
}
330
3F9
100
AcDbDictionary
281
     1
  0
DICTIONARY
  5
5B1E
102
{ACAD_REACTORS
330
3F9
102
}
330
3F9
100
AcDbDictionary
281
     1
1001
ACAD
1000
<All
  0
XRECORD
  5
547D
102
{ACAD_REACTORS
330
547C
102
}
330
547C
100
AcDbXrecord
280
     1
102
MATERIAL
340
AE1
  0
XRECORD
  5
5480
102
{ACAD_REACTORS
330
547F
102
}
330
547F
100
AcDbXrecord
280
     1
102
MATERIAL
340
AE1
  0
XRECORD
  5
5483
102
{ACAD_REACTORS
330
5482
102
}
330
5482
100
AcDbXrecord
280
     1
102
MATERIAL
340
AE1
  0
XRECORD
  5
5486
102
{ACAD_REACTORS
330
5485
102
}
330
5485
100
AcDbXrecord
280
     1
102
MATERIAL
340
AE1
  0
XRECORD
  5
5489
102
{ACAD_REACTORS
330
5488
102
}
330
5488
100
AcDbXrecord
280
     1
102
MATERIAL
340
AE1
  0
XRECORD
  5
548C
102
{ACAD_REACTORS
330
548B
102
}
330
548B
100
AcDbXrecord
280
     1
102
MATERIAL
340
AE1
  0
XRECORD
  5
548F
102
{ACAD_REACTORS
330
548E
102
}
330
548E
100
AcDbXrecord
280
     1
102
MATERIAL
340
AE1
  0
XRECORD
  5
5492
102
{ACAD_REACTORS
330
5491
102
}
330
5491
100
AcDbXrecord
280
     1
102
MATERIAL
340
AE1
  0
XRECORD
  5
5495
102
{ACAD_REACTORS
330
5494
102
}
330
5494
100
AcDbXrecord
280
     1
102
MATERIAL
340
AE1
  0
XRECORD
  5
549E
102
{ACAD_REACTORS
330
549D
102
}
330
549D
100
AcDbXrecord
280
     1
102
MATERIAL
340
AE1
  0
XRECORD
  5
54A1
102
{ACAD_REACTORS
330
54A0
102
}
330
54A0
100
AcDbXrecord
280
     1
102
MATERIAL
340
AE1
  0
DICTIONARY
  5
5AD3
102
{ACAD_REACTORS
330
8F
102
}
330
8F
100
AcDbDictionary
281
     1
  3
*A1
350
5AD4
  0
SORTENTSTABLE
  5
576E
102
{ACAD_REACTORS
330
8F
102
}
330
8F
100
AcDbSortentsTable
330
1F
331
5B63
  5
5BD4
331
54EA
  5
5BB2
331
570E
  5
5B5A
331
5B9F
  5
5716
331
5730
  5
5B7C
331
155F
  5
155F
331
1535
  5
1535
331
54E1
  5
5BA9
331
5B74
  5
54EE
331
56FD
  5
5867
331
571F
  5
5B6B
331
5BB0
  5
5727
331
5BD2
  5
575D
331
575D
  5
5B99
331
152C
  5
152C
331
150A
  5
150A
331
14E8
  5
14E8
331
54E8
  5
5BB0
331
5B61
  5
5BD2
331
570C
  5
5B4C
331
5B9D
  5
5714
331
572E
  5
5B7A
331
5BBF
  5
5745
331
155D
  5
155D
331
1533
  5
1533
331
1519
  5
1519
331
54DF
  5
5BA7
331
56FB
  5
576D
331
571D
  5
5B69
331
5BAE
  5
5725
331
573F
  5
5B89
331
5BD0
  5
575A
331
152A
  5
152A
331
1508
  5
1508
331
14F7
  5
14F7
331
14E6
  5
14E6
331
570A
  5
5B4A
331
5B9B
  5
5712
331
572C
  5
5B78
331
5BBD
  5
5743
331
5748
  5
5B8B
331
155B
  5
155B
331
1531
  5
1531
331
5B70
  5
54EA
331
56F9
  5
576B
331
5B8A
  5
5701
331
571B
  5
5B67
331
5BAC
  5
5723
331
5BCE
  5
5755
331
5759
  5
5B96
331
1542
  5
1542
331
1528
  5
1528
331
1506
  5
1506
331
5B5F
  5
5BD0
331
1517
  5
1517
331
14F5
  5
14F5
331
14E4
  5
14E4
331
5708
  5
5B48
331
5B99
  5
5710
331
572A
  5
5B76
331
5BBB
  5
5741
331
5768
  5
5BA4
331
1559
  5
1559
331
54DB
  5
54DE
331
5B4C
  5
5BC9
331
5B6E
  5
54E8
331
56F7
  5
5769
331
5719
  5
5B65
331
5BAA
  5
5721
331
573B
  5
5B87
331
5BCC
  5
5753
331
5868
  5
5BBB
331
5757
  5
5B94
331
1540
  5
1540
331
1526
  5
1526
331
1504
  5
1504
331
5B3B
  5
5BC0
331
5B5D
  5
5BCE
331
14F3
  5
14F3
331
14E2
  5
14E2
331
5728
  5
5B74
331
5766
  5
5BA2
331
5B4A
  5
5BC7
331
5B6C
  5
54E6
331
56F5
  5
5767
331
5717
  5
5B63
331
5BA8
  5
571F
331
5739
  5
5B85
331
5866
  5
5BB9
331
5755
  5
5B92
331
153E
  5
153E
331
1524
  5
1524
331
5B39
  5
5BBF
331
5B5B
  5
5BCC
331
5706
  5
5B46
331
5B97
  5
570E
331
1557
  5
1557
331
1513
  5
1513
331
14F1
  5
14F1
331
14E0
  5
14E0
331
5742
  5
5B8A
331
5764
  5
5BA0
331
5AAF
  5
5BBD
331
54D7
  5
54D7
331
5B48
  5
5BC5
331
5B6A
  5
54E4
331
56F3
  5
5765
331
5715
  5
5B61
331
5BA6
  5
571D
331
5737
  5
5B83
331
5753
  5
5B90
331
1566
  5
1566
331
153C
  5
153C
331
1522
  5
1522
331
1500
  5
1500
331
5B59
  5
5BCA
331
5704
  5
5B3C
331
5726
  5
5B72
331
1555
  5
1555
331
14EF
  5
14EF
331
5762
  5
5B9E
331
54D5
  5
54D5
331
5B46
  5
5BC3
331
54EF
  5
5BB7
331
56F1
  5
5763
331
5713
  5
5B5F
331
5BA4
  5
571B
331
5735
  5
5B81
331
5751
  5
5B8E
331
153A
  5
153A
331
1520
  5
1520
331
54E6
  5
5BAE
331
5702
  5
5B39
331
5724
  5
5B70
331
1553
  5
1553
331
150F
  5
150F
331
14ED
  5
14ED
331
5760
  5
5B9C
331
54ED
  5
5BB5
331
56EF
  5
5761
331
5711
  5
5B5D
331
5BA2
  5
5719
331
5733
  5
5B7F
331
574F
  5
5B8C
331
1562
  5
1562
331
1538
  5
1538
331
151E
  5
151E
331
54E4
  5
5BAC
331
5B77
  5
56EE
331
5700
  5
5AAF
331
5722
  5
5B6E
331
5B91
  5
5708
331
1551
  5
1551
331
152F
  5
152F
331
14EB
  5
14EB
331
5B64
  5
5BD5
331
54EB
  5
5BB3
331
570F
  5
5B5B
331
5BA0
  5
5717
331
5731
  5
5B7D
331
1560
  5
1560
331
1536
  5
1536
331
54E2
  5
5BAA
331
5B75
  5
54EF
331
56FE
  5
5868
331
5720
  5
5B6C
331
5BB1
  5
5728
331
5BD3
  5
575E
331
575E
  5
5B9A
331
152D
  5
152D
331
150B
  5
150B
331
14E9
  5
14E9
331
5B62
  5
5BD3
331
54E9
  5
5BB1
331
570D
  5
5B59
331
5B9E
  5
5715
331
572F
  5
5B7B
331
576D
  5
5BA6
331
155E
  5
155E
331
1534
  5
1534
331
54E0
  5
5BA8
331
56FC
  5
5866
331
571E
  5
5B6A
331
5BAF
  5
5726
331
5BD1
  5
575C
331
575C
  5
5B98
331
152B
  5
152B
331
1509
  5
1509
331
14E7
  5
14E7
331
5B60
  5
5BD1
331
5B7A
  5
56F1
331
570B
  5
5B4B
331
5B9C
  5
5713
331
572D
  5
5B79
331
5BBE
  5
5744
331
155C
  5
155C
331
1532
  5
1532
331
1518
  5
1518
331
56FA
  5
576C
331
571C
  5
5B68
331
5BAD
  5
5724
331
5BCF
  5
5756
331
575A
  5
5B97
331
1543
  5
1543
331
1529
  5
1529
331
1507
  5
1507
331
14F6
  5
14F6
331
14E5
  5
14E5
331
5B78
  5
56EF
331
5709
  5
5B49
331
2689
  5
2689
331
5B9A
  5
5711
331
572B
  5
5B77
331
5BBC
  5
5742
331
5769
  5
5BA5
331
155A
  5
155A
331
1530
  5
1530
331
5B6F
  5
54E9
331
56F8
  5
576A
331
5B89
  5
5700
331
571A
  5
5B66
331
5BAB
  5
5722
331
573C
  5
5B88
331
5BCD
  5
5754
331
5869
  5
5BBC
331
5758
  5
5B95
331
1541
  5
1541
331
1527
  5
1527
331
1505
  5
1505
331
5B3C
  5
5BC1
331
5B5E
  5
5BCF
331
14F4
  5
14F4
331
14E3
  5
14E3
331
5B98
  5
570F
331
5729
  5
5B75
331
5BBA
  5
5740
331
5767
  5
5BA3
331
1558
  5
1558
331
5B4B
  5
5BC8
331
5B6D
  5
54E7
331
56F6
  5
5768
331
5718
  5
5B64
331
5BA9
  5
5720
331
573A
  5
5B86
331
5BCB
  5
5752
331
5867
  5
5BBA
331
5756
  5
5B93
331
153F
  5
153F
331
1525
  5
1525
331
5B5C
  5
5BCD
331
5707
  5
5B47
331
14F2
  5
14F2
331
14E1
  5
14E1
331
5765
  5
5BA1
331
5B49
  5
5BC6
331
5B6B
  5
54E5
331
56F4
  5
5766
331
5716
  5
5B62
331
5BA7
  5
571E
331
5738
  5
5B84
331
5754
  5
5B91
331
1567
  5
1567
331
153D
  5
153D
331
1523
  5
1523
331
5B38
  5
5BBE
331
5B5A
  5
5BCB
331
5705
  5
5B45
331
5727
  5
5B73
331
5B96
  5
570D
331
1556
  5
1556
331
14F0
  5
14F0
331
5763
  5
5B9F
331
54D6
  5
54D6
331
5B47
  5
5BC4
331
54F0
  5
5BB8
331
5B69
  5
54E3
331
56F2
  5
5764
331
5714
  5
5B60
331
5BA5
  5
571C
331
5736
  5
5B82
331
5752
  5
5B8F
331
1565
  5
1565
331
153B
  5
153B
331
1521
  5
1521
331
14FF
  5
14FF
331
54E7
  5
5BAF
331
5703
  5
5B3B
331
5725
  5
5B71
331
1554
  5
1554
331
14EE
  5
14EE
331
5761
  5
5B9D
331
5B45
  5
5BC2
331
54EE
  5
5BB6
331
5B67
  5
54E1
331
56F0
  5
5762
331
5712
  5
5B5E
331
5BA3
  5
571A
331
5734
  5
5B80
331
5750
  5
5B8D
331
1563
  5
1563
331
1539
  5
1539
331
151F
  5
151F
331
54E5
  5
5BAD
331
5701
  5
5B38
331
5723
  5
5B6F
331
5B92
  5
5709
331
1552
  5
1552
331
14EC
  5
14EC
331
54EC
  5
5BB4
331
56EE
  5
5760
331
5710
  5
5B5C
331
5BA1
  5
5718
331
5732
  5
5B7E
331
1561
  5
1561
331
1537
  5
1537
331
151D
  5
151D
331
14FB
  5
14FB
331
54E3
  5
5BAB
331
5B76
  5
54F0
331
56FF
  5
5869
331
5721
  5
5B6D
331
5BB2
  5
5729
331
5BD4
  5
575F
331
575F
  5
5B9B
331
1550
  5
1550
331
152E
  5
152E
331
14EA
  5
14EA
  0
LAYOUT
  5
22
102
{ACAD_XDICTIONARY
360
5DC3
102
}
102
{ACAD_REACTORS
330
1A
102
}
330
1A
100
AcDbPlotSettings
  1

  2
\\RD\EPSON Stylus C63 Series單色
  4
A4
  6

 40
3.757083177566528
 41
3.757076978683471
 42
3.757080078125
 43
3.757080078125
 44
209.9733276367187
 45
296.9683227539062
 46
0.0
 47
0.0
 48
0.0
 49
0.0
140
0.0
141
0.0
142
1.0
143
0.3405120737814363
 70
 11952
 72
     1
 73
     0
 74
     0
  7
彩色出圖.ctb
 75
     0
147
2.936753428137963
148
-2047.07469463503
149
-1261.649717473083
100
AcDbLayout
  1
Model
 70
     1
 71
     0
 10
0.0
 20
0.0
 11
12.0
 21
9.0
 12
0.0
 22
0.0
 32
0.0
 14
0.0
 24
0.0
 34
0.0
 15
0.0
 25
0.0
 35
0.0
146
0.0
 13
0.0
 23
0.0
 33
0.0
 16
1.0
 26
0.0
 36
0.0
 17
0.0
 27
1.0
 37
0.0
 76
     0
330
1F
1001
ACAD_PSEXT
1000
\\RD\EPSON Stylus C63 Series單色
1000
EPSON Stylus C63 Series
1000
\\RD
1000

1070
     0
  0
LAYOUT
  5
1E
102
{ACAD_XDICTIONARY
360
5DC1
102
}
102
{ACAD_REACTORS
330
1A
102
}
330
1A
100
AcDbPlotSettings
  1

  2

  4

  6

 40
0.0
 41
0.0
 42
0.0
 43
0.0
 44
0.0
 45
0.0
 46
0.0
 47
0.0
 48
0.0
 49
0.0
140
0.0
141
0.0
142
1.0
143
1.0
 70
   688
 72
     0
 73
     0
 74
     5
  7
彩色出圖.ctb
 75
    16
147
1.0
148
0.0
149
0.0
100
AcDbLayout
  1
配置1
 70
     1
 71
     1
 10
0.0
 20
0.0
 11
420.0
 21
297.0
 12
0.0
 22
0.0
 32
0.0
 14
1.000000000000000E+20
 24
1.000000000000000E+20
 34
1.000000000000000E+20
 15
-1.000000000000000E+20
 25
-1.000000000000000E+20
 35
-1.000000000000000E+20
146
0.0
 13
0.0
 23
0.0
 33
0.0
 16
1.0
 26
0.0
 36
0.0
 17
0.0
 27
1.0
 37
0.0
 76
     0
330
1B
  0
LAYOUT
  5
26
102
{ACAD_XDICTIONARY
360
5DC5
102
}
102
{ACAD_REACTORS
330
1A
102
}
330
1A
100
AcDbPlotSettings
  1

  2

  4

  6

 40
0.0
 41
0.0
 42
0.0
 43
0.0
 44
0.0
 45
0.0
 46
0.0
 47
0.0
 48
0.0
 49
0.0
140
0.0
141
0.0
142
1.0
143
1.0
 70
   688
 72
     0
 73
     0
 74
     5
  7
彩色出圖.ctb
 75
    16
147
1.0
148
0.0
149
0.0
100
AcDbLayout
  1
配置2
 70
     1
 71
     2
 10
0.0
 20
0.0
 11
12.0
 21
9.0
 12
0.0
 22
0.0
 32
0.0
 14
0.0
 24
0.0
 34
0.0
 15
0.0
 25
0.0
 35
0.0
146
0.0
 13
0.0
 23
0.0
 33
0.0
 16
1.0
 26
0.0
 36
0.0
 17
0.0
 27
1.0
 37
0.0
 76
     0
330
23
  0
MATERIAL
  5
AE1
102
{ACAD_XDICTIONARY
360
AE2
102
}
102
{ACAD_REACTORS
330
BD
102
}
330
BD
100
AcDbMaterial
  1
Global
  0
MLINESTYLE
  5
18
102
{ACAD_REACTORS
330
17
102
}
330
17
100
AcDbMlineStyle
  2
STANDARD
 70
     0
  3

 62
   256
 51
90.0
 52
90.0
 71
     2
 49
0.5
 62
   256
  6
BYLAYER
 49
-0.5
 62
   256
  6
BYLAYER
  0
ACDBPLACEHOLDER
  5
F
102
{ACAD_REACTORS
330
E
102
}
330
E
  0
TABLESTYLE
  5
11B
102
{ACAD_REACTORS
330
11A
102
}
330
11A
100
AcDbTableStyle
  3
Standard
 70
     0
 71
     0
 40
1.5
 41
1.5
280
     0
281
     0
  7
STANDARD
140
4.5
170
     2
 62
     0
 63
     7
283
     0
274
    -2
284
     1
 64
     0
275
    -2
285
     1
 65
     0
276
    -2
286
     1
 66
     0
277
    -2
287
     1
 67
     0
278
    -2
288
     1
 68
     0
279
    -2
289
     1
 69
     0
  7
STANDARD
140
6.0
170
     5
 62
     0
 63
     7
283
     0
274
    -2
284
     1
 64
     0
275
    -2
285
     1
 65
     0
276
    -2
286
     1
 66
     0
277
    -2
287
     1
 67
     0
278
    -2
288
     1
 68
     0
279
    -2
289
     1
 69
     0
  7
STANDARD
140
4.5
170
     5
 62
     0
 63
     7
283
     0
274
    -2
284
     1
 64
     0
275
    -2
285
     1
 65
     0
276
    -2
286
     1
 66
     0
277
    -2
287
     1
 67
     0
278
    -2
288
     1
 68
     0
279
    -2
289
     1
 69
     0
  0
DICTIONARYVAR
  5
138
102
{ACAD_REACTORS
330
94
102
}
330
94
100
DictionaryVariables
280
     0
  1
STANDARD
  0
DICTIONARYVAR
  5
96
102
{ACAD_REACTORS
330
94
102
}
330
94
100
DictionaryVariables
280
     0
  1
2
  0
DICTIONARYVAR
  5
95
102
{ACAD_REACTORS
330
94
102
}
330
94
100
DictionaryVariables
280
     0
  1
1
  0
DICTIONARYVAR
  5
1628
102
{ACAD_REACTORS
330
94
102
}
330
94
100
DictionaryVariables
280
     0
  1

  0
DICTIONARY
  5
1B5
102
{ACAD_REACTORS
330
5B
102
}
330
5B
100
AcDbDictionary
281
     1
  0
DICTIONARY
  5
61
102
{ACAD_REACTORS
330
5B
102
}
330
5B
100
AcDbDictionary
281
     1
  0
XRECORD
  5
123
102
{ACAD_REACTORS
330
5B
102
}
330
5B
100
AcDbXrecord
280
     1
 90
-1023410169
  0
DICTIONARY
  5
1634
102
{ACAD_REACTORS
330
41
102
}
330
41
100
AcDbDictionary
281
     1
  3
DWGSETTINGS
350
1635
  3
Shaft
350
2638
  3
TRANSSETTINGS
350
1638
  0
LAYER_INDEX
  5
5AD4
102
{ACAD_REACTORS
330
5AD3
102
}
330
5AD3
100
AcDbIndex
 40
2456272.631603368
100
AcDbLayerIndex
  8
0
360
5AD5
 90
        3
  8
AM_7
360
5AD8
 90
       26
  8
LOGO
360
5AD9
 90
      103
  8
AM_5
360
5ADA
 90
        5
  8
Defpoints
360
5ADB
 90
        0
  8
AM_VIS
360
5ADC
 90
        0
  8
AM_4
360
5ADD
 90
        7
  8
AM_REFDIM
360
5ADE
 90
       17
  8
AM_10
360
5ADF
 90
        0
  8
Default
360
5AE5
 90
        5
  8
H01308
360
5AE6
 90
       93
  8
H01309
360
5AE7
 90
       14
  8
3000104000100
360
5AE8
 90
        7
  8
H01170
360
5AE9
 90
        2
  8
H01311
360
5AEA
 90
        8
  8
3034104006100
360
5AEB
 90
        6
  8
H01313
360
5AEC
 90
       23
  8
H01166-M4
360
5AED
 90
        1
  8
3121018000100
360
5AF0
 90
       12
  8
H01310
360
5AF1
 90
        1
  0
DICTIONARY
  5
5DC3
330
22
100
AcDbDictionary
280
     1
281
     1
  3
ACAD_XREC_ROUNDTRIP
360
5DC4
  0
DICTIONARY
  5
5DC1
330
1E
100
AcDbDictionary
280
     1
281
     1
  3
ACAD_XREC_ROUNDTRIP
360
5DC2
  0
DICTIONARY
  5
5DC5
330
26
100
AcDbDictionary
280
     1
281
     1
  3
ACAD_XREC_ROUNDTRIP
360
5DC6
  0
DICTIONARY
  5
AE2
330
AE1
100
AcDbDictionary
280
     1
281
     1
  3
ACAD_XREC_ROUNDTRIP
360
AE3
  0
IDBUFFER
  5
5AD5
330
0
100
AcDbIdBuffer
330
1591
330
1592
330
1593
  0
IDBUFFER
  5
5AD8
330
0
100
AcDbIdBuffer
330
5BE2
330
5BDF
330
5B64
330
5B63
330
5B62
330
5B61
330
5B60
330
5B5F
330
5B5E
330
5B38
330
5B39
330
5B3B
330
5B3C
330
5B45
330
5B46
330
5B47
330
5B48
330
5B49
330
5B4A
330
5B4B
330
5B4C
330
5B59
330
5B5A
330
5B5B
330
5B5C
330
5B5D
  0
IDBUFFER
  5
5AD9
330
0
100
AcDbIdBuffer
330
1525
330
1526
330
1527
330
1528
330
1529
330
152A
330
152B
330
152C
330
152D
330
152E
330
152F
330
1530
330
1531
330
1532
330
1533
330
1534
330
1535
330
1536
330
1537
330
1538
330
1539
330
153A
330
153B
330
153C
330
153D
330
153E
330
153F
330
1540
330
1541
330
1542
330
1543
330
1550
330
1551
330
1552
330
1553
330
1554
330
1555
330
1556
330
1557
330
1558
330
1559
330
155A
330
155B
330
155C
330
155D
330
155E
330
155F
330
1560
330
1561
330
1562
330
1563
330
1565
330
1566
330
1567
330
2689
330
14E0
330
14E1
330
14E2
330
14E3
330
14E4
330
14E5
330
14E6
330
14E7
330
14E8
330
14E9
330
14EA
330
14EB
330
14EC
330
14ED
330
14EE
330
14EF
330
14F0
330
14F1
330
14F2
330
14F3
330
14F4
330
14F5
330
14F6
330
14F7
330
14FB
330
14FF
330
1500
330
1504
330
1505
330
1506
330
1507
330
1508
330
1509
330
150A
330
150B
330
150F
330
1513
330
1517
330
1518
330
1519
330
151D
330
151E
330
151F
330
1520
330
1521
330
1522
330
1523
330
1524
  0
IDBUFFER
  5
5ADA
330
0
100
AcDbIdBuffer
330
5AAF
330
5869
330
5868
330
5867
330
5866
  0
IDBUFFER
  5
5ADB
330
0
100
AcDbIdBuffer
  0
IDBUFFER
  5
5ADC
330
0
100
AcDbIdBuffer
  0
IDBUFFER
  5
5ADD
330
0
100
AcDbIdBuffer
330
576D
330
5B92
330
5B91
330
573C
330
573B
330
573A
330
5739
  0
IDBUFFER
  5
5ADE
330
0
100
AcDbIdBuffer
330
54F0
330
54EF
330
54DF
330
54E0
330
54E1
330
54E2
330
54E3
330
54E4
330
54E5
330
54E6
330
54E7
330
54E8
330
54E9
330
54EB
330
54EC
330
54ED
330
54EE
  0
IDBUFFER
  5
5ADF
330
0
100
AcDbIdBuffer
  0
IDBUFFER
  5
5AE5
330
0
100
AcDbIdBuffer
330
54EA
330
54DB
330
54D5
330
54D7
330
54D6
  0
IDBUFFER
  5
5AE6
330
0
100
AcDbIdBuffer
330
571E
330
571F
330
5720
330
5721
330
5722
330
5723
330
5724
330
5725
330
5726
330
5727
330
5728
330
5729
330
572A
330
572B
330
572C
330
572D
330
572E
330
572F
330
5730
330
5731
330
5732
330
5733
330
5734
330
5735
330
5736
330
5737
330
5738
330
5BE0
330
5B8A
330
5B89
330
5B7A
330
5B67
330
5B69
330
5B6A
330
5B6B
330
5B6C
330
5B6D
330
5B6E
330
5B6F
330
5B70
330
5B74
330
5B75
330
5B76
330
5B77
330
5B78
330
56EE
330
56EF
330
56F0
330
56F1
330
56F2
330
56F3
330
56F4
330
56F5
330
56F6
330
56F7
330
56F8
330
56F9
330
56FA
330
56FB
330
56FC
330
56FD
330
56FE
330
56FF
330
5700
330
5701
330
5702
330
5703
330
5704
330
5705
330
5706
330
5707
330
5708
330
5709
330
570A
330
570B
330
570C
330
570D
330
570E
330
570F
330
5710
330
5711
330
5712
330
5713
330
5714
330
5715
330
5716
330
5717
330
5718
330
5719
330
571A
330
571B
330
571C
330
571D
  0
IDBUFFER
  5
5AE7
330
0
100
AcDbIdBuffer
330
573F
330
5742
330
5B96
330
5B97
330
5B98
330
5B99
330
5B9A
330
5B9B
330
5B9C
330
5B9D
330
5B9E
330
5B9F
330
5BA0
330
5BA1
  0
IDBUFFER
  5
5AE8
330
0
100
AcDbIdBuffer
330
5BA2
330
5BA3
330
5BA4
330
5BA5
330
5BA6
330
5BA7
330
5BA8
  0
IDBUFFER
  5
5AE9
330
0
100
AcDbIdBuffer
330
5BA9
330
5BAA
  0
IDBUFFER
  5
5AEA
330
0
100
AcDbIdBuffer
330
5BAB
330
5BAC
330
5BAD
330
5BAE
330
5BAF
330
5BB0
330
5BB1
330
5BB2
  0
IDBUFFER
  5
5AEB
330
0
100
AcDbIdBuffer
330
5BBA
330
5BBB
330
5BBC
330
5BBD
330
5BBE
330
5BBF
  0
IDBUFFER
  5
5AEC
330
0
100
AcDbIdBuffer
330
5BCE
330
5BCF
330
5BD0
330
5BD1
330
5BD2
330
5BD3
330
5BD4
330
574F
330
5750
330
5751
330
5752
330
5753
330
5754
330
5755
330
5756
330
5757
330
5758
330
5759
330
575A
330
575C
330
5BCB
330
5BCC
330
5BCD
  0
IDBUFFER
  5
5AED
330
0
100
AcDbIdBuffer
330
5748
  0
IDBUFFER
  5
5AF0
330
0
100
AcDbIdBuffer
330
575D
330
575E
330
575F
330
5760
330
5761
330
5762
330
5763
330
5764
330
5765
330
5766
330
5767
330
5768
  0
IDBUFFER
  5
5AF1
330
0
100
AcDbIdBuffer
330
5769
  0
XRECORD
  5
5DC4
102
{ACAD_REACTORS
330
5DC3
102
}
330
5DC3
100
AcDbXrecord
280
     1
102
SHADEPLOT
 70
     0
102
SHADEPLOTRESLEVEL
 70
     2
102
SHADEPLOTCUSTOMDPI
 70
   300
  0
XRECORD
  5
5DC2
102
{ACAD_REACTORS
330
5DC1
102
}
330
5DC1
100
AcDbXrecord
280
     1
102
SHADEPLOT
 70
     0
102
SHADEPLOTRESLEVEL
 70
     2
102
SHADEPLOTCUSTOMDPI
 70
   300
  0
XRECORD
  5
5DC6
102
{ACAD_REACTORS
330
5DC5
102
}
330
5DC5
100
AcDbXrecord
280
     1
102
SHADEPLOT
 70
     0
102
SHADEPLOTRESLEVEL
 70
     2
102
SHADEPLOTCUSTOMDPI
 70
   300
  0
XRECORD
  5
AE3
102
{ACAD_REACTORS
330
AE2
102
}
330
AE2
100
AcDbXrecord
280
     1
102
MATERIAL
148
0.0
149
0.0
149
0.0
 93
        0
 94
       63
282
     0
 72
     1
 77
     1
171
     1
175
     1
179
     1
273
     0
  0
ENDSEC
  0
EOF
