  0
SECTION
  2
HEADER
  9
$ACADVER
  1
AC1015
  9
$ACADMAINTVER
 70
    20
  9
$DWGCODEPAGE
  3
ANSI_950
  9
$INSBASE
 10
0.0
 20
0.0
 30
0.0
  9
$EXTMIN
 10
118.3924563099635
 20
-117.5552952864573
 30
-0.0000000000000009
  9
$EXTMAX
 10
451.6257640924127
 20
157.5791892008699
 30
229.3510200800871
  9
$LIMMIN
 10
0.0
 20
0.0
  9
$LIMMAX
 10
420.0
 20
297.0
  9
$ORTHOMODE
 70
     0
  9
$REGENMODE
 70
     1
  9
$FILLMODE
 70
     1
  9
$QTEXTMODE
 70
     0
  9
$MIRRTEXT
 70
     1
  9
$LTSCALE
 40
1.0
  9
$ATTMODE
 70
     1
  9
$TEXTSIZE
 40
3.0
  9
$TRACEWID
 40
1.0
  9
$TEXTSTYLE
  7
STANDARD
  9
$CLAYER
  8
0
  9
$CELTYPE
  6
ByLayer
  9
$CECOLOR
 62
   256
  9
$CELTSCALE
 40
1.0
  9
$DISPSILH
 70
     0
  9
$DIMSCALE
 40
1.0
  9
$DIMASZ
 40
3.0
  9
$DIMEXO
 40
1.5
  9
$DIMDLI
 40
8.0
  9
$DIMRND
 40
0.0
  9
$DIMDLE
 40
0.0
  9
$DIMEXE
 40
1.5
  9
$DIMTP
 40
0.1
  9
$DIMTM
 40
0.1
  9
$DIMTXT
 40
3.5
  9
$DIMCEN
 40
0.0
  9
$DIMTSZ
 40
0.0
  9
$DIMTOL
 70
     0
  9
$DIMLIM
 70
     0
  9
$DIMTIH
 70
     0
  9
$DIMTOH
 70
     0
  9
$DIMSE1
 70
     0
  9
$DIMSE2
 70
     0
  9
$DIMTAD
 70
     1
  9
$DIMZIN
 70
     8
  9
$DIMBLK
  1

  9
$DIMASO
 70
     1
  9
$DIMSHO
 70
     1
  9
$DIMPOST
  1

  9
$DIMAPOST
  1
"
  9
$DIMALT
 70
     0
  9
$DIMALTD
 70
     2
  9
$DIMALTF
 40
0.0393701
  9
$DIMLFAC
 40
1.0
  9
$DIMTOFL
 70
     1
  9
$DIMTVP
 40
0.0
  9
$DIMTIX
 70
     0
  9
$DIMSOXD
 70
     0
  9
$DIMSAH
 70
     0
  9
$DIMBLK1
  1

  9
$DIMBLK2
  1

  9
$DIMSTYLE
  2
AM_ISO
  9
$DIMCLRD
 70
   256
  9
$DIMCLRE
 70
   256
  9
$DIMCLRT
 70
   256
  9
$DIMTFAC
 40
0.6
  9
$DIMGAP
 40
1.0
  9
$DIMJUST
 70
     0
  9
$DIMSD1
 70
     0
  9
$DIMSD2
 70
     0
  9
$DIMTOLJ
 70
     0
  9
$DIMTZIN
 70
     8
  9
$DIMALTZ
 70
     0
  9
$DIMALTTZ
 70
     0
  9
$DIMUPT
 70
     0
  9
$DIMDEC
 70
     2
  9
$DIMTDEC
 70
     8
  9
$DIMALTU
 70
     2
  9
$DIMALTTD
 70
     2
  9
$DIMTXSTY
  7
STANDARD
  9
$DIMAUNIT
 70
     0
  9
$DIMADEC
 70
     0
  9
$DIMALTRND
 40
0.0
  9
$DIMAZIN
 70
     2
  9
$DIMDSEP
 70
    46
  9
$DIMATFIT
 70
     3
  9
$DIMFRAC
 70
     0
  9
$DIMLDRBLK
  1

  9
$DIMLUNIT
 70
     2
  9
$DIMLWD
 70
    -1
  9
$DIMLWE
 70
    -1
  9
$DIMTMOVE
 70
     0
  9
$LUNITS
 70
     2
  9
$LUPREC
 70
     2
  9
$SKETCHINC
 40
1.0
  9
$FILLETRAD
 40
2.5
  9
$AUNITS
 70
     0
  9
$AUPREC
 70
     0
  9
$MENU
  1
.
  9
$ELEVATION
 40
0.0
  9
$PELEVATION
 40
0.0
  9
$THICKNESS
 40
0.0
  9
$LIMCHECK
 70
     0
  9
$CHAMFERA
 40
2.5
  9
$CHAMFERB
 40
2.5
  9
$CHAMFERC
 40
20.0
  9
$CHAMFERD
 40
0.0
  9
$SKPOLY
 70
     0
  9
$TDCREATE
 40
2454511.659716065
  9
$TDUCREATE
 40
2454511.326382732
  9
$TDUPDATE
 40
2456133.599340995
  9
$TDUUPDATE
 40
2456133.266007662
  9
$TDINDWG
 40
0.8930515856
  9
$TDUSRTIMER
 40
0.8930515856
  9
$USRTIMER
 70
     1
  9
$ANGBASE
 50
0.0
  9
$ANGDIR
 70
     0
  9
$PDMODE
 70
     0
  9
$PDSIZE
 40
0.0
  9
$PLINEWID
 40
0.0
  9
$SPLFRAME
 70
     0
  9
$SPLINETYPE
 70
     6
  9
$SPLINESEGS
 70
     8
  9
$HANDSEED
  5
3707
  9
$SURFTAB1
 70
     6
  9
$SURFTAB2
 70
     6
  9
$SURFTYPE
 70
     6
  9
$SURFU
 70
     6
  9
$SURFV
 70
     6
  9
$UCSBASE
  2

  9
$UCSNAME
  2

  9
$UCSORG
 10
0.0
 20
0.0
 30
0.0
  9
$UCSXDIR
 10
1.0
 20
0.0
 30
0.0
  9
$UCSYDIR
 10
0.0
 20
1.0
 30
0.0
  9
$UCSORTHOREF
  2

  9
$UCSORTHOVIEW
 70
     0
  9
$UCSORGTOP
 10
0.0
 20
0.0
 30
0.0
  9
$UCSORGBOTTOM
 10
0.0
 20
0.0
 30
0.0
  9
$UCSORGLEFT
 10
0.0
 20
0.0
 30
0.0
  9
$UCSORGRIGHT
 10
0.0
 20
0.0
 30
0.0
  9
$UCSORGFRONT
 10
0.0
 20
0.0
 30
0.0
  9
$UCSORGBACK
 10
0.0
 20
0.0
 30
0.0
  9
$PUCSBASE
  2

  9
$PUCSNAME
  2

  9
$PUCSORG
 10
0.0
 20
0.0
 30
0.0
  9
$PUCSXDIR
 10
1.0
 20
0.0
 30
0.0
  9
$PUCSYDIR
 10
0.0
 20
1.0
 30
0.0
  9
$PUCSORTHOREF
  2

  9
$PUCSORTHOVIEW
 70
     0
  9
$PUCSORGTOP
 10
0.0
 20
0.0
 30
0.0
  9
$PUCSORGBOTTOM
 10
0.0
 20
0.0
 30
0.0
  9
$PUCSORGLEFT
 10
0.0
 20
0.0
 30
0.0
  9
$PUCSORGRIGHT
 10
0.0
 20
0.0
 30
0.0
  9
$PUCSORGFRONT
 10
0.0
 20
0.0
 30
0.0
  9
$PUCSORGBACK
 10
0.0
 20
0.0
 30
0.0
  9
$USERI1
 70
     0
  9
$USERI2
 70
     0
  9
$USERI3
 70
     0
  9
$USERI4
 70
     0
  9
$USERI5
 70
     0
  9
$USERR1
 40
0.0
  9
$USERR2
 40
0.0
  9
$USERR3
 40
0.0
  9
$USERR4
 40
0.0
  9
$USERR5
 40
0.0
  9
$WORLDVIEW
 70
     1
  9
$SHADEDGE
 70
     3
  9
$SHADEDIF
 70
    70
  9
$TILEMODE
 70
     1
  9
$MAXACTVP
 70
    64
  9
$PINSBASE
 10
0.0
 20
0.0
 30
0.0
  9
$PLIMCHECK
 70
     0
  9
$PEXTMIN
 10
1.000000000000000E+20
 20
1.000000000000000E+20
 30
1.000000000000000E+20
  9
$PEXTMAX
 10
-1.000000000000000E+20
 20
-1.000000000000000E+20
 30
-1.000000000000000E+20
  9
$PLIMMIN
 10
0.0
 20
0.0
  9
$PLIMMAX
 10
420.0
 20
297.0
  9
$UNITMODE
 70
     0
  9
$VISRETAIN
 70
     1
  9
$PLINEGEN
 70
     0
  9
$PSLTSCALE
 70
     1
  9
$TREEDEPTH
 70
  3020
  9
$CMLSTYLE
  2
Standard
  9
$CMLJUST
 70
     0
  9
$CMLSCALE
 40
20.0
  9
$PROXYGRAPHICS
 70
     1
  9
$MEASUREMENT
 70
     1
  9
$CELWEIGHT
370
    -1
  9
$ENDCAPS
280
     0
  9
$JOINSTYLE
280
     0
  9
$LWDISPLAY
290
     0
  9
$INSUNITS
 70
     4
  9
$HYPERLINKBASE
  1

  9
$STYLESHEET
  1
彩色出圖.ctb
  9
$XEDIT
290
     1
  9
$CEPSNTYPE
380
     0
  9
$PSTYLEMODE
290
     1
  9
$FINGERPRINTGUID
  2
{AAA01E1A-376A-4450-A17A-698DA31AD93F}
  9
$VERSIONGUID
  2
{9AA4735A-725D-42C0-8809-E925FD14A401}
  9
$EXTNAMES
290
     1
  9
$PSVPSCALE
 40
0.0
  9
$OLESTARTUP
290
     0
  0
ENDSEC
  0
SECTION
  2
CLASSES
  0
CLASS
  1
ACDBDICTIONARYWDFLT
  2
AcDbDictionaryWithDefault
  3
ObjectDBX Classes
 90
        0
280
     0
281
     0
  0
CLASS
  1
ACDBPLACEHOLDER
  2
AcDbPlaceHolder
  3
ObjectDBX Classes
 90
        0
280
     0
281
     0
  0
CLASS
  1
LAYOUT
  2
AcDbLayout
  3
ObjectDBX Classes
 90
        0
280
     0
281
     0
  0
CLASS
  1
ACME_DOCUMENT
  2
AcMeDbDoc
  3
AcMeServices
 90
        0
280
     0
281
     0
  0
CLASS
  1
AMGSETTINGSOBJ
  2
AmgSettingsObj
  3
"AcadM|Product Description: AutoCAD Mechanical 2000|Company: Autodesk"
 90
        0
280
     0
281
     0
  0
CLASS
  1
ACMESCOPE
  2
AcMeScope
  3
AcMeServices
 90
        0
280
     0
281
     0
  0
CLASS
  1
ACMECOMMANDHISTORY
  2
AcMeCommandHistory
  3
AcMeServices
 90
        0
280
     0
281
     0
  0
CLASS
  1
ACIMSYSVARMAN
  2
AcImSysVarManager
  3
AcMeServices
 90
        0
280
     0
281
     0
  0
CLASS
  1
ACIMREALSYSVAR
  2
AcImRealSysVar
  3
AcMeServices
 90
        0
280
     0
281
     0
  0
CLASS
  1
ACIMINTSYSVAR
  2
AcImIntSysVar
  3
AcMeServices
 90
        0
280
     0
281
     0
  0
CLASS
  1
ACMEDRAWINGMAN
  2
AcMeDrawingMan
  3
AcMeServices
 90
        0
280
     0
281
     0
  0
CLASS
  1
ACMEVIEW
  2
AcMeView
  3
AcMeServices
 90
        0
280
     0
281
     0
  0
CLASS
  1
ACDBENTITYCACHE
  2
AcMeEntityCache
  3
AcMeServices
 90
        0
280
     0
281
     0
  0
CLASS
  1
GSMANAGER
  2
AcMeGSManager
  3
AcMeServices
 90
        0
280
     0
281
     0
  0
CLASS
  1
AMDTINTERNALREACTOR
  2
AmdtInternalReactor
  3
AcMeServices
 90
        0
280
     0
281
     0
  0
CLASS
  1
ACMESTATEMGR
  2
AcMeStateMgr
  3
AcMeServices
 90
        0
280
     0
281
     0
  0
CLASS
  1
ACGREFMASTER
  2
AcGrefMaster
  3
AcAttribServices
 90
        0
280
     0
281
     0
  0
CLASS
  1
ACME_DATABASE
  2
AcMeDbDatabase
  3
AcMeServices
 90
        0
280
     0
281
     0
  0
CLASS
  1
ACRFINSADJUSTERMGR
  2
AcRfInsAdjusterMgr
  3
AcMeServices
 90
        0
280
     0
281
     0
  0
CLASS
  1
ACGREFACADMASTER
  2
AcGrefacadMaster
  3
AcGrefServices
 90
        0
280
     0
281
     0
  0
CLASS
  1
AMIMASTER
  2
AmiMaster
  3
AmiServices
 90
        0
280
     0
281
     0
  0
CLASS
  1
ACMDATADICTIONARY
  2
AcmDataDictionary
  3
"AcmSymBB|Product Description: AutoCAD Mechanical 2004 DX|Company: Autodesk"
 90
        0
280
     0
281
     0
  0
CLASS
  1
ACMDATAENTRYBLOCK
  2
AcmDataEntryBlock
  3
"AcmSymBB|Product Description: AutoCAD Mechanical 2004 DX|Company: Autodesk"
 90
        0
280
     0
281
     0
  0
CLASS
  1
ACIMSTRSYSVAR
  2
AcImStrSysVar
  3
AcMeServices
 90
        0
280
     0
281
     0
  0
CLASS
  1
ACMSTANDARDISO
  2
AcmStandardISO
  3
"Amdt_StdImp|Product Description: AutoCAD Mechanical 2004 DX|Company: Autodesk"
 90
        0
280
     0
281
     0
  0
CLASS
  1
AMGOBJPROPCFG
  2
AmgObjPropCfg
  3
"AmgLay|Product Description: AutoCAD Mechanical 2000|Company: Autodesk"
 90
        1
280
     0
281
     0
  0
CLASS
  1
AMDTEDGESTANDARDISO
  2
AmdtEdgeStdISO
  3
"Amdt_StdImp|Product Description: AutoCAD Mechanical 2004 DX|Company: Autodesk"
 90
    32768
280
     0
281
     0
  0
CLASS
  1
ACMSURFSTANDARDISO
  2
AcmSurfTextStdISO
  3
"Amdt_StdImp|Product Description: AutoCAD Mechanical 2004 DX|Company: Autodesk"
 90
        0
280
     0
281
     0
  0
CLASS
  1
ACMFCFSTANDARDISO
  2
AcmFCFStdISO
  3
"Amdt_StdImp|Product Description: AutoCAD Mechanical 2004 DX|Company: Autodesk"
 90
        0
280
     0
281
     0
  0
CLASS
  1
ACMWELDSTANDARDISO
  2
AcmWeldingStdISO
  3
"Amdt_StdImp|Product Description: AutoCAD Mechanical 2004 DX|Company: Autodesk"
 90
        0
280
     0
281
     0
  0
CLASS
  1
ACMIDSTANDARDISO
  2
AcmIdStdISO
  3
"Amdt_StdImp|Product Description: AutoCAD Mechanical 2004 DX|Company: Autodesk"
 90
        0
280
     0
281
     0
  0
CLASS
  1
ACMDATUMSTANDARDISO
  2
AcmDatumStdISO
  3
"Amdt_StdImp|Product Description: AutoCAD Mechanical 2004 DX|Company: Autodesk"
 90
        0
280
     0
281
     0
  0
CLASS
  1
ACMBOMSTANDARDISO
  2
AcmBOMStdISO
  3
"Amdt_StdImp|Product Description: AutoCAD Mechanical 2004 DX|Company: Autodesk"
 90
        0
280
     0
281
     0
  0
CLASS
  1
ACMDETAILSTANDARDISO
  2
AmdtDetailSymStdISO
  3
"Amdt_StdImp|Product Description: AutoCAD Mechanical 2004 DX|Company: Autodesk"
 90
        0
280
     0
281
     0
  0
CLASS
  1
ACMSECTIONSTANDARDISO
  2
AmdtSectionSymStdISO
  3
"Amdt_StdImp|Product Description: AutoCAD Mechanical 2004 DX|Company: Autodesk"
 90
        0
280
     0
281
     0
  0
CLASS
  1
ACMCENTERLINESTANDARDISO
  2
AmdtCenterLineStdISO
  3
"Amdt_StdImp|Product Description: AutoCAD Mechanical 2004 DX|Company: Autodesk"
 90
        0
280
     0
281
     0
  0
CLASS
  1
ACMNOTESTANDARDISO
  2
AmdtNoteStdISO
  3
"Amdt_StdImp|Product Description: AutoCAD Mechanical 2004 DX|Company: Autodesk"
 90
        0
280
     0
281
     0
  0
CLASS
  1
ACAMGLAYSTD
  2
AcAmgLayStd
  3
"AcAmgLayStd|Product Description: AutoCAD Mechanical 2000|Company: Autodesk"
 90
        0
280
     0
281
     0
  0
CLASS
  1
ACAMGDIMSTD
  2
AcAmgDimStd
  3
"AcAmgDimStd|Product Description: AutoCAD Mechanical 2000|Company: Autodesk"
 90
        0
280
     0
281
     0
  0
CLASS
  1
ACAMGHOLECHARTSTDISO
  2
AcAmgHoleChartStdISO
  3
ACMSYMBB_MODULE_NAME
 90
        0
280
     0
281
     0
  0
CLASS
  1
ACAMGTITLESTD
  2
AcAmgTitleStd
  3
"TITLEAPP"
 90
        0
280
     0
281
     0
  0
CLASS
  1
LAYER_INDEX
  2
AcDbLayerIndex
  3
ObjectDBX Classes
 90
        0
280
     0
281
     0
  0
CLASS
  1
IDBUFFER
  2
AcDbIdBuffer
  3
ObjectDBX Classes
 90
        0
280
     0
281
     0
  0
CLASS
  1
DICTIONARYVAR
  2
AcDbDictionaryVar
  3
ObjectDBX Classes
 90
        0
280
     0
281
     0
  0
CLASS
  1
AM_DRAWING_MGR
  2
AcDmDwgMgr
  3
AcMechDwgViewMgmt
 90
        0
280
     0
281
     0
  0
CLASS
  1
AM_DWG_DOCUMENT
  2
AcDmDwgDocument
  3
AcMechDwgViewMgmt
 90
        0
280
     0
281
     0
  0
CLASS
  1
AM_DWG_SHEET
  2
AcDmSheet
  3
AcMechDwgViewMgmt
 90
        0
280
     0
281
     0
  0
CLASS
  1
AM_VIEWDIMPARMAP
  2
AcDmViewDimParMap
  3
AcMechDwgViewMgmt
 90
        0
280
     0
281
     0
  0
CLASS
  1
AM_DWGMGR_NAME
  2
AcDmDwgMgrName
  3
AcMechDwgViewMgmt
 90
        0
280
     0
281
     0
  0
CLASS
  1
AMDTMENUSTATEMGR
  2
AmdtMenuStateMgr
  3
McadcomServices
 90
        0
280
     0
281
     0
  0
CLASS
  1
AMDTMCOMMENUSTATE
  2
AmdtMcomMenuState
  3
McadcomServices
 90
        0
280
     0
281
     0
  0
CLASS
  1
MAPIAMMOUDLE
  2
MApiAmModule
  3
MApiAmServices
 90
        0
280
     0
281
     0
  0
CLASS
  1
AMDTADMENUSTATE
  2
AmdtAdMenuState
  3
DesignerServices
 90
        0
280
     0
281
     0
  0
CLASS
  1
ADAPPL
  2
AcAdAppl
  3
DesignerServices
 90
        0
280
     0
281
     0
  0
CLASS
  1
DEPMGR
  2
AcAdDepMgr
  3
DesignerServices
 90
        0
280
     0
281
     0
  0
CLASS
  1
PARAMMGR
  2
AcAdParamMgr
  3
DesignerServices
 90
        0
280
     0
281
     0
  0
CLASS
  1
PARAMSCOPE
  2
AcAdParamScope
  3
DesignerServices
 90
        0
280
     0
281
     0
  0
CLASS
  1
NAMEDAPPL
  2
AcAdNamedAppl
  3
DesignerServices
 90
        0
280
     0
281
     0
  0
CLASS
  1
AMDTDMMENUSTATE
  2
AmdtDmMenuState
  3
AcMechDwgViewMgmt
 90
        0
280
     0
281
     0
  0
CLASS
  1
AMDTAMMENUSTATE
  2
AmdtAmMenuState
  3
DesignerAssemblies
 90
        0
280
     0
281
     0
  0
CLASS
  1
ACAMPROJECT
  2
AcAmProject
  3
DesignerAssemblies
 90
        0
280
     0
281
     0
  0
CLASS
  1
ACAMGRCOMPDEF
  2
AcAmGrCompDef
  3
DesignerAssemblies
 90
        0
280
     0
281
     0
  0
CLASS
  1
ACCMCONTEXT
  2
AcCmContext
  3
DesignerAssemblies
 90
        0
280
     0
281
     0
  0
CLASS
  1
ACAMCOMPDEF
  2
AcAmCompDef
  3
DesignerAssemblies
 90
        0
280
     0
281
     0
  0
CLASS
  1
ACAMCOMPDEFMGR
  2
AcAmCompDefMgr
  3
DesignerAssemblies
 90
        0
280
     0
281
     0
  0
CLASS
  1
AMCONTEXTMGR
  2
AcAmContextMgr
  3
DesignerAssemblies
 90
        0
280
     0
281
     0
  0
CLASS
  1
ACAMCONTEXTMODELER
  2
AcAmContextModeler
  3
DesignerAssemblies
 90
        0
280
     0
281
     0
  0
CLASS
  1
ACMTHREADLINESTANDARDISO
  2
AmdtThreadLineStdISO
  3
"Amdt_StdImp|Product Description: AutoCAD Mechanical 2004 DX|Company: Autodesk"
 90
        0
280
     0
281
     0
  0
CLASS
  1
CATALOGSTATE
  2
AcAmCatalogState
  3
DesignerAssemblies
 90
        0
280
     0
281
     0
  0
CLASS
  1
ACAMGRCOMPDEFSET
  2
AcAmGrCompDefSet
  3
DesignerAssemblies
 90
        0
280
     0
281
     0
  0
CLASS
  1
AMDTBROWSERDBTAB
  2
AmdtBrowserDbTab
  3
McadcomServices
 90
        0
280
     0
281
     0
  0
CLASS
  1
CBROWSERAPPOBJECT
  2
CBrowserAppObject
  3
McadcomServices
 90
        0
280
     0
281
     0
  0
CLASS
  1
DM_PLACEHOLDER
  2
AcDmSelsetPlaceholder
  3
AcMechDwgViewMgmt
 90
        0
280
     0
281
     0
  0
CLASS
  1
TABLESTYLE
  2
AcDbTableStyle
  3
ObjectDBX Classes
 90
     2047
280
     0
281
     0
  0
CLASS
  1
VAACXREFPANELOBJECT
  2
VaAcXREFPanelObject
  3
VAAC_ADDIN
 90
    32768
280
     0
281
     0
  0
CLASS
  1
VAACIMAGEINVENTORY
  2
VaAcImageInventory
  3
VAAC_ADDIN
 90
    32768
280
     0
281
     0
  0
CLASS
  1
AMDTNOTETEMPLATEDB
  2
AmdtNoteTemplateDB
  3
AMDT_STDIMP_MODULE_NAME
 90
        0
280
     0
281
     0
  0
CLASS
  1
ACMBOM
  2
AcmBom
  3
"AcmSymBB|Product Description: AutoCAD Mechanical 2004 DX|Company: Autodesk"
 90
    32768
280
     0
281
     0
  0
CLASS
  1
AMDTFORMULAUPDATEDISPATCHER
  2
AmdtFormulaUpdateDispatcher
  3
AcMeServices
 90
    32768
280
     0
281
     0
  0
CLASS
  1
ACMPARTLIST
  2
AcmPartList
  3
"AcmSymBB|Product Description: AutoCAD Mechanical 2004 DX|Company: Autodesk"
 90
    33791
280
     0
281
     1
  0
CLASS
  1
ACAMGFILTERDAT
  2
AcAmgFilterDat
  3
"AcadM|Product Description: AutoCAD Mechanical 2000|Company: Autodesk"
 90
    32768
280
     0
281
     0
  0
CLASS
  1
DIMASSOC
  2
AcDbDimAssoc
  3
"AcDbDimAssoc|Product Desc:     AcDim ARX App For Dimension|Company:          Autodesk, Inc.|WEB Address:      www.autodesk.com"
 90
        0
280
     0
281
     0
  0
CLASS
  1
MATERIAL
  2
AcDbMaterial
  3
ObjectDBX Classes
 90
        0
280
     0
281
     0
  0
CLASS
  1
ACMSTANDARDANSI
  2
AcmStandardANSI
  3
"Amdt_StdImp|Product Description: AutoCAD Mechanical 2004 DX|Company: Autodesk"
 90
    32768
280
     0
281
     0
  0
CLASS
  1
ACMSURFSTANDARDANSI
  2
AcmSurfTextStdANSI
  3
"Amdt_StdImp|Product Description: AutoCAD Mechanical 2004 DX|Company: Autodesk"
 90
    32768
280
     0
281
     0
  0
CLASS
  1
ACMFCFSTANDARDANSI
  2
AcmFCFStdANSI
  3
"Amdt_StdImp|Product Description: AutoCAD Mechanical 2004 DX|Company: Autodesk"
 90
    32768
280
     0
281
     0
  0
CLASS
  1
ACMWELDSTANDARDANSI
  2
AcmWeldingStdANSI
  3
"Amdt_StdImp|Product Description: AutoCAD Mechanical 2004 DX|Company: Autodesk"
 90
    32768
280
     0
281
     0
  0
CLASS
  1
ACMIDSTANDARDANSI
  2
AcmIdStdANSI
  3
"Amdt_StdImp|Product Description: AutoCAD Mechanical 2004 DX|Company: Autodesk"
 90
    32768
280
     0
281
     0
  0
CLASS
  1
ACMDATUMSTANDARDANSI
  2
AcmDatumStdANSI
  3
"Amdt_StdImp|Product Description: AutoCAD Mechanical 2004 DX|Company: Autodesk"
 90
    32768
280
     0
281
     0
  0
CLASS
  1
ACMBOMSTANDARDANSI
  2
AcmBOMStdANSI
  3
"Amdt_StdImp|Product Description: AutoCAD Mechanical 2004 DX|Company: Autodesk"
 90
    32768
280
     0
281
     0
  0
CLASS
  1
ACMDETAILSTANDARDANSI
  2
AmdtDetailSymStdANSI
  3
"Amdt_StdImp|Product Description: AutoCAD Mechanical 2004 DX|Company: Autodesk"
 90
    32768
280
     0
281
     0
  0
CLASS
  1
ACMSECTIONSTANDARDANSI
  2
AmdtSectionSymStdANSI
  3
"Amdt_StdImp|Product Description: AutoCAD Mechanical 2004 DX|Company: Autodesk"
 90
    32768
280
     0
281
     0
  0
CLASS
  1
ACMCENTERLINESTANDARDANSI
  2
AmdtCenterLineStdANSI
  3
"Amdt_StdImp|Product Description: AutoCAD Mechanical 2004 DX|Company: Autodesk"
 90
    32768
280
     0
281
     0
  0
CLASS
  1
ACMTHREADLINESTANDARDANSI
  2
AmdtThreadLineStdANSI
  3
"Amdt_StdImp|Product Description: AutoCAD Mechanical 2004 DX|Company: Autodesk"
 90
    32768
280
     0
281
     0
  0
CLASS
  1
ACMNOTESTANDARDANSI
  2
AmdtNoteStdANSI
  3
"Amdt_StdImp|Product Description: AutoCAD Mechanical 2004 DX|Company: Autodesk"
 90
    32768
280
     0
281
     0
  0
CLASS
  1
ACAMGHOLECHARTSTDANSI
  2
AcAmgHoleChartStdANSI
  3
ACMSYMBB_MODULE_NAME
 90
    32768
280
     0
281
     0
  0
CLASS
  1
ASAPP
  2
AcAsAppObject
  3
AutoSurfServices
 90
        0
280
     0
281
     0
  0
CLASS
  1
IM_STATIC_MAN
  2
AcImStaticVarManager
  3
AcMeServices
 90
        0
280
     0
281
     0
  0
CLASS
  1
ACIMDBLSTATICVAR
  2
AcImDblStaticVar
  3
AcMeServices
 90
        0
280
     0
281
     0
  0
CLASS
  1
ACIMSTRSTATICVAR
  2
AcImStrStaticVar
  3
AcMeServices
 90
        0
280
     0
281
     0
  0
CLASS
  1
ACIMINTSTATICVAR
  2
AcImIntStaticVar
  3
AcMeServices
 90
        0
280
     0
281
     0
  0
CLASS
  1
ACASGREFMASTER
  2
AcAsGrefMaster
  3
AutoSurfResolverServices
 90
        0
280
     0
281
     0
  0
CLASS
  1
ACADGREFMODULE
  2
AcAdGrefModule
  3
AdGrefServices
 90
        0
280
     0
281
     0
  0
CLASS
  1
AMDTMAPISURFMOUDULE
  2
AmdtMApiSurfModule
  3
MApiSurfServices
 90
        0
280
     0
281
     0
  0
CLASS
  1
MAPIADMODULE
  2
MApiAdModule
  3
MApiAdServices
 90
        0
280
     0
281
     0
  0
CLASS
  1
AMDTEDGESTANDARDISO13715
  2
AmdtEdgeStdISO13715
  3
"Amdt_StdImp|Product Description: AutoCAD Mechanical 2004 DX|Company: Autodesk"
 90
        0
280
     0
281
     0
  0
CLASS
  1
AMDTNOTE
  2
AmdtNote
  3
"AcmSymBB|Product Description: AutoCAD Mechanical 2004 DX|Company: Autodesk"
 90
    33791
280
     0
281
     1
  0
CLASS
  1
ACDBCIRCARCRES
  2
AcDbCircArcRes
  3
AcGrefServices
 90
        0
280
     0
281
     0
  0
CLASS
  1
ACDBLINERES
  2
AcDbLineRes
  3
AcGrefServices
 90
        0
280
     0
281
     0
  0
CLASS
  1
SORTENTSTABLE
  2
AcDbSortentsTable
  3
ObjectDBX Classes
 90
    32768
280
     0
281
     0
  0
ENDSEC
  0
SECTION
  2
TABLES
  0
TABLE
  2
VPORT
  5
8
330
0
100
AcDbSymbolTable
 70
     4
  0
VPORT
  5
36FE
330
8
100
AcDbSymbolTableRecord
100
AcDbViewportTableRecord
  2
*Active
 70
     0
 10
0.0
 20
0.0
 11
1.0
 21
1.0
 12
-190.4289527560589
 22
-130.7849796194465
 13
0.0
 23
0.0
 14
2.5
 24
2.5
 15
10.0
 25
10.0
 16
0.0
 26
0.0
 36
1.0
 17
484.0987504174327
 27
132.4449634208572
 37
0.0
 40
350.0040727239059
 41
1.263157894736842
 42
50.0
 43
0.0
 44
0.0
 50
0.0
 51
0.0
 71
     0
 72
  2000
 73
     1
 74
     3
 75
     0
 76
     0
 77
     0
 78
     0
281
     0
 65
     0
110
0.0
120
0.0
130
0.0
111
1.0
121
0.0
131
0.0
112
0.0
122
1.0
132
0.0
 79
     0
146
0.0
  0
ENDTAB
  0
TABLE
  2
LTYPE
  5
5
330
0
100
AcDbSymbolTable
 70
    19
  0
LTYPE
  5
14
330
5
100
AcDbSymbolTableRecord
100
AcDbLinetypeTableRecord
  2
ByBlock
 70
     0
  3

 72
    65
 73
     0
 40
0.0
  0
LTYPE
  5
15
330
5
100
AcDbSymbolTableRecord
100
AcDbLinetypeTableRecord
  2
ByLayer
 70
     0
  3

 72
    65
 73
     0
 40
0.0
  0
LTYPE
  5
16
330
5
100
AcDbSymbolTableRecord
100
AcDbLinetypeTableRecord
  2
Continuous
 70
     0
  3
Solid line
 72
    65
 73
     0
 40
0.0
  0
LTYPE
  5
64
330
5
100
AcDbSymbolTableRecord
100
AcDbLinetypeTableRecord
  2
AM_ISO02W050
 70
     0
  3
__ __ __ __ __ __ __ __ __ __ __ __ __ __ __
 72
    65
 73
     2
 40
7.5
 49
6.0
 74
     0
 49
-1.5
 74
     0
  0
LTYPE
  5
65
330
5
100
AcDbSymbolTableRecord
100
AcDbLinetypeTableRecord
  2
AM_ISO08W050
 70
     0
  3
____ . ____ . ____ . ____ . ____ . ____ . ____
 72
    65
 73
     4
 40
18.0
 49
12.0
 74
     0
 49
-1.5
 74
     0
 49
3.0
 74
     0
 49
-1.5
 74
     0
  0
LTYPE
  5
66
330
5
100
AcDbSymbolTableRecord
100
AcDbLinetypeTableRecord
  2
AM_ISO09W050
 70
     0
  3
_____ . . _____ . . _____ . . ____ .. ____
 72
    65
 73
     6
 40
22.5
 49
12.0
 74
     0
 49
-1.5
 74
     0
 49
3.0
 74
     0
 49
-1.5
 74
     0
 49
3.0
 74
     0
 49
-1.5
 74
     0
  0
LTYPE
  5
67
330
5
100
AcDbSymbolTableRecord
100
AcDbLinetypeTableRecord
  2
Amconstr
 70
     0
  3
_______________________
 72
    65
 73
     2
 40
9999.0
 49
9999.0
 74
     0
 49
0.0
 74
     0
  0
LTYPE
  5
68
330
5
100
AcDbSymbolTableRecord
100
AcDbLinetypeTableRecord
  2
AM_ISO08W050x2
 70
     0
  3
__ . __ . __ . __ . __ . __
 72
    65
 73
     4
 40
9.0
 49
6.0
 74
     0
 49
-0.75
 74
     0
 49
1.5
 74
     0
 49
-0.75
 74
     0
  0
LTYPE
  5
69
330
5
100
AcDbSymbolTableRecord
100
AcDbLinetypeTableRecord
  2
AM_ISO02W050x2
 70
     0
  3
 _ _ _ _ _ _ _ _ _ _ _ _
 72
    65
 73
     2
 40
3.75
 49
3.0
 74
     0
 49
-0.75
 74
     0
  0
LTYPE
  5
6C
330
5
100
AcDbSymbolTableRecord
100
AcDbLinetypeTableRecord
  2
Amzigzag
 70
     0
  3
/\/-/\/-/\/-/\/-/\/-/\/
 72
    65
 73
     2
 40
11.0001
 49
0.0001
 74
     4
 75
   135
340
6B
 46
0.04
 50
0.0
 44
0.0
 45
0.0
 49
-11.0
 74
     0
  0
LTYPE
  5
7A
330
5
100
AcDbSymbolTableRecord
100
AcDbLinetypeTableRecord
  2
ACISOWELD
 70
     0
  3
_ _ _ _ _
 72
    65
 73
     2
 40
2.0
 49
2.0
 74
     0
 49
-1.0
 74
     0
  0
LTYPE
  5
7B
330
5
100
AcDbSymbolTableRecord
100
AcDbLinetypeTableRecord
  2
ACISOTGB
 70
     0
  3
__ . . __ . .
 72
    65
 73
     6
 40
9.0
 49
4.0
 74
     0
 49
-1.0
 74
     0
 49
1.0
 74
     0
 49
-1.0
 74
     0
 49
1.0
 74
     0
 49
-1.0
 74
     0
  0
LTYPE
  5
7C
330
5
100
AcDbSymbolTableRecord
100
AcDbLinetypeTableRecord
  2
ACISOTGL
 70
     0
  3
_ _ _ _ _
 72
    65
 73
     2
 40
3.0
 49
2.0
 74
     0
 49
-1.0
 74
     0
  0
LTYPE
  5
7E
330
5
100
AcDbSymbolTableRecord
100
AcDbLinetypeTableRecord
  2
CENTER
 70
     0
  3
__ . __
 72
    65
 73
     4
 40
7.0
 49
4.0
 74
     0
 49
-1.0
 74
     0
 49
1.0
 74
     0
 49
-1.0
 74
     0
  0
LTYPE
  5
D8
330
5
100
AcDbSymbolTableRecord
100
AcDbLinetypeTableRecord
  2
HIDDEN
 70
     0
  3
Hidden __ __ __ __ __ __ __ __ __ __ __ __ __ _
 72
    65
 73
     2
 40
9.524999999999998
 49
6.349999999999999
 74
     0
 49
-3.174999999999999
 74
     0
  0
LTYPE
  5
D9
330
5
100
AcDbSymbolTableRecord
100
AcDbLinetypeTableRecord
  2
PHANTOM2
 70
     0
  3
Phantom (.5x) ___ _ _ ___ _ _ ___ _ _ ___ _ _
 72
    65
 73
     6
 40
31.75
 49
15.875
 74
     0
 49
-3.174999999999999
 74
     0
 49
3.174999999999999
 74
     0
 49
-3.174999999999999
 74
     0
 49
3.174999999999999
 74
     0
 49
-3.174999999999999
 74
     0
  0
LTYPE
  5
ACA
330
5
100
AcDbSymbolTableRecord
100
AcDbLinetypeTableRecord
  2
PHANTOM
 70
     0
  3
__________ _ _ __________ _ _ __________ _ _ 
 72
    65
 73
     6
 40
15.0
 49
10.0
 74
     0
 49
-1.0
 74
     0
 49
1.0
 74
     0
 49
-1.0
 74
     0
 49
1.0
 74
     0
 49
-1.0
 74
     0
  0
LTYPE
  5
ACE
330
5
100
AcDbSymbolTableRecord
100
AcDbLinetypeTableRecord
  2
ACANSTGB
 70
     0
  3
__ . . __ . .
 72
    65
 73
     6
 40
0.35433070866
 49
0.15748031496
 74
     0
 49
-0.03937007874
 74
     0
 49
0.03937007874
 74
     0
 49
-0.03937007874
 74
     0
 49
0.03937007874
 74
     0
 49
-0.03937007874
 74
     0
  0
LTYPE
  5
ACF
330
5
100
AcDbSymbolTableRecord
100
AcDbLinetypeTableRecord
  2
ACANSTGL
 70
     0
  3
_ _ _ _ _
 72
    65
 73
     2
 40
0.11811023622
 49
0.07874015748
 74
     0
 49
-0.03937007874
 74
     0
  0
LTYPE
  5
16B5
330
5
100
AcDbSymbolTableRecord
100
AcDbLinetypeTableRecord
  2
ASULTYPE
 70
     0
  3
實線
 72
    65
 73
     2
 40
3.0
 49
2.5
 74
     0
 49
0.5
 74
     0
  0
LTYPE
  5
16B6
330
5
100
AcDbSymbolTableRecord
100
AcDbLinetypeTableRecord
  2
ASVLTYPE
 70
     0
  3
__ __ __ __ __ __ __ __ __ __ __ __ __ __ __ __ __ __ __ __ __
 72
    65
 73
     2
 40
0.75
 49
0.5
 74
     0
 49
-0.25
 74
     0
  0
ENDTAB
  0
TABLE
  2
LAYER
  5
2
102
{ACAD_XDICTIONARY
360
3F9
102
}
330
0
100
AcDbSymbolTable
 70
    10
  0
LAYER
  5
10
330
2
100
AcDbSymbolTableRecord
100
AcDbLayerTableRecord
  2
0
 70
     0
 62
     7
  6
Continuous
370
    -3
390
F
  0
LAYER
  5
AD0
102
{ACAD_XDICTIONARY
360
AD1
102
}
330
2
100
AcDbSymbolTableRecord
100
AcDbLayerTableRecord
  2
UMCL1
 70
     0
 62
     7
  6
Continuous
370
    -3
390
F
  0
LAYER
  5
AD3
102
{ACAD_XDICTIONARY
360
AD4
102
}
330
2
100
AcDbSymbolTableRecord
100
AcDbLayerTableRecord
  2
UMCL2
 70
     0
 62
     2
  6
Continuous
370
    -3
390
F
  0
LAYER
  5
124C
330
2
100
AcDbSymbolTableRecord
100
AcDbLayerTableRecord
  2
AM_7
 70
     0
 62
     1
  6
AM_ISO08W050
370
    25
390
F
  0
LAYER
  5
12C8
330
2
100
AcDbSymbolTableRecord
100
AcDbLayerTableRecord
  2
LOGO
 70
     0
 62
     7
  6
Continuous
370
    -3
390
F
  0
LAYER
  5
15C8
330
2
100
AcDbSymbolTableRecord
100
AcDbLayerTableRecord
  2
AM_5
 70
     0
 62
     5
  6
Continuous
370
    25
390
F
  0
LAYER
  5
1874
330
2
100
AcDbSymbolTableRecord
100
AcDbLayerTableRecord
  2
Defpoints
 70
     0
 62
     7
  6
Continuous
290
     0
370
    -3
390
F
  0
LAYER
  5
1875
330
2
100
AcDbSymbolTableRecord
100
AcDbLayerTableRecord
  2
AM_VIS
 70
     0
 62
     7
  6
Continuous
370
    50
390
F
  0
LAYER
  5
1876
330
2
100
AcDbSymbolTableRecord
100
AcDbLayerTableRecord
  2
AM_4
 70
     0
 62
     3
  6
Continuous
370
    25
390
F
  0
LAYER
  5
1877
330
2
100
AcDbSymbolTableRecord
100
AcDbLayerTableRecord
  2
AM_REFDIM
 70
     0
 62
     4
  6
Continuous
370
    25
390
F
  0
ENDTAB
  0
TABLE
  2
STYLE
  5
3
330
0
100
AcDbSymbolTable
 70
     8
  0
STYLE
  5
11
330
3
100
AcDbSymbolTableRecord
100
AcDbTextStyleTableRecord
  2
STANDARD
 70
     0
 40
0.0
 41
1.0
 50
0.0
 71
     0
 42
3.0
  3
ISOCP.SHX
  4
CHINESET.SHX
  0
STYLE
  5
6B
330
3
100
AcDbSymbolTableRecord
100
AcDbTextStyleTableRecord
  2

 70
     1
 40
0.0
 41
1.0
 50
0.0
 71
     0
 42
2.5
  3
ltypeshp.shx
  4

  0
STYLE
  5
6D
330
3
100
AcDbSymbolTableRecord
100
AcDbTextStyleTableRecord
  2
ACISOTS
 70
     0
 40
1.0
 41
1.0
 50
0.0
 71
     0
 42
1.0
  3
isocp.shx
  4
chineset.shx
  0
STYLE
  5
79
330
3
100
AcDbSymbolTableRecord
100
AcDbTextStyleTableRecord
  2
ACISOGDT
 70
     0
 40
0.0
 41
1.0
 50
0.0
 71
     0
 42
2.5
  3
amgdt.shx
  4
chineset.shx
  0
STYLE
  5
AD7
330
3
100
AcDbSymbolTableRecord
100
AcDbTextStyleTableRecord
  2
ROMANS
 70
     0
 40
0.0
 41
1.0
 50
0.0
 71
     0
 42
3.0
  3
ROMANS.SHX
  4
LMP
  0
STYLE
  5
AD8
330
3
100
AcDbSymbolTableRecord
100
AcDbTextStyleTableRecord
  2
ACANSTS
 70
     0
 40
1.0
 41
1.0
 50
0.0
 71
     0
 42
2.5
  3
romans.shx
  4
chineset.shx
  0
STYLE
  5
AD9
330
3
100
AcDbSymbolTableRecord
100
AcDbTextStyleTableRecord
  2
ACANSGDT
 70
     0
 40
0.0
 41
1.0
 50
0.0
 71
     0
 42
2.5
  3
amgdtans.shx
  4

  0
STYLE
  5
12C9
330
3
100
AcDbSymbolTableRecord
100
AcDbTextStyleTableRecord
  2
CHINESET
 70
     0
 40
0.0
 41
1.0
 50
0.0
 71
     0
 42
3.0
  3
simplex.shx
  4
CHINESET.SHX
  0
ENDTAB
  0
TABLE
  2
VIEW
  5
6
330
0
100
AcDbSymbolTable
 70
     0
  0
ENDTAB
  0
TABLE
  2
UCS
  5
7
330
0
100
AcDbSymbolTable
 70
     0
  0
ENDTAB
  0
TABLE
  2
APPID
  5
9
330
0
100
AcDbSymbolTable
 70
    24
  0
APPID
  5
12
330
9
100
AcDbSymbolTableRecord
100
AcDbRegAppTableRecord
  2
ACAD
 70
     0
  0
APPID
  5
46
330
9
100
AcDbSymbolTableRecord
100
AcDbRegAppTableRecord
  2
MCAD_NO_VIS
 70
     0
  0
APPID
  5
47
330
9
100
AcDbSymbolTableRecord
100
AcDbRegAppTableRecord
  2
ACAD_TEMP_GRAPHIC
 70
     0
  0
APPID
  5
58
330
9
100
AcDbSymbolTableRecord
100
AcDbRegAppTableRecord
  2
ACATTRIBSERVICES
 70
     0
  0
APPID
  5
EE
330
9
100
AcDbSymbolTableRecord
100
AcDbRegAppTableRecord
  2
AD_DRAW
 70
     0
  0
APPID
  5
10C
330
9
100
AcDbSymbolTableRecord
100
AcDbRegAppTableRecord
  2
DESIGNERASSEMBLIES
 70
     0
  0
APPID
  5
111
330
9
100
AcDbSymbolTableRecord
100
AcDbRegAppTableRecord
  2
ACADM_DIM_EDIT
 70
     0
  0
APPID
  5
112
330
9
100
AcDbSymbolTableRecord
100
AcDbRegAppTableRecord
  2
AMDT_DM_ADJ
 70
     0
  0
APPID
  5
22C
330
9
100
AcDbSymbolTableRecord
100
AcDbRegAppTableRecord
  2
ACAD_DSTYLE_DIMTEXT_FILL
 70
     0
  0
APPID
  5
452
330
9
100
AcDbSymbolTableRecord
100
AcDbRegAppTableRecord
  2
GENIUS_GENOENT_13
 70
     0
  0
APPID
  5
453
330
9
100
AcDbSymbolTableRecord
100
AcDbRegAppTableRecord
  2
GENIUS_GENOBJ-N-CRS_13
 70
     0
  0
APPID
  5
454
330
9
100
AcDbSymbolTableRecord
100
AcDbRegAppTableRecord
  2
GENIUS_GENOLIS_13
 70
     0
  0
APPID
  5
455
330
9
100
AcDbSymbolTableRecord
100
AcDbRegAppTableRecord
  2
GENIUS_GENODEF_13
 70
     0
  0
APPID
  5
456
330
9
100
AcDbSymbolTableRecord
100
AcDbRegAppTableRecord
  2
GENIUS_GENOREF_13
 70
     0
  0
APPID
  5
6F3
330
9
100
AcDbSymbolTableRecord
100
AcDbRegAppTableRecord
  2
ACAD_PSEXT
 70
     0
  0
APPID
  5
808
330
9
100
AcDbSymbolTableRecord
100
AcDbRegAppTableRecord
  2
GENIUS_GENDTOL_13
 70
     0
  0
APPID
  5
124E
330
9
100
AcDbSymbolTableRecord
100
AcDbRegAppTableRecord
  2
GENIUS_GENOBJ-N-CEN_13
 70
     0
  0
APPID
  5
124F
330
9
100
AcDbSymbolTableRecord
100
AcDbRegAppTableRecord
  2
GENIUS_GENCEN_19
 70
     0
  0
APPID
  5
12CA
330
9
100
AcDbSymbolTableRecord
100
AcDbRegAppTableRecord
  2
GENIUS_GENREC_14
 70
     0
  0
APPID
  5
12CB
330
9
100
AcDbSymbolTableRecord
100
AcDbRegAppTableRecord
  2
GENIUS_GENOBJ-N-REC_13
 70
     0
  0
APPID
  5
1636
330
9
100
AcDbSymbolTableRecord
100
AcDbRegAppTableRecord
  2
GENIUS_GENDIM_13
 70
     0
  0
APPID
  5
1637
330
9
100
AcDbSymbolTableRecord
100
AcDbRegAppTableRecord
  2
GENIUS_GE3DTOL_13
 70
     0
  0
APPID
  5
16B7
330
9
100
AcDbSymbolTableRecord
100
AcDbRegAppTableRecord
  2
ASURF_PCURVE_APPNAME
 70
     0
  0
APPID
  5
16BC
330
9
100
AcDbSymbolTableRecord
100
AcDbRegAppTableRecord
  2
AMG_3D2D_5.0
 70
     0
  0
ENDTAB
  0
TABLE
  2
DIMSTYLE
  5
A
330
0
100
AcDbSymbolTable
 70
    14
100
AcDbDimStyleTable
 71
     3
340
81
340
8B
340
86
  0
DIMSTYLE
105
81
330
A
100
AcDbSymbolTableRecord
100
AcDbDimStyleTableRecord
  2
AM_ISO
 70
     0
  4
"
 41
3.0
 42
1.5
 43
8.0
 44
1.5
 47
0.1
 48
0.1
 73
     0
 74
     0
 77
     1
 78
     8
 79
     2
140
3.5
141
0.0
143
0.0393701
146
0.6
147
1.0
172
     1
176
   256
177
   256
178
   256
271
     2
272
     2
283
     0
284
     8
340
11
371
    -1
372
    -1
  0
DIMSTYLE
105
82
330
A
100
AcDbSymbolTableRecord
100
AcDbDimStyleTableRecord
  2
AM_ISO$3
 70
     0
  4
"
 41
3.0
 42
1.5
 43
8.0
 44
1.5
 47
0.1
 48
0.1
 73
     0
 77
     1
 78
     8
 79
     2
140
3.5
141
0.0
143
0.0393701
146
0.6
147
1.0
176
   256
177
   256
178
   256
271
     2
272
     2
283
     0
284
     8
288
     1
289
     0
340
11
371
    -1
372
    -1
  0
DIMSTYLE
105
83
330
A
100
AcDbSymbolTableRecord
100
AcDbDimStyleTableRecord
  2
AM_ISO$4
 70
     0
  4
"
 41
3.0
 42
1.5
 43
8.0
 44
1.5
 47
0.1
 48
0.1
 73
     0
 77
     1
 78
     8
 79
     2
140
3.5
141
0.0
143
0.0393701
146
0.6
147
1.0
176
   256
177
   256
178
   256
271
     2
272
     2
283
     0
284
     8
288
     1
289
     0
340
11
371
    -1
372
    -1
  0
DIMSTYLE
105
84
330
A
100
AcDbSymbolTableRecord
100
AcDbDimStyleTableRecord
  2
AM_ISO$6
 70
     0
  4
"
 41
3.0
 42
1.5
 43
8.0
 44
1.5
 47
0.1
 48
0.1
 73
     0
 74
     0
 78
     8
 79
     2
140
3.5
141
0.0
143
0.0393701
146
0.6
147
1.0
172
     1
176
   256
177
   256
178
   256
271
     2
272
     2
283
     0
284
     8
340
11
371
    -1
372
    -1
  0
DIMSTYLE
105
85
330
A
100
AcDbSymbolTableRecord
100
AcDbDimStyleTableRecord
  2
AM_ISO$7
 70
     0
  4
"
 41
3.0
 42
1.5
 43
8.0
 44
1.5
 47
0.1
 48
0.1
 73
     0
 74
     0
 77
     1
 78
     8
 79
     2
140
5.0
141
0.0
143
0.0393701
146
0.6
147
1.0
172
     1
176
   256
177
   256
178
   256
271
     2
272
     2
283
     0
284
     8
340
11
371
    -1
372
    -1
  0
DIMSTYLE
105
86
330
A
100
AcDbSymbolTableRecord
100
AcDbDimStyleTableRecord
  2
AM_ISO$SF
 70
     0
  4
"
 41
2.5
 42
1.0
 43
10.0
 44
1.0
 47
0.1
 48
0.1
 73
     0
 74
     0
 75
     1
 76
     1
 77
     1
 78
     8
 79
     2
140
3.5
141
0.0
143
0.0393701
146
0.71
147
1.5
172
     1
176
   256
177
   256
178
     2
271
     2
272
     3
274
     4
283
     0
284
     8
340
11
371
    -1
372
    -1
  0
DIMSTYLE
105
8B
330
A
100
AcDbSymbolTableRecord
100
AcDbDimStyleTableRecord
  2
AM_ISO$SH
 70
     0
  4
"
 41
2.5
 42
1.0
 43
10.0
 44
1.0
 47
0.1
 48
0.1
 73
     0
 74
     0
 75
     1
 76
     1
 77
     1
 78
     8
 79
     2
140
3.5
141
0.0
143
0.0393701
144
2.0
146
0.71
147
1.5
172
     1
173
     1
176
   256
177
   256
178
     2
271
     2
272
     3
274
     4
283
     0
284
     8
340
11
343
87
371
    -1
372
    -1
  0
DIMSTYLE
105
40B
102
{ACAD_REACTORS
330
1B4B
330
1B4C
330
1B4D
330
1B4E
330
1B4F
330
1B50
330
1B51
330
1B59
330
1C58
330
1CC3
330
1CC6
330
1CC9
330
1CCC
330
1CCF
330
1CD2
330
1CD5
330
1CD8
330
1CDB
330
1DAD
102
}
330
A
100
AcDbSymbolTableRecord
100
AcDbDimStyleTableRecord
  2
AM_ISO$0
 70
     0
  4
"
 41
3.0
 42
1.5
 43
8.0
 44
1.5
 47
0.1
 48
0.1
 73
     0
 74
     0
 77
     1
 78
     8
 79
     2
140
3.5
141
0.0
143
0.0393701
146
0.6
147
1.0
172
     1
176
   256
177
   256
178
   256
271
     2
272
     2
283
     0
284
     8
340
11
371
    -1
372
    -1
  0
DIMSTYLE
105
ADB
330
A
100
AcDbSymbolTableRecord
100
AcDbDimStyleTableRecord
  2
AM_ANSI
 70
     0
  4
mm
 41
0.1
 42
0.05
 43
0.5
 44
0.1
 47
0.1
 48
0.1
 78
     7
 79
     2
140
0.12
141
0.0
146
0.71
147
0.06
176
   256
177
   256
178
     2
274
     4
284
     7
340
11
371
    -1
372
    -1
  0
DIMSTYLE
105
ADC
330
A
100
AcDbSymbolTableRecord
100
AcDbDimStyleTableRecord
  2
AM_ANSI$3
 70
     0
  4
mm
 41
0.1
 42
0.05
 43
0.5
 44
0.1
 47
0.1
 48
0.1
 78
     7
 79
     2
140
0.12
141
0.0
146
0.71
147
0.06
176
   256
177
   256
178
     2
274
     4
284
     7
288
     1
289
     0
340
11
371
    -1
372
    -1
  0
DIMSTYLE
105
ADD
330
A
100
AcDbSymbolTableRecord
100
AcDbDimStyleTableRecord
  2
AM_ANSI$4
 70
     0
  4
mm
 41
0.1
 42
0.05
 43
0.5
 44
0.1
 47
0.1
 48
0.1
 78
     7
 79
     2
140
0.12
141
0.0
146
0.71
147
0.06
176
   256
177
   256
178
     2
274
     4
284
     7
288
     1
289
     0
340
11
371
    -1
372
    -1
  0
DIMSTYLE
105
ADE
330
A
100
AcDbSymbolTableRecord
100
AcDbDimStyleTableRecord
  2
AM_ANSI$7
 70
     0
  4
mm
 41
0.1
 42
0.05
 43
0.5
 44
0.1
 47
0.1
 48
0.1
 78
     7
 79
     2
140
0.24
141
0.0
146
0.71
147
0.06
176
   256
177
   256
178
     2
274
     4
284
     7
340
11
371
    -1
372
    -1
  0
DIMSTYLE
105
ADF
330
A
100
AcDbSymbolTableRecord
100
AcDbDimStyleTableRecord
  2
AM_ANSI$SF
 70
     0
  4
mm
 41
0.1
 42
0.05
 43
0.5
 44
0.1
 47
0.1
 48
0.1
 75
     1
 76
     1
 78
     7
 79
     2
140
0.12
141
0.0
146
0.71
147
0.06
176
   256
177
   256
178
     2
274
     4
284
     7
340
11
371
    -1
372
    -1
  0
DIMSTYLE
105
AE0
330
A
100
AcDbSymbolTableRecord
100
AcDbDimStyleTableRecord
  2
AM_ANSI$SH
 70
     0
  4
mm
 41
0.1
 42
0.05
 43
0.5
 44
0.1
 47
0.1
 48
0.1
 75
     1
 76
     1
 78
     7
 79
     2
140
0.12
141
0.0
146
0.71
147
0.06
173
     1
176
   256
177
   256
178
     2
274
     4
284
     7
340
11
343
87
371
    -1
372
    -1
  0
ENDTAB
  0
TABLE
  2
BLOCK_RECORD
  5
1
330
0
100
AcDbSymbolTable
 70
    27
  0
BLOCK_RECORD
  5
1F
102
{ACAD_XDICTIONARY
360
8F
102
}
330
1
100
AcDbSymbolTableRecord
100
AcDbBlockTableRecord
  2
*Model_Space
340
22
  0
BLOCK_RECORD
  5
1B
330
1
100
AcDbSymbolTableRecord
100
AcDbBlockTableRecord
  2
*Paper_Space
340
1E
  0
BLOCK_RECORD
  5
23
330
1
100
AcDbSymbolTableRecord
100
AcDbBlockTableRecord
  2
*Paper_Space0
340
26
  0
BLOCK_RECORD
  5
87
330
1
100
AcDbSymbolTableRecord
100
AcDbBlockTableRecord
  2
GENAXEH
340
0
  0
BLOCK_RECORD
  5
170F
330
1
100
AcDbSymbolTableRecord
100
AcDbBlockTableRecord
  2
GENDOT
340
0
102
{BLKREFS
331
2712
331
36D8
102
}
  0
BLOCK_RECORD
  5
1DB3
330
1
100
AcDbSymbolTableRecord
100
AcDbBlockTableRecord
  2
*D4
340
0
  0
BLOCK_RECORD
  5
1DBF
330
1
100
AcDbSymbolTableRecord
100
AcDbBlockTableRecord
  2
*D5
340
0
  0
BLOCK_RECORD
  5
1DCB
330
1
100
AcDbSymbolTableRecord
100
AcDbBlockTableRecord
  2
*D6
340
0
  0
BLOCK_RECORD
  5
1DD7
330
1
100
AcDbSymbolTableRecord
100
AcDbBlockTableRecord
  2
*D7
340
0
  0
BLOCK_RECORD
  5
1DE5
330
1
100
AcDbSymbolTableRecord
100
AcDbBlockTableRecord
  2
*D8
340
0
  0
BLOCK_RECORD
  5
1DF1
330
1
100
AcDbSymbolTableRecord
100
AcDbBlockTableRecord
  2
*D9
340
0
  0
BLOCK_RECORD
  5
1DFF
330
1
100
AcDbSymbolTableRecord
100
AcDbBlockTableRecord
  2
*D10
340
0
  0
BLOCK_RECORD
  5
1E0C
330
1
100
AcDbSymbolTableRecord
100
AcDbBlockTableRecord
  2
*D11
340
0
  0
BLOCK_RECORD
  5
1ED8
330
1
100
AcDbSymbolTableRecord
100
AcDbBlockTableRecord
  2
*D16
340
0
  0
BLOCK_RECORD
  5
1EE4
330
1
100
AcDbSymbolTableRecord
100
AcDbBlockTableRecord
  2
*D17
340
0
  0
BLOCK_RECORD
  5
1EF2
330
1
100
AcDbSymbolTableRecord
100
AcDbBlockTableRecord
  2
*D18
340
0
  0
BLOCK_RECORD
  5
1EFE
330
1
100
AcDbSymbolTableRecord
100
AcDbBlockTableRecord
  2
*D19
340
0
  0
BLOCK_RECORD
  5
1F0A
330
1
100
AcDbSymbolTableRecord
100
AcDbBlockTableRecord
  2
*D20
340
0
  0
BLOCK_RECORD
  5
1F16
330
1
100
AcDbSymbolTableRecord
100
AcDbBlockTableRecord
  2
*D21
340
0
  0
BLOCK_RECORD
  5
1F22
330
1
100
AcDbSymbolTableRecord
100
AcDbBlockTableRecord
  2
*D22
340
0
  0
BLOCK_RECORD
  5
1F2E
330
1
100
AcDbSymbolTableRecord
100
AcDbBlockTableRecord
  2
*D23
340
0
  0
BLOCK_RECORD
  5
1F3B
330
1
100
AcDbSymbolTableRecord
100
AcDbBlockTableRecord
  2
*D24
340
0
  0
BLOCK_RECORD
  5
1F47
330
1
100
AcDbSymbolTableRecord
100
AcDbBlockTableRecord
  2
*D25
340
0
  0
BLOCK_RECORD
  5
1F85
330
1
100
AcDbSymbolTableRecord
100
AcDbBlockTableRecord
  2
*D26
340
0
  0
ENDTAB
  0
ENDSEC
  0
SECTION
  2
BLOCKS
  0
BLOCK
  5
20
330
1F
100
AcDbEntity
  8
0
100
AcDbBlockBegin
  2
*Model_Space
 70
     0
 10
0.0
 20
0.0
 30
0.0
  3
*Model_Space
  1

  0
ENDBLK
  5
21
330
1F
100
AcDbEntity
  8
0
100
AcDbBlockEnd
  0
BLOCK
  5
1C
330
1B
100
AcDbEntity
 67
     1
  8
0
100
AcDbBlockBegin
  2
*Paper_Space
 70
     0
 10
0.0
 20
0.0
 30
0.0
  3
*Paper_Space
  1

  0
ENDBLK
  5
1D
330
1B
100
AcDbEntity
 67
     1
  8
0
100
AcDbBlockEnd
  0
BLOCK
  5
24
330
23
100
AcDbEntity
  8
0
100
AcDbBlockBegin
  2
*Paper_Space0
 70
     0
 10
0.0
 20
0.0
 30
0.0
  3
*Paper_Space0
  1

  0
ENDBLK
  5
25
330
23
100
AcDbEntity
  8
0
100
AcDbBlockEnd
  0
BLOCK
  5
89
330
87
100
AcDbEntity
  8
0
100
AcDbBlockBegin
  2
GENAXEH
 70
     0
 10
0.0
 20
0.0
 30
0.0
  3
GENAXEH
  1

  0
LINE
  5
88
330
87
100
AcDbEntity
  8
0
100
AcDbLine
 10
-1.0
 20
0.0
 30
0.0
 11
1.0
 21
0.0
 31
0.0
  0
ENDBLK
  5
8A
330
87
100
AcDbEntity
  8
0
100
AcDbBlockEnd
  0
BLOCK
  5
1710
330
170F
100
AcDbEntity
  8
0
100
AcDbBlockBegin
  2
GENDOT
 70
     0
 10
0.0
 20
0.0
 30
0.0
  3
GENDOT
  1

  0
LINE
  5
1711
330
170F
100
AcDbEntity
  8
0
100
AcDbLine
 10
0.0
 20
0.0
 30
0.0
 11
-1.0
 21
0.0
 31
0.0
  0
LWPOLYLINE
  5
1712
330
170F
100
AcDbEntity
  8
0
100
AcDbPolyline
 90
        2
 70
     1
 43
0.25
 10
-0.125
 20
0.0
 42
1.0
 10
0.125
 20
0.0
 42
1.0
  0
ENDBLK
  5
1713
330
170F
100
AcDbEntity
  8
0
100
AcDbBlockEnd
  0
BLOCK
  5
1DBD
330
1DB3
100
AcDbEntity
  8
0
100
AcDbBlockBegin
  2
*D4
 70
     1
 10
0.0
 20
0.0
 30
0.0
  3
*D4
  1

  0
LINE
  5
2653
330
1DB3
100
AcDbEntity
  8
AM_5
100
AcDbLine
 10
201.251816200562
 20
108.7426041429778
 30
0.0
 11
201.251816200562
 21
121.5442751683353
 31
0.0
  0
LINE
  5
2654
330
1DB3
100
AcDbEntity
  8
AM_5
100
AcDbLine
 10
229.251816200562
 20
108.7426041429778
 30
0.0
 11
229.251816200562
 21
121.5442751683353
 31
0.0
  0
LINE
  5
2655
330
1DB3
100
AcDbEntity
  8
AM_5
100
AcDbLine
 10
205.2751199922988
 20
120.035536246434
 30
0.0
 11
225.2285124088251
 21
120.035536246434
 31
0.0
  0
SOLID
  5
2656
330
1DB3
100
AcDbEntity
  8
AM_5
100
AcDbTrace
 10
205.2751199922988
 20
120.7060868783902
 30
0.0
 11
205.2751199922988
 21
119.3649856144779
 31
0.0
 12
201.251816200562
 22
120.035536246434
 32
0.0
 13
201.251816200562
 23
120.035536246434
 33
0.0
  0
SOLID
  5
2657
330
1DB3
100
AcDbEntity
  8
AM_5
100
AcDbTrace
 10
225.2285124088251
 20
120.7060868783902
 30
0.0
 11
225.2285124088251
 21
119.3649856144779
 31
0.0
 12
229.251816200562
 22
120.035536246434
 32
0.0
 13
229.251816200562
 23
120.035536246434
 33
0.0
  0
MTEXT
  5
2658
330
1DB3
100
AcDbEntity
  8
AM_5
100
AcDbMText
 10
215.251816200562
 20
123.0534100847044
 30
0.0
 40
4.023303791736851
 41
0.0
 71
     5
 72
     1
  1
{\Famgdt|c136;o}28
 73
     1
 44
1.0
1001
ACAD
1000
MTEXTBEGIN
1070
    73
1070
     1
1070
    44
1040
1.0
1070
    74
1070
     0
1000
MTEXTEND
  0
POINT
  5
2659
330
1DB3
100
AcDbEntity
  8
Defpoints
 62
     0
100
AcDbPoint
 10
201.251816200562
 20
107.2338652210765
 30
0.0
  0
POINT
  5
265A
330
1DB3
100
AcDbEntity
  8
Defpoints
 62
     0
100
AcDbPoint
 10
229.251816200562
 20
107.2338652210765
 30
0.0
  0
POINT
  5
265B
330
1DB3
100
AcDbEntity
  8
Defpoints
 62
     0
100
AcDbPoint
 10
229.251816200562
 20
120.035536246434
 30
0.0
  0
ENDBLK
  5
1DBE
330
1DB3
100
AcDbEntity
  8
0
100
AcDbBlockEnd
  0
BLOCK
  5
1DC9
330
1DBF
100
AcDbEntity
  8
0
100
AcDbBlockBegin
  2
*D5
 70
     1
 10
0.0
 20
0.0
 30
0.0
  3
*D5
  1

  0
LINE
  5
2649
330
1DBF
100
AcDbEntity
  8
AM_5
100
AcDbLine
 10
195.2518162005619
 20
106.180851868814
 30
0.0
 11
195.2518162005619
 21
129.5908827518089
 31
0.0
  0
LINE
  5
264A
330
1DBF
100
AcDbEntity
  8
AM_5
100
AcDbLine
 10
235.2518162005617
 20
106.1808518688138
 30
0.0
 11
235.2518162005617
 21
129.5908827518089
 31
0.0
  0
LINE
  5
264B
330
1DBF
100
AcDbEntity
  8
AM_5
100
AcDbLine
 10
199.2751199922988
 20
128.0821438299076
 30
0.0
 11
231.2285124088249
 21
128.0821438299076
 31
0.0
  0
SOLID
  5
264C
330
1DBF
100
AcDbEntity
  8
AM_5
100
AcDbTrace
 10
199.2751199922988
 20
128.7526944618637
 30
0.0
 11
199.2751199922988
 21
127.4115931979515
 31
0.0
 12
195.2518162005619
 22
128.0821438299076
 32
0.0
 13
195.2518162005619
 23
128.0821438299076
 33
0.0
  0
SOLID
  5
264D
330
1DBF
100
AcDbEntity
  8
AM_5
100
AcDbTrace
 10
231.2285124088249
 20
128.7526944618637
 30
0.0
 11
231.2285124088249
 21
127.4115931979515
 31
0.0
 12
235.2518162005617
 22
128.0821438299076
 32
0.0
 13
235.2518162005617
 23
128.0821438299076
 33
0.0
  0
MTEXT
  5
264E
330
1DBF
100
AcDbEntity
  8
AM_5
100
AcDbMText
 10
215.2518162005618
 20
131.0996216737103
 30
0.0
 40
4.023303791736851
 41
0.0
 71
     5
 72
     1
  1
{\Famgdt|c136;o}40
 73
     1
 44
1.0
1001
ACAD
1000
MTEXTBEGIN
1070
    73
1070
     1
1070
    44
1040
1.0
1070
    74
1070
     0
1000
MTEXTEND
  0
POINT
  5
264F
330
1DBF
100
AcDbEntity
  8
Defpoints
 62
     0
100
AcDbPoint
 10
195.2518162005619
 20
104.6721129469126
 30
0.0
  0
POINT
  5
2650
330
1DBF
100
AcDbEntity
  8
Defpoints
 62
     0
100
AcDbPoint
 10
235.2518162005617
 20
104.6721129469125
 30
0.0
  0
POINT
  5
2651
330
1DBF
100
AcDbEntity
  8
Defpoints
 62
     0
100
AcDbPoint
 10
235.2518162005617
 20
128.0821438299076
 30
0.0
  0
ENDBLK
  5
1DCA
330
1DBF
100
AcDbEntity
  8
0
100
AcDbBlockEnd
  0
BLOCK
  5
1DD5
330
1DCB
100
AcDbEntity
  8
0
100
AcDbBlockBegin
  2
*D6
 70
     1
 10
0.0
 20
0.0
 30
0.0
  3
*D6
  1

  0
LINE
  5
268C
330
1DCB
100
AcDbEntity
  8
AM_5
100
AcDbLine
 10
361.0289821366953
 20
92.0596541429777
 30
0.0
 11
361.0289821366953
 21
114.4725086068209
 31
0.0
  0
LINE
  5
268D
330
1DCB
100
AcDbEntity
  8
AM_5
100
AcDbLine
 10
332.0289821366953
 20
109.5676041429777
 30
0.0
 11
332.0289821366953
 21
114.4725086068209
 31
0.0
  0
LINE
  5
268E
330
1DCB
100
AcDbEntity
  8
AM_5
100
AcDbLine
 10
357.0056783449584
 20
112.9637696849196
 30
0.0
 11
336.0522859284321
 21
112.9637696849196
 31
0.0
  0
SOLID
  5
268F
330
1DCB
100
AcDbEntity
  8
AM_5
100
AcDbTrace
 10
357.0056783449584
 20
113.6343203168757
 30
0.0
 11
357.0056783449584
 21
112.2932190529634
 31
0.0
 12
361.0289821366953
 22
112.9637696849196
 32
0.0
 13
361.0289821366953
 23
112.9637696849196
 33
0.0
  0
SOLID
  5
2690
330
1DCB
100
AcDbEntity
  8
AM_5
100
AcDbTrace
 10
336.0522859284321
 20
113.6343203168757
 30
0.0
 11
336.0522859284321
 21
112.2932190529634
 31
0.0
 12
332.0289821366953
 22
112.9637696849196
 32
0.0
 13
332.0289821366953
 23
112.9637696849196
 33
0.0
  0
MTEXT
  5
2691
330
1DCB
100
AcDbEntity
  8
AM_5
100
AcDbMText
 10
346.5289821366953
 20
115.9816435231899
 30
0.0
 40
4.023303791736851
 41
0.0
 71
     5
 72
     1
  1
29
 73
     1
 44
1.0
1001
ACAD
1000
MTEXTBEGIN
1070
    73
1070
     1
1070
    44
1040
1.0
1070
    74
1070
     0
1000
MTEXTEND
  0
POINT
  5
2692
330
1DCB
100
AcDbEntity
  8
Defpoints
 62
     0
100
AcDbPoint
 10
361.0289821366953
 20
90.55091522107636
 30
0.0
  0
POINT
  5
2693
330
1DCB
100
AcDbEntity
  8
Defpoints
 62
     0
100
AcDbPoint
 10
332.0289821366953
 20
108.0588652210764
 30
0.0
  0
POINT
  5
2694
330
1DCB
100
AcDbEntity
  8
Defpoints
 62
     0
100
AcDbPoint
 10
332.0289821366953
 20
112.9637696849196
 30
0.0
  0
ENDBLK
  5
1DD6
330
1DCB
100
AcDbEntity
  8
0
100
AcDbBlockEnd
  0
BLOCK
  5
1DE3
330
1DD7
100
AcDbEntity
  8
0
100
AcDbBlockBegin
  2
*D7
 70
     1
 10
0.0
 20
0.0
 30
0.0
  3
*D7
  1

  0
LINE
  5
2796
330
1DD7
100
AcDbEntity
  8
AM_5
100
AcDbLine
 10
396.5289821366953
 20
92.0596541429777
 30
0.0
 11
396.5289821366953
 21
114.4061341230149
 31
0.0
  0
LINE
  5
2797
330
1DD7
100
AcDbEntity
  8
AM_5
100
AcDbLine
 10
405.0289821366952
 20
109.5676041429777
 30
0.0
 11
405.0289821366952
 21
114.4061341230149
 31
0.0
  0
LINE
  5
2798
330
1DD7
100
AcDbEntity
  8
AM_5
100
AcDbLine
 10
392.5056783449584
 20
112.8973952011135
 30
0.0
 11
388.4823745532216
 21
112.8973952011135
 31
0.0
  0
LINE
  5
2799
330
1DD7
100
AcDbEntity
  8
AM_5
100
AcDbLine
 10
409.0522859284321
 20
112.8973952011135
 30
0.0
 11
413.0755897201689
 21
112.8973952011135
 31
0.0
  0
LINE
  5
279A
330
1DD7
100
AcDbEntity
  8
AM_5
100
AcDbLine
 10
396.5289821366953
 20
112.8973952011135
 30
0.0
 11
405.0289821366952
 21
112.8973952011135
 31
0.0
  0
SOLID
  5
279B
330
1DD7
100
AcDbEntity
  8
AM_5
100
AcDbTrace
 10
392.5056783449584
 20
113.5679458330697
 30
0.0
 11
392.5056783449584
 21
112.2268445691574
 31
0.0
 12
396.5289821366953
 22
112.8973952011135
 32
0.0
 13
396.5289821366953
 23
112.8973952011135
 33
0.0
  0
SOLID
  5
279C
330
1DD7
100
AcDbEntity
  8
AM_5
100
AcDbTrace
 10
409.0522859284321
 20
113.5679458330697
 30
0.0
 11
409.0522859284321
 21
112.2268445691574
 31
0.0
 12
405.0289821366952
 22
112.8973952011135
 32
0.0
 13
405.0289821366952
 23
112.8973952011135
 33
0.0
  0
MTEXT
  5
279D
330
1DD7
100
AcDbEntity
  8
AM_5
100
AcDbMText
 10
400.7789821366952
 20
115.9148730449162
 30
0.0
 40
4.023303791736851
 41
0.0
 71
     5
 72
     1
  1
8.5
 73
     1
 44
1.0
1001
ACAD
1000
MTEXTBEGIN
1070
    73
1070
     1
1070
    44
1040
1.0
1070
    74
1070
     0
1000
MTEXTEND
  0
POINT
  5
279E
330
1DD7
100
AcDbEntity
  8
Defpoints
 62
     0
100
AcDbPoint
 10
396.5289821366953
 20
90.55091522107636
 30
0.0
  0
POINT
  5
279F
330
1DD7
100
AcDbEntity
  8
Defpoints
 62
     0
100
AcDbPoint
 10
405.0289821366952
 20
108.0588652210764
 30
0.0
  0
POINT
  5
27A0
330
1DD7
100
AcDbEntity
  8
Defpoints
 62
     0
100
AcDbPoint
 10
405.0289821366952
 20
112.8973952011135
 30
0.0
  0
ENDBLK
  5
1DE4
330
1DD7
100
AcDbEntity
  8
0
100
AcDbBlockEnd
  0
BLOCK
  5
1DEF
330
1DE5
100
AcDbEntity
  8
0
100
AcDbBlockBegin
  2
*D8
 70
     1
 10
0.0
 20
0.0
 30
0.0
  3
*D8
  1

  0
LINE
  5
27AA
330
1DE5
100
AcDbEntity
  8
AM_5
100
AcDbLine
 10
332.0289821366953
 20
109.5676041429777
 30
0.0
 11
332.0289821366953
 21
132.7418266767028
 31
0.0
  0
LINE
  5
27AB
330
1DE5
100
AcDbEntity
  8
AM_5
100
AcDbLine
 10
405.0289821366952
 20
109.5676041429777
 30
0.0
 11
405.0289821366952
 21
132.7418266767028
 31
0.0
  0
LINE
  5
27AC
330
1DE5
100
AcDbEntity
  8
AM_5
100
AcDbLine
 10
336.0522859284321
 20
131.2330877548015
 30
0.0
 11
401.0056783449583
 21
131.2330877548015
 31
0.0
  0
SOLID
  5
27AD
330
1DE5
100
AcDbEntity
  8
AM_5
100
AcDbTrace
 10
336.0522859284321
 20
131.9036383867576
 30
0.0
 11
336.0522859284321
 21
130.5625371228454
 31
0.0
 12
332.0289821366953
 22
131.2330877548015
 32
0.0
 13
332.0289821366953
 23
131.2330877548015
 33
0.0
  0
SOLID
  5
27AE
330
1DE5
100
AcDbEntity
  8
AM_5
100
AcDbTrace
 10
401.0056783449583
 20
131.9036383867576
 30
0.0
 11
401.0056783449583
 21
130.5625371228454
 31
0.0
 12
405.0289821366952
 22
131.2330877548015
 32
0.0
 13
405.0289821366952
 23
131.2330877548015
 33
0.0
  0
MTEXT
  5
27AF
330
1DE5
100
AcDbEntity
  8
AM_5
100
AcDbMText
 10
368.5289821366953
 20
134.2505655986042
 30
0.0
 40
4.023303791736851
 41
0.0
 71
     5
 72
     1
  1
63+ST
 73
     1
 44
1.0
1001
ACAD
1000
MTEXTBEGIN
1070
    73
1070
     1
1070
    44
1040
1.0
1070
    74
1070
     0
1000
MTEXTEND
  0
POINT
  5
27B0
330
1DE5
100
AcDbEntity
  8
Defpoints
 62
     0
100
AcDbPoint
 10
332.0289821366953
 20
108.0588652210764
 30
0.0
  0
POINT
  5
27B1
330
1DE5
100
AcDbEntity
  8
Defpoints
 62
     0
100
AcDbPoint
 10
405.0289821366952
 20
108.0588652210764
 30
0.0
  0
POINT
  5
27B2
330
1DE5
100
AcDbEntity
  8
Defpoints
 62
     0
100
AcDbPoint
 10
405.0289821366952
 20
131.2330877548015
 30
0.0
  0
ENDBLK
  5
1DF0
330
1DE5
100
AcDbEntity
  8
0
100
AcDbBlockEnd
  0
BLOCK
  5
1DFD
330
1DF1
100
AcDbEntity
  8
0
100
AcDbBlockBegin
  2
*D9
 70
     1
 10
0.0
 20
0.0
 30
0.0
  3
*D9
  1

  0
LINE
  5
26B4
330
1DF1
100
AcDbEntity
  8
AM_5
100
AcDbLine
 10
332.0289821366953
 20
109.5676041429777
 30
0.0
 11
332.0289821366953
 21
114.4725086068209
 31
0.0
  0
LINE
  5
26B5
330
1DF1
100
AcDbEntity
  8
AM_5
100
AcDbLine
 10
329.0289821366953
 20
100.8176041429777
 30
0.0
 11
329.0289821366953
 21
114.4725086068209
 31
0.0
  0
LINE
  5
26B6
330
1DF1
100
AcDbEntity
  8
AM_5
100
AcDbLine
 10
336.0522859284321
 20
112.9637696849196
 30
0.0
 11
340.075589720169
 21
112.9637696849196
 31
0.0
  0
LINE
  5
26B7
330
1DF1
100
AcDbEntity
  8
AM_5
100
AcDbLine
 10
325.0056783449584
 20
112.9637696849196
 30
0.0
 11
317.19475044105
 21
112.9637696849196
 31
0.0
  0
LINE
  5
26B8
330
1DF1
100
AcDbEntity
  8
AM_5
100
AcDbLine
 10
332.0289821366953
 20
112.9637696849196
 30
0.0
 11
329.0289821366953
 21
112.9637696849196
 31
0.0
  0
SOLID
  5
26B9
330
1DF1
100
AcDbEntity
  8
AM_5
100
AcDbTrace
 10
336.0522859284321
 20
113.6343203168757
 30
0.0
 11
336.0522859284321
 21
112.2932190529634
 31
0.0
 12
332.0289821366953
 22
112.9637696849196
 32
0.0
 13
332.0289821366953
 23
112.9637696849196
 33
0.0
  0
SOLID
  5
26BA
330
1DF1
100
AcDbEntity
  8
AM_5
100
AcDbTrace
 10
325.0056783449584
 20
113.6343203168757
 30
0.0
 11
325.0056783449584
 21
112.2932190529634
 31
0.0
 12
329.0289821366953
 22
112.9637696849196
 32
0.0
 13
329.0289821366953
 23
112.9637696849196
 33
0.0
  0
MTEXT
  5
26BB
330
1DF1
100
AcDbEntity
  8
AM_5
100
AcDbMText
 10
319.0885624971357
 20
115.9812475287222
 30
0.0
 40
4.023303791736851
 41
0.0
 71
     5
 72
     1
  1
3
 73
     1
 44
1.0
1001
ACAD
1000
MTEXTBEGIN
1070
    73
1070
     1
1070
    44
1040
1.0
1070
    74
1070
     0
1000
MTEXTEND
  0
POINT
  5
26BC
330
1DF1
100
AcDbEntity
  8
Defpoints
 62
     0
100
AcDbPoint
 10
332.0289821366953
 20
108.0588652210764
 30
0.0
  0
POINT
  5
26BD
330
1DF1
100
AcDbEntity
  8
Defpoints
 62
     0
100
AcDbPoint
 10
329.0289821366953
 20
99.30886522107641
 30
0.0
  0
POINT
  5
26BE
330
1DF1
100
AcDbEntity
  8
Defpoints
 62
     0
100
AcDbPoint
 10
329.0289821366953
 20
112.9637696849196
 30
0.0
  0
ENDBLK
  5
1DFE
330
1DF1
100
AcDbEntity
  8
0
100
AcDbBlockEnd
  0
BLOCK
  5
1E0A
330
1DFF
100
AcDbEntity
  8
0
100
AcDbBlockBegin
  2
*D10
 70
     1
 10
0.0
 20
0.0
 30
0.0
  3
*D10
  1

  0
LINE
  5
26E9
330
1DFF
100
AcDbEntity
  8
AM_5
100
AcDbLine
 10
327.7702432147939
 20
99.29283384230021
 30
0.0
 11
321.1332216869175
 21
98.1225478753927
 31
0.0
  0
LINE
  5
26EA
330
1DFF
100
AcDbEntity
  8
AM_5
100
AcDbLine
 10
327.7702432147939
 20
76.29283384230021
 30
0.0
 11
321.1332216869175
 21
75.12254787539269
 31
0.0
  0
LINE
  5
26EB
330
1DFF
100
AcDbEntity
  8
AM_5
100
AcDbLine
 10
322.6419606088189
 20
94.36527546243205
 30
0.0
 11
322.6419606088189
 21
79.41188304590575
 31
0.0
  0
LINE
  5
26EC
330
1DFF
100
AcDbEntity
  8
AM_5
100
AcDbLine
 10
322.6419606088189
 20
75.3885792541689
 30
0.0
 11
322.6419606088189
 21
56.86995288254708
 31
0.0
  0
SOLID
  5
26ED
330
1DFF
100
AcDbEntity
  8
AM_5
100
AcDbTrace
 10
321.9714099768627
 20
94.36527546243205
 30
0.0
 11
323.312511240775
 21
94.36527546243205
 31
0.0
 12
322.6419606088189
 22
98.3885792541689
 32
0.0
 13
322.6419606088189
 23
98.3885792541689
 33
0.0
  0
SOLID
  5
26EE
330
1DFF
100
AcDbEntity
  8
AM_5
100
AcDbTrace
 10
321.9714099768627
 20
79.41188304590575
 30
0.0
 11
323.312511240775
 21
79.41188304590575
 31
0.0
 12
322.6419606088189
 22
75.3885792541689
 32
0.0
 13
322.6419606088189
 23
75.3885792541689
 33
0.0
  0
MTEXT
  5
26EF
330
1DFF
100
AcDbEntity
  8
AM_5
100
AcDbMText
 10
319.6240867705486
 20
61.98240797202243
 30
0.0
 40
4.023303791736851
 41
0.0
 71
     5
 72
     1
  1
%%c23
 11
0.0000000000000001
 21
1.0
 31
0.0
 73
     1
 44
1.0
1001
ACAD
1000
MTEXTBEGIN
1070
    73
1070
     1
1070
    44
1040
1.0
1070
    74
1070
     0
1000
MTEXTEND
  0
POINT
  5
26F0
330
1DFF
100
AcDbEntity
  8
Defpoints
 62
     0
100
AcDbPoint
 10
329.2789821366953
 20
99.55886522107642
 30
0.0
  0
POINT
  5
26F1
330
1DFF
100
AcDbEntity
  8
Defpoints
 62
     0
100
AcDbPoint
 10
329.2789821366953
 20
76.55886522107642
 30
0.0
  0
POINT
  5
26F2
330
1DFF
100
AcDbEntity
  8
Defpoints
 62
     0
100
AcDbPoint
 10
322.6419606088189
 20
75.3885792541689
 30
0.0
  0
ENDBLK
  5
1E0B
330
1DFF
100
AcDbEntity
  8
0
100
AcDbBlockEnd
  0
BLOCK
  5
1E16
330
1E0C
100
AcDbEntity
  8
0
100
AcDbBlockBegin
  2
*D11
 70
     1
 10
0.0
 20
0.0
 30
0.0
  3
*D11
  1

  0
LINE
  5
27A1
330
1E0C
100
AcDbEntity
  8
AM_5
100
AcDbLine
 10
300.0789821366946
 20
97.56760414297774
 30
0.0
 11
300.0789821366946
 21
143.5245228300852
 31
0.0
  0
LINE
  5
27A2
330
1E0C
100
AcDbEntity
  8
AM_5
100
AcDbLine
 10
405.0289821366952
 20
109.5676041429777
 30
0.0
 11
405.0289821366952
 21
143.5245228300852
 31
0.0
  0
LINE
  5
27A3
330
1E0C
100
AcDbEntity
  8
AM_5
100
AcDbLine
 10
304.1022859284314
 20
142.0157839081839
 30
0.0
 11
401.0056783449583
 21
142.0157839081839
 31
0.0
  0
SOLID
  5
27A4
330
1E0C
100
AcDbEntity
  8
AM_5
100
AcDbTrace
 10
304.1022859284314
 20
142.68633454014
 30
0.0
 11
304.1022859284314
 21
141.3452332762278
 31
0.0
 12
300.0789821366946
 22
142.0157839081839
 32
0.0
 13
300.0789821366946
 23
142.0157839081839
 33
0.0
  0
SOLID
  5
27A5
330
1E0C
100
AcDbEntity
  8
AM_5
100
AcDbTrace
 10
401.0056783449583
 20
142.68633454014
 30
0.0
 11
401.0056783449583
 21
141.3452332762278
 31
0.0
 12
405.0289821366952
 22
142.0157839081839
 32
0.0
 13
405.0289821366952
 23
142.0157839081839
 33
0.0
  0
MTEXT
  5
27A6
330
1E0C
100
AcDbEntity
  8
AM_5
100
AcDbMText
 10
352.5539821366949
 20
145.0336577464543
 30
0.0
 40
4.023303791736851
 41
0.0
 71
     5
 72
     1
  1
85+ST*2
 73
     1
 44
1.0
1001
ACAD
1000
MTEXTBEGIN
1070
    73
1070
     1
1070
    44
1040
1.0
1070
    74
1070
     0
1000
MTEXTEND
  0
POINT
  5
27A7
330
1E0C
100
AcDbEntity
  8
Defpoints
 62
     0
100
AcDbPoint
 10
300.0789821366946
 20
96.05886522107642
 30
0.0
  0
POINT
  5
27A8
330
1E0C
100
AcDbEntity
  8
Defpoints
 62
     0
100
AcDbPoint
 10
405.0289821366952
 20
108.0588652210764
 30
0.0
  0
POINT
  5
27A9
330
1E0C
100
AcDbEntity
  8
Defpoints
 62
     0
100
AcDbPoint
 10
405.0289821366952
 20
142.0157839081839
 30
0.0
  0
ENDBLK
  5
1E17
330
1E0C
100
AcDbEntity
  8
0
100
AcDbBlockEnd
  0
BLOCK
  5
1EE2
330
1ED8
100
AcDbEntity
  8
0
100
AcDbBlockBegin
  2
*D16
 70
     1
 10
0.0
 20
0.0
 30
0.0
  3
*D16
  1

  0
LINE
  5
2669
330
1ED8
100
AcDbEntity
  8
AM_5
100
AcDbLine
 10
173.7430772786604
 20
96.05886522107642
 30
0.0
 11
161.7430772786604
 21
96.05886522107642
 31
0.0
  0
LINE
  5
266A
330
1ED8
100
AcDbEntity
  8
AM_5
100
AcDbLine
 10
173.7430772786604
 20
80.05886522107642
 30
0.0
 11
161.7430772786604
 21
80.05886522107642
 31
0.0
  0
LINE
  5
266B
330
1ED8
100
AcDbEntity
  8
AM_5
100
AcDbLine
 10
163.2518162005617
 20
92.03556142933956
 30
0.0
 11
163.2518162005617
 21
84.08216901281326
 31
0.0
  0
SOLID
  5
266C
330
1ED8
100
AcDbEntity
  8
AM_5
100
AcDbTrace
 10
162.5812655686056
 20
92.03556142933956
 30
0.0
 11
163.9223668325178
 21
92.03556142933956
 31
0.0
 12
163.2518162005617
 22
96.05886522107642
 32
0.0
 13
163.2518162005617
 23
96.05886522107642
 33
0.0
  0
SOLID
  5
266D
330
1ED8
100
AcDbEntity
  8
AM_5
100
AcDbTrace
 10
162.5812655686056
 20
84.08216901281326
 30
0.0
 11
163.9223668325178
 21
84.08216901281326
 31
0.0
 12
163.2518162005617
 22
80.05886522107642
 32
0.0
 13
163.2518162005617
 23
80.05886522107642
 33
0.0
  0
MTEXT
  5
266E
330
1ED8
100
AcDbEntity
  8
AM_5
100
AcDbMText
 10
160.234338356759
 20
88.05886522107645
 30
0.0
 40
4.023303791736851
 41
0.0
 71
     5
 72
     1
  1
16
 11
0.0000000000000001
 21
1.0
 31
0.0
 73
     1
 44
1.0
1001
ACAD
1000
MTEXTBEGIN
1070
    73
1070
     1
1070
    44
1040
1.0
1070
    74
1070
     0
1000
MTEXTEND
  0
POINT
  5
266F
330
1ED8
100
AcDbEntity
  8
Defpoints
 62
     0
100
AcDbPoint
 10
175.2518162005617
 20
96.05886522107642
 30
0.0
  0
POINT
  5
2670
330
1ED8
100
AcDbEntity
  8
Defpoints
 62
     0
100
AcDbPoint
 10
175.2518162005617
 20
80.05886522107642
 30
0.0
  0
POINT
  5
2671
330
1ED8
100
AcDbEntity
  8
Defpoints
 62
     0
100
AcDbPoint
 10
163.2518162005617
 20
80.05886522107642
 30
0.0
  0
ENDBLK
  5
1EE3
330
1ED8
100
AcDbEntity
  8
0
100
AcDbBlockEnd
  0
BLOCK
  5
1EF0
330
1EE4
100
AcDbEntity
  8
0
100
AcDbBlockBegin
  2
*D17
 70
     1
 10
0.0
 20
0.0
 30
0.0
  3
*D17
  1

  0
LINE
  5
27E7
330
1EE4
100
AcDbEntity
  8
AM_5
100
AcDbLine
 10
300.3952432147932
 20
-47.09263412618861
 30
0.0
 11
288.3952432147932
 21
-47.09263412618861
 31
0.0
  0
LINE
  5
27E8
330
1EE4
100
AcDbEntity
  8
AM_5
100
AcDbLine
 10
300.5702432147932
 20
-54.09263412618861
 30
0.0
 11
288.3952432147932
 21
-54.09263412618861
 31
0.0
  0
LINE
  5
27E9
330
1EE4
100
AcDbEntity
  8
AM_5
100
AcDbLine
 10
289.9039821366946
 20
-43.06933033445176
 30
0.0
 11
289.9039821366946
 21
-39.04602654271491
 31
0.0
  0
LINE
  5
27EA
330
1EE4
100
AcDbEntity
  8
AM_5
100
AcDbLine
 10
289.9039821366946
 20
-58.11593791792546
 30
0.0
 11
289.9039821366946
 21
-62.13924170966231
 31
0.0
  0
LINE
  5
27EB
330
1EE4
100
AcDbEntity
  8
AM_5
100
AcDbLine
 10
289.9039821366946
 20
-47.09263412618861
 30
0.0
 11
289.9039821366946
 21
-54.09263412618861
 31
0.0
  0
SOLID
  5
27EC
330
1EE4
100
AcDbEntity
  8
AM_5
100
AcDbTrace
 10
289.2334315047385
 20
-43.06933033445176
 30
0.0
 11
290.5745327686507
 21
-43.06933033445176
 31
0.0
 12
289.9039821366946
 22
-47.09263412618861
 32
0.0
 13
289.9039821366946
 23
-47.09263412618861
 33
0.0
  0
SOLID
  5
27ED
330
1EE4
100
AcDbEntity
  8
AM_5
100
AcDbTrace
 10
289.2334315047385
 20
-58.11593791792546
 30
0.0
 11
290.5745327686507
 21
-58.11593791792546
 31
0.0
 12
289.9039821366946
 22
-54.09263412618861
 32
0.0
 13
289.9039821366946
 23
-54.09263412618861
 33
0.0
  0
MTEXT
  5
27EE
330
1EE4
100
AcDbEntity
  8
AM_5
100
AcDbMText
 10
286.886504292892
 20
-50.59263412618856
 30
0.0
 40
4.023303791736851
 41
0.0
 71
     5
 72
     1
  1
7
 11
0.0000000000000001
 21
1.0
 31
0.0
 73
     1
 44
1.0
1001
ACAD
1000
MTEXTBEGIN
1070
    73
1070
     1
1070
    44
1040
1.0
1070
    74
1070
     0
1000
MTEXTEND
  0
POINT
  5
27EF
330
1EE4
100
AcDbEntity
  8
Defpoints
 62
     0
100
AcDbPoint
 10
301.9039821366946
 20
-47.09263412618861
 30
0.0
  0
POINT
  5
27F0
330
1EE4
100
AcDbEntity
  8
Defpoints
 62
     0
100
AcDbPoint
 10
302.0789821366946
 20
-54.09263412618861
 30
0.0
  0
POINT
  5
27F1
330
1EE4
100
AcDbEntity
  8
Defpoints
 62
     0
100
AcDbPoint
 10
289.9039821366946
 20
-54.09263412618861
 30
0.0
  0
ENDBLK
  5
1EF1
330
1EE4
100
AcDbEntity
  8
0
100
AcDbBlockEnd
  0
BLOCK
  5
1EFC
330
1EF2
100
AcDbEntity
  8
0
100
AcDbBlockBegin
  2
*D18
 70
     1
 10
0.0
 20
0.0
 30
0.0
  3
*D18
  1

  0
LINE
  5
27DD
330
1EF2
100
AcDbEntity
  8
AM_5
100
AcDbLine
 10
300.3952432147932
 20
-47.09263412618861
 30
0.0
 11
288.3952432147932
 21
-47.09263412618861
 31
0.0
  0
LINE
  5
27DE
330
1EF2
100
AcDbEntity
  8
AM_5
100
AcDbLine
 10
303.5989932147932
 20
-12.09263412618861
 30
0.0
 11
288.3952432147932
 21
-12.09263412618861
 31
0.0
  0
LINE
  5
27DF
330
1EF2
100
AcDbEntity
  8
AM_5
100
AcDbLine
 10
289.9039821366946
 20
-43.06933033445176
 30
0.0
 11
289.9039821366946
 21
-16.11593791792546
 31
0.0
  0
SOLID
  5
27E0
330
1EF2
100
AcDbEntity
  8
AM_5
100
AcDbTrace
 10
289.2334315047385
 20
-43.06933033445176
 30
0.0
 11
290.5745327686507
 21
-43.06933033445176
 31
0.0
 12
289.9039821366946
 22
-47.09263412618861
 32
0.0
 13
289.9039821366946
 23
-47.09263412618861
 33
0.0
  0
SOLID
  5
27E1
330
1EF2
100
AcDbEntity
  8
AM_5
100
AcDbTrace
 10
289.2334315047385
 20
-16.11593791792546
 30
0.0
 11
290.5745327686507
 21
-16.11593791792546
 31
0.0
 12
289.9039821366946
 22
-12.09263412618861
 32
0.0
 13
289.9039821366946
 23
-12.09263412618861
 33
0.0
  0
MTEXT
  5
27E2
330
1EF2
100
AcDbEntity
  8
AM_5
100
AcDbMText
 10
286.886504292892
 20
-29.59263412618857
 30
0.0
 40
4.023303791736851
 41
0.0
 71
     5
 72
     1
  1
35
 11
0.0000000000000001
 21
1.0
 31
0.0
 73
     1
 44
1.0
1001
ACAD
1000
MTEXTBEGIN
1070
    73
1070
     1
1070
    44
1040
1.0
1070
    74
1070
     0
1000
MTEXTEND
  0
POINT
  5
27E3
330
1EF2
100
AcDbEntity
  8
Defpoints
 62
     0
100
AcDbPoint
 10
301.9039821366946
 20
-47.09263412618861
 30
0.0
  0
POINT
  5
27E4
330
1EF2
100
AcDbEntity
  8
Defpoints
 62
     0
100
AcDbPoint
 10
305.1077321366945
 20
-12.09263412618861
 30
0.0
  0
POINT
  5
27E5
330
1EF2
100
AcDbEntity
  8
Defpoints
 62
     0
100
AcDbPoint
 10
289.9039821366946
 20
-12.09263412618861
 30
0.0
  0
ENDBLK
  5
1EFD
330
1EF2
100
AcDbEntity
  8
0
100
AcDbBlockEnd
  0
BLOCK
  5
1F08
330
1EFE
100
AcDbEntity
  8
0
100
AcDbBlockBegin
  2
*D19
 70
     1
 10
0.0
 20
0.0
 30
0.0
  3
*D19
  1

  0
LINE
  5
27D3
330
1EFE
100
AcDbEntity
  8
AM_5
100
AcDbLine
 10
298.5702432147932
 20
-3.092634126188613
 30
0.0
 11
280.3952432147933
 21
-3.092634126188607
 31
0.0
  0
LINE
  5
27D4
330
1EFE
100
AcDbEntity
  8
AM_5
100
AcDbLine
 10
300.5702432147932
 20
-54.09263412618861
 30
0.0
 11
280.3952432147933
 21
-54.09263412618861
 31
0.0
  0
LINE
  5
27D5
330
1EFE
100
AcDbEntity
  8
AM_5
100
AcDbLine
 10
281.9039821366946
 20
-7.115937917925458
 30
0.0
 11
281.9039821366946
 21
-50.06933033445176
 31
0.0
  0
SOLID
  5
27D6
330
1EFE
100
AcDbEntity
  8
AM_5
100
AcDbTrace
 10
281.2334315047385
 20
-7.115937917925458
 30
0.0
 11
282.5745327686507
 21
-7.115937917925459
 31
0.0
 12
281.9039821366946
 22
-3.092634126188608
 32
0.0
 13
281.9039821366946
 23
-3.092634126188608
 33
0.0
  0
SOLID
  5
27D7
330
1EFE
100
AcDbEntity
  8
AM_5
100
AcDbTrace
 10
281.2334315047385
 20
-50.06933033445176
 30
0.0
 11
282.5745327686507
 21
-50.06933033445176
 31
0.0
 12
281.9039821366946
 22
-54.09263412618861
 32
0.0
 13
281.9039821366946
 23
-54.09263412618861
 33
0.0
  0
MTEXT
  5
27D8
330
1EFE
100
AcDbEntity
  8
AM_5
100
AcDbMText
 10
278.886504292892
 20
-28.59263412618857
 30
0.0
 40
4.023303791736851
 41
0.0
 71
     5
 72
     1
  1
51
 11
0.0000000000000001
 21
1.0
 31
0.0
 73
     1
 44
1.0
1001
ACAD
1000
MTEXTBEGIN
1070
    73
1070
     1
1070
    44
1040
1.0
1070
    74
1070
     0
1000
MTEXTEND
  0
POINT
  5
27D9
330
1EFE
100
AcDbEntity
  8
Defpoints
 62
     0
100
AcDbPoint
 10
300.0789821366946
 20
-3.092634126188613
 30
0.0
  0
POINT
  5
27DA
330
1EFE
100
AcDbEntity
  8
Defpoints
 62
     0
100
AcDbPoint
 10
302.0789821366946
 20
-54.09263412618861
 30
0.0
  0
POINT
  5
27DB
330
1EFE
100
AcDbEntity
  8
Defpoints
 62
     0
100
AcDbPoint
 10
281.9039821366946
 20
-54.09263412618861
 30
0.0
  0
ENDBLK
  5
1F09
330
1EFE
100
AcDbEntity
  8
0
100
AcDbBlockEnd
  0
BLOCK
  5
1F14
330
1F0A
100
AcDbEntity
  8
0
100
AcDbBlockBegin
  2
*D20
 70
     1
 10
0.0
 20
0.0
 30
0.0
  3
*D20
  1

  0
LINE
  5
2735
330
1F0A
100
AcDbEntity
  8
AM_5
100
AcDbLine
 10
314.0789821366945
 20
-55.60137304808993
 30
0.0
 11
314.0789821366945
 21
-62.61324169540078
 31
0.0
  0
LINE
  5
2736
330
1F0A
100
AcDbEntity
  8
AM_5
100
AcDbLine
 10
337.0789821366945
 20
-48.60137304808993
 30
0.0
 11
337.0789821366945
 21
-62.61324169540078
 31
0.0
  0
LINE
  5
2737
330
1F0A
100
AcDbEntity
  8
AM_5
100
AcDbLine
 10
318.1022859284314
 20
-61.10450277349946
 30
0.0
 11
333.0556783449577
 21
-61.10450277349946
 31
0.0
  0
SOLID
  5
2738
330
1F0A
100
AcDbEntity
  8
AM_5
100
AcDbTrace
 10
318.1022859284314
 20
-60.43395214154332
 30
0.0
 11
318.1022859284314
 21
-61.7750534054556
 31
0.0
 12
314.0789821366945
 22
-61.10450277349946
 32
0.0
 13
314.0789821366945
 23
-61.10450277349946
 33
0.0
  0
SOLID
  5
2739
330
1F0A
100
AcDbEntity
  8
AM_5
100
AcDbTrace
 10
333.0556783449577
 20
-60.43395214154332
 30
0.0
 11
333.0556783449577
 21
-61.7750534054556
 31
0.0
 12
337.0789821366945
 22
-61.10450277349946
 32
0.0
 13
337.0789821366945
 23
-61.10450277349946
 33
0.0
  0
MTEXT
  5
273A
330
1F0A
100
AcDbEntity
  8
AM_5
100
AcDbMText
 10
325.5789821366946
 20
-58.08662893522913
 30
0.0
 40
4.023303791736851
 41
0.0
 71
     5
 72
     1
  1
12-25
 73
     1
 44
1.0
1001
ACAD
1000
MTEXTBEGIN
1070
    73
1070
     1
1070
    44
1040
1.0
1070
    74
1070
     0
1000
MTEXTEND
  0
POINT
  5
273B
330
1F0A
100
AcDbEntity
  8
Defpoints
 62
     0
100
AcDbPoint
 10
314.0789821366945
 20
-54.09263412618861
 30
0.0
  0
POINT
  5
273C
330
1F0A
100
AcDbEntity
  8
Defpoints
 62
     0
100
AcDbPoint
 10
337.0789821366945
 20
-47.09263412618861
 30
0.0
  0
POINT
  5
273D
330
1F0A
100
AcDbEntity
  8
Defpoints
 62
     0
100
AcDbPoint
 10
337.0789821366945
 20
-61.10450277349946
 30
0.0
  0
ENDBLK
  5
1F15
330
1F0A
100
AcDbEntity
  8
0
100
AcDbBlockEnd
  0
BLOCK
  5
1F20
330
1F16
100
AcDbEntity
  8
0
100
AcDbBlockBegin
  2
*D21
 70
     1
 10
0.0
 20
0.0
 30
0.0
  3
*D21
  1

  0
LINE
  5
27BC
330
1F16
100
AcDbEntity
  8
AM_5
100
AcDbLine
 10
314.0789821366945
 20
97.56760414297774
 30
0.0
 11
314.0789821366945
 21
132.7418266767028
 31
0.0
  0
LINE
  5
27BD
330
1F16
100
AcDbEntity
  8
AM_5
100
AcDbLine
 10
300.0789821366946
 20
97.56760414297774
 30
0.0
 11
300.0789821366946
 21
132.7418266767028
 31
0.0
  0
LINE
  5
27BE
330
1F16
100
AcDbEntity
  8
AM_5
100
AcDbLine
 10
310.0556783449577
 20
131.2330877548015
 30
0.0
 11
304.1022859284314
 21
131.2330877548015
 31
0.0
  0
SOLID
  5
27BF
330
1F16
100
AcDbEntity
  8
AM_5
100
AcDbTrace
 10
310.0556783449577
 20
131.9036383867576
 30
0.0
 11
310.0556783449577
 21
130.5625371228454
 31
0.0
 12
314.0789821366945
 22
131.2330877548015
 32
0.0
 13
314.0789821366945
 23
131.2330877548015
 33
0.0
  0
SOLID
  5
27C0
330
1F16
100
AcDbEntity
  8
AM_5
100
AcDbTrace
 10
304.1022859284314
 20
131.9036383867576
 30
0.0
 11
304.1022859284314
 21
130.5625371228454
 31
0.0
 12
300.0789821366946
 22
131.2330877548015
 32
0.0
 13
300.0789821366946
 23
131.2330877548015
 33
0.0
  0
MTEXT
  5
27C1
330
1F16
100
AcDbEntity
  8
AM_5
100
AcDbMText
 10
307.0789821366946
 20
134.2505655986042
 30
0.0
 40
4.023303791736851
 41
0.0
 71
     5
 72
     1
  1
14
 73
     1
 44
1.0
1001
ACAD
1000
MTEXTBEGIN
1070
    73
1070
     1
1070
    44
1040
1.0
1070
    74
1070
     0
1000
MTEXTEND
  0
POINT
  5
27C2
330
1F16
100
AcDbEntity
  8
Defpoints
 62
     0
100
AcDbPoint
 10
314.0789821366945
 20
96.05886522107642
 30
0.0
  0
POINT
  5
27C3
330
1F16
100
AcDbEntity
  8
Defpoints
 62
     0
100
AcDbPoint
 10
300.0789821366946
 20
96.05886522107642
 30
0.0
  0
POINT
  5
27C4
330
1F16
100
AcDbEntity
  8
Defpoints
 62
     0
100
AcDbPoint
 10
300.0789821366946
 20
131.2330877548015
 30
0.0
  0
ENDBLK
  5
1F21
330
1F16
100
AcDbEntity
  8
0
100
AcDbBlockEnd
  0
BLOCK
  5
1F2C
330
1F22
100
AcDbEntity
  8
0
100
AcDbBlockBegin
  2
*D22
 70
     1
 10
0.0
 20
0.0
 30
0.0
  3
*D22
  1

  0
LINE
  5
27C7
330
1F22
100
AcDbEntity
  8
AM_5
100
AcDbLine
 10
311.5789821366945
 20
-5.583895204287294
 30
0.0
 11
311.5789821366945
 21
16.96696055203163
 31
0.0
  0
LINE
  5
27C8
330
1F22
100
AcDbEntity
  8
AM_5
100
AcDbLine
 10
332.0289821366953
 20
9.416104795712705
 30
0.0
 11
332.0289821366953
 21
16.96696055203163
 31
0.0
  0
LINE
  5
27C9
330
1F22
100
AcDbEntity
  8
AM_5
100
AcDbLine
 10
315.6022859284314
 20
15.45822163013031
 30
0.0
 11
328.0056783449584
 21
15.45822163013031
 31
0.0
  0
SOLID
  5
27CA
330
1F22
100
AcDbEntity
  8
AM_5
100
AcDbTrace
 10
315.6022859284314
 20
16.12877226208645
 30
0.0
 11
315.6022859284314
 21
14.78767099817417
 31
0.0
 12
311.5789821366945
 22
15.45822163013031
 32
0.0
 13
311.5789821366945
 23
15.45822163013031
 33
0.0
  0
SOLID
  5
27CB
330
1F22
100
AcDbEntity
  8
AM_5
100
AcDbTrace
 10
328.0056783449584
 20
16.12877226208645
 30
0.0
 11
328.0056783449584
 21
14.78767099817417
 31
0.0
 12
332.0289821366953
 22
15.45822163013031
 32
0.0
 13
332.0289821366953
 23
15.45822163013031
 33
0.0
  0
MTEXT
  5
27CC
330
1F22
100
AcDbEntity
  8
AM_5
100
AcDbMText
 10
321.8039821366949
 20
18.47569947393295
 30
0.0
 40
4.023303791736851
 41
0.0
 71
     5
 72
     1
  1
10.5+ST
 73
     1
 44
1.0
1001
ACAD
1000
MTEXTBEGIN
1070
    73
1070
     1
1070
    44
1040
1.0
1070
    74
1070
     0
1000
MTEXTEND
  0
POINT
  5
27CD
330
1F22
100
AcDbEntity
  8
Defpoints
 62
     0
100
AcDbPoint
 10
311.5789821366945
 20
-7.092634126188613
 30
0.0
  0
POINT
  5
27CE
330
1F22
100
AcDbEntity
  8
Defpoints
 62
     0
100
AcDbPoint
 10
332.0289821366953
 20
7.907365873811386
 30
0.0
  0
POINT
  5
27CF
330
1F22
100
AcDbEntity
  8
Defpoints
 62
     0
100
AcDbPoint
 10
332.0289821366953
 20
15.45822163013031
 30
0.0
  0
ENDBLK
  5
1F2D
330
1F22
100
AcDbEntity
  8
0
100
AcDbBlockEnd
  0
BLOCK
  5
1F39
330
1F2E
100
AcDbEntity
  8
0
100
AcDbBlockBegin
  2
*D23
 70
     1
 10
0.0
 20
0.0
 30
0.0
  3
*D23
  1

  0
LINE
  5
26CA
330
1F2E
100
AcDbEntity
  8
AM_5
100
AcDbLine
 10
314.020243214794
 20
94.00886522107725
 30
0.0
 11
291.8230803086613
 21
94.00886522107725
 31
0.0
  0
LINE
  5
26CB
330
1F2E
100
AcDbEntity
  8
AM_5
100
AcDbLine
 10
314.020243214794
 20
82.10886522107557
 30
0.0
 11
291.8230803086613
 21
82.10886522107557
 31
0.0
  0
LINE
  5
26CC
330
1F2E
100
AcDbEntity
  8
AM_5
100
AcDbLine
 10
293.3318192305626
 20
89.9855614293404
 30
0.0
 11
293.3318192305626
 21
86.13216901281242
 31
0.0
  0
LINE
  5
26CD
330
1F2E
100
AcDbEntity
  8
AM_5
100
AcDbLine
 10
293.3318192305626
 20
82.10886522107557
 30
0.0
 11
293.3318192305626
 21
55.15431379430944
 31
0.0
  0
SOLID
  5
26CE
330
1F2E
100
AcDbEntity
  8
AM_5
100
AcDbTrace
 10
292.6612685986064
 20
89.9855614293404
 30
0.0
 11
294.0023698625187
 21
89.9855614293404
 31
0.0
 12
293.3318192305626
 22
94.00886522107725
 32
0.0
 13
293.3318192305626
 23
94.00886522107725
 33
0.0
  0
SOLID
  5
26CF
330
1F2E
100
AcDbEntity
  8
AM_5
100
AcDbTrace
 10
292.6612685986064
 20
86.13216901281242
 30
0.0
 11
294.0023698625187
 21
86.13216901281242
 31
0.0
 12
293.3318192305626
 22
82.10886522107557
 32
0.0
 13
293.3318192305626
 23
82.10886522107557
 33
0.0
  0
MTEXT
  5
26D0
330
1F2E
100
AcDbEntity
  8
AM_5
100
AcDbMText
 10
290.1131761971731
 20
66.61993761182414
 30
0.0
 40
4.023303791736851
 41
0.0
 71
     5
 72
     1
  1
%%c12 (Rod)
 11
0.0000000000000001
 21
1.0
 31
0.0
 73
     1
 44
1.0
1001
ACAD
1000
MTEXTBEGIN
1070
    73
1070
     1
1070
    44
1040
1.0
1070
    74
1070
     0
1000
MTEXTEND
  0
POINT
  5
26D1
330
1F2E
100
AcDbEntity
  8
Defpoints
 62
     0
100
AcDbPoint
 10
315.5289821366953
 20
94.00886522107725
 30
0.0
  0
POINT
  5
26D2
330
1F2E
100
AcDbEntity
  8
Defpoints
 62
     0
100
AcDbPoint
 10
315.5289821366953
 20
82.10886522107557
 30
0.0
  0
POINT
  5
26D3
330
1F2E
100
AcDbEntity
  8
Defpoints
 62
     0
100
AcDbPoint
 10
293.3318192305626
 20
82.10886522107557
 30
0.0
  0
ENDBLK
  5
1F3A
330
1F2E
100
AcDbEntity
  8
0
100
AcDbBlockEnd
  0
BLOCK
  5
1F45
330
1F3B
100
AcDbEntity
  8
0
100
AcDbBlockBegin
  2
*D24
 70
     1
 10
0.0
 20
0.0
 30
0.0
  3
*D24
  1

  0
LINE
  5
26C0
330
1F3B
100
AcDbEntity
  8
AM_5
100
AcDbLine
 10
315.0202432147942
 20
98.80886522107642
 30
0.0
 11
282.900794452182
 21
98.80886522107644
 31
0.0
  0
LINE
  5
26C1
330
1F3B
100
AcDbEntity
  8
AM_5
100
AcDbLine
 10
315.0202432147939
 20
76.80886522107641
 30
0.0
 11
282.900794452182
 21
76.80886522107643
 31
0.0
  0
LINE
  5
26C2
330
1F3B
100
AcDbEntity
  8
AM_5
100
AcDbLine
 10
284.4095333740834
 20
94.78556142933959
 30
0.0
 11
284.4095333740834
 21
80.83216901281328
 31
0.0
  0
SOLID
  5
26C3
330
1F3B
100
AcDbEntity
  8
AM_5
100
AcDbTrace
 10
283.7389827421272
 20
94.78556142933959
 30
0.0
 11
285.0800840060395
 21
94.78556142933959
 31
0.0
 12
284.4095333740834
 22
98.80886522107644
 32
0.0
 13
284.4095333740834
 23
98.80886522107644
 33
0.0
  0
SOLID
  5
26C4
330
1F3B
100
AcDbEntity
  8
AM_5
100
AcDbTrace
 10
283.7389827421272
 20
80.83216901281328
 30
0.0
 11
285.0800840060395
 21
80.83216901281328
 31
0.0
 12
284.4095333740834
 22
76.80886522107643
 32
0.0
 13
284.4095333740834
 23
76.80886522107643
 33
0.0
  0
MTEXT
  5
26C5
330
1F3B
100
AcDbEntity
  8
AM_5
100
AcDbMText
 10
281.3916595358131
 20
87.80886522107648
 30
0.0
 40
4.023303791736851
 41
0.0
 71
     5
 72
     1
  1
%%c22.5
 11
0.0000000000000001
 21
1.0
 31
0.0
 73
     1
 44
1.0
1001
ACAD
1000
MTEXTBEGIN
1070
    73
1070
     1
1070
    44
1040
1.0
1070
    74
1070
     0
1000
MTEXTEND
  0
POINT
  5
26C6
330
1F3B
100
AcDbEntity
  8
Defpoints
 62
     0
100
AcDbPoint
 10
316.5289821366955
 20
98.80886522107642
 30
0.0
  0
POINT
  5
26C7
330
1F3B
100
AcDbEntity
  8
Defpoints
 62
     0
100
AcDbPoint
 10
316.5289821366953
 20
76.80886522107641
 30
0.0
  0
POINT
  5
26C8
330
1F3B
100
AcDbEntity
  8
Defpoints
 62
     0
100
AcDbPoint
 10
284.4095333740834
 20
76.80886522107643
 30
0.0
  0
ENDBLK
  5
1F46
330
1F3B
100
AcDbEntity
  8
0
100
AcDbBlockEnd
  0
BLOCK
  5
1F51
330
1F47
100
AcDbEntity
  8
0
100
AcDbBlockBegin
  2
*D25
 70
     1
 10
0.0
 20
0.0
 30
0.0
  3
*D25
  1

  0
LINE
  5
27B3
330
1F47
100
AcDbEntity
  8
AM_5
100
AcDbLine
 10
332.0289821366953
 20
109.5676041429777
 30
0.0
 11
332.0289821366953
 21
132.7418266767028
 31
0.0
  0
LINE
  5
27B4
330
1F47
100
AcDbEntity
  8
AM_5
100
AcDbLine
 10
315.5289821366953
 20
99.81760414297774
 30
0.0
 11
315.5289821366953
 21
132.7418266767028
 31
0.0
  0
LINE
  5
27B5
330
1F47
100
AcDbEntity
  8
AM_5
100
AcDbLine
 10
328.0056783449584
 20
131.2330877548015
 30
0.0
 11
319.5522859284321
 21
131.2330877548015
 31
0.0
  0
SOLID
  5
27B6
330
1F47
100
AcDbEntity
  8
AM_5
100
AcDbTrace
 10
328.0056783449584
 20
131.9036383867576
 30
0.0
 11
328.0056783449584
 21
130.5625371228454
 31
0.0
 12
332.0289821366953
 22
131.2330877548015
 32
0.0
 13
332.0289821366953
 23
131.2330877548015
 33
0.0
  0
SOLID
  5
27B7
330
1F47
100
AcDbEntity
  8
AM_5
100
AcDbTrace
 10
319.5522859284321
 20
131.9036383867576
 30
0.0
 11
319.5522859284321
 21
130.5625371228454
 31
0.0
 12
315.5289821366953
 22
131.2330877548015
 32
0.0
 13
315.5289821366953
 23
131.2330877548015
 33
0.0
  0
MTEXT
  5
27B8
330
1F47
100
AcDbEntity
  8
AM_5
100
AcDbMText
 10
323.7789821366953
 20
134.2505655986042
 30
0.0
 40
4.023303791736851
 41
0.0
 71
     5
 72
     1
  1
6.5+ST
 73
     1
 44
1.0
1001
ACAD
1000
MTEXTBEGIN
1070
    73
1070
     1
1070
    44
1040
1.0
1070
    74
1070
     0
1000
MTEXTEND
  0
POINT
  5
27B9
330
1F47
100
AcDbEntity
  8
Defpoints
 62
     0
100
AcDbPoint
 10
332.0289821366953
 20
108.0588652210764
 30
0.0
  0
POINT
  5
27BA
330
1F47
100
AcDbEntity
  8
Defpoints
 62
     0
100
AcDbPoint
 10
315.5289821366953
 20
98.30886522107642
 30
0.0
  0
POINT
  5
27BB
330
1F47
100
AcDbEntity
  8
Defpoints
 62
     0
100
AcDbPoint
 10
315.5289821366953
 20
131.2330877548015
 30
0.0
  0
ENDBLK
  5
1F52
330
1F47
100
AcDbEntity
  8
0
100
AcDbBlockEnd
  0
BLOCK
  5
1F8F
330
1F85
100
AcDbEntity
  8
0
100
AcDbBlockBegin
  2
*D26
 70
     1
 10
0.0
 20
0.0
 30
0.0
  3
*D26
  1

  0
LINE
  5
265D
330
1F85
100
AcDbEntity
  8
AM_5
100
AcDbLine
 10
200.1849766778453
 20
100.9920256983599
 30
0.0
 11
175.6996945964997
 21
76.50674361701419
 31
0.0
  0
LINE
  5
265E
330
1F85
100
AcDbEntity
  8
AM_5
100
AcDbLine
 10
228.1849766778455
 20
72.99202569835991
 30
0.0
 11
203.6996945964999
 21
48.50674361701419
 31
0.0
  0
LINE
  5
265F
330
1F85
100
AcDbEntity
  8
AM_5
100
AcDbLine
 10
179.6114395131269
 20
74.72867774582003
 30
0.0
 11
201.9216287253058
 21
52.41848853364136
 31
0.0
  0
SOLID
  5
2660
330
1F85
100
AcDbEntity
  8
AM_5
100
AcDbTrace
 10
180.085590412112
 20
75.20282864480513
 30
0.0
 11
179.1372886141418
 21
74.25452684683492
 31
0.0
 12
176.7665341192162
 22
77.5735831397307
 32
0.0
 13
176.7665341192162
 23
77.5735831397307
 33
0.0
  0
SOLID
  5
2661
330
1F85
100
AcDbEntity
  8
AM_5
100
AcDbTrace
 10
202.3957796242909
 20
52.89263943262646
 30
0.0
 11
201.4474778263207
 21
51.94433763465625
 31
0.0
 12
204.7665341192164
 22
49.5735831397307
 32
0.0
 13
204.7665341192164
 23
49.5735831397307
 33
0.0
  0
MTEXT
  5
2662
330
1F85
100
AcDbEntity
  8
AM_5
100
AcDbMText
 10
193.043145989686
 20
65.85019501020041
 30
0.0
 40
4.023303791736851
 41
0.0
 71
     5
 72
     1
  1
({\Famgdt|c136;o}39.6)
 11
0.7071067811865504
 21
-0.7071067811865447
 31
0.0
 73
     1
 44
1.0
1001
ACAD
1000
MTEXTBEGIN
1070
    73
1070
     1
1070
    44
1040
1.0
1070
    74
1070
     0
1000
MTEXTEND
  0
POINT
  5
2663
330
1F85
100
AcDbEntity
  8
Defpoints
 62
     0
100
AcDbPoint
 10
201.2518162005617
 20
102.0588652210764
 30
0.0
  0
POINT
  5
2664
330
1F85
100
AcDbEntity
  8
Defpoints
 62
     0
100
AcDbPoint
 10
229.251816200562
 20
74.0588652210764
 30
0.0
  0
POINT
  5
2665
330
1F85
100
AcDbEntity
  8
Defpoints
 62
     0
100
AcDbPoint
 10
204.7665341192164
 20
49.5735831397307
 30
0.0
  0
ENDBLK
  5
1F90
330
1F85
100
AcDbEntity
  8
0
100
AcDbBlockEnd
  0
ENDSEC
  0
SECTION
  2
ENTITIES
  0
TEXT
  5
14E0
330
1F
100
AcDbEntity
  8
LOGO
 62
     7
100
AcDbText
 10
197.4086958827014
 20
-97.89104743481114
 30
0.0
 40
4.665990950226243
  1
Order example:
 41
0.8
  7
CHINESET
100
AcDbText
  0
TEXT
  5
14E1
330
1F
100
AcDbEntity
  8
LOGO
 62
     7
100
AcDbText
 10
198.2458132453474
 20
-91.32229828264623
 30
0.0
 40
6.998986425339364
  1
訂購代號：
  7
CHINESET
100
AcDbText
  0
LINE
  5
14E2
330
1F
100
AcDbEntity
  8
LOGO
 62
     4
100
AcDbLine
 10
195.3813069886967
 20
-117.5552952864569
 30
0.0
 11
195.3813069886967
 21
-82.56036315975986
 31
0.0
  0
TEXT
  5
14E3
330
1F
100
AcDbEntity
  8
LOGO
  6
Continuous
100
AcDbText
 10
130.9627932351366
 20
-110.6805936821245
 30
0.0
 40
5.249239819004525
  1
金器工業股份有限公司
  7
CHINESET
100
AcDbText
  0
TEXT
  5
14E4
330
1F
100
AcDbEntity
  8
LOGO
  6
Continuous
100
AcDbText
 10
121.3209781985095
 20
-115.9308619405772
 30
0.0
 40
3.499493212669682
  1
MINDMAN INDUSTRIAL CO., LTD.
 41
0.85
  7
CHINESET
100
AcDbText
  0
LINE
  5
14E5
330
1F
100
AcDbEntity
  8
LOGO
 62
     4
100
AcDbLine
 10
195.3813069886967
 20
-89.55934958509926
 30
0.0
 11
144.0554065362077
 21
-89.55934958509926
 31
0.0
  0
LINE
  5
14E6
330
1F
100
AcDbEntity
  8
LOGO
 62
     4
100
AcDbLine
 10
195.3813069886967
 20
-96.55833601043868
 30
0.0
 11
144.0554065362077
 21
-96.55833601043868
 31
0.0
  0
LINE
  5
14E7
330
1F
100
AcDbEntity
  8
LOGO
 62
     4
100
AcDbLine
 10
195.3813069886967
 20
-103.5573224357777
 30
0.0
 11
118.3924563099635
 21
-103.5573224357777
 31
0.0
  0
LINE
  5
14E8
330
1F
100
AcDbEntity
  8
LOGO
 62
     4
100
AcDbLine
 10
144.0554065362077
 20
-103.5573224357777
 30
0.0
 11
144.0554065362077
 21
-82.56036315975986
 31
0.0
  0
TEXT
  5
14E9
330
1F
100
AcDbEntity
  8
LOGO
100
AcDbText
 10
179.1342369498825
 20
-101.8075758294434
 30
0.0
 40
3.499493212669682
  1
mm
  7
CHINESET
 72
     1
 11
183.4669428322354
 21
-100.0578292231086
 31
0.0
100
AcDbText
 73
     2
  0
TEXT
  5
14EA
330
1F
100
AcDbEntity
  8
LOGO
100
AcDbText
 10
177.3011690765793
 20
-87.80960297876459
 30
0.0
 40
3.499493212669682
  1
1 : 1
  7
CHINESET
 72
     1
 11
183.4669428322354
 21
-86.05985637242977
 31
0.0
100
AcDbText
 73
     2
  0
LINE
  5
14EB
330
1F
100
AcDbEntity
  8
LOGO
 62
     4
100
AcDbLine
 10
172.0513522375653
 20
-103.5573224357777
 30
0.0
 11
172.0513522375653
 21
-82.56036315975986
 31
0.0
  0
TEXT
  5
14EC
330
1F
100
AcDbEntity
  8
LOGO
100
AcDbText
 10
146.9409261629046
 20
-87.80788078722293
 30
229.3510200800871
 40
3.499493212669682
  1
比例 Scale:
 41
0.9
  7
CHINESET
 72
     4
 11
158.0533793868865
 21
-86.05985637242977
 31
229.3510200800871
100
AcDbText
  0
TEXT
  5
14ED
330
1F
100
AcDbEntity
  8
LOGO
100
AcDbText
 10
146.7393928484249
 20
-94.75936342920467
 30
229.3510200800871
 40
3.499493212669682
  1
投影  View:
 41
0.9
  7
CHINESET
 72
     4
 11
158.0533793868865
 21
-93.05884279776917
 31
229.3510200800871
100
AcDbText
  0
TEXT
  5
14EE
330
1F
100
AcDbEntity
  8
LOGO
100
AcDbText
 10
147.0815308009136
 20
-101.8075758294434
 30
229.3510200800871
 40
3.499493212669682
  1
單位  Unit:
 41
0.9
  7
CHINESET
 72
     4
 11
158.0533793868865
 21
-100.0578292231086
 31
229.3510200800871
100
AcDbText
  0
LWPOLYLINE
  5
14EF
330
1F
100
AcDbEntity
  8
LOGO
 62
     4
100
AcDbPolyline
 90
        4
 70
     1
 43
0.0
 10
118.3924563099635
 20
-82.56036315975984
 10
451.6257640924127
 20
-82.56036315975983
 10
451.6257640924127
 20
157.5791892008699
 10
118.3924563099635
 20
157.5791892008699
1001
GENIUS_GENREC_14
1002
{
1000
PYDIR
1011
118.3924563099635
1021
157.5791892008699
1031
0.0
1002
}
1002
{
1000
PXDIR
1011
451.6257640924127
1021
-82.56036315975983
1031
0.0
1002
}
1002
{
1000
PORI
1011
118.3924563099635
1021
-82.56036315975984
1031
0.0
1002
}
1002
{
1000
PINS
1011
118.3924563099635
1021
-82.56036315975984
1031
0.0
1002
}
1002
{
1000
PINS2
1011
451.6257640924127
1021
157.5791892008699
1031
0.0
1002
}
1002
{
1000
C
1070
     1
1002
}
1001
GENIUS_GENODEF_13
1002
{
1000
HIER
1070
     0
1002
}
1002
{
1000
MANEDIT
1070
     0
1002
}
1002
{
1000
NOSEL
1070
     0
1002
}
1002
{
1000
BEHIND
1070
     0
1002
}
1002
{
1000
OTHER
1070
     0
1002
}
1002
{
1000
REACTOR
1002
}
1001
GENIUS_GENOBJ-N-REC_13
1002
{
1000
OWNER
1000
GEN
1002
}
  0
SOLID
  5
14F0
330
1F
100
AcDbEntity
  8
LOGO
 62
     5
100
AcDbTrace
 10
122.0232366807024
 20
-97.73991308334924
 30
0.0
 11
123.5363257191588
 21
-97.73991308334963
 31
0.0
 12
129.849559293408
 22
-83.39165496005479
 32
0.0
 13
131.3626483318652
 23
-83.39165496005559
 33
0.0
  0
SOLID
  5
14F1
330
1F
100
AcDbEntity
  8
LOGO
 62
     5
100
AcDbTrace
 10
124.1624315281769
 20
-97.73991308334924
 30
0.0
 11
125.6755205666334
 21
-97.73991308334924
 31
0.0
 12
131.3626483318652
 22
-84.53951560991891
 32
0.0
 13
129.849559293408
 23
-90.08750875092609
 33
0.0
  0
SOLID
  5
14F2
330
1F
100
AcDbEntity
  8
LOGO
 62
     2
100
AcDbTrace
 10
123.5363257191588
 20
-97.73991308334963
 30
0.0
 11
124.1624315281769
 21
-97.73991308334924
 31
0.0
 12
131.3626483318652
 22
-83.39165496005559
 32
0.0
 13
131.9887541408825
 23
-83.39165496005559
 33
0.0
  0
SOLID
  5
14F3
330
1F
100
AcDbEntity
  8
LOGO
 62
     5
100
AcDbTrace
 10
119.5973838971728
 20
-102.9574614918195
 30
0.0
 11
120.1191387380204
 21
-102.9574614918195
 31
0.0
 12
121.588440979997
 22
-100.3486872875845
 32
0.0
 13
122.110195820843
 23
-100.3486872875845
 33
0.0
  0
SOLID
  5
14F4
330
1F
100
AcDbEntity
  8
LOGO
 62
     5
100
AcDbTrace
 10
121.588440979997
 20
-100.3486872875845
 30
0.0
 11
122.110195820843
 21
-100.3486872875845
 31
0.0
 12
121.588440979997
 22
-102.9574614918195
 32
0.0
 13
122.110195820843
 23
-102.9574614918195
 33
0.0
  0
SOLID
  5
14F5
330
1F
100
AcDbEntity
  8
LOGO
 62
     5
100
AcDbTrace
 10
121.588440979997
 20
-102.9574614918195
 30
0.0
 11
122.110195820843
 21
-102.9574614918195
 31
0.0
 12
123.579498062822
 22
-100.3486872875845
 32
0.0
 13
124.1012529036688
 23
-100.3486872875845
 33
0.0
  0
SOLID
  5
14F6
330
1F
100
AcDbEntity
  8
LOGO
 62
     5
100
AcDbTrace
 10
123.579498062822
 20
-100.3486872875845
 30
0.0
 11
124.1012529036688
 21
-100.3486872875845
 31
0.0
 12
123.579498062822
 22
-102.9574614918195
 32
0.0
 13
124.1012529036688
 23
-102.9574614918195
 33
0.0
  0
POLYLINE
  5
14F7
330
1F
100
AcDbEntity
  8
LOGO
 62
     5
100
AcDb2dPolyline
 66
     1
 10
0.0
 20
0.0
 30
0.0
 40
0.5225909864253392
 41
0.5225909864253392
  0
VERTEX
  5
14F8
330
14F7
100
AcDbEntity
  8
LOGO
 62
     5
100
AcDbVertex
100
AcDb2dVertex
 10
141.0685425899886
 20
-101.3921969692786
 30
0.0
 42
1.0
  0
VERTEX
  5
14F9
330
14F7
100
AcDbEntity
  8
LOGO
 62
     5
100
AcDbVertex
100
AcDb2dVertex
 10
139.5007696307123
 20
-101.3921969692786
 30
0.0
 42
1.0
  0
SEQEND
  5
14FA
330
14F7
100
AcDbEntity
  8
LOGO
 62
     5
  0
POLYLINE
  5
14FB
330
1F
100
AcDbEntity
  8
LOGO
 62
     5
100
AcDb2dPolyline
 66
     1
 10
0.0
 20
0.0
 30
0.0
 70
     1
  0
VERTEX
  5
14FC
330
14FB
100
AcDbEntity
  8
LOGO
 62
     5
100
AcDbVertex
100
AcDb2dVertex
 10
136.5454478679348
 20
-101.6530743897024
 30
0.0
 42
1.000000057330635
  0
VERTEX
  5
14FD
330
14FB
100
AcDbEntity
  8
LOGO
 62
     5
100
AcDbVertex
100
AcDb2dVertex
 10
138.1107123904761
 20
-101.6530743897024
 30
0.0
 42
1.000000057330635
  0
SEQEND
  5
14FE
330
14FB
100
AcDbEntity
  8
LOGO
 62
     5
  0
CIRCLE
  5
14FF
330
1F
100
AcDbEntity
  8
LOGO
 62
     5
100
AcDbCircle
 10
137.3280801292066
 20
-101.6530743897024
 30
0.0
 40
0.7826322612705883
  0
POLYLINE
  5
1500
330
1F
100
AcDbEntity
  8
LOGO
 62
     5
100
AcDb2dPolyline
 66
     1
 10
0.0
 20
0.0
 30
0.0
 70
     1
 40
0.5225909864253392
 41
0.5225909864253392
  0
VERTEX
  5
1501
330
1500
100
AcDbEntity
  8
LOGO
 62
     5
100
AcDbVertex
100
AcDb2dVertex
 10
136.2828981563552
 20
-101.6530743897024
 30
0.0
 42
1.0
  0
VERTEX
  5
1502
330
1500
100
AcDbEntity
  8
LOGO
 62
     5
100
AcDbVertex
100
AcDb2dVertex
 10
138.3732621020565
 20
-101.6530743897024
 30
0.0
 42
1.0
  0
SEQEND
  5
1503
330
1500
100
AcDbEntity
  8
LOGO
 62
     5
  0
LINE
  5
1504
330
1F
100
AcDbEntity
  8
LOGO
100
AcDbLine
 10
141.3281657920437
 20
-102.9574614918195
 30
0.0
 11
141.3281657920437
 21
-101.3921969692786
 31
0.0
  0
SOLID
  5
1505
330
1F
100
AcDbEntity
  8
LOGO
 62
     5
100
AcDbTrace
 10
138.1106602149943
 20
-100.3486872875845
 30
0.0
 11
138.6324150558404
 21
-100.3486872875845
 31
0.0
 12
138.1106602149943
 22
-102.9574614918195
 32
0.0
 13
138.6324150558404
 23
-102.9574614918195
 33
0.0
  0
SOLID
  5
1506
330
1F
100
AcDbEntity
  8
LOGO
 62
     5
100
AcDbTrace
 10
139.2411464286556
 20
-102.9574614918195
 30
0.0
 11
139.7629012695032
 21
-102.9574614918195
 31
0.0
 12
139.2411464286556
 22
-100.3486872875845
 32
0.0
 13
139.7629012695032
 23
-100.3486872875845
 33
0.0
  0
SOLID
  5
1507
330
1F
100
AcDbEntity
  8
LOGO
 62
     5
100
AcDbTrace
 10
140.8064109511976
 20
-101.3921969692786
 30
0.0
 11
141.3281657920437
 21
-101.3921969692786
 31
0.0
 12
140.8064109511976
 22
-102.9574614918195
 32
0.0
 13
141.3281657920437
 23
-102.9574614918195
 33
0.0
  0
SOLID
  5
1508
330
1F
100
AcDbEntity
  8
LOGO
 62
     5
100
AcDbTrace
 10
139.1889709445707
 20
-84.53951560991891
 30
0.0
 11
137.6758819061151
 21
-90.08750875092609
 31
0.0
 12
139.1889709445707
 22
-97.73991308334963
 32
0.0
 13
137.6758819061151
 23
-97.73991308334963
 33
0.0
  0
SOLID
  5
1509
330
1F
100
AcDbEntity
  8
LOGO
 62
     5
100
AcDbTrace
 10
139.8150767535881
 20
-97.73991308334963
 30
0.0
 11
141.3281657920437
 21
-97.73991308334963
 31
0.0
 12
139.8150767535881
 22
-83.39165496005559
 32
0.0
 13
141.3281657920437
 23
-83.39165496005479
 33
0.0
  0
SOLID
  5
150A
330
1F
100
AcDbEntity
  8
LOGO
 62
     2
100
AcDbTrace
 10
139.1889709445707
 20
-83.39165496005479
 30
0.0
 11
139.8150767535881
 21
-83.39165496005559
 31
0.0
 12
139.1889709445707
 22
-97.73991308334963
 32
0.0
 13
139.8150767535881
 23
-97.73991308334963
 33
0.0
  0
POLYLINE
  5
150B
330
1F
100
AcDbEntity
  8
LOGO
 62
     5
100
AcDb2dPolyline
 66
     1
 10
0.0
 20
0.0
 30
0.0
 40
0.5225909864253392
 41
0.5225909864253392
  0
VERTEX
  5
150C
330
150B
100
AcDbEntity
  8
LOGO
 62
     5
100
AcDbVertex
100
AcDb2dVertex
 10
133.5900217541915
 20
-101.3921969692786
 30
0.0
 42
1.0
  0
VERTEX
  5
150D
330
150B
100
AcDbEntity
  8
LOGO
 62
     5
100
AcDbVertex
100
AcDb2dVertex
 10
132.0222487949152
 20
-101.3921969692786
 30
0.0
 42
1.0
  0
SEQEND
  5
150E
330
150B
100
AcDbEntity
  8
LOGO
 62
     5
  0
POLYLINE
  5
150F
330
1F
100
AcDbEntity
  8
LOGO
 62
     5
100
AcDb2dPolyline
 66
     1
 10
0.0
 20
0.0
 30
0.0
 40
0.5225909864253392
 41
0.5225909864253392
  0
VERTEX
  5
1510
330
150F
100
AcDbEntity
  8
LOGO
 62
     5
100
AcDbVertex
100
AcDb2dVertex
 10
135.1552862767312
 20
-101.3921969692786
 30
0.0
 42
1.0
  0
VERTEX
  5
1511
330
150F
100
AcDbEntity
  8
LOGO
 62
     5
100
AcDbVertex
100
AcDb2dVertex
 10
133.5875133174556
 20
-101.3921969692786
 30
0.0
 42
1.0
  0
SEQEND
  5
1512
330
150F
100
AcDbEntity
  8
LOGO
 62
     5
  0
POLYLINE
  5
1513
330
1F
100
AcDbEntity
  8
LOGO
 62
     5
100
AcDb2dPolyline
 66
     1
 10
0.0
 20
0.0
 30
0.0
 40
0.5225909864253392
 41
0.5225909864253392
  0
VERTEX
  5
1514
330
1513
100
AcDbEntity
  8
LOGO
 62
     5
100
AcDbVertex
100
AcDb2dVertex
 10
127.6767654409341
 20
-101.3921969692786
 30
0.0
 42
1.0
  0
VERTEX
  5
1515
330
1513
100
AcDbEntity
  8
LOGO
 62
     5
100
AcDbVertex
100
AcDb2dVertex
 10
126.1089924816585
 20
-101.3921969692786
 30
0.0
 42
1.0
  0
SEQEND
  5
1516
330
1513
100
AcDbEntity
  8
LOGO
 62
     5
  0
SOLID
  5
1517
330
1F
100
AcDbEntity
  8
LOGO
 62
     5
100
AcDbTrace
 10
125.8493692796027
 20
-100.3486872875845
 30
0.0
 11
126.3711241204487
 21
-100.3486872875845
 31
0.0
 12
125.8493692796027
 22
-102.9574614918195
 32
0.0
 13
126.3711241204487
 23
-102.9574614918195
 33
0.0
  0
SOLID
  5
1518
330
1F
100
AcDbEntity
  8
LOGO
 62
     5
100
AcDbTrace
 10
127.4146338021439
 20
-101.3921969692786
 30
0.0
 11
127.9363886429915
 21
-101.3921969692786
 31
0.0
 12
127.4146338021439
 22
-102.9574614918195
 32
0.0
 13
127.9363886429915
 23
-102.9574614918195
 33
0.0
  0
POLYLINE
  5
1519
330
1F
100
AcDbEntity
  8
LOGO
 62
     5
100
AcDb2dPolyline
 66
     1
 10
0.0
 20
0.0
 30
0.0
 70
     1
 40
0.5225909864253392
 41
0.5225909864253392
  0
VERTEX
  5
151A
330
1519
100
AcDbEntity
  8
LOGO
 62
     5
100
AcDbVertex
100
AcDb2dVertex
 10
128.8043773205573
 20
-101.6530743897024
 30
0.0
 42
1.0
  0
VERTEX
  5
151B
330
1519
100
AcDbEntity
  8
LOGO
 62
     5
100
AcDbVertex
100
AcDb2dVertex
 10
130.8947412662594
 20
-101.6530743897024
 30
0.0
 42
1.0
  0
SEQEND
  5
151C
330
1519
100
AcDbEntity
  8
LOGO
 62
     5
  0
SOLID
  5
151D
330
1F
100
AcDbEntity
  8
LOGO
 62
     5
100
AcDbTrace
 10
130.6321393791957
 20
-99.56605502631353
 30
0.0
 11
131.1538942200425
 21
-99.56605502631353
 31
0.0
 12
130.6321393791957
 22
-102.9574614918195
 32
0.0
 13
131.1538942200425
 23
-102.9574614918195
 33
0.0
  0
SOLID
  5
151E
330
1F
100
AcDbEntity
  8
LOGO
 62
     5
100
AcDbTrace
 10
131.7626255928601
 20
-100.3486872875845
 30
0.0
 11
132.2843804337061
 21
-100.3486872875845
 31
0.0
 12
131.7626255928601
 22
-102.9574614918195
 32
0.0
 13
132.2843804337061
 23
-102.9574614918195
 33
0.0
  0
SOLID
  5
151F
330
1F
100
AcDbEntity
  8
LOGO
 62
     5
100
AcDbTrace
 10
133.3278901153998
 20
-101.3921969692786
 30
0.0
 11
133.8496449562474
 21
-101.3921969692786
 31
0.0
 12
133.3278901153998
 22
-102.9574614918195
 32
0.0
 13
133.8496449562474
 23
-102.9574614918195
 33
0.0
  0
SOLID
  5
1520
330
1F
100
AcDbEntity
  8
LOGO
 62
     5
100
AcDbTrace
 10
134.893154637941
 20
-101.3921969692786
 30
0.0
 11
135.4149094787878
 21
-101.3921969692786
 31
0.0
 12
134.893154637941
 22
-102.9574614918203
 32
0.0
 13
135.4149094787878
 23
-102.9574614918203
 33
0.0
  0
SOLID
  5
1521
330
1F
100
AcDbEntity
  8
LOGO
 62
     5
100
AcDbTrace
 10
124.718883065939
 20
-99.98345889899146
 30
0.0
 11
125.2406379067874
 21
-99.98345889899146
 31
0.0
 12
124.718883065939
 22
-99.56605502631353
 32
0.0
 13
125.2406379067874
 23
-99.56605502631353
 33
0.0
  0
SOLID
  5
1522
330
1F
100
AcDbEntity
  8
LOGO
 62
     5
100
AcDbTrace
 10
124.718883065939
 20
-100.3486872875845
 30
0.0
 11
125.2406379067874
 21
-100.3486872875845
 31
0.0
 12
124.718883065939
 22
-102.9574614918203
 32
0.0
 13
125.2406379067874
 23
-102.9574614918195
 33
0.0
  0
SOLID
  5
1523
330
1F
100
AcDbEntity
  8
LOGO
 62
     5
100
AcDbTrace
 10
129.849559293408
 20
-97.73991308334924
 30
0.0
 11
131.3626483318652
 21
-97.73991308334924
 31
0.0
 12
129.849559293408
 22
-90.08750875092609
 32
0.0
 13
131.3626483318652
 23
-84.53951560991891
 33
0.0
  0
SOLID
  5
1524
330
1F
100
AcDbEntity
  8
LOGO
 62
     5
100
AcDbTrace
 10
131.9887541408825
 20
-83.39165496005559
 30
0.0
 11
133.5018431793381
 21
-83.39165496005479
 31
0.0
 12
131.9887541408825
 22
-96.59205243348591
 32
0.0
 13
133.5018431793381
 23
-91.04405929247873
 33
0.0
  0
SOLID
  5
1525
330
1F
100
AcDbEntity
  8
LOGO
 62
     2
100
AcDbTrace
 10
131.3626483318652
 20
-83.39165496005559
 30
0.0
 11
131.9887541408825
 21
-83.39165496005559
 31
0.0
 12
131.3626483318652
 22
-97.73991308334924
 32
0.0
 13
131.9887541408825
 23
-97.73991308334924
 33
0.0
  0
SOLID
  5
1526
330
1F
100
AcDbEntity
  8
LOGO
 62
     5
100
AcDbTrace
 10
131.9887541408825
 20
-96.59205243348591
 30
0.0
 11
133.5018431793381
 21
-91.04405929247873
 31
0.0
 12
139.1889709445707
 22
-83.39165496005479
 32
0.0
 13
137.6758819061151
 23
-83.39165496005479
 33
0.0
  0
SOLID
  5
1527
330
1F
100
AcDbEntity
  8
LOGO
 62
     5
100
AcDbTrace
 10
131.9887541408825
 20
-97.73991308334924
 30
0.0
 11
133.5018431793381
 21
-97.73991308334924
 31
0.0
 12
139.1889709445707
 22
-84.53951560991891
 32
0.0
 13
137.6758819061151
 23
-90.08750875092609
 33
0.0
  0
SOLID
  5
1528
330
1F
100
AcDbEntity
  8
LOGO
 62
     2
100
AcDbTrace
 10
131.3626483318652
 20
-97.73991308334924
 30
0.0
 11
131.9887541408825
 21
-97.73991308334924
 31
0.0
 12
139.1889709445707
 22
-83.39165496005479
 32
0.0
 13
139.8150767535881
 23
-83.39165496005559
 33
0.0
  0
LWPOLYLINE
  5
1529
330
1F
100
AcDbEntity
  8
LOGO
 62
     4
100
AcDbPolyline
 90
        4
 70
     1
 43
0.0
 10
118.3924563099635
 20
-82.56036315975984
 10
451.6257640924127
 20
-82.56036315975977
 10
451.6257640924127
 20
-117.5552952864573
 10
118.3924563099635
 20
-117.5552952864573
1001
GENIUS_GENREC_14
1002
{
1000
PYDIR
1011
118.3924563099635
1021
-117.5552952864573
1031
0.0
1002
}
1002
{
1000
PXDIR
1011
451.6257640924127
1021
-82.56036315975977
1031
0.0
1002
}
1002
{
1000
PORI
1011
118.3924563099635
1021
-82.56036315975984
1031
0.0
1002
}
1002
{
1000
PINS
1011
118.3924563099635
1021
-82.56036315975984
1031
0.0
1002
}
1002
{
1000
PINS2
1011
451.6257640924127
1021
-117.5552952864573
1031
0.0
1002
}
1002
{
1000
C
1070
     1
1002
}
1001
GENIUS_GENOBJ-N-REC_13
1002
{
1000
OWNER
1000
GEN
1002
}
1001
GENIUS_GENODEF_13
1002
{
1000
HIER
1070
     0
1002
}
1002
{
1000
MANEDIT
1070
     0
1002
}
1002
{
1000
NOSEL
1070
     0
1002
}
1002
{
1000
BEHIND
1070
     0
1002
}
1002
{
1000
OTHER
1070
     0
1002
}
1002
{
1000
REACTOR
1002
}
  0
LINE
  5
152A
330
1F
100
AcDbEntity
  8
LOGO
 62
     4
100
AcDbLine
 10
266.8452377261657
 20
-101.8075758294427
 30
0.0
 11
266.8452377261657
 21
-114.6390509425656
 31
0.0
  0
LINE
  5
152B
330
1F
100
AcDbEntity
  8
LOGO
 62
     4
100
AcDbLine
 10
243.5152829750343
 20
-101.8075758294427
 30
0.0
 11
243.5152829750343
 21
-114.6390509425656
 31
0.0
  0
LINE
  5
152C
330
1F
100
AcDbEntity
  8
LOGO
 62
     4
100
AcDbLine
 10
266.8452377261657
 20
-114.6390509425656
 30
0.0
 11
243.5152829750343
 21
-114.6390509425656
 31
0.0
  0
LINE
  5
152D
330
1F
100
AcDbEntity
  8
LOGO
 62
     4
100
AcDbLine
 10
271.0297130499932
 20
-86.05985637242977
 30
0.0
 11
243.5152829750343
 21
-86.05985637242977
 31
0.0
  0
LINE
  5
152E
330
1F
100
AcDbEntity
  8
LOGO
 62
     4
100
AcDbLine
 10
271.0297130499932
 20
-96.55833601043868
 30
0.0
 11
243.5152829750343
 21
-96.55833601043868
 31
0.0
  0
LINE
  5
152F
330
1F
100
AcDbEntity
  8
LOGO
 62
     4
100
AcDbLine
 10
243.5152829750343
 20
-86.05985637242977
 30
0.0
 11
243.5152829750343
 21
-96.55833601043868
 31
0.0
  0
LINE
  5
1530
330
1F
100
AcDbEntity
  8
LOGO
 62
     4
100
AcDbLine
 10
271.0297130499932
 20
-86.05985637242977
 30
0.0
 11
271.0297130499932
 21
-96.55833601043868
 31
0.0
  0
LINE
  5
1531
330
1F
100
AcDbEntity
  8
LOGO
 62
     4
100
AcDbLine
 10
256.3974980125138
 20
-96.55833601043868
 30
0.0
 11
256.3974980125138
 21
-101.8075758294427
 31
0.0
  0
TEXT
  5
1532
330
1F
100
AcDbEntity
  8
LOGO
  6
Continuous
100
AcDbText
 10
245.3806983857743
 20
-94.36679373477996
 30
0.0
 40
6.125
  1
MCKC
  7
CHINESET
100
AcDbText
  0
LINE
  5
1533
330
1F
100
AcDbEntity
  8
LOGO
 62
     4
100
AcDbLine
 10
266.8452377261657
 20
-101.8075758294427
 30
0.0
 11
243.5152829750343
 21
-101.8075758294427
 31
0.0
  0
TEXT
  5
1534
330
1F
100
AcDbEntity
  8
LOGO
  6
Continuous
100
AcDbText
 10
251.0017915931596
 20
-112.8279154401234
 30
229.3510200800871
 40
2.625
  1
Model
 41
0.8
  7
CHINESET
100
AcDbText
  0
TEXT
  5
1535
330
1F
100
AcDbEntity
  8
LOGO
100
AcDbText
 10
250.3031019266611
 20
-107.9617311680005
 30
229.3510200800871
 40
4.375
  1
型號
  7
CHINESET
100
AcDbText
  0
LINE
  5
1536
330
1F
100
AcDbEntity
  8
LOGO
  6
Continuous
100
AcDbLine
 10
272.1457882042532
 20
-91.3462834654638
 30
0.0
 11
276.7815337398975
 21
-91.3462834654638
 31
0.0
  0
LINE
  5
1537
330
1F
100
AcDbEntity
  8
LOGO
 62
     4
100
AcDbLine
 10
274.2201128039119
 20
-101.8075758294427
 30
0.0
 11
274.2201128039119
 21
-114.6390509425655
 31
0.0
  0
LINE
  5
1538
330
1F
100
AcDbEntity
  8
LOGO
 62
     4
100
AcDbLine
 10
294.7732606712338
 20
-114.6390509425655
 30
0.0
 11
274.2201128039119
 21
-114.6390509425655
 31
0.0
  0
LINE
  5
1539
330
1F
100
AcDbEntity
  8
LOGO
 62
     4
100
AcDbLine
 10
290.9775481704419
 20
-86.05985637242977
 30
0.0
 11
278.0158253047039
 21
-86.05985637242977
 31
0.0
  0
LINE
  5
153A
330
1F
100
AcDbEntity
  8
LOGO
 62
     4
100
AcDbLine
 10
290.9775481704419
 20
-96.55833601043868
 30
0.0
 11
278.0158253047039
 21
-96.55833601043868
 31
0.0
  0
LINE
  5
153B
330
1F
100
AcDbEntity
  8
LOGO
 62
     4
100
AcDbLine
 10
278.0158253047039
 20
-86.05985637242977
 30
0.0
 11
278.0158253047039
 21
-96.55833601043868
 31
0.0
  0
LINE
  5
153C
330
1F
100
AcDbEntity
  8
LOGO
 62
     4
100
AcDbLine
 10
290.9775481704419
 20
-86.05985637242977
 30
0.0
 11
290.9775481704419
 21
-96.55833601043868
 31
0.0
  0
LINE
  5
153D
330
1F
100
AcDbEntity
  8
LOGO
 62
     4
100
AcDbLine
 10
284.4966867375729
 20
-96.55833601043868
 30
0.0
 11
284.4966867375729
 21
-101.8075758294427
 31
0.0
  0
TEXT
  5
153E
330
1F
100
AcDbEntity
  8
LOGO
  6
Continuous
100
AcDbText
 10
279.4131448716071
 20
-94.36679373477996
 30
0.0
 40
6.125
  1
25
  7
CHINESET
100
AcDbText
  0
LINE
  5
153F
330
1F
100
AcDbEntity
  8
LOGO
 62
     4
100
AcDbLine
 10
294.7732606712338
 20
-101.8075758294427
 30
0.0
 11
274.2201128039119
 21
-101.8075758294427
 31
0.0
  0
LINE
  5
1540
330
1F
100
AcDbEntity
  8
LOGO
  6
Continuous
100
AcDbLine
 10
293.7297298752349
 20
-91.3462834654638
 30
0.0
 11
298.3654754108799
 21
-91.3462834654638
 31
0.0
  0
LINE
  5
1541
330
1F
100
AcDbEntity
  8
LOGO
 62
     4
100
AcDbLine
 10
294.7732606712338
 20
-101.8075758294427
 30
0.0
 11
294.7732606712338
 21
-114.6390509425655
 31
0.0
  0
TEXT
  5
1542
330
1F
100
AcDbEntity
  8
LOGO
  6
Continuous
100
AcDbText
 10
279.106784803665
 20
-112.8279154401234
 30
229.3510200800871
 40
2.625
  1
Tube I.D.
 41
0.8
  7
CHINESET
100
AcDbText
  0
TEXT
  5
1543
330
1F
100
AcDbEntity
  8
LOGO
100
AcDbText
 10
280.8335887972708
 20
-107.9617311680005
 30
229.3510200800871
 40
4.375
  1
內徑
  7
CHINESET
100
AcDbText
  0
TEXT
  5
1550
330
1F
100
AcDbEntity
  8
LOGO
100
AcDbText
 10
197.5277442733626
 20
-115.6935787095945
 30
0.0
 40
3.5
  1
11207241
 41
0.7
  7
CHINESET
 72
     1
 11
205.5194109400293
 21
-115.6935787095945
 31
0.0
100
AcDbText
  0
LINE
  5
1551
330
1F
100
AcDbEntity
  8
LOGO
 62
     4
100
AcDbLine
 10
216.3813069886951
 20
-110.5563088611167
 30
0.0
 11
216.3813069886967
 21
-117.5552952864565
 31
0.0
  0
LINE
  5
1552
330
1F
100
AcDbEntity
  8
LOGO
 62
     4
100
AcDbLine
 10
216.3813069886951
 20
-110.5563088611167
 30
0.0
 11
195.3813069886967
 21
-110.5563088611167
 31
0.0
  0
CIRCLE
  5
1553
330
1F
100
AcDbEntity
  8
LOGO
  6
Continuous
100
AcDbCircle
 10
178.5311016305148
 20
-93.05135735617831
 30
0.0
 40
2.031888128061104
  0
CIRCLE
  5
1554
330
1F
100
AcDbEntity
  8
LOGO
  6
Continuous
100
AcDbCircle
 10
178.5311016305148
 20
-93.05135735617831
 30
0.0
 40
1.190506570164794
  0
LINE
  5
1555
330
1F
100
AcDbEntity
  8
LOGO
100
AcDbLine
 10
191.2997223975787
 20
-95.08324548423981
 30
0.0
 11
191.2997223975787
 21
-91.01946922811682
 31
0.0
  0
LINE
  5
1556
330
1F
100
AcDbEntity
  8
LOGO
100
AcDbLine
 10
184.9298697520513
 20
-94.2418639263429
 30
0.0
 11
184.9298697520513
 21
-91.86085078601333
 31
0.0
  0
LINE
  5
1557
330
1F
100
AcDbEntity
  8
LOGO
  6
Continuous
100
AcDbLine
 10
184.9298697520513
 20
-91.86085078601333
 30
0.0
 11
191.2997223975787
 21
-91.01946922811682
 31
0.0
  0
LINE
  5
1558
330
1F
100
AcDbEntity
  8
LOGO
  6
Continuous
100
AcDbLine
 10
184.9298697520513
 20
-94.2418639263429
 30
0.0
 11
191.2997223975787
 21
-95.08324548423981
 31
0.0
  0
LINE
  5
1559
330
1F
100
AcDbEntity
  8
LOGO
  6
AM_ISO08W050x2
 48
0.3
100
AcDbLine
 10
175.7301134208537
 20
-93.05135735617831
 30
0.0
 11
181.3320898401759
 21
-93.05135735617831
 31
0.0
1001
GENIUS_GENOREF_13
1005
1593
  0
LINE
  5
155A
330
1F
100
AcDbEntity
  8
LOGO
  6
AM_ISO08W050x2
 48
0.3
100
AcDbLine
 10
178.5311016305148
 20
-95.85234556583943
 30
0.0
 11
178.5311016305148
 21
-90.25036914651719
 31
0.0
1001
GENIUS_GENOREF_13
1005
1592
  0
LINE
  5
155B
330
1F
100
AcDbEntity
  8
LOGO
  6
CENTER
 48
0.5
100
AcDbLine
 10
184.420458589635
 20
-93.05135735617831
 30
0.0
 11
191.9411459387072
 21
-93.05135735617831
 31
0.0
1001
GENIUS_GENOREF_13
1005
1591
  0
LINE
  5
155C
330
1F
100
AcDbEntity
  8
LOGO
 62
     4
100
AcDbLine
 10
319.1517212254276
 20
-101.8075758294427
 30
0.0
 11
319.1517212254276
 21
-114.6390509425656
 31
0.0
  0
LINE
  5
155D
330
1F
100
AcDbEntity
  8
LOGO
 62
     4
100
AcDbLine
 10
297.639988233986
 20
-101.8075758294427
 30
0.0
 11
297.639988233986
 21
-114.6390509425656
 31
0.0
  0
LINE
  5
155E
330
1F
100
AcDbEntity
  8
LOGO
 62
     4
100
AcDbLine
 10
319.1517212254276
 20
-114.6390509425656
 30
0.0
 11
297.639988233986
 21
-114.6390509425656
 31
0.0
  0
LINE
  5
155F
330
1F
100
AcDbEntity
  8
LOGO
 62
     4
100
AcDbLine
 10
316.3455205143722
 20
-86.05985637242977
 30
0.0
 11
300.4461889450415
 21
-86.05985637242977
 31
0.0
  0
LINE
  5
1560
330
1F
100
AcDbEntity
  8
LOGO
 62
     4
100
AcDbLine
 10
316.3455205143722
 20
-96.55833601043868
 30
0.0
 11
300.4461889450415
 21
-96.55833601043868
 31
0.0
  0
LINE
  5
1561
330
1F
100
AcDbEntity
  8
LOGO
 62
     4
100
AcDbLine
 10
300.4461889450415
 20
-86.05985637242977
 30
0.0
 11
300.4461889450415
 21
-96.55833601043868
 31
0.0
  0
LINE
  5
1562
330
1F
100
AcDbEntity
  8
LOGO
 62
     4
100
AcDbLine
 10
316.3455205143722
 20
-86.05985637242977
 30
0.0
 11
316.3455205143722
 21
-96.55833601043868
 31
0.0
  0
LINE
  5
1563
330
1F
100
AcDbEntity
  8
LOGO
 62
     4
100
AcDbLine
 10
308.3958547297068
 20
-96.55833601043868
 30
0.0
 11
308.3958547297068
 21
-101.8075758294427
 31
0.0
  0
LINE
  5
1565
330
1F
100
AcDbEntity
  8
LOGO
 62
     4
100
AcDbLine
 10
319.1517212254276
 20
-101.8075758294427
 30
0.0
 11
297.639988233986
 21
-101.8075758294427
 31
0.0
  0
TEXT
  5
1566
330
1F
100
AcDbEntity
  8
LOGO
  6
Continuous
100
AcDbText
 10
303.0301399519435
 20
-112.8279154401234
 30
229.3510200800871
 40
2.625
  1
Stroke
 41
0.8
  7
CHINESET
100
AcDbText
  0
TEXT
  5
1567
330
1F
100
AcDbEntity
  8
LOGO
100
AcDbText
 10
303.1522726761648
 20
-107.9617311680005
 30
229.3510200800871
 40
4.375
  1
行程
  7
CHINESET
100
AcDbText
  0
POINT
  5
1591
330
1F
100
AcDbEntity
  8
0
 60
     1
100
AcDbPoint
 10
-1260.822680323498
 20
-1560.993268715076
 30
0.0
1001
GENIUS_GENOBJ-N-CRS_13
1002
{
1000
OWNER
1000
GEN
1002
}
1001
GENIUS_GENOLIS_13
1002
{
1000
ENT
1005
0
1005
0
1005
0
1005
155B
1002
}
1001
GENIUS_GENOENT_13
1002
{
1000
MYREF
1005
1591
1002
}
1002
{
1000
GRP
1005
0
1002
}
1001
GENIUS_GENODEF_13
1002
{
1000
HIER
1070
    10
1002
}
1002
{
1000
MANEDIT
1070
     1
1002
}
1002
{
1000
NOSEL
1070
     0
1002
}
1002
{
1000
BEHIND
1070
     0
1002
}
1002
{
1000
OTHER
1070
     0
1002
}
1002
{
1000
REACTOR
1002
}
  0
POINT
  5
1592
330
1F
100
AcDbEntity
  8
0
 60
     1
100
AcDbPoint
 10
-1272.147265546353
 20
-1552.11768223644
 30
0.0
1001
GENIUS_GENOBJ-N-CRS_13
1002
{
1000
OWNER
1000
GEN
1002
}
1001
GENIUS_GENOLIS_13
1002
{
1000
ENT
1005
0
1005
0
1005
0
1005
155A
1002
}
1001
GENIUS_GENOENT_13
1002
{
1000
MYREF
1005
1592
1002
}
1002
{
1000
GRP
1005
0
1002
}
1001
GENIUS_GENODEF_13
1002
{
1000
HIER
1070
    10
1002
}
1002
{
1000
MANEDIT
1070
     1
1002
}
1002
{
1000
NOSEL
1070
     0
1002
}
1002
{
1000
BEHIND
1070
     0
1002
}
1002
{
1000
OTHER
1070
     0
1002
}
1002
{
1000
REACTOR
1002
}
  0
POINT
  5
1593
330
1F
100
AcDbEntity
  8
0
 60
     1
100
AcDbPoint
 10
-1265.788591848516
 20
-1560.993268715076
 30
0.0
1001
GENIUS_GENOBJ-N-CRS_13
1002
{
1000
OWNER
1000
GEN
1002
}
1001
GENIUS_GENOLIS_13
1002
{
1000
ENT
1005
0
1005
0
1005
0
1005
1559
1002
}
1001
GENIUS_GENOENT_13
1002
{
1000
MYREF
1005
1593
1002
}
1002
{
1000
GRP
1005
0
1002
}
1001
GENIUS_GENODEF_13
1002
{
1000
HIER
1070
    10
1002
}
1002
{
1000
MANEDIT
1070
     1
1002
}
1002
{
1000
NOSEL
1070
     0
1002
}
1002
{
1000
BEHIND
1070
     0
1002
}
1002
{
1000
OTHER
1070
     0
1002
}
1002
{
1000
REACTOR
1002
}
  0
LINE
  5
1B1A
330
1F
100
AcDbEntity
  8
AM_7
100
AcDbLine
 10
229.2518162005617
 20
102.0588652210764
 30
0.0
 11
229.2518162005617
 21
102.0588652210764
 31
0.0
  0
LINE
  5
1B1B
330
1F
100
AcDbEntity
  8
AM_7
100
AcDbLine
 10
229.2518162005617
 20
102.0588652210764
 30
0.0
 11
229.2518162005617
 21
102.0588652210764
 31
0.0
  0
LINE
  5
1B1C
330
1F
100
AcDbEntity
  8
AM_7
100
AcDbLine
 10
224.076816200562
 20
102.0588652210764
 30
0.0
 11
229.2518162005617
 21
102.0588652210764
 31
0.0
  0
LINE
  5
1B1D
330
1F
100
AcDbEntity
  8
AM_7
100
AcDbLine
 10
229.2518162005617
 20
102.0588652210764
 30
0.0
 11
234.4268162005619
 21
102.0588652210764
 31
0.0
  0
LINE
  5
1B1E
330
1F
100
AcDbEntity
  8
AM_7
100
AcDbLine
 10
229.2518162005617
 20
96.88386522107634
 30
0.0
 11
229.2518162005617
 21
102.0588652210764
 31
0.0
  0
LINE
  5
1B1F
330
1F
100
AcDbEntity
  8
AM_7
100
AcDbLine
 10
229.2518162005617
 20
102.0588652210764
 30
0.0
 11
229.2518162005617
 21
107.2338652210765
 31
0.0
  0
LINE
  5
1B20
330
1F
100
AcDbEntity
  8
AM_7
100
AcDbLine
 10
201.2518162005617
 20
102.0588652210764
 30
0.0
 11
201.2518162005617
 21
102.0588652210764
 31
0.0
  0
LINE
  5
1B21
330
1F
100
AcDbEntity
  8
AM_7
100
AcDbLine
 10
201.2518162005617
 20
102.0588652210764
 30
0.0
 11
201.2518162005617
 21
102.0588652210764
 31
0.0
  0
LINE
  5
1B22
330
1F
100
AcDbEntity
  8
AM_7
100
AcDbLine
 10
196.076816200562
 20
102.0588652210764
 30
0.0
 11
201.2518162005617
 21
102.0588652210764
 31
0.0
  0
LINE
  5
1B23
330
1F
100
AcDbEntity
  8
AM_7
100
AcDbLine
 10
201.2518162005617
 20
102.0588652210764
 30
0.0
 11
206.4268162005619
 21
102.0588652210764
 31
0.0
  0
LINE
  5
1B24
330
1F
100
AcDbEntity
  8
AM_7
100
AcDbLine
 10
201.2518162005617
 20
96.88386522107634
 30
0.0
 11
201.2518162005617
 21
102.0588652210764
 31
0.0
  0
LINE
  5
1B25
330
1F
100
AcDbEntity
  8
AM_7
100
AcDbLine
 10
201.2518162005617
 20
102.0588652210764
 30
0.0
 11
201.2518162005617
 21
107.2338652210765
 31
0.0
  0
LINE
  5
1B26
330
1F
100
AcDbEntity
  8
AM_7
100
AcDbLine
 10
201.2518162005617
 20
74.05886522107642
 30
0.0
 11
201.2518162005617
 21
74.05886522107642
 31
0.0
  0
LINE
  5
1B27
330
1F
100
AcDbEntity
  8
AM_7
100
AcDbLine
 10
201.2518162005617
 20
74.05886522107642
 30
0.0
 11
201.2518162005617
 21
74.05886522107642
 31
0.0
  0
LINE
  5
1B28
330
1F
100
AcDbEntity
  8
AM_7
100
AcDbLine
 10
196.076816200562
 20
74.05886522107642
 30
0.0
 11
201.2518162005617
 21
74.05886522107642
 31
0.0
  0
LINE
  5
1B29
330
1F
100
AcDbEntity
  8
AM_7
100
AcDbLine
 10
201.2518162005617
 20
74.05886522107642
 30
0.0
 11
206.4268162005619
 21
74.05886522107642
 31
0.0
  0
LINE
  5
1B2A
330
1F
100
AcDbEntity
  8
AM_7
100
AcDbLine
 10
201.2518162005617
 20
68.88386522107635
 30
0.0
 11
201.2518162005617
 21
74.05886522107642
 31
0.0
  0
LINE
  5
1B2B
330
1F
100
AcDbEntity
  8
AM_7
100
AcDbLine
 10
201.2518162005617
 20
74.05886522107642
 30
0.0
 11
201.2518162005617
 21
79.23386522107648
 31
0.0
  0
LINE
  5
1B2C
330
1F
100
AcDbEntity
  8
AM_7
100
AcDbLine
 10
229.2518162005617
 20
74.05886522107642
 30
0.0
 11
229.2518162005617
 21
74.05886522107642
 31
0.0
  0
LINE
  5
1B2D
330
1F
100
AcDbEntity
  8
AM_7
100
AcDbLine
 10
229.2518162005617
 20
74.05886522107642
 30
0.0
 11
229.2518162005617
 21
74.05886522107642
 31
0.0
  0
LINE
  5
1B2E
330
1F
100
AcDbEntity
  8
AM_7
100
AcDbLine
 10
224.0768162005618
 20
74.05886522107642
 30
0.0
 11
229.2518162005617
 21
74.05886522107642
 31
0.0
  0
LINE
  5
1B2F
330
1F
100
AcDbEntity
  8
AM_7
100
AcDbLine
 10
229.2518162005617
 20
74.05886522107642
 30
0.0
 11
234.4268162005619
 21
74.05886522107642
 31
0.0
  0
LINE
  5
1B30
330
1F
100
AcDbEntity
  8
AM_7
100
AcDbLine
 10
229.2518162005617
 20
68.88386522107635
 30
0.0
 11
229.2518162005617
 21
74.05886522107642
 31
0.0
  0
LINE
  5
1B31
330
1F
100
AcDbEntity
  8
AM_7
100
AcDbLine
 10
229.2518162005617
 20
74.05886522107642
 30
0.0
 11
229.2518162005617
 21
79.23386522107648
 31
0.0
  0
LINE
  5
1B32
330
1F
100
AcDbEntity
  8
AM_7
100
AcDbLine
 10
215.2518162005617
 20
88.05886522107641
 30
0.0
 11
215.2518162005617
 21
88.05886522107641
 31
0.0
  0
LINE
  5
1B33
330
1F
100
AcDbEntity
  8
AM_7
100
AcDbLine
 10
215.2518162005617
 20
88.05886522107641
 30
0.0
 11
215.2518162005617
 21
88.05886522107641
 31
0.0
  0
LINE
  5
1B34
330
1F
100
AcDbEntity
  8
AM_7
100
AcDbLine
 10
170.9793044712433
 20
88.05886522107641
 30
0.0
 11
215.2518162005617
 21
88.05886522107641
 31
0.0
  0
LINE
  5
1B35
330
1F
100
AcDbEntity
  8
AM_7
100
AcDbLine
 10
215.2518162005617
 20
88.05886522107641
 30
0.0
 11
238.3428155323813
 21
88.05886522107641
 31
0.0
  0
LINE
  5
1B36
330
1F
100
AcDbEntity
  8
AM_7
100
AcDbLine
 10
215.2518162005617
 20
65.02652560732349
 30
0.0
 11
215.2518162005617
 21
88.05886522107641
 31
0.0
  0
LINE
  5
1B37
330
1F
100
AcDbEntity
  8
AM_7
100
AcDbLine
 10
215.2518162005617
 20
88.05886522107641
 30
0.0
 11
215.2518162005617
 21
111.7476712365419
 31
0.0
  0
ARC
  5
1B38
330
1F
100
AcDbEntity
  8
AM_4
100
AcDbCircle
 10
229.2518162005617
 20
102.0588652210764
 30
0.0
 40
3.146999999999999
100
AcDbArc
 50
259.999999999995
 51
189.9999999999984
  0
ARC
  5
1B39
330
1F
100
AcDbEntity
  8
AM_4
100
AcDbCircle
 10
201.2518162005617
 20
102.0588652210764
 30
0.0
 40
3.146999999999999
100
AcDbArc
 50
259.999999999995
 51
189.9999999999984
  0
ARC
  5
1B3A
330
1F
100
AcDbEntity
  8
AM_4
100
AcDbCircle
 10
201.2518162005617
 20
74.05886522107642
 30
0.0
 40
3.146999999999999
100
AcDbArc
 50
259.999999999995
 51
189.9999999999984
  0
ARC
  5
1B3B
330
1F
100
AcDbEntity
  8
AM_4
100
AcDbCircle
 10
229.2518162005617
 20
74.05886522107642
 30
0.0
 40
3.146999999999999
100
AcDbArc
 50
259.999999999995
 51
189.9999999999984
  0
LINE
  5
1B3C
330
1F
100
AcDbEntity
  8
AM_7
100
AcDbLine
 10
296.3608423444348
 20
88.05886522107641
 30
0.0
 11
406.5879235313055
 21
88.05886522107641
 31
0.0
  0
LINE
  5
1B3D
330
1F
100
AcDbEntity
  8
AM_7
100
AcDbLine
 10
361.0289821366953
 20
88.05886522107641
 30
0.0
 11
361.0289821366953
 21
88.05886522107641
 31
0.0
  0
LINE
  5
1B3E
330
1F
100
AcDbEntity
  8
AM_7
100
AcDbLine
 10
361.0289821366953
 20
88.05886522107641
 30
0.0
 11
361.0289821366953
 21
88.05886522107641
 31
0.0
  0
LINE
  5
1B3F
330
1F
100
AcDbEntity
  8
AM_7
100
AcDbLine
 10
358.5369321366952
 20
88.05886522107641
 30
0.0
 11
361.0289821366953
 21
88.05886522107641
 31
0.0
  0
LINE
  5
1B40
330
1F
100
AcDbEntity
  8
AM_7
100
AcDbLine
 10
361.0289821366953
 20
88.05886522107641
 30
0.0
 11
363.5210321366953
 21
88.05886522107641
 31
0.0
  0
LINE
  5
1B41
330
1F
100
AcDbEntity
  8
AM_7
100
AcDbLine
 10
361.0289821366953
 20
85.56681522107647
 30
0.0
 11
361.0289821366953
 21
88.05886522107641
 31
0.0
  0
LINE
  5
1B42
330
1F
100
AcDbEntity
  8
AM_7
100
AcDbLine
 10
361.0289821366953
 20
88.05886522107641
 30
0.0
 11
361.0289821366953
 21
90.55091522107636
 31
0.0
  0
LINE
  5
1B43
330
1F
100
AcDbEntity
  8
AM_7
100
AcDbLine
 10
396.5289821366953
 20
88.05886522107641
 30
0.0
 11
396.5289821366953
 21
88.05886522107641
 31
0.0
  0
LINE
  5
1B44
330
1F
100
AcDbEntity
  8
AM_7
100
AcDbLine
 10
396.5289821366953
 20
88.05886522107641
 30
0.0
 11
396.5289821366953
 21
88.05886522107641
 31
0.0
  0
LINE
  5
1B45
330
1F
100
AcDbEntity
  8
AM_7
100
AcDbLine
 10
394.0369321366952
 20
88.05886522107641
 30
0.0
 11
396.5289821366953
 21
88.05886522107641
 31
0.0
  0
LINE
  5
1B46
330
1F
100
AcDbEntity
  8
AM_7
100
AcDbLine
 10
396.5289821366953
 20
88.05886522107641
 30
0.0
 11
399.0210321366953
 21
88.05886522107641
 31
0.0
  0
LINE
  5
1B47
330
1F
100
AcDbEntity
  8
AM_7
100
AcDbLine
 10
396.5289821366953
 20
85.56681522107647
 30
0.0
 11
396.5289821366953
 21
88.05886522107641
 31
0.0
  0
LINE
  5
1B48
330
1F
100
AcDbEntity
  8
AM_7
100
AcDbLine
 10
396.5289821366953
 20
88.05886522107641
 30
0.0
 11
396.5289821366953
 21
90.55091522107636
 31
0.0
  0
ARC
  5
1B49
330
1F
100
AcDbEntity
  8
AM_4
100
AcDbCircle
 10
361.0289821366953
 20
88.05886522107641
 30
0.0
 40
2.62
100
AcDbArc
 50
259.999999999995
 51
189.9999999999984
  0
ARC
  5
1B4A
330
1F
100
AcDbEntity
  8
AM_4
100
AcDbCircle
 10
396.5289821366953
 20
88.05886522107641
 30
0.0
 40
2.62
100
AcDbArc
 50
259.999999999995
 51
189.9999999999984
  0
DIMENSION
  5
1B4B
330
1F
100
AcDbEntity
  8
AM_5
 62
     5
100
AcDbDimension
  2
*D4
 10
229.251816200562
 20
120.035536246434
 30
0.0
 11
215.251816200562
 21
123.0534100847044
 31
0.0
 70
    32
  1
{\Famgdt;o}28
 71
     5
 42
28.0
  3
AM_ISO$0
100
AcDbAlignedDimension
 13
201.251816200562
 23
107.2338652210765
 33
0.0
 14
229.251816200562
 24
107.2338652210765
 34
0.0
100
AcDbRotatedDimension
1001
ACAD
1000
DSTYLE
1002
{
1070
    40
1040
1.005825947934212
1070
    41
1040
4.0
1070
   140
1040
4.0
1002
}
  0
DIMENSION
  5
1B4C
330
1F
100
AcDbEntity
  8
AM_5
 62
     5
100
AcDbDimension
  2
*D5
 10
235.2518162005617
 20
128.0821438299076
 30
0.0
 11
215.2518162005618
 21
131.0996216737103
 31
0.0
 70
    32
  1
{\Famgdt;o}40
 71
     5
 42
39.99999999999977
  3
AM_ISO$0
100
AcDbAlignedDimension
 13
195.2518162005619
 23
104.6721129469126
 33
0.0
 14
235.2518162005617
 24
104.6721129469125
 34
0.0
100
AcDbRotatedDimension
1001
ACAD
1000
DSTYLE
1002
{
1070
   140
1040
4.0
1070
    41
1040
4.0
1070
    40
1040
1.005825947934212
1002
}
  0
DIMENSION
  5
1B4D
330
1F
100
AcDbEntity
  8
AM_5
 62
     5
100
AcDbDimension
  2
*D6
 10
332.0289821366953
 20
112.9637696849196
 30
0.0
 11
346.5289821366953
 21
115.9816435231899
 31
0.0
 70
    32
  1
29
 71
     5
 42
29.0
  3
AM_ISO$0
100
AcDbAlignedDimension
 13
361.0289821366953
 23
90.55091522107636
 33
0.0
 14
332.0289821366953
 24
108.0588652210764
 34
0.0
100
AcDbRotatedDimension
1001
ACAD
1000
DSTYLE
1002
{
1070
    40
1040
1.005825947934212
1070
    41
1040
4.0
1070
   140
1040
4.0
1002
}
  0
DIMENSION
  5
1B4E
330
1F
100
AcDbEntity
  8
AM_5
 62
     5
100
AcDbDimension
  2
*D7
 10
405.0289821366952
 20
112.8973952011135
 30
0.0
 11
400.7789821366952
 21
112.8973952011135
 31
0.0
 70
   160
  1
8.5
 71
     5
 42
8.5
  3
AM_ISO$0
100
AcDbAlignedDimension
 13
396.5289821366953
 23
90.55091522107636
 33
0.0
 14
405.0289821366952
 24
108.0588652210764
 34
0.0
100
AcDbRotatedDimension
1001
ACAD
1000
DSTYLE
1002
{
1070
    40
1040
1.005825947934212
1070
    41
1040
4.0
1070
   140
1040
4.0
1002
}
  0
DIMENSION
  5
1B4F
330
1F
100
AcDbEntity
  8
AM_5
 62
     5
100
AcDbDimension
  2
*D8
 10
405.0289821366952
 20
131.2330877548015
 30
0.0
 11
368.5289821366953
 21
131.2330877548015
 31
0.0
 70
   160
  1
63+ST
 71
     5
 42
73.0
  3
AM_ISO$0
100
AcDbAlignedDimension
 13
332.0289821366953
 23
108.0588652210764
 33
0.0
 14
405.0289821366952
 24
108.0588652210764
 34
0.0
100
AcDbRotatedDimension
1001
ACAD
1000
DSTYLE
1002
{
1070
    40
1040
1.005825947934212
1070
    41
1040
4.0
1070
   140
1040
4.0
1002
}
  0
DIMENSION
  5
1B50
330
1F
100
AcDbEntity
  8
AM_5
 62
     5
100
AcDbDimension
  2
*D9
 10
329.0289821366953
 20
112.9637696849196
 30
0.0
 11
319.0885624971357
 21
115.9812475287222
 31
0.0
 70
    32
  1
3
 71
     5
 42
3.0
  3
AM_ISO$0
100
AcDbAlignedDimension
 13
332.0289821366953
 23
108.0588652210764
 33
0.0
 14
329.0289821366953
 24
99.30886522107641
 34
0.0
100
AcDbRotatedDimension
1001
ACAD
1000
DSTYLE
1002
{
1070
    40
1040
1.005825947934212
1070
    41
1040
4.0
1070
   140
1040
4.0
1002
}
  0
DIMENSION
  5
1B51
330
1F
100
AcDbEntity
  8
AM_5
 62
     5
100
AcDbDimension
  2
*D10
 10
322.6419606088189
 20
75.3885792541689
 30
0.0
 11
322.6419606088189
 21
61.98240797202243
 31
0.0
 70
   160
  1
%%c23
 71
     5
 42
23.0
  3
AM_ISO$0
100
AcDbAlignedDimension
 13
329.2789821366953
 23
99.55886522107642
 33
0.0
 14
329.2789821366953
 24
76.55886522107642
 34
0.0
 50
90.0
100
AcDbRotatedDimension
1001
ACAD
1000
DSTYLE
1002
{
1070
    40
1040
1.005825947934212
1070
    41
1040
4.0
1070
   140
1040
4.0
1002
}
  0
LINE
  5
1B52
330
1F
100
AcDbEntity
  8
AM_7
100
AcDbLine
 10
180.2518162005617
 20
88.05886522107641
 30
0.0
 11
180.2518162005617
 21
88.05886522107641
 31
0.0
  0
LINE
  5
1B53
330
1F
100
AcDbEntity
  8
AM_7
100
AcDbLine
 10
180.2518162005617
 20
88.05886522107641
 30
0.0
 11
180.2518162005617
 21
88.05886522107641
 31
0.0
  0
LINE
  5
1B54
330
1F
100
AcDbEntity
  8
AM_7
100
AcDbLine
 10
177.2888412005618
 20
88.05886522107641
 30
0.0
 11
180.2518162005617
 21
88.05886522107641
 31
0.0
  0
LINE
  5
1B55
330
1F
100
AcDbEntity
  8
AM_7
100
AcDbLine
 10
180.2518162005617
 20
88.05886522107641
 30
0.0
 11
183.2147912005618
 21
88.05886522107641
 31
0.0
  0
LINE
  5
1B56
330
1F
100
AcDbEntity
  8
AM_7
100
AcDbLine
 10
180.2518162005617
 20
85.09589022107638
 30
0.0
 11
180.2518162005617
 21
88.05886522107641
 31
0.0
  0
LINE
  5
1B57
330
1F
100
AcDbEntity
  8
AM_7
100
AcDbLine
 10
180.2518162005617
 20
88.05886522107641
 30
0.0
 11
180.2518162005617
 21
91.02184022107644
 31
0.0
  0
ARC
  5
1B58
330
1F
100
AcDbEntity
  8
AM_4
100
AcDbCircle
 10
180.2518162005617
 20
88.05886522107641
 30
0.0
 40
3.146999999999999
100
AcDbArc
 50
259.999999999995
 51
189.9999999999984
  0
DIMENSION
  5
1B59
330
1F
100
AcDbEntity
  8
AM_5
 62
     5
100
AcDbDimension
  2
*D11
 10
405.0289821366952
 20
142.0157839081839
 30
0.0
 11
352.5539821366949
 21
142.0157839081839
 31
0.0
 70
   160
  1
85+ST*2
 71
     5
 42
104.9500000000007
  3
AM_ISO$0
100
AcDbAlignedDimension
 13
300.0789821366946
 23
96.05886522107642
 33
0.0
 14
405.0289821366952
 24
108.0588652210764
 34
0.0
100
AcDbRotatedDimension
1001
ACAD
1000
DSTYLE
1002
{
1070
    40
1040
1.005825947934212
1070
    41
1040
4.0
1070
   140
1040
4.0
1002
}
  0
LINE
  5
1B73
330
1F
100
AcDbEntity
  8
AM_7
100
AcDbLine
 10
409.9289821366953
 20
74.05886522107642
 30
0.0
 11
327.1289821366954
 21
74.05886522107642
 31
0.0
  0
LINE
  5
1B76
330
1F
100
AcDbEntity
  8
AM_VIS
100
AcDbLine
 10
210.9018162005618
 20
69.55886522107642
 30
0.0
 11
210.451816200562
 21
69.05886522107642
 31
0.0
  0
LINE
  5
1B77
330
1F
100
AcDbEntity
  8
AM_VIS
100
AcDbLine
 10
210.9018162005618
 20
71.65886522107644
 30
0.0
 11
210.9018162005618
 21
69.55886522107642
 31
0.0
  0
LINE
  5
1B78
330
1F
100
AcDbEntity
  8
AM_VIS
100
AcDbLine
 10
208.3018162005619
 20
73.35886522107649
 30
0.0
 11
209.201816200562
 21
73.35886522107649
 31
0.0
  0
LINE
  5
1B79
330
1F
100
AcDbEntity
  8
AM_VIS
100
AcDbLine
 10
206.6018162005619
 20
69.55886522107642
 30
0.0
 11
206.6018162005619
 21
71.65886522107644
 31
0.0
  0
LINE
  5
1B7A
330
1F
100
AcDbEntity
  8
AM_VIS
100
AcDbLine
 10
207.0518162005619
 20
69.05886522107642
 30
0.0
 11
206.6018162005619
 21
69.55886522107642
 31
0.0
  0
LINE
  5
1B7B
330
1F
100
AcDbEntity
  8
AM_VIS
100
AcDbLine
 10
207.0518162005619
 20
68.05886522107641
 30
0.0
 11
207.0518162005619
 21
69.05886522107642
 31
0.0
  0
LINE
  5
1B7C
330
1F
100
AcDbEntity
  8
AM_VIS
100
AcDbLine
 10
207.0518162005619
 20
68.05886522107641
 30
0.0
 11
198.6385684747256
 21
68.05886522107641
 31
0.0
  0
LINE
  5
1B7D
330
1F
100
AcDbEntity
  8
AM_VIS
100
AcDbLine
 10
195.2518162005617
 20
71.44561749524029
 30
0.0
 11
195.2518162005617
 21
79.85886522107648
 31
0.0
  0
LINE
  5
1B7E
330
1F
100
AcDbEntity
  8
AM_VIS
100
AcDbLine
 10
196.2518162005617
 20
79.85886522107648
 30
0.0
 11
195.2518162005617
 21
79.85886522107648
 31
0.0
  0
LINE
  5
1B7F
330
1F
100
AcDbEntity
  8
AM_VIS
100
AcDbLine
 10
196.7518162005617
 20
79.40886522107644
 30
0.0
 11
196.2518162005617
 21
79.85886522107648
 31
0.0
  0
LINE
  5
1B80
330
1F
100
AcDbEntity
  8
AM_VIS
100
AcDbLine
 10
198.8518162005618
 20
79.40886522107644
 30
0.0
 11
196.7518162005617
 21
79.40886522107644
 31
0.0
  0
LINE
  5
1B81
330
1F
100
AcDbEntity
  8
AM_VIS
100
AcDbLine
 10
196.7518162005617
 20
96.7088652210764
 30
0.0
 11
198.8518162005618
 21
96.7088652210764
 31
0.0
  0
LINE
  5
1B82
330
1F
100
AcDbEntity
  8
AM_VIS
100
AcDbLine
 10
196.2518162005617
 20
96.25886522107647
 30
0.0
 11
196.7518162005617
 21
96.7088652210764
 31
0.0
  0
LINE
  5
1B83
330
1F
100
AcDbEntity
  8
AM_VIS
100
AcDbLine
 10
195.2518162005617
 20
96.25886522107647
 30
0.0
 11
196.2518162005617
 21
96.25886522107647
 31
0.0
  0
LINE
  5
1B84
330
1F
100
AcDbEntity
  8
AM_VIS
100
AcDbLine
 10
195.2518162005617
 20
96.25886522107647
 30
0.0
 11
195.2518162005617
 21
104.6721129469126
 31
0.0
  0
LINE
  5
1B85
330
1F
100
AcDbEntity
  8
AM_VIS
100
AcDbLine
 10
198.6385684747256
 20
108.0588652210764
 30
0.0
 11
207.0518162005619
 21
108.0588652210764
 31
0.0
  0
LINE
  5
1B86
330
1F
100
AcDbEntity
  8
AM_VIS
100
AcDbLine
 10
207.0518162005619
 20
107.0588652210764
 30
0.0
 11
207.0518162005619
 21
108.0588652210764
 31
0.0
  0
LINE
  5
1B87
330
1F
100
AcDbEntity
  8
AM_VIS
100
AcDbLine
 10
206.6018162005619
 20
106.5588652210764
 30
0.0
 11
207.0518162005619
 21
107.0588652210764
 31
0.0
  0
LINE
  5
1B88
330
1F
100
AcDbEntity
  8
AM_VIS
100
AcDbLine
 10
206.6018162005619
 20
104.4588652210764
 30
0.0
 11
206.6018162005619
 21
106.5588652210764
 31
0.0
  0
LINE
  5
1B89
330
1F
100
AcDbEntity
  8
AM_VIS
100
AcDbLine
 10
209.201816200562
 20
102.7588652210764
 30
0.0
 11
208.3018162005619
 21
102.7588652210764
 31
0.0
  0
LINE
  5
1B8A
330
1F
100
AcDbEntity
  8
AM_VIS
100
AcDbLine
 10
210.9018162005618
 20
106.5588652210764
 30
0.0
 11
210.9018162005618
 21
104.4588652210764
 31
0.0
  0
LINE
  5
1B8B
330
1F
100
AcDbEntity
  8
AM_VIS
100
AcDbLine
 10
210.451816200562
 20
107.0588652210764
 30
0.0
 11
210.9018162005618
 21
106.5588652210764
 31
0.0
  0
LINE
  5
1B8C
330
1F
100
AcDbEntity
  8
AM_VIS
100
AcDbLine
 10
210.451816200562
 20
108.0588652210764
 30
0.0
 11
210.451816200562
 21
107.0588652210764
 31
0.0
  0
LINE
  5
1B8D
330
1F
100
AcDbEntity
  8
AM_VIS
100
AcDbLine
 10
210.451816200562
 20
108.0588652210764
 30
0.0
 11
220.0518162005619
 21
108.0588652210764
 31
0.0
  0
LINE
  5
1B8E
330
1F
100
AcDbEntity
  8
AM_VIS
100
AcDbLine
 10
220.0518162005619
 20
107.0588652210764
 30
0.0
 11
220.0518162005619
 21
108.0588652210764
 31
0.0
  0
LINE
  5
1B8F
330
1F
100
AcDbEntity
  8
AM_VIS
100
AcDbLine
 10
219.6018162005619
 20
106.5588652210764
 30
0.0
 11
220.0518162005619
 21
107.0588652210764
 31
0.0
  0
LINE
  5
1B90
330
1F
100
AcDbEntity
  8
AM_VIS
100
AcDbLine
 10
219.6018162005619
 20
104.4588652210764
 30
0.0
 11
219.6018162005619
 21
106.5588652210764
 31
0.0
  0
LINE
  5
1B91
330
1F
100
AcDbEntity
  8
AM_VIS
100
AcDbLine
 10
222.201816200562
 20
102.7588652210763
 30
0.0
 11
221.3018162005619
 21
102.7588652210763
 31
0.0
  0
LINE
  5
1B92
330
1F
100
AcDbEntity
  8
AM_VIS
100
AcDbLine
 10
223.9018162005618
 20
106.5588652210764
 30
0.0
 11
223.9018162005618
 21
104.4588652210764
 31
0.0
  0
LINE
  5
1B93
330
1F
100
AcDbEntity
  8
AM_VIS
100
AcDbLine
 10
223.451816200562
 20
107.0588652210764
 30
0.0
 11
223.9018162005618
 21
106.5588652210764
 31
0.0
  0
LINE
  5
1B94
330
1F
100
AcDbEntity
  8
AM_VIS
100
AcDbLine
 10
223.451816200562
 20
108.0588652210764
 30
0.0
 11
223.451816200562
 21
107.0588652210764
 31
0.0
  0
LINE
  5
1B95
330
1F
100
AcDbEntity
  8
AM_VIS
100
AcDbLine
 10
223.451816200562
 20
108.0588652210764
 30
0.0
 11
231.8650639263981
 21
108.0588652210764
 31
0.0
  0
LINE
  5
1B96
330
1F
100
AcDbEntity
  8
AM_VIS
100
AcDbLine
 10
235.2518162005617
 20
104.6721129469126
 30
0.0
 11
235.2518162005617
 21
96.25886522107647
 31
0.0
  0
LINE
  5
1B97
330
1F
100
AcDbEntity
  8
AM_VIS
100
AcDbLine
 10
234.2518162005617
 20
96.25886522107647
 30
0.0
 11
235.2518162005617
 21
96.25886522107647
 31
0.0
  0
LINE
  5
1B98
330
1F
100
AcDbEntity
  8
AM_VIS
100
AcDbLine
 10
233.7518162005618
 20
96.7088652210764
 30
0.0
 11
234.2518162005617
 21
96.25886522107647
 31
0.0
  0
LINE
  5
1B99
330
1F
100
AcDbEntity
  8
AM_VIS
100
AcDbLine
 10
231.6518162005618
 20
96.7088652210764
 30
0.0
 11
233.7518162005618
 21
96.7088652210764
 31
0.0
  0
LINE
  5
1B9A
330
1F
100
AcDbEntity
  8
AM_VIS
100
AcDbLine
 10
229.951816200562
 20
94.10886522107649
 30
0.0
 11
229.951816200562
 21
95.00886522107647
 31
0.0
  0
LINE
  5
1B9B
330
1F
100
AcDbEntity
  8
AM_VIS
100
AcDbLine
 10
233.7518162005618
 20
92.40886522107643
 30
0.0
 11
231.6518162005618
 21
92.40886522107643
 31
0.0
  0
LINE
  5
1B9C
330
1F
100
AcDbEntity
  8
AM_VIS
100
AcDbLine
 10
234.2518162005617
 20
92.85886522107649
 30
0.0
 11
233.7518162005618
 21
92.40886522107643
 31
0.0
  0
LINE
  5
1B9D
330
1F
100
AcDbEntity
  8
AM_VIS
100
AcDbLine
 10
235.2518162005617
 20
92.85886522107649
 30
0.0
 11
234.2518162005617
 21
92.85886522107649
 31
0.0
  0
LINE
  5
1B9E
330
1F
100
AcDbEntity
  8
AM_VIS
100
AcDbLine
 10
234.2518162005617
 20
83.25886522107646
 30
0.0
 11
235.2518162005617
 21
83.25886522107646
 31
0.0
  0
LINE
  5
1B9F
330
1F
100
AcDbEntity
  8
AM_VIS
100
AcDbLine
 10
233.7518162005618
 20
83.70886522107639
 30
0.0
 11
234.2518162005617
 21
83.25886522107646
 31
0.0
  0
LINE
  5
1BA0
330
1F
100
AcDbEntity
  8
AM_VIS
100
AcDbLine
 10
231.6518162005618
 20
83.70886522107639
 30
0.0
 11
233.7518162005618
 21
83.70886522107639
 31
0.0
  0
LINE
  5
1BA1
330
1F
100
AcDbEntity
  8
AM_VIS
100
AcDbLine
 10
229.951816200562
 20
81.10886522107648
 30
0.0
 11
229.951816200562
 21
82.00886522107646
 31
0.0
  0
LINE
  5
1BA2
330
1F
100
AcDbEntity
  8
AM_VIS
100
AcDbLine
 10
233.7518162005618
 20
79.40886522107644
 30
0.0
 11
231.6518162005618
 21
79.40886522107644
 31
0.0
  0
LINE
  5
1BA3
330
1F
100
AcDbEntity
  8
AM_VIS
100
AcDbLine
 10
234.2518162005617
 20
79.85886522107648
 30
0.0
 11
233.7518162005618
 21
79.40886522107644
 31
0.0
  0
LINE
  5
1BA4
330
1F
100
AcDbEntity
  8
AM_VIS
100
AcDbLine
 10
235.2518162005617
 20
79.85886522107648
 30
0.0
 11
234.2518162005617
 21
79.85886522107648
 31
0.0
  0
LINE
  5
1BA5
330
1F
100
AcDbEntity
  8
AM_VIS
100
AcDbLine
 10
235.2518162005617
 20
79.85886522107648
 30
0.0
 11
235.2518162005617
 21
71.44561749524029
 31
0.0
  0
LINE
  5
1BA6
330
1F
100
AcDbEntity
  8
AM_VIS
100
AcDbLine
 10
231.8650639263981
 20
68.05886522107641
 30
0.0
 11
223.451816200562
 21
68.05886522107641
 31
0.0
  0
LINE
  5
1BA7
330
1F
100
AcDbEntity
  8
AM_VIS
100
AcDbLine
 10
223.451816200562
 20
69.05886522107642
 30
0.0
 11
223.451816200562
 21
68.05886522107641
 31
0.0
  0
LINE
  5
1BA8
330
1F
100
AcDbEntity
  8
AM_VIS
100
AcDbLine
 10
223.9018162005618
 20
69.55886522107642
 30
0.0
 11
223.451816200562
 21
69.05886522107642
 31
0.0
  0
LINE
  5
1BA9
330
1F
100
AcDbEntity
  8
AM_VIS
100
AcDbLine
 10
223.9018162005618
 20
71.65886522107644
 30
0.0
 11
223.9018162005618
 21
69.55886522107642
 31
0.0
  0
LINE
  5
1BAA
330
1F
100
AcDbEntity
  8
AM_VIS
100
AcDbLine
 10
221.3018162005619
 20
73.35886522107649
 30
0.0
 11
222.201816200562
 21
73.35886522107649
 31
0.0
  0
LINE
  5
1BAB
330
1F
100
AcDbEntity
  8
AM_VIS
100
AcDbLine
 10
219.6018162005619
 20
69.55886522107642
 30
0.0
 11
219.6018162005619
 21
71.65886522107644
 31
0.0
  0
LINE
  5
1BAC
330
1F
100
AcDbEntity
  8
AM_VIS
100
AcDbLine
 10
220.0518162005619
 20
69.05886522107642
 30
0.0
 11
219.6018162005619
 21
69.55886522107642
 31
0.0
  0
LINE
  5
1BAD
330
1F
100
AcDbEntity
  8
AM_VIS
100
AcDbLine
 10
220.0518162005619
 20
68.05886522107641
 30
0.0
 11
220.0518162005619
 21
69.05886522107642
 31
0.0
  0
LINE
  5
1BAE
330
1F
100
AcDbEntity
  8
AM_VIS
100
AcDbLine
 10
220.0518162005619
 20
68.05886522107641
 30
0.0
 11
210.451816200562
 21
68.05886522107641
 31
0.0
  0
LINE
  5
1BAF
330
1F
100
AcDbEntity
  8
AM_VIS
100
AcDbLine
 10
210.451816200562
 20
69.05886522107642
 30
0.0
 11
210.451816200562
 21
68.05886522107641
 31
0.0
  0
LINE
  5
1BB0
330
1F
100
AcDbEntity
  8
AM_VIS
100
AcDbLine
 10
235.2518162005617
 20
92.85886522107649
 30
0.0
 11
235.2518162005617
 21
83.25886522107635
 31
0.0
  0
CIRCLE
  5
1BB1
330
1F
100
AcDbEntity
  8
AM_VIS
100
AcDbCircle
 10
229.2518162005617
 20
102.0588652210764
 30
0.0
 40
2.75
  0
CIRCLE
  5
1BB2
330
1F
100
AcDbEntity
  8
AM_VIS
100
AcDbCircle
 10
229.2518162005617
 20
102.0588652210764
 30
0.0
 40
4.5
  0
CIRCLE
  5
1BB3
330
1F
100
AcDbEntity
  8
AM_VIS
100
AcDbCircle
 10
229.2518162005617
 20
102.0588652210764
 30
0.0
 40
3.555
  0
CIRCLE
  5
1BB4
330
1F
100
AcDbEntity
  8
AM_VIS
100
AcDbCircle
 10
229.2518162005617
 20
102.0588652210764
 30
0.0
 40
2.754999999999999
  0
CIRCLE
  5
1BB5
330
1F
100
AcDbEntity
  8
AM_VIS
100
AcDbCircle
 10
201.2518162005617
 20
102.0588652210764
 30
0.0
 40
2.75
  0
CIRCLE
  5
1BB6
330
1F
100
AcDbEntity
  8
AM_VIS
100
AcDbCircle
 10
201.2518162005617
 20
74.05886522107642
 30
0.0
 40
2.75
  0
CIRCLE
  5
1BB7
330
1F
100
AcDbEntity
  8
AM_VIS
100
AcDbCircle
 10
229.2518162005617
 20
74.05886522107642
 30
0.0
 40
2.75
  0
CIRCLE
  5
1BB8
330
1F
100
AcDbEntity
  8
AM_VIS
100
AcDbCircle
 10
201.2518162005617
 20
102.0588652210764
 30
0.0
 40
4.5
  0
CIRCLE
  5
1BB9
330
1F
100
AcDbEntity
  8
AM_VIS
100
AcDbCircle
 10
201.2518162005617
 20
74.05886522107642
 30
0.0
 40
4.5
  0
CIRCLE
  5
1BBA
330
1F
100
AcDbEntity
  8
AM_VIS
100
AcDbCircle
 10
201.2518162005617
 20
102.0588652210764
 30
0.0
 40
5.0
  0
ARC
  5
1BBB
330
1F
100
AcDbEntity
  8
AM_VIS
100
AcDbCircle
 10
209.201816200562
 20
71.65886522107644
 30
0.0
 40
1.7
100
AcDbArc
 50
0.0
 51
90.0
  0
ARC
  5
1BBC
330
1F
100
AcDbEntity
  8
AM_VIS
100
AcDbCircle
 10
208.3018162005619
 20
71.65886522107644
 30
0.0
 40
1.7
100
AcDbArc
 50
90.0
 51
180.0
  0
ARC
  5
1BBD
330
1F
100
AcDbEntity
  8
AM_VIS
100
AcDbCircle
 10
215.2518162005617
 20
88.05886522107641
 30
0.0
 40
26.0
100
AcDbArc
 50
219.7151372318296
 51
230.2848627681679
  0
ARC
  5
1BBE
330
1F
100
AcDbEntity
  8
AM_VIS
100
AcDbCircle
 10
198.8518162005618
 20
81.10886522107648
 30
0.0
 40
1.7
100
AcDbArc
 50
270.0
 51
321.8554868987645
  0
ARC
  5
1BBF
330
1F
100
AcDbEntity
  8
AM_VIS
100
AcDbCircle
 10
198.8518162005618
 20
95.00886522107647
 30
0.0
 40
1.7
100
AcDbArc
 50
38.14451310123543
 51
90.0
  0
ARC
  5
1BC0
330
1F
100
AcDbEntity
  8
AM_VIS
100
AcDbCircle
 10
215.2518162005617
 20
88.05886522107641
 30
0.0
 40
26.0
100
AcDbArc
 50
129.7151372318321
 51
140.2848627681703
  0
ARC
  5
1BC1
330
1F
100
AcDbEntity
  8
AM_VIS
100
AcDbCircle
 10
208.3018162005619
 20
104.4588652210764
 30
0.0
 40
1.7
100
AcDbArc
 50
180.0
 51
270.0
  0
ARC
  5
1BC2
330
1F
100
AcDbEntity
  8
AM_VIS
100
AcDbCircle
 10
209.201816200562
 20
104.4588652210764
 30
0.0
 40
1.7
100
AcDbArc
 50
270.0
 51
0.0
  0
ARC
  5
1BC3
330
1F
100
AcDbEntity
  8
AM_VIS
100
AcDbCircle
 10
221.3018162005619
 20
104.4588652210764
 30
0.0
 40
1.7
100
AcDbArc
 50
180.0
 51
270.0
  0
ARC
  5
1BC4
330
1F
100
AcDbEntity
  8
AM_VIS
100
AcDbCircle
 10
222.201816200562
 20
104.4588652210764
 30
0.0
 40
1.7
100
AcDbArc
 50
270.0
 51
0.0
  0
ARC
  5
1BC5
330
1F
100
AcDbEntity
  8
AM_VIS
100
AcDbCircle
 10
215.2518162005617
 20
88.05886522107641
 30
0.0
 40
26.0
100
AcDbArc
 50
39.71513723182967
 51
50.28486276816792
  0
ARC
  5
1BC6
330
1F
100
AcDbEntity
  8
AM_VIS
100
AcDbCircle
 10
231.6518162005618
 20
95.00886522107647
 30
0.0
 40
1.7
100
AcDbArc
 50
90.0
 51
180.0
  0
ARC
  5
1BC7
330
1F
100
AcDbEntity
  8
AM_VIS
100
AcDbCircle
 10
231.6518162005618
 20
94.10886522107649
 30
0.0
 40
1.7
100
AcDbArc
 50
180.0
 51
270.0
  0
ARC
  5
1BC8
330
1F
100
AcDbEntity
  8
AM_VIS
100
AcDbCircle
 10
231.6518162005618
 20
82.00886522107646
 30
0.0
 40
1.7
100
AcDbArc
 50
90.0
 51
180.0
  0
ARC
  5
1BC9
330
1F
100
AcDbEntity
  8
AM_VIS
100
AcDbCircle
 10
231.6518162005618
 20
81.10886522107648
 30
0.0
 40
1.7
100
AcDbArc
 50
180.0
 51
270.0
  0
ARC
  5
1BCA
330
1F
100
AcDbEntity
  8
AM_VIS
100
AcDbCircle
 10
215.2518162005617
 20
88.05886522107641
 30
0.0
 40
26.0
100
AcDbArc
 50
309.715137231832
 51
320.2848627681703
  0
ARC
  5
1BCB
330
1F
100
AcDbEntity
  8
AM_VIS
100
AcDbCircle
 10
222.201816200562
 20
71.65886522107644
 30
0.0
 40
1.7
100
AcDbArc
 50
0.0
 51
90.0
  0
ARC
  5
1BCC
330
1F
100
AcDbEntity
  8
AM_VIS
100
AcDbCircle
 10
221.3018162005619
 20
71.65886522107644
 30
0.0
 40
1.7
100
AcDbArc
 50
90.0
 51
180.0
  0
CIRCLE
  5
1BCD
330
1F
100
AcDbEntity
  8
AM_VIS
100
AcDbCircle
 10
229.2518162005617
 20
102.0588652210764
 30
0.0
 40
5.0
  0
CIRCLE
  5
1BCE
330
1F
100
AcDbEntity
  8
AM_VIS
100
AcDbCircle
 10
201.2518162005617
 20
74.05886522107642
 30
0.0
 40
5.0
  0
CIRCLE
  5
1BCF
330
1F
100
AcDbEntity
  8
AM_VIS
100
AcDbCircle
 10
229.2518162005617
 20
74.05886522107642
 30
0.0
 40
5.0
  0
CIRCLE
  5
1BD0
330
1F
100
AcDbEntity
  8
AM_VIS
100
AcDbCircle
 10
229.2518162005617
 20
74.05886522107642
 30
0.0
 40
4.5
  0
CIRCLE
  5
1BD1
330
1F
100
AcDbEntity
  8
AM_VIS
100
AcDbCircle
 10
201.2518162005617
 20
102.0588652210764
 30
0.0
 40
3.555
  0
CIRCLE
  5
1BD2
102
{ACAD_REACTORS
330
1DAF
102
}
330
1F
100
AcDbEntity
  8
AM_VIS
100
AcDbCircle
 10
201.2518162005617
 20
102.0588652210764
 30
0.0
 40
2.754999999999999
  0
CIRCLE
  5
1BD3
330
1F
100
AcDbEntity
  8
AM_VIS
100
AcDbCircle
 10
201.2518162005617
 20
74.05886522107642
 30
0.0
 40
3.555
  0
CIRCLE
  5
1BD4
330
1F
100
AcDbEntity
  8
AM_VIS
100
AcDbCircle
 10
201.2518162005617
 20
74.05886522107642
 30
0.0
 40
2.754999999999999
  0
CIRCLE
  5
1BD5
330
1F
100
AcDbEntity
  8
AM_VIS
100
AcDbCircle
 10
229.2518162005617
 20
74.05886522107642
 30
0.0
 40
3.555
  0
CIRCLE
  5
1BD6
102
{ACAD_REACTORS
330
1DAF
102
}
330
1F
100
AcDbEntity
  8
AM_VIS
100
AcDbCircle
 10
229.2518162005617
 20
74.05886522107642
 30
0.0
 40
2.754999999999999
  0
ARC
  5
1BD7
330
1F
100
AcDbEntity
  8
AM_VIS
100
AcDbCircle
 10
215.2518162005617
 20
88.05886522107641
 30
0.0
 40
11.5
100
AcDbArc
 50
224.0792098478835
 51
135.9207901521165
  0
ARC
  5
1BD8
330
1F
100
AcDbEntity
  8
AM_VIS
100
AcDbCircle
 10
215.2518162005617
 20
88.05886522107641
 30
0.0
 40
11.25
100
AcDbArc
 50
225.3253904356156
 51
134.6746095643844
  0
ARC
  5
1BD9
330
1F
100
AcDbEntity
  8
AM_VIS
100
AcDbCircle
 10
215.2518162005617
 20
88.05886522107641
 30
0.0
 40
10.25
100
AcDbArc
 50
231.3052600781269
 51
308.6947399218731
  0
ARC
  5
1BDA
330
1F
100
AcDbEntity
  8
AM_VIS
100
AcDbCircle
 10
215.2518162005617
 20
88.05886522107641
 30
0.0
 40
10.25
100
AcDbArc
 50
51.30526007812688
 51
128.6947399218731
  0
ARC
  5
1BDB
330
1F
100
AcDbEntity
  8
AM_VIS
100
AcDbCircle
 10
215.2518162005617
 20
88.05886522107641
 30
0.0
 40
10.25
100
AcDbArc
 50
331.407877359078
 51
28.59212264092202
  0
LINE
  5
1BDC
330
1F
100
AcDbEntity
  8
AM_VIS
100
AcDbLine
 10
222.2518162005617
 20
96.05886522107642
 30
0.0
 11
224.2518162005617
 21
94.05886522107641
 31
0.0
  0
LINE
  5
1BDD
330
1F
100
AcDbEntity
  8
AM_VIS
100
AcDbLine
 10
224.2518162005617
 20
94.05886522107641
 30
0.0
 11
224.2518162005617
 21
82.05886522107642
 31
0.0
  0
LINE
  5
1BDE
330
1F
100
AcDbEntity
  8
AM_VIS
100
AcDbLine
 10
224.2518162005617
 20
82.05886522107642
 30
0.0
 11
222.2518162005617
 21
80.05886522107642
 31
0.0
  0
LINE
  5
1BDF
330
1F
100
AcDbEntity
  8
AM_VIS
100
AcDbLine
 10
222.2518162005617
 20
96.05886522107642
 30
0.0
 11
206.2518162005617
 21
96.05886522107642
 31
0.0
  0
LINE
  5
1BE0
330
1F
100
AcDbEntity
  8
AM_VIS
100
AcDbLine
 10
222.2518162005617
 20
80.05886522107642
 30
0.0
 11
206.2518162005617
 21
80.05886522107642
 31
0.0
  0
LINE
  5
1BE1
330
1F
100
AcDbEntity
  8
AM_VIS
100
AcDbLine
 10
173.2518162005617
 20
82.05886522107642
 30
0.0
 11
173.2518162005617
 21
94.05886522107641
 31
0.0
  0
LINE
  5
1BE2
330
1F
100
AcDbEntity
  8
AM_VIS
100
AcDbLine
 10
173.2518162005617
 20
94.05886522107641
 30
0.0
 11
175.2518162005617
 21
96.05886522107642
 31
0.0
  0
LINE
  5
1BE3
102
{ACAD_REACTORS
330
1C5A
102
}
330
1F
100
AcDbEntity
  8
AM_VIS
100
AcDbLine
 10
175.2518162005617
 20
96.05886522107642
 30
0.0
 11
206.2518162005617
 21
96.05886522107642
 31
0.0
  0
LINE
  5
1BE4
330
1F
100
AcDbEntity
  8
AM_VIS
100
AcDbLine
 10
206.2518162005617
 20
96.05886522107642
 30
0.0
 11
206.2518162005617
 21
80.05886522107642
 31
0.0
  0
LINE
  5
1BE5
330
1F
100
AcDbEntity
  8
AM_VIS
100
AcDbLine
 10
206.2518162005617
 20
80.05886522107642
 30
0.0
 11
175.2518162005617
 21
80.05886522107642
 31
0.0
  0
LINE
  5
1BE6
102
{ACAD_REACTORS
330
1C5A
102
}
330
1F
100
AcDbEntity
  8
AM_VIS
100
AcDbLine
 10
175.2518162005617
 20
80.05886522107642
 30
0.0
 11
173.2518162005617
 21
82.05886522107642
 31
0.0
  0
CIRCLE
  5
1BE7
330
1F
100
AcDbEntity
  8
AM_VIS
100
AcDbCircle
 10
180.2034201522401
 20
88.05886522107607
 30
0.0
 40
3.376500000000181
  0
CIRCLE
  5
1BE8
330
1F
100
AcDbEntity
  8
AM_VIS
100
AcDbCircle
 10
180.2518162005617
 20
88.05886522107641
 30
0.0
 40
2.576499999999999
  0
CIRCLE
  5
1BE9
330
1F
100
AcDbEntity
  8
AM_VIS
100
AcDbCircle
 10
215.2518162005617
 20
88.05886522107641
 30
0.0
 40
7.0
  0
CIRCLE
  5
1BEA
330
1F
100
AcDbEntity
  8
AM_VIS
100
AcDbCircle
 10
215.2518162005617
 20
88.05886522107641
 30
0.0
 40
7.299999999999998
  0
LINE
  5
1BEB
330
1F
100
AcDbEntity
  8
AM_VIS
100
AcDbLine
 10
208.4811072273449
 20
89.09809570561776
 30
0.0
 11
208.936754839023
 21
89.09809570561776
 31
0.0
  0
ARC
  5
1BEC
330
1F
100
AcDbEntity
  8
AM_VIS
100
AcDbCircle
 10
215.2518162005617
 20
88.05886522107641
 30
0.0
 40
6.85
100
AcDbArc
 50
171.2738196920941
 51
179.6718608058254
  0
LINE
  5
1BED
330
1F
100
AcDbEntity
  8
AM_VIS
100
AcDbLine
 10
208.8519364384818
 20
88.09809570561776
 30
0.0
 11
208.4019285395061
 21
88.09809570561776
 31
0.0
  0
ARC
  5
1BEE
330
1F
100
AcDbEntity
  8
AM_VIS
100
AcDbCircle
 10
215.2518162005617
 20
88.05886522107641
 30
0.0
 40
6.849999999999999
100
AcDbArc
 50
179.6718608058254
 51
171.2738196920941
  0
LINE
  5
1BEF
330
1F
100
AcDbEntity
  8
AM_VIS
100
AcDbLine
 10
217.7518162005617
 20
86.61548954810234
 30
0.0
 11
215.2518162005617
 21
85.17211387512828
 31
0.0
  0
LINE
  5
1BF0
330
1F
100
AcDbEntity
  8
AM_VIS
100
AcDbLine
 10
217.7518162005617
 20
89.50224089405049
 30
0.0
 11
217.7518162005617
 21
86.61548954810234
 31
0.0
  0
LINE
  5
1BF1
330
1F
100
AcDbEntity
  8
AM_VIS
100
AcDbLine
 10
215.2518162005617
 20
90.94561656702456
 30
0.0
 11
217.7518162005617
 21
89.50224089405049
 31
0.0
  0
LINE
  5
1BF2
330
1F
100
AcDbEntity
  8
AM_VIS
100
AcDbLine
 10
212.7518162005617
 20
89.50224089405049
 30
0.0
 11
215.2518162005617
 21
90.94561656702456
 31
0.0
  0
LINE
  5
1BF3
330
1F
100
AcDbEntity
  8
AM_VIS
100
AcDbLine
 10
212.7518162005617
 20
86.61548954810234
 30
0.0
 11
212.7518162005617
 21
89.50224089405049
 31
0.0
  0
LINE
  5
1BF4
330
1F
100
AcDbEntity
  8
AM_VIS
100
AcDbLine
 10
215.2518162005617
 20
85.17211387512828
 30
0.0
 11
212.7518162005617
 21
86.61548954810234
 31
0.0
  0
CIRCLE
  5
1BF5
330
1F
100
AcDbEntity
  8
AM_VIS
100
AcDbCircle
 10
215.2518162005617
 20
88.05886522107641
 30
0.0
 40
6.399999999999998
  0
CIRCLE
  5
1BF6
330
1F
100
AcDbEntity
  8
AM_VIS
100
AcDbCircle
 10
180.2518162005617
 20
88.05886522107641
 30
0.0
 40
2.0
  0
LINE
  5
1BF7
330
1F
100
AcDbEntity
  8
AM_VIS
100
AcDbLine
 10
405.0289821366952
 20
104.6721129469126
 30
0.0
 11
405.0289821366952
 21
108.0588652210764
 31
0.0
  0
LINE
  5
1BF8
330
1F
100
AcDbEntity
  8
AM_VIS
100
AcDbLine
 10
405.0289821366952
 20
96.25886522107647
 30
0.0
 11
405.0289821366952
 21
95.00886522107647
 31
0.0
  0
LINE
  5
1BF9
330
1F
100
AcDbEntity
  8
AM_VIS
100
AcDbLine
 10
405.0289821366952
 20
94.10886522107649
 30
0.0
 11
405.0289821366952
 21
92.85886522107649
 31
0.0
  0
LINE
  5
1BFC
330
1F
100
AcDbEntity
  8
AM_VIS
100
AcDbLine
 10
405.0289821366952
 20
68.05886522107641
 30
0.0
 11
405.0289821366953
 21
83.25886522107646
 31
0.0
  0
CIRCLE
  5
1BFD
330
1F
100
AcDbEntity
  8
AM_VIS
100
AcDbCircle
 10
346.7289821366953
 20
88.05886522107641
 30
0.0
 40
3.576499999999999
  0
CIRCLE
  5
1BFE
330
1F
100
AcDbEntity
  8
AM_VIS
100
AcDbCircle
 10
396.5289821366953
 20
88.05886522107641
 30
0.0
 40
2.966999999999999
  0
CIRCLE
  5
1BFF
330
1F
100
AcDbEntity
  8
AM_VIS
100
AcDbCircle
 10
361.0289821366953
 20
88.05886522107641
 30
0.0
 40
2.966999999999996
  0
CIRCLE
  5
1C00
330
1F
100
AcDbEntity
  8
AM_VIS
100
AcDbCircle
 10
396.5289821366953
 20
88.05886522107641
 30
0.0
 40
2.166999999999999
  0
CIRCLE
  5
1C01
330
1F
100
AcDbEntity
  8
AM_VIS
100
AcDbCircle
 10
361.0289821366953
 20
88.05886522107641
 30
0.0
 40
2.166999999999999
  0
CIRCLE
  5
1C02
330
1F
100
AcDbEntity
  8
AM_VIS
100
AcDbCircle
 10
361.0289821366953
 20
88.05886522107641
 30
0.0
 40
0.45
  0
CIRCLE
  5
1C03
330
1F
100
AcDbEntity
  8
AM_VIS
100
AcDbCircle
 10
396.5289821366953
 20
88.05886522107641
 30
0.0
 40
0.45
  0
LINE
  5
1C04
330
1F
100
AcDbEntity
  8
AM_VIS
100
AcDbLine
 10
332.0289821366952
 20
83.25886522107646
 30
0.0
 11
332.0289821366953
 21
68.05886522107641
 31
0.0
  0
LINE
  5
1C07
330
1F
100
AcDbEntity
  8
AM_VIS
100
AcDbLine
 10
332.0289821366953
 20
92.85886522107649
 30
0.0
 11
332.0289821366953
 21
94.10886522107649
 31
0.0
  0
LINE
  5
1C08
330
1F
100
AcDbEntity
  8
AM_VIS
100
AcDbLine
 10
332.0289821366953
 20
95.00886522107647
 30
0.0
 11
332.0289821366953
 21
96.25886522107647
 31
0.0
  0
LINE
  5
1C09
330
1F
100
AcDbEntity
  8
AM_VIS
100
AcDbLine
 10
332.0289821366953
 20
108.0588652210764
 30
0.0
 11
332.0289821366953
 21
104.6721129469126
 31
0.0
  0
LINE
  5
1C0A
330
1F
100
AcDbEntity
  8
AM_VIS
100
AcDbLine
 10
405.0289821366952
 20
104.6721129469126
 30
0.0
 11
405.0289821366952
 21
96.25886522107647
 31
0.0
  0
LINE
  5
1C0B
330
1F
100
AcDbEntity
  8
AM_VIS
100
AcDbLine
 10
405.0289821366952
 20
95.00886522107647
 30
0.0
 11
405.0289821366952
 21
94.10886522107649
 31
0.0
  0
LINE
  5
1C0C
330
1F
100
AcDbEntity
  8
AM_VIS
100
AcDbLine
 10
405.0289821366952
 20
92.85886522107649
 30
0.0
 11
405.0289821366952
 21
83.25886522107635
 31
0.0
  0
LINE
  5
1C0F
330
1F
100
AcDbEntity
  8
AM_VIS
100
AcDbLine
 10
332.0289821366953
 20
83.25886522107646
 30
0.0
 11
405.0289821366952
 21
83.25886522107646
 31
0.0
  0
LINE
  5
1C10
330
1F
100
AcDbEntity
  8
AM_VIS
100
AcDbLine
 10
405.0289821366952
 20
92.85886522107649
 30
0.0
 11
332.0289821366953
 21
92.85886522107649
 31
0.0
  0
LINE
  5
1C11
330
1F
100
AcDbEntity
  8
AM_VIS
100
AcDbLine
 10
332.0289821366953
 20
92.85886522107649
 30
0.0
 11
332.0289821366953
 21
83.25886522107635
 31
0.0
  0
LINE
  5
1C14
330
1F
100
AcDbEntity
  8
AM_VIS
100
AcDbLine
 10
332.0289821366953
 20
94.10886522107649
 30
0.0
 11
332.0289821366953
 21
95.00886522107647
 31
0.0
  0
LINE
  5
1C15
330
1F
100
AcDbEntity
  8
AM_VIS
100
AcDbLine
 10
332.0289821366953
 20
104.6721129469126
 30
0.0
 11
332.0289821366953
 21
96.25886522107647
 31
0.0
  0
LINE
  5
1C16
330
1F
100
AcDbEntity
  8
AM_VIS
100
AcDbLine
 10
405.0289821366952
 20
68.05886522107641
 30
0.0
 11
332.0289821366953
 21
68.05886522107641
 31
0.0
  0
LINE
  5
1C17
102
{ACAD_REACTORS
330
1CDD
102
}
330
1F
100
AcDbEntity
  8
AM_VIS
100
AcDbLine
 10
332.0289821366953
 20
108.0588652210764
 30
0.0
 11
405.0289821366952
 21
108.0588652210764
 31
0.0
  0
LINE
  5
1C18
330
1F
100
AcDbEntity
  8
AM_VIS
100
AcDbLine
 10
332.0289821366953
 20
96.25886522107647
 30
0.0
 11
405.0289821366952
 21
96.25886522107647
 31
0.0
  0
LINE
  5
1C19
330
1F
100
AcDbEntity
  8
AM_VIS
100
AcDbLine
 10
405.0289821366952
 20
104.6721129469126
 30
0.0
 11
332.0289821366953
 21
104.6721129469126
 31
0.0
  0
LINE
  5
1C1A
330
1F
100
AcDbEntity
  8
AM_VIS
100
AcDbLine
 10
396.7789821366946
 20
88.43303095975432
 30
0.0
 11
396.7789821366946
 21
87.68469948239863
 31
0.0
  0
LINE
  5
1C1B
330
1F
100
AcDbEntity
  8
AM_VIS
100
AcDbLine
 10
396.4789821366947
 20
87.61165162557654
 30
0.0
 11
396.4789821366947
 21
88.50607881657628
 31
0.0
  0
LINE
  5
1C1C
102
{ACAD_REACTORS
330
1CD7
102
}
330
1F
100
AcDbEntity
  8
AM_VIS
100
AcDbLine
 10
315.5289821366953
 20
82.10886522107557
 30
0.0
 11
314.5789821366946
 21
83.05886522107641
 31
0.0
  0
ARC
  5
1C1D
330
1F
100
AcDbEntity
  8
AM_VIS
100
AcDbCircle
 10
309.5789821366945
 20
88.05886522107641
 30
0.0
 40
6.0
100
AcDbArc
 50
326.4426902380766
 51
352.5980003123458
  0
ARC
  5
1C1E
330
1F
100
AcDbEntity
  8
AM_VIS
100
AcDbCircle
 10
309.5789821366945
 20
88.05886522107641
 30
0.0
 40
6.0
100
AcDbArc
 50
7.401999687654139
 51
33.55730976192339
  0
LINE
  5
1C1F
330
1F
100
AcDbEntity
  8
AM_VIS
100
AcDbLine
 10
314.5789821366946
 20
91.37549001143179
 30
0.0
 11
314.5789821366946
 21
84.74224043072103
 31
0.0
  0
LINE
  5
1C20
102
{ACAD_REACTORS
330
1CD7
102
}
330
1F
100
AcDbEntity
  8
AM_VIS
100
AcDbLine
 10
314.5789821366946
 20
93.05886522107641
 30
0.0
 11
315.5289821366953
 21
94.00886522107725
 31
0.0
  0
LINE
  5
1C21
330
1F
100
AcDbEntity
  8
AM_VIS
100
AcDbLine
 10
314.0789821366945
 20
83.05886522107641
 30
0.0
 11
314.5789821366946
 21
83.05886522107641
 31
0.0
  0
LINE
  5
1C22
330
1F
100
AcDbEntity
  8
AM_VIS
100
AcDbLine
 10
314.0789821366945
 20
91.37549001143179
 30
0.0
 11
314.5789821366946
 21
91.37549001143179
 31
0.0
  0
LINE
  5
1C23
330
1F
100
AcDbEntity
  8
AM_VIS
100
AcDbLine
 10
314.5789821366946
 20
84.74224043072103
 30
0.0
 11
314.0789821366945
 21
84.74224043072103
 31
0.0
  0
LINE
  5
1C24
330
1F
100
AcDbEntity
  8
AM_VIS
100
AcDbLine
 10
314.5789821366946
 20
93.05886522107641
 30
0.0
 11
314.0789821366945
 21
93.05886522107641
 31
0.0
  0
LINE
  5
1C25
330
1F
100
AcDbEntity
  8
AM_VIS
100
AcDbLine
 10
360.8889691467912
 20
88.32450001542838
 30
0.0
 11
361.0729760244749
 21
88.50672265732987
 31
0.0
  0
LINE
  5
1C26
330
1F
100
AcDbEntity
  8
AM_VIS
100
AcDbLine
 10
315.5289821366953
 20
77.80886522107642
 30
0.0
 11
315.5289821366953
 21
98.30886522107642
 31
0.0
  0
LINE
  5
1C27
330
1F
100
AcDbEntity
  8
AM_VIS
100
AcDbLine
 10
316.5289821366953
 20
99.30886522107641
 30
0.0
 11
316.5289821366953
 21
76.80886522107641
 31
0.0
  0
LINE
  5
1C28
330
1F
100
AcDbEntity
  8
AM_VIS
100
AcDbLine
 10
329.0289821366953
 20
76.80886522107641
 30
0.0
 11
329.0289821366953
 21
99.30886522107641
 31
0.0
  0
LINE
  5
1C29
330
1F
100
AcDbEntity
  8
AM_VIS
100
AcDbLine
 10
329.2789821366953
 20
99.55886522107642
 30
0.0
 11
329.2789821366953
 21
76.55886522107642
 31
0.0
  0
LINE
  5
1C2A
102
{ACAD_REACTORS
330
1CDD
102
}
330
1F
100
AcDbEntity
  8
AM_VIS
100
AcDbLine
 10
315.5289821366953
 20
98.30886522107642
 30
0.0
 11
316.5289821366953
 21
99.30886522107641
 31
0.0
  0
LINE
  5
1C2B
330
1F
100
AcDbEntity
  8
AM_VIS
100
AcDbLine
 10
315.5289821366953
 20
77.80886522107642
 30
0.0
 11
316.5289821366953
 21
76.80886522107641
 31
0.0
  0
LINE
  5
1C2C
330
1F
100
AcDbEntity
  8
AM_VIS
100
AcDbLine
 10
316.5289821366953
 20
99.30886522107641
 30
0.0
 11
329.0289821366953
 21
99.30886522107641
 31
0.0
  0
LINE
  5
1C2D
102
{ACAD_REACTORS
330
1CDA
102
}
330
1F
100
AcDbEntity
  8
AM_VIS
100
AcDbLine
 10
316.5289821366953
 20
76.80886522107641
 30
0.0
 11
329.0289821366953
 21
76.80886522107641
 31
0.0
  0
LINE
  5
1C2E
330
1F
100
AcDbEntity
  8
AM_VIS
100
AcDbLine
 10
329.0289821366953
 20
99.30886522107641
 30
0.0
 11
329.2789821366953
 21
99.55886522107642
 31
0.0
  0
LINE
  5
1C2F
330
1F
100
AcDbEntity
  8
AM_VIS
100
AcDbLine
 10
329.0289821366953
 20
76.80886522107641
 30
0.0
 11
329.2789821366953
 21
76.55886522107642
 31
0.0
  0
LINE
  5
1C30
330
1F
100
AcDbEntity
  8
AM_VIS
100
AcDbLine
 10
329.2789821366953
 20
99.55886522107642
 30
0.0
 11
332.0289821366953
 21
99.55886522107642
 31
0.0
  0
LINE
  5
1C31
330
1F
100
AcDbEntity
  8
AM_VIS
100
AcDbLine
 10
329.2789821366953
 20
76.55886522107642
 30
0.0
 11
332.0289821366953
 21
76.55886522107642
 31
0.0
  0
LINE
  5
1C32
330
1F
100
AcDbEntity
  8
AM_VIS
100
AcDbLine
 10
360.8889821366954
 20
88.48653331668334
 30
0.0
 11
360.8889821366954
 21
87.6311971254695
 31
0.0
  0
CIRCLE
  5
1C33
330
1F
100
AcDbEntity
  8
AM_VIS
100
AcDbCircle
 10
346.7289821366953
 20
88.05886522107641
 30
0.0
 40
2.38650000000004
  0
LINE
  5
1C34
330
1F
100
AcDbEntity
  8
AM_VIS
100
AcDbLine
 10
347.5952321366954
 20
89.55925423313294
 30
0.0
 11
345.8627321366953
 21
89.55925423313283
 31
0.0
  0
LINE
  5
1C35
330
1F
100
AcDbEntity
  8
AM_VIS
100
AcDbLine
 10
348.4614821366954
 20
88.05886522107641
 30
0.0
 11
347.5952321366954
 21
89.55925423313294
 31
0.0
  0
LINE
  5
1C36
330
1F
100
AcDbEntity
  8
AM_VIS
100
AcDbLine
 10
347.5952321366954
 20
86.55847620901989
 30
0.0
 11
348.4614821366954
 21
88.05886522107641
 31
0.0
  0
LINE
  5
1C37
330
1F
100
AcDbEntity
  8
AM_VIS
100
AcDbLine
 10
345.8627321366953
 20
86.55847620901989
 30
0.0
 11
347.5952321366954
 21
86.55847620901989
 31
0.0
  0
LINE
  5
1C38
330
1F
100
AcDbEntity
  8
AM_VIS
100
AcDbLine
 10
344.9964821366953
 20
88.05886522107641
 30
0.0
 11
345.8627321366953
 21
86.55847620901989
 31
0.0
  0
LINE
  5
1C39
330
1F
100
AcDbEntity
  8
AM_VIS
100
AcDbLine
 10
345.8627321366953
 20
89.55925423313294
 30
0.0
 11
344.9964821366953
 21
88.05886522107641
 31
0.0
  0
LINE
  5
1C3A
330
1F
100
AcDbEntity
  8
AM_VIS
100
AcDbLine
 10
300.0789821366946
 20
80.05886522107642
 30
0.0
 11
314.0789821366945
 21
80.05886522107642
 31
0.0
  0
LINE
  5
1C3B
330
1F
100
AcDbEntity
  8
AM_VIS
100
AcDbLine
 10
314.0789821366945
 20
96.05886522107642
 30
0.0
 11
300.0789821366946
 21
96.05886522107642
 31
0.0
  0
LINE
  5
1C3C
330
1F
100
AcDbEntity
  8
AM_VIS
100
AcDbLine
 10
314.0789821366945
 20
80.05886522107642
 30
0.0
 11
314.0789821366945
 21
82.05886522107642
 31
0.0
  0
LINE
  5
1C3D
330
1F
100
AcDbEntity
  8
AM_VIS
100
AcDbLine
 10
314.0789821366945
 20
82.05886522107642
 30
0.0
 11
300.0789821366946
 21
82.05886522107642
 31
0.0
  0
LINE
  5
1C3E
330
1F
100
AcDbEntity
  8
AM_VIS
100
AcDbLine
 10
300.0789821366946
 20
82.05886522107642
 30
0.0
 11
300.0789821366946
 21
80.05886522107642
 31
0.0
  0
LINE
  5
1C3F
330
1F
100
AcDbEntity
  8
AM_VIS
100
AcDbLine
 10
300.0789821366946
 20
94.05886522107641
 30
0.0
 11
300.0789821366946
 21
82.05886522107642
 31
0.0
  0
LINE
  5
1C40
102
{ACAD_REACTORS
330
1CD1
102
}
330
1F
100
AcDbEntity
  8
AM_VIS
100
AcDbLine
 10
300.0789821366946
 20
96.05886522107642
 30
0.0
 11
300.0789821366946
 21
94.05886522107641
 31
0.0
  0
LINE
  5
1C41
330
1F
100
AcDbEntity
  8
AM_VIS
100
AcDbLine
 10
300.0789821366946
 20
94.05886522107641
 30
0.0
 11
314.0789821366945
 21
94.05886522107641
 31
0.0
  0
LINE
  5
1C42
102
{ACAD_REACTORS
330
1CD1
102
}
330
1F
100
AcDbEntity
  8
AM_VIS
100
AcDbLine
 10
314.0789821366945
 20
94.05886522107641
 30
0.0
 11
314.0789821366945
 21
96.05886522107642
 31
0.0
  0
LINE
  5
1C43
330
1F
100
AcDbEntity
  8
AM_VIS
100
AcDbLine
 10
314.0789821366945
 20
82.05886522107642
 30
0.0
 11
314.0789821366945
 21
94.05886522107641
 31
0.0
  0
LINE
  5
1C44
330
1F
100
AcDbEntity
  8
AM_VIS
100
AcDbLine
 10
314.0789821366945
 20
93.05886522107641
 30
0.0
 11
314.5255641240797
 21
93.83236791297269
 31
0.0
  0
LINE
  5
1C45
330
1F
100
AcDbEntity
  8
AM_VIS
100
AcDbLine
 10
314.0789821366945
 20
83.05886522107641
 30
0.0
 11
314.5255641240797
 21
82.28536252918013
 31
0.0
  0
SPLINE
  5
1C46
330
1F
100
AcDbEntity
  8
AM_VIS
100
AcDbSpline
210
0.0000000000000787
220
-0.0000000000000364
230
1.0
 70
    12
 71
     2
 72
     6
 73
     3
 74
     0
 42
0.0000000001
 43
0.0000000001
 40
5.381408648126371
 40
5.381408648126371
 40
5.381408648126371
 40
7.401530904340439
 40
7.401530904340439
 40
7.401530904340439
 10
314.5255641240796
 20
93.83236791297253
 30
0.0
 41
1.109064500041979
 10
314.2900965700917
 20
93.42452614593122
 30
0.0
 41
1.100585211523222
 10
314.1808156979729
 20
93.05886522107631
 30
-0.0000000000000009
 41
1.070370816488276
  0
SPLINE
  5
1C47
330
1F
100
AcDbEntity
  8
AM_VIS
100
AcDbSpline
210
-0.0000000000000816
220
-0.0000000000000378
230
1.0
 70
    12
 71
     2
 72
     6
 73
     3
 74
     0
 42
0.0000000001
 43
0.0000000001
 40
10.97174748676449
 40
10.97174748676449
 40
10.97174748676449
 40
12.99186974297856
 40
12.99186974297856
 40
12.99186974297856
 10
314.1808156979732
 20
83.05886522107654
 30
0.0
 41
1.070370816488276
 10
314.2900965700921
 20
82.6932042962216
 30
0.0
 41
1.100585211523223
 10
314.5255641240796
 20
82.28536252918013
 30
-0.0000000000000009
 41
1.10906450004198
  0
LINE
  5
1C48
330
1F
100
AcDbEntity
  8
AM_VIS
100
AcDbLine
 10
315.3524848285908
 20
93.83236791297269
 30
0.0
 11
314.5255641240797
 21
93.83236791297269
 31
0.0
  0
LINE
  5
1C49
330
1F
100
AcDbEntity
  8
AM_VIS
100
AcDbLine
 10
315.3524848285908
 20
82.28536252918024
 30
0.0
 11
314.5255641240797
 21
82.28536252918024
 31
0.0
  0
MTEXT
  5
1C57
330
1F
100
AcDbEntity
  8
AM_5
 62
     5
100
AcDbMText
 10
319.5742876281461
 20
70.01542048883198
 30
0.0
 40
2.5
 41
0.0
 71
     5
 72
     1
  1
{\H0.7x;\S 0^ -0,05;}
 11
0.0000000000000001
 21
1.0
 31
0.0
 73
     1
 44
1.0
1001
ACAD
1000
MTEXTBEGIN
1070
    73
1070
     1
1070
    44
1040
1.0
1070
    74
1070
     0
1000
MTEXTEND
  0
DIMENSION
  5
1C58
102
{ACAD_XDICTIONARY
360
1C59
102
}
102
{ACAD_REACTORS
330
1C5A
102
}
330
1F
100
AcDbEntity
  8
AM_5
 62
     5
100
AcDbDimension
  2
*D16
 10
163.2518162005617
 20
80.05886522107642
 30
0.0
 11
160.234338356759
 21
88.05886522107645
 31
0.0
 70
    32
  1
16
 71
     5
 42
16.0
  3
AM_ISO$0
100
AcDbAlignedDimension
 13
175.2518162005617
 23
96.05886522107642
 33
0.0
 14
175.2518162005617
 24
80.05886522107642
 34
0.0
 50
90.0
100
AcDbRotatedDimension
1001
ACAD
1000
DSTYLE
1002
{
1070
    40
1040
1.005825947934212
1070
    41
1040
4.0
1070
   140
1040
4.0
1002
}
  0
LINE
  5
1C5B
102
{ACAD_REACTORS
330
1CC8
102
}
330
1F
100
AcDbEntity
  8
AM_7
100
AcDbLine
 10
305.1077321366945
 20
-12.09263412618861
 30
0.0
 11
407.3977692714363
 21
-12.09263412618861
 31
0.0
  0
LINE
  5
1C5C
102
{ACAD_REACTORS
330
1CC5
330
1CC8
102
}
330
1F
100
AcDbEntity
  8
AM_7
100
AcDbLine
 10
335.2539821366945
 20
-47.09263412618861
 30
0.0
 11
301.9039821366946
 21
-47.09263412618861
 31
0.0
  0
LINE
  5
1C5D
102
{ACAD_REACTORS
330
1CD4
102
}
330
1F
100
AcDbEntity
  8
AM_VIS
100
AcDbLine
 10
332.0289821366953
 20
7.907365873811386
 30
0.0
 11
405.0289821366952
 21
7.907365873811386
 31
0.0
  0
LINE
  5
1C5E
330
1F
100
AcDbEntity
  8
AM_VIS
100
AcDbLine
 10
405.0289821366952
 20
-32.09263412618862
 30
0.0
 11
332.0289821366953
 21
-32.09263412618862
 31
0.0
  0
LINE
  5
1C5F
330
1F
100
AcDbEntity
  8
AM_VIS
100
AcDbLine
 10
332.0289821366953
 20
-28.70588185202473
 30
0.0
 11
405.0289821366952
 21
-28.70588185202473
 31
0.0
  0
LINE
  5
1C60
330
1F
100
AcDbEntity
  8
AM_VIS
100
AcDbLine
 10
405.0289821366952
 20
4.520613599647504
 30
0.0
 11
332.0289821366953
 21
4.520613599647504
 31
0.0
  0
LINE
  5
1C61
330
1F
100
AcDbEntity
  8
AM_VIS
100
AcDbLine
 10
332.0289821366953
 20
-3.892634126188568
 30
0.0
 11
405.0289821366952
 21
-3.892634126188568
 31
0.0
  0
LINE
  5
1C62
330
1F
100
AcDbEntity
  8
AM_VIS
100
AcDbLine
 10
405.0289821366952
 20
-7.292634126188659
 30
0.0
 11
332.0289821366953
 21
-7.292634126188659
 31
0.0
  0
LINE
  5
1C63
330
1F
100
AcDbEntity
  8
AM_VIS
100
AcDbLine
 10
332.0289821366953
 20
-16.89263412618856
 30
0.0
 11
405.0289821366952
 21
-16.89263412618856
 31
0.0
  0
LINE
  5
1C64
330
1F
100
AcDbEntity
  8
AM_VIS
100
AcDbLine
 10
405.0289821366952
 20
-20.29263412618866
 30
0.0
 11
332.0289821366953
 21
-20.29263412618866
 31
0.0
  0
LINE
  5
1C65
330
1F
100
AcDbEntity
  8
AM_VIS
100
AcDbLine
 10
332.0289821366953
 20
-19.04263412618866
 30
0.0
 11
332.0289821366953
 21
-18.14263412618856
 31
0.0
  0
LINE
  5
1C66
330
1F
100
AcDbEntity
  8
AM_VIS
100
AcDbLine
 10
332.0289821366953
 20
-20.29263412618866
 30
0.0
 11
332.0289821366953
 21
-28.70588185202473
 31
0.0
  0
LINE
  5
1C67
330
1F
100
AcDbEntity
  8
AM_VIS
100
AcDbLine
 10
332.0289821366953
 20
4.520613599647504
 30
0.0
 11
332.0289821366953
 21
-3.892634126188568
 31
0.0
  0
LINE
  5
1C68
330
1F
100
AcDbEntity
  8
AM_VIS
100
AcDbLine
 10
332.0289821366953
 20
-6.042634126188659
 30
0.0
 11
332.0289821366953
 21
-5.142634126188568
 31
0.0
  0
LINE
  5
1C69
330
1F
100
AcDbEntity
  8
AM_VIS
100
AcDbLine
 10
332.0289821366953
 20
-7.292634126188659
 30
0.0
 11
332.0289821366953
 21
-16.89263412618856
 31
0.0
  0
LINE
  5
1C6A
330
1F
100
AcDbEntity
  8
AM_VIS
100
AcDbLine
 10
405.0289821366952
 20
-7.292634126188659
 30
0.0
 11
405.0289821366952
 21
-16.89263412618856
 31
0.0
  0
LINE
  5
1C6B
330
1F
100
AcDbEntity
  8
AM_VIS
100
AcDbLine
 10
405.0289821366952
 20
-5.142634126188568
 30
0.0
 11
405.0289821366952
 21
-6.042634126188659
 31
0.0
  0
LINE
  5
1C6C
330
1F
100
AcDbEntity
  8
AM_VIS
100
AcDbLine
 10
405.0289821366952
 20
4.520613599647504
 30
0.0
 11
405.0289821366952
 21
-3.892634126188568
 31
0.0
  0
LINE
  5
1C6D
330
1F
100
AcDbEntity
  8
AM_VIS
100
AcDbLine
 10
405.0289821366952
 20
-20.29263412618866
 30
0.0
 11
405.0289821366952
 21
-28.70588185202473
 31
0.0
  0
LINE
  5
1C6E
330
1F
100
AcDbEntity
  8
AM_VIS
100
AcDbLine
 10
405.0289821366952
 20
-18.14263412618856
 30
0.0
 11
405.0289821366952
 21
-19.04263412618866
 31
0.0
  0
LINE
  5
1C6F
330
1F
100
AcDbEntity
  8
AM_VIS
100
AcDbLine
 10
332.0289821366953
 20
-18.14263412618856
 30
0.0
 11
332.0289821366953
 21
-16.89263412618856
 31
0.0
  0
LINE
  5
1C70
330
1F
100
AcDbEntity
  8
AM_VIS
100
AcDbLine
 10
332.0289821366953
 20
-20.29263412618866
 30
0.0
 11
332.0289821366953
 21
-19.04263412618866
 31
0.0
  0
LINE
  5
1C71
330
1F
100
AcDbEntity
  8
AM_VIS
100
AcDbLine
 10
332.0289821366953
 20
-28.70588185202473
 30
0.0
 11
332.0289821366953
 21
-32.09263412618862
 31
0.0
  0
LINE
  5
1C72
330
1F
100
AcDbEntity
  8
AM_VIS
100
AcDbLine
 10
332.0289821366953
 20
7.907365873811386
 30
0.0
 11
332.0289821366953
 21
4.520613599647504
 31
0.0
  0
LINE
  5
1C73
330
1F
100
AcDbEntity
  8
AM_VIS
100
AcDbLine
 10
332.0289821366953
 20
-5.142634126188568
 30
0.0
 11
332.0289821366953
 21
-3.892634126188568
 31
0.0
  0
LINE
  5
1C74
330
1F
100
AcDbEntity
  8
AM_VIS
100
AcDbLine
 10
332.0289821366953
 20
-7.292634126188659
 30
0.0
 11
332.0289821366953
 21
-6.042634126188659
 31
0.0
  0
LINE
  5
1C75
330
1F
100
AcDbEntity
  8
AM_VIS
100
AcDbLine
 10
405.0289821366952
 20
-6.042634126188659
 30
0.0
 11
405.0289821366952
 21
-7.292634126188659
 31
0.0
  0
LINE
  5
1C76
330
1F
100
AcDbEntity
  8
AM_VIS
100
AcDbLine
 10
405.0289821366952
 20
-3.892634126188568
 30
0.0
 11
405.0289821366952
 21
-5.142634126188568
 31
0.0
  0
LINE
  5
1C77
330
1F
100
AcDbEntity
  8
AM_VIS
100
AcDbLine
 10
405.0289821366952
 20
4.520613599647504
 30
0.0
 11
405.0289821366952
 21
7.907365873811386
 31
0.0
  0
LINE
  5
1C78
330
1F
100
AcDbEntity
  8
AM_VIS
100
AcDbLine
 10
405.0289821366952
 20
-32.09263412618862
 30
0.0
 11
405.0289821366952
 21
-28.70588185202473
 31
0.0
  0
LINE
  5
1C79
330
1F
100
AcDbEntity
  8
AM_VIS
100
AcDbLine
 10
405.0289821366952
 20
-19.04263412618866
 30
0.0
 11
405.0289821366952
 21
-20.29263412618866
 31
0.0
  0
LINE
  5
1C7A
330
1F
100
AcDbEntity
  8
AM_VIS
100
AcDbLine
 10
405.0289821366952
 20
-16.89263412618856
 30
0.0
 11
405.0289821366952
 21
-18.14263412618856
 31
0.0
  0
LINE
  5
1C7B
330
1F
100
AcDbEntity
  8
AM_VIS
100
AcDbLine
 10
311.5789821366945
 20
-17.09263412618861
 30
0.0
 11
312.0789821366945
 21
-17.09263412618861
 31
0.0
  0
LINE
  5
1C7C
330
1F
100
AcDbEntity
  8
AM_VIS
100
AcDbLine
 10
315.5289821366953
 20
-18.04263412618945
 30
0.0
 11
314.5789821366946
 21
-17.09263412618861
 31
0.0
  0
LINE
  5
1C7D
330
1F
100
AcDbEntity
  8
AM_VIS
100
AcDbLine
 10
314.0789821366945
 20
-17.09263412618861
 30
0.0
 11
314.5789821366946
 21
-17.09263412618861
 31
0.0
  0
LINE
  5
1C7E
330
1F
100
AcDbEntity
  8
AM_VIS
100
AcDbLine
 10
314.5789821366946
 20
-7.092634126188613
 30
0.0
 11
314.0789821366945
 21
-7.092634126188613
 31
0.0
  0
LINE
  5
1C7F
330
1F
100
AcDbEntity
  8
AM_VIS
100
AcDbLine
 10
311.5789821366945
 20
-7.092634126188613
 30
0.0
 11
312.0789821366945
 21
-7.092634126188613
 31
0.0
  0
LINE
  5
1C80
330
1F
100
AcDbEntity
  8
AM_VIS
100
AcDbLine
 10
314.5789821366946
 20
-15.40925891654399
 30
0.0
 11
312.0789821366945
 21
-15.40925891654399
 31
0.0
  0
SPLINE
  5
1C81
330
1F
100
AcDbEntity
  8
AM_VIS
100
AcDbSpline
210
0.0
220
0.0
230
1.0
 70
    12
 71
     2
 72
     6
 73
     3
 74
     0
 42
0.0000000001
 43
0.0000000001
 40
0.0
 40
0.0
 40
0.0
 40
1.141184300300156
 40
1.141184300300156
 40
1.141184300300156
 10
312.0789821366945
 20
-15.40925891654399
 30
0.0
 41
1.0
 10
311.7832727520666
 20
-14.87430051156448
 30
0.0
 41
1.003998584891521
 10
311.5789821366945
 20
-14.38392197366647
 30
0.0
 41
1.0
  0
SPLINE
  5
1C82
330
1F
100
AcDbEntity
  8
AM_VIS
100
AcDbSpline
210
0.0
220
0.0
230
1.0
 70
    12
 71
     2
 72
     6
 73
     3
 74
     0
 42
0.0000000001
 43
0.0000000001
 40
0.0
 40
0.0
 40
0.0
 40
1.141184300300156
 40
1.141184300300156
 40
1.141184300300156
 10
311.5789821366945
 20
-9.801346278710752
 30
0.0
 41
1.0
 10
311.7832727520672
 20
-9.310967740812884
 30
0.0
 41
1.00399858489156
 10
312.0789821366945
 20
-8.776009335833236
 30
0.0
 41
1.0
  0
LINE
  5
1C83
330
1F
100
AcDbEntity
  8
AM_VIS
100
AcDbLine
 10
312.0789821366945
 20
-8.776009335833236
 30
0.0
 11
314.5789821366946
 21
-8.776009335833236
 31
0.0
  0
LINE
  5
1C84
330
1F
100
AcDbEntity
  8
AM_VIS
100
AcDbLine
 10
314.5789821366946
 20
-7.092634126188613
 30
0.0
 11
315.5289821366955
 21
-6.142634126187886
 31
0.0
  0
LINE
  5
1C85
330
1F
100
AcDbEntity
  8
AM_VIS
100
AcDbLine
 10
314.5789821366946
 20
-8.776009335833236
 30
0.0
 11
314.5789821366946
 21
-15.4092589165441
 31
0.0
  0
ARC
  5
1C86
330
1F
100
AcDbEntity
  8
AM_VIS
100
AcDbCircle
 10
309.5789821366945
 20
-12.09263412618861
 30
0.0
 40
6.0
100
AcDbArc
 50
7.401999687654139
 51
33.55730976192339
  0
ARC
  5
1C87
330
1F
100
AcDbEntity
  8
AM_VIS
100
AcDbCircle
 10
309.5789821366945
 20
-12.09263412618861
 30
0.0
 40
6.0
100
AcDbArc
 50
326.4426902380766
 51
352.5980003123458
  0
LINE
  5
1C88
330
1F
100
AcDbEntity
  8
AM_VIS
100
AcDbLine
 10
312.0789821366945
 20
-7.092634126188613
 30
0.0
 11
312.0789821366945
 21
-8.776009335833236
 31
0.0
  0
LINE
  5
1C89
330
1F
100
AcDbEntity
  8
AM_VIS
100
AcDbLine
 10
312.0789821366945
 20
-15.4092589165441
 30
0.0
 11
312.0789821366945
 21
-17.09263412618861
 31
0.0
  0
LINE
  5
1C8A
330
1F
100
AcDbEntity
  8
AM_VIS
100
AcDbLine
 10
329.2789821366953
 20
-23.59263412618862
 30
0.0
 11
332.0289821366953
 21
-23.59263412618862
 31
0.0
  0
LINE
  5
1C8B
330
1F
100
AcDbEntity
  8
AM_VIS
100
AcDbLine
 10
329.2789821366953
 20
-0.5926341261886137
 30
0.0
 11
332.0289821366953
 21
-0.5926341261886137
 31
0.0
  0
LINE
  5
1C8C
330
1F
100
AcDbEntity
  8
AM_VIS
100
AcDbLine
 10
329.0289821366953
 20
-23.34263412618861
 30
0.0
 11
329.2789821366953
 21
-23.59263412618862
 31
0.0
  0
LINE
  5
1C8D
330
1F
100
AcDbEntity
  8
AM_VIS
100
AcDbLine
 10
329.0289821366953
 20
-0.8426341261886136
 30
0.0
 11
329.2789821366953
 21
-0.5926341261886137
 31
0.0
  0
LINE
  5
1C8E
330
1F
100
AcDbEntity
  8
AM_VIS
100
AcDbLine
 10
316.5289821366953
 20
-23.34263412618861
 30
0.0
 11
329.0289821366953
 21
-23.34263412618861
 31
0.0
  0
LINE
  5
1C8F
330
1F
100
AcDbEntity
  8
AM_VIS
100
AcDbLine
 10
316.5289821366953
 20
-0.8426341261886136
 30
0.0
 11
329.0289821366953
 21
-0.8426341261886136
 31
0.0
  0
LINE
  5
1C90
330
1F
100
AcDbEntity
  8
AM_VIS
100
AcDbLine
 10
315.5289821366953
 20
-22.34263412618862
 30
0.0
 11
316.5289821366953
 21
-23.34263412618861
 31
0.0
  0
LINE
  5
1C91
330
1F
100
AcDbEntity
  8
AM_VIS
100
AcDbLine
 10
315.5289821366953
 20
-1.842634126188613
 30
0.0
 11
316.5289821366953
 21
-0.8426341261886136
 31
0.0
  0
LINE
  5
1C92
330
1F
100
AcDbEntity
  8
AM_VIS
100
AcDbLine
 10
329.2789821366953
 20
-0.5926341261886137
 30
0.0
 11
329.2789821366953
 21
-23.59263412618862
 31
0.0
  0
LINE
  5
1C93
330
1F
100
AcDbEntity
  8
AM_VIS
100
AcDbLine
 10
329.0289821366953
 20
-23.34263412618861
 30
0.0
 11
329.0289821366953
 21
-0.8426341261886136
 31
0.0
  0
LINE
  5
1C94
330
1F
100
AcDbEntity
  8
AM_VIS
100
AcDbLine
 10
316.5289821366953
 20
-0.8426341261886136
 30
0.0
 11
316.5289821366953
 21
-23.34263412618861
 31
0.0
  0
LINE
  5
1C95
330
1F
100
AcDbEntity
  8
AM_VIS
100
AcDbLine
 10
315.5289821366953
 20
-22.34263412618862
 30
0.0
 11
315.5289821366953
 21
-1.842634126188613
 31
0.0
  0
LINE
  5
1C96
330
1F
100
AcDbEntity
  8
AM_VIS
100
AcDbLine
 10
300.0789821366946
 20
-3.092634126188613
 30
0.0
 11
300.0789821366946
 21
-5.092634126188613
 31
0.0
  0
LINE
  5
1C97
102
{ACAD_REACTORS
330
1CCB
102
}
330
1F
100
AcDbEntity
  8
AM_VIS
100
AcDbLine
 10
314.0789821366945
 20
-3.092634126188613
 30
0.0
 11
300.0789821366946
 21
-3.092634126188613
 31
0.0
  0
LINE
  5
1C98
330
1F
100
AcDbEntity
  8
AM_VIS
100
AcDbLine
 10
314.0789821366945
 20
-5.092634126188613
 30
0.0
 11
314.0789821366945
 21
-3.092634126188613
 31
0.0
  0
LINE
  5
1C99
330
1F
100
AcDbEntity
  8
AM_VIS
100
AcDbLine
 10
300.0789821366946
 20
-5.092634126188613
 30
0.0
 11
300.0789821366946
 21
-21.09263412618862
 31
0.0
  0
LINE
  5
1C9A
330
1F
100
AcDbEntity
  8
AM_VIS
100
AcDbLine
 10
300.0789821366946
 20
-5.092634126188613
 30
0.0
 11
314.0789821366945
 21
-5.092634126188613
 31
0.0
  0
LINE
  5
1C9B
330
1F
100
AcDbEntity
  8
AM_VIS
100
AcDbLine
 10
314.0789821366945
 20
-5.092634126188613
 30
0.0
 11
314.0789821366945
 21
-7.092634126188613
 31
0.0
  0
LINE
  5
1C9C
330
1F
100
AcDbEntity
  8
AM_VIS
100
AcDbLine
 10
311.5789821366945
 20
-7.092634126188613
 30
0.0
 11
314.0789821366945
 21
-7.092634126188613
 31
0.0
  0
LINE
  5
1C9D
102
{ACAD_REACTORS
330
1CD4
102
}
330
1F
100
AcDbEntity
  8
AM_VIS
100
AcDbLine
 10
311.5789821366945
 20
-17.09263412618861
 30
0.0
 11
311.5789821366945
 21
-7.092634126188613
 31
0.0
  0
LINE
  5
1C9E
330
1F
100
AcDbEntity
  8
AM_VIS
100
AcDbLine
 10
314.0789821366945
 20
-17.09263412618861
 30
0.0
 11
311.5789821366945
 21
-17.09263412618861
 31
0.0
  0
LINE
  5
1C9F
330
1F
100
AcDbEntity
  8
AM_VIS
100
AcDbLine
 10
302.0789821366946
 20
-54.09263412618861
 30
0.0
 11
314.0789821366945
 21
-54.09263412618861
 31
0.0
  0
LINE
  5
1CA0
330
1F
100
AcDbEntity
  8
AM_VIS
100
AcDbLine
 10
314.0789821366945
 20
-52.09263412618861
 30
0.0
 11
301.9577700154823
 21
-52.09263412618861
 31
0.0
  0
LINE
  5
1CA1
330
1F
100
AcDbEntity
  8
AM_VIS
100
AcDbLine
 10
314.0789821366945
 20
-17.09263412618861
 30
0.0
 11
314.0789821366945
 21
-52.09263412618861
 31
0.0
  0
LINE
  5
1CA2
102
{ACAD_REACTORS
330
1CCE
102
}
330
1F
100
AcDbEntity
  8
AM_VIS
100
AcDbLine
 10
314.0789821366945
 20
-54.09263412618861
 30
0.0
 11
314.0789821366945
 21
-52.09263412618861
 31
0.0
  0
LINE
  5
1CA3
330
1F
100
AcDbEntity
  8
AM_VIS
100
AcDbLine
 10
300.0789821366946
 20
-21.09263412618862
 30
0.0
 11
301.9577700154823
 21
-52.09263412618861
 31
0.0
  0
LINE
  5
1CA4
102
{ACAD_REACTORS
330
1CC5
330
1CCB
102
}
330
1F
100
AcDbEntity
  8
AM_VIS
100
AcDbLine
 10
301.9577700154823
 20
-52.09263412618861
 30
0.0
 11
302.0789821366946
 21
-54.09263412618861
 31
0.0
  0
LINE
  5
1CA5
330
1F
100
AcDbEntity
  8
AM_VIS
100
AcDbLine
 10
318.6324001493094
 20
-52.09263412618861
 30
0.0
 11
314.5255641240797
 21
-52.09263412618861
 31
0.0
  0
SPLINE
  5
1CA6
330
1F
100
AcDbEntity
  8
AM_VIS
100
AcDbSpline
210
0.0
220
0.0
230
1.0
 70
    12
 71
     2
 72
     6
 73
     3
 74
     0
 42
0.0000000001
 43
0.0000000001
 40
9.186639195552464
 40
9.186639195552464
 40
9.186639195552464
 40
12.99186974297855
 40
12.99186974297855
 40
12.99186974297855
 10
319.0789821366946
 20
-49.59263412618861
 30
0.0
 41
1.0
 10
319.0789821366958
 20
-48.43238008834408
 30
0.0
 41
1.093092373804191
 10
318.6324001493093
 20
-47.09263412618872
 30
0.0
 41
1.109064500041979
  0
LINE
  5
1CA7
330
1F
100
AcDbEntity
  8
AM_VIS
100
AcDbLine
 10
318.6324001493094
 20
-52.09263412618861
 30
0.0
 11
319.0789821366946
 21
-52.09263412618861
 31
0.0
  0
SPLINE
  5
1CA8
330
1F
100
AcDbEntity
  8
AM_VIS
100
AcDbSpline
210
0.0
220
0.0
230
1.0
 70
    12
 71
     2
 72
     6
 73
     3
 74
     0
 42
0.0000000001
 43
0.0000000001
 40
5.381408648126373
 40
5.381408648126373
 40
5.381408648126373
 40
9.186639195552464
 40
9.186639195552464
 40
9.186639195552464
 10
318.6324001493094
 20
-52.09263412618861
 30
0.0
 41
1.109064500041978
 10
319.0789821366942
 20
-50.75288816403304
 30
0.0
 41
1.093092373804191
 10
319.0789821366946
 20
-49.59263412618861
 30
0.0
 41
1.0
  0
SPLINE
  5
1CA9
330
1F
100
AcDbEntity
  8
AM_VIS
100
AcDbSpline
210
0.0
220
0.0
230
1.0
 70
    12
 71
     2
 72
     6
 73
     3
 74
     0
 42
0.0000000001
 43
0.0000000001
 40
9.186639195552464
 40
9.186639195552464
 40
9.186639195552464
 40
12.99186974297855
 40
12.99186974297855
 40
12.99186974297855
 10
319.0789821366946
 20
-44.59263412618861
 30
0.0
 41
1.0
 10
319.0789821366946
 20
-43.43238008834418
 30
0.0
 41
1.093092373804194
 10
318.6324001493096
 20
-42.09263412618848
 30
0.0
 41
1.109064500041982
  0
SPLINE
  5
1CAA
330
1F
100
AcDbEntity
  8
AM_VIS
100
AcDbSpline
210
0.0
220
0.0
230
1.0
 70
    12
 71
     2
 72
     6
 73
     3
 74
     0
 42
0.0000000001
 43
0.0000000001
 40
5.381408648126376
 40
5.381408648126376
 40
5.381408648126376
 40
9.186639195552464
 40
9.186639195552464
 40
9.186639195552464
 10
318.6324001493094
 20
-47.09263412618861
 30
0.0
 41
1.109064500041981
 10
319.0789821366946
 20
-45.75288816403303
 30
0.0
 41
1.093092373804193
 10
319.0789821366946
 20
-44.59263412618861
 30
0.0
 41
1.0
  0
LINE
  5
1CAB
330
1F
100
AcDbEntity
  8
AM_VIS
100
AcDbLine
 10
318.6324001493094
 20
-47.09263412618861
 30
0.0
 11
314.5255641240797
 21
-47.09263412618861
 31
0.0
  0
LINE
  5
1CAC
330
1F
100
AcDbEntity
  8
AM_VIS
100
AcDbLine
 10
318.6324001493094
 20
-42.09263412618861
 30
0.0
 11
319.0789821366946
 21
-42.09263412618861
 31
0.0
  0
LINE
  5
1CAD
330
1F
100
AcDbEntity
  8
AM_VIS
100
AcDbLine
 10
318.6324001493094
 20
-42.09263412618861
 30
0.0
 11
314.5255641240797
 21
-42.09263412618861
 31
0.0
  0
SPLINE
  5
1CAE
330
1F
100
AcDbEntity
  8
AM_VIS
100
AcDbSpline
210
0.0
220
0.0
230
1.0
 70
    12
 71
     2
 72
     6
 73
     3
 74
     0
 42
0.0000000001
 43
0.0000000001
 40
5.381408648126366
 40
5.381408648126366
 40
5.381408648126366
 40
9.186639195552462
 40
9.186639195552462
 40
9.186639195552462
 10
314.52556412408
 20
-47.09263412618863
 30
0.0
 41
1.109064500041979
 10
314.0789821366953
 20
-48.43238008834408
 30
0.0
 41
1.093092373804191
 10
314.0789821366945
 20
-49.59263412618861
 30
0.0
 41
1.0
  0
SPLINE
  5
1CAF
330
1F
100
AcDbEntity
  8
AM_VIS
100
AcDbSpline
210
0.0
220
0.0
230
1.0
 70
    12
 71
     2
 72
     6
 73
     3
 74
     0
 42
0.0000000001
 43
0.0000000001
 40
9.186639195552462
 40
9.186639195552462
 40
9.186639195552462
 40
12.99186974297856
 40
12.99186974297856
 40
12.99186974297856
 10
314.0789821366945
 20
-44.59263412618861
 30
0.0
 41
1.0
 10
314.078982136694
 20
-45.75288816403326
 30
0.0
 41
1.093092373804193
 10
314.5255641240796
 20
-47.09263412618864
 30
0.0
 41
1.10906450004198
  0
SPLINE
  5
1CB0
330
1F
100
AcDbEntity
  8
AM_VIS
100
AcDbSpline
210
0.0
220
0.0
230
1.0
 70
    12
 71
     2
 72
     6
 73
     3
 74
     0
 42
0.0000000001
 43
0.0000000001
 40
5.381408648126363
 40
5.381408648126363
 40
5.381408648126363
 40
9.186639195552462
 40
9.186639195552462
 40
9.186639195552462
 10
314.52556412408
 20
-42.0926341261885
 30
0.0
 41
1.109064500041979
 10
314.0789821366953
 20
-43.43238008834418
 30
0.0
 41
1.093092373804191
 10
314.0789821366945
 20
-44.59263412618861
 30
0.0
 41
1.0
  0
LINE
  5
1CB1
330
1F
100
AcDbEntity
  8
AM_VIS
100
AcDbLine
 10
314.0789821366945
 20
-42.09263412618861
 30
0.0
 11
314.5255641240797
 21
-42.09263412618861
 31
0.0
  0
SPLINE
  5
1CB2
330
1F
100
AcDbEntity
  8
AM_VIS
100
AcDbSpline
210
0.0000000000000581
220
0.0000000000000135
230
1.0
 70
    12
 71
     2
 72
     6
 73
     3
 74
     0
 42
0.0000000001
 43
0.0000000001
 40
9.186639195552462
 40
9.186639195552462
 40
9.186639195552462
 40
12.99186974297855
 40
12.99186974297855
 40
12.99186974297855
 10
314.0789821366945
 20
-49.59263412618861
 30
0.0
 41
1.0
 10
314.078982136694
 20
-50.75288816403302
 30
0.0
 41
1.09309237380419
 10
314.5255641240801
 20
-52.09263412618852
 30
0.0000000000000071
 41
1.109064500041977
  0
LINE
  5
1CB3
330
1F
100
AcDbEntity
  8
AM_VIS
100
AcDbLine
 10
314.0789821366945
 20
-52.09263412618861
 30
0.0
 11
314.5255641240797
 21
-52.09263412618861
 31
0.0
  0
LINE
  5
1CB4
330
1F
100
AcDbEntity
  8
AM_VIS
100
AcDbLine
 10
319.0789821366946
 20
-52.09263412618861
 30
0.0
 11
319.0789821366946
 21
-49.59263412618861
 31
0.0
  0
LINE
  5
1CB5
330
1F
100
AcDbEntity
  8
AM_VIS
100
AcDbLine
 10
319.0789821366946
 20
-49.59263412618861
 30
0.0
 11
319.0789821366946
 21
-44.59263412618861
 31
0.0
  0
LINE
  5
1CB6
330
1F
100
AcDbEntity
  8
AM_VIS
100
AcDbLine
 10
319.0789821366946
 20
-44.59263412618861
 30
0.0
 11
319.0789821366946
 21
-42.09263412618861
 31
0.0
  0
LINE
  5
1CB7
330
1F
100
AcDbEntity
  8
AM_VIS
100
AcDbLine
 10
333.0789821366945
 20
-42.09263412618861
 30
0.0
 11
333.0789821366945
 21
-47.09263412618861
 31
0.0
  0
LINE
  5
1CB8
330
1F
100
AcDbEntity
  8
AM_VIS
100
AcDbLine
 10
333.0789821366945
 20
-42.09263412618861
 30
0.0
 11
336.2275242918213
 21
-42.09263412618861
 31
0.0
  0
LINE
  5
1CB9
330
1F
100
AcDbEntity
  8
AM_VIS
100
AcDbLine
 10
333.0789821366945
 20
-47.09263412618861
 30
0.0
 11
333.0789821366945
 21
-52.09263412618861
 31
0.0
  0
LINE
  5
1CBA
330
1F
100
AcDbEntity
  8
AM_VIS
100
AcDbLine
 10
333.0789821366945
 20
-47.09263412618861
 30
0.0
 11
336.2275242918213
 21
-47.09263412618861
 31
0.0
  0
LINE
  5
1CBB
330
1F
100
AcDbEntity
  8
AM_VIS
100
AcDbLine
 10
333.0789821366945
 20
-52.09263412618861
 30
0.0
 11
336.2275242918213
 21
-52.09263412618861
 31
0.0
  0
LINE
  5
1CBC
330
1F
100
AcDbEntity
  8
AM_VIS
100
AcDbLine
 10
333.0789821366945
 20
-44.09263412618861
 30
0.0
 11
319.0789821366946
 21
-44.09263412618861
 31
0.0
  0
LINE
  5
1CBD
330
1F
100
AcDbEntity
  8
AM_VIS
100
AcDbLine
 10
333.0789821366945
 20
-50.09263412618861
 30
0.0
 11
319.0789821366946
 21
-50.09263412618861
 31
0.0
  0
LINE
  5
1CBE
330
1F
100
AcDbEntity
  8
AM_VIS
100
AcDbLine
 10
336.2275242918213
 20
-52.09263412618861
 30
0.0
 11
336.4438988677316
 21
-52.09263412618861
 31
0.0
  0
ELLIPSE
  5
1CBF
330
1F
100
AcDbEntity
  8
AM_VIS
100
AcDbEllipse
 10
317.0789821366946
 20
-49.59263412618861
 30
0.0
 11
-19.36491673103709
 21
0.0
 31
0.0
210
0.0
220
0.0
230
1.0
 40
0.866025403784439
 41
2.991963744230274
 42
3.29122156294931
  0
ELLIPSE
  5
1CC0
330
1F
100
AcDbEntity
  8
AM_VIS
100
AcDbEllipse
 10
317.0789821366946
 20
-44.59263412618861
 30
0.0
 11
-19.36491673103709
 21
0.0
 31
0.0
210
0.0
220
0.0
230
1.0
 40
0.866025403784439
 41
2.991963744230276
 42
3.29122156294931
  0
LINE
  5
1CC1
330
1F
100
AcDbEntity
  8
AM_VIS
100
AcDbLine
 10
336.4438988677316
 20
-42.09263412618861
 30
0.0
 11
336.2275242918213
 21
-42.09263412618861
 31
0.0
  0
ARC
  5
1CC2
330
1F
100
AcDbEntity
  8
AM_VIS
100
AcDbCircle
 10
317.0789821366946
 20
-47.09263412618861
 30
0.0
 40
20.0
100
AcDbArc
 50
345.5224878140701
 51
14.47751218592986
  0
DIMENSION
  5
1CC3
102
{ACAD_XDICTIONARY
360
1CC4
102
}
102
{ACAD_REACTORS
330
1CC5
102
}
330
1F
100
AcDbEntity
  8
AM_5
 62
     5
100
AcDbDimension
  2
*D17
 10
289.9039821366946
 20
-54.09263412618861
 30
0.0
 11
289.9039821366946
 21
-50.59263412618856
 31
0.0
 70
   160
  1
7
 71
     5
 42
7.0
  3
AM_ISO$0
100
AcDbAlignedDimension
 13
301.9039821366946
 23
-47.09263412618861
 33
0.0
 14
302.0789821366946
 24
-54.09263412618861
 34
0.0
 50
90.0
100
AcDbRotatedDimension
1001
ACAD
1000
DSTYLE
1002
{
1070
    40
1040
1.005825947934212
1070
    41
1040
4.0
1070
   140
1040
4.0
1002
}
  0
DIMENSION
  5
1CC6
102
{ACAD_XDICTIONARY
360
1CC7
102
}
102
{ACAD_REACTORS
330
1CC8
102
}
330
1F
100
AcDbEntity
  8
AM_5
 62
     5
100
AcDbDimension
  2
*D18
 10
289.9039821366946
 20
-12.09263412618861
 30
0.0
 11
286.886504292892
 21
-29.59263412618857
 31
0.0
 70
    32
  1
35
 71
     5
 42
35.0
  3
AM_ISO$0
100
AcDbAlignedDimension
 13
301.9039821366946
 23
-47.09263412618861
 33
0.0
 14
305.1077321366945
 24
-12.09263412618861
 34
0.0
 50
90.0
100
AcDbRotatedDimension
1001
ACAD
1000
DSTYLE
1002
{
1070
    40
1040
1.005825947934212
1070
    41
1040
4.0
1070
   140
1040
4.0
1002
}
  0
DIMENSION
  5
1CC9
102
{ACAD_XDICTIONARY
360
1CCA
102
}
102
{ACAD_REACTORS
330
1CCB
102
}
330
1F
100
AcDbEntity
  8
AM_5
 62
     5
100
AcDbDimension
  2
*D19
 10
281.9039821366946
 20
-54.09263412618861
 30
0.0
 11
278.886504292892
 21
-28.59263412618857
 31
0.0
 70
    32
  1
51
 71
     5
 42
51.0
  3
AM_ISO$0
100
AcDbAlignedDimension
 13
300.0789821366946
 23
-3.092634126188613
 33
0.0
 14
302.0789821366946
 24
-54.09263412618861
 34
0.0
 50
90.0
100
AcDbRotatedDimension
1001
ACAD
1000
DSTYLE
1002
{
1070
    40
1040
1.005825947934212
1070
    41
1040
4.0
1070
   140
1040
4.0
1002
}
  0
DIMENSION
  5
1CCC
102
{ACAD_XDICTIONARY
360
1CCD
102
}
102
{ACAD_REACTORS
330
1CCE
102
}
330
1F
100
AcDbEntity
  8
AM_5
 62
     5
100
AcDbDimension
  2
*D20
 10
337.0789821366945
 20
-61.10450277349946
 30
0.0
 11
325.5789821366946
 21
-58.08662893522913
 31
0.0
 70
    32
  1
12-25
 71
     5
 42
23.0
  3
AM_ISO$0
100
AcDbAlignedDimension
 13
314.0789821366945
 23
-54.09263412618861
 33
0.0
 14
337.0789821366945
 24
-47.09263412618861
 34
0.0
100
AcDbRotatedDimension
1001
ACAD
1000
DSTYLE
1002
{
1070
    40
1040
1.005825947934212
1070
    41
1040
4.0
1070
   140
1040
4.0
1002
}
  0
DIMENSION
  5
1CCF
102
{ACAD_XDICTIONARY
360
1CD0
102
}
102
{ACAD_REACTORS
330
1CD1
102
}
330
1F
100
AcDbEntity
  8
AM_5
 62
     5
100
AcDbDimension
  2
*D21
 10
300.0789821366946
 20
131.2330877548015
 30
0.0
 11
307.0789821366946
 21
131.2330877548015
 31
0.0
 70
   160
  1
14
 71
     5
 42
14.0
  3
AM_ISO$0
100
AcDbAlignedDimension
 13
314.0789821366945
 23
96.05886522107642
 33
0.0
 14
300.0789821366946
 24
96.05886522107642
 34
0.0
100
AcDbRotatedDimension
1001
ACAD
1000
DSTYLE
1002
{
1070
    40
1040
1.005825947934212
1070
    41
1040
4.0
1070
   140
1040
4.0
1002
}
  0
DIMENSION
  5
1CD2
102
{ACAD_XDICTIONARY
360
1CD3
102
}
102
{ACAD_REACTORS
330
1CD4
102
}
330
1F
100
AcDbEntity
  8
AM_5
 62
     5
100
AcDbDimension
  2
*D22
 10
332.0289821366953
 20
15.45822163013031
 30
0.0
 11
321.8039821366949
 21
18.47569947393295
 31
0.0
 70
    32
  1
10.5+ST
 71
     5
 42
20.45000000000073
  3
AM_ISO$0
100
AcDbAlignedDimension
 13
311.5789821366945
 23
-7.092634126188613
 33
0.0
 14
332.0289821366953
 24
7.907365873811386
 34
0.0
100
AcDbRotatedDimension
1001
ACAD
1000
DSTYLE
1002
{
1070
    40
1040
1.005825947934212
1070
    41
1040
4.0
1070
   140
1040
4.0
1002
}
  0
DIMENSION
  5
1CD5
102
{ACAD_XDICTIONARY
360
1CD6
102
}
102
{ACAD_REACTORS
330
1CD7
102
}
330
1F
100
AcDbEntity
  8
AM_5
 62
     5
100
AcDbDimension
  2
*D23
 10
293.3318192305626
 20
82.10886522107557
 30
0.0
 11
290.1131761971731
 21
66.61993761182414
 31
0.0
 70
    32
  1
%%c12 (Rod)
 71
     5
 42
11.90000000000168
  3
AM_ISO$0
100
AcDbAlignedDimension
 13
315.5289821366953
 23
94.00886522107725
 33
0.0
 14
315.5289821366953
 24
82.10886522107557
 34
0.0
 50
90.0
100
AcDbRotatedDimension
1001
ACAD
1000
DSTYLE
1002
{
1070
    40
1040
1.005825947934212
1070
    41
1040
4.0
1070
   140
1040
4.0
1002
}
  0
DIMENSION
  5
1CD8
102
{ACAD_XDICTIONARY
360
1CD9
102
}
102
{ACAD_REACTORS
330
1CDA
102
}
330
1F
100
AcDbEntity
  8
AM_5
 62
     5
100
AcDbDimension
  2
*D24
 10
284.4095333740834
 20
76.80886522107643
 30
0.0
 11
281.3916595358131
 21
87.80886522107648
 31
0.0
 70
    32
  1
%%c22.5
 71
     5
 42
22.0
  3
AM_ISO$0
100
AcDbAlignedDimension
 13
316.5289821366955
 23
98.80886522107642
 33
0.0
 14
316.5289821366953
 24
76.80886522107641
 34
0.0
 50
90.0
100
AcDbRotatedDimension
1001
ACAD
1000
DSTYLE
1002
{
1070
    40
1040
1.005825947934212
1070
    41
1040
4.0
1070
   140
1040
4.0
1002
}
  0
DIMENSION
  5
1CDB
102
{ACAD_XDICTIONARY
360
1CDC
102
}
102
{ACAD_REACTORS
330
1CDD
102
}
330
1F
100
AcDbEntity
  8
AM_5
 62
     5
100
AcDbDimension
  2
*D25
 10
315.5289821366953
 20
131.2330877548015
 30
0.0
 11
323.7789821366953
 21
131.2330877548015
 31
0.0
 70
   160
  1
6.5+ST
 71
     5
 42
16.5
  3
AM_ISO$0
100
AcDbAlignedDimension
 13
332.0289821366953
 23
108.0588652210764
 33
0.0
 14
315.5289821366953
 24
98.30886522107642
 34
0.0
100
AcDbRotatedDimension
1001
ACAD
1000
DSTYLE
1002
{
1070
    40
1040
1.005825947934212
1070
    41
1040
4.0
1070
   140
1040
4.0
1002
}
  0
DIMENSION
  5
1DAD
102
{ACAD_XDICTIONARY
360
1DAE
102
}
102
{ACAD_REACTORS
330
1DAF
102
}
330
1F
100
AcDbEntity
  8
AM_5
 62
     5
100
AcDbDimension
  2
*D26
 10
204.7665341192164
 20
49.5735831397307
 30
0.0
 11
193.043145989686
 21
65.85019501020041
 31
0.0
 70
    33
  1
({\Famgdt;o}39.6)
 71
     5
 42
39.59797974644681
  3
AM_ISO$0
100
AcDbAlignedDimension
 13
201.2518162005617
 23
102.0588652210764
 33
0.0
 14
229.251816200562
 24
74.05886522107642
 34
0.0
1001
ACAD
1000
DSTYLE
1002
{
1070
    40
1040
1.005825947934212
1070
    41
1040
4.0
1070
   140
1040
4.0
1002
}
  0
TEXT
  5
2689
330
1F
100
AcDbEntity
  8
LOGO
  6
Continuous
100
AcDbText
 10
303.3435212813747
 20
-94.36679373477996
 30
0.0
 40
6.125
  1
10
  7
CHINESET
100
AcDbText
  0
ENDSEC
  0
SECTION
  2
OBJECTS
  0
DICTIONARY
  5
C
330
0
100
AcDbDictionary
281
     1
  3
ACAD_COLOR
350
BE
  3
ACAD_GROUP
350
D
  3
ACAD_LAYOUT
350
1A
  3
ACAD_MATERIAL
350
BD
  3
ACAD_MLINESTYLE
350
17
  3
ACAD_PLOTSETTINGS
350
19
  3
ACAD_PLOTSTYLENAME
350
E
  3
ACAD_TABLESTYLE
350
11A
  3
ACDBHEADERROUNDTRIPXREC
350
3700
  3
AcDbVariableDictionary
350
94
  3
AcmDictionary
350
5B
  3
AMG
350
41
  3
AMGSNAPSETTINGS
350
1B8
  3
DWGPROPS
350
36FF
  3
MAPISURF_MODULE
350
16BA
  0
DICTIONARY
  5
3F9
330
2
100
AcDbDictionary
280
     1
281
     1
  3
ACAD_LAYERFILTERS
360
2667
  3
ACAD_LAYERSTATES
360
12CC
  3
ACLYDICTIONARY
360
2666
  0
DICTIONARY
  5
AD1
330
AD0
100
AcDbDictionary
280
     1
281
     1
  3
ACAD_XREC_ROUNDTRIP
360
AD2
  0
DICTIONARY
  5
AD4
330
AD3
100
AcDbDictionary
280
     1
281
     1
  3
ACAD_XREC_ROUNDTRIP
360
AD5
  0
DICTIONARY
  5
8F
330
1F
100
AcDbDictionary
280
     1
281
     1
  3
ACAD_INDEX
360
2823
  0
DICTIONARY
  5
1C59
330
1C58
100
AcDbDictionary
280
     1
281
     1
  3
ACAD_DIMASSOC
360
1C5A
  0
DICTIONARY
  5
1CC4
330
1CC3
100
AcDbDictionary
280
     1
281
     1
  3
ACAD_DIMASSOC
360
1CC5
  0
DICTIONARY
  5
1CC7
330
1CC6
100
AcDbDictionary
280
     1
281
     1
  3
ACAD_DIMASSOC
360
1CC8
  0
DICTIONARY
  5
1CCA
330
1CC9
100
AcDbDictionary
280
     1
281
     1
  3
ACAD_DIMASSOC
360
1CCB
  0
DICTIONARY
  5
1CCD
330
1CCC
100
AcDbDictionary
280
     1
281
     1
  3
ACAD_DIMASSOC
360
1CCE
  0
DICTIONARY
  5
1CD0
330
1CCF
100
AcDbDictionary
280
     1
281
     1
  3
ACAD_DIMASSOC
360
1CD1
  0
DICTIONARY
  5
1CD3
330
1CD2
100
AcDbDictionary
280
     1
281
     1
  3
ACAD_DIMASSOC
360
1CD4
  0
DICTIONARY
  5
1CD6
330
1CD5
100
AcDbDictionary
280
     1
281
     1
  3
ACAD_DIMASSOC
360
1CD7
  0
DICTIONARY
  5
1CD9
330
1CD8
100
AcDbDictionary
280
     1
281
     1
  3
ACAD_DIMASSOC
360
1CDA
  0
DICTIONARY
  5
1CDC
330
1CDB
100
AcDbDictionary
280
     1
281
     1
  3
ACAD_DIMASSOC
360
1CDD
  0
DICTIONARY
  5
1DAE
330
1DAD
100
AcDbDictionary
280
     1
281
     1
  3
ACAD_DIMASSOC
360
1DAF
  0
DICTIONARY
  5
BE
102
{ACAD_REACTORS
330
C
102
}
330
C
100
AcDbDictionary
281
     1
  0
DICTIONARY
  5
D
102
{ACAD_REACTORS
330
C
102
}
330
C
100
AcDbDictionary
281
     1
  0
DICTIONARY
  5
1A
102
{ACAD_REACTORS
330
C
102
}
330
C
100
AcDbDictionary
281
     1
  3
Model
350
22
  3
配置1
350
1E
  3
配置2
350
26
  0
DICTIONARY
  5
BD
102
{ACAD_REACTORS
330
C
102
}
330
C
100
AcDbDictionary
281
     1
  3
Global
350
AE1
  0
DICTIONARY
  5
17
102
{ACAD_REACTORS
330
C
102
}
330
C
100
AcDbDictionary
281
     1
  3
Standard
350
18
  0
DICTIONARY
  5
19
102
{ACAD_REACTORS
330
C
102
}
330
C
100
AcDbDictionary
281
     1
  0
ACDBDICTIONARYWDFLT
  5
E
102
{ACAD_REACTORS
330
C
102
}
330
C
100
AcDbDictionary
281
     1
  3
Normal
350
F
100
AcDbDictionaryWithDefault
340
F
  0
DICTIONARY
  5
11A
102
{ACAD_REACTORS
330
C
102
}
330
C
100
AcDbDictionary
281
     1
  3
Standard
350
11B
  0
DICTIONARY
  5
3700
102
{ACAD_REACTORS
330
C
102
}
330
C
100
AcDbDictionary
281
     1
  0
DICTIONARY
  5
94
102
{ACAD_REACTORS
330
C
102
}
330
C
100
AcDbDictionary
281
     1
  3
CTABLESTYLE
350
138
  3
DIMASSOC
350
96
  3
INDEXCTL
350
95
  3
PROJECTNAME
350
1628
  0
DICTIONARY
  5
5B
102
{ACAD_REACTORS
330
C
102
}
330
C
100
AcDbDictionary
281
     1
  3
AcmBOM
350
1B5
  3
AcmStdDictionary
350
61
  3
AMDTSECTSYM_ARROWCOLOR
350
123
  0
DICTIONARY
  5
41
102
{ACAD_REACTORS
330
C
102
}
330
C
100
AcDbDictionary
281
     1
  3
AcMgSettings
350
1634
  0
DICTIONARY
  5
1B8
102
{ACAD_REACTORS
330
C
102
}
330
C
100
AcDbDictionary
281
     1
  0
XRECORD
  5
36FF
102
{ACAD_REACTORS
330
C
102
}
330
C
100
AcDbXrecord
280
     1
  1
DWGPROPS COOKIE
  2

  3

  4

  6

  7

  8

  9

300
AmdtFileType=84
301
=
302
=
303
=
304
=
305
=
306
=
307
=
308
=
309
=
 40
0.8930515856481481
 41
2454511.659716065
 42
2456133.599340995
  1

 90
        1
  0
DICTIONARY
  5
2667
102
{ACAD_REACTORS
330
3F9
102
}
330
3F9
100
AcDbDictionary
281
     1
  0
DICTIONARY
  5
12CC
102
{ACAD_REACTORS
330
3F9
102
}
330
3F9
100
AcDbDictionary
281
     1
  0
DICTIONARY
  5
2666
102
{ACAD_REACTORS
330
3F9
102
}
330
3F9
100
AcDbDictionary
281
     1
1001
ACAD
1000
<All
  0
XRECORD
  5
AD2
102
{ACAD_REACTORS
330
AD1
102
}
330
AD1
100
AcDbXrecord
280
     1
102
MATERIAL
340
AE1
  0
XRECORD
  5
AD5
102
{ACAD_REACTORS
330
AD4
102
}
330
AD4
100
AcDbXrecord
280
     1
102
MATERIAL
340
AE1
  0
DICTIONARY
  5
2823
102
{ACAD_REACTORS
330
8F
102
}
330
8F
100
AcDbDictionary
281
     1
  3
*A1
350
2824
  0
DIMASSOC
  5
1C5A
102
{ACAD_REACTORS
330
1C59
102
}
330
1C59
100
AcDbDimAssoc
330
1C58
 90
        3
 70
     0
 71
     0
  1
AcDbOsnapPointRef
 72
    13
331
1BE3
 73
     0
 91
        0
 40
0.0
 10
0.0
 20
0.0
 30
2.000000000000000E+50
 75
     0
  1
AcDbOsnapPointRef
 72
    13
331
1BE6
 73
     0
 91
        0
 40
0.0
 10
0.0
 20
0.0
 30
2.000000000000000E+50
 75
     0
  0
DIMASSOC
  5
1CC5
102
{ACAD_REACTORS
330
1CC4
102
}
330
1CC4
100
AcDbDimAssoc
330
1CC3
 90
        3
 70
     0
 71
     0
  1
AcDbOsnapPointRef
 72
     1
331
1C5C
 73
     0
 91
        0
 40
0.0
 10
0.0
 20
0.0
 30
2.000000000000000E+50
 75
     0
  1
AcDbOsnapPointRef
 72
     1
331
1CA4
 73
     0
 91
        0
 40
0.0
 10
0.0
 20
0.0
 30
2.000000000000000E+50
 75
     0
  0
DIMASSOC
  5
1CC8
102
{ACAD_REACTORS
330
1CC7
102
}
330
1CC7
100
AcDbDimAssoc
330
1CC6
 90
        3
 70
     0
 71
     0
  1
AcDbOsnapPointRef
 72
     1
331
1C5C
 73
     0
 91
        0
 40
0.0
 10
0.0
 20
0.0
 30
2.000000000000000E+50
 75
     0
  1
AcDbOsnapPointRef
 72
    13
331
1C5B
 73
     0
 91
        0
 40
0.0
 10
0.0
 20
0.0
 30
2.000000000000000E+50
 75
     0
  0
DIMASSOC
  5
1CCB
102
{ACAD_REACTORS
330
1CCA
102
}
330
1CCA
100
AcDbDimAssoc
330
1CC9
 90
        3
 70
     0
 71
     0
  1
AcDbOsnapPointRef
 72
     1
331
1C97
 73
     0
 91
        0
 40
0.0
 10
0.0
 20
0.0
 30
2.000000000000000E+50
 75
     0
  1
AcDbOsnapPointRef
 72
     1
331
1CA4
 73
     0
 91
        0
 40
0.0
 10
0.0
 20
0.0
 30
2.000000000000000E+50
 75
     0
  0
DIMASSOC
  5
1CCE
102
{ACAD_REACTORS
330
1CCD
102
}
330
1CCD
100
AcDbDimAssoc
330
1CCC
 90
        1
 70
     0
 71
     0
  1
AcDbOsnapPointRef
 72
    13
331
1CA2
 73
     0
 91
        0
 40
0.0
 10
0.0
 20
0.0
 30
2.000000000000000E+50
 75
     0
  0
DIMASSOC
  5
1CD1
102
{ACAD_REACTORS
330
1CD0
102
}
330
1CD0
100
AcDbDimAssoc
330
1CCF
 90
        3
 70
     0
 71
     0
  1
AcDbOsnapPointRef
 72
     1
331
1C42
 73
     0
 91
        0
 40
0.0
 10
0.0
 20
0.0
 30
2.000000000000000E+50
 75
     0
  1
AcDbOsnapPointRef
 72
    13
331
1C40
 73
     0
 91
        0
 40
0.0
 10
0.0
 20
0.0
 30
2.000000000000000E+50
 75
     0
  0
DIMASSOC
  5
1CD4
102
{ACAD_REACTORS
330
1CD3
102
}
330
1CD3
100
AcDbDimAssoc
330
1CD2
 90
        3
 70
     0
 71
     0
  1
AcDbOsnapPointRef
 72
     1
331
1C9D
 73
     0
 91
        0
 40
0.0
 10
0.0
 20
0.0
 30
2.000000000000000E+50
 75
     0
  1
AcDbOsnapPointRef
 72
    13
331
1C5D
 73
     0
 91
        0
 40
0.0
 10
0.0
 20
0.0
 30
2.000000000000000E+50
 75
     0
  0
DIMASSOC
  5
1CD7
102
{ACAD_REACTORS
330
1CD6
102
}
330
1CD6
100
AcDbDimAssoc
330
1CD5
 90
        3
 70
     0
 71
     0
  1
AcDbOsnapPointRef
 72
     1
331
1C20
 73
     0
 91
        0
 40
0.0
 10
0.0
 20
0.0
 30
2.000000000000000E+50
 75
     0
  1
AcDbOsnapPointRef
 72
    13
331
1C1C
 73
     0
 91
        0
 40
0.0
 10
0.0
 20
0.0
 30
2.000000000000000E+50
 75
     0
  0
DIMASSOC
  5
1CDA
102
{ACAD_REACTORS
330
1CD9
102
}
330
1CD9
100
AcDbDimAssoc
330
1CD8
 90
        2
 70
     0
 71
     0
  1
AcDbOsnapPointRef
 72
    13
331
1C2D
 73
     0
 91
        0
 40
0.0
 10
0.0
 20
0.0
 30
2.000000000000000E+50
 75
     0
  0
DIMASSOC
  5
1CDD
102
{ACAD_REACTORS
330
1CDC
102
}
330
1CDC
100
AcDbDimAssoc
330
1CDB
 90
        3
 70
     0
 71
     0
  1
AcDbOsnapPointRef
 72
    13
331
1C17
 73
     0
 91
        0
 40
0.0
 10
0.0
 20
0.0
 30
2.000000000000000E+50
 75
     0
  1
AcDbOsnapPointRef
 72
    13
331
1C2A
 73
     0
 91
        0
 40
0.0
 10
0.0
 20
0.0
 30
2.000000000000000E+50
 75
     0
  0
DIMASSOC
  5
1DAF
102
{ACAD_REACTORS
330
1DAE
102
}
330
1DAE
100
AcDbDimAssoc
330
1DAD
 90
        3
 70
     0
 71
     0
  1
AcDbOsnapPointRef
 72
     3
331
1BD2
 73
     0
 91
        0
 40
0.0
 10
0.0
 20
0.0
 30
0.0
 75
     0
  1
AcDbOsnapPointRef
 72
     3
331
1BD6
 73
     0
 91
        0
 40
0.0
 10
0.0
 20
0.0
 30
0.0
 75
     0
  0
LAYOUT
  5
22
102
{ACAD_XDICTIONARY
360
3703
102
}
102
{ACAD_REACTORS
330
1A
102
}
330
1A
100
AcDbPlotSettings
  1

  2
\\RD\EPSON Stylus C63 Series單色
  4
A4
  6

 40
3.757083177566528
 41
3.757076978683471
 42
3.757080078125
 43
3.757080078125
 44
209.9733276367187
 45
296.9683227539062
 46
0.0
 47
0.0
 48
0.0
 49
0.0
140
0.0
141
0.0
142
1.0
143
0.3405120737814363
 70
 11952
 72
     1
 73
     0
 74
     0
  7
彩色出圖.ctb
 75
     0
147
2.936753428137963
148
-2047.07469463503
149
-1261.649717473083
100
AcDbLayout
  1
Model
 70
     1
 71
     0
 10
0.0
 20
0.0
 11
12.0
 21
9.0
 12
0.0
 22
0.0
 32
0.0
 14
0.0
 24
0.0
 34
0.0
 15
0.0
 25
0.0
 35
0.0
146
0.0
 13
0.0
 23
0.0
 33
0.0
 16
1.0
 26
0.0
 36
0.0
 17
0.0
 27
1.0
 37
0.0
 76
     0
330
1F
1001
ACAD_PSEXT
1000
\\RD\EPSON Stylus C63 Series單色
1000
EPSON Stylus C63 Series
1000
\\RD
1000

1070
     0
  0
LAYOUT
  5
1E
102
{ACAD_XDICTIONARY
360
3701
102
}
102
{ACAD_REACTORS
330
1A
102
}
330
1A
100
AcDbPlotSettings
  1

  2

  4

  6

 40
0.0
 41
0.0
 42
0.0
 43
0.0
 44
0.0
 45
0.0
 46
0.0
 47
0.0
 48
0.0
 49
0.0
140
0.0
141
0.0
142
1.0
143
1.0
 70
   688
 72
     0
 73
     0
 74
     5
  7
彩色出圖.ctb
 75
    16
147
1.0
148
0.0
149
0.0
100
AcDbLayout
  1
配置1
 70
     1
 71
     1
 10
0.0
 20
0.0
 11
420.0
 21
297.0
 12
0.0
 22
0.0
 32
0.0
 14
1.000000000000000E+20
 24
1.000000000000000E+20
 34
1.000000000000000E+20
 15
-1.000000000000000E+20
 25
-1.000000000000000E+20
 35
-1.000000000000000E+20
146
0.0
 13
0.0
 23
0.0
 33
0.0
 16
1.0
 26
0.0
 36
0.0
 17
0.0
 27
1.0
 37
0.0
 76
     0
330
1B
  0
LAYOUT
  5
26
102
{ACAD_XDICTIONARY
360
3705
102
}
102
{ACAD_REACTORS
330
1A
102
}
330
1A
100
AcDbPlotSettings
  1

  2

  4

  6

 40
0.0
 41
0.0
 42
0.0
 43
0.0
 44
0.0
 45
0.0
 46
0.0
 47
0.0
 48
0.0
 49
0.0
140
0.0
141
0.0
142
1.0
143
1.0
 70
   688
 72
     0
 73
     0
 74
     5
  7
彩色出圖.ctb
 75
    16
147
1.0
148
0.0
149
0.0
100
AcDbLayout
  1
配置2
 70
     1
 71
     2
 10
0.0
 20
0.0
 11
12.0
 21
9.0
 12
0.0
 22
0.0
 32
0.0
 14
0.0
 24
0.0
 34
0.0
 15
0.0
 25
0.0
 35
0.0
146
0.0
 13
0.0
 23
0.0
 33
0.0
 16
1.0
 26
0.0
 36
0.0
 17
0.0
 27
1.0
 37
0.0
 76
     0
330
23
  0
MATERIAL
  5
AE1
102
{ACAD_XDICTIONARY
360
AE2
102
}
102
{ACAD_REACTORS
330
BD
102
}
330
BD
100
AcDbMaterial
  1
Global
  0
MLINESTYLE
  5
18
102
{ACAD_REACTORS
330
17
102
}
330
17
100
AcDbMlineStyle
  2
STANDARD
 70
     0
  3

 62
   256
 51
90.0
 52
90.0
 71
     2
 49
0.5
 62
   256
  6
BYLAYER
 49
-0.5
 62
   256
  6
BYLAYER
  0
ACDBPLACEHOLDER
  5
F
102
{ACAD_REACTORS
330
E
102
}
330
E
  0
TABLESTYLE
  5
11B
102
{ACAD_REACTORS
330
11A
102
}
330
11A
100
AcDbTableStyle
  3
Standard
 70
     0
 71
     0
 40
1.5
 41
1.5
280
     0
281
     0
  7
STANDARD
140
4.5
170
     2
 62
     0
 63
     7
283
     0
274
    -2
284
     1
 64
     0
275
    -2
285
     1
 65
     0
276
    -2
286
     1
 66
     0
277
    -2
287
     1
 67
     0
278
    -2
288
     1
 68
     0
279
    -2
289
     1
 69
     0
  7
STANDARD
140
6.0
170
     5
 62
     0
 63
     7
283
     0
274
    -2
284
     1
 64
     0
275
    -2
285
     1
 65
     0
276
    -2
286
     1
 66
     0
277
    -2
287
     1
 67
     0
278
    -2
288
     1
 68
     0
279
    -2
289
     1
 69
     0
  7
STANDARD
140
4.5
170
     5
 62
     0
 63
     7
283
     0
274
    -2
284
     1
 64
     0
275
    -2
285
     1
 65
     0
276
    -2
286
     1
 66
     0
277
    -2
287
     1
 67
     0
278
    -2
288
     1
 68
     0
279
    -2
289
     1
 69
     0
  0
DICTIONARYVAR
  5
138
102
{ACAD_REACTORS
330
94
102
}
330
94
100
DictionaryVariables
280
     0
  1
STANDARD
  0
DICTIONARYVAR
  5
96
102
{ACAD_REACTORS
330
94
102
}
330
94
100
DictionaryVariables
280
     0
  1
2
  0
DICTIONARYVAR
  5
95
102
{ACAD_REACTORS
330
94
102
}
330
94
100
DictionaryVariables
280
     0
  1
1
  0
DICTIONARYVAR
  5
1628
102
{ACAD_REACTORS
330
94
102
}
330
94
100
DictionaryVariables
280
     0
  1

  0
DICTIONARY
  5
1B5
102
{ACAD_REACTORS
330
5B
102
}
330
5B
100
AcDbDictionary
281
     1
  0
DICTIONARY
  5
61
102
{ACAD_REACTORS
330
5B
102
}
330
5B
100
AcDbDictionary
281
     1
  0
XRECORD
  5
123
102
{ACAD_REACTORS
330
5B
102
}
330
5B
100
AcDbXrecord
280
     1
 90
-1023410169
  0
DICTIONARY
  5
1634
102
{ACAD_REACTORS
330
41
102
}
330
41
100
AcDbDictionary
281
     1
  3
DWGSETTINGS
350
1635
  3
Shaft
350
2638
  3
TRANSSETTINGS
350
1638
  0
LAYER_INDEX
  5
2824
102
{ACAD_REACTORS
330
2823
102
}
330
2823
100
AcDbIndex
 40
2456133.599340995
100
AcDbLayerIndex
  8
0
360
369D
 90
        3
  8
UMCL1
360
369E
 90
        0
  8
UMCL2
360
369F
 90
        0
  8
AM_7
360
36A0
 90
       52
  8
LOGO
360
36A1
 90
      103
  8
AM_5
360
36A2
 90
       20
  8
Defpoints
360
36A3
 90
        0
  8
AM_VIS
360
36A4
 90
      306
  8
AM_4
360
36A5
 90
        7
  8
AM_REFDIM
360
36A6
 90
        0
  0
DICTIONARY
  5
3703
330
22
100
AcDbDictionary
280
     1
281
     1
  3
ACAD_XREC_ROUNDTRIP
360
3704
  0
DICTIONARY
  5
3701
330
1E
100
AcDbDictionary
280
     1
281
     1
  3
ACAD_XREC_ROUNDTRIP
360
3702
  0
DICTIONARY
  5
3705
330
26
100
AcDbDictionary
280
     1
281
     1
  3
ACAD_XREC_ROUNDTRIP
360
3706
  0
DICTIONARY
  5
AE2
330
AE1
100
AcDbDictionary
280
     1
281
     1
  3
ACAD_XREC_ROUNDTRIP
360
AE3
  0
IDBUFFER
  5
369D
330
0
100
AcDbIdBuffer
330
1593
330
1592
330
1591
  0
IDBUFFER
  5
369E
330
0
100
AcDbIdBuffer
  0
IDBUFFER
  5
369F
330
0
100
AcDbIdBuffer
  0
IDBUFFER
  5
36A0
330
0
100
AcDbIdBuffer
330
1B57
330
1B73
330
1C5B
330
1C5C
330
1B1A
330
1B1B
330
1B1C
330
1B1D
330
1B1E
330
1B1F
330
1B20
330
1B21
330
1B22
330
1B23
330
1B24
330
1B25
330
1B26
330
1B27
330
1B28
330
1B29
330
1B2A
330
1B2B
330
1B2C
330
1B2D
330
1B2E
330
1B2F
330
1B30
330
1B31
330
1B32
330
1B33
330
1B34
330
1B35
330
1B36
330
1B37
330
1B3C
330
1B3D
330
1B3E
330
1B3F
330
1B40
330
1B41
330
1B42
330
1B43
330
1B44
330
1B45
330
1B46
330
1B47
330
1B48
330
1B52
330
1B53
330
1B54
330
1B55
330
1B56
  0
IDBUFFER
  5
36A1
330
0
100
AcDbIdBuffer
330
1525
330
1526
330
1527
330
1528
330
1529
330
152A
330
152B
330
152C
330
152D
330
152E
330
152F
330
1530
330
1531
330
1532
330
1533
330
1534
330
1535
330
1536
330
1537
330
1538
330
1539
330
153A
330
153B
330
153C
330
153D
330
153E
330
153F
330
1540
330
1541
330
1542
330
1543
330
1550
330
1551
330
1552
330
1553
330
1554
330
1555
330
1556
330
1557
330
1558
330
1559
330
155A
330
155B
330
155C
330
155D
330
155E
330
155F
330
1560
330
1561
330
1562
330
1563
330
1565
330
1566
330
1567
330
2689
330
14E0
330
14E1
330
14E2
330
14E3
330
14E4
330
14E5
330
14E6
330
14E7
330
14E8
330
14E9
330
14EA
330
14EB
330
14EC
330
14ED
330
14EE
330
14EF
330
14F0
330
14F1
330
14F2
330
14F3
330
14F4
330
14F5
330
14F6
330
14F7
330
14FB
330
14FF
330
1500
330
1504
330
1505
330
1506
330
1507
330
1508
330
1509
330
150A
330
150B
330
150F
330
1513
330
1517
330
1518
330
1519
330
151D
330
151E
330
151F
330
1520
330
1521
330
1522
330
1523
330
1524
  0
IDBUFFER
  5
36A2
330
0
100
AcDbIdBuffer
330
1CC6
330
1CC9
330
1CCC
330
1CCF
330
1CD2
330
1CD5
330
1CD8
330
1CDB
330
1DAD
330
1CC3
330
1B4B
330
1B4C
330
1B4D
330
1B4E
330
1B4F
330
1B50
330
1B51
330
1B59
330
1C58
330
1C57
  0
IDBUFFER
  5
36A3
330
0
100
AcDbIdBuffer
  0
IDBUFFER
  5
36A4
330
0
100
AcDbIdBuffer
330
1C79
330
1C7A
330
1C7B
330
1C7C
330
1C7D
330
1C7E
330
1C7F
330
1C80
330
1C81
330
1C82
330
1C83
330
1C84
330
1C85
330
1C86
330
1C87
330
1C88
330
1C89
330
1C8A
330
1C8B
330
1C8C
330
1C8D
330
1C8E
330
1C8F
330
1C90
330
1C91
330
1C92
330
1C93
330
1C94
330
1C95
330
1C96
330
1C97
330
1C98
330
1C99
330
1C9A
330
1C9B
330
1C9C
330
1C9D
330
1C9E
330
1C9F
330
1CA0
330
1CA1
330
1CA2
330
1CA3
330
1CA4
330
1CA5
330
1CA6
330
1CA7
330
1CA8
330
1CA9
330
1CAA
330
1CAB
330
1CAC
330
1CAD
330
1CAE
330
1CAF
330
1CB0
330
1CB1
330
1CB2
330
1CB3
330
1CB4
330
1CB5
330
1CB6
330
1CB7
330
1CB8
330
1CB9
330
1CBA
330
1CBB
330
1CBC
330
1CBD
330
1CBE
330
1CBF
330
1CC0
330
1CC1
330
1CC2
330
1B76
330
1B77
330
1B78
330
1B79
330
1B7A
330
1B7B
330
1B7C
330
1B7D
330
1B7E
330
1B7F
330
1B80
330
1B81
330
1B82
330
1B83
330
1B84
330
1B85
330
1B86
330
1B87
330
1B88
330
1B89
330
1B8A
330
1B8B
330
1B8C
330
1B8D
330
1B8E
330
1B8F
330
1B90
330
1B91
330
1B92
330
1B93
330
1B94
330
1B95
330
1B96
330
1B97
330
1B98
330
1B99
330
1B9A
330
1B9B
330
1B9C
330
1B9D
330
1B9E
330
1B9F
330
1BA0
330
1BA1
330
1BA2
330
1BA3
330
1BA4
330
1BA5
330
1BA6
330
1BA7
330
1BA8
330
1BA9
330
1BAA
330
1BAB
330
1BAC
330
1BAD
330
1BAE
330
1BAF
330
1BB0
330
1BB1
330
1BB2
330
1BB3
330
1BB4
330
1BB5
330
1BB6
330
1BB7
330
1BB8
330
1BB9
330
1BBA
330
1BBB
330
1BBC
330
1BBD
330
1BBE
330
1BBF
330
1BC0
330
1BC1
330
1BC2
330
1BC3
330
1BC4
330
1BC5
330
1BC6
330
1BC7
330
1BC8
330
1BC9
330
1BCA
330
1BCB
330
1BCC
330
1BCD
330
1BCE
330
1BCF
330
1BD0
330
1BD1
330
1BD2
330
1BD3
330
1BD4
330
1BD5
330
1BD6
330
1BD7
330
1BD8
330
1BD9
330
1BDA
330
1BDB
330
1BDC
330
1BDD
330
1BDE
330
1BDF
330
1BE0
330
1BE1
330
1BE2
330
1BE3
330
1BE4
330
1BE5
330
1BE6
330
1BE7
330
1BE8
330
1BE9
330
1BEA
330
1BEB
330
1BEC
330
1BED
330
1BEE
330
1BEF
330
1BF0
330
1BF1
330
1BF2
330
1BF3
330
1BF4
330
1BF5
330
1BF6
330
1BF7
330
1BF8
330
1BF9
330
1C78
330
1C77
330
1BFC
330
1BFD
330
1BFE
330
1BFF
330
1C00
330
1C01
330
1C02
330
1C03
330
1C04
330
1C76
330
1C75
330
1C07
330
1C08
330
1C09
330
1C0A
330
1C0B
330
1C0C
330
1C74
330
1C73
330
1C0F
330
1C10
330
1C11
330
1C72
330
1C71
330
1C14
330
1C15
330
1C16
330
1C17
330
1C18
330
1C19
330
1C1A
330
1C1B
330
1C1C
330
1C1D
330
1C1E
330
1C1F
330
1C20
330
1C21
330
1C22
330
1C23
330
1C24
330
1C25
330
1C26
330
1C27
330
1C28
330
1C29
330
1C2A
330
1C2B
330
1C2C
330
1C2D
330
1C2E
330
1C2F
330
1C30
330
1C31
330
1C32
330
1C33
330
1C34
330
1C35
330
1C36
330
1C37
330
1C38
330
1C39
330
1C3A
330
1C3B
330
1C3C
330
1C3D
330
1C3E
330
1C3F
330
1C40
330
1C41
330
1C42
330
1C43
330
1C44
330
1C45
330
1C46
330
1C47
330
1C48
330
1C49
330
1C5D
330
1C5E
330
1C5F
330
1C60
330
1C61
330
1C62
330
1C63
330
1C64
330
1C65
330
1C66
330
1C67
330
1C68
330
1C69
330
1C6A
330
1C6B
330
1C6C
330
1C6D
330
1C6E
330
1C6F
330
1C70
  0
IDBUFFER
  5
36A5
330
0
100
AcDbIdBuffer
330
1B38
330
1B39
330
1B3A
330
1B3B
330
1B49
330
1B4A
330
1B58
  0
IDBUFFER
  5
36A6
330
0
100
AcDbIdBuffer
  0
XRECORD
  5
3704
102
{ACAD_REACTORS
330
3703
102
}
330
3703
100
AcDbXrecord
280
     1
102
SHADEPLOT
 70
     0
102
SHADEPLOTRESLEVEL
 70
     2
102
SHADEPLOTCUSTOMDPI
 70
   300
  0
XRECORD
  5
3702
102
{ACAD_REACTORS
330
3701
102
}
330
3701
100
AcDbXrecord
280
     1
102
SHADEPLOT
 70
     0
102
SHADEPLOTRESLEVEL
 70
     2
102
SHADEPLOTCUSTOMDPI
 70
   300
  0
XRECORD
  5
3706
102
{ACAD_REACTORS
330
3705
102
}
330
3705
100
AcDbXrecord
280
     1
102
SHADEPLOT
 70
     0
102
SHADEPLOTRESLEVEL
 70
     2
102
SHADEPLOTCUSTOMDPI
 70
   300
  0
XRECORD
  5
AE3
102
{ACAD_REACTORS
330
AE2
102
}
330
AE2
100
AcDbXrecord
280
     1
102
MATERIAL
148
0.0
149
0.0
149
0.0
 93
        0
 94
       63
282
     0
 72
     1
 77
     1
171
     1
175
     1
179
     1
273
     0
  0
ENDSEC
  0
EOF
