  0
SECTION
  2
HEADER
  9
$ACADVER
  1
AC1015
  9
$ACADMAINTVER
 70
    20
  9
$DWGCODEPAGE
  3
ANSI_950
  9
$INSBASE
 10
0.0
 20
0.0
 30
0.0
  9
$EXTMIN
 10
2454.012622185215
 20
893.4542827723749
 30
-0.0028776649835436
  9
$EXTMAX
 10
2850.234991439283
 20
1197.650535884884
 30
188.7260053960477
  9
$LIMMIN
 10
0.0
 20
0.0
  9
$LIMMAX
 10
420.0
 20
297.0
  9
$ORTHOMODE
 70
     1
  9
$REGENMODE
 70
     1
  9
$FILLMODE
 70
     1
  9
$QTEXTMODE
 70
     0
  9
$MIRRTEXT
 70
     1
  9
$LTSCALE
 40
1.0
  9
$ATTMODE
 70
     1
  9
$TEXTSIZE
 40
3.0
  9
$TRACEWID
 40
1.0
  9
$TEXTSTYLE
  7
CHINESET
  9
$CLAYER
  8
0
  9
$CELTYPE
  6
ByLayer
  9
$CECOLOR
 62
   256
  9
$CELTSCALE
 40
1.0
  9
$DISPSILH
 70
     0
  9
$DIMSCALE
 40
1.0
  9
$DIMASZ
 40
3.0
  9
$DIMEXO
 40
1.0
  9
$DIMDLI
 40
8.0
  9
$DIMRND
 40
0.0
  9
$DIMDLE
 40
0.0
  9
$DIMEXE
 40
1.5
  9
$DIMTP
 40
0.1
  9
$DIMTM
 40
0.1
  9
$DIMTXT
 40
3.0
  9
$DIMCEN
 40
0.0
  9
$DIMTSZ
 40
0.0
  9
$DIMTOL
 70
     0
  9
$DIMLIM
 70
     0
  9
$DIMTIH
 70
     0
  9
$DIMTOH
 70
     0
  9
$DIMSE1
 70
     0
  9
$DIMSE2
 70
     0
  9
$DIMTAD
 70
     1
  9
$DIMZIN
 70
     8
  9
$DIMBLK
  1

  9
$DIMASO
 70
     1
  9
$DIMSHO
 70
     1
  9
$DIMPOST
  1

  9
$DIMAPOST
  1
"
  9
$DIMALT
 70
     0
  9
$DIMALTD
 70
     2
  9
$DIMALTF
 40
0.0393701
  9
$DIMLFAC
 40
1.0
  9
$DIMTOFL
 70
     1
  9
$DIMTVP
 40
0.0
  9
$DIMTIX
 70
     0
  9
$DIMSOXD
 70
     0
  9
$DIMSAH
 70
     0
  9
$DIMBLK1
  1

  9
$DIMBLK2
  1

  9
$DIMSTYLE
  2
AM_ISO
  9
$DIMCLRD
 70
   256
  9
$DIMCLRE
 70
   256
  9
$DIMCLRT
 70
   256
  9
$DIMTFAC
 40
0.71
  9
$DIMGAP
 40
1.0
  9
$DIMJUST
 70
     0
  9
$DIMSD1
 70
     0
  9
$DIMSD2
 70
     0
  9
$DIMTOLJ
 70
     0
  9
$DIMTZIN
 70
     8
  9
$DIMALTZ
 70
     0
  9
$DIMALTTZ
 70
     0
  9
$DIMUPT
 70
     0
  9
$DIMDEC
 70
     2
  9
$DIMTDEC
 70
     8
  9
$DIMALTU
 70
     2
  9
$DIMALTTD
 70
     2
  9
$DIMTXSTY
  7
STANDARD
  9
$DIMAUNIT
 70
     0
  9
$DIMADEC
 70
     0
  9
$DIMALTRND
 40
0.0
  9
$DIMAZIN
 70
     2
  9
$DIMDSEP
 70
    46
  9
$DIMATFIT
 70
     3
  9
$DIMFRAC
 70
     0
  9
$DIMLDRBLK
  1

  9
$DIMLUNIT
 70
     2
  9
$DIMLWD
 70
    -1
  9
$DIMLWE
 70
    -1
  9
$DIMTMOVE
 70
     0
  9
$LUNITS
 70
     2
  9
$LUPREC
 70
     2
  9
$SKETCHINC
 40
1.0
  9
$FILLETRAD
 40
2.5
  9
$AUNITS
 70
     0
  9
$AUPREC
 70
     0
  9
$MENU
  1
.
  9
$ELEVATION
 40
0.0
  9
$PELEVATION
 40
0.0
  9
$THICKNESS
 40
0.0
  9
$LIMCHECK
 70
     0
  9
$CHAMFERA
 40
2.5
  9
$CHAMFERB
 40
2.5
  9
$CHAMFERC
 40
20.0
  9
$CHAMFERD
 40
0.0
  9
$SKPOLY
 70
     0
  9
$TDCREATE
 40
2453580.633342373
  9
$TDUCREATE
 40
2453580.300009039
  9
$TDUPDATE
 40
2453594.385061840
  9
$TDUUPDATE
 40
2453594.051728507
  9
$TDINDWG
 40
0.3862579514
  9
$TDUSRTIMER
 40
0.3862579514
  9
$USRTIMER
 70
     1
  9
$ANGBASE
 50
0.0
  9
$ANGDIR
 70
     0
  9
$PDMODE
 70
     0
  9
$PDSIZE
 40
0.0
  9
$PLINEWID
 40
0.0
  9
$SPLFRAME
 70
     0
  9
$SPLINETYPE
 70
     6
  9
$SPLINESEGS
 70
     8
  9
$HANDSEED
  5
1B32
  9
$SURFTAB1
 70
     6
  9
$SURFTAB2
 70
     6
  9
$SURFTYPE
 70
     6
  9
$SURFU
 70
     6
  9
$SURFV
 70
     6
  9
$UCSBASE
  2

  9
$UCSNAME
  2

  9
$UCSORG
 10
0.0
 20
0.0
 30
0.0
  9
$UCSXDIR
 10
1.0
 20
0.0
 30
0.0
  9
$UCSYDIR
 10
0.0
 20
1.0
 30
0.0
  9
$UCSORTHOREF
  2

  9
$UCSORTHOVIEW
 70
     0
  9
$UCSORGTOP
 10
0.0
 20
0.0
 30
0.0
  9
$UCSORGBOTTOM
 10
0.0
 20
0.0
 30
0.0
  9
$UCSORGLEFT
 10
0.0
 20
0.0
 30
0.0
  9
$UCSORGRIGHT
 10
0.0
 20
0.0
 30
0.0
  9
$UCSORGFRONT
 10
0.0
 20
0.0
 30
0.0
  9
$UCSORGBACK
 10
0.0
 20
0.0
 30
0.0
  9
$PUCSBASE
  2

  9
$PUCSNAME
  2

  9
$PUCSORG
 10
0.0
 20
0.0
 30
0.0
  9
$PUCSXDIR
 10
1.0
 20
0.0
 30
0.0
  9
$PUCSYDIR
 10
0.0
 20
1.0
 30
0.0
  9
$PUCSORTHOREF
  2

  9
$PUCSORTHOVIEW
 70
     0
  9
$PUCSORGTOP
 10
0.0
 20
0.0
 30
0.0
  9
$PUCSORGBOTTOM
 10
0.0
 20
0.0
 30
0.0
  9
$PUCSORGLEFT
 10
0.0
 20
0.0
 30
0.0
  9
$PUCSORGRIGHT
 10
0.0
 20
0.0
 30
0.0
  9
$PUCSORGFRONT
 10
0.0
 20
0.0
 30
0.0
  9
$PUCSORGBACK
 10
0.0
 20
0.0
 30
0.0
  9
$USERI1
 70
     0
  9
$USERI2
 70
     0
  9
$USERI3
 70
     0
  9
$USERI4
 70
     0
  9
$USERI5
 70
     0
  9
$USERR1
 40
0.0
  9
$USERR2
 40
0.0
  9
$USERR3
 40
0.0
  9
$USERR4
 40
0.0
  9
$USERR5
 40
0.0
  9
$WORLDVIEW
 70
     1
  9
$SHADEDGE
 70
     3
  9
$SHADEDIF
 70
    70
  9
$TILEMODE
 70
     1
  9
$MAXACTVP
 70
    64
  9
$PINSBASE
 10
0.0
 20
0.0
 30
0.0
  9
$PLIMCHECK
 70
     0
  9
$PEXTMIN
 10
1.000000000000000E+20
 20
1.000000000000000E+20
 30
1.000000000000000E+20
  9
$PEXTMAX
 10
-1.000000000000000E+20
 20
-1.000000000000000E+20
 30
-1.000000000000000E+20
  9
$PLIMMIN
 10
0.0
 20
0.0
  9
$PLIMMAX
 10
420.0
 20
297.0
  9
$UNITMODE
 70
     0
  9
$VISRETAIN
 70
     1
  9
$PLINEGEN
 70
     0
  9
$PSLTSCALE
 70
     1
  9
$TREEDEPTH
 70
  3020
  9
$CMLSTYLE
  2
Standard
  9
$CMLJUST
 70
     0
  9
$CMLSCALE
 40
20.0
  9
$PROXYGRAPHICS
 70
     1
  9
$MEASUREMENT
 70
     1
  9
$CELWEIGHT
370
    -1
  9
$ENDCAPS
280
     0
  9
$JOINSTYLE
280
     0
  9
$LWDISPLAY
290
     0
  9
$INSUNITS
 70
     4
  9
$HYPERLINKBASE
  1

  9
$STYLESHEET
  1
彩色出圖.ctb
  9
$XEDIT
290
     1
  9
$CEPSNTYPE
380
     0
  9
$PSTYLEMODE
290
     1
  9
$FINGERPRINTGUID
  2
{B9E4BE39-A089-470C-A359-98F2256325D3}
  9
$VERSIONGUID
  2
{87668414-5294-4635-85F8-352ECEF48F7C}
  9
$EXTNAMES
290
     1
  9
$PSVPSCALE
 40
0.0
  9
$OLESTARTUP
290
     0
  0
ENDSEC
  0
SECTION
  2
CLASSES
  0
CLASS
  1
ACDBDICTIONARYWDFLT
  2
AcDbDictionaryWithDefault
  3
ObjectDBX Classes
 90
        0
280
     0
281
     0
  0
CLASS
  1
ACDBPLACEHOLDER
  2
AcDbPlaceHolder
  3
ObjectDBX Classes
 90
        0
280
     0
281
     0
  0
CLASS
  1
LAYOUT
  2
AcDbLayout
  3
ObjectDBX Classes
 90
        0
280
     0
281
     0
  0
CLASS
  1
ACME_DOCUMENT
  2
AcMeDbDoc
  3
AcMeServices
 90
        0
280
     0
281
     0
  0
CLASS
  1
AMGSETTINGSOBJ
  2
AmgSettingsObj
  3
"AcadM|Product Description: AutoCAD Mechanical 2000|Company: Autodesk"
 90
        0
280
     0
281
     0
  0
CLASS
  1
ACMESCOPE
  2
AcMeScope
  3
AcMeServices
 90
        0
280
     0
281
     0
  0
CLASS
  1
ACMECOMMANDHISTORY
  2
AcMeCommandHistory
  3
AcMeServices
 90
        0
280
     0
281
     0
  0
CLASS
  1
ACIMSYSVARMAN
  2
AcImSysVarManager
  3
AcMeServices
 90
        0
280
     0
281
     0
  0
CLASS
  1
ACIMREALSYSVAR
  2
AcImRealSysVar
  3
AcMeServices
 90
        0
280
     0
281
     0
  0
CLASS
  1
ACIMINTSYSVAR
  2
AcImIntSysVar
  3
AcMeServices
 90
        0
280
     0
281
     0
  0
CLASS
  1
ACMEDRAWINGMAN
  2
AcMeDrawingMan
  3
AcMeServices
 90
        0
280
     0
281
     0
  0
CLASS
  1
ACMEVIEW
  2
AcMeView
  3
AcMeServices
 90
        0
280
     0
281
     0
  0
CLASS
  1
ACDBENTITYCACHE
  2
AcMeEntityCache
  3
AcMeServices
 90
        0
280
     0
281
     0
  0
CLASS
  1
GSMANAGER
  2
AcMeGSManager
  3
AcMeServices
 90
        0
280
     0
281
     0
  0
CLASS
  1
AMDTINTERNALREACTOR
  2
AmdtInternalReactor
  3
AcMeServices
 90
        0
280
     0
281
     0
  0
CLASS
  1
ACMESTATEMGR
  2
AcMeStateMgr
  3
AcMeServices
 90
        0
280
     0
281
     0
  0
CLASS
  1
ACGREFMASTER
  2
AcGrefMaster
  3
AcAttribServices
 90
        0
280
     0
281
     0
  0
CLASS
  1
ACME_DATABASE
  2
AcMeDbDatabase
  3
AcMeServices
 90
        0
280
     0
281
     0
  0
CLASS
  1
ACRFINSADJUSTERMGR
  2
AcRfInsAdjusterMgr
  3
AcMeServices
 90
        0
280
     0
281
     0
  0
CLASS
  1
ACGREFACADMASTER
  2
AcGrefacadMaster
  3
AcGrefServices
 90
        0
280
     0
281
     0
  0
CLASS
  1
AMIMASTER
  2
AmiMaster
  3
AmiServices
 90
        0
280
     0
281
     0
  0
CLASS
  1
ACMDATADICTIONARY
  2
AcmDataDictionary
  3
"AcmSymBB|Product Description: AutoCAD Mechanical 2004 DX|Company: Autodesk"
 90
        0
280
     0
281
     0
  0
CLASS
  1
ACMDATAENTRYBLOCK
  2
AcmDataEntryBlock
  3
"AcmSymBB|Product Description: AutoCAD Mechanical 2004 DX|Company: Autodesk"
 90
        0
280
     0
281
     0
  0
CLASS
  1
ACIMSTRSYSVAR
  2
AcImStrSysVar
  3
AcMeServices
 90
        0
280
     0
281
     0
  0
CLASS
  1
ACMSTANDARDISO
  2
AcmStandardISO
  3
"Amdt_StdImp|Product Description: AutoCAD Mechanical 2004 DX|Company: Autodesk"
 90
        0
280
     0
281
     0
  0
CLASS
  1
AMGOBJPROPCFG
  2
AmgObjPropCfg
  3
"AmgLay|Product Description: AutoCAD Mechanical 2000|Company: Autodesk"
 90
        1
280
     0
281
     0
  0
CLASS
  1
AMDTEDGESTANDARDISO
  2
AmdtEdgeStdISO
  3
"Amdt_StdImp|Product Description: AutoCAD Mechanical 2004 DX|Company: Autodesk"
 90
        0
280
     0
281
     0
  0
CLASS
  1
ACMSURFSTANDARDISO
  2
AcmSurfTextStdISO
  3
"Amdt_StdImp|Product Description: AutoCAD Mechanical 2004 DX|Company: Autodesk"
 90
        0
280
     0
281
     0
  0
CLASS
  1
ACMFCFSTANDARDISO
  2
AcmFCFStdISO
  3
"Amdt_StdImp|Product Description: AutoCAD Mechanical 2004 DX|Company: Autodesk"
 90
        0
280
     0
281
     0
  0
CLASS
  1
ACMWELDSTANDARDISO
  2
AcmWeldingStdISO
  3
"Amdt_StdImp|Product Description: AutoCAD Mechanical 2004 DX|Company: Autodesk"
 90
        0
280
     0
281
     0
  0
CLASS
  1
ACMIDSTANDARDISO
  2
AcmIdStdISO
  3
"Amdt_StdImp|Product Description: AutoCAD Mechanical 2004 DX|Company: Autodesk"
 90
        0
280
     0
281
     0
  0
CLASS
  1
ACMDATUMSTANDARDISO
  2
AcmDatumStdISO
  3
"Amdt_StdImp|Product Description: AutoCAD Mechanical 2004 DX|Company: Autodesk"
 90
        0
280
     0
281
     0
  0
CLASS
  1
ACMBOMSTANDARDISO
  2
AcmBOMStdISO
  3
"Amdt_StdImp|Product Description: AutoCAD Mechanical 2004 DX|Company: Autodesk"
 90
        0
280
     0
281
     0
  0
CLASS
  1
ACMDETAILSTANDARDISO
  2
AmdtDetailSymStdISO
  3
"Amdt_StdImp|Product Description: AutoCAD Mechanical 2004 DX|Company: Autodesk"
 90
        0
280
     0
281
     0
  0
CLASS
  1
ACMSECTIONSTANDARDISO
  2
AmdtSectionSymStdISO
  3
"Amdt_StdImp|Product Description: AutoCAD Mechanical 2004 DX|Company: Autodesk"
 90
        0
280
     0
281
     0
  0
CLASS
  1
ACMCENTERLINESTANDARDISO
  2
AmdtCenterLineStdISO
  3
"Amdt_StdImp|Product Description: AutoCAD Mechanical 2004 DX|Company: Autodesk"
 90
        0
280
     0
281
     0
  0
CLASS
  1
ACMNOTESTANDARDISO
  2
AmdtNoteStdISO
  3
"Amdt_StdImp|Product Description: AutoCAD Mechanical 2004 DX|Company: Autodesk"
 90
        0
280
     0
281
     0
  0
CLASS
  1
ACAMGLAYSTD
  2
AcAmgLayStd
  3
"AcAmgLayStd|Product Description: AutoCAD Mechanical 2000|Company: Autodesk"
 90
        0
280
     0
281
     0
  0
CLASS
  1
ACAMGDIMSTD
  2
AcAmgDimStd
  3
"AcAmgDimStd|Product Description: AutoCAD Mechanical 2000|Company: Autodesk"
 90
        0
280
     0
281
     0
  0
CLASS
  1
ACAMGHOLECHARTSTDISO
  2
AcAmgHoleChartStdISO
  3
ACMSYMBB_MODULE_NAME
 90
        0
280
     0
281
     0
  0
CLASS
  1
ACAMGTITLESTD
  2
AcAmgTitleStd
  3
"TITLEAPP"
 90
        0
280
     0
281
     0
  0
CLASS
  1
LAYER_INDEX
  2
AcDbLayerIndex
  3
ObjectDBX Classes
 90
    32768
280
     0
281
     0
  0
CLASS
  1
IDBUFFER
  2
AcDbIdBuffer
  3
ObjectDBX Classes
 90
    32768
280
     0
281
     0
  0
CLASS
  1
DICTIONARYVAR
  2
AcDbDictionaryVar
  3
ObjectDBX Classes
 90
        0
280
     0
281
     0
  0
CLASS
  1
AM_DRAWING_MGR
  2
AcDmDwgMgr
  3
AcMechDwgViewMgmt
 90
        0
280
     0
281
     0
  0
CLASS
  1
AM_DWG_DOCUMENT
  2
AcDmDwgDocument
  3
AcMechDwgViewMgmt
 90
        0
280
     0
281
     0
  0
CLASS
  1
AM_DWG_SHEET
  2
AcDmSheet
  3
AcMechDwgViewMgmt
 90
        0
280
     0
281
     0
  0
CLASS
  1
AM_VIEWDIMPARMAP
  2
AcDmViewDimParMap
  3
AcMechDwgViewMgmt
 90
        0
280
     0
281
     0
  0
CLASS
  1
AM_DWGMGR_NAME
  2
AcDmDwgMgrName
  3
AcMechDwgViewMgmt
 90
        0
280
     0
281
     0
  0
CLASS
  1
AMDTMENUSTATEMGR
  2
AmdtMenuStateMgr
  3
McadcomServices
 90
        0
280
     0
281
     0
  0
CLASS
  1
AMDTMCOMMENUSTATE
  2
AmdtMcomMenuState
  3
McadcomServices
 90
        0
280
     0
281
     0
  0
CLASS
  1
MAPIAMMOUDLE
  2
MApiAmModule
  3
MApiAmServices
 90
        0
280
     0
281
     0
  0
CLASS
  1
AMDTADMENUSTATE
  2
AmdtAdMenuState
  3
DesignerServices
 90
        0
280
     0
281
     0
  0
CLASS
  1
ADAPPL
  2
AcAdAppl
  3
DesignerServices
 90
        0
280
     0
281
     0
  0
CLASS
  1
DEPMGR
  2
AcAdDepMgr
  3
DesignerServices
 90
        0
280
     0
281
     0
  0
CLASS
  1
PARAMMGR
  2
AcAdParamMgr
  3
DesignerServices
 90
        0
280
     0
281
     0
  0
CLASS
  1
PARAMSCOPE
  2
AcAdParamScope
  3
DesignerServices
 90
        0
280
     0
281
     0
  0
CLASS
  1
NAMEDAPPL
  2
AcAdNamedAppl
  3
DesignerServices
 90
        0
280
     0
281
     0
  0
CLASS
  1
AMDTDMMENUSTATE
  2
AmdtDmMenuState
  3
AcMechDwgViewMgmt
 90
        0
280
     0
281
     0
  0
CLASS
  1
AMDTAMMENUSTATE
  2
AmdtAmMenuState
  3
DesignerAssemblies
 90
        0
280
     0
281
     0
  0
CLASS
  1
ACAMPROJECT
  2
AcAmProject
  3
DesignerAssemblies
 90
        0
280
     0
281
     0
  0
CLASS
  1
ACAMGRCOMPDEF
  2
AcAmGrCompDef
  3
DesignerAssemblies
 90
        0
280
     0
281
     0
  0
CLASS
  1
ACCMCONTEXT
  2
AcCmContext
  3
DesignerAssemblies
 90
        0
280
     0
281
     0
  0
CLASS
  1
ACAMCOMPDEF
  2
AcAmCompDef
  3
DesignerAssemblies
 90
        0
280
     0
281
     0
  0
CLASS
  1
ACAMCOMPDEFMGR
  2
AcAmCompDefMgr
  3
DesignerAssemblies
 90
        0
280
     0
281
     0
  0
CLASS
  1
AMCONTEXTMGR
  2
AcAmContextMgr
  3
DesignerAssemblies
 90
        0
280
     0
281
     0
  0
CLASS
  1
ACAMCONTEXTMODELER
  2
AcAmContextModeler
  3
DesignerAssemblies
 90
        0
280
     0
281
     0
  0
CLASS
  1
ACMTHREADLINESTANDARDISO
  2
AmdtThreadLineStdISO
  3
"Amdt_StdImp|Product Description: AutoCAD Mechanical 2004 DX|Company: Autodesk"
 90
        0
280
     0
281
     0
  0
CLASS
  1
CATALOGSTATE
  2
AcAmCatalogState
  3
DesignerAssemblies
 90
        0
280
     0
281
     0
  0
CLASS
  1
ACAMGRCOMPDEFSET
  2
AcAmGrCompDefSet
  3
DesignerAssemblies
 90
        0
280
     0
281
     0
  0
CLASS
  1
AMDTBROWSERDBTAB
  2
AmdtBrowserDbTab
  3
McadcomServices
 90
        0
280
     0
281
     0
  0
CLASS
  1
CBROWSERAPPOBJECT
  2
CBrowserAppObject
  3
McadcomServices
 90
        0
280
     0
281
     0
  0
CLASS
  1
DM_PLACEHOLDER
  2
AcDmSelsetPlaceholder
  3
AcMechDwgViewMgmt
 90
        0
280
     0
281
     0
  0
CLASS
  1
TABLESTYLE
  2
AcDbTableStyle
  3
ObjectDBX Classes
 90
     2047
280
     0
281
     0
  0
CLASS
  1
VAACXREFPANELOBJECT
  2
VaAcXREFPanelObject
  3
VAAC_ADDIN
 90
    32768
280
     0
281
     0
  0
CLASS
  1
VAACIMAGEINVENTORY
  2
VaAcImageInventory
  3
VAAC_ADDIN
 90
    32768
280
     0
281
     0
  0
CLASS
  1
AMDTNOTETEMPLATEDB
  2
AmdtNoteTemplateDB
  3
AMDT_STDIMP_MODULE_NAME
 90
        0
280
     0
281
     0
  0
CLASS
  1
ACMBOM
  2
AcmBom
  3
"AcmSymBB|Product Description: AutoCAD Mechanical 2004 DX|Company: Autodesk"
 90
    32768
280
     0
281
     0
  0
CLASS
  1
AMDTFORMULAUPDATEDISPATCHER
  2
AmdtFormulaUpdateDispatcher
  3
AcMeServices
 90
        0
280
     0
281
     0
  0
CLASS
  1
ACMPARTLIST
  2
AcmPartList
  3
"AcmSymBB|Product Description: AutoCAD Mechanical 2004 DX|Company: Autodesk"
 90
    33791
280
     0
281
     1
  0
CLASS
  1
ACAMGFILTERDAT
  2
AcAmgFilterDat
  3
"AcadM|Product Description: AutoCAD Mechanical 2000|Company: Autodesk"
 90
        0
280
     0
281
     0
  0
CLASS
  1
DIMASSOC
  2
AcDbDimAssoc
  3
"AcDbDimAssoc|Product Desc:     AcDim ARX App For Dimension|Company:          Autodesk, Inc.|WEB Address:      www.autodesk.com"
 90
        0
280
     0
281
     0
  0
CLASS
  1
SORTENTSTABLE
  2
AcDbSortentsTable
  3
ObjectDBX Classes
 90
        0
280
     0
281
     0
  0
CLASS
  1
AMDTNOTE
  2
AmdtNote
  3
"AcmSymBB|Product Description: AutoCAD Mechanical 2004 DX|Company: Autodesk"
 90
     1023
280
     0
281
     1
  0
CLASS
  1
ACMSTANDARDANSI
  2
AcmStandardANSI
  3
"Amdt_StdImp|Product Description: AutoCAD Mechanical 2004 DX|Company: Autodesk"
 90
        0
280
     0
281
     0
  0
CLASS
  1
ACMSURFSTANDARDANSI
  2
AcmSurfTextStdANSI
  3
"Amdt_StdImp|Product Description: AutoCAD Mechanical 2004 DX|Company: Autodesk"
 90
        0
280
     0
281
     0
  0
CLASS
  1
ACMFCFSTANDARDANSI
  2
AcmFCFStdANSI
  3
"Amdt_StdImp|Product Description: AutoCAD Mechanical 2004 DX|Company: Autodesk"
 90
        0
280
     0
281
     0
  0
CLASS
  1
ACMWELDSTANDARDANSI
  2
AcmWeldingStdANSI
  3
"Amdt_StdImp|Product Description: AutoCAD Mechanical 2004 DX|Company: Autodesk"
 90
        0
280
     0
281
     0
  0
CLASS
  1
ACMIDSTANDARDANSI
  2
AcmIdStdANSI
  3
"Amdt_StdImp|Product Description: AutoCAD Mechanical 2004 DX|Company: Autodesk"
 90
        0
280
     0
281
     0
  0
CLASS
  1
ACMDATUMSTANDARDANSI
  2
AcmDatumStdANSI
  3
"Amdt_StdImp|Product Description: AutoCAD Mechanical 2004 DX|Company: Autodesk"
 90
        0
280
     0
281
     0
  0
CLASS
  1
ACMBOMSTANDARDANSI
  2
AcmBOMStdANSI
  3
"Amdt_StdImp|Product Description: AutoCAD Mechanical 2004 DX|Company: Autodesk"
 90
        0
280
     0
281
     0
  0
CLASS
  1
ACMDETAILSTANDARDANSI
  2
AmdtDetailSymStdANSI
  3
"Amdt_StdImp|Product Description: AutoCAD Mechanical 2004 DX|Company: Autodesk"
 90
        0
280
     0
281
     0
  0
CLASS
  1
ACMSECTIONSTANDARDANSI
  2
AmdtSectionSymStdANSI
  3
"Amdt_StdImp|Product Description: AutoCAD Mechanical 2004 DX|Company: Autodesk"
 90
        0
280
     0
281
     0
  0
CLASS
  1
ACMCENTERLINESTANDARDANSI
  2
AmdtCenterLineStdANSI
  3
"Amdt_StdImp|Product Description: AutoCAD Mechanical 2004 DX|Company: Autodesk"
 90
        0
280
     0
281
     0
  0
CLASS
  1
ACMTHREADLINESTANDARDANSI
  2
AmdtThreadLineStdANSI
  3
"Amdt_StdImp|Product Description: AutoCAD Mechanical 2004 DX|Company: Autodesk"
 90
        0
280
     0
281
     0
  0
CLASS
  1
ACMNOTESTANDARDANSI
  2
AmdtNoteStdANSI
  3
"Amdt_StdImp|Product Description: AutoCAD Mechanical 2004 DX|Company: Autodesk"
 90
        0
280
     0
281
     0
  0
CLASS
  1
ACAMGHOLECHARTSTDANSI
  2
AcAmgHoleChartStdANSI
  3
ACMSYMBB_MODULE_NAME
 90
        0
280
     0
281
     0
  0
CLASS
  1
STDPART2D
  2
AmgStdPart
  3
"AmgStdPart|Product Description: AutoCAD Mechanical 2000|Company: Autodesk"
 90
    33791
280
     0
281
     1
  0
CLASS
  1
ACAMSTDPCOMPDEF
  2
AcAmStdpCompDef
  3
DesignerAssemblies
 90
    32768
280
     0
281
     0
  0
CLASS
  1
ACRFATTGENMGR
  2
AcRfAttGeneralMgr
  3
AcAttribServices
 90
        0
280
     0
281
     0
  0
CLASS
  1
ACRFOBJATTMGR
  2
AcRfObjAttGroupMgr
  3
AcAttribServices
 90
    32768
280
     0
281
     0
  0
CLASS
  1
ACRFMCADAPIATTHOLDER
  2
AcRfMCADAPIAttHolder
  3
AcAttribServices
 90
    32768
280
     0
281
     0
  0
CLASS
  1
AMDTSYSATTR
  2
AmdtSystemAttribute
  3
AcAttribServices
 90
    32768
280
     0
281
     0
  0
CLASS
  1
ACAMCOMP
  2
AcAmComp
  3
DesignerAssemblies
 90
    32768
280
     0
281
     0
  0
CLASS
  1
AC_AM_STDP_VIEW_DEF
  2
AcAmStdpViewDef
  3
DesignerAssemblies
 90
    32768
280
     0
281
     0
  0
CLASS
  1
AC_AM_MVD_DEP_MGR
  2
AcAmMVDdepMgr
  3
DesignerAssemblies
 90
        0
280
     0
281
     0
  0
CLASS
  1
AC_AM_MASTER_VIEW_DEF
  2
AcAmMasterViewDef
  3
DesignerAssemblies
 90
        0
280
     0
281
     0
  0
CLASS
  1
AC_AM_DIRTY_NODES
  2
AcAmDirtyNodes
  3
DesignerAssemblies
 90
        0
280
     0
281
     0
  0
CLASS
  1
AC_AM_MAPPER_CACHE
  2
AcAmMapperCache
  3
DesignerAssemblies
 90
        0
280
     0
281
     0
  0
CLASS
  1
ACAMMVDBACKUPOBJECT
  2
AcAmMVDBackupObject
  3
DesignerAssemblies
 90
        0
280
     0
281
     0
  0
CLASS
  1
AC_AM_COMP_VIEW_INST
  2
AcAmCompView
  3
DesignerAssemblies
 90
    32768
280
     0
281
     0
  0
CLASS
  1
AC_AM_2D_XREF_MGR
  2
AcAmXrefMgr2d
  3
DesignerAssemblies
 90
        0
280
     0
281
     0
  0
ENDSEC
  0
SECTION
  2
TABLES
  0
TABLE
  2
VPORT
  5
8
330
0
100
AcDbSymbolTable
 70
     3
  0
VPORT
  5
1B29
330
8
100
AcDbSymbolTableRecord
100
AcDbViewportTableRecord
  2
*Active
 70
     0
 10
0.0
 20
0.0
 11
1.0
 21
1.0
 12
2652.123806812249
 22
1045.552409328629
 13
0.0
 23
0.0
 14
2.5
 24
2.5
 15
10.0
 25
10.0
 16
0.0
 26
0.0
 36
1.0
 17
0.0
 27
0.0
 37
0.0
 40
307.6206011775654
 41
1.817669172932331
 42
50.0
 43
0.0
 44
0.0
 50
0.0
 51
0.0
 71
     0
 72
   100
 73
     1
 74
     3
 75
     0
 76
     0
 77
     0
 78
     0
281
     0
 65
     1
110
0.0
120
0.0
130
0.0
111
1.0
121
0.0
131
0.0
112
0.0
122
1.0
132
0.0
 79
     0
146
0.0
  0
ENDTAB
  0
TABLE
  2
LTYPE
  5
5
330
0
100
AcDbSymbolTable
 70
    17
  0
LTYPE
  5
14
330
5
100
AcDbSymbolTableRecord
100
AcDbLinetypeTableRecord
  2
ByBlock
 70
     0
  3

 72
    65
 73
     0
 40
0.0
  0
LTYPE
  5
15
330
5
100
AcDbSymbolTableRecord
100
AcDbLinetypeTableRecord
  2
ByLayer
 70
     0
  3

 72
    65
 73
     0
 40
0.0
  0
LTYPE
  5
16
330
5
100
AcDbSymbolTableRecord
100
AcDbLinetypeTableRecord
  2
Continuous
 70
     0
  3
Solid line
 72
    65
 73
     0
 40
0.0
  0
LTYPE
  5
64
330
5
100
AcDbSymbolTableRecord
100
AcDbLinetypeTableRecord
  2
AM_ISO02W050
 70
     0
  3
__ __ __ __ __ __ __ __ __ __ __ __ __ __ __
 72
    65
 73
     2
 40
7.5
 49
6.0
 74
     0
 49
-1.5
 74
     0
  0
LTYPE
  5
65
330
5
100
AcDbSymbolTableRecord
100
AcDbLinetypeTableRecord
  2
AM_ISO08W050
 70
     0
  3
____ . ____ . ____ . ____ . ____ . ____ . ____
 72
    65
 73
     4
 40
18.0
 49
12.0
 74
     0
 49
-1.5
 74
     0
 49
3.0
 74
     0
 49
-1.5
 74
     0
  0
LTYPE
  5
66
330
5
100
AcDbSymbolTableRecord
100
AcDbLinetypeTableRecord
  2
AM_ISO09W050
 70
     0
  3
_____ . . _____ . . _____ . . ____ .. ____
 72
    65
 73
     6
 40
22.5
 49
12.0
 74
     0
 49
-1.5
 74
     0
 49
3.0
 74
     0
 49
-1.5
 74
     0
 49
3.0
 74
     0
 49
-1.5
 74
     0
  0
LTYPE
  5
67
330
5
100
AcDbSymbolTableRecord
100
AcDbLinetypeTableRecord
  2
Amconstr
 70
     0
  3
_______________________
 72
    65
 73
     2
 40
9999.0
 49
9999.0
 74
     0
 49
0.0
 74
     0
  0
LTYPE
  5
68
330
5
100
AcDbSymbolTableRecord
100
AcDbLinetypeTableRecord
  2
AM_ISO08W050x2
 70
     0
  3
__ . __ . __ . __ . __ . __
 72
    65
 73
     4
 40
9.0
 49
6.0
 74
     0
 49
-0.75
 74
     0
 49
1.5
 74
     0
 49
-0.75
 74
     0
  0
LTYPE
  5
69
330
5
100
AcDbSymbolTableRecord
100
AcDbLinetypeTableRecord
  2
AM_ISO02W050x2
 70
     0
  3
 _ _ _ _ _ _ _ _ _ _ _ _
 72
    65
 73
     2
 40
3.75
 49
3.0
 74
     0
 49
-0.75
 74
     0
  0
LTYPE
  5
6C
330
5
100
AcDbSymbolTableRecord
100
AcDbLinetypeTableRecord
  2
Amzigzag
 70
     0
  3
/\/-/\/-/\/-/\/-/\/-/\/
 72
    65
 73
     2
 40
11.0001
 49
0.0001
 74
     4
 75
   135
340
6B
 46
0.04
 50
0.0
 44
0.0
 45
0.0
 49
-11.0
 74
     0
  0
LTYPE
  5
7A
330
5
100
AcDbSymbolTableRecord
100
AcDbLinetypeTableRecord
  2
ACISOWELD
 70
     0
  3
_ _ _ _ _
 72
    65
 73
     2
 40
2.0
 49
2.0
 74
     0
 49
-1.0
 74
     0
  0
LTYPE
  5
7B
330
5
100
AcDbSymbolTableRecord
100
AcDbLinetypeTableRecord
  2
ACISOTGB
 70
     0
  3
__ . . __ . .
 72
    65
 73
     6
 40
9.0
 49
4.0
 74
     0
 49
-1.0
 74
     0
 49
1.0
 74
     0
 49
-1.0
 74
     0
 49
1.0
 74
     0
 49
-1.0
 74
     0
  0
LTYPE
  5
7C
330
5
100
AcDbSymbolTableRecord
100
AcDbLinetypeTableRecord
  2
ACISOTGL
 70
     0
  3
_ _ _ _ _
 72
    65
 73
     2
 40
3.0
 49
2.0
 74
     0
 49
-1.0
 74
     0
  0
LTYPE
  5
7E
330
5
100
AcDbSymbolTableRecord
100
AcDbLinetypeTableRecord
  2
CENTER
 70
     0
  3
__ . __
 72
    65
 73
     4
 40
7.0
 49
4.0
 74
     0
 49
-1.0
 74
     0
 49
1.0
 74
     0
 49
-1.0
 74
     0
  0
LTYPE
  5
D8
330
5
100
AcDbSymbolTableRecord
100
AcDbLinetypeTableRecord
  2
HIDDEN
 70
     0
  3
Hidden __ __ __ __ __ __ __ __ __ __ __ __ __ _
 72
    65
 73
     2
 40
9.524999999999998
 49
6.349999999999999
 74
     0
 49
-3.174999999999999
 74
     0
  0
LTYPE
  5
D9
330
5
100
AcDbSymbolTableRecord
100
AcDbLinetypeTableRecord
  2
PHANTOM2
 70
     0
  3
Phantom (.5x) ___ _ _ ___ _ _ ___ _ _ ___ _ _
 72
    65
 73
     6
 40
31.75
 49
15.875
 74
     0
 49
-3.174999999999999
 74
     0
 49
3.174999999999999
 74
     0
 49
-3.174999999999999
 74
     0
 49
3.174999999999999
 74
     0
 49
-3.174999999999999
 74
     0
  0
LTYPE
  5
F85
330
5
100
AcDbSymbolTableRecord
100
AcDbLinetypeTableRecord
  2
ACANSTGB
 70
     0
  3
__ . . __ . .
 72
    65
 73
     6
 40
0.35433070866
 49
0.15748031496
 74
     0
 49
-0.03937007874
 74
     0
 49
0.03937007874
 74
     0
 49
-0.03937007874
 74
     0
 49
0.03937007874
 74
     0
 49
-0.03937007874
 74
     0
  0
LTYPE
  5
F86
330
5
100
AcDbSymbolTableRecord
100
AcDbLinetypeTableRecord
  2
ACANSTGL
 70
     0
  3
_ _ _ _ _
 72
    65
 73
     2
 40
0.11811023622
 49
0.07874015748
 74
     0
 49
-0.03937007874
 74
     0
  0
LTYPE
  5
164E
330
5
100
AcDbSymbolTableRecord
100
AcDbLinetypeTableRecord
  2
HIDDEN2
 70
     0
  3
Hidden (.5x) _ _ _ _ _ _ _ _ _ _ _ _ _ _ _ _ _
 72
    65
 73
     2
 40
0.1875
 49
0.125
 74
     0
 49
-0.0625
 74
     0
  0
ENDTAB
  0
TABLE
  2
LAYER
  5
2
102
{ACAD_XDICTIONARY
360
3F9
102
}
330
0
100
AcDbSymbolTable
 70
     8
  0
LAYER
  5
10
330
2
100
AcDbSymbolTableRecord
100
AcDbLayerTableRecord
  2
0
 70
     0
 62
     7
  6
Continuous
370
    -3
390
F
  0
LAYER
  5
206
330
2
100
AcDbSymbolTableRecord
100
AcDbLayerTableRecord
  2
Defpoints
 70
     0
 62
     7
  6
Continuous
290
     0
370
    -3
390
F
  0
LAYER
  5
5AE
330
2
100
AcDbSymbolTableRecord
100
AcDbLayerTableRecord
  2
AM_7
 70
     0
 62
     1
  6
CENTER
370
    25
390
F
  0
LAYER
  5
71A
330
2
100
AcDbSymbolTableRecord
100
AcDbLayerTableRecord
  2
LOGO
 70
     0
 62
     7
  6
Continuous
370
    -3
390
F
  0
LAYER
  5
84F
330
2
100
AcDbSymbolTableRecord
100
AcDbLayerTableRecord
  2
AM_VIS
 70
     0
 62
     7
  6
Continuous
370
    50
390
F
  0
LAYER
  5
850
330
2
100
AcDbSymbolTableRecord
100
AcDbLayerTableRecord
  2
AM_4
 70
     0
 62
     3
  6
Continuous
370
    25
390
F
  0
LAYER
  5
851
330
2
100
AcDbSymbolTableRecord
100
AcDbLayerTableRecord
  2
AM_0
 70
     0
 62
     7
  6
Continuous
370
    50
390
F
  0
LAYER
  5
B99
330
2
100
AcDbSymbolTableRecord
100
AcDbLayerTableRecord
  2
AM_5
 70
     0
 62
     5
  6
Continuous
370
    50
390
F
  0
ENDTAB
  0
TABLE
  2
STYLE
  5
3
330
0
100
AcDbSymbolTable
 70
     9
  0
STYLE
  5
11
330
3
100
AcDbSymbolTableRecord
100
AcDbTextStyleTableRecord
  2
STANDARD
 70
     0
 40
0.0
 41
1.0
 50
0.0
 71
     0
 42
3.0
  3
ISOCP.SHX
  4
CHINESET.SHX
  0
STYLE
  5
6B
330
3
100
AcDbSymbolTableRecord
100
AcDbTextStyleTableRecord
  2

 70
     1
 40
0.0
 41
1.0
 50
0.0
 71
     0
 42
2.5
  3
ltypeshp.shx
  4

  0
STYLE
  5
6D
330
3
100
AcDbSymbolTableRecord
100
AcDbTextStyleTableRecord
  2
ACISOTS
 70
     0
 40
1.0
 41
1.0
 50
0.0
 71
     0
 42
1.0
  3
isocp.shx
  4
chineset.shx
  0
STYLE
  5
79
330
3
100
AcDbSymbolTableRecord
100
AcDbTextStyleTableRecord
  2
ACISOGDT
 70
     0
 40
0.0
 41
1.0
 50
0.0
 71
     0
 42
2.5
  3
amgdt.shx
  4
chineset.shx
  0
STYLE
  5
60C
330
3
100
AcDbSymbolTableRecord
100
AcDbTextStyleTableRecord
  2
CHINESET
 70
     0
 40
0.0
 41
1.0
 50
0.0
 71
     0
 42
3.0
  3
simplex.shx
  4
CHINESET.SHX
  0
STYLE
  5
F87
330
3
100
AcDbSymbolTableRecord
100
AcDbTextStyleTableRecord
  2
ACANSTS
 70
     0
 40
1.0
 41
1.0
 50
0.0
 71
     0
 42
5.0
  3
romans.shx
  4
chineset.shx
  0
STYLE
  5
F88
330
3
100
AcDbSymbolTableRecord
100
AcDbTextStyleTableRecord
  2
ACANSGDT
 70
     0
 40
0.0
 41
1.0
 50
0.0
 71
     0
 42
5.0
  3
amgdtans.shx
  4

  0
ENDTAB
  0
TABLE
  2
VIEW
  5
6
330
0
100
AcDbSymbolTable
 70
     0
  0
ENDTAB
  0
TABLE
  2
UCS
  5
7
330
0
100
AcDbSymbolTable
 70
     0
  0
ENDTAB
  0
TABLE
  2
APPID
  5
9
330
0
100
AcDbSymbolTable
 70
    26
  0
APPID
  5
12
330
9
100
AcDbSymbolTableRecord
100
AcDbRegAppTableRecord
  2
ACAD
 70
     0
  0
APPID
  5
46
330
9
100
AcDbSymbolTableRecord
100
AcDbRegAppTableRecord
  2
MCAD_NO_VIS
 70
     0
  0
APPID
  5
47
330
9
100
AcDbSymbolTableRecord
100
AcDbRegAppTableRecord
  2
ACAD_TEMP_GRAPHIC
 70
     0
  0
APPID
  5
58
330
9
100
AcDbSymbolTableRecord
100
AcDbRegAppTableRecord
  2
ACATTRIBSERVICES
 70
     0
  0
APPID
  5
EE
330
9
100
AcDbSymbolTableRecord
100
AcDbRegAppTableRecord
  2
AD_DRAW
 70
     0
  0
APPID
  5
10C
330
9
100
AcDbSymbolTableRecord
100
AcDbRegAppTableRecord
  2
DESIGNERASSEMBLIES
 70
     0
  0
APPID
  5
111
330
9
100
AcDbSymbolTableRecord
100
AcDbRegAppTableRecord
  2
ACADM_DIM_EDIT
 70
     0
  0
APPID
  5
112
330
9
100
AcDbSymbolTableRecord
100
AcDbRegAppTableRecord
  2
AMDT_DM_ADJ
 70
     0
  0
APPID
  5
22C
330
9
100
AcDbSymbolTableRecord
100
AcDbRegAppTableRecord
  2
ACAD_DSTYLE_DIMTEXT_FILL
 70
     0
  0
APPID
  5
452
330
9
100
AcDbSymbolTableRecord
100
AcDbRegAppTableRecord
  2
GENIUS_GENOENT_13
 70
     0
  0
APPID
  5
453
330
9
100
AcDbSymbolTableRecord
100
AcDbRegAppTableRecord
  2
GENIUS_GENOBJ-N-CRS_13
 70
     0
  0
APPID
  5
454
330
9
100
AcDbSymbolTableRecord
100
AcDbRegAppTableRecord
  2
GENIUS_GENOLIS_13
 70
     0
  0
APPID
  5
455
330
9
100
AcDbSymbolTableRecord
100
AcDbRegAppTableRecord
  2
GENIUS_GENODEF_13
 70
     0
  0
APPID
  5
456
330
9
100
AcDbSymbolTableRecord
100
AcDbRegAppTableRecord
  2
GENIUS_GENOREF_13
 70
     0
  0
APPID
  5
6F3
330
9
100
AcDbSymbolTableRecord
100
AcDbRegAppTableRecord
  2
ACAD_PSEXT
 70
     0
  0
APPID
  5
71B
330
9
100
AcDbSymbolTableRecord
100
AcDbRegAppTableRecord
  2
GENIUS_GENREC_14
 70
     0
  0
APPID
  5
71C
330
9
100
AcDbSymbolTableRecord
100
AcDbRegAppTableRecord
  2
GENIUS_GENOBJ-N-REC_13
 70
     0
  0
APPID
  5
12C9
330
9
100
AcDbSymbolTableRecord
100
AcDbRegAppTableRecord
  2
GEVID1123030070
 70
     0
  0
APPID
  5
12CA
330
9
100
AcDbSymbolTableRecord
100
AcDbRegAppTableRecord
  2
GEVDC
 70
     0
  0
APPID
  5
12CB
330
9
100
AcDbSymbolTableRecord
100
AcDbRegAppTableRecord
  2
GEVRADREF
 70
     0
  0
APPID
  5
12D4
330
9
100
AcDbSymbolTableRecord
100
AcDbRegAppTableRecord
  2
AMG_2DHIDE
 70
     0
  0
APPID
  5
12D5
330
9
100
AcDbSymbolTableRecord
100
AcDbRegAppTableRecord
  2
AMG_2DSTRUCT_BTR
 70
     0
  0
APPID
  5
12E6
330
9
100
AcDbSymbolTableRecord
100
AcDbRegAppTableRecord
  2
ACADM_2DVIEW_IGN_NOTIFY
 70
     0
  0
APPID
  5
1345
330
9
100
AcDbSymbolTableRecord
100
AcDbRegAppTableRecord
  2
GENIUS_GENOBJ-N-CEN_13
 70
     0
  0
APPID
  5
1346
330
9
100
AcDbSymbolTableRecord
100
AcDbRegAppTableRecord
  2
GENIUS_GENCEN_19
 70
     0
  0
APPID
  5
1759
330
9
100
AcDbSymbolTableRecord
100
AcDbRegAppTableRecord
  2
GENIUS_GENDTOL_13
 70
     0
  0
ENDTAB
  0
TABLE
  2
DIMSTYLE
  5
A
330
0
100
AcDbSymbolTable
 70
    16
100
AcDbDimStyleTable
 71
     3
340
81
340
8B
340
86
  0
DIMSTYLE
105
81
330
A
100
AcDbSymbolTableRecord
100
AcDbDimStyleTableRecord
  2
AM_ISO
 70
     0
  4
"
 41
3.0
 42
1.0
 43
8.0
 44
1.5
 47
0.1
 48
0.1
 73
     0
 74
     0
 77
     1
 78
     8
 79
     2
140
3.0
141
0.0
143
0.0393701
146
0.71
147
1.0
172
     1
176
   256
177
   256
178
   256
271
     2
272
     2
283
     0
284
     8
340
11
371
    -1
372
    -1
  0
DIMSTYLE
105
82
102
{ACAD_REACTORS
330
171D
102
}
330
A
100
AcDbSymbolTableRecord
100
AcDbDimStyleTableRecord
  2
AM_ISO$3
 70
     0
  4
"
 41
3.0
 42
1.0
 43
8.0
 44
1.5
 47
0.1
 48
0.1
 73
     0
 77
     1
 78
     8
 79
     2
140
3.0
141
0.0
143
0.0393701
146
0.71
147
1.0
176
   256
177
   256
178
   256
271
     2
272
     2
283
     0
284
     8
288
     1
289
     0
340
11
371
    -1
372
    -1
  0
DIMSTYLE
105
83
330
A
100
AcDbSymbolTableRecord
100
AcDbDimStyleTableRecord
  2
AM_ISO$4
 70
     0
  4
"
 41
3.0
 42
1.0
 43
8.0
 44
1.5
 47
0.1
 48
0.1
 73
     0
 77
     1
 78
     8
 79
     2
140
3.0
141
0.0
143
0.0393701
146
0.71
147
1.0
176
   256
177
   256
178
   256
271
     2
272
     2
283
     0
284
     8
288
     1
289
     0
340
11
371
    -1
372
    -1
  0
DIMSTYLE
105
84
330
A
100
AcDbSymbolTableRecord
100
AcDbDimStyleTableRecord
  2
AM_ISO$6
 70
     0
  4
"
 41
3.0
 42
1.0
 43
8.0
 44
1.5
 47
0.1
 48
0.1
 73
     0
 74
     0
 78
     8
 79
     2
140
3.0
141
0.0
143
0.0393701
146
0.71
147
1.0
172
     1
176
   256
177
   256
178
   256
271
     2
272
     2
283
     0
284
     8
340
11
371
    -1
372
    -1
  0
DIMSTYLE
105
85
330
A
100
AcDbSymbolTableRecord
100
AcDbDimStyleTableRecord
  2
AM_ISO$7
 70
     0
  4
"
 41
3.0
 42
1.0
 43
8.0
 44
1.5
 47
0.1
 48
0.1
 73
     0
 74
     0
 77
     1
 78
     8
 79
     2
140
5.0
141
0.0
143
0.0393701
146
0.71
147
1.0
172
     1
176
   256
177
   256
178
   256
271
     2
272
     2
283
     0
284
     8
340
11
371
    -1
372
    -1
  0
DIMSTYLE
105
86
330
A
100
AcDbSymbolTableRecord
100
AcDbDimStyleTableRecord
  2
AM_ISO$SF
 70
     0
  4
"
 41
2.5
 42
1.0
 43
10.0
 44
1.0
 47
0.1
 48
0.1
 73
     0
 74
     0
 75
     1
 76
     1
 77
     1
 78
     8
 79
     2
140
3.5
141
0.0
143
0.0393701
146
0.71
147
1.5
172
     1
176
   256
177
   256
178
     2
271
     2
272
     3
274
     4
283
     0
284
     8
340
11
371
    -1
372
    -1
  0
DIMSTYLE
105
8B
330
A
100
AcDbSymbolTableRecord
100
AcDbDimStyleTableRecord
  2
AM_ISO$SH
 70
     0
  4
"
 41
2.5
 42
1.0
 43
10.0
 44
1.0
 47
0.1
 48
0.1
 73
     0
 74
     0
 75
     1
 76
     1
 77
     1
 78
     8
 79
     2
140
3.5
141
0.0
143
0.0393701
144
2.0
146
0.71
147
1.5
172
     1
173
     1
176
   256
177
   256
178
     2
271
     2
272
     3
274
     4
283
     0
284
     8
340
11
343
87
371
    -1
372
    -1
  0
DIMSTYLE
105
40B
102
{ACAD_REACTORS
330
16DC
330
1702
102
}
330
A
100
AcDbSymbolTableRecord
100
AcDbDimStyleTableRecord
  2
AM_ISO$0
 70
     0
  4
"
 41
3.0
 42
1.0
 43
8.0
 44
1.5
 47
0.1
 48
0.1
 73
     0
 74
     0
 77
     1
 78
     8
 79
     2
140
3.0
141
0.0
143
0.0393701
146
0.71
147
1.0
172
     1
176
   256
177
   256
178
   256
271
     2
272
     2
283
     0
284
     8
340
11
371
    -1
372
    -1
  0
DIMSTYLE
105
F89
330
A
100
AcDbSymbolTableRecord
100
AcDbDimStyleTableRecord
  2
AM_ANSI
 70
     0
  4
mm
 41
0.1
 42
0.05
 43
0.5
 44
0.1
 47
0.1
 48
0.1
 78
     7
 79
     2
140
0.12
141
0.0
146
0.71
147
0.06
176
   256
177
   256
178
     2
274
     4
284
     7
340
11
371
    -1
372
    -1
  0
DIMSTYLE
105
F8A
330
A
100
AcDbSymbolTableRecord
100
AcDbDimStyleTableRecord
  2
AM_ANSI$3
 70
     0
  4
mm
 41
0.1
 42
0.05
 43
0.5
 44
0.1
 47
0.1
 48
0.1
 78
     7
 79
     2
140
0.12
141
0.0
146
0.71
147
0.06
176
   256
177
   256
178
     2
274
     4
284
     7
288
     1
289
     0
340
11
371
    -1
372
    -1
  0
DIMSTYLE
105
F8B
330
A
100
AcDbSymbolTableRecord
100
AcDbDimStyleTableRecord
  2
AM_ANSI$4
 70
     0
  4
mm
 41
0.1
 42
0.05
 43
0.5
 44
0.1
 47
0.1
 48
0.1
 78
     7
 79
     2
140
0.12
141
0.0
146
0.71
147
0.06
176
   256
177
   256
178
     2
274
     4
284
     7
288
     1
289
     0
340
11
371
    -1
372
    -1
  0
DIMSTYLE
105
F8C
330
A
100
AcDbSymbolTableRecord
100
AcDbDimStyleTableRecord
  2
AM_ANSI$7
 70
     0
  4
mm
 41
0.1
 42
0.05
 43
0.5
 44
0.1
 47
0.1
 48
0.1
 78
     7
 79
     2
140
0.24
141
0.0
146
0.71
147
0.06
176
   256
177
   256
178
     2
274
     4
284
     7
340
11
371
    -1
372
    -1
  0
DIMSTYLE
105
F8D
330
A
100
AcDbSymbolTableRecord
100
AcDbDimStyleTableRecord
  2
AM_ANSI$SF
 70
     0
  4
mm
 41
0.1
 42
0.05
 43
0.5
 44
0.1
 47
0.1
 48
0.1
 75
     1
 76
     1
 78
     7
 79
     2
140
0.12
141
0.0
146
0.71
147
0.06
176
   256
177
   256
178
     2
274
     4
284
     7
340
11
371
    -1
372
    -1
  0
DIMSTYLE
105
F8E
330
A
100
AcDbSymbolTableRecord
100
AcDbDimStyleTableRecord
  2
AM_ANSI$SH
 70
     0
  4
mm
 41
0.1
 42
0.05
 43
0.5
 44
0.1
 47
0.1
 48
0.1
 75
     1
 76
     1
 78
     7
 79
     2
140
0.12
141
0.0
146
0.71
147
0.06
173
     1
176
   256
177
   256
178
     2
274
     4
284
     7
340
11
341
87
343
87
371
    -1
372
    -1
  0
ENDTAB
  0
TABLE
  2
BLOCK_RECORD
  5
1
330
0
100
AcDbSymbolTable
 70
    12
  0
BLOCK_RECORD
  5
1F
102
{ACAD_XDICTIONARY
360
8F
102
}
330
1
100
AcDbSymbolTableRecord
100
AcDbBlockTableRecord
  2
*Model_Space
340
22
  0
BLOCK_RECORD
  5
1B
330
1
100
AcDbSymbolTableRecord
100
AcDbBlockTableRecord
  2
*Paper_Space
340
1E
  0
BLOCK_RECORD
  5
23
330
1
100
AcDbSymbolTableRecord
100
AcDbBlockTableRecord
  2
*Paper_Space0
340
26
  0
BLOCK_RECORD
  5
87
330
1
100
AcDbSymbolTableRecord
100
AcDbBlockTableRecord
  2
GENAXEH
340
0
  0
BLOCK_RECORD
  5
12EA
330
1
100
AcDbSymbolTableRecord
100
AcDbBlockTableRecord
  2
*U4
340
0
  0
BLOCK_RECORD
  5
16DD
330
1
100
AcDbSymbolTableRecord
100
AcDbBlockTableRecord
  2
*D5
340
0
  0
BLOCK_RECORD
  5
1703
330
1
100
AcDbSymbolTableRecord
100
AcDbBlockTableRecord
  2
*D6
340
0
  0
BLOCK_RECORD
  5
171E
330
1
100
AcDbSymbolTableRecord
100
AcDbBlockTableRecord
  2
*D7
340
0
  0
BLOCK_RECORD
  5
1B17
330
1
100
AcDbSymbolTableRecord
100
AcDbBlockTableRecord
  2
*S10
340
0
  0
BLOCK_RECORD
  5
1B1F
330
1
100
AcDbSymbolTableRecord
100
AcDbBlockTableRecord
  2
*S11
340
0
  0
ENDTAB
  0
ENDSEC
  0
SECTION
  2
BLOCKS
  0
BLOCK
  5
20
330
1F
100
AcDbEntity
  8
0
100
AcDbBlockBegin
  2
*Model_Space
 70
     0
 10
0.0
 20
0.0
 30
0.0
  3
*Model_Space
  1

  0
ENDBLK
  5
21
330
1F
100
AcDbEntity
  8
0
100
AcDbBlockEnd
  0
BLOCK
  5
1C
330
1B
100
AcDbEntity
 67
     1
  8
0
100
AcDbBlockBegin
  2
*Paper_Space
 70
     0
 10
0.0
 20
0.0
 30
0.0
  3
*Paper_Space
  1

  0
ENDBLK
  5
1D
330
1B
100
AcDbEntity
 67
     1
  8
0
100
AcDbBlockEnd
  0
BLOCK
  5
24
330
23
100
AcDbEntity
  8
0
100
AcDbBlockBegin
  2
*Paper_Space0
 70
     0
 10
0.0
 20
0.0
 30
0.0
  3
*Paper_Space0
  1

  0
ENDBLK
  5
25
330
23
100
AcDbEntity
  8
0
100
AcDbBlockEnd
  0
BLOCK
  5
89
330
87
100
AcDbEntity
  8
0
100
AcDbBlockBegin
  2
GENAXEH
 70
     0
 10
0.0
 20
0.0
 30
0.0
  3
GENAXEH
  1

  0
LINE
  5
88
330
87
100
AcDbEntity
  8
0
100
AcDbLine
 10
-1.0
 20
0.0
 30
0.0
 11
1.0
 21
0.0
 31
0.0
  0
ENDBLK
  5
8A
330
87
100
AcDbEntity
  8
0
100
AcDbBlockEnd
  0
BLOCK
  5
12EB
330
12EA
100
AcDbEntity
  8
0
100
AcDbBlockBegin
  2
*U4
 70
     1
 10
0.0
 20
0.0
 30
0.0
  3
*U4
  1

  0
ENDBLK
  5
12EC
330
12EA
100
AcDbEntity
  8
0
100
AcDbBlockEnd
  0
BLOCK
  5
16E7
330
16DD
100
AcDbEntity
  8
0
100
AcDbBlockBegin
  2
*D5
 70
     1
 10
0.0
 20
0.0
 30
0.0
  3
*D5
  1

  0
LINE
  5
1ABC
330
16DD
100
AcDbEntity
  8
AM_5
100
AcDbLine
 10
2522.233364801031
 20
1108.298014470214
 30
0.0
 11
2522.233364801031
 21
1088.148014470214
 31
0.0
  0
LINE
  5
1ABD
330
16DD
100
AcDbEntity
  8
AM_5
100
AcDbLine
 10
2630.233364801031
 20
1103.998014470214
 30
0.0
 11
2630.233364801031
 21
1088.148014470214
 31
0.0
  0
LINE
  5
1ABE
330
16DD
100
AcDbEntity
  8
AM_5
100
AcDbLine
 10
2525.23336480103
 20
1089.648014470214
 30
0.0
 11
2627.233364801031
 21
1089.648014470214
 31
0.0
  0
SOLID
  5
1ABF
330
16DD
100
AcDbEntity
  8
AM_5
100
AcDbTrace
 10
2525.23336480103
 20
1090.148014470214
 30
0.0
 11
2525.23336480103
 21
1089.148014470214
 31
0.0
 12
2522.233364801031
 22
1089.648014470214
 32
0.0
 13
2522.233364801031
 23
1089.648014470214
 33
0.0
  0
SOLID
  5
1AC0
330
16DD
100
AcDbEntity
  8
AM_5
100
AcDbTrace
 10
2627.233364801031
 20
1090.148014470214
 30
0.0
 11
2627.233364801031
 21
1089.148014470214
 31
0.0
 12
2630.233364801031
 22
1089.648014470214
 32
0.0
 13
2630.233364801031
 23
1089.648014470214
 33
0.0
  0
MTEXT
  5
1AC1
330
16DD
100
AcDbEntity
  8
AM_5
100
AcDbMText
 10
2576.23336480103
 20
1092.148014470214
 30
0.0
 40
3.0
 41
0.0
 71
     5
 72
     1
  1
108+stroke
 73
     1
 44
1.0
1001
ACAD
1000
MTEXTBEGIN
1070
    73
1070
     1
1070
    44
1040
1.0
1070
    74
1070
     0
1000
MTEXTEND
  0
POINT
  5
1AC2
330
16DD
100
AcDbEntity
  8
Defpoints
 62
     0
100
AcDbPoint
 10
2522.233364801031
 20
1109.298014470214
 30
0.0
  0
POINT
  5
1AC3
330
16DD
100
AcDbEntity
  8
Defpoints
 62
     0
100
AcDbPoint
 10
2630.233364801031
 20
1104.998014470214
 30
0.0
  0
POINT
  5
1AC4
330
16DD
100
AcDbEntity
  8
Defpoints
 62
     0
100
AcDbPoint
 10
2630.233364801031
 20
1089.648014470214
 30
0.0
  0
ENDBLK
  5
16E8
330
16DD
100
AcDbEntity
  8
0
100
AcDbBlockEnd
  0
BLOCK
  5
170D
330
1703
100
AcDbEntity
  8
0
100
AcDbBlockBegin
  2
*D6
 70
     1
 10
0.0
 20
0.0
 30
0.0
  3
*D6
  1

  0
LINE
  5
1AB3
330
1703
100
AcDbEntity
  8
AM_5
100
AcDbLine
 10
2648.464203156159
 20
1105.206511848085
 30
0.0
 11
2648.464203156159
 21
1088.148014470214
 31
0.0
  0
LINE
  5
1AB4
330
1703
100
AcDbEntity
  8
AM_5
100
AcDbLine
 10
2660.464203156159
 20
1105.206511848085
 30
0.0
 11
2660.464203156159
 21
1088.148014470214
 31
0.0
  0
LINE
  5
1AB5
330
1703
100
AcDbEntity
  8
AM_5
100
AcDbLine
 10
2651.464203156159
 20
1089.648014470214
 30
0.0
 11
2657.464203156159
 21
1089.648014470214
 31
0.0
  0
SOLID
  5
1AB6
330
1703
100
AcDbEntity
  8
AM_5
100
AcDbTrace
 10
2651.464203156159
 20
1090.148014470214
 30
0.0
 11
2651.464203156159
 21
1089.148014470214
 31
0.0
 12
2648.464203156159
 22
1089.648014470214
 32
0.0
 13
2648.464203156159
 23
1089.648014470214
 33
0.0
  0
SOLID
  5
1AB7
330
1703
100
AcDbEntity
  8
AM_5
100
AcDbTrace
 10
2657.464203156159
 20
1090.148014470214
 30
0.0
 11
2657.464203156159
 21
1089.148014470214
 31
0.0
 12
2660.464203156159
 22
1089.648014470214
 32
0.0
 13
2660.464203156159
 23
1089.648014470214
 33
0.0
  0
MTEXT
  5
1AB8
330
1703
100
AcDbEntity
  8
AM_5
100
AcDbMText
 10
2654.464203156158
 20
1092.965386088622
 30
0.0
 40
3.0
 41
0.0
 71
     5
 72
     1
  1
12{}{\H0.71x;\C3;\S-0.05^ -0.4;}
 73
     1
 44
1.0
1001
ACAD
1000
MTEXTBEGIN
1070
    73
1070
     1
1070
    44
1040
1.0
1070
    74
1070
     0
1000
MTEXTEND
  0
POINT
  5
1AB9
330
1703
100
AcDbEntity
  8
Defpoints
 62
     0
100
AcDbPoint
 10
2648.464203156159
 20
1106.206511848085
 30
0.0
  0
POINT
  5
1ABA
330
1703
100
AcDbEntity
  8
Defpoints
 62
     0
100
AcDbPoint
 10
2660.464203156159
 20
1106.206511848085
 30
0.0
  0
POINT
  5
1ABB
330
1703
100
AcDbEntity
  8
Defpoints
 62
     0
100
AcDbPoint
 10
2660.464203156159
 20
1089.648014470214
 30
0.0
  0
ENDBLK
  5
170E
330
1703
100
AcDbEntity
  8
0
100
AcDbBlockEnd
  0
BLOCK
  5
1724
330
171E
100
AcDbEntity
  8
0
100
AcDbBlockBegin
  2
*D7
 70
     1
 10
0.0
 20
0.0
 30
0.0
  3
*D7
  1

  0
LINE
  5
1AC5
330
171E
100
AcDbEntity
  8
AM_5
100
AcDbLine
 10
2626.194391994005
 20
1116.716473817805
 30
0.0
 11
2630.767786732073
 21
1124.776539790088
 31
0.0
  0
LINE
  5
1AC6
330
171E
100
AcDbEntity
  8
AM_5
100
AcDbLine
 10
2630.767786732073
 20
1124.776539790088
 30
0.0
 11
2639.997780842346
 21
1124.776539790088
 31
0.0
  0
SOLID
  5
1AC7
330
171E
100
AcDbEntity
  8
AM_5
100
AcDbTrace
 10
2625.759520381706
 20
1116.963226083886
 30
0.0
 11
2626.629263606305
 21
1116.469721551724
 31
0.0
 12
2624.713878397518
 22
1114.107244144009
 32
0.0
 13
2624.713878397518
 23
1114.107244144009
 33
0.0
  0
MTEXT
  5
1AC8
330
171E
100
AcDbEntity
  8
AM_5
100
AcDbMText
 10
2635.88278378721
 20
1127.276539790088
 30
0.0
 40
3.0
 41
0.0
 71
     5
 72
     1
  1
\U+22056{}{\H0.71x;\C3; H9}
 73
     1
 44
1.0
1001
ACAD
1000
MTEXTBEGIN
1070
    73
1070
     1
1070
    44
1040
1.0
1070
    74
1070
     0
1000
MTEXTEND
  0
POINT
  5
1AC9
330
171E
100
AcDbEntity
  8
Defpoints
 62
     0
100
AcDbPoint
 10
2624.713878397518
 20
1114.107244144009
 30
0.0
  0
POINT
  5
1ACA
330
171E
100
AcDbEntity
  8
Defpoints
 62
     0
100
AcDbPoint
 10
2621.752851204542
 20
1108.888784796417
 30
0.0
  0
ENDBLK
  5
1725
330
171E
100
AcDbEntity
  8
0
100
AcDbBlockEnd
  0
BLOCK
  5
1B1C
330
1B17
100
AcDbEntity
  8
0
100
AcDbBlockBegin
  2
*S10
 70
     1
 10
0.0
 20
0.0
 30
0.0
  3
*S10
  1

  0
LINE
  5
1B18
330
1B17
100
AcDbEntity
  8
AM_5
 62
     5
100
AcDbLine
 10
2629.679039535603
 20
1171.929082076947
 30
0.0
 11
2619.596309341026
 21
1171.929082076947
 31
0.0
  0
LINE
  5
1B19
330
1B17
100
AcDbEntity
  8
AM_5
 62
     5
100
AcDbLine
 10
2619.596309341026
 20
1171.929082076947
 30
0.0
 11
2612.928542020155
 21
1159.429341250269
 31
0.0
  0
TRACE
  5
1B1A
330
1B17
100
AcDbEntity
  8
AM_5
 62
     5
370
    35
100
AcDbTrace
 10
2612.521984865008
 20
1159.646212027891
 30
0.0
 11
2613.335099175302
 21
1159.212470472647
 31
0.0
 12
2611.281244911753
 22
1156.341233053225
 32
0.0
 13
2611.281244911753
 23
1156.341233053225
 33
0.0
  0
MTEXT
  5
1B1B
330
1B17
100
AcDbEntity
  8
AM_5
 62
     2
100
AcDbMText
 10
2629.679039535603
 20
1176.723961071768
 30
0.0
 40
3.5
 41
0.0
 71
     7
 72
     5
  1

  7
ACISOTS
 73
     1
 44
1.0
1001
ACAD
1000
MTEXTBEGIN
1070
    73
1070
     1
1070
    44
1040
1.0
1070
    74
1070
     0
1000
MTEXTEND
  0
ENDBLK
  5
1B1D
330
1B17
100
AcDbEntity
  8
0
100
AcDbBlockEnd
  0
BLOCK
  5
1B24
330
1B1F
100
AcDbEntity
  8
0
100
AcDbBlockBegin
  2
*S11
 70
     1
 10
0.0
 20
0.0
 30
0.0
  3
*S11
  1

  0
LINE
  5
1B20
330
1B1F
100
AcDbEntity
  8
AM_5
 62
     5
100
AcDbLine
 10
2546.004585694741
 20
1124.20546809506
 30
0.0
 11
2533.367980315546
 21
1124.20546809506
 31
0.0
  0
LINE
  5
1B21
330
1B1F
100
AcDbEntity
  8
AM_5
 62
     5
100
AcDbLine
 10
2533.367980315546
 20
1124.20546809506
 30
0.0
 11
2531.539328598421
 21
1117.764931935504
 31
0.0
  0
TRACE
  5
1B22
330
1B1F
100
AcDbEntity
  8
AM_5
 62
     5
370
    35
100
AcDbTrace
 10
2531.096065506923
 20
1117.890786956473
 30
0.0
 11
2531.982591689919
 21
1117.639076914537
 31
0.0
 12
2530.58336480103
 22
1114.398014470214
 32
0.0
 13
2530.58336480103
 23
1114.398014470214
 33
0.0
  0
MTEXT
  5
1B23
330
1B1F
100
AcDbEntity
  8
AM_5
 62
     2
100
AcDbMText
 10
2546.004585694741
 20
1129.092253646668
 30
0.0
 40
3.5
 41
0.0
 71
     7
 72
     5
  1

  7
ACISOTS
 73
     1
 44
1.0
1001
ACAD
1000
MTEXTBEGIN
1070
    73
1070
     1
1070
    44
1040
1.0
1070
    74
1070
     0
1000
MTEXTEND
  0
ENDBLK
  5
1B25
330
1B1F
100
AcDbEntity
  8
0
100
AcDbBlockEnd
  0
ENDSEC
  0
SECTION
  2
ENTITIES
  0
TEXT
  5
E1F
330
1F
100
AcDbEntity
  8
AM_5
100
AcDbText
 10
2673.874599262465
 20
1604.83630397753
 30
0.0
 40
6.0
  1

100
AcDbText
  0
LINE
  5
1176
330
1F
100
AcDbEntity
  8
AM_VIS
100
AcDbLine
 10
2572.233364801031
 20
1102.998014470214
 30
0.0
 11
2602.23336480103
 21
1102.998014470214
 31
0.0
  0
LINE
  5
1177
330
1F
100
AcDbEntity
  8
AM_VIS
100
AcDbLine
 10
2572.233364801031
 20
1119.998014470214
 30
0.0
 11
2602.23336480103
 21
1119.998014470214
 31
0.0
  0
LINE
  5
117C
330
1F
100
AcDbEntity
  8
AM_VIS
100
AcDbLine
 10
2538.23336480103
 20
1108.598014470214
 30
0.0
 11
2538.333364801031
 21
1108.498014470214
 31
0.0
  0
LINE
  5
117D
330
1F
100
AcDbEntity
  8
AM_VIS
100
AcDbLine
 10
2538.23336480103
 20
1114.398014470214
 30
0.0
 11
2538.333364801031
 21
1114.498014470214
 31
0.0
  0
LINE
  5
117E
330
1F
100
AcDbEntity
  8
AM_VIS
100
AcDbLine
 10
2548.23336480103
 20
1114.498014470214
 30
0.0
 11
2538.333364801031
 21
1114.498014470214
 31
0.0
  0
LINE
  5
117F
330
1F
100
AcDbEntity
  8
AM_VIS
100
AcDbLine
 10
2548.23336480103
 20
1108.498014470214
 30
0.0
 11
2538.333364801031
 21
1108.498014470214
 31
0.0
  0
LINE
  5
1180
330
1F
100
AcDbEntity
  8
AM_VIS
100
AcDbLine
 10
2538.23336480103
 20
1114.398014470214
 30
0.0
 11
2522.933364801031
 21
1114.398014470214
 31
0.0
  0
LINE
  5
1181
330
1F
100
AcDbEntity
  8
AM_VIS
100
AcDbLine
 10
2538.23336480103
 20
1108.598014470214
 30
0.0
 11
2522.933364801031
 21
1108.598014470214
 31
0.0
  0
LINE
  5
1182
330
1F
100
AcDbEntity
  8
AM_VIS
100
AcDbLine
 10
2522.233364801031
 20
1109.298014470214
 30
0.0
 11
2522.933364801031
 21
1108.598014470214
 31
0.0
  0
LINE
  5
1183
330
1F
100
AcDbEntity
  8
AM_VIS
100
AcDbLine
 10
2522.233364801031
 20
1113.698014470214
 30
0.0
 11
2522.933364801031
 21
1114.398014470214
 31
0.0
  0
LINE
  5
1185
330
1F
100
AcDbEntity
  8
AM_VIS
100
AcDbLine
 10
2538.23336480103
 20
1108.598014470214
 30
0.0
 11
2538.23336480103
 21
1114.398014470214
 31
0.0
  0
LINE
  5
1187
102
{ACAD_REACTORS
330
16EA
102
}
330
1F
100
AcDbEntity
  8
AM_VIS
100
AcDbLine
 10
2522.233364801031
 20
1109.298014470214
 30
0.0
 11
2522.233364801031
 21
1113.698014470214
 31
0.0
  0
ARC
  5
1188
330
1F
100
AcDbEntity
  8
AM_VIS
100
AcDbCircle
 10
2609.23336480103
 20
1130.233958426823
 30
0.0
 40
9.850000000000381
100
AcDbArc
 50
244.4389815564585
 51
295.5610184435471
  0
LINE
  5
1189
330
1F
100
AcDbEntity
  8
AM_VIS
100
AcDbLine
 10
2628.733364801031
 20
1106.206511848085
 30
0.0
 11
2614.533364801031
 21
1106.206511848085
 31
0.0
  0
LINE
  5
118A
330
1F
100
AcDbEntity
  8
AM_VIS
100
AcDbLine
 10
2614.533364801031
 20
1116.789517092343
 30
0.0
 11
2628.733364801031
 21
1116.789517092343
 31
0.0
  0
SPLINE
  5
118B
330
1F
100
AcDbEntity
  8
AM_VIS
100
AcDbSpline
210
0.0
220
0.0
230
1.0
 70
     8
 71
     3
 72
    28
 73
    24
 74
     0
 42
0.0000000001
 43
0.0000000001
 40
-5.724552682629862
 40
-5.724552682629862
 40
-5.724552682629862
 40
-5.724552682629862
 40
-5.570978979830407
 40
-5.570978979830407
 40
-5.417405277030955
 40
-5.417405277030955
 40
-5.247218523966814
 40
-5.247218523966814
 40
-5.077031770902674
 40
-5.077031770902674
 40
-4.873023001037658
 40
-4.873023001037658
 40
-4.669014231172646
 40
-4.669014231172646
 40
-4.401721842439449
 40
-4.401721842439449
 40
-4.13442945370625
 40
-4.13442945370625
 40
-3.617625771992969
 40
-3.617625771992969
 40
-3.100822090279685
 40
-3.100822090279685
 40
-2.37168673020955
 40
-2.37168673020955
 40
-2.37168673020955
 40
-2.37168673020955
 10
2628.733364801031
 20
1116.789517092343
 30
-0.0000000000000018
 10
2628.784556035297
 20
1116.789517092343
 30
-0.0000000000000018
 10
2628.840582246905
 20
1116.785279093846
 30
-0.0000000000000018
 10
2628.951051133861
 20
1116.767058430581
 30
-0.0000000000000018
 10
2629.005496835658
 20
1116.753094119403
 30
-0.0000000000000018
 10
2629.107896374228
 20
1116.719019294408
 30
-0.0000000000000018
 10
2629.165251142662
 20
1116.694822900937
 30
-0.0000000000000018
 10
2629.275113251365
 20
1116.637061939683
 30
-0.0000000000000018
 10
2629.327646255589
 20
1116.603546198246
 30
-0.0000000000000018
 10
2629.428348758669
 20
1116.529945668175
 30
-0.0000000000000018
 10
2629.485068082098
 20
1116.48145034083
 30
-0.0000000000000018
 10
2629.590326083079
 20
1116.37613158854
 30
-0.0000000000000018
 10
2629.638927801833
 20
1116.319371187296
 30
-0.0000000000000018
 10
2629.734330317933
 20
1116.194555758498
 30
-0.0000000000000018
 10
2629.787865209206
 20
1116.112723709597
 30
-0.0000000000000018
 10
2629.882789896516
 20
1115.942124865605
 30
-0.0000000000000018
 10
2629.924297033032
 20
1115.853423387588
 30
-0.0000000000000018
 10
2630.023485632464
 20
1115.611610502311
 30
-0.0000000000000018
 10
2630.073280465163
 20
1115.446710771897
 30
-0.0000000000000018
 10
2630.150556284887
 20
1115.108680112267
 30
-0.0000000000000018
 10
2630.177906866734
 20
1114.935519384887
 30
-0.0000000000000018
 10
2630.223532382974
 20
1114.510582416031
 30
-0.0000000000000018
 10
2630.233364801031
 20
1114.255812193685
 30
-0.0000000000000018
 10
2630.233364801031
 20
1113.998014470214
 30
-0.0000000000000018
  0
LINE
  5
118C
330
1F
100
AcDbEntity
  8
AM_VIS
100
AcDbLine
 10
2630.233364801031
 20
1113.998014470214
 30
0.0
 11
2630.233364801031
 21
1108.998014470214
 31
0.0
  0
SPLINE
  5
118D
330
1F
100
AcDbEntity
  8
AM_VIS
100
AcDbSpline
210
0.0
220
0.0
230
1.0
 70
     8
 71
     3
 72
    28
 73
    24
 74
     0
 42
0.0000000001
 43
0.0000000001
 40
2.37168673020955
 40
2.37168673020955
 40
2.37168673020955
 40
2.37168673020955
 40
3.100822090279688
 40
3.100822090279688
 40
3.617625771992969
 40
3.617625771992969
 40
4.134429453706251
 40
4.134429453706251
 40
4.401721842439449
 40
4.401721842439449
 40
4.669014231172647
 40
4.669014231172647
 40
4.873023001037662
 40
4.873023001037662
 40
5.077031770902676
 40
5.077031770902676
 40
5.247218523966816
 40
5.247218523966816
 40
5.417405277030955
 40
5.417405277030955
 40
5.570978979830409
 40
5.570978979830409
 40
5.724552682629862
 40
5.724552682629862
 40
5.724552682629862
 40
5.724552682629862
 10
2630.233364801031
 20
1108.998014470214
 30
-0.0000000000000018
 10
2630.233364801031
 20
1108.740216746743
 30
-0.0000000000000018
 10
2630.223532382974
 20
1108.485446524396
 30
-0.0000000000000018
 10
2630.177906866734
 20
1108.060509555541
 30
-0.0000000000000018
 10
2630.150556284887
 20
1107.88734882816
 30
-0.0000000000000018
 10
2630.073280465163
 20
1107.549318168531
 30
-0.0000000000000018
 10
2630.023485632464
 20
1107.384418438116
 30
-0.0000000000000018
 10
2629.924297033032
 20
1107.142605552839
 30
-0.0000000000000018
 10
2629.882789896516
 20
1107.053904074822
 30
-0.0000000000000018
 10
2629.787865209206
 20
1106.883305230831
 30
-0.0000000000000018
 10
2629.734330317933
 20
1106.801473181929
 30
-0.0000000000000018
 10
2629.638927801833
 20
1106.676657753131
 30
-0.0000000000000018
 10
2629.590326083079
 20
1106.619897351887
 30
-0.0000000000000018
 10
2629.485068082098
 20
1106.514578599598
 30
-0.0000000000000018
 10
2629.428348758669
 20
1106.466083272253
 30
-0.0000000000000018
 10
2629.327646255589
 20
1106.392482742182
 30
-0.0000000000000018
 10
2629.275113251365
 20
1106.358967000745
 30
-0.0000000000000018
 10
2629.165251142662
 20
1106.30120603949
 30
-0.0000000000000018
 10
2629.107896374228
 20
1106.27700964602
 30
-0.0000000000000018
 10
2629.005496835658
 20
1106.242934821024
 30
-0.0000000000000018
 10
2628.951051133862
 20
1106.228970509847
 30
-0.0000000000000018
 10
2628.840582246905
 20
1106.210749846582
 30
-0.0000000000000018
 10
2628.784556035297
 20
1106.206511848085
 30
-0.0000000000000018
 10
2628.733364801031
 20
1106.206511848085
 30
-0.0000000000000018
  0
LINE
  5
118E
330
1F
100
AcDbEntity
  8
AM_VIS
100
AcDbLine
 10
2604.23336480103
 20
1120.748014470214
 30
0.0
 11
2602.23336480103
 21
1120.748014470214
 31
0.0
  0
LINE
  5
118F
330
1F
100
AcDbEntity
  8
AM_VIS
100
AcDbLine
 10
2604.23336480103
 20
1102.248014470214
 30
0.0
 11
2602.23336480103
 21
1102.248014470214
 31
0.0
  0
LINE
  5
1190
330
1F
100
AcDbEntity
  8
AM_VIS
100
AcDbLine
 10
2614.233364801031
 20
1120.848014470214
 30
0.0
 11
2613.733364801031
 21
1121.348014470214
 31
0.0
  0
LINE
  5
1191
330
1F
100
AcDbEntity
  8
AM_VIS
100
AcDbLine
 10
2614.233364801031
 20
1102.148014470214
 30
0.0
 11
2613.733364801031
 21
1101.648014470214
 31
0.0
  0
LINE
  5
1192
330
1F
100
AcDbEntity
  8
AM_VIS
100
AcDbLine
 10
2604.733364801031
 20
1101.648014470214
 30
0.0
 11
2613.733364801031
 21
1101.648014470214
 31
0.0
  0
LINE
  5
1193
330
1F
100
AcDbEntity
  8
AM_VIS
100
AcDbLine
 10
2613.483364801031
 20
1121.348014470214
 30
0.0
 11
2613.733364801031
 21
1121.348014470214
 31
0.0
  0
LINE
  5
1194
330
1F
100
AcDbEntity
  8
AM_VIS
100
AcDbLine
 10
2604.733364801031
 20
1121.348014470214
 30
0.0
 11
2604.98336480103
 21
1121.348014470214
 31
0.0
  0
LINE
  5
1195
330
1F
100
AcDbEntity
  8
AM_VIS
100
AcDbLine
 10
2604.23336480103
 20
1102.148014470214
 30
0.0
 11
2604.733364801031
 21
1101.648014470214
 31
0.0
  0
LINE
  5
1196
330
1F
100
AcDbEntity
  8
AM_VIS
100
AcDbLine
 10
2604.23336480103
 20
1120.848014470214
 30
0.0
 11
2604.733364801031
 21
1121.348014470214
 31
0.0
  0
LINE
  5
1197
330
1F
100
AcDbEntity
  8
AM_VIS
100
AcDbLine
 10
2614.233364801031
 20
1103.498014470214
 30
0.0
 11
2628.733364801031
 21
1103.498014470214
 31
0.0
  0
LINE
  5
1198
330
1F
100
AcDbEntity
  8
AM_VIS
100
AcDbLine
 10
2614.233364801031
 20
1119.498014470214
 30
0.0
 11
2628.733364801031
 21
1119.498014470214
 31
0.0
  0
LINE
  5
1199
330
1F
100
AcDbEntity
  8
AM_VIS
100
AcDbLine
 10
2602.23336480103
 20
1102.248014470214
 30
0.0
 11
2602.23336480103
 21
1120.748014470214
 31
0.0
  0
LINE
  5
119A
330
1F
100
AcDbEntity
  8
AM_VIS
100
AcDbLine
 10
2614.233364801031
 20
1120.848014470214
 30
0.0
 11
2614.233364801031
 21
1102.148014470214
 31
0.0
  0
LINE
  5
119D
330
1F
100
AcDbEntity
  8
AM_VIS
100
AcDbLine
 10
2604.23336480103
 20
1102.148014470214
 30
0.0
 11
2604.23336480103
 21
1120.848014470214
 31
0.0
  0
LINE
  5
119E
330
1F
100
AcDbEntity
  8
AM_VIS
100
AcDbLine
 10
2630.233364801031
 20
1108.998014470214
 30
0.0
 11
2630.233364801031
 21
1104.998014470214
 31
0.0
  0
LINE
  5
119F
330
1F
100
AcDbEntity
  8
AM_VIS
100
AcDbLine
 10
2630.233364801031
 20
1117.998014470214
 30
0.0
 11
2630.233364801031
 21
1113.998014470214
 31
0.0
  0
LINE
  5
11A0
330
1F
100
AcDbEntity
  8
AM_VIS
100
AcDbLine
 10
2614.533364801031
 20
1116.789517092343
 30
0.0
 11
2614.533364801031
 21
1106.206511848085
 31
0.0
  0
CIRCLE
  5
11A2
102
{ACAD_REACTORS
330
1727
102
}
330
1F
100
AcDbEntity
  8
AM_VIS
100
AcDbCircle
 10
2623.233364801031
 20
1111.498014470214
 30
0.0
 40
3.0
  0
ARC
  5
11A3
102
{ACAD_REACTORS
330
16EA
102
}
330
1F
100
AcDbEntity
  8
AM_VIS
100
AcDbCircle
 10
2628.733364801031
 20
1104.998014470214
 30
0.0
 40
1.5
100
AcDbArc
 50
270.0
 51
0.0
  0
ARC
  5
11A4
330
1F
100
AcDbEntity
  8
AM_VIS
100
AcDbCircle
 10
2628.733364801031
 20
1117.998014470214
 30
0.0
 40
1.5
100
AcDbArc
 50
0.0
 51
90.0
  0
ARC
  5
11A5
330
1F
100
AcDbEntity
  8
AM_VIS
100
AcDbCircle
 10
2565.233364801031
 20
1130.233958426823
 30
0.0
 40
9.850000000000383
100
AcDbArc
 50
244.4389815564585
 51
295.5610184435414
  0
LINE
  5
11A6
330
1F
100
AcDbEntity
  8
AM_VIS
100
AcDbLine
 10
2560.23336480103
 20
1119.498014470214
 30
0.0
 11
2549.73336480103
 21
1119.498014470214
 31
0.0
  0
LINE
  5
11A7
330
1F
100
AcDbEntity
  8
AM_VIS
100
AcDbLine
 10
2560.23336480103
 20
1103.498014470214
 30
0.0
 11
2549.73336480103
 21
1103.498014470214
 31
0.0
  0
LINE
  5
11A8
330
1F
100
AcDbEntity
  8
AM_VIS
100
AcDbLine
 10
2560.23336480103
 20
1102.148014470214
 30
0.0
 11
2560.733364801031
 21
1101.648014470214
 31
0.0
  0
LINE
  5
11A9
330
1F
100
AcDbEntity
  8
AM_VIS
100
AcDbLine
 10
2560.23336480103
 20
1120.848014470214
 30
0.0
 11
2560.733364801031
 21
1121.348014470214
 31
0.0
  0
LINE
  5
11AA
330
1F
100
AcDbEntity
  8
AM_VIS
100
AcDbLine
 10
2560.98336480103
 20
1121.348014470214
 30
0.0
 11
2560.733364801031
 21
1121.348014470214
 31
0.0
  0
LINE
  5
11AB
330
1F
100
AcDbEntity
  8
AM_VIS
100
AcDbLine
 10
2569.73336480103
 20
1121.348014470214
 30
0.0
 11
2569.48336480103
 21
1121.348014470214
 31
0.0
  0
LINE
  5
11AC
330
1F
100
AcDbEntity
  8
AM_VIS
100
AcDbLine
 10
2569.73336480103
 20
1101.648014470214
 30
0.0
 11
2560.733364801031
 21
1101.648014470214
 31
0.0
  0
LINE
  5
11AD
330
1F
100
AcDbEntity
  8
AM_VIS
100
AcDbLine
 10
2570.23336480103
 20
1120.848014470214
 30
0.0
 11
2569.73336480103
 21
1121.348014470214
 31
0.0
  0
LINE
  5
11AE
330
1F
100
AcDbEntity
  8
AM_VIS
100
AcDbLine
 10
2570.23336480103
 20
1102.148014470214
 30
0.0
 11
2569.73336480103
 21
1101.648014470214
 31
0.0
  0
LINE
  5
11AF
330
1F
100
AcDbEntity
  8
AM_VIS
100
AcDbLine
 10
2570.23336480103
 20
1102.248014470214
 30
0.0
 11
2571.933364801031
 21
1102.248014470214
 31
0.0
  0
LINE
  5
11B0
330
1F
100
AcDbEntity
  8
AM_VIS
100
AcDbLine
 10
2570.23336480103
 20
1120.748014470214
 30
0.0
 11
2571.933364801031
 21
1120.748014470214
 31
0.0
  0
LINE
  5
11B1
330
1F
100
AcDbEntity
  8
AM_VIS
100
AcDbLine
 10
2572.233364801031
 20
1120.448014470214
 30
0.0
 11
2571.933364801031
 21
1120.748014470214
 31
0.0
  0
LINE
  5
11B2
330
1F
100
AcDbEntity
  8
AM_VIS
100
AcDbLine
 10
2572.233364801031
 20
1102.548014470214
 30
0.0
 11
2571.933364801031
 21
1102.248014470214
 31
0.0
  0
LINE
  5
11B3
330
1F
100
AcDbEntity
  8
AM_VIS
100
AcDbLine
 10
2548.23336480103
 20
1104.998014470214
 30
0.0
 11
2548.23336480103
 21
1117.998014470214
 31
0.0
  0
LINE
  5
11B4
330
1F
100
AcDbEntity
  8
AM_VIS
100
AcDbLine
 10
2560.23336480103
 20
1102.148014470214
 30
0.0
 11
2560.23336480103
 21
1120.848014470214
 31
0.0
  0
LINE
  5
11B7
330
1F
100
AcDbEntity
  8
AM_VIS
100
AcDbLine
 10
2570.23336480103
 20
1120.848014470214
 30
0.0
 11
2570.23336480103
 21
1102.148014470214
 31
0.0
  0
LINE
  5
11B9
330
1F
100
AcDbEntity
  8
AM_VIS
100
AcDbLine
 10
2572.233364801031
 20
1120.448014470214
 30
0.0
 11
2572.233364801031
 21
1102.548014470214
 31
0.0
  0
ARC
  5
11BA
330
1F
100
AcDbEntity
  8
AM_VIS
100
AcDbCircle
 10
2549.73336480103
 20
1117.998014470214
 30
0.0
 40
1.5
100
AcDbArc
 50
90.0
 51
180.0
  0
ARC
  5
11BB
330
1F
100
AcDbEntity
  8
AM_VIS
100
AcDbCircle
 10
2549.73336480103
 20
1104.998014470214
 30
0.0
 40
1.5
100
AcDbArc
 50
180.0
 51
270.0
  0
LINE
  5
11BE
330
1F
100
AcDbEntity
  8
AM_VIS
100
AcDbLine
 10
2572.23336480103
 20
1146.407291962348
 30
0.0
 11
2602.23336480103
 21
1146.407291962348
 31
0.0
  0
LINE
  5
11BF
330
1F
100
AcDbEntity
  8
AM_VIS
100
AcDbLine
 10
2572.23336480103
 20
1163.407291962347
 30
0.0
 11
2602.23336480103
 21
1163.407291962348
 31
0.0
  0
LINE
  5
11C4
330
1F
100
AcDbEntity
  8
AM_VIS
100
AcDbLine
 10
2538.23336480103
 20
1152.007291962348
 30
0.0
 11
2538.333364801031
 21
1151.907291962348
 31
0.0
  0
LINE
  5
11C5
330
1F
100
AcDbEntity
  8
AM_VIS
100
AcDbLine
 10
2538.23336480103
 20
1157.807291962348
 30
0.0
 11
2538.333364801031
 21
1157.907291962348
 31
0.0
  0
LINE
  5
11C6
330
1F
100
AcDbEntity
  8
AM_VIS
100
AcDbLine
 10
2548.23336480103
 20
1157.907291962348
 30
0.0
 11
2538.333364801031
 21
1157.907291962348
 31
0.0
  0
LINE
  5
11C7
330
1F
100
AcDbEntity
  8
AM_VIS
100
AcDbLine
 10
2548.23336480103
 20
1151.907291962348
 30
0.0
 11
2538.333364801031
 21
1151.907291962348
 31
0.0
  0
LINE
  5
11C8
330
1F
100
AcDbEntity
  8
AM_VIS
100
AcDbLine
 10
2538.23336480103
 20
1157.807291962348
 30
0.0
 11
2522.933364801031
 21
1157.807291962348
 31
0.0
  0
LINE
  5
11C9
330
1F
100
AcDbEntity
  8
AM_VIS
100
AcDbLine
 10
2538.23336480103
 20
1152.007291962348
 30
0.0
 11
2522.933364801031
 21
1152.007291962348
 31
0.0
  0
LINE
  5
11CA
330
1F
100
AcDbEntity
  8
AM_VIS
100
AcDbLine
 10
2522.233364801031
 20
1152.707291962348
 30
0.0
 11
2522.933364801031
 21
1152.007291962348
 31
0.0
  0
LINE
  5
11CB
330
1F
100
AcDbEntity
  8
AM_VIS
100
AcDbLine
 10
2522.233364801031
 20
1157.107291962347
 30
0.0
 11
2522.933364801031
 21
1157.807291962348
 31
0.0
  0
LINE
  5
11CD
330
1F
100
AcDbEntity
  8
AM_VIS
100
AcDbLine
 10
2538.23336480103
 20
1152.007291962348
 30
0.0
 11
2538.23336480103
 21
1157.807291962348
 31
0.0
  0
LINE
  5
11CF
330
1F
100
AcDbEntity
  8
AM_VIS
100
AcDbLine
 10
2522.233364801031
 20
1152.707291962348
 30
0.0
 11
2522.233364801031
 21
1157.107291962347
 31
0.0
  0
ARC
  5
11D0
330
1F
100
AcDbEntity
  8
AM_VIS
100
AcDbCircle
 10
2609.23336480103
 20
1154.907291962348
 30
0.0
 40
4.25
100
AcDbArc
 50
0.0
 51
180.0
  0
ARC
  5
11D1
330
1F
100
AcDbEntity
  8
AM_VIS
100
AcDbCircle
 10
2609.23336480103
 20
1154.907291962348
 30
0.0
 40
4.25
100
AcDbArc
 50
180.0
 51
0.0
  0
LINE
  5
11D2
330
1F
100
AcDbEntity
  8
AM_VIS
100
AcDbLine
 10
2614.533364801031
 20
1148.907291962347
 30
0.0
 11
2628.733364801031
 21
1148.907291962347
 31
0.0
  0
LINE
  5
11D3
330
1F
100
AcDbEntity
  8
AM_VIS
100
AcDbLine
 10
2628.733364801031
 20
1148.907291962347
 30
0.0
 11
2630.233364801031
 21
1148.907291962347
 31
0.0
  0
LINE
  5
11D4
330
1F
100
AcDbEntity
  8
AM_VIS
100
AcDbLine
 10
2628.733364801031
 20
1160.907291962348
 30
0.0
 11
2630.233364801031
 21
1160.907291962348
 31
0.0
  0
LINE
  5
11D5
330
1F
100
AcDbEntity
  8
AM_VIS
100
AcDbLine
 10
2628.733364801031
 20
1160.907291962348
 30
0.0
 11
2614.533364801031
 21
1160.907291962348
 31
0.0
  0
LINE
  5
11D6
330
1F
100
AcDbEntity
  8
AM_VIS
100
AcDbLine
 10
2604.23336480103
 20
1164.157291962348
 30
0.0
 11
2602.23336480103
 21
1164.157291962348
 31
0.0
  0
LINE
  5
11D7
330
1F
100
AcDbEntity
  8
AM_VIS
100
AcDbLine
 10
2604.23336480103
 20
1145.657291962348
 30
0.0
 11
2602.23336480103
 21
1145.657291962348
 31
0.0
  0
LINE
  5
11D8
330
1F
100
AcDbEntity
  8
AM_VIS
100
AcDbLine
 10
2614.233364801031
 20
1164.257291962348
 30
0.0
 11
2613.733364801031
 21
1164.757291962348
 31
0.0
  0
LINE
  5
11D9
330
1F
100
AcDbEntity
  8
AM_VIS
100
AcDbLine
 10
2614.233364801031
 20
1145.557291962348
 30
0.0
 11
2613.733364801031
 21
1145.057291962348
 31
0.0
  0
LINE
  5
11DA
330
1F
100
AcDbEntity
  8
AM_VIS
100
AcDbLine
 10
2604.733364801031
 20
1145.057291962348
 30
0.0
 11
2613.733364801031
 21
1145.057291962348
 31
0.0
  0
LINE
  5
11DB
330
1F
100
AcDbEntity
  8
AM_VIS
100
AcDbLine
 10
2604.733364801031
 20
1164.757291962348
 30
0.0
 11
2613.733364801031
 21
1164.757291962348
 31
0.0
  0
LINE
  5
11DC
330
1F
100
AcDbEntity
  8
AM_VIS
100
AcDbLine
 10
2604.23336480103
 20
1145.557291962348
 30
0.0
 11
2604.733364801031
 21
1145.057291962348
 31
0.0
  0
LINE
  5
11DD
330
1F
100
AcDbEntity
  8
AM_VIS
100
AcDbLine
 10
2604.23336480103
 20
1164.257291962348
 30
0.0
 11
2604.733364801031
 21
1164.757291962348
 31
0.0
  0
LINE
  5
11DE
330
1F
100
AcDbEntity
  8
AM_VIS
100
AcDbLine
 10
2614.233364801031
 20
1146.907291962347
 30
0.0
 11
2614.533364801031
 21
1146.907291962347
 31
0.0
  0
LINE
  5
11DF
330
1F
100
AcDbEntity
  8
AM_VIS
100
AcDbLine
 10
2614.233364801031
 20
1162.907291962347
 30
0.0
 11
2614.533364801031
 21
1162.907291962347
 31
0.0
  0
LINE
  5
11E0
330
1F
100
AcDbEntity
  8
AM_VIS
100
AcDbLine
 10
2602.23336480103
 20
1145.657291962348
 30
0.0
 11
2602.23336480103
 21
1164.157291962348
 31
0.0
  0
LINE
  5
11E2
330
1F
100
AcDbEntity
  8
AM_VIS
100
AcDbLine
 10
2614.233364801031
 20
1164.257291962348
 30
0.0
 11
2614.233364801031
 21
1145.557291962348
 31
0.0
  0
LINE
  5
11E3
330
1F
100
AcDbEntity
  8
AM_VIS
100
AcDbLine
 10
2613.733364801031
 20
1145.057291962348
 30
0.0
 11
2613.733364801031
 21
1164.757291962348
 31
0.0
  0
LINE
  5
11E5
330
1F
100
AcDbEntity
  8
AM_VIS
100
AcDbLine
 10
2604.23336480103
 20
1145.557291962348
 30
0.0
 11
2604.23336480103
 21
1164.257291962348
 31
0.0
  0
LINE
  5
11E6
330
1F
100
AcDbEntity
  8
AM_VIS
100
AcDbLine
 10
2630.233364801031
 20
1160.907291962348
 30
0.0
 11
2630.233364801031
 21
1148.907291962347
 31
0.0
  0
LINE
  5
11E7
330
1F
100
AcDbEntity
  8
AM_VIS
100
AcDbLine
 10
2614.533364801031
 20
1162.907291962347
 30
0.0
 11
2614.533364801031
 21
1160.907291962348
 31
0.0
  0
LINE
  5
11E8
330
1F
100
AcDbEntity
  8
AM_VIS
100
AcDbLine
 10
2614.533364801031
 20
1148.907291962347
 30
0.0
 11
2614.533364801031
 21
1146.907291962347
 31
0.0
  0
ARC
  5
11EA
330
1F
100
AcDbEntity
  8
AM_VIS
100
AcDbCircle
 10
2565.233364801031
 20
1154.907291962348
 30
0.0
 40
4.25
100
AcDbArc
 50
180.0
 51
0.0
  0
ARC
  5
11EB
330
1F
100
AcDbEntity
  8
AM_VIS
100
AcDbCircle
 10
2565.233364801031
 20
1154.907291962348
 30
0.0
 40
4.25
100
AcDbArc
 50
0.0
 51
180.0
  0
LINE
  5
11EC
330
1F
100
AcDbEntity
  8
AM_VIS
100
AcDbLine
 10
2560.23336480103
 20
1162.907291962348
 30
0.0
 11
2549.73336480103
 21
1162.907291962348
 31
0.0
  0
LINE
  5
11ED
330
1F
100
AcDbEntity
  8
AM_VIS
100
AcDbLine
 10
2560.23336480103
 20
1146.907291962348
 30
0.0
 11
2549.73336480103
 21
1146.907291962348
 31
0.0
  0
LINE
  5
11EE
330
1F
100
AcDbEntity
  8
AM_VIS
100
AcDbLine
 10
2560.23336480103
 20
1145.557291962348
 30
0.0
 11
2560.733364801031
 21
1145.057291962348
 31
0.0
  0
LINE
  5
11EF
330
1F
100
AcDbEntity
  8
AM_VIS
100
AcDbLine
 10
2560.23336480103
 20
1164.257291962348
 30
0.0
 11
2560.733364801031
 21
1164.757291962348
 31
0.0
  0
LINE
  5
11F0
330
1F
100
AcDbEntity
  8
AM_VIS
100
AcDbLine
 10
2569.73336480103
 20
1164.757291962348
 30
0.0
 11
2560.733364801031
 21
1164.757291962348
 31
0.0
  0
LINE
  5
11F1
330
1F
100
AcDbEntity
  8
AM_VIS
100
AcDbLine
 10
2569.73336480103
 20
1145.057291962348
 30
0.0
 11
2560.733364801031
 21
1145.057291962348
 31
0.0
  0
LINE
  5
11F2
330
1F
100
AcDbEntity
  8
AM_VIS
100
AcDbLine
 10
2570.23336480103
 20
1164.257291962348
 30
0.0
 11
2569.73336480103
 21
1164.757291962348
 31
0.0
  0
LINE
  5
11F3
330
1F
100
AcDbEntity
  8
AM_VIS
100
AcDbLine
 10
2570.23336480103
 20
1145.557291962348
 30
0.0
 11
2569.73336480103
 21
1145.057291962348
 31
0.0
  0
LINE
  5
11F4
330
1F
100
AcDbEntity
  8
AM_VIS
100
AcDbLine
 10
2570.23336480103
 20
1145.657291962348
 30
0.0
 11
2571.933364801031
 21
1145.657291962348
 31
0.0
  0
LINE
  5
11F5
330
1F
100
AcDbEntity
  8
AM_VIS
100
AcDbLine
 10
2570.23336480103
 20
1164.157291962347
 30
0.0
 11
2571.933364801031
 21
1164.157291962347
 31
0.0
  0
LINE
  5
11F6
330
1F
100
AcDbEntity
  8
AM_VIS
100
AcDbLine
 10
2572.233364801031
 20
1163.857291962347
 30
0.0
 11
2571.933364801031
 21
1164.157291962348
 31
0.0
  0
LINE
  5
11F7
330
1F
100
AcDbEntity
  8
AM_VIS
100
AcDbLine
 10
2572.233364801031
 20
1145.957291962348
 30
0.0
 11
2571.933364801031
 21
1145.657291962348
 31
0.0
  0
LINE
  5
11F8
330
1F
100
AcDbEntity
  8
AM_VIS
100
AcDbLine
 10
2548.23336480103
 20
1148.407291962348
 30
0.0
 11
2548.23336480103
 21
1161.407291962348
 31
0.0
  0
LINE
  5
11FA
330
1F
100
AcDbEntity
  8
AM_VIS
100
AcDbLine
 10
2560.23336480103
 20
1145.557291962348
 30
0.0
 11
2560.23336480103
 21
1164.257291962348
 31
0.0
  0
LINE
  5
11FD
330
1F
100
AcDbEntity
  8
AM_VIS
100
AcDbLine
 10
2570.23336480103
 20
1164.257291962348
 30
0.0
 11
2570.23336480103
 21
1145.557291962348
 31
0.0
  0
LINE
  5
11FF
330
1F
100
AcDbEntity
  8
AM_VIS
100
AcDbLine
 10
2572.233364801031
 20
1163.857291962347
 30
0.0
 11
2572.233364801031
 21
1145.957291962348
 31
0.0
  0
ARC
  5
1200
330
1F
100
AcDbEntity
  8
AM_VIS
100
AcDbCircle
 10
2549.73336480103
 20
1161.407291962348
 30
0.0
 40
1.5
100
AcDbArc
 50
90.0
 51
180.0
  0
ARC
  5
1201
330
1F
100
AcDbEntity
  8
AM_VIS
100
AcDbCircle
 10
2549.73336480103
 20
1148.407291962348
 30
0.0
 40
1.5
100
AcDbArc
 50
180.0
 51
270.0
  0
LINE
  5
1202
330
1F
100
AcDbEntity
  8
AM_VIS
100
AcDbLine
 10
2648.464203156159
 20
1116.789517092343
 30
0.0
 11
2648.464203156159
 21
1113.998014470214
 31
0.0
  0
LINE
  5
1203
330
1F
100
AcDbEntity
  8
AM_VIS
100
AcDbLine
 10
2648.464203156159
 20
1113.998014470214
 30
0.0
 11
2648.464203156159
 21
1108.998014470214
 31
0.0
  0
LINE
  5
1204
330
1F
100
AcDbEntity
  8
AM_VIS
100
AcDbLine
 10
2648.464203156159
 20
1108.998014470214
 30
0.0
 11
2648.464203156159
 21
1106.206511848085
 31
0.0
  0
LINE
  5
1205
330
1F
100
AcDbEntity
  8
AM_VIS
100
AcDbLine
 10
2660.464203156159
 20
1108.998014470214
 30
0.0
 11
2660.464203156159
 21
1106.206511848085
 31
0.0
  0
LINE
  5
1206
330
1F
100
AcDbEntity
  8
AM_VIS
100
AcDbLine
 10
2660.464203156159
 20
1108.998014470214
 30
0.0
 11
2660.464203156159
 21
1113.998014470214
 31
0.0
  0
LINE
  5
1207
330
1F
100
AcDbEntity
  8
AM_VIS
100
AcDbLine
 10
2660.464203156159
 20
1116.789517092343
 30
0.0
 11
2660.464203156159
 21
1113.998014470214
 31
0.0
  0
CIRCLE
  5
1209
330
1F
100
AcDbEntity
  8
AM_VIS
100
AcDbCircle
 10
2654.464203156158
 20
1111.498014470214
 30
0.0
 40
9.849999999999999
  0
ARC
  5
120A
330
1F
100
AcDbEntity
  8
AM_VIS
100
AcDbCircle
 10
2654.464203156158
 20
1111.498014470214
 30
0.0
 40
8.0
100
AcDbArc
 50
221.4096221092698
 51
318.5903778907302
  0
ARC
  5
120B
102
{ACAD_REACTORS
330
1710
102
}
330
1F
100
AcDbEntity
  8
AM_VIS
100
AcDbCircle
 10
2654.464203156158
 20
1111.498014470214
 30
0.0
 40
8.0
100
AcDbArc
 50
318.5903778907302
 51
41.40962210926974
  0
ARC
  5
120C
330
1F
100
AcDbEntity
  8
AM_VIS
100
AcDbCircle
 10
2654.464203156158
 20
1111.498014470214
 30
0.0
 40
8.0
100
AcDbArc
 50
41.40962210926974
 51
138.5903778907302
  0
ARC
  5
120D
102
{ACAD_REACTORS
330
1710
102
}
330
1F
100
AcDbEntity
  8
AM_VIS
100
AcDbCircle
 10
2654.464203156158
 20
1111.498014470214
 30
0.0
 40
8.0
100
AcDbArc
 50
138.5903778907302
 51
221.4096221092698
  0
SPLINE
  5
1217
330
1F
100
AcDbEntity
  8
AM_VIS
100
AcDbSpline
210
0.0000000000000012
220
0.0000000000000005
230
1.0
 70
    12
 71
     2
 72
     6
 73
     3
 74
     0
 42
0.0000000001
 43
0.0000000001
 40
12.03305397018539
 40
12.03305397018539
 40
12.03305397018539
 40
19.23260380521147
 40
19.23260380521147
 40
19.23260380521147
 10
2493.971678905643
 20
1121.024216090925
 30
-0.0000000000000142
 41
1.0
 10
2493.971678905643
 20
1119.550495532557
 30
-0.0000000000000213
 41
1.064512307437284
 10
2494.954159277891
 20
1117.848789610382
 30
-0.0000000000000142
 41
1.051827325887408
  0
SPLINE
  5
1218
330
1F
100
AcDbEntity
  8
AM_VIS
100
AcDbSpline
210
-0.0000000000000012
220
0.0000000000000005
230
1.0
 70
    12
 71
     2
 72
     6
 73
     3
 74
     0
 42
0.0000000001
 43
0.0000000001
 40
4.833504135159372
 40
4.833504135159372
 40
4.833504135159372
 40
12.03305397018539
 40
12.03305397018539
 40
12.03305397018539
 10
2494.954159277891
 20
1124.199642571468
 30
-0.0000000000000142
 41
1.051827325887405
 10
2493.971678905642
 20
1122.497936649294
 30
-0.0000000000000071
 41
1.064512307437281
 10
2493.971678905643
 20
1121.024216090925
 30
-0.0000000000000142
 41
1.0
  0
LINE
  5
1219
330
1F
100
AcDbEntity
  8
AM_VIS
100
AcDbLine
 10
2498.989198533395
 20
1124.199642571468
 30
0.0
 11
2494.95415927789
 21
1124.199642571468
 31
0.0
  0
SPLINE
  5
121A
330
1F
100
AcDbEntity
  8
AM_VIS
100
AcDbSpline
210
0.0000000000000264
220
0.0000000000000053
230
1.0
 70
    12
 71
     2
 72
     6
 73
     3
 74
     0
 42
0.0000000001
 43
0.0000000001
 40
12.03305397018537
 40
12.03305397018537
 40
12.03305397018537
 40
19.23260380521145
 40
19.23260380521145
 40
19.23260380521145
 10
2493.971678905643
 20
1111.497936649296
 30
-0.0000000000000142
 41
1.0
 10
2493.971678905644
 20
1108.55049553256
 30
-0.0000000000000142
 41
1.064512307437269
 10
2494.954159277891
 20
1105.147083688211
 30
-0.0000000000000071
 41
1.051827325887395
  0
SPLINE
  5
121B
330
1F
100
AcDbEntity
  8
AM_VIS
100
AcDbSpline
210
0.0
220
0.0
230
1.0
 70
    12
 71
     2
 72
     6
 73
     3
 74
     0
 42
0.0000000001
 43
0.0000000001
 40
4.833504135159346
 40
4.833504135159346
 40
4.833504135159346
 40
12.03305397018537
 40
12.03305397018537
 40
12.03305397018537
 10
2494.954159277889
 20
1117.848789610382
 30
-0.0000000000000142
 41
1.051827325887393
 10
2493.971678905643
 20
1114.445377766033
 30
-0.0000000000000071
 41
1.064512307437265
 10
2493.971678905643
 20
1111.497936649296
 30
-0.0000000000000142
 41
1.0
  0
LINE
  5
121C
330
1F
100
AcDbEntity
  8
AM_VIS
100
AcDbLine
 10
2498.989198533395
 20
1117.848789610382
 30
0.0
 11
2494.95415927789
 21
1117.848789610382
 31
0.0
  0
LINE
  5
121D
330
1F
100
AcDbEntity
  8
AM_VIS
100
AcDbLine
 10
2498.989198533395
 20
1098.796230727125
 30
0.0
 11
2494.95415927789
 21
1098.796230727125
 31
0.0
  0
SPLINE
  5
121E
330
1F
100
AcDbEntity
  8
AM_VIS
100
AcDbSpline
210
0.0
220
0.0
230
1.0
 70
    12
 71
     2
 72
     6
 73
     3
 74
     0
 42
0.0000000001
 43
0.0000000001
 40
12.03305397018536
 40
12.03305397018536
 40
12.03305397018536
 40
19.2326038052114
 40
19.2326038052114
 40
19.2326038052114
 10
2493.971678905643
 20
1101.971657207667
 30
-0.0000000000000142
 41
1.0
 10
2493.971678905644
 20
1100.497936649299
 30
-0.0000000000000142
 41
1.064512307437265
 10
2494.95415927789
 20
1098.796230727125
 30
-0.0000000000000142
 41
1.051827325887393
  0
SPLINE
  5
121F
330
1F
100
AcDbEntity
  8
AM_VIS
100
AcDbSpline
210
-0.0000000000000276
220
0.0000000000000111
230
-1.0
 70
    12
 71
     2
 72
     6
 73
     3
 74
     0
 42
0.0000000001
 43
0.0000000001
 40
4.833504135159288
 40
4.833504135159288
 40
4.833504135159288
 40
12.03305397018536
 40
12.03305397018536
 40
12.03305397018536
 10
2494.95415927789
 20
1105.14708368821
 30
-0.0000000000000071
 41
1.051827325887392
 10
2493.971678905643
 20
1103.445377766036
 30
-0.0000000000000213
 41
1.064512307437264
 10
2493.971678905643
 20
1101.971657207667
 30
-0.0000000000000142
 41
1.0
  0
LINE
  5
1220
330
1F
100
AcDbEntity
  8
AM_VIS
100
AcDbLine
 10
2498.989198533395
 20
1105.14708368821
 30
0.0
 11
2494.95415927789
 21
1105.14708368821
 31
0.0
  0
SPLINE
  5
1221
330
1F
100
AcDbEntity
  8
AM_VIS
100
AcDbSpline
210
-0.0000000000000012
220
0.0000000000000005
230
-1.0
 70
    12
 71
     2
 72
     6
 73
     3
 74
     0
 42
0.0000000001
 43
0.0000000001
 40
4.833504135159317
 40
4.833504135159317
 40
4.833504135159317
 40
12.03305397018539
 40
12.03305397018539
 40
12.03305397018539
 10
2498.989198533395
 20
1117.848789610382
 30
-0.0000000000000142
 41
1.051827325887406
 10
2499.971678905643
 20
1119.550495532556
 30
-0.0000000000000071
 41
1.064512307437283
 10
2499.971678905643
 20
1121.024216090925
 30
-0.0000000000000142
 41
1.0
  0
SPLINE
  5
1222
330
1F
100
AcDbEntity
  8
AM_VIS
100
AcDbSpline
210
0.0
220
0.0
230
1.0
 70
    12
 71
     2
 72
     6
 73
     3
 74
     0
 42
0.0000000001
 43
0.0000000001
 40
12.03305397018537
 40
12.03305397018537
 40
12.03305397018537
 40
19.23260380521139
 40
19.23260380521139
 40
19.23260380521139
 10
2499.971678905643
 20
1111.497936649296
 30
-0.0000000000000142
 41
1.0
 10
2499.971678905641
 20
1114.445377766033
 30
-0.0000000000000071
 41
1.064512307437267
 10
2498.989198533393
 20
1117.848789610382
 30
-0.0000000000000142
 41
1.051827325887394
  0
SPLINE
  5
1223
330
1F
100
AcDbEntity
  8
AM_VIS
100
AcDbSpline
210
0.0
220
0.0
230
1.0
 70
    12
 71
     2
 72
     6
 73
     3
 74
     0
 42
0.0000000001
 43
0.0000000001
 40
4.833504135159282
 40
4.833504135159282
 40
4.833504135159282
 40
12.03305397018537
 40
12.03305397018537
 40
12.03305397018537
 10
2498.989198533397
 20
1105.14708368821
 30
-0.0000000000000142
 41
1.051827325887394
 10
2499.971678905643
 20
1108.55049553256
 30
-0.0000000000000071
 41
1.064512307437267
 10
2499.971678905643
 20
1111.497936649296
 30
-0.0000000000000142
 41
1.0
  0
SPLINE
  5
1224
330
1F
100
AcDbEntity
  8
AM_VIS
100
AcDbSpline
210
-0.0000000000000276
220
-0.0000000000000111
230
1.0
 70
    12
 71
     2
 72
     6
 73
     3
 74
     0
 42
0.0000000001
 43
0.0000000001
 40
12.03305397018536
 40
12.03305397018536
 40
12.03305397018536
 40
19.23260380521143
 40
19.23260380521143
 40
19.23260380521143
 10
2499.971678905643
 20
1101.971657207667
 30
-0.0000000000000142
 41
1.0
 10
2499.971678905644
 20
1103.445377766036
 30
-0.0000000000000213
 41
1.064512307437262
 10
2498.989198533395
 20
1105.14708368821
 30
-0.0000000000000071
 41
1.05182732588739
  0
SPLINE
  5
1225
330
1F
100
AcDbEntity
  8
AM_VIS
100
AcDbSpline
210
0.000000000000054
220
-0.0000000000000218
230
1.0
 70
    12
 71
     2
 72
     6
 73
     3
 74
     0
 42
0.0000000001
 43
0.0000000001
 40
4.833504135159324
 40
4.833504135159324
 40
4.833504135159324
 40
12.03305397018536
 40
12.03305397018536
 40
12.03305397018536
 10
2498.989198533395
 20
1098.796230727125
 30
-0.0000000000000284
 41
1.051827325887392
 10
2499.971678905643
 20
1100.497936649299
 30
-0.0000000000000071
 41
1.064512307437264
 10
2499.971678905643
 20
1101.971657207667
 30
-0.0000000000000142
 41
1.0
  0
SPLINE
  5
1226
330
1F
100
AcDbEntity
  8
AM_VIS
100
AcDbSpline
210
0.0000000000000012
220
0.0000000000000005
230
1.0
 70
    12
 71
     2
 72
     6
 73
     3
 74
     0
 42
0.0000000001
 43
0.0000000001
 40
12.03305397018539
 40
12.03305397018539
 40
12.03305397018539
 40
19.23260380521141
 40
19.23260380521141
 40
19.23260380521141
 10
2499.971678905643
 20
1121.024216090925
 30
-0.0000000000000142
 41
1.0
 10
2499.971678905643
 20
1122.497936649294
 30
-0.0000000000000071
 41
1.064512307437283
 10
2498.989198533395
 20
1124.199642571468
 30
-0.0000000000000142
 41
1.051827325887408
  0
LINE
  5
1227
330
1F
100
AcDbEntity
  8
AM_VIS
100
AcDbLine
 10
2493.971678905643
 20
1100.497936649296
 30
0.0
 11
2494.95415927789
 21
1098.796230727125
 31
0.0
  0
LINE
  5
1228
330
1F
100
AcDbEntity
  8
AM_VIS
100
AcDbLine
 10
2493.971678905643
 20
1122.497936649296
 30
0.0
 11
2494.95415927789
 21
1124.199642571468
 31
0.0
  0
LINE
  5
1229
330
1F
100
AcDbEntity
  8
AM_VIS
100
AcDbLine
 10
2499.971678905643
 20
1100.497936649296
 30
0.0
 11
2498.989198533395
 21
1098.796230727125
 31
0.0
  0
LINE
  5
122A
330
1F
100
AcDbEntity
  8
AM_VIS
100
AcDbLine
 10
2499.971678905643
 20
1122.497936649296
 30
0.0
 11
2498.989198533395
 21
1124.199642571468
 31
0.0
  0
LINE
  5
122B
330
1F
100
AcDbEntity
  8
AM_VIS
100
AcDbLine
 10
2493.971678905643
 20
1122.497936649296
 30
0.0
 11
2493.971678905643
 21
1121.024216090925
 31
0.0
  0
LINE
  5
122C
330
1F
100
AcDbEntity
  8
AM_VIS
100
AcDbLine
 10
2493.971678905643
 20
1121.024216090925
 30
0.0
 11
2493.971678905643
 21
1111.497936649296
 31
0.0
  0
LINE
  5
122D
330
1F
100
AcDbEntity
  8
AM_VIS
100
AcDbLine
 10
2493.971678905643
 20
1111.497936649296
 30
0.0
 11
2493.971678905643
 21
1101.971657207667
 31
0.0
  0
LINE
  5
122E
330
1F
100
AcDbEntity
  8
AM_VIS
100
AcDbLine
 10
2493.971678905643
 20
1101.971657207667
 30
0.0
 11
2493.971678905643
 21
1100.497936649296
 31
0.0
  0
LINE
  5
122F
330
1F
100
AcDbEntity
  8
AM_VIS
100
AcDbLine
 10
2499.971678905643
 20
1121.024216090925
 30
0.0
 11
2499.971678905643
 21
1122.497936649296
 31
0.0
  0
LINE
  5
1230
330
1F
100
AcDbEntity
  8
AM_VIS
100
AcDbLine
 10
2499.971678905643
 20
1100.497936649296
 30
0.0
 11
2499.971678905643
 21
1101.971657207667
 31
0.0
  0
LINE
  5
1231
330
1F
100
AcDbEntity
  8
AM_VIS
100
AcDbLine
 10
2499.971678905643
 20
1101.971657207667
 30
0.0
 11
2499.971678905643
 21
1111.497936649296
 31
0.0
  0
LINE
  5
1232
330
1F
100
AcDbEntity
  8
AM_VIS
100
AcDbLine
 10
2499.971678905643
 20
1111.497936649296
 30
0.0
 11
2499.971678905643
 21
1121.024216090925
 31
0.0
  0
LINE
  5
1247
330
1F
100
AcDbEntity
  8
AM_VIS
100
AcDbLine
 10
2498.989198533395
 20
1165.907291962348
 30
0.0
 11
2494.95415927789
 21
1165.907291962348
 31
0.0
  0
SPLINE
  5
1248
330
1F
100
AcDbEntity
  8
AM_VIS
100
AcDbSpline
210
0.0
220
0.0
230
1.0
 70
    12
 71
     2
 72
     6
 73
     3
 74
     0
 42
0.0000000001
 43
0.0000000001
 40
12.03305397018542
 40
12.03305397018542
 40
12.03305397018542
 40
19.23260380521151
 40
19.23260380521151
 40
19.23260380521151
 10
2493.971678905643
 20
1160.407291962347
 30
0.0
 41
1.0
 10
2493.971678905642
 20
1157.854733079095
 30
0.0
 41
1.0645123074373
 10
2494.95415927789
 20
1154.907291962347
 30
0.0
 41
1.05182732588742
  0
LINE
  5
1249
330
1F
100
AcDbEntity
  8
AM_VIS
100
AcDbLine
 10
2493.971678905643
 20
1165.907291962348
 30
0.0
 11
2494.95415927789
 21
1165.907291962348
 31
0.0
  0
SPLINE
  5
124A
330
1F
100
AcDbEntity
  8
AM_VIS
100
AcDbSpline
210
0.0
220
0.0
230
1.0
 70
    12
 71
     2
 72
     6
 73
     3
 74
     0
 42
0.0000000001
 43
0.0000000001
 40
4.833504135159373
 40
4.833504135159373
 40
4.833504135159373
 40
12.03305397018542
 40
12.03305397018542
 40
12.03305397018542
 10
2494.95415927789
 20
1165.907291962348
 30
0.0
 41
1.05182732588742
 10
2493.971678905642
 20
1162.9598508456
 30
0.0
 41
1.064512307437299
 10
2493.971678905643
 20
1160.407291962347
 30
0.0
 41
1.0
  0
SPLINE
  5
124B
330
1F
100
AcDbEntity
  8
AM_VIS
100
AcDbSpline
210
0.0
220
0.0
230
1.0
 70
    12
 71
     2
 72
     6
 73
     3
 74
     0
 42
0.0000000001
 43
0.0000000001
 40
12.03305397018539
 40
12.03305397018539
 40
12.03305397018539
 40
19.23260380521147
 40
19.23260380521147
 40
19.23260380521147
 10
2493.971678905643
 20
1149.407291962347
 30
0.0
 41
1.0
 10
2493.971678905643
 20
1146.854733079095
 30
0.0
 41
1.064512307437284
 10
2494.954159277891
 20
1143.907291962348
 30
0.0
 41
1.051827325887408
  0
SPLINE
  5
124C
330
1F
100
AcDbEntity
  8
AM_VIS
100
AcDbSpline
210
0.0
220
0.0
230
1.0
 70
    12
 71
     2
 72
     6
 73
     3
 74
     0
 42
0.0000000001
 43
0.0000000001
 40
4.833504135159372
 40
4.833504135159372
 40
4.833504135159372
 40
12.03305397018539
 40
12.03305397018539
 40
12.03305397018539
 10
2494.954159277891
 20
1154.907291962348
 30
0.0
 41
1.051827325887405
 10
2493.971678905642
 20
1151.9598508456
 30
0.0
 41
1.064512307437281
 10
2493.971678905643
 20
1149.407291962347
 30
0.0
 41
1.0
  0
LINE
  5
124D
330
1F
100
AcDbEntity
  8
AM_VIS
100
AcDbLine
 10
2498.989198533395
 20
1154.907291962347
 30
0.0
 11
2494.95415927789
 21
1154.907291962347
 31
0.0
  0
LINE
  5
124E
330
1F
100
AcDbEntity
  8
AM_VIS
100
AcDbLine
 10
2493.971678905643
 20
1143.907291962348
 30
0.0
 11
2494.95415927789
 21
1143.907291962348
 31
0.0
  0
LINE
  5
124F
330
1F
100
AcDbEntity
  8
AM_VIS
100
AcDbLine
 10
2498.989198533395
 20
1143.907291962348
 30
0.0
 11
2494.95415927789
 21
1143.907291962348
 31
0.0
  0
SPLINE
  5
1250
330
1F
100
AcDbEntity
  8
AM_VIS
100
AcDbSpline
210
0.0
220
0.0
230
1.0
 70
    12
 71
     2
 72
     6
 73
     3
 74
     0
 42
0.0000000001
 43
0.0000000001
 40
4.833504135159317
 40
4.833504135159317
 40
4.833504135159317
 40
12.03305397018539
 40
12.03305397018539
 40
12.03305397018539
 10
2498.989198533395
 20
1143.907291962348
 30
0.0
 41
1.051827325887406
 10
2499.971678905643
 20
1146.854733079094
 30
0.0
 41
1.064512307437283
 10
2499.971678905643
 20
1149.407291962347
 30
0.0
 41
1.0
  0
LINE
  5
1251
330
1F
100
AcDbEntity
  8
AM_VIS
100
AcDbLine
 10
2498.989198533395
 20
1143.907291962348
 30
0.0
 11
2499.971678905643
 21
1143.907291962348
 31
0.0
  0
SPLINE
  5
1252
330
1F
100
AcDbEntity
  8
AM_VIS
100
AcDbSpline
210
-0.0000000000000264
220
-0.0000000000000061
230
-1.0
 70
    12
 71
     2
 72
     6
 73
     3
 74
     0
 42
0.0000000001
 43
0.0000000001
 40
12.03305397018542
 40
12.03305397018542
 40
12.03305397018542
 40
19.23260380521147
 40
19.23260380521147
 40
19.23260380521147
 10
2499.971678905643
 20
1160.407291962347
 30
0.0
 41
1.0
 10
2499.971678905643
 20
1162.959850845601
 30
0.0
 41
1.064512307437302
 10
2498.989198533394
 20
1165.907291962346
 30
-0.0000000000000071
 41
1.051827325887422
  0
LINE
  5
1253
330
1F
100
AcDbEntity
  8
AM_VIS
100
AcDbLine
 10
2498.989198533395
 20
1165.907291962348
 30
0.0
 11
2499.971678905643
 21
1165.907291962348
 31
0.0
  0
SPLINE
  5
1254
330
1F
100
AcDbEntity
  8
AM_VIS
100
AcDbSpline
210
0.0
220
0.0
230
1.0
 70
    12
 71
     2
 72
     6
 73
     3
 74
     0
 42
0.0000000001
 43
0.0000000001
 40
12.03305397018539
 40
12.03305397018539
 40
12.03305397018539
 40
19.23260380521141
 40
19.23260380521141
 40
19.23260380521141
 10
2499.971678905643
 20
1149.407291962347
 30
0.0
 41
1.0
 10
2499.971678905643
 20
1151.9598508456
 30
0.0
 41
1.064512307437283
 10
2498.989198533395
 20
1154.907291962348
 30
0.0
 41
1.051827325887408
  0
SPLINE
  5
1255
330
1F
100
AcDbEntity
  8
AM_VIS
100
AcDbSpline
210
0.0
220
0.0
230
1.0
 70
    12
 71
     2
 72
     6
 73
     3
 74
     0
 42
0.0000000001
 43
0.0000000001
 40
4.833504135159331
 40
4.833504135159331
 40
4.833504135159331
 40
12.03305397018542
 40
12.03305397018542
 40
12.03305397018542
 10
2498.989198533394
 20
1154.907291962346
 30
0.0
 41
1.051827325887422
 10
2499.971678905644
 20
1157.854733079095
 30
0.0
 41
1.064512307437302
 10
2499.971678905643
 20
1160.407291962347
 30
0.0
 41
1.0
  0
LINE
  5
1256
330
1F
100
AcDbEntity
  8
AM_VIS
100
AcDbLine
 10
2493.971678905643
 20
1165.907291962348
 30
0.0
 11
2493.971678905643
 21
1160.407291962347
 31
0.0
  0
LINE
  5
1257
330
1F
100
AcDbEntity
  8
AM_VIS
100
AcDbLine
 10
2493.971678905643
 20
1160.407291962347
 30
0.0
 11
2493.971678905643
 21
1149.407291962347
 31
0.0
  0
LINE
  5
1258
330
1F
100
AcDbEntity
  8
AM_VIS
100
AcDbLine
 10
2493.971678905643
 20
1149.407291962347
 30
0.0
 11
2493.971678905643
 21
1143.907291962348
 31
0.0
  0
LINE
  5
1259
330
1F
100
AcDbEntity
  8
AM_VIS
100
AcDbLine
 10
2499.971678905643
 20
1149.407291962347
 30
0.0
 11
2499.971678905643
 21
1160.407291962347
 31
0.0
  0
LINE
  5
125A
330
1F
100
AcDbEntity
  8
AM_VIS
100
AcDbLine
 10
2499.971678905643
 20
1160.407291962347
 30
0.0
 11
2499.971678905643
 21
1165.907291962348
 31
0.0
  0
LINE
  5
125B
330
1F
100
AcDbEntity
  8
AM_VIS
100
AcDbLine
 10
2499.971678905643
 20
1143.907291962348
 30
0.0
 11
2499.971678905643
 21
1149.407291962347
 31
0.0
  0
LINE
  5
125C
330
1F
100
AcDbEntity
  8
AM_VIS
100
AcDbLine
 10
2485.143793438487
 20
1105.724511778315
 30
0.0
 11
2481.036957413258
 21
1105.724511778315
 31
0.0
  0
SPLINE
  5
125D
330
1F
100
AcDbEntity
  8
AM_VIS
100
AcDbSpline
210
0.0
220
0.0
230
1.0
 70
    12
 71
     2
 72
     6
 73
     3
 74
     0
 42
0.0000000001
 43
0.0000000001
 40
9.18663919555245
 40
9.18663919555245
 40
9.18663919555245
 40
12.99186974297852
 40
12.99186974297852
 40
12.99186974297852
 10
2480.590375425873
 20
1107.167887451289
 30
0.0
 41
1.0
 10
2480.590375425873
 20
1106.498014470212
 30
0.0
 41
1.093092373804185
 10
2481.036957413258
 20
1105.724511778315
 30
0.0
 41
1.109064500041972
  0
SPLINE
  5
125E
330
1F
100
AcDbEntity
  8
AM_VIS
100
AcDbSpline
210
0.0000000000000145
220
-0.0000000000000059
230
-1.0
 70
    12
 71
     2
 72
     6
 73
     3
 74
     0
 42
0.0000000001
 43
0.0000000001
 40
5.381408648126323
 40
5.381408648126323
 40
5.381408648126323
 40
9.18663919555245
 40
9.18663919555245
 40
9.18663919555245
 10
2481.036957413257
 20
1108.611263124263
 30
-0.0000000000000018
 41
1.109064500041975
 10
2480.590375425873
 20
1107.837760432367
 30
0.0
 41
1.093092373804188
 10
2480.590375425873
 20
1107.167887451289
 30
0.0
 41
1.0
  0
SPLINE
  5
125F
330
1F
100
AcDbEntity
  8
AM_VIS
100
AcDbSpline
210
0.0
220
0.0
230
1.0
 70
    12
 71
     2
 72
     6
 73
     3
 74
     0
 42
0.0000000001
 43
0.0000000001
 40
9.186639195552443
 40
9.186639195552443
 40
9.186639195552443
 40
12.99186974297857
 40
12.99186974297857
 40
12.99186974297857
 10
2480.590375425873
 20
1115.828141489134
 30
0.0
 41
1.0
 10
2480.590375425872
 20
1115.158268508056
 30
-0.0000000000000018
 41
1.09309237380418
 10
2481.036957413258
 20
1114.384765816159
 30
0.0
 41
1.109064500041965
  0
SPLINE
  5
1260
330
1F
100
AcDbEntity
  8
AM_VIS
100
AcDbSpline
210
0.0
220
0.0
230
1.0
 70
    12
 71
     2
 72
     6
 73
     3
 74
     0
 42
0.0000000001
 43
0.0000000001
 40
5.381408648126358
 40
5.381408648126358
 40
5.381408648126358
 40
9.186639195552443
 40
9.186639195552443
 40
9.186639195552443
 10
2481.036957413258
 20
1117.271517162108
 30
0.0
 41
1.109064500041963
 10
2480.590375425873
 20
1116.498014470211
 30
0.0
 41
1.093092373804178
 10
2480.590375425873
 20
1115.828141489134
 30
0.0
 41
1.0
  0
LINE
  5
1261
330
1F
100
AcDbEntity
  8
AM_VIS
100
AcDbLine
 10
2485.143793438487
 20
1117.271517162108
 30
0.0
 11
2481.036957413258
 21
1117.271517162108
 31
0.0
  0
LINE
  5
1262
330
1F
100
AcDbEntity
  8
AM_VIS
100
AcDbLine
 10
2485.143793438487
 20
1108.611263124263
 30
0.0
 11
2481.036957413258
 21
1108.611263124263
 31
0.0
  0
SPLINE
  5
1263
330
1F
100
AcDbEntity
  8
AM_VIS
100
AcDbSpline
210
0.0
220
0.0
230
1.0
 70
    12
 71
     2
 72
     6
 73
     3
 74
     0
 42
0.0000000001
 43
0.0000000001
 40
9.186639195552441
 40
9.186639195552441
 40
9.186639195552441
 40
12.99186974297854
 40
12.99186974297854
 40
12.99186974297854
 10
2480.590375425873
 20
1111.498014470212
 30
0.0
 41
1.0
 10
2480.590375425874
 20
1110.158268508056
 30
0.0
 41
1.093092373804174
 10
2481.036957413258
 20
1108.611263124263
 30
0.0
 41
1.109064500041958
  0
SPLINE
  5
1264
330
1F
100
AcDbEntity
  8
AM_VIS
100
AcDbSpline
210
0.0
220
0.0
230
1.0
 70
    12
 71
     2
 72
     6
 73
     3
 74
     0
 42
0.0000000001
 43
0.0000000001
 40
5.381408648126322
 40
5.381408648126322
 40
5.381408648126322
 40
9.186639195552441
 40
9.186639195552441
 40
9.186639195552441
 10
2481.036957413258
 20
1114.38476581616
 30
0.0
 41
1.109064500041961
 10
2480.590375425873
 20
1112.837760432367
 30
0.0
 41
1.093092373804177
 10
2480.590375425873
 20
1111.498014470212
 30
0.0
 41
1.0
  0
LINE
  5
1265
330
1F
100
AcDbEntity
  8
AM_VIS
100
AcDbLine
 10
2485.143793438487
 20
1114.38476581616
 30
0.0
 11
2481.036957413258
 21
1114.38476581616
 31
0.0
  0
SPLINE
  5
1266
330
1F
100
AcDbEntity
  8
AM_VIS
100
AcDbSpline
210
0.0
220
0.0
230
1.0
 70
    12
 71
     2
 72
     6
 73
     3
 74
     0
 42
0.0000000001
 43
0.0000000001
 40
9.186639195552448
 40
9.186639195552448
 40
9.186639195552448
 40
12.99186974297853
 40
12.99186974297853
 40
12.99186974297853
 10
2485.590375425873
 20
1115.828141489134
 30
0.0
 41
1.0
 10
2485.590375425873
 20
1116.498014470211
 30
-0.0000000000000018
 41
1.093092373804177
 10
2485.143793438487
 20
1117.271517162108
 30
0.0
 41
1.109064500041962
  0
SPLINE
  5
1267
330
1F
100
AcDbEntity
  8
AM_VIS
100
AcDbSpline
210
0.0
220
0.0
230
1.0
 70
    12
 71
     2
 72
     6
 73
     3
 74
     0
 42
0.0000000001
 43
0.0000000001
 40
5.381408648126319
 40
5.381408648126319
 40
5.381408648126319
 40
9.186639195552448
 40
9.186639195552448
 40
9.186639195552448
 10
2485.143793438487
 20
1114.38476581616
 30
0.0
 41
1.109064500041962
 10
2485.590375425872
 20
1115.158268508056
 30
0.0
 41
1.093092373804178
 10
2485.590375425873
 20
1115.828141489134
 30
0.0
 41
1.0
  0
SPLINE
  5
1268
330
1F
100
AcDbEntity
  8
AM_VIS
100
AcDbSpline
210
0.0
220
0.0
230
1.0
 70
    12
 71
     2
 72
     6
 73
     3
 74
     0
 42
0.0000000001
 43
0.0000000001
 40
9.186639195552441
 40
9.186639195552441
 40
9.186639195552441
 40
12.99186974297856
 40
12.99186974297856
 40
12.99186974297856
 10
2485.590375425873
 20
1111.498014470212
 30
0.0
 41
1.0
 10
2485.590375425872
 20
1112.837760432367
 30
0.0
 41
1.093092373804175
 10
2485.143793438487
 20
1114.38476581616
 30
0.0
 41
1.109064500041959
  0
SPLINE
  5
1269
330
1F
100
AcDbEntity
  8
AM_VIS
100
AcDbSpline
210
0.0
220
0.0
230
1.0
 70
    12
 71
     2
 72
     6
 73
     3
 74
     0
 42
0.0000000001
 43
0.0000000001
 40
5.381408648126334
 40
5.381408648126334
 40
5.381408648126334
 40
9.186639195552441
 40
9.186639195552441
 40
9.186639195552441
 10
2485.143793438487
 20
1108.611263124263
 30
0.0
 41
1.109064500041961
 10
2485.590375425873
 20
1110.158268508055
 30
0.0
 41
1.093092373804176
 10
2485.590375425873
 20
1111.498014470212
 30
0.0
 41
1.0
  0
SPLINE
  5
126A
330
1F
100
AcDbEntity
  8
AM_VIS
100
AcDbSpline
210
0.0
220
0.0
230
1.0
 70
    12
 71
     2
 72
     6
 73
     3
 74
     0
 42
0.0000000001
 43
0.0000000001
 40
9.186639195552452
 40
9.186639195552452
 40
9.186639195552452
 40
12.99186974297858
 40
12.99186974297858
 40
12.99186974297858
 10
2485.590375425873
 20
1107.167887451289
 30
0.0
 41
1.0
 10
2485.590375425874
 20
1107.837760432367
 30
0.0
 41
1.093092373804185
 10
2485.143793438486
 20
1108.611263124263
 30
0.0
 41
1.10906450004197
  0
SPLINE
  5
126B
330
1F
100
AcDbEntity
  8
AM_VIS
100
AcDbSpline
210
0.0
220
0.0
230
1.0
 70
    12
 71
     2
 72
     6
 73
     3
 74
     0
 42
0.0000000001
 43
0.0000000001
 40
5.381408648126378
 40
5.381408648126378
 40
5.381408648126378
 40
9.186639195552452
 40
9.186639195552452
 40
9.186639195552452
 10
2485.143793438487
 20
1105.724511778315
 30
0.0
 41
1.10906450004197
 10
2485.590375425873
 20
1106.498014470211
 30
0.0
 41
1.093092373804184
 10
2485.590375425873
 20
1107.167887451289
 30
0.0
 41
1.0
  0
LINE
  5
126C
330
1F
100
AcDbEntity
  8
AM_VIS
100
AcDbLine
 10
2480.590375425873
 20
1106.498014470211
 30
0.0
 11
2481.036957413258
 21
1105.724511778315
 31
0.0
  0
LINE
  5
126D
330
1F
100
AcDbEntity
  8
AM_VIS
100
AcDbLine
 10
2480.590375425873
 20
1116.498014470211
 30
0.0
 11
2481.036957413258
 21
1117.271517162108
 31
0.0
  0
LINE
  5
126E
330
1F
100
AcDbEntity
  8
AM_VIS
100
AcDbLine
 10
2485.590375425873
 20
1116.498014470211
 30
0.0
 11
2485.143793438487
 21
1117.271517162108
 31
0.0
  0
LINE
  5
126F
330
1F
100
AcDbEntity
  8
AM_VIS
100
AcDbLine
 10
2485.590375425873
 20
1106.498014470211
 30
0.0
 11
2485.143793438487
 21
1105.724511778315
 31
0.0
  0
LINE
  5
1270
330
1F
100
AcDbEntity
  8
AM_VIS
100
AcDbLine
 10
2480.590375425873
 20
1116.498014470211
 30
0.0
 11
2480.590375425873
 21
1115.828141489134
 31
0.0
  0
LINE
  5
1271
330
1F
100
AcDbEntity
  8
AM_VIS
100
AcDbLine
 10
2480.590375425873
 20
1115.828141489134
 30
0.0
 11
2480.590375425873
 21
1111.498014470212
 31
0.0
  0
LINE
  5
1272
330
1F
100
AcDbEntity
  8
AM_VIS
100
AcDbLine
 10
2480.590375425873
 20
1111.498014470212
 30
0.0
 11
2480.590375425873
 21
1107.167887451289
 31
0.0
  0
LINE
  5
1273
330
1F
100
AcDbEntity
  8
AM_VIS
100
AcDbLine
 10
2480.590375425873
 20
1107.167887451289
 30
0.0
 11
2480.590375425873
 21
1106.498014470211
 31
0.0
  0
LINE
  5
1274
330
1F
100
AcDbEntity
  8
AM_VIS
100
AcDbLine
 10
2485.590375425873
 20
1106.498014470211
 30
0.0
 11
2485.590375425873
 21
1107.167887451289
 31
0.0
  0
LINE
  5
1275
330
1F
100
AcDbEntity
  8
AM_VIS
100
AcDbLine
 10
2485.590375425873
 20
1107.167887451289
 30
0.0
 11
2485.590375425873
 21
1111.498014470212
 31
0.0
  0
LINE
  5
1276
330
1F
100
AcDbEntity
  8
AM_VIS
100
AcDbLine
 10
2485.590375425873
 20
1111.498014470212
 30
0.0
 11
2485.590375425873
 21
1115.828141489134
 31
0.0
  0
LINE
  5
1277
330
1F
100
AcDbEntity
  8
AM_VIS
100
AcDbLine
 10
2485.590375425873
 20
1115.828141489134
 30
0.0
 11
2485.590375425873
 21
1116.498014470211
 31
0.0
  0
LINE
  5
1278
330
1F
100
AcDbEntity
  8
AM_VIS
100
AcDbLine
 10
2480.590375425873
 20
1159.907291962348
 30
0.0
 11
2481.036957413258
 21
1159.907291962348
 31
0.0
  0
SPLINE
  5
1279
330
1F
100
AcDbEntity
  8
AM_VIS
100
AcDbSpline
210
0.0
220
0.0
230
1.0
 70
    12
 71
     2
 72
     6
 73
     3
 74
     0
 42
0.0000000001
 43
0.0000000001
 40
9.186639195552455
 40
9.186639195552455
 40
9.186639195552455
 40
12.99186974297857
 40
12.99186974297857
 40
12.99186974297857
 10
2480.590375425873
 20
1157.407291962347
 30
0.0
 41
1.0
 10
2480.590375425873
 20
1156.247037924503
 30
0.0
 41
1.09309237380419
 10
2481.036957413257
 20
1154.907291962347
 30
0.0
 41
1.109064500041976
  0
SPLINE
  5
127A
330
1F
100
AcDbEntity
  8
AM_VIS
100
AcDbSpline
210
0.0
220
0.0
230
1.0
 70
    12
 71
     2
 72
     6
 73
     3
 74
     0
 42
0.0000000001
 43
0.0000000001
 40
5.381408648126365
 40
5.381408648126365
 40
5.381408648126365
 40
9.186639195552455
 40
9.186639195552455
 40
9.186639195552455
 10
2481.036957413259
 20
1159.907291962348
 30
0.0
 41
1.109064500041975
 10
2480.590375425873
 20
1158.567546000192
 30
0.0
 41
1.093092373804188
 10
2480.590375425873
 20
1157.407291962347
 30
0.0
 41
1.0
  0
LINE
  5
127B
330
1F
100
AcDbEntity
  8
AM_VIS
100
AcDbLine
 10
2485.143793438487
 20
1159.907291962348
 30
0.0
 11
2481.036957413258
 21
1159.907291962348
 31
0.0
  0
SPLINE
  5
127C
330
1F
100
AcDbEntity
  8
AM_VIS
100
AcDbSpline
210
0.0
220
0.0
230
1.0
 70
    12
 71
     2
 72
     6
 73
     3
 74
     0
 42
0.0000000001
 43
0.0000000001
 40
9.186639195552443
 40
9.186639195552443
 40
9.186639195552443
 40
12.99186974297857
 40
12.99186974297857
 40
12.99186974297857
 10
2480.590375425873
 20
1152.407291962347
 30
0.0
 41
1.0
 10
2480.590375425872
 20
1151.247037924503
 30
0.0
 41
1.09309237380418
 10
2481.036957413258
 20
1149.907291962347
 30
0.0
 41
1.109064500041965
  0
SPLINE
  5
127D
330
1F
100
AcDbEntity
  8
AM_VIS
100
AcDbSpline
210
0.0000000000001162
220
-0.000000000000027
230
1.0
 70
    12
 71
     2
 72
     6
 73
     3
 74
     0
 42
0.0000000001
 43
0.0000000001
 40
5.381408648126358
 40
5.381408648126358
 40
5.381408648126358
 40
9.186639195552443
 40
9.186639195552443
 40
9.186639195552443
 10
2481.036957413258
 20
1154.907291962347
 30
0.0000000000000142
 41
1.109064500041963
 10
2480.590375425873
 20
1153.567546000192
 30
0.0
 41
1.093092373804178
 10
2480.590375425873
 20
1152.407291962347
 30
0.0
 41
1.0
  0
LINE
  5
127E
330
1F
100
AcDbEntity
  8
AM_VIS
100
AcDbLine
 10
2485.143793438487
 20
1154.907291962347
 30
0.0
 11
2481.036957413258
 21
1154.907291962347
 31
0.0
  0
LINE
  5
127F
330
1F
100
AcDbEntity
  8
AM_VIS
100
AcDbLine
 10
2480.590375425873
 20
1149.907291962348
 30
0.0
 11
2481.036957413258
 21
1149.907291962348
 31
0.0
  0
LINE
  5
1280
330
1F
100
AcDbEntity
  8
AM_VIS
100
AcDbLine
 10
2485.143793438487
 20
1149.907291962348
 30
0.0
 11
2481.036957413258
 21
1149.907291962348
 31
0.0
  0
SPLINE
  5
1281
330
1F
100
AcDbEntity
  8
AM_VIS
100
AcDbSpline
210
0.0
220
0.0
230
1.0
 70
    12
 71
     2
 72
     6
 73
     3
 74
     0
 42
0.0000000001
 43
0.0000000001
 40
5.381408648126345
 40
5.381408648126345
 40
5.381408648126345
 40
9.186639195552459
 40
9.186639195552459
 40
9.186639195552459
 10
2485.143793438486
 20
1154.907291962347
 30
0.0
 41
1.109064500041973
 10
2485.59037542587
 20
1156.247037924503
 30
0.0
 41
1.093092373804187
 10
2485.590375425873
 20
1157.407291962347
 30
0.0
 41
1.0
  0
SPLINE
  5
1282
330
1F
100
AcDbEntity
  8
AM_VIS
100
AcDbSpline
210
0.0
220
0.0
230
1.0
 70
    12
 71
     2
 72
     6
 73
     3
 74
     0
 42
0.0000000001
 43
0.0000000001
 40
9.186639195552448
 40
9.186639195552448
 40
9.186639195552448
 40
12.99186974297853
 40
12.99186974297853
 40
12.99186974297853
 10
2485.590375425873
 20
1152.407291962347
 30
0.0
 41
1.0
 10
2485.590375425873
 20
1153.567546000191
 30
0.0
 41
1.093092373804177
 10
2485.143793438487
 20
1154.907291962347
 30
0.0
 41
1.109064500041962
  0
SPLINE
  5
1283
330
1F
100
AcDbEntity
  8
AM_VIS
100
AcDbSpline
210
0.0
220
0.0
230
1.0
 70
    12
 71
     2
 72
     6
 73
     3
 74
     0
 42
0.0000000001
 43
0.0000000001
 40
5.381408648126319
 40
5.381408648126319
 40
5.381408648126319
 40
9.186639195552448
 40
9.186639195552448
 40
9.186639195552448
 10
2485.143793438487
 20
1149.907291962348
 30
0.0
 41
1.109064500041962
 10
2485.590375425872
 20
1151.247037924503
 30
0.0
 41
1.093092373804178
 10
2485.590375425873
 20
1152.407291962347
 30
0.0
 41
1.0
  0
LINE
  5
1284
330
1F
100
AcDbEntity
  8
AM_VIS
100
AcDbLine
 10
2485.143793438487
 20
1149.907291962348
 30
0.0
 11
2485.590375425873
 21
1149.907291962348
 31
0.0
  0
SPLINE
  5
1285
330
1F
100
AcDbEntity
  8
AM_VIS
100
AcDbSpline
210
-0.0000000000001162
220
-0.000000000000027
230
1.0
 70
    12
 71
     2
 72
     6
 73
     3
 74
     0
 42
0.0000000001
 43
0.0000000001
 40
9.186639195552459
 40
9.186639195552459
 40
9.186639195552459
 40
12.99186974297855
 40
12.99186974297855
 40
12.99186974297855
 10
2485.590375425873
 20
1157.407291962347
 30
0.0
 41
1.0
 10
2485.590375425873
 20
1158.567546000192
 30
0.0
 41
1.093092373804187
 10
2485.143793438486
 20
1159.907291962348
 30
0.0000000000000142
 41
1.109064500041974
  0
LINE
  5
1286
330
1F
100
AcDbEntity
  8
AM_VIS
100
AcDbLine
 10
2485.143793438487
 20
1159.907291962348
 30
0.0
 11
2485.590375425873
 21
1159.907291962348
 31
0.0
  0
LINE
  5
1287
330
1F
100
AcDbEntity
  8
AM_VIS
100
AcDbLine
 10
2480.590375425873
 20
1159.907291962348
 30
0.0
 11
2480.590375425873
 21
1157.407291962347
 31
0.0
  0
LINE
  5
1288
330
1F
100
AcDbEntity
  8
AM_VIS
100
AcDbLine
 10
2480.590375425873
 20
1157.407291962347
 30
0.0
 11
2480.590375425873
 21
1152.407291962347
 31
0.0
  0
LINE
  5
1289
330
1F
100
AcDbEntity
  8
AM_VIS
100
AcDbLine
 10
2480.590375425873
 20
1152.407291962347
 30
0.0
 11
2480.590375425873
 21
1149.907291962348
 31
0.0
  0
LINE
  5
128A
330
1F
100
AcDbEntity
  8
AM_VIS
100
AcDbLine
 10
2485.590375425873
 20
1157.407291962347
 30
0.0
 11
2485.590375425873
 21
1159.907291962348
 31
0.0
  0
LINE
  5
128B
330
1F
100
AcDbEntity
  8
AM_VIS
100
AcDbLine
 10
2485.590375425873
 20
1149.907291962348
 30
0.0
 11
2485.590375425873
 21
1152.407291962347
 31
0.0
  0
LINE
  5
128C
330
1F
100
AcDbEntity
  8
AM_VIS
100
AcDbLine
 10
2485.590375425873
 20
1152.407291962347
 30
0.0
 11
2485.590375425873
 21
1157.407291962347
 31
0.0
  0
ARC
  5
130E
330
1F
100
AcDbEntity
  8
AM_4
100
AcDbCircle
 10
2565.233364801031
 20
1154.907291962348
 30
0.0
 40
2.5
100
AcDbArc
 50
260.0
 51
170.0
  0
CIRCLE
  5
130F
330
1F
100
AcDbEntity
  8
AM_0
100
AcDbCircle
 10
2565.233364801031
 20
1154.907291962348
 30
0.0
 40
2.066987298107819
  0
ARC
  5
1312
330
1F
100
AcDbEntity
  8
AM_4
100
AcDbCircle
 10
2609.23336480103
 20
1154.907291962348
 30
0.0
 40
2.5
100
AcDbArc
 50
260.0
 51
170.0
  0
CIRCLE
  5
1313
330
1F
100
AcDbEntity
  8
AM_0
100
AcDbCircle
 10
2609.23336480103
 20
1154.907291962348
 30
0.0
 40
2.066987298107819
  0
LINE
  5
1321
330
1F
100
AcDbEntity
  8
AM_7
  6
AM_ISO08W050x2
100
AcDbLine
 10
2565.233364801031
 20
1154.907291962348
 30
0.0
 11
2571.483364801031
 21
1154.907291962348
 31
0.0
1001
GENIUS_GENOREF_13
1005
1325
  0
LINE
  5
1322
330
1F
100
AcDbEntity
  8
AM_7
  6
AM_ISO08W050x2
100
AcDbLine
 10
2565.233364801031
 20
1154.907291962348
 30
0.0
 11
2565.233364801031
 21
1161.157291962348
 31
0.0
1001
GENIUS_GENOREF_13
1005
1325
  0
LINE
  5
1323
330
1F
100
AcDbEntity
  8
AM_7
  6
AM_ISO08W050x2
100
AcDbLine
 10
2565.233364801031
 20
1154.907291962348
 30
0.0
 11
2558.983364801031
 21
1154.907291962348
 31
0.0
1001
GENIUS_GENOREF_13
1005
1325
  0
LINE
  5
1324
330
1F
100
AcDbEntity
  8
AM_7
  6
AM_ISO08W050x2
100
AcDbLine
 10
2565.233364801031
 20
1154.907291962348
 30
0.0
 11
2565.233364801031
 21
1148.657291962348
 31
0.0
1001
GENIUS_GENOREF_13
1005
1325
  0
POINT
  5
1325
330
1F
100
AcDbEntity
  8
0
 60
     1
100
AcDbPoint
 10
0.0
 20
0.0
 30
0.0
1001
GENIUS_GENOLIS_13
1002
{
1000
ENT
1005
1324
1005
1323
1005
1322
1005
1321
1002
}
1001
GENIUS_GENOENT_13
1002
{
1000
MYREF
1005
1325
1002
}
1002
{
1000
GRP
1005
0
1002
}
1001
GENIUS_GENOBJ-N-CRS_13
1002
{
1000
OWNER
1000
GEN
1002
}
1001
GENIUS_GENODEF_13
1002
{
1000
HIER
1070
    10
1002
}
1002
{
1000
MANEDIT
1070
     0
1002
}
1002
{
1000
NOSEL
1070
     0
1002
}
1002
{
1000
BEHIND
1070
     0
1002
}
1002
{
1000
OTHER
1070
     0
1002
}
1002
{
1000
REACTOR
1002
}
  0
LINE
  5
1333
330
1F
100
AcDbEntity
  8
AM_7
  6
AM_ISO08W050x2
100
AcDbLine
 10
2609.23336480103
 20
1154.907291962348
 30
0.0
 11
2615.48336480103
 21
1154.907291962348
 31
0.0
1001
GENIUS_GENOREF_13
1005
1337
  0
LINE
  5
1334
330
1F
100
AcDbEntity
  8
AM_7
  6
AM_ISO08W050x2
100
AcDbLine
 10
2609.23336480103
 20
1154.907291962348
 30
0.0
 11
2609.23336480103
 21
1161.157291962348
 31
0.0
1001
GENIUS_GENOREF_13
1005
1337
  0
LINE
  5
1335
330
1F
100
AcDbEntity
  8
AM_7
  6
AM_ISO08W050x2
100
AcDbLine
 10
2609.23336480103
 20
1154.907291962348
 30
0.0
 11
2602.98336480103
 21
1154.907291962348
 31
0.0
1001
GENIUS_GENOREF_13
1005
1337
  0
LINE
  5
1336
330
1F
100
AcDbEntity
  8
AM_7
  6
AM_ISO08W050x2
100
AcDbLine
 10
2609.23336480103
 20
1154.907291962348
 30
0.0
 11
2609.23336480103
 21
1148.657291962348
 31
0.0
1001
GENIUS_GENOREF_13
1005
1337
  0
POINT
  5
1337
330
1F
100
AcDbEntity
  8
0
 60
     1
100
AcDbPoint
 10
0.0
 20
0.0
 30
0.0
1001
GENIUS_GENODEF_13
1002
{
1000
HIER
1070
    10
1002
}
1002
{
1000
MANEDIT
1070
     0
1002
}
1002
{
1000
NOSEL
1070
     0
1002
}
1002
{
1000
BEHIND
1070
     0
1002
}
1002
{
1000
OTHER
1070
     0
1002
}
1002
{
1000
REACTOR
1002
}
1001
GENIUS_GENOENT_13
1002
{
1000
MYREF
1005
1337
1002
}
1002
{
1000
GRP
1005
0
1002
}
1001
GENIUS_GENOBJ-N-CRS_13
1002
{
1000
OWNER
1000
GEN
1002
}
1001
GENIUS_GENOLIS_13
1002
{
1000
ENT
1005
1336
1005
1335
1005
1334
1005
1333
1002
}
  0
LINE
  5
1344
330
1F
100
AcDbEntity
  8
AM_7
100
AcDbLine
 10
2520.23336480103
 20
1154.907291962347
 30
0.0
 11
2632.23336480103
 21
1154.907291962347
 31
0.0
1001
GENIUS_GENODEF_13
1002
{
1000
HIER
1070
     0
1002
}
1002
{
1000
MANEDIT
1070
     0
1002
}
1002
{
1000
NOSEL
1070
     0
1002
}
1002
{
1000
BEHIND
1070
     0
1002
}
1002
{
1000
OTHER
1070
     0
1002
}
1002
{
1000
REACTOR
1002
}
1001
GENIUS_GENOBJ-N-CEN_13
1002
{
1000
OWNER
1000
GEN
1002
}
1001
GENIUS_GENCEN_19
1002
{
1040
2.0
1002
}
  0
LINE
  5
1353
330
1F
100
AcDbEntity
  8
AM_7
100
AcDbLine
 10
2520.23336480103
 20
1111.498014470214
 30
0.0
 11
2632.23336480103
 21
1111.498014470214
 31
0.0
1001
GENIUS_GENODEF_13
1002
{
1000
HIER
1070
     0
1002
}
1002
{
1000
MANEDIT
1070
     0
1002
}
1002
{
1000
NOSEL
1070
     0
1002
}
1002
{
1000
BEHIND
1070
     0
1002
}
1002
{
1000
OTHER
1070
     0
1002
}
1002
{
1000
REACTOR
1002
}
1001
GENIUS_GENOBJ-N-CEN_13
1002
{
1000
OWNER
1000
GEN
1002
}
1001
GENIUS_GENCEN_19
1002
{
1040
2.0
1002
}
  0
LINE
  5
1365
330
1F
100
AcDbEntity
  8
AM_7
100
AcDbLine
 10
2654.464203156158
 20
1111.498014470214
 30
0.0
 11
2666.314203156158
 21
1111.498014470214
 31
0.0
1001
GENIUS_GENOREF_13
1005
1369
  0
LINE
  5
1366
330
1F
100
AcDbEntity
  8
AM_7
100
AcDbLine
 10
2654.464203156158
 20
1111.498014470214
 30
0.0
 11
2654.464203156158
 21
1123.348014470214
 31
0.0
1001
GENIUS_GENOREF_13
1005
1369
  0
LINE
  5
1367
330
1F
100
AcDbEntity
  8
AM_7
100
AcDbLine
 10
2654.464203156158
 20
1111.498014470214
 30
0.0
 11
2642.614203156159
 21
1111.498014470214
 31
0.0
1001
GENIUS_GENOREF_13
1005
1369
  0
LINE
  5
1368
330
1F
100
AcDbEntity
  8
AM_7
100
AcDbLine
 10
2654.464203156158
 20
1111.498014470214
 30
0.0
 11
2654.464203156158
 21
1099.648014470214
 31
0.0
1001
GENIUS_GENOREF_13
1005
1369
  0
POINT
  5
1369
330
1F
100
AcDbEntity
  8
0
 60
     1
100
AcDbPoint
 10
0.0
 20
0.0
 30
0.0
1001
GENIUS_GENOLIS_13
1002
{
1000
ENT
1005
1368
1005
1367
1005
1366
1005
1365
1002
}
1001
GENIUS_GENOENT_13
1002
{
1000
MYREF
1005
1369
1002
}
1002
{
1000
GRP
1005
0
1002
}
1001
GENIUS_GENODEF_13
1002
{
1000
HIER
1070
    10
1002
}
1002
{
1000
MANEDIT
1070
     0
1002
}
1002
{
1000
NOSEL
1070
     0
1002
}
1002
{
1000
BEHIND
1070
     0
1002
}
1002
{
1000
OTHER
1070
     0
1002
}
1002
{
1000
REACTOR
1002
}
1001
GENIUS_GENOBJ-N-CRS_13
1002
{
1000
OWNER
1000
GEN
1002
}
  0
LINE
  5
1388
330
1F
100
AcDbEntity
  8
AM_7
  6
AM_ISO08W050x2
100
AcDbLine
 10
2478.590375425873
 20
1111.49801447021
 30
0.0
 11
2487.590375425873
 21
1111.49801447021
 31
0.0
1001
GENIUS_GENOBJ-N-CEN_13
1002
{
1000
OWNER
1000
GEN
1002
}
1001
GENIUS_GENODEF_13
1002
{
1000
HIER
1070
     0
1002
}
1002
{
1000
MANEDIT
1070
     0
1002
}
1002
{
1000
NOSEL
1070
     0
1002
}
1002
{
1000
BEHIND
1070
     0
1002
}
1002
{
1000
OTHER
1070
     0
1002
}
1002
{
1000
REACTOR
1002
}
1001
GENIUS_GENCEN_19
1002
{
1040
2.0
1002
}
  0
LINE
  5
1395
330
1F
100
AcDbEntity
  8
AM_7
  6
AM_ISO08W050x2
100
AcDbLine
 10
2478.590375425873
 20
1154.907291962347
 30
0.0
 11
2487.590375425873
 21
1154.907291962347
 31
0.0
1001
GENIUS_GENOBJ-N-CEN_13
1002
{
1000
OWNER
1000
GEN
1002
}
1001
GENIUS_GENODEF_13
1002
{
1000
HIER
1070
     0
1002
}
1002
{
1000
MANEDIT
1070
     0
1002
}
1002
{
1000
NOSEL
1070
     0
1002
}
1002
{
1000
BEHIND
1070
     0
1002
}
1002
{
1000
OTHER
1070
     0
1002
}
1002
{
1000
REACTOR
1002
}
1001
GENIUS_GENCEN_19
1002
{
1040
2.0
1002
}
  0
LINE
  5
13A2
330
1F
100
AcDbEntity
  8
AM_7
  6
AM_ISO08W050x2
100
AcDbLine
 10
2491.971678905885
 20
1111.497858904602
 30
0.0
 11
2501.971678905401
 21
1111.498014470214
 31
0.0
1001
GENIUS_GENOBJ-N-CEN_13
1002
{
1000
OWNER
1000
GEN
1002
}
1001
GENIUS_GENODEF_13
1002
{
1000
HIER
1070
     0
1002
}
1002
{
1000
MANEDIT
1070
     0
1002
}
1002
{
1000
NOSEL
1070
     0
1002
}
1002
{
1000
BEHIND
1070
     0
1002
}
1002
{
1000
OTHER
1070
     0
1002
}
1002
{
1000
REACTOR
1002
}
1001
GENIUS_GENCEN_19
1002
{
1040
2.0
1002
}
  0
LINE
  5
13AF
330
1F
100
AcDbEntity
  8
AM_7
  6
AM_ISO08W050x2
100
AcDbLine
 10
2491.971678905643
 20
1154.907291962347
 30
0.0
 11
2501.971678905643
 21
1154.907291962347
 31
0.0
1001
GENIUS_GENODEF_13
1002
{
1000
HIER
1070
     0
1002
}
1002
{
1000
MANEDIT
1070
     0
1002
}
1002
{
1000
NOSEL
1070
     0
1002
}
1002
{
1000
BEHIND
1070
     0
1002
}
1002
{
1000
OTHER
1070
     0
1002
}
1002
{
1000
REACTOR
1002
}
1001
GENIUS_GENOBJ-N-CEN_13
1002
{
1000
OWNER
1000
GEN
1002
}
1001
GENIUS_GENCEN_19
1002
{
1040
2.0
1002
}
  0
LINE
  5
13C2
330
1F
100
AcDbEntity
  8
AM_7
  6
AM_ISO08W050x2
100
AcDbLine
 10
2565.233364801031
 20
1123.19208085161
 30
0.0
 11
2565.233364801031
 21
1116.94208085161
 31
0.0
  0
LINE
  5
13C3
330
1F
100
AcDbEntity
  8
AM_7
  6
AM_ISO08W050x2
100
AcDbLine
 10
2609.23336480103
 20
1123.19208085161
 30
0.0
 11
2609.23336480103
 21
1116.94208085161
 31
0.0
  0
LINE
  5
13D1
330
1F
100
AcDbEntity
  8
AM_7
  6
AM_ISO08W050x2
100
AcDbLine
 10
2623.233364801031
 20
1111.498014470214
 30
0.0
 11
2628.23336480103
 21
1111.498014470214
 31
0.0
1001
GENIUS_GENOREF_13
1005
13D5
  0
LINE
  5
13D2
330
1F
100
AcDbEntity
  8
AM_7
  6
AM_ISO08W050x2
100
AcDbLine
 10
2623.233364801031
 20
1111.498014470214
 30
0.0
 11
2623.233364801031
 21
1116.498014470214
 31
0.0
1001
GENIUS_GENOREF_13
1005
13D5
  0
LINE
  5
13D3
330
1F
100
AcDbEntity
  8
AM_7
  6
AM_ISO08W050x2
100
AcDbLine
 10
2623.233364801031
 20
1111.498014470214
 30
0.0
 11
2618.23336480103
 21
1111.498014470214
 31
0.0
1001
GENIUS_GENOREF_13
1005
13D5
  0
LINE
  5
13D4
330
1F
100
AcDbEntity
  8
AM_7
  6
AM_ISO08W050x2
100
AcDbLine
 10
2623.233364801031
 20
1111.498014470214
 30
0.0
 11
2623.233364801031
 21
1106.498014470214
 31
0.0
1001
GENIUS_GENOREF_13
1005
13D5
  0
POINT
  5
13D5
330
1F
100
AcDbEntity
  8
0
 60
     1
100
AcDbPoint
 10
0.0
 20
0.0
 30
0.0
1001
GENIUS_GENOLIS_13
1002
{
1000
ENT
1005
13D4
1005
13D3
1005
13D2
1005
13D1
1002
}
1001
GENIUS_GENOENT_13
1002
{
1000
MYREF
1005
13D5
1002
}
1002
{
1000
GRP
1005
0
1002
}
1001
GENIUS_GENODEF_13
1002
{
1000
HIER
1070
    10
1002
}
1002
{
1000
MANEDIT
1070
     0
1002
}
1002
{
1000
NOSEL
1070
     0
1002
}
1002
{
1000
BEHIND
1070
     0
1002
}
1002
{
1000
OTHER
1070
     0
1002
}
1002
{
1000
REACTOR
1002
}
1001
GENIUS_GENOBJ-N-CRS_13
1002
{
1000
OWNER
1000
GEN
1002
}
  0
LINE
  5
13D6
330
1F
100
AcDbEntity
  8
AM_7
  6
AM_ISO08W050x2
100
AcDbLine
 10
2623.233364801031
 20
1147.383027761093
 30
0.0
 11
2623.233364801031
 21
1161.95267327287
 31
0.0
  0
LINE
  5
1445
330
1F
100
AcDbEntity
  8
AM_VIS
100
AcDbLine
 10
2779.087677697273
 20
1103.520805962915
 30
0.0
 11
2778.629362834359
 21
1104.520805962915
 31
0.0
  0
LINE
  5
1446
330
1F
100
AcDbEntity
  8
AM_VIS
100
AcDbLine
 10
2735.54599255909
 20
1104.520805962915
 30
0.0
 11
2735.087677696223
 21
1103.520805962915
 31
0.0
  0
LINE
  5
1447
330
1F
100
AcDbEntity
  8
AM_VIS
100
AcDbLine
 10
2735.087677696223
 20
1103.520805962915
 30
0.0
 11
2735.087677696223
 21
1100.320805962915
 31
0.0
  0
LINE
  5
1448
330
1F
100
AcDbEntity
  8
AM_VIS
100
AcDbLine
 10
2778.087677696222
 20
1103.520805962915
 30
0.0
 11
2736.087677696222
 21
1103.520805962915
 31
0.0
  0
LINE
  5
1449
330
1F
100
AcDbEntity
  8
AM_VIS
100
AcDbLine
 10
2736.087677696222
 20
1100.320805962915
 30
0.0
 11
2778.087677696222
 21
1100.320805962915
 31
0.0
  0
LINE
  5
144A
330
1F
100
AcDbEntity
  8
AM_VIS
100
AcDbLine
 10
2779.087677696222
 20
1100.320805962915
 30
0.0
 11
2779.087677696222
 21
1103.520805962915
 31
0.0
  0
LINE
  5
144B
330
1F
100
AcDbEntity
  8
AM_VIS
100
AcDbLine
 10
2735.54599255909
 20
1104.520805962915
 30
0.0
 11
2745.269752321921
 21
1125.737136810216
 31
0.0
  0
LINE
  5
144C
330
1F
100
AcDbEntity
  8
AM_VIS
100
AcDbLine
 10
2768.905603070313
 20
1125.737136810678
 30
0.0
 11
2778.629362834359
 21
1104.520805962915
 31
0.0
  0
LINE
  5
144D
330
1F
100
AcDbEntity
  8
AM_VIS
100
AcDbLine
 10
2735.087677696223
 20
1103.520805962915
 30
0.0
 11
2736.087677696222
 21
1103.520805962915
 31
0.0
  0
LINE
  5
144E
330
1F
100
AcDbEntity
  8
AM_VIS
100
AcDbLine
 10
2736.087677696222
 20
1100.320805962915
 30
0.0
 11
2735.087677696223
 21
1100.320805962915
 31
0.0
  0
LINE
  5
144F
330
1F
100
AcDbEntity
  8
AM_VIS
100
AcDbLine
 10
2779.087677696222
 20
1100.320805962915
 30
0.0
 11
2778.087677696222
 21
1100.320805962915
 31
0.0
  0
LINE
  5
1450
330
1F
100
AcDbEntity
  8
AM_VIS
100
AcDbLine
 10
2778.087677696222
 20
1103.520805962915
 30
0.0
 11
2779.087677696222
 21
1103.520805962915
 31
0.0
  0
ARC
  5
1451
330
1F
100
AcDbEntity
  8
AM_VIS
100
AcDbCircle
 10
2757.087677696222
 20
1120.320805962915
 30
0.0
 40
13.0
100
AcDbArc
 50
24.62269022112016
 51
155.37730978113
  0
CIRCLE
  5
1453
330
1F
100
AcDbEntity
  8
AM_VIS
100
AcDbCircle
 10
2757.087677696222
 20
1120.320805962915
 30
0.0
 40
8.0
  0
LINE
  5
1454
330
1F
100
AcDbEntity
  8
AM_VIS
100
AcDbLine
 10
2735.087677696223
 20
1148.794487294025
 30
0.0
 11
2735.087677696223
 21
1151.044487294024
 31
0.0
  0
LINE
  5
1455
330
1F
100
AcDbEntity
  8
AM_VIS
100
AcDbLine
 10
2735.087677696223
 20
1156.544487294024
 30
0.0
 11
2735.087677696223
 21
1162.594487294025
 31
0.0
  0
LINE
  5
1456
330
1F
100
AcDbEntity
  8
AM_VIS
100
AcDbLine
 10
2741.087677696222
 20
1151.044487294024
 30
0.0
 11
2735.087677696223
 21
1151.044487294024
 31
0.0
  0
LINE
  5
1457
330
1F
100
AcDbEntity
  8
AM_VIS
100
AcDbLine
 10
2735.087677696223
 20
1156.544487294024
 30
0.0
 11
2741.087677696222
 21
1156.544487294024
 31
0.0
  0
LINE
  5
1458
330
1F
100
AcDbEntity
  8
AM_VIS
100
AcDbLine
 10
2779.087677696222
 20
1151.044487294025
 30
0.0
 11
2779.087677696222
 21
1148.794487294025
 31
0.0
  0
LINE
  5
1459
330
1F
100
AcDbEntity
  8
AM_VIS
100
AcDbLine
 10
2773.087677696222
 20
1156.544487294024
 30
0.0
 11
2779.087677696222
 21
1156.544487294024
 31
0.0
  0
LINE
  5
145A
330
1F
100
AcDbEntity
  8
AM_VIS
100
AcDbLine
 10
2779.087677696222
 20
1151.044487294025
 30
0.0
 11
2773.087677696222
 21
1151.044487294025
 31
0.0
  0
LINE
  5
145B
330
1F
100
AcDbEntity
  8
AM_VIS
100
AcDbLine
 10
2779.087677696222
 20
1162.594487294025
 30
0.0
 11
2779.087677696222
 21
1156.544487294024
 31
0.0
  0
LINE
  5
145C
330
1F
100
AcDbEntity
  8
AM_VIS
100
AcDbLine
 10
2779.087677696222
 20
1166.794487294025
 30
0.0
 11
2779.087677696222
 21
1162.594487294025
 31
0.0
  0
LINE
  5
145D
330
1F
100
AcDbEntity
  8
AM_VIS
100
AcDbLine
 10
2735.087677696223
 20
1162.594487294025
 30
0.0
 11
2735.087677696223
 21
1166.794487294025
 31
0.0
  0
ELLIPSE
  5
145E
330
1F
100
AcDbEntity
  8
AM_VIS
100
AcDbEllipse
 10
2778.629362834359
 20
1162.594487294025
 30
0.0
 11
-0.0000000000003627
 21
1.0
 31
0.0
210
0.0
220
0.0
230
1.0
 40
0.4583148629149037
 41
4.712388980384523
 42
6.283185307178794
  0
ELLIPSE
  5
145F
330
1F
100
AcDbEntity
  8
AM_VIS
100
AcDbEllipse
 10
2735.54599255909
 20
1162.594487294025
 30
0.0
 11
0.000000000000738
 21
1.0
 31
0.0
210
0.0
220
0.0
230
1.0
 40
0.45831486286761
 41
0.0000000000016103
 42
1.570796326795234
  0
LINE
  5
1460
330
1F
100
AcDbEntity
  8
AM_VIS
100
AcDbLine
 10
2778.087677696222
 20
1147.794487294024
 30
0.0
 11
2736.087677696222
 21
1147.794487294024
 31
0.0
  0
LINE
  5
1461
330
1F
100
AcDbEntity
  8
AM_VIS
100
AcDbLine
 10
2735.54599255909
 20
1163.594487294024
 30
0.0
 11
2745.269752321921
 21
1163.594487294024
 31
0.0
  0
LINE
  5
1462
330
1F
100
AcDbEntity
  8
AM_VIS
100
AcDbLine
 10
2768.905603070313
 20
1163.594487294024
 30
0.0
 11
2778.629362834359
 21
1163.594487294024
 31
0.0
  0
LINE
  5
1463
330
1F
100
AcDbEntity
  8
AM_VIS
100
AcDbLine
 10
2768.905603070313
 20
1166.794487294025
 30
0.0
 11
2779.087677697091
 21
1166.794487294025
 31
0.0
  0
LINE
  5
1464
330
1F
100
AcDbEntity
  8
AM_VIS
100
AcDbLine
 10
2735.087677696223
 20
1166.794487294025
 30
0.0
 11
2745.269752321921
 21
1166.794487294025
 31
0.0
  0
ARC
  5
1465
330
1F
100
AcDbEntity
  8
AM_VIS
100
AcDbCircle
 10
2741.087677696222
 20
1153.794487294024
 30
0.0
 40
2.75
100
AcDbArc
 50
270.0
 51
90.0
  0
ARC
  5
1466
330
1F
100
AcDbEntity
  8
AM_VIS
100
AcDbCircle
 10
2773.087677696222
 20
1153.794487294025
 30
0.0
 40
2.75
100
AcDbArc
 50
90.0
 51
270.0
  0
ARC
  5
1467
330
1F
100
AcDbEntity
  8
AM_VIS
100
AcDbCircle
 10
2736.087677696222
 20
1148.794487294025
 30
0.0
 40
0.9999999999999998
100
AcDbArc
 50
180.0
 51
270.0
  0
ARC
  5
1468
330
1F
100
AcDbEntity
  8
AM_VIS
100
AcDbCircle
 10
2778.087677696222
 20
1148.794487294025
 30
0.0
 40
0.9999999999999998
100
AcDbArc
 50
270.0
 51
0.0
  0
LINE
  5
1469
330
1F
100
AcDbEntity
  8
AM_VIS
100
AcDbLine
 10
2768.905603070313
 20
1163.594487294024
 30
0.0
 11
2745.269752321921
 21
1163.594487294024
 31
0.0
  0
LINE
  5
146A
330
1F
100
AcDbEntity
  8
AM_VIS
100
AcDbLine
 10
2768.905603070313
 20
1166.794487294025
 30
0.0
 11
2745.269752321921
 21
1166.794487294025
 31
0.0
  0
LINE
  5
146B
330
1F
100
AcDbEntity
  8
AM_VIS
100
AcDbLine
 10
2801.584511867887
 20
1103.520805962915
 30
0.0
 11
2799.334511867887
 21
1103.520805962915
 31
0.0
  0
LINE
  5
146C
330
1F
100
AcDbEntity
  8
AM_VIS
100
AcDbLine
 10
2801.584511867887
 20
1100.320805962915
 30
0.0
 11
2801.584511867887
 21
1103.520805962915
 31
0.0
  0
LINE
  5
146D
330
1F
100
AcDbEntity
  8
AM_VIS
100
AcDbLine
 10
2807.084511867887
 20
1103.520805962915
 30
0.0
 11
2807.084511867887
 21
1100.320805962915
 31
0.0
  0
LINE
  5
146E
330
1F
100
AcDbEntity
  8
AM_VIS
100
AcDbLine
 10
2813.134511867887
 20
1103.520805962915
 30
0.0
 11
2807.084511867887
 21
1103.520805962915
 31
0.0
  0
LINE
  5
146F
330
1F
100
AcDbEntity
  8
AM_VIS
100
AcDbLine
 10
2817.334511867887
 20
1103.520805962915
 30
0.0
 11
2813.134511867887
 21
1103.520805962915
 31
0.0
  0
ARC
  5
1470
330
1F
100
AcDbEntity
  8
AM_VIS
100
AcDbCircle
 10
2813.134511867887
 20
1104.520805962915
 30
0.0
 40
1.0
100
AcDbArc
 50
270.0
 51
0.0
  0
LINE
  5
1471
330
1F
100
AcDbEntity
  8
AM_VIS
100
AcDbLine
 10
2799.334511867887
 20
1100.320805962915
 30
0.0
 11
2801.584511867887
 21
1100.320805962915
 31
0.0
  0
LINE
  5
1472
330
1F
100
AcDbEntity
  8
AM_VIS
100
AcDbLine
 10
2807.084511867887
 20
1100.320805962915
 30
0.0
 11
2817.334511867887
 21
1100.320805962915
 31
0.0
  0
LINE
  5
1473
330
1F
100
AcDbEntity
  8
AM_VIS
100
AcDbLine
 10
2798.334511867887
 20
1103.520805962915
 30
0.0
 11
2798.334511867887
 21
1100.320805962915
 31
0.0
  0
LINE
  5
1474
330
1F
100
AcDbEntity
  8
AM_VIS
100
AcDbLine
 10
2814.134511867887
 20
1125.737136810678
 30
0.0
 11
2814.134511867887
 21
1104.520805962915
 31
0.0
  0
LINE
  5
1475
330
1F
100
AcDbEntity
  8
AM_VIS
100
AcDbLine
 10
2817.334511867887
 20
1125.737136810678
 30
0.0
 11
2817.334511867887
 21
1103.520805963313
 31
0.0
  0
LINE
  5
1476
330
1F
100
AcDbEntity
  8
AM_VIS
100
AcDbLine
 10
2817.334511867887
 20
1100.320805962915
 30
0.0
 11
2817.334511867887
 21
1103.520805962915
 31
0.0
  0
LINE
  5
1477
330
1F
100
AcDbEntity
  8
AM_VIS
100
AcDbLine
 10
2817.334511867887
 20
1133.320805962915
 30
0.0
 11
2814.134511867887
 21
1133.320805962915
 31
0.0
  0
LINE
  5
1478
330
1F
100
AcDbEntity
  8
AM_VIS
100
AcDbLine
 10
2801.584511867887
 20
1103.520805962915
 30
0.0
 11
2807.084511867887
 21
1103.520805962915
 31
0.0
  0
LINE
  5
1479
330
1F
100
AcDbEntity
  8
AM_VIS
100
AcDbLine
 10
2807.084511867887
 20
1100.320805962915
 30
0.0
 11
2801.584511867887
 21
1100.320805962915
 31
0.0
  0
LINE
  5
147A
330
1F
100
AcDbEntity
  8
AM_VIS
100
AcDbLine
 10
2799.334511867887
 20
1100.320805962915
 30
0.0
 11
2798.334511867887
 21
1100.320805962915
 31
0.0
  0
LINE
  5
147B
330
1F
100
AcDbEntity
  8
AM_VIS
100
AcDbLine
 10
2798.334511867887
 20
1103.520805962915
 30
0.0
 11
2799.334511867887
 21
1103.520805962915
 31
0.0
  0
LINE
  5
147C
330
1F
100
AcDbEntity
  8
AM_VIS
100
AcDbLine
 10
2814.134511867887
 20
1125.737136810678
 30
0.0
 11
2814.134511867887
 21
1133.320805962915
 31
0.0
  0
LINE
  5
147D
330
1F
100
AcDbEntity
  8
AM_VIS
100
AcDbLine
 10
2817.334511867887
 20
1125.737136810678
 30
0.0
 11
2817.334511867887
 21
1133.320805962915
 31
0.0
  0
LINE
  5
148B
330
1F
100
AcDbEntity
  8
AM_7
100
AcDbLine
 10
2757.087677696222
 20
1120.320805962915
 30
0.0
 11
2767.087677696223
 21
1120.320805962915
 31
0.0
1001
GENIUS_GENOREF_13
1005
148F
  0
LINE
  5
148C
330
1F
100
AcDbEntity
  8
AM_7
100
AcDbLine
 10
2757.087677696222
 20
1120.320805962915
 30
0.0
 11
2757.087677696222
 21
1130.320805962915
 31
0.0
1001
GENIUS_GENOREF_13
1005
148F
  0
LINE
  5
148D
330
1F
100
AcDbEntity
  8
AM_7
100
AcDbLine
 10
2757.087677696222
 20
1120.320805962915
 30
0.0
 11
2747.087677696223
 21
1120.320805962915
 31
0.0
1001
GENIUS_GENOREF_13
1005
148F
  0
LINE
  5
148E
330
1F
100
AcDbEntity
  8
AM_7
100
AcDbLine
 10
2757.087677696222
 20
1120.320805962915
 30
0.0
 11
2757.087677696222
 21
1110.320805962915
 31
0.0
1001
GENIUS_GENOREF_13
1005
148F
  0
POINT
  5
148F
330
1F
100
AcDbEntity
  8
0
 60
     1
100
AcDbPoint
 10
0.0
 20
0.0
 30
0.0
1001
GENIUS_GENOBJ-N-CRS_13
1002
{
1000
OWNER
1000
GEN
1002
}
1001
GENIUS_GENOLIS_13
1002
{
1000
ENT
1005
148E
1005
148D
1005
148C
1005
148B
1002
}
1001
GENIUS_GENOENT_13
1002
{
1000
MYREF
1005
148F
1002
}
1002
{
1000
GRP
1005
0
1002
}
1001
GENIUS_GENODEF_13
1002
{
1000
HIER
1070
    10
1002
}
1002
{
1000
MANEDIT
1070
     0
1002
}
1002
{
1000
NOSEL
1070
     0
1002
}
1002
{
1000
BEHIND
1070
     0
1002
}
1002
{
1000
OTHER
1070
     0
1002
}
1002
{
1000
REACTOR
1002
}
  0
LINE
  5
149D
330
1F
100
AcDbEntity
  8
AM_7
  6
AM_ISO08W050x2
100
AcDbLine
 10
2741.087677696222
 20
1153.794487294024
 30
0.0
 11
2745.837677696223
 21
1153.794487294024
 31
0.0
1001
GENIUS_GENOREF_13
1005
14A1
  0
LINE
  5
149E
330
1F
100
AcDbEntity
  8
AM_7
  6
AM_ISO08W050x2
100
AcDbLine
 10
2741.087677696222
 20
1153.794487294024
 30
0.0
 11
2741.087677696222
 21
1158.544487294024
 31
0.0
1001
GENIUS_GENOREF_13
1005
14A1
  0
LINE
  5
149F
330
1F
100
AcDbEntity
  8
AM_7
  6
AM_ISO08W050x2
100
AcDbLine
 10
2741.087677696222
 20
1153.794487294024
 30
0.0
 11
2736.337677696222
 21
1153.794487294024
 31
0.0
1001
GENIUS_GENOREF_13
1005
14A1
  0
LINE
  5
14A0
330
1F
100
AcDbEntity
  8
AM_7
  6
AM_ISO08W050x2
100
AcDbLine
 10
2741.087677696222
 20
1153.794487294024
 30
0.0
 11
2741.087677696222
 21
1149.044487294024
 31
0.0
1001
GENIUS_GENOREF_13
1005
14A1
  0
POINT
  5
14A1
330
1F
100
AcDbEntity
  8
0
 60
     1
100
AcDbPoint
 10
0.0
 20
0.0
 30
0.0
1001
GENIUS_GENOLIS_13
1002
{
1000
ENT
1005
14A0
1005
149F
1005
149E
1005
149D
1002
}
1001
GENIUS_GENOBJ-N-CRS_13
1002
{
1000
OWNER
1000
GEN
1002
}
1001
GENIUS_GENODEF_13
1002
{
1000
HIER
1070
    10
1002
}
1002
{
1000
MANEDIT
1070
     0
1002
}
1002
{
1000
NOSEL
1070
     0
1002
}
1002
{
1000
BEHIND
1070
     0
1002
}
1002
{
1000
OTHER
1070
     0
1002
}
1002
{
1000
REACTOR
1002
}
1001
GENIUS_GENOENT_13
1002
{
1000
MYREF
1005
14A1
1002
}
1002
{
1000
GRP
1005
0
1002
}
  0
LINE
  5
14AF
330
1F
100
AcDbEntity
  8
AM_7
  6
AM_ISO08W050x2
100
AcDbLine
 10
2773.087677696222
 20
1153.794487294025
 30
0.0
 11
2777.837677696223
 21
1153.794487294025
 31
0.0
1001
GENIUS_GENOREF_13
1005
14B3
  0
LINE
  5
14B0
330
1F
100
AcDbEntity
  8
AM_7
  6
AM_ISO08W050x2
100
AcDbLine
 10
2773.087677696222
 20
1153.794487294025
 30
0.0
 11
2773.087677696222
 21
1158.544487294024
 31
0.0
1001
GENIUS_GENOREF_13
1005
14B3
  0
LINE
  5
14B1
330
1F
100
AcDbEntity
  8
AM_7
  6
AM_ISO08W050x2
100
AcDbLine
 10
2773.087677696222
 20
1153.794487294025
 30
0.0
 11
2768.337677696222
 21
1153.794487294025
 31
0.0
1001
GENIUS_GENOREF_13
1005
14B3
  0
LINE
  5
14B2
330
1F
100
AcDbEntity
  8
AM_7
  6
AM_ISO08W050x2
100
AcDbLine
 10
2773.087677696222
 20
1153.794487294025
 30
0.0
 11
2773.087677696222
 21
1149.044487294025
 31
0.0
1001
GENIUS_GENOREF_13
1005
14B3
  0
POINT
  5
14B3
330
1F
100
AcDbEntity
  8
0
 60
     1
100
AcDbPoint
 10
0.0
 20
0.0
 30
0.0
1001
GENIUS_GENODEF_13
1002
{
1000
HIER
1070
    10
1002
}
1002
{
1000
MANEDIT
1070
     0
1002
}
1002
{
1000
NOSEL
1070
     0
1002
}
1002
{
1000
BEHIND
1070
     0
1002
}
1002
{
1000
OTHER
1070
     0
1002
}
1002
{
1000
REACTOR
1002
}
1001
GENIUS_GENOLIS_13
1002
{
1000
ENT
1005
14B2
1005
14B1
1005
14B0
1005
14AF
1002
}
1001
GENIUS_GENOENT_13
1002
{
1000
MYREF
1005
14B3
1002
}
1002
{
1000
GRP
1005
0
1002
}
1001
GENIUS_GENOBJ-N-CRS_13
1002
{
1000
OWNER
1000
GEN
1002
}
  0
LINE
  5
14B4
330
1F
100
AcDbEntity
  8
AM_7
100
AcDbLine
 10
2810.577720075752
 20
1120.320805962915
 30
0.0
 11
2820.577720075752
 21
1120.320805962915
 31
0.0
  0
LINE
  5
14C4
330
1F
100
AcDbEntity
  8
AM_7
  6
AM_ISO08W050x2
100
AcDbLine
 10
2804.334511867887
 20
1104.821908564087
 30
0.0
 11
2804.334511867887
 21
1098.152347615469
 31
0.0
1001
GENIUS_GENODEF_13
1002
{
1000
HIER
1070
     0
1002
}
1002
{
1000
MANEDIT
1070
     0
1002
}
1002
{
1000
NOSEL
1070
     0
1002
}
1002
{
1000
BEHIND
1070
     0
1002
}
1002
{
1000
OTHER
1070
     0
1002
}
1002
{
1000
REACTOR
1002
}
1001
GENIUS_GENOBJ-N-CEN_13
1002
{
1000
OWNER
1000
GEN
1002
}
1001
GENIUS_GENCEN_19
1002
{
1040
2.0
1002
}
  0
LINE
  5
1512
330
1F
100
AcDbEntity
  8
AM_7
100
AcDbLine
 10
2764.032750399349
 20
1026.68594019209
 30
0.0
 11
2741.332750399348
 21
1026.68594019209
 31
0.0
  0
LINE
  5
1513
330
1F
100
AcDbEntity
  8
AM_7
100
AcDbLine
 10
2788.808436674003
 20
1026.68594019209
 30
0.0
 11
2788.808436674003
 21
1026.68594019209
 31
0.0
  0
LINE
  5
1514
330
1F
100
AcDbEntity
  8
AM_7
100
AcDbLine
 10
2788.808436674003
 20
1026.68594019209
 30
0.0
 11
2788.808436674003
 21
1026.68594019209
 31
0.0
  0
LINE
  5
1515
330
1F
100
AcDbEntity
  8
AM_7
100
AcDbLine
 10
2778.808436674002
 20
1026.68594019209
 30
0.0
 11
2788.808436674003
 21
1026.68594019209
 31
0.0
  0
LINE
  5
1516
330
1F
100
AcDbEntity
  8
AM_7
100
AcDbLine
 10
2788.808436674003
 20
1026.68594019209
 30
0.0
 11
2798.808436674002
 21
1026.68594019209
 31
0.0
  0
LINE
  5
1517
330
1F
100
AcDbEntity
  8
AM_7
100
AcDbLine
 10
2788.808436674003
 20
1016.68594019209
 30
0.0
 11
2788.808436674003
 21
1026.68594019209
 31
0.0
  0
LINE
  5
1518
330
1F
100
AcDbEntity
  8
AM_7
100
AcDbLine
 10
2788.808436674003
 20
1026.68594019209
 30
0.0
 11
2788.808436674003
 21
1036.685940192089
 31
0.0
  0
LINE
  5
1519
330
1F
100
AcDbEntity
  8
AM_7
100
AcDbLine
 10
2764.032750399349
 20
1051.951278876147
 30
0.0
 11
2741.332750399348
 21
1051.951278876147
 31
0.0
  0
LINE
  5
151A
330
1F
100
AcDbEntity
  8
AM_7
100
AcDbLine
 10
2752.682750399349
 20
1066.951278876147
 30
0.0
 11
2752.682750399349
 21
1066.951278876147
 31
0.0
  0
LINE
  5
151B
330
1F
100
AcDbEntity
  8
AM_7
100
AcDbLine
 10
2752.682750399349
 20
1066.951278876147
 30
0.0
 11
2752.682750399349
 21
1066.951278876147
 31
0.0
  0
LINE
  5
151C
330
1F
100
AcDbEntity
  8
AM_7
100
AcDbLine
 10
2746.932750399349
 20
1066.951278876147
 30
0.0
 11
2752.682750399349
 21
1066.951278876147
 31
0.0
  0
LINE
  5
151D
330
1F
100
AcDbEntity
  8
AM_7
100
AcDbLine
 10
2752.682750399349
 20
1066.951278876147
 30
0.0
 11
2758.432750399349
 21
1066.951278876147
 31
0.0
  0
LINE
  5
151E
330
1F
100
AcDbEntity
  8
AM_7
100
AcDbLine
 10
2752.682750399349
 20
1061.201278876147
 30
0.0
 11
2752.682750399349
 21
1066.951278876147
 31
0.0
  0
LINE
  5
151F
330
1F
100
AcDbEntity
  8
AM_7
100
AcDbLine
 10
2752.682750399349
 20
1066.951278876147
 30
0.0
 11
2752.682750399349
 21
1072.701278876147
 31
0.0
  0
LINE
  5
1520
330
1F
100
AcDbEntity
  8
AM_7
100
AcDbLine
 10
2752.682750399349
 20
1054.951278876147
 30
0.0
 11
2752.682750399349
 21
1054.951278876147
 31
0.0
  0
LINE
  5
1521
330
1F
100
AcDbEntity
  8
AM_7
100
AcDbLine
 10
2752.682750399349
 20
1054.951278876147
 30
0.0
 11
2752.682750399349
 21
1054.951278876147
 31
0.0
  0
LINE
  5
1522
330
1F
100
AcDbEntity
  8
AM_7
100
AcDbLine
 10
2746.932750399349
 20
1054.951278876147
 30
0.0
 11
2752.682750399349
 21
1054.951278876147
 31
0.0
  0
LINE
  5
1523
330
1F
100
AcDbEntity
  8
AM_7
100
AcDbLine
 10
2752.682750399349
 20
1054.951278876147
 30
0.0
 11
2758.432750399349
 21
1054.951278876147
 31
0.0
  0
LINE
  5
1524
330
1F
100
AcDbEntity
  8
AM_7
100
AcDbLine
 10
2752.682750399349
 20
1049.201278876148
 30
0.0
 11
2752.682750399349
 21
1054.951278876147
 31
0.0
  0
LINE
  5
1525
330
1F
100
AcDbEntity
  8
AM_7
100
AcDbLine
 10
2752.682750399349
 20
1054.951278876147
 30
0.0
 11
2752.682750399349
 21
1060.701278876147
 31
0.0
  0
LINE
  5
1526
330
1F
100
AcDbEntity
  8
AM_VIS
100
AcDbLine
 10
2745.332750399349
 20
1006.68594019209
 30
0.0
 11
2760.032750399349
 21
1006.68594019209
 31
0.0
  0
LINE
  5
1527
330
1F
100
AcDbEntity
  8
AM_VIS
100
AcDbLine
 10
2747.632750399349
 20
1008.985940192089
 30
0.0
 11
2744.332750399349
 21
1008.985940192089
 31
0.0
  0
LINE
  5
1528
330
1F
100
AcDbEntity
  8
AM_VIS
100
AcDbLine
 10
2761.032750399349
 20
1008.985940192089
 30
0.0
 11
2757.732750399349
 21
1008.985940192089
 31
0.0
  0
LINE
  5
1529
330
1F
100
AcDbEntity
  8
AM_VIS
100
AcDbLine
 10
2758.732750399349
 20
1025.072055762993
 30
0.0
 11
2758.732750399349
 21
1009.985940192089
 31
0.0
  0
LINE
  5
152A
330
1F
100
AcDbEntity
  8
AM_VIS
100
AcDbLine
 10
2757.732750399349
 20
1008.985940192089
 30
0.0
 11
2747.632750399349
 21
1008.985940192089
 31
0.0
  0
ARC
  5
152B
330
1F
100
AcDbEntity
  8
AM_VIS
100
AcDbCircle
 10
2757.732750399349
 20
1009.985940192089
 30
0.0
 40
1.0
100
AcDbArc
 50
270.0
 51
0.0
  0
LINE
  5
152C
330
1F
100
AcDbEntity
  8
AM_VIS
100
AcDbLine
 10
2746.632750399348
 20
1009.985940192089
 30
0.0
 11
2746.632750399348
 21
1025.072055762993
 31
0.0
  0
ARC
  5
152D
330
1F
100
AcDbEntity
  8
AM_VIS
100
AcDbCircle
 10
2747.632750399349
 20
1009.985940192089
 30
0.0
 40
1.0
100
AcDbArc
 50
180.0
 51
270.0
  0
LINE
  5
152E
330
1F
100
AcDbEntity
  8
AM_VIS
100
AcDbLine
 10
2744.332750399348
 20
1025.072055762993
 30
0.0
 11
2744.332750399348
 21
1008.985940192089
 31
0.0
  0
LINE
  5
152F
330
1F
100
AcDbEntity
  8
AM_VIS
100
AcDbLine
 10
2744.332750399349
 20
1007.685940192089
 30
0.0
 11
2744.332750399349
 21
1008.985940192089
 31
0.0
  0
LINE
  5
1530
330
1F
100
AcDbEntity
  8
AM_VIS
100
AcDbLine
 10
2761.032750399349
 20
1007.685940192089
 30
0.0
 11
2761.032750399349
 21
1008.985940192089
 31
0.0
  0
LINE
  5
1531
330
1F
100
AcDbEntity
  8
AM_VIS
100
AcDbLine
 10
2761.032750399349
 20
1025.072055762993
 30
0.0
 11
2761.032750399349
 21
1008.985940192089
 31
0.0
  0
LINE
  5
1532
330
1F
100
AcDbEntity
  8
AM_VIS
100
AcDbLine
 10
2746.632750399348
 20
1033.685940192089
 30
0.0
 11
2744.332750399348
 21
1033.685940192089
 31
0.0
  0
LINE
  5
1533
330
1F
100
AcDbEntity
  8
AM_VIS
100
AcDbLine
 10
2761.032750399349
 20
1033.685940192089
 30
0.0
 11
2758.732750399349
 21
1033.685940192089
 31
0.0
  0
LINE
  5
1534
330
1F
100
AcDbEntity
  8
AM_VIS
100
AcDbLine
 10
2758.732750399349
 20
1025.072055762993
 30
0.0
 11
2758.732750399349
 21
1033.685940192089
 31
0.0
  0
LINE
  5
1535
330
1F
100
AcDbEntity
  8
AM_VIS
100
AcDbLine
 10
2746.632750399348
 20
1033.685940192089
 30
0.0
 11
2746.632750399348
 21
1025.072055762993
 31
0.0
  0
LINE
  5
1536
330
1F
100
AcDbEntity
  8
AM_VIS
100
AcDbLine
 10
2744.332750399348
 20
1025.072055762993
 30
0.0
 11
2744.332750399348
 21
1033.685940192089
 31
0.0
  0
ARC
  5
1537
330
1F
100
AcDbEntity
  8
AM_VIS
100
AcDbCircle
 10
2745.332750399349
 20
1007.685940192089
 30
0.0
 40
0.9999999999999998
100
AcDbArc
 50
180.0
 51
270.0
  0
LINE
  5
1538
330
1F
100
AcDbEntity
  8
AM_VIS
100
AcDbLine
 10
2761.032750399349
 20
1025.072055762993
 30
0.0
 11
2761.032750399349
 21
1033.685940192089
 31
0.0
  0
ARC
  5
1539
330
1F
100
AcDbEntity
  8
AM_VIS
100
AcDbCircle
 10
2760.032750399349
 20
1007.685940192089
 30
0.0
 40
1.0
100
AcDbArc
 50
270.0
 51
0.0
  0
LINE
  5
153A
330
1F
100
AcDbEntity
  8
AM_VIS
100
AcDbLine
 10
2785.808436674003
 20
1007.685940192089
 30
0.0
 11
2785.808436674003
 21
1008.985940192089
 31
0.0
  0
LINE
  5
153B
330
1F
100
AcDbEntity
  8
AM_VIS
100
AcDbLine
 10
2781.997021472334
 20
1025.072055762993
 30
0.0
 11
2785.808436674003
 21
1008.985940192089
 31
0.0
  0
LINE
  5
153C
330
1F
100
AcDbEntity
  8
AM_VIS
100
AcDbLine
 10
2808.808436674003
 20
1008.985940192089
 30
0.0
 11
2794.659320304767
 21
1030.528746554535
 31
0.0
  0
LINE
  5
153D
330
1F
100
AcDbEntity
  8
AM_VIS
100
AcDbLine
 10
2808.808436674003
 20
1007.685940192089
 30
0.0
 11
2808.808436674003
 21
1008.985940192089
 31
0.0
  0
LINE
  5
153E
330
1F
100
AcDbEntity
  8
AM_VIS
100
AcDbLine
 10
2785.808436674003
 20
1006.68594019209
 30
0.0
 11
2808.808436674003
 21
1006.68594019209
 31
0.0
  0
CIRCLE
  5
153F
330
1F
100
AcDbEntity
  8
AM_VIS
100
AcDbCircle
 10
2788.808436674003
 20
1026.68594019209
 30
0.0
 40
3.0
  0
ARC
  5
1540
330
1F
100
AcDbEntity
  8
AM_VIS
100
AcDbCircle
 10
2788.808436674003
 20
1026.68594019209
 30
0.0
 40
7.0
100
AcDbArc
 50
33.29653955839873
 51
193.3297443070356
  0
LINE
  5
1541
330
1F
100
AcDbEntity
  8
AM_VIS
100
AcDbLine
 10
2785.808436674003
 20
1006.68594019209
 30
0.0
 11
2785.808436674003
 21
1007.685940192089
 31
0.0
  0
LINE
  5
1542
330
1F
100
AcDbEntity
  8
AM_VIS
100
AcDbLine
 10
2808.808436674003
 20
1007.685940192089
 30
0.0
 11
2808.808436674003
 21
1006.68594019209
 31
0.0
  0
LINE
  5
1543
330
1F
100
AcDbEntity
  8
AM_VIS
100
AcDbLine
 10
2758.732750399349
 20
1071.294488106589
 30
0.0
 11
2758.732750399349
 21
1057.802162506912
 31
0.0
  0
LINE
  5
1544
330
1F
100
AcDbEntity
  8
AM_VIS
100
AcDbLine
 10
2757.732750399349
 20
1048.951278876147
 30
0.0
 11
2747.632750399349
 21
1048.951278876147
 31
0.0
  0
ELLIPSE
  5
1545
330
1F
100
AcDbEntity
  8
AM_VIS
100
AcDbEllipse
 10
2757.732750399349
 20
1071.294488106589
 30
0.0
 11
-1.0
 21
-0.0000000000000002
 31
0.0
210
0.0
220
0.0
230
1.0
 40
0.6567907695582744
 41
3.141592653589794
 42
4.712388980384687
  0
ELLIPSE
  5
1546
330
1F
100
AcDbEntity
  8
AM_VIS
100
AcDbEllipse
 10
2757.732750399349
 20
1048.714340680294
 30
0.0
 11
1.0
 21
0.0
 31
0.0
210
0.0
220
0.0
230
1.0
 40
0.2369381958539769
 41
0.0000000000000002
 42
1.570796326794897
  0
LINE
  5
1547
330
1F
100
AcDbEntity
  8
AM_VIS
100
AcDbLine
 10
2746.632750399348
 20
1057.802162506912
 30
0.0
 11
2746.632750399348
 21
1071.294488106589
 31
0.0
  0
ELLIPSE
  5
1548
330
1F
100
AcDbEntity
  8
AM_VIS
100
AcDbEllipse
 10
2747.632750399349
 20
1071.294488106589
 30
0.0
 11
-0.9999999999999998
 21
-0.0000000000000001
 31
0.0
210
0.0
220
0.0
230
1.0
 40
0.6567907695582745
 41
4.712388980384691
 42
6.283185307179585
  0
ELLIPSE
  5
1549
330
1F
100
AcDbEntity
  8
AM_VIS
100
AcDbEllipse
 10
2747.632750399349
 20
1048.714340680294
 30
0.0
 11
1.0
 21
0.0000000000000001
 31
0.0
210
0.0
220
0.0
230
1.0
 40
0.2369381958539769
 41
1.570796326794901
 42
3.141592653589794
  0
LINE
  5
154A
330
1F
100
AcDbEntity
  8
AM_VIS
100
AcDbLine
 10
2744.332750399348
 20
1071.951278876147
 30
0.0
 11
2744.332750399348
 21
1057.802162506912
 31
0.0
  0
LINE
  5
154B
330
1F
100
AcDbEntity
  8
AM_VIS
100
AcDbLine
 10
2757.732750399349
 20
1071.951278876147
 30
0.0
 11
2761.032750399349
 21
1071.951278876147
 31
0.0
  0
LINE
  5
154C
330
1F
100
AcDbEntity
  8
AM_VIS
100
AcDbLine
 10
2747.632750399349
 20
1071.951278876147
 30
0.0
 11
2757.732750399349
 21
1071.951278876147
 31
0.0
  0
LINE
  5
154D
330
1F
100
AcDbEntity
  8
AM_VIS
100
AcDbLine
 10
2744.332750399349
 20
1071.951278876147
 30
0.0
 11
2747.632750399349
 21
1071.951278876147
 31
0.0
  0
LINE
  5
154E
330
1F
100
AcDbEntity
  8
AM_VIS
100
AcDbLine
 10
2761.032750399349
 20
1071.951278876147
 30
0.0
 11
2761.032750399349
 21
1057.802162506912
 31
0.0
  0
LINE
  5
154F
330
1F
100
AcDbEntity
  8
AM_VIS
100
AcDbLine
 10
2746.632750399348
 20
1044.951278876147
 30
0.0
 11
2744.332750399348
 21
1044.951278876147
 31
0.0
  0
LINE
  5
1550
330
1F
100
AcDbEntity
  8
AM_VIS
100
AcDbLine
 10
2761.032750399349
 20
1044.951278876147
 30
0.0
 11
2758.732750399349
 21
1044.951278876147
 31
0.0
  0
LINE
  5
1551
330
1F
100
AcDbEntity
  8
AM_VIS
100
AcDbLine
 10
2758.732750399349
 20
1044.951278876147
 30
0.0
 11
2758.732750399349
 21
1057.802162506912
 31
0.0
  0
CIRCLE
  5
1552
330
1F
100
AcDbEntity
  8
AM_VIS
100
AcDbCircle
 10
2752.682750399349
 20
1066.951278876147
 30
0.0
 40
2.75
  0
CIRCLE
  5
1553
330
1F
100
AcDbEntity
  8
AM_VIS
100
AcDbCircle
 10
2752.682750399349
 20
1054.951278876147
 30
0.0
 40
2.75
  0
LINE
  5
1554
330
1F
100
AcDbEntity
  8
AM_VIS
100
AcDbLine
 10
2746.632750399348
 20
1057.802162506912
 30
0.0
 11
2746.632750399348
 21
1044.951278876147
 31
0.0
  0
LINE
  5
1555
330
1F
100
AcDbEntity
  8
AM_VIS
100
AcDbLine
 10
2744.332750399348
 20
1044.951278876147
 30
0.0
 11
2744.332750399348
 21
1057.802162506912
 31
0.0
  0
LINE
  5
1556
330
1F
100
AcDbEntity
  8
AM_VIS
100
AcDbLine
 10
2761.032750399349
 20
1044.951278876147
 30
0.0
 11
2761.032750399349
 21
1057.802162506912
 31
0.0
  0
LINE
  5
1585
330
1F
100
AcDbEntity
  8
AM_VIS
100
AcDbLine
 10
2541.014427591359
 20
1015.840588922238
 30
0.0
 11
2541.014427591359
 21
1023.090588922238
 31
0.0
  0
LINE
  5
1586
330
1F
100
AcDbEntity
  8
AM_VIS
100
AcDbLine
 10
2593.014427591359
 20
1035.840588922238
 30
0.0
 11
2593.014427591359
 21
1028.590588922238
 31
0.0
  0
LINE
  5
1587
330
1F
100
AcDbEntity
  8
AM_VIS
100
AcDbLine
 10
2547.014427591359
 20
1023.090588922238
 30
0.0
 11
2541.014427591359
 21
1023.090588922238
 31
0.0
  0
LINE
  5
1588
330
1F
100
AcDbEntity
  8
AM_VIS
100
AcDbLine
 10
2541.014427591359
 20
1028.590588922238
 30
0.0
 11
2547.014427591359
 21
1028.590588922238
 31
0.0
  0
LINE
  5
1589
330
1F
100
AcDbEntity
  8
AM_VIS
100
AcDbLine
 10
2593.014427591359
 20
1023.090588922238
 30
0.0
 11
2593.014427591359
 21
1015.840588922238
 31
0.0
  0
LINE
  5
158A
330
1F
100
AcDbEntity
  8
AM_VIS
100
AcDbLine
 10
2587.014427591359
 20
1028.590588922238
 30
0.0
 11
2593.014427591359
 21
1028.590588922238
 31
0.0
  0
LINE
  5
158B
330
1F
100
AcDbEntity
  8
AM_VIS
100
AcDbLine
 10
2593.014427591359
 20
1023.090588922238
 30
0.0
 11
2587.014427591359
 21
1023.090588922238
 31
0.0
  0
LINE
  5
158C
330
1F
100
AcDbEntity
  8
AM_VIS
100
AcDbLine
 10
2541.014427591359
 20
1028.590588922238
 30
0.0
 11
2541.014427591359
 21
1035.840588922238
 31
0.0
  0
LINE
  5
158D
330
1F
100
AcDbEntity
  8
AM_VIS
100
AcDbLine
 10
2590.014427591359
 20
1012.840588922238
 30
0.0
 11
2544.014427591359
 21
1012.840588922238
 31
0.0
  0
LINE
  5
158E
330
1F
100
AcDbEntity
  8
AM_VIS
100
AcDbLine
 10
2544.014427591359
 20
1038.840588922238
 30
0.0
 11
2590.014427591359
 21
1038.840588922238
 31
0.0
  0
CIRCLE
  5
158F
330
1F
100
AcDbEntity
  8
AM_VIS
100
AcDbCircle
 10
2567.014427591359
 20
1025.840588922238
 30
0.0
 40
8.0
  0
ARC
  5
1590
330
1F
100
AcDbEntity
  8
AM_VIS
100
AcDbCircle
 10
2547.014427591359
 20
1025.840588922238
 30
0.0
 40
2.75
100
AcDbArc
 50
270.0
 51
90.0
  0
ARC
  5
1591
330
1F
100
AcDbEntity
  8
AM_VIS
100
AcDbCircle
 10
2587.014427591359
 20
1025.840588922238
 30
0.0
 40
2.75
100
AcDbArc
 50
90.0
 51
270.0
  0
ARC
  5
1592
330
1F
100
AcDbEntity
  8
AM_VIS
100
AcDbCircle
 10
2544.014427591359
 20
1035.840588922238
 30
0.0
 40
3.0
100
AcDbArc
 50
90.0
 51
180.0
  0
ARC
  5
1593
330
1F
100
AcDbEntity
  8
AM_VIS
100
AcDbCircle
 10
2544.014427591359
 20
1015.840588922238
 30
0.0
 40
3.0
100
AcDbArc
 50
180.0
 51
270.0
  0
ARC
  5
1594
330
1F
100
AcDbEntity
  8
AM_VIS
100
AcDbCircle
 10
2590.014427591359
 20
1015.840588922238
 30
0.0
 40
3.0
100
AcDbArc
 50
270.0
 51
0.0
  0
ARC
  5
1595
330
1F
100
AcDbEntity
  8
AM_VIS
100
AcDbCircle
 10
2590.014427591359
 20
1035.840588922238
 30
0.0
 40
3.0
100
AcDbArc
 50
0.0
 51
90.0
  0
LINE
  5
1596
330
1F
100
AcDbEntity
  8
AM_VIS
100
AcDbLine
 10
2593.014427591359
 20
1055.4170527893
 30
0.0
 11
2590.014427591359
 21
1055.4170527893
 31
0.0
  0
LINE
  5
1597
330
1F
100
AcDbEntity
  8
AM_VIS
100
AcDbLine
 10
2590.014427591359
 20
1058.6170527893
 30
0.0
 11
2593.014427591359
 21
1058.6170527893
 31
0.0
  0
LINE
  5
1598
330
1F
100
AcDbEntity
  8
AM_VIS
100
AcDbLine
 10
2541.014427591359
 20
1058.6170527893
 30
0.0
 11
2544.014427591359
 21
1058.6170527893
 31
0.0
  0
LINE
  5
1599
330
1F
100
AcDbEntity
  8
AM_VIS
100
AcDbLine
 10
2544.014427591359
 20
1055.4170527893
 30
0.0
 11
2541.014427591359
 21
1055.4170527893
 31
0.0
  0
LINE
  5
159A
330
1F
100
AcDbEntity
  8
AM_VIS
100
AcDbLine
 10
2593.014427591359
 20
1055.4170527893
 30
0.0
 11
2593.014427591359
 21
1058.6170527893
 31
0.0
  0
LINE
  5
159B
330
1F
100
AcDbEntity
  8
AM_VIS
100
AcDbLine
 10
2590.014427591359
 20
1058.6170527893
 30
0.0
 11
2544.014427591359
 21
1058.6170527893
 31
0.0
  0
LINE
  5
159C
330
1F
100
AcDbEntity
  8
AM_VIS
100
AcDbLine
 10
2544.014427591359
 20
1055.4170527893
 30
0.0
 11
2590.014427591359
 21
1055.4170527893
 31
0.0
  0
LINE
  5
159D
330
1F
100
AcDbEntity
  8
AM_VIS
100
AcDbLine
 10
2541.014427591359
 20
1058.6170527893
 30
0.0
 11
2541.014427591359
 21
1055.4170527893
 31
0.0
  0
LINE
  5
159E
330
1F
100
AcDbEntity
  8
AM_VIS
100
AcDbLine
 10
2622.763589492548
 20
1035.840588922238
 30
0.0
 11
2622.763589492548
 21
1028.590588922238
 31
0.0
  0
LINE
  5
159F
330
1F
100
AcDbEntity
  8
AM_VIS
100
AcDbLine
 10
2622.763589492548
 20
1023.090588922238
 30
0.0
 11
2622.763589492548
 21
1015.840588922238
 31
0.0
  0
LINE
  5
15A0
330
1F
100
AcDbEntity
  8
AM_VIS
100
AcDbLine
 10
2622.763589492548
 20
1028.590588922238
 30
0.0
 11
2625.963589492548
 21
1028.590588922238
 31
0.0
  0
LINE
  5
15A1
330
1F
100
AcDbEntity
  8
AM_VIS
100
AcDbLine
 10
2625.963589492548
 20
1023.090588922238
 30
0.0
 11
2622.763589492548
 21
1023.090588922238
 31
0.0
  0
LINE
  5
15A2
330
1F
100
AcDbEntity
  8
AM_VIS
100
AcDbLine
 10
2622.763589492548
 20
1012.840588922238
 30
0.0
 11
2625.963589492548
 21
1012.840588922238
 31
0.0
  0
LINE
  5
15A3
330
1F
100
AcDbEntity
  8
AM_VIS
100
AcDbLine
 10
2625.963589492548
 20
1015.840588922238
 30
0.0
 11
2625.963589492548
 21
1023.090588922238
 31
0.0
  0
LINE
  5
15A4
330
1F
100
AcDbEntity
  8
AM_VIS
100
AcDbLine
 10
2625.963589492548
 20
1028.590588922238
 30
0.0
 11
2625.963589492548
 21
1035.840588922238
 31
0.0
  0
LINE
  5
15A5
330
1F
100
AcDbEntity
  8
AM_VIS
100
AcDbLine
 10
2625.963589492548
 20
1038.840588922238
 30
0.0
 11
2622.763589492548
 21
1038.840588922238
 31
0.0
  0
LINE
  5
15A6
330
1F
100
AcDbEntity
  8
AM_VIS
100
AcDbLine
 10
2622.763589492548
 20
1023.090588922238
 30
0.0
 11
2622.763589492548
 21
1028.590588922238
 31
0.0
  0
LINE
  5
15A7
330
1F
100
AcDbEntity
  8
AM_VIS
100
AcDbLine
 10
2622.763589492548
 20
1012.840588922238
 30
0.0
 11
2622.763589492548
 21
1015.840588922238
 31
0.0
  0
LINE
  5
15A8
330
1F
100
AcDbEntity
  8
AM_VIS
100
AcDbLine
 10
2625.963589492548
 20
1015.840588922238
 30
0.0
 11
2625.963589492548
 21
1012.840588922238
 31
0.0
  0
LINE
  5
15A9
330
1F
100
AcDbEntity
  8
AM_VIS
100
AcDbLine
 10
2625.963589492548
 20
1028.590588922238
 30
0.0
 11
2625.963589492548
 21
1023.090588922238
 31
0.0
  0
LINE
  5
15AA
330
1F
100
AcDbEntity
  8
AM_VIS
100
AcDbLine
 10
2625.963589492548
 20
1038.840588922238
 30
0.0
 11
2625.963589492548
 21
1035.840588922238
 31
0.0
  0
LINE
  5
15AB
330
1F
100
AcDbEntity
  8
AM_VIS
100
AcDbLine
 10
2622.763589492548
 20
1035.840588922238
 30
0.0
 11
2622.763589492548
 21
1038.840588922238
 31
0.0
  0
LINE
  5
15B9
330
1F
100
AcDbEntity
  8
AM_7
100
AcDbLine
 10
2567.014427591359
 20
1025.840588922238
 30
0.0
 11
2577.014427591359
 21
1025.840588922238
 31
0.0
1001
GENIUS_GENOREF_13
1005
15BD
  0
LINE
  5
15BA
330
1F
100
AcDbEntity
  8
AM_7
100
AcDbLine
 10
2567.014427591359
 20
1025.840588922238
 30
0.0
 11
2567.014427591359
 21
1035.840588922238
 31
0.0
1001
GENIUS_GENOREF_13
1005
15BD
  0
LINE
  5
15BB
330
1F
100
AcDbEntity
  8
AM_7
100
AcDbLine
 10
2567.014427591359
 20
1025.840588922238
 30
0.0
 11
2557.014427591359
 21
1025.840588922238
 31
0.0
1001
GENIUS_GENOREF_13
1005
15BD
  0
LINE
  5
15BC
330
1F
100
AcDbEntity
  8
AM_7
100
AcDbLine
 10
2567.014427591359
 20
1025.840588922238
 30
0.0
 11
2567.014427591359
 21
1015.840588922238
 31
0.0
1001
GENIUS_GENOREF_13
1005
15BD
  0
POINT
  5
15BD
330
1F
100
AcDbEntity
  8
0
 60
     1
100
AcDbPoint
 10
0.0
 20
0.0
 30
0.0
1001
GENIUS_GENOLIS_13
1002
{
1000
ENT
1005
15BC
1005
15BB
1005
15BA
1005
15B9
1002
}
1001
GENIUS_GENOENT_13
1002
{
1000
MYREF
1005
15BD
1002
}
1002
{
1000
GRP
1005
0
1002
}
1001
GENIUS_GENODEF_13
1002
{
1000
HIER
1070
    10
1002
}
1002
{
1000
MANEDIT
1070
     0
1002
}
1002
{
1000
NOSEL
1070
     0
1002
}
1002
{
1000
BEHIND
1070
     0
1002
}
1002
{
1000
OTHER
1070
     0
1002
}
1002
{
1000
REACTOR
1002
}
1001
GENIUS_GENOBJ-N-CRS_13
1002
{
1000
OWNER
1000
GEN
1002
}
  0
LINE
  5
15CB
330
1F
100
AcDbEntity
  8
AM_7
  6
AM_ISO08W050x2
100
AcDbLine
 10
2587.014427591359
 20
1025.840588922238
 30
0.0
 11
2591.764427591359
 21
1025.840588922238
 31
0.0
1001
GENIUS_GENOREF_13
1005
15CF
  0
LINE
  5
15CC
330
1F
100
AcDbEntity
  8
AM_7
  6
AM_ISO08W050x2
100
AcDbLine
 10
2587.014427591359
 20
1025.840588922238
 30
0.0
 11
2587.014427591359
 21
1030.590588922238
 31
0.0
1001
GENIUS_GENOREF_13
1005
15CF
  0
LINE
  5
15CD
330
1F
100
AcDbEntity
  8
AM_7
  6
AM_ISO08W050x2
100
AcDbLine
 10
2587.014427591359
 20
1025.840588922238
 30
0.0
 11
2582.264427591359
 21
1025.840588922238
 31
0.0
1001
GENIUS_GENOREF_13
1005
15CF
  0
LINE
  5
15CE
330
1F
100
AcDbEntity
  8
AM_7
  6
AM_ISO08W050x2
100
AcDbLine
 10
2587.014427591359
 20
1025.840588922238
 30
0.0
 11
2587.014427591359
 21
1021.090588922238
 31
0.0
1001
GENIUS_GENOREF_13
1005
15CF
  0
POINT
  5
15CF
330
1F
100
AcDbEntity
  8
0
 60
     1
100
AcDbPoint
 10
0.0
 20
0.0
 30
0.0
1001
GENIUS_GENODEF_13
1002
{
1000
HIER
1070
    10
1002
}
1002
{
1000
MANEDIT
1070
     0
1002
}
1002
{
1000
NOSEL
1070
     0
1002
}
1002
{
1000
BEHIND
1070
     0
1002
}
1002
{
1000
OTHER
1070
     0
1002
}
1002
{
1000
REACTOR
1002
}
1001
GENIUS_GENOBJ-N-CRS_13
1002
{
1000
OWNER
1000
GEN
1002
}
1001
GENIUS_GENOLIS_13
1002
{
1000
ENT
1005
15CE
1005
15CD
1005
15CC
1005
15CB
1002
}
1001
GENIUS_GENOENT_13
1002
{
1000
MYREF
1005
15CF
1002
}
1002
{
1000
GRP
1005
0
1002
}
  0
LINE
  5
15DD
330
1F
100
AcDbEntity
  8
AM_7
  6
AM_ISO08W050x2
100
AcDbLine
 10
2547.014427591359
 20
1025.840588922238
 30
0.0
 11
2551.764427591359
 21
1025.840588922238
 31
0.0
1001
GENIUS_GENOREF_13
1005
15E1
  0
LINE
  5
15DE
330
1F
100
AcDbEntity
  8
AM_7
  6
AM_ISO08W050x2
100
AcDbLine
 10
2547.014427591359
 20
1025.840588922238
 30
0.0
 11
2547.014427591359
 21
1030.590588922238
 31
0.0
1001
GENIUS_GENOREF_13
1005
15E1
  0
LINE
  5
15DF
330
1F
100
AcDbEntity
  8
AM_7
  6
AM_ISO08W050x2
100
AcDbLine
 10
2547.014427591359
 20
1025.840588922238
 30
0.0
 11
2542.264427591359
 21
1025.840588922238
 31
0.0
1001
GENIUS_GENOREF_13
1005
15E1
  0
LINE
  5
15E0
330
1F
100
AcDbEntity
  8
AM_7
  6
AM_ISO08W050x2
100
AcDbLine
 10
2547.014427591359
 20
1025.840588922238
 30
0.0
 11
2547.014427591359
 21
1021.090588922238
 31
0.0
1001
GENIUS_GENOREF_13
1005
15E1
  0
POINT
  5
15E1
330
1F
100
AcDbEntity
  8
0
 60
     1
100
AcDbPoint
 10
0.0
 20
0.0
 30
0.0
1001
GENIUS_GENOBJ-N-CRS_13
1002
{
1000
OWNER
1000
GEN
1002
}
1001
GENIUS_GENOLIS_13
1002
{
1000
ENT
1005
15E0
1005
15DF
1005
15DE
1005
15DD
1002
}
1001
GENIUS_GENOENT_13
1002
{
1000
MYREF
1005
15E1
1002
}
1002
{
1000
GRP
1005
0
1002
}
1001
GENIUS_GENODEF_13
1002
{
1000
HIER
1070
    10
1002
}
1002
{
1000
MANEDIT
1070
     0
1002
}
1002
{
1000
NOSEL
1070
     0
1002
}
1002
{
1000
BEHIND
1070
     0
1002
}
1002
{
1000
OTHER
1070
     0
1002
}
1002
{
1000
REACTOR
1002
}
  0
LINE
  5
15E2
330
1F
100
AcDbEntity
  8
AM_7
100
AcDbLine
 10
2567.014427591359
 20
1052.132138986792
 30
0.0
 11
2567.014427591359
 21
1062.132138986792
 31
0.0
  0
LINE
  5
15E3
330
1F
100
AcDbEntity
  8
AM_7
  6
AM_ISO08W050x2
100
AcDbLine
 10
2621.46735385184
 20
1025.840588922238
 30
0.0
 11
2627.329481970216
 21
1025.840588922238
 31
0.0
  0
LINE
  5
161D
330
1F
100
AcDbEntity
  8
AM_7
100
AcDbLine
 10
2796.503308769051
 20
942.1269237991102
 30
0.0
 11
2767.411003923637
 21
942.1269237991102
 31
0.0
  0
LINE
  5
161E
330
1F
100
AcDbEntity
  8
AM_7
100
AcDbLine
 10
2773.403308769051
 20
942.1269237991102
 30
0.0
 11
2775.403308769051
 21
942.1269237991102
 31
0.0
  0
LINE
  5
161F
330
1F
100
AcDbEntity
  8
AM_7
100
AcDbLine
 10
2774.403308769051
 20
941.1269237991103
 30
0.0
 11
2774.403308769051
 21
943.1269237991102
 31
0.0
  0
LINE
  5
1620
330
1F
100
AcDbEntity
  8
AM_7
100
AcDbLine
 10
2769.803308769051
 20
942.1269237991102
 30
0.0
 11
2772.60330876905
 21
942.1269237991102
 31
0.0
  0
LINE
  5
1621
330
1F
100
AcDbEntity
  8
AM_7
100
AcDbLine
 10
2776.203308769051
 20
942.1269237991102
 30
0.0
 11
2779.003308769051
 21
942.1269237991102
 31
0.0
  0
LINE
  5
1622
330
1F
100
AcDbEntity
  8
AM_7
100
AcDbLine
 10
2774.403308769051
 20
937.5269237991101
 30
0.0
 11
2774.403308769051
 21
940.3269237991104
 31
0.0
  0
LINE
  5
1623
330
1F
100
AcDbEntity
  8
AM_7
100
AcDbLine
 10
2774.403308769051
 20
943.9269237991101
 30
0.0
 11
2774.403308769051
 21
946.7269237991102
 31
0.0
  0
LINE
  5
1624
330
1F
100
AcDbEntity
  8
AM_7
100
AcDbLine
 10
2796.503308769051
 20
968.9367148304112
 30
0.0
 11
2767.411003923637
 21
968.9367148304112
 31
0.0
  0
LINE
  5
1625
330
1F
100
AcDbEntity
  8
AM_7
100
AcDbLine
 10
2750.400519785321
 20
941.2494132504765
 30
0.0
 11
2752.400519785321
 21
941.2494132504765
 31
0.0
  0
LINE
  5
1626
330
1F
100
AcDbEntity
  8
AM_7
100
AcDbLine
 10
2751.400519785321
 20
940.2494132504765
 30
0.0
 11
2751.400519785321
 21
942.2494132504764
 31
0.0
  0
LINE
  5
1627
330
1F
100
AcDbEntity
  8
AM_7
100
AcDbLine
 10
2743.800519785321
 20
941.2494132504765
 30
0.0
 11
2749.600519785321
 21
941.2494132504765
 31
0.0
  0
LINE
  5
1628
330
1F
100
AcDbEntity
  8
AM_7
100
AcDbLine
 10
2753.200519785321
 20
941.2494132504765
 30
0.0
 11
2759.000519785321
 21
941.2494132504765
 31
0.0
  0
LINE
  5
1629
330
1F
100
AcDbEntity
  8
AM_7
100
AcDbLine
 10
2751.400519785321
 20
933.6494132504762
 30
0.0
 11
2751.400519785321
 21
939.4494132504764
 31
0.0
  0
LINE
  5
162A
330
1F
100
AcDbEntity
  8
AM_7
100
AcDbLine
 10
2751.400519785321
 20
943.0494132504763
 30
0.0
 11
2751.400519785321
 21
948.8494132504763
 31
0.0
  0
LINE
  5
162B
330
1F
100
AcDbEntity
  8
AM_VIS
100
AcDbLine
 10
2784.40330876905
 20
936.9307713764035
 30
0.0
 11
2769.011003923637
 21
936.9307713764035
 31
0.0
  0
LINE
  5
162C
330
1F
100
AcDbEntity
  8
AM_VIS
100
AcDbLine
 10
2769.011003923637
 20
947.3230762218168
 30
0.0
 11
2784.40330876905
 21
947.3230762218168
 31
0.0
  0
LINE
  5
162D
330
1F
100
AcDbEntity
  8
AM_VIS
100
AcDbLine
 10
2795.403308769051
 20
947.6269237991102
 30
0.0
 11
2794.903308769051
 21
948.1269237991103
 31
0.0
  0
LINE
  5
162E
330
1F
100
AcDbEntity
  8
AM_VIS
100
AcDbLine
 10
2795.403308769051
 20
936.6269237991103
 30
0.0
 11
2794.903308769051
 21
936.1269237991102
 31
0.0
  0
LINE
  5
162F
330
1F
100
AcDbEntity
  8
AM_VIS
100
AcDbLine
 10
2794.903308769051
 20
948.1269237991103
 30
0.0
 11
2769.011003923637
 21
948.1269237991103
 31
0.0
  0
LINE
  5
1630
330
1F
100
AcDbEntity
  8
AM_VIS
100
AcDbLine
 10
2794.903308769051
 20
936.1269237991102
 30
0.0
 11
2769.011003923637
 21
936.1269237991102
 31
0.0
  0
LINE
  5
1632
330
1F
100
AcDbEntity
  8
AM_VIS
100
AcDbLine
 10
2784.40330876905
 20
936.9307713764035
 30
0.0
 11
2784.40330876905
 21
947.3230762218168
 31
0.0
  0
LINE
  5
1633
330
1F
100
AcDbEntity
  8
AM_VIS
100
AcDbLine
 10
2769.011003923637
 20
947.3230762218168
 30
0.0
 11
2769.011003923637
 21
948.1269237991103
 31
0.0
  0
LINE
  5
1634
330
1F
100
AcDbEntity
  8
AM_VIS
100
AcDbLine
 10
2769.011003923637
 20
936.1269237991102
 30
0.0
 11
2769.011003923637
 21
936.9307713764035
 31
0.0
  0
ARC
  5
1635
330
1F
100
AcDbEntity
  8
AM_VIS
100
AcDbCircle
 10
2779.403308769051
 20
942.1269237991102
 30
0.0
 40
11.61895003862225
100
AcDbArc
 50
153.434948822922
 51
206.565051177078
  0
CIRCLE
  5
1636
330
1F
100
AcDbEntity
  8
AM_VIS
100
AcDbCircle
 10
2774.403308769051
 20
942.1269237991102
 30
0.0
 40
3.0
  0
LINE
  5
1637
330
1F
100
AcDbEntity
  8
AM_VIS
100
AcDbLine
 10
2795.403308769051
 20
947.6269237991102
 30
0.0
 11
2795.403308769051
 21
936.6269237991103
 31
0.0
  0
ARC
  5
1638
330
1F
100
AcDbEntity
  8
AM_VIS
100
AcDbCircle
 10
2779.403308769051
 20
942.1269237991102
 30
0.0
 40
12.0
100
AcDbArc
 50
150.0000000000027
 51
209.9999999999973
  0
LINE
  5
1639
330
1F
100
AcDbEntity
  8
AM_VIS
100
AcDbLine
 10
2769.011003923637
 20
965.9367148304113
 30
0.0
 11
2784.40330876905
 21
965.9367148304113
 31
0.0
  0
LINE
  5
163A
330
1F
100
AcDbEntity
  8
AM_VIS
100
AcDbLine
 10
2784.40330876905
 20
971.9367148304113
 30
0.0
 11
2769.011003923637
 21
971.9367148304113
 31
0.0
  0
LINE
  5
163B
330
1F
100
AcDbEntity
  8
AM_VIS
100
AcDbLine
 10
2795.403308769051
 20
974.4367148304114
 30
0.0
 11
2794.903308769051
 21
974.9367148304113
 31
0.0
  0
LINE
  5
163C
330
1F
100
AcDbEntity
  8
AM_VIS
100
AcDbLine
 10
2795.403308769051
 20
963.4367148304113
 30
0.0
 11
2794.903308769051
 21
962.9367148304114
 31
0.0
  0
LINE
  5
163D
330
1F
100
AcDbEntity
  8
AM_VIS
100
AcDbLine
 10
2794.903308769051
 20
974.9367148304113
 30
0.0
 11
2784.40330876905
 21
974.9367148304113
 31
0.0
  0
LINE
  5
163E
330
1F
100
AcDbEntity
  8
AM_VIS
100
AcDbLine
 10
2794.903308769051
 20
962.9367148304114
 30
0.0
 11
2784.40330876905
 21
962.9367148304114
 31
0.0
  0
LINE
  5
1640
330
1F
100
AcDbEntity
  8
AM_VIS
100
AcDbLine
 10
2784.40330876905
 20
962.9367148304114
 30
0.0
 11
2784.40330876905
 21
965.9367148304113
 31
0.0
  0
LINE
  5
1641
330
1F
100
AcDbEntity
  8
AM_VIS
100
AcDbLine
 10
2769.011003923637
 20
965.9367148304113
 30
0.0
 11
2769.011003923637
 21
971.9367148304113
 31
0.0
  0
LINE
  5
1642
330
1F
100
AcDbEntity
  8
AM_VIS
100
AcDbLine
 10
2784.40330876905
 20
971.9367148304113
 30
0.0
 11
2784.40330876905
 21
974.9367148304113
 31
0.0
  0
LINE
  5
1643
330
1F
100
AcDbEntity
  8
AM_VIS
100
AcDbLine
 10
2769.011003923637
 20
965.9367148304113
 30
0.0
 11
2767.784358730429
 21
965.9367148304113
 31
0.0
  0
LINE
  5
1644
330
1F
100
AcDbEntity
  8
AM_VIS
100
AcDbLine
 10
2767.784358730429
 20
971.9367148304113
 30
0.0
 11
2769.011003923637
 21
971.9367148304113
 31
0.0
  0
LINE
  5
1645
330
1F
100
AcDbEntity
  8
AM_VIS
100
AcDbLine
 10
2795.403308769051
 20
974.4367148304114
 30
0.0
 11
2795.403308769051
 21
963.4367148304113
 31
0.0
  0
ARC
  5
1646
330
1F
100
AcDbEntity
  8
AM_VIS
100
AcDbCircle
 10
2779.403308769051
 20
968.9367148304112
 30
0.0
 40
12.0
100
AcDbArc
 50
165.5224878140705
 51
194.4775121859295
  0
ARC
  5
1647
330
1F
100
AcDbEntity
  8
AM_VIS
100
AcDbCircle
 10
2751.400519785321
 20
941.2494132504765
 30
0.0
 40
6.0
100
AcDbArc
 50
299.9999999999973
 51
60.00000000000272
  0
ARC
  5
1648
330
1F
100
AcDbEntity
  8
AM_VIS
100
AcDbCircle
 10
2751.400519785321
 20
941.2494132504765
 30
0.0
 40
6.0
100
AcDbArc
 50
60.00000000000272
 51
119.9999999999973
  0
ARC
  5
1649
330
1F
100
AcDbEntity
  8
AM_VIS
100
AcDbCircle
 10
2751.400519785321
 20
941.2494132504765
 30
0.0
 40
6.0
100
AcDbArc
 50
240.0000000000027
 51
299.9999999999973
  0
ARC
  5
164A
330
1F
100
AcDbEntity
  8
AM_VIS
100
AcDbCircle
 10
2751.400519785321
 20
941.2494132504765
 30
0.0
 40
6.0
100
AcDbArc
 50
119.9999999999973
 51
240.0000000000027
  0
LINE
  5
164B
330
1F
100
AcDbEntity
  8
AM_VIS
100
AcDbLine
 10
2754.400519785321
 20
946.4455656731828
 30
0.0
 11
2754.400519785321
 21
936.0532608277697
 31
0.0
  0
LINE
  5
164C
330
1F
100
AcDbEntity
  8
AM_VIS
100
AcDbLine
 10
2748.400519785321
 20
936.0532608277697
 30
0.0
 11
2748.400519785321
 21
946.4455656731828
 31
0.0
  0
LINE
  5
1690
330
1F
100
AcDbEntity
  8
AM_7
100
AcDbLine
 10
2599.074191437149
 20
941.2494132504765
 30
0.0
 11
2566.981886591736
 21
941.2494132504765
 31
0.0
  0
LINE
  5
1691
330
1F
100
AcDbEntity
  8
AM_7
100
AcDbLine
 10
2572.974191437149
 20
941.2494132504765
 30
0.0
 11
2574.974191437149
 21
941.2494132504765
 31
0.0
  0
LINE
  5
1692
330
1F
100
AcDbEntity
  8
AM_7
100
AcDbLine
 10
2573.974191437149
 20
940.2494132504765
 30
0.0
 11
2573.974191437149
 21
942.2494132504764
 31
0.0
  0
LINE
  5
1693
330
1F
100
AcDbEntity
  8
AM_7
100
AcDbLine
 10
2569.124191437149
 20
941.2494132504765
 30
0.0
 11
2572.174191437149
 21
941.2494132504765
 31
0.0
  0
LINE
  5
1694
330
1F
100
AcDbEntity
  8
AM_7
100
AcDbLine
 10
2575.774191437149
 20
941.2494132504765
 30
0.0
 11
2578.824191437149
 21
941.2494132504765
 31
0.0
  0
LINE
  5
1695
330
1F
100
AcDbEntity
  8
AM_7
100
AcDbLine
 10
2573.974191437149
 20
936.3994132504766
 30
0.0
 11
2573.974191437149
 21
939.4494132504764
 31
0.0
  0
LINE
  5
1696
330
1F
100
AcDbEntity
  8
AM_7
100
AcDbLine
 10
2573.974191437149
 20
943.0494132504763
 30
0.0
 11
2573.974191437149
 21
946.0994132504765
 31
0.0
  0
LINE
  5
1697
330
1F
100
AcDbEntity
  8
AM_7
100
AcDbLine
 10
2599.074191437149
 20
966.3569954938035
 30
0.0
 11
2566.981886591736
 21
966.3569954938035
 31
0.0
  0
LINE
  5
1698
330
1F
100
AcDbEntity
  8
AM_7
100
AcDbLine
 10
2573.974191437149
 20
973.9569954938033
 30
0.0
 11
2573.974191437149
 21
958.7569954938032
 31
0.0
  0
LINE
  5
1699
330
1F
100
AcDbEntity
  8
AM_7
100
AcDbLine
 10
2552.935574929799
 20
940.7568317550415
 30
0.0
 11
2554.935574929799
 21
940.7568317550415
 31
0.0
  0
LINE
  5
169A
330
1F
100
AcDbEntity
  8
AM_7
100
AcDbLine
 10
2553.935574929799
 20
939.7568317550415
 30
0.0
 11
2553.935574929799
 21
941.7568317550415
 31
0.0
  0
LINE
  5
169B
330
1F
100
AcDbEntity
  8
AM_7
100
AcDbLine
 10
2546.335574929799
 20
940.7568317550415
 30
0.0
 11
2552.135574929799
 21
940.7568317550415
 31
0.0
  0
LINE
  5
169C
330
1F
100
AcDbEntity
  8
AM_7
100
AcDbLine
 10
2555.735574929799
 20
940.7568317550415
 30
0.0
 11
2561.535574929799
 21
940.7568317550415
 31
0.0
  0
LINE
  5
169D
330
1F
100
AcDbEntity
  8
AM_7
100
AcDbLine
 10
2553.935574929799
 20
933.1568317550416
 30
0.0
 11
2553.935574929799
 21
938.9568317550414
 31
0.0
  0
LINE
  5
169E
330
1F
100
AcDbEntity
  8
AM_7
100
AcDbLine
 10
2553.935574929799
 20
942.5568317550414
 30
0.0
 11
2553.935574929799
 21
948.3568317550416
 31
0.0
  0
ARC
  5
169F
330
1F
100
AcDbEntity
  8
AM_4
  6
HIDDEN2
100
AcDbCircle
 10
2553.935574929799
 20
940.7568317550415
 30
0.0
 40
3.0
100
AcDbArc
 50
259.9999999999961
 51
190.0000000000039
  0
LINE
  5
16A0
330
1F
100
AcDbEntity
  8
AM_VIS
100
AcDbLine
 10
2568.581886591736
 20
936.0532608277699
 30
0.0
 11
2585.974191437149
 21
936.0532608277699
 31
0.0
  0
LINE
  5
16A1
330
1F
100
AcDbEntity
  8
AM_VIS
100
AcDbLine
 10
2585.974191437149
 20
946.4455656731832
 30
0.0
 11
2568.581886591736
 21
946.4455656731832
 31
0.0
  0
ARC
  5
16A2
330
1F
100
AcDbEntity
  8
AM_VIS
100
AcDbCircle
 10
2573.974191437149
 20
941.2494132505585
 30
0.0
 40
3.000000000082014
100
AcDbArc
 50
233.063810102731
 51
306.936189897269
  0
ARC
  5
16A3
330
1F
100
AcDbEntity
  8
AM_VIS
100
AcDbCircle
 10
2573.974191437149
 20
941.2494132503944
 30
0.0
 40
3.000000000082013
100
AcDbArc
 50
53.063810102731
 51
126.936189897269
  0
LINE
  5
16A4
330
1F
100
AcDbEntity
  8
AM_VIS
100
AcDbLine
 10
2597.474191437149
 20
947.2494132504763
 30
0.0
 11
2585.974191437149
 21
947.2494132504763
 31
0.0
  0
LINE
  5
16A5
330
1F
100
AcDbEntity
  8
AM_VIS
100
AcDbLine
 10
2597.474191437149
 20
935.2494132504764
 30
0.0
 11
2585.974191437149
 21
935.2494132504764
 31
0.0
  0
LINE
  5
16A6
330
1F
100
AcDbEntity
  8
AM_VIS
100
AcDbLine
 10
2597.974191437149
 20
946.7494132504764
 30
0.0
 11
2597.474191437149
 21
947.2494132504763
 31
0.0
  0
LINE
  5
16A7
330
1F
100
AcDbEntity
  8
AM_VIS
100
AcDbLine
 10
2597.974191437149
 20
935.7494132504765
 30
0.0
 11
2597.474191437149
 21
935.2494132504764
 31
0.0
  0
ARC
  5
16A8
330
1F
100
AcDbEntity
  8
AM_VIS
100
AcDbCircle
 10
2578.974191437149
 20
941.2494132504765
 30
0.0
 40
11.61895003862225
100
AcDbArc
 50
153.434948822922
 51
206.565051177078
  0
ARC
  5
16A9
330
1F
100
AcDbEntity
  8
AM_VIS
100
AcDbCircle
 10
2573.974191437149
 20
941.2494132504765
 30
0.0
 40
3.0
100
AcDbArc
 50
126.9361898982095
 51
233.0638101017904
  0
ARC
  5
16AA
330
1F
100
AcDbEntity
  8
AM_VIS
100
AcDbCircle
 10
2573.974191437149
 20
941.2494132504765
 30
0.0
 40
3.0
100
AcDbArc
 50
306.9361898982096
 51
53.06381010179042
  0
LINE
  5
16AB
330
1F
100
AcDbEntity
  8
AM_VIS
100
AcDbLine
 10
2585.974191437149
 20
935.2494132504764
 30
0.0
 11
2585.974191437149
 21
936.0532608277699
 31
0.0
  0
LINE
  5
16AC
330
1F
100
AcDbEntity
  8
AM_VIS
100
AcDbLine
 10
2568.581886591736
 20
936.0532608277699
 30
0.0
 11
2568.581886591736
 21
946.4455656731832
 31
0.0
  0
LINE
  5
16AD
330
1F
100
AcDbEntity
  8
AM_VIS
100
AcDbLine
 10
2585.974191437149
 20
946.4455656731832
 30
0.0
 11
2585.974191437149
 21
947.2494132504763
 31
0.0
  0
LINE
  5
16AE
330
1F
100
AcDbEntity
  8
AM_VIS
100
AcDbLine
 10
2597.974191437149
 20
946.7494132504764
 30
0.0
 11
2597.974191437149
 21
935.7494132504765
 31
0.0
  0
LINE
  5
16AF
330
1F
100
AcDbEntity
  8
AM_VIS
100
AcDbLine
 10
2585.974191437149
 20
963.3569954938034
 30
0.0
 11
2568.581886591736
 21
963.3569954938034
 31
0.0
  0
LINE
  5
16B0
330
1F
100
AcDbEntity
  8
AM_VIS
100
AcDbLine
 10
2568.581886591736
 20
969.3569954938034
 30
0.0
 11
2585.974191437149
 21
969.3569954938034
 31
0.0
  0
ARC
  5
16B1
330
1F
100
AcDbEntity
  8
AM_VIS
100
AcDbCircle
 10
2573.044135104242
 20
948.4499669607471
 30
0.0
 40
12.704437319289
100
AcDbArc
 50
69.59208647332589
 51
77.57810939921268
  0
ARC
  5
16B2
330
1F
100
AcDbEntity
  8
AM_VIS
100
AcDbCircle
 10
2573.974191437149
 20
955.6608430706905
 30
0.0
 40
5.500000000406037
100
AcDbArc
 50
70.86607257003783
 51
109.1339274299621
  0
ARC
  5
16B3
330
1F
100
AcDbEntity
  8
AM_VIS
100
AcDbCircle
 10
2574.904247770056
 20
948.4499669607462
 30
0.0
 40
12.70443731928999
100
AcDbArc
 50
102.4218906007873
 51
110.4079135266741
  0
ARC
  5
16B4
330
1F
100
AcDbEntity
  8
AM_VIS
100
AcDbCircle
 10
2573.974191437149
 20
977.0531479165098
 30
0.0
 40
5.500000000000033
100
AcDbArc
 50
250.8660725708949
 51
289.1339274291052
  0
ARC
  5
16B5
330
1F
100
AcDbEntity
  8
AM_VIS
100
AcDbCircle
 10
2573.044135104102
 20
984.2640240272622
 30
0.0
 40
12.70443731971541
100
AcDbArc
 50
282.4218906000412
 51
290.4079135266207
  0
ARC
  5
16B6
330
1F
100
AcDbEntity
  8
AM_VIS
100
AcDbCircle
 10
2574.904247770196
 20
984.2640240272615
 30
0.0
 40
12.70443731971449
100
AcDbArc
 50
249.5920864733792
 51
257.5781093999587
  0
LINE
  5
16B7
330
1F
100
AcDbEntity
  8
AM_VIS
100
AcDbLine
 10
2570.474191437149
 20
972.3569954938033
 30
0.0
 11
2568.581886591736
 21
972.3569954938033
 31
0.0
  0
LINE
  5
16B8
330
1F
100
AcDbEntity
  8
AM_VIS
100
AcDbLine
 10
2597.474191437149
 20
972.3569954938033
 30
0.0
 11
2577.474191437149
 21
972.3569954938033
 31
0.0
  0
LINE
  5
16B9
330
1F
100
AcDbEntity
  8
AM_VIS
100
AcDbLine
 10
2570.474191437149
 20
960.3569954938034
 30
0.0
 11
2568.581886591736
 21
960.3569954938034
 31
0.0
  0
LINE
  5
16BA
330
1F
100
AcDbEntity
  8
AM_VIS
100
AcDbLine
 10
2597.474191437149
 20
960.3569954938034
 30
0.0
 11
2577.474191437149
 21
960.3569954938034
 31
0.0
  0
LINE
  5
16BB
330
1F
100
AcDbEntity
  8
AM_VIS
100
AcDbLine
 10
2597.974191437149
 20
971.8569954938034
 30
0.0
 11
2597.474191437149
 21
972.3569954938033
 31
0.0
  0
LINE
  5
16BC
330
1F
100
AcDbEntity
  8
AM_VIS
100
AcDbLine
 10
2597.974191437149
 20
960.8569954938033
 30
0.0
 11
2597.474191437149
 21
960.3569954938034
 31
0.0
  0
LINE
  5
16BD
330
1F
100
AcDbEntity
  8
AM_VIS
100
AcDbLine
 10
2567.355241398527
 20
963.3569954938034
 30
0.0
 11
2568.581886591736
 21
963.3569954938034
 31
0.0
  0
LINE
  5
16BE
330
1F
100
AcDbEntity
  8
AM_VIS
100
AcDbLine
 10
2568.581886591736
 20
969.3569954938034
 30
0.0
 11
2567.355241398527
 21
969.3569954938034
 31
0.0
  0
LINE
  5
16BF
330
1F
100
AcDbEntity
  8
AM_VIS
100
AcDbLine
 10
2568.581886591736
 20
969.3569954938034
 30
0.0
 11
2568.581886591736
 21
972.3569954938033
 31
0.0
  0
LINE
  5
16C0
330
1F
100
AcDbEntity
  8
AM_VIS
100
AcDbLine
 10
2568.581886591736
 20
960.3569954938034
 30
0.0
 11
2568.581886591736
 21
963.3569954938034
 31
0.0
  0
LINE
  5
16C1
330
1F
100
AcDbEntity
  8
AM_VIS
100
AcDbLine
 10
2585.974191437149
 20
963.3569954938034
 30
0.0
 11
2585.974191437149
 21
969.3569954938034
 31
0.0
  0
LINE
  5
16C2
330
1F
100
AcDbEntity
  8
AM_VIS
100
AcDbLine
 10
2597.974191437149
 20
971.8569954938034
 30
0.0
 11
2597.974191437149
 21
960.8569954938033
 31
0.0
  0
ARC
  5
16C3
330
1F
100
AcDbEntity
  8
AM_VIS
100
AcDbCircle
 10
2578.974191437149
 20
966.3569954938035
 30
0.0
 40
12.0
100
AcDbArc
 50
150.0000000000027
 51
165.5224878140705
  0
ARC
  5
16C4
330
1F
100
AcDbEntity
  8
AM_VIS
100
AcDbCircle
 10
2578.974191437149
 20
966.3569954938035
 30
0.0
 40
12.0
100
AcDbArc
 50
194.4775121859295
 51
209.9999999999973
  0
LINE
  5
16C5
330
1F
100
AcDbEntity
  8
AM_VIS
100
AcDbLine
 10
2556.935574929799
 20
935.5606793323348
 30
0.0
 11
2556.935574929799
 21
945.9529841777483
 31
0.0
  0
LINE
  5
16C6
330
1F
100
AcDbEntity
  8
AM_VIS
100
AcDbLine
 10
2550.935574929799
 20
945.9529841777483
 30
0.0
 11
2550.935574929799
 21
935.5606793323349
 31
0.0
  0
ARC
  5
16C7
330
1F
100
AcDbEntity
  8
AM_VIS
100
AcDbCircle
 10
2553.935574929799
 20
940.7568317550415
 30
0.0
 40
6.0
100
AcDbArc
 50
119.9999999999973
 51
240.0000000000027
  0
ARC
  5
16C8
330
1F
100
AcDbEntity
  8
AM_VIS
100
AcDbCircle
 10
2553.935574929799
 20
940.7568317550415
 30
0.0
 40
6.0
100
AcDbArc
 50
240.0000000000027
 51
299.9999999999973
  0
ARC
  5
16C9
330
1F
100
AcDbEntity
  8
AM_VIS
100
AcDbCircle
 10
2553.935574929799
 20
940.7568317550415
 30
0.0
 40
6.0
100
AcDbArc
 50
299.9999999999973
 51
60.00000000000272
  0
ARC
  5
16CA
330
1F
100
AcDbEntity
  8
AM_VIS
100
AcDbCircle
 10
2553.935574929799
 20
940.7568317550415
 30
0.0
 40
6.0
100
AcDbArc
 50
60.00000000000272
 51
119.9999999999973
  0
CIRCLE
  5
16CB
330
1F
100
AcDbEntity
  8
AM_VIS
100
AcDbCircle
 10
2553.935574929799
 20
940.7568317550415
 30
0.0
 40
2.5
  0
DIMENSION
  5
16DC
102
{ACAD_XDICTIONARY
360
16E9
102
}
102
{ACAD_REACTORS
330
16EA
102
}
330
1F
100
AcDbEntity
  8
AM_5
100
AcDbDimension
  2
*D5
 10
2630.233364801031
 20
1089.648014470214
 30
0.0
 11
2576.23336480103
 21
1092.148014470214
 31
0.0
 70
    32
  1
<>+stroke
 71
     5
 42
108.0
  3
AM_ISO$0
100
AcDbAlignedDimension
 13
2522.233364801031
 23
1109.298014470214
 33
0.0
 14
2630.233364801031
 24
1104.998014470214
 34
0.0
 50
0.0000000000001018
100
AcDbRotatedDimension
1001
ACAD
1000
DSTYLE
1002
{
1070
    40
1040
1.0
1070
   144
1040
1.0
1070
   272
1070
     8
1002
}
  0
DIMENSION
  5
1702
102
{ACAD_XDICTIONARY
360
170F
102
}
102
{ACAD_REACTORS
330
1710
102
}
330
1F
100
AcDbEntity
  8
AM_5
100
AcDbDimension
  2
*D6
 10
2660.464203156159
 20
1089.648014470214
 30
0.0
 11
2654.464203156158
 21
1092.965386088622
 31
0.0
 70
    32
  1
<>{}{\H0.71x;\C3;\S-0.05^ -0.4;}
 71
     5
 42
12.0
  3
AM_ISO$0
100
AcDbAlignedDimension
 13
2648.464203156159
 23
1106.206511848085
 33
0.0
 14
2660.464203156159
 24
1106.206511848085
 34
0.0
 50
0.0000000000001018
100
AcDbRotatedDimension
1001
ACAD
1000
DSTYLE
1002
{
1070
   286
1070
     0
1070
   284
1070
     8
1070
   274
1070
     2
1070
    47
1040
-0.05
1070
    48
1040
0.4
1070
   272
1070
     8
1002
}
1001
GENIUS_GENDTOL_13
1000
TolSmNrm
1000

1000
{\H0.71x;$2\S$+$P^ $-$M;}
1040
12.0
  0
DIMENSION
  5
171D
102
{ACAD_XDICTIONARY
360
1726
102
}
102
{ACAD_REACTORS
330
1727
102
}
330
1F
100
AcDbEntity
  8
AM_5
100
AcDbDimension
  2
*D7
 10
2621.752851204542
 20
1108.888784796417
 30
0.0
 11
2635.88278378721
 21
1124.776539790088
 31
0.0
 70
   163
  1
<>{}{\H0.71x;\C3; H9}
 71
     5
 42
6.000000000000909
  3
AM_ISO$3
100
AcDbDiametricDimension
 15
2624.713878397518
 25
1114.107244144009
 35
0.0
 40
0.0
1001
GENIUS_GENDTOL_13
1000
FitSmTxt
1000
H9
1000
{\H0.71x;$2 $T}
1040
6.0
1001
ACAD
1000
DSTYLE
1002
{
1070
   286
1070
     0
1070
   284
1070
     8
1070
    47
1040
0.03
1070
    48
1040
0.0
1070
   272
1070
     8
1070
   274
1070
     3
1002
}
  0
INSERT
  5
1797
330
1F
100
AcDbEntity
  8
AM_5
100
AcDbBlockReference
  2
*S10
 10
0.0
 20
0.0
 30
0.0
  0
TEXT
  5
1799
330
1F
100
AcDbEntity
  8
AM_5
100
AcDbText
 10
2620.252378158422
 20
1172.828491759913
 30
0.0
 40
3.0
  1
2-M5
100
AcDbText
  0
INSERT
  5
196A
330
1F
100
AcDbEntity
  8
AM_5
100
AcDbBlockReference
  2
*S11
 10
0.0
 20
0.0
 30
0.0
  0
TEXT
  5
196B
330
1F
100
AcDbEntity
  8
AM_5
100
AcDbText
 10
2534.024049132942
 20
1125.104877778026
 30
0.0
 40
3.0
  1
M6x1.0
100
AcDbText
  0
TEXT
  5
196E
330
1F
100
AcDbEntity
  8
LOGO
 62
     7
100
AcDbText
 10
2519.210563503149
 20
909.655881925115
 30
0.0
 40
3.839443981900452
  1
Order example:
 41
0.8
  7
CHINESET
100
AcDbText
  0
TEXT
  5
196F
330
1F
100
AcDbEntity
  8
LOGO
 62
     7
100
AcDbText
 10
2519.899391504412
 20
915.0610240846107
 30
0.0
 40
5.759165972850677
  1
訂購代號:
  7
CHINESET
100
AcDbText
  0
LINE
  5
1970
330
1F
100
AcDbEntity
  8
LOGO
 62
     1
100
AcDbLine
 10
2850.191486369011
 20
922.2708449857286
 30
0.0
 11
2454.191486369011
 21
922.2708449857286
 31
0.0
  0
LINE
  5
1971
330
1F
100
AcDbEntity
  8
LOGO
 62
     1
100
AcDbLine
 10
2517.542312070368
 20
893.4750151214752
 30
0.0
 11
2517.542312070368
 21
922.2708449857286
 31
0.0
  0
TEXT
  5
1972
330
1F
100
AcDbEntity
  8
LOGO
  6
Continuous
 62
     5
100
AcDbText
 10
2464.53507789601
 20
899.1319124416115
 30
0.0
 40
4.31937447963801
  1
金器工業股份有限公司
  7
CHINESET
100
AcDbText
  0
TEXT
  5
1973
330
1F
100
AcDbEntity
  8
LOGO
  6
Continuous
 62
     5
100
AcDbText
 10
2456.601241523014
 20
894.8116917032276
 30
0.0
 40
2.879582986425338
  1
MINDMAN INDUSTRIAL CO., LTD.
 41
0.85
  7
CHINESET
100
AcDbText
  0
LINE
  5
1974
330
1F
100
AcDbEntity
  8
LOGO
 62
     1
100
AcDbLine
 10
2517.542312070368
 20
916.5116790128781
 30
0.0
 11
2475.308428269463
 21
916.5116790128781
 31
0.0
  0
LINE
  5
1975
330
1F
100
AcDbEntity
  8
LOGO
 62
     1
100
AcDbLine
 10
2517.542312070368
 20
910.7525130400274
 30
0.0
 11
2475.308428269463
 21
910.7525130400274
 31
0.0
  0
LINE
  5
1976
330
1F
100
AcDbEntity
  8
LOGO
 62
     1
100
AcDbLine
 10
2517.542312070368
 20
904.9933470671769
 30
0.0
 11
2454.191486369011
 21
904.9933470671769
 31
0.0
  0
LINE
  5
1977
330
1F
100
AcDbEntity
  8
LOGO
 62
     1
100
AcDbLine
 10
2475.308428269463
 20
904.9933470671769
 30
0.0
 11
2475.308428269463
 21
922.2708449857286
 31
0.0
  0
TEXT
  5
1978
330
1F
100
AcDbEntity
  8
LOGO
 62
     6
100
AcDbText
 10
2502.66494144554
 20
906.4331385603892
 30
0.0
 40
2.879582986425338
  1
m/m
  7
CHINESET
 72
     1
 11
2507.738492421623
 21
907.8729300536018
 31
0.0
100
AcDbText
 73
     2
  0
TEXT
  5
1979
330
1F
100
AcDbEntity
  8
LOGO
 62
     6
100
AcDbText
 10
2502.66494144554
 20
917.9514705060906
 30
0.0
 40
2.879582986425338
  1
1 : 1
  7
CHINESET
 72
     1
 11
2507.738492421623
 21
919.3912619993032
 31
0.0
100
AcDbText
 73
     2
  0
LINE
  5
197A
330
1F
100
AcDbEntity
  8
LOGO
 62
     1
100
AcDbLine
 10
2498.345092160866
 20
904.9933470671769
 30
0.0
 11
2498.345092160866
 21
922.2708449857286
 31
0.0
  0
CIRCLE
  5
197B
330
1F
100
AcDbEntity
  8
LOGO
  6
Continuous
 62
     6
100
AcDbCircle
 10
2503.677000232779
 20
913.638255475533
 30
0.0
 40
1.671953659661709
  0
CIRCLE
  5
197C
330
1F
100
AcDbEntity
  8
LOGO
  6
Continuous
 62
     6
100
AcDbCircle
 10
2503.677000232779
 20
913.638255475533
 30
0.0
 40
0.9796168348784597
  0
LINE
  5
197D
330
1F
100
AcDbEntity
  8
LOGO
 62
     6
100
AcDbLine
 10
2514.183751035391
 20
911.9663018158709
 30
0.0
 11
2514.183751035391
 21
915.3102091351952
 31
0.0
  0
LINE
  5
197E
330
1F
100
AcDbEntity
  8
LOGO
 62
     6
100
AcDbLine
 10
2508.942272287071
 20
912.6586386406547
 30
0.0
 11
2508.942272287071
 21
914.6178723104116
 31
0.0
  0
LINE
  5
197F
330
1F
100
AcDbEntity
  8
LOGO
  6
Continuous
 62
     6
100
AcDbLine
 10
2508.942272287071
 20
914.6178723104116
 30
0.0
 11
2514.183751035391
 21
915.3102091351952
 31
0.0
  0
LINE
  5
1980
330
1F
100
AcDbEntity
  8
LOGO
  6
Continuous
 62
     6
100
AcDbLine
 10
2508.942272287071
 20
912.6586386406547
 30
0.0
 11
2514.183751035391
 21
911.9663018158709
 31
0.0
  0
TEXT
  5
1981
330
1F
100
AcDbEntity
  8
LOGO
 62
     6
100
AcDbText
 10
2477.682798705145
 20
917.952887623702
 30
188.7231250944717
 40
2.879582986425338
  1
比例 Scale:
 41
0.9
  7
CHINESET
 72
     4
 11
2486.826760215164
 21
919.3912619993032
 31
188.7231250944717
100
AcDbText
  0
TEXT
  5
1982
330
1F
100
AcDbEntity
  8
LOGO
 62
     6
100
AcDbText
 10
2478.689367222275
 20
912.2328104782997
 30
188.7231250944717
 40
2.879582986425338
  1
投影 View:
 41
0.9
  7
CHINESET
 72
     4
 11
2486.826760215164
 21
913.6320960264525
 31
188.7231250944717
100
AcDbText
  0
TEXT
  5
1983
330
1F
100
AcDbEntity
  8
LOGO
 62
     6
100
AcDbText
 10
2478.970897880322
 20
906.4331385603892
 30
188.7231250944717
 40
2.879582986425338
  1
單位 Unit:
 41
0.9
  7
CHINESET
 72
     4
 11
2486.826760215164
 21
907.8729300536018
 31
188.7231250944717
100
AcDbText
  0
LWPOLYLINE
  5
1984
330
1F
100
AcDbEntity
  8
0
 62
     4
100
AcDbPolyline
 90
        4
 70
     1
 43
0.0
 10
2454.19148636901
 20
922.2708449857286
 10
2850.19148636901
 20
922.2708449857286
 10
2850.19148636901
 20
1197.642532255958
 10
2454.19148636901
 20
1197.642532255958
1001
GENIUS_GENREC_14
1002
{
1000
PYDIR
1011
2454.19148636901
1021
1197.642532255958
1031
0.0
1002
}
1002
{
1000
PXDIR
1011
2850.19148636901
1021
922.2708449857286
1031
0.0
1002
}
1002
{
1000
PORI
1011
2454.19148636901
1021
922.2708449857286
1031
0.0
1002
}
1002
{
1000
PINS
1011
2454.19148636901
1021
922.2708449857286
1031
0.0
1002
}
1002
{
1000
PINS2
1011
2850.19148636901
1021
1197.642532255958
1031
0.0
1002
}
1002
{
1000
C
1070
     1
1002
}
1001
GENIUS_GENODEF_13
1002
{
1000
HIER
1070
     0
1002
}
1002
{
1000
MANEDIT
1070
     0
1002
}
1002
{
1000
NOSEL
1070
     0
1002
}
1002
{
1000
BEHIND
1070
     0
1002
}
1002
{
1000
OTHER
1070
     0
1002
}
1002
{
1000
REACTOR
1002
}
1001
GENIUS_GENOBJ-N-REC_13
1002
{
1000
OWNER
1000
GEN
1002
}
  0
SOLID
  5
1985
330
1F
100
AcDbEntity
  8
LOGO
 62
     5
100
AcDbTrace
 10
2457.179099931218
 20
909.7802439057465
 30
0.0
 11
2458.424156054292
 21
909.7802439057462
 31
0.0
 12
2463.619045395387
 22
921.5868105900575
 32
0.0
 13
2464.864101518461
 23
921.5868105900566
 33
0.0
  0
SOLID
  5
1986
330
1F
100
AcDbEntity
  8
LOGO
 62
     5
100
AcDbTrace
 10
2458.939351691426
 20
909.7802439057465
 30
0.0
 11
2460.184407814498
 21
909.7802439057465
 31
0.0
 12
2464.864101518461
 22
920.6422852553121
 32
0.0
 13
2463.619045395387
 23
916.0770794707119
 33
0.0
  0
SOLID
  5
1987
330
1F
100
AcDbEntity
  8
LOGO
 62
     2
100
AcDbTrace
 10
2458.424156054292
 20
909.7802439057462
 30
0.0
 11
2458.939351691426
 21
909.7802439057465
 31
0.0
 12
2464.864101518461
 22
921.5868105900566
 32
0.0
 13
2465.379297155596
 23
921.5868105900566
 33
0.0
  0
SOLID
  5
1988
330
1F
100
AcDbEntity
  8
LOGO
 62
     5
100
AcDbTrace
 10
2455.182969640771
 20
905.486946929634
 30
0.0
 11
2455.612299338383
 21
905.486946929634
 31
0.0
 12
2456.82132518321
 22
907.6335954176901
 32
0.0
 13
2457.25065488082
 23
907.6335954176901
 33
0.0
  0
SOLID
  5
1989
330
1F
100
AcDbEntity
  8
LOGO
 62
     5
100
AcDbTrace
 10
2456.82132518321
 20
907.6335954176901
 30
0.0
 11
2457.25065488082
 21
907.6335954176901
 31
0.0
 12
2456.82132518321
 22
905.486946929634
 32
0.0
 13
2457.25065488082
 23
905.486946929634
 33
0.0
  0
SOLID
  5
198A
330
1F
100
AcDbEntity
  8
LOGO
 62
     5
100
AcDbTrace
 10
2456.82132518321
 20
905.486946929634
 30
0.0
 11
2457.25065488082
 21
905.486946929634
 31
0.0
 12
2458.459680725649
 22
907.6335954176901
 32
0.0
 13
2458.88901042326
 23
907.6335954176901
 33
0.0
  0
SOLID
  5
198B
330
1F
100
AcDbEntity
  8
LOGO
 62
     5
100
AcDbTrace
 10
2458.459680725649
 20
907.6335954176901
 30
0.0
 11
2458.88901042326
 21
907.6335954176901
 31
0.0
 12
2458.459680725649
 22
905.486946929634
 32
0.0
 13
2458.88901042326
 23
905.486946929634
 33
0.0
  0
POLYLINE
  5
198C
330
1F
100
AcDbEntity
  8
LOGO
 62
     5
100
AcDb2dPolyline
 66
     1
 10
0.0
 20
0.0
 30
0.0
 40
0.4300177259728505
 41
0.4300177259728505
  0
VERTEX
  5
198D
330
198C
100
AcDbEntity
  8
LOGO
 62
     5
100
AcDbVertex
100
AcDb2dVertex
 10
2472.850665936574
 20
906.7749360224675
 30
0.0
 42
1.0
  0
VERTEX
  5
198E
330
198C
100
AcDbEntity
  8
LOGO
 62
     5
100
AcDbVertex
100
AcDb2dVertex
 10
2471.560612758656
 20
906.7749360224675
 30
0.0
 42
1.0
  0
SEQEND
  5
198F
330
198C
100
AcDbEntity
  8
LOGO
 62
     5
  0
POLYLINE
  5
1990
330
1F
100
AcDbEntity
  8
LOGO
 62
     5
100
AcDb2dPolyline
 66
     1
 10
0.0
 20
0.0
 30
0.0
 70
     1
  0
VERTEX
  5
1991
330
1990
100
AcDbEntity
  8
LOGO
 62
     5
100
AcDbVertex
100
AcDb2dVertex
 10
2469.128805136713
 20
906.5602711736616
 30
0.0
 42
1.000000057330635
  0
VERTEX
  5
1992
330
1990
100
AcDbEntity
  8
LOGO
 62
     5
100
AcDbVertex
100
AcDb2dVertex
 10
2470.416794229546
 20
906.5602711736616
 30
0.0
 42
1.000000057330635
  0
SEQEND
  5
1993
330
1990
100
AcDbEntity
  8
LOGO
 62
     5
  0
CIRCLE
  5
1994
330
1F
100
AcDbEntity
  8
LOGO
 62
     5
100
AcDbCircle
 10
2469.772799683131
 20
906.5602711736616
 30
0.0
 40
0.6439945464169412
  0
POLYLINE
  5
1995
330
1F
100
AcDbEntity
  8
LOGO
 62
     5
100
AcDb2dPolyline
 66
     1
 10
0.0
 20
0.0
 30
0.0
 70
     1
 40
0.4300177259728505
 41
0.4300177259728505
  0
VERTEX
  5
1996
330
1995
100
AcDbEntity
  8
LOGO
 62
     5
100
AcDbVertex
100
AcDb2dVertex
 10
2468.912764231184
 20
906.5602711736616
 30
0.0
 42
1.0
  0
VERTEX
  5
1997
330
1995
100
AcDbEntity
  8
LOGO
 62
     5
100
AcDbVertex
100
AcDb2dVertex
 10
2470.632835135076
 20
906.5602711736616
 30
0.0
 42
1.0
  0
SEQEND
  5
1998
330
1995
100
AcDbEntity
  8
LOGO
 62
     5
  0
LINE
  5
1999
330
1F
100
AcDbEntity
  8
LOGO
 62
     5
100
AcDbLine
 10
2473.064298742837
 20
905.486946929634
 30
0.0
 11
2473.064298742837
 21
906.7749360224675
 31
0.0
  0
SOLID
  5
199A
330
1F
100
AcDbEntity
  8
LOGO
 62
     5
100
AcDbTrace
 10
2470.416751296578
 20
907.6335954176901
 30
0.0
 11
2470.846080994189
 21
907.6335954176901
 31
0.0
 12
2470.416751296578
 22
905.486946929634
 32
0.0
 13
2470.846080994189
 23
905.486946929634
 33
0.0
  0
SOLID
  5
199B
330
1F
100
AcDbEntity
  8
LOGO
 62
     5
100
AcDbTrace
 10
2471.346979952392
 20
905.486946929634
 30
0.0
 11
2471.776309650003
 21
905.486946929634
 31
0.0
 12
2471.346979952392
 22
907.6335954176901
 32
0.0
 13
2471.776309650003
 23
907.6335954176901
 33
0.0
  0
SOLID
  5
199C
330
1F
100
AcDbEntity
  8
LOGO
 62
     5
100
AcDbTrace
 10
2472.634969045226
 20
906.7749360224675
 30
0.0
 11
2473.064298742837
 21
906.7749360224675
 31
0.0
 12
2472.634969045226
 22
905.486946929634
 32
0.0
 13
2473.064298742837
 23
905.486946929634
 33
0.0
  0
SOLID
  5
199D
330
1F
100
AcDbEntity
  8
LOGO
 62
     5
100
AcDbTrace
 10
2471.30404698263
 20
920.6422852553121
 30
0.0
 11
2470.058990859558
 21
916.0770794707119
 31
0.0
 12
2471.30404698263
 22
909.7802439057462
 32
0.0
 13
2470.058990859558
 23
909.7802439057462
 33
0.0
  0
SOLID
  5
199E
330
1F
100
AcDbEntity
  8
LOGO
 62
     5
100
AcDbTrace
 10
2471.819242619764
 20
909.7802439057462
 30
0.0
 11
2473.064298742837
 21
909.7802439057462
 31
0.0
 12
2471.819242619764
 22
921.5868105900566
 32
0.0
 13
2473.064298742837
 23
921.5868105900575
 33
0.0
  0
SOLID
  5
199F
330
1F
100
AcDbEntity
  8
LOGO
 62
     2
100
AcDbTrace
 10
2471.30404698263
 20
921.5868105900575
 30
0.0
 11
2471.819242619764
 21
921.5868105900566
 31
0.0
 12
2471.30404698263
 22
909.7802439057462
 32
0.0
 13
2471.819242619764
 23
909.7802439057462
 33
0.0
  0
POLYLINE
  5
19A0
330
1F
100
AcDbEntity
  8
LOGO
 62
     5
100
AcDb2dPolyline
 66
     1
 10
0.0
 20
0.0
 30
0.0
 40
0.4300177259728505
 41
0.4300177259728505
  0
VERTEX
  5
19A1
330
19A0
100
AcDbEntity
  8
LOGO
 62
     5
100
AcDbVertex
100
AcDb2dVertex
 10
2466.696911648833
 20
906.7749360224675
 30
0.0
 42
1.0
  0
VERTEX
  5
19A2
330
19A0
100
AcDbEntity
  8
LOGO
 62
     5
100
AcDbVertex
100
AcDb2dVertex
 10
2465.406858470913
 20
906.7749360224675
 30
0.0
 42
1.0
  0
SEQEND
  5
19A3
330
19A0
100
AcDbEntity
  8
LOGO
 62
     5
  0
POLYLINE
  5
19A4
330
1F
100
AcDbEntity
  8
LOGO
 62
     5
100
AcDb2dPolyline
 66
     1
 10
0.0
 20
0.0
 30
0.0
 40
0.4300177259728505
 41
0.4300177259728505
  0
VERTEX
  5
19A5
330
19A4
100
AcDbEntity
  8
LOGO
 62
     5
100
AcDbVertex
100
AcDb2dVertex
 10
2467.984900741665
 20
906.7749360224675
 30
0.0
 42
1.0
  0
VERTEX
  5
19A6
330
19A4
100
AcDbEntity
  8
LOGO
 62
     5
100
AcDbVertex
100
AcDb2dVertex
 10
2466.694847563747
 20
906.7749360224675
 30
0.0
 42
1.0
  0
SEQEND
  5
19A7
330
19A4
100
AcDbEntity
  8
LOGO
 62
     5
  0
POLYLINE
  5
19A8
330
1F
100
AcDbEntity
  8
LOGO
 62
     5
100
AcDb2dPolyline
 66
     1
 10
0.0
 20
0.0
 30
0.0
 40
0.4300177259728505
 41
0.4300177259728505
  0
VERTEX
  5
19A9
330
19A8
100
AcDbEntity
  8
LOGO
 62
     5
100
AcDbVertex
100
AcDb2dVertex
 10
2461.831146453923
 20
906.7749360224675
 30
0.0
 42
1.0
  0
VERTEX
  5
19AA
330
19A8
100
AcDbEntity
  8
LOGO
 62
     5
100
AcDbVertex
100
AcDb2dVertex
 10
2460.541093276006
 20
906.7749360224675
 30
0.0
 42
1.0
  0
SEQEND
  5
19AB
330
19A8
100
AcDbEntity
  8
LOGO
 62
     5
  0
SOLID
  5
19AC
330
1F
100
AcDbEntity
  8
LOGO
 62
     5
100
AcDbTrace
 10
2460.327460469742
 20
907.6335954176901
 30
0.0
 11
2460.756790167352
 21
907.6335954176901
 31
0.0
 12
2460.327460469742
 22
905.486946929634
 32
0.0
 13
2460.756790167352
 23
905.486946929634
 33
0.0
  0
SOLID
  5
19AD
330
1F
100
AcDbEntity
  8
LOGO
 62
     5
100
AcDbTrace
 10
2461.615449562576
 20
906.7749360224675
 30
0.0
 11
2462.044779260188
 21
906.7749360224675
 31
0.0
 12
2461.615449562576
 22
905.486946929634
 32
0.0
 13
2462.044779260188
 23
905.486946929634
 33
0.0
  0
POLYLINE
  5
19AE
330
1F
100
AcDbEntity
  8
LOGO
 62
     5
100
AcDb2dPolyline
 66
     1
 10
0.0
 20
0.0
 30
0.0
 70
     1
 40
0.4300177259728505
 41
0.4300177259728505
  0
VERTEX
  5
19AF
330
19AE
100
AcDbEntity
  8
LOGO
 62
     5
100
AcDbVertex
100
AcDb2dVertex
 10
2462.759009943442
 20
906.5602711736616
 30
0.0
 42
1.0
  0
VERTEX
  5
19B0
330
19AE
100
AcDbEntity
  8
LOGO
 62
     5
100
AcDbVertex
100
AcDb2dVertex
 10
2464.479080847334
 20
906.5602711736616
 30
0.0
 42
1.0
  0
SEQEND
  5
19B1
330
19AE
100
AcDbEntity
  8
LOGO
 62
     5
  0
SOLID
  5
19B2
330
1F
100
AcDbEntity
  8
LOGO
 62
     5
100
AcDbTrace
 10
2464.262997008836
 20
908.2775899641076
 30
0.0
 11
2464.692326706446
 21
908.2775899641076
 31
0.0
 12
2464.262997008836
 22
905.486946929634
 32
0.0
 13
2464.692326706446
 23
905.486946929634
 33
0.0
  0
SOLID
  5
19B3
330
1F
100
AcDbEntity
  8
LOGO
 62
     5
100
AcDbTrace
 10
2465.193225664651
 20
907.6335954176901
 30
0.0
 11
2465.622555362262
 21
907.6335954176901
 31
0.0
 12
2465.193225664651
 22
905.486946929634
 32
0.0
 13
2465.622555362262
 23
905.486946929634
 33
0.0
  0
SOLID
  5
19B4
330
1F
100
AcDbEntity
  8
LOGO
 62
     5
100
AcDbTrace
 10
2466.481214757484
 20
906.7749360224675
 30
0.0
 11
2466.910544455096
 21
906.7749360224675
 31
0.0
 12
2466.481214757484
 22
905.486946929634
 32
0.0
 13
2466.910544455096
 23
905.486946929634
 33
0.0
  0
SOLID
  5
19B5
330
1F
100
AcDbEntity
  8
LOGO
 62
     5
100
AcDbTrace
 10
2467.769203850318
 20
906.7749360224675
 30
0.0
 11
2468.198533547929
 21
906.7749360224675
 31
0.0
 12
2467.769203850318
 22
905.4869469296333
 32
0.0
 13
2468.198533547929
 23
905.4869469296333
 33
0.0
  0
SOLID
  5
19B6
330
1F
100
AcDbEntity
  8
LOGO
 62
     5
100
AcDbTrace
 10
2459.397231813927
 20
907.9341262060182
 30
0.0
 11
2459.826561511539
 21
907.9341262060182
 31
0.0
 12
2459.397231813927
 22
908.2775899641076
 32
0.0
 13
2459.826561511539
 23
908.2775899641076
 33
0.0
  0
SOLID
  5
19B7
330
1F
100
AcDbEntity
  8
LOGO
 62
     5
100
AcDbTrace
 10
2459.397231813927
 20
907.6335954176901
 30
0.0
 11
2459.826561511539
 21
907.6335954176901
 31
0.0
 12
2459.397231813927
 22
905.4869469296333
 32
0.0
 13
2459.826561511539
 23
905.486946929634
 33
0.0
  0
SOLID
  5
19B8
330
1F
100
AcDbEntity
  8
LOGO
 62
     5
100
AcDbTrace
 10
2463.619045395387
 20
909.7802439057465
 30
0.0
 11
2464.864101518461
 21
909.7802439057465
 31
0.0
 12
2463.619045395387
 22
916.0770794707119
 32
0.0
 13
2464.864101518461
 23
920.6422852553121
 33
0.0
  0
SOLID
  5
19B9
330
1F
100
AcDbEntity
  8
LOGO
 62
     5
100
AcDbTrace
 10
2465.379297155596
 20
921.5868105900566
 30
0.0
 11
2466.624353278667
 21
921.5868105900575
 31
0.0
 12
2465.379297155596
 22
910.7247692404913
 32
0.0
 13
2466.624353278667
 23
915.2899750250915
 33
0.0
  0
SOLID
  5
19BA
330
1F
100
AcDbEntity
  8
LOGO
 62
     2
100
AcDbTrace
 10
2464.864101518461
 20
921.5868105900566
 30
0.0
 11
2465.379297155596
 21
921.5868105900566
 31
0.0
 12
2464.864101518461
 22
909.7802439057465
 32
0.0
 13
2465.379297155596
 23
909.7802439057465
 33
0.0
  0
SOLID
  5
19BB
330
1F
100
AcDbEntity
  8
LOGO
 62
     5
100
AcDbTrace
 10
2465.379297155596
 20
910.7247692404913
 30
0.0
 11
2466.624353278667
 21
915.2899750250915
 31
0.0
 12
2471.30404698263
 22
921.5868105900575
 32
0.0
 13
2470.058990859558
 23
921.5868105900575
 33
0.0
  0
SOLID
  5
19BC
330
1F
100
AcDbEntity
  8
LOGO
 62
     5
100
AcDbTrace
 10
2465.379297155596
 20
909.7802439057465
 30
0.0
 11
2466.624353278667
 21
909.7802439057465
 31
0.0
 12
2471.30404698263
 22
920.6422852553121
 32
0.0
 13
2470.058990859558
 23
916.0770794707119
 33
0.0
  0
SOLID
  5
19BD
330
1F
100
AcDbEntity
  8
LOGO
 62
     2
100
AcDbTrace
 10
2464.864101518461
 20
909.7802439057465
 30
0.0
 11
2465.379297155596
 21
909.7802439057465
 31
0.0
 12
2471.30404698263
 22
921.5868105900575
 32
0.0
 13
2471.819242619764
 23
921.5868105900566
 33
0.0
  0
LWPOLYLINE
  5
19BE
330
1F
100
AcDbEntity
  8
0
 62
     1
100
AcDbPolyline
 90
        4
 70
     1
 43
0.0
 10
2454.19148636901
 20
922.2708449857286
 10
2850.19148636901
 20
922.2708449857286
 10
2850.19148636901
 20
893.4750151214746
 10
2454.19148636901
 20
893.4750151214746
1001
GENIUS_GENREC_14
1002
{
1000
PYDIR
1011
2454.19148636901
1021
893.4750151214746
1031
0.0
1002
}
1002
{
1000
PXDIR
1011
2850.19148636901
1021
922.2708449857286
1031
0.0
1002
}
1002
{
1000
PORI
1011
2454.19148636901
1021
922.2708449857286
1031
0.0
1002
}
1002
{
1000
PINS
1011
2454.19148636901
1021
922.2708449857286
1031
0.0
1002
}
1002
{
1000
PINS2
1011
2850.19148636901
1021
893.4750151214746
1031
0.0
1002
}
1002
{
1000
C
1070
     1
1002
}
1001
GENIUS_GENOBJ-N-REC_13
1002
{
1000
OWNER
1000
GEN
1002
}
1001
GENIUS_GENODEF_13
1002
{
1000
HIER
1070
     0
1002
}
1002
{
1000
MANEDIT
1070
     0
1002
}
1002
{
1000
NOSEL
1070
     0
1002
}
1002
{
1000
BEHIND
1070
     0
1002
}
1002
{
1000
OTHER
1070
     0
1002
}
1002
{
1000
REACTOR
1002
}
  0
LINE
  5
19BF
330
1F
100
AcDbEntity
  8
LOGO
 62
     6
100
AcDbLine
 10
2576.346917934343
 20
906.4331385603896
 30
0.0
 11
2576.346917934343
 21
895.8746676101629
 31
0.0
  0
LINE
  5
19C0
330
1F
100
AcDbEntity
  8
LOGO
 62
     6
100
AcDbLine
 10
2557.14969802484
 20
906.4331385603896
 30
0.0
 11
2557.14969802484
 21
895.8746676101629
 31
0.0
  0
LINE
  5
19C1
330
1F
100
AcDbEntity
  8
LOGO
 62
     6
100
AcDbLine
 10
2576.346917934343
 20
895.8746676101629
 30
0.0
 11
2557.14969802484
 21
895.8746676101629
 31
0.0
  0
LINE
  5
19C2
330
1F
100
AcDbEntity
  8
LOGO
 62
     6
100
AcDbLine
 10
2581.084763683853
 20
919.3912619993032
 30
0.0
 11
2557.14969802484
 21
919.3912619993032
 31
0.0
  0
LINE
  5
19C3
330
1F
100
AcDbEntity
  8
LOGO
 62
     6
100
AcDbLine
 10
2581.084763683853
 20
910.7525130400274
 30
0.0
 11
2557.14969802484
 21
910.7525130400274
 31
0.0
  0
LINE
  5
19C4
330
1F
100
AcDbEntity
  8
LOGO
 62
     6
100
AcDbLine
 10
2557.14969802484
 20
919.3912619993032
 30
0.0
 11
2557.14969802484
 21
910.7525130400274
 31
0.0
  0
LINE
  5
19C5
330
1F
100
AcDbEntity
  8
LOGO
 62
     6
100
AcDbLine
 10
2581.084763683853
 20
919.3912619993032
 30
0.0
 11
2581.084763683853
 21
910.7525130400274
 31
0.0
  0
LINE
  5
19C6
330
1F
100
AcDbEntity
  8
LOGO
 62
     6
100
AcDbLine
 10
2567.749920684252
 20
910.7525130400274
 30
0.0
 11
2567.749920684252
 21
906.4331385603896
 31
0.0
  0
TEXT
  5
19C7
330
1F
100
AcDbEntity
  8
LOGO
  6
Continuous
 62
     7
100
AcDbText
 10
2558.684668419963
 20
912.5558392554264
 30
0.0
 40
5.04
  1
MCMA
  7
CHINESET
100
AcDbText
  0
LINE
  5
19C8
330
1F
100
AcDbEntity
  8
LOGO
 62
     6
100
AcDbLine
 10
2576.346917934343
 20
906.4331385603896
 30
0.0
 11
2557.14969802484
 21
906.4331385603896
 31
0.0
  0
TEXT
  5
19C9
330
1F
100
AcDbEntity
  8
LOGO
  6
Continuous
 62
     6
100
AcDbText
 10
2562.366411093601
 20
897.3649733950296
 30
188.7231250944717
 40
2.159999999999999
  1
Model
  7
CHINESET
100
AcDbText
  0
TEXT
  5
19CA
330
1F
100
AcDbEntity
  8
LOGO
 62
     6
100
AcDbText
 10
2562.735103333607
 20
901.3691478818049
 30
188.7231250944717
 40
3.6
  1
型號
  7
CHINESET
100
AcDbText
  0
LINE
  5
19CB
330
1F
100
AcDbEntity
  8
LOGO
  6
Continuous
 62
     7
100
AcDbLine
 10
2582.71550535159
 20
915.0412877056067
 30
0.0
 11
2586.530061678063
 21
915.0412877056067
 31
0.0
  0
LINE
  5
19CC
330
1F
100
AcDbEntity
  8
LOGO
 62
     6
100
AcDbLine
 10
2600.340001409703
 20
906.4331385603896
 30
0.0
 11
2600.340001409703
 21
895.8746676101629
 31
0.0
  0
LINE
  5
19CD
330
1F
100
AcDbEntity
  8
LOGO
 62
     6
100
AcDbLine
 10
2578.175127187803
 20
906.4331385603896
 30
0.0
 11
2578.175127187803
 21
895.8746676101629
 31
0.0
  0
LINE
  5
19CE
330
1F
100
AcDbEntity
  8
LOGO
 62
     6
100
AcDbLine
 10
2600.340001409703
 20
895.8746676101629
 30
0.0
 11
2578.175127187803
 21
895.8746676101629
 31
0.0
  0
LINE
  5
19CF
330
1F
100
AcDbEntity
  8
LOGO
 62
     6
100
AcDbLine
 10
2597.793800438922
 20
919.3912619993032
 30
0.0
 11
2587.733353121802
 21
919.3912619993032
 31
0.0
  0
LINE
  5
19D0
330
1F
100
AcDbEntity
  8
LOGO
 62
     6
100
AcDbLine
 10
2597.793800438922
 20
910.7525130400274
 30
0.0
 11
2587.733353121802
 21
910.7525130400274
 31
0.0
  0
LINE
  5
19D1
330
1F
100
AcDbEntity
  8
LOGO
 62
     6
100
AcDbLine
 10
2587.733353121802
 20
919.3912619993032
 30
0.0
 11
2587.733353121802
 21
910.7525130400274
 31
0.0
  0
LINE
  5
19D2
330
1F
100
AcDbEntity
  8
LOGO
 62
     6
100
AcDbLine
 10
2597.793800438922
 20
919.3912619993032
 30
0.0
 11
2597.793800438922
 21
910.7525130400274
 31
0.0
  0
LINE
  5
19D3
330
1F
100
AcDbEntity
  8
LOGO
 62
     6
100
AcDbLine
 10
2592.763576780362
 20
910.7525130400274
 30
0.0
 11
2592.763576780362
 21
906.4331385603896
 31
0.0
  0
TEXT
  5
19D4
330
1F
100
AcDbEntity
  8
LOGO
  6
Continuous
 62
     7
100
AcDbText
 10
2589.883548706979
 20
912.5558392554264
 30
0.0
 40
5.04
  1
11
  7
CHINESET
100
AcDbText
  0
LINE
  5
19D5
330
1F
100
AcDbEntity
  8
LOGO
 62
     6
100
AcDbLine
 10
2600.340001409703
 20
906.4331385603896
 30
0.0
 11
2578.175127187803
 21
906.4331385603896
 31
0.0
  0
LINE
  5
19D6
330
1F
100
AcDbEntity
  8
LOGO
  6
Continuous
 62
     7
100
AcDbLine
 10
2599.5789268606
 20
915.0412877056067
 30
0.0
 11
2603.393483187073
 21
915.0412877056067
 31
0.0
  0
LINE
  5
19D7
330
1F
100
AcDbEntity
  8
LOGO
 62
     6
100
AcDbLine
 10
2619.869091307657
 20
906.4331385603896
 30
0.0
 11
2619.869091307657
 21
895.8746676101629
 31
0.0
  0
LINE
  5
19D8
330
1F
100
AcDbEntity
  8
LOGO
 62
     6
100
AcDbLine
 10
2602.302811808761
 20
906.4331385603896
 30
0.0
 11
2602.302811808761
 21
895.8746676101629
 31
0.0
  0
LINE
  5
19D9
330
1F
100
AcDbEntity
  8
LOGO
 62
     6
100
AcDbLine
 10
2619.869091307657
 20
895.8746676101629
 30
0.0
 11
2602.302811808761
 21
895.8746676101629
 31
0.0
  0
LINE
  5
19DA
330
1F
100
AcDbEntity
  8
LOGO
 62
     6
100
AcDbLine
 10
2615.764726198217
 20
919.3912619993032
 30
0.0
 11
2604.596774630811
 21
919.3912619993032
 31
0.0
  0
LINE
  5
19DB
330
1F
100
AcDbEntity
  8
LOGO
 62
     6
100
AcDbLine
 10
2615.764726198217
 20
910.7525130400274
 30
0.0
 11
2604.596774630811
 21
910.7525130400274
 31
0.0
  0
LINE
  5
19DC
330
1F
100
AcDbEntity
  8
LOGO
 62
     6
100
AcDbLine
 10
2604.596774630811
 20
919.3912619993032
 30
0.0
 11
2604.596774630811
 21
910.7525130400274
 31
0.0
  0
LINE
  5
19DD
330
1F
100
AcDbEntity
  8
LOGO
 62
     6
100
AcDbLine
 10
2615.764726198217
 20
919.3912619993032
 30
0.0
 11
2615.764726198217
 21
910.7525130400274
 31
0.0
  0
LINE
  5
19DE
330
1F
100
AcDbEntity
  8
LOGO
 62
     6
100
AcDbLine
 10
2610.180750414515
 20
910.7525130400274
 30
0.0
 11
2610.180750414515
 21
906.4331385603896
 31
0.0
  0
TEXT
  5
19DF
330
1F
100
AcDbEntity
  8
LOGO
  6
Continuous
 62
     7
100
AcDbText
 10
2606.253343956643
 20
912.5558392554264
 30
0.0
 40
5.04
  1
16
  7
CHINESET
100
AcDbText
  0
LINE
  5
19E0
330
1F
100
AcDbEntity
  8
LOGO
 62
     6
100
AcDbLine
 10
2619.869091307657
 20
906.4331385603896
 30
0.0
 11
2602.302811808761
 21
906.4331385603896
 31
0.0
  0
LINE
  5
19E1
330
1F
100
AcDbEntity
  8
LOGO
  6
Continuous
 62
     7
100
AcDbLine
 10
2617.481960155222
 20
915.0412877056067
 30
0.0
 11
2621.296516481696
 21
915.0412877056067
 31
0.0
  0
LINE
  5
19E2
330
1F
100
AcDbEntity
  8
LOGO
 62
     6
100
AcDbLine
 10
2637.467135111397
 20
906.4331385603896
 30
0.0
 11
2637.467135111397
 21
895.8746676101629
 31
0.0
  0
LINE
  5
19E3
330
1F
100
AcDbEntity
  8
LOGO
 62
     6
100
AcDbLine
 10
2621.827939052871
 20
906.4331385603896
 30
0.0
 11
2621.827939052871
 21
895.8746676101629
 31
0.0
  0
LINE
  5
19E4
330
1F
100
AcDbEntity
  8
LOGO
 62
     6
100
AcDbLine
 10
2637.467135111397
 20
895.8746676101629
 30
0.0
 11
2621.827939052871
 21
895.8746676101629
 31
0.0
  0
LINE
  5
19E5
330
1F
100
AcDbEntity
  8
LOGO
 62
     6
100
AcDbLine
 10
2631.691196921755
 20
919.3912619993032
 30
0.0
 11
2622.499807925433
 21
919.3912619993032
 31
0.0
  0
LINE
  5
19E6
330
1F
100
AcDbEntity
  8
LOGO
 62
     6
100
AcDbLine
 10
2631.691196921755
 20
910.7525130400274
 30
0.0
 11
2622.499807925433
 21
910.7525130400274
 31
0.0
  0
LINE
  5
19E7
330
1F
100
AcDbEntity
  8
LOGO
 62
     6
100
AcDbLine
 10
2622.499807925433
 20
919.3912619993032
 30
0.0
 11
2622.499807925433
 21
910.7525130400274
 31
0.0
  0
LINE
  5
19E8
330
1F
100
AcDbEntity
  8
LOGO
 62
     6
100
AcDbLine
 10
2631.691196921755
 20
919.3912619993032
 30
0.0
 11
2631.691196921755
 21
910.7525130400274
 31
0.0
  0
LINE
  5
19E9
330
1F
100
AcDbEntity
  8
LOGO
 62
     6
100
AcDbLine
 10
2627.095502423594
 20
910.7525130400274
 30
0.0
 11
2627.095502423594
 21
906.4331385603896
 31
0.0
  0
TEXT
  5
19EA
330
1F
100
AcDbEntity
  8
LOGO
  6
Continuous
 62
     7
100
AcDbText
 10
2625.597744705967
 20
912.5558392554264
 30
0.0
 40
5.04
  1
0
  7
CHINESET
100
AcDbText
  0
LINE
  5
19EB
330
1F
100
AcDbEntity
  8
LOGO
 62
     6
100
AcDbLine
 10
2637.467135111397
 20
906.4331385603896
 30
0.0
 11
2621.827939052871
 21
906.4331385603896
 31
0.0
  0
TEXT
  5
19EC
330
1F
100
AcDbEntity
  8
LOGO
  6
Continuous
 62
     6
100
AcDbText
 10
2580.251625654816
 20
897.3649733950296
 30
188.7231250944717
 40
2.159999999999999
  1
Acting type
  7
CHINESET
100
AcDbText
  0
TEXT
  5
19ED
330
1F
100
AcDbEntity
  8
LOGO
 62
     6
100
AcDbText
 10
2581.7233053866
 20
901.3691478818049
 30
188.7231250944717
 40
3.6
  1
作動型式
  7
CHINESET
100
AcDbText
  0
TEXT
  5
19EE
330
1F
100
AcDbEntity
  8
LOGO
  6
Continuous
 62
     6
100
AcDbText
 10
2604.186481237759
 20
897.3649733950296
 30
188.7231250944717
 40
2.159999999999999
  1
Tube I.D.
  7
CHINESET
100
AcDbText
  0
TEXT
  5
19EF
330
1F
100
AcDbEntity
  8
LOGO
 62
     6
100
AcDbText
 10
2607.194780040363
 20
901.3691478818049
 30
188.7231250944717
 40
3.6
  1
內徑
  7
CHINESET
100
AcDbText
  0
TEXT
  5
19F0
330
1F
100
AcDbEntity
  8
LOGO
  6
Continuous
 62
     6
100
AcDbText
 10
2624.328214391929
 20
897.3649733950296
 30
188.7231250944717
 40
2.159999999999999
  1
Stroke
  7
CHINESET
100
AcDbText
  0
TEXT
  5
19F1
330
1F
100
AcDbEntity
  8
LOGO
 62
     6
100
AcDbText
 10
2625.799894123714
 20
901.3691478818049
 30
188.7231250944717
 40
3.6
  1
行程
  7
CHINESET
100
AcDbText
  0
TEXT
  5
19F2
330
1F
100
AcDbEntity
  8
0
100
AcDbText
 10
2518.753094750322
 20
895.006941904722
 30
0.0
 40
2.879999999999999
  1
1050807
 41
0.8
  7
CHINESET
 72
     1
 11
2525.88452332175
 21
895.006941904722
 31
0.0
100
AcDbText
  0
LINE
  5
19F3
330
1F
100
AcDbEntity
  8
LOGO
 62
     1
100
AcDbLine
 10
2534.822312070367
 20
899.2341810943266
 30
0.0
 11
2534.822312070368
 21
893.4750151214755
 31
0.0
  0
LINE
  5
19F4
330
1F
100
AcDbEntity
  8
LOGO
 62
     1
100
AcDbLine
 10
2534.822312070367
 20
899.2341810943266
 30
0.0
 11
2517.542312070368
 21
899.2341810943266
 31
0.0
  0
LINE
  5
19F5
330
1F
100
AcDbEntity
  8
LOGO
  6
Continuous
 62
     7
100
AcDbLine
 10
2634.374888741604
 20
915.0412877056067
 30
0.0
 11
2638.189445068078
 21
915.0412877056067
 31
0.0
  0
LINE
  5
19F6
330
1F
100
AcDbEntity
  8
LOGO
 62
     6
100
AcDbLine
 10
2658.621081695115
 20
906.4331385603896
 30
0.0
 11
2658.621081695115
 21
895.8746676101629
 31
0.0
  0
LINE
  5
19F7
330
1F
100
AcDbEntity
  8
LOGO
 62
     6
100
AcDbLine
 10
2639.234576633667
 20
906.4331385603896
 30
0.0
 11
2639.234576633667
 21
895.8746676101629
 31
0.0
  0
LINE
  5
19F8
330
1F
100
AcDbEntity
  8
LOGO
 62
     6
100
AcDbLine
 10
2658.621081695115
 20
895.8746676101629
 30
0.0
 11
2639.234576633667
 21
895.8746676101629
 31
0.0
  0
LINE
  5
19F9
330
1F
100
AcDbEntity
  8
LOGO
 62
     6
100
AcDbLine
 10
2648.584125508138
 20
919.3912619993032
 30
0.0
 11
2639.392736511816
 21
919.3912619993032
 31
0.0
  0
LINE
  5
19FA
330
1F
100
AcDbEntity
  8
LOGO
 62
     6
100
AcDbLine
 10
2648.584125508138
 20
910.7525130400274
 30
0.0
 11
2639.392736511816
 21
910.7525130400274
 31
0.0
  0
LINE
  5
19FB
330
1F
100
AcDbEntity
  8
LOGO
 62
     6
100
AcDbLine
 10
2639.392736511816
 20
919.3912619993032
 30
0.0
 11
2639.392736511816
 21
910.7525130400274
 31
0.0
  0
LINE
  5
19FC
330
1F
100
AcDbEntity
  8
LOGO
 62
     6
100
AcDbLine
 10
2648.584125508138
 20
919.3912619993032
 30
0.0
 11
2648.584125508138
 21
910.7525130400274
 31
0.0
  0
LINE
  5
19FD
330
1F
100
AcDbEntity
  8
LOGO
 62
     6
100
AcDbLine
 10
2644.085267146985
 20
910.7525130400274
 30
0.0
 11
2644.085267146985
 21
906.4331385603896
 31
0.0
  0
TEXT
  5
19FE
330
1F
100
AcDbEntity
  8
LOGO
  6
Continuous
 62
     7
100
AcDbText
 10
2642.49067329235
 20
912.5558392554264
 30
0.0
 40
5.04
  1
?
  7
CHINESET
100
AcDbText
  0
LINE
  5
19FF
330
1F
100
AcDbEntity
  8
LOGO
 62
     6
100
AcDbLine
 10
2658.621081695115
 20
906.4331385603896
 30
0.0
 11
2639.234576633667
 21
906.4331385603896
 31
0.0
  0
TEXT
  5
1A00
330
1F
100
AcDbEntity
  8
LOGO
  6
Continuous
 62
     6
100
AcDbText
 10
2640.817783612691
 20
897.3649733950296
 30
188.7231250944717
 40
2.159999999999999
  1
Accessory
  7
CHINESET
100
AcDbText
  0
TEXT
  5
1A01
330
1F
100
AcDbEntity
  8
LOGO
 62
     6
100
AcDbText
 10
2645.630202419294
 20
901.3691478818049
 30
188.7231250944717
 40
3.6
  1
配件
  7
CHINESET
100
AcDbText
  0
LINE
  5
1A0E
330
1F
100
AcDbEntity
  8
0
 62
     4
100
AcDbLine
 10
2454.19148636901
 20
1080.092705064119
 30
0.0
 11
2850.19148636901
 21
1080.092705064119
 31
0.0
  0
LINE
  5
1A0F
330
1F
100
AcDbEntity
  8
0
 62
     4
100
AcDbLine
 10
2698.100705622458
 20
1197.642532255958
 30
0.0
 11
2698.100705622458
 21
922.2708449857286
 31
0.0
  0
LINE
  5
1A10
330
1F
100
AcDbEntity
  8
0
 62
     4
100
AcDbLine
 10
2454.19148636901
 20
994.0870198350008
 30
0.0
 11
2850.19148636901
 21
994.0870198350008
 31
0.0
  0
TEXT
  5
1A18
330
1F
100
AcDbEntity
  8
0
100
AcDbText
 10
2461.974434720492
 20
1067.361997847102
 30
0.0
 40
6.0
  1
FA/FB
  7
CHINESET
100
AcDbText
  0
TEXT
  5
1A19
330
1F
100
AcDbEntity
  8
0
100
AcDbText
 10
2461.974434720492
 20
979.2740241745555
 30
0.0
 40
6.0
  1
Y
  7
CHINESET
100
AcDbText
  0
TEXT
  5
1A1A
330
1F
100
AcDbEntity
  8
0
100
AcDbText
 10
2705.88365397394
 20
1067.361997847102
 30
0.0
 40
6.0
  1
SDB
  7
CHINESET
100
AcDbText
  0
TEXT
  5
1A1B
330
1F
100
AcDbEntity
  8
0
100
AcDbText
 10
2705.88365397394
 20
979.2740241745555
 30
0.0
 40
6.0
  1
I
  7
CHINESET
100
AcDbText
  0
TEXT
  5
1A1D
330
1F
100
AcDbEntity
  8
0
100
AcDbText
 10
2705.88365397394
 20
1184.911825038941
 30
0.0
 40
6.0
  1
LB
  7
CHINESET
100
AcDbText
  0
TEXT
  5
1A84
330
1F
100
AcDbEntity
  8
0
100
AcDbText
 10
2467.71681186678
 20
1184.910073293628
 30
0.0
 40
6.0
  1
11 type
  7
CHINESET
100
AcDbText
  0
ENDSEC
  0
SECTION
  2
OBJECTS
  0
DICTIONARY
  5
C
330
0
100
AcDbDictionary
281
     1
  3
ACAD_COLOR
350
BE
  3
ACAD_GROUP
350
D
  3
ACAD_LAYOUT
350
1A
  3
ACAD_MATERIAL
350
BD
  3
ACAD_MLINESTYLE
350
17
  3
ACAD_PLOTSETTINGS
350
19
  3
ACAD_PLOTSTYLENAME
350
E
  3
ACAD_TABLESTYLE
350
11A
  3
ACDBHEADERROUNDTRIPXREC
350
1B2B
  3
AcDbVariableDictionary
350
94
  3
AcmDictionary
350
5B
  3
AMG
350
41
  3
AMGSNAPSETTINGS
350
1B8
  3
DWGPROPS
350
1B2A
  0
DICTIONARY
  5
3F9
330
2
100
AcDbDictionary
280
     1
281
     1
  3
ACAD_LAYERFILTERS
360
5B7
  3
ACAD_LAYERSTATES
360
71D
  3
ACLYDICTIONARY
360
5B6
  0
DICTIONARY
  5
8F
330
1F
100
AcDbDictionary
280
     1
281
     1
  3
ACAD_SORTENTS
360
12F5
  0
DICTIONARY
  5
16E9
330
16DC
100
AcDbDictionary
280
     1
281
     1
  3
ACAD_DIMASSOC
360
16EA
  0
DICTIONARY
  5
170F
330
1702
100
AcDbDictionary
280
     1
281
     1
  3
ACAD_DIMASSOC
360
1710
  0
DICTIONARY
  5
1726
330
171D
100
AcDbDictionary
280
     1
281
     1
  3
ACAD_DIMASSOC
360
1727
  0
DICTIONARY
  5
BE
102
{ACAD_REACTORS
330
C
102
}
330
C
100
AcDbDictionary
281
     1
  0
DICTIONARY
  5
D
102
{ACAD_REACTORS
330
C
102
}
330
C
100
AcDbDictionary
281
     1
  0
DICTIONARY
  5
1A
102
{ACAD_REACTORS
330
C
102
}
330
C
100
AcDbDictionary
281
     1
  3
Model
350
22
  3
配置1
350
1E
  3
配置2
350
26
  0
DICTIONARY
  5
BD
102
{ACAD_REACTORS
330
C
102
}
330
C
100
AcDbDictionary
281
     1
  0
DICTIONARY
  5
17
102
{ACAD_REACTORS
330
C
102
}
330
C
100
AcDbDictionary
281
     1
  3
Standard
350
18
  0
DICTIONARY
  5
19
102
{ACAD_REACTORS
330
C
102
}
330
C
100
AcDbDictionary
281
     1
  0
ACDBDICTIONARYWDFLT
  5
E
102
{ACAD_REACTORS
330
C
102
}
330
C
100
AcDbDictionary
281
     1
  3
Normal
350
F
100
AcDbDictionaryWithDefault
340
F
  0
DICTIONARY
  5
11A
102
{ACAD_REACTORS
330
C
102
}
330
C
100
AcDbDictionary
281
     1
  3
Standard
350
11B
  0
DICTIONARY
  5
1B2B
102
{ACAD_REACTORS
330
C
102
}
330
C
100
AcDbDictionary
281
     1
  0
DICTIONARY
  5
94
102
{ACAD_REACTORS
330
C
102
}
330
C
100
AcDbDictionary
281
     1
  3
CTABLESTYLE
350
138
  3
DIMASSOC
350
96
  3
INDEXCTL
350
95
  3
PROJECTNAME
350
1B28
  0
DICTIONARY
  5
5B
102
{ACAD_REACTORS
330
C
102
}
330
C
100
AcDbDictionary
281
     1
  3
AcmBOM
350
1B5
  3
AcmStdDictionary
350
61
  3
AMDTSECTSYM_ARROWCOLOR
350
123
  0
DICTIONARY
  5
41
102
{ACAD_REACTORS
330
C
102
}
330
C
100
AcDbDictionary
281
     1
  0
DICTIONARY
  5
1B8
102
{ACAD_REACTORS
330
C
102
}
330
C
100
AcDbDictionary
281
     1
  0
XRECORD
  5
1B2A
102
{ACAD_REACTORS
330
C
102
}
330
C
100
AcDbXrecord
280
     1
  1
DWGPROPS COOKIE
  2

  3

  4

  6

  7

  8

  9

300
AmdtFileType=84
301
=
302
=
303
=
304
=
305
=
306
=
307
=
308
=
309
=
 40
0.3862575925925926
 41
2453580.633342373
 42
2453594.38506184
  1

 90
        1
  0
DICTIONARY
  5
5B7
102
{ACAD_REACTORS
330
3F9
102
}
330
3F9
100
AcDbDictionary
281
     1
  0
DICTIONARY
  5
71D
102
{ACAD_REACTORS
330
3F9
102
}
330
3F9
100
AcDbDictionary
281
     1
  0
DICTIONARY
  5
5B6
102
{ACAD_REACTORS
330
3F9
102
}
330
3F9
100
AcDbDictionary
281
     1
1001
ACAD
1000
<All
  0
SORTENTSTABLE
  5
12F5
102
{ACAD_REACTORS
330
8F
102
}
330
8F
100
AcDbSortentsTable
330
1F
331
1281
  5
1281
331
124A
  5
124A
331
117D
  5
117D
331
11B4
  5
11B4
331
11F3
  5
11F3
331
1185
  5
1185
331
1203
  5
1203
331
118D
  5
118D
331
11C4
  5
11C4
331
1252
  5
1252
331
120B
  5
120B
331
1289
  5
1289
331
125A
  5
125A
331
121B
  5
121B
331
1262
  5
1262
331
1223
  5
1223
331
126A
  5
126A
331
11D4
  5
11D4
331
1195
  5
1195
331
119D
  5
119D
331
11DC
  5
11DC
331
11A5
  5
11A5
331
11EC
  5
11EC
331
1176
  5
1176
331
11AD
  5
11AD
331
1272
  5
1272
331
122B
  5
122B
331
127A
  5
127A
331
1282
  5
1282
331
124B
  5
124B
331
11F4
  5
11F4
331
E1F
  5
E1F
331
117E
  5
117E
331
118E
  5
118E
331
11C5
  5
11C5
331
1204
  5
1204
331
11CD
  5
11CD
331
120C
  5
120C
331
1253
  5
1253
331
128A
  5
128A
331
125B
  5
125B
331
1263
  5
1263
331
121C
  5
121C
331
126B
  5
126B
331
1224
  5
1224
331
1196
  5
1196
331
11D5
  5
11D5
331
11DD
  5
11DD
331
119E
  5
119E
331
11E5
  5
11E5
331
11A6
  5
11A6
331
11AE
  5
11AE
331
1177
  5
1177
331
11ED
  5
11ED
331
122C
  5
122C
331
1273
  5
1273
331
127B
  5
127B
331
1283
  5
1283
331
124C
  5
124C
331
117F
  5
117F
331
11F5
  5
11F5
331
11FD
  5
11FD
331
1187
  5
1187
331
11BE
  5
11BE
331
1205
  5
1205
331
118F
  5
118F
331
11C6
  5
11C6
331
128B
  5
128B
331
1254
  5
1254
331
120D
  5
120D
331
125C
  5
125C
331
121D
  5
121D
331
1264
  5
1264
331
126C
  5
126C
331
1225
  5
1225
331
1197
  5
1197
331
11D6
  5
11D6
331
119F
  5
119F
331
11DE
  5
11DE
331
11A7
  5
11A7
331
11E6
  5
11E6
331
11EE
  5
11EE
331
11AF
  5
11AF
331
1274
  5
1274
331
122D
  5
122D
331
127C
  5
127C
331
1284
  5
1284
331
124D
  5
124D
331
11F6
  5
11F6
331
1180
  5
1180
331
11B7
  5
11B7
331
11BF
  5
11BF
331
1188
  5
1188
331
11C7
  5
11C7
331
1206
  5
1206
331
11CF
  5
11CF
331
128C
  5
128C
331
1255
  5
1255
331
125D
  5
125D
331
1265
  5
1265
331
121E
  5
121E
331
126D
  5
126D
331
1226
  5
1226
331
1190
  5
1190
331
1198
  5
1198
331
11D7
  5
11D7
331
11DF
  5
11DF
331
11A0
  5
11A0
331
11A8
  5
11A8
331
11E7
  5
11E7
331
11EF
  5
11EF
331
122E
  5
122E
331
1275
  5
1275
331
127D
  5
127D
331
1285
  5
1285
331
124E
  5
124E
331
11B0
  5
11B0
331
1181
  5
1181
331
11F7
  5
11F7
331
11FF
  5
11FF
331
1189
  5
1189
331
1207
  5
1207
331
11C8
  5
11C8
331
1256
  5
1256
331
1217
  5
1217
331
125E
  5
125E
331
121F
  5
121F
331
1266
  5
1266
331
126E
  5
126E
331
1227
  5
1227
331
11D0
  5
11D0
331
1191
  5
1191
331
1199
  5
1199
331
11D8
  5
11D8
331
11E0
  5
11E0
331
11A9
  5
11A9
331
11E8
  5
11E8
331
1276
  5
1276
331
122F
  5
122F
331
127E
  5
127E
331
1247
  5
1247
331
1286
  5
1286
331
124F
  5
124F
331
11F0
  5
11F0
331
11B1
  5
11B1
331
11B9
  5
11B9
331
1182
  5
1182
331
11F8
  5
11F8
331
1200
  5
1200
331
118A
  5
118A
331
11C9
  5
11C9
331
1257
  5
1257
331
125F
  5
125F
331
1218
  5
1218
331
1267
  5
1267
331
1220
  5
1220
331
126F
  5
126F
331
1192
  5
1192
331
11D1
  5
11D1
331
119A
  5
119A
331
11D9
  5
11D9
331
11A2
  5
11A2
331
11AA
  5
11AA
331
1228
  5
1228
331
1230
  5
1230
331
1277
  5
1277
331
127F
  5
127F
331
1287
  5
1287
331
1248
  5
1248
331
11B2
  5
11B2
331
11F1
  5
11F1
331
1183
  5
1183
331
11BA
  5
11BA
331
1201
  5
1201
331
118B
  5
118B
331
11CA
  5
11CA
331
1250
  5
1250
331
1209
  5
1209
331
1258
  5
1258
331
1219
  5
1219
331
1260
  5
1260
331
1221
  5
1221
331
1268
  5
1268
331
11D2
  5
11D2
331
1193
  5
1193
331
11DA
  5
11DA
331
11A3
  5
11A3
331
11E2
  5
11E2
331
11AB
  5
11AB
331
11EA
  5
11EA
331
1270
  5
1270
331
1229
  5
1229
331
1278
  5
1278
331
1231
  5
1231
331
1280
  5
1280
331
1249
  5
1249
331
11F2
  5
11F2
331
117C
  5
117C
331
11B3
  5
11B3
331
11BB
  5
11BB
331
11FA
  5
11FA
331
1202
  5
1202
331
118C
  5
118C
331
11CB
  5
11CB
331
120A
  5
120A
331
1251
  5
1251
331
1288
  5
1288
331
1259
  5
1259
331
1261
  5
1261
331
121A
  5
121A
331
1269
  5
1269
331
1222
  5
1222
331
1194
  5
1194
331
11D3
  5
11D3
331
11DB
  5
11DB
331
11E3
  5
11E3
331
11A4
  5
11A4
331
11AC
  5
11AC
331
11EB
  5
11EB
331
122A
  5
122A
331
1271
  5
1271
331
1232
  5
1232
331
1279
  5
1279
  0
DIMASSOC
  5
16EA
102
{ACAD_REACTORS
330
16E9
102
}
330
16E9
100
AcDbDimAssoc
330
16DC
 90
        3
 70
     0
 71
     0
  1
AcDbOsnapPointRef
 72
    13
331
1187
 73
     0
 91
        0
 40
0.0
 10
0.0
 20
0.0
 30
2.000000000000000E+50
 75
     0
  1
AcDbOsnapPointRef
 72
     1
331
11A3
 73
     0
 91
        0
 40
0.0
 10
0.0
 20
0.0
 30
2.000000000000000E+50
 75
     0
  0
DIMASSOC
  5
1710
102
{ACAD_REACTORS
330
170F
102
}
330
170F
100
AcDbDimAssoc
330
1702
 90
        3
 70
     0
 71
     0
  1
AcDbOsnapPointRef
 72
     1
331
120D
 73
     0
 91
        0
 40
0.0
 10
0.0
 20
0.0
 30
2.000000000000000E+50
 75
     0
  1
AcDbOsnapPointRef
 72
    13
331
120B
 73
     0
 91
        0
 40
0.0
 10
0.0
 20
0.0
 30
2.000000000000000E+50
 75
     0
  0
DIMASSOC
  5
1727
102
{ACAD_REACTORS
330
1726
102
}
330
1726
100
AcDbDimAssoc
330
171D
 90
        2
 70
     0
 71
     0
  1
AcDbOsnapPointRef
 72
     3
331
11A2
 73
     2
 91
        0
 40
0.0
 10
0.0
 20
0.0
 30
0.0
 75
     0
  0
LAYOUT
  5
22
102
{ACAD_XDICTIONARY
360
1B2E
102
}
102
{ACAD_REACTORS
330
1A
102
}
330
1A
100
AcDbPlotSettings
  1

  2
\\RD\EPSON Stylus C63 Series單色
  4
A4
  6

 40
3.757083177566528
 41
3.757076978683471
 42
3.757080078125
 43
3.757080078125
 44
209.9733276367187
 45
296.9683227539062
 46
0.0
 47
0.0
 48
0.0
 49
0.0
140
0.0
141
0.0
142
1.0
143
0.3405120737814363
 70
 11952
 72
     1
 73
     0
 74
     0
  7
彩色出圖.ctb
 75
     0
147
2.936753428137963
148
-2047.07469463503
149
-1261.649717473083
100
AcDbLayout
  1
Model
 70
     1
 71
     0
 10
0.0
 20
0.0
 11
12.0
 21
9.0
 12
0.0
 22
0.0
 32
0.0
 14
0.0
 24
0.0
 34
0.0
 15
0.0
 25
0.0
 35
0.0
146
0.0
 13
0.0
 23
0.0
 33
0.0
 16
1.0
 26
0.0
 36
0.0
 17
0.0
 27
1.0
 37
0.0
 76
     0
330
1F
1001
ACAD_PSEXT
1000
\\RD\EPSON Stylus C63 Series單色
1000
EPSON Stylus C63 Series
1000
\\RD
1000

1070
     0
  0
LAYOUT
  5
1E
102
{ACAD_XDICTIONARY
360
1B2C
102
}
102
{ACAD_REACTORS
330
1A
102
}
330
1A
100
AcDbPlotSettings
  1

  2

  4

  6

 40
0.0
 41
0.0
 42
0.0
 43
0.0
 44
0.0
 45
0.0
 46
0.0
 47
0.0
 48
0.0
 49
0.0
140
0.0
141
0.0
142
1.0
143
1.0
 70
   688
 72
     0
 73
     0
 74
     5
  7
彩色出圖.ctb
 75
    16
147
1.0
148
0.0
149
0.0
100
AcDbLayout
  1
配置1
 70
     1
 71
     1
 10
0.0
 20
0.0
 11
420.0
 21
297.0
 12
0.0
 22
0.0
 32
0.0
 14
1.000000000000000E+20
 24
1.000000000000000E+20
 34
1.000000000000000E+20
 15
-1.000000000000000E+20
 25
-1.000000000000000E+20
 35
-1.000000000000000E+20
146
0.0
 13
0.0
 23
0.0
 33
0.0
 16
1.0
 26
0.0
 36
0.0
 17
0.0
 27
1.0
 37
0.0
 76
     0
330
1B
  0
LAYOUT
  5
26
102
{ACAD_XDICTIONARY
360
1B30
102
}
102
{ACAD_REACTORS
330
1A
102
}
330
1A
100
AcDbPlotSettings
  1

  2

  4

  6

 40
0.0
 41
0.0
 42
0.0
 43
0.0
 44
0.0
 45
0.0
 46
0.0
 47
0.0
 48
0.0
 49
0.0
140
0.0
141
0.0
142
1.0
143
1.0
 70
   688
 72
     0
 73
     0
 74
     5
  7
彩色出圖.ctb
 75
    16
147
1.0
148
0.0
149
0.0
100
AcDbLayout
  1
配置2
 70
     1
 71
     2
 10
0.0
 20
0.0
 11
12.0
 21
9.0
 12
0.0
 22
0.0
 32
0.0
 14
0.0
 24
0.0
 34
0.0
 15
0.0
 25
0.0
 35
0.0
146
0.0
 13
0.0
 23
0.0
 33
0.0
 16
1.0
 26
0.0
 36
0.0
 17
0.0
 27
1.0
 37
0.0
 76
     0
330
23
  0
MLINESTYLE
  5
18
102
{ACAD_REACTORS
330
17
102
}
330
17
100
AcDbMlineStyle
  2
STANDARD
 70
     0
  3

 62
   256
 51
90.0
 52
90.0
 71
     2
 49
0.5
 62
   256
  6
BYLAYER
 49
-0.5
 62
   256
  6
BYLAYER
  0
ACDBPLACEHOLDER
  5
F
102
{ACAD_REACTORS
330
E
102
}
330
E
  0
TABLESTYLE
  5
11B
102
{ACAD_REACTORS
330
11A
102
}
330
11A
100
AcDbTableStyle
  3
Standard
 70
     0
 71
     0
 40
1.5
 41
1.5
280
     0
281
     0
  7
STANDARD
140
4.5
170
     2
 62
     0
 63
     7
283
     0
274
    -2
284
     1
 64
     0
275
    -2
285
     1
 65
     0
276
    -2
286
     1
 66
     0
277
    -2
287
     1
 67
     0
278
    -2
288
     1
 68
     0
279
    -2
289
     1
 69
     0
  7
STANDARD
140
6.0
170
     5
 62
     0
 63
     7
283
     0
274
    -2
284
     1
 64
     0
275
    -2
285
     1
 65
     0
276
    -2
286
     1
 66
     0
277
    -2
287
     1
 67
     0
278
    -2
288
     1
 68
     0
279
    -2
289
     1
 69
     0
  7
STANDARD
140
4.5
170
     5
 62
     0
 63
     7
283
     0
274
    -2
284
     1
 64
     0
275
    -2
285
     1
 65
     0
276
    -2
286
     1
 66
     0
277
    -2
287
     1
 67
     0
278
    -2
288
     1
 68
     0
279
    -2
289
     1
 69
     0
  0
DICTIONARYVAR
  5
138
102
{ACAD_REACTORS
330
94
102
}
330
94
100
DictionaryVariables
280
     0
  1
STANDARD
  0
DICTIONARYVAR
  5
96
102
{ACAD_REACTORS
330
94
102
}
330
94
100
DictionaryVariables
280
     0
  1
2
  0
DICTIONARYVAR
  5
95
102
{ACAD_REACTORS
330
94
102
}
330
94
100
DictionaryVariables
280
     0
  1
0
  0
DICTIONARYVAR
  5
1B28
102
{ACAD_REACTORS
330
94
102
}
330
94
100
DictionaryVariables
280
     0
  1

  0
DICTIONARY
  5
1B5
102
{ACAD_REACTORS
330
5B
102
}
330
5B
100
AcDbDictionary
281
     1
  0
DICTIONARY
  5
61
102
{ACAD_REACTORS
330
5B
102
}
330
5B
100
AcDbDictionary
281
     1
  0
XRECORD
  5
123
102
{ACAD_REACTORS
330
5B
102
}
330
5B
100
AcDbXrecord
280
     1
 90
-1023410169
  0
DICTIONARY
  5
1B2E
330
22
100
AcDbDictionary
280
     1
281
     1
  3
ACAD_XREC_ROUNDTRIP
360
1B2F
  0
DICTIONARY
  5
1B2C
330
1E
100
AcDbDictionary
280
     1
281
     1
  3
ACAD_XREC_ROUNDTRIP
360
1B2D
  0
DICTIONARY
  5
1B30
330
26
100
AcDbDictionary
280
     1
281
     1
  3
ACAD_XREC_ROUNDTRIP
360
1B31
  0
XRECORD
  5
1B2F
102
{ACAD_REACTORS
330
1B2E
102
}
330
1B2E
100
AcDbXrecord
280
     1
102
SHADEPLOT
 70
     0
102
SHADEPLOTRESLEVEL
 70
     2
102
SHADEPLOTCUSTOMDPI
 70
   300
  0
XRECORD
  5
1B2D
102
{ACAD_REACTORS
330
1B2C
102
}
330
1B2C
100
AcDbXrecord
280
     1
102
SHADEPLOT
 70
     0
102
SHADEPLOTRESLEVEL
 70
     2
102
SHADEPLOTCUSTOMDPI
 70
   300
  0
XRECORD
  5
1B31
102
{ACAD_REACTORS
330
1B30
102
}
330
1B30
100
AcDbXrecord
280
     1
102
SHADEPLOT
 70
     0
102
SHADEPLOTRESLEVEL
 70
     2
102
SHADEPLOTCUSTOMDPI
 70
   300
  0
ENDSEC
  0
EOF
