  0
SECTION
  2
HEADER
  9
$ACADVER
  1
AC1015
  9
$ACADMAINTVER
 70
    20
  9
$DWGCODEPAGE
  3
ANSI_950
  9
$INSBASE
 10
0.0
 20
0.0
 30
0.0
  9
$EXTMIN
 10
2290.521024909493
 20
820.0051690838931
 30
-0.0149726464782702
  9
$EXTMAX
 10
2784.9774402611
 20
1212.223369702276
 30
226.4712069146733
  9
$LIMMIN
 10
0.0
 20
0.0
  9
$LIMMAX
 10
420.0
 20
297.0
  9
$ORTHOMODE
 70
     1
  9
$REGENMODE
 70
     1
  9
$FILLMODE
 70
     1
  9
$QTEXTMODE
 70
     0
  9
$MIRRTEXT
 70
     1
  9
$LTSCALE
 40
1.0
  9
$ATTMODE
 70
     1
  9
$TEXTSIZE
 40
3.0
  9
$TRACEWID
 40
1.0
  9
$TEXTSTYLE
  7
CHINESET
  9
$CLAYER
  8
0
  9
$CELTYPE
  6
ByLayer
  9
$CECOLOR
 62
   256
  9
$CELTSCALE
 40
1.0
  9
$DISPSILH
 70
     0
  9
$DIMSCALE
 40
1.0
  9
$DIMASZ
 40
3.0
  9
$DIMEXO
 40
1.0
  9
$DIMDLI
 40
8.0
  9
$DIMRND
 40
0.0
  9
$DIMDLE
 40
0.0
  9
$DIMEXE
 40
1.5
  9
$DIMTP
 40
-0.05
  9
$DIMTM
 40
0.4
  9
$DIMTXT
 40
3.0
  9
$DIMCEN
 40
0.0
  9
$DIMTSZ
 40
0.0
  9
$DIMTOL
 70
     0
  9
$DIMLIM
 70
     0
  9
$DIMTIH
 70
     0
  9
$DIMTOH
 70
     0
  9
$DIMSE1
 70
     0
  9
$DIMSE2
 70
     0
  9
$DIMTAD
 70
     1
  9
$DIMZIN
 70
     8
  9
$DIMBLK
  1

  9
$DIMASO
 70
     1
  9
$DIMSHO
 70
     1
  9
$DIMPOST
  1

  9
$DIMAPOST
  1
"
  9
$DIMALT
 70
     0
  9
$DIMALTD
 70
     2
  9
$DIMALTF
 40
0.0393701
  9
$DIMLFAC
 40
1.0
  9
$DIMTOFL
 70
     1
  9
$DIMTVP
 40
0.0
  9
$DIMTIX
 70
     0
  9
$DIMSOXD
 70
     0
  9
$DIMSAH
 70
     0
  9
$DIMBLK1
  1

  9
$DIMBLK2
  1

  9
$DIMSTYLE
  2
AM_ISO
  9
$DIMCLRD
 70
   256
  9
$DIMCLRE
 70
   256
  9
$DIMCLRT
 70
   256
  9
$DIMTFAC
 40
0.71
  9
$DIMGAP
 40
1.0
  9
$DIMJUST
 70
     0
  9
$DIMSD1
 70
     0
  9
$DIMSD2
 70
     0
  9
$DIMTOLJ
 70
     0
  9
$DIMTZIN
 70
     8
  9
$DIMALTZ
 70
     0
  9
$DIMALTTZ
 70
     0
  9
$DIMUPT
 70
     0
  9
$DIMDEC
 70
     2
  9
$DIMTDEC
 70
     8
  9
$DIMALTU
 70
     2
  9
$DIMALTTD
 70
     2
  9
$DIMTXSTY
  7
STANDARD
  9
$DIMAUNIT
 70
     0
  9
$DIMADEC
 70
     0
  9
$DIMALTRND
 40
0.0
  9
$DIMAZIN
 70
     2
  9
$DIMDSEP
 70
    46
  9
$DIMATFIT
 70
     3
  9
$DIMFRAC
 70
     0
  9
$DIMLDRBLK
  1

  9
$DIMLUNIT
 70
     2
  9
$DIMLWD
 70
    -1
  9
$DIMLWE
 70
    -1
  9
$DIMTMOVE
 70
     0
  9
$LUNITS
 70
     2
  9
$LUPREC
 70
     2
  9
$SKETCHINC
 40
1.0
  9
$FILLETRAD
 40
2.5
  9
$AUNITS
 70
     0
  9
$AUPREC
 70
     0
  9
$MENU
  1
.
  9
$ELEVATION
 40
0.0
  9
$PELEVATION
 40
0.0
  9
$THICKNESS
 40
0.0
  9
$LIMCHECK
 70
     0
  9
$CHAMFERA
 40
2.5
  9
$CHAMFERB
 40
2.5
  9
$CHAMFERC
 40
20.0
  9
$CHAMFERD
 40
0.0
  9
$SKPOLY
 70
     0
  9
$TDCREATE
 40
2453580.633342373
  9
$TDUCREATE
 40
2453580.300009039
  9
$TDUPDATE
 40
2453594.389102280
  9
$TDUUPDATE
 40
2453594.055768947
  9
$TDINDWG
 40
0.4343648727
  9
$TDUSRTIMER
 40
0.4343648727
  9
$USRTIMER
 70
     1
  9
$ANGBASE
 50
0.0
  9
$ANGDIR
 70
     0
  9
$PDMODE
 70
     0
  9
$PDSIZE
 40
0.0
  9
$PLINEWID
 40
0.0
  9
$SPLFRAME
 70
     0
  9
$SPLINETYPE
 70
     6
  9
$SPLINESEGS
 70
     8
  9
$HANDSEED
  5
233D
  9
$SURFTAB1
 70
     6
  9
$SURFTAB2
 70
     6
  9
$SURFTYPE
 70
     6
  9
$SURFU
 70
     6
  9
$SURFV
 70
     6
  9
$UCSBASE
  2

  9
$UCSNAME
  2

  9
$UCSORG
 10
0.0
 20
0.0
 30
0.0
  9
$UCSXDIR
 10
1.0
 20
0.0
 30
0.0
  9
$UCSYDIR
 10
0.0
 20
1.0
 30
0.0
  9
$UCSORTHOREF
  2

  9
$UCSORTHOVIEW
 70
     0
  9
$UCSORGTOP
 10
0.0
 20
0.0
 30
0.0
  9
$UCSORGBOTTOM
 10
0.0
 20
0.0
 30
0.0
  9
$UCSORGLEFT
 10
0.0
 20
0.0
 30
0.0
  9
$UCSORGRIGHT
 10
0.0
 20
0.0
 30
0.0
  9
$UCSORGFRONT
 10
0.0
 20
0.0
 30
0.0
  9
$UCSORGBACK
 10
0.0
 20
0.0
 30
0.0
  9
$PUCSBASE
  2

  9
$PUCSNAME
  2

  9
$PUCSORG
 10
0.0
 20
0.0
 30
0.0
  9
$PUCSXDIR
 10
1.0
 20
0.0
 30
0.0
  9
$PUCSYDIR
 10
0.0
 20
1.0
 30
0.0
  9
$PUCSORTHOREF
  2

  9
$PUCSORTHOVIEW
 70
     0
  9
$PUCSORGTOP
 10
0.0
 20
0.0
 30
0.0
  9
$PUCSORGBOTTOM
 10
0.0
 20
0.0
 30
0.0
  9
$PUCSORGLEFT
 10
0.0
 20
0.0
 30
0.0
  9
$PUCSORGRIGHT
 10
0.0
 20
0.0
 30
0.0
  9
$PUCSORGFRONT
 10
0.0
 20
0.0
 30
0.0
  9
$PUCSORGBACK
 10
0.0
 20
0.0
 30
0.0
  9
$USERI1
 70
     0
  9
$USERI2
 70
     0
  9
$USERI3
 70
     0
  9
$USERI4
 70
     0
  9
$USERI5
 70
     0
  9
$USERR1
 40
0.0
  9
$USERR2
 40
0.0
  9
$USERR3
 40
0.0
  9
$USERR4
 40
0.0
  9
$USERR5
 40
0.0
  9
$WORLDVIEW
 70
     1
  9
$SHADEDGE
 70
     3
  9
$SHADEDIF
 70
    70
  9
$TILEMODE
 70
     1
  9
$MAXACTVP
 70
    64
  9
$PINSBASE
 10
0.0
 20
0.0
 30
0.0
  9
$PLIMCHECK
 70
     0
  9
$PEXTMIN
 10
1.000000000000000E+20
 20
1.000000000000000E+20
 30
1.000000000000000E+20
  9
$PEXTMAX
 10
-1.000000000000000E+20
 20
-1.000000000000000E+20
 30
-1.000000000000000E+20
  9
$PLIMMIN
 10
0.0
 20
0.0
  9
$PLIMMAX
 10
420.0
 20
297.0
  9
$UNITMODE
 70
     0
  9
$VISRETAIN
 70
     1
  9
$PLINEGEN
 70
     0
  9
$PSLTSCALE
 70
     1
  9
$TREEDEPTH
 70
  3020
  9
$CMLSTYLE
  2
Standard
  9
$CMLJUST
 70
     0
  9
$CMLSCALE
 40
20.0
  9
$PROXYGRAPHICS
 70
     1
  9
$MEASUREMENT
 70
     1
  9
$CELWEIGHT
370
    -1
  9
$ENDCAPS
280
     0
  9
$JOINSTYLE
280
     0
  9
$LWDISPLAY
290
     0
  9
$INSUNITS
 70
     4
  9
$HYPERLINKBASE
  1

  9
$STYLESHEET
  1
彩色出圖.ctb
  9
$XEDIT
290
     1
  9
$CEPSNTYPE
380
     0
  9
$PSTYLEMODE
290
     1
  9
$FINGERPRINTGUID
  2
{B9E4BE39-A089-470C-A359-98F2256325D3}
  9
$VERSIONGUID
  2
{F081A4B7-065B-4D5C-8DEE-1D5F7807C8C9}
  9
$EXTNAMES
290
     1
  9
$PSVPSCALE
 40
0.0
  9
$OLESTARTUP
290
     0
  0
ENDSEC
  0
SECTION
  2
CLASSES
  0
CLASS
  1
ACDBDICTIONARYWDFLT
  2
AcDbDictionaryWithDefault
  3
ObjectDBX Classes
 90
        0
280
     0
281
     0
  0
CLASS
  1
ACDBPLACEHOLDER
  2
AcDbPlaceHolder
  3
ObjectDBX Classes
 90
        0
280
     0
281
     0
  0
CLASS
  1
LAYOUT
  2
AcDbLayout
  3
ObjectDBX Classes
 90
        0
280
     0
281
     0
  0
CLASS
  1
ACME_DOCUMENT
  2
AcMeDbDoc
  3
AcMeServices
 90
        0
280
     0
281
     0
  0
CLASS
  1
AMGSETTINGSOBJ
  2
AmgSettingsObj
  3
"AcadM|Product Description: AutoCAD Mechanical 2000|Company: Autodesk"
 90
        0
280
     0
281
     0
  0
CLASS
  1
ACMESCOPE
  2
AcMeScope
  3
AcMeServices
 90
        0
280
     0
281
     0
  0
CLASS
  1
ACMECOMMANDHISTORY
  2
AcMeCommandHistory
  3
AcMeServices
 90
        0
280
     0
281
     0
  0
CLASS
  1
ACIMSYSVARMAN
  2
AcImSysVarManager
  3
AcMeServices
 90
        0
280
     0
281
     0
  0
CLASS
  1
ACIMREALSYSVAR
  2
AcImRealSysVar
  3
AcMeServices
 90
        0
280
     0
281
     0
  0
CLASS
  1
ACIMINTSYSVAR
  2
AcImIntSysVar
  3
AcMeServices
 90
        0
280
     0
281
     0
  0
CLASS
  1
ACMEDRAWINGMAN
  2
AcMeDrawingMan
  3
AcMeServices
 90
        0
280
     0
281
     0
  0
CLASS
  1
ACMEVIEW
  2
AcMeView
  3
AcMeServices
 90
        0
280
     0
281
     0
  0
CLASS
  1
ACDBENTITYCACHE
  2
AcMeEntityCache
  3
AcMeServices
 90
        0
280
     0
281
     0
  0
CLASS
  1
GSMANAGER
  2
AcMeGSManager
  3
AcMeServices
 90
        0
280
     0
281
     0
  0
CLASS
  1
AMDTINTERNALREACTOR
  2
AmdtInternalReactor
  3
AcMeServices
 90
        0
280
     0
281
     0
  0
CLASS
  1
ACMESTATEMGR
  2
AcMeStateMgr
  3
AcMeServices
 90
        0
280
     0
281
     0
  0
CLASS
  1
ACGREFMASTER
  2
AcGrefMaster
  3
AcAttribServices
 90
        0
280
     0
281
     0
  0
CLASS
  1
ACME_DATABASE
  2
AcMeDbDatabase
  3
AcMeServices
 90
        0
280
     0
281
     0
  0
CLASS
  1
ACRFINSADJUSTERMGR
  2
AcRfInsAdjusterMgr
  3
AcMeServices
 90
        0
280
     0
281
     0
  0
CLASS
  1
ACGREFACADMASTER
  2
AcGrefacadMaster
  3
AcGrefServices
 90
        0
280
     0
281
     0
  0
CLASS
  1
AMIMASTER
  2
AmiMaster
  3
AmiServices
 90
        0
280
     0
281
     0
  0
CLASS
  1
ACMDATADICTIONARY
  2
AcmDataDictionary
  3
"AcmSymBB|Product Description: AutoCAD Mechanical 2004 DX|Company: Autodesk"
 90
        0
280
     0
281
     0
  0
CLASS
  1
ACMDATAENTRYBLOCK
  2
AcmDataEntryBlock
  3
"AcmSymBB|Product Description: AutoCAD Mechanical 2004 DX|Company: Autodesk"
 90
        0
280
     0
281
     0
  0
CLASS
  1
ACIMSTRSYSVAR
  2
AcImStrSysVar
  3
AcMeServices
 90
        0
280
     0
281
     0
  0
CLASS
  1
ACMSTANDARDISO
  2
AcmStandardISO
  3
"Amdt_StdImp|Product Description: AutoCAD Mechanical 2004 DX|Company: Autodesk"
 90
        0
280
     0
281
     0
  0
CLASS
  1
AMGOBJPROPCFG
  2
AmgObjPropCfg
  3
"AmgLay|Product Description: AutoCAD Mechanical 2000|Company: Autodesk"
 90
        1
280
     0
281
     0
  0
CLASS
  1
AMDTEDGESTANDARDISO
  2
AmdtEdgeStdISO
  3
"Amdt_StdImp|Product Description: AutoCAD Mechanical 2004 DX|Company: Autodesk"
 90
        0
280
     0
281
     0
  0
CLASS
  1
ACMSURFSTANDARDISO
  2
AcmSurfTextStdISO
  3
"Amdt_StdImp|Product Description: AutoCAD Mechanical 2004 DX|Company: Autodesk"
 90
        0
280
     0
281
     0
  0
CLASS
  1
ACMFCFSTANDARDISO
  2
AcmFCFStdISO
  3
"Amdt_StdImp|Product Description: AutoCAD Mechanical 2004 DX|Company: Autodesk"
 90
        0
280
     0
281
     0
  0
CLASS
  1
ACMWELDSTANDARDISO
  2
AcmWeldingStdISO
  3
"Amdt_StdImp|Product Description: AutoCAD Mechanical 2004 DX|Company: Autodesk"
 90
        0
280
     0
281
     0
  0
CLASS
  1
ACMIDSTANDARDISO
  2
AcmIdStdISO
  3
"Amdt_StdImp|Product Description: AutoCAD Mechanical 2004 DX|Company: Autodesk"
 90
        0
280
     0
281
     0
  0
CLASS
  1
ACMDATUMSTANDARDISO
  2
AcmDatumStdISO
  3
"Amdt_StdImp|Product Description: AutoCAD Mechanical 2004 DX|Company: Autodesk"
 90
        0
280
     0
281
     0
  0
CLASS
  1
ACMBOMSTANDARDISO
  2
AcmBOMStdISO
  3
"Amdt_StdImp|Product Description: AutoCAD Mechanical 2004 DX|Company: Autodesk"
 90
        0
280
     0
281
     0
  0
CLASS
  1
ACMDETAILSTANDARDISO
  2
AmdtDetailSymStdISO
  3
"Amdt_StdImp|Product Description: AutoCAD Mechanical 2004 DX|Company: Autodesk"
 90
        0
280
     0
281
     0
  0
CLASS
  1
ACMSECTIONSTANDARDISO
  2
AmdtSectionSymStdISO
  3
"Amdt_StdImp|Product Description: AutoCAD Mechanical 2004 DX|Company: Autodesk"
 90
        0
280
     0
281
     0
  0
CLASS
  1
ACMCENTERLINESTANDARDISO
  2
AmdtCenterLineStdISO
  3
"Amdt_StdImp|Product Description: AutoCAD Mechanical 2004 DX|Company: Autodesk"
 90
        0
280
     0
281
     0
  0
CLASS
  1
ACMNOTESTANDARDISO
  2
AmdtNoteStdISO
  3
"Amdt_StdImp|Product Description: AutoCAD Mechanical 2004 DX|Company: Autodesk"
 90
        0
280
     0
281
     0
  0
CLASS
  1
ACAMGLAYSTD
  2
AcAmgLayStd
  3
"AcAmgLayStd|Product Description: AutoCAD Mechanical 2000|Company: Autodesk"
 90
        0
280
     0
281
     0
  0
CLASS
  1
ACAMGDIMSTD
  2
AcAmgDimStd
  3
"AcAmgDimStd|Product Description: AutoCAD Mechanical 2000|Company: Autodesk"
 90
        0
280
     0
281
     0
  0
CLASS
  1
ACAMGHOLECHARTSTDISO
  2
AcAmgHoleChartStdISO
  3
ACMSYMBB_MODULE_NAME
 90
        0
280
     0
281
     0
  0
CLASS
  1
ACAMGTITLESTD
  2
AcAmgTitleStd
  3
"TITLEAPP"
 90
        0
280
     0
281
     0
  0
CLASS
  1
LAYER_INDEX
  2
AcDbLayerIndex
  3
ObjectDBX Classes
 90
    32768
280
     0
281
     0
  0
CLASS
  1
IDBUFFER
  2
AcDbIdBuffer
  3
ObjectDBX Classes
 90
    32768
280
     0
281
     0
  0
CLASS
  1
DICTIONARYVAR
  2
AcDbDictionaryVar
  3
ObjectDBX Classes
 90
        0
280
     0
281
     0
  0
CLASS
  1
AM_DRAWING_MGR
  2
AcDmDwgMgr
  3
AcMechDwgViewMgmt
 90
        0
280
     0
281
     0
  0
CLASS
  1
AM_DWG_DOCUMENT
  2
AcDmDwgDocument
  3
AcMechDwgViewMgmt
 90
        0
280
     0
281
     0
  0
CLASS
  1
AM_DWG_SHEET
  2
AcDmSheet
  3
AcMechDwgViewMgmt
 90
        0
280
     0
281
     0
  0
CLASS
  1
AM_VIEWDIMPARMAP
  2
AcDmViewDimParMap
  3
AcMechDwgViewMgmt
 90
        0
280
     0
281
     0
  0
CLASS
  1
AM_DWGMGR_NAME
  2
AcDmDwgMgrName
  3
AcMechDwgViewMgmt
 90
        0
280
     0
281
     0
  0
CLASS
  1
AMDTMENUSTATEMGR
  2
AmdtMenuStateMgr
  3
McadcomServices
 90
        0
280
     0
281
     0
  0
CLASS
  1
AMDTMCOMMENUSTATE
  2
AmdtMcomMenuState
  3
McadcomServices
 90
        0
280
     0
281
     0
  0
CLASS
  1
MAPIAMMOUDLE
  2
MApiAmModule
  3
MApiAmServices
 90
        0
280
     0
281
     0
  0
CLASS
  1
AMDTADMENUSTATE
  2
AmdtAdMenuState
  3
DesignerServices
 90
        0
280
     0
281
     0
  0
CLASS
  1
ADAPPL
  2
AcAdAppl
  3
DesignerServices
 90
        0
280
     0
281
     0
  0
CLASS
  1
DEPMGR
  2
AcAdDepMgr
  3
DesignerServices
 90
        0
280
     0
281
     0
  0
CLASS
  1
PARAMMGR
  2
AcAdParamMgr
  3
DesignerServices
 90
        0
280
     0
281
     0
  0
CLASS
  1
PARAMSCOPE
  2
AcAdParamScope
  3
DesignerServices
 90
        0
280
     0
281
     0
  0
CLASS
  1
NAMEDAPPL
  2
AcAdNamedAppl
  3
DesignerServices
 90
        0
280
     0
281
     0
  0
CLASS
  1
AMDTDMMENUSTATE
  2
AmdtDmMenuState
  3
AcMechDwgViewMgmt
 90
        0
280
     0
281
     0
  0
CLASS
  1
AMDTAMMENUSTATE
  2
AmdtAmMenuState
  3
DesignerAssemblies
 90
        0
280
     0
281
     0
  0
CLASS
  1
ACAMPROJECT
  2
AcAmProject
  3
DesignerAssemblies
 90
        0
280
     0
281
     0
  0
CLASS
  1
ACAMGRCOMPDEF
  2
AcAmGrCompDef
  3
DesignerAssemblies
 90
        0
280
     0
281
     0
  0
CLASS
  1
ACCMCONTEXT
  2
AcCmContext
  3
DesignerAssemblies
 90
        0
280
     0
281
     0
  0
CLASS
  1
ACAMCOMPDEF
  2
AcAmCompDef
  3
DesignerAssemblies
 90
        0
280
     0
281
     0
  0
CLASS
  1
ACAMCOMPDEFMGR
  2
AcAmCompDefMgr
  3
DesignerAssemblies
 90
        0
280
     0
281
     0
  0
CLASS
  1
AMCONTEXTMGR
  2
AcAmContextMgr
  3
DesignerAssemblies
 90
        0
280
     0
281
     0
  0
CLASS
  1
ACAMCONTEXTMODELER
  2
AcAmContextModeler
  3
DesignerAssemblies
 90
        0
280
     0
281
     0
  0
CLASS
  1
ACMTHREADLINESTANDARDISO
  2
AmdtThreadLineStdISO
  3
"Amdt_StdImp|Product Description: AutoCAD Mechanical 2004 DX|Company: Autodesk"
 90
        0
280
     0
281
     0
  0
CLASS
  1
CATALOGSTATE
  2
AcAmCatalogState
  3
DesignerAssemblies
 90
        0
280
     0
281
     0
  0
CLASS
  1
ACAMGRCOMPDEFSET
  2
AcAmGrCompDefSet
  3
DesignerAssemblies
 90
        0
280
     0
281
     0
  0
CLASS
  1
AMDTBROWSERDBTAB
  2
AmdtBrowserDbTab
  3
McadcomServices
 90
        0
280
     0
281
     0
  0
CLASS
  1
CBROWSERAPPOBJECT
  2
CBrowserAppObject
  3
McadcomServices
 90
        0
280
     0
281
     0
  0
CLASS
  1
DM_PLACEHOLDER
  2
AcDmSelsetPlaceholder
  3
AcMechDwgViewMgmt
 90
        0
280
     0
281
     0
  0
CLASS
  1
TABLESTYLE
  2
AcDbTableStyle
  3
ObjectDBX Classes
 90
     2047
280
     0
281
     0
  0
CLASS
  1
VAACXREFPANELOBJECT
  2
VaAcXREFPanelObject
  3
VAAC_ADDIN
 90
    32768
280
     0
281
     0
  0
CLASS
  1
VAACIMAGEINVENTORY
  2
VaAcImageInventory
  3
VAAC_ADDIN
 90
    32768
280
     0
281
     0
  0
CLASS
  1
AMDTNOTETEMPLATEDB
  2
AmdtNoteTemplateDB
  3
AMDT_STDIMP_MODULE_NAME
 90
        0
280
     0
281
     0
  0
CLASS
  1
ACMBOM
  2
AcmBom
  3
"AcmSymBB|Product Description: AutoCAD Mechanical 2004 DX|Company: Autodesk"
 90
    32768
280
     0
281
     0
  0
CLASS
  1
AMDTFORMULAUPDATEDISPATCHER
  2
AmdtFormulaUpdateDispatcher
  3
AcMeServices
 90
    32768
280
     0
281
     0
  0
CLASS
  1
ACMPARTLIST
  2
AcmPartList
  3
"AcmSymBB|Product Description: AutoCAD Mechanical 2004 DX|Company: Autodesk"
 90
    33791
280
     0
281
     1
  0
CLASS
  1
ACAMGFILTERDAT
  2
AcAmgFilterDat
  3
"AcadM|Product Description: AutoCAD Mechanical 2000|Company: Autodesk"
 90
        0
280
     0
281
     0
  0
CLASS
  1
DIMASSOC
  2
AcDbDimAssoc
  3
"AcDbDimAssoc|Product Desc:     AcDim ARX App For Dimension|Company:          Autodesk, Inc.|WEB Address:      www.autodesk.com"
 90
        0
280
     0
281
     0
  0
CLASS
  1
SORTENTSTABLE
  2
AcDbSortentsTable
  3
ObjectDBX Classes
 90
        0
280
     0
281
     0
  0
CLASS
  1
AMDTNOTE
  2
AmdtNote
  3
"AcmSymBB|Product Description: AutoCAD Mechanical 2004 DX|Company: Autodesk"
 90
     1023
280
     0
281
     1
  0
CLASS
  1
ACMSTANDARDANSI
  2
AcmStandardANSI
  3
"Amdt_StdImp|Product Description: AutoCAD Mechanical 2004 DX|Company: Autodesk"
 90
        0
280
     0
281
     0
  0
CLASS
  1
ACMSURFSTANDARDANSI
  2
AcmSurfTextStdANSI
  3
"Amdt_StdImp|Product Description: AutoCAD Mechanical 2004 DX|Company: Autodesk"
 90
        0
280
     0
281
     0
  0
CLASS
  1
ACMFCFSTANDARDANSI
  2
AcmFCFStdANSI
  3
"Amdt_StdImp|Product Description: AutoCAD Mechanical 2004 DX|Company: Autodesk"
 90
        0
280
     0
281
     0
  0
CLASS
  1
ACMWELDSTANDARDANSI
  2
AcmWeldingStdANSI
  3
"Amdt_StdImp|Product Description: AutoCAD Mechanical 2004 DX|Company: Autodesk"
 90
        0
280
     0
281
     0
  0
CLASS
  1
ACMIDSTANDARDANSI
  2
AcmIdStdANSI
  3
"Amdt_StdImp|Product Description: AutoCAD Mechanical 2004 DX|Company: Autodesk"
 90
        0
280
     0
281
     0
  0
CLASS
  1
ACMDATUMSTANDARDANSI
  2
AcmDatumStdANSI
  3
"Amdt_StdImp|Product Description: AutoCAD Mechanical 2004 DX|Company: Autodesk"
 90
        0
280
     0
281
     0
  0
CLASS
  1
ACMBOMSTANDARDANSI
  2
AcmBOMStdANSI
  3
"Amdt_StdImp|Product Description: AutoCAD Mechanical 2004 DX|Company: Autodesk"
 90
        0
280
     0
281
     0
  0
CLASS
  1
ACMDETAILSTANDARDANSI
  2
AmdtDetailSymStdANSI
  3
"Amdt_StdImp|Product Description: AutoCAD Mechanical 2004 DX|Company: Autodesk"
 90
        0
280
     0
281
     0
  0
CLASS
  1
ACMSECTIONSTANDARDANSI
  2
AmdtSectionSymStdANSI
  3
"Amdt_StdImp|Product Description: AutoCAD Mechanical 2004 DX|Company: Autodesk"
 90
        0
280
     0
281
     0
  0
CLASS
  1
ACMCENTERLINESTANDARDANSI
  2
AmdtCenterLineStdANSI
  3
"Amdt_StdImp|Product Description: AutoCAD Mechanical 2004 DX|Company: Autodesk"
 90
        0
280
     0
281
     0
  0
CLASS
  1
ACMTHREADLINESTANDARDANSI
  2
AmdtThreadLineStdANSI
  3
"Amdt_StdImp|Product Description: AutoCAD Mechanical 2004 DX|Company: Autodesk"
 90
        0
280
     0
281
     0
  0
CLASS
  1
ACMNOTESTANDARDANSI
  2
AmdtNoteStdANSI
  3
"Amdt_StdImp|Product Description: AutoCAD Mechanical 2004 DX|Company: Autodesk"
 90
        0
280
     0
281
     0
  0
CLASS
  1
ACAMGHOLECHARTSTDANSI
  2
AcAmgHoleChartStdANSI
  3
ACMSYMBB_MODULE_NAME
 90
        0
280
     0
281
     0
  0
CLASS
  1
STDPART2D
  2
AmgStdPart
  3
"AmgStdPart|Product Description: AutoCAD Mechanical 2000|Company: Autodesk"
 90
    33791
280
     0
281
     1
  0
CLASS
  1
ACAMSTDPCOMPDEF
  2
AcAmStdpCompDef
  3
DesignerAssemblies
 90
    32768
280
     0
281
     0
  0
CLASS
  1
ACRFATTGENMGR
  2
AcRfAttGeneralMgr
  3
AcAttribServices
 90
        0
280
     0
281
     0
  0
CLASS
  1
ACRFOBJATTMGR
  2
AcRfObjAttGroupMgr
  3
AcAttribServices
 90
    32768
280
     0
281
     0
  0
CLASS
  1
ACRFMCADAPIATTHOLDER
  2
AcRfMCADAPIAttHolder
  3
AcAttribServices
 90
    32768
280
     0
281
     0
  0
CLASS
  1
AMDTSYSATTR
  2
AmdtSystemAttribute
  3
AcAttribServices
 90
    32768
280
     0
281
     0
  0
CLASS
  1
ACAMCOMP
  2
AcAmComp
  3
DesignerAssemblies
 90
    32768
280
     0
281
     0
  0
CLASS
  1
AC_AM_STDP_VIEW_DEF
  2
AcAmStdpViewDef
  3
DesignerAssemblies
 90
    32768
280
     0
281
     0
  0
CLASS
  1
AC_AM_MVD_DEP_MGR
  2
AcAmMVDdepMgr
  3
DesignerAssemblies
 90
        0
280
     0
281
     0
  0
CLASS
  1
AC_AM_MASTER_VIEW_DEF
  2
AcAmMasterViewDef
  3
DesignerAssemblies
 90
        0
280
     0
281
     0
  0
CLASS
  1
AC_AM_DIRTY_NODES
  2
AcAmDirtyNodes
  3
DesignerAssemblies
 90
        0
280
     0
281
     0
  0
CLASS
  1
AC_AM_MAPPER_CACHE
  2
AcAmMapperCache
  3
DesignerAssemblies
 90
        0
280
     0
281
     0
  0
CLASS
  1
ACAMMVDBACKUPOBJECT
  2
AcAmMVDBackupObject
  3
DesignerAssemblies
 90
        0
280
     0
281
     0
  0
CLASS
  1
AC_AM_COMP_VIEW_INST
  2
AcAmCompView
  3
DesignerAssemblies
 90
    32768
280
     0
281
     0
  0
CLASS
  1
AC_AM_2D_XREF_MGR
  2
AcAmXrefMgr2d
  3
DesignerAssemblies
 90
        0
280
     0
281
     0
  0
ENDSEC
  0
SECTION
  2
TABLES
  0
TABLE
  2
VPORT
  5
8
330
0
100
AcDbSymbolTable
 70
     3
  0
VPORT
  5
2334
330
8
100
AcDbSymbolTableRecord
100
AcDbViewportTableRecord
  2
*Active
 70
     0
 10
0.0
 20
0.0
 11
1.0
 21
1.0
 12
2537.846535753327
 22
1016.114539819079
 13
0.0
 23
0.0
 14
2.5
 24
2.5
 15
10.0
 25
10.0
 16
0.0
 26
0.0
 36
1.0
 17
0.0
 27
0.0
 37
0.0
 40
396.65307711179
 41
1.81766917293233
 42
50.0
 43
0.0
 44
0.0
 50
0.0
 51
0.0
 71
     0
 72
   100
 73
     1
 74
     3
 75
     0
 76
     0
 77
     0
 78
     0
281
     0
 65
     1
110
0.0
120
0.0
130
0.0
111
1.0
121
0.0
131
0.0
112
0.0
122
1.0
132
0.0
 79
     0
146
0.0
  0
ENDTAB
  0
TABLE
  2
LTYPE
  5
5
330
0
100
AcDbSymbolTable
 70
    16
  0
LTYPE
  5
14
330
5
100
AcDbSymbolTableRecord
100
AcDbLinetypeTableRecord
  2
ByBlock
 70
     0
  3

 72
    65
 73
     0
 40
0.0
  0
LTYPE
  5
15
330
5
100
AcDbSymbolTableRecord
100
AcDbLinetypeTableRecord
  2
ByLayer
 70
     0
  3

 72
    65
 73
     0
 40
0.0
  0
LTYPE
  5
16
330
5
100
AcDbSymbolTableRecord
100
AcDbLinetypeTableRecord
  2
Continuous
 70
     0
  3
Solid line
 72
    65
 73
     0
 40
0.0
  0
LTYPE
  5
64
330
5
100
AcDbSymbolTableRecord
100
AcDbLinetypeTableRecord
  2
AM_ISO02W050
 70
     0
  3
__ __ __ __ __ __ __ __ __ __ __ __ __ __ __
 72
    65
 73
     2
 40
7.5
 49
6.0
 74
     0
 49
-1.5
 74
     0
  0
LTYPE
  5
65
330
5
100
AcDbSymbolTableRecord
100
AcDbLinetypeTableRecord
  2
AM_ISO08W050
 70
     0
  3
____ . ____ . ____ . ____ . ____ . ____ . ____
 72
    65
 73
     4
 40
18.0
 49
12.0
 74
     0
 49
-1.5
 74
     0
 49
3.0
 74
     0
 49
-1.5
 74
     0
  0
LTYPE
  5
66
330
5
100
AcDbSymbolTableRecord
100
AcDbLinetypeTableRecord
  2
AM_ISO09W050
 70
     0
  3
_____ . . _____ . . _____ . . ____ .. ____
 72
    65
 73
     6
 40
22.5
 49
12.0
 74
     0
 49
-1.5
 74
     0
 49
3.0
 74
     0
 49
-1.5
 74
     0
 49
3.0
 74
     0
 49
-1.5
 74
     0
  0
LTYPE
  5
67
330
5
100
AcDbSymbolTableRecord
100
AcDbLinetypeTableRecord
  2
Amconstr
 70
     0
  3
_______________________
 72
    65
 73
     2
 40
9999.0
 49
9999.0
 74
     0
 49
0.0
 74
     0
  0
LTYPE
  5
68
330
5
100
AcDbSymbolTableRecord
100
AcDbLinetypeTableRecord
  2
AM_ISO08W050x2
 70
     0
  3
__ . __ . __ . __ . __ . __
 72
    65
 73
     4
 40
9.0
 49
6.0
 74
     0
 49
-0.75
 74
     0
 49
1.5
 74
     0
 49
-0.75
 74
     0
  0
LTYPE
  5
69
330
5
100
AcDbSymbolTableRecord
100
AcDbLinetypeTableRecord
  2
AM_ISO02W050x2
 70
     0
  3
 _ _ _ _ _ _ _ _ _ _ _ _
 72
    65
 73
     2
 40
3.75
 49
3.0
 74
     0
 49
-0.75
 74
     0
  0
LTYPE
  5
6C
330
5
100
AcDbSymbolTableRecord
100
AcDbLinetypeTableRecord
  2
Amzigzag
 70
     0
  3
/\/-/\/-/\/-/\/-/\/-/\/
 72
    65
 73
     2
 40
11.0001
 49
0.0001
 74
     4
 75
   135
340
6B
 46
0.04
 50
0.0
 44
0.0
 45
0.0
 49
-11.0
 74
     0
  0
LTYPE
  5
7A
330
5
100
AcDbSymbolTableRecord
100
AcDbLinetypeTableRecord
  2
ACISOWELD
 70
     0
  3
_ _ _ _ _
 72
    65
 73
     2
 40
2.0
 49
2.0
 74
     0
 49
-1.0
 74
     0
  0
LTYPE
  5
7B
330
5
100
AcDbSymbolTableRecord
100
AcDbLinetypeTableRecord
  2
ACISOTGB
 70
     0
  3
__ . . __ . .
 72
    65
 73
     6
 40
9.0
 49
4.0
 74
     0
 49
-1.0
 74
     0
 49
1.0
 74
     0
 49
-1.0
 74
     0
 49
1.0
 74
     0
 49
-1.0
 74
     0
  0
LTYPE
  5
7C
330
5
100
AcDbSymbolTableRecord
100
AcDbLinetypeTableRecord
  2
ACISOTGL
 70
     0
  3
_ _ _ _ _
 72
    65
 73
     2
 40
3.0
 49
2.0
 74
     0
 49
-1.0
 74
     0
  0
LTYPE
  5
7E
330
5
100
AcDbSymbolTableRecord
100
AcDbLinetypeTableRecord
  2
CENTER
 70
     0
  3
__ . __
 72
    65
 73
     4
 40
7.0
 49
4.0
 74
     0
 49
-1.0
 74
     0
 49
1.0
 74
     0
 49
-1.0
 74
     0
  0
LTYPE
  5
D8
330
5
100
AcDbSymbolTableRecord
100
AcDbLinetypeTableRecord
  2
HIDDEN
 70
     0
  3
Hidden __ __ __ __ __ __ __ __ __ __ __ __ __ _
 72
    65
 73
     2
 40
9.524999999999998
 49
6.349999999999999
 74
     0
 49
-3.174999999999999
 74
     0
  0
LTYPE
  5
D9
330
5
100
AcDbSymbolTableRecord
100
AcDbLinetypeTableRecord
  2
PHANTOM2
 70
     0
  3
Phantom (.5x) ___ _ _ ___ _ _ ___ _ _ ___ _ _
 72
    65
 73
     6
 40
31.75
 49
15.875
 74
     0
 49
-3.174999999999999
 74
     0
 49
3.174999999999999
 74
     0
 49
-3.174999999999999
 74
     0
 49
3.174999999999999
 74
     0
 49
-3.174999999999999
 74
     0
  0
LTYPE
  5
F85
330
5
100
AcDbSymbolTableRecord
100
AcDbLinetypeTableRecord
  2
ACANSTGB
 70
     0
  3
__ . . __ . .
 72
    65
 73
     6
 40
0.35433070866
 49
0.15748031496
 74
     0
 49
-0.03937007874
 74
     0
 49
0.03937007874
 74
     0
 49
-0.03937007874
 74
     0
 49
0.03937007874
 74
     0
 49
-0.03937007874
 74
     0
  0
LTYPE
  5
F86
330
5
100
AcDbSymbolTableRecord
100
AcDbLinetypeTableRecord
  2
ACANSTGL
 70
     0
  3
_ _ _ _ _
 72
    65
 73
     2
 40
0.11811023622
 49
0.07874015748
 74
     0
 49
-0.03937007874
 74
     0
  0
ENDTAB
  0
TABLE
  2
LAYER
  5
2
102
{ACAD_XDICTIONARY
360
3F9
102
}
330
0
100
AcDbSymbolTable
 70
     8
  0
LAYER
  5
10
330
2
100
AcDbSymbolTableRecord
100
AcDbLayerTableRecord
  2
0
 70
     0
 62
     7
  6
Continuous
370
    -3
390
F
  0
LAYER
  5
206
330
2
100
AcDbSymbolTableRecord
100
AcDbLayerTableRecord
  2
Defpoints
 70
     0
 62
     7
  6
Continuous
290
     0
370
    -3
390
F
  0
LAYER
  5
5AE
330
2
100
AcDbSymbolTableRecord
100
AcDbLayerTableRecord
  2
AM_7
 70
     0
 62
     1
  6
CENTER
370
    25
390
F
  0
LAYER
  5
71A
330
2
100
AcDbSymbolTableRecord
100
AcDbLayerTableRecord
  2
LOGO
 70
     0
 62
     7
  6
Continuous
370
    -3
390
F
  0
LAYER
  5
84F
330
2
100
AcDbSymbolTableRecord
100
AcDbLayerTableRecord
  2
AM_VIS
 70
     0
 62
     7
  6
Continuous
370
    50
390
F
  0
LAYER
  5
850
330
2
100
AcDbSymbolTableRecord
100
AcDbLayerTableRecord
  2
AM_4
 70
     0
 62
     3
  6
Continuous
370
    25
390
F
  0
LAYER
  5
851
330
2
100
AcDbSymbolTableRecord
100
AcDbLayerTableRecord
  2
AM_0
 70
     0
 62
     7
  6
Continuous
370
    50
390
F
  0
LAYER
  5
B99
330
2
100
AcDbSymbolTableRecord
100
AcDbLayerTableRecord
  2
AM_5
 70
     0
 62
     5
  6
Continuous
370
    50
390
F
  0
ENDTAB
  0
TABLE
  2
STYLE
  5
3
330
0
100
AcDbSymbolTable
 70
     8
  0
STYLE
  5
11
330
3
100
AcDbSymbolTableRecord
100
AcDbTextStyleTableRecord
  2
STANDARD
 70
     0
 40
0.0
 41
1.0
 50
0.0
 71
     0
 42
3.0
  3
ISOCP.SHX
  4
CHINESET.SHX
  0
STYLE
  5
6B
330
3
100
AcDbSymbolTableRecord
100
AcDbTextStyleTableRecord
  2

 70
     1
 40
0.0
 41
1.0
 50
0.0
 71
     0
 42
2.5
  3
ltypeshp.shx
  4

  0
STYLE
  5
6D
330
3
100
AcDbSymbolTableRecord
100
AcDbTextStyleTableRecord
  2
ACISOTS
 70
     0
 40
1.0
 41
1.0
 50
0.0
 71
     0
 42
1.0
  3
isocp.shx
  4
chineset.shx
  0
STYLE
  5
79
330
3
100
AcDbSymbolTableRecord
100
AcDbTextStyleTableRecord
  2
ACISOGDT
 70
     0
 40
0.0
 41
1.0
 50
0.0
 71
     0
 42
2.5
  3
amgdt.shx
  4
chineset.shx
  0
STYLE
  5
60C
330
3
100
AcDbSymbolTableRecord
100
AcDbTextStyleTableRecord
  2
CHINESET
 70
     0
 40
0.0
 41
1.0
 50
0.0
 71
     0
 42
3.0
  3
simplex.shx
  4
CHINESET.SHX
  0
STYLE
  5
F87
330
3
100
AcDbSymbolTableRecord
100
AcDbTextStyleTableRecord
  2
ACANSTS
 70
     0
 40
1.0
 41
1.0
 50
0.0
 71
     0
 42
5.0
  3
romans.shx
  4
chineset.shx
  0
STYLE
  5
F88
330
3
100
AcDbSymbolTableRecord
100
AcDbTextStyleTableRecord
  2
ACANSGDT
 70
     0
 40
0.0
 41
1.0
 50
0.0
 71
     0
 42
5.0
  3
amgdtans.shx
  4

  0
ENDTAB
  0
TABLE
  2
VIEW
  5
6
330
0
100
AcDbSymbolTable
 70
     0
  0
ENDTAB
  0
TABLE
  2
UCS
  5
7
330
0
100
AcDbSymbolTable
 70
     0
  0
ENDTAB
  0
TABLE
  2
APPID
  5
9
330
0
100
AcDbSymbolTable
 70
    27
  0
APPID
  5
12
330
9
100
AcDbSymbolTableRecord
100
AcDbRegAppTableRecord
  2
ACAD
 70
     0
  0
APPID
  5
46
330
9
100
AcDbSymbolTableRecord
100
AcDbRegAppTableRecord
  2
MCAD_NO_VIS
 70
     0
  0
APPID
  5
47
330
9
100
AcDbSymbolTableRecord
100
AcDbRegAppTableRecord
  2
ACAD_TEMP_GRAPHIC
 70
     0
  0
APPID
  5
58
330
9
100
AcDbSymbolTableRecord
100
AcDbRegAppTableRecord
  2
ACATTRIBSERVICES
 70
     0
  0
APPID
  5
EE
330
9
100
AcDbSymbolTableRecord
100
AcDbRegAppTableRecord
  2
AD_DRAW
 70
     0
  0
APPID
  5
10C
330
9
100
AcDbSymbolTableRecord
100
AcDbRegAppTableRecord
  2
DESIGNERASSEMBLIES
 70
     0
  0
APPID
  5
111
330
9
100
AcDbSymbolTableRecord
100
AcDbRegAppTableRecord
  2
ACADM_DIM_EDIT
 70
     0
  0
APPID
  5
112
330
9
100
AcDbSymbolTableRecord
100
AcDbRegAppTableRecord
  2
AMDT_DM_ADJ
 70
     0
  0
APPID
  5
22C
330
9
100
AcDbSymbolTableRecord
100
AcDbRegAppTableRecord
  2
ACAD_DSTYLE_DIMTEXT_FILL
 70
     0
  0
APPID
  5
452
330
9
100
AcDbSymbolTableRecord
100
AcDbRegAppTableRecord
  2
GENIUS_GENOENT_13
 70
     0
  0
APPID
  5
453
330
9
100
AcDbSymbolTableRecord
100
AcDbRegAppTableRecord
  2
GENIUS_GENOBJ-N-CRS_13
 70
     0
  0
APPID
  5
454
330
9
100
AcDbSymbolTableRecord
100
AcDbRegAppTableRecord
  2
GENIUS_GENOLIS_13
 70
     0
  0
APPID
  5
455
330
9
100
AcDbSymbolTableRecord
100
AcDbRegAppTableRecord
  2
GENIUS_GENODEF_13
 70
     0
  0
APPID
  5
456
330
9
100
AcDbSymbolTableRecord
100
AcDbRegAppTableRecord
  2
GENIUS_GENOREF_13
 70
     0
  0
APPID
  5
6F3
330
9
100
AcDbSymbolTableRecord
100
AcDbRegAppTableRecord
  2
ACAD_PSEXT
 70
     0
  0
APPID
  5
71B
330
9
100
AcDbSymbolTableRecord
100
AcDbRegAppTableRecord
  2
GENIUS_GENREC_14
 70
     0
  0
APPID
  5
71C
330
9
100
AcDbSymbolTableRecord
100
AcDbRegAppTableRecord
  2
GENIUS_GENOBJ-N-REC_13
 70
     0
  0
APPID
  5
12C9
330
9
100
AcDbSymbolTableRecord
100
AcDbRegAppTableRecord
  2
GEVID1123030070
 70
     0
  0
APPID
  5
12CA
330
9
100
AcDbSymbolTableRecord
100
AcDbRegAppTableRecord
  2
GEVDC
 70
     0
  0
APPID
  5
12CB
330
9
100
AcDbSymbolTableRecord
100
AcDbRegAppTableRecord
  2
GEVRADREF
 70
     0
  0
APPID
  5
12D4
330
9
100
AcDbSymbolTableRecord
100
AcDbRegAppTableRecord
  2
AMG_2DHIDE
 70
     0
  0
APPID
  5
12D5
330
9
100
AcDbSymbolTableRecord
100
AcDbRegAppTableRecord
  2
AMG_2DSTRUCT_BTR
 70
     0
  0
APPID
  5
12E6
330
9
100
AcDbSymbolTableRecord
100
AcDbRegAppTableRecord
  2
ACADM_2DVIEW_IGN_NOTIFY
 70
     0
  0
APPID
  5
1345
330
9
100
AcDbSymbolTableRecord
100
AcDbRegAppTableRecord
  2
GENIUS_GENOBJ-N-CEN_13
 70
     0
  0
APPID
  5
1346
330
9
100
AcDbSymbolTableRecord
100
AcDbRegAppTableRecord
  2
GENIUS_GENCEN_19
 70
     0
  0
APPID
  5
1759
330
9
100
AcDbSymbolTableRecord
100
AcDbRegAppTableRecord
  2
GENIUS_GENDTOL_13
 70
     0
  0
APPID
  5
1CDA
330
9
100
AcDbSymbolTableRecord
100
AcDbRegAppTableRecord
  2
GEVID1123206672
 70
     0
  0
ENDTAB
  0
TABLE
  2
DIMSTYLE
  5
A
330
0
100
AcDbSymbolTable
 70
    15
100
AcDbDimStyleTable
 71
     3
340
81
340
8B
340
86
  0
DIMSTYLE
105
81
330
A
100
AcDbSymbolTableRecord
100
AcDbDimStyleTableRecord
  2
AM_ISO
 70
     0
  4
"
 41
3.0
 42
1.0
 43
8.0
 44
1.5
 47
0.1
 48
0.1
 73
     0
 74
     0
 77
     1
 78
     8
 79
     2
140
3.0
141
0.0
143
0.0393701
146
0.71
147
1.0
172
     1
176
   256
177
   256
178
   256
271
     2
272
     2
283
     0
284
     8
340
11
371
    -1
372
    -1
  0
DIMSTYLE
105
82
102
{ACAD_REACTORS
330
20B5
102
}
330
A
100
AcDbSymbolTableRecord
100
AcDbDimStyleTableRecord
  2
AM_ISO$3
 70
     0
  4
"
 41
3.0
 42
1.0
 43
8.0
 44
1.5
 47
0.1
 48
0.1
 73
     0
 77
     1
 78
     8
 79
     2
140
3.0
141
0.0
143
0.0393701
146
0.71
147
1.0
176
   256
177
   256
178
   256
271
     2
272
     2
283
     0
284
     8
288
     1
289
     0
340
11
371
    -1
372
    -1
  0
DIMSTYLE
105
83
330
A
100
AcDbSymbolTableRecord
100
AcDbDimStyleTableRecord
  2
AM_ISO$4
 70
     0
  4
"
 41
3.0
 42
1.0
 43
8.0
 44
1.5
 47
0.1
 48
0.1
 73
     0
 77
     1
 78
     8
 79
     2
140
3.0
141
0.0
143
0.0393701
146
0.71
147
1.0
176
   256
177
   256
178
   256
271
     2
272
     2
283
     0
284
     8
288
     1
289
     0
340
11
371
    -1
372
    -1
  0
DIMSTYLE
105
84
330
A
100
AcDbSymbolTableRecord
100
AcDbDimStyleTableRecord
  2
AM_ISO$6
 70
     0
  4
"
 41
3.0
 42
1.0
 43
8.0
 44
1.5
 47
0.1
 48
0.1
 73
     0
 74
     0
 78
     8
 79
     2
140
3.0
141
0.0
143
0.0393701
146
0.71
147
1.0
172
     1
176
   256
177
   256
178
   256
271
     2
272
     2
283
     0
284
     8
340
11
371
    -1
372
    -1
  0
DIMSTYLE
105
85
330
A
100
AcDbSymbolTableRecord
100
AcDbDimStyleTableRecord
  2
AM_ISO$7
 70
     0
  4
"
 41
3.0
 42
1.0
 43
8.0
 44
1.5
 47
0.1
 48
0.1
 73
     0
 74
     0
 77
     1
 78
     8
 79
     2
140
5.0
141
0.0
143
0.0393701
146
0.71
147
1.0
172
     1
176
   256
177
   256
178
   256
271
     2
272
     2
283
     0
284
     8
340
11
371
    -1
372
    -1
  0
DIMSTYLE
105
86
330
A
100
AcDbSymbolTableRecord
100
AcDbDimStyleTableRecord
  2
AM_ISO$SF
 70
     0
  4
"
 41
2.5
 42
1.0
 43
10.0
 44
1.0
 47
0.1
 48
0.1
 73
     0
 74
     0
 75
     1
 76
     1
 77
     1
 78
     8
 79
     2
140
3.5
141
0.0
143
0.0393701
146
0.71
147
1.5
172
     1
176
   256
177
   256
178
     2
271
     2
272
     3
274
     4
283
     0
284
     8
340
11
371
    -1
372
    -1
  0
DIMSTYLE
105
8B
330
A
100
AcDbSymbolTableRecord
100
AcDbDimStyleTableRecord
  2
AM_ISO$SH
 70
     0
  4
"
 41
2.5
 42
1.0
 43
10.0
 44
1.0
 47
0.1
 48
0.1
 73
     0
 74
     0
 75
     1
 76
     1
 77
     1
 78
     8
 79
     2
140
3.5
141
0.0
143
0.0393701
144
2.0
146
0.71
147
1.5
172
     1
173
     1
176
   256
177
   256
178
     2
271
     2
272
     3
274
     4
283
     0
284
     8
340
11
343
87
371
    -1
372
    -1
  0
DIMSTYLE
105
40B
102
{ACAD_REACTORS
330
2045
330
2078
102
}
330
A
100
AcDbSymbolTableRecord
100
AcDbDimStyleTableRecord
  2
AM_ISO$0
 70
     0
  4
"
 41
3.0
 42
1.0
 43
8.0
 44
1.5
 47
0.1
 48
0.1
 73
     0
 74
     0
 77
     1
 78
     8
 79
     2
140
3.0
141
0.0
143
0.0393701
146
0.71
147
1.0
172
     1
176
   256
177
   256
178
   256
271
     2
272
     2
283
     0
284
     8
340
11
371
    -1
372
    -1
  0
DIMSTYLE
105
F89
330
A
100
AcDbSymbolTableRecord
100
AcDbDimStyleTableRecord
  2
AM_ANSI
 70
     0
  4
mm
 41
0.1
 42
0.05
 43
0.5
 44
0.1
 47
0.1
 48
0.1
 78
     7
 79
     2
140
0.12
141
0.0
146
0.71
147
0.06
176
   256
177
   256
178
     2
274
     4
284
     7
340
11
371
    -1
372
    -1
  0
DIMSTYLE
105
F8A
330
A
100
AcDbSymbolTableRecord
100
AcDbDimStyleTableRecord
  2
AM_ANSI$3
 70
     0
  4
mm
 41
0.1
 42
0.05
 43
0.5
 44
0.1
 47
0.1
 48
0.1
 78
     7
 79
     2
140
0.12
141
0.0
146
0.71
147
0.06
176
   256
177
   256
178
     2
274
     4
284
     7
288
     1
289
     0
340
11
371
    -1
372
    -1
  0
DIMSTYLE
105
F8B
330
A
100
AcDbSymbolTableRecord
100
AcDbDimStyleTableRecord
  2
AM_ANSI$4
 70
     0
  4
mm
 41
0.1
 42
0.05
 43
0.5
 44
0.1
 47
0.1
 48
0.1
 78
     7
 79
     2
140
0.12
141
0.0
146
0.71
147
0.06
176
   256
177
   256
178
     2
274
     4
284
     7
288
     1
289
     0
340
11
371
    -1
372
    -1
  0
DIMSTYLE
105
F8C
330
A
100
AcDbSymbolTableRecord
100
AcDbDimStyleTableRecord
  2
AM_ANSI$7
 70
     0
  4
mm
 41
0.1
 42
0.05
 43
0.5
 44
0.1
 47
0.1
 48
0.1
 78
     7
 79
     2
140
0.24
141
0.0
146
0.71
147
0.06
176
   256
177
   256
178
     2
274
     4
284
     7
340
11
371
    -1
372
    -1
  0
DIMSTYLE
105
F8D
330
A
100
AcDbSymbolTableRecord
100
AcDbDimStyleTableRecord
  2
AM_ANSI$SF
 70
     0
  4
mm
 41
0.1
 42
0.05
 43
0.5
 44
0.1
 47
0.1
 48
0.1
 75
     1
 76
     1
 78
     7
 79
     2
140
0.12
141
0.0
146
0.71
147
0.06
176
   256
177
   256
178
     2
274
     4
284
     7
340
11
371
    -1
372
    -1
  0
DIMSTYLE
105
F8E
330
A
100
AcDbSymbolTableRecord
100
AcDbDimStyleTableRecord
  2
AM_ANSI$SH
 70
     0
  4
mm
 41
0.1
 42
0.05
 43
0.5
 44
0.1
 47
0.1
 48
0.1
 75
     1
 76
     1
 78
     7
 79
     2
140
0.12
141
0.0
146
0.71
147
0.06
173
     1
176
   256
177
   256
178
     2
274
     4
284
     7
340
11
341
87
343
87
371
    -1
372
    -1
  0
ENDTAB
  0
TABLE
  2
BLOCK_RECORD
  5
1
330
0
100
AcDbSymbolTable
 70
    11
  0
BLOCK_RECORD
  5
1F
102
{ACAD_XDICTIONARY
360
8F
102
}
330
1
100
AcDbSymbolTableRecord
100
AcDbBlockTableRecord
  2
*Model_Space
340
22
  0
BLOCK_RECORD
  5
1B
330
1
100
AcDbSymbolTableRecord
100
AcDbBlockTableRecord
  2
*Paper_Space
340
1E
  0
BLOCK_RECORD
  5
23
330
1
100
AcDbSymbolTableRecord
100
AcDbBlockTableRecord
  2
*Paper_Space0
340
26
  0
BLOCK_RECORD
  5
87
330
1
100
AcDbSymbolTableRecord
100
AcDbBlockTableRecord
  2
GENAXEH
340
0
  0
BLOCK_RECORD
  5
12EA
330
1
100
AcDbSymbolTableRecord
100
AcDbBlockTableRecord
  2
*U4
340
0
  0
BLOCK_RECORD
  5
2046
330
1
100
AcDbSymbolTableRecord
100
AcDbBlockTableRecord
  2
*D5
340
0
  0
BLOCK_RECORD
  5
2079
330
1
100
AcDbSymbolTableRecord
100
AcDbBlockTableRecord
  2
*D6
340
0
  0
BLOCK_RECORD
  5
20B6
330
1
100
AcDbSymbolTableRecord
100
AcDbBlockTableRecord
  2
*D7
340
0
  0
BLOCK_RECORD
  5
2322
330
1
100
AcDbSymbolTableRecord
100
AcDbBlockTableRecord
  2
*S9
340
0
  0
BLOCK_RECORD
  5
232A
330
1
100
AcDbSymbolTableRecord
100
AcDbBlockTableRecord
  2
*S10
340
0
  0
ENDTAB
  0
ENDSEC
  0
SECTION
  2
BLOCKS
  0
BLOCK
  5
20
330
1F
100
AcDbEntity
  8
0
100
AcDbBlockBegin
  2
*Model_Space
 70
     0
 10
0.0
 20
0.0
 30
0.0
  3
*Model_Space
  1

  0
ENDBLK
  5
21
330
1F
100
AcDbEntity
  8
0
100
AcDbBlockEnd
  0
BLOCK
  5
1C
330
1B
100
AcDbEntity
 67
     1
  8
0
100
AcDbBlockBegin
  2
*Paper_Space
 70
     0
 10
0.0
 20
0.0
 30
0.0
  3
*Paper_Space
  1

  0
ENDBLK
  5
1D
330
1B
100
AcDbEntity
 67
     1
  8
0
100
AcDbBlockEnd
  0
BLOCK
  5
24
330
23
100
AcDbEntity
  8
0
100
AcDbBlockBegin
  2
*Paper_Space0
 70
     0
 10
0.0
 20
0.0
 30
0.0
  3
*Paper_Space0
  1

  0
ENDBLK
  5
25
330
23
100
AcDbEntity
  8
0
100
AcDbBlockEnd
  0
BLOCK
  5
89
330
87
100
AcDbEntity
  8
0
100
AcDbBlockBegin
  2
GENAXEH
 70
     0
 10
0.0
 20
0.0
 30
0.0
  3
GENAXEH
  1

  0
LINE
  5
88
330
87
100
AcDbEntity
  8
0
100
AcDbLine
 10
-1.0
 20
0.0
 30
0.0
 11
1.0
 21
0.0
 31
0.0
  0
ENDBLK
  5
8A
330
87
100
AcDbEntity
  8
0
100
AcDbBlockEnd
  0
BLOCK
  5
12EB
330
12EA
100
AcDbEntity
  8
0
100
AcDbBlockBegin
  2
*U4
 70
     1
 10
0.0
 20
0.0
 30
0.0
  3
*U4
  1

  0
ENDBLK
  5
12EC
330
12EA
100
AcDbEntity
  8
0
100
AcDbBlockEnd
  0
BLOCK
  5
2050
330
2046
100
AcDbEntity
  8
0
100
AcDbBlockBegin
  2
*D5
 70
     1
 10
0.0
 20
0.0
 30
0.0
  3
*D5
  1

  0
LINE
  5
2283
330
2046
100
AcDbEntity
  8
AM_5
100
AcDbLine
 10
2366.388425197439
 20
1111.734259091628
 30
0.0
 11
2366.388425197439
 21
1088.784259091627
 31
0.0
  0
LINE
  5
2284
330
2046
100
AcDbEntity
  8
AM_5
100
AcDbLine
 10
2495.388425197439
 20
1105.134259091628
 30
0.0
 11
2495.388425197439
 21
1088.784259091627
 31
0.0
  0
LINE
  5
2285
330
2046
100
AcDbEntity
  8
AM_5
100
AcDbLine
 10
2369.388425197439
 20
1090.284259091627
 30
0.0
 11
2492.388425197439
 21
1090.284259091627
 31
0.0
  0
SOLID
  5
2286
330
2046
100
AcDbEntity
  8
AM_5
100
AcDbTrace
 10
2369.388425197439
 20
1090.784259091628
 30
0.0
 11
2369.388425197439
 21
1089.784259091628
 31
0.0
 12
2366.388425197439
 22
1090.284259091627
 32
0.0
 13
2366.388425197439
 23
1090.284259091627
 33
0.0
  0
SOLID
  5
2287
330
2046
100
AcDbEntity
  8
AM_5
100
AcDbTrace
 10
2492.388425197439
 20
1090.784259091628
 30
0.0
 11
2492.388425197439
 21
1089.784259091628
 31
0.0
 12
2495.388425197439
 22
1090.284259091627
 32
0.0
 13
2495.388425197439
 23
1090.284259091627
 33
0.0
  0
MTEXT
  5
2288
330
2046
100
AcDbEntity
  8
AM_5
100
AcDbMText
 10
2430.888425197439
 20
1092.784554367218
 30
0.0
 40
3.0
 41
0.0
 71
     5
 72
     1
  1
129+stroke
 73
     1
 44
1.0
1001
ACAD
1000
MTEXTBEGIN
1070
    73
1070
     1
1070
    44
1040
1.0
1070
    74
1070
     0
1000
MTEXTEND
  0
POINT
  5
2289
330
2046
100
AcDbEntity
  8
Defpoints
 62
     0
100
AcDbPoint
 10
2366.388425197439
 20
1112.734259091628
 30
0.0
  0
POINT
  5
228A
330
2046
100
AcDbEntity
  8
Defpoints
 62
     0
100
AcDbPoint
 10
2495.388425197439
 20
1106.134259091628
 30
0.0
  0
POINT
  5
228B
330
2046
100
AcDbEntity
  8
Defpoints
 62
     0
100
AcDbPoint
 10
2495.388425197439
 20
1090.284259091627
 30
0.0
  0
ENDBLK
  5
2051
330
2046
100
AcDbEntity
  8
0
100
AcDbBlockEnd
  0
BLOCK
  5
2083
330
2079
100
AcDbEntity
  8
0
100
AcDbBlockBegin
  2
*D6
 70
     1
 10
0.0
 20
0.0
 30
0.0
  3
*D6
  1

  0
LINE
  5
228C
330
2079
100
AcDbEntity
  8
AM_5
100
AcDbLine
 10
2530.775117496901
 20
1107.084424656357
 30
0.0
 11
2530.775117496901
 21
1088.784259091628
 31
0.0
  0
LINE
  5
228D
330
2079
100
AcDbEntity
  8
AM_5
100
AcDbLine
 10
2546.775117496901
 20
1107.084424656357
 30
0.0
 11
2546.775117496901
 21
1088.784259091628
 31
0.0
  0
LINE
  5
228E
330
2079
100
AcDbEntity
  8
AM_5
100
AcDbLine
 10
2533.775117496901
 20
1090.284259091628
 30
0.0
 11
2543.775117496901
 21
1090.284259091628
 31
0.0
  0
SOLID
  5
228F
330
2079
100
AcDbEntity
  8
AM_5
100
AcDbTrace
 10
2533.775117496901
 20
1090.784259091628
 30
0.0
 11
2533.775117496901
 21
1089.784259091628
 31
0.0
 12
2530.775117496901
 22
1090.284259091628
 32
0.0
 13
2530.775117496901
 23
1090.284259091628
 33
0.0
  0
SOLID
  5
2290
330
2079
100
AcDbEntity
  8
AM_5
100
AcDbTrace
 10
2543.775117496901
 20
1090.784259091628
 30
0.0
 11
2543.775117496901
 21
1089.784259091628
 31
0.0
 12
2546.775117496901
 22
1090.284259091628
 32
0.0
 13
2546.775117496901
 23
1090.284259091628
 33
0.0
  0
MTEXT
  5
2291
330
2079
100
AcDbEntity
  8
AM_5
100
AcDbMText
 10
2538.775117496901
 20
1093.601630710036
 30
0.0
 40
3.0
 41
0.0
 71
     5
 72
     1
  1
16{}{\H0.71x;\C3;\S-0.05^ -0.4;}
 73
     1
 44
1.0
1001
ACAD
1000
MTEXTBEGIN
1070
    73
1070
     1
1070
    44
1040
1.0
1070
    74
1070
     0
1000
MTEXTEND
  0
POINT
  5
2292
330
2079
100
AcDbEntity
  8
Defpoints
 62
     0
100
AcDbPoint
 10
2530.775117496901
 20
1108.084424656357
 30
0.0
  0
POINT
  5
2293
330
2079
100
AcDbEntity
  8
Defpoints
 62
     0
100
AcDbPoint
 10
2546.775117496901
 20
1108.084424656357
 30
0.0
  0
POINT
  5
2294
330
2079
100
AcDbEntity
  8
Defpoints
 62
     0
100
AcDbPoint
 10
2546.775117496901
 20
1090.284259091628
 30
0.0
  0
ENDBLK
  5
2084
330
2079
100
AcDbEntity
  8
0
100
AcDbBlockEnd
  0
BLOCK
  5
20BC
330
20B6
100
AcDbEntity
  8
0
100
AcDbBlockBegin
  2
*D7
 70
     1
 10
0.0
 20
0.0
 30
0.0
  3
*D7
  1

  0
LINE
  5
229B
330
20B6
100
AcDbEntity
  8
AM_5
100
AcDbLine
 10
2489.997774261988
 20
1121.631975267828
 30
0.0
 11
2495.84848910504
 21
1131.354206736428
 31
0.0
  0
LINE
  5
229C
330
20B6
100
AcDbEntity
  8
AM_5
100
AcDbLine
 10
2495.84848910504
 20
1131.354206736428
 30
0.0
 11
2505.078483215314
 21
1131.354206736428
 31
0.0
  0
SOLID
  5
229D
330
20B6
100
AcDbEntity
  8
AM_5
100
AcDbTrace
 10
2489.569365963687
 20
1121.889785915295
 30
0.0
 11
2490.426182560288
 21
1121.37416462036
 31
0.0
 12
2488.450910377181
 22
1119.061525478028
 32
0.0
 13
2488.450910377181
 23
1119.061525478028
 33
0.0
  0
MTEXT
  5
229E
330
20B6
100
AcDbEntity
  8
AM_5
100
AcDbMText
 10
2500.963486160177
 20
1133.854206736428
 30
0.0
 40
3.0
 41
0.0
 71
     5
 72
     1
  1
\U+22058{}{\H0.71x;\C3; H9}
 73
     1
 44
1.0
1001
ACAD
1000
MTEXTBEGIN
1070
    73
1070
     1
1070
    44
1040
1.0
1070
    74
1070
     0
1000
MTEXTEND
  0
POINT
  5
229F
330
20B6
100
AcDbEntity
  8
Defpoints
 62
     0
100
AcDbPoint
 10
2488.450910377181
 20
1119.061525478028
 30
0.0
  0
POINT
  5
22A0
330
20B6
100
AcDbEntity
  8
Defpoints
 62
     0
100
AcDbPoint
 10
2484.325940017698
 20
1112.206992705227
 30
0.0
  0
ENDBLK
  5
20BD
330
20B6
100
AcDbEntity
  8
0
100
AcDbBlockEnd
  0
BLOCK
  5
2327
330
2322
100
AcDbEntity
  8
0
100
AcDbBlockBegin
  2
*S9
 70
     1
 10
0.0
 20
0.0
 30
0.0
  3
*S9
  1

  0
LINE
  5
2323
330
2322
100
AcDbEntity
  8
AM_5
 62
     5
100
AcDbLine
 10
2494.419334006226
 20
1184.898620951888
 30
0.0
 11
2477.837859850472
 21
1184.898620951888
 31
0.0
  0
LINE
  5
2324
330
2322
100
AcDbEntity
  8
AM_5
 62
     5
100
AcDbLine
 10
2477.837859850472
 20
1184.898620951888
 30
0.0
 11
2471.170092529601
 21
1172.39888012521
 31
0.0
  0
TRACE
  5
2325
330
2322
100
AcDbEntity
  8
AM_5
 62
     5
370
    35
100
AcDbTrace
 10
2470.763535374454
 20
1172.615750902832
 30
0.0
 11
2471.576649684748
 21
1172.182009347588
 31
0.0
 12
2469.522795421199
 22
1169.310771928166
 32
0.0
 13
2469.522795421199
 23
1169.310771928166
 33
0.0
  0
MTEXT
  5
2326
330
2322
100
AcDbEntity
  8
AM_5
 62
     2
100
AcDbMText
 10
2494.419334006226
 20
1189.786900086139
 30
0.0
 40
3.5
 41
0.0
 71
     7
 72
     5
  1

  7
ACISOTS
 73
     1
 44
1.0
1001
ACAD
1000
MTEXTBEGIN
1070
    73
1070
     1
1070
    44
1040
1.0
1070
    74
1070
     0
1000
MTEXTEND
  0
ENDBLK
  5
2328
330
2322
100
AcDbEntity
  8
0
100
AcDbBlockEnd
  0
BLOCK
  5
232F
330
232A
100
AcDbEntity
  8
0
100
AcDbBlockBegin
  2
*S10
 70
     1
 10
0.0
 20
0.0
 30
0.0
  3
*S10
  1

  0
LINE
  5
232B
330
232A
100
AcDbEntity
  8
AM_5
 62
     5
100
AcDbLine
 10
2399.861082353719
 20
1133.712719351029
 30
0.0
 11
2385.028421584518
 21
1133.712719351029
 31
0.0
  0
LINE
  5
232C
330
232A
100
AcDbEntity
  8
AM_5
 62
     5
100
AcDbLine
 10
2385.028421584518
 20
1133.712719351029
 30
0.0
 11
2378.631043620684
 21
1122.569597792822
 31
0.0
  0
TRACE
  5
232D
330
232A
100
AcDbEntity
  8
AM_5
 62
     5
370
    35
100
AcDbTrace
 10
2378.231433701431
 20
1122.79901785956
 30
0.0
 11
2379.030653539937
 21
1122.340177726083
 31
0.0
 12
2376.888425197439
 22
1119.534259091627
 32
0.0
 13
2376.888425197439
 23
1119.534259091627
 33
0.0
  0
MTEXT
  5
232E
330
232A
100
AcDbEntity
  8
AM_5
 62
     2
100
AcDbMText
 10
2399.861082353719
 20
1138.850592973483
 30
0.0
 40
3.5
 41
0.0
 71
     7
 72
     5
  1

  7
ACISOTS
 73
     1
 44
1.0
1001
ACAD
1000
MTEXTBEGIN
1070
    73
1070
     1
1070
    44
1040
1.0
1070
    74
1070
     0
1000
MTEXTEND
  0
ENDBLK
  5
2330
330
232A
100
AcDbEntity
  8
0
100
AcDbBlockEnd
  0
ENDSEC
  0
SECTION
  2
ENTITIES
  0
TEXT
  5
E1F
330
1F
100
AcDbEntity
  8
AM_5
100
AcDbText
 10
2673.874599262465
 20
1604.83630397753
 30
0.0
 40
6.0
  1

100
AcDbText
  0
TEXT
  5
196E
330
1F
100
AcDbEntity
  8
LOGO
 62
     7
100
AcDbText
 10
2368.695136441186
 20
839.4810112604433
 30
0.0
 40
4.607332778280542
  1
Order example:
 41
0.8
  7
CHINESET
100
AcDbText
  0
TEXT
  5
196F
330
1F
100
AcDbEntity
  8
LOGO
 62
     7
100
AcDbText
 10
2369.521730042702
 20
845.9671818518382
 30
0.0
 40
6.910999167420812
  1
訂購代號:
  7
CHINESET
100
AcDbText
  0
LINE
  5
1970
330
1F
100
AcDbEntity
  8
LOGO
 62
     1
100
AcDbLine
 10
2784.957996157781
 20
854.6189669331797
 30
0.0
 11
2290.67224388022
 21
854.6189669331797
 31
0.0
  0
LINE
  5
1971
330
1F
100
AcDbEntity
  8
LOGO
 62
     1
100
AcDbLine
 10
2366.69323472185
 20
820.0639710960754
 30
0.0
 11
2366.69323472185
 21
854.6189669331797
 31
0.0
  0
TEXT
  5
1972
330
1F
100
AcDbEntity
  8
LOGO
  6
Continuous
 62
     5
100
AcDbText
 10
2303.08455371262
 20
826.852247880239
 30
0.0
 40
5.183249375565611
  1
金器工業股份有限公司
  7
CHINESET
100
AcDbText
  0
TEXT
  5
1973
330
1F
100
AcDbEntity
  8
LOGO
  6
Continuous
 62
     5
100
AcDbText
 10
2293.563950065025
 20
821.6679829941783
 30
0.0
 40
3.455499583710406
  1
MINDMAN INDUSTRIAL CO., LTD.
 41
0.85
  7
CHINESET
100
AcDbText
  0
LINE
  5
1974
330
1F
100
AcDbEntity
  8
LOGO
 62
     1
100
AcDbLine
 10
2366.69323472185
 20
847.7079677657588
 30
0.0
 11
2316.012574160763
 21
847.7079677657588
 31
0.0
  0
LINE
  5
1975
330
1F
100
AcDbEntity
  8
LOGO
 62
     1
100
AcDbLine
 10
2366.69323472185
 20
840.7969685983379
 30
0.0
 11
2316.012574160763
 21
840.7969685983379
 31
0.0
  0
LINE
  5
1976
330
1F
100
AcDbEntity
  8
LOGO
 62
     1
100
AcDbLine
 10
2366.69323472185
 20
833.8859694309176
 30
0.0
 11
2290.67224388022
 21
833.8859694309176
 31
0.0
  0
LINE
  5
1977
330
1F
100
AcDbEntity
  8
LOGO
 62
     1
100
AcDbLine
 10
2316.012574160763
 20
833.8859694309176
 30
0.0
 11
2316.012574160763
 21
854.6189669331797
 31
0.0
  0
TEXT
  5
1978
330
1F
100
AcDbEntity
  8
LOGO
 62
     6
100
AcDbText
 10
2348.840389972056
 20
835.6137192227722
 30
0.0
 40
3.455499583710406
  1
m/m
  7
CHINESET
 72
     1
 11
2354.928651143355
 21
837.3414690146274
 31
0.0
100
AcDbText
 73
     2
  0
TEXT
  5
1979
330
1F
100
AcDbEntity
  8
LOGO
 62
     6
100
AcDbText
 10
2348.840389972056
 20
849.4357175576139
 30
0.0
 40
3.455499583710406
  1
1 : 1
  7
CHINESET
 72
     1
 11
2354.928651143355
 21
851.1634673494691
 31
0.0
100
AcDbText
 73
     2
  0
LINE
  5
197A
330
1F
100
AcDbEntity
  8
LOGO
 62
     1
100
AcDbLine
 10
2343.656570830447
 20
833.8859694309176
 30
0.0
 11
2343.656570830447
 21
854.6189669331797
 31
0.0
  0
CIRCLE
  5
197B
330
1F
100
AcDbEntity
  8
LOGO
  6
Continuous
 62
     6
100
AcDbCircle
 10
2350.054860516742
 20
844.2598595209449
 30
0.0
 40
2.006344391594051
  0
CIRCLE
  5
197C
330
1F
100
AcDbEntity
  8
LOGO
  6
Continuous
 62
     6
100
AcDbCircle
 10
2350.054860516742
 20
844.2598595209449
 30
0.0
 40
1.175540201854151
  0
LINE
  5
197D
330
1F
100
AcDbEntity
  8
LOGO
 62
     6
100
AcDbLine
 10
2362.662961479876
 20
842.2535151293503
 30
0.0
 11
2362.662961479876
 21
846.2662039125394
 31
0.0
  0
LINE
  5
197E
330
1F
100
AcDbEntity
  8
LOGO
 62
     6
100
AcDbLine
 10
2356.373186981893
 20
843.0843193190908
 30
0.0
 11
2356.373186981893
 21
845.4353997227991
 31
0.0
  0
LINE
  5
197F
330
1F
100
AcDbEntity
  8
LOGO
  6
Continuous
 62
     6
100
AcDbLine
 10
2356.373186981893
 20
845.4353997227991
 30
0.0
 11
2362.662961479876
 21
846.2662039125394
 31
0.0
  0
LINE
  5
1980
330
1F
100
AcDbEntity
  8
LOGO
  6
Continuous
 62
     6
100
AcDbLine
 10
2356.373186981893
 20
843.0843193190908
 30
0.0
 11
2362.662961479876
 21
842.2535151293503
 31
0.0
  0
TEXT
  5
1981
330
1F
100
AcDbEntity
  8
LOGO
 62
     6
100
AcDbText
 10
2318.861818683581
 20
849.4374180987476
 30
226.4677501133661
 40
3.455499583710406
  1
比例 Scale:
 41
0.9
  7
CHINESET
 72
     4
 11
2329.834572495604
 21
851.1634673494691
 31
226.4677501133661
100
AcDbText
  0
TEXT
  5
1982
330
1F
100
AcDbEntity
  8
LOGO
 62
     6
100
AcDbText
 10
2320.069700904137
 20
842.5733255242651
 30
226.4677501133661
 40
3.455499583710406
  1
投影 View:
 41
0.9
  7
CHINESET
 72
     4
 11
2329.834572495604
 21
844.2524681820483
 31
226.4677501133661
100
AcDbText
  0
TEXT
  5
1983
330
1F
100
AcDbEntity
  8
LOGO
 62
     6
100
AcDbText
 10
2320.407537693794
 20
835.6137192227722
 30
226.4677501133661
 40
3.455499583710406
  1
單位 Unit:
 41
0.9
  7
CHINESET
 72
     4
 11
2329.834572495604
 21
837.3414690146274
 31
226.4677501133661
100
AcDbText
  0
LWPOLYLINE
  5
1984
330
1F
100
AcDbEntity
  8
0
 62
     4
100
AcDbPolyline
 90
        4
 70
     1
 43
0.0
 10
2290.67224388022
 20
854.6189669331797
 10
2784.957996157779
 20
854.6189669331797
 10
2784.957996157779
 20
1212.179075450954
 10
2290.67224388022
 20
1212.179075450954
1001
GENIUS_GENREC_14
1002
{
1000
PYDIR
1011
2290.67224388022
1021
1212.179075450954
1031
0.0
1002
}
1002
{
1000
PXDIR
1011
2784.957996157779
1021
854.6189669331797
1031
0.0
1002
}
1002
{
1000
PORI
1011
2290.67224388022
1021
854.6189669331797
1031
0.0
1002
}
1002
{
1000
PINS
1011
2290.67224388022
1021
854.6189669331797
1031
0.0
1002
}
1002
{
1000
PINS2
1011
2784.957996157779
1021
1212.179075450954
1031
0.0
1002
}
1002
{
1000
C
1070
     1
1002
}
1001
GENIUS_GENODEF_13
1002
{
1000
HIER
1070
     0
1002
}
1002
{
1000
MANEDIT
1070
     0
1002
}
1002
{
1000
NOSEL
1070
     0
1002
}
1002
{
1000
BEHIND
1070
     0
1002
}
1002
{
1000
OTHER
1070
     0
1002
}
1002
{
1000
REACTOR
1002
}
1001
GENIUS_GENOBJ-N-REC_13
1002
{
1000
OWNER
1000
GEN
1002
}
  0
SOLID
  5
1985
330
1F
100
AcDbEntity
  8
LOGO
 62
     5
100
AcDbTrace
 10
2294.257380154869
 20
839.630245637201
 30
0.0
 11
2295.751447502557
 21
839.6302456372009
 31
0.0
 12
2301.985314711872
 22
853.7981256583744
 32
0.0
 13
2303.479382059561
 23
853.7981256583734
 33
0.0
  0
SOLID
  5
1986
330
1F
100
AcDbEntity
  8
LOGO
 62
     5
100
AcDbTrace
 10
2296.369682267119
 20
839.630245637201
 30
0.0
 11
2297.863749614805
 21
839.630245637201
 31
0.0
 12
2303.479382059561
 22
852.6646952566798
 32
0.0
 13
2301.985314711872
 23
847.1864483151597
 33
0.0
  0
SOLID
  5
1987
330
1F
100
AcDbEntity
  8
LOGO
 62
     2
100
AcDbTrace
 10
2295.751447502557
 20
839.6302456372009
 30
0.0
 11
2296.369682267119
 21
839.630245637201
 31
0.0
 12
2303.479382059561
 22
853.7981256583734
 32
0.0
 13
2304.097616824122
 23
853.7981256583734
 33
0.0
  0
SOLID
  5
1988
330
1F
100
AcDbEntity
  8
LOGO
 62
     5
100
AcDbTrace
 10
2291.862023806332
 20
834.478289265866
 30
0.0
 11
2292.377219443467
 21
834.478289265866
 31
0.0
 12
2293.828050457259
 22
837.0542674515334
 32
0.0
 13
2294.343246094391
 23
837.0542674515334
 33
0.0
  0
SOLID
  5
1989
330
1F
100
AcDbEntity
  8
LOGO
 62
     5
100
AcDbTrace
 10
2293.828050457259
 20
837.0542674515334
 30
0.0
 11
2294.343246094391
 21
837.0542674515334
 31
0.0
 12
2293.828050457259
 22
834.478289265866
 32
0.0
 13
2294.343246094391
 23
834.478289265866
 33
0.0
  0
SOLID
  5
198A
330
1F
100
AcDbEntity
  8
LOGO
 62
     5
100
AcDbTrace
 10
2293.828050457259
 20
834.478289265866
 30
0.0
 11
2294.343246094391
 21
834.478289265866
 31
0.0
 12
2295.794077108186
 22
837.0542674515334
 32
0.0
 13
2296.309272745319
 23
837.0542674515334
 33
0.0
  0
SOLID
  5
198B
330
1F
100
AcDbEntity
  8
LOGO
 62
     5
100
AcDbTrace
 10
2295.794077108186
 20
837.0542674515334
 30
0.0
 11
2296.309272745319
 21
837.0542674515334
 31
0.0
 12
2295.794077108186
 22
834.478289265866
 32
0.0
 13
2296.309272745319
 23
834.478289265866
 33
0.0
  0
POLYLINE
  5
198C
330
1F
100
AcDbEntity
  8
LOGO
 62
     5
100
AcDb2dPolyline
 66
     1
 10
0.0
 20
0.0
 30
0.0
 40
0.5160212711674206
 41
0.5160212711674206
  0
VERTEX
  5
198D
330
198C
100
AcDbEntity
  8
LOGO
 62
     5
100
AcDbVertex
100
AcDb2dVertex
 10
2313.063259361296
 20
836.0238761772663
 30
0.0
 42
1.0
  0
VERTEX
  5
198E
330
198C
100
AcDbEntity
  8
LOGO
 62
     5
100
AcDbVertex
100
AcDb2dVertex
 10
2311.515195547794
 20
836.0238761772663
 30
0.0
 42
1.0
  0
SEQEND
  5
198F
330
198C
100
AcDbEntity
  8
LOGO
 62
     5
  0
POLYLINE
  5
1990
330
1F
100
AcDbEntity
  8
LOGO
 62
     5
100
AcDb2dPolyline
 66
     1
 10
0.0
 20
0.0
 30
0.0
 70
     1
  0
VERTEX
  5
1991
330
1990
100
AcDbEntity
  8
LOGO
 62
     5
100
AcDbVertex
100
AcDb2dVertex
 10
2308.597026401463
 20
835.7662783586993
 30
0.0
 42
1.000000057330635
  0
VERTEX
  5
1992
330
1990
100
AcDbEntity
  8
LOGO
 62
     5
100
AcDbVertex
100
AcDb2dVertex
 10
2310.142613312863
 20
835.7662783586993
 30
0.0
 42
1.000000057330635
  0
SEQEND
  5
1993
330
1990
100
AcDbEntity
  8
LOGO
 62
     5
  0
CIRCLE
  5
1994
330
1F
100
AcDbEntity
  8
LOGO
 62
     5
100
AcDbCircle
 10
2309.369819857164
 20
835.7662783586993
 30
0.0
 40
0.7727934557003295
  0
POLYLINE
  5
1995
330
1F
100
AcDbEntity
  8
LOGO
 62
     5
100
AcDb2dPolyline
 66
     1
 10
0.0
 20
0.0
 30
0.0
 70
     1
 40
0.5160212711674206
 41
0.5160212711674206
  0
VERTEX
  5
1996
330
1995
100
AcDbEntity
  8
LOGO
 62
     5
100
AcDbVertex
100
AcDb2dVertex
 10
2308.337777314829
 20
835.7662783586993
 30
0.0
 42
1.0
  0
VERTEX
  5
1997
330
1995
100
AcDbEntity
  8
LOGO
 62
     5
100
AcDbVertex
100
AcDb2dVertex
 10
2310.401862399499
 20
835.7662783586993
 30
0.0
 42
1.0
  0
SEQEND
  5
1998
330
1995
100
AcDbEntity
  8
LOGO
 62
     5
  0
LINE
  5
1999
330
1F
100
AcDbEntity
  8
LOGO
 62
     5
100
AcDbLine
 10
2313.319618728812
 20
834.478289265866
 30
0.0
 11
2313.319618728812
 21
836.0238761772663
 31
0.0
  0
SOLID
  5
199A
330
1F
100
AcDbEntity
  8
LOGO
 62
     5
100
AcDbTrace
 10
2310.142561793302
 20
837.0542674515334
 30
0.0
 11
2310.657757430435
 21
837.0542674515334
 31
0.0
 12
2310.142561793302
 22
834.478289265866
 32
0.0
 13
2310.657757430435
 23
834.478289265866
 33
0.0
  0
SOLID
  5
199B
330
1F
100
AcDbEntity
  8
LOGO
 62
     5
100
AcDbTrace
 10
2311.258836180277
 20
834.478289265866
 30
0.0
 11
2311.774031817411
 21
834.478289265866
 31
0.0
 12
2311.258836180277
 22
837.0542674515334
 32
0.0
 13
2311.774031817411
 23
837.0542674515334
 33
0.0
  0
SOLID
  5
199C
330
1F
100
AcDbEntity
  8
LOGO
 62
     5
100
AcDbTrace
 10
2312.804423091678
 20
836.0238761772663
 30
0.0
 11
2313.319618728812
 21
836.0238761772663
 31
0.0
 12
2312.804423091678
 22
834.478289265866
 32
0.0
 13
2313.319618728812
 23
834.478289265866
 33
0.0
  0
SOLID
  5
199D
330
1F
100
AcDbEntity
  8
LOGO
 62
     5
100
AcDbTrace
 10
2311.207316616564
 20
852.6646952566798
 30
0.0
 11
2309.713249268877
 21
847.1864483151597
 31
0.0
 12
2311.207316616564
 22
839.6302456372009
 32
0.0
 13
2309.713249268877
 23
839.6302456372009
 33
0.0
  0
SOLID
  5
199E
330
1F
100
AcDbEntity
  8
LOGO
 62
     5
100
AcDbTrace
 10
2311.825551381124
 20
839.6302456372009
 30
0.0
 11
2313.319618728812
 21
839.6302456372009
 31
0.0
 12
2311.825551381124
 22
853.7981256583734
 32
0.0
 13
2313.319618728812
 23
853.7981256583744
 33
0.0
  0
SOLID
  5
199F
330
1F
100
AcDbEntity
  8
LOGO
 62
     2
100
AcDbTrace
 10
2311.207316616564
 20
853.7981256583744
 30
0.0
 11
2311.825551381124
 21
853.7981256583734
 31
0.0
 12
2311.207316616564
 22
839.6302456372009
 32
0.0
 13
2311.825551381124
 23
839.6302456372009
 33
0.0
  0
POLYLINE
  5
19A0
330
1F
100
AcDbEntity
  8
LOGO
 62
     5
100
AcDb2dPolyline
 66
     1
 10
0.0
 20
0.0
 30
0.0
 40
0.5160212711674206
 41
0.5160212711674206
  0
VERTEX
  5
19A1
330
19A0
100
AcDbEntity
  8
LOGO
 62
     5
100
AcDbVertex
100
AcDb2dVertex
 10
2305.678754216007
 20
836.0238761772663
 30
0.0
 42
1.0
  0
VERTEX
  5
19A2
330
19A0
100
AcDbEntity
  8
LOGO
 62
     5
100
AcDbVertex
100
AcDb2dVertex
 10
2304.130690402503
 20
836.0238761772663
 30
0.0
 42
1.0
  0
SEQEND
  5
19A3
330
19A0
100
AcDbEntity
  8
LOGO
 62
     5
  0
POLYLINE
  5
19A4
330
1F
100
AcDbEntity
  8
LOGO
 62
     5
100
AcDb2dPolyline
 66
     1
 10
0.0
 20
0.0
 30
0.0
 40
0.5160212711674206
 41
0.5160212711674206
  0
VERTEX
  5
19A5
330
19A4
100
AcDbEntity
  8
LOGO
 62
     5
100
AcDbVertex
100
AcDb2dVertex
 10
2307.224341127406
 20
836.0238761772663
 30
0.0
 42
1.0
  0
VERTEX
  5
19A6
330
19A4
100
AcDbEntity
  8
LOGO
 62
     5
100
AcDbVertex
100
AcDb2dVertex
 10
2305.676277313904
 20
836.0238761772663
 30
0.0
 42
1.0
  0
SEQEND
  5
19A7
330
19A4
100
AcDbEntity
  8
LOGO
 62
     5
  0
POLYLINE
  5
19A8
330
1F
100
AcDbEntity
  8
LOGO
 62
     5
100
AcDb2dPolyline
 66
     1
 10
0.0
 20
0.0
 30
0.0
 40
0.5160212711674206
 41
0.5160212711674206
  0
VERTEX
  5
19A9
330
19A8
100
AcDbEntity
  8
LOGO
 62
     5
100
AcDbVertex
100
AcDb2dVertex
 10
2299.839835982115
 20
836.0238761772663
 30
0.0
 42
1.0
  0
VERTEX
  5
19AA
330
19A8
100
AcDbEntity
  8
LOGO
 62
     5
100
AcDbVertex
100
AcDb2dVertex
 10
2298.291772168614
 20
836.0238761772663
 30
0.0
 42
1.0
  0
SEQEND
  5
19AB
330
19A8
100
AcDbEntity
  8
LOGO
 62
     5
  0
SOLID
  5
19AC
330
1F
100
AcDbEntity
  8
LOGO
 62
     5
100
AcDbTrace
 10
2298.035412801098
 20
837.0542674515334
 30
0.0
 11
2298.550608438231
 21
837.0542674515334
 31
0.0
 12
2298.035412801098
 22
834.478289265866
 32
0.0
 13
2298.550608438231
 23
834.478289265866
 33
0.0
  0
SOLID
  5
19AD
330
1F
100
AcDbEntity
  8
LOGO
 62
     5
100
AcDbTrace
 10
2299.580999712499
 20
836.0238761772663
 30
0.0
 11
2300.096195349633
 21
836.0238761772663
 31
0.0
 12
2299.580999712499
 22
834.478289265866
 32
0.0
 13
2300.096195349633
 23
834.478289265866
 33
0.0
  0
POLYLINE
  5
19AE
330
1F
100
AcDbEntity
  8
LOGO
 62
     5
100
AcDb2dPolyline
 66
     1
 10
0.0
 20
0.0
 30
0.0
 70
     1
 40
0.5160212711674206
 41
0.5160212711674206
  0
VERTEX
  5
19AF
330
19AE
100
AcDbEntity
  8
LOGO
 62
     5
100
AcDbVertex
100
AcDb2dVertex
 10
2300.953272169538
 20
835.7662783586993
 30
0.0
 42
1.0
  0
VERTEX
  5
19B0
330
19AE
100
AcDbEntity
  8
LOGO
 62
     5
100
AcDbVertex
100
AcDb2dVertex
 10
2303.017357254208
 20
835.7662783586993
 30
0.0
 42
1.0
  0
SEQEND
  5
19B1
330
19AE
100
AcDbEntity
  8
LOGO
 62
     5
  0
SOLID
  5
19B2
330
1F
100
AcDbEntity
  8
LOGO
 62
     5
100
AcDbTrace
 10
2302.758056648011
 20
837.8270609072341
 30
0.0
 11
2303.273252285143
 21
837.8270609072341
 31
0.0
 12
2302.758056648011
 22
834.478289265866
 32
0.0
 13
2303.273252285143
 23
834.478289265866
 33
0.0
  0
SOLID
  5
19B3
330
1F
100
AcDbEntity
  8
LOGO
 62
     5
100
AcDbTrace
 10
2303.874331034988
 20
837.0542674515334
 30
0.0
 11
2304.389526672121
 21
837.0542674515334
 31
0.0
 12
2303.874331034988
 22
834.478289265866
 32
0.0
 13
2304.389526672121
 23
834.478289265866
 33
0.0
  0
SOLID
  5
19B4
330
1F
100
AcDbEntity
  8
LOGO
 62
     5
100
AcDbTrace
 10
2305.419917946387
 20
836.0238761772663
 30
0.0
 11
2305.935113583522
 21
836.0238761772663
 31
0.0
 12
2305.419917946387
 22
834.478289265866
 32
0.0
 13
2305.935113583522
 23
834.478289265866
 33
0.0
  0
SOLID
  5
19B5
330
1F
100
AcDbEntity
  8
LOGO
 62
     5
100
AcDbTrace
 10
2306.965504857789
 20
836.0238761772663
 30
0.0
 11
2307.480700494922
 21
836.0238761772663
 31
0.0
 12
2306.965504857789
 22
834.4782892658653
 32
0.0
 13
2307.480700494922
 23
834.4782892658653
 33
0.0
  0
SOLID
  5
19B6
330
1F
100
AcDbEntity
  8
LOGO
 62
     5
100
AcDbTrace
 10
2296.91913841412
 20
837.4149043975272
 30
0.0
 11
2297.434334051255
 21
837.4149043975272
 31
0.0
 12
2296.91913841412
 22
837.8270609072341
 32
0.0
 13
2297.434334051255
 23
837.8270609072341
 33
0.0
  0
SOLID
  5
19B7
330
1F
100
AcDbEntity
  8
LOGO
 62
     5
100
AcDbTrace
 10
2296.91913841412
 20
837.0542674515334
 30
0.0
 11
2297.434334051255
 21
837.0542674515334
 31
0.0
 12
2296.91913841412
 22
834.4782892658653
 32
0.0
 13
2297.434334051255
 23
834.478289265866
 33
0.0
  0
SOLID
  5
19B8
330
1F
100
AcDbEntity
  8
LOGO
 62
     5
100
AcDbTrace
 10
2301.985314711872
 20
839.630245637201
 30
0.0
 11
2303.479382059561
 21
839.630245637201
 31
0.0
 12
2301.985314711872
 22
847.1864483151597
 32
0.0
 13
2303.479382059561
 23
852.6646952566798
 33
0.0
  0
SOLID
  5
19B9
330
1F
100
AcDbEntity
  8
LOGO
 62
     5
100
AcDbTrace
 10
2304.097616824122
 20
853.7981256583734
 30
0.0
 11
2305.591684171808
 21
853.7981256583744
 31
0.0
 12
2304.097616824122
 22
840.7636760388948
 32
0.0
 13
2305.591684171808
 23
846.2419229804151
 33
0.0
  0
SOLID
  5
19BA
330
1F
100
AcDbEntity
  8
LOGO
 62
     2
100
AcDbTrace
 10
2303.479382059561
 20
853.7981256583734
 30
0.0
 11
2304.097616824122
 21
853.7981256583734
 31
0.0
 12
2303.479382059561
 22
839.630245637201
 32
0.0
 13
2304.097616824122
 23
839.630245637201
 33
0.0
  0
SOLID
  5
19BB
330
1F
100
AcDbEntity
  8
LOGO
 62
     5
100
AcDbTrace
 10
2304.097616824122
 20
840.7636760388948
 30
0.0
 11
2305.591684171808
 21
846.2419229804151
 31
0.0
 12
2311.207316616564
 22
853.7981256583744
 32
0.0
 13
2309.713249268877
 23
853.7981256583744
 33
0.0
  0
SOLID
  5
19BC
330
1F
100
AcDbEntity
  8
LOGO
 62
     5
100
AcDbTrace
 10
2304.097616824122
 20
839.630245637201
 30
0.0
 11
2305.591684171808
 21
839.630245637201
 31
0.0
 12
2311.207316616564
 22
852.6646952566798
 32
0.0
 13
2309.713249268877
 23
847.1864483151597
 33
0.0
  0
SOLID
  5
19BD
330
1F
100
AcDbEntity
  8
LOGO
 62
     2
100
AcDbTrace
 10
2303.479382059561
 20
839.630245637201
 30
0.0
 11
2304.097616824122
 21
839.630245637201
 31
0.0
 12
2311.207316616564
 22
853.7981256583744
 32
0.0
 13
2311.825551381124
 23
853.7981256583734
 33
0.0
  0
LWPOLYLINE
  5
19BE
330
1F
100
AcDbEntity
  8
0
 62
     1
100
AcDbPolyline
 90
        4
 70
     1
 43
0.0
 10
2290.67224388022
 20
854.6189669331797
 10
2784.957996157779
 20
854.6189669331797
 10
2784.957996157779
 20
820.0639710960748
 10
2290.67224388022
 20
820.0639710960748
1001
GENIUS_GENREC_14
1002
{
1000
PYDIR
1011
2290.67224388022
1021
820.0639710960748
1031
0.0
1002
}
1002
{
1000
PXDIR
1011
2784.957996157779
1021
854.6189669331797
1031
0.0
1002
}
1002
{
1000
PORI
1011
2290.67224388022
1021
854.6189669331797
1031
0.0
1002
}
1002
{
1000
PINS
1011
2290.67224388022
1021
854.6189669331797
1031
0.0
1002
}
1002
{
1000
PINS2
1011
2784.957996157779
1021
820.0639710960748
1031
0.0
1002
}
1002
{
1000
C
1070
     1
1002
}
1001
GENIUS_GENOBJ-N-REC_13
1002
{
1000
OWNER
1000
GEN
1002
}
1001
GENIUS_GENODEF_13
1002
{
1000
HIER
1070
     0
1002
}
1002
{
1000
MANEDIT
1070
     0
1002
}
1002
{
1000
NOSEL
1070
     0
1002
}
1002
{
1000
BEHIND
1070
     0
1002
}
1002
{
1000
OTHER
1070
     0
1002
}
1002
{
1000
REACTOR
1002
}
  0
LINE
  5
19BF
330
1F
100
AcDbEntity
  8
LOGO
 62
     6
100
AcDbLine
 10
2437.258761758619
 20
835.6137192227729
 30
0.0
 11
2437.258761758619
 21
822.9435540825006
 31
0.0
  0
LINE
  5
19C0
330
1F
100
AcDbEntity
  8
LOGO
 62
     6
100
AcDbLine
 10
2414.222097867216
 20
835.6137192227729
 30
0.0
 11
2414.222097867216
 21
822.9435540825006
 31
0.0
  0
LINE
  5
19C1
330
1F
100
AcDbEntity
  8
LOGO
 62
     6
100
AcDbLine
 10
2437.258761758619
 20
822.9435540825006
 30
0.0
 11
2414.222097867216
 21
822.9435540825006
 31
0.0
  0
LINE
  5
19C2
330
1F
100
AcDbEntity
  8
LOGO
 62
     6
100
AcDbLine
 10
2442.944176658031
 20
851.1634673494691
 30
0.0
 11
2414.222097867216
 21
851.1634673494691
 31
0.0
  0
LINE
  5
19C3
330
1F
100
AcDbEntity
  8
LOGO
 62
     6
100
AcDbLine
 10
2442.944176658031
 20
840.7969685983379
 30
0.0
 11
2414.222097867216
 21
840.7969685983379
 31
0.0
  0
LINE
  5
19C4
330
1F
100
AcDbEntity
  8
LOGO
 62
     6
100
AcDbLine
 10
2414.222097867216
 20
851.1634673494691
 30
0.0
 11
2414.222097867216
 21
840.7969685983379
 31
0.0
  0
LINE
  5
19C5
330
1F
100
AcDbEntity
  8
LOGO
 62
     6
100
AcDbLine
 10
2442.944176658031
 20
851.1634673494691
 30
0.0
 11
2442.944176658031
 21
840.7969685983379
 31
0.0
  0
LINE
  5
19C6
330
1F
100
AcDbEntity
  8
LOGO
 62
     6
100
AcDbLine
 10
2426.942365058509
 20
840.7969685983379
 30
0.0
 11
2426.942365058509
 21
835.6137192227729
 31
0.0
  0
TEXT
  5
19C7
330
1F
100
AcDbEntity
  8
LOGO
  6
Continuous
 62
     7
100
AcDbText
 10
2416.064062341364
 20
842.960960056817
 30
0.0
 40
6.048
  1
MCMA
  7
CHINESET
100
AcDbText
  0
LINE
  5
19C8
330
1F
100
AcDbEntity
  8
LOGO
 62
     6
100
AcDbLine
 10
2437.258761758619
 20
835.6137192227729
 30
0.0
 11
2414.222097867216
 21
835.6137192227729
 31
0.0
  0
TEXT
  5
19C9
330
1F
100
AcDbEntity
  8
LOGO
  6
Continuous
 62
     6
100
AcDbText
 10
2420.482153549729
 20
824.7319210243407
 30
226.4677501133661
 40
2.591999999999999
  1
Model
  7
CHINESET
100
AcDbText
  0
TEXT
  5
19CA
330
1F
100
AcDbEntity
  8
LOGO
 62
     6
100
AcDbText
 10
2420.924584237736
 20
829.5369304084713
 30
226.4677501133661
 40
4.32
  1
型號
  7
CHINESET
100
AcDbText
  0
LINE
  5
19CB
330
1F
100
AcDbEntity
  8
LOGO
  6
Continuous
 62
     7
100
AcDbLine
 10
2444.901066659316
 20
845.9434981970332
 30
0.0
 11
2449.478534251084
 21
845.9434981970332
 31
0.0
  0
LINE
  5
19CC
330
1F
100
AcDbEntity
  8
LOGO
 62
     6
100
AcDbLine
 10
2466.050461929051
 20
835.6137192227729
 30
0.0
 11
2466.050461929051
 21
822.9435540825006
 31
0.0
  0
LINE
  5
19CD
330
1F
100
AcDbEntity
  8
LOGO
 62
     6
100
AcDbLine
 10
2439.452612862772
 20
835.6137192227729
 30
0.0
 11
2439.452612862772
 21
822.9435540825006
 31
0.0
  0
LINE
  5
19CE
330
1F
100
AcDbEntity
  8
LOGO
 62
     6
100
AcDbLine
 10
2466.050461929051
 20
822.9435540825006
 30
0.0
 11
2439.452612862772
 21
822.9435540825006
 31
0.0
  0
LINE
  5
19CF
330
1F
100
AcDbEntity
  8
LOGO
 62
     6
100
AcDbLine
 10
2462.995020764114
 20
851.1634673494691
 30
0.0
 11
2450.92248398357
 21
851.1634673494691
 31
0.0
  0
LINE
  5
19D0
330
1F
100
AcDbEntity
  8
LOGO
 62
     6
100
AcDbLine
 10
2462.995020764114
 20
840.7969685983379
 30
0.0
 11
2450.92248398357
 21
840.7969685983379
 31
0.0
  0
LINE
  5
19D1
330
1F
100
AcDbEntity
  8
LOGO
 62
     6
100
AcDbLine
 10
2450.92248398357
 20
851.1634673494691
 30
0.0
 11
2450.92248398357
 21
840.7969685983379
 31
0.0
  0
LINE
  5
19D2
330
1F
100
AcDbEntity
  8
LOGO
 62
     6
100
AcDbLine
 10
2462.995020764114
 20
851.1634673494691
 30
0.0
 11
2462.995020764114
 21
840.7969685983379
 31
0.0
  0
LINE
  5
19D3
330
1F
100
AcDbEntity
  8
LOGO
 62
     6
100
AcDbLine
 10
2456.958752373842
 20
840.7969685983379
 30
0.0
 11
2456.958752373842
 21
835.6137192227729
 31
0.0
  0
TEXT
  5
19D4
330
1F
100
AcDbEntity
  8
LOGO
  6
Continuous
 62
     7
100
AcDbText
 10
2453.502718685782
 20
842.960960056817
 30
0.0
 40
6.048
  1
11
  7
CHINESET
100
AcDbText
  0
LINE
  5
19D5
330
1F
100
AcDbEntity
  8
LOGO
 62
     6
100
AcDbLine
 10
2466.050461929051
 20
835.6137192227729
 30
0.0
 11
2439.452612862772
 21
835.6137192227729
 31
0.0
  0
LINE
  5
19D6
330
1F
100
AcDbEntity
  8
LOGO
  6
Continuous
 62
     7
100
AcDbLine
 10
2465.137172470128
 20
845.9434981970332
 30
0.0
 11
2469.714640061895
 21
845.9434981970332
 31
0.0
  0
LINE
  5
19D7
330
1F
100
AcDbEntity
  8
LOGO
 62
     6
100
AcDbLine
 10
2489.485369806596
 20
835.6137192227729
 30
0.0
 11
2489.485369806596
 21
822.9435540825006
 31
0.0
  0
LINE
  5
19D8
330
1F
100
AcDbEntity
  8
LOGO
 62
     6
100
AcDbLine
 10
2468.405834407921
 20
835.6137192227729
 30
0.0
 11
2468.405834407921
 21
822.9435540825006
 31
0.0
  0
LINE
  5
19D9
330
1F
100
AcDbEntity
  8
LOGO
 62
     6
100
AcDbLine
 10
2489.485369806596
 20
822.9435540825006
 30
0.0
 11
2468.405834407921
 21
822.9435540825006
 31
0.0
  0
LINE
  5
19DA
330
1F
100
AcDbEntity
  8
LOGO
 62
     6
100
AcDbLine
 10
2484.560131675269
 20
851.1634673494691
 30
0.0
 11
2471.158589794381
 21
851.1634673494691
 31
0.0
  0
LINE
  5
19DB
330
1F
100
AcDbEntity
  8
LOGO
 62
     6
100
AcDbLine
 10
2484.560131675269
 20
840.7969685983379
 30
0.0
 11
2471.158589794381
 21
840.7969685983379
 31
0.0
  0
LINE
  5
19DC
330
1F
100
AcDbEntity
  8
LOGO
 62
     6
100
AcDbLine
 10
2471.158589794381
 20
851.1634673494691
 30
0.0
 11
2471.158589794381
 21
840.7969685983379
 31
0.0
  0
LINE
  5
19DD
330
1F
100
AcDbEntity
  8
LOGO
 62
     6
100
AcDbLine
 10
2484.560131675269
 20
851.1634673494691
 30
0.0
 11
2484.560131675269
 21
840.7969685983379
 31
0.0
  0
LINE
  5
19DE
330
1F
100
AcDbEntity
  8
LOGO
 62
     6
100
AcDbLine
 10
2477.859360734825
 20
840.7969685983379
 30
0.0
 11
2477.859360734825
 21
835.6137192227729
 31
0.0
  0
TEXT
  5
19DF
330
1F
100
AcDbEntity
  8
LOGO
  6
Continuous
 62
     7
100
AcDbText
 10
2473.146472985379
 20
842.960960056817
 30
0.0
 40
6.048
  1
20
  7
CHINESET
100
AcDbText
  0
LINE
  5
19E0
330
1F
100
AcDbEntity
  8
LOGO
 62
     6
100
AcDbLine
 10
2489.485369806596
 20
835.6137192227729
 30
0.0
 11
2468.405834407921
 21
835.6137192227729
 31
0.0
  0
LINE
  5
19E1
330
1F
100
AcDbEntity
  8
LOGO
  6
Continuous
 62
     7
100
AcDbLine
 10
2486.620812423674
 20
845.9434981970332
 30
0.0
 11
2491.198280015443
 21
845.9434981970332
 31
0.0
  0
LINE
  5
19E2
330
1F
100
AcDbEntity
  8
LOGO
 62
     6
100
AcDbLine
 10
2510.603022371084
 20
835.6137192227729
 30
0.0
 11
2510.603022371084
 21
822.9435540825006
 31
0.0
  0
LINE
  5
19E3
330
1F
100
AcDbEntity
  8
LOGO
 62
     6
100
AcDbLine
 10
2491.835987100852
 20
835.6137192227729
 30
0.0
 11
2491.835987100852
 21
822.9435540825006
 31
0.0
  0
LINE
  5
19E4
330
1F
100
AcDbEntity
  8
LOGO
 62
     6
100
AcDbLine
 10
2510.603022371084
 20
822.9435540825006
 30
0.0
 11
2491.835987100852
 21
822.9435540825006
 31
0.0
  0
LINE
  5
19E5
330
1F
100
AcDbEntity
  8
LOGO
 62
     6
100
AcDbLine
 10
2503.671896543514
 20
851.1634673494691
 30
0.0
 11
2492.642229747927
 21
851.1634673494691
 31
0.0
  0
LINE
  5
19E6
330
1F
100
AcDbEntity
  8
LOGO
 62
     6
100
AcDbLine
 10
2503.671896543514
 20
840.7969685983379
 30
0.0
 11
2492.642229747927
 21
840.7969685983379
 31
0.0
  0
LINE
  5
19E7
330
1F
100
AcDbEntity
  8
LOGO
 62
     6
100
AcDbLine
 10
2492.642229747927
 20
851.1634673494691
 30
0.0
 11
2492.642229747927
 21
840.7969685983379
 31
0.0
  0
LINE
  5
19E8
330
1F
100
AcDbEntity
  8
LOGO
 62
     6
100
AcDbLine
 10
2503.671896543514
 20
851.1634673494691
 30
0.0
 11
2503.671896543514
 21
840.7969685983379
 31
0.0
  0
LINE
  5
19E9
330
1F
100
AcDbEntity
  8
LOGO
 62
     6
100
AcDbLine
 10
2498.157063145721
 20
840.7969685983379
 30
0.0
 11
2498.157063145721
 21
835.6137192227729
 31
0.0
  0
TEXT
  5
19EA
330
1F
100
AcDbEntity
  8
LOGO
  6
Continuous
 62
     7
100
AcDbText
 10
2496.359753884568
 20
842.960960056817
 30
0.0
 40
6.048
  1
0
  7
CHINESET
100
AcDbText
  0
LINE
  5
19EB
330
1F
100
AcDbEntity
  8
LOGO
 62
     6
100
AcDbLine
 10
2510.603022371084
 20
835.6137192227729
 30
0.0
 11
2491.835987100852
 21
835.6137192227729
 31
0.0
  0
TEXT
  5
19EC
330
1F
100
AcDbEntity
  8
LOGO
  6
Continuous
 62
     6
100
AcDbText
 10
2441.944411023186
 20
824.7319210243407
 30
226.4677501133661
 40
2.591999999999999
  1
Acting type
  7
CHINESET
100
AcDbText
  0
TEXT
  5
19ED
330
1F
100
AcDbEntity
  8
LOGO
 62
     6
100
AcDbText
 10
2443.710426701328
 20
829.5369304084713
 30
226.4677501133661
 40
4.32
  1
作動型式
  7
CHINESET
100
AcDbText
  0
TEXT
  5
19EE
330
1F
100
AcDbEntity
  8
LOGO
  6
Continuous
 62
     6
100
AcDbText
 10
2470.666237722717
 20
824.7319210243407
 30
226.4677501133661
 40
2.591999999999999
  1
Tube I.D.
  7
CHINESET
100
AcDbText
  0
TEXT
  5
19EF
330
1F
100
AcDbEntity
  8
LOGO
 62
     6
100
AcDbText
 10
2474.276196285843
 20
829.5369304084713
 30
226.4677501133661
 40
4.32
  1
內徑
  7
CHINESET
100
AcDbText
  0
TEXT
  5
19F0
330
1F
100
AcDbEntity
  8
LOGO
  6
Continuous
 62
     6
100
AcDbText
 10
2494.836317507723
 20
824.7319210243407
 30
226.4677501133661
 40
2.591999999999999
  1
Stroke
  7
CHINESET
100
AcDbText
  0
TEXT
  5
19F1
330
1F
100
AcDbEntity
  8
LOGO
 62
     6
100
AcDbText
 10
2496.602333185864
 20
829.5369304084713
 30
226.4677501133661
 40
4.32
  1
行程
  7
CHINESET
100
AcDbText
  0
TEXT
  5
19F2
330
1F
100
AcDbEntity
  8
0
100
AcDbText
 10
2368.146173937794
 20
821.9022832359717
 30
0.0
 40
3.455999999999999
  1
1050807
 41
0.8
  7
CHINESET
 72
     1
 11
2376.703888223508
 21
821.9022832359717
 31
0.0
100
AcDbText
  0
LINE
  5
19F3
330
1F
100
AcDbEntity
  8
LOGO
 62
     1
100
AcDbLine
 10
2387.429234721848
 20
826.9749702634971
 30
0.0
 11
2387.429234721849
 21
820.0639710960759
 31
0.0
  0
LINE
  5
19F4
330
1F
100
AcDbEntity
  8
LOGO
 62
     1
100
AcDbLine
 10
2387.429234721848
 20
826.9749702634971
 30
0.0
 11
2366.69323472185
 21
826.9749702634971
 31
0.0
  0
LINE
  5
19F5
330
1F
100
AcDbEntity
  8
LOGO
  6
Continuous
 62
     7
100
AcDbLine
 10
2506.892326727333
 20
845.9434981970332
 30
0.0
 11
2511.469794319101
 21
845.9434981970332
 31
0.0
  0
LINE
  5
19F6
330
1F
100
AcDbEntity
  8
LOGO
 62
     6
100
AcDbLine
 10
2535.987758271545
 20
835.6137192227729
 30
0.0
 11
2535.987758271545
 21
822.9435540825006
 31
0.0
  0
LINE
  5
19F7
330
1F
100
AcDbEntity
  8
LOGO
 62
     6
100
AcDbLine
 10
2512.723952197808
 20
835.6137192227729
 30
0.0
 11
2512.723952197808
 21
822.9435540825006
 31
0.0
  0
LINE
  5
19F8
330
1F
100
AcDbEntity
  8
LOGO
 62
     6
100
AcDbLine
 10
2535.987758271545
 20
822.9435540825006
 30
0.0
 11
2512.723952197808
 21
822.9435540825006
 31
0.0
  0
LINE
  5
19F9
330
1F
100
AcDbEntity
  8
LOGO
 62
     6
100
AcDbLine
 10
2523.943410847173
 20
851.1634673494691
 30
0.0
 11
2512.913744051587
 21
851.1634673494691
 31
0.0
  0
LINE
  5
19FA
330
1F
100
AcDbEntity
  8
LOGO
 62
     6
100
AcDbLine
 10
2523.943410847173
 20
840.7969685983379
 30
0.0
 11
2512.913744051587
 21
840.7969685983379
 31
0.0
  0
LINE
  5
19FB
330
1F
100
AcDbEntity
  8
LOGO
 62
     6
100
AcDbLine
 10
2512.913744051587
 20
851.1634673494691
 30
0.0
 11
2512.913744051587
 21
840.7969685983379
 31
0.0
  0
LINE
  5
19FC
330
1F
100
AcDbEntity
  8
LOGO
 62
     6
100
AcDbLine
 10
2523.943410847173
 20
851.1634673494691
 30
0.0
 11
2523.943410847173
 21
840.7969685983379
 31
0.0
  0
LINE
  5
19FD
330
1F
100
AcDbEntity
  8
LOGO
 62
     6
100
AcDbLine
 10
2518.54478081379
 20
840.7969685983379
 30
0.0
 11
2518.54478081379
 21
835.6137192227729
 31
0.0
  0
TEXT
  5
19FE
330
1F
100
AcDbEntity
  8
LOGO
  6
Continuous
 62
     7
100
AcDbText
 10
2516.631268188227
 20
842.960960056817
 30
0.0
 40
6.048
  1
?
  7
CHINESET
100
AcDbText
  0
LINE
  5
19FF
330
1F
100
AcDbEntity
  8
LOGO
 62
     6
100
AcDbLine
 10
2535.987758271545
 20
835.6137192227729
 30
0.0
 11
2512.723952197808
 21
835.6137192227729
 31
0.0
  0
TEXT
  5
1A00
330
1F
100
AcDbEntity
  8
LOGO
  6
Continuous
 62
     6
100
AcDbText
 10
2514.623800572637
 20
824.7319210243407
 30
226.4677501133661
 40
2.591999999999999
  1
Accessory
  7
CHINESET
100
AcDbText
  0
TEXT
  5
1A01
330
1F
100
AcDbEntity
  8
LOGO
 62
     6
100
AcDbText
 10
2520.398703140561
 20
829.5369304084713
 30
226.4677501133661
 40
4.32
  1
配件
  7
CHINESET
100
AcDbText
  0
LINE
  5
1A0E
330
1F
100
AcDbEntity
  8
0
 62
     4
100
AcDbLine
 10
2290.672243880219
 20
1074.580456560543
 30
0.0
 11
2784.957996157779
 21
1074.580456560543
 31
0.0
  0
LINE
  5
1A0F
330
1F
100
AcDbEntity
  8
0
 62
     4
100
AcDbLine
 10
2583.363306984357
 20
1212.179075450954
 30
0.0
 11
2583.363306984357
 21
854.6189669331797
 31
0.0
  0
LINE
  5
1A10
330
1F
100
AcDbEntity
  8
0
 62
     4
100
AcDbLine
 10
2290.672243880219
 20
932.6104936200524
 30
0.0
 11
2784.957996157779
 21
932.6104936200524
 31
0.0
  0
TEXT
  5
1A18
330
1F
100
AcDbEntity
  8
0
100
AcDbText
 10
2300.011781901997
 20
1058.647845996519
 30
0.0
 40
7.199999999999999
  1
FA/FB
  7
CHINESET
100
AcDbText
  0
TEXT
  5
1A19
330
1F
100
AcDbEntity
  8
0
100
AcDbText
 10
2300.011781901997
 20
914.8348988275181
 30
0.0
 40
7.199999999999999
  1
Y
  7
CHINESET
100
AcDbText
  0
TEXT
  5
1A1A
330
1F
100
AcDbEntity
  8
0
100
AcDbText
 10
2592.702845006135
 20
1058.647845996519
 30
0.0
 40
7.199999999999999
  1
SDB
  7
CHINESET
100
AcDbText
  0
TEXT
  5
1A1B
330
1F
100
AcDbEntity
  8
0
100
AcDbText
 10
2592.702845006135
 20
914.8348988275181
 30
0.0
 40
7.199999999999999
  1
I
  7
CHINESET
100
AcDbText
  0
TEXT
  5
1A1D
330
1F
100
AcDbEntity
  8
0
100
AcDbText
 10
2592.702845006135
 20
1196.902226790534
 30
0.0
 40
7.199999999999999
  1
LB
  7
CHINESET
100
AcDbText
  0
LINE
  5
1B66
330
1F
100
AcDbEntity
  8
AM_VIS
100
AcDbLine
 10
2456.888425197439
 20
1126.134259091628
 30
0.0
 11
2456.788425197439
 21
1126.234259091628
 31
0.0
  0
LINE
  5
1B67
330
1F
100
AcDbEntity
  8
AM_VIS
100
AcDbLine
 10
2456.888425197439
 20
1105.134259091628
 30
0.0
 11
2456.788425197439
 21
1105.034259091628
 31
0.0
  0
LINE
  5
1B68
330
1F
100
AcDbEntity
  8
AM_VIS
100
AcDbLine
 10
2456.788425197439
 20
1126.234259091628
 30
0.0
 11
2421.98842519744
 21
1126.234259091628
 31
0.0
  0
LINE
  5
1B69
330
1F
100
AcDbEntity
  8
AM_VIS
100
AcDbLine
 10
2456.788425197439
 20
1105.034259091628
 30
0.0
 11
2421.98842519744
 21
1105.034259091628
 31
0.0
  0
LINE
  5
1B6A
330
1F
100
AcDbEntity
  8
AM_VIS
100
AcDbLine
 10
2421.888425197439
 20
1105.134259091628
 30
0.0
 11
2421.988425197439
 21
1105.034259091628
 31
0.0
  0
LINE
  5
1B6B
330
1F
100
AcDbEntity
  8
AM_VIS
100
AcDbLine
 10
2421.888425197439
 20
1126.134259091628
 30
0.0
 11
2421.98842519744
 21
1126.234259091628
 31
0.0
  0
LINE
  5
1B6E
330
1F
100
AcDbEntity
  8
AM_VIS
100
AcDbLine
 10
2389.888425197439
 20
1112.634259091628
 30
0.0
 11
2387.388425197439
 21
1112.634259091628
 31
0.0
  0
SPLINE
  5
1B6F
330
1F
100
AcDbEntity
  8
AM_VIS
100
AcDbSpline
210
0.000000000000003
220
-0.0000000000000012
230
1.0
 70
     8
 71
     3
 72
    24
 73
    20
 74
     0
 42
0.0000000001
 43
0.0000000001
 40
0.0
 40
0.0
 40
0.0
 40
0.0
 40
0.5320686409407636
 40
0.5320686409407636
 40
1.064137281881527
 40
1.064137281881527
 40
2.128274563763054
 40
2.128274563763054
 40
2.386797383819144
 40
2.386797383819144
 40
2.645320203875233
 40
2.645320203875233
 40
2.815589443559965
 40
2.815589443559965
 40
2.985858683244698
 40
2.985858683244698
 40
3.121271001346319
 40
3.121271001346319
 40
3.256683319447941
 40
3.256683319447941
 40
3.256683319447941
 40
3.256683319447941
 10
2386.388425197439
 20
1115.634259091628
 30
0.0
 10
2386.388425197439
 20
1115.811615305275
 30
0.0000000000000036
 10
2386.388159281854
 20
1115.997673341924
 30
0.0000000000000036
 10
2386.39014182269
 20
1116.377371633874
 30
0.0000000000000036
 10
2386.392443898177
 20
1116.571011607318
 30
0.0000000000000036
 10
2386.417281180521
 20
1117.148522672679
 30
0.0000000000000036
 10
2386.457412717319
 20
1117.528880082451
 30
0.0000000000000036
 10
2386.601666176022
 20
1117.945499840094
 30
0.0000000000000036
 10
2386.637771876452
 20
1118.033048123487
 30
0.0000000000000036
 10
2386.725559654877
 20
1118.199388989822
 30
0.0000000000000036
 10
2386.777451660171
 20
1118.278070697172
 30
0.0000000000000036
 10
2386.8693448901
 20
1118.387545879107
 30
0.0000000000000036
 10
2386.912898047232
 20
1118.432119643042
 30
0.0000000000000036
 10
2387.008569489927
 20
1118.510366615967
 30
0.0000000000000036
 10
2387.060776177249
 20
1118.543931675062
 30
0.0000000000000036
 10
2387.152397794714
 20
1118.588516834138
 30
0.0000000000000036
 10
2387.198740563854
 20
1118.605900163273
 30
0.0000000000000036
 10
2387.294179675461
 20
1118.628795774933
 30
0.0000000000000036
 10
2387.343287758072
 20
1118.634259091628
 30
0.0000000000000036
 10
2387.388425197439
 20
1118.634259091628
 30
0.0000000000000036
  0
LINE
  5
1B70
330
1F
100
AcDbEntity
  8
AM_VIS
100
AcDbLine
 10
2387.388425197439
 20
1118.634259091628
 30
0.0
 11
2389.888425197439
 21
1118.634259091628
 31
0.0
  0
LINE
  5
1B71
330
1F
100
AcDbEntity
  8
AM_VIS
100
AcDbLine
 10
2389.888425197439
 20
1118.634259091628
 30
0.0
 11
2389.888425197439
 21
1112.634259091628
 31
0.0
  0
ARC
  5
1B72
330
1F
100
AcDbEntity
  8
AM_VIS
100
AcDbCircle
 10
2385.888425197439
 20
1115.634259091628
 30
0.0
 40
5.0
100
AcDbArc
 50
323.1301023541664
 51
36.86989764583361
  0
SPLINE
  5
1B73
330
1F
100
AcDbEntity
  8
AM_VIS
100
AcDbSpline
210
0.0
220
0.0
230
1.0
 70
     8
 71
     3
 72
    24
 73
    20
 74
     0
 42
0.0000000001
 43
0.0000000001
 40
-3.25668331944794
 40
-3.25668331944794
 40
-3.25668331944794
 40
-3.25668331944794
 40
-3.121271001346318
 40
-3.121271001346318
 40
-2.985858683244696
 40
-2.985858683244696
 40
-2.815589443559964
 40
-2.815589443559964
 40
-2.645320203875233
 40
-2.645320203875233
 40
-2.386797383819143
 40
-2.386797383819143
 40
-2.128274563763053
 40
-2.128274563763053
 40
-1.064137281881526
 40
-1.064137281881526
 40
-0.5320686409407643
 40
-0.5320686409407643
 40
0.0
 40
0.0
 40
0.0
 40
0.0
 10
2387.388425197439
 20
1112.634259091628
 30
0.0
 10
2387.343287758072
 20
1112.634259091628
 30
0.0
 10
2387.294179675461
 20
1112.639722408323
 30
0.0
 10
2387.198740563854
 20
1112.662618019982
 30
0.0
 10
2387.152397794714
 20
1112.680001349117
 30
0.0
 10
2387.060776177249
 20
1112.724586508193
 30
0.0
 10
2387.008569489927
 20
1112.758151567288
 30
0.0
 10
2386.912898047232
 20
1112.836398540213
 30
0.0
 10
2386.8693448901
 20
1112.880972304149
 30
0.0
 10
2386.777451660171
 20
1112.990447486083
 30
0.0
 10
2386.725559654877
 20
1113.069129193434
 30
0.0
 10
2386.637771876452
 20
1113.235470059768
 30
0.0
 10
2386.601666176022
 20
1113.323018343161
 30
0.0
 10
2386.457412717319
 20
1113.739638100804
 30
0.0
 10
2386.417281180521
 20
1114.119995510576
 30
0.0
 10
2386.392443898177
 20
1114.697506575938
 30
0.0
 10
2386.39014182269
 20
1114.891146549381
 30
0.0
 10
2386.388159281854
 20
1115.270844841331
 30
0.0
 10
2386.388425197439
 20
1115.456902877981
 30
0.0
 10
2386.388425197439
 20
1115.634259091628
 30
0.0
  0
LINE
  5
1B74
330
1F
100
AcDbEntity
  8
AM_VIS
100
AcDbLine
 10
2386.388425197439
 20
1119.534259091627
 30
0.0
 11
2367.388425197439
 21
1119.534259091627
 31
0.0
  0
LINE
  5
1B75
330
1F
100
AcDbEntity
  8
AM_VIS
100
AcDbLine
 10
2386.388425197439
 20
1111.734259091628
 30
0.0
 11
2367.388425197439
 21
1111.734259091628
 31
0.0
  0
LINE
  5
1B76
330
1F
100
AcDbEntity
  8
AM_VIS
100
AcDbLine
 10
2366.388425197439
 20
1112.734259091628
 30
0.0
 11
2367.388425197439
 21
1111.734259091628
 31
0.0
  0
LINE
  5
1B77
330
1F
100
AcDbEntity
  8
AM_VIS
100
AcDbLine
 10
2366.388425197439
 20
1118.534259091628
 30
0.0
 11
2367.388425197439
 21
1119.534259091627
 31
0.0
  0
LINE
  5
1B78
330
1F
100
AcDbEntity
  8
AM_VIS
100
AcDbLine
 10
2392.388425197439
 20
1120.634259091628
 30
0.0
 11
2387.388425197439
 21
1120.634259091628
 31
0.0
  0
LINE
  5
1B79
330
1F
100
AcDbEntity
  8
AM_VIS
100
AcDbLine
 10
2392.388425197439
 20
1110.634259091628
 30
0.0
 11
2387.388425197439
 21
1110.634259091628
 31
0.0
  0
LINE
  5
1B7B
102
{ACAD_REACTORS
330
2053
102
}
330
1F
100
AcDbEntity
  8
AM_VIS
100
AcDbLine
 10
2366.388425197439
 20
1112.734259091628
 30
0.0
 11
2366.388425197439
 21
1118.534259091628
 31
0.0
  0
LINE
  5
1B7C
330
1F
100
AcDbEntity
  8
AM_VIS
100
AcDbLine
 10
2386.388425197439
 20
1115.634259091628
 30
0.0
 11
2386.388425197439
 21
1119.634259091628
 31
0.0
  0
LINE
  5
1B7D
330
1F
100
AcDbEntity
  8
AM_VIS
100
AcDbLine
 10
2386.388425197439
 20
1111.634259091628
 30
0.0
 11
2386.388425197439
 21
1115.634259091628
 31
0.0
  0
ARC
  5
1B7E
330
1F
100
AcDbEntity
  8
AM_VIS
100
AcDbCircle
 10
2387.388425197439
 20
1119.634259091628
 30
0.0
 40
1.0
100
AcDbArc
 50
90.0
 51
180.0
  0
ARC
  5
1B7F
330
1F
100
AcDbEntity
  8
AM_VIS
100
AcDbCircle
 10
2387.388425197439
 20
1111.634259091628
 30
0.0
 40
1.0
100
AcDbArc
 50
180.0
 51
270.0
  0
LINE
  5
1B80
330
1F
100
AcDbEntity
  8
AM_VIS
100
AcDbLine
 10
2493.88842519744
 20
1108.084424656357
 30
0.0
 11
2474.688425197439
 21
1108.084424656357
 31
0.0
  0
LINE
  5
1B81
330
1F
100
AcDbEntity
  8
AM_VIS
100
AcDbLine
 10
2474.688425197439
 20
1123.184093526898
 30
0.0
 11
2493.88842519744
 21
1123.184093526898
 31
0.0
  0
SPLINE
  5
1B82
330
1F
100
AcDbEntity
  8
AM_VIS
100
AcDbSpline
210
0.0
220
0.0
230
1.0
 70
     8
 71
     3
 72
    22
 73
    18
 74
     0
 42
0.0000000001
 43
0.0000000001
 40
8.066762558302754
 40
8.066762558302754
 40
8.066762558302754
 40
8.066762558302754
 40
8.30613182224372
 40
8.30613182224372
 40
8.545501086184685
 40
8.545501086184685
 40
8.837421469676367
 40
8.837421469676367
 40
9.12934185316805
 40
9.12934185316805
 40
9.517030422727192
 40
9.517030422727192
 40
9.904718992286332
 40
9.904718992286332
 40
10.47022979271537
 40
10.47022979271537
 40
11.03574059314442
 40
11.03574059314442
 40
11.03574059314442
 40
11.03574059314442
 10
2493.88842519744
 20
1123.184093526898
 30
0.0
 10
2493.968214952086
 20
1123.184093526898
 30
0.0
 10
2494.054965584979
 20
1123.174149647218
 30
0.0
 10
2494.223248508212
 20
1123.132499362851
 30
0.0
 10
2494.304801076469
 20
1123.100874931426
 30
0.0
 10
2494.462878693096
 20
1123.021033495817
 30
0.0
 10
2494.551462071966
 20
1122.962088019951
 30
0.0
 10
2494.71286068106
 20
1122.824957766473
 30
0.0
 10
2494.785816154572
 20
1122.746938137005
 30
0.0
 10
2494.926872392841
 20
1122.569676068656
 30
0.0
 10
2495.002700173526
 20
1122.450241776581
 30
0.0
 10
2495.130032322664
 20
1122.198479720996
 30
0.0
 10
2495.181786000691
 20
1122.066278126786
 30
0.0
 10
2495.27857761764
 20
1121.763646799014
 30
0.0
 10
2495.322841710704
 20
1121.561862420475
 30
0.0
 10
2495.377575910969
 20
1121.15313262508
 30
0.0
 10
2495.388425197439
 20
1120.946238074751
 30
0.0
 10
2495.388425197439
 20
1120.757734474607
 30
0.0
  0
LINE
  5
1B83
330
1F
100
AcDbEntity
  8
AM_VIS
100
AcDbLine
 10
2495.388425197439
 20
1120.757734474607
 30
0.0
 11
2495.388425197439
 21
1110.510783708648
 31
0.0
  0
SPLINE
  5
1B84
330
1F
100
AcDbEntity
  8
AM_VIS
100
AcDbSpline
210
0.0
220
0.0
230
1.0
 70
     8
 71
     3
 72
    22
 73
    18
 74
     0
 42
0.0000000001
 43
0.0000000001
 40
5.097784523461091
 40
5.097784523461091
 40
5.097784523461091
 40
5.097784523461091
 40
5.663295323890134
 40
5.663295323890134
 40
6.228806124319175
 40
6.228806124319175
 40
6.616494693878316
 40
6.616494693878316
 40
7.004183263437457
 40
7.004183263437457
 40
7.29610364692914
 40
7.29610364692914
 40
7.588024030420822
 40
7.588024030420822
 40
7.827393294361788
 40
7.827393294361788
 40
8.066762558302754
 40
8.066762558302754
 40
8.066762558302754
 40
8.066762558302754
 10
2495.388425197439
 20
1110.510783708648
 30
0.0
 10
2495.388425197439
 20
1110.322280108505
 30
0.0
 10
2495.377575910969
 20
1110.115385558176
 30
0.0
 10
2495.322841710704
 20
1109.706655762781
 30
0.0
 10
2495.27857761764
 20
1109.504871384241
 30
0.0
 10
2495.181786000691
 20
1109.202240056469
 30
0.0
 10
2495.130032322664
 20
1109.07003846226
 30
0.0
 10
2495.002700173526
 20
1108.818276406674
 30
0.0
 10
2494.926872392841
 20
1108.698842114599
 30
0.0
 10
2494.785816154572
 20
1108.521580046251
 30
0.0
 10
2494.71286068106
 20
1108.443560416783
 30
0.0
 10
2494.551462071966
 20
1108.306430163304
 30
0.0
 10
2494.462878693096
 20
1108.247484687438
 30
0.0
 10
2494.304801076469
 20
1108.167643251829
 30
0.0
 10
2494.223248508212
 20
1108.136018820404
 30
0.0
 10
2494.054965584979
 20
1108.094368536037
 30
0.0
 10
2493.968214952086
 20
1108.084424656357
 30
0.0
 10
2493.88842519744
 20
1108.084424656357
 30
0.0
  0
ARC
  5
1B85
330
1F
100
AcDbEntity
  8
AM_VIS
100
AcDbCircle
 10
2466.888425197439
 20
1146.86448335652
 30
0.0
 40
18.86007475496393
100
AcDbArc
 50
251.4499848211379
 51
288.5500151788621
  0
LINE
  5
1B86
330
1F
100
AcDbEntity
  8
AM_VIS
100
AcDbLine
 10
2459.388425197439
 20
1126.534259091628
 30
0.0
 11
2456.888425197439
 21
1126.534259091628
 31
0.0
  0
LINE
  5
1B87
330
1F
100
AcDbEntity
  8
AM_VIS
100
AcDbLine
 10
2459.388425197439
 20
1104.734259091628
 30
0.0
 11
2456.888425197439
 21
1104.734259091628
 31
0.0
  0
LINE
  5
1B88
330
1F
100
AcDbEntity
  8
AM_VIS
100
AcDbLine
 10
2474.388425197439
 20
1104.634259091628
 30
0.0
 11
2493.88842519744
 21
1104.634259091628
 31
0.0
  0
LINE
  5
1B89
330
1F
100
AcDbEntity
  8
AM_VIS
100
AcDbLine
 10
2474.388425197439
 20
1126.634259091628
 30
0.0
 11
2493.88842519744
 21
1126.634259091628
 31
0.0
  0
LINE
  5
1B8A
330
1F
100
AcDbEntity
  8
AM_VIS
100
AcDbLine
 10
2474.388425197439
 20
1128.484259091628
 30
0.0
 11
2473.888425197439
 21
1128.984259091628
 31
0.0
  0
LINE
  5
1B8B
330
1F
100
AcDbEntity
  8
AM_VIS
100
AcDbLine
 10
2474.388425197439
 20
1102.784259091627
 30
0.0
 11
2473.888425197439
 21
1102.284259091628
 31
0.0
  0
LINE
  5
1B8C
330
1F
100
AcDbEntity
  8
AM_VIS
100
AcDbLine
 10
2459.888425197439
 20
1102.284259091628
 30
0.0
 11
2473.888425197439
 21
1102.284259091628
 31
0.0
  0
LINE
  5
1B8D
330
1F
100
AcDbEntity
  8
AM_VIS
100
AcDbLine
 10
2472.888425197439
 20
1128.984259091628
 30
0.0
 11
2473.888425197439
 21
1128.984259091628
 31
0.0
  0
LINE
  5
1B8E
330
1F
100
AcDbEntity
  8
AM_VIS
100
AcDbLine
 10
2459.888425197439
 20
1128.984259091628
 30
0.0
 11
2460.888425197439
 21
1128.984259091628
 31
0.0
  0
LINE
  5
1B8F
330
1F
100
AcDbEntity
  8
AM_VIS
100
AcDbLine
 10
2459.388425197439
 20
1102.784259091627
 30
0.0
 11
2459.888425197439
 21
1102.284259091628
 31
0.0
  0
LINE
  5
1B90
330
1F
100
AcDbEntity
  8
AM_VIS
100
AcDbLine
 10
2459.388425197439
 20
1128.484259091628
 30
0.0
 11
2459.888425197439
 21
1128.984259091628
 31
0.0
  0
LINE
  5
1B91
330
1F
100
AcDbEntity
  8
AM_VIS
100
AcDbLine
 10
2456.888425197439
 20
1104.734259091628
 30
0.0
 11
2456.888425197439
 21
1126.534259091628
 31
0.0
  0
LINE
  5
1B92
330
1F
100
AcDbEntity
  8
AM_VIS
100
AcDbLine
 10
2495.388425197439
 20
1110.510783708648
 30
0.0
 11
2495.388425197439
 21
1106.134259091628
 31
0.0
  0
LINE
  5
1B93
330
1F
100
AcDbEntity
  8
AM_VIS
100
AcDbLine
 10
2495.388425197439
 20
1125.134259091628
 30
0.0
 11
2495.388425197439
 21
1120.757734474607
 31
0.0
  0
LINE
  5
1B94
330
1F
100
AcDbEntity
  8
AM_VIS
100
AcDbLine
 10
2474.688425197439
 20
1123.184093526898
 30
0.0
 11
2474.688425197439
 21
1108.084424656357
 31
0.0
  0
CIRCLE
  5
1B96
102
{ACAD_REACTORS
330
20BF
102
}
330
1F
100
AcDbEntity
  8
AM_VIS
100
AcDbCircle
 10
2486.388425197439
 20
1115.634259091628
 30
0.0
 40
4.0
  0
LINE
  5
1B97
330
1F
100
AcDbEntity
  8
AM_VIS
100
AcDbLine
 10
2474.388425197439
 20
1128.484259091628
 30
0.0
 11
2474.388425197439
 21
1102.784259091627
 31
0.0
  0
LINE
  5
1B9A
330
1F
100
AcDbEntity
  8
AM_VIS
100
AcDbLine
 10
2459.388425197439
 20
1102.784259091627
 30
0.0
 11
2459.388425197439
 21
1128.484259091628
 31
0.0
  0
ARC
  5
1B9B
102
{ACAD_REACTORS
330
2053
102
}
330
1F
100
AcDbEntity
  8
AM_VIS
100
AcDbCircle
 10
2493.88842519744
 20
1106.134259091628
 30
0.0
 40
1.5
100
AcDbArc
 50
270.0
 51
0.0
  0
ARC
  5
1B9C
330
1F
100
AcDbEntity
  8
AM_VIS
100
AcDbCircle
 10
2493.88842519744
 20
1125.134259091628
 30
0.0
 40
1.5
100
AcDbArc
 50
0.0
 51
90.0
  0
LINE
  5
1B9D
330
1F
100
AcDbEntity
  8
AM_VIS
100
AcDbLine
 10
2419.38842519744
 20
1122.276736039273
 30
0.0
 11
2419.38842519744
 21
1108.991782143982
 31
0.0
  0
LINE
  5
1B9E
330
1F
100
AcDbEntity
  8
AM_VIS
100
AcDbLine
 10
2404.388425197439
 20
1108.991782143982
 30
0.0
 11
2404.388425197439
 21
1115.634259091628
 31
0.0
  0
LINE
  5
1B9F
330
1F
100
AcDbEntity
  8
AM_VIS
100
AcDbLine
 10
2404.388425197439
 20
1115.634259091628
 30
0.0
 11
2404.388425197439
 21
1122.276736039273
 31
0.0
  0
LINE
  5
1BA2
330
1F
100
AcDbEntity
  8
AM_VIS
100
AcDbLine
 10
2419.38842519744
 20
1108.069703585849
 30
0.0
 11
2404.388425197439
 21
1108.069703585849
 31
0.0
  0
LINE
  5
1BA4
330
1F
100
AcDbEntity
  8
AM_VIS
100
AcDbLine
 10
2404.388425197439
 20
1123.198814597406
 30
0.0
 11
2418.888425197439
 21
1123.198814597406
 31
0.0
  0
ARC
  5
1BA6
330
1F
100
AcDbEntity
  8
AM_VIS
100
AcDbCircle
 10
2411.888425197439
 20
1146.86448335652
 30
0.0
 40
18.86007475496394
100
AcDbArc
 50
251.4499848211379
 51
288.5500151788621
  0
LINE
  5
1BA7
330
1F
100
AcDbEntity
  8
AM_VIS
100
AcDbLine
 10
2419.38842519744
 20
1104.734259091628
 30
0.0
 11
2421.888425197439
 21
1104.734259091628
 31
0.0
  0
LINE
  5
1BA8
330
1F
100
AcDbEntity
  8
AM_VIS
100
AcDbLine
 10
2419.38842519744
 20
1126.534259091628
 30
0.0
 11
2421.888425197439
 21
1126.534259091628
 31
0.0
  0
LINE
  5
1BA9
330
1F
100
AcDbEntity
  8
AM_VIS
100
AcDbLine
 10
2404.388425197439
 20
1128.484259091628
 30
0.0
 11
2404.88842519744
 21
1128.984259091628
 31
0.0
  0
LINE
  5
1BAA
330
1F
100
AcDbEntity
  8
AM_VIS
100
AcDbLine
 10
2404.388425197439
 20
1102.784259091627
 30
0.0
 11
2404.88842519744
 21
1102.284259091628
 31
0.0
  0
LINE
  5
1BAB
330
1F
100
AcDbEntity
  8
AM_VIS
100
AcDbLine
 10
2418.888425197439
 20
1102.284259091628
 30
0.0
 11
2404.88842519744
 21
1102.284259091628
 31
0.0
  0
LINE
  5
1BAC
330
1F
100
AcDbEntity
  8
AM_VIS
100
AcDbLine
 10
2419.38842519744
 20
1102.784259091627
 30
0.0
 11
2418.888425197439
 21
1102.284259091628
 31
0.0
  0
LINE
  5
1BAD
330
1F
100
AcDbEntity
  8
AM_VIS
100
AcDbLine
 10
2405.888425197439
 20
1128.984259091628
 30
0.0
 11
2404.88842519744
 21
1128.984259091628
 31
0.0
  0
LINE
  5
1BAE
330
1F
100
AcDbEntity
  8
AM_VIS
100
AcDbLine
 10
2418.888425197439
 20
1128.984259091628
 30
0.0
 11
2417.888425197439
 21
1128.984259091628
 31
0.0
  0
LINE
  5
1BAF
330
1F
100
AcDbEntity
  8
AM_VIS
100
AcDbLine
 10
2419.38842519744
 20
1128.484259091628
 30
0.0
 11
2418.888425197439
 21
1128.984259091628
 31
0.0
  0
LINE
  5
1BB0
330
1F
100
AcDbEntity
  8
AM_VIS
100
AcDbLine
 10
2404.388425197439
 20
1126.634259091628
 30
0.0
 11
2393.888425197439
 21
1126.634259091628
 31
0.0
  0
LINE
  5
1BB1
330
1F
100
AcDbEntity
  8
AM_VIS
100
AcDbLine
 10
2404.388425197439
 20
1104.634259091628
 30
0.0
 11
2393.888425197439
 21
1104.634259091628
 31
0.0
  0
LINE
  5
1BB2
330
1F
100
AcDbEntity
  8
AM_VIS
100
AcDbLine
 10
2421.888425197439
 20
1126.534259091628
 30
0.0
 11
2421.888425197439
 21
1104.734259091628
 31
0.0
  0
LINE
  5
1BB3
330
1F
100
AcDbEntity
  8
AM_VIS
100
AcDbLine
 10
2404.388425197439
 20
1122.276736039273
 30
0.0
 11
2404.388425197439
 21
1128.484259091628
 31
0.0
  0
LINE
  5
1BB4
330
1F
100
AcDbEntity
  8
AM_VIS
100
AcDbLine
 10
2404.388425197439
 20
1102.784259091627
 30
0.0
 11
2404.388425197439
 21
1108.991782143982
 31
0.0
  0
LINE
  5
1BB6
330
1F
100
AcDbEntity
  8
AM_VIS
100
AcDbLine
 10
2419.38842519744
 20
1108.991782143982
 30
0.0
 11
2419.38842519744
 21
1102.784259091627
 31
0.0
  0
LINE
  5
1BB9
330
1F
100
AcDbEntity
  8
AM_VIS
100
AcDbLine
 10
2419.38842519744
 20
1128.484259091628
 30
0.0
 11
2419.38842519744
 21
1122.276736039273
 31
0.0
  0
LINE
  5
1BBB
330
1F
100
AcDbEntity
  8
AM_VIS
100
AcDbLine
 10
2392.388425197439
 20
1106.134259091628
 30
0.0
 11
2392.388425197439
 21
1125.134259091628
 31
0.0
  0
ARC
  5
1BBC
330
1F
100
AcDbEntity
  8
AM_VIS
100
AcDbCircle
 10
2393.888425197439
 20
1125.134259091628
 30
0.0
 40
1.5
100
AcDbArc
 50
90.0
 51
180.0
  0
ARC
  5
1BBD
330
1F
100
AcDbEntity
  8
AM_VIS
100
AcDbCircle
 10
2393.888425197439
 20
1106.134259091628
 30
0.0
 40
1.5
100
AcDbArc
 50
180.0
 51
270.0
  0
LINE
  5
1BBE
330
1F
100
AcDbEntity
  8
AM_VIS
100
AcDbLine
 10
2456.888425197439
 20
1175.419869804072
 30
0.0
 11
2456.788425197439
 21
1175.519869804073
 31
0.0
  0
LINE
  5
1BBF
330
1F
100
AcDbEntity
  8
AM_VIS
100
AcDbLine
 10
2456.888425197439
 20
1154.419869804073
 30
0.0
 11
2456.788425197439
 21
1154.319869804073
 31
0.0
  0
LINE
  5
1BC0
330
1F
100
AcDbEntity
  8
AM_VIS
100
AcDbLine
 10
2456.788425197439
 20
1175.519869804073
 30
0.0
 11
2421.98842519744
 21
1175.519869804073
 31
0.0
  0
LINE
  5
1BC1
330
1F
100
AcDbEntity
  8
AM_VIS
100
AcDbLine
 10
2456.788425197439
 20
1154.319869804073
 30
0.0
 11
2421.98842519744
 21
1154.319869804073
 31
0.0
  0
LINE
  5
1BC2
330
1F
100
AcDbEntity
  8
AM_VIS
100
AcDbLine
 10
2421.888425197439
 20
1154.419869804073
 30
0.0
 11
2421.98842519744
 21
1154.319869804073
 31
0.0
  0
LINE
  5
1BC3
330
1F
100
AcDbEntity
  8
AM_VIS
100
AcDbLine
 10
2421.888425197439
 20
1175.419869804072
 30
0.0
 11
2421.988425197439
 21
1175.519869804073
 31
0.0
  0
LINE
  5
1BC6
330
1F
100
AcDbEntity
  8
AM_VIS
100
AcDbLine
 10
2386.388159281854
 20
1160.919869804073
 30
0.0
 11
2387.388425197439
 21
1160.919869804073
 31
0.0
  0
LINE
  5
1BC7
330
1F
100
AcDbEntity
  8
AM_VIS
100
AcDbLine
 10
2387.388425197439
 20
1160.919869804073
 30
0.0
 11
2389.888425197439
 21
1160.919869804073
 31
0.0
  0
LINE
  5
1BC8
330
1F
100
AcDbEntity
  8
AM_VIS
100
AcDbLine
 10
2390.888425197439
 20
1159.919869804072
 30
0.0
 11
2389.888425197439
 21
1160.919869804073
 31
0.0
  0
LINE
  5
1BC9
330
1F
100
AcDbEntity
  8
AM_VIS
100
AcDbLine
 10
2389.888425197439
 20
1168.919869804073
 30
0.0
 11
2390.888425197439
 21
1169.919869804073
 31
0.0
  0
LINE
  5
1BCA
330
1F
100
AcDbEntity
  8
AM_VIS
100
AcDbLine
 10
2386.388159281854
 20
1168.919869804073
 30
0.0
 11
2387.388425197439
 21
1168.919869804073
 31
0.0
  0
LINE
  5
1BCB
330
1F
100
AcDbEntity
  8
AM_VIS
100
AcDbLine
 10
2389.888425197439
 20
1168.919869804073
 30
0.0
 11
2387.388425197439
 21
1168.919869804073
 31
0.0
  0
LINE
  5
1BCC
330
1F
100
AcDbEntity
  8
AM_VIS
100
AcDbLine
 10
2386.388425197439
 20
1168.819869804073
 30
0.0
 11
2367.388425197439
 21
1168.819869804073
 31
0.0
  0
LINE
  5
1BCD
330
1F
100
AcDbEntity
  8
AM_VIS
100
AcDbLine
 10
2386.388425197439
 20
1161.019869804073
 30
0.0
 11
2367.388425197439
 21
1161.019869804073
 31
0.0
  0
LINE
  5
1BCE
330
1F
100
AcDbEntity
  8
AM_VIS
100
AcDbLine
 10
2366.388425197439
 20
1162.019869804073
 30
0.0
 11
2367.388425197439
 21
1161.019869804073
 31
0.0
  0
LINE
  5
1BCF
330
1F
100
AcDbEntity
  8
AM_VIS
100
AcDbLine
 10
2366.388425197439
 20
1167.819869804073
 30
0.0
 11
2367.388425197439
 21
1168.819869804073
 31
0.0
  0
LINE
  5
1BD0
330
1F
100
AcDbEntity
  8
AM_VIS
100
AcDbLine
 10
2392.388425197439
 20
1169.919869804073
 30
0.0
 11
2390.888425197439
 21
1169.919869804073
 31
0.0
  0
LINE
  5
1BD1
330
1F
100
AcDbEntity
  8
AM_VIS
100
AcDbLine
 10
2392.388425197439
 20
1159.919869804072
 30
0.0
 11
2390.888425197439
 21
1159.919869804072
 31
0.0
  0
LINE
  5
1BD3
330
1F
100
AcDbEntity
  8
AM_VIS
100
AcDbLine
 10
2366.388425197439
 20
1162.019869804073
 30
0.0
 11
2366.388425197439
 21
1167.819869804073
 31
0.0
  0
LINE
  5
1BD4
330
1F
100
AcDbEntity
  8
AM_VIS
100
AcDbLine
 10
2386.388425197439
 20
1160.919869804073
 30
0.0
 11
2386.388425197439
 21
1168.919869804073
 31
0.0
  0
LINE
  5
1BD5
330
1F
100
AcDbEntity
  8
AM_VIS
100
AcDbLine
 10
2493.88842519744
 20
1172.919869804073
 30
0.0
 11
2495.388425197439
 21
1172.919869804073
 31
0.0
  0
LINE
  5
1BD6
330
1F
100
AcDbEntity
  8
AM_VIS
100
AcDbLine
 10
2493.88842519744
 20
1172.919869804073
 30
0.0
 11
2474.688425197439
 21
1172.919869804073
 31
0.0
  0
LINE
  5
1BD7
330
1F
100
AcDbEntity
  8
AM_VIS
100
AcDbLine
 10
2474.688425197439
 20
1156.919869804073
 30
0.0
 11
2493.88842519744
 21
1156.919869804073
 31
0.0
  0
LINE
  5
1BD8
330
1F
100
AcDbEntity
  8
AM_VIS
100
AcDbLine
 10
2493.88842519744
 20
1156.919869804073
 30
0.0
 11
2495.388425197439
 21
1156.919869804073
 31
0.0
  0
LINE
  5
1BDB
330
1F
100
AcDbEntity
  8
AM_VIS
100
AcDbLine
 10
2459.388425197439
 20
1175.819869804072
 30
0.0
 11
2456.888425197439
 21
1175.819869804072
 31
0.0
  0
LINE
  5
1BDC
330
1F
100
AcDbEntity
  8
AM_VIS
100
AcDbLine
 10
2459.388425197439
 20
1154.019869804073
 30
0.0
 11
2456.888425197439
 21
1154.019869804073
 31
0.0
  0
LINE
  5
1BDD
330
1F
100
AcDbEntity
  8
AM_VIS
100
AcDbLine
 10
2474.388425197439
 20
1153.919869804073
 30
0.0
 11
2474.688425197439
 21
1153.919869804073
 31
0.0
  0
LINE
  5
1BDE
330
1F
100
AcDbEntity
  8
AM_VIS
100
AcDbLine
 10
2474.388425197439
 20
1175.919869804073
 30
0.0
 11
2474.688425197439
 21
1175.919869804073
 31
0.0
  0
LINE
  5
1BDF
330
1F
100
AcDbEntity
  8
AM_VIS
100
AcDbLine
 10
2474.388425197439
 20
1177.769869804073
 30
0.0
 11
2473.888425197439
 21
1178.269869804073
 31
0.0
  0
LINE
  5
1BE0
330
1F
100
AcDbEntity
  8
AM_VIS
100
AcDbLine
 10
2474.388425197439
 20
1152.069869804073
 30
0.0
 11
2473.888425197439
 21
1151.569869804073
 31
0.0
  0
LINE
  5
1BE1
330
1F
100
AcDbEntity
  8
AM_VIS
100
AcDbLine
 10
2459.888425197439
 20
1151.569869804073
 30
0.0
 11
2473.888425197439
 21
1151.569869804073
 31
0.0
  0
LINE
  5
1BE2
330
1F
100
AcDbEntity
  8
AM_VIS
100
AcDbLine
 10
2459.888425197439
 20
1178.269869804073
 30
0.0
 11
2473.888425197439
 21
1178.269869804073
 31
0.0
  0
LINE
  5
1BE3
330
1F
100
AcDbEntity
  8
AM_VIS
100
AcDbLine
 10
2459.388425197439
 20
1152.069869804073
 30
0.0
 11
2459.888425197439
 21
1151.569869804073
 31
0.0
  0
LINE
  5
1BE4
330
1F
100
AcDbEntity
  8
AM_VIS
100
AcDbLine
 10
2459.388425197439
 20
1177.769869804073
 30
0.0
 11
2459.888425197439
 21
1178.269869804073
 31
0.0
  0
LINE
  5
1BE5
330
1F
100
AcDbEntity
  8
AM_VIS
100
AcDbLine
 10
2456.888425197439
 20
1154.019869804073
 30
0.0
 11
2456.888425197439
 21
1175.819869804072
 31
0.0
  0
LINE
  5
1BE8
330
1F
100
AcDbEntity
  8
AM_VIS
100
AcDbLine
 10
2495.388425197439
 20
1172.919869804073
 30
0.0
 11
2495.388425197439
 21
1156.919869804073
 31
0.0
  0
LINE
  5
1BE9
330
1F
100
AcDbEntity
  8
AM_VIS
100
AcDbLine
 10
2474.688425197439
 20
1175.919869804073
 30
0.0
 11
2474.688425197439
 21
1172.919869804073
 31
0.0
  0
LINE
  5
1BEA
330
1F
100
AcDbEntity
  8
AM_VIS
100
AcDbLine
 10
2474.688425197439
 20
1156.919869804073
 30
0.0
 11
2474.688425197439
 21
1153.919869804073
 31
0.0
  0
LINE
  5
1BEB
330
1F
100
AcDbEntity
  8
AM_VIS
100
AcDbLine
 10
2474.388425197439
 20
1177.769869804073
 30
0.0
 11
2474.388425197439
 21
1152.069869804073
 31
0.0
  0
LINE
  5
1BEE
330
1F
100
AcDbEntity
  8
AM_VIS
100
AcDbLine
 10
2459.388425197439
 20
1152.069869804073
 30
0.0
 11
2459.388425197439
 21
1177.769869804073
 31
0.0
  0
LINE
  5
1BEF
330
1F
100
AcDbEntity
  8
AM_VIS
100
AcDbLine
 10
2404.388425197439
 20
1153.919869804073
 30
0.0
 11
2404.88842519744
 21
1153.919869804073
 31
0.0
  0
LINE
  5
1BF0
330
1F
100
AcDbEntity
  8
AM_VIS
100
AcDbLine
 10
2404.388425197439
 20
1175.919869804072
 30
0.0
 11
2404.88842519744
 21
1175.919869804072
 31
0.0
  0
LINE
  5
1BF1
330
1F
100
AcDbEntity
  8
AM_VIS
100
AcDbLine
 10
2404.88842519744
 20
1153.919869804073
 30
0.0
 11
2418.888425197439
 21
1153.919869804073
 31
0.0
  0
LINE
  5
1BF2
330
1F
100
AcDbEntity
  8
AM_VIS
100
AcDbLine
 10
2418.888425197439
 20
1175.919869804072
 30
0.0
 11
2404.88842519744
 21
1175.919869804072
 31
0.0
  0
LINE
  5
1BF3
330
1F
100
AcDbEntity
  8
AM_VIS
100
AcDbLine
 10
2418.888425197439
 20
1153.919869804073
 30
0.0
 11
2419.38842519744
 21
1153.919869804073
 31
0.0
  0
LINE
  5
1BF4
330
1F
100
AcDbEntity
  8
AM_VIS
100
AcDbLine
 10
2418.888425197439
 20
1175.919869804072
 30
0.0
 11
2419.38842519744
 21
1175.919869804072
 31
0.0
  0
LINE
  5
1BF7
330
1F
100
AcDbEntity
  8
AM_VIS
100
AcDbLine
 10
2419.38842519744
 20
1154.019869804073
 30
0.0
 11
2421.888425197439
 21
1154.019869804073
 31
0.0
  0
LINE
  5
1BF8
330
1F
100
AcDbEntity
  8
AM_VIS
100
AcDbLine
 10
2419.38842519744
 20
1175.819869804072
 30
0.0
 11
2421.888425197439
 21
1175.819869804072
 31
0.0
  0
LINE
  5
1BF9
330
1F
100
AcDbEntity
  8
AM_VIS
100
AcDbLine
 10
2404.388425197439
 20
1175.919869804072
 30
0.0
 11
2393.888425197439
 21
1175.919869804072
 31
0.0
  0
LINE
  5
1BFA
330
1F
100
AcDbEntity
  8
AM_VIS
100
AcDbLine
 10
2404.388425197439
 20
1153.919869804073
 30
0.0
 11
2393.888425197439
 21
1153.919869804073
 31
0.0
  0
LINE
  5
1BFB
330
1F
100
AcDbEntity
  8
AM_VIS
100
AcDbLine
 10
2421.888425197439
 20
1175.819869804072
 30
0.0
 11
2421.888425197439
 21
1154.019869804073
 31
0.0
  0
LINE
  5
1BFC
330
1F
100
AcDbEntity
  8
AM_VIS
100
AcDbLine
 10
2404.388425197439
 20
1153.919869804073
 30
0.0
 11
2404.388425197439
 21
1175.919869804072
 31
0.0
  0
LINE
  5
1BFE
330
1F
100
AcDbEntity
  8
AM_VIS
100
AcDbLine
 10
2419.38842519744
 20
1175.919869804072
 30
0.0
 11
2419.38842519744
 21
1153.919869804073
 31
0.0
  0
LINE
  5
1C01
330
1F
100
AcDbEntity
  8
AM_VIS
100
AcDbLine
 10
2392.388425197439
 20
1155.419869804072
 30
0.0
 11
2392.388425197439
 21
1174.419869804073
 31
0.0
  0
ARC
  5
1C02
330
1F
100
AcDbEntity
  8
AM_VIS
100
AcDbCircle
 10
2393.888425197439
 20
1174.419869804073
 30
0.0
 40
1.5
100
AcDbArc
 50
90.0
 51
180.0
  0
ARC
  5
1C03
330
1F
100
AcDbEntity
  8
AM_VIS
100
AcDbCircle
 10
2393.888425197439
 20
1155.419869804072
 30
0.0
 40
1.5
100
AcDbArc
 50
180.0
 51
270.0
  0
LINE
  5
1C04
102
{ACAD_REACTORS
330
2086
102
}
330
1F
100
AcDbEntity
  8
AM_VIS
100
AcDbLine
 10
2546.775117496901
 20
1110.510783708648
 30
0.0
 11
2546.775117496901
 21
1108.084424656357
 31
0.0
  0
LINE
  5
1C05
330
1F
100
AcDbEntity
  8
AM_VIS
100
AcDbLine
 10
2546.775117496901
 20
1110.510783708648
 30
0.0
 11
2546.775117496901
 21
1120.757734474607
 31
0.0
  0
LINE
  5
1C06
330
1F
100
AcDbEntity
  8
AM_VIS
100
AcDbLine
 10
2546.775117496901
 20
1123.184093526898
 30
0.0
 11
2546.775117496901
 21
1120.757734474607
 31
0.0
  0
LINE
  5
1C07
330
1F
100
AcDbEntity
  8
AM_VIS
100
AcDbLine
 10
2530.775117496901
 20
1123.184093526898
 30
0.0
 11
2530.775117496901
 21
1120.757734474607
 31
0.0
  0
LINE
  5
1C08
330
1F
100
AcDbEntity
  8
AM_VIS
100
AcDbLine
 10
2530.775117496901
 20
1120.757734474607
 30
0.0
 11
2530.775117496901
 21
1110.510783708648
 31
0.0
  0
LINE
  5
1C09
102
{ACAD_REACTORS
330
2086
102
}
330
1F
100
AcDbEntity
  8
AM_VIS
100
AcDbLine
 10
2530.775117496901
 20
1110.510783708648
 30
0.0
 11
2530.775117496901
 21
1108.084424656357
 31
0.0
  0
ARC
  5
1C0A
330
1F
100
AcDbEntity
  8
AM_VIS
100
AcDbCircle
 10
2538.775117496901
 20
1115.634259091628
 30
0.0
 40
11.0
100
AcDbArc
 50
223.3417582272337
 51
316.6582417727664
  0
ARC
  5
1C0B
330
1F
100
AcDbEntity
  8
AM_VIS
100
AcDbCircle
 10
2538.775117496901
 20
1115.634259091628
 30
0.0
 40
11.0
100
AcDbArc
 50
316.6582417727664
 51
43.34175822723365
  0
ARC
  5
1C0C
330
1F
100
AcDbEntity
  8
AM_VIS
100
AcDbCircle
 10
2538.775117496901
 20
1115.634259091628
 30
0.0
 40
11.0
100
AcDbArc
 50
43.34175822723365
 51
136.6582417727663
  0
ARC
  5
1C0D
330
1F
100
AcDbEntity
  8
AM_VIS
100
AcDbCircle
 10
2538.775117496901
 20
1115.634259091628
 30
0.0
 40
11.0
100
AcDbArc
 50
136.6582417727663
 51
223.3417582272337
  0
CIRCLE
  5
1C0F
330
1F
100
AcDbEntity
  8
AM_VIS
100
AcDbCircle
 10
2538.775117496901
 20
1115.634259091628
 30
0.0
 40
13.35
  0
LINE
  5
1C11
330
1F
100
AcDbEntity
  8
AM_VIS
100
AcDbLine
 10
2338.283615511507
 20
1132.954759091622
 30
0.0
 11
2341.604132912197
 21
1132.954759091622
 31
0.0
  0
LINE
  5
1C12
330
1F
100
AcDbEntity
  8
AM_VIS
100
AcDbLine
 10
2338.283606186502
 20
1098.313775242999
 30
0.0
 11
2338.283615511518
 21
1098.313759091621
 31
0.0
  0
SPLINE
  5
1C13
330
1F
100
AcDbEntity
  8
AM_VIS
100
AcDbSpline
210
0.0000000000000186
220
-0.0000000000000075
230
1.0
 70
    12
 71
     2
 72
     6
 73
     3
 74
     0
 42
0.0000000001
 43
0.0000000001
 40
0.3225471522250178
 40
0.3225471522250178
 40
0.3225471522250178
 40
9.138968350774945
 40
9.138968350774945
 40
9.138968350774945
 10
2338.283615511505
 20
1132.954759091622
 30
0.0
 41
1.002771087174056
 10
2336.946111286173
 20
1130.638133818006
 30
0.0
 41
1.039257636916397
 10
2336.943874211852
 20
1128.631876544588
 30
-0.0000000000000071
 41
1.0
  0
SPLINE
  5
1C14
330
1F
100
AcDbEntity
  8
AM_VIS
100
AcDbSpline
210
-0.0000000000000195
220
-0.0000000000000079
230
1.0
 70
    12
 71
     2
 72
     6
 73
     3
 74
     0
 42
0.0000000001
 43
0.0000000001
 40
0.0
 40
0.0
 40
0.0
 40
8.816428612226554
 40
8.816428612226554
 40
8.816428612226554
 10
2336.943874211852
 20
1128.617391638656
 30
0.0
 41
1.0
 10
2336.946111287983
 20
1126.611132741916
 30
0.0
 41
1.039257669927926
 10
2338.283617842755
 20
1124.294505053778
 30
-0.0000000000000071
 41
1.002771025811354
  0
SPLINE
  5
1C16
330
1F
100
AcDbEntity
  8
AM_VIS
100
AcDbSpline
210
0.0000000000000212
220
0.0000000000000043
230
1.0
 70
    12
 71
     2
 72
     6
 73
     3
 74
     0
 42
0.0000000001
 43
0.0000000001
 40
9.153397245139405
 40
9.153397245139405
 40
9.153397245139405
 40
17.98432095287651
 40
17.98432095287651
 40
17.98432095287651
 10
2336.943874211852
 20
1115.634259091622
 30
0.0
 41
1.0
 10
2336.943874211852
 20
1111.615017959352
 30
-0.0000000000000142
 41
1.039394456041176
 10
2338.283622505256
 20
1106.973996978088
 30
0.0000000000000071
 41
1.002775727798852
  0
SPLINE
  5
1C17
330
1F
100
AcDbEntity
  8
AM_VIS
100
AcDbSpline
210
-0.0000000000000396
220
0.000000000000008
230
1.0
 70
    12
 71
     2
 72
     6
 73
     3
 74
     0
 42
0.0000000001
 43
0.0000000001
 40
0.3224883624199651
 40
0.3224883624199651
 40
0.3224883624199651
 40
9.153397245139405
 40
9.153397245139405
 40
9.153397245139405
 10
2338.283617842758
 20
1124.294505053778
 30
-0.0000000000000142
 41
1.002775850746884
 10
2336.943874211852
 20
1119.653493732276
 30
0.0000000000000071
 41
1.039394389907263
 10
2336.943874211852
 20
1115.634259091622
 30
0.0
 41
1.0
  0
LINE
  5
1C18
330
1F
100
AcDbEntity
  8
AM_VIS
100
AcDbLine
 10
2338.283617842757
 20
1124.294505053778
 30
0.0
 11
2341.604130580946
 21
1124.294505053778
 31
0.0
  0
LINE
  5
1C19
330
1F
100
AcDbEntity
  8
AM_VIS
100
AcDbLine
 10
2338.283615511519
 20
1098.313759091622
 30
0.0
 11
2341.604132912184
 21
1098.313759091622
 31
0.0
  0
SPLINE
  5
1C1A
330
1F
100
AcDbEntity
  8
AM_VIS
100
AcDbSpline
210
0.0
220
-0.0000000000000008
230
1.0
 70
    12
 71
     2
 72
     6
 73
     3
 74
     0
 42
0.0000000001
 43
0.0000000001
 40
0.3094151123769164
 40
0.3094151123769164
 40
0.3094151123769164
 40
17.9479578438577
 40
17.9479578438577
 40
17.9479578438577
 10
2338.283622505262
 20
1106.973996978089
 30
0.0000000000000071
 41
1.00555337263829
 10
2335.783628041979
 20
1102.643876520669
 30
0.0000000000000071
 41
1.16111256163256
 10
2338.283615511519
 20
1098.313759091622
 30
0.0
 41
1.005553749513035
  0
LINE
  5
1C1B
330
1F
100
AcDbEntity
  8
AM_VIS
100
AcDbLine
 10
2338.283622505259
 20
1106.973996978089
 30
0.0
 11
2341.604125918445
 21
1106.973996978089
 31
0.0
  0
SPLINE
  5
1C1C
330
1F
100
AcDbEntity
  8
AM_VIS
100
AcDbSpline
210
0.0000000000000186
220
0.0000000000000075
230
-1.0
 70
    12
 71
     2
 72
     6
 73
     3
 74
     0
 42
0.0000000001
 43
0.0000000001
 40
0.0
 40
0.0
 40
0.0
 40
8.816421198539558
 40
8.816421198539558
 40
8.816421198539558
 10
2342.943874211852
 20
1128.631876544585
 30
-0.0000000000000071
 41
1.0
 10
2342.941637137531
 20
1130.638133818001
 30
0.0
 41
1.039257636916389
 10
2341.6041329122
 20
1132.954759091623
 30
0.0
 41
1.002771087174199
  0
SPLINE
  5
1C1D
330
1F
100
AcDbEntity
  8
AM_VIS
100
AcDbSpline
210
0.0
220
-0.0000000000000008
230
1.0
 70
    12
 71
     2
 72
     6
 73
     3
 74
     0
 42
0.0000000001
 43
0.0000000001
 40
0.3094364789364323
 40
0.3094364789364323
 40
0.3094364789364323
 40
17.94797921041721
 40
17.94797921041721
 40
17.94797921041721
 10
2341.604132912184
 20
1098.313759091622
 30
0.0
 41
1.005553749513035
 10
2344.104120381725
 20
1102.64387652067
 30
0.0
 41
1.161112561632567
 10
2341.604125918445
 20
1106.973996978089
 30
0.0000000000000071
 41
1.00555337263829
  0
SPLINE
  5
1C1E
330
1F
100
AcDbEntity
  8
AM_VIS
100
AcDbSpline
210
-0.0000000000000203
220
0.0000000000000041
230
1.0
 70
    12
 71
     2
 72
     6
 73
     3
 74
     0
 42
0.0000000001
 43
0.0000000001
 40
0.3224735373852576
 40
0.3224735373852576
 40
0.3224735373852576
 40
9.153397245139395
 40
9.153397245139395
 40
9.153397245139395
 10
2341.604125918445
 20
1106.973996978089
 30
0.0000000000000071
 41
1.00277572779871
 10
2342.943874211851
 20
1111.615017959345
 30
-0.0000000000000071
 41
1.039394456041231
 10
2342.943874211852
 20
1115.634259091622
 30
0.0
 41
1.0
  0
LINE
  5
1C1F
330
1F
100
AcDbEntity
  8
AM_VIS
100
AcDbLine
 10
2341.604132912186
 20
1098.313759091621
 30
0.0
 11
2341.604142237201
 21
1098.313775242999
 31
0.0
  0
SPLINE
  5
1C20
330
1F
100
AcDbEntity
  8
AM_VIS
100
AcDbSpline
210
0.0
220
0.0
230
1.0
 70
    12
 71
     2
 72
     6
 73
     3
 74
     0
 42
0.0000000001
 43
0.0000000001
 40
0.3225397385312991
 40
0.3225397385312991
 40
0.3225397385312991
 40
9.138968350781595
 40
9.138968350781595
 40
9.138968350781595
 10
2341.604130580943
 20
1124.294505053777
 30
0.0
 41
1.002771025811214
 10
2342.941637135722
 20
1126.611132741914
 30
-0.0000000000000071
 41
1.039257669928064
 10
2342.943874211852
 20
1128.61739163866
 30
0.0
 41
1.0
  0
SPLINE
  5
1C21
330
1F
100
AcDbEntity
  8
AM_VIS
100
AcDbSpline
210
0.0
220
0.0
230
1.0
 70
    12
 71
     2
 72
     6
 73
     3
 74
     0
 42
0.0000000001
 43
0.0000000001
 40
9.153397245139395
 40
9.153397245139395
 40
9.153397245139395
 40
17.98430612784178
 40
17.98430612784178
 40
17.98430612784178
 10
2342.943874211852
 20
1115.634259091622
 30
0.0
 41
1.0
 10
2342.943874211854
 20
1119.65349373227
 30
0.0000000000000142
 41
1.039394389907163
 10
2341.604130580946
 20
1124.294505053778
 30
0.0
 41
1.002775850747024
  0
LINE
  5
1C22
330
1F
100
AcDbEntity
  8
AM_VIS
100
AcDbLine
 10
2336.943874211852
 20
1100.634259091622
 30
0.0
 11
2338.283606186504
 21
1098.313775243
 31
0.0
  0
LINE
  5
1C23
330
1F
100
AcDbEntity
  8
AM_VIS
100
AcDbLine
 10
2336.943874211852
 20
1130.634259091622
 30
0.0
 11
2338.283615511507
 21
1132.954759091622
 31
0.0
  0
LINE
  5
1C24
330
1F
100
AcDbEntity
  8
AM_VIS
100
AcDbLine
 10
2342.943874211852
 20
1130.634259091622
 30
0.0
 11
2341.604132912197
 21
1132.954759091622
 31
0.0
  0
LINE
  5
1C25
330
1F
100
AcDbEntity
  8
AM_VIS
100
AcDbLine
 10
2342.943874211852
 20
1100.634259091622
 30
0.0
 11
2341.6041422372
 21
1098.313775243
 31
0.0
  0
LINE
  5
1C26
330
1F
100
AcDbEntity
  8
AM_VIS
100
AcDbLine
 10
2336.943874211852
 20
1130.634259091622
 30
0.0
 11
2336.943874211852
 21
1128.631876544589
 31
0.0
  0
LINE
  5
1C27
330
1F
100
AcDbEntity
  8
AM_VIS
100
AcDbLine
 10
2336.943874211852
 20
1128.617391638655
 30
0.0
 11
2336.943874211852
 21
1128.631876544589
 31
0.0
  0
LINE
  5
1C28
330
1F
100
AcDbEntity
  8
AM_VIS
100
AcDbLine
 10
2336.943874211852
 20
1128.617391638655
 30
0.0
 11
2336.943874211852
 21
1115.634259091622
 31
0.0
  0
LINE
  5
1C29
330
1F
100
AcDbEntity
  8
AM_VIS
100
AcDbLine
 10
2336.943874211852
 20
1115.634259091622
 30
0.0
 11
2336.943874211852
 21
1100.634259091622
 31
0.0
  0
LINE
  5
1C2A
330
1F
100
AcDbEntity
  8
AM_VIS
100
AcDbLine
 10
2342.943874211852
 20
1100.634259091622
 30
0.0
 11
2342.943874211852
 21
1115.634259091622
 31
0.0
  0
LINE
  5
1C2B
330
1F
100
AcDbEntity
  8
AM_VIS
100
AcDbLine
 10
2342.943874211852
 20
1115.634259091622
 30
0.0
 11
2342.943874211852
 21
1128.617391638655
 31
0.0
  0
LINE
  5
1C2C
330
1F
100
AcDbEntity
  8
AM_VIS
100
AcDbLine
 10
2342.943874211852
 20
1128.631876544589
 30
0.0
 11
2342.943874211852
 21
1128.617391638655
 31
0.0
  0
LINE
  5
1C2D
330
1F
100
AcDbEntity
  8
AM_VIS
100
AcDbLine
 10
2342.943874211852
 20
1128.631876544589
 30
0.0
 11
2342.943874211852
 21
1130.634259091622
 31
0.0
  0
LINE
  5
1C30
330
1F
100
AcDbEntity
  8
AM_VIS
100
AcDbLine
 10
2338.283615511507
 20
1164.919869804082
 30
0.0
 11
2341.604132912197
 21
1164.919869804082
 31
0.0
  0
SPLINE
  5
1C32
330
1F
100
AcDbEntity
  8
AM_VIS
100
AcDbSpline
210
-0.000000000000039
220
0.0000000000000091
230
-1.0
 70
    12
 71
     2
 72
     6
 73
     3
 74
     0
 42
0.0000000001
 43
0.0000000001
 40
0.3225397385314554
 40
0.3225397385314554
 40
0.3225397385314554
 40
9.138968350751648
 40
9.138968350751648
 40
9.138968350751648
 10
2338.283617842757
 20
1179.919869804082
 30
-0.0000000000000142
 41
1.002771025811205
 10
2336.946111287986
 20
1175.907352946021
 30
-0.0000000000000284
 41
1.039257669927786
 10
2336.943874211852
 20
1172.432410603734
 30
-0.0000000000000284
 41
1.0
  0
SPLINE
  5
1C33
330
1F
100
AcDbEntity
  8
AM_VIS
100
AcDbSpline
210
0.0
220
0.0
230
1.0
 70
    12
 71
     2
 72
     6
 73
     3
 74
     0
 42
0.0000000001
 43
0.0000000001
 40
0.3225471522250178
 40
0.3225471522250178
 40
0.3225471522250178
 40
9.138968350774945
 40
9.138968350774945
 40
9.138968350774945
 10
2338.283615511505
 20
1164.919869804081
 30
-0.0000000000000142
 41
1.002771087174056
 10
2336.946111286173
 20
1160.907357128081
 30
-0.0000000000000142
 41
1.039257636916397
 10
2336.943874211852
 20
1157.432417597466
 30
-0.0000000000000142
 41
1.0
  0
SPLINE
  5
1C34
330
1F
100
AcDbEntity
  8
AM_VIS
100
AcDbSpline
210
0.0
220
0.0
230
1.0
 70
    12
 71
     2
 72
     6
 73
     3
 74
     0
 42
0.0000000001
 43
0.0000000001
 40
0.0
 40
0.0
 40
0.0
 40
8.816421198509496
 40
8.816421198509496
 40
8.816421198509496
 10
2336.943874211852
 20
1172.407322010677
 30
-0.0000000000000142
 41
1.0
 10
2336.946111286176
 20
1168.932382480078
 30
-0.0000000000000142
 41
1.039257636916123
 10
2338.283615511507
 20
1164.919869804082
 30
-0.0000000000000142
 41
1.00277108717419
  0
SPLINE
  5
1C35
330
1F
100
AcDbEntity
  8
AM_VIS
100
AcDbSpline
210
0.0
220
0.0
230
1.0
 70
    12
 71
     2
 72
     6
 73
     3
 74
     0
 42
0.0000000001
 43
0.0000000001
 40
0.0
 40
0.0
 40
0.0
 40
8.816428612226554
 40
8.816428612226554
 40
8.816428612226554
 10
2336.943874211852
 20
1157.407329004449
 30
-0.0000000000000142
 41
1.0
 10
2336.946111287983
 20
1153.932386662158
 30
-0.0000000000000142
 41
1.039257669927926
 10
2338.283617842754
 20
1149.919869804082
 30
-0.0000000000000142
 41
1.002771025811354
  0
LINE
  5
1C37
330
1F
100
AcDbEntity
  8
AM_VIS
100
AcDbLine
 10
2336.943874211852
 20
1149.919869804082
 30
0.0
 11
2338.283617842757
 21
1149.919869804082
 31
0.0
  0
LINE
  5
1C38
330
1F
100
AcDbEntity
  8
AM_VIS
100
AcDbLine
 10
2338.283617842757
 20
1149.919869804082
 30
0.0
 11
2341.604130580946
 21
1149.919869804082
 31
0.0
  0
LINE
  5
1C39
330
1F
100
AcDbEntity
  8
AM_VIS
100
AcDbLine
 10
2338.283617842757
 20
1179.919869804082
 30
0.0
 11
2341.604130580946
 21
1179.919869804082
 31
0.0
  0
LINE
  5
1C3A
330
1F
100
AcDbEntity
  8
AM_VIS
100
AcDbLine
 10
2336.943874211852
 20
1179.919869804082
 30
0.0
 11
2338.283617842757
 21
1179.919869804082
 31
0.0
  0
SPLINE
  5
1C3B
330
1F
100
AcDbEntity
  8
AM_VIS
100
AcDbSpline
210
0.0000000000000018
220
0.0000000000000004
230
1.0
 70
    12
 71
     2
 72
     6
 73
     3
 74
     0
 42
0.0000000001
 43
0.0000000001
 40
0.0
 40
0.0
 40
0.0
 40
8.816428612209827
 40
8.816428612209827
 40
8.816428612209827
 10
2342.943874211852
 20
1172.432410603729
 30
-0.0000000000000142
 41
1.0
 10
2342.941637135718
 20
1175.907352946013
 30
0.0
 41
1.039257669927766
 10
2341.604130580946
 20
1179.919869804082
 30
-0.0000000000000142
 41
1.002771025811348
  0
LINE
  5
1C3C
330
1F
100
AcDbEntity
  8
AM_VIS
100
AcDbLine
 10
2341.604130580946
 20
1179.919869804082
 30
0.0
 11
2342.943874211852
 21
1179.919869804082
 31
0.0
  0
SPLINE
  5
1C3D
330
1F
100
AcDbEntity
  8
AM_VIS
100
AcDbSpline
210
-0.0000000000000372
220
-0.0000000000000086
230
1.0
 70
    12
 71
     2
 72
     6
 73
     3
 74
     0
 42
0.0000000001
 43
0.0000000001
 40
0.0
 40
0.0
 40
0.0
 40
8.816421198539558
 40
8.816421198539558
 40
8.816421198539558
 10
2342.943874211852
 20
1157.43241759746
 30
-0.0000000000000284
 41
1.0
 10
2342.941637137531
 20
1160.907357128071
 30
-0.0000000000000142
 41
1.039257636916389
 10
2341.6041329122
 20
1164.919869804082
 30
-0.0000000000000142
 41
1.002771087174199
  0
SPLINE
  5
1C3E
330
1F
100
AcDbEntity
  8
AM_VIS
100
AcDbSpline
210
0.000000000000039
220
-0.0000000000000091
230
-1.0
 70
    12
 71
     2
 72
     6
 73
     3
 74
     0
 42
0.0000000001
 43
0.0000000001
 40
0.3225471522250597
 40
0.3225471522250597
 40
0.3225471522250597
 40
9.138968350758304
 40
9.138968350758304
 40
9.138968350758304
 10
2341.604132912197
 20
1164.919869804081
 30
0.0
 41
1.002771087174051
 10
2342.941637137526
 20
1168.932382480074
 30
-0.0000000000000142
 41
1.03925763691626
 10
2342.943874211852
 20
1172.407322010683
 30
-0.0000000000000142
 41
1.0
  0
SPLINE
  5
1C3F
330
1F
100
AcDbEntity
  8
AM_VIS
100
AcDbSpline
210
0.0
220
0.0
230
1.0
 70
    12
 71
     2
 72
     6
 73
     3
 74
     0
 42
0.0000000001
 43
0.0000000001
 40
0.3225397385312991
 40
0.3225397385312991
 40
0.3225397385312991
 40
9.138968350781595
 40
9.138968350781595
 40
9.138968350781595
 10
2341.604130580942
 20
1149.919869804081
 30
-0.0000000000000142
 41
1.002771025811214
 10
2342.941637135722
 20
1153.932386662155
 30
-0.0000000000000142
 41
1.039257669928064
 10
2342.943874211852
 20
1157.407329004455
 30
-0.0000000000000142
 41
1.0
  0
LINE
  5
1C40
330
1F
100
AcDbEntity
  8
AM_VIS
100
AcDbLine
 10
2341.604130580946
 20
1149.919869804082
 30
0.0
 11
2342.943874211852
 21
1149.919869804082
 31
0.0
  0
LINE
  5
1C41
330
1F
100
AcDbEntity
  8
AM_VIS
100
AcDbLine
 10
2336.943874211852
 20
1172.407322010677
 30
0.0
 11
2336.943874211852
 21
1172.432410603735
 31
0.0
  0
LINE
  5
1C42
330
1F
100
AcDbEntity
  8
AM_VIS
100
AcDbLine
 10
2336.943874211852
 20
1172.407322010677
 30
0.0
 11
2336.943874211852
 21
1157.432417597468
 31
0.0
  0
LINE
  5
1C43
330
1F
100
AcDbEntity
  8
AM_VIS
100
AcDbLine
 10
2336.943874211852
 20
1157.407329004447
 30
0.0
 11
2336.943874211852
 21
1157.432417597468
 31
0.0
  0
LINE
  5
1C44
330
1F
100
AcDbEntity
  8
AM_VIS
100
AcDbLine
 10
2336.943874211852
 20
1157.407329004447
 30
0.0
 11
2336.943874211852
 21
1149.919869804082
 31
0.0
  0
LINE
  5
1C45
330
1F
100
AcDbEntity
  8
AM_VIS
100
AcDbLine
 10
2336.943874211852
 20
1179.919869804082
 30
0.0
 11
2336.943874211852
 21
1172.432410603735
 31
0.0
  0
LINE
  5
1C46
330
1F
100
AcDbEntity
  8
AM_VIS
100
AcDbLine
 10
2342.943874211852
 20
1149.919869804082
 30
0.0
 11
2342.943874211852
 21
1157.407329004447
 31
0.0
  0
LINE
  5
1C47
330
1F
100
AcDbEntity
  8
AM_VIS
100
AcDbLine
 10
2342.943874211852
 20
1157.432417597468
 30
0.0
 11
2342.943874211852
 21
1157.407329004447
 31
0.0
  0
LINE
  5
1C48
330
1F
100
AcDbEntity
  8
AM_VIS
100
AcDbLine
 10
2342.943874211852
 20
1157.432417597468
 30
0.0
 11
2342.943874211852
 21
1172.407322010677
 31
0.0
  0
LINE
  5
1C49
330
1F
100
AcDbEntity
  8
AM_VIS
100
AcDbLine
 10
2342.943874211852
 20
1172.432410603735
 30
0.0
 11
2342.943874211852
 21
1172.407322010677
 31
0.0
  0
LINE
  5
1C4A
330
1F
100
AcDbEntity
  8
AM_VIS
100
AcDbLine
 10
2342.943874211852
 20
1172.432410603735
 30
0.0
 11
2342.943874211852
 21
1179.919869804082
 31
0.0
  0
SPLINE
  5
1C4B
330
1F
100
AcDbEntity
  8
AM_VIS
100
AcDbSpline
210
0.0
220
0.0
230
1.0
 70
    12
 71
     2
 72
     6
 73
     3
 74
     0
 42
0.0000000001
 43
0.0000000001
 40
8.169461582025268
 40
8.169461582025268
 40
8.169461582025268
 40
20.37125551712374
 40
20.37125551712374
 40
20.37125551712374
 10
2312.604604213545
 20
1123.139812591083
 30
-0.0000000000000142
 41
1.528697458380454
 10
2311.521270880213
 20
1121.263424216217
 30
-0.0000000000000284
 41
1.765187778210992
 10
2312.604604213546
 20
1119.38703584135
 30
-0.0000000000000142
 41
1.528697458380454
  0
LINE
  5
1C4C
330
1F
100
AcDbEntity
  8
AM_VIS
100
AcDbLine
 10
2312.604604213545
 20
1123.139812591083
 30
0.0
 11
2316.154815911749
 21
1123.139812591083
 31
0.0
  0
SPLINE
  5
1C4D
330
1F
100
AcDbEntity
  8
AM_VIS
100
AcDbSpline
210
0.0
220
0.0
230
1.0
 70
    12
 71
     2
 72
     6
 73
     3
 74
     0
 42
0.0000000001
 43
0.0000000001
 40
8.169461582025279
 40
8.169461582025279
 40
8.169461582025279
 40
20.37125551712373
 40
20.37125551712373
 40
20.37125551712373
 10
2312.604604213545
 20
1119.38703584135
 30
-0.0000000000000142
 41
1.528697458380453
 10
2311.521270880211
 20
1115.634259091617
 30
0.0
 41
1.76518777821099
 10
2312.604604213546
 20
1111.881482341885
 30
-0.0000000000000142
 41
1.528697458380454
  0
LINE
  5
1C4E
330
1F
100
AcDbEntity
  8
AM_VIS
100
AcDbLine
 10
2312.604604213545
 20
1119.38703584135
 30
0.0
 11
2316.154815911749
 21
1119.38703584135
 31
0.0
  0
LINE
  5
1C4F
330
1F
100
AcDbEntity
  8
AM_VIS
100
AcDbLine
 10
2312.604604213545
 20
1108.128705592152
 30
0.0
 11
2316.154815911749
 21
1108.128705592152
 31
0.0
  0
SPLINE
  5
1C50
330
1F
100
AcDbEntity
  8
AM_VIS
100
AcDbSpline
210
0.0
220
-0.0000000000000076
230
1.0
 70
    12
 71
     2
 72
     6
 73
     3
 74
     0
 42
0.0000000001
 43
0.0000000001
 40
8.169461582025293
 40
8.169461582025293
 40
8.169461582025293
 40
20.37125551712373
 40
20.37125551712373
 40
20.37125551712373
 10
2312.604604213545
 20
1111.881482341885
 30
0.0000000000000142
 41
1.528697458380454
 10
2311.521270880212
 20
1110.005093967019
 30
0.0000000000000142
 41
1.765187778210989
 10
2312.604604213546
 20
1108.128705592152
 30
-0.0000000000000142
 41
1.528697458380453
  0
LINE
  5
1C51
330
1F
100
AcDbEntity
  8
AM_VIS
100
AcDbLine
 10
2312.604604213545
 20
1111.881482341885
 30
0.0
 11
2316.154815911749
 21
1111.881482341885
 31
0.0
  0
SPLINE
  5
1C52
330
1F
100
AcDbEntity
  8
AM_VIS
100
AcDbSpline
210
0.0
220
-0.0000000000000114
230
1.0
 70
    12
 71
     2
 72
     6
 73
     3
 74
     0
 42
0.0000000001
 43
0.0000000001
 40
8.74472174869912
 40
8.74472174869912
 40
8.74472174869912
 40
21.33195216874962
 40
21.33195216874962
 40
21.33195216874962
 10
2316.15481591175
 20
1108.128705592153
 30
-0.0000000000000284
 41
1.573025222750826
 10
2317.238149245083
 20
1110.005093967019
 30
-0.0000000000000142
 41
1.816373071594703
 10
2316.154815911748
 20
1111.881482341884
 30
0.0000000000000142
 41
1.573025222750827
  0
SPLINE
  5
1C53
330
1F
100
AcDbEntity
  8
AM_VIS
100
AcDbSpline
210
0.0
220
0.0000000000000038
230
1.0
 70
    12
 71
     2
 72
     6
 73
     3
 74
     0
 42
0.0000000001
 43
0.0000000001
 40
8.744721748699149
 40
8.744721748699149
 40
8.744721748699149
 40
21.33195216874963
 40
21.33195216874963
 40
21.33195216874963
 10
2316.154815911748
 20
1111.881482341884
 30
0.0000000000000142
 41
1.573025222750827
 10
2317.238149245083
 20
1115.634259091618
 30
-0.0000000000000142
 41
1.816373071594703
 10
2316.154815911748
 20
1119.38703584135
 30
-0.0000000000000142
 41
1.573025222750827
  0
SPLINE
  5
1C54
330
1F
100
AcDbEntity
  8
AM_VIS
100
AcDbSpline
210
0.0
220
0.0
230
1.0
 70
    12
 71
     2
 72
     6
 73
     3
 74
     0
 42
0.0000000001
 43
0.0000000001
 40
8.744721748699145
 40
8.744721748699145
 40
8.744721748699145
 40
21.33195216874966
 40
21.33195216874966
 40
21.33195216874966
 10
2316.154815911749
 20
1119.38703584135
 30
-0.0000000000000142
 41
1.573025222750828
 10
2317.238149245081
 20
1121.263424216216
 30
-0.0000000000000142
 41
1.816373071594705
 10
2316.15481591175
 20
1123.139812591083
 30
-0.0000000000000142
 41
1.573025222750827
  0
LINE
  5
1C55
330
1F
100
AcDbEntity
  8
AM_VIS
100
AcDbLine
 10
2311.879710062647
 20
1109.384259091617
 30
0.0
 11
2312.604604213545
 21
1108.128705592152
 31
0.0
  0
LINE
  5
1C56
330
1F
100
AcDbEntity
  8
AM_VIS
100
AcDbLine
 10
2311.879710062647
 20
1121.884259091618
 30
0.0
 11
2312.604604213545
 21
1123.139812591082
 31
0.0
  0
LINE
  5
1C57
330
1F
100
AcDbEntity
  8
AM_VIS
100
AcDbLine
 10
2316.879710062647
 20
1121.884259091618
 30
0.0
 11
2316.154815911749
 21
1123.139812591082
 31
0.0
  0
LINE
  5
1C58
330
1F
100
AcDbEntity
  8
AM_VIS
100
AcDbLine
 10
2316.879710062647
 20
1109.384259091617
 30
0.0
 11
2316.154815911749
 21
1108.128705592152
 31
0.0
  0
LINE
  5
1C59
330
1F
100
AcDbEntity
  8
AM_VIS
100
AcDbLine
 10
2311.879710062647
 20
1121.884259091618
 30
0.0
 11
2311.879710062647
 21
1109.384259091617
 31
0.0
  0
LINE
  5
1C5A
330
1F
100
AcDbEntity
  8
AM_VIS
100
AcDbLine
 10
2316.879710062647
 20
1109.384259091617
 30
0.0
 11
2316.879710062647
 21
1121.884259091618
 31
0.0
  0
LINE
  5
1C5B
330
1F
100
AcDbEntity
  8
AM_VIS
100
AcDbLine
 10
2312.604604213545
 20
1171.419869804072
 30
0.0
 11
2316.154815911749
 21
1171.419869804072
 31
0.0
  0
LINE
  5
1C5C
330
1F
100
AcDbEntity
  8
AM_VIS
100
AcDbLine
 10
2312.024047629944
 20
1171.419869804072
 30
0.0
 11
2312.604604213545
 21
1171.419869804072
 31
0.0
  0
SPLINE
  5
1C5D
330
1F
100
AcDbEntity
  8
AM_VIS
100
AcDbSpline
210
0.0
220
0.0
230
1.0
 70
    12
 71
     2
 72
     6
 73
     3
 74
     0
 42
0.0000000001
 43
0.0000000001
 40
8.169461582025277
 40
8.169461582025277
 40
8.169461582025277
 40
20.37125551712374
 40
20.37125551712374
 40
20.37125551712374
 10
2312.604604213546
 20
1171.419869804073
 30
-0.0000000000000142
 41
1.528697458380454
 10
2311.521270880212
 20
1168.169869804073
 30
-0.0000000000000142
 41
1.765187778210991
 10
2312.604604213545
 20
1164.919869804072
 30
-0.0000000000000142
 41
1.528697458380454
  0
SPLINE
  5
1C5E
330
1F
100
AcDbEntity
  8
AM_VIS
100
AcDbSpline
210
0.0
220
0.0000000000000044
230
1.0
 70
    12
 71
     2
 72
     6
 73
     3
 74
     0
 42
0.0000000001
 43
0.0000000001
 40
8.169461582025268
 40
8.169461582025268
 40
8.169461582025268
 40
20.37125551712374
 40
20.37125551712374
 40
20.37125551712374
 10
2312.604604213545
 20
1164.919869804072
 30
-0.0000000000000142
 41
1.528697458380454
 10
2311.521270880215
 20
1161.669869804073
 30
-0.0000000000000142
 41
1.765187778210992
 10
2312.604604213546
 20
1158.419869804073
 30
0.0000000000000142
 41
1.528697458380454
  0
LINE
  5
1C5F
330
1F
100
AcDbEntity
  8
AM_VIS
100
AcDbLine
 10
2312.604604213545
 20
1164.919869804073
 30
0.0
 11
2316.154815911749
 21
1164.919869804073
 31
0.0
  0
LINE
  5
1C60
330
1F
100
AcDbEntity
  8
AM_VIS
100
AcDbLine
 10
2312.024047629944
 20
1158.419869804073
 30
0.0
 11
2312.604604213545
 21
1158.419869804073
 31
0.0
  0
LINE
  5
1C61
330
1F
100
AcDbEntity
  8
AM_VIS
100
AcDbLine
 10
2312.604604213545
 20
1158.419869804073
 30
0.0
 11
2316.154815911749
 21
1158.419869804073
 31
0.0
  0
LINE
  5
1C62
330
1F
100
AcDbEntity
  8
AM_VIS
100
AcDbLine
 10
2316.154815911749
 20
1171.419869804072
 30
0.0
 11
2316.73537249535
 21
1171.419869804072
 31
0.0
  0
LINE
  5
1C63
330
1F
100
AcDbEntity
  8
AM_VIS
100
AcDbLine
 10
2316.154815911749
 20
1158.419869804073
 30
0.0
 11
2316.73537249535
 21
1158.419869804073
 31
0.0
  0
SPLINE
  5
1C64
330
1F
100
AcDbEntity
  8
AM_VIS
100
AcDbSpline
210
0.0
220
0.0
230
1.0
 70
    12
 71
     2
 72
     6
 73
     3
 74
     0
 42
0.0000000001
 43
0.0000000001
 40
8.744721748699145
 40
8.744721748699145
 40
8.744721748699145
 40
21.33195216874966
 40
21.33195216874966
 40
21.33195216874966
 10
2316.154815911749
 20
1158.419869804073
 30
-0.0000000000000142
 41
1.573025222750828
 10
2317.238149245081
 20
1161.669869804073
 30
-0.0000000000000142
 41
1.816373071594705
 10
2316.15481591175
 20
1164.919869804073
 30
-0.0000000000000142
 41
1.573025222750827
  0
SPLINE
  5
1C65
330
1F
100
AcDbEntity
  8
AM_VIS
100
AcDbSpline
210
0.0
220
0.0000000000000044
230
1.0
 70
    12
 71
     2
 72
     6
 73
     3
 74
     0
 42
0.0000000001
 43
0.0000000001
 40
8.744721748699138
 40
8.744721748699138
 40
8.744721748699138
 40
21.33195216874963
 40
21.33195216874963
 40
21.33195216874963
 10
2316.154815911749
 20
1164.919869804073
 30
-0.0000000000000142
 41
1.573025222750827
 10
2317.238149245083
 20
1168.169869804072
 30
-0.0000000000000426
 41
1.816373071594703
 10
2316.154815911748
 20
1171.419869804072
 30
-0.0000000000000426
 41
1.573025222750827
  0
LINE
  5
1C66
330
1F
100
AcDbEntity
  8
AM_VIS
100
AcDbLine
 10
2311.879710062647
 20
1158.669869804072
 30
0.0
 11
2312.024047629945
 21
1158.419869804073
 31
0.0
  0
LINE
  5
1C67
330
1F
100
AcDbEntity
  8
AM_VIS
100
AcDbLine
 10
2311.879710062647
 20
1171.169869804073
 30
0.0
 11
2312.024047629945
 21
1171.419869804072
 31
0.0
  0
LINE
  5
1C68
330
1F
100
AcDbEntity
  8
AM_VIS
100
AcDbLine
 10
2316.879710062647
 20
1171.169869804073
 30
0.0
 11
2316.73537249535
 21
1171.419869804072
 31
0.0
  0
LINE
  5
1C69
330
1F
100
AcDbEntity
  8
AM_VIS
100
AcDbLine
 10
2316.879710062647
 20
1158.669869804072
 30
0.0
 11
2316.73537249535
 21
1158.419869804073
 31
0.0
  0
LINE
  5
1C6A
330
1F
100
AcDbEntity
  8
AM_VIS
100
AcDbLine
 10
2311.879710062647
 20
1171.169869804073
 30
0.0
 11
2311.879710062647
 21
1158.669869804072
 31
0.0
  0
LINE
  5
1C6B
330
1F
100
AcDbEntity
  8
AM_VIS
100
AcDbLine
 10
2316.879710062647
 20
1158.669869804072
 30
0.0
 11
2316.879710062647
 21
1171.169869804073
 31
0.0
  0
LINE
  5
1C7A
330
1F
100
AcDbEntity
  8
AM_7
  6
AM_ISO08W050x2
100
AcDbLine
 10
2411.888425197439
 20
1164.919869804073
 30
0.0
 11
2417.938425197439
 21
1164.919869804073
 31
0.0
1001
GENIUS_GENOREF_13
1005
1C7E
  0
LINE
  5
1C7B
330
1F
100
AcDbEntity
  8
AM_7
  6
AM_ISO08W050x2
100
AcDbLine
 10
2411.888425197439
 20
1164.919869804073
 30
0.0
 11
2411.888425197439
 21
1170.969869804072
 31
0.0
1001
GENIUS_GENOREF_13
1005
1C7E
  0
LINE
  5
1C7C
330
1F
100
AcDbEntity
  8
AM_7
  6
AM_ISO08W050x2
100
AcDbLine
 10
2411.888425197439
 20
1164.919869804073
 30
0.0
 11
2405.838425197439
 21
1164.919869804073
 31
0.0
1001
GENIUS_GENOREF_13
1005
1C7E
  0
LINE
  5
1C7D
330
1F
100
AcDbEntity
  8
AM_7
  6
AM_ISO08W050x2
100
AcDbLine
 10
2411.888425197439
 20
1164.919869804073
 30
0.0
 11
2411.888425197439
 21
1158.869869804073
 31
0.0
1001
GENIUS_GENOREF_13
1005
1C7E
  0
POINT
  5
1C7E
330
1F
100
AcDbEntity
  8
0
 60
     1
100
AcDbPoint
 10
0.0
 20
0.0
 30
0.0
1001
GENIUS_GENOENT_13
1002
{
1000
MYREF
1005
1C7E
1002
}
1002
{
1000
GRP
1005
0
1002
}
1001
GENIUS_GENOBJ-N-CRS_13
1002
{
1000
OWNER
1000
GEN
1002
}
1001
GENIUS_GENODEF_13
1002
{
1000
HIER
1070
    10
1002
}
1002
{
1000
MANEDIT
1070
     0
1002
}
1002
{
1000
NOSEL
1070
     0
1002
}
1002
{
1000
BEHIND
1070
     0
1002
}
1002
{
1000
OTHER
1070
     0
1002
}
1002
{
1000
REACTOR
1002
}
1001
GENIUS_GENOLIS_13
1002
{
1000
ENT
1005
1C7D
1005
1C7C
1005
1C7B
1005
1C7A
1002
}
  0
LINE
  5
1C8C
330
1F
100
AcDbEntity
  8
AM_7
  6
AM_ISO08W050x2
100
AcDbLine
 10
2466.888425197439
 20
1164.919869804073
 30
0.0
 11
2472.93842519744
 21
1164.919869804073
 31
0.0
1001
GENIUS_GENOREF_13
1005
1C90
  0
LINE
  5
1C8D
330
1F
100
AcDbEntity
  8
AM_7
  6
AM_ISO08W050x2
100
AcDbLine
 10
2466.888425197439
 20
1164.919869804073
 30
0.0
 11
2466.888425197439
 21
1170.969869804072
 31
0.0
1001
GENIUS_GENOREF_13
1005
1C90
  0
LINE
  5
1C8E
330
1F
100
AcDbEntity
  8
AM_7
  6
AM_ISO08W050x2
100
AcDbLine
 10
2466.888425197439
 20
1164.919869804073
 30
0.0
 11
2460.838425197439
 21
1164.919869804073
 31
0.0
1001
GENIUS_GENOREF_13
1005
1C90
  0
LINE
  5
1C8F
330
1F
100
AcDbEntity
  8
AM_7
  6
AM_ISO08W050x2
100
AcDbLine
 10
2466.888425197439
 20
1164.919869804073
 30
0.0
 11
2466.888425197439
 21
1158.869869804073
 31
0.0
1001
GENIUS_GENOREF_13
1005
1C90
  0
POINT
  5
1C90
330
1F
100
AcDbEntity
  8
0
 60
     1
100
AcDbPoint
 10
0.0
 20
0.0
 30
0.0
1001
GENIUS_GENOLIS_13
1002
{
1000
ENT
1005
1C8F
1005
1C8E
1005
1C8D
1005
1C8C
1002
}
1001
GENIUS_GENODEF_13
1002
{
1000
HIER
1070
    10
1002
}
1002
{
1000
MANEDIT
1070
     0
1002
}
1002
{
1000
NOSEL
1070
     0
1002
}
1002
{
1000
BEHIND
1070
     0
1002
}
1002
{
1000
OTHER
1070
     0
1002
}
1002
{
1000
REACTOR
1002
}
1001
GENIUS_GENOENT_13
1002
{
1000
MYREF
1005
1C90
1002
}
1002
{
1000
GRP
1005
0
1002
}
1001
GENIUS_GENOBJ-N-CRS_13
1002
{
1000
OWNER
1000
GEN
1002
}
  0
LINE
  5
1C9D
330
1F
100
AcDbEntity
  8
AM_7
100
AcDbLine
 10
2364.388425197439
 20
1115.634259091628
 30
0.0
 11
2497.388425197439
 21
1115.634259091628
 31
0.0
1001
GENIUS_GENODEF_13
1002
{
1000
HIER
1070
     0
1002
}
1002
{
1000
MANEDIT
1070
     0
1002
}
1002
{
1000
NOSEL
1070
     0
1002
}
1002
{
1000
BEHIND
1070
     0
1002
}
1002
{
1000
OTHER
1070
     0
1002
}
1002
{
1000
REACTOR
1002
}
1001
GENIUS_GENOBJ-N-CEN_13
1002
{
1000
OWNER
1000
GEN
1002
}
1001
GENIUS_GENCEN_19
1002
{
1040
2.0
1002
}
  0
LINE
  5
1CAA
330
1F
100
AcDbEntity
  8
AM_7
100
AcDbLine
 10
2364.388425197439
 20
1164.919869804073
 30
0.0
 11
2497.388425197439
 21
1164.919869804073
 31
0.0
1001
GENIUS_GENODEF_13
1002
{
1000
HIER
1070
     0
1002
}
1002
{
1000
MANEDIT
1070
     0
1002
}
1002
{
1000
NOSEL
1070
     0
1002
}
1002
{
1000
BEHIND
1070
     0
1002
}
1002
{
1000
OTHER
1070
     0
1002
}
1002
{
1000
REACTOR
1002
}
1001
GENIUS_GENOBJ-N-CEN_13
1002
{
1000
OWNER
1000
GEN
1002
}
1001
GENIUS_GENCEN_19
1002
{
1040
2.0
1002
}
  0
LINE
  5
1CB8
330
1F
100
AcDbEntity
  8
AM_7
  6
AM_ISO08W050x2
100
AcDbLine
 10
2486.388425197439
 20
1115.634259091628
 30
0.0
 11
2492.388425197439
 21
1115.634259091628
 31
0.0
1001
GENIUS_GENOREF_13
1005
1CBC
  0
LINE
  5
1CB9
330
1F
100
AcDbEntity
  8
AM_7
  6
AM_ISO08W050x2
100
AcDbLine
 10
2486.388425197439
 20
1115.634259091628
 30
0.0
 11
2486.388425197439
 21
1121.634259091628
 31
0.0
1001
GENIUS_GENOREF_13
1005
1CBC
  0
LINE
  5
1CBA
330
1F
100
AcDbEntity
  8
AM_7
  6
AM_ISO08W050x2
100
AcDbLine
 10
2486.388425197439
 20
1115.634259091628
 30
0.0
 11
2480.388425197439
 21
1115.634259091628
 31
0.0
1001
GENIUS_GENOREF_13
1005
1CBC
  0
LINE
  5
1CBB
330
1F
100
AcDbEntity
  8
AM_7
  6
AM_ISO08W050x2
100
AcDbLine
 10
2486.388425197439
 20
1115.634259091628
 30
0.0
 11
2486.388425197439
 21
1109.634259091628
 31
0.0
1001
GENIUS_GENOREF_13
1005
1CBC
  0
POINT
  5
1CBC
330
1F
100
AcDbEntity
  8
0
 60
     1
100
AcDbPoint
 10
0.0
 20
0.0
 30
0.0
1001
GENIUS_GENODEF_13
1002
{
1000
HIER
1070
    10
1002
}
1002
{
1000
MANEDIT
1070
     0
1002
}
1002
{
1000
NOSEL
1070
     0
1002
}
1002
{
1000
BEHIND
1070
     0
1002
}
1002
{
1000
OTHER
1070
     0
1002
}
1002
{
1000
REACTOR
1002
}
1001
GENIUS_GENOBJ-N-CRS_13
1002
{
1000
OWNER
1000
GEN
1002
}
1001
GENIUS_GENOENT_13
1002
{
1000
MYREF
1005
1CBC
1002
}
1002
{
1000
GRP
1005
0
1002
}
1001
GENIUS_GENOLIS_13
1002
{
1000
ENT
1005
1CBB
1005
1CBA
1005
1CB9
1005
1CB8
1002
}
  0
LINE
  5
1CCA
330
1F
100
AcDbEntity
  8
AM_7
100
AcDbLine
 10
2538.775117496901
 20
1115.634259091628
 30
0.0
 11
2554.125117496901
 21
1115.634259091628
 31
0.0
1001
GENIUS_GENOREF_13
1005
1CCE
  0
LINE
  5
1CCB
330
1F
100
AcDbEntity
  8
AM_7
100
AcDbLine
 10
2538.775117496901
 20
1115.634259091628
 30
0.0
 11
2538.775117496901
 21
1130.984259091627
 31
0.0
1001
GENIUS_GENOREF_13
1005
1CCE
  0
LINE
  5
1CCC
330
1F
100
AcDbEntity
  8
AM_7
100
AcDbLine
 10
2538.775117496901
 20
1115.634259091628
 30
0.0
 11
2523.425117496901
 21
1115.634259091628
 31
0.0
1001
GENIUS_GENOREF_13
1005
1CCE
  0
LINE
  5
1CCD
330
1F
100
AcDbEntity
  8
AM_7
100
AcDbLine
 10
2538.775117496901
 20
1115.634259091628
 30
0.0
 11
2538.775117496901
 21
1100.284259091628
 31
0.0
1001
GENIUS_GENOREF_13
1005
1CCE
  0
POINT
  5
1CCE
330
1F
100
AcDbEntity
  8
0
 60
     1
100
AcDbPoint
 10
0.0
 20
0.0
 30
0.0
1001
GENIUS_GENOLIS_13
1002
{
1000
ENT
1005
1CCD
1005
1CCC
1005
1CCB
1005
1CCA
1002
}
1001
GENIUS_GENOENT_13
1002
{
1000
MYREF
1005
1CCE
1002
}
1002
{
1000
GRP
1005
0
1002
}
1001
GENIUS_GENOBJ-N-CRS_13
1002
{
1000
OWNER
1000
GEN
1002
}
1001
GENIUS_GENODEF_13
1002
{
1000
HIER
1070
    10
1002
}
1002
{
1000
MANEDIT
1070
     0
1002
}
1002
{
1000
NOSEL
1070
     0
1002
}
1002
{
1000
BEHIND
1070
     0
1002
}
1002
{
1000
OTHER
1070
     0
1002
}
1002
{
1000
REACTOR
1002
}
  0
ARC
  5
1CFE
330
1F
100
AcDbEntity
  8
AM_4
100
AcDbCircle
 10
2466.888425197439
 20
1164.919869804073
 30
0.0
 40
4.863999999999999
100
AcDbArc
 50
260.0
 51
170.0
  0
CIRCLE
  5
1CFF
330
1F
100
AcDbEntity
  8
AM_0
100
AcDbCircle
 10
2466.888425197439
 20
1164.919869804073
 30
0.0
 40
4.283
  0
ARC
  5
1D00
330
1F
100
AcDbEntity
  8
AM_4
100
AcDbCircle
 10
2411.888425197439
 20
1164.919869804073
 30
0.0
 40
4.863999999999999
100
AcDbArc
 50
260.0
 51
170.0
  0
CIRCLE
  5
1D01
330
1F
100
AcDbEntity
  8
AM_0
100
AcDbCircle
 10
2411.888425197439
 20
1164.919869804073
 30
0.0
 40
4.283
  0
LINE
  5
1D0E
330
1F
100
AcDbEntity
  8
AM_7
  6
AM_ISO08W050x2
100
AcDbLine
 10
2334.943874211852
 20
1164.919869804073
 30
0.0
 11
2344.943874211852
 21
1164.919869804073
 31
0.0
1001
GENIUS_GENOBJ-N-CEN_13
1002
{
1000
OWNER
1000
GEN
1002
}
1001
GENIUS_GENODEF_13
1002
{
1000
HIER
1070
     0
1002
}
1002
{
1000
MANEDIT
1070
     0
1002
}
1002
{
1000
NOSEL
1070
     0
1002
}
1002
{
1000
BEHIND
1070
     0
1002
}
1002
{
1000
OTHER
1070
     0
1002
}
1002
{
1000
REACTOR
1002
}
1001
GENIUS_GENCEN_19
1002
{
1040
2.0
1002
}
  0
LINE
  5
1D1B
330
1F
100
AcDbEntity
  8
AM_7
  6
AM_ISO08W050x2
100
AcDbLine
 10
2334.943874211852
 20
1115.634259091617
 30
0.0
 11
2344.943874211852
 21
1115.634259091628
 31
0.0
1001
GENIUS_GENOBJ-N-CEN_13
1002
{
1000
OWNER
1000
GEN
1002
}
1001
GENIUS_GENODEF_13
1002
{
1000
HIER
1070
     0
1002
}
1002
{
1000
MANEDIT
1070
     0
1002
}
1002
{
1000
NOSEL
1070
     0
1002
}
1002
{
1000
BEHIND
1070
     0
1002
}
1002
{
1000
OTHER
1070
     0
1002
}
1002
{
1000
REACTOR
1002
}
1001
GENIUS_GENCEN_19
1002
{
1040
2.0
1002
}
  0
LINE
  5
1D28
330
1F
100
AcDbEntity
  8
AM_7
  6
AM_ISO08W050x2
100
AcDbLine
 10
2309.879710062647
 20
1164.919869804073
 30
0.0
 11
2318.879710062647
 21
1164.919869804073
 31
0.0
1001
GENIUS_GENOBJ-N-CEN_13
1002
{
1000
OWNER
1000
GEN
1002
}
1001
GENIUS_GENODEF_13
1002
{
1000
HIER
1070
     0
1002
}
1002
{
1000
MANEDIT
1070
     0
1002
}
1002
{
1000
NOSEL
1070
     0
1002
}
1002
{
1000
BEHIND
1070
     0
1002
}
1002
{
1000
OTHER
1070
     0
1002
}
1002
{
1000
REACTOR
1002
}
1001
GENIUS_GENCEN_19
1002
{
1040
2.0
1002
}
  0
LINE
  5
1D35
330
1F
100
AcDbEntity
  8
AM_7
  6
AM_ISO08W050x2
100
AcDbLine
 10
2309.879710062647
 20
1115.634259091617
 30
0.0
 11
2318.879710062647
 21
1115.634259091617
 31
0.0
1001
GENIUS_GENODEF_13
1002
{
1000
HIER
1070
     0
1002
}
1002
{
1000
MANEDIT
1070
     0
1002
}
1002
{
1000
NOSEL
1070
     0
1002
}
1002
{
1000
BEHIND
1070
     0
1002
}
1002
{
1000
OTHER
1070
     0
1002
}
1002
{
1000
REACTOR
1002
}
1001
GENIUS_GENOBJ-N-CEN_13
1002
{
1000
OWNER
1000
GEN
1002
}
1001
GENIUS_GENCEN_19
1002
{
1040
2.0
1002
}
  0
LINE
  5
1D58
330
1F
100
AcDbEntity
  8
AM_7
  6
AM_ISO08W050x2
100
AcDbLine
 10
2486.388425197439
 20
1154.446821373426
 30
0.0
 11
2486.388425197439
 21
1175.341096194093
 31
0.0
  0
LINE
  5
1D9D
330
1F
100
AcDbEntity
  8
AM_7
100
AcDbLine
 10
2658.458363680966
 20
882.2816655911973
 30
0.0
 11
2702.658363680966
 21
882.2816655911973
 31
0.0
  0
LINE
  5
1D9E
330
1F
100
AcDbEntity
  8
AM_7
100
AcDbLine
 10
2669.058363680966
 20
882.2816655911973
 30
0.0
 11
2671.058363680967
 21
882.2816655911973
 31
0.0
  0
LINE
  5
1D9F
330
1F
100
AcDbEntity
  8
AM_7
100
AcDbLine
 10
2670.058363680966
 20
881.2816655911971
 30
0.0
 11
2670.058363680966
 21
883.2816655911972
 31
0.0
  0
LINE
  5
1DA0
330
1F
100
AcDbEntity
  8
AM_7
100
AcDbLine
 10
2664.458363680966
 20
882.2816655911973
 30
0.0
 11
2668.258363680966
 21
882.2816655911973
 31
0.0
  0
LINE
  5
1DA1
330
1F
100
AcDbEntity
  8
AM_7
100
AcDbLine
 10
2671.858363680966
 20
882.2816655911973
 30
0.0
 11
2675.658363680966
 21
882.2816655911973
 31
0.0
  0
LINE
  5
1DA2
330
1F
100
AcDbEntity
  8
AM_7
100
AcDbLine
 10
2670.058363680966
 20
876.6816655911974
 30
0.0
 11
2670.058363680966
 21
880.4816655911972
 31
0.0
  0
LINE
  5
1DA3
330
1F
100
AcDbEntity
  8
AM_7
100
AcDbLine
 10
2670.058363680966
 20
884.0816655911973
 30
0.0
 11
2670.058363680966
 21
887.8816655911972
 31
0.0
  0
LINE
  5
1DA4
330
1F
100
AcDbEntity
  8
AM_7
100
AcDbLine
 10
2658.458363680966
 20
912.4958747225882
 30
0.0
 11
2702.658363680966
 21
912.4958747225882
 31
0.0
  0
LINE
  5
1DA5
330
1F
100
AcDbEntity
  8
AM_7
100
AcDbLine
 10
2635.777193191941
 20
882.2816655911973
 30
0.0
 11
2637.77719319194
 21
882.2816655911973
 31
0.0
  0
LINE
  5
1DA6
330
1F
100
AcDbEntity
  8
AM_7
100
AcDbLine
 10
2636.777193191941
 20
881.2816655911971
 30
0.0
 11
2636.777193191941
 21
883.2816655911972
 31
0.0
  0
LINE
  5
1DA7
330
1F
100
AcDbEntity
  8
AM_7
100
AcDbLine
 10
2626.677193191941
 20
882.2816655911973
 30
0.0
 11
2634.977193191941
 21
882.2816655911973
 31
0.0
  0
LINE
  5
1DA8
330
1F
100
AcDbEntity
  8
AM_7
100
AcDbLine
 10
2638.57719319194
 20
882.2816655911973
 30
0.0
 11
2646.877193191941
 21
882.2816655911973
 31
0.0
  0
LINE
  5
1DA9
330
1F
100
AcDbEntity
  8
AM_7
100
AcDbLine
 10
2636.777193191941
 20
872.1816655911974
 30
0.0
 11
2636.777193191941
 21
880.4816655911972
 31
0.0
  0
LINE
  5
1DAA
330
1F
100
AcDbEntity
  8
AM_7
100
AcDbLine
 10
2636.777193191941
 20
884.0816655911973
 30
0.0
 11
2636.777193191941
 21
892.3816655911972
 31
0.0
  0
LINE
  5
1DAB
330
1F
100
AcDbEntity
  8
AM_VIS
100
AcDbLine
 10
2660.058363680966
 20
877.8095296361977
 30
0.0
 11
2660.058363680966
 21
886.7538015461969
 31
0.0
  0
SPLINE
  5
1DAC
330
1F
100
AcDbEntity
  8
AM_VIS
100
AcDbSpline
210
0.0
220
0.0
230
1.0
 70
    12
 71
     2
 72
     6
 73
     3
 74
     0
 42
0.0000000001
 43
0.0000000001
 40
3.811960488939066
 40
3.811960488939066
 40
3.811960488939066
 40
7.641087709465692
 40
7.641087709465692
 40
7.641087709465692
 10
2662.058363680966
 20
889.2098688214728
 30
0.0
 41
1.031611798389212
 10
2660.842925593085
 20
887.8064018070297
 30
0.0
 41
1.031682978463025
 10
2660.058363680966
 20
886.7538015461969
 30
0.0
 41
1.0
  0
SPLINE
  5
1DAD
330
1F
100
AcDbEntity
  8
AM_VIS
100
AcDbSpline
210
0.0
220
0.0
230
1.0
 70
    12
 71
     2
 72
     6
 73
     3
 74
     0
 42
0.0000000001
 43
0.0000000001
 40
0.0
 40
0.0
 40
0.0
 40
3.829127220526625
 40
3.829127220526625
 40
3.829127220526625
 10
2660.058363680966
 20
877.8095296361977
 30
0.0
 41
1.0
 10
2660.842925593085
 20
876.7569293753636
 30
0.0
 41
1.031682978463025
 10
2662.058363680966
 20
875.3534623609217
 30
0.0
 41
1.031611798389212
  0
LINE
  5
1DAE
330
1F
100
AcDbEntity
  8
AM_VIS
100
AcDbLine
 10
2682.058363680966
 20
875.3534623609217
 30
0.0
 11
2662.058363680966
 21
875.3534623609217
 31
0.0
  0
LINE
  5
1DAF
330
1F
100
AcDbEntity
  8
AM_VIS
100
AcDbLine
 10
2662.058363680966
 20
889.2098688214728
 30
0.0
 11
2682.058363680966
 21
889.2098688214728
 31
0.0
  0
LINE
  5
1DB0
330
1F
100
AcDbEntity
  8
AM_VIS
100
AcDbLine
 10
2660.058363680966
 20
876.2816655911972
 30
0.0
 11
2662.058363680966
 21
874.2816655911973
 31
0.0
  0
LINE
  5
1DB1
330
1F
100
AcDbEntity
  8
AM_VIS
100
AcDbLine
 10
2660.058363680966
 20
888.2816655911971
 30
0.0
 11
2662.058363680966
 21
890.2816655911973
 31
0.0
  0
LINE
  5
1DB2
330
1F
100
AcDbEntity
  8
AM_VIS
100
AcDbLine
 10
2701.058363680966
 20
890.2816655911973
 30
0.0
 11
2662.058363680966
 21
890.2816655911973
 31
0.0
  0
LINE
  5
1DB3
330
1F
100
AcDbEntity
  8
AM_VIS
100
AcDbLine
 10
2701.058363680966
 20
874.2816655911973
 30
0.0
 11
2662.058363680966
 21
874.2816655911973
 31
0.0
  0
LINE
  5
1DB4
330
1F
100
AcDbEntity
  8
AM_VIS
100
AcDbLine
 10
2702.058363680966
 20
889.2816655911971
 30
0.0
 11
2701.058363680966
 21
890.2816655911973
 31
0.0
  0
LINE
  5
1DB5
330
1F
100
AcDbEntity
  8
AM_VIS
100
AcDbLine
 10
2702.058363680966
 20
875.2816655911972
 30
0.0
 11
2701.058363680966
 21
874.2816655911973
 31
0.0
  0
LINE
  5
1DB6
330
1F
100
AcDbEntity
  8
AM_VIS
100
AcDbLine
 10
2660.058363680966
 20
877.8095296361977
 30
0.0
 11
2660.058363680966
 21
876.2816655911972
 31
0.0
  0
LINE
  5
1DB7
330
1F
100
AcDbEntity
  8
AM_VIS
100
AcDbLine
 10
2660.058363680966
 20
888.2816655911971
 30
0.0
 11
2660.058363680966
 21
886.7538015461969
 31
0.0
  0
CIRCLE
  5
1DB9
330
1F
100
AcDbEntity
  8
AM_VIS
100
AcDbCircle
 10
2670.058363680966
 20
882.2816655911973
 30
0.0
 40
4.0
  0
LINE
  5
1DBA
330
1F
100
AcDbEntity
  8
AM_VIS
100
AcDbLine
 10
2682.058363680966
 20
875.3534623609217
 30
0.0
 11
2682.058363680966
 21
889.2098688214728
 31
0.0
  0
LINE
  5
1DBB
330
1F
100
AcDbEntity
  8
AM_VIS
100
AcDbLine
 10
2662.058363680966
 20
889.2098688214728
 30
0.0
 11
2662.058363680966
 21
890.2816655911973
 31
0.0
  0
LINE
  5
1DBC
330
1F
100
AcDbEntity
  8
AM_VIS
100
AcDbLine
 10
2662.058363680966
 20
874.2816655911973
 30
0.0
 11
2662.058363680966
 21
875.3534623609217
 31
0.0
  0
LINE
  5
1DBE
330
1F
100
AcDbEntity
  8
AM_VIS
100
AcDbLine
 10
2702.058363680966
 20
889.2816655911971
 30
0.0
 11
2702.058363680966
 21
875.2816655911972
 31
0.0
  0
LINE
  5
1DBF
330
1F
100
AcDbEntity
  8
AM_VIS
100
AcDbLine
 10
2660.058363680966
 20
908.4958747225883
 30
0.0
 11
2662.058363680966
 21
908.4958747225883
 31
0.0
  0
LINE
  5
1DC0
330
1F
100
AcDbEntity
  8
AM_VIS
100
AcDbLine
 10
2660.058363680966
 20
916.4958747225883
 30
0.0
 11
2662.058363680966
 21
916.4958747225883
 31
0.0
  0
LINE
  5
1DC1
330
1F
100
AcDbEntity
  8
AM_VIS
100
AcDbLine
 10
2662.058363680966
 20
908.4958747225883
 30
0.0
 11
2682.058363680966
 21
908.4958747225883
 31
0.0
  0
LINE
  5
1DC2
330
1F
100
AcDbEntity
  8
AM_VIS
100
AcDbLine
 10
2682.058363680966
 20
916.4958747225883
 30
0.0
 11
2662.058363680966
 21
916.4958747225883
 31
0.0
  0
LINE
  5
1DC3
330
1F
100
AcDbEntity
  8
AM_VIS
100
AcDbLine
 10
2701.058363680966
 20
920.4958747225882
 30
0.0
 11
2682.058363680966
 21
920.4958747225882
 31
0.0
  0
LINE
  5
1DC4
330
1F
100
AcDbEntity
  8
AM_VIS
100
AcDbLine
 10
2701.058363680966
 20
904.4958747225882
 30
0.0
 11
2682.058363680966
 21
904.4958747225882
 31
0.0
  0
LINE
  5
1DC5
330
1F
100
AcDbEntity
  8
AM_VIS
100
AcDbLine
 10
2702.058363680966
 20
919.4958747225882
 30
0.0
 11
2701.058363680966
 21
920.4958747225882
 31
0.0
  0
LINE
  5
1DC6
330
1F
100
AcDbEntity
  8
AM_VIS
100
AcDbLine
 10
2702.058363680966
 20
905.4958747225882
 30
0.0
 11
2701.058363680966
 21
904.4958747225882
 31
0.0
  0
LINE
  5
1DC7
330
1F
100
AcDbEntity
  8
AM_VIS
100
AcDbLine
 10
2660.058363680966
 20
916.4958747225883
 30
0.0
 11
2660.058363680966
 21
908.4958747225883
 31
0.0
  0
LINE
  5
1DC8
330
1F
100
AcDbEntity
  8
AM_VIS
100
AcDbLine
 10
2682.058363680966
 20
904.4958747225882
 30
0.0
 11
2682.058363680966
 21
908.4958747225883
 31
0.0
  0
LINE
  5
1DC9
330
1F
100
AcDbEntity
  8
AM_VIS
100
AcDbLine
 10
2662.058363680966
 20
908.4958747225883
 30
0.0
 11
2662.058363680966
 21
916.4958747225883
 31
0.0
  0
LINE
  5
1DCA
330
1F
100
AcDbEntity
  8
AM_VIS
100
AcDbLine
 10
2682.058363680966
 20
916.4958747225883
 30
0.0
 11
2682.058363680966
 21
920.4958747225882
 31
0.0
  0
LINE
  5
1DCC
330
1F
100
AcDbEntity
  8
AM_VIS
100
AcDbLine
 10
2702.058363680966
 20
919.4958747225882
 30
0.0
 11
2702.058363680966
 21
905.4958747225882
 31
0.0
  0
LINE
  5
1DCD
330
1F
100
AcDbEntity
  8
AM_VIS
100
AcDbLine
 10
2640.777193191941
 20
877.8095296361977
 30
0.0
 11
2640.777193191941
 21
886.7538015461969
 31
0.0
  0
LINE
  5
1DCE
330
1F
100
AcDbEntity
  8
AM_VIS
100
AcDbLine
 10
2640.777193191941
 20
889.2098688214728
 30
0.0
 11
2640.777193191941
 21
886.7538015461969
 31
0.0
  0
LINE
  5
1DCF
330
1F
100
AcDbEntity
  8
AM_VIS
100
AcDbLine
 10
2640.777193191941
 20
877.8095296361977
 30
0.0
 11
2640.777193191941
 21
875.3534623609217
 31
0.0
  0
LINE
  5
1DD0
330
1F
100
AcDbEntity
  8
AM_VIS
100
AcDbLine
 10
2632.777193191941
 20
889.2098688214728
 30
0.0
 11
2632.777193191941
 21
886.7538015461969
 31
0.0
  0
LINE
  5
1DD1
330
1F
100
AcDbEntity
  8
AM_VIS
100
AcDbLine
 10
2632.777193191941
 20
886.7538015461969
 30
0.0
 11
2632.777193191941
 21
877.8095296361977
 31
0.0
  0
LINE
  5
1DD2
330
1F
100
AcDbEntity
  8
AM_VIS
100
AcDbLine
 10
2632.777193191941
 20
877.8095296361977
 30
0.0
 11
2632.777193191941
 21
875.3534623609217
 31
0.0
  0
ARC
  5
1DD3
330
1F
100
AcDbEntity
  8
AM_VIS
100
AcDbCircle
 10
2636.777193191941
 20
882.2816655911973
 30
0.0
 40
6.000000000000003
100
AcDbArc
 50
228.1896851042299
 51
311.8103148957701
  0
ARC
  5
1DD4
330
1F
100
AcDbEntity
  8
AM_VIS
100
AcDbCircle
 10
2636.777193191941
 20
882.2816655911973
 30
0.0
 40
6.000000000000003
100
AcDbArc
 50
48.18968510422982
 51
131.8103148957701
  0
ARC
  5
1DD5
330
1F
100
AcDbEntity
  8
AM_VIS
100
AcDbCircle
 10
2636.777193191941
 20
882.2816655911973
 30
0.0
 40
8.0
100
AcDbArc
 50
300.0000000000005
 51
59.99999999999946
  0
ARC
  5
1DD6
330
1F
100
AcDbEntity
  8
AM_VIS
100
AcDbCircle
 10
2636.777193191941
 20
882.2816655911973
 30
0.0
 40
8.0
100
AcDbArc
 50
59.99999999999946
 51
120.0000000000005
  0
ARC
  5
1DD7
330
1F
100
AcDbEntity
  8
AM_VIS
100
AcDbCircle
 10
2636.777193191941
 20
882.2816655911973
 30
0.0
 40
8.0
100
AcDbArc
 50
120.0000000000005
 51
239.9999999999995
  0
ARC
  5
1DD8
330
1F
100
AcDbEntity
  8
AM_VIS
100
AcDbCircle
 10
2636.777193191941
 20
882.2816655911973
 30
0.0
 40
8.0
100
AcDbArc
 50
239.9999999999995
 51
300.0000000000005
  0
LINE
  5
1E31
330
1F
100
AcDbEntity
  8
AM_7
100
AcDbLine
 10
2413.386178734274
 20
882.2816655911973
 30
0.0
 11
2460.046101456148
 21
882.2816655911973
 31
0.0
  0
LINE
  5
1E33
330
1F
100
AcDbEntity
  8
AM_7
100
AcDbLine
 10
2424.260627285128
 20
882.2816655911973
 30
0.0
 11
2426.260627285128
 21
882.2816655911973
 31
0.0
  0
LINE
  5
1E34
330
1F
100
AcDbEntity
  8
AM_7
100
AcDbLine
 10
2425.260627285128
 20
881.2816655911971
 30
0.0
 11
2425.260627285128
 21
883.2816655911972
 31
0.0
  0
LINE
  5
1E35
330
1F
100
AcDbEntity
  8
AM_7
100
AcDbLine
 10
2419.660627285128
 20
882.2816655911973
 30
0.0
 11
2423.460627285128
 21
882.2816655911973
 31
0.0
  0
LINE
  5
1E36
330
1F
100
AcDbEntity
  8
AM_7
100
AcDbLine
 10
2427.060627285128
 20
882.2816655911973
 30
0.0
 11
2430.860627285128
 21
882.2816655911973
 31
0.0
  0
LINE
  5
1E37
330
1F
100
AcDbEntity
  8
AM_7
100
AcDbLine
 10
2425.260627285128
 20
876.6816655911972
 30
0.0
 11
2425.260627285128
 21
880.4816655911972
 31
0.0
  0
LINE
  5
1E38
330
1F
100
AcDbEntity
  8
AM_7
100
AcDbLine
 10
2425.260627285128
 20
884.0816655911972
 30
0.0
 11
2425.260627285128
 21
887.8816655911972
 31
0.0
  0
LINE
  5
1E39
330
1F
100
AcDbEntity
  8
AM_7
100
AcDbLine
 10
2409.857044446948
 20
912.4958747225882
 30
0.0
 11
2459.544542655992
 21
912.4958747225882
 31
0.0
  0
ARC
  5
1E40
330
1F
100
AcDbEntity
  8
AM_4
100
AcDbCircle
 10
2393.720626133622
 20
882.2816655911973
 30
0.0
 40
4.0
100
AcDbArc
 50
259.999999999995
 51
189.9999999999975
  0
LINE
  5
1E41
330
1F
100
AcDbEntity
  8
AM_VIS
100
AcDbLine
 10
2442.770106522033
 20
890.2816655911973
 30
0.0
 11
2444.683277015939
 21
890.2816655911973
 31
0.0
  0
LINE
  5
1E42
330
1F
100
AcDbEntity
  8
AM_VIS
100
AcDbLine
 10
2416.383153195744
 20
890.2816655911973
 30
0.0
 11
2417.751148048222
 21
890.2816655911973
 31
0.0
  0
LINE
  5
1E43
330
1F
100
AcDbEntity
  8
AM_VIS
100
AcDbLine
 10
2416.383153195744
 20
874.2816655911973
 30
0.0
 11
2417.751148048222
 21
874.2816655911973
 31
0.0
  0
LINE
  5
1E44
330
1F
100
AcDbEntity
  8
AM_VIS
100
AcDbLine
 10
2442.770106522033
 20
874.2816655911973
 30
0.0
 11
2444.683277015939
 21
874.2816655911973
 31
0.0
  0
LINE
  5
1E45
330
1F
100
AcDbEntity
  8
AM_VIS
100
AcDbLine
 10
2415.25313831236
 20
888.0299656400595
 30
0.0
 11
2416.378113495251
 21
890.2841806742292
 31
0.0
  0
LINE
  5
1E46
330
1F
100
AcDbEntity
  8
AM_VIS
100
AcDbLine
 10
2415.25313831236
 20
876.5333655423349
 30
0.0
 11
2416.378113495251
 21
874.2791505081651
 31
0.0
  0
LINE
  5
1E47
330
1F
100
AcDbEntity
  8
AM_VIS
100
AcDbLine
 10
2442.770106522033
 20
890.2816655911973
 30
0.0
 11
2417.751148048222
 21
890.2816655911973
 31
0.0
  0
SPLINE
  5
1E48
330
1F
100
AcDbEntity
  8
AM_VIS
100
AcDbSpline
210
0.0
220
0.0
230
1.0
 70
    12
 71
     2
 72
     6
 73
     3
 74
     0
 42
0.0000000001
 43
0.0000000001
 40
2.482096967608274
 40
2.482096967608274
 40
2.482096967608274
 40
21.51790303239173
 40
21.51790303239173
 40
21.51790303239173
 10
2442.770106522033
 20
874.2816655911969
 30
0.0
 41
1.139087296526011
 10
2446.036092845744
 20
882.2816655911976
 30
0.0
 41
1.610912703473988
 10
2442.770106522033
 20
890.2816655911971
 30
0.0
 41
1.139087296526011
  0
LINE
  5
1E49
330
1F
100
AcDbEntity
  8
AM_VIS
100
AcDbLine
 10
2442.770106522033
 20
874.2816655911973
 30
0.0
 11
2417.751148048222
 21
874.2816655911973
 31
0.0
  0
SPLINE
  5
1E4A
330
1F
100
AcDbEntity
  8
AM_VIS
100
AcDbSpline
210
0.0
220
0.0
230
1.0
 70
    12
 71
     2
 72
     6
 73
     3
 74
     0
 42
0.0000000001
 43
0.0000000001
 40
2.482096967608274
 40
2.482096967608274
 40
2.482096967608274
 40
21.51790303239173
 40
21.51790303239173
 40
21.51790303239173
 10
2417.751148048222
 20
890.2816655911976
 30
0.0
 41
1.13908729652601
 10
2414.485161724511
 20
882.2816655911974
 30
0.0
 41
1.610912703473985
 10
2417.751148048223
 20
874.2816655911973
 30
0.0
 41
1.139087296526009
  0
LINE
  5
1E4B
330
1F
100
AcDbEntity
  8
AM_VIS
100
AcDbLine
 10
2445.260627285128
 20
889.2816655911971
 30
0.0
 11
2444.683277015939
 21
890.2816655911973
 31
0.0
  0
LINE
  5
1E4C
330
1F
100
AcDbEntity
  8
AM_VIS
100
AcDbLine
 10
2445.260627285128
 20
875.2816655911972
 30
0.0
 11
2444.683277015939
 21
874.2816655911973
 31
0.0
  0
LINE
  5
1E4D
330
1F
100
AcDbEntity
  8
AM_VIS
100
AcDbLine
 10
2456.260627285128
 20
889.2816655911971
 30
0.0
 11
2445.260627285128
 21
889.2816655911971
 31
0.0
  0
LINE
  5
1E4E
330
1F
100
AcDbEntity
  8
AM_VIS
100
AcDbLine
 10
2456.260627285128
 20
875.2816655911972
 30
0.0
 11
2445.260627285128
 21
875.2816655911972
 31
0.0
  0
LINE
  5
1E4F
330
1F
100
AcDbEntity
  8
AM_VIS
100
AcDbLine
 10
2457.260627285128
 20
888.2816655911971
 30
0.0
 11
2456.260627285128
 21
889.2816655911971
 31
0.0
  0
LINE
  5
1E50
330
1F
100
AcDbEntity
  8
AM_VIS
100
AcDbLine
 10
2457.260627285128
 20
876.2816655911972
 30
0.0
 11
2456.260627285128
 21
875.2816655911972
 31
0.0
  0
LINE
  5
1E51
330
1F
100
AcDbEntity
  8
AM_VIS
100
AcDbLine
 10
2415.260627285128
 20
888.0262282377353
 30
0.0
 11
2415.260627285128
 21
876.5371029446592
 31
0.0
  0
LINE
  5
1E52
330
1F
100
AcDbEntity
  8
AM_VIS
100
AcDbLine
 10
2445.260627285128
 20
875.2816655911972
 30
0.0
 11
2445.260627285128
 21
889.2816655911971
 31
0.0
  0
CIRCLE
  5
1E55
330
1F
100
AcDbEntity
  8
AM_VIS
100
AcDbCircle
 10
2425.260627285128
 20
882.2816655911973
 30
0.0
 40
4.0
  0
LINE
  5
1E56
330
1F
100
AcDbEntity
  8
AM_VIS
100
AcDbLine
 10
2457.260627285128
 20
888.2816655911971
 30
0.0
 11
2457.260627285128
 21
876.2816655911972
 31
0.0
  0
SPLINE
  5
1E57
330
1F
100
AcDbEntity
  8
AM_VIS
100
AcDbSpline
210
0.0
220
0.0
230
1.0
 70
    12
 71
     2
 72
     6
 73
     3
 74
     0
 42
0.0000000001
 43
0.0000000001
 40
2.482096967608271
 40
2.482096967608271
 40
2.482096967608271
 40
21.51790303239172
 40
21.51790303239172
 40
21.51790303239172
 10
2442.770106522033
 20
904.4958747225878
 30
0.0
 41
1.139087296526011
 10
2446.036092845744
 20
912.4958747225878
 30
0.0
 41
1.610912703473988
 10
2442.770106522033
 20
920.4958747225882
 30
0.0
 41
1.139087296526011
  0
SPLINE
  5
1E58
330
1F
100
AcDbEntity
  8
AM_VIS
100
AcDbSpline
210
0.0
220
0.0
230
1.0
 70
    12
 71
     2
 72
     6
 73
     3
 74
     0
 42
0.0000000001
 43
0.0000000001
 40
17.42442914235627
 40
17.42442914235627
 40
17.42442914235627
 40
21.51790303239171
 40
21.51790303239171
 40
21.51790303239171
 10
2416.383153195743
 20
908.4958747225881
 30
0.0
 41
1.298373876248843
 10
2416.839151479903
 20
906.7298009621392
 30
0.0
 41
1.240548982856701
 10
2417.751148048222
 20
904.495874722588
 30
0.0
 41
1.139087296526011
  0
SPLINE
  5
1E59
330
1F
100
AcDbEntity
  8
AM_VIS
100
AcDbSpline
210
0.0
220
0.0
230
1.0
 70
    12
 71
     2
 72
     6
 73
     3
 74
     0
 42
0.0000000001
 43
0.0000000001
 40
2.482096967608264
 40
2.482096967608264
 40
2.482096967608264
 40
6.575570857643704
 40
6.575570857643704
 40
6.575570857643704
 10
2417.751148048222
 20
920.495874722588
 30
0.0
 41
1.139087296526011
 10
2416.839151479904
 20
918.2619484830372
 30
0.0
 41
1.2405489828567
 10
2416.383153195745
 20
916.4958747225883
 30
0.0
 41
1.298373876248843
  0
LINE
  5
1E5A
330
1F
100
AcDbEntity
  8
AM_VIS
100
AcDbLine
 10
2415.260627285128
 20
916.4958747225883
 30
0.0
 11
2416.383153195744
 21
916.4958747225883
 31
0.0
  0
LINE
  5
1E5B
330
1F
100
AcDbEntity
  8
AM_VIS
100
AcDbLine
 10
2416.383153195744
 20
916.4958747225883
 30
0.0
 11
2441.260627285128
 21
916.4958747225883
 31
0.0
  0
LINE
  5
1E5C
330
1F
100
AcDbEntity
  8
AM_VIS
100
AcDbLine
 10
2441.260627285128
 20
916.4958747225883
 30
0.0
 11
2441.260627285128
 21
908.4958747225883
 31
0.0
  0
LINE
  5
1E5D
330
1F
100
AcDbEntity
  8
AM_VIS
100
AcDbLine
 10
2415.260627285128
 20
908.4958747225883
 30
0.0
 11
2416.383153195744
 21
908.4958747225883
 31
0.0
  0
LINE
  5
1E5E
330
1F
100
AcDbEntity
  8
AM_VIS
100
AcDbLine
 10
2441.260627285128
 20
908.4958747225883
 30
0.0
 11
2416.383153195744
 21
908.4958747225883
 31
0.0
  0
LINE
  5
1E5F
330
1F
100
AcDbEntity
  8
AM_VIS
100
AcDbLine
 10
2442.770106522033
 20
904.4958747225882
 30
0.0
 11
2417.751148048222
 21
904.4958747225882
 31
0.0
  0
LINE
  5
1E60
330
1F
100
AcDbEntity
  8
AM_VIS
100
AcDbLine
 10
2442.770106522033
 20
904.4958747225882
 30
0.0
 11
2444.683277015939
 21
904.4958747225882
 31
0.0
  0
LINE
  5
1E61
330
1F
100
AcDbEntity
  8
AM_VIS
100
AcDbLine
 10
2415.837977554317
 20
904.4958747225882
 30
0.0
 11
2417.751148048222
 21
904.4958747225882
 31
0.0
  0
LINE
  5
1E62
330
1F
100
AcDbEntity
  8
AM_VIS
100
AcDbLine
 10
2442.770106522033
 20
920.4958747225882
 30
0.0
 11
2444.683277015939
 21
920.4958747225882
 31
0.0
  0
LINE
  5
1E63
330
1F
100
AcDbEntity
  8
AM_VIS
100
AcDbLine
 10
2442.770106522033
 20
920.4958747225882
 30
0.0
 11
2417.751148048222
 21
920.4958747225882
 31
0.0
  0
LINE
  5
1E64
330
1F
100
AcDbEntity
  8
AM_VIS
100
AcDbLine
 10
2415.837977554317
 20
920.4958747225882
 30
0.0
 11
2417.751148048222
 21
920.4958747225882
 31
0.0
  0
LINE
  5
1E65
330
1F
100
AcDbEntity
  8
AM_VIS
100
AcDbLine
 10
2445.260627285128
 20
919.4958747225882
 30
0.0
 11
2444.683277015939
 21
920.4958747225882
 31
0.0
  0
LINE
  5
1E66
330
1F
100
AcDbEntity
  8
AM_VIS
100
AcDbLine
 10
2445.260627285128
 20
905.4958747225882
 30
0.0
 11
2444.683277015939
 21
904.4958747225882
 31
0.0
  0
LINE
  5
1E67
330
1F
100
AcDbEntity
  8
AM_VIS
100
AcDbLine
 10
2415.260627285128
 20
905.4958747225882
 30
0.0
 11
2415.837977554317
 21
904.4958747225882
 31
0.0
  0
LINE
  5
1E68
330
1F
100
AcDbEntity
  8
AM_VIS
100
AcDbLine
 10
2415.260627285128
 20
919.4958747225882
 30
0.0
 11
2415.837977554317
 21
920.4958747225882
 31
0.0
  0
LINE
  5
1E69
330
1F
100
AcDbEntity
  8
AM_VIS
100
AcDbLine
 10
2456.260627285128
 20
919.4958747225882
 30
0.0
 11
2445.260627285128
 21
919.4958747225882
 31
0.0
  0
LINE
  5
1E6A
330
1F
100
AcDbEntity
  8
AM_VIS
100
AcDbLine
 10
2456.260627285128
 20
905.4958747225882
 30
0.0
 11
2445.260627285128
 21
905.4958747225882
 31
0.0
  0
LINE
  5
1E6B
330
1F
100
AcDbEntity
  8
AM_VIS
100
AcDbLine
 10
2457.260627285128
 20
918.4958747225882
 30
0.0
 11
2456.260627285128
 21
919.4958747225882
 31
0.0
  0
LINE
  5
1E6C
330
1F
100
AcDbEntity
  8
AM_VIS
100
AcDbLine
 10
2457.260627285128
 20
906.4958747225883
 30
0.0
 11
2456.260627285128
 21
905.4958747225882
 31
0.0
  0
LINE
  5
1E6D
330
1F
100
AcDbEntity
  8
AM_VIS
100
AcDbLine
 10
2415.260627285128
 20
908.4958747225883
 30
0.0
 11
2415.260627285128
 21
905.4958747225882
 31
0.0
  0
LINE
  5
1E6E
330
1F
100
AcDbEntity
  8
AM_VIS
100
AcDbLine
 10
2415.260627285128
 20
919.4958747225882
 30
0.0
 11
2415.260627285128
 21
916.4958747225883
 31
0.0
  0
LINE
  5
1E6F
330
1F
100
AcDbEntity
  8
AM_VIS
100
AcDbLine
 10
2445.260627285128
 20
905.4958747225882
 30
0.0
 11
2445.260627285128
 21
919.4958747225882
 31
0.0
  0
LINE
  5
1E71
330
1F
100
AcDbEntity
  8
AM_VIS
100
AcDbLine
 10
2457.260627285128
 20
918.4958747225882
 30
0.0
 11
2457.260627285128
 21
906.4958747225883
 31
0.0
  0
LINE
  5
1E72
330
1F
100
AcDbEntity
  8
AM_VIS
100
AcDbLine
 10
2397.720626133622
 20
890.2816655911973
 30
0.0
 11
2401.720626133622
 21
890.2816655911973
 31
0.0
  0
LINE
  5
1E73
330
1F
100
AcDbEntity
  8
AM_VIS
100
AcDbLine
 10
2385.720626133622
 20
890.2816655911973
 30
0.0
 11
2389.720626133622
 21
890.2816655911973
 31
0.0
  0
LINE
  5
1E74
330
1F
100
AcDbEntity
  8
AM_VIS
100
AcDbLine
 10
2397.720626133622
 20
874.2816655911973
 30
0.0
 11
2401.720626133622
 21
874.2816655911973
 31
0.0
  0
LINE
  5
1E75
330
1F
100
AcDbEntity
  8
AM_VIS
100
AcDbLine
 10
2385.720626133622
 20
874.2816655911973
 30
0.0
 11
2389.720626133622
 21
874.2816655911973
 31
0.0
  0
LINE
  5
1E76
330
1F
100
AcDbEntity
  8
AM_VIS
100
AcDbLine
 10
2389.720626133622
 20
876.5371029446592
 30
0.0
 11
2389.720626133622
 21
874.2816655911973
 31
0.0
  0
LINE
  5
1E77
330
1F
100
AcDbEntity
  8
AM_VIS
100
AcDbLine
 10
2389.720626133622
 20
876.5371029446592
 30
0.0
 11
2389.720626133622
 21
888.0262282377353
 31
0.0
  0
LINE
  5
1E78
330
1F
100
AcDbEntity
  8
AM_VIS
100
AcDbLine
 10
2389.720626133622
 20
890.2816655911973
 30
0.0
 11
2389.720626133622
 21
888.0262282377353
 31
0.0
  0
LINE
  5
1E79
330
1F
100
AcDbEntity
  8
AM_VIS
100
AcDbLine
 10
2397.720626133622
 20
874.2816655911973
 30
0.0
 11
2389.720626133622
 21
874.2816655911973
 31
0.0
  0
LINE
  5
1E7A
330
1F
100
AcDbEntity
  8
AM_VIS
100
AcDbLine
 10
2389.720626133622
 20
890.2816655911973
 30
0.0
 11
2397.720626133622
 21
890.2816655911973
 31
0.0
  0
LINE
  5
1E7B
330
1F
100
AcDbEntity
  8
AM_VIS
100
AcDbLine
 10
2397.720626133622
 20
890.2816655911973
 30
0.0
 11
2397.720626133622
 21
888.0262282377353
 31
0.0
  0
LINE
  5
1E7C
330
1F
100
AcDbEntity
  8
AM_VIS
100
AcDbLine
 10
2397.720626133622
 20
888.0262282377353
 30
0.0
 11
2397.720626133622
 21
876.5371029446592
 31
0.0
  0
LINE
  5
1E7D
330
1F
100
AcDbEntity
  8
AM_VIS
100
AcDbLine
 10
2397.720626133622
 20
876.5371029446592
 30
0.0
 11
2397.720626133622
 21
874.2816655911973
 31
0.0
  0
LINE
  5
1E7E
330
1F
100
AcDbEntity
  8
AM_VIS
100
AcDbLine
 10
2401.720626133622
 20
890.2816655911973
 30
0.0
 11
2401.720626133622
 21
874.2816655911973
 31
0.0
  0
LINE
  5
1E7F
330
1F
100
AcDbEntity
  8
AM_VIS
100
AcDbLine
 10
2385.720626133622
 20
890.2816655911973
 30
0.0
 11
2385.720626133622
 21
874.2816655911973
 31
0.0
  0
ARC
  5
1E80
330
1F
100
AcDbEntity
  8
AM_VIS
100
AcDbCircle
 10
2393.720626133622
 20
882.2816655911973
 30
0.0
 40
7.000000000000004
100
AcDbArc
 50
304.8499045790419
 51
55.1500954209581
  0
ARC
  5
1E81
330
1F
100
AcDbEntity
  8
AM_VIS
100
AcDbCircle
 10
2393.720626133622
 20
882.2816655911973
 30
0.0
 40
7.000000000000004
100
AcDbArc
 50
124.8499045790419
 51
235.1500954209618
  0
CIRCLE
  5
1E82
330
1F
100
AcDbEntity
  8
AM_VIS
100
AcDbCircle
 10
2393.720626133622
 20
882.2816655911973
 30
0.0
 40
3.399999999999999
  0
LINE
  5
1E83
330
1F
100
AcDbEntity
  8
AM_7
100
AcDbLine
 10
2670.058363680966
 20
906.3047048553647
 30
0.0
 11
2670.058363680966
 21
918.0899770132555
 31
0.0
  0
LINE
  5
1E84
330
1F
100
AcDbEntity
  8
AM_7
100
AcDbLine
 10
2425.260627285128
 20
902.7499190541588
 30
0.0
 11
2425.260627285128
 21
909.3972843247579
 31
0.0
  0
LINE
  5
1E85
330
1F
100
AcDbEntity
  8
AM_7
100
AcDbLine
 10
2425.260627285128
 20
922.2418303910176
 30
0.0
 11
2425.260627285128
 21
915.5944651204185
 31
0.0
  0
LINE
  5
1EA8
330
1F
100
AcDbEntity
  8
AM_VIS
100
AcDbLine
 10
2454.015270017299
 20
974.0543800860553
 30
0.0
 11
2400.015270017299
 21
974.0543800860553
 31
0.0
  0
LINE
  5
1EA9
330
1F
100
AcDbEntity
  8
AM_VIS
100
AcDbLine
 10
2395.015270017299
 20
979.0543800860554
 30
0.0
 11
2395.015270017299
 21
1007.054380086055
 31
0.0
  0
LINE
  5
1EAA
330
1F
100
AcDbEntity
  8
AM_VIS
100
AcDbLine
 10
2400.015270017299
 20
1012.054380086055
 30
0.0
 11
2454.015270017299
 21
1012.054380086055
 31
0.0
  0
LINE
  5
1EAB
330
1F
100
AcDbEntity
  8
AM_VIS
100
AcDbLine
 10
2459.015270017299
 20
1007.054380086055
 30
0.0
 11
2459.015270017299
 21
979.0543800860554
 31
0.0
  0
ARC
  5
1EAC
330
1F
100
AcDbEntity
  8
AM_VIS
100
AcDbCircle
 10
2454.015270017299
 20
979.0543800860554
 30
0.0
 40
5.0
100
AcDbArc
 50
270.0
 51
0.0
  0
ARC
  5
1EAD
330
1F
100
AcDbEntity
  8
AM_VIS
100
AcDbCircle
 10
2400.015270017299
 20
979.0543800860554
 30
0.0
 40
5.0
100
AcDbArc
 50
180.0
 51
270.0
  0
ARC
  5
1EAE
330
1F
100
AcDbEntity
  8
AM_VIS
100
AcDbCircle
 10
2400.015270017299
 20
1007.054380086055
 30
0.0
 40
5.0
100
AcDbArc
 50
90.0
 51
180.0
  0
CIRCLE
  5
1EAF
330
1F
100
AcDbEntity
  8
AM_VIS
100
AcDbCircle
 10
2427.015270017299
 20
993.0543800860554
 30
0.0
 40
11.0
  0
CIRCLE
  5
1EB0
330
1F
100
AcDbEntity
  8
AM_VIS
100
AcDbCircle
 10
2402.015270017299
 20
993.0543800860554
 30
0.0
 40
3.299999999999999
  0
CIRCLE
  5
1EB1
330
1F
100
AcDbEntity
  8
AM_VIS
100
AcDbCircle
 10
2452.015270017299
 20
993.0543800860554
 30
0.0
 40
3.299999999999999
  0
ARC
  5
1EB2
330
1F
100
AcDbEntity
  8
AM_VIS
100
AcDbCircle
 10
2454.015270017299
 20
1007.054380086055
 30
0.0
 40
5.0
100
AcDbArc
 50
0.0
 51
90.0
  0
LINE
  5
1EB3
330
1F
100
AcDbEntity
  8
AM_VIS
100
AcDbLine
 10
2454.015270017299
 20
1037.484302231449
 30
0.0
 11
2400.015270017299
 21
1037.484302231449
 31
0.0
  0
LINE
  5
1EB4
330
1F
100
AcDbEntity
  8
AM_VIS
100
AcDbLine
 10
2395.015270017299
 20
1037.484302231449
 30
0.0
 11
2395.015270017299
 21
1032.984302231449
 31
0.0
  0
LINE
  5
1EB5
330
1F
100
AcDbEntity
  8
AM_VIS
100
AcDbLine
 10
2400.015270017299
 20
1032.984302231449
 30
0.0
 11
2454.015270017299
 21
1032.984302231449
 31
0.0
  0
LINE
  5
1EB6
330
1F
100
AcDbEntity
  8
AM_VIS
100
AcDbLine
 10
2459.015270017299
 20
1032.984302231449
 30
0.0
 11
2459.015270017299
 21
1037.484302231449
 31
0.0
  0
LINE
  5
1EB7
330
1F
100
AcDbEntity
  8
AM_VIS
100
AcDbLine
 10
2395.015270017299
 20
1037.484302231449
 30
0.0
 11
2400.015270017299
 21
1037.484302231449
 31
0.0
  0
LINE
  5
1EB8
330
1F
100
AcDbEntity
  8
AM_VIS
100
AcDbLine
 10
2400.015270017299
 20
1032.984302231449
 30
0.0
 11
2395.015270017299
 21
1032.984302231449
 31
0.0
  0
LINE
  5
1EB9
330
1F
100
AcDbEntity
  8
AM_VIS
100
AcDbLine
 10
2454.015270017299
 20
1037.484302231449
 30
0.0
 11
2459.015270017299
 21
1037.484302231449
 31
0.0
  0
LINE
  5
1EBA
330
1F
100
AcDbEntity
  8
AM_VIS
100
AcDbLine
 10
2459.015270017299
 20
1032.984302231449
 30
0.0
 11
2454.015270017299
 21
1032.984302231449
 31
0.0
  0
LINE
  5
1EBB
330
1F
100
AcDbEntity
  8
AM_VIS
100
AcDbLine
 10
2486.313710702202
 20
974.0543800860553
 30
0.0
 11
2490.813710702202
 21
974.0543800860553
 31
0.0
  0
LINE
  5
1EBC
330
1F
100
AcDbEntity
  8
AM_VIS
100
AcDbLine
 10
2490.813710702202
 20
979.0543800860554
 30
0.0
 11
2490.813710702202
 21
1007.054380086055
 31
0.0
  0
LINE
  5
1EBD
330
1F
100
AcDbEntity
  8
AM_VIS
100
AcDbLine
 10
2486.313710702202
 20
1007.054380086055
 30
0.0
 11
2486.313710702202
 21
979.0543800860554
 31
0.0
  0
LINE
  5
1EBE
330
1F
100
AcDbEntity
  8
AM_VIS
100
AcDbLine
 10
2490.813710702202
 20
1012.054380086055
 30
0.0
 11
2486.313710702202
 21
1012.054380086055
 31
0.0
  0
LINE
  5
1EBF
330
1F
100
AcDbEntity
  8
AM_VIS
100
AcDbLine
 10
2490.813710702202
 20
979.0543800860554
 30
0.0
 11
2490.813710702202
 21
974.0543800860553
 31
0.0
  0
LINE
  5
1EC0
330
1F
100
AcDbEntity
  8
AM_VIS
100
AcDbLine
 10
2486.313710702202
 20
974.0543800860553
 30
0.0
 11
2486.313710702202
 21
979.0543800860554
 31
0.0
  0
LINE
  5
1EC1
330
1F
100
AcDbEntity
  8
AM_VIS
100
AcDbLine
 10
2490.813710702202
 20
1012.054380086055
 30
0.0
 11
2490.813710702202
 21
1007.054380086055
 31
0.0
  0
LINE
  5
1EC2
330
1F
100
AcDbEntity
  8
AM_VIS
100
AcDbLine
 10
2486.313710702202
 20
1007.054380086055
 30
0.0
 11
2486.313710702202
 21
1012.054380086055
 31
0.0
  0
LINE
  5
1EDA
330
1F
100
AcDbEntity
  8
AM_7
100
AcDbLine
 10
2427.015270017299
 20
993.0543800860554
 30
0.0
 11
2440.015270017299
 21
993.0543800860554
 31
0.0
1001
GENIUS_GENOREF_13
1005
1EDE
  0
LINE
  5
1EDB
330
1F
100
AcDbEntity
  8
AM_7
100
AcDbLine
 10
2427.015270017299
 20
993.0543800860554
 30
0.0
 11
2427.015270017299
 21
1006.054380086055
 31
0.0
1001
GENIUS_GENOREF_13
1005
1EDE
  0
LINE
  5
1EDC
330
1F
100
AcDbEntity
  8
AM_7
100
AcDbLine
 10
2427.015270017299
 20
993.0543800860554
 30
0.0
 11
2414.015270017299
 21
993.0543800860554
 31
0.0
1001
GENIUS_GENOREF_13
1005
1EDE
  0
LINE
  5
1EDD
330
1F
100
AcDbEntity
  8
AM_7
100
AcDbLine
 10
2427.015270017299
 20
993.0543800860554
 30
0.0
 11
2427.015270017299
 21
980.0543800860554
 31
0.0
1001
GENIUS_GENOREF_13
1005
1EDE
  0
POINT
  5
1EDE
330
1F
100
AcDbEntity
  8
0
 60
     1
100
AcDbPoint
 10
0.0
 20
0.0
 30
0.0
1001
GENIUS_GENODEF_13
1002
{
1000
HIER
1070
    10
1002
}
1002
{
1000
MANEDIT
1070
     0
1002
}
1002
{
1000
NOSEL
1070
     0
1002
}
1002
{
1000
BEHIND
1070
     0
1002
}
1002
{
1000
OTHER
1070
     0
1002
}
1002
{
1000
REACTOR
1002
}
1001
GENIUS_GENOBJ-N-CRS_13
1002
{
1000
OWNER
1000
GEN
1002
}
1001
GENIUS_GENOLIS_13
1002
{
1000
ENT
1005
1EDD
1005
1EDC
1005
1EDB
1005
1EDA
1002
}
1001
GENIUS_GENOENT_13
1002
{
1000
MYREF
1005
1EDE
1002
}
1002
{
1000
GRP
1005
0
1002
}
  0
LINE
  5
1EEC
330
1F
100
AcDbEntity
  8
AM_7
  6
AM_ISO08W050x2
100
AcDbLine
 10
2452.015270017299
 20
993.0543800860554
 30
0.0
 11
2457.315270017299
 21
993.0543800860554
 31
0.0
1001
GENIUS_GENOREF_13
1005
1EF0
  0
LINE
  5
1EED
330
1F
100
AcDbEntity
  8
AM_7
  6
AM_ISO08W050x2
100
AcDbLine
 10
2452.015270017299
 20
993.0543800860554
 30
0.0
 11
2452.015270017299
 21
998.3543800860555
 31
0.0
1001
GENIUS_GENOREF_13
1005
1EF0
  0
LINE
  5
1EEE
330
1F
100
AcDbEntity
  8
AM_7
  6
AM_ISO08W050x2
100
AcDbLine
 10
2452.015270017299
 20
993.0543800860554
 30
0.0
 11
2446.715270017299
 21
993.0543800860554
 31
0.0
1001
GENIUS_GENOREF_13
1005
1EF0
  0
LINE
  5
1EEF
330
1F
100
AcDbEntity
  8
AM_7
  6
AM_ISO08W050x2
100
AcDbLine
 10
2452.015270017299
 20
993.0543800860554
 30
0.0
 11
2452.015270017299
 21
987.7543800860552
 31
0.0
1001
GENIUS_GENOREF_13
1005
1EF0
  0
POINT
  5
1EF0
330
1F
100
AcDbEntity
  8
0
 60
     1
100
AcDbPoint
 10
0.0
 20
0.0
 30
0.0
1001
GENIUS_GENOLIS_13
1002
{
1000
ENT
1005
1EEF
1005
1EEE
1005
1EED
1005
1EEC
1002
}
1001
GENIUS_GENODEF_13
1002
{
1000
HIER
1070
    10
1002
}
1002
{
1000
MANEDIT
1070
     0
1002
}
1002
{
1000
NOSEL
1070
     0
1002
}
1002
{
1000
BEHIND
1070
     0
1002
}
1002
{
1000
OTHER
1070
     0
1002
}
1002
{
1000
REACTOR
1002
}
1001
GENIUS_GENOBJ-N-CRS_13
1002
{
1000
OWNER
1000
GEN
1002
}
1001
GENIUS_GENOENT_13
1002
{
1000
MYREF
1005
1EF0
1002
}
1002
{
1000
GRP
1005
0
1002
}
  0
LINE
  5
1EFE
330
1F
100
AcDbEntity
  8
AM_7
  6
AM_ISO08W050x2
100
AcDbLine
 10
2402.015270017299
 20
993.0543800860554
 30
0.0
 11
2407.315270017299
 21
993.0543800860554
 31
0.0
1001
GENIUS_GENOREF_13
1005
1F02
  0
LINE
  5
1EFF
330
1F
100
AcDbEntity
  8
AM_7
  6
AM_ISO08W050x2
100
AcDbLine
 10
2402.015270017299
 20
993.0543800860554
 30
0.0
 11
2402.015270017299
 21
998.3543800860555
 31
0.0
1001
GENIUS_GENOREF_13
1005
1F02
  0
LINE
  5
1F00
330
1F
100
AcDbEntity
  8
AM_7
  6
AM_ISO08W050x2
100
AcDbLine
 10
2402.015270017299
 20
993.0543800860554
 30
0.0
 11
2396.715270017299
 21
993.0543800860554
 31
0.0
1001
GENIUS_GENOREF_13
1005
1F02
  0
LINE
  5
1F01
330
1F
100
AcDbEntity
  8
AM_7
  6
AM_ISO08W050x2
100
AcDbLine
 10
2402.015270017299
 20
993.0543800860554
 30
0.0
 11
2402.015270017299
 21
987.7543800860552
 31
0.0
1001
GENIUS_GENOREF_13
1005
1F02
  0
POINT
  5
1F02
330
1F
100
AcDbEntity
  8
0
 60
     1
100
AcDbPoint
 10
0.0
 20
0.0
 30
0.0
1001
GENIUS_GENOENT_13
1002
{
1000
MYREF
1005
1F02
1002
}
1002
{
1000
GRP
1005
0
1002
}
1001
GENIUS_GENOBJ-N-CRS_13
1002
{
1000
OWNER
1000
GEN
1002
}
1001
GENIUS_GENOLIS_13
1002
{
1000
ENT
1005
1F01
1005
1F00
1005
1EFF
1005
1EFE
1002
}
1001
GENIUS_GENODEF_13
1002
{
1000
HIER
1070
    10
1002
}
1002
{
1000
MANEDIT
1070
     0
1002
}
1002
{
1000
NOSEL
1070
     0
1002
}
1002
{
1000
BEHIND
1070
     0
1002
}
1002
{
1000
OTHER
1070
     0
1002
}
1002
{
1000
REACTOR
1002
}
  0
LINE
  5
1F03
330
1F
100
AcDbEntity
  8
AM_7
  6
AM_ISO08W050x2
100
AcDbLine
 10
2484.80502027511
 20
993.0543800860554
 30
0.0
 11
2492.284272586357
 21
993.0543800860554
 31
0.0
  0
LINE
  5
1F04
330
1F
100
AcDbEntity
  8
AM_7
100
AcDbLine
 10
2427.015270017299
 20
1029.977526579993
 30
0.0
 11
2427.015270017299
 21
1039.33292701777
 31
0.0
  0
LINE
  5
1F3B
330
1F
100
AcDbEntity
  8
AM_VIS
100
AcDbLine
 10
2689.574401857231
 20
1105.308045967814
 30
0.0
 11
2689.175453584114
 21
1106.308045967814
 31
0.0
  0
LINE
  5
1F3C
330
1F
100
AcDbEntity
  8
AM_VIS
100
AcDbLine
 10
2635.973350130349
 20
1106.308045967814
 30
0.0
 11
2635.574401857231
 21
1105.308045967814
 31
0.0
  0
LINE
  5
1F3D
330
1F
100
AcDbEntity
  8
AM_VIS
100
AcDbLine
 10
2635.574401857231
 20
1105.308045967814
 30
0.0
 11
2635.574401857231
 21
1102.108045967814
 31
0.0
  0
LINE
  5
1F3E
330
1F
100
AcDbEntity
  8
AM_VIS
100
AcDbLine
 10
2688.574401857231
 20
1105.308045967814
 30
0.0
 11
2636.574401857231
 21
1105.308045967814
 31
0.0
  0
LINE
  5
1F3F
330
1F
100
AcDbEntity
  8
AM_VIS
100
AcDbLine
 10
2636.574401857231
 20
1102.108045967814
 30
0.0
 11
2688.574401857231
 21
1102.108045967814
 31
0.0
  0
LINE
  5
1F40
330
1F
100
AcDbEntity
  8
AM_VIS
100
AcDbLine
 10
2689.574401857231
 20
1102.108045967814
 30
0.0
 11
2689.574401857231
 21
1105.308045967814
 31
0.0
  0
LINE
  5
1F41
330
1F
100
AcDbEntity
  8
AM_VIS
100
AcDbLine
 10
2635.973350130349
 20
1106.308045967814
 30
0.0
 11
2646.784578196832
 21
1133.407368849959
 31
0.0
  0
LINE
  5
1F42
330
1F
100
AcDbEntity
  8
AM_VIS
100
AcDbLine
 10
2678.36422551763
 20
1133.407368849959
 30
0.0
 11
2689.175453584114
 21
1106.308045967814
 31
0.0
  0
LINE
  5
1F43
330
1F
100
AcDbEntity
  8
AM_VIS
100
AcDbLine
 10
2635.574401857231
 20
1105.308045967814
 30
0.0
 11
2636.574401857231
 21
1105.308045967814
 31
0.0
  0
LINE
  5
1F44
330
1F
100
AcDbEntity
  8
AM_VIS
100
AcDbLine
 10
2636.574401857231
 20
1102.108045967814
 30
0.0
 11
2635.574401857231
 21
1102.108045967814
 31
0.0
  0
LINE
  5
1F45
330
1F
100
AcDbEntity
  8
AM_VIS
100
AcDbLine
 10
2689.574401857231
 20
1102.108045967814
 30
0.0
 11
2688.574401857231
 21
1102.108045967814
 31
0.0
  0
LINE
  5
1F46
330
1F
100
AcDbEntity
  8
AM_VIS
100
AcDbLine
 10
2688.574401857231
 20
1105.308045967814
 30
0.0
 11
2689.574401857231
 21
1105.308045967814
 31
0.0
  0
ARC
  5
1F47
330
1F
100
AcDbEntity
  8
AM_VIS
100
AcDbCircle
 10
2662.574401857231
 20
1127.108045967814
 30
0.0
 40
17.0
100
AcDbArc
 50
21.7494427993274
 51
158.2505572006726
  0
CIRCLE
  5
1F49
330
1F
100
AcDbEntity
  8
AM_VIS
100
AcDbCircle
 10
2662.574401857231
 20
1127.108045967814
 30
0.0
 40
11.0
  0
LINE
  5
1F4A
330
1F
100
AcDbEntity
  8
AM_VIS
100
AcDbLine
 10
2635.574401857231
 20
1160.275969636145
 30
0.0
 11
2635.574401857231
 21
1178.075969636145
 31
0.0
  0
LINE
  5
1F4B
330
1F
100
AcDbEntity
  8
AM_VIS
100
AcDbLine
 10
2689.574401857231
 20
1178.075969636145
 30
0.0
 11
2689.574401857231
 21
1160.275969636145
 31
0.0
  0
LINE
  5
1F4C
330
1F
100
AcDbEntity
  8
AM_VIS
100
AcDbLine
 10
2689.574401857231
 20
1182.275969636145
 30
0.0
 11
2689.574401857231
 21
1178.075969636145
 31
0.0
  0
LINE
  5
1F4D
330
1F
100
AcDbEntity
  8
AM_VIS
100
AcDbLine
 10
2635.574401857231
 20
1178.075969636145
 30
0.0
 11
2635.574401857231
 21
1182.275969636145
 31
0.0
  0
ELLIPSE
  5
1F4E
330
1F
100
AcDbEntity
  8
AM_VIS
100
AcDbEllipse
 10
2689.175453584114
 20
1178.075969636145
 30
0.0
 11
-0.0000000000000001
 21
0.9999999999999996
 31
0.0
210
0.0
220
0.0
230
1.0
 40
0.3989482731174492
 41
4.712388980384687
 42
6.283185307179585
  0
ELLIPSE
  5
1F4F
330
1F
100
AcDbEntity
  8
AM_VIS
100
AcDbEllipse
 10
2635.973350130349
 20
1178.075969636145
 30
0.0
 11
0.0
 21
-1.0
 31
0.0
210
0.0
220
0.0
230
1.0
 40
0.3989482731174492
 41
3.141592653589794
 42
4.712388980384692
  0
LINE
  5
1F50
330
1F
100
AcDbEntity
  8
AM_VIS
100
AcDbLine
 10
2688.574401857231
 20
1159.275969636145
 30
0.0
 11
2636.574401857231
 21
1159.275969636145
 31
0.0
  0
LINE
  5
1F51
330
1F
100
AcDbEntity
  8
AM_VIS
100
AcDbLine
 10
2635.973350130349
 20
1179.075969636145
 30
0.0
 11
2646.784578196832
 21
1179.075969636145
 31
0.0
  0
LINE
  5
1F52
330
1F
100
AcDbEntity
  8
AM_VIS
100
AcDbLine
 10
2678.36422551763
 20
1179.075969636145
 30
0.0
 11
2689.175453584114
 21
1179.075969636145
 31
0.0
  0
LINE
  5
1F53
330
1F
100
AcDbEntity
  8
AM_VIS
100
AcDbLine
 10
2678.36422551763
 20
1182.275969636145
 30
0.0
 11
2689.574401857231
 21
1182.275969636145
 31
0.0
  0
LINE
  5
1F54
330
1F
100
AcDbEntity
  8
AM_VIS
100
AcDbLine
 10
2635.574401857231
 20
1182.275969636145
 30
0.0
 11
2646.784578196832
 21
1182.275969636145
 31
0.0
  0
ARC
  5
1F55
330
1F
100
AcDbEntity
  8
AM_VIS
100
AcDbCircle
 10
2636.574401857231
 20
1160.275969636145
 30
0.0
 40
0.9999999999999998
100
AcDbArc
 50
180.0
 51
270.0
  0
ARC
  5
1F56
330
1F
100
AcDbEntity
  8
AM_VIS
100
AcDbCircle
 10
2688.574401857231
 20
1160.275969636145
 30
0.0
 40
1.0
100
AcDbArc
 50
270.0
 51
0.0
  0
LINE
  5
1F57
330
1F
100
AcDbEntity
  8
AM_VIS
100
AcDbLine
 10
2678.36422551763
 20
1179.075969636145
 30
0.0
 11
2646.784578196833
 21
1179.075969636145
 31
0.0
  0
LINE
  5
1F58
330
1F
100
AcDbEntity
  8
AM_VIS
100
AcDbLine
 10
2678.36422551763
 20
1182.275969636145
 30
0.0
 11
2646.784578196833
 21
1182.275969636145
 31
0.0
  0
CIRCLE
  5
1F59
330
1F
100
AcDbEntity
  8
AM_VIS
100
AcDbCircle
 10
2642.574401857231
 20
1167.275969636145
 30
0.0
 40
3.299999999999999
  0
CIRCLE
  5
1F5A
330
1F
100
AcDbEntity
  8
AM_VIS
100
AcDbCircle
 10
2682.574401857231
 20
1167.275969636145
 30
0.0
 40
3.299999999999999
  0
LINE
  5
1F5B
330
1F
100
AcDbEntity
  8
AM_VIS
100
AcDbLine
 10
2728.864757153971
 20
1105.308045967814
 30
0.0
 11
2711.064757153971
 21
1105.308045967814
 31
0.0
  0
LINE
  5
1F5C
330
1F
100
AcDbEntity
  8
AM_VIS
100
AcDbLine
 10
2733.064757153972
 20
1105.308045967814
 30
0.0
 11
2728.864757153971
 21
1105.308045967814
 31
0.0
  0
ARC
  5
1F5D
330
1F
100
AcDbEntity
  8
AM_VIS
100
AcDbCircle
 10
2728.864757153971
 20
1106.308045967814
 30
0.0
 40
0.9999999999999996
100
AcDbArc
 50
270.0
 51
0.0
  0
LINE
  5
1F5E
330
1F
100
AcDbEntity
  8
AM_VIS
100
AcDbLine
 10
2711.064757153971
 20
1102.108045967814
 30
0.0
 11
2733.064757153972
 21
1102.108045967814
 31
0.0
  0
LINE
  5
1F5F
330
1F
100
AcDbEntity
  8
AM_VIS
100
AcDbLine
 10
2710.064757153971
 20
1105.308045967814
 30
0.0
 11
2710.064757153971
 21
1102.108045967814
 31
0.0
  0
LINE
  5
1F60
330
1F
100
AcDbEntity
  8
AM_VIS
100
AcDbLine
 10
2729.864757153971
 20
1133.407368849959
 30
0.0
 11
2729.864757153971
 21
1106.308045967814
 31
0.0
  0
LINE
  5
1F61
330
1F
100
AcDbEntity
  8
AM_VIS
100
AcDbLine
 10
2733.064757153972
 20
1133.407368849959
 30
0.0
 11
2733.064757153972
 21
1105.308045967814
 31
0.0
  0
LINE
  5
1F62
330
1F
100
AcDbEntity
  8
AM_VIS
100
AcDbLine
 10
2733.064757153972
 20
1102.108045967814
 30
0.0
 11
2733.064757153972
 21
1105.308045967814
 31
0.0
  0
LINE
  5
1F63
330
1F
100
AcDbEntity
  8
AM_VIS
100
AcDbLine
 10
2733.064757153972
 20
1144.108045967814
 30
0.0
 11
2729.864757153971
 21
1144.108045967814
 31
0.0
  0
LINE
  5
1F64
330
1F
100
AcDbEntity
  8
AM_VIS
100
AcDbLine
 10
2711.064757153971
 20
1102.108045967814
 30
0.0
 11
2710.064757153971
 21
1102.108045967814
 31
0.0
  0
LINE
  5
1F65
330
1F
100
AcDbEntity
  8
AM_VIS
100
AcDbLine
 10
2710.064757153971
 20
1105.308045967814
 30
0.0
 11
2711.064757153971
 21
1105.308045967814
 31
0.0
  0
LINE
  5
1F66
330
1F
100
AcDbEntity
  8
AM_VIS
100
AcDbLine
 10
2729.864757153971
 20
1133.407368849959
 30
0.0
 11
2729.864757153971
 21
1144.108045967814
 31
0.0
  0
LINE
  5
1F67
330
1F
100
AcDbEntity
  8
AM_VIS
100
AcDbLine
 10
2733.064757153972
 20
1133.407368849959
 30
0.0
 11
2733.064757153972
 21
1144.108045967814
 31
0.0
  0
LINE
  5
1F75
330
1F
100
AcDbEntity
  8
AM_7
  6
AM_ISO08W050x2
100
AcDbLine
 10
2642.574401857231
 20
1167.275969636145
 30
0.0
 11
2647.874401857231
 21
1167.275969636145
 31
0.0
1001
GENIUS_GENOREF_13
1005
1F79
  0
LINE
  5
1F76
330
1F
100
AcDbEntity
  8
AM_7
  6
AM_ISO08W050x2
100
AcDbLine
 10
2642.574401857231
 20
1167.275969636145
 30
0.0
 11
2642.574401857231
 21
1172.575969636145
 31
0.0
1001
GENIUS_GENOREF_13
1005
1F79
  0
LINE
  5
1F77
330
1F
100
AcDbEntity
  8
AM_7
  6
AM_ISO08W050x2
100
AcDbLine
 10
2642.574401857231
 20
1167.275969636145
 30
0.0
 11
2637.274401857231
 21
1167.275969636145
 31
0.0
1001
GENIUS_GENOREF_13
1005
1F79
  0
LINE
  5
1F78
330
1F
100
AcDbEntity
  8
AM_7
  6
AM_ISO08W050x2
100
AcDbLine
 10
2642.574401857231
 20
1167.275969636145
 30
0.0
 11
2642.574401857231
 21
1161.975969636145
 31
0.0
1001
GENIUS_GENOREF_13
1005
1F79
  0
POINT
  5
1F79
330
1F
100
AcDbEntity
  8
0
 60
     1
100
AcDbPoint
 10
0.0
 20
0.0
 30
0.0
1001
GENIUS_GENODEF_13
1002
{
1000
HIER
1070
    10
1002
}
1002
{
1000
MANEDIT
1070
     0
1002
}
1002
{
1000
NOSEL
1070
     0
1002
}
1002
{
1000
BEHIND
1070
     0
1002
}
1002
{
1000
OTHER
1070
     0
1002
}
1002
{
1000
REACTOR
1002
}
1001
GENIUS_GENOENT_13
1002
{
1000
MYREF
1005
1F79
1002
}
1002
{
1000
GRP
1005
0
1002
}
1001
GENIUS_GENOBJ-N-CRS_13
1002
{
1000
OWNER
1000
GEN
1002
}
1001
GENIUS_GENOLIS_13
1002
{
1000
ENT
1005
1F78
1005
1F77
1005
1F76
1005
1F75
1002
}
  0
LINE
  5
1F87
330
1F
100
AcDbEntity
  8
AM_7
  6
AM_ISO08W050x2
100
AcDbLine
 10
2682.574401857231
 20
1167.275969636145
 30
0.0
 11
2687.874401857231
 21
1167.275969636145
 31
0.0
1001
GENIUS_GENOREF_13
1005
1F8B
  0
LINE
  5
1F88
330
1F
100
AcDbEntity
  8
AM_7
  6
AM_ISO08W050x2
100
AcDbLine
 10
2682.574401857231
 20
1167.275969636145
 30
0.0
 11
2682.574401857231
 21
1172.575969636145
 31
0.0
1001
GENIUS_GENOREF_13
1005
1F8B
  0
LINE
  5
1F89
330
1F
100
AcDbEntity
  8
AM_7
  6
AM_ISO08W050x2
100
AcDbLine
 10
2682.574401857231
 20
1167.275969636145
 30
0.0
 11
2677.274401857231
 21
1167.275969636145
 31
0.0
1001
GENIUS_GENOREF_13
1005
1F8B
  0
LINE
  5
1F8A
330
1F
100
AcDbEntity
  8
AM_7
  6
AM_ISO08W050x2
100
AcDbLine
 10
2682.574401857231
 20
1167.275969636145
 30
0.0
 11
2682.574401857231
 21
1161.975969636145
 31
0.0
1001
GENIUS_GENOREF_13
1005
1F8B
  0
POINT
  5
1F8B
330
1F
100
AcDbEntity
  8
0
 60
     1
100
AcDbPoint
 10
0.0
 20
0.0
 30
0.0
1001
GENIUS_GENOBJ-N-CRS_13
1002
{
1000
OWNER
1000
GEN
1002
}
1001
GENIUS_GENOLIS_13
1002
{
1000
ENT
1005
1F8A
1005
1F89
1005
1F88
1005
1F87
1002
}
1001
GENIUS_GENODEF_13
1002
{
1000
HIER
1070
    10
1002
}
1002
{
1000
MANEDIT
1070
     0
1002
}
1002
{
1000
NOSEL
1070
     0
1002
}
1002
{
1000
BEHIND
1070
     0
1002
}
1002
{
1000
OTHER
1070
     0
1002
}
1002
{
1000
REACTOR
1002
}
1001
GENIUS_GENOENT_13
1002
{
1000
MYREF
1005
1F8B
1002
}
1002
{
1000
GRP
1005
0
1002
}
  0
LINE
  5
1F99
330
1F
100
AcDbEntity
  8
AM_7
100
AcDbLine
 10
2662.574401857231
 20
1127.108045967814
 30
0.0
 11
2681.574401857231
 21
1127.108045967814
 31
0.0
1001
GENIUS_GENOREF_13
1005
1F9D
  0
LINE
  5
1F9A
330
1F
100
AcDbEntity
  8
AM_7
100
AcDbLine
 10
2662.574401857231
 20
1127.108045967814
 30
0.0
 11
2662.574401857231
 21
1146.108045967814
 31
0.0
1001
GENIUS_GENOREF_13
1005
1F9D
  0
LINE
  5
1F9B
330
1F
100
AcDbEntity
  8
AM_7
100
AcDbLine
 10
2662.574401857231
 20
1127.108045967814
 30
0.0
 11
2643.574401857231
 21
1127.108045967814
 31
0.0
1001
GENIUS_GENOREF_13
1005
1F9D
  0
LINE
  5
1F9C
330
1F
100
AcDbEntity
  8
AM_7
100
AcDbLine
 10
2662.574401857231
 20
1127.108045967814
 30
0.0
 11
2662.574401857231
 21
1108.108045967814
 31
0.0
1001
GENIUS_GENOREF_13
1005
1F9D
  0
POINT
  5
1F9D
330
1F
100
AcDbEntity
  8
0
 60
     1
100
AcDbPoint
 10
0.0
 20
0.0
 30
0.0
1001
GENIUS_GENOBJ-N-CRS_13
1002
{
1000
OWNER
1000
GEN
1002
}
1001
GENIUS_GENOLIS_13
1002
{
1000
ENT
1005
1F9C
1005
1F9B
1005
1F9A
1005
1F99
1002
}
1001
GENIUS_GENOENT_13
1002
{
1000
MYREF
1005
1F9D
1002
}
1002
{
1000
GRP
1005
0
1002
}
1001
GENIUS_GENODEF_13
1002
{
1000
HIER
1070
    10
1002
}
1002
{
1000
MANEDIT
1070
     0
1002
}
1002
{
1000
NOSEL
1070
     0
1002
}
1002
{
1000
BEHIND
1070
     0
1002
}
1002
{
1000
OTHER
1070
     0
1002
}
1002
{
1000
REACTOR
1002
}
  0
LINE
  5
1F9E
330
1F
100
AcDbEntity
  8
AM_7
  6
AM_ISO08W050x2
100
AcDbLine
 10
2642.574401857231
 20
1107.704543455474
 30
0.0
 11
2642.574401857231
 21
1100.552662698324
 31
0.0
  0
LINE
  5
1F9F
330
1F
100
AcDbEntity
  8
AM_7
  6
AM_ISO08W050x2
100
AcDbLine
 10
2682.574401857231
 20
1107.704543455474
 30
0.0
 11
2682.574401857231
 21
1100.552662698324
 31
0.0
  0
LINE
  5
1FA0
330
1F
100
AcDbEntity
  8
AM_7
  6
AM_ISO08W050x2
100
AcDbLine
 10
2718.064757153971
 20
1106.485118304546
 30
0.0
 11
2718.064757153971
 21
1100.655622637874
 31
0.0
  0
LINE
  5
1FA1
330
1F
100
AcDbEntity
  8
AM_7
100
AcDbLine
 10
2727.995722531547
 20
1127.108045967814
 30
0.0
 11
2735.65978020442
 21
1127.108045967814
 31
0.0
  0
LINE
  5
1FA3
330
1F
100
AcDbEntity
  8
AM_7
100
AcDbLine
 10
2662.574401857231
 20
1177.103558018949
 30
0.0
 11
2662.574401857231
 21
1184.051625808808
 31
0.0
  0
LINE
  5
1FD2
330
1F
100
AcDbEntity
  8
AM_VIS
100
AcDbLine
 10
2676.514238328442
 20
948.6290116274865
 30
0.0
 11
2634.514238328442
 21
948.6290116274865
 31
0.0
  0
LINE
  5
1FD3
330
1F
100
AcDbEntity
  8
AM_VIS
100
AcDbLine
 10
2649.514238328443
 20
948.6290116274865
 30
0.0
 11
2649.514238328443
 21
969.4290116274865
 31
0.0
  0
LINE
  5
1FD4
330
1F
100
AcDbEntity
  8
AM_VIS
100
AcDbLine
 10
2664.760205020857
 20
981.2384866467978
 30
0.0
 11
2678.195791002453
 21
948.6290116274865
 31
0.0
  0
LINE
  5
1FD5
330
1F
100
AcDbEntity
  8
AM_VIS
100
AcDbLine
 10
2631.514238328442
 20
948.6290116274865
 30
0.0
 11
2631.514238328442
 21
945.4290116274865
 31
0.0
  0
LINE
  5
1FD6
330
1F
100
AcDbEntity
  8
AM_VIS
100
AcDbLine
 10
2634.514238328442
 20
945.4290116274865
 30
0.0
 11
2676.514238328442
 21
945.4290116274865
 31
0.0
  0
LINE
  5
1FD7
330
1F
100
AcDbEntity
  8
AM_VIS
100
AcDbLine
 10
2679.514238328442
 20
945.4290116274865
 30
0.0
 11
2679.514238328442
 21
948.6290116274867
 31
0.0
  0
ARC
  5
1FD8
330
1F
100
AcDbEntity
  8
AM_VIS
100
AcDbCircle
 10
2655.514238328442
 20
977.4290116274865
 30
0.0
 40
10.0
100
AcDbArc
 50
22.39238545991456
 51
233.1301023541586
  0
CIRCLE
  5
1FD9
330
1F
100
AcDbEntity
  8
AM_VIS
100
AcDbCircle
 10
2655.514238328442
 20
977.4290116274865
 30
0.0
 40
4.0
  0
LINE
  5
1FDA
330
1F
100
AcDbEntity
  8
AM_VIS
100
AcDbLine
 10
2631.514238328442
 20
948.6290116274865
 30
0.0
 11
2634.514238328442
 21
948.6290116274865
 31
0.0
  0
LINE
  5
1FDB
330
1F
100
AcDbEntity
  8
AM_VIS
100
AcDbLine
 10
2634.514238328442
 20
945.4290116274865
 30
0.0
 11
2631.514238328442
 21
945.4290116274865
 31
0.0
  0
LINE
  5
1FDC
330
1F
100
AcDbEntity
  8
AM_VIS
100
AcDbLine
 10
2679.514238328442
 20
945.4290116274865
 30
0.0
 11
2676.514238328442
 21
945.4290116274865
 31
0.0
  0
LINE
  5
1FDD
330
1F
100
AcDbEntity
  8
AM_VIS
100
AcDbLine
 10
2676.514238328442
 20
948.6290116274865
 30
0.0
 11
2679.514238328442
 21
948.6290116274865
 31
0.0
  0
LINE
  5
1FDE
330
1F
100
AcDbEntity
  8
AM_VIS
100
AcDbLine
 10
2676.514238328442
 20
999.0045839092761
 30
0.0
 11
2634.514238328442
 21
999.0045839092761
 31
0.0
  0
LINE
  5
1FDF
330
1F
100
AcDbEntity
  8
AM_VIS
100
AcDbLine
 10
2678.195791002453
 20
1021.004583909276
 30
0.0
 11
2679.514238328442
 21
1021.004583909276
 31
0.0
  0
LINE
  5
1FE0
330
1F
100
AcDbEntity
  8
AM_VIS
100
AcDbLine
 10
2631.514238328442
 20
1021.004583909276
 30
0.0
 11
2645.514238328443
 21
1021.004583909276
 31
0.0
  0
LINE
  5
1FE1
330
1F
100
AcDbEntity
  8
AM_VIS
100
AcDbLine
 10
2664.760205020857
 20
1021.004583909276
 30
0.0
 11
2678.195791002453
 21
1021.004583909276
 31
0.0
  0
LINE
  5
1FE2
330
1F
100
AcDbEntity
  8
AM_VIS
100
AcDbLine
 10
2679.514238328442
 20
1024.504583909276
 30
0.0
 11
2664.760205020857
 21
1024.504583909276
 31
0.0
  0
LINE
  5
1FE3
330
1F
100
AcDbEntity
  8
AM_VIS
100
AcDbLine
 10
2631.514238328442
 20
1002.004583909276
 30
0.0
 11
2631.514238328442
 21
1021.004583909276
 31
0.0
  0
LINE
  5
1FE4
330
1F
100
AcDbEntity
  8
AM_VIS
100
AcDbLine
 10
2679.514238328442
 20
1021.004583909276
 30
0.0
 11
2679.514238328442
 21
1024.504583909276
 31
0.0
  0
LINE
  5
1FE5
330
1F
100
AcDbEntity
  8
AM_VIS
100
AcDbLine
 10
2679.514238328442
 20
1021.004583909276
 30
0.0
 11
2679.514238328442
 21
1002.004583909276
 31
0.0
  0
LINE
  5
1FE6
330
1F
100
AcDbEntity
  8
AM_VIS
100
AcDbLine
 10
2645.514238328443
 20
1021.004583909276
 30
0.0
 11
2645.514238328443
 21
1024.504583909276
 31
0.0
  0
CIRCLE
  5
1FE7
330
1F
100
AcDbEntity
  8
AM_VIS
100
AcDbCircle
 10
2639.514238328442
 20
1007.004583909276
 30
0.0
 40
4.0
  0
CIRCLE
  5
1FE8
330
1F
100
AcDbEntity
  8
AM_VIS
100
AcDbCircle
 10
2671.514238328442
 20
1007.004583909276
 30
0.0
 40
4.0
  0
LINE
  5
1FE9
330
1F
100
AcDbEntity
  8
AM_VIS
100
AcDbLine
 10
2664.760205020857
 20
1021.004583909276
 30
0.0
 11
2645.514238328443
 21
1021.004583909276
 31
0.0
  0
LINE
  5
1FEA
330
1F
100
AcDbEntity
  8
AM_VIS
100
AcDbLine
 10
2645.514238328443
 20
1024.504583909276
 30
0.0
 11
2664.760205020857
 21
1024.504583909276
 31
0.0
  0
ARC
  5
1FEB
330
1F
100
AcDbEntity
  8
AM_VIS
100
AcDbCircle
 10
2634.514238328442
 20
1002.004583909276
 30
0.0
 40
3.0
100
AcDbArc
 50
180.0
 51
270.0
  0
ARC
  5
1FEC
330
1F
100
AcDbEntity
  8
AM_VIS
100
AcDbCircle
 10
2676.514238328442
 20
1002.004583909276
 30
0.0
 40
3.0
100
AcDbArc
 50
270.0
 51
0.0
  0
LINE
  5
1FED
330
1F
100
AcDbEntity
  8
AM_VIS
100
AcDbLine
 10
2719.765766306072
 20
981.2384866467978
 30
0.0
 11
2719.765766306072
 21
948.6290116274865
 31
0.0
  0
LINE
  5
1FEE
330
1F
100
AcDbEntity
  8
AM_VIS
100
AcDbLine
 10
2723.265766306072
 20
945.4290116274865
 30
0.0
 11
2723.265766306072
 21
981.2384866467978
 31
0.0
  0
LINE
  5
1FEF
330
1F
100
AcDbEntity
  8
AM_VIS
100
AcDbLine
 10
2719.765766306072
 20
945.4290116274865
 30
0.0
 11
2723.265766306072
 21
945.4290116274865
 31
0.0
  0
LINE
  5
1FF0
330
1F
100
AcDbEntity
  8
AM_VIS
100
AcDbLine
 10
2719.765766306072
 20
948.6290116274865
 30
0.0
 11
2700.765766306072
 21
948.6290116274865
 31
0.0
  0
LINE
  5
1FF1
330
1F
100
AcDbEntity
  8
AM_VIS
100
AcDbLine
 10
2719.765766306072
 20
945.4290116274865
 30
0.0
 11
2719.765766306072
 21
948.6290116274867
 31
0.0
  0
LINE
  5
1FF2
330
1F
100
AcDbEntity
  8
AM_VIS
100
AcDbLine
 10
2700.765766306072
 20
945.4290116274865
 30
0.0
 11
2719.765766306072
 21
945.4290116274865
 31
0.0
  0
LINE
  5
1FF3
330
1F
100
AcDbEntity
  8
AM_VIS
100
AcDbLine
 10
2697.765766306072
 20
948.6290116274865
 30
0.0
 11
2697.765766306072
 21
945.4290116274865
 31
0.0
  0
LINE
  5
1FF4
330
1F
100
AcDbEntity
  8
AM_VIS
100
AcDbLine
 10
2719.765766306072
 20
987.4290116274865
 30
0.0
 11
2723.265766306072
 21
987.4290116274865
 31
0.0
  0
LINE
  5
1FF5
330
1F
100
AcDbEntity
  8
AM_VIS
100
AcDbLine
 10
2719.765766306072
 20
981.2384866467978
 30
0.0
 11
2719.765766306072
 21
987.4290116274865
 31
0.0
  0
LINE
  5
1FF6
330
1F
100
AcDbEntity
  8
AM_VIS
100
AcDbLine
 10
2723.265766306072
 20
987.4290116274865
 30
0.0
 11
2723.265766306072
 21
981.2384866467978
 31
0.0
  0
LINE
  5
1FF7
330
1F
100
AcDbEntity
  8
AM_VIS
100
AcDbLine
 10
2700.765766306072
 20
945.4290116274865
 30
0.0
 11
2697.765766306072
 21
945.4290116274865
 31
0.0
  0
LINE
  5
1FF8
330
1F
100
AcDbEntity
  8
AM_VIS
100
AcDbLine
 10
2697.765766306072
 20
948.6290116274865
 30
0.0
 11
2700.765766306072
 21
948.6290116274865
 31
0.0
  0
LINE
  5
2006
330
1F
100
AcDbEntity
  8
AM_7
  6
AM_ISO08W050x2
100
AcDbLine
 10
2639.514238328442
 20
1007.004583909276
 30
0.0
 11
2645.514238328442
 21
1007.004583909276
 31
0.0
1001
GENIUS_GENOREF_13
1005
200A
  0
LINE
  5
2007
330
1F
100
AcDbEntity
  8
AM_7
  6
AM_ISO08W050x2
100
AcDbLine
 10
2639.514238328442
 20
1007.004583909276
 30
0.0
 11
2639.514238328442
 21
1013.004583909276
 31
0.0
1001
GENIUS_GENOREF_13
1005
200A
  0
LINE
  5
2008
330
1F
100
AcDbEntity
  8
AM_7
  6
AM_ISO08W050x2
100
AcDbLine
 10
2639.514238328442
 20
1007.004583909276
 30
0.0
 11
2633.514238328442
 21
1007.004583909276
 31
0.0
1001
GENIUS_GENOREF_13
1005
200A
  0
LINE
  5
2009
330
1F
100
AcDbEntity
  8
AM_7
  6
AM_ISO08W050x2
100
AcDbLine
 10
2639.514238328442
 20
1007.004583909276
 30
0.0
 11
2639.514238328442
 21
1001.004583909276
 31
0.0
1001
GENIUS_GENOREF_13
1005
200A
  0
POINT
  5
200A
330
1F
100
AcDbEntity
  8
0
 60
     1
100
AcDbPoint
 10
0.0
 20
0.0
 30
0.0
1001
GENIUS_GENOENT_13
1002
{
1000
MYREF
1005
200A
1002
}
1002
{
1000
GRP
1005
0
1002
}
1001
GENIUS_GENOLIS_13
1002
{
1000
ENT
1005
2009
1005
2008
1005
2007
1005
2006
1002
}
1001
GENIUS_GENOBJ-N-CRS_13
1002
{
1000
OWNER
1000
GEN
1002
}
1001
GENIUS_GENODEF_13
1002
{
1000
HIER
1070
    10
1002
}
1002
{
1000
MANEDIT
1070
     0
1002
}
1002
{
1000
NOSEL
1070
     0
1002
}
1002
{
1000
BEHIND
1070
     0
1002
}
1002
{
1000
OTHER
1070
     0
1002
}
1002
{
1000
REACTOR
1002
}
  0
LINE
  5
2018
330
1F
100
AcDbEntity
  8
AM_7
  6
AM_ISO08W050x2
100
AcDbLine
 10
2671.514238328442
 20
1007.004583909276
 30
0.0
 11
2677.514238328442
 21
1007.004583909276
 31
0.0
1001
GENIUS_GENOREF_13
1005
201C
  0
LINE
  5
2019
330
1F
100
AcDbEntity
  8
AM_7
  6
AM_ISO08W050x2
100
AcDbLine
 10
2671.514238328442
 20
1007.004583909276
 30
0.0
 11
2671.514238328442
 21
1013.004583909276
 31
0.0
1001
GENIUS_GENOREF_13
1005
201C
  0
LINE
  5
201A
330
1F
100
AcDbEntity
  8
AM_7
  6
AM_ISO08W050x2
100
AcDbLine
 10
2671.514238328442
 20
1007.004583909276
 30
0.0
 11
2665.514238328442
 21
1007.004583909276
 31
0.0
1001
GENIUS_GENOREF_13
1005
201C
  0
LINE
  5
201B
330
1F
100
AcDbEntity
  8
AM_7
  6
AM_ISO08W050x2
100
AcDbLine
 10
2671.514238328442
 20
1007.004583909276
 30
0.0
 11
2671.514238328442
 21
1001.004583909276
 31
0.0
1001
GENIUS_GENOREF_13
1005
201C
  0
POINT
  5
201C
330
1F
100
AcDbEntity
  8
0
 60
     1
100
AcDbPoint
 10
0.0
 20
0.0
 30
0.0
1001
GENIUS_GENOLIS_13
1002
{
1000
ENT
1005
201B
1005
201A
1005
2019
1005
2018
1002
}
1001
GENIUS_GENODEF_13
1002
{
1000
HIER
1070
    10
1002
}
1002
{
1000
MANEDIT
1070
     0
1002
}
1002
{
1000
NOSEL
1070
     0
1002
}
1002
{
1000
BEHIND
1070
     0
1002
}
1002
{
1000
OTHER
1070
     0
1002
}
1002
{
1000
REACTOR
1002
}
1001
GENIUS_GENOENT_13
1002
{
1000
MYREF
1005
201C
1002
}
1002
{
1000
GRP
1005
0
1002
}
1001
GENIUS_GENOBJ-N-CRS_13
1002
{
1000
OWNER
1000
GEN
1002
}
  0
LINE
  5
202A
330
1F
100
AcDbEntity
  8
AM_7
100
AcDbLine
 10
2655.514238328442
 20
977.4290116274865
 30
0.0
 11
2667.514238328442
 21
977.4290116274865
 31
0.0
1001
GENIUS_GENOREF_13
1005
202E
  0
LINE
  5
202B
330
1F
100
AcDbEntity
  8
AM_7
100
AcDbLine
 10
2655.514238328442
 20
977.4290116274865
 30
0.0
 11
2655.514238328442
 21
989.4290116274866
 31
0.0
1001
GENIUS_GENOREF_13
1005
202E
  0
LINE
  5
202C
330
1F
100
AcDbEntity
  8
AM_7
100
AcDbLine
 10
2655.514238328442
 20
977.4290116274865
 30
0.0
 11
2643.514238328443
 21
977.4290116274865
 31
0.0
1001
GENIUS_GENOREF_13
1005
202E
  0
LINE
  5
202D
330
1F
100
AcDbEntity
  8
AM_7
100
AcDbLine
 10
2655.514238328442
 20
977.4290116274865
 30
0.0
 11
2655.514238328442
 21
965.4290116274866
 31
0.0
1001
GENIUS_GENOREF_13
1005
202E
  0
POINT
  5
202E
330
1F
100
AcDbEntity
  8
0
 60
     1
100
AcDbPoint
 10
0.0
 20
0.0
 30
0.0
1001
GENIUS_GENODEF_13
1002
{
1000
HIER
1070
    10
1002
}
1002
{
1000
MANEDIT
1070
     0
1002
}
1002
{
1000
NOSEL
1070
     0
1002
}
1002
{
1000
BEHIND
1070
     0
1002
}
1002
{
1000
OTHER
1070
     0
1002
}
1002
{
1000
REACTOR
1002
}
1001
GENIUS_GENOLIS_13
1002
{
1000
ENT
1005
202D
1005
202C
1005
202B
1005
202A
1002
}
1001
GENIUS_GENOENT_13
1002
{
1000
MYREF
1005
202E
1002
}
1002
{
1000
GRP
1005
0
1002
}
1001
GENIUS_GENOBJ-N-CRS_13
1002
{
1000
OWNER
1000
GEN
1002
}
  0
LINE
  5
202F
330
1F
100
AcDbEntity
  8
AM_7
100
AcDbLine
 10
2655.514238328442
 20
1018.42860888947
 30
0.0
 11
2655.514238328442
 21
1026.786575024213
 31
0.0
  0
LINE
  5
2030
330
1F
100
AcDbEntity
  8
AM_7
  6
AM_ISO08W050x2
100
AcDbLine
 10
2639.514238328442
 20
949.7613775052967
 30
0.0
 11
2639.514238328442
 21
943.7613775052966
 31
0.0
  0
LINE
  5
2031
330
1F
100
AcDbEntity
  8
AM_7
  6
AM_ISO08W050x2
100
AcDbLine
 10
2671.514238328442
 20
949.7613775052967
 30
0.0
 11
2671.514238328442
 21
943.7613775052966
 31
0.0
  0
LINE
  5
2033
330
1F
100
AcDbEntity
  8
AM_7
100
AcDbLine
 10
2717.245499337696
 20
977.4290116274865
 30
0.0
 11
2726.180810593801
 21
977.4290116274865
 31
0.0
  0
LINE
  5
2034
330
1F
100
AcDbEntity
  8
AM_7
  6
AM_ISO08W050x2
100
AcDbLine
 10
2705.765766306072
 20
949.7613775052967
 30
0.0
 11
2705.765766306072
 21
943.7613775052966
 31
0.0
  0
DIMENSION
  5
2045
102
{ACAD_XDICTIONARY
360
2052
102
}
102
{ACAD_REACTORS
330
2053
102
}
330
1F
100
AcDbEntity
  8
AM_5
100
AcDbDimension
  2
*D5
 10
2495.388425197439
 20
1090.284259091627
 30
0.0
 11
2430.888425197439
 21
1092.784554367218
 31
0.0
 70
    32
  1
<>+stroke
 71
     5
 42
129.0
  3
AM_ISO$0
100
AcDbAlignedDimension
 13
2366.388425197439
 23
1112.734259091628
 33
0.0
 14
2495.388425197439
 24
1106.134259091628
 34
0.0
 50
0.0000000000001018
100
AcDbRotatedDimension
1001
ACAD
1000
DSTYLE
1002
{
1070
    40
1040
1.0
1070
   144
1040
1.0
1070
   272
1070
     8
1002
}
  0
DIMENSION
  5
2078
102
{ACAD_XDICTIONARY
360
2085
102
}
102
{ACAD_REACTORS
330
2086
102
}
330
1F
100
AcDbEntity
  8
AM_5
100
AcDbDimension
  2
*D6
 10
2546.775117496901
 20
1090.284259091628
 30
0.0
 11
2538.775117496901
 21
1093.601630710036
 31
0.0
 70
    32
  1
<>{}{\H0.71x;\C3;\S-0.05^ -0.4;}
 71
     5
 42
16.0
  3
AM_ISO$0
100
AcDbAlignedDimension
 13
2530.775117496901
 23
1108.084424656357
 33
0.0
 14
2546.775117496901
 24
1108.084424656357
 34
0.0
 50
0.0000000000001018
100
AcDbRotatedDimension
1001
ACAD
1000
DSTYLE
1002
{
1070
   286
1070
     0
1070
   284
1070
     8
1070
   274
1070
     2
1070
    47
1040
-0.05
1070
    48
1040
0.4
1070
   272
1070
     8
1002
}
1001
GENIUS_GENDTOL_13
1000
TolSmNrm
1000

1000
{\H0.71x;$2\S$+$P^ $-$M;}
1040
16.0
  0
INSERT
  5
20AE
330
1F
100
AcDbEntity
  8
AM_5
100
AcDbBlockReference
  2
*S9
 10
0.0
 20
0.0
 30
0.0
  0
TEXT
  5
20AF
330
1F
100
AcDbEntity
  8
AM_5
100
AcDbText
 10
2478.493928667868
 20
1185.798030634854
 30
0.0
 40
3.0
  1
2-PT1/8
100
AcDbText
  0
DIMENSION
  5
20B5
102
{ACAD_XDICTIONARY
360
20BE
102
}
102
{ACAD_REACTORS
330
20BF
102
}
330
1F
100
AcDbEntity
  8
AM_5
100
AcDbDimension
  2
*D7
 10
2484.325940017698
 20
1112.206992705227
 30
0.0
 11
2500.963486160177
 21
1131.354206736428
 31
0.0
 70
   163
  1
<>{}{\H0.71x;\C3; H9}
 71
     5
 42
8.000000000001364
  3
AM_ISO$3
100
AcDbDiametricDimension
 15
2488.450910377181
 25
1119.061525478028
 35
0.0
 40
0.0
1001
GENIUS_GENDTOL_13
1000
FitSmTxt
1000
H9
1000
{\H0.71x;$2 $T}
1040
8.0
1001
ACAD
1000
DSTYLE
1002
{
1070
   286
1070
     0
1070
   284
1070
     8
1070
    47
1040
0.03
1070
    48
1040
0.0
1070
   272
1070
     8
1070
   274
1070
     3
1002
}
  0
INSERT
  5
2118
330
1F
100
AcDbEntity
  8
AM_5
100
AcDbBlockReference
  2
*S10
 10
0.0
 20
0.0
 30
0.0
  0
TEXT
  5
2119
330
1F
100
AcDbEntity
  8
AM_5
100
AcDbText
 10
2385.684490401914
 20
1134.612129033996
 30
0.0
 40
3.0
  1
M8x1.25
100
AcDbText
  0
LINE
  5
2232
330
1F
100
AcDbEntity
  8
AM_7
100
AcDbLine
 10
2393.720626133622
 20
882.2816655911973
 30
0.0
 11
2404.376422275124
 21
882.2816655911973
 31
0.0
1001
GENIUS_GENOREF_13
1005
2236
  0
LINE
  5
2233
330
1F
100
AcDbEntity
  8
AM_7
100
AcDbLine
 10
2393.720626133622
 20
882.2816655911973
 30
0.0
 11
2393.720626133622
 21
892.937461732699
 31
0.0
1001
GENIUS_GENOREF_13
1005
2236
  0
LINE
  5
2234
330
1F
100
AcDbEntity
  8
AM_7
100
AcDbLine
 10
2393.720626133622
 20
882.2816655911973
 30
0.0
 11
2383.06482999212
 21
882.2816655911973
 31
0.0
1001
GENIUS_GENOREF_13
1005
2236
  0
LINE
  5
2235
330
1F
100
AcDbEntity
  8
AM_7
100
AcDbLine
 10
2393.720626133622
 20
882.2816655911973
 30
0.0
 11
2393.720626133622
 21
871.6258694496954
 31
0.0
1001
GENIUS_GENOREF_13
1005
2236
  0
POINT
  5
2236
330
1F
100
AcDbEntity
  8
0
 60
     1
100
AcDbPoint
 10
0.0
 20
0.0
 30
0.0
1001
GENIUS_GENOENT_13
1002
{
1000
MYREF
1005
2236
1002
}
1002
{
1000
GRP
1005
0
1002
}
1001
GENIUS_GENODEF_13
1002
{
1000
HIER
1070
    10
1002
}
1002
{
1000
MANEDIT
1070
     0
1002
}
1002
{
1000
NOSEL
1070
     0
1002
}
1002
{
1000
BEHIND
1070
     0
1002
}
1002
{
1000
OTHER
1070
     0
1002
}
1002
{
1000
REACTOR
1002
}
1001
GENIUS_GENOLIS_13
1002
{
1000
ENT
1005
2235
1005
2234
1005
2233
1005
2232
1002
}
1001
GENIUS_GENOBJ-N-CRS_13
1002
{
1000
OWNER
1000
GEN
1002
}
  0
LINE
  5
223B
330
1F
100
AcDbEntity
  8
AM_VIS
100
AcDbLine
 10
2736.765766306072
 20
981.2384866467978
 30
0.0
 11
2736.765766306072
 21
948.6290116274865
 31
0.0
  0
LINE
  5
223C
330
1F
100
AcDbEntity
  8
AM_VIS
100
AcDbLine
 10
2733.265766306072
 20
945.4290116274865
 30
0.0
 11
2733.265766306072
 21
981.2384866467978
 31
0.0
  0
LINE
  5
223D
330
1F
100
AcDbEntity
  8
AM_VIS
100
AcDbLine
 10
2736.765766306072
 20
945.4290116274865
 30
0.0
 11
2733.265766306072
 21
945.4290116274865
 31
0.0
  0
LINE
  5
223E
330
1F
100
AcDbEntity
  8
AM_VIS
100
AcDbLine
 10
2736.765766306072
 20
948.6290116274865
 30
0.0
 11
2755.765766306072
 21
948.6290116274865
 31
0.0
  0
LINE
  5
223F
330
1F
100
AcDbEntity
  8
AM_VIS
100
AcDbLine
 10
2736.765766306072
 20
945.4290116274865
 30
0.0
 11
2736.765766306072
 21
948.6290116274867
 31
0.0
  0
LINE
  5
2240
330
1F
100
AcDbEntity
  8
AM_VIS
100
AcDbLine
 10
2755.765766306072
 20
945.4290116274865
 30
0.0
 11
2736.765766306072
 21
945.4290116274865
 31
0.0
  0
LINE
  5
2241
330
1F
100
AcDbEntity
  8
AM_VIS
100
AcDbLine
 10
2758.765766306072
 20
948.6290116274865
 30
0.0
 11
2758.765766306072
 21
945.4290116274865
 31
0.0
  0
LINE
  5
2242
330
1F
100
AcDbEntity
  8
AM_VIS
100
AcDbLine
 10
2736.765766306072
 20
987.4290116274865
 30
0.0
 11
2733.265766306072
 21
987.4290116274865
 31
0.0
  0
LINE
  5
2243
330
1F
100
AcDbEntity
  8
AM_VIS
100
AcDbLine
 10
2736.765766306072
 20
981.2384866467978
 30
0.0
 11
2736.765766306072
 21
987.4290116274865
 31
0.0
  0
LINE
  5
2244
330
1F
100
AcDbEntity
  8
AM_VIS
100
AcDbLine
 10
2733.265766306072
 20
987.4290116274865
 30
0.0
 11
2733.265766306072
 21
981.2384866467978
 31
0.0
  0
LINE
  5
2245
330
1F
100
AcDbEntity
  8
AM_VIS
100
AcDbLine
 10
2755.765766306072
 20
945.4290116274865
 30
0.0
 11
2758.765766306072
 21
945.4290116274865
 31
0.0
  0
LINE
  5
2246
330
1F
100
AcDbEntity
  8
AM_VIS
100
AcDbLine
 10
2758.765766306072
 20
948.6290116274865
 30
0.0
 11
2755.765766306072
 21
948.6290116274865
 31
0.0
  0
LINE
  5
2247
330
1F
100
AcDbEntity
  8
AM_7
100
AcDbLine
 10
2739.286033274448
 20
977.4290116274865
 30
0.0
 11
2730.350722018342
 21
977.4290116274865
 31
0.0
  0
LINE
  5
2248
330
1F
100
AcDbEntity
  8
AM_7
  6
AM_ISO08W050x2
100
AcDbLine
 10
2750.765766306072
 20
949.7613775052967
 30
0.0
 11
2750.765766306072
 21
943.7613775052966
 31
0.0
  0
LINE
  5
2249
330
1F
100
AcDbEntity
  8
AM_VIS
100
AcDbLine
 10
2676.514238328442
 20
1060.004583909276
 30
0.0
 11
2634.514238328442
 21
1060.004583909276
 31
0.0
  0
LINE
  5
224A
330
1F
100
AcDbEntity
  8
AM_VIS
100
AcDbLine
 10
2678.195791002453
 20
1038.004583909276
 30
0.0
 11
2679.514238328442
 21
1038.004583909276
 31
0.0
  0
LINE
  5
224B
330
1F
100
AcDbEntity
  8
AM_VIS
100
AcDbLine
 10
2631.514238328442
 20
1038.004583909276
 30
0.0
 11
2645.514238328443
 21
1038.004583909276
 31
0.0
  0
LINE
  5
224C
330
1F
100
AcDbEntity
  8
AM_VIS
100
AcDbLine
 10
2664.760205020857
 20
1038.004583909276
 30
0.0
 11
2678.195791002453
 21
1038.004583909276
 31
0.0
  0
LINE
  5
224D
330
1F
100
AcDbEntity
  8
AM_VIS
100
AcDbLine
 10
2679.514238328442
 20
1034.504583909276
 30
0.0
 11
2664.760205020857
 21
1034.504583909276
 31
0.0
  0
LINE
  5
224E
330
1F
100
AcDbEntity
  8
AM_VIS
100
AcDbLine
 10
2631.514238328442
 20
1057.004583909276
 30
0.0
 11
2631.514238328442
 21
1038.004583909276
 31
0.0
  0
LINE
  5
224F
330
1F
100
AcDbEntity
  8
AM_VIS
100
AcDbLine
 10
2679.514238328442
 20
1038.004583909276
 30
0.0
 11
2679.514238328442
 21
1034.504583909276
 31
0.0
  0
LINE
  5
2250
330
1F
100
AcDbEntity
  8
AM_VIS
100
AcDbLine
 10
2679.514238328442
 20
1038.004583909276
 30
0.0
 11
2679.514238328442
 21
1057.004583909276
 31
0.0
  0
LINE
  5
2251
330
1F
100
AcDbEntity
  8
AM_VIS
100
AcDbLine
 10
2645.514238328443
 20
1038.004583909276
 30
0.0
 11
2645.514238328443
 21
1034.504583909276
 31
0.0
  0
CIRCLE
  5
2252
330
1F
100
AcDbEntity
  8
AM_VIS
100
AcDbCircle
 10
2639.514238328442
 20
1052.004583909276
 30
0.0
 40
4.0
  0
CIRCLE
  5
2253
330
1F
100
AcDbEntity
  8
AM_VIS
100
AcDbCircle
 10
2671.514238328442
 20
1052.004583909276
 30
0.0
 40
4.0
  0
LINE
  5
2254
330
1F
100
AcDbEntity
  8
AM_VIS
100
AcDbLine
 10
2664.760205020857
 20
1038.004583909276
 30
0.0
 11
2645.514238328443
 21
1038.004583909276
 31
0.0
  0
LINE
  5
2255
330
1F
100
AcDbEntity
  8
AM_VIS
100
AcDbLine
 10
2645.514238328443
 20
1034.504583909276
 30
0.0
 11
2664.760205020857
 21
1034.504583909276
 31
0.0
  0
ARC
  5
2256
330
1F
100
AcDbEntity
  8
AM_VIS
100
AcDbCircle
 10
2634.514238328442
 20
1057.004583909276
 30
0.0
 40
3.0
100
AcDbArc
 50
90.00000000000003
 51
180.0
  0
ARC
  5
2257
330
1F
100
AcDbEntity
  8
AM_VIS
100
AcDbCircle
 10
2676.514238328442
 20
1057.004583909276
 30
0.0
 40
3.0
100
AcDbArc
 50
0.0
 51
90.00000000000003
  0
LINE
  5
2258
330
1F
100
AcDbEntity
  8
AM_7
  6
AM_ISO08W050x2
100
AcDbLine
 10
2639.514238328442
 20
1052.004583909276
 30
0.0
 11
2645.514238328442
 21
1052.004583909276
 31
0.0
1001
GENIUS_GENOREF_13
1005
2262
  0
LINE
  5
2259
330
1F
100
AcDbEntity
  8
AM_7
  6
AM_ISO08W050x2
100
AcDbLine
 10
2639.514238328442
 20
1052.004583909276
 30
0.0
 11
2639.514238328442
 21
1046.004583909276
 31
0.0
1001
GENIUS_GENOREF_13
1005
2262
  0
LINE
  5
225A
330
1F
100
AcDbEntity
  8
AM_7
  6
AM_ISO08W050x2
100
AcDbLine
 10
2639.514238328442
 20
1052.004583909276
 30
0.0
 11
2633.514238328442
 21
1052.004583909276
 31
0.0
1001
GENIUS_GENOREF_13
1005
2262
  0
LINE
  5
225B
330
1F
100
AcDbEntity
  8
AM_7
  6
AM_ISO08W050x2
100
AcDbLine
 10
2639.514238328442
 20
1052.004583909276
 30
0.0
 11
2639.514238328442
 21
1058.004583909276
 31
0.0
1001
GENIUS_GENOREF_13
1005
2262
  0
LINE
  5
225C
330
1F
100
AcDbEntity
  8
AM_7
  6
AM_ISO08W050x2
100
AcDbLine
 10
2671.514238328442
 20
1052.004583909276
 30
0.0
 11
2677.514238328442
 21
1052.004583909276
 31
0.0
1001
GENIUS_GENOREF_13
1005
2261
  0
LINE
  5
225D
330
1F
100
AcDbEntity
  8
AM_7
  6
AM_ISO08W050x2
100
AcDbLine
 10
2671.514238328442
 20
1052.004583909276
 30
0.0
 11
2671.514238328442
 21
1046.004583909276
 31
0.0
1001
GENIUS_GENOREF_13
1005
2261
  0
LINE
  5
225E
330
1F
100
AcDbEntity
  8
AM_7
  6
AM_ISO08W050x2
100
AcDbLine
 10
2671.514238328442
 20
1052.004583909276
 30
0.0
 11
2665.514238328442
 21
1052.004583909276
 31
0.0
1001
GENIUS_GENOREF_13
1005
2261
  0
LINE
  5
225F
330
1F
100
AcDbEntity
  8
AM_7
  6
AM_ISO08W050x2
100
AcDbLine
 10
2671.514238328442
 20
1052.004583909276
 30
0.0
 11
2671.514238328442
 21
1058.004583909276
 31
0.0
1001
GENIUS_GENOREF_13
1005
2261
  0
LINE
  5
2260
330
1F
100
AcDbEntity
  8
AM_7
100
AcDbLine
 10
2655.514238328442
 20
1040.580558929082
 30
0.0
 11
2655.514238328442
 21
1032.222592794339
 31
0.0
  0
POINT
  5
2261
330
1F
100
AcDbEntity
  8
0
 60
     1
100
AcDbPoint
 10
0.0
 20
2088.505004607247
 30
0.0
1001
GENIUS_GENOLIS_13
1002
{
1000
ENT
1005
225F
1005
225E
1005
225D
1005
225C
1002
}
1001
GENIUS_GENODEF_13
1002
{
1000
HIER
1070
    10
1002
}
1002
{
1000
MANEDIT
1070
     0
1002
}
1002
{
1000
NOSEL
1070
     0
1002
}
1002
{
1000
BEHIND
1070
     0
1002
}
1002
{
1000
OTHER
1070
     0
1002
}
1002
{
1000
REACTOR
1002
}
1001
GENIUS_GENOENT_13
1002
{
1000
MYREF
1005
2261
1002
}
1002
{
1000
GRP
1005
0
1002
}
1001
GENIUS_GENOBJ-N-CRS_13
1002
{
1000
OWNER
1000
GEN
1002
}
  0
POINT
  5
2262
330
1F
100
AcDbEntity
  8
0
 60
     1
100
AcDbPoint
 10
0.0
 20
2088.505004607247
 30
0.0
1001
GENIUS_GENOENT_13
1002
{
1000
MYREF
1005
2262
1002
}
1002
{
1000
GRP
1005
0
1002
}
1001
GENIUS_GENOLIS_13
1002
{
1000
ENT
1005
225B
1005
225A
1005
2259
1005
2258
1002
}
1001
GENIUS_GENOBJ-N-CRS_13
1002
{
1000
OWNER
1000
GEN
1002
}
1001
GENIUS_GENODEF_13
1002
{
1000
HIER
1070
    10
1002
}
1002
{
1000
MANEDIT
1070
     0
1002
}
1002
{
1000
NOSEL
1070
     0
1002
}
1002
{
1000
BEHIND
1070
     0
1002
}
1002
{
1000
OTHER
1070
     0
1002
}
1002
{
1000
REACTOR
1002
}
  0
LINE
  5
22A2
330
1F
100
AcDbEntity
  8
AM_7
  6
AM_ISO08W050x2
100
AcDbLine
 10
2411.888425197439
 20
1131.0726840334
 30
0.0
 11
2411.888425197439
 21
1125.0226840334
 31
0.0
  0
LINE
  5
22A3
330
1F
100
AcDbEntity
  8
AM_7
  6
AM_ISO08W050x2
100
AcDbLine
 10
2466.888425197439
 20
1131.0726840334
 30
0.0
 11
2466.888425197439
 21
1125.0226840334
 31
0.0
  0
TEXT
  5
22D0
330
1F
100
AcDbEntity
  8
0
100
AcDbText
 10
2306.907347134512
 20
1196.895688299308
 30
0.0
 40
7.199999999999999
  1
11 type
  7
CHINESET
100
AcDbText
  0
ENDSEC
  0
SECTION
  2
OBJECTS
  0
DICTIONARY
  5
C
330
0
100
AcDbDictionary
281
     1
  3
ACAD_COLOR
350
BE
  3
ACAD_GROUP
350
D
  3
ACAD_LAYOUT
350
1A
  3
ACAD_MATERIAL
350
BD
  3
ACAD_MLINESTYLE
350
17
  3
ACAD_PLOTSETTINGS
350
19
  3
ACAD_PLOTSTYLENAME
350
E
  3
ACAD_TABLESTYLE
350
11A
  3
ACDBHEADERROUNDTRIPXREC
350
2336
  3
AcDbVariableDictionary
350
94
  3
AcmDictionary
350
5B
  3
AMG
350
41
  3
AMGSNAPSETTINGS
350
1B8
  3
DWGPROPS
350
2335
  0
DICTIONARY
  5
3F9
330
2
100
AcDbDictionary
280
     1
281
     1
  3
ACAD_LAYERFILTERS
360
5B7
  3
ACAD_LAYERSTATES
360
71D
  3
ACLYDICTIONARY
360
5B6
  0
DICTIONARY
  5
8F
330
1F
100
AcDbDictionary
280
     1
281
     1
  3
ACAD_SORTENTS
360
12F5
  0
DICTIONARY
  5
2052
330
2045
100
AcDbDictionary
280
     1
281
     1
  3
ACAD_DIMASSOC
360
2053
  0
DICTIONARY
  5
2085
330
2078
100
AcDbDictionary
280
     1
281
     1
  3
ACAD_DIMASSOC
360
2086
  0
DICTIONARY
  5
20BE
330
20B5
100
AcDbDictionary
280
     1
281
     1
  3
ACAD_DIMASSOC
360
20BF
  0
DICTIONARY
  5
BE
102
{ACAD_REACTORS
330
C
102
}
330
C
100
AcDbDictionary
281
     1
  0
DICTIONARY
  5
D
102
{ACAD_REACTORS
330
C
102
}
330
C
100
AcDbDictionary
281
     1
  0
DICTIONARY
  5
1A
102
{ACAD_REACTORS
330
C
102
}
330
C
100
AcDbDictionary
281
     1
  3
Model
350
22
  3
配置1
350
1E
  3
配置2
350
26
  0
DICTIONARY
  5
BD
102
{ACAD_REACTORS
330
C
102
}
330
C
100
AcDbDictionary
281
     1
  0
DICTIONARY
  5
17
102
{ACAD_REACTORS
330
C
102
}
330
C
100
AcDbDictionary
281
     1
  3
Standard
350
18
  0
DICTIONARY
  5
19
102
{ACAD_REACTORS
330
C
102
}
330
C
100
AcDbDictionary
281
     1
  0
ACDBDICTIONARYWDFLT
  5
E
102
{ACAD_REACTORS
330
C
102
}
330
C
100
AcDbDictionary
281
     1
  3
Normal
350
F
100
AcDbDictionaryWithDefault
340
F
  0
DICTIONARY
  5
11A
102
{ACAD_REACTORS
330
C
102
}
330
C
100
AcDbDictionary
281
     1
  3
Standard
350
11B
  0
DICTIONARY
  5
2336
102
{ACAD_REACTORS
330
C
102
}
330
C
100
AcDbDictionary
281
     1
  0
DICTIONARY
  5
94
102
{ACAD_REACTORS
330
C
102
}
330
C
100
AcDbDictionary
281
     1
  3
CTABLESTYLE
350
138
  3
DIMASSOC
350
96
  3
INDEXCTL
350
95
  3
PROJECTNAME
350
2333
  0
DICTIONARY
  5
5B
102
{ACAD_REACTORS
330
C
102
}
330
C
100
AcDbDictionary
281
     1
  3
AcmBOM
350
1B5
  3
AcmStdDictionary
350
61
  3
AMDTSECTSYM_ARROWCOLOR
350
123
  0
DICTIONARY
  5
41
102
{ACAD_REACTORS
330
C
102
}
330
C
100
AcDbDictionary
281
     1
  0
DICTIONARY
  5
1B8
102
{ACAD_REACTORS
330
C
102
}
330
C
100
AcDbDictionary
281
     1
  0
XRECORD
  5
2335
102
{ACAD_REACTORS
330
C
102
}
330
C
100
AcDbXrecord
280
     1
  1
DWGPROPS COOKIE
  2

  3

  4

  6

  7

  8

  9

300
AmdtFileType=84
301
=
302
=
303
=
304
=
305
=
306
=
307
=
308
=
309
=
 40
0.4343646875000001
 41
2453580.633342373
 42
2453594.38910228
  1

 90
        1
  0
DICTIONARY
  5
5B7
102
{ACAD_REACTORS
330
3F9
102
}
330
3F9
100
AcDbDictionary
281
     1
  0
DICTIONARY
  5
71D
102
{ACAD_REACTORS
330
3F9
102
}
330
3F9
100
AcDbDictionary
281
     1
  0
DICTIONARY
  5
5B6
102
{ACAD_REACTORS
330
3F9
102
}
330
3F9
100
AcDbDictionary
281
     1
1001
ACAD
1000
<All
  0
SORTENTSTABLE
  5
12F5
102
{ACAD_REACTORS
330
8F
102
}
330
8F
100
AcDbSortentsTable
330
1F
331
1A00
  5
1A00
331
19C1
  5
19C1
331
1C6B
  5
1C6B
331
19C9
  5
19C9
331
1B7F
  5
1B7F
331
1BBE
  5
1BBE
331
1C34
  5
1C34
331
1C7B
  5
1C7B
331
1A10
  5
1A10
331
19D1
  5
19D1
331
1B87
  5
1B87
331
1BC6
  5
1BC6
331
1C3C
  5
1C3C
331
1988
  5
1988
331
1C05
  5
1C05
331
1A18
  5
1A18
331
19D9
  5
19D9
331
1B8F
  5
1B8F
331
1BCE
  5
1BCE
331
1C44
  5
1C44
331
1990
  5
1990
331
1C4C
  5
1C4C
331
1BD6
  5
1BD6
331
1B97
  5
1B97
331
1C0D
  5
1C0D
331
19A0
  5
19A0
331
19E1
  5
19E1
331
1BDE
  5
1BDE
331
1B9F
  5
1B9F
331
19E9
  5
19E9
331
1B68
  5
1B68
331
1C54
  5
1C54
331
1C5C
  5
1C5C
331
1BA7
  5
1BA7
331
19F1
  5
19F1
331
1B70
  5
1B70
331
1C1D
  5
1C1D
331
19A8
  5
19A8
331
1C64
  5
1C64
331
1BEE
  5
1BEE
331
19F9
  5
19F9
331
1BAF
  5
1BAF
331
1C25
  5
1C25
331
1CBB
  5
1CBB
331
1971
  5
1971
331
1C2D
  5
1C2D
331
1CCB
  5
1CCB
331
1979
  5
1979
331
19B8
  5
19B8
331
1981
  5
1981
331
1A01
  5
1A01
331
19C2
  5
19C2
331
1B78
  5
1B78
331
19CA
  5
19CA
331
1B80
  5
1B80
331
1BBF
  5
1BBF
331
1C35
  5
1C35
331
1C7C
  5
1C7C
331
1BFE
  5
1BFE
331
19D2
  5
19D2
331
1B88
  5
1B88
331
1BC7
  5
1BC7
331
1C3D
  5
1C3D
331
1989
  5
1989
331
1C06
  5
1C06
331
1BCF
  5
1BCF
331
1A19
  5
1A19
331
19DA
  5
19DA
331
1B90
  5
1B90
331
1C45
  5
1C45
331
1C8C
  5
1C8C
331
1BD7
  5
1BD7
331
1C4D
  5
1C4D
331
1999
  5
1999
331
19E2
  5
19E2
331
1C55
  5
1C55
331
1BDF
  5
1BDF
331
19EA
  5
19EA
331
1B69
  5
1B69
331
1C16
  5
1C16
331
1C5D
  5
1C5D
331
1BA8
  5
1BA8
331
19F2
  5
19F2
331
1B71
  5
1B71
331
1C1E
  5
1C1E
331
1C65
  5
1C65
331
1BEF
  5
1BEF
331
19FA
  5
19FA
331
1BB0
  5
1BB0
331
1C26
  5
1C26
331
1972
  5
1972
331
1CCC
  5
1CCC
331
197A
  5
197A
331
19B9
  5
19B9
331
1982
  5
1982
331
19C3
  5
19C3
331
1B79
  5
1B79
331
1BF7
  5
1BF7
331
19CB
  5
19CB
331
1B81
  5
1B81
331
1BC0
  5
1BC0
331
198A
  5
198A
331
1C7D
  5
1C7D
331
19D3
  5
19D3
331
1B89
  5
1B89
331
1BC8
  5
1BC8
331
1C3E
  5
1C3E
331
1C8D
  5
1C8D
331
1C07
  5
1C07
331
1BD0
  5
1BD0
331
1A1A
  5
1A1A
331
19DB
  5
19DB
331
1B91
  5
1B91
331
1C46
  5
1C46
331
199A
  5
199A
331
1C4E
  5
1C4E
331
1C0F
  5
1C0F
331
19E3
  5
19E3
331
1BD8
  5
1BD8
331
1C56
  5
1C56
331
1C17
  5
1C17
331
1BE0
  5
1BE0
331
19EB
  5
19EB
331
1B6A
  5
1B6A
331
1C9D
  5
1C9D
331
1C5E
  5
1C5E
331
1C1F
  5
1C1F
331
1BE8
  5
1BE8
331
1BA9
  5
1BA9
331
19F3
  5
19F3
331
1B72
  5
1B72
331
1973
  5
1973
331
19B2
  5
19B2
331
1C66
  5
1C66
331
1C27
  5
1C27
331
19FB
  5
19FB
331
1BB1
  5
1BB1
331
197B
  5
197B
331
19BA
  5
19BA
331
1CCD
  5
1CCD
331
1983
  5
1983
331
1BF0
  5
1BF0
331
19C4
  5
19C4
331
1BB9
  5
1BB9
331
1C37
  5
1C37
331
1BF8
  5
1BF8
331
19CC
  5
19CC
331
1B82
  5
1B82
331
1BC1
  5
1BC1
331
198B
  5
198B
331
1C3F
  5
1C3F
331
19D4
  5
19D4
331
1B8A
  5
1B8A
331
1BC9
  5
1BC9
331
1C47
  5
1C47
331
1C08
  5
1C08
331
1BD1
  5
1BD1
331
1A1B
  5
1A1B
331
19DC
  5
19DC
331
1B92
  5
1B92
331
1C8E
  5
1C8E
331
199B
  5
199B
331
1C4F
  5
1C4F
331
19E4
  5
19E4
331
1B9A
  5
1B9A
331
1C57
  5
1C57
331
1C18
  5
1C18
331
1BE1
  5
1BE1
331
1BA2
  5
1BA2
331
19EC
  5
19EC
331
1B6B
  5
1B6B
331
1C5F
  5
1C5F
331
1C20
  5
1C20
331
1BE9
  5
1BE9
331
1BAA
  5
1BAA
331
19F4
  5
19F4
331
1B73
  5
1B73
331
1974
  5
1974
331
19B3
  5
19B3
331
1C67
  5
1C67
331
1C28
  5
1C28
331
19FC
  5
19FC
331
1BB2
  5
1BB2
331
197C
  5
197C
331
19BB
  5
19BB
331
1984
  5
1984
331
1C30
  5
1C30
331
1BF1
  5
1BF1
331
19C5
  5
19C5
331
1B7B
  5
1B7B
331
1C38
  5
1C38
331
1BC2
  5
1BC2
331
19CD
  5
19CD
331
1B83
  5
1B83
331
1BF9
  5
1BF9
331
1C01
  5
1C01
331
1B8B
  5
1B8B
331
19D5
  5
19D5
331
1BCA
  5
1BCA
331
1C40
  5
1C40
331
198C
  5
198C
331
1C48
  5
1C48
331
1B93
  5
1B93
331
19DD
  5
19DD
331
1C09
  5
1C09
331
1C8F
  5
1C8F
331
1994
  5
1994
331
199C
  5
199C
331
19A4
  5
19A4
331
1C50
  5
1C50
331
1B9B
  5
1B9B
331
19E5
  5
19E5
331
1C11
  5
1C11
331
1C58
  5
1C58
331
1BE2
  5
1BE2
331
19ED
  5
19ED
331
1C19
  5
1C19
331
1C60
  5
1C60
331
1BEA
  5
1BEA
331
1BAB
  5
1BAB
331
1B74
  5
1B74
331
19F5
  5
19F5
331
1C21
  5
1C21
331
E1F
  5
E1F
331
19AC
  5
19AC
331
1BB3
  5
1BB3
331
19FD
  5
19FD
331
1C29
  5
1C29
331
1975
  5
1975
331
19B4
  5
19B4
331
197D
  5
197D
331
19BC
  5
19BC
331
1985
  5
1985
331
1BF2
  5
1BF2
331
1B7C
  5
1B7C
331
19C6
  5
19C6
331
1BBB
  5
1BBB
331
1C68
  5
1C68
331
1BFA
  5
1BFA
331
1B84
  5
1B84
331
19CE
  5
19CE
331
1BC3
  5
1BC3
331
1C39
  5
1C39
331
1C02
  5
1C02
331
19D6
  5
19D6
331
1B8C
  5
1B8C
331
1BCB
  5
1BCB
331
1C41
  5
1C41
331
1C49
  5
1C49
331
1BD3
  5
1BD3
331
1A1D
  5
1A1D
331
19DE
  5
19DE
331
1B94
  5
1B94
331
1C0A
  5
1C0A
331
1995
  5
1995
331
199D
  5
199D
331
1C51
  5
1C51
331
1BDB
  5
1BDB
331
19E6
  5
19E6
331
1B9C
  5
1B9C
331
1C12
  5
1C12
331
1C59
  5
1C59
331
1BE3
  5
1BE3
331
19EE
  5
19EE
331
1BA4
  5
1BA4
331
1C1A
  5
1C1A
331
19AD
  5
19AD
331
1C61
  5
1C61
331
1BEB
  5
1BEB
331
1BAC
  5
1BAC
331
19F6
  5
19F6
331
1B75
  5
1B75
331
1C22
  5
1C22
331
1CB8
  5
1CB8
331
196E
  5
196E
331
19FE
  5
19FE
331
1BB4
  5
1BB4
331
1C2A
  5
1C2A
331
1976
  5
1976
331
19B5
  5
19B5
331
197E
  5
197E
331
19BD
  5
19BD
331
1986
  5
1986
331
1C69
  5
1C69
331
1BF3
  5
1BF3
331
19C7
  5
19C7
331
1B7D
  5
1B7D
331
1BBC
  5
1BBC
331
1C32
  5
1C32
331
1BFB
  5
1BFB
331
1A0E
  5
1A0E
331
19CF
  5
19CF
331
1B85
  5
1B85
331
1C3A
  5
1C3A
331
1C03
  5
1C03
331
19D7
  5
19D7
331
1B8D
  5
1B8D
331
1BCC
  5
1BCC
331
1C42
  5
1C42
331
1C4A
  5
1C4A
331
19DF
  5
19DF
331
1BD4
  5
1BD4
331
1C0B
  5
1C0B
331
199E
  5
199E
331
1C52
  5
1C52
331
1BDC
  5
1BDC
331
1B9D
  5
1B9D
331
19E7
  5
19E7
331
1B66
  5
1B66
331
1C13
  5
1C13
331
1C5A
  5
1C5A
331
1BE4
  5
1BE4
331
19EF
  5
19EF
331
1B6E
  5
1B6E
331
1C1B
  5
1C1B
331
19AE
  5
19AE
331
1C62
  5
1C62
331
1BAD
  5
1BAD
331
19F7
  5
19F7
331
1B76
  5
1B76
331
1C23
  5
1C23
331
1CB9
  5
1CB9
331
196F
  5
196F
331
19FF
  5
19FF
331
1C2B
  5
1C2B
331
1977
  5
1977
331
19B6
  5
19B6
331
197F
  5
197F
331
19BE
  5
19BE
331
1987
  5
1987
331
19C0
  5
19C0
331
1C6A
  5
1C6A
331
1BF4
  5
1BF4
331
19C8
  5
19C8
331
1B7E
  5
1B7E
331
1BBD
  5
1BBD
331
1C33
  5
1C33
331
1C7A
  5
1C7A
331
1BFC
  5
1BFC
331
1A0F
  5
1A0F
331
19D0
  5
19D0
331
1B86
  5
1B86
331
1C3B
  5
1C3B
331
1C04
  5
1C04
331
19D8
  5
19D8
331
1B8E
  5
1B8E
331
1BCD
  5
1BCD
331
1C43
  5
1C43
331
1C4B
  5
1C4B
331
1BD5
  5
1BD5
331
1B96
  5
1B96
331
1C0C
  5
1C0C
331
199F
  5
199F
331
19E0
  5
19E0
331
1C53
  5
1C53
331
1BDD
  5
1BDD
331
1B9E
  5
1B9E
331
19E8
  5
19E8
331
1B67
  5
1B67
331
1C14
  5
1C14
331
1C5B
  5
1C5B
331
1BE5
  5
1BE5
331
1BA6
  5
1BA6
331
19F0
  5
19F0
331
1B6F
  5
1B6F
331
1C1C
  5
1C1C
331
1CAA
  5
1CAA
331
1C63
  5
1C63
331
1BAE
  5
1BAE
331
19F8
  5
19F8
331
1B77
  5
1B77
331
1C24
  5
1C24
331
1CBA
  5
1CBA
331
1970
  5
1970
331
1BB6
  5
1BB6
331
1C2C
  5
1C2C
331
1CCA
  5
1CCA
331
1978
  5
1978
331
19B7
  5
19B7
331
1980
  5
1980
331
19BF
  5
19BF
  0
DIMASSOC
  5
2053
102
{ACAD_REACTORS
330
2052
102
}
330
2052
100
AcDbDimAssoc
330
2045
 90
        3
 70
     0
 71
     0
  1
AcDbOsnapPointRef
 72
    13
331
1B7B
 73
     0
 91
        0
 40
0.0
 10
0.0
 20
0.0
 30
2.000000000000000E+50
 75
     0
  1
AcDbOsnapPointRef
 72
     1
331
1B9B
 73
     0
 91
        0
 40
0.0
 10
0.0
 20
0.0
 30
2.000000000000000E+50
 75
     0
  0
DIMASSOC
  5
2086
102
{ACAD_REACTORS
330
2085
102
}
330
2085
100
AcDbDimAssoc
330
2078
 90
        3
 70
     0
 71
     0
  1
AcDbOsnapPointRef
 72
     1
331
1C09
 73
     0
 91
        0
 40
0.0
 10
0.0
 20
0.0
 30
2.000000000000000E+50
 75
     0
  1
AcDbOsnapPointRef
 72
     1
331
1C04
 73
     0
 91
        0
 40
0.0
 10
0.0
 20
0.0
 30
2.000000000000000E+50
 75
     0
  0
DIMASSOC
  5
20BF
102
{ACAD_REACTORS
330
20BE
102
}
330
20BE
100
AcDbDimAssoc
330
20B5
 90
        2
 70
     0
 71
     0
  1
AcDbOsnapPointRef
 72
     3
331
1B96
 73
     2
 91
        0
 40
0.0
 10
0.0
 20
0.0
 30
0.0
 75
     0
  0
LAYOUT
  5
22
102
{ACAD_XDICTIONARY
360
2339
102
}
102
{ACAD_REACTORS
330
1A
102
}
330
1A
100
AcDbPlotSettings
  1

  2
\\RD\EPSON Stylus C63 Series單色
  4
A4
  6

 40
3.757083177566528
 41
3.757076978683471
 42
3.757080078125
 43
3.757080078125
 44
209.9733276367187
 45
296.9683227539062
 46
0.0
 47
0.0
 48
0.0
 49
0.0
140
0.0
141
0.0
142
1.0
143
0.3405120737814363
 70
 11952
 72
     1
 73
     0
 74
     0
  7
單色出圖.ctb
 75
     0
147
2.936753428137963
148
-2047.07469463503
149
-1261.649717473083
100
AcDbLayout
  1
Model
 70
     1
 71
     0
 10
0.0
 20
0.0
 11
12.0
 21
9.0
 12
0.0
 22
0.0
 32
0.0
 14
0.0
 24
0.0
 34
0.0
 15
0.0
 25
0.0
 35
0.0
146
0.0
 13
0.0
 23
0.0
 33
0.0
 16
1.0
 26
0.0
 36
0.0
 17
0.0
 27
1.0
 37
0.0
 76
     0
330
1F
1001
ACAD_PSEXT
1000
\\RD\EPSON Stylus C63 Series單色
1000
EPSON Stylus C63 Series
1000
\\RD
1000

1070
     0
  0
LAYOUT
  5
1E
102
{ACAD_XDICTIONARY
360
2337
102
}
102
{ACAD_REACTORS
330
1A
102
}
330
1A
100
AcDbPlotSettings
  1

  2

  4

  6

 40
0.0
 41
0.0
 42
0.0
 43
0.0
 44
0.0
 45
0.0
 46
0.0
 47
0.0
 48
0.0
 49
0.0
140
0.0
141
0.0
142
1.0
143
1.0
 70
   688
 72
     0
 73
     0
 74
     5
  7
單色出圖.ctb
 75
    16
147
1.0
148
0.0
149
0.0
100
AcDbLayout
  1
配置1
 70
     1
 71
     1
 10
0.0
 20
0.0
 11
420.0
 21
297.0
 12
0.0
 22
0.0
 32
0.0
 14
1.000000000000000E+20
 24
1.000000000000000E+20
 34
1.000000000000000E+20
 15
-1.000000000000000E+20
 25
-1.000000000000000E+20
 35
-1.000000000000000E+20
146
0.0
 13
0.0
 23
0.0
 33
0.0
 16
1.0
 26
0.0
 36
0.0
 17
0.0
 27
1.0
 37
0.0
 76
     0
330
1B
  0
LAYOUT
  5
26
102
{ACAD_XDICTIONARY
360
233B
102
}
102
{ACAD_REACTORS
330
1A
102
}
330
1A
100
AcDbPlotSettings
  1

  2

  4

  6

 40
0.0
 41
0.0
 42
0.0
 43
0.0
 44
0.0
 45
0.0
 46
0.0
 47
0.0
 48
0.0
 49
0.0
140
0.0
141
0.0
142
1.0
143
1.0
 70
   688
 72
     0
 73
     0
 74
     5
  7
單色出圖.ctb
 75
    16
147
1.0
148
0.0
149
0.0
100
AcDbLayout
  1
配置2
 70
     1
 71
     2
 10
0.0
 20
0.0
 11
12.0
 21
9.0
 12
0.0
 22
0.0
 32
0.0
 14
0.0
 24
0.0
 34
0.0
 15
0.0
 25
0.0
 35
0.0
146
0.0
 13
0.0
 23
0.0
 33
0.0
 16
1.0
 26
0.0
 36
0.0
 17
0.0
 27
1.0
 37
0.0
 76
     0
330
23
  0
MLINESTYLE
  5
18
102
{ACAD_REACTORS
330
17
102
}
330
17
100
AcDbMlineStyle
  2
STANDARD
 70
     0
  3

 62
   256
 51
90.0
 52
90.0
 71
     2
 49
0.5
 62
   256
  6
BYLAYER
 49
-0.5
 62
   256
  6
BYLAYER
  0
ACDBPLACEHOLDER
  5
F
102
{ACAD_REACTORS
330
E
102
}
330
E
  0
TABLESTYLE
  5
11B
102
{ACAD_REACTORS
330
11A
102
}
330
11A
100
AcDbTableStyle
  3
Standard
 70
     0
 71
     0
 40
1.5
 41
1.5
280
     0
281
     0
  7
STANDARD
140
4.5
170
     2
 62
     0
 63
     7
283
     0
274
    -2
284
     1
 64
     0
275
    -2
285
     1
 65
     0
276
    -2
286
     1
 66
     0
277
    -2
287
     1
 67
     0
278
    -2
288
     1
 68
     0
279
    -2
289
     1
 69
     0
  7
STANDARD
140
6.0
170
     5
 62
     0
 63
     7
283
     0
274
    -2
284
     1
 64
     0
275
    -2
285
     1
 65
     0
276
    -2
286
     1
 66
     0
277
    -2
287
     1
 67
     0
278
    -2
288
     1
 68
     0
279
    -2
289
     1
 69
     0
  7
STANDARD
140
4.5
170
     5
 62
     0
 63
     7
283
     0
274
    -2
284
     1
 64
     0
275
    -2
285
     1
 65
     0
276
    -2
286
     1
 66
     0
277
    -2
287
     1
 67
     0
278
    -2
288
     1
 68
     0
279
    -2
289
     1
 69
     0
  0
DICTIONARYVAR
  5
138
102
{ACAD_REACTORS
330
94
102
}
330
94
100
DictionaryVariables
280
     0
  1
STANDARD
  0
DICTIONARYVAR
  5
96
102
{ACAD_REACTORS
330
94
102
}
330
94
100
DictionaryVariables
280
     0
  1
2
  0
DICTIONARYVAR
  5
95
102
{ACAD_REACTORS
330
94
102
}
330
94
100
DictionaryVariables
280
     0
  1
0
  0
DICTIONARYVAR
  5
2333
102
{ACAD_REACTORS
330
94
102
}
330
94
100
DictionaryVariables
280
     0
  1

  0
DICTIONARY
  5
1B5
102
{ACAD_REACTORS
330
5B
102
}
330
5B
100
AcDbDictionary
281
     1
  0
DICTIONARY
  5
61
102
{ACAD_REACTORS
330
5B
102
}
330
5B
100
AcDbDictionary
281
     1
  0
XRECORD
  5
123
102
{ACAD_REACTORS
330
5B
102
}
330
5B
100
AcDbXrecord
280
     1
 90
-1023410169
  0
DICTIONARY
  5
2339
330
22
100
AcDbDictionary
280
     1
281
     1
  3
ACAD_XREC_ROUNDTRIP
360
233A
  0
DICTIONARY
  5
2337
330
1E
100
AcDbDictionary
280
     1
281
     1
  3
ACAD_XREC_ROUNDTRIP
360
2338
  0
DICTIONARY
  5
233B
330
26
100
AcDbDictionary
280
     1
281
     1
  3
ACAD_XREC_ROUNDTRIP
360
233C
  0
XRECORD
  5
233A
102
{ACAD_REACTORS
330
2339
102
}
330
2339
100
AcDbXrecord
280
     1
102
SHADEPLOT
 70
     0
102
SHADEPLOTRESLEVEL
 70
     2
102
SHADEPLOTCUSTOMDPI
 70
   300
  0
XRECORD
  5
2338
102
{ACAD_REACTORS
330
2337
102
}
330
2337
100
AcDbXrecord
280
     1
102
SHADEPLOT
 70
     0
102
SHADEPLOTRESLEVEL
 70
     2
102
SHADEPLOTCUSTOMDPI
 70
   300
  0
XRECORD
  5
233C
102
{ACAD_REACTORS
330
233B
102
}
330
233B
100
AcDbXrecord
280
     1
102
SHADEPLOT
 70
     0
102
SHADEPLOTRESLEVEL
 70
     2
102
SHADEPLOTCUSTOMDPI
 70
   300
  0
ENDSEC
  0
EOF
