  0
SECTION
  2
HEADER
  9
$ACADVER
  1
AC1015
  9
$ACADMAINTVER
 70
    20
  9
$DWGCODEPAGE
  3
ANSI_950
  9
$INSBASE
 10
0.0
 20
0.0
 30
0.0
  9
$EXTMIN
 10
2290.486081798457
 20
794.805964350377
 30
-0.0115155815185517
  9
$EXTMAX
 10
2785.147437357188
 20
1212.204876592915
 30
226.467752222679
  9
$LIMMIN
 10
0.0
 20
0.0
  9
$LIMMAX
 10
420.0
 20
297.0
  9
$ORTHOMODE
 70
     1
  9
$REGENMODE
 70
     1
  9
$FILLMODE
 70
     1
  9
$QTEXTMODE
 70
     0
  9
$MIRRTEXT
 70
     1
  9
$LTSCALE
 40
1.0
  9
$ATTMODE
 70
     1
  9
$TEXTSIZE
 40
3.0
  9
$TRACEWID
 40
1.0
  9
$TEXTSTYLE
  7
CHINESET
  9
$CLAYER
  8
0
  9
$CELTYPE
  6
ByLayer
  9
$CECOLOR
 62
   256
  9
$CELTSCALE
 40
1.0
  9
$DISPSILH
 70
     0
  9
$DIMSCALE
 40
1.0
  9
$DIMASZ
 40
3.0
  9
$DIMEXO
 40
1.0
  9
$DIMDLI
 40
8.0
  9
$DIMRND
 40
0.0
  9
$DIMDLE
 40
0.0
  9
$DIMEXE
 40
1.5
  9
$DIMTP
 40
-0.05
  9
$DIMTM
 40
0.4
  9
$DIMTXT
 40
3.0
  9
$DIMCEN
 40
0.0
  9
$DIMTSZ
 40
0.0
  9
$DIMTOL
 70
     0
  9
$DIMLIM
 70
     0
  9
$DIMTIH
 70
     0
  9
$DIMTOH
 70
     0
  9
$DIMSE1
 70
     0
  9
$DIMSE2
 70
     0
  9
$DIMTAD
 70
     1
  9
$DIMZIN
 70
     8
  9
$DIMBLK
  1

  9
$DIMASO
 70
     1
  9
$DIMSHO
 70
     1
  9
$DIMPOST
  1

  9
$DIMAPOST
  1
"
  9
$DIMALT
 70
     0
  9
$DIMALTD
 70
     2
  9
$DIMALTF
 40
0.0393701
  9
$DIMLFAC
 40
1.0
  9
$DIMTOFL
 70
     1
  9
$DIMTVP
 40
0.0
  9
$DIMTIX
 70
     0
  9
$DIMSOXD
 70
     0
  9
$DIMSAH
 70
     0
  9
$DIMBLK1
  1

  9
$DIMBLK2
  1

  9
$DIMSTYLE
  2
AM_ISO
  9
$DIMCLRD
 70
   256
  9
$DIMCLRE
 70
   256
  9
$DIMCLRT
 70
   256
  9
$DIMTFAC
 40
0.71
  9
$DIMGAP
 40
1.0
  9
$DIMJUST
 70
     0
  9
$DIMSD1
 70
     0
  9
$DIMSD2
 70
     0
  9
$DIMTOLJ
 70
     0
  9
$DIMTZIN
 70
     8
  9
$DIMALTZ
 70
     0
  9
$DIMALTTZ
 70
     0
  9
$DIMUPT
 70
     0
  9
$DIMDEC
 70
     2
  9
$DIMTDEC
 70
     8
  9
$DIMALTU
 70
     2
  9
$DIMALTTD
 70
     2
  9
$DIMTXSTY
  7
STANDARD
  9
$DIMAUNIT
 70
     0
  9
$DIMADEC
 70
     0
  9
$DIMALTRND
 40
0.0
  9
$DIMAZIN
 70
     2
  9
$DIMDSEP
 70
    46
  9
$DIMATFIT
 70
     3
  9
$DIMFRAC
 70
     0
  9
$DIMLDRBLK
  1

  9
$DIMLUNIT
 70
     2
  9
$DIMLWD
 70
    -1
  9
$DIMLWE
 70
    -1
  9
$DIMTMOVE
 70
     0
  9
$LUNITS
 70
     2
  9
$LUPREC
 70
     2
  9
$SKETCHINC
 40
1.0
  9
$FILLETRAD
 40
2.5
  9
$AUNITS
 70
     0
  9
$AUPREC
 70
     0
  9
$MENU
  1
.
  9
$ELEVATION
 40
0.0
  9
$PELEVATION
 40
0.0
  9
$THICKNESS
 40
0.0
  9
$LIMCHECK
 70
     0
  9
$CHAMFERA
 40
2.5
  9
$CHAMFERB
 40
2.5
  9
$CHAMFERC
 40
20.0
  9
$CHAMFERD
 40
0.0
  9
$SKPOLY
 70
     0
  9
$TDCREATE
 40
2453580.633342373
  9
$TDUCREATE
 40
2453580.300009039
  9
$TDUPDATE
 40
2453594.387816841
  9
$TDUUPDATE
 40
2453594.054483507
  9
$TDINDWG
 40
0.4946294097
  9
$TDUSRTIMER
 40
0.4946294097
  9
$USRTIMER
 70
     1
  9
$ANGBASE
 50
0.0
  9
$ANGDIR
 70
     0
  9
$PDMODE
 70
     0
  9
$PDSIZE
 40
0.0
  9
$PLINEWID
 40
0.0
  9
$SPLFRAME
 70
     0
  9
$SPLINETYPE
 70
     6
  9
$SPLINESEGS
 70
     8
  9
$HANDSEED
  5
2914
  9
$SURFTAB1
 70
     6
  9
$SURFTAB2
 70
     6
  9
$SURFTYPE
 70
     6
  9
$SURFU
 70
     6
  9
$SURFV
 70
     6
  9
$UCSBASE
  2

  9
$UCSNAME
  2

  9
$UCSORG
 10
0.0
 20
0.0
 30
0.0
  9
$UCSXDIR
 10
1.0
 20
0.0
 30
0.0
  9
$UCSYDIR
 10
0.0
 20
1.0
 30
0.0
  9
$UCSORTHOREF
  2

  9
$UCSORTHOVIEW
 70
     0
  9
$UCSORGTOP
 10
0.0
 20
0.0
 30
0.0
  9
$UCSORGBOTTOM
 10
0.0
 20
0.0
 30
0.0
  9
$UCSORGLEFT
 10
0.0
 20
0.0
 30
0.0
  9
$UCSORGRIGHT
 10
0.0
 20
0.0
 30
0.0
  9
$UCSORGFRONT
 10
0.0
 20
0.0
 30
0.0
  9
$UCSORGBACK
 10
0.0
 20
0.0
 30
0.0
  9
$PUCSBASE
  2

  9
$PUCSNAME
  2

  9
$PUCSORG
 10
0.0
 20
0.0
 30
0.0
  9
$PUCSXDIR
 10
1.0
 20
0.0
 30
0.0
  9
$PUCSYDIR
 10
0.0
 20
1.0
 30
0.0
  9
$PUCSORTHOREF
  2

  9
$PUCSORTHOVIEW
 70
     0
  9
$PUCSORGTOP
 10
0.0
 20
0.0
 30
0.0
  9
$PUCSORGBOTTOM
 10
0.0
 20
0.0
 30
0.0
  9
$PUCSORGLEFT
 10
0.0
 20
0.0
 30
0.0
  9
$PUCSORGRIGHT
 10
0.0
 20
0.0
 30
0.0
  9
$PUCSORGFRONT
 10
0.0
 20
0.0
 30
0.0
  9
$PUCSORGBACK
 10
0.0
 20
0.0
 30
0.0
  9
$USERI1
 70
     0
  9
$USERI2
 70
     0
  9
$USERI3
 70
     0
  9
$USERI4
 70
     0
  9
$USERI5
 70
     0
  9
$USERR1
 40
0.0
  9
$USERR2
 40
0.0
  9
$USERR3
 40
0.0
  9
$USERR4
 40
0.0
  9
$USERR5
 40
0.0
  9
$WORLDVIEW
 70
     1
  9
$SHADEDGE
 70
     3
  9
$SHADEDIF
 70
    70
  9
$TILEMODE
 70
     1
  9
$MAXACTVP
 70
    64
  9
$PINSBASE
 10
0.0
 20
0.0
 30
0.0
  9
$PLIMCHECK
 70
     0
  9
$PEXTMIN
 10
1.000000000000000E+20
 20
1.000000000000000E+20
 30
1.000000000000000E+20
  9
$PEXTMAX
 10
-1.000000000000000E+20
 20
-1.000000000000000E+20
 30
-1.000000000000000E+20
  9
$PLIMMIN
 10
0.0
 20
0.0
  9
$PLIMMAX
 10
420.0
 20
297.0
  9
$UNITMODE
 70
     0
  9
$VISRETAIN
 70
     1
  9
$PLINEGEN
 70
     0
  9
$PSLTSCALE
 70
     1
  9
$TREEDEPTH
 70
  3020
  9
$CMLSTYLE
  2
Standard
  9
$CMLJUST
 70
     0
  9
$CMLSCALE
 40
20.0
  9
$PROXYGRAPHICS
 70
     1
  9
$MEASUREMENT
 70
     1
  9
$CELWEIGHT
370
    -1
  9
$ENDCAPS
280
     0
  9
$JOINSTYLE
280
     0
  9
$LWDISPLAY
290
     0
  9
$INSUNITS
 70
     4
  9
$HYPERLINKBASE
  1

  9
$STYLESHEET
  1
彩色出圖.ctb
  9
$XEDIT
290
     1
  9
$CEPSNTYPE
380
     0
  9
$PSTYLEMODE
290
     1
  9
$FINGERPRINTGUID
  2
{B9E4BE39-A089-470C-A359-98F2256325D3}
  9
$VERSIONGUID
  2
{0DF8A586-64D8-490E-AAB9-8AED9BFDE7BA}
  9
$EXTNAMES
290
     1
  9
$PSVPSCALE
 40
0.0
  9
$OLESTARTUP
290
     0
  0
ENDSEC
  0
SECTION
  2
CLASSES
  0
CLASS
  1
ACDBDICTIONARYWDFLT
  2
AcDbDictionaryWithDefault
  3
ObjectDBX Classes
 90
        0
280
     0
281
     0
  0
CLASS
  1
ACDBPLACEHOLDER
  2
AcDbPlaceHolder
  3
ObjectDBX Classes
 90
        0
280
     0
281
     0
  0
CLASS
  1
LAYOUT
  2
AcDbLayout
  3
ObjectDBX Classes
 90
        0
280
     0
281
     0
  0
CLASS
  1
ACME_DOCUMENT
  2
AcMeDbDoc
  3
AcMeServices
 90
        0
280
     0
281
     0
  0
CLASS
  1
AMGSETTINGSOBJ
  2
AmgSettingsObj
  3
"AcadM|Product Description: AutoCAD Mechanical 2000|Company: Autodesk"
 90
        0
280
     0
281
     0
  0
CLASS
  1
ACMESCOPE
  2
AcMeScope
  3
AcMeServices
 90
        0
280
     0
281
     0
  0
CLASS
  1
ACMECOMMANDHISTORY
  2
AcMeCommandHistory
  3
AcMeServices
 90
        0
280
     0
281
     0
  0
CLASS
  1
ACIMSYSVARMAN
  2
AcImSysVarManager
  3
AcMeServices
 90
        0
280
     0
281
     0
  0
CLASS
  1
ACIMREALSYSVAR
  2
AcImRealSysVar
  3
AcMeServices
 90
        0
280
     0
281
     0
  0
CLASS
  1
ACIMINTSYSVAR
  2
AcImIntSysVar
  3
AcMeServices
 90
        0
280
     0
281
     0
  0
CLASS
  1
ACMEDRAWINGMAN
  2
AcMeDrawingMan
  3
AcMeServices
 90
        0
280
     0
281
     0
  0
CLASS
  1
ACMEVIEW
  2
AcMeView
  3
AcMeServices
 90
        0
280
     0
281
     0
  0
CLASS
  1
ACDBENTITYCACHE
  2
AcMeEntityCache
  3
AcMeServices
 90
        0
280
     0
281
     0
  0
CLASS
  1
GSMANAGER
  2
AcMeGSManager
  3
AcMeServices
 90
        0
280
     0
281
     0
  0
CLASS
  1
AMDTINTERNALREACTOR
  2
AmdtInternalReactor
  3
AcMeServices
 90
        0
280
     0
281
     0
  0
CLASS
  1
ACMESTATEMGR
  2
AcMeStateMgr
  3
AcMeServices
 90
        0
280
     0
281
     0
  0
CLASS
  1
ACGREFMASTER
  2
AcGrefMaster
  3
AcAttribServices
 90
        0
280
     0
281
     0
  0
CLASS
  1
ACME_DATABASE
  2
AcMeDbDatabase
  3
AcMeServices
 90
        0
280
     0
281
     0
  0
CLASS
  1
ACRFINSADJUSTERMGR
  2
AcRfInsAdjusterMgr
  3
AcMeServices
 90
        0
280
     0
281
     0
  0
CLASS
  1
ACGREFACADMASTER
  2
AcGrefacadMaster
  3
AcGrefServices
 90
        0
280
     0
281
     0
  0
CLASS
  1
AMIMASTER
  2
AmiMaster
  3
AmiServices
 90
        0
280
     0
281
     0
  0
CLASS
  1
ACMDATADICTIONARY
  2
AcmDataDictionary
  3
"AcmSymBB|Product Description: AutoCAD Mechanical 2004 DX|Company: Autodesk"
 90
        0
280
     0
281
     0
  0
CLASS
  1
ACMDATAENTRYBLOCK
  2
AcmDataEntryBlock
  3
"AcmSymBB|Product Description: AutoCAD Mechanical 2004 DX|Company: Autodesk"
 90
        0
280
     0
281
     0
  0
CLASS
  1
ACIMSTRSYSVAR
  2
AcImStrSysVar
  3
AcMeServices
 90
        0
280
     0
281
     0
  0
CLASS
  1
ACMSTANDARDISO
  2
AcmStandardISO
  3
"Amdt_StdImp|Product Description: AutoCAD Mechanical 2004 DX|Company: Autodesk"
 90
        0
280
     0
281
     0
  0
CLASS
  1
AMGOBJPROPCFG
  2
AmgObjPropCfg
  3
"AmgLay|Product Description: AutoCAD Mechanical 2000|Company: Autodesk"
 90
        1
280
     0
281
     0
  0
CLASS
  1
AMDTEDGESTANDARDISO
  2
AmdtEdgeStdISO
  3
"Amdt_StdImp|Product Description: AutoCAD Mechanical 2004 DX|Company: Autodesk"
 90
        0
280
     0
281
     0
  0
CLASS
  1
ACMSURFSTANDARDISO
  2
AcmSurfTextStdISO
  3
"Amdt_StdImp|Product Description: AutoCAD Mechanical 2004 DX|Company: Autodesk"
 90
        0
280
     0
281
     0
  0
CLASS
  1
ACMFCFSTANDARDISO
  2
AcmFCFStdISO
  3
"Amdt_StdImp|Product Description: AutoCAD Mechanical 2004 DX|Company: Autodesk"
 90
        0
280
     0
281
     0
  0
CLASS
  1
ACMWELDSTANDARDISO
  2
AcmWeldingStdISO
  3
"Amdt_StdImp|Product Description: AutoCAD Mechanical 2004 DX|Company: Autodesk"
 90
        0
280
     0
281
     0
  0
CLASS
  1
ACMIDSTANDARDISO
  2
AcmIdStdISO
  3
"Amdt_StdImp|Product Description: AutoCAD Mechanical 2004 DX|Company: Autodesk"
 90
        0
280
     0
281
     0
  0
CLASS
  1
ACMDATUMSTANDARDISO
  2
AcmDatumStdISO
  3
"Amdt_StdImp|Product Description: AutoCAD Mechanical 2004 DX|Company: Autodesk"
 90
        0
280
     0
281
     0
  0
CLASS
  1
ACMBOMSTANDARDISO
  2
AcmBOMStdISO
  3
"Amdt_StdImp|Product Description: AutoCAD Mechanical 2004 DX|Company: Autodesk"
 90
        0
280
     0
281
     0
  0
CLASS
  1
ACMDETAILSTANDARDISO
  2
AmdtDetailSymStdISO
  3
"Amdt_StdImp|Product Description: AutoCAD Mechanical 2004 DX|Company: Autodesk"
 90
        0
280
     0
281
     0
  0
CLASS
  1
ACMSECTIONSTANDARDISO
  2
AmdtSectionSymStdISO
  3
"Amdt_StdImp|Product Description: AutoCAD Mechanical 2004 DX|Company: Autodesk"
 90
        0
280
     0
281
     0
  0
CLASS
  1
ACMCENTERLINESTANDARDISO
  2
AmdtCenterLineStdISO
  3
"Amdt_StdImp|Product Description: AutoCAD Mechanical 2004 DX|Company: Autodesk"
 90
        0
280
     0
281
     0
  0
CLASS
  1
ACMNOTESTANDARDISO
  2
AmdtNoteStdISO
  3
"Amdt_StdImp|Product Description: AutoCAD Mechanical 2004 DX|Company: Autodesk"
 90
        0
280
     0
281
     0
  0
CLASS
  1
ACAMGLAYSTD
  2
AcAmgLayStd
  3
"AcAmgLayStd|Product Description: AutoCAD Mechanical 2000|Company: Autodesk"
 90
        0
280
     0
281
     0
  0
CLASS
  1
ACAMGDIMSTD
  2
AcAmgDimStd
  3
"AcAmgDimStd|Product Description: AutoCAD Mechanical 2000|Company: Autodesk"
 90
        0
280
     0
281
     0
  0
CLASS
  1
ACAMGHOLECHARTSTDISO
  2
AcAmgHoleChartStdISO
  3
ACMSYMBB_MODULE_NAME
 90
        0
280
     0
281
     0
  0
CLASS
  1
ACAMGTITLESTD
  2
AcAmgTitleStd
  3
"TITLEAPP"
 90
        0
280
     0
281
     0
  0
CLASS
  1
LAYER_INDEX
  2
AcDbLayerIndex
  3
ObjectDBX Classes
 90
    32768
280
     0
281
     0
  0
CLASS
  1
IDBUFFER
  2
AcDbIdBuffer
  3
ObjectDBX Classes
 90
    32768
280
     0
281
     0
  0
CLASS
  1
DICTIONARYVAR
  2
AcDbDictionaryVar
  3
ObjectDBX Classes
 90
        0
280
     0
281
     0
  0
CLASS
  1
AM_DRAWING_MGR
  2
AcDmDwgMgr
  3
AcMechDwgViewMgmt
 90
        0
280
     0
281
     0
  0
CLASS
  1
AM_DWG_DOCUMENT
  2
AcDmDwgDocument
  3
AcMechDwgViewMgmt
 90
        0
280
     0
281
     0
  0
CLASS
  1
AM_DWG_SHEET
  2
AcDmSheet
  3
AcMechDwgViewMgmt
 90
        0
280
     0
281
     0
  0
CLASS
  1
AM_VIEWDIMPARMAP
  2
AcDmViewDimParMap
  3
AcMechDwgViewMgmt
 90
        0
280
     0
281
     0
  0
CLASS
  1
AM_DWGMGR_NAME
  2
AcDmDwgMgrName
  3
AcMechDwgViewMgmt
 90
        0
280
     0
281
     0
  0
CLASS
  1
AMDTMENUSTATEMGR
  2
AmdtMenuStateMgr
  3
McadcomServices
 90
        0
280
     0
281
     0
  0
CLASS
  1
AMDTMCOMMENUSTATE
  2
AmdtMcomMenuState
  3
McadcomServices
 90
        0
280
     0
281
     0
  0
CLASS
  1
MAPIAMMOUDLE
  2
MApiAmModule
  3
MApiAmServices
 90
        0
280
     0
281
     0
  0
CLASS
  1
AMDTADMENUSTATE
  2
AmdtAdMenuState
  3
DesignerServices
 90
        0
280
     0
281
     0
  0
CLASS
  1
ADAPPL
  2
AcAdAppl
  3
DesignerServices
 90
        0
280
     0
281
     0
  0
CLASS
  1
DEPMGR
  2
AcAdDepMgr
  3
DesignerServices
 90
        0
280
     0
281
     0
  0
CLASS
  1
PARAMMGR
  2
AcAdParamMgr
  3
DesignerServices
 90
        0
280
     0
281
     0
  0
CLASS
  1
PARAMSCOPE
  2
AcAdParamScope
  3
DesignerServices
 90
        0
280
     0
281
     0
  0
CLASS
  1
NAMEDAPPL
  2
AcAdNamedAppl
  3
DesignerServices
 90
        0
280
     0
281
     0
  0
CLASS
  1
AMDTDMMENUSTATE
  2
AmdtDmMenuState
  3
AcMechDwgViewMgmt
 90
        0
280
     0
281
     0
  0
CLASS
  1
AMDTAMMENUSTATE
  2
AmdtAmMenuState
  3
DesignerAssemblies
 90
        0
280
     0
281
     0
  0
CLASS
  1
ACAMPROJECT
  2
AcAmProject
  3
DesignerAssemblies
 90
        0
280
     0
281
     0
  0
CLASS
  1
ACAMGRCOMPDEF
  2
AcAmGrCompDef
  3
DesignerAssemblies
 90
        0
280
     0
281
     0
  0
CLASS
  1
ACCMCONTEXT
  2
AcCmContext
  3
DesignerAssemblies
 90
        0
280
     0
281
     0
  0
CLASS
  1
ACAMCOMPDEF
  2
AcAmCompDef
  3
DesignerAssemblies
 90
        0
280
     0
281
     0
  0
CLASS
  1
ACAMCOMPDEFMGR
  2
AcAmCompDefMgr
  3
DesignerAssemblies
 90
        0
280
     0
281
     0
  0
CLASS
  1
AMCONTEXTMGR
  2
AcAmContextMgr
  3
DesignerAssemblies
 90
        0
280
     0
281
     0
  0
CLASS
  1
ACAMCONTEXTMODELER
  2
AcAmContextModeler
  3
DesignerAssemblies
 90
        0
280
     0
281
     0
  0
CLASS
  1
ACMTHREADLINESTANDARDISO
  2
AmdtThreadLineStdISO
  3
"Amdt_StdImp|Product Description: AutoCAD Mechanical 2004 DX|Company: Autodesk"
 90
        0
280
     0
281
     0
  0
CLASS
  1
CATALOGSTATE
  2
AcAmCatalogState
  3
DesignerAssemblies
 90
        0
280
     0
281
     0
  0
CLASS
  1
ACAMGRCOMPDEFSET
  2
AcAmGrCompDefSet
  3
DesignerAssemblies
 90
        0
280
     0
281
     0
  0
CLASS
  1
AMDTBROWSERDBTAB
  2
AmdtBrowserDbTab
  3
McadcomServices
 90
        0
280
     0
281
     0
  0
CLASS
  1
CBROWSERAPPOBJECT
  2
CBrowserAppObject
  3
McadcomServices
 90
        0
280
     0
281
     0
  0
CLASS
  1
DM_PLACEHOLDER
  2
AcDmSelsetPlaceholder
  3
AcMechDwgViewMgmt
 90
        0
280
     0
281
     0
  0
CLASS
  1
TABLESTYLE
  2
AcDbTableStyle
  3
ObjectDBX Classes
 90
     2047
280
     0
281
     0
  0
CLASS
  1
VAACXREFPANELOBJECT
  2
VaAcXREFPanelObject
  3
VAAC_ADDIN
 90
    32768
280
     0
281
     0
  0
CLASS
  1
VAACIMAGEINVENTORY
  2
VaAcImageInventory
  3
VAAC_ADDIN
 90
    32768
280
     0
281
     0
  0
CLASS
  1
AMDTNOTETEMPLATEDB
  2
AmdtNoteTemplateDB
  3
AMDT_STDIMP_MODULE_NAME
 90
        0
280
     0
281
     0
  0
CLASS
  1
ACMBOM
  2
AcmBom
  3
"AcmSymBB|Product Description: AutoCAD Mechanical 2004 DX|Company: Autodesk"
 90
    32768
280
     0
281
     0
  0
CLASS
  1
AMDTFORMULAUPDATEDISPATCHER
  2
AmdtFormulaUpdateDispatcher
  3
AcMeServices
 90
    32768
280
     0
281
     0
  0
CLASS
  1
ACMPARTLIST
  2
AcmPartList
  3
"AcmSymBB|Product Description: AutoCAD Mechanical 2004 DX|Company: Autodesk"
 90
    33791
280
     0
281
     1
  0
CLASS
  1
ACAMGFILTERDAT
  2
AcAmgFilterDat
  3
"AcadM|Product Description: AutoCAD Mechanical 2000|Company: Autodesk"
 90
        0
280
     0
281
     0
  0
CLASS
  1
DIMASSOC
  2
AcDbDimAssoc
  3
"AcDbDimAssoc|Product Desc:     AcDim ARX App For Dimension|Company:          Autodesk, Inc.|WEB Address:      www.autodesk.com"
 90
        0
280
     0
281
     0
  0
CLASS
  1
SORTENTSTABLE
  2
AcDbSortentsTable
  3
ObjectDBX Classes
 90
        0
280
     0
281
     0
  0
CLASS
  1
AMDTNOTE
  2
AmdtNote
  3
"AcmSymBB|Product Description: AutoCAD Mechanical 2004 DX|Company: Autodesk"
 90
     1023
280
     0
281
     1
  0
CLASS
  1
ACMSTANDARDANSI
  2
AcmStandardANSI
  3
"Amdt_StdImp|Product Description: AutoCAD Mechanical 2004 DX|Company: Autodesk"
 90
        0
280
     0
281
     0
  0
CLASS
  1
ACMSURFSTANDARDANSI
  2
AcmSurfTextStdANSI
  3
"Amdt_StdImp|Product Description: AutoCAD Mechanical 2004 DX|Company: Autodesk"
 90
        0
280
     0
281
     0
  0
CLASS
  1
ACMFCFSTANDARDANSI
  2
AcmFCFStdANSI
  3
"Amdt_StdImp|Product Description: AutoCAD Mechanical 2004 DX|Company: Autodesk"
 90
        0
280
     0
281
     0
  0
CLASS
  1
ACMWELDSTANDARDANSI
  2
AcmWeldingStdANSI
  3
"Amdt_StdImp|Product Description: AutoCAD Mechanical 2004 DX|Company: Autodesk"
 90
        0
280
     0
281
     0
  0
CLASS
  1
ACMIDSTANDARDANSI
  2
AcmIdStdANSI
  3
"Amdt_StdImp|Product Description: AutoCAD Mechanical 2004 DX|Company: Autodesk"
 90
        0
280
     0
281
     0
  0
CLASS
  1
ACMDATUMSTANDARDANSI
  2
AcmDatumStdANSI
  3
"Amdt_StdImp|Product Description: AutoCAD Mechanical 2004 DX|Company: Autodesk"
 90
        0
280
     0
281
     0
  0
CLASS
  1
ACMBOMSTANDARDANSI
  2
AcmBOMStdANSI
  3
"Amdt_StdImp|Product Description: AutoCAD Mechanical 2004 DX|Company: Autodesk"
 90
        0
280
     0
281
     0
  0
CLASS
  1
ACMDETAILSTANDARDANSI
  2
AmdtDetailSymStdANSI
  3
"Amdt_StdImp|Product Description: AutoCAD Mechanical 2004 DX|Company: Autodesk"
 90
        0
280
     0
281
     0
  0
CLASS
  1
ACMSECTIONSTANDARDANSI
  2
AmdtSectionSymStdANSI
  3
"Amdt_StdImp|Product Description: AutoCAD Mechanical 2004 DX|Company: Autodesk"
 90
        0
280
     0
281
     0
  0
CLASS
  1
ACMCENTERLINESTANDARDANSI
  2
AmdtCenterLineStdANSI
  3
"Amdt_StdImp|Product Description: AutoCAD Mechanical 2004 DX|Company: Autodesk"
 90
        0
280
     0
281
     0
  0
CLASS
  1
ACMTHREADLINESTANDARDANSI
  2
AmdtThreadLineStdANSI
  3
"Amdt_StdImp|Product Description: AutoCAD Mechanical 2004 DX|Company: Autodesk"
 90
        0
280
     0
281
     0
  0
CLASS
  1
ACMNOTESTANDARDANSI
  2
AmdtNoteStdANSI
  3
"Amdt_StdImp|Product Description: AutoCAD Mechanical 2004 DX|Company: Autodesk"
 90
        0
280
     0
281
     0
  0
CLASS
  1
ACAMGHOLECHARTSTDANSI
  2
AcAmgHoleChartStdANSI
  3
ACMSYMBB_MODULE_NAME
 90
        0
280
     0
281
     0
  0
CLASS
  1
STDPART2D
  2
AmgStdPart
  3
"AmgStdPart|Product Description: AutoCAD Mechanical 2000|Company: Autodesk"
 90
    33791
280
     0
281
     1
  0
CLASS
  1
ACAMSTDPCOMPDEF
  2
AcAmStdpCompDef
  3
DesignerAssemblies
 90
    32768
280
     0
281
     0
  0
CLASS
  1
ACRFATTGENMGR
  2
AcRfAttGeneralMgr
  3
AcAttribServices
 90
        0
280
     0
281
     0
  0
CLASS
  1
ACRFOBJATTMGR
  2
AcRfObjAttGroupMgr
  3
AcAttribServices
 90
    32768
280
     0
281
     0
  0
CLASS
  1
ACRFMCADAPIATTHOLDER
  2
AcRfMCADAPIAttHolder
  3
AcAttribServices
 90
    32768
280
     0
281
     0
  0
CLASS
  1
AMDTSYSATTR
  2
AmdtSystemAttribute
  3
AcAttribServices
 90
    32768
280
     0
281
     0
  0
CLASS
  1
ACAMCOMP
  2
AcAmComp
  3
DesignerAssemblies
 90
    32768
280
     0
281
     0
  0
CLASS
  1
AC_AM_STDP_VIEW_DEF
  2
AcAmStdpViewDef
  3
DesignerAssemblies
 90
    32768
280
     0
281
     0
  0
CLASS
  1
AC_AM_MVD_DEP_MGR
  2
AcAmMVDdepMgr
  3
DesignerAssemblies
 90
        0
280
     0
281
     0
  0
CLASS
  1
AC_AM_MASTER_VIEW_DEF
  2
AcAmMasterViewDef
  3
DesignerAssemblies
 90
        0
280
     0
281
     0
  0
CLASS
  1
AC_AM_DIRTY_NODES
  2
AcAmDirtyNodes
  3
DesignerAssemblies
 90
        0
280
     0
281
     0
  0
CLASS
  1
AC_AM_MAPPER_CACHE
  2
AcAmMapperCache
  3
DesignerAssemblies
 90
        0
280
     0
281
     0
  0
CLASS
  1
ACAMMVDBACKUPOBJECT
  2
AcAmMVDBackupObject
  3
DesignerAssemblies
 90
        0
280
     0
281
     0
  0
CLASS
  1
AC_AM_COMP_VIEW_INST
  2
AcAmCompView
  3
DesignerAssemblies
 90
    32768
280
     0
281
     0
  0
CLASS
  1
AC_AM_2D_XREF_MGR
  2
AcAmXrefMgr2d
  3
DesignerAssemblies
 90
        0
280
     0
281
     0
  0
ENDSEC
  0
SECTION
  2
TABLES
  0
TABLE
  2
VPORT
  5
8
330
0
100
AcDbSymbolTable
 70
     3
  0
VPORT
  5
290B
330
8
100
AcDbSymbolTableRecord
100
AcDbViewportTableRecord
  2
*Active
 70
     0
 10
0.0
 20
0.0
 11
1.0
 21
1.0
 12
2537.845546469889
 22
1003.567279818358
 13
0.0
 23
0.0
 14
2.5
 24
2.5
 15
10.0
 25
10.0
 16
0.0
 26
0.0
 36
1.0
 17
0.0
 27
0.0
 37
0.0
 40
422.2356897157489
 41
1.81766917293233
 42
50.0
 43
0.0
 44
0.0
 50
0.0
 51
0.0
 71
     0
 72
   100
 73
     1
 74
     3
 75
     0
 76
     0
 77
     0
 78
     0
281
     0
 65
     1
110
0.0
120
0.0
130
0.0
111
1.0
121
0.0
131
0.0
112
0.0
122
1.0
132
0.0
 79
     0
146
0.0
  0
ENDTAB
  0
TABLE
  2
LTYPE
  5
5
330
0
100
AcDbSymbolTable
 70
    17
  0
LTYPE
  5
14
330
5
100
AcDbSymbolTableRecord
100
AcDbLinetypeTableRecord
  2
ByBlock
 70
     0
  3

 72
    65
 73
     0
 40
0.0
  0
LTYPE
  5
15
330
5
100
AcDbSymbolTableRecord
100
AcDbLinetypeTableRecord
  2
ByLayer
 70
     0
  3

 72
    65
 73
     0
 40
0.0
  0
LTYPE
  5
16
330
5
100
AcDbSymbolTableRecord
100
AcDbLinetypeTableRecord
  2
Continuous
 70
     0
  3
Solid line
 72
    65
 73
     0
 40
0.0
  0
LTYPE
  5
64
330
5
100
AcDbSymbolTableRecord
100
AcDbLinetypeTableRecord
  2
AM_ISO02W050
 70
     0
  3
__ __ __ __ __ __ __ __ __ __ __ __ __ __ __
 72
    65
 73
     2
 40
7.5
 49
6.0
 74
     0
 49
-1.5
 74
     0
  0
LTYPE
  5
65
330
5
100
AcDbSymbolTableRecord
100
AcDbLinetypeTableRecord
  2
AM_ISO08W050
 70
     0
  3
____ . ____ . ____ . ____ . ____ . ____ . ____
 72
    65
 73
     4
 40
18.0
 49
12.0
 74
     0
 49
-1.5
 74
     0
 49
3.0
 74
     0
 49
-1.5
 74
     0
  0
LTYPE
  5
66
330
5
100
AcDbSymbolTableRecord
100
AcDbLinetypeTableRecord
  2
AM_ISO09W050
 70
     0
  3
_____ . . _____ . . _____ . . ____ .. ____
 72
    65
 73
     6
 40
22.5
 49
12.0
 74
     0
 49
-1.5
 74
     0
 49
3.0
 74
     0
 49
-1.5
 74
     0
 49
3.0
 74
     0
 49
-1.5
 74
     0
  0
LTYPE
  5
67
330
5
100
AcDbSymbolTableRecord
100
AcDbLinetypeTableRecord
  2
Amconstr
 70
     0
  3
_______________________
 72
    65
 73
     2
 40
9999.0
 49
9999.0
 74
     0
 49
0.0
 74
     0
  0
LTYPE
  5
68
330
5
100
AcDbSymbolTableRecord
100
AcDbLinetypeTableRecord
  2
AM_ISO08W050x2
 70
     0
  3
__ . __ . __ . __ . __ . __
 72
    65
 73
     4
 40
9.0
 49
6.0
 74
     0
 49
-0.75
 74
     0
 49
1.5
 74
     0
 49
-0.75
 74
     0
  0
LTYPE
  5
69
330
5
100
AcDbSymbolTableRecord
100
AcDbLinetypeTableRecord
  2
AM_ISO02W050x2
 70
     0
  3
 _ _ _ _ _ _ _ _ _ _ _ _
 72
    65
 73
     2
 40
3.75
 49
3.0
 74
     0
 49
-0.75
 74
     0
  0
LTYPE
  5
6C
330
5
100
AcDbSymbolTableRecord
100
AcDbLinetypeTableRecord
  2
Amzigzag
 70
     0
  3
/\/-/\/-/\/-/\/-/\/-/\/
 72
    65
 73
     2
 40
11.0001
 49
0.0001
 74
     4
 75
   135
340
6B
 46
0.04
 50
0.0
 44
0.0
 45
0.0
 49
-11.0
 74
     0
  0
LTYPE
  5
7A
330
5
100
AcDbSymbolTableRecord
100
AcDbLinetypeTableRecord
  2
ACISOWELD
 70
     0
  3
_ _ _ _ _
 72
    65
 73
     2
 40
2.0
 49
2.0
 74
     0
 49
-1.0
 74
     0
  0
LTYPE
  5
7B
330
5
100
AcDbSymbolTableRecord
100
AcDbLinetypeTableRecord
  2
ACISOTGB
 70
     0
  3
__ . . __ . .
 72
    65
 73
     6
 40
9.0
 49
4.0
 74
     0
 49
-1.0
 74
     0
 49
1.0
 74
     0
 49
-1.0
 74
     0
 49
1.0
 74
     0
 49
-1.0
 74
     0
  0
LTYPE
  5
7C
330
5
100
AcDbSymbolTableRecord
100
AcDbLinetypeTableRecord
  2
ACISOTGL
 70
     0
  3
_ _ _ _ _
 72
    65
 73
     2
 40
3.0
 49
2.0
 74
     0
 49
-1.0
 74
     0
  0
LTYPE
  5
7E
330
5
100
AcDbSymbolTableRecord
100
AcDbLinetypeTableRecord
  2
CENTER
 70
     0
  3
__ . __
 72
    65
 73
     4
 40
7.0
 49
4.0
 74
     0
 49
-1.0
 74
     0
 49
1.0
 74
     0
 49
-1.0
 74
     0
  0
LTYPE
  5
D8
330
5
100
AcDbSymbolTableRecord
100
AcDbLinetypeTableRecord
  2
HIDDEN
 70
     0
  3
Hidden __ __ __ __ __ __ __ __ __ __ __ __ __ _
 72
    65
 73
     2
 40
9.524999999999998
 49
6.349999999999999
 74
     0
 49
-3.174999999999999
 74
     0
  0
LTYPE
  5
D9
330
5
100
AcDbSymbolTableRecord
100
AcDbLinetypeTableRecord
  2
PHANTOM2
 70
     0
  3
Phantom (.5x) ___ _ _ ___ _ _ ___ _ _ ___ _ _
 72
    65
 73
     6
 40
31.75
 49
15.875
 74
     0
 49
-3.174999999999999
 74
     0
 49
3.174999999999999
 74
     0
 49
-3.174999999999999
 74
     0
 49
3.174999999999999
 74
     0
 49
-3.174999999999999
 74
     0
  0
LTYPE
  5
F85
330
5
100
AcDbSymbolTableRecord
100
AcDbLinetypeTableRecord
  2
ACANSTGB
 70
     0
  3
__ . . __ . .
 72
    65
 73
     6
 40
0.35433070866
 49
0.15748031496
 74
     0
 49
-0.03937007874
 74
     0
 49
0.03937007874
 74
     0
 49
-0.03937007874
 74
     0
 49
0.03937007874
 74
     0
 49
-0.03937007874
 74
     0
  0
LTYPE
  5
F86
330
5
100
AcDbSymbolTableRecord
100
AcDbLinetypeTableRecord
  2
ACANSTGL
 70
     0
  3
_ _ _ _ _
 72
    65
 73
     2
 40
0.11811023622
 49
0.07874015748
 74
     0
 49
-0.03937007874
 74
     0
  0
LTYPE
  5
22C5
330
5
100
AcDbSymbolTableRecord
100
AcDbLinetypeTableRecord
  2
HIDDEN2
 70
     0
  3
Hidden (.5x) _ _ _ _ _ _ _ _ _ _ _ _ _ _ _ _ _
 72
    65
 73
     2
 40
0.1875
 49
0.125
 74
     0
 49
-0.0625
 74
     0
  0
ENDTAB
  0
TABLE
  2
LAYER
  5
2
102
{ACAD_XDICTIONARY
360
3F9
102
}
330
0
100
AcDbSymbolTable
 70
     8
  0
LAYER
  5
10
330
2
100
AcDbSymbolTableRecord
100
AcDbLayerTableRecord
  2
0
 70
     0
 62
     7
  6
Continuous
370
    -3
390
F
  0
LAYER
  5
206
330
2
100
AcDbSymbolTableRecord
100
AcDbLayerTableRecord
  2
Defpoints
 70
     0
 62
     7
  6
Continuous
290
     0
370
    -3
390
F
  0
LAYER
  5
5AE
330
2
100
AcDbSymbolTableRecord
100
AcDbLayerTableRecord
  2
AM_7
 70
     0
 62
     1
  6
CENTER
370
    25
390
F
  0
LAYER
  5
71A
330
2
100
AcDbSymbolTableRecord
100
AcDbLayerTableRecord
  2
LOGO
 70
     0
 62
     7
  6
Continuous
370
    -3
390
F
  0
LAYER
  5
84F
330
2
100
AcDbSymbolTableRecord
100
AcDbLayerTableRecord
  2
AM_VIS
 70
     0
 62
     7
  6
Continuous
370
    50
390
F
  0
LAYER
  5
850
330
2
100
AcDbSymbolTableRecord
100
AcDbLayerTableRecord
  2
AM_4
 70
     0
 62
     3
  6
Continuous
370
    25
390
F
  0
LAYER
  5
851
330
2
100
AcDbSymbolTableRecord
100
AcDbLayerTableRecord
  2
AM_0
 70
     0
 62
     7
  6
Continuous
370
    50
390
F
  0
LAYER
  5
B99
330
2
100
AcDbSymbolTableRecord
100
AcDbLayerTableRecord
  2
AM_5
 70
     0
 62
     5
  6
Continuous
370
    50
390
F
  0
ENDTAB
  0
TABLE
  2
STYLE
  5
3
330
0
100
AcDbSymbolTable
 70
     8
  0
STYLE
  5
11
330
3
100
AcDbSymbolTableRecord
100
AcDbTextStyleTableRecord
  2
STANDARD
 70
     0
 40
0.0
 41
1.0
 50
0.0
 71
     0
 42
3.0
  3
ISOCP.SHX
  4
CHINESET.SHX
  0
STYLE
  5
6B
330
3
100
AcDbSymbolTableRecord
100
AcDbTextStyleTableRecord
  2

 70
     1
 40
0.0
 41
1.0
 50
0.0
 71
     0
 42
2.5
  3
ltypeshp.shx
  4

  0
STYLE
  5
6D
330
3
100
AcDbSymbolTableRecord
100
AcDbTextStyleTableRecord
  2
ACISOTS
 70
     0
 40
1.0
 41
1.0
 50
0.0
 71
     0
 42
1.0
  3
isocp.shx
  4
chineset.shx
  0
STYLE
  5
79
330
3
100
AcDbSymbolTableRecord
100
AcDbTextStyleTableRecord
  2
ACISOGDT
 70
     0
 40
0.0
 41
1.0
 50
0.0
 71
     0
 42
2.5
  3
amgdt.shx
  4
chineset.shx
  0
STYLE
  5
60C
330
3
100
AcDbSymbolTableRecord
100
AcDbTextStyleTableRecord
  2
CHINESET
 70
     0
 40
0.0
 41
1.0
 50
0.0
 71
     0
 42
3.0
  3
simplex.shx
  4
CHINESET.SHX
  0
STYLE
  5
F87
330
3
100
AcDbSymbolTableRecord
100
AcDbTextStyleTableRecord
  2
ACANSTS
 70
     0
 40
1.0
 41
1.0
 50
0.0
 71
     0
 42
5.0
  3
romans.shx
  4
chineset.shx
  0
STYLE
  5
F88
330
3
100
AcDbSymbolTableRecord
100
AcDbTextStyleTableRecord
  2
ACANSGDT
 70
     0
 40
0.0
 41
1.0
 50
0.0
 71
     0
 42
5.0
  3
amgdtans.shx
  4

  0
ENDTAB
  0
TABLE
  2
VIEW
  5
6
330
0
100
AcDbSymbolTable
 70
     0
  0
ENDTAB
  0
TABLE
  2
UCS
  5
7
330
0
100
AcDbSymbolTable
 70
     0
  0
ENDTAB
  0
TABLE
  2
APPID
  5
9
330
0
100
AcDbSymbolTable
 70
    27
  0
APPID
  5
12
330
9
100
AcDbSymbolTableRecord
100
AcDbRegAppTableRecord
  2
ACAD
 70
     0
  0
APPID
  5
46
330
9
100
AcDbSymbolTableRecord
100
AcDbRegAppTableRecord
  2
MCAD_NO_VIS
 70
     0
  0
APPID
  5
47
330
9
100
AcDbSymbolTableRecord
100
AcDbRegAppTableRecord
  2
ACAD_TEMP_GRAPHIC
 70
     0
  0
APPID
  5
58
330
9
100
AcDbSymbolTableRecord
100
AcDbRegAppTableRecord
  2
ACATTRIBSERVICES
 70
     0
  0
APPID
  5
EE
330
9
100
AcDbSymbolTableRecord
100
AcDbRegAppTableRecord
  2
AD_DRAW
 70
     0
  0
APPID
  5
10C
330
9
100
AcDbSymbolTableRecord
100
AcDbRegAppTableRecord
  2
DESIGNERASSEMBLIES
 70
     0
  0
APPID
  5
111
330
9
100
AcDbSymbolTableRecord
100
AcDbRegAppTableRecord
  2
ACADM_DIM_EDIT
 70
     0
  0
APPID
  5
112
330
9
100
AcDbSymbolTableRecord
100
AcDbRegAppTableRecord
  2
AMDT_DM_ADJ
 70
     0
  0
APPID
  5
22C
330
9
100
AcDbSymbolTableRecord
100
AcDbRegAppTableRecord
  2
ACAD_DSTYLE_DIMTEXT_FILL
 70
     0
  0
APPID
  5
452
330
9
100
AcDbSymbolTableRecord
100
AcDbRegAppTableRecord
  2
GENIUS_GENOENT_13
 70
     0
  0
APPID
  5
453
330
9
100
AcDbSymbolTableRecord
100
AcDbRegAppTableRecord
  2
GENIUS_GENOBJ-N-CRS_13
 70
     0
  0
APPID
  5
454
330
9
100
AcDbSymbolTableRecord
100
AcDbRegAppTableRecord
  2
GENIUS_GENOLIS_13
 70
     0
  0
APPID
  5
455
330
9
100
AcDbSymbolTableRecord
100
AcDbRegAppTableRecord
  2
GENIUS_GENODEF_13
 70
     0
  0
APPID
  5
456
330
9
100
AcDbSymbolTableRecord
100
AcDbRegAppTableRecord
  2
GENIUS_GENOREF_13
 70
     0
  0
APPID
  5
6F3
330
9
100
AcDbSymbolTableRecord
100
AcDbRegAppTableRecord
  2
ACAD_PSEXT
 70
     0
  0
APPID
  5
71B
330
9
100
AcDbSymbolTableRecord
100
AcDbRegAppTableRecord
  2
GENIUS_GENREC_14
 70
     0
  0
APPID
  5
71C
330
9
100
AcDbSymbolTableRecord
100
AcDbRegAppTableRecord
  2
GENIUS_GENOBJ-N-REC_13
 70
     0
  0
APPID
  5
12C9
330
9
100
AcDbSymbolTableRecord
100
AcDbRegAppTableRecord
  2
GEVID1123030070
 70
     0
  0
APPID
  5
12CA
330
9
100
AcDbSymbolTableRecord
100
AcDbRegAppTableRecord
  2
GEVDC
 70
     0
  0
APPID
  5
12CB
330
9
100
AcDbSymbolTableRecord
100
AcDbRegAppTableRecord
  2
GEVRADREF
 70
     0
  0
APPID
  5
12D4
330
9
100
AcDbSymbolTableRecord
100
AcDbRegAppTableRecord
  2
AMG_2DHIDE
 70
     0
  0
APPID
  5
12D5
330
9
100
AcDbSymbolTableRecord
100
AcDbRegAppTableRecord
  2
AMG_2DSTRUCT_BTR
 70
     0
  0
APPID
  5
12E6
330
9
100
AcDbSymbolTableRecord
100
AcDbRegAppTableRecord
  2
ACADM_2DVIEW_IGN_NOTIFY
 70
     0
  0
APPID
  5
1345
330
9
100
AcDbSymbolTableRecord
100
AcDbRegAppTableRecord
  2
GENIUS_GENOBJ-N-CEN_13
 70
     0
  0
APPID
  5
1346
330
9
100
AcDbSymbolTableRecord
100
AcDbRegAppTableRecord
  2
GENIUS_GENCEN_19
 70
     0
  0
APPID
  5
1759
330
9
100
AcDbSymbolTableRecord
100
AcDbRegAppTableRecord
  2
GENIUS_GENDTOL_13
 70
     0
  0
APPID
  5
1CDA
330
9
100
AcDbSymbolTableRecord
100
AcDbRegAppTableRecord
  2
GEVID1123206672
 70
     0
  0
ENDTAB
  0
TABLE
  2
DIMSTYLE
  5
A
330
0
100
AcDbSymbolTable
 70
    15
100
AcDbDimStyleTable
 71
     3
340
81
340
8B
340
86
  0
DIMSTYLE
105
81
330
A
100
AcDbSymbolTableRecord
100
AcDbDimStyleTableRecord
  2
AM_ISO
 70
     0
  4
"
 41
3.0
 42
1.0
 43
8.0
 44
1.5
 47
0.1
 48
0.1
 73
     0
 74
     0
 77
     1
 78
     8
 79
     2
140
3.0
141
0.0
143
0.0393701
146
0.71
147
1.0
172
     1
176
   256
177
   256
178
   256
271
     2
272
     2
283
     0
284
     8
340
11
371
    -1
372
    -1
  0
DIMSTYLE
105
82
102
{ACAD_REACTORS
330
26DB
102
}
330
A
100
AcDbSymbolTableRecord
100
AcDbDimStyleTableRecord
  2
AM_ISO$3
 70
     0
  4
"
 41
3.0
 42
1.0
 43
8.0
 44
1.5
 47
0.1
 48
0.1
 73
     0
 77
     1
 78
     8
 79
     2
140
3.0
141
0.0
143
0.0393701
146
0.71
147
1.0
176
   256
177
   256
178
   256
271
     2
272
     2
283
     0
284
     8
288
     1
289
     0
340
11
371
    -1
372
    -1
  0
DIMSTYLE
105
83
330
A
100
AcDbSymbolTableRecord
100
AcDbDimStyleTableRecord
  2
AM_ISO$4
 70
     0
  4
"
 41
3.0
 42
1.0
 43
8.0
 44
1.5
 47
0.1
 48
0.1
 73
     0
 77
     1
 78
     8
 79
     2
140
3.0
141
0.0
143
0.0393701
146
0.71
147
1.0
176
   256
177
   256
178
   256
271
     2
272
     2
283
     0
284
     8
288
     1
289
     0
340
11
371
    -1
372
    -1
  0
DIMSTYLE
105
84
330
A
100
AcDbSymbolTableRecord
100
AcDbDimStyleTableRecord
  2
AM_ISO$6
 70
     0
  4
"
 41
3.0
 42
1.0
 43
8.0
 44
1.5
 47
0.1
 48
0.1
 73
     0
 74
     0
 78
     8
 79
     2
140
3.0
141
0.0
143
0.0393701
146
0.71
147
1.0
172
     1
176
   256
177
   256
178
   256
271
     2
272
     2
283
     0
284
     8
340
11
371
    -1
372
    -1
  0
DIMSTYLE
105
85
330
A
100
AcDbSymbolTableRecord
100
AcDbDimStyleTableRecord
  2
AM_ISO$7
 70
     0
  4
"
 41
3.0
 42
1.0
 43
8.0
 44
1.5
 47
0.1
 48
0.1
 73
     0
 74
     0
 77
     1
 78
     8
 79
     2
140
5.0
141
0.0
143
0.0393701
146
0.71
147
1.0
172
     1
176
   256
177
   256
178
   256
271
     2
272
     2
283
     0
284
     8
340
11
371
    -1
372
    -1
  0
DIMSTYLE
105
86
330
A
100
AcDbSymbolTableRecord
100
AcDbDimStyleTableRecord
  2
AM_ISO$SF
 70
     0
  4
"
 41
2.5
 42
1.0
 43
10.0
 44
1.0
 47
0.1
 48
0.1
 73
     0
 74
     0
 75
     1
 76
     1
 77
     1
 78
     8
 79
     2
140
3.5
141
0.0
143
0.0393701
146
0.71
147
1.5
172
     1
176
   256
177
   256
178
     2
271
     2
272
     3
274
     4
283
     0
284
     8
340
11
371
    -1
372
    -1
  0
DIMSTYLE
105
8B
330
A
100
AcDbSymbolTableRecord
100
AcDbDimStyleTableRecord
  2
AM_ISO$SH
 70
     0
  4
"
 41
2.5
 42
1.0
 43
10.0
 44
1.0
 47
0.1
 48
0.1
 73
     0
 74
     0
 75
     1
 76
     1
 77
     1
 78
     8
 79
     2
140
3.5
141
0.0
143
0.0393701
144
2.0
146
0.71
147
1.5
172
     1
173
     1
176
   256
177
   256
178
     2
271
     2
272
     3
274
     4
283
     0
284
     8
340
11
343
87
371
    -1
372
    -1
  0
DIMSTYLE
105
40B
102
{ACAD_REACTORS
330
265A
330
2737
330
27BA
330
2804
102
}
330
A
100
AcDbSymbolTableRecord
100
AcDbDimStyleTableRecord
  2
AM_ISO$0
 70
     0
  4
"
 41
3.0
 42
1.0
 43
8.0
 44
1.5
 47
0.1
 48
0.1
 73
     0
 74
     0
 77
     1
 78
     8
 79
     2
140
3.0
141
0.0
143
0.0393701
146
0.71
147
1.0
172
     1
176
   256
177
   256
178
   256
271
     2
272
     2
283
     0
284
     8
340
11
371
    -1
372
    -1
  0
DIMSTYLE
105
F89
330
A
100
AcDbSymbolTableRecord
100
AcDbDimStyleTableRecord
  2
AM_ANSI
 70
     0
  4
mm
 41
0.1
 42
0.05
 43
0.5
 44
0.1
 47
0.1
 48
0.1
 78
     7
 79
     2
140
0.12
141
0.0
146
0.71
147
0.06
176
   256
177
   256
178
     2
274
     4
284
     7
340
11
371
    -1
372
    -1
  0
DIMSTYLE
105
F8A
330
A
100
AcDbSymbolTableRecord
100
AcDbDimStyleTableRecord
  2
AM_ANSI$3
 70
     0
  4
mm
 41
0.1
 42
0.05
 43
0.5
 44
0.1
 47
0.1
 48
0.1
 78
     7
 79
     2
140
0.12
141
0.0
146
0.71
147
0.06
176
   256
177
   256
178
     2
274
     4
284
     7
288
     1
289
     0
340
11
371
    -1
372
    -1
  0
DIMSTYLE
105
F8B
330
A
100
AcDbSymbolTableRecord
100
AcDbDimStyleTableRecord
  2
AM_ANSI$4
 70
     0
  4
mm
 41
0.1
 42
0.05
 43
0.5
 44
0.1
 47
0.1
 48
0.1
 78
     7
 79
     2
140
0.12
141
0.0
146
0.71
147
0.06
176
   256
177
   256
178
     2
274
     4
284
     7
288
     1
289
     0
340
11
371
    -1
372
    -1
  0
DIMSTYLE
105
F8C
330
A
100
AcDbSymbolTableRecord
100
AcDbDimStyleTableRecord
  2
AM_ANSI$7
 70
     0
  4
mm
 41
0.1
 42
0.05
 43
0.5
 44
0.1
 47
0.1
 48
0.1
 78
     7
 79
     2
140
0.24
141
0.0
146
0.71
147
0.06
176
   256
177
   256
178
     2
274
     4
284
     7
340
11
371
    -1
372
    -1
  0
DIMSTYLE
105
F8D
330
A
100
AcDbSymbolTableRecord
100
AcDbDimStyleTableRecord
  2
AM_ANSI$SF
 70
     0
  4
mm
 41
0.1
 42
0.05
 43
0.5
 44
0.1
 47
0.1
 48
0.1
 75
     1
 76
     1
 78
     7
 79
     2
140
0.12
141
0.0
146
0.71
147
0.06
176
   256
177
   256
178
     2
274
     4
284
     7
340
11
371
    -1
372
    -1
  0
DIMSTYLE
105
F8E
330
A
100
AcDbSymbolTableRecord
100
AcDbDimStyleTableRecord
  2
AM_ANSI$SH
 70
     0
  4
mm
 41
0.1
 42
0.05
 43
0.5
 44
0.1
 47
0.1
 48
0.1
 75
     1
 76
     1
 78
     7
 79
     2
140
0.12
141
0.0
146
0.71
147
0.06
173
     1
176
   256
177
   256
178
     2
274
     4
284
     7
340
11
341
87
343
87
371
    -1
372
    -1
  0
ENDTAB
  0
TABLE
  2
BLOCK_RECORD
  5
1
330
0
100
AcDbSymbolTable
 70
    13
  0
BLOCK_RECORD
  5
1F
102
{ACAD_XDICTIONARY
360
8F
102
}
330
1
100
AcDbSymbolTableRecord
100
AcDbBlockTableRecord
  2
*Model_Space
340
22
  0
BLOCK_RECORD
  5
1B
330
1
100
AcDbSymbolTableRecord
100
AcDbBlockTableRecord
  2
*Paper_Space
340
1E
  0
BLOCK_RECORD
  5
23
330
1
100
AcDbSymbolTableRecord
100
AcDbBlockTableRecord
  2
*Paper_Space0
340
26
  0
BLOCK_RECORD
  5
87
330
1
100
AcDbSymbolTableRecord
100
AcDbBlockTableRecord
  2
GENAXEH
340
0
  0
BLOCK_RECORD
  5
12EA
330
1
100
AcDbSymbolTableRecord
100
AcDbBlockTableRecord
  2
*U4
340
0
  0
BLOCK_RECORD
  5
265B
330
1
100
AcDbSymbolTableRecord
100
AcDbBlockTableRecord
  2
*D5
340
0
  0
BLOCK_RECORD
  5
26DC
330
1
100
AcDbSymbolTableRecord
100
AcDbBlockTableRecord
  2
*D6
340
0
  0
BLOCK_RECORD
  5
273A
330
1
100
AcDbSymbolTableRecord
100
AcDbBlockTableRecord
  2
*D7
340
0
  0
BLOCK_RECORD
  5
27BB
330
1
100
AcDbSymbolTableRecord
100
AcDbBlockTableRecord
  2
*D8
340
0
  0
BLOCK_RECORD
  5
2805
330
1
100
AcDbSymbolTableRecord
100
AcDbBlockTableRecord
  2
*D9
340
0
  0
BLOCK_RECORD
  5
28F9
330
1
100
AcDbSymbolTableRecord
100
AcDbBlockTableRecord
  2
*S11
340
0
  0
BLOCK_RECORD
  5
2901
330
1
100
AcDbSymbolTableRecord
100
AcDbBlockTableRecord
  2
*S12
340
0
  0
ENDTAB
  0
ENDSEC
  0
SECTION
  2
BLOCKS
  0
BLOCK
  5
20
330
1F
100
AcDbEntity
  8
0
100
AcDbBlockBegin
  2
*Model_Space
 70
     0
 10
0.0
 20
0.0
 30
0.0
  3
*Model_Space
  1

  0
ENDBLK
  5
21
330
1F
100
AcDbEntity
  8
0
100
AcDbBlockEnd
  0
BLOCK
  5
1C
330
1B
100
AcDbEntity
 67
     1
  8
0
100
AcDbBlockBegin
  2
*Paper_Space
 70
     0
 10
0.0
 20
0.0
 30
0.0
  3
*Paper_Space
  1

  0
ENDBLK
  5
1D
330
1B
100
AcDbEntity
 67
     1
  8
0
100
AcDbBlockEnd
  0
BLOCK
  5
24
330
23
100
AcDbEntity
  8
0
100
AcDbBlockBegin
  2
*Paper_Space0
 70
     0
 10
0.0
 20
0.0
 30
0.0
  3
*Paper_Space0
  1

  0
ENDBLK
  5
25
330
23
100
AcDbEntity
  8
0
100
AcDbBlockEnd
  0
BLOCK
  5
89
330
87
100
AcDbEntity
  8
0
100
AcDbBlockBegin
  2
GENAXEH
 70
     0
 10
0.0
 20
0.0
 30
0.0
  3
GENAXEH
  1

  0
LINE
  5
88
330
87
100
AcDbEntity
  8
0
100
AcDbLine
 10
-1.0
 20
0.0
 30
0.0
 11
1.0
 21
0.0
 31
0.0
  0
ENDBLK
  5
8A
330
87
100
AcDbEntity
  8
0
100
AcDbBlockEnd
  0
BLOCK
  5
12EB
330
12EA
100
AcDbEntity
  8
0
100
AcDbBlockBegin
  2
*U4
 70
     1
 10
0.0
 20
0.0
 30
0.0
  3
*U4
  1

  0
ENDBLK
  5
12EC
330
12EA
100
AcDbEntity
  8
0
100
AcDbBlockEnd
  0
BLOCK
  5
2665
330
265B
100
AcDbEntity
  8
0
100
AcDbBlockBegin
  2
*D5
 70
     1
 10
0.0
 20
0.0
 30
0.0
  3
*D5
  1

  0
LINE
  5
2851
330
265B
100
AcDbEntity
  8
AM_5
100
AcDbLine
 10
2365.190575616649
 20
1118.410931141164
 30
0.0
 11
2365.190575616649
 21
1086.338303732627
 31
0.0
  0
LINE
  5
2852
330
265B
100
AcDbEntity
  8
AM_5
100
AcDbLine
 10
2505.19057561665
 20
1112.910931141164
 30
0.0
 11
2505.19057561665
 21
1086.338303732627
 31
0.0
  0
LINE
  5
2853
330
265B
100
AcDbEntity
  8
AM_5
100
AcDbLine
 10
2368.190575616649
 20
1087.838303732628
 30
0.0
 11
2502.19057561665
 21
1087.838303732628
 31
0.0
  0
SOLID
  5
2854
330
265B
100
AcDbEntity
  8
AM_5
100
AcDbTrace
 10
2368.190575616649
 20
1088.338303732627
 30
0.0
 11
2368.190575616649
 21
1087.338303732628
 31
0.0
 12
2365.190575616649
 22
1087.838303732628
 32
0.0
 13
2365.190575616649
 23
1087.838303732628
 33
0.0
  0
SOLID
  5
2855
330
265B
100
AcDbEntity
  8
AM_5
100
AcDbTrace
 10
2502.19057561665
 20
1088.338303732627
 30
0.0
 11
2502.19057561665
 21
1087.338303732628
 31
0.0
 12
2505.19057561665
 22
1087.838303732628
 32
0.0
 13
2505.19057561665
 23
1087.838303732628
 33
0.0
  0
MTEXT
  5
2856
330
265B
100
AcDbEntity
  8
AM_5
100
AcDbMText
 10
2435.19057561665
 20
1090.338303732627
 30
0.0
 40
3.0
 41
0.0
 71
     5
 72
     1
  1
140+stroke
 73
     1
 44
1.0
1001
ACAD
1000
MTEXTBEGIN
1070
    73
1070
     1
1070
    44
1040
1.0
1070
    74
1070
     0
1000
MTEXTEND
  0
POINT
  5
2857
330
265B
100
AcDbEntity
  8
Defpoints
 62
     0
100
AcDbPoint
 10
2365.190575616649
 20
1119.410931141164
 30
0.0
  0
POINT
  5
2858
330
265B
100
AcDbEntity
  8
Defpoints
 62
     0
100
AcDbPoint
 10
2505.19057561665
 20
1113.910931141164
 30
0.0
  0
POINT
  5
2859
330
265B
100
AcDbEntity
  8
Defpoints
 62
     0
100
AcDbPoint
 10
2505.19057561665
 20
1087.838303732628
 30
0.0
  0
ENDBLK
  5
2666
330
265B
100
AcDbEntity
  8
0
100
AcDbBlockEnd
  0
BLOCK
  5
26E2
330
26DC
100
AcDbEntity
  8
0
100
AcDbBlockBegin
  2
*D6
 70
     1
 10
0.0
 20
0.0
 30
0.0
  3
*D6
  1

  0
LINE
  5
2838
330
26DC
100
AcDbEntity
  8
AM_5
100
AcDbLine
 10
2498.757225969078
 20
1129.823404248085
 30
0.0
 11
2503.388145287137
 21
1141.573636409879
 31
0.0
  0
LINE
  5
2839
330
26DC
100
AcDbEntity
  8
AM_5
100
AcDbLine
 10
2503.388145287137
 20
1141.573636409879
 30
0.0
 11
2514.202925724142
 21
1141.573636409879
 31
0.0
  0
SOLID
  5
283A
330
26DC
100
AcDbEntity
  8
AM_5
100
AcDbTrace
 10
2498.292049318584
 20
1130.006736416115
 30
0.0
 11
2499.222402619573
 21
1129.640072080055
 31
0.0
 12
2497.657232960895
 22
1127.032344345118
 32
0.0
 13
2497.657232960895
 23
1127.032344345118
 33
0.0
  0
MTEXT
  5
283B
330
26DC
100
AcDbEntity
  8
AM_5
100
AcDbMText
 10
2509.29553550564
 20
1144.073636409879
 30
0.0
 40
3.0
 41
0.0
 71
     5
 72
     1
  1
\U+22058{}{\C2; H9}
 73
     1
 44
1.0
1001
ACAD
1000
MTEXTBEGIN
1070
    73
1070
     1
1070
    44
1040
1.0
1070
    74
1070
     0
1000
MTEXTEND
  0
POINT
  5
283C
330
26DC
100
AcDbEntity
  8
Defpoints
 62
     0
100
AcDbPoint
 10
2497.657232960895
 20
1127.032344345118
 30
0.0
  0
POINT
  5
283D
330
26DC
100
AcDbEntity
  8
Defpoints
 62
     0
100
AcDbPoint
 10
2494.723918272406
 20
1119.589517937207
 30
0.0
  0
ENDBLK
  5
26E3
330
26DC
100
AcDbEntity
  8
0
100
AcDbBlockEnd
  0
BLOCK
  5
2744
330
273A
100
AcDbEntity
  8
0
100
AcDbBlockBegin
  2
*D7
 70
     1
 10
0.0
 20
0.0
 30
0.0
  3
*D7
  1

  0
LINE
  5
278F
330
273A
100
AcDbEntity
  8
AM_5
100
AcDbLine
 10
2524.428208149661
 20
1114.761096705893
 30
0.0
 11
2524.428208149661
 21
1096.460931141164
 31
0.0
  0
LINE
  5
2790
330
273A
100
AcDbEntity
  8
AM_5
100
AcDbLine
 10
2540.428208149661
 20
1114.761096705893
 30
0.0
 11
2540.428208149661
 21
1096.460931141164
 31
0.0
  0
LINE
  5
2791
330
273A
100
AcDbEntity
  8
AM_5
100
AcDbLine
 10
2527.428208149661
 20
1097.960931141164
 30
0.0
 11
2537.428208149661
 21
1097.960931141164
 31
0.0
  0
SOLID
  5
2792
330
273A
100
AcDbEntity
  8
AM_5
100
AcDbTrace
 10
2527.428208149661
 20
1098.460931141164
 30
0.0
 11
2527.428208149661
 21
1097.460931141164
 31
0.0
 12
2524.428208149661
 22
1097.960931141164
 32
0.0
 13
2524.428208149661
 23
1097.960931141164
 33
0.0
  0
SOLID
  5
2793
330
273A
100
AcDbEntity
  8
AM_5
100
AcDbTrace
 10
2537.428208149661
 20
1098.460931141164
 30
0.0
 11
2537.428208149661
 21
1097.460931141164
 31
0.0
 12
2540.428208149661
 22
1097.960931141164
 32
0.0
 13
2540.428208149661
 23
1097.960931141164
 33
0.0
  0
MTEXT
  5
2794
330
273A
100
AcDbEntity
  8
AM_5
100
AcDbMText
 10
2532.428208149661
 20
1101.278302759572
 30
0.0
 40
3.0
 41
0.0
 71
     5
 72
     1
  1
16{}{\H0.71x;\C3;\S-0.05^ -0.4;}
 73
     1
 44
1.0
1001
ACAD
1000
MTEXTBEGIN
1070
    73
1070
     1
1070
    44
1040
1.0
1070
    74
1070
     0
1000
MTEXTEND
  0
POINT
  5
2795
330
273A
100
AcDbEntity
  8
Defpoints
 62
     0
100
AcDbPoint
 10
2524.428208149661
 20
1115.761096705893
 30
0.0
  0
POINT
  5
2796
330
273A
100
AcDbEntity
  8
Defpoints
 62
     0
100
AcDbPoint
 10
2540.428208149661
 20
1115.761096705893
 30
0.0
  0
POINT
  5
2797
330
273A
100
AcDbEntity
  8
Defpoints
 62
     0
100
AcDbPoint
 10
2540.428208149661
 20
1097.960931141164
 30
0.0
  0
ENDBLK
  5
2745
330
273A
100
AcDbEntity
  8
0
100
AcDbBlockEnd
  0
BLOCK
  5
27C5
330
27BB
100
AcDbEntity
  8
0
100
AcDbBlockBegin
  2
*D8
 70
     1
 10
0.0
 20
0.0
 30
0.0
  3
*D8
  1

  0
LINE
  5
2848
330
27BB
100
AcDbEntity
  8
AM_5
100
AcDbLine
 10
2365.190575616649
 20
1118.410931141164
 30
0.0
 11
2365.190575616649
 21
1095.025790787769
 31
0.0
  0
LINE
  5
2849
330
27BB
100
AcDbEntity
  8
AM_5
100
AcDbLine
 10
2387.190575616649
 20
1117.410931141164
 30
0.0
 11
2387.190575616649
 21
1095.025790787769
 31
0.0
  0
LINE
  5
284A
330
27BB
100
AcDbEntity
  8
AM_5
100
AcDbLine
 10
2368.190575616649
 20
1096.525790787769
 30
0.0
 11
2384.190575616649
 21
1096.525790787769
 31
0.0
  0
SOLID
  5
284B
330
27BB
100
AcDbEntity
  8
AM_5
100
AcDbTrace
 10
2368.190575616649
 20
1097.025790787769
 30
0.0
 11
2368.190575616649
 21
1096.025790787769
 31
0.0
 12
2365.190575616649
 22
1096.525790787769
 32
0.0
 13
2365.190575616649
 23
1096.525790787769
 33
0.0
  0
SOLID
  5
284C
330
27BB
100
AcDbEntity
  8
AM_5
100
AcDbTrace
 10
2384.190575616649
 20
1097.025790787769
 30
0.0
 11
2384.190575616649
 21
1096.025790787769
 31
0.0
 12
2387.190575616649
 22
1096.525790787769
 32
0.0
 13
2387.190575616649
 23
1096.525790787769
 33
0.0
  0
MTEXT
  5
284D
330
27BB
100
AcDbEntity
  8
AM_5
100
AcDbMText
 10
2376.19057561665
 20
1099.02608606336
 30
0.0
 40
3.0
 41
0.0
 71
     5
 72
     1
  1
22
 73
     1
 44
1.0
1001
ACAD
1000
MTEXTBEGIN
1070
    73
1070
     1
1070
    44
1040
1.0
1070
    74
1070
     0
1000
MTEXTEND
  0
POINT
  5
284E
330
27BB
100
AcDbEntity
  8
Defpoints
 62
     0
100
AcDbPoint
 10
2365.190575616649
 20
1119.410931141164
 30
0.0
  0
POINT
  5
284F
330
27BB
100
AcDbEntity
  8
Defpoints
 62
     0
100
AcDbPoint
 10
2387.190575616649
 20
1118.410931141164
 30
0.0
  0
POINT
  5
2850
330
27BB
100
AcDbEntity
  8
Defpoints
 62
     0
100
AcDbPoint
 10
2387.190575616649
 20
1096.525790787769
 30
0.0
  0
ENDBLK
  5
27C6
330
27BB
100
AcDbEntity
  8
0
100
AcDbBlockEnd
  0
BLOCK
  5
280F
330
2805
100
AcDbEntity
  8
0
100
AcDbBlockBegin
  2
*D9
 70
     1
 10
0.0
 20
0.0
 30
0.0
  3
*D9
  1

  0
LINE
  5
283F
330
2805
100
AcDbEntity
  8
AM_5
100
AcDbLine
 10
2387.190575616649
 20
1117.410931141164
 30
0.0
 11
2387.190575616649
 21
1095.02579078777
 31
0.0
  0
LINE
  5
2840
330
2805
100
AcDbEntity
  8
AM_5
100
AcDbLine
 10
2505.19057561665
 20
1112.910931141164
 30
0.0
 11
2505.19057561665
 21
1095.02579078777
 31
0.0
  0
LINE
  5
2841
330
2805
100
AcDbEntity
  8
AM_5
100
AcDbLine
 10
2390.190575616649
 20
1096.52579078777
 30
0.0
 11
2502.19057561665
 21
1096.52579078777
 31
0.0
  0
SOLID
  5
2842
330
2805
100
AcDbEntity
  8
AM_5
100
AcDbTrace
 10
2390.190575616649
 20
1097.025790787769
 30
0.0
 11
2390.190575616649
 21
1096.025790787769
 31
0.0
 12
2387.190575616649
 22
1096.52579078777
 32
0.0
 13
2387.190575616649
 23
1096.52579078777
 33
0.0
  0
SOLID
  5
2843
330
2805
100
AcDbEntity
  8
AM_5
100
AcDbTrace
 10
2502.19057561665
 20
1097.025790787769
 30
0.0
 11
2502.19057561665
 21
1096.025790787769
 31
0.0
 12
2505.19057561665
 22
1096.52579078777
 32
0.0
 13
2505.19057561665
 23
1096.52579078777
 33
0.0
  0
MTEXT
  5
2844
330
2805
100
AcDbEntity
  8
AM_5
100
AcDbMText
 10
2446.190575616649
 20
1099.025790787769
 30
0.0
 40
3.0
 41
0.0
 71
     5
 72
     1
  1
118+stroke
 73
     1
 44
1.0
1001
ACAD
1000
MTEXTBEGIN
1070
    73
1070
     1
1070
    44
1040
1.0
1070
    74
1070
     0
1000
MTEXTEND
  0
POINT
  5
2845
330
2805
100
AcDbEntity
  8
Defpoints
 62
     0
100
AcDbPoint
 10
2387.190575616649
 20
1118.410931141164
 30
0.0
  0
POINT
  5
2846
330
2805
100
AcDbEntity
  8
Defpoints
 62
     0
100
AcDbPoint
 10
2505.19057561665
 20
1113.910931141164
 30
0.0
  0
POINT
  5
2847
330
2805
100
AcDbEntity
  8
Defpoints
 62
     0
100
AcDbPoint
 10
2505.19057561665
 20
1096.52579078777
 30
0.0
  0
ENDBLK
  5
2810
330
2805
100
AcDbEntity
  8
0
100
AcDbBlockEnd
  0
BLOCK
  5
28FE
330
28F9
100
AcDbEntity
  8
0
100
AcDbBlockBegin
  2
*S11
 70
     1
 10
0.0
 20
0.0
 30
0.0
  3
*S11
  1

  0
LINE
  5
28FA
330
28F9
100
AcDbEntity
  8
AM_5
 62
     5
100
AcDbLine
 10
2399.345031734193
 20
1142.3013216166
 30
0.0
 11
2382.661793041601
 21
1142.3013216166
 31
0.0
  0
LINE
  5
28FB
330
28F9
100
AcDbEntity
  8
AM_5
 62
     5
100
AcDbLine
 10
2382.661793041601
 20
1142.3013216166
 30
0.0
 11
2376.264415077767
 21
1131.158200058393
 31
0.0
  0
TRACE
  5
28FC
330
28F9
100
AcDbEntity
  8
AM_5
 62
     5
370
    35
100
AcDbTrace
 10
2375.864805158514
 20
1131.387620125131
 30
0.0
 11
2376.66402499702
 21
1130.928779991654
 31
0.0
 12
2374.521796654522
 22
1128.122861357198
 32
0.0
 13
2374.521796654522
 23
1128.122861357198
 33
0.0
  0
MTEXT
  5
28FD
330
28F9
100
AcDbEntity
  8
AM_5
 62
     2
100
AcDbMText
 10
2399.345031734193
 20
1147.064783271581
 30
0.0
 40
3.5
 41
0.0
 71
     7
 72
     5
  1

  7
ACISOTS
 73
     1
 44
1.0
1001
ACAD
1000
MTEXTBEGIN
1070
    73
1070
     1
1070
    44
1040
1.0
1070
    74
1070
     0
1000
MTEXTEND
  0
ENDBLK
  5
28FF
330
28F9
100
AcDbEntity
  8
0
100
AcDbBlockEnd
  0
BLOCK
  5
2906
330
2901
100
AcDbEntity
  8
0
100
AcDbBlockBegin
  2
*S12
 70
     1
 10
0.0
 20
0.0
 30
0.0
  3
*S12
  1

  0
LINE
  5
2902
330
2901
100
AcDbEntity
  8
AM_5
 62
     5
100
AcDbLine
 10
2505.511317696043
 20
1193.513333491275
 30
0.0
 11
2488.929843540289
 21
1193.513333491275
 31
0.0
  0
LINE
  5
2903
330
2901
100
AcDbEntity
  8
AM_5
 62
     5
100
AcDbLine
 10
2488.929843540289
 20
1193.513333491275
 30
0.0
 11
2482.253391754888
 21
1180.300296113394
 31
0.0
  0
TRACE
  5
2904
330
2901
100
AcDbEntity
  8
AM_5
 62
     5
370
    35
100
AcDbTrace
 10
2481.842128610561
 20
1180.508104392118
 30
0.0
 11
2482.664654899215
 21
1180.09248783467
 31
0.0
 12
2480.674931160071
 22
1177.176442379524
 32
0.0
 13
2480.674931160071
 23
1177.176442379524
 33
0.0
  0
MTEXT
  5
2905
330
2901
100
AcDbEntity
  8
AM_5
 62
     2
100
AcDbMText
 10
2505.511317696043
 20
1198.401612625526
 30
0.0
 40
3.5
 41
0.0
 71
     7
 72
     5
  1

  7
ACISOTS
 73
     1
 44
1.0
1001
ACAD
1000
MTEXTBEGIN
1070
    73
1070
     1
1070
    44
1040
1.0
1070
    74
1070
     0
1000
MTEXTEND
  0
ENDBLK
  5
2907
330
2901
100
AcDbEntity
  8
0
100
AcDbBlockEnd
  0
ENDSEC
  0
SECTION
  2
ENTITIES
  0
TEXT
  5
E1F
330
1F
100
AcDbEntity
  8
AM_5
100
AcDbText
 10
2673.874599262465
 20
1604.83630397753
 30
0.0
 40
6.0
  1

100
AcDbText
  0
TEXT
  5
196E
330
1F
100
AcDbEntity
  8
LOGO
 62
     7
100
AcDbText
 10
2368.695136441186
 20
814.2944897179678
 30
0.0
 40
4.607332778280542
  1
Order example:
 41
0.8
  7
CHINESET
100
AcDbText
  0
TEXT
  5
196F
330
1F
100
AcDbEntity
  8
LOGO
 62
     7
100
AcDbText
 10
2369.521730042702
 20
820.7806603093626
 30
0.0
 40
6.910999167420812
  1
訂購代號:
  7
CHINESET
100
AcDbText
  0
LINE
  5
1970
330
1F
100
AcDbEntity
  8
LOGO
 62
     1
100
AcDbLine
 10
2784.957996157781
 20
829.4324453907041
 30
0.0
 11
2290.67224388022
 21
829.4324453907041
 31
0.0
  0
LINE
  5
1971
330
1F
100
AcDbEntity
  8
LOGO
 62
     1
100
AcDbLine
 10
2366.69323472185
 20
794.8774495536
 30
0.0
 11
2366.69323472185
 21
829.4324453907041
 31
0.0
  0
TEXT
  5
1972
330
1F
100
AcDbEntity
  8
LOGO
  6
Continuous
 62
     5
100
AcDbText
 10
2303.08455371262
 20
801.6657263377634
 30
0.0
 40
5.183249375565611
  1
金器工業股份有限公司
  7
CHINESET
100
AcDbText
  0
TEXT
  5
1973
330
1F
100
AcDbEntity
  8
LOGO
  6
Continuous
 62
     5
100
AcDbText
 10
2293.563950065025
 20
796.4814614517028
 30
0.0
 40
3.455499583710406
  1
MINDMAN INDUSTRIAL CO., LTD.
 41
0.85
  7
CHINESET
100
AcDbText
  0
LINE
  5
1974
330
1F
100
AcDbEntity
  8
LOGO
 62
     1
100
AcDbLine
 10
2366.69323472185
 20
822.5214462232834
 30
0.0
 11
2316.012574160763
 21
822.5214462232834
 31
0.0
  0
LINE
  5
1975
330
1F
100
AcDbEntity
  8
LOGO
 62
     1
100
AcDbLine
 10
2366.69323472185
 20
815.6104470558625
 30
0.0
 11
2316.012574160763
 21
815.6104470558625
 31
0.0
  0
LINE
  5
1976
330
1F
100
AcDbEntity
  8
LOGO
 62
     1
100
AcDbLine
 10
2366.69323472185
 20
808.699447888442
 30
0.0
 11
2290.67224388022
 21
808.699447888442
 31
0.0
  0
LINE
  5
1977
330
1F
100
AcDbEntity
  8
LOGO
 62
     1
100
AcDbLine
 10
2316.012574160763
 20
808.699447888442
 30
0.0
 11
2316.012574160763
 21
829.4324453907041
 31
0.0
  0
TEXT
  5
1978
330
1F
100
AcDbEntity
  8
LOGO
 62
     6
100
AcDbText
 10
2348.840389972056
 20
810.4271976802968
 30
0.0
 40
3.455499583710406
  1
m/m
  7
CHINESET
 72
     1
 11
2354.928651143355
 21
812.154947472152
 31
0.0
100
AcDbText
 73
     2
  0
TEXT
  5
1979
330
1F
100
AcDbEntity
  8
LOGO
 62
     6
100
AcDbText
 10
2348.840389972056
 20
824.2491960151383
 30
0.0
 40
3.455499583710406
  1
1 : 1
  7
CHINESET
 72
     1
 11
2354.928651143355
 21
825.9769458069936
 31
0.0
100
AcDbText
 73
     2
  0
LINE
  5
197A
330
1F
100
AcDbEntity
  8
LOGO
 62
     1
100
AcDbLine
 10
2343.656570830447
 20
808.699447888442
 30
0.0
 11
2343.656570830447
 21
829.4324453907041
 31
0.0
  0
CIRCLE
  5
197B
330
1F
100
AcDbEntity
  8
LOGO
  6
Continuous
 62
     6
100
AcDbCircle
 10
2350.054860516742
 20
819.0733379784694
 30
0.0
 40
2.006344391594051
  0
CIRCLE
  5
197C
330
1F
100
AcDbEntity
  8
LOGO
  6
Continuous
 62
     6
100
AcDbCircle
 10
2350.054860516742
 20
819.0733379784694
 30
0.0
 40
1.175540201854151
  0
LINE
  5
197D
330
1F
100
AcDbEntity
  8
LOGO
 62
     6
100
AcDbLine
 10
2362.662961479876
 20
817.0669935868749
 30
0.0
 11
2362.662961479876
 21
821.0796823700638
 31
0.0
  0
LINE
  5
197E
330
1F
100
AcDbEntity
  8
LOGO
 62
     6
100
AcDbLine
 10
2356.373186981893
 20
817.8977977766153
 30
0.0
 11
2356.373186981893
 21
820.2488781803236
 31
0.0
  0
LINE
  5
197F
330
1F
100
AcDbEntity
  8
LOGO
  6
Continuous
 62
     6
100
AcDbLine
 10
2356.373186981893
 20
820.2488781803236
 30
0.0
 11
2362.662961479876
 21
821.0796823700638
 31
0.0
  0
LINE
  5
1980
330
1F
100
AcDbEntity
  8
LOGO
  6
Continuous
 62
     6
100
AcDbLine
 10
2356.373186981893
 20
817.8977977766153
 30
0.0
 11
2362.662961479876
 21
817.0669935868749
 31
0.0
  0
TEXT
  5
1981
330
1F
100
AcDbEntity
  8
LOGO
 62
     6
100
AcDbText
 10
2318.861818683581
 20
824.250896556272
 30
226.4677501133661
 40
3.455499583710406
  1
比例 Scale:
 41
0.9
  7
CHINESET
 72
     4
 11
2329.834572495604
 21
825.9769458069936
 31
226.4677501133661
100
AcDbText
  0
TEXT
  5
1982
330
1F
100
AcDbEntity
  8
LOGO
 62
     6
100
AcDbText
 10
2320.069700904137
 20
817.3868039817897
 30
226.4677501133661
 40
3.455499583710406
  1
投影 View:
 41
0.9
  7
CHINESET
 72
     4
 11
2329.834572495604
 21
819.0659466395727
 31
226.4677501133661
100
AcDbText
  0
TEXT
  5
1983
330
1F
100
AcDbEntity
  8
LOGO
 62
     6
100
AcDbText
 10
2320.407537693794
 20
810.4271976802968
 30
226.4677501133661
 40
3.455499583710406
  1
單位 Unit:
 41
0.9
  7
CHINESET
 72
     4
 11
2329.834572495604
 21
812.154947472152
 31
226.4677501133661
100
AcDbText
  0
LWPOLYLINE
  5
1984
330
1F
100
AcDbEntity
  8
0
 62
     4
100
AcDbPolyline
 90
        4
 70
     1
 43
0.0
 10
2290.67224388022
 20
829.4324453907041
 10
2784.957996157779
 20
829.4324453907041
 10
2784.957996157779
 20
1212.179075450954
 10
2290.67224388022
 20
1212.179075450954
1001
GENIUS_GENREC_14
1002
{
1000
PYDIR
1011
2290.67224388022
1021
1212.179075450954
1031
0.0
1002
}
1002
{
1000
PXDIR
1011
2784.957996157779
1021
829.4324453907041
1031
0.0
1002
}
1002
{
1000
PORI
1011
2290.67224388022
1021
829.4324453907041
1031
0.0
1002
}
1002
{
1000
PINS
1011
2290.67224388022
1021
829.4324453907041
1031
0.0
1002
}
1002
{
1000
PINS2
1011
2784.957996157779
1021
1212.179075450954
1031
0.0
1002
}
1002
{
1000
C
1070
     1
1002
}
1001
GENIUS_GENODEF_13
1002
{
1000
HIER
1070
     0
1002
}
1002
{
1000
MANEDIT
1070
     0
1002
}
1002
{
1000
NOSEL
1070
     0
1002
}
1002
{
1000
BEHIND
1070
     0
1002
}
1002
{
1000
OTHER
1070
     0
1002
}
1002
{
1000
REACTOR
1002
}
1001
GENIUS_GENOBJ-N-REC_13
1002
{
1000
OWNER
1000
GEN
1002
}
  0
SOLID
  5
1985
330
1F
100
AcDbEntity
  8
LOGO
 62
     5
100
AcDbTrace
 10
2294.257380154869
 20
814.4437240947256
 30
0.0
 11
2295.751447502557
 21
814.4437240947253
 31
0.0
 12
2301.985314711872
 22
828.6116041158988
 32
0.0
 13
2303.479382059561
 23
828.6116041158978
 33
0.0
  0
SOLID
  5
1986
330
1F
100
AcDbEntity
  8
LOGO
 62
     5
100
AcDbTrace
 10
2296.369682267119
 20
814.4437240947256
 30
0.0
 11
2297.863749614805
 21
814.4437240947256
 31
0.0
 12
2303.479382059561
 22
827.4781737142044
 32
0.0
 13
2301.985314711872
 23
821.9999267726841
 33
0.0
  0
SOLID
  5
1987
330
1F
100
AcDbEntity
  8
LOGO
 62
     2
100
AcDbTrace
 10
2295.751447502557
 20
814.4437240947253
 30
0.0
 11
2296.369682267119
 21
814.4437240947256
 31
0.0
 12
2303.479382059561
 22
828.6116041158978
 32
0.0
 13
2304.097616824122
 23
828.6116041158978
 33
0.0
  0
SOLID
  5
1988
330
1F
100
AcDbEntity
  8
LOGO
 62
     5
100
AcDbTrace
 10
2291.862023806332
 20
809.2917677233906
 30
0.0
 11
2292.377219443467
 21
809.2917677233906
 31
0.0
 12
2293.828050457259
 22
811.8677459090578
 32
0.0
 13
2294.343246094391
 23
811.8677459090578
 33
0.0
  0
SOLID
  5
1989
330
1F
100
AcDbEntity
  8
LOGO
 62
     5
100
AcDbTrace
 10
2293.828050457259
 20
811.8677459090578
 30
0.0
 11
2294.343246094391
 21
811.8677459090578
 31
0.0
 12
2293.828050457259
 22
809.2917677233906
 32
0.0
 13
2294.343246094391
 23
809.2917677233906
 33
0.0
  0
SOLID
  5
198A
330
1F
100
AcDbEntity
  8
LOGO
 62
     5
100
AcDbTrace
 10
2293.828050457259
 20
809.2917677233906
 30
0.0
 11
2294.343246094391
 21
809.2917677233906
 31
0.0
 12
2295.794077108186
 22
811.8677459090578
 32
0.0
 13
2296.309272745319
 23
811.8677459090578
 33
0.0
  0
SOLID
  5
198B
330
1F
100
AcDbEntity
  8
LOGO
 62
     5
100
AcDbTrace
 10
2295.794077108186
 20
811.8677459090578
 30
0.0
 11
2296.309272745319
 21
811.8677459090578
 31
0.0
 12
2295.794077108186
 22
809.2917677233906
 32
0.0
 13
2296.309272745319
 23
809.2917677233906
 33
0.0
  0
POLYLINE
  5
198C
330
1F
100
AcDbEntity
  8
LOGO
 62
     5
100
AcDb2dPolyline
 66
     1
 10
0.0
 20
0.0
 30
0.0
 40
0.5160212711674206
 41
0.5160212711674206
  0
VERTEX
  5
198D
330
198C
100
AcDbEntity
  8
LOGO
 62
     5
100
AcDbVertex
100
AcDb2dVertex
 10
2313.063259361296
 20
810.8373546347909
 30
0.0
 42
1.0
  0
VERTEX
  5
198E
330
198C
100
AcDbEntity
  8
LOGO
 62
     5
100
AcDbVertex
100
AcDb2dVertex
 10
2311.515195547794
 20
810.8373546347909
 30
0.0
 42
1.0
  0
SEQEND
  5
198F
330
198C
100
AcDbEntity
  8
LOGO
 62
     5
  0
POLYLINE
  5
1990
330
1F
100
AcDbEntity
  8
LOGO
 62
     5
100
AcDb2dPolyline
 66
     1
 10
0.0
 20
0.0
 30
0.0
 70
     1
  0
VERTEX
  5
1991
330
1990
100
AcDbEntity
  8
LOGO
 62
     5
100
AcDbVertex
100
AcDb2dVertex
 10
2308.597026401463
 20
810.5797568162238
 30
0.0
 42
1.000000057330635
  0
VERTEX
  5
1992
330
1990
100
AcDbEntity
  8
LOGO
 62
     5
100
AcDbVertex
100
AcDb2dVertex
 10
2310.142613312863
 20
810.5797568162238
 30
0.0
 42
1.000000057330635
  0
SEQEND
  5
1993
330
1990
100
AcDbEntity
  8
LOGO
 62
     5
  0
CIRCLE
  5
1994
330
1F
100
AcDbEntity
  8
LOGO
 62
     5
100
AcDbCircle
 10
2309.369819857164
 20
810.5797568162238
 30
0.0
 40
0.7727934557003295
  0
POLYLINE
  5
1995
330
1F
100
AcDbEntity
  8
LOGO
 62
     5
100
AcDb2dPolyline
 66
     1
 10
0.0
 20
0.0
 30
0.0
 70
     1
 40
0.5160212711674206
 41
0.5160212711674206
  0
VERTEX
  5
1996
330
1995
100
AcDbEntity
  8
LOGO
 62
     5
100
AcDbVertex
100
AcDb2dVertex
 10
2308.337777314829
 20
810.5797568162238
 30
0.0
 42
1.0
  0
VERTEX
  5
1997
330
1995
100
AcDbEntity
  8
LOGO
 62
     5
100
AcDbVertex
100
AcDb2dVertex
 10
2310.401862399499
 20
810.5797568162238
 30
0.0
 42
1.0
  0
SEQEND
  5
1998
330
1995
100
AcDbEntity
  8
LOGO
 62
     5
  0
LINE
  5
1999
330
1F
100
AcDbEntity
  8
LOGO
 62
     5
100
AcDbLine
 10
2313.319618728812
 20
809.2917677233906
 30
0.0
 11
2313.319618728812
 21
810.8373546347909
 31
0.0
  0
SOLID
  5
199A
330
1F
100
AcDbEntity
  8
LOGO
 62
     5
100
AcDbTrace
 10
2310.142561793302
 20
811.8677459090578
 30
0.0
 11
2310.657757430435
 21
811.8677459090578
 31
0.0
 12
2310.142561793302
 22
809.2917677233906
 32
0.0
 13
2310.657757430435
 23
809.2917677233906
 33
0.0
  0
SOLID
  5
199B
330
1F
100
AcDbEntity
  8
LOGO
 62
     5
100
AcDbTrace
 10
2311.258836180277
 20
809.2917677233906
 30
0.0
 11
2311.774031817411
 21
809.2917677233906
 31
0.0
 12
2311.258836180277
 22
811.8677459090578
 32
0.0
 13
2311.774031817411
 23
811.8677459090578
 33
0.0
  0
SOLID
  5
199C
330
1F
100
AcDbEntity
  8
LOGO
 62
     5
100
AcDbTrace
 10
2312.804423091678
 20
810.8373546347909
 30
0.0
 11
2313.319618728812
 21
810.8373546347909
 31
0.0
 12
2312.804423091678
 22
809.2917677233906
 32
0.0
 13
2313.319618728812
 23
809.2917677233906
 33
0.0
  0
SOLID
  5
199D
330
1F
100
AcDbEntity
  8
LOGO
 62
     5
100
AcDbTrace
 10
2311.207316616564
 20
827.4781737142044
 30
0.0
 11
2309.713249268877
 21
821.9999267726841
 31
0.0
 12
2311.207316616564
 22
814.4437240947253
 32
0.0
 13
2309.713249268877
 23
814.4437240947253
 33
0.0
  0
SOLID
  5
199E
330
1F
100
AcDbEntity
  8
LOGO
 62
     5
100
AcDbTrace
 10
2311.825551381124
 20
814.4437240947253
 30
0.0
 11
2313.319618728812
 21
814.4437240947253
 31
0.0
 12
2311.825551381124
 22
828.6116041158978
 32
0.0
 13
2313.319618728812
 23
828.6116041158988
 33
0.0
  0
SOLID
  5
199F
330
1F
100
AcDbEntity
  8
LOGO
 62
     2
100
AcDbTrace
 10
2311.207316616564
 20
828.6116041158988
 30
0.0
 11
2311.825551381124
 21
828.6116041158978
 31
0.0
 12
2311.207316616564
 22
814.4437240947253
 32
0.0
 13
2311.825551381124
 23
814.4437240947253
 33
0.0
  0
POLYLINE
  5
19A0
330
1F
100
AcDbEntity
  8
LOGO
 62
     5
100
AcDb2dPolyline
 66
     1
 10
0.0
 20
0.0
 30
0.0
 40
0.5160212711674206
 41
0.5160212711674206
  0
VERTEX
  5
19A1
330
19A0
100
AcDbEntity
  8
LOGO
 62
     5
100
AcDbVertex
100
AcDb2dVertex
 10
2305.678754216007
 20
810.8373546347909
 30
0.0
 42
1.0
  0
VERTEX
  5
19A2
330
19A0
100
AcDbEntity
  8
LOGO
 62
     5
100
AcDbVertex
100
AcDb2dVertex
 10
2304.130690402503
 20
810.8373546347909
 30
0.0
 42
1.0
  0
SEQEND
  5
19A3
330
19A0
100
AcDbEntity
  8
LOGO
 62
     5
  0
POLYLINE
  5
19A4
330
1F
100
AcDbEntity
  8
LOGO
 62
     5
100
AcDb2dPolyline
 66
     1
 10
0.0
 20
0.0
 30
0.0
 40
0.5160212711674206
 41
0.5160212711674206
  0
VERTEX
  5
19A5
330
19A4
100
AcDbEntity
  8
LOGO
 62
     5
100
AcDbVertex
100
AcDb2dVertex
 10
2307.224341127406
 20
810.8373546347909
 30
0.0
 42
1.0
  0
VERTEX
  5
19A6
330
19A4
100
AcDbEntity
  8
LOGO
 62
     5
100
AcDbVertex
100
AcDb2dVertex
 10
2305.676277313904
 20
810.8373546347909
 30
0.0
 42
1.0
  0
SEQEND
  5
19A7
330
19A4
100
AcDbEntity
  8
LOGO
 62
     5
  0
POLYLINE
  5
19A8
330
1F
100
AcDbEntity
  8
LOGO
 62
     5
100
AcDb2dPolyline
 66
     1
 10
0.0
 20
0.0
 30
0.0
 40
0.5160212711674206
 41
0.5160212711674206
  0
VERTEX
  5
19A9
330
19A8
100
AcDbEntity
  8
LOGO
 62
     5
100
AcDbVertex
100
AcDb2dVertex
 10
2299.839835982115
 20
810.8373546347909
 30
0.0
 42
1.0
  0
VERTEX
  5
19AA
330
19A8
100
AcDbEntity
  8
LOGO
 62
     5
100
AcDbVertex
100
AcDb2dVertex
 10
2298.291772168614
 20
810.8373546347909
 30
0.0
 42
1.0
  0
SEQEND
  5
19AB
330
19A8
100
AcDbEntity
  8
LOGO
 62
     5
  0
SOLID
  5
19AC
330
1F
100
AcDbEntity
  8
LOGO
 62
     5
100
AcDbTrace
 10
2298.035412801098
 20
811.8677459090578
 30
0.0
 11
2298.550608438231
 21
811.8677459090578
 31
0.0
 12
2298.035412801098
 22
809.2917677233906
 32
0.0
 13
2298.550608438231
 23
809.2917677233906
 33
0.0
  0
SOLID
  5
19AD
330
1F
100
AcDbEntity
  8
LOGO
 62
     5
100
AcDbTrace
 10
2299.580999712499
 20
810.8373546347909
 30
0.0
 11
2300.096195349633
 21
810.8373546347909
 31
0.0
 12
2299.580999712499
 22
809.2917677233906
 32
0.0
 13
2300.096195349633
 23
809.2917677233906
 33
0.0
  0
POLYLINE
  5
19AE
330
1F
100
AcDbEntity
  8
LOGO
 62
     5
100
AcDb2dPolyline
 66
     1
 10
0.0
 20
0.0
 30
0.0
 70
     1
 40
0.5160212711674206
 41
0.5160212711674206
  0
VERTEX
  5
19AF
330
19AE
100
AcDbEntity
  8
LOGO
 62
     5
100
AcDbVertex
100
AcDb2dVertex
 10
2300.953272169538
 20
810.5797568162238
 30
0.0
 42
1.0
  0
VERTEX
  5
19B0
330
19AE
100
AcDbEntity
  8
LOGO
 62
     5
100
AcDbVertex
100
AcDb2dVertex
 10
2303.017357254208
 20
810.5797568162238
 30
0.0
 42
1.0
  0
SEQEND
  5
19B1
330
19AE
100
AcDbEntity
  8
LOGO
 62
     5
  0
SOLID
  5
19B2
330
1F
100
AcDbEntity
  8
LOGO
 62
     5
100
AcDbTrace
 10
2302.758056648011
 20
812.6405393647587
 30
0.0
 11
2303.273252285143
 21
812.6405393647587
 31
0.0
 12
2302.758056648011
 22
809.2917677233906
 32
0.0
 13
2303.273252285143
 23
809.2917677233906
 33
0.0
  0
SOLID
  5
19B3
330
1F
100
AcDbEntity
  8
LOGO
 62
     5
100
AcDbTrace
 10
2303.874331034988
 20
811.8677459090578
 30
0.0
 11
2304.389526672121
 21
811.8677459090578
 31
0.0
 12
2303.874331034988
 22
809.2917677233906
 32
0.0
 13
2304.389526672121
 23
809.2917677233906
 33
0.0
  0
SOLID
  5
19B4
330
1F
100
AcDbEntity
  8
LOGO
 62
     5
100
AcDbTrace
 10
2305.419917946387
 20
810.8373546347909
 30
0.0
 11
2305.935113583522
 21
810.8373546347909
 31
0.0
 12
2305.419917946387
 22
809.2917677233906
 32
0.0
 13
2305.935113583522
 23
809.2917677233906
 33
0.0
  0
SOLID
  5
19B5
330
1F
100
AcDbEntity
  8
LOGO
 62
     5
100
AcDbTrace
 10
2306.965504857789
 20
810.8373546347909
 30
0.0
 11
2307.480700494922
 21
810.8373546347909
 31
0.0
 12
2306.965504857789
 22
809.2917677233899
 32
0.0
 13
2307.480700494922
 23
809.2917677233899
 33
0.0
  0
SOLID
  5
19B6
330
1F
100
AcDbEntity
  8
LOGO
 62
     5
100
AcDbTrace
 10
2296.91913841412
 20
812.2283828550516
 30
0.0
 11
2297.434334051255
 21
812.2283828550516
 31
0.0
 12
2296.91913841412
 22
812.6405393647587
 32
0.0
 13
2297.434334051255
 23
812.6405393647587
 33
0.0
  0
SOLID
  5
19B7
330
1F
100
AcDbEntity
  8
LOGO
 62
     5
100
AcDbTrace
 10
2296.91913841412
 20
811.8677459090578
 30
0.0
 11
2297.434334051255
 21
811.8677459090578
 31
0.0
 12
2296.91913841412
 22
809.2917677233899
 32
0.0
 13
2297.434334051255
 23
809.2917677233906
 33
0.0
  0
SOLID
  5
19B8
330
1F
100
AcDbEntity
  8
LOGO
 62
     5
100
AcDbTrace
 10
2301.985314711872
 20
814.4437240947256
 30
0.0
 11
2303.479382059561
 21
814.4437240947256
 31
0.0
 12
2301.985314711872
 22
821.9999267726841
 32
0.0
 13
2303.479382059561
 23
827.4781737142044
 33
0.0
  0
SOLID
  5
19B9
330
1F
100
AcDbEntity
  8
LOGO
 62
     5
100
AcDbTrace
 10
2304.097616824122
 20
828.6116041158978
 30
0.0
 11
2305.591684171808
 21
828.6116041158988
 31
0.0
 12
2304.097616824122
 22
815.5771544964192
 32
0.0
 13
2305.591684171808
 23
821.0554014379395
 33
0.0
  0
SOLID
  5
19BA
330
1F
100
AcDbEntity
  8
LOGO
 62
     2
100
AcDbTrace
 10
2303.479382059561
 20
828.6116041158978
 30
0.0
 11
2304.097616824122
 21
828.6116041158978
 31
0.0
 12
2303.479382059561
 22
814.4437240947256
 32
0.0
 13
2304.097616824122
 23
814.4437240947256
 33
0.0
  0
SOLID
  5
19BB
330
1F
100
AcDbEntity
  8
LOGO
 62
     5
100
AcDbTrace
 10
2304.097616824122
 20
815.5771544964192
 30
0.0
 11
2305.591684171808
 21
821.0554014379395
 31
0.0
 12
2311.207316616564
 22
828.6116041158988
 32
0.0
 13
2309.713249268877
 23
828.6116041158988
 33
0.0
  0
SOLID
  5
19BC
330
1F
100
AcDbEntity
  8
LOGO
 62
     5
100
AcDbTrace
 10
2304.097616824122
 20
814.4437240947256
 30
0.0
 11
2305.591684171808
 21
814.4437240947256
 31
0.0
 12
2311.207316616564
 22
827.4781737142044
 32
0.0
 13
2309.713249268877
 23
821.9999267726841
 33
0.0
  0
SOLID
  5
19BD
330
1F
100
AcDbEntity
  8
LOGO
 62
     2
100
AcDbTrace
 10
2303.479382059561
 20
814.4437240947256
 30
0.0
 11
2304.097616824122
 21
814.4437240947256
 31
0.0
 12
2311.207316616564
 22
828.6116041158988
 32
0.0
 13
2311.825551381124
 23
828.6116041158978
 33
0.0
  0
LWPOLYLINE
  5
19BE
330
1F
100
AcDbEntity
  8
0
 62
     1
100
AcDbPolyline
 90
        4
 70
     1
 43
0.0
 10
2290.67224388022
 20
829.4324453907041
 10
2784.957996157779
 20
829.4324453907041
 10
2784.957996157779
 20
794.8774495535993
 10
2290.67224388022
 20
794.8774495535993
1001
GENIUS_GENREC_14
1002
{
1000
PYDIR
1011
2290.67224388022
1021
794.8774495535993
1031
0.0
1002
}
1002
{
1000
PXDIR
1011
2784.957996157779
1021
829.4324453907041
1031
0.0
1002
}
1002
{
1000
PORI
1011
2290.67224388022
1021
829.4324453907041
1031
0.0
1002
}
1002
{
1000
PINS
1011
2290.67224388022
1021
829.4324453907041
1031
0.0
1002
}
1002
{
1000
PINS2
1011
2784.957996157779
1021
794.8774495535993
1031
0.0
1002
}
1002
{
1000
C
1070
     1
1002
}
1001
GENIUS_GENOBJ-N-REC_13
1002
{
1000
OWNER
1000
GEN
1002
}
1001
GENIUS_GENODEF_13
1002
{
1000
HIER
1070
     0
1002
}
1002
{
1000
MANEDIT
1070
     0
1002
}
1002
{
1000
NOSEL
1070
     0
1002
}
1002
{
1000
BEHIND
1070
     0
1002
}
1002
{
1000
OTHER
1070
     0
1002
}
1002
{
1000
REACTOR
1002
}
  0
LINE
  5
19BF
330
1F
100
AcDbEntity
  8
LOGO
 62
     6
100
AcDbLine
 10
2437.258761758619
 20
810.4271976802975
 30
0.0
 11
2437.258761758619
 21
797.7570325400251
 31
0.0
  0
LINE
  5
19C0
330
1F
100
AcDbEntity
  8
LOGO
 62
     6
100
AcDbLine
 10
2414.222097867216
 20
810.4271976802975
 30
0.0
 11
2414.222097867216
 21
797.7570325400251
 31
0.0
  0
LINE
  5
19C1
330
1F
100
AcDbEntity
  8
LOGO
 62
     6
100
AcDbLine
 10
2437.258761758619
 20
797.7570325400251
 30
0.0
 11
2414.222097867216
 21
797.7570325400251
 31
0.0
  0
LINE
  5
19C2
330
1F
100
AcDbEntity
  8
LOGO
 62
     6
100
AcDbLine
 10
2442.944176658031
 20
825.9769458069936
 30
0.0
 11
2414.222097867216
 21
825.9769458069936
 31
0.0
  0
LINE
  5
19C3
330
1F
100
AcDbEntity
  8
LOGO
 62
     6
100
AcDbLine
 10
2442.944176658031
 20
815.6104470558625
 30
0.0
 11
2414.222097867216
 21
815.6104470558625
 31
0.0
  0
LINE
  5
19C4
330
1F
100
AcDbEntity
  8
LOGO
 62
     6
100
AcDbLine
 10
2414.222097867216
 20
825.9769458069936
 30
0.0
 11
2414.222097867216
 21
815.6104470558625
 31
0.0
  0
LINE
  5
19C5
330
1F
100
AcDbEntity
  8
LOGO
 62
     6
100
AcDbLine
 10
2442.944176658031
 20
825.9769458069936
 30
0.0
 11
2442.944176658031
 21
815.6104470558625
 31
0.0
  0
LINE
  5
19C6
330
1F
100
AcDbEntity
  8
LOGO
 62
     6
100
AcDbLine
 10
2426.942365058509
 20
815.6104470558625
 30
0.0
 11
2426.942365058509
 21
810.4271976802975
 31
0.0
  0
TEXT
  5
19C7
330
1F
100
AcDbEntity
  8
LOGO
  6
Continuous
 62
     7
100
AcDbText
 10
2416.064062341364
 20
817.7744385143416
 30
0.0
 40
6.048
  1
MCMA
  7
CHINESET
100
AcDbText
  0
LINE
  5
19C8
330
1F
100
AcDbEntity
  8
LOGO
 62
     6
100
AcDbLine
 10
2437.258761758619
 20
810.4271976802975
 30
0.0
 11
2414.222097867216
 21
810.4271976802975
 31
0.0
  0
TEXT
  5
19C9
330
1F
100
AcDbEntity
  8
LOGO
  6
Continuous
 62
     6
100
AcDbText
 10
2420.482153549729
 20
799.5453994818652
 30
226.4677501133661
 40
2.591999999999999
  1
Model
  7
CHINESET
100
AcDbText
  0
TEXT
  5
19CA
330
1F
100
AcDbEntity
  8
LOGO
 62
     6
100
AcDbText
 10
2420.924584237736
 20
804.3504088659958
 30
226.4677501133661
 40
4.32
  1
型號
  7
CHINESET
100
AcDbText
  0
LINE
  5
19CB
330
1F
100
AcDbEntity
  8
LOGO
  6
Continuous
 62
     7
100
AcDbLine
 10
2444.901066659316
 20
820.7569766545578
 30
0.0
 11
2449.478534251084
 21
820.7569766545578
 31
0.0
  0
LINE
  5
19CC
330
1F
100
AcDbEntity
  8
LOGO
 62
     6
100
AcDbLine
 10
2466.050461929051
 20
810.4271976802975
 30
0.0
 11
2466.050461929051
 21
797.7570325400251
 31
0.0
  0
LINE
  5
19CD
330
1F
100
AcDbEntity
  8
LOGO
 62
     6
100
AcDbLine
 10
2439.452612862772
 20
810.4271976802975
 30
0.0
 11
2439.452612862772
 21
797.7570325400251
 31
0.0
  0
LINE
  5
19CE
330
1F
100
AcDbEntity
  8
LOGO
 62
     6
100
AcDbLine
 10
2466.050461929051
 20
797.7570325400251
 30
0.0
 11
2439.452612862772
 21
797.7570325400251
 31
0.0
  0
LINE
  5
19CF
330
1F
100
AcDbEntity
  8
LOGO
 62
     6
100
AcDbLine
 10
2462.995020764114
 20
825.9769458069936
 30
0.0
 11
2450.92248398357
 21
825.9769458069936
 31
0.0
  0
LINE
  5
19D0
330
1F
100
AcDbEntity
  8
LOGO
 62
     6
100
AcDbLine
 10
2462.995020764114
 20
815.6104470558625
 30
0.0
 11
2450.92248398357
 21
815.6104470558625
 31
0.0
  0
LINE
  5
19D1
330
1F
100
AcDbEntity
  8
LOGO
 62
     6
100
AcDbLine
 10
2450.92248398357
 20
825.9769458069936
 30
0.0
 11
2450.92248398357
 21
815.6104470558625
 31
0.0
  0
LINE
  5
19D2
330
1F
100
AcDbEntity
  8
LOGO
 62
     6
100
AcDbLine
 10
2462.995020764114
 20
825.9769458069936
 30
0.0
 11
2462.995020764114
 21
815.6104470558625
 31
0.0
  0
LINE
  5
19D3
330
1F
100
AcDbEntity
  8
LOGO
 62
     6
100
AcDbLine
 10
2456.958752373842
 20
815.6104470558625
 30
0.0
 11
2456.958752373842
 21
810.4271976802975
 31
0.0
  0
TEXT
  5
19D4
330
1F
100
AcDbEntity
  8
LOGO
  6
Continuous
 62
     7
100
AcDbText
 10
2453.502718685782
 20
817.7744385143416
 30
0.0
 40
6.048
  1
11
  7
CHINESET
100
AcDbText
  0
LINE
  5
19D5
330
1F
100
AcDbEntity
  8
LOGO
 62
     6
100
AcDbLine
 10
2466.050461929051
 20
810.4271976802975
 30
0.0
 11
2439.452612862772
 21
810.4271976802975
 31
0.0
  0
LINE
  5
19D6
330
1F
100
AcDbEntity
  8
LOGO
  6
Continuous
 62
     7
100
AcDbLine
 10
2465.137172470128
 20
820.7569766545578
 30
0.0
 11
2469.714640061895
 21
820.7569766545578
 31
0.0
  0
LINE
  5
19D7
330
1F
100
AcDbEntity
  8
LOGO
 62
     6
100
AcDbLine
 10
2489.485369806596
 20
810.4271976802975
 30
0.0
 11
2489.485369806596
 21
797.7570325400251
 31
0.0
  0
LINE
  5
19D8
330
1F
100
AcDbEntity
  8
LOGO
 62
     6
100
AcDbLine
 10
2468.405834407921
 20
810.4271976802975
 30
0.0
 11
2468.405834407921
 21
797.7570325400251
 31
0.0
  0
LINE
  5
19D9
330
1F
100
AcDbEntity
  8
LOGO
 62
     6
100
AcDbLine
 10
2489.485369806596
 20
797.7570325400251
 30
0.0
 11
2468.405834407921
 21
797.7570325400251
 31
0.0
  0
LINE
  5
19DA
330
1F
100
AcDbEntity
  8
LOGO
 62
     6
100
AcDbLine
 10
2484.560131675269
 20
825.9769458069936
 30
0.0
 11
2471.158589794381
 21
825.9769458069936
 31
0.0
  0
LINE
  5
19DB
330
1F
100
AcDbEntity
  8
LOGO
 62
     6
100
AcDbLine
 10
2484.560131675269
 20
815.6104470558625
 30
0.0
 11
2471.158589794381
 21
815.6104470558625
 31
0.0
  0
LINE
  5
19DC
330
1F
100
AcDbEntity
  8
LOGO
 62
     6
100
AcDbLine
 10
2471.158589794381
 20
825.9769458069936
 30
0.0
 11
2471.158589794381
 21
815.6104470558625
 31
0.0
  0
LINE
  5
19DD
330
1F
100
AcDbEntity
  8
LOGO
 62
     6
100
AcDbLine
 10
2484.560131675269
 20
825.9769458069936
 30
0.0
 11
2484.560131675269
 21
815.6104470558625
 31
0.0
  0
LINE
  5
19DE
330
1F
100
AcDbEntity
  8
LOGO
 62
     6
100
AcDbLine
 10
2477.859360734825
 20
815.6104470558625
 30
0.0
 11
2477.859360734825
 21
810.4271976802975
 31
0.0
  0
TEXT
  5
19DF
330
1F
100
AcDbEntity
  8
LOGO
  6
Continuous
 62
     7
100
AcDbText
 10
2473.146472985379
 20
817.7744385143416
 30
0.0
 40
6.048
  1
25
  7
CHINESET
100
AcDbText
  0
LINE
  5
19E0
330
1F
100
AcDbEntity
  8
LOGO
 62
     6
100
AcDbLine
 10
2489.485369806596
 20
810.4271976802975
 30
0.0
 11
2468.405834407921
 21
810.4271976802975
 31
0.0
  0
LINE
  5
19E1
330
1F
100
AcDbEntity
  8
LOGO
  6
Continuous
 62
     7
100
AcDbLine
 10
2486.620812423674
 20
820.7569766545578
 30
0.0
 11
2491.198280015443
 21
820.7569766545578
 31
0.0
  0
LINE
  5
19E2
330
1F
100
AcDbEntity
  8
LOGO
 62
     6
100
AcDbLine
 10
2510.603022371084
 20
810.4271976802975
 30
0.0
 11
2510.603022371084
 21
797.7570325400251
 31
0.0
  0
LINE
  5
19E3
330
1F
100
AcDbEntity
  8
LOGO
 62
     6
100
AcDbLine
 10
2491.835987100852
 20
810.4271976802975
 30
0.0
 11
2491.835987100852
 21
797.7570325400251
 31
0.0
  0
LINE
  5
19E4
330
1F
100
AcDbEntity
  8
LOGO
 62
     6
100
AcDbLine
 10
2510.603022371084
 20
797.7570325400251
 30
0.0
 11
2491.835987100852
 21
797.7570325400251
 31
0.0
  0
LINE
  5
19E5
330
1F
100
AcDbEntity
  8
LOGO
 62
     6
100
AcDbLine
 10
2503.671896543514
 20
825.9769458069936
 30
0.0
 11
2492.642229747927
 21
825.9769458069936
 31
0.0
  0
LINE
  5
19E6
330
1F
100
AcDbEntity
  8
LOGO
 62
     6
100
AcDbLine
 10
2503.671896543514
 20
815.6104470558625
 30
0.0
 11
2492.642229747927
 21
815.6104470558625
 31
0.0
  0
LINE
  5
19E7
330
1F
100
AcDbEntity
  8
LOGO
 62
     6
100
AcDbLine
 10
2492.642229747927
 20
825.9769458069936
 30
0.0
 11
2492.642229747927
 21
815.6104470558625
 31
0.0
  0
LINE
  5
19E8
330
1F
100
AcDbEntity
  8
LOGO
 62
     6
100
AcDbLine
 10
2503.671896543514
 20
825.9769458069936
 30
0.0
 11
2503.671896543514
 21
815.6104470558625
 31
0.0
  0
LINE
  5
19E9
330
1F
100
AcDbEntity
  8
LOGO
 62
     6
100
AcDbLine
 10
2498.157063145721
 20
815.6104470558625
 30
0.0
 11
2498.157063145721
 21
810.4271976802975
 31
0.0
  0
TEXT
  5
19EA
330
1F
100
AcDbEntity
  8
LOGO
  6
Continuous
 62
     7
100
AcDbText
 10
2496.359753884568
 20
817.7744385143416
 30
0.0
 40
6.048
  1
0
  7
CHINESET
100
AcDbText
  0
LINE
  5
19EB
330
1F
100
AcDbEntity
  8
LOGO
 62
     6
100
AcDbLine
 10
2510.603022371084
 20
810.4271976802975
 30
0.0
 11
2491.835987100852
 21
810.4271976802975
 31
0.0
  0
TEXT
  5
19EC
330
1F
100
AcDbEntity
  8
LOGO
  6
Continuous
 62
     6
100
AcDbText
 10
2441.944411023186
 20
799.5453994818652
 30
226.4677501133661
 40
2.591999999999999
  1
Acting type
  7
CHINESET
100
AcDbText
  0
TEXT
  5
19ED
330
1F
100
AcDbEntity
  8
LOGO
 62
     6
100
AcDbText
 10
2443.710426701328
 20
804.3504088659958
 30
226.4677501133661
 40
4.32
  1
作動型式
  7
CHINESET
100
AcDbText
  0
TEXT
  5
19EE
330
1F
100
AcDbEntity
  8
LOGO
  6
Continuous
 62
     6
100
AcDbText
 10
2470.666237722717
 20
799.5453994818652
 30
226.4677501133661
 40
2.591999999999999
  1
Tube I.D.
  7
CHINESET
100
AcDbText
  0
TEXT
  5
19EF
330
1F
100
AcDbEntity
  8
LOGO
 62
     6
100
AcDbText
 10
2474.276196285843
 20
804.3504088659958
 30
226.4677501133661
 40
4.32
  1
內徑
  7
CHINESET
100
AcDbText
  0
TEXT
  5
19F0
330
1F
100
AcDbEntity
  8
LOGO
  6
Continuous
 62
     6
100
AcDbText
 10
2494.836317507723
 20
799.5453994818652
 30
226.4677501133661
 40
2.591999999999999
  1
Stroke
  7
CHINESET
100
AcDbText
  0
TEXT
  5
19F1
330
1F
100
AcDbEntity
  8
LOGO
 62
     6
100
AcDbText
 10
2496.602333185864
 20
804.3504088659958
 30
226.4677501133661
 40
4.32
  1
行程
  7
CHINESET
100
AcDbText
  0
TEXT
  5
19F2
330
1F
100
AcDbEntity
  8
0
100
AcDbText
 10
2368.146173937794
 20
796.7157616934962
 30
0.0
 40
3.455999999999999
  1
1050807
 41
0.8
  7
CHINESET
 72
     1
 11
2376.703888223508
 21
796.7157616934962
 31
0.0
100
AcDbText
  0
LINE
  5
19F3
330
1F
100
AcDbEntity
  8
LOGO
 62
     1
100
AcDbLine
 10
2387.429234721848
 20
801.7884487210217
 30
0.0
 11
2387.429234721849
 21
794.8774495536004
 31
0.0
  0
LINE
  5
19F4
330
1F
100
AcDbEntity
  8
LOGO
 62
     1
100
AcDbLine
 10
2387.429234721848
 20
801.7884487210217
 30
0.0
 11
2366.69323472185
 21
801.7884487210217
 31
0.0
  0
LINE
  5
19F5
330
1F
100
AcDbEntity
  8
LOGO
  6
Continuous
 62
     7
100
AcDbLine
 10
2506.892326727333
 20
820.7569766545578
 30
0.0
 11
2511.469794319101
 21
820.7569766545578
 31
0.0
  0
LINE
  5
19F6
330
1F
100
AcDbEntity
  8
LOGO
 62
     6
100
AcDbLine
 10
2535.987758271545
 20
810.4271976802975
 30
0.0
 11
2535.987758271545
 21
797.7570325400251
 31
0.0
  0
LINE
  5
19F7
330
1F
100
AcDbEntity
  8
LOGO
 62
     6
100
AcDbLine
 10
2512.723952197808
 20
810.4271976802975
 30
0.0
 11
2512.723952197808
 21
797.7570325400251
 31
0.0
  0
LINE
  5
19F8
330
1F
100
AcDbEntity
  8
LOGO
 62
     6
100
AcDbLine
 10
2535.987758271545
 20
797.7570325400251
 30
0.0
 11
2512.723952197808
 21
797.7570325400251
 31
0.0
  0
LINE
  5
19F9
330
1F
100
AcDbEntity
  8
LOGO
 62
     6
100
AcDbLine
 10
2523.943410847173
 20
825.9769458069936
 30
0.0
 11
2512.913744051587
 21
825.9769458069936
 31
0.0
  0
LINE
  5
19FA
330
1F
100
AcDbEntity
  8
LOGO
 62
     6
100
AcDbLine
 10
2523.943410847173
 20
815.6104470558625
 30
0.0
 11
2512.913744051587
 21
815.6104470558625
 31
0.0
  0
LINE
  5
19FB
330
1F
100
AcDbEntity
  8
LOGO
 62
     6
100
AcDbLine
 10
2512.913744051587
 20
825.9769458069936
 30
0.0
 11
2512.913744051587
 21
815.6104470558625
 31
0.0
  0
LINE
  5
19FC
330
1F
100
AcDbEntity
  8
LOGO
 62
     6
100
AcDbLine
 10
2523.943410847173
 20
825.9769458069936
 30
0.0
 11
2523.943410847173
 21
815.6104470558625
 31
0.0
  0
LINE
  5
19FD
330
1F
100
AcDbEntity
  8
LOGO
 62
     6
100
AcDbLine
 10
2518.54478081379
 20
815.6104470558625
 30
0.0
 11
2518.54478081379
 21
810.4271976802975
 31
0.0
  0
TEXT
  5
19FE
330
1F
100
AcDbEntity
  8
LOGO
  6
Continuous
 62
     7
100
AcDbText
 10
2516.631268188227
 20
817.7744385143416
 30
0.0
 40
6.048
  1
?
  7
CHINESET
100
AcDbText
  0
LINE
  5
19FF
330
1F
100
AcDbEntity
  8
LOGO
 62
     6
100
AcDbLine
 10
2535.987758271545
 20
810.4271976802975
 30
0.0
 11
2512.723952197808
 21
810.4271976802975
 31
0.0
  0
TEXT
  5
1A00
330
1F
100
AcDbEntity
  8
LOGO
  6
Continuous
 62
     6
100
AcDbText
 10
2514.623800572637
 20
799.5453994818652
 30
226.4677501133661
 40
2.591999999999999
  1
Accessory
  7
CHINESET
100
AcDbText
  0
TEXT
  5
1A01
330
1F
100
AcDbEntity
  8
LOGO
 62
     6
100
AcDbText
 10
2520.398703140561
 20
804.3504088659958
 30
226.4677501133661
 40
4.32
  1
配件
  7
CHINESET
100
AcDbText
  0
LINE
  5
1A0E
330
1F
100
AcDbEntity
  8
0
 62
     4
100
AcDbLine
 10
2290.672243880219
 20
1074.580456560543
 30
0.0
 11
2784.957996157779
 21
1074.580456560543
 31
0.0
  0
LINE
  5
1A0F
330
1F
100
AcDbEntity
  8
0
 62
     4
100
AcDbLine
 10
2583.363306984357
 20
1212.179075450954
 30
0.0
 11
2583.363306984357
 21
829.4324453907041
 31
0.0
  0
LINE
  5
1A10
330
1F
100
AcDbEntity
  8
0
 62
     4
100
AcDbLine
 10
2290.672243880219
 20
932.6104936200524
 30
0.0
 11
2784.957996157779
 21
932.6104936200524
 31
0.0
  0
TEXT
  5
1A18
330
1F
100
AcDbEntity
  8
0
100
AcDbText
 10
2300.011781901997
 20
1058.647845996519
 30
0.0
 40
7.199999999999999
  1
FA/FB
  7
CHINESET
100
AcDbText
  0
TEXT
  5
1A19
330
1F
100
AcDbEntity
  8
0
100
AcDbText
 10
2300.011781901997
 20
914.8348988275181
 30
0.0
 40
7.199999999999999
  1
Y
  7
CHINESET
100
AcDbText
  0
TEXT
  5
1A1A
330
1F
100
AcDbEntity
  8
0
100
AcDbText
 10
2592.702845006135
 20
1058.647845996519
 30
0.0
 40
7.199999999999999
  1
SDB
  7
CHINESET
100
AcDbText
  0
TEXT
  5
1A1B
330
1F
100
AcDbEntity
  8
0
100
AcDbText
 10
2592.702845006135
 20
914.8348988275181
 30
0.0
 40
7.199999999999999
  1
I
  7
CHINESET
100
AcDbText
  0
TEXT
  5
1A1D
330
1F
100
AcDbEntity
  8
0
100
AcDbText
 10
2592.702845006135
 20
1196.902226790534
 30
0.0
 40
7.199999999999999
  1
LB
  7
CHINESET
100
AcDbText
  0
LINE
  5
1EA8
330
1F
100
AcDbEntity
  8
AM_VIS
100
AcDbLine
 10
2454.015270017299
 20
974.0543800860553
 30
0.0
 11
2400.015270017299
 21
974.0543800860553
 31
0.0
  0
LINE
  5
1EA9
330
1F
100
AcDbEntity
  8
AM_VIS
100
AcDbLine
 10
2395.015270017299
 20
979.0543800860554
 30
0.0
 11
2395.015270017299
 21
1007.054380086055
 31
0.0
  0
LINE
  5
1EAA
330
1F
100
AcDbEntity
  8
AM_VIS
100
AcDbLine
 10
2400.015270017299
 20
1012.054380086055
 30
0.0
 11
2454.015270017299
 21
1012.054380086055
 31
0.0
  0
LINE
  5
1EAB
330
1F
100
AcDbEntity
  8
AM_VIS
100
AcDbLine
 10
2459.015270017299
 20
1007.054380086055
 30
0.0
 11
2459.015270017299
 21
979.0543800860554
 31
0.0
  0
ARC
  5
1EAC
330
1F
100
AcDbEntity
  8
AM_VIS
100
AcDbCircle
 10
2454.015270017299
 20
979.0543800860554
 30
0.0
 40
5.0
100
AcDbArc
 50
270.0
 51
0.0
  0
ARC
  5
1EAD
330
1F
100
AcDbEntity
  8
AM_VIS
100
AcDbCircle
 10
2400.015270017299
 20
979.0543800860554
 30
0.0
 40
5.0
100
AcDbArc
 50
180.0
 51
270.0
  0
ARC
  5
1EAE
330
1F
100
AcDbEntity
  8
AM_VIS
100
AcDbCircle
 10
2400.015270017299
 20
1007.054380086055
 30
0.0
 40
5.0
100
AcDbArc
 50
90.0
 51
180.0
  0
CIRCLE
  5
1EAF
330
1F
100
AcDbEntity
  8
AM_VIS
100
AcDbCircle
 10
2427.015270017299
 20
993.0543800860554
 30
0.0
 40
11.0
  0
CIRCLE
  5
1EB0
330
1F
100
AcDbEntity
  8
AM_VIS
100
AcDbCircle
 10
2402.015270017299
 20
993.0543800860554
 30
0.0
 40
3.299999999999999
  0
CIRCLE
  5
1EB1
330
1F
100
AcDbEntity
  8
AM_VIS
100
AcDbCircle
 10
2452.015270017299
 20
993.0543800860554
 30
0.0
 40
3.299999999999999
  0
ARC
  5
1EB2
330
1F
100
AcDbEntity
  8
AM_VIS
100
AcDbCircle
 10
2454.015270017299
 20
1007.054380086055
 30
0.0
 40
5.0
100
AcDbArc
 50
0.0
 51
90.0
  0
LINE
  5
1EB3
330
1F
100
AcDbEntity
  8
AM_VIS
100
AcDbLine
 10
2454.015270017299
 20
1037.484302231449
 30
0.0
 11
2400.015270017299
 21
1037.484302231449
 31
0.0
  0
LINE
  5
1EB4
330
1F
100
AcDbEntity
  8
AM_VIS
100
AcDbLine
 10
2395.015270017299
 20
1037.484302231449
 30
0.0
 11
2395.015270017299
 21
1032.984302231449
 31
0.0
  0
LINE
  5
1EB5
330
1F
100
AcDbEntity
  8
AM_VIS
100
AcDbLine
 10
2400.015270017299
 20
1032.984302231449
 30
0.0
 11
2454.015270017299
 21
1032.984302231449
 31
0.0
  0
LINE
  5
1EB6
330
1F
100
AcDbEntity
  8
AM_VIS
100
AcDbLine
 10
2459.015270017299
 20
1032.984302231449
 30
0.0
 11
2459.015270017299
 21
1037.484302231449
 31
0.0
  0
LINE
  5
1EB7
330
1F
100
AcDbEntity
  8
AM_VIS
100
AcDbLine
 10
2395.015270017299
 20
1037.484302231449
 30
0.0
 11
2400.015270017299
 21
1037.484302231449
 31
0.0
  0
LINE
  5
1EB8
330
1F
100
AcDbEntity
  8
AM_VIS
100
AcDbLine
 10
2400.015270017299
 20
1032.984302231449
 30
0.0
 11
2395.015270017299
 21
1032.984302231449
 31
0.0
  0
LINE
  5
1EB9
330
1F
100
AcDbEntity
  8
AM_VIS
100
AcDbLine
 10
2454.015270017299
 20
1037.484302231449
 30
0.0
 11
2459.015270017299
 21
1037.484302231449
 31
0.0
  0
LINE
  5
1EBA
330
1F
100
AcDbEntity
  8
AM_VIS
100
AcDbLine
 10
2459.015270017299
 20
1032.984302231449
 30
0.0
 11
2454.015270017299
 21
1032.984302231449
 31
0.0
  0
LINE
  5
1EBB
330
1F
100
AcDbEntity
  8
AM_VIS
100
AcDbLine
 10
2486.313710702202
 20
974.0543800860553
 30
0.0
 11
2490.813710702202
 21
974.0543800860553
 31
0.0
  0
LINE
  5
1EBC
330
1F
100
AcDbEntity
  8
AM_VIS
100
AcDbLine
 10
2490.813710702202
 20
979.0543800860554
 30
0.0
 11
2490.813710702202
 21
1007.054380086055
 31
0.0
  0
LINE
  5
1EBD
330
1F
100
AcDbEntity
  8
AM_VIS
100
AcDbLine
 10
2486.313710702202
 20
1007.054380086055
 30
0.0
 11
2486.313710702202
 21
979.0543800860554
 31
0.0
  0
LINE
  5
1EBE
330
1F
100
AcDbEntity
  8
AM_VIS
100
AcDbLine
 10
2490.813710702202
 20
1012.054380086055
 30
0.0
 11
2486.313710702202
 21
1012.054380086055
 31
0.0
  0
LINE
  5
1EBF
330
1F
100
AcDbEntity
  8
AM_VIS
100
AcDbLine
 10
2490.813710702202
 20
979.0543800860554
 30
0.0
 11
2490.813710702202
 21
974.0543800860553
 31
0.0
  0
LINE
  5
1EC0
330
1F
100
AcDbEntity
  8
AM_VIS
100
AcDbLine
 10
2486.313710702202
 20
974.0543800860553
 30
0.0
 11
2486.313710702202
 21
979.0543800860554
 31
0.0
  0
LINE
  5
1EC1
330
1F
100
AcDbEntity
  8
AM_VIS
100
AcDbLine
 10
2490.813710702202
 20
1012.054380086055
 30
0.0
 11
2490.813710702202
 21
1007.054380086055
 31
0.0
  0
LINE
  5
1EC2
330
1F
100
AcDbEntity
  8
AM_VIS
100
AcDbLine
 10
2486.313710702202
 20
1007.054380086055
 30
0.0
 11
2486.313710702202
 21
1012.054380086055
 31
0.0
  0
LINE
  5
1EDA
330
1F
100
AcDbEntity
  8
AM_7
100
AcDbLine
 10
2427.015270017299
 20
993.0543800860554
 30
0.0
 11
2440.015270017299
 21
993.0543800860554
 31
0.0
1001
GENIUS_GENOREF_13
1005
1EDE
  0
LINE
  5
1EDB
330
1F
100
AcDbEntity
  8
AM_7
100
AcDbLine
 10
2427.015270017299
 20
993.0543800860554
 30
0.0
 11
2427.015270017299
 21
1006.054380086055
 31
0.0
1001
GENIUS_GENOREF_13
1005
1EDE
  0
LINE
  5
1EDC
330
1F
100
AcDbEntity
  8
AM_7
100
AcDbLine
 10
2427.015270017299
 20
993.0543800860554
 30
0.0
 11
2414.015270017299
 21
993.0543800860554
 31
0.0
1001
GENIUS_GENOREF_13
1005
1EDE
  0
LINE
  5
1EDD
330
1F
100
AcDbEntity
  8
AM_7
100
AcDbLine
 10
2427.015270017299
 20
993.0543800860554
 30
0.0
 11
2427.015270017299
 21
980.0543800860554
 31
0.0
1001
GENIUS_GENOREF_13
1005
1EDE
  0
POINT
  5
1EDE
330
1F
100
AcDbEntity
  8
0
 60
     1
100
AcDbPoint
 10
0.0
 20
0.0
 30
0.0
1001
GENIUS_GENODEF_13
1002
{
1000
HIER
1070
    10
1002
}
1002
{
1000
MANEDIT
1070
     0
1002
}
1002
{
1000
NOSEL
1070
     0
1002
}
1002
{
1000
BEHIND
1070
     0
1002
}
1002
{
1000
OTHER
1070
     0
1002
}
1002
{
1000
REACTOR
1002
}
1001
GENIUS_GENOBJ-N-CRS_13
1002
{
1000
OWNER
1000
GEN
1002
}
1001
GENIUS_GENOLIS_13
1002
{
1000
ENT
1005
1EDD
1005
1EDC
1005
1EDB
1005
1EDA
1002
}
1001
GENIUS_GENOENT_13
1002
{
1000
MYREF
1005
1EDE
1002
}
1002
{
1000
GRP
1005
0
1002
}
  0
LINE
  5
1EEC
330
1F
100
AcDbEntity
  8
AM_7
  6
AM_ISO08W050x2
100
AcDbLine
 10
2452.015270017299
 20
993.0543800860554
 30
0.0
 11
2457.315270017299
 21
993.0543800860554
 31
0.0
1001
GENIUS_GENOREF_13
1005
1EF0
  0
LINE
  5
1EED
330
1F
100
AcDbEntity
  8
AM_7
  6
AM_ISO08W050x2
100
AcDbLine
 10
2452.015270017299
 20
993.0543800860554
 30
0.0
 11
2452.015270017299
 21
998.3543800860555
 31
0.0
1001
GENIUS_GENOREF_13
1005
1EF0
  0
LINE
  5
1EEE
330
1F
100
AcDbEntity
  8
AM_7
  6
AM_ISO08W050x2
100
AcDbLine
 10
2452.015270017299
 20
993.0543800860554
 30
0.0
 11
2446.715270017299
 21
993.0543800860554
 31
0.0
1001
GENIUS_GENOREF_13
1005
1EF0
  0
LINE
  5
1EEF
330
1F
100
AcDbEntity
  8
AM_7
  6
AM_ISO08W050x2
100
AcDbLine
 10
2452.015270017299
 20
993.0543800860554
 30
0.0
 11
2452.015270017299
 21
987.7543800860552
 31
0.0
1001
GENIUS_GENOREF_13
1005
1EF0
  0
POINT
  5
1EF0
330
1F
100
AcDbEntity
  8
0
 60
     1
100
AcDbPoint
 10
0.0
 20
0.0
 30
0.0
1001
GENIUS_GENOLIS_13
1002
{
1000
ENT
1005
1EEF
1005
1EEE
1005
1EED
1005
1EEC
1002
}
1001
GENIUS_GENODEF_13
1002
{
1000
HIER
1070
    10
1002
}
1002
{
1000
MANEDIT
1070
     0
1002
}
1002
{
1000
NOSEL
1070
     0
1002
}
1002
{
1000
BEHIND
1070
     0
1002
}
1002
{
1000
OTHER
1070
     0
1002
}
1002
{
1000
REACTOR
1002
}
1001
GENIUS_GENOBJ-N-CRS_13
1002
{
1000
OWNER
1000
GEN
1002
}
1001
GENIUS_GENOENT_13
1002
{
1000
MYREF
1005
1EF0
1002
}
1002
{
1000
GRP
1005
0
1002
}
  0
LINE
  5
1EFE
330
1F
100
AcDbEntity
  8
AM_7
  6
AM_ISO08W050x2
100
AcDbLine
 10
2402.015270017299
 20
993.0543800860554
 30
0.0
 11
2407.315270017299
 21
993.0543800860554
 31
0.0
1001
GENIUS_GENOREF_13
1005
1F02
  0
LINE
  5
1EFF
330
1F
100
AcDbEntity
  8
AM_7
  6
AM_ISO08W050x2
100
AcDbLine
 10
2402.015270017299
 20
993.0543800860554
 30
0.0
 11
2402.015270017299
 21
998.3543800860555
 31
0.0
1001
GENIUS_GENOREF_13
1005
1F02
  0
LINE
  5
1F00
330
1F
100
AcDbEntity
  8
AM_7
  6
AM_ISO08W050x2
100
AcDbLine
 10
2402.015270017299
 20
993.0543800860554
 30
0.0
 11
2396.715270017299
 21
993.0543800860554
 31
0.0
1001
GENIUS_GENOREF_13
1005
1F02
  0
LINE
  5
1F01
330
1F
100
AcDbEntity
  8
AM_7
  6
AM_ISO08W050x2
100
AcDbLine
 10
2402.015270017299
 20
993.0543800860554
 30
0.0
 11
2402.015270017299
 21
987.7543800860552
 31
0.0
1001
GENIUS_GENOREF_13
1005
1F02
  0
POINT
  5
1F02
330
1F
100
AcDbEntity
  8
0
 60
     1
100
AcDbPoint
 10
0.0
 20
0.0
 30
0.0
1001
GENIUS_GENOENT_13
1002
{
1000
MYREF
1005
1F02
1002
}
1002
{
1000
GRP
1005
0
1002
}
1001
GENIUS_GENOBJ-N-CRS_13
1002
{
1000
OWNER
1000
GEN
1002
}
1001
GENIUS_GENOLIS_13
1002
{
1000
ENT
1005
1F01
1005
1F00
1005
1EFF
1005
1EFE
1002
}
1001
GENIUS_GENODEF_13
1002
{
1000
HIER
1070
    10
1002
}
1002
{
1000
MANEDIT
1070
     0
1002
}
1002
{
1000
NOSEL
1070
     0
1002
}
1002
{
1000
BEHIND
1070
     0
1002
}
1002
{
1000
OTHER
1070
     0
1002
}
1002
{
1000
REACTOR
1002
}
  0
LINE
  5
1F03
330
1F
100
AcDbEntity
  8
AM_7
  6
AM_ISO08W050x2
100
AcDbLine
 10
2484.80502027511
 20
993.0543800860554
 30
0.0
 11
2492.284272586357
 21
993.0543800860554
 31
0.0
  0
LINE
  5
1F04
330
1F
100
AcDbEntity
  8
AM_7
100
AcDbLine
 10
2427.015270017299
 20
1029.977526579993
 30
0.0
 11
2427.015270017299
 21
1039.33292701777
 31
0.0
  0
LINE
  5
1F05
330
1F
100
AcDbEntity
  8
AM_7
100
AcDbLine
 10
2452.015270017299
 20
1029.977526579993
 30
0.0
 11
2452.015270017299
 21
1039.33292701777
 31
0.0
  0
LINE
  5
1F06
330
1F
100
AcDbEntity
  8
AM_7
100
AcDbLine
 10
2402.015270017299
 20
1029.977526579993
 30
0.0
 11
2402.015270017299
 21
1039.33292701777
 31
0.0
  0
LINE
  5
1F3B
330
1F
100
AcDbEntity
  8
AM_VIS
100
AcDbLine
 10
2689.574401857231
 20
1105.308045967814
 30
0.0
 11
2689.175453584114
 21
1106.308045967814
 31
0.0
  0
LINE
  5
1F3C
330
1F
100
AcDbEntity
  8
AM_VIS
100
AcDbLine
 10
2635.973350130349
 20
1106.308045967814
 30
0.0
 11
2635.574401857231
 21
1105.308045967814
 31
0.0
  0
LINE
  5
1F3D
330
1F
100
AcDbEntity
  8
AM_VIS
100
AcDbLine
 10
2635.574401857231
 20
1105.308045967814
 30
0.0
 11
2635.574401857231
 21
1102.108045967814
 31
0.0
  0
LINE
  5
1F3E
330
1F
100
AcDbEntity
  8
AM_VIS
100
AcDbLine
 10
2688.574401857231
 20
1105.308045967814
 30
0.0
 11
2636.574401857231
 21
1105.308045967814
 31
0.0
  0
LINE
  5
1F3F
330
1F
100
AcDbEntity
  8
AM_VIS
100
AcDbLine
 10
2636.574401857231
 20
1102.108045967814
 30
0.0
 11
2688.574401857231
 21
1102.108045967814
 31
0.0
  0
LINE
  5
1F40
330
1F
100
AcDbEntity
  8
AM_VIS
100
AcDbLine
 10
2689.574401857231
 20
1102.108045967814
 30
0.0
 11
2689.574401857231
 21
1105.308045967814
 31
0.0
  0
LINE
  5
1F41
330
1F
100
AcDbEntity
  8
AM_VIS
100
AcDbLine
 10
2635.973350130349
 20
1106.308045967814
 30
0.0
 11
2646.784578196832
 21
1133.407368849959
 31
0.0
  0
LINE
  5
1F42
330
1F
100
AcDbEntity
  8
AM_VIS
100
AcDbLine
 10
2678.36422551763
 20
1133.407368849959
 30
0.0
 11
2689.175453584114
 21
1106.308045967814
 31
0.0
  0
LINE
  5
1F43
330
1F
100
AcDbEntity
  8
AM_VIS
100
AcDbLine
 10
2635.574401857231
 20
1105.308045967814
 30
0.0
 11
2636.574401857231
 21
1105.308045967814
 31
0.0
  0
LINE
  5
1F44
330
1F
100
AcDbEntity
  8
AM_VIS
100
AcDbLine
 10
2636.574401857231
 20
1102.108045967814
 30
0.0
 11
2635.574401857231
 21
1102.108045967814
 31
0.0
  0
LINE
  5
1F45
330
1F
100
AcDbEntity
  8
AM_VIS
100
AcDbLine
 10
2689.574401857231
 20
1102.108045967814
 30
0.0
 11
2688.574401857231
 21
1102.108045967814
 31
0.0
  0
LINE
  5
1F46
330
1F
100
AcDbEntity
  8
AM_VIS
100
AcDbLine
 10
2688.574401857231
 20
1105.308045967814
 30
0.0
 11
2689.574401857231
 21
1105.308045967814
 31
0.0
  0
ARC
  5
1F47
330
1F
100
AcDbEntity
  8
AM_VIS
100
AcDbCircle
 10
2662.574401857231
 20
1127.108045967814
 30
0.0
 40
17.0
100
AcDbArc
 50
21.7494427993274
 51
158.2505572006726
  0
CIRCLE
  5
1F49
330
1F
100
AcDbEntity
  8
AM_VIS
100
AcDbCircle
 10
2662.574401857231
 20
1127.108045967814
 30
0.0
 40
11.0
  0
LINE
  5
1F4A
330
1F
100
AcDbEntity
  8
AM_VIS
100
AcDbLine
 10
2635.574401857231
 20
1160.275969636145
 30
0.0
 11
2635.574401857231
 21
1178.075969636145
 31
0.0
  0
LINE
  5
1F4B
330
1F
100
AcDbEntity
  8
AM_VIS
100
AcDbLine
 10
2689.574401857231
 20
1178.075969636145
 30
0.0
 11
2689.574401857231
 21
1160.275969636145
 31
0.0
  0
LINE
  5
1F4C
330
1F
100
AcDbEntity
  8
AM_VIS
100
AcDbLine
 10
2689.574401857231
 20
1182.275969636145
 30
0.0
 11
2689.574401857231
 21
1178.075969636145
 31
0.0
  0
LINE
  5
1F4D
330
1F
100
AcDbEntity
  8
AM_VIS
100
AcDbLine
 10
2635.574401857231
 20
1178.075969636145
 30
0.0
 11
2635.574401857231
 21
1182.275969636145
 31
0.0
  0
ELLIPSE
  5
1F4E
330
1F
100
AcDbEntity
  8
AM_VIS
100
AcDbEllipse
 10
2689.175453584114
 20
1178.075969636145
 30
0.0
 11
-0.0000000000000001
 21
0.9999999999999996
 31
0.0
210
0.0
220
0.0
230
1.0
 40
0.3989482731174492
 41
4.712388980384687
 42
6.283185307179585
  0
ELLIPSE
  5
1F4F
330
1F
100
AcDbEntity
  8
AM_VIS
100
AcDbEllipse
 10
2635.973350130349
 20
1178.075969636145
 30
0.0
 11
0.0
 21
-1.0
 31
0.0
210
0.0
220
0.0
230
1.0
 40
0.3989482731174492
 41
3.141592653589794
 42
4.712388980384692
  0
LINE
  5
1F50
330
1F
100
AcDbEntity
  8
AM_VIS
100
AcDbLine
 10
2688.574401857231
 20
1159.275969636145
 30
0.0
 11
2636.574401857231
 21
1159.275969636145
 31
0.0
  0
LINE
  5
1F51
330
1F
100
AcDbEntity
  8
AM_VIS
100
AcDbLine
 10
2635.973350130349
 20
1179.075969636145
 30
0.0
 11
2646.784578196832
 21
1179.075969636145
 31
0.0
  0
LINE
  5
1F52
330
1F
100
AcDbEntity
  8
AM_VIS
100
AcDbLine
 10
2678.36422551763
 20
1179.075969636145
 30
0.0
 11
2689.175453584114
 21
1179.075969636145
 31
0.0
  0
LINE
  5
1F53
330
1F
100
AcDbEntity
  8
AM_VIS
100
AcDbLine
 10
2678.36422551763
 20
1182.275969636145
 30
0.0
 11
2689.574401857231
 21
1182.275969636145
 31
0.0
  0
LINE
  5
1F54
330
1F
100
AcDbEntity
  8
AM_VIS
100
AcDbLine
 10
2635.574401857231
 20
1182.275969636145
 30
0.0
 11
2646.784578196832
 21
1182.275969636145
 31
0.0
  0
ARC
  5
1F55
330
1F
100
AcDbEntity
  8
AM_VIS
100
AcDbCircle
 10
2636.574401857231
 20
1160.275969636145
 30
0.0
 40
0.9999999999999998
100
AcDbArc
 50
180.0
 51
270.0
  0
ARC
  5
1F56
330
1F
100
AcDbEntity
  8
AM_VIS
100
AcDbCircle
 10
2688.574401857231
 20
1160.275969636145
 30
0.0
 40
1.0
100
AcDbArc
 50
270.0
 51
0.0
  0
LINE
  5
1F57
330
1F
100
AcDbEntity
  8
AM_VIS
100
AcDbLine
 10
2678.36422551763
 20
1179.075969636145
 30
0.0
 11
2646.784578196833
 21
1179.075969636145
 31
0.0
  0
LINE
  5
1F58
330
1F
100
AcDbEntity
  8
AM_VIS
100
AcDbLine
 10
2678.36422551763
 20
1182.275969636145
 30
0.0
 11
2646.784578196833
 21
1182.275969636145
 31
0.0
  0
CIRCLE
  5
1F59
330
1F
100
AcDbEntity
  8
AM_VIS
100
AcDbCircle
 10
2642.574401857231
 20
1167.275969636145
 30
0.0
 40
3.299999999999999
  0
CIRCLE
  5
1F5A
330
1F
100
AcDbEntity
  8
AM_VIS
100
AcDbCircle
 10
2682.574401857231
 20
1167.275969636145
 30
0.0
 40
3.299999999999999
  0
LINE
  5
1F5B
330
1F
100
AcDbEntity
  8
AM_VIS
100
AcDbLine
 10
2728.864757153971
 20
1105.308045967814
 30
0.0
 11
2711.064757153971
 21
1105.308045967814
 31
0.0
  0
LINE
  5
1F5C
330
1F
100
AcDbEntity
  8
AM_VIS
100
AcDbLine
 10
2733.064757153972
 20
1105.308045967814
 30
0.0
 11
2728.864757153971
 21
1105.308045967814
 31
0.0
  0
ARC
  5
1F5D
330
1F
100
AcDbEntity
  8
AM_VIS
100
AcDbCircle
 10
2728.864757153971
 20
1106.308045967814
 30
0.0
 40
0.9999999999999996
100
AcDbArc
 50
270.0
 51
0.0
  0
LINE
  5
1F5E
330
1F
100
AcDbEntity
  8
AM_VIS
100
AcDbLine
 10
2711.064757153971
 20
1102.108045967814
 30
0.0
 11
2733.064757153972
 21
1102.108045967814
 31
0.0
  0
LINE
  5
1F5F
330
1F
100
AcDbEntity
  8
AM_VIS
100
AcDbLine
 10
2710.064757153971
 20
1105.308045967814
 30
0.0
 11
2710.064757153971
 21
1102.108045967814
 31
0.0
  0
LINE
  5
1F60
330
1F
100
AcDbEntity
  8
AM_VIS
100
AcDbLine
 10
2729.864757153971
 20
1133.407368849959
 30
0.0
 11
2729.864757153971
 21
1106.308045967814
 31
0.0
  0
LINE
  5
1F61
330
1F
100
AcDbEntity
  8
AM_VIS
100
AcDbLine
 10
2733.064757153972
 20
1133.407368849959
 30
0.0
 11
2733.064757153972
 21
1105.308045967814
 31
0.0
  0
LINE
  5
1F62
330
1F
100
AcDbEntity
  8
AM_VIS
100
AcDbLine
 10
2733.064757153972
 20
1102.108045967814
 30
0.0
 11
2733.064757153972
 21
1105.308045967814
 31
0.0
  0
LINE
  5
1F63
330
1F
100
AcDbEntity
  8
AM_VIS
100
AcDbLine
 10
2733.064757153972
 20
1144.108045967814
 30
0.0
 11
2729.864757153971
 21
1144.108045967814
 31
0.0
  0
LINE
  5
1F64
330
1F
100
AcDbEntity
  8
AM_VIS
100
AcDbLine
 10
2711.064757153971
 20
1102.108045967814
 30
0.0
 11
2710.064757153971
 21
1102.108045967814
 31
0.0
  0
LINE
  5
1F65
330
1F
100
AcDbEntity
  8
AM_VIS
100
AcDbLine
 10
2710.064757153971
 20
1105.308045967814
 30
0.0
 11
2711.064757153971
 21
1105.308045967814
 31
0.0
  0
LINE
  5
1F66
330
1F
100
AcDbEntity
  8
AM_VIS
100
AcDbLine
 10
2729.864757153971
 20
1133.407368849959
 30
0.0
 11
2729.864757153971
 21
1144.108045967814
 31
0.0
  0
LINE
  5
1F67
330
1F
100
AcDbEntity
  8
AM_VIS
100
AcDbLine
 10
2733.064757153972
 20
1133.407368849959
 30
0.0
 11
2733.064757153972
 21
1144.108045967814
 31
0.0
  0
LINE
  5
1F75
330
1F
100
AcDbEntity
  8
AM_7
  6
AM_ISO08W050x2
100
AcDbLine
 10
2642.574401857231
 20
1167.275969636145
 30
0.0
 11
2647.874401857231
 21
1167.275969636145
 31
0.0
1001
GENIUS_GENOREF_13
1005
1F79
  0
LINE
  5
1F76
330
1F
100
AcDbEntity
  8
AM_7
  6
AM_ISO08W050x2
100
AcDbLine
 10
2642.574401857231
 20
1167.275969636145
 30
0.0
 11
2642.574401857231
 21
1172.575969636145
 31
0.0
1001
GENIUS_GENOREF_13
1005
1F79
  0
LINE
  5
1F77
330
1F
100
AcDbEntity
  8
AM_7
  6
AM_ISO08W050x2
100
AcDbLine
 10
2642.574401857231
 20
1167.275969636145
 30
0.0
 11
2637.274401857231
 21
1167.275969636145
 31
0.0
1001
GENIUS_GENOREF_13
1005
1F79
  0
LINE
  5
1F78
330
1F
100
AcDbEntity
  8
AM_7
  6
AM_ISO08W050x2
100
AcDbLine
 10
2642.574401857231
 20
1167.275969636145
 30
0.0
 11
2642.574401857231
 21
1161.975969636145
 31
0.0
1001
GENIUS_GENOREF_13
1005
1F79
  0
POINT
  5
1F79
330
1F
100
AcDbEntity
  8
0
 60
     1
100
AcDbPoint
 10
0.0
 20
0.0
 30
0.0
1001
GENIUS_GENODEF_13
1002
{
1000
HIER
1070
    10
1002
}
1002
{
1000
MANEDIT
1070
     0
1002
}
1002
{
1000
NOSEL
1070
     0
1002
}
1002
{
1000
BEHIND
1070
     0
1002
}
1002
{
1000
OTHER
1070
     0
1002
}
1002
{
1000
REACTOR
1002
}
1001
GENIUS_GENOENT_13
1002
{
1000
MYREF
1005
1F79
1002
}
1002
{
1000
GRP
1005
0
1002
}
1001
GENIUS_GENOBJ-N-CRS_13
1002
{
1000
OWNER
1000
GEN
1002
}
1001
GENIUS_GENOLIS_13
1002
{
1000
ENT
1005
1F78
1005
1F77
1005
1F76
1005
1F75
1002
}
  0
LINE
  5
1F87
330
1F
100
AcDbEntity
  8
AM_7
  6
AM_ISO08W050x2
100
AcDbLine
 10
2682.574401857231
 20
1167.275969636145
 30
0.0
 11
2687.874401857231
 21
1167.275969636145
 31
0.0
1001
GENIUS_GENOREF_13
1005
1F8B
  0
LINE
  5
1F88
330
1F
100
AcDbEntity
  8
AM_7
  6
AM_ISO08W050x2
100
AcDbLine
 10
2682.574401857231
 20
1167.275969636145
 30
0.0
 11
2682.574401857231
 21
1172.575969636145
 31
0.0
1001
GENIUS_GENOREF_13
1005
1F8B
  0
LINE
  5
1F89
330
1F
100
AcDbEntity
  8
AM_7
  6
AM_ISO08W050x2
100
AcDbLine
 10
2682.574401857231
 20
1167.275969636145
 30
0.0
 11
2677.274401857231
 21
1167.275969636145
 31
0.0
1001
GENIUS_GENOREF_13
1005
1F8B
  0
LINE
  5
1F8A
330
1F
100
AcDbEntity
  8
AM_7
  6
AM_ISO08W050x2
100
AcDbLine
 10
2682.574401857231
 20
1167.275969636145
 30
0.0
 11
2682.574401857231
 21
1161.975969636145
 31
0.0
1001
GENIUS_GENOREF_13
1005
1F8B
  0
POINT
  5
1F8B
330
1F
100
AcDbEntity
  8
0
 60
     1
100
AcDbPoint
 10
0.0
 20
0.0
 30
0.0
1001
GENIUS_GENOBJ-N-CRS_13
1002
{
1000
OWNER
1000
GEN
1002
}
1001
GENIUS_GENOLIS_13
1002
{
1000
ENT
1005
1F8A
1005
1F89
1005
1F88
1005
1F87
1002
}
1001
GENIUS_GENODEF_13
1002
{
1000
HIER
1070
    10
1002
}
1002
{
1000
MANEDIT
1070
     0
1002
}
1002
{
1000
NOSEL
1070
     0
1002
}
1002
{
1000
BEHIND
1070
     0
1002
}
1002
{
1000
OTHER
1070
     0
1002
}
1002
{
1000
REACTOR
1002
}
1001
GENIUS_GENOENT_13
1002
{
1000
MYREF
1005
1F8B
1002
}
1002
{
1000
GRP
1005
0
1002
}
  0
LINE
  5
1F99
330
1F
100
AcDbEntity
  8
AM_7
100
AcDbLine
 10
2662.574401857231
 20
1127.108045967814
 30
0.0
 11
2681.574401857231
 21
1127.108045967814
 31
0.0
1001
GENIUS_GENOREF_13
1005
1F9D
  0
LINE
  5
1F9A
330
1F
100
AcDbEntity
  8
AM_7
100
AcDbLine
 10
2662.574401857231
 20
1127.108045967814
 30
0.0
 11
2662.574401857231
 21
1146.108045967814
 31
0.0
1001
GENIUS_GENOREF_13
1005
1F9D
  0
LINE
  5
1F9B
330
1F
100
AcDbEntity
  8
AM_7
100
AcDbLine
 10
2662.574401857231
 20
1127.108045967814
 30
0.0
 11
2643.574401857231
 21
1127.108045967814
 31
0.0
1001
GENIUS_GENOREF_13
1005
1F9D
  0
LINE
  5
1F9C
330
1F
100
AcDbEntity
  8
AM_7
100
AcDbLine
 10
2662.574401857231
 20
1127.108045967814
 30
0.0
 11
2662.574401857231
 21
1108.108045967814
 31
0.0
1001
GENIUS_GENOREF_13
1005
1F9D
  0
POINT
  5
1F9D
330
1F
100
AcDbEntity
  8
0
 60
     1
100
AcDbPoint
 10
0.0
 20
0.0
 30
0.0
1001
GENIUS_GENOBJ-N-CRS_13
1002
{
1000
OWNER
1000
GEN
1002
}
1001
GENIUS_GENOLIS_13
1002
{
1000
ENT
1005
1F9C
1005
1F9B
1005
1F9A
1005
1F99
1002
}
1001
GENIUS_GENOENT_13
1002
{
1000
MYREF
1005
1F9D
1002
}
1002
{
1000
GRP
1005
0
1002
}
1001
GENIUS_GENODEF_13
1002
{
1000
HIER
1070
    10
1002
}
1002
{
1000
MANEDIT
1070
     0
1002
}
1002
{
1000
NOSEL
1070
     0
1002
}
1002
{
1000
BEHIND
1070
     0
1002
}
1002
{
1000
OTHER
1070
     0
1002
}
1002
{
1000
REACTOR
1002
}
  0
LINE
  5
1F9E
330
1F
100
AcDbEntity
  8
AM_7
  6
AM_ISO08W050x2
100
AcDbLine
 10
2642.574401857231
 20
1107.704543455474
 30
0.0
 11
2642.574401857231
 21
1100.552662698324
 31
0.0
  0
LINE
  5
1F9F
330
1F
100
AcDbEntity
  8
AM_7
  6
AM_ISO08W050x2
100
AcDbLine
 10
2682.574401857231
 20
1107.704543455474
 30
0.0
 11
2682.574401857231
 21
1100.552662698324
 31
0.0
  0
LINE
  5
1FA0
330
1F
100
AcDbEntity
  8
AM_7
  6
AM_ISO08W050x2
100
AcDbLine
 10
2718.064757153971
 20
1106.485118304546
 30
0.0
 11
2718.064757153971
 21
1100.655622637874
 31
0.0
  0
LINE
  5
1FA1
330
1F
100
AcDbEntity
  8
AM_7
100
AcDbLine
 10
2727.995722531547
 20
1127.108045967814
 30
0.0
 11
2735.65978020442
 21
1127.108045967814
 31
0.0
  0
LINE
  5
1FA3
330
1F
100
AcDbEntity
  8
AM_7
100
AcDbLine
 10
2662.574401857231
 20
1177.103558018949
 30
0.0
 11
2662.574401857231
 21
1184.051625808808
 31
0.0
  0
LINE
  5
1FD2
330
1F
100
AcDbEntity
  8
AM_VIS
100
AcDbLine
 10
2676.514238328442
 20
948.6290116274865
 30
0.0
 11
2634.514238328442
 21
948.6290116274865
 31
0.0
  0
LINE
  5
1FD3
330
1F
100
AcDbEntity
  8
AM_VIS
100
AcDbLine
 10
2649.514238328443
 20
948.6290116274865
 30
0.0
 11
2649.514238328443
 21
969.4290116274865
 31
0.0
  0
LINE
  5
1FD4
330
1F
100
AcDbEntity
  8
AM_VIS
100
AcDbLine
 10
2664.760205020857
 20
981.2384866467978
 30
0.0
 11
2678.195791002453
 21
948.6290116274865
 31
0.0
  0
LINE
  5
1FD5
330
1F
100
AcDbEntity
  8
AM_VIS
100
AcDbLine
 10
2631.514238328442
 20
948.6290116274865
 30
0.0
 11
2631.514238328442
 21
945.4290116274865
 31
0.0
  0
LINE
  5
1FD6
330
1F
100
AcDbEntity
  8
AM_VIS
100
AcDbLine
 10
2634.514238328442
 20
945.4290116274865
 30
0.0
 11
2676.514238328442
 21
945.4290116274865
 31
0.0
  0
LINE
  5
1FD7
330
1F
100
AcDbEntity
  8
AM_VIS
100
AcDbLine
 10
2679.514238328442
 20
945.4290116274865
 30
0.0
 11
2679.514238328442
 21
948.6290116274867
 31
0.0
  0
ARC
  5
1FD8
330
1F
100
AcDbEntity
  8
AM_VIS
100
AcDbCircle
 10
2655.514238328442
 20
977.4290116274865
 30
0.0
 40
10.0
100
AcDbArc
 50
22.39238545991456
 51
233.1301023541586
  0
CIRCLE
  5
1FD9
330
1F
100
AcDbEntity
  8
AM_VIS
100
AcDbCircle
 10
2655.514238328442
 20
977.4290116274865
 30
0.0
 40
4.0
  0
LINE
  5
1FDA
330
1F
100
AcDbEntity
  8
AM_VIS
100
AcDbLine
 10
2631.514238328442
 20
948.6290116274865
 30
0.0
 11
2634.514238328442
 21
948.6290116274865
 31
0.0
  0
LINE
  5
1FDB
330
1F
100
AcDbEntity
  8
AM_VIS
100
AcDbLine
 10
2634.514238328442
 20
945.4290116274865
 30
0.0
 11
2631.514238328442
 21
945.4290116274865
 31
0.0
  0
LINE
  5
1FDC
330
1F
100
AcDbEntity
  8
AM_VIS
100
AcDbLine
 10
2679.514238328442
 20
945.4290116274865
 30
0.0
 11
2676.514238328442
 21
945.4290116274865
 31
0.0
  0
LINE
  5
1FDD
330
1F
100
AcDbEntity
  8
AM_VIS
100
AcDbLine
 10
2676.514238328442
 20
948.6290116274865
 30
0.0
 11
2679.514238328442
 21
948.6290116274865
 31
0.0
  0
LINE
  5
1FDE
330
1F
100
AcDbEntity
  8
AM_VIS
100
AcDbLine
 10
2676.514238328442
 20
999.0045839092761
 30
0.0
 11
2634.514238328442
 21
999.0045839092761
 31
0.0
  0
LINE
  5
1FDF
330
1F
100
AcDbEntity
  8
AM_VIS
100
AcDbLine
 10
2678.195791002453
 20
1021.004583909276
 30
0.0
 11
2679.514238328442
 21
1021.004583909276
 31
0.0
  0
LINE
  5
1FE0
330
1F
100
AcDbEntity
  8
AM_VIS
100
AcDbLine
 10
2631.514238328442
 20
1021.004583909276
 30
0.0
 11
2645.514238328443
 21
1021.004583909276
 31
0.0
  0
LINE
  5
1FE1
330
1F
100
AcDbEntity
  8
AM_VIS
100
AcDbLine
 10
2664.760205020857
 20
1021.004583909276
 30
0.0
 11
2678.195791002453
 21
1021.004583909276
 31
0.0
  0
LINE
  5
1FE2
330
1F
100
AcDbEntity
  8
AM_VIS
100
AcDbLine
 10
2679.514238328442
 20
1024.504583909276
 30
0.0
 11
2664.760205020857
 21
1024.504583909276
 31
0.0
  0
LINE
  5
1FE3
330
1F
100
AcDbEntity
  8
AM_VIS
100
AcDbLine
 10
2631.514238328442
 20
1002.004583909276
 30
0.0
 11
2631.514238328442
 21
1021.004583909276
 31
0.0
  0
LINE
  5
1FE4
330
1F
100
AcDbEntity
  8
AM_VIS
100
AcDbLine
 10
2679.514238328442
 20
1021.004583909276
 30
0.0
 11
2679.514238328442
 21
1024.504583909276
 31
0.0
  0
LINE
  5
1FE5
330
1F
100
AcDbEntity
  8
AM_VIS
100
AcDbLine
 10
2679.514238328442
 20
1021.004583909276
 30
0.0
 11
2679.514238328442
 21
1002.004583909276
 31
0.0
  0
LINE
  5
1FE6
330
1F
100
AcDbEntity
  8
AM_VIS
100
AcDbLine
 10
2645.514238328443
 20
1021.004583909276
 30
0.0
 11
2645.514238328443
 21
1024.504583909276
 31
0.0
  0
CIRCLE
  5
1FE7
330
1F
100
AcDbEntity
  8
AM_VIS
100
AcDbCircle
 10
2639.514238328442
 20
1007.004583909276
 30
0.0
 40
4.0
  0
CIRCLE
  5
1FE8
330
1F
100
AcDbEntity
  8
AM_VIS
100
AcDbCircle
 10
2671.514238328442
 20
1007.004583909276
 30
0.0
 40
4.0
  0
LINE
  5
1FE9
330
1F
100
AcDbEntity
  8
AM_VIS
100
AcDbLine
 10
2664.760205020857
 20
1021.004583909276
 30
0.0
 11
2645.514238328443
 21
1021.004583909276
 31
0.0
  0
LINE
  5
1FEA
330
1F
100
AcDbEntity
  8
AM_VIS
100
AcDbLine
 10
2645.514238328443
 20
1024.504583909276
 30
0.0
 11
2664.760205020857
 21
1024.504583909276
 31
0.0
  0
ARC
  5
1FEB
330
1F
100
AcDbEntity
  8
AM_VIS
100
AcDbCircle
 10
2634.514238328442
 20
1002.004583909276
 30
0.0
 40
3.0
100
AcDbArc
 50
180.0
 51
270.0
  0
ARC
  5
1FEC
330
1F
100
AcDbEntity
  8
AM_VIS
100
AcDbCircle
 10
2676.514238328442
 20
1002.004583909276
 30
0.0
 40
3.0
100
AcDbArc
 50
270.0
 51
0.0
  0
LINE
  5
1FED
330
1F
100
AcDbEntity
  8
AM_VIS
100
AcDbLine
 10
2719.765766306072
 20
981.2384866467978
 30
0.0
 11
2719.765766306072
 21
948.6290116274865
 31
0.0
  0
LINE
  5
1FEE
330
1F
100
AcDbEntity
  8
AM_VIS
100
AcDbLine
 10
2723.265766306072
 20
945.4290116274865
 30
0.0
 11
2723.265766306072
 21
981.2384866467978
 31
0.0
  0
LINE
  5
1FEF
330
1F
100
AcDbEntity
  8
AM_VIS
100
AcDbLine
 10
2719.765766306072
 20
945.4290116274865
 30
0.0
 11
2723.265766306072
 21
945.4290116274865
 31
0.0
  0
LINE
  5
1FF0
330
1F
100
AcDbEntity
  8
AM_VIS
100
AcDbLine
 10
2719.765766306072
 20
948.6290116274865
 30
0.0
 11
2700.765766306072
 21
948.6290116274865
 31
0.0
  0
LINE
  5
1FF1
330
1F
100
AcDbEntity
  8
AM_VIS
100
AcDbLine
 10
2719.765766306072
 20
945.4290116274865
 30
0.0
 11
2719.765766306072
 21
948.6290116274867
 31
0.0
  0
LINE
  5
1FF2
330
1F
100
AcDbEntity
  8
AM_VIS
100
AcDbLine
 10
2700.765766306072
 20
945.4290116274865
 30
0.0
 11
2719.765766306072
 21
945.4290116274865
 31
0.0
  0
LINE
  5
1FF3
330
1F
100
AcDbEntity
  8
AM_VIS
100
AcDbLine
 10
2697.765766306072
 20
948.6290116274865
 30
0.0
 11
2697.765766306072
 21
945.4290116274865
 31
0.0
  0
LINE
  5
1FF4
330
1F
100
AcDbEntity
  8
AM_VIS
100
AcDbLine
 10
2719.765766306072
 20
987.4290116274865
 30
0.0
 11
2723.265766306072
 21
987.4290116274865
 31
0.0
  0
LINE
  5
1FF5
330
1F
100
AcDbEntity
  8
AM_VIS
100
AcDbLine
 10
2719.765766306072
 20
981.2384866467978
 30
0.0
 11
2719.765766306072
 21
987.4290116274865
 31
0.0
  0
LINE
  5
1FF6
330
1F
100
AcDbEntity
  8
AM_VIS
100
AcDbLine
 10
2723.265766306072
 20
987.4290116274865
 30
0.0
 11
2723.265766306072
 21
981.2384866467978
 31
0.0
  0
LINE
  5
1FF7
330
1F
100
AcDbEntity
  8
AM_VIS
100
AcDbLine
 10
2700.765766306072
 20
945.4290116274865
 30
0.0
 11
2697.765766306072
 21
945.4290116274865
 31
0.0
  0
LINE
  5
1FF8
330
1F
100
AcDbEntity
  8
AM_VIS
100
AcDbLine
 10
2697.765766306072
 20
948.6290116274865
 30
0.0
 11
2700.765766306072
 21
948.6290116274865
 31
0.0
  0
LINE
  5
2006
330
1F
100
AcDbEntity
  8
AM_7
  6
AM_ISO08W050x2
100
AcDbLine
 10
2639.514238328442
 20
1007.004583909276
 30
0.0
 11
2645.514238328442
 21
1007.004583909276
 31
0.0
1001
GENIUS_GENOREF_13
1005
200A
  0
LINE
  5
2007
330
1F
100
AcDbEntity
  8
AM_7
  6
AM_ISO08W050x2
100
AcDbLine
 10
2639.514238328442
 20
1007.004583909276
 30
0.0
 11
2639.514238328442
 21
1013.004583909276
 31
0.0
1001
GENIUS_GENOREF_13
1005
200A
  0
LINE
  5
2008
330
1F
100
AcDbEntity
  8
AM_7
  6
AM_ISO08W050x2
100
AcDbLine
 10
2639.514238328442
 20
1007.004583909276
 30
0.0
 11
2633.514238328442
 21
1007.004583909276
 31
0.0
1001
GENIUS_GENOREF_13
1005
200A
  0
LINE
  5
2009
330
1F
100
AcDbEntity
  8
AM_7
  6
AM_ISO08W050x2
100
AcDbLine
 10
2639.514238328442
 20
1007.004583909276
 30
0.0
 11
2639.514238328442
 21
1001.004583909276
 31
0.0
1001
GENIUS_GENOREF_13
1005
200A
  0
POINT
  5
200A
330
1F
100
AcDbEntity
  8
0
 60
     1
100
AcDbPoint
 10
0.0
 20
0.0
 30
0.0
1001
GENIUS_GENOENT_13
1002
{
1000
MYREF
1005
200A
1002
}
1002
{
1000
GRP
1005
0
1002
}
1001
GENIUS_GENOLIS_13
1002
{
1000
ENT
1005
2009
1005
2008
1005
2007
1005
2006
1002
}
1001
GENIUS_GENOBJ-N-CRS_13
1002
{
1000
OWNER
1000
GEN
1002
}
1001
GENIUS_GENODEF_13
1002
{
1000
HIER
1070
    10
1002
}
1002
{
1000
MANEDIT
1070
     0
1002
}
1002
{
1000
NOSEL
1070
     0
1002
}
1002
{
1000
BEHIND
1070
     0
1002
}
1002
{
1000
OTHER
1070
     0
1002
}
1002
{
1000
REACTOR
1002
}
  0
LINE
  5
2018
330
1F
100
AcDbEntity
  8
AM_7
  6
AM_ISO08W050x2
100
AcDbLine
 10
2671.514238328442
 20
1007.004583909276
 30
0.0
 11
2677.514238328442
 21
1007.004583909276
 31
0.0
1001
GENIUS_GENOREF_13
1005
201C
  0
LINE
  5
2019
330
1F
100
AcDbEntity
  8
AM_7
  6
AM_ISO08W050x2
100
AcDbLine
 10
2671.514238328442
 20
1007.004583909276
 30
0.0
 11
2671.514238328442
 21
1013.004583909276
 31
0.0
1001
GENIUS_GENOREF_13
1005
201C
  0
LINE
  5
201A
330
1F
100
AcDbEntity
  8
AM_7
  6
AM_ISO08W050x2
100
AcDbLine
 10
2671.514238328442
 20
1007.004583909276
 30
0.0
 11
2665.514238328442
 21
1007.004583909276
 31
0.0
1001
GENIUS_GENOREF_13
1005
201C
  0
LINE
  5
201B
330
1F
100
AcDbEntity
  8
AM_7
  6
AM_ISO08W050x2
100
AcDbLine
 10
2671.514238328442
 20
1007.004583909276
 30
0.0
 11
2671.514238328442
 21
1001.004583909276
 31
0.0
1001
GENIUS_GENOREF_13
1005
201C
  0
POINT
  5
201C
330
1F
100
AcDbEntity
  8
0
 60
     1
100
AcDbPoint
 10
0.0
 20
0.0
 30
0.0
1001
GENIUS_GENOLIS_13
1002
{
1000
ENT
1005
201B
1005
201A
1005
2019
1005
2018
1002
}
1001
GENIUS_GENODEF_13
1002
{
1000
HIER
1070
    10
1002
}
1002
{
1000
MANEDIT
1070
     0
1002
}
1002
{
1000
NOSEL
1070
     0
1002
}
1002
{
1000
BEHIND
1070
     0
1002
}
1002
{
1000
OTHER
1070
     0
1002
}
1002
{
1000
REACTOR
1002
}
1001
GENIUS_GENOENT_13
1002
{
1000
MYREF
1005
201C
1002
}
1002
{
1000
GRP
1005
0
1002
}
1001
GENIUS_GENOBJ-N-CRS_13
1002
{
1000
OWNER
1000
GEN
1002
}
  0
LINE
  5
202A
330
1F
100
AcDbEntity
  8
AM_7
100
AcDbLine
 10
2655.514238328442
 20
977.4290116274865
 30
0.0
 11
2667.514238328442
 21
977.4290116274865
 31
0.0
1001
GENIUS_GENOREF_13
1005
202E
  0
LINE
  5
202B
330
1F
100
AcDbEntity
  8
AM_7
100
AcDbLine
 10
2655.514238328442
 20
977.4290116274865
 30
0.0
 11
2655.514238328442
 21
989.4290116274866
 31
0.0
1001
GENIUS_GENOREF_13
1005
202E
  0
LINE
  5
202C
330
1F
100
AcDbEntity
  8
AM_7
100
AcDbLine
 10
2655.514238328442
 20
977.4290116274865
 30
0.0
 11
2643.514238328443
 21
977.4290116274865
 31
0.0
1001
GENIUS_GENOREF_13
1005
202E
  0
LINE
  5
202D
330
1F
100
AcDbEntity
  8
AM_7
100
AcDbLine
 10
2655.514238328442
 20
977.4290116274865
 30
0.0
 11
2655.514238328442
 21
965.4290116274866
 31
0.0
1001
GENIUS_GENOREF_13
1005
202E
  0
POINT
  5
202E
330
1F
100
AcDbEntity
  8
0
 60
     1
100
AcDbPoint
 10
0.0
 20
0.0
 30
0.0
1001
GENIUS_GENODEF_13
1002
{
1000
HIER
1070
    10
1002
}
1002
{
1000
MANEDIT
1070
     0
1002
}
1002
{
1000
NOSEL
1070
     0
1002
}
1002
{
1000
BEHIND
1070
     0
1002
}
1002
{
1000
OTHER
1070
     0
1002
}
1002
{
1000
REACTOR
1002
}
1001
GENIUS_GENOLIS_13
1002
{
1000
ENT
1005
202D
1005
202C
1005
202B
1005
202A
1002
}
1001
GENIUS_GENOENT_13
1002
{
1000
MYREF
1005
202E
1002
}
1002
{
1000
GRP
1005
0
1002
}
1001
GENIUS_GENOBJ-N-CRS_13
1002
{
1000
OWNER
1000
GEN
1002
}
  0
LINE
  5
202F
330
1F
100
AcDbEntity
  8
AM_7
100
AcDbLine
 10
2655.514238328442
 20
1018.42860888947
 30
0.0
 11
2655.514238328442
 21
1026.786575024213
 31
0.0
  0
LINE
  5
2030
330
1F
100
AcDbEntity
  8
AM_7
  6
AM_ISO08W050x2
100
AcDbLine
 10
2639.514238328442
 20
949.7613775052967
 30
0.0
 11
2639.514238328442
 21
943.7613775052966
 31
0.0
  0
LINE
  5
2031
330
1F
100
AcDbEntity
  8
AM_7
  6
AM_ISO08W050x2
100
AcDbLine
 10
2671.514238328442
 20
949.7613775052967
 30
0.0
 11
2671.514238328442
 21
943.7613775052966
 31
0.0
  0
LINE
  5
2033
330
1F
100
AcDbEntity
  8
AM_7
100
AcDbLine
 10
2717.245499337696
 20
977.4290116274865
 30
0.0
 11
2726.180810593801
 21
977.4290116274865
 31
0.0
  0
LINE
  5
2034
330
1F
100
AcDbEntity
  8
AM_7
  6
AM_ISO08W050x2
100
AcDbLine
 10
2705.765766306072
 20
949.7613775052967
 30
0.0
 11
2705.765766306072
 21
943.7613775052966
 31
0.0
  0
LINE
  5
223B
330
1F
100
AcDbEntity
  8
AM_VIS
100
AcDbLine
 10
2736.765766306072
 20
981.2384866467978
 30
0.0
 11
2736.765766306072
 21
948.6290116274865
 31
0.0
  0
LINE
  5
223C
330
1F
100
AcDbEntity
  8
AM_VIS
100
AcDbLine
 10
2733.265766306072
 20
945.4290116274865
 30
0.0
 11
2733.265766306072
 21
981.2384866467978
 31
0.0
  0
LINE
  5
223D
330
1F
100
AcDbEntity
  8
AM_VIS
100
AcDbLine
 10
2736.765766306072
 20
945.4290116274865
 30
0.0
 11
2733.265766306072
 21
945.4290116274865
 31
0.0
  0
LINE
  5
223E
330
1F
100
AcDbEntity
  8
AM_VIS
100
AcDbLine
 10
2736.765766306072
 20
948.6290116274865
 30
0.0
 11
2755.765766306072
 21
948.6290116274865
 31
0.0
  0
LINE
  5
223F
330
1F
100
AcDbEntity
  8
AM_VIS
100
AcDbLine
 10
2736.765766306072
 20
945.4290116274865
 30
0.0
 11
2736.765766306072
 21
948.6290116274867
 31
0.0
  0
LINE
  5
2240
330
1F
100
AcDbEntity
  8
AM_VIS
100
AcDbLine
 10
2755.765766306072
 20
945.4290116274865
 30
0.0
 11
2736.765766306072
 21
945.4290116274865
 31
0.0
  0
LINE
  5
2241
330
1F
100
AcDbEntity
  8
AM_VIS
100
AcDbLine
 10
2758.765766306072
 20
948.6290116274865
 30
0.0
 11
2758.765766306072
 21
945.4290116274865
 31
0.0
  0
LINE
  5
2242
330
1F
100
AcDbEntity
  8
AM_VIS
100
AcDbLine
 10
2736.765766306072
 20
987.4290116274865
 30
0.0
 11
2733.265766306072
 21
987.4290116274865
 31
0.0
  0
LINE
  5
2243
330
1F
100
AcDbEntity
  8
AM_VIS
100
AcDbLine
 10
2736.765766306072
 20
981.2384866467978
 30
0.0
 11
2736.765766306072
 21
987.4290116274865
 31
0.0
  0
LINE
  5
2244
330
1F
100
AcDbEntity
  8
AM_VIS
100
AcDbLine
 10
2733.265766306072
 20
987.4290116274865
 30
0.0
 11
2733.265766306072
 21
981.2384866467978
 31
0.0
  0
LINE
  5
2245
330
1F
100
AcDbEntity
  8
AM_VIS
100
AcDbLine
 10
2755.765766306072
 20
945.4290116274865
 30
0.0
 11
2758.765766306072
 21
945.4290116274865
 31
0.0
  0
LINE
  5
2246
330
1F
100
AcDbEntity
  8
AM_VIS
100
AcDbLine
 10
2758.765766306072
 20
948.6290116274865
 30
0.0
 11
2755.765766306072
 21
948.6290116274865
 31
0.0
  0
LINE
  5
2247
330
1F
100
AcDbEntity
  8
AM_7
100
AcDbLine
 10
2739.286033274448
 20
977.4290116274865
 30
0.0
 11
2730.350722018342
 21
977.4290116274865
 31
0.0
  0
LINE
  5
2248
330
1F
100
AcDbEntity
  8
AM_7
  6
AM_ISO08W050x2
100
AcDbLine
 10
2750.765766306072
 20
949.7613775052967
 30
0.0
 11
2750.765766306072
 21
943.7613775052966
 31
0.0
  0
LINE
  5
2249
330
1F
100
AcDbEntity
  8
AM_VIS
100
AcDbLine
 10
2676.514238328442
 20
1060.004583909276
 30
0.0
 11
2634.514238328442
 21
1060.004583909276
 31
0.0
  0
LINE
  5
224A
330
1F
100
AcDbEntity
  8
AM_VIS
100
AcDbLine
 10
2678.195791002453
 20
1038.004583909276
 30
0.0
 11
2679.514238328442
 21
1038.004583909276
 31
0.0
  0
LINE
  5
224B
330
1F
100
AcDbEntity
  8
AM_VIS
100
AcDbLine
 10
2631.514238328442
 20
1038.004583909276
 30
0.0
 11
2645.514238328443
 21
1038.004583909276
 31
0.0
  0
LINE
  5
224C
330
1F
100
AcDbEntity
  8
AM_VIS
100
AcDbLine
 10
2664.760205020857
 20
1038.004583909276
 30
0.0
 11
2678.195791002453
 21
1038.004583909276
 31
0.0
  0
LINE
  5
224D
330
1F
100
AcDbEntity
  8
AM_VIS
100
AcDbLine
 10
2679.514238328442
 20
1034.504583909276
 30
0.0
 11
2664.760205020857
 21
1034.504583909276
 31
0.0
  0
LINE
  5
224E
330
1F
100
AcDbEntity
  8
AM_VIS
100
AcDbLine
 10
2631.514238328442
 20
1057.004583909276
 30
0.0
 11
2631.514238328442
 21
1038.004583909276
 31
0.0
  0
LINE
  5
224F
330
1F
100
AcDbEntity
  8
AM_VIS
100
AcDbLine
 10
2679.514238328442
 20
1038.004583909276
 30
0.0
 11
2679.514238328442
 21
1034.504583909276
 31
0.0
  0
LINE
  5
2250
330
1F
100
AcDbEntity
  8
AM_VIS
100
AcDbLine
 10
2679.514238328442
 20
1038.004583909276
 30
0.0
 11
2679.514238328442
 21
1057.004583909276
 31
0.0
  0
LINE
  5
2251
330
1F
100
AcDbEntity
  8
AM_VIS
100
AcDbLine
 10
2645.514238328443
 20
1038.004583909276
 30
0.0
 11
2645.514238328443
 21
1034.504583909276
 31
0.0
  0
CIRCLE
  5
2252
330
1F
100
AcDbEntity
  8
AM_VIS
100
AcDbCircle
 10
2639.514238328442
 20
1052.004583909276
 30
0.0
 40
4.0
  0
CIRCLE
  5
2253
330
1F
100
AcDbEntity
  8
AM_VIS
100
AcDbCircle
 10
2671.514238328442
 20
1052.004583909276
 30
0.0
 40
4.0
  0
LINE
  5
2254
330
1F
100
AcDbEntity
  8
AM_VIS
100
AcDbLine
 10
2664.760205020857
 20
1038.004583909276
 30
0.0
 11
2645.514238328443
 21
1038.004583909276
 31
0.0
  0
LINE
  5
2255
330
1F
100
AcDbEntity
  8
AM_VIS
100
AcDbLine
 10
2645.514238328443
 20
1034.504583909276
 30
0.0
 11
2664.760205020857
 21
1034.504583909276
 31
0.0
  0
ARC
  5
2256
330
1F
100
AcDbEntity
  8
AM_VIS
100
AcDbCircle
 10
2634.514238328442
 20
1057.004583909276
 30
0.0
 40
3.0
100
AcDbArc
 50
90.00000000000003
 51
180.0
  0
ARC
  5
2257
330
1F
100
AcDbEntity
  8
AM_VIS
100
AcDbCircle
 10
2676.514238328442
 20
1057.004583909276
 30
0.0
 40
3.0
100
AcDbArc
 50
0.0
 51
90.00000000000003
  0
LINE
  5
2258
330
1F
100
AcDbEntity
  8
AM_7
  6
AM_ISO08W050x2
100
AcDbLine
 10
2639.514238328442
 20
1052.004583909276
 30
0.0
 11
2645.514238328442
 21
1052.004583909276
 31
0.0
1001
GENIUS_GENOREF_13
1005
2262
  0
LINE
  5
2259
330
1F
100
AcDbEntity
  8
AM_7
  6
AM_ISO08W050x2
100
AcDbLine
 10
2639.514238328442
 20
1052.004583909276
 30
0.0
 11
2639.514238328442
 21
1046.004583909276
 31
0.0
1001
GENIUS_GENOREF_13
1005
2262
  0
LINE
  5
225A
330
1F
100
AcDbEntity
  8
AM_7
  6
AM_ISO08W050x2
100
AcDbLine
 10
2639.514238328442
 20
1052.004583909276
 30
0.0
 11
2633.514238328442
 21
1052.004583909276
 31
0.0
1001
GENIUS_GENOREF_13
1005
2262
  0
LINE
  5
225B
330
1F
100
AcDbEntity
  8
AM_7
  6
AM_ISO08W050x2
100
AcDbLine
 10
2639.514238328442
 20
1052.004583909276
 30
0.0
 11
2639.514238328442
 21
1058.004583909276
 31
0.0
1001
GENIUS_GENOREF_13
1005
2262
  0
LINE
  5
225C
330
1F
100
AcDbEntity
  8
AM_7
  6
AM_ISO08W050x2
100
AcDbLine
 10
2671.514238328442
 20
1052.004583909276
 30
0.0
 11
2677.514238328442
 21
1052.004583909276
 31
0.0
1001
GENIUS_GENOREF_13
1005
2261
  0
LINE
  5
225D
330
1F
100
AcDbEntity
  8
AM_7
  6
AM_ISO08W050x2
100
AcDbLine
 10
2671.514238328442
 20
1052.004583909276
 30
0.0
 11
2671.514238328442
 21
1046.004583909276
 31
0.0
1001
GENIUS_GENOREF_13
1005
2261
  0
LINE
  5
225E
330
1F
100
AcDbEntity
  8
AM_7
  6
AM_ISO08W050x2
100
AcDbLine
 10
2671.514238328442
 20
1052.004583909276
 30
0.0
 11
2665.514238328442
 21
1052.004583909276
 31
0.0
1001
GENIUS_GENOREF_13
1005
2261
  0
LINE
  5
225F
330
1F
100
AcDbEntity
  8
AM_7
  6
AM_ISO08W050x2
100
AcDbLine
 10
2671.514238328442
 20
1052.004583909276
 30
0.0
 11
2671.514238328442
 21
1058.004583909276
 31
0.0
1001
GENIUS_GENOREF_13
1005
2261
  0
LINE
  5
2260
330
1F
100
AcDbEntity
  8
AM_7
100
AcDbLine
 10
2655.514238328442
 20
1040.580558929082
 30
0.0
 11
2655.514238328442
 21
1032.222592794339
 31
0.0
  0
POINT
  5
2261
330
1F
100
AcDbEntity
  8
0
 60
     1
100
AcDbPoint
 10
0.0
 20
2088.505004607247
 30
0.0
1001
GENIUS_GENOLIS_13
1002
{
1000
ENT
1005
225F
1005
225E
1005
225D
1005
225C
1002
}
1001
GENIUS_GENODEF_13
1002
{
1000
HIER
1070
    10
1002
}
1002
{
1000
MANEDIT
1070
     0
1002
}
1002
{
1000
NOSEL
1070
     0
1002
}
1002
{
1000
BEHIND
1070
     0
1002
}
1002
{
1000
OTHER
1070
     0
1002
}
1002
{
1000
REACTOR
1002
}
1001
GENIUS_GENOENT_13
1002
{
1000
MYREF
1005
2261
1002
}
1002
{
1000
GRP
1005
0
1002
}
1001
GENIUS_GENOBJ-N-CRS_13
1002
{
1000
OWNER
1000
GEN
1002
}
  0
POINT
  5
2262
330
1F
100
AcDbEntity
  8
0
 60
     1
100
AcDbPoint
 10
0.0
 20
2088.505004607247
 30
0.0
1001
GENIUS_GENOENT_13
1002
{
1000
MYREF
1005
2262
1002
}
1002
{
1000
GRP
1005
0
1002
}
1001
GENIUS_GENOLIS_13
1002
{
1000
ENT
1005
225B
1005
225A
1005
2259
1005
2258
1002
}
1001
GENIUS_GENOBJ-N-CRS_13
1002
{
1000
OWNER
1000
GEN
1002
}
1001
GENIUS_GENODEF_13
1002
{
1000
HIER
1070
    10
1002
}
1002
{
1000
MANEDIT
1070
     0
1002
}
1002
{
1000
NOSEL
1070
     0
1002
}
1002
{
1000
BEHIND
1070
     0
1002
}
1002
{
1000
OTHER
1070
     0
1002
}
1002
{
1000
REACTOR
1002
}
  0
LINE
  5
23E0
330
1F
100
AcDbEntity
  8
AM_7
100
AcDbLine
 10
2508.969146189658
 20
1123.310931141164
 30
0.0
 11
2364.59057561665
 21
1123.310931141164
 31
0.0
  0
LINE
  5
23E1
330
1F
100
AcDbEntity
  8
AM_7
100
AcDbLine
 10
2476.690575616649
 20
1134.860931141164
 30
0.0
 11
2476.690575616649
 21
1139.760931141164
 31
0.0
  0
LINE
  5
23E2
330
1F
100
AcDbEntity
  8
AM_7
100
AcDbLine
 10
2495.190575616649
 20
1123.310931141164
 30
0.0
 11
2497.190575616649
 21
1123.310931141164
 31
0.0
  0
LINE
  5
23E3
330
1F
100
AcDbEntity
  8
AM_7
100
AcDbLine
 10
2496.19057561665
 20
1122.310931141164
 30
0.0
 11
2496.19057561665
 21
1124.310931141164
 31
0.0
  0
LINE
  5
23E4
330
1F
100
AcDbEntity
  8
AM_7
100
AcDbLine
 10
2490.590575616649
 20
1123.310931141164
 30
0.0
 11
2494.39057561665
 21
1123.310931141164
 31
0.0
  0
LINE
  5
23E5
330
1F
100
AcDbEntity
  8
AM_7
100
AcDbLine
 10
2497.99057561665
 20
1123.310931141164
 30
0.0
 11
2501.790575616649
 21
1123.310931141164
 31
0.0
  0
LINE
  5
23E6
330
1F
100
AcDbEntity
  8
AM_7
100
AcDbLine
 10
2496.19057561665
 20
1117.710931141164
 30
0.0
 11
2496.19057561665
 21
1121.510931141164
 31
0.0
  0
LINE
  5
23E7
330
1F
100
AcDbEntity
  8
AM_7
100
AcDbLine
 10
2496.19057561665
 20
1125.110931141164
 30
0.0
 11
2496.19057561665
 21
1128.910931141164
 31
0.0
  0
LINE
  5
23E8
330
1F
100
AcDbEntity
  8
AM_7
100
AcDbLine
 10
2421.690575616649
 20
1134.860931141164
 30
0.0
 11
2421.690575616649
 21
1139.760931141164
 31
0.0
  0
LINE
  5
23E9
330
1F
100
AcDbEntity
  8
AM_7
100
AcDbLine
 10
2505.290575616649
 20
1174.386566593113
 30
0.0
 11
2364.59057561665
 21
1174.386566593113
 31
0.0
  0
LINE
  5
23EA
330
1F
100
AcDbEntity
  8
AM_7
100
AcDbLine
 10
2475.69057561665
 20
1174.386566593113
 30
0.0
 11
2477.690575616649
 21
1174.386566593113
 31
0.0
  0
LINE
  5
23EB
330
1F
100
AcDbEntity
  8
AM_7
100
AcDbLine
 10
2476.690575616649
 20
1173.386566593113
 30
0.0
 11
2476.690575616649
 21
1175.386566593113
 31
0.0
  0
LINE
  5
23EC
330
1F
100
AcDbEntity
  8
AM_7
100
AcDbLine
 10
2470.09057561665
 20
1174.386566593113
 30
0.0
 11
2474.89057561665
 21
1174.386566593113
 31
0.0
  0
LINE
  5
23ED
330
1F
100
AcDbEntity
  8
AM_7
100
AcDbLine
 10
2478.49057561665
 20
1174.386566593113
 30
0.0
 11
2483.29057561665
 21
1174.386566593113
 31
0.0
  0
LINE
  5
23EE
330
1F
100
AcDbEntity
  8
AM_7
100
AcDbLine
 10
2476.690575616649
 20
1167.786566593113
 30
0.0
 11
2476.690575616649
 21
1172.586566593113
 31
0.0
  0
LINE
  5
23EF
330
1F
100
AcDbEntity
  8
AM_7
100
AcDbLine
 10
2476.690575616649
 20
1176.186566593113
 30
0.0
 11
2476.690575616649
 21
1180.986566593113
 31
0.0
  0
LINE
  5
23F0
330
1F
100
AcDbEntity
  8
AM_7
100
AcDbLine
 10
2420.690575616649
 20
1174.386566593113
 30
0.0
 11
2422.69057561665
 21
1174.386566593113
 31
0.0
  0
LINE
  5
23F1
330
1F
100
AcDbEntity
  8
AM_7
100
AcDbLine
 10
2421.690575616649
 20
1173.386566593113
 30
0.0
 11
2421.690575616649
 21
1175.386566593113
 31
0.0
  0
LINE
  5
23F2
330
1F
100
AcDbEntity
  8
AM_7
100
AcDbLine
 10
2415.09057561665
 20
1174.386566593113
 30
0.0
 11
2419.89057561665
 21
1174.386566593113
 31
0.0
  0
LINE
  5
23F3
330
1F
100
AcDbEntity
  8
AM_7
100
AcDbLine
 10
2423.49057561665
 20
1174.386566593113
 30
0.0
 11
2428.290575616649
 21
1174.386566593113
 31
0.0
  0
LINE
  5
23F4
330
1F
100
AcDbEntity
  8
AM_7
100
AcDbLine
 10
2421.690575616649
 20
1167.786566593113
 30
0.0
 11
2421.690575616649
 21
1172.586566593113
 31
0.0
  0
LINE
  5
23F5
330
1F
100
AcDbEntity
  8
AM_7
100
AcDbLine
 10
2421.690575616649
 20
1176.186566593113
 30
0.0
 11
2421.690575616649
 21
1180.986566593113
 31
0.0
  0
LINE
  5
23F8
330
1F
100
AcDbEntity
  8
AM_7
100
AcDbLine
 10
2531.428208149661
 20
1123.310931141164
 30
0.0
 11
2533.428208149662
 21
1123.310931141164
 31
0.0
  0
LINE
  5
23F9
330
1F
100
AcDbEntity
  8
AM_7
100
AcDbLine
 10
2532.428208149661
 20
1122.310931141164
 30
0.0
 11
2532.428208149661
 21
1124.310931141164
 31
0.0
  0
LINE
  5
23FA
330
1F
100
AcDbEntity
  8
AM_7
100
AcDbLine
 10
2515.978208149661
 20
1123.310931141164
 30
0.0
 11
2530.628208149661
 21
1123.310931141164
 31
0.0
  0
LINE
  5
23FB
330
1F
100
AcDbEntity
  8
AM_7
100
AcDbLine
 10
2534.228208149662
 20
1123.310931141164
 30
0.0
 11
2548.878208149661
 21
1123.310931141164
 31
0.0
  0
LINE
  5
23FC
330
1F
100
AcDbEntity
  8
AM_7
100
AcDbLine
 10
2532.428208149661
 20
1106.860931141164
 30
0.0
 11
2532.428208149661
 21
1121.510931141164
 31
0.0
  0
LINE
  5
23FD
330
1F
100
AcDbEntity
  8
AM_7
100
AcDbLine
 10
2532.428208149661
 20
1125.110931141164
 30
0.0
 11
2532.428208149661
 21
1139.760931141164
 31
0.0
  0
LINE
  5
23FE
330
1F
100
AcDbEntity
  8
AM_7
100
AcDbLine
 10
2353.6022394865
 20
1123.310931141164
 30
0.0
 11
2344.4022394865
 21
1123.310931141164
 31
0.0
  0
LINE
  5
23FF
330
1F
100
AcDbEntity
  8
AM_7
100
AcDbLine
 10
2353.6022394865
 20
1174.386566593122
 30
0.0
 11
2344.4022394865
 21
1174.386566593122
 31
0.0
  0
LINE
  5
2400
330
1F
100
AcDbEntity
  8
AM_7
100
AcDbLine
 10
2331.314769470029
 20
1123.310931141164
 30
0.0
 11
2335.418296415881
 21
1123.310931141164
 31
0.0
  0
LINE
  5
2401
330
1F
100
AcDbEntity
  8
AM_7
100
AcDbLine
 10
2336.411242524176
 20
1123.310931141164
 30
0.0
 11
2340.514769470029
 21
1123.310931141164
 31
0.0
  0
LINE
  5
2402
330
1F
100
AcDbEntity
  8
AM_7
100
AcDbLine
 10
2331.314769470029
 20
1174.386566593113
 30
0.0
 11
2335.418296415881
 21
1174.386566593113
 31
0.0
  0
LINE
  5
2403
330
1F
100
AcDbEntity
  8
AM_7
100
AcDbLine
 10
2336.411242524176
 20
1174.386566593113
 30
0.0
 11
2340.514769470029
 21
1174.386566593113
 31
0.0
  0
LINE
  5
2405
330
1F
100
AcDbEntity
  8
AM_VIS
100
AcDbLine
 10
2387.290575616649
 20
1125.490380612934
 30
0.0
 11
2393.19057561665
 21
1125.490380612934
 31
0.0
  0
LINE
  5
2406
330
1F
100
AcDbEntity
  8
AM_VIS
100
AcDbLine
 10
2393.19057561665
 20
1121.131481669394
 30
0.0
 11
2393.19057561665
 21
1125.490380612934
 31
0.0
  0
LINE
  5
2407
330
1F
100
AcDbEntity
  8
AM_VIS
100
AcDbLine
 10
2393.19057561665
 20
1121.131481669394
 30
0.0
 11
2387.290575616649
 21
1121.131481669394
 31
0.0
  0
LINE
  5
2408
330
1F
100
AcDbEntity
  8
AM_VIS
100
AcDbLine
 10
2387.189872323407
 20
1121.371566497983
 30
0.0
 11
2387.289907748876
 21
1121.131203712734
 31
0.0
  0
LINE
  5
2409
330
1F
100
AcDbEntity
  8
AM_VIS
100
AcDbLine
 10
2387.189872323407
 20
1125.250295784344
 30
0.0
 11
2387.289907748876
 21
1125.490658569594
 31
0.0
  0
LINE
  5
240A
330
1F
100
AcDbEntity
  8
AM_VIS
100
AcDbLine
 10
2387.190575616649
 20
1128.210931141164
 30
0.0
 11
2366.190575616649
 21
1128.210931141164
 31
0.0
  0
LINE
  5
240B
330
1F
100
AcDbEntity
  8
AM_VIS
100
AcDbLine
 10
2387.190575616649
 20
1118.410931141164
 30
0.0
 11
2366.190575616649
 21
1118.410931141164
 31
0.0
  0
LINE
  5
240C
330
1F
100
AcDbEntity
  8
AM_VIS
100
AcDbLine
 10
2365.190575616649
 20
1119.410931141164
 30
0.0
 11
2366.190575616649
 21
1118.410931141164
 31
0.0
  0
LINE
  5
240D
330
1F
100
AcDbEntity
  8
AM_VIS
100
AcDbLine
 10
2365.190575616649
 20
1127.210931141164
 30
0.0
 11
2366.190575616649
 21
1128.210931141164
 31
0.0
  0
LINE
  5
240E
330
1F
100
AcDbEntity
  8
AM_VIS
100
AcDbLine
 10
2387.190575616649
 20
1128.210931141164
 30
0.0
 11
2387.290575616649
 21
1128.310931141164
 31
0.0
  0
LINE
  5
240F
330
1F
100
AcDbEntity
  8
AM_VIS
100
AcDbLine
 10
2387.190575616649
 20
1118.410931141164
 30
0.0
 11
2387.290575616649
 21
1118.310931141164
 31
0.0
  0
LINE
  5
2410
330
1F
100
AcDbEntity
  8
AM_VIS
100
AcDbLine
 10
2399.190575616649
 20
1128.310931141164
 30
0.0
 11
2387.290575616649
 21
1128.310931141164
 31
0.0
  0
LINE
  5
2411
330
1F
100
AcDbEntity
  8
AM_VIS
100
AcDbLine
 10
2399.190575616649
 20
1118.310931141164
 30
0.0
 11
2387.290575616649
 21
1118.310931141164
 31
0.0
  0
LINE
  5
2412
102
{ACAD_REACTORS
330
2668
330
27C8
102
}
330
1F
100
AcDbEntity
  8
AM_VIS
100
AcDbLine
 10
2365.190575616649
 20
1119.410931141164
 30
0.0
 11
2365.190575616649
 21
1127.210931141164
 31
0.0
  0
LINE
  5
2413
330
1F
100
AcDbEntity
  8
AM_VIS
100
AcDbLine
 10
2387.190575616649
 20
1125.25000308413
 30
0.0
 11
2387.190575616649
 21
1128.210931141164
 31
0.0
  0
LINE
  5
2414
102
{ACAD_REACTORS
330
27C8
330
2812
102
}
330
1F
100
AcDbEntity
  8
AM_VIS
100
AcDbLine
 10
2387.190575616649
 20
1118.410931141164
 30
0.0
 11
2387.190575616649
 21
1121.371859198197
 31
0.0
  0
LINE
  5
2415
330
1F
100
AcDbEntity
  8
AM_VIS
100
AcDbLine
 10
2387.190575616649
 20
1121.371859198197
 30
0.0
 11
2387.190575616649
 21
1125.25000308413
 31
0.0
  0
LINE
  5
2416
330
1F
100
AcDbEntity
  8
AM_VIS
100
AcDbLine
 10
2431.69057561665
 20
1110.160931141164
 30
0.0
 11
2431.790575616649
 21
1110.060931141164
 31
0.0
  0
LINE
  5
2417
330
1F
100
AcDbEntity
  8
AM_VIS
100
AcDbLine
 10
2431.69057561665
 20
1136.460931141164
 30
0.0
 11
2431.790575616649
 21
1136.560931141164
 31
0.0
  0
LINE
  5
2418
330
1F
100
AcDbEntity
  8
AM_VIS
100
AcDbLine
 10
2466.590575616649
 20
1136.560931141164
 30
0.0
 11
2431.790575616649
 21
1136.560931141164
 31
0.0
  0
LINE
  5
2419
330
1F
100
AcDbEntity
  8
AM_VIS
100
AcDbLine
 10
2466.590575616649
 20
1110.060931141164
 30
0.0
 11
2431.790575616649
 21
1110.060931141164
 31
0.0
  0
LINE
  5
241A
330
1F
100
AcDbEntity
  8
AM_VIS
100
AcDbLine
 10
2466.690575616649
 20
1136.460931141164
 30
0.0
 11
2466.590575616649
 21
1136.560931141164
 31
0.0
  0
LINE
  5
241B
330
1F
100
AcDbEntity
  8
AM_VIS
100
AcDbLine
 10
2466.690575616649
 20
1110.160931141164
 30
0.0
 11
2466.590575616649
 21
1110.060931141164
 31
0.0
  0
ARC
  5
241C
330
1F
100
AcDbEntity
  8
AM_VIS
100
AcDbCircle
 10
2476.690575616649
 20
1157.657387394597
 30
0.0
 40
20.39881875114442
100
AcDbArc
 50
252.8943438174669
 51
287.1056561825331
  0
SPLINE
  5
241D
330
1F
100
AcDbEntity
  8
AM_VIS
100
AcDbSpline
210
0.0
220
0.0
230
1.0
 70
     8
 71
     3
 72
    24
 73
    20
 74
     0
 42
0.0000000001
 43
0.0000000001
 40
-7.753123763648773
 40
-7.753123763648773
 40
-7.753123763648773
 40
-7.753123763648773
 40
-7.539132394019045
 40
-7.539132394019045
 40
-7.325141024389317
 40
-7.325141024389317
 40
-7.071320941448185
 40
-7.071320941448185
 40
-6.817500858507052
 40
-6.817500858507052
 40
-6.488852022970096
 40
-6.488852022970096
 40
-6.16020318743314
 40
-6.16020318743314
 40
-5.692988988524039
 40
-5.692988988524039
 40
-5.225774789614934
 40
-5.225774789614934
 40
-4.739228121985864
 40
-4.739228121985864
 40
-4.739228121985864
 40
-4.739228121985864
 10
2503.69057561665
 20
1130.714308748716
 30
0.0
 10
2503.761906073193
 20
1130.714308748716
 30
0.0
 10
2503.839630822773
 20
1130.706281953028
 30
0.0
 10
2503.991196478843
 20
1130.672389573122
 30
0.0
 10
2504.065050394304
 20
1130.646582190842
 30
0.0
 10
2504.207021559598
 20
1130.582079607619
 30
0.0
 10
2504.286760842695
 20
1130.534950675895
 30
0.0
 10
2504.434450347857
 20
1130.424461054152
 30
0.0
 10
2504.502496705275
 20
1130.361228924853
 30
0.0
 10
2504.634336759974
 20
1130.218698678244
 30
0.0
 10
2504.706775964927
 20
1130.123011905338
 30
0.0
 10
2504.832944618471
 20
1129.919603862116
 30
0.0
 10
2504.886859926642
 20
1129.811997934411
 30
0.0
 10
2504.990845045422
 20
1129.56793923809
 30
0.0
 10
2505.043621829394
 20
1129.405556841085
 30
0.0
 10
2505.122649826838
 20
1129.074006224913
 30
0.0
 10
2505.14919161037
 20
1128.904907332955
 30
0.0
 10
2505.182205036692
 20
1128.588705777389
 30
0.0
 10
2505.19057561665
 20
1128.419523492253
 30
0.0
 10
2505.19057561665
 20
1128.246516212865
 30
0.0
  0
LINE
  5
241E
330
1F
100
AcDbEntity
  8
AM_VIS
100
AcDbLine
 10
2505.19057561665
 20
1128.246516212865
 30
0.0
 11
2505.19057561665
 21
1118.375346069463
 31
0.0
  0
SPLINE
  5
241F
330
1F
100
AcDbEntity
  8
AM_VIS
100
AcDbSpline
210
0.0
220
0.0
230
1.0
 70
     8
 71
     3
 72
    24
 73
    20
 74
     0
 42
0.0000000001
 43
0.0000000001
 40
4.739228121985868
 40
4.739228121985868
 40
4.739228121985868
 40
4.739228121985868
 40
5.225774789614937
 40
5.225774789614937
 40
5.692988988524039
 40
5.692988988524039
 40
6.160203187433141
 40
6.160203187433141
 40
6.488852022970098
 40
6.488852022970098
 40
6.817500858507053
 40
6.817500858507053
 40
7.071320941448185
 40
7.071320941448185
 40
7.325141024389317
 40
7.325141024389317
 40
7.539132394019045
 40
7.539132394019045
 40
7.753123763648773
 40
7.753123763648773
 40
7.753123763648773
 40
7.753123763648773
 10
2505.19057561665
 20
1118.375346069463
 30
0.0
 10
2505.19057561665
 20
1118.202338790075
 30
0.0
 10
2505.182205036692
 20
1118.033156504939
 30
0.0
 10
2505.14919161037
 20
1117.716954949373
 30
0.0
 10
2505.122649826838
 20
1117.547856057415
 30
0.0
 10
2505.043621829394
 20
1117.216305441242
 30
0.0
 10
2504.990845045422
 20
1117.053923044238
 30
0.0
 10
2504.886859926642
 20
1116.809864347917
 30
0.0
 10
2504.832944618471
 20
1116.702258420212
 30
0.0
 10
2504.706775964927
 20
1116.49885037699
 30
0.0
 10
2504.634336759974
 20
1116.403163604084
 30
0.0
 10
2504.502496705275
 20
1116.260633357475
 30
0.0
 10
2504.434450347857
 20
1116.197401228176
 30
0.0
 10
2504.286760842695
 20
1116.086911606433
 30
0.0
 10
2504.207021559598
 20
1116.039782674708
 30
0.0
 10
2504.065050394304
 20
1115.975280091486
 30
0.0
 10
2503.991196478843
 20
1115.949472709206
 30
0.0
 10
2503.839630822773
 20
1115.9155803293
 30
0.0
 10
2503.761906073193
 20
1115.907553533612
 30
0.0
 10
2503.69057561665
 20
1115.907553533612
 30
0.0
  0
LINE
  5
2420
330
1F
100
AcDbEntity
  8
AM_VIS
100
AcDbLine
 10
2503.69057561665
 20
1115.907553533612
 30
0.0
 11
2484.49057561665
 21
1115.907553533612
 31
0.0
  0
LINE
  5
2421
330
1F
100
AcDbEntity
  8
AM_VIS
100
AcDbLine
 10
2484.49057561665
 20
1130.714308748716
 30
0.0
 11
2503.69057561665
 21
1130.714308748716
 31
0.0
  0
LINE
  5
2422
330
1F
100
AcDbEntity
  8
AM_VIS
100
AcDbLine
 10
2469.19057561665
 20
1108.460931141164
 30
0.0
 11
2484.190575616649
 21
1108.460931141164
 31
0.0
  0
LINE
  5
2423
330
1F
100
AcDbEntity
  8
AM_VIS
100
AcDbLine
 10
2482.690575616649
 20
1138.160931141164
 30
0.0
 11
2484.190575616649
 21
1138.160931141164
 31
0.0
  0
LINE
  5
2424
330
1F
100
AcDbEntity
  8
AM_VIS
100
AcDbLine
 10
2469.19057561665
 20
1138.160931141164
 30
0.0
 11
2470.690575616649
 21
1138.160931141164
 31
0.0
  0
LINE
  5
2425
330
1F
100
AcDbEntity
  8
AM_VIS
100
AcDbLine
 10
2469.19057561665
 20
1137.060931141164
 30
0.0
 11
2466.690575616649
 21
1137.060931141164
 31
0.0
  0
LINE
  5
2426
330
1F
100
AcDbEntity
  8
AM_VIS
100
AcDbLine
 10
2469.19057561665
 20
1109.560931141164
 30
0.0
 11
2466.690575616649
 21
1109.560931141164
 31
0.0
  0
LINE
  5
2427
330
1F
100
AcDbEntity
  8
AM_VIS
100
AcDbLine
 10
2484.190575616649
 20
1112.410931141164
 30
0.0
 11
2503.69057561665
 21
1112.410931141164
 31
0.0
  0
LINE
  5
2428
330
1F
100
AcDbEntity
  8
AM_VIS
100
AcDbLine
 10
2484.190575616649
 20
1134.210931141164
 30
0.0
 11
2503.69057561665
 21
1134.210931141164
 31
0.0
  0
LINE
  5
2429
330
1F
100
AcDbEntity
  8
AM_VIS
100
AcDbLine
 10
2469.19057561665
 20
1108.460931141164
 30
0.0
 11
2469.19057561665
 21
1138.160931141164
 31
0.0
  0
LINE
  5
242A
330
1F
100
AcDbEntity
  8
AM_VIS
100
AcDbLine
 10
2484.190575616649
 20
1138.160931141164
 30
0.0
 11
2484.190575616649
 21
1108.460931141164
 31
0.0
  0
LINE
  5
242B
330
1F
100
AcDbEntity
  8
AM_VIS
100
AcDbLine
 10
2466.690575616649
 20
1109.560931141164
 30
0.0
 11
2466.690575616649
 21
1137.060931141164
 31
0.0
  0
LINE
  5
242C
330
1F
100
AcDbEntity
  8
AM_VIS
100
AcDbLine
 10
2484.49057561665
 20
1130.714308748716
 30
0.0
 11
2484.49057561665
 21
1115.907553533612
 31
0.0
  0
LINE
  5
242D
330
1F
100
AcDbEntity
  8
AM_VIS
100
AcDbLine
 10
2505.19057561665
 20
1118.375346069463
 30
0.0
 11
2505.19057561665
 21
1113.910931141164
 31
0.0
  0
LINE
  5
242E
330
1F
100
AcDbEntity
  8
AM_VIS
100
AcDbLine
 10
2505.19057561665
 20
1132.710931141164
 30
0.0
 11
2505.19057561665
 21
1128.246516212865
 31
0.0
  0
CIRCLE
  5
242F
102
{ACAD_REACTORS
330
26E5
102
}
330
1F
100
AcDbEntity
  8
AM_VIS
100
AcDbCircle
 10
2496.19057561665
 20
1123.310931141164
 30
0.0
 40
4.0
  0
ARC
  5
2430
102
{ACAD_REACTORS
330
2668
330
2812
102
}
330
1F
100
AcDbEntity
  8
AM_VIS
100
AcDbCircle
 10
2503.69057561665
 20
1113.910931141164
 30
0.0
 40
1.5
100
AcDbArc
 50
270.0
 51
0.0
  0
ARC
  5
2431
330
1F
100
AcDbEntity
  8
AM_VIS
100
AcDbCircle
 10
2503.69057561665
 20
1132.710931141164
 30
0.0
 40
1.5
100
AcDbArc
 50
0.0
 51
90.0
  0
ARC
  5
2432
330
1F
100
AcDbEntity
  8
AM_VIS
100
AcDbCircle
 10
2421.690575616649
 20
1157.657387394597
 30
0.0
 40
20.39881875114443
100
AcDbArc
 50
252.8943438174669
 51
287.1056561825331
  0
SPLINE
  5
2433
330
1F
100
AcDbEntity
  8
AM_VIS
100
AcDbSpline
210
0.0
220
0.0
230
1.0
 70
    12
 71
     2
 72
     6
 73
     3
 74
     0
 42
0.0000000001
 43
0.0000000001
 40
27.55563801717013
 40
27.55563801717013
 40
27.55563801717013
 40
29.80431208064978
 40
29.80431208064978
 40
29.80431208064978
 10
2414.690575616651
 20
1117.124453952973
 30
0.0
 41
1.023713317489065
 10
2414.410693065476
 20
1117.796283131114
 30
0.0
 41
1.012824219756248
 10
2414.190575616649
 20
1118.445491798206
 30
0.0
 41
1.0
  0
LINE
  5
2434
330
1F
100
AcDbEntity
  8
AM_VIS
100
AcDbLine
 10
2414.190575616649
 20
1118.445491798206
 30
0.0
 11
2414.190575616649
 21
1128.176370484121
 31
0.0
  0
SPLINE
  5
2435
330
1F
100
AcDbEntity
  8
AM_VIS
100
AcDbSpline
210
0.0
220
0.0
230
1.0
 70
    12
 71
     2
 72
     6
 73
     3
 74
     0
 42
0.0000000001
 43
0.0000000001
 40
0.0
 40
0.0
 40
0.0
 40
2.248674063479637
 40
2.248674063479637
 40
2.248674063479637
 10
2414.190575616649
 20
1128.176370484121
 30
0.0
 41
1.0
 10
2414.410693065476
 20
1128.825579151214
 30
0.0
 41
1.012824219756248
 10
2414.690575616651
 20
1129.497408329354
 30
0.0
 41
1.023713317489065
  0
LINE
  5
2436
330
1F
100
AcDbEntity
  8
AM_VIS
100
AcDbLine
 10
2414.69057561665
 20
1129.497408329354
 30
0.0
 11
2428.690575616649
 21
1129.497408329354
 31
0.0
  0
SPLINE
  5
2437
330
1F
100
AcDbEntity
  8
AM_VIS
100
AcDbSpline
210
0.0
220
0.0
230
1.0
 70
    12
 71
     2
 72
     6
 73
     3
 74
     0
 42
0.0000000001
 43
0.0000000001
 40
19.55815691212646
 40
19.55815691212646
 40
19.55815691212646
 40
21.74061748230131
 40
21.74061748230131
 40
21.74061748230131
 10
2428.690575616649
 20
1129.497408329354
 30
0.0
 41
1.511463844797178
 10
2428.97045816782
 20
1128.82557915122
 30
0.0
 41
1.526534403645238
 10
2429.19057561665
 20
1128.176370484121
 30
0.0
 41
1.538599640933346
  0
LINE
  5
2438
330
1F
100
AcDbEntity
  8
AM_VIS
100
AcDbLine
 10
2429.19057561665
 20
1128.176370484121
 30
0.0
 11
2429.19057561665
 21
1125.921007768392
 31
0.0
  0
LINE
  5
2439
330
1F
100
AcDbEntity
  8
AM_VIS
100
AcDbLine
 10
2429.19057561665
 20
1125.921007768392
 30
0.0
 11
2431.69057561665
 21
1125.921007768392
 31
0.0
  0
LINE
  5
243A
330
1F
100
AcDbEntity
  8
AM_VIS
100
AcDbLine
 10
2431.69057561665
 20
1125.921007768392
 30
0.0
 11
2431.69057561665
 21
1120.700854513936
 31
0.0
  0
LINE
  5
243B
330
1F
100
AcDbEntity
  8
AM_VIS
100
AcDbLine
 10
2431.69057561665
 20
1120.700854513936
 30
0.0
 11
2429.19057561665
 21
1120.700854513936
 31
0.0
  0
LINE
  5
243C
330
1F
100
AcDbEntity
  8
AM_VIS
100
AcDbLine
 10
2429.19057561665
 20
1120.700854513936
 30
0.0
 11
2429.19057561665
 21
1118.445491798206
 31
0.0
  0
LINE
  5
243D
330
1F
100
AcDbEntity
  8
AM_VIS
100
AcDbLine
 10
2428.690575616649
 20
1117.124453952973
 30
0.0
 11
2414.69057561665
 21
1117.124453952973
 31
0.0
  0
SPLINE
  5
243E
330
1F
100
AcDbEntity
  8
AM_VIS
100
AcDbSpline
210
0.0000000000040912
220
-0.0000000000015548
230
1.0
 70
    12
 71
     2
 72
     6
 73
     3
 74
     0
 42
0.0000000001
 43
0.0000000001
 40
39.26413643081598
 40
39.26413643081598
 40
39.26413643081598
 40
41.44659700099088
 40
41.44659700099088
 40
41.44659700099088
 10
2429.19057561665
 20
1118.445491798206
 30
0.0
 41
1.538599640933346
 10
2428.970458167824
 20
1117.796283131119
 30
0.0
 41
1.526534403645238
 10
2428.690575616649
 20
1117.124453952973
 30
-0.0000000000000071
 41
1.511463844797177
  0
LINE
  5
243F
330
1F
100
AcDbEntity
  8
AM_VIS
100
AcDbLine
 10
2429.19057561665
 20
1137.060931141164
 30
0.0
 11
2431.69057561665
 21
1137.060931141164
 31
0.0
  0
LINE
  5
2440
330
1F
100
AcDbEntity
  8
AM_VIS
100
AcDbLine
 10
2429.19057561665
 20
1109.560931141164
 30
0.0
 11
2431.69057561665
 21
1109.560931141164
 31
0.0
  0
LINE
  5
2441
330
1F
100
AcDbEntity
  8
AM_VIS
100
AcDbLine
 10
2414.190575616649
 20
1134.210931141164
 30
0.0
 11
2400.690575616649
 21
1134.210931141164
 31
0.0
  0
LINE
  5
2442
330
1F
100
AcDbEntity
  8
AM_VIS
100
AcDbLine
 10
2414.190575616649
 20
1112.410931141164
 30
0.0
 11
2400.690575616649
 21
1112.410931141164
 31
0.0
  0
LINE
  5
2443
330
1F
100
AcDbEntity
  8
AM_VIS
100
AcDbLine
 10
2414.190575616649
 20
1108.960931141164
 30
0.0
 11
2414.69057561665
 21
1108.460931141164
 31
0.0
  0
LINE
  5
2444
330
1F
100
AcDbEntity
  8
AM_VIS
100
AcDbLine
 10
2414.190575616649
 20
1137.660931141164
 30
0.0
 11
2414.69057561665
 21
1138.160931141164
 31
0.0
  0
LINE
  5
2445
330
1F
100
AcDbEntity
  8
AM_VIS
100
AcDbLine
 10
2415.69057561665
 20
1138.160931141164
 30
0.0
 11
2414.69057561665
 21
1138.160931141164
 31
0.0
  0
LINE
  5
2446
330
1F
100
AcDbEntity
  8
AM_VIS
100
AcDbLine
 10
2428.690575616649
 20
1138.160931141164
 30
0.0
 11
2427.69057561665
 21
1138.160931141164
 31
0.0
  0
LINE
  5
2447
330
1F
100
AcDbEntity
  8
AM_VIS
100
AcDbLine
 10
2429.19057561665
 20
1137.660931141164
 30
0.0
 11
2428.690575616649
 21
1138.160931141164
 31
0.0
  0
LINE
  5
2448
330
1F
100
AcDbEntity
  8
AM_VIS
100
AcDbLine
 10
2428.690575616649
 20
1108.460931141164
 30
0.0
 11
2414.69057561665
 21
1108.460931141164
 31
0.0
  0
LINE
  5
2449
330
1F
100
AcDbEntity
  8
AM_VIS
100
AcDbLine
 10
2429.19057561665
 20
1108.960931141164
 30
0.0
 11
2428.690575616649
 21
1108.460931141164
 31
0.0
  0
LINE
  5
244A
330
1F
100
AcDbEntity
  8
AM_VIS
100
AcDbLine
 10
2431.69057561665
 20
1137.060931141164
 30
0.0
 11
2431.69057561665
 21
1125.921007768392
 31
0.0
  0
LINE
  5
244B
330
1F
100
AcDbEntity
  8
AM_VIS
100
AcDbLine
 10
2431.69057561665
 20
1120.700854513936
 30
0.0
 11
2431.69057561665
 21
1109.560931141164
 31
0.0
  0
LINE
  5
244C
330
1F
100
AcDbEntity
  8
AM_VIS
100
AcDbLine
 10
2399.190575616649
 20
1113.910931141164
 30
0.0
 11
2399.190575616649
 21
1132.710931141164
 31
0.0
  0
LINE
  5
244D
330
1F
100
AcDbEntity
  8
AM_VIS
100
AcDbLine
 10
2414.190575616649
 20
1108.960931141164
 30
0.0
 11
2414.190575616649
 21
1118.445491798206
 31
0.0
  0
LINE
  5
244E
330
1F
100
AcDbEntity
  8
AM_VIS
100
AcDbLine
 10
2414.190575616649
 20
1128.176370484121
 30
0.0
 11
2414.190575616649
 21
1137.660931141164
 31
0.0
  0
LINE
  5
244F
330
1F
100
AcDbEntity
  8
AM_VIS
100
AcDbLine
 10
2429.19057561665
 20
1137.660931141164
 30
0.0
 11
2429.19057561665
 21
1128.176370484121
 31
0.0
  0
LINE
  5
2450
330
1F
100
AcDbEntity
  8
AM_VIS
100
AcDbLine
 10
2429.19057561665
 20
1118.445491798206
 30
0.0
 11
2429.19057561665
 21
1108.960931141164
 31
0.0
  0
ARC
  5
2451
330
1F
100
AcDbEntity
  8
AM_VIS
100
AcDbCircle
 10
2400.690575616649
 20
1132.710931141164
 30
0.0
 40
1.5
100
AcDbArc
 50
90.0
 51
180.0
  0
ARC
  5
2452
330
1F
100
AcDbEntity
  8
AM_VIS
100
AcDbCircle
 10
2400.690575616649
 20
1113.910931141164
 30
0.0
 40
1.5
100
AcDbArc
 50
180.0
 51
270.0
  0
LINE
  5
2453
330
1F
100
AcDbEntity
  8
AM_VIS
100
AcDbLine
 10
2387.190575616649
 20
1178.886566593113
 30
0.0
 11
2387.290575616649
 21
1178.886566593113
 31
0.0
  0
LINE
  5
2454
330
1F
100
AcDbEntity
  8
AM_VIS
100
AcDbLine
 10
2393.19057561665
 20
1178.886566593113
 30
0.0
 11
2387.290575616649
 21
1178.886566593113
 31
0.0
  0
LINE
  5
2455
330
1F
100
AcDbEntity
  8
AM_VIS
100
AcDbLine
 10
2393.19057561665
 20
1178.886566593113
 30
0.0
 11
2393.440575616649
 21
1179.386566593113
 31
0.0
  0
LINE
  5
2456
330
1F
100
AcDbEntity
  8
AM_VIS
100
AcDbLine
 10
2393.440575616649
 20
1169.386566593113
 30
0.0
 11
2393.19057561665
 21
1169.886566593113
 31
0.0
  0
LINE
  5
2457
330
1F
100
AcDbEntity
  8
AM_VIS
100
AcDbLine
 10
2387.290575616649
 20
1169.886566593113
 30
0.0
 11
2393.19057561665
 21
1169.886566593113
 31
0.0
  0
LINE
  5
2458
330
1F
100
AcDbEntity
  8
AM_VIS
100
AcDbLine
 10
2387.190575616649
 20
1169.886566593113
 30
0.0
 11
2387.290575616649
 21
1169.886566593113
 31
0.0
  0
LINE
  5
2459
330
1F
100
AcDbEntity
  8
AM_VIS
100
AcDbLine
 10
2387.190575616649
 20
1179.286566593113
 30
0.0
 11
2366.190575616649
 21
1179.286566593113
 31
0.0
  0
LINE
  5
245A
330
1F
100
AcDbEntity
  8
AM_VIS
100
AcDbLine
 10
2387.190575616649
 20
1169.486566593113
 30
0.0
 11
2366.190575616649
 21
1169.486566593113
 31
0.0
  0
LINE
  5
245B
330
1F
100
AcDbEntity
  8
AM_VIS
100
AcDbLine
 10
2365.190575616649
 20
1170.486566593113
 30
0.0
 11
2366.190575616649
 21
1169.486566593113
 31
0.0
  0
LINE
  5
245C
330
1F
100
AcDbEntity
  8
AM_VIS
100
AcDbLine
 10
2365.190575616649
 20
1178.286566593113
 30
0.0
 11
2366.190575616649
 21
1179.286566593113
 31
0.0
  0
LINE
  5
245D
330
1F
100
AcDbEntity
  8
AM_VIS
100
AcDbLine
 10
2399.190575616649
 20
1179.386566593113
 30
0.0
 11
2393.440575616649
 21
1179.386566593113
 31
0.0
  0
LINE
  5
245E
330
1F
100
AcDbEntity
  8
AM_VIS
100
AcDbLine
 10
2399.190575616649
 20
1169.386566593113
 30
0.0
 11
2393.440575616649
 21
1169.386566593113
 31
0.0
  0
LINE
  5
245F
330
1F
100
AcDbEntity
  8
AM_VIS
100
AcDbLine
 10
2365.190575616649
 20
1170.486566593113
 30
0.0
 11
2365.190575616649
 21
1178.286566593113
 31
0.0
  0
LINE
  5
2460
330
1F
100
AcDbEntity
  8
AM_VIS
100
AcDbLine
 10
2387.190575616649
 20
1178.886566593113
 30
0.0
 11
2387.190575616649
 21
1179.286566593113
 31
0.0
  0
LINE
  5
2461
330
1F
100
AcDbEntity
  8
AM_VIS
100
AcDbLine
 10
2387.190575616649
 20
1169.886566593113
 30
0.0
 11
2387.190575616649
 21
1178.886566593113
 31
0.0
  0
LINE
  5
2462
330
1F
100
AcDbEntity
  8
AM_VIS
100
AcDbLine
 10
2387.190575616649
 20
1169.486566593113
 30
0.0
 11
2387.190575616649
 21
1169.886566593113
 31
0.0
  0
LINE
  5
2463
330
1F
100
AcDbEntity
  8
AM_VIS
100
AcDbLine
 10
2431.69057561665
 20
1161.236566593113
 30
0.0
 11
2431.790575616649
 21
1161.136566593113
 31
0.0
  0
LINE
  5
2464
330
1F
100
AcDbEntity
  8
AM_VIS
100
AcDbLine
 10
2431.69057561665
 20
1187.536566593113
 30
0.0
 11
2431.790575616649
 21
1187.636566593113
 31
0.0
  0
LINE
  5
2465
330
1F
100
AcDbEntity
  8
AM_VIS
100
AcDbLine
 10
2466.590575616649
 20
1187.636566593113
 30
0.0
 11
2431.790575616649
 21
1187.636566593113
 31
0.0
  0
LINE
  5
2466
330
1F
100
AcDbEntity
  8
AM_VIS
100
AcDbLine
 10
2466.590575616649
 20
1161.136566593113
 30
0.0
 11
2431.790575616649
 21
1161.136566593113
 31
0.0
  0
LINE
  5
2467
330
1F
100
AcDbEntity
  8
AM_VIS
100
AcDbLine
 10
2466.690575616649
 20
1187.536566593113
 30
0.0
 11
2466.590575616649
 21
1187.636566593113
 31
0.0
  0
LINE
  5
2468
330
1F
100
AcDbEntity
  8
AM_VIS
100
AcDbLine
 10
2466.690575616649
 20
1161.236566593113
 30
0.0
 11
2466.590575616649
 21
1161.136566593113
 31
0.0
  0
LINE
  5
246B
330
1F
100
AcDbEntity
  8
AM_VIS
100
AcDbLine
 10
2503.69057561665
 20
1166.386566593113
 30
0.0
 11
2505.19057561665
 21
1166.386566593113
 31
0.0
  0
LINE
  5
246C
330
1F
100
AcDbEntity
  8
AM_VIS
100
AcDbLine
 10
2484.49057561665
 20
1166.386566593113
 30
0.0
 11
2503.69057561665
 21
1166.386566593113
 31
0.0
  0
LINE
  5
246D
330
1F
100
AcDbEntity
  8
AM_VIS
100
AcDbLine
 10
2503.69057561665
 20
1182.386566593113
 30
0.0
 11
2505.19057561665
 21
1182.386566593113
 31
0.0
  0
LINE
  5
246E
330
1F
100
AcDbEntity
  8
AM_VIS
100
AcDbLine
 10
2503.69057561665
 20
1182.386566593113
 30
0.0
 11
2484.49057561665
 21
1182.386566593113
 31
0.0
  0
LINE
  5
246F
330
1F
100
AcDbEntity
  8
AM_VIS
100
AcDbLine
 10
2469.19057561665
 20
1159.536566593113
 30
0.0
 11
2484.190575616649
 21
1159.536566593113
 31
0.0
  0
LINE
  5
2470
330
1F
100
AcDbEntity
  8
AM_VIS
100
AcDbLine
 10
2469.19057561665
 20
1189.236566593113
 30
0.0
 11
2484.190575616649
 21
1189.236566593113
 31
0.0
  0
LINE
  5
2471
330
1F
100
AcDbEntity
  8
AM_VIS
100
AcDbLine
 10
2469.19057561665
 20
1188.136566593113
 30
0.0
 11
2466.690575616649
 21
1188.136566593113
 31
0.0
  0
LINE
  5
2472
330
1F
100
AcDbEntity
  8
AM_VIS
100
AcDbLine
 10
2469.19057561665
 20
1160.636566593113
 30
0.0
 11
2466.690575616649
 21
1160.636566593113
 31
0.0
  0
LINE
  5
2473
330
1F
100
AcDbEntity
  8
AM_VIS
100
AcDbLine
 10
2484.190575616649
 20
1163.486566593113
 30
0.0
 11
2484.49057561665
 21
1163.486566593113
 31
0.0
  0
LINE
  5
2474
330
1F
100
AcDbEntity
  8
AM_VIS
100
AcDbLine
 10
2484.190575616649
 20
1185.286566593113
 30
0.0
 11
2484.49057561665
 21
1185.286566593113
 31
0.0
  0
LINE
  5
2475
330
1F
100
AcDbEntity
  8
AM_VIS
100
AcDbLine
 10
2469.19057561665
 20
1159.536566593113
 30
0.0
 11
2469.19057561665
 21
1189.236566593113
 31
0.0
  0
LINE
  5
2476
330
1F
100
AcDbEntity
  8
AM_VIS
100
AcDbLine
 10
2484.190575616649
 20
1189.236566593113
 30
0.0
 11
2484.190575616649
 21
1159.536566593113
 31
0.0
  0
LINE
  5
2477
330
1F
100
AcDbEntity
  8
AM_VIS
100
AcDbLine
 10
2466.690575616649
 20
1160.636566593113
 30
0.0
 11
2466.690575616649
 21
1188.136566593113
 31
0.0
  0
LINE
  5
247A
330
1F
100
AcDbEntity
  8
AM_VIS
100
AcDbLine
 10
2484.49057561665
 20
1166.386566593113
 30
0.0
 11
2484.49057561665
 21
1163.486566593113
 31
0.0
  0
LINE
  5
247B
330
1F
100
AcDbEntity
  8
AM_VIS
100
AcDbLine
 10
2505.19057561665
 20
1182.386566593113
 30
0.0
 11
2505.19057561665
 21
1166.386566593113
 31
0.0
  0
LINE
  5
247C
330
1F
100
AcDbEntity
  8
AM_VIS
100
AcDbLine
 10
2484.49057561665
 20
1185.286566593113
 30
0.0
 11
2484.49057561665
 21
1182.386566593113
 31
0.0
  0
LINE
  5
247D
330
1F
100
AcDbEntity
  8
AM_VIS
100
AcDbLine
 10
2431.69057561665
 20
1187.886566593113
 30
0.0
 11
2429.19057561665
 21
1187.886566593113
 31
0.0
  0
LINE
  5
247E
330
1F
100
AcDbEntity
  8
AM_VIS
100
AcDbLine
 10
2414.190575616649
 20
1187.886566593113
 30
0.0
 11
2414.69057561665
 21
1187.886566593113
 31
0.0
  0
LINE
  5
247F
330
1F
100
AcDbEntity
  8
AM_VIS
100
AcDbLine
 10
2428.690575616649
 20
1187.886566593113
 30
0.0
 11
2414.69057561665
 21
1187.886566593113
 31
0.0
  0
LINE
  5
2482
330
1F
100
AcDbEntity
  8
AM_VIS
100
AcDbLine
 10
2428.690575616649
 20
1187.886566593113
 30
0.0
 11
2429.19057561665
 21
1187.886566593113
 31
0.0
  0
LINE
  5
2483
330
1F
100
AcDbEntity
  8
AM_VIS
100
AcDbLine
 10
2414.190575616649
 20
1160.886566593113
 30
0.0
 11
2414.69057561665
 21
1160.886566593113
 31
0.0
  0
LINE
  5
2484
330
1F
100
AcDbEntity
  8
AM_VIS
100
AcDbLine
 10
2414.69057561665
 20
1160.886566593113
 30
0.0
 11
2428.690575616649
 21
1160.886566593113
 31
0.0
  0
LINE
  5
2485
330
1F
100
AcDbEntity
  8
AM_VIS
100
AcDbLine
 10
2428.690575616649
 20
1160.886566593113
 30
0.0
 11
2429.19057561665
 21
1160.886566593113
 31
0.0
  0
LINE
  5
2486
330
1F
100
AcDbEntity
  8
AM_VIS
100
AcDbLine
 10
2429.19057561665
 20
1160.886566593113
 30
0.0
 11
2431.69057561665
 21
1160.886566593113
 31
0.0
  0
LINE
  5
2487
330
1F
100
AcDbEntity
  8
AM_VIS
100
AcDbLine
 10
2414.190575616649
 20
1185.286566593113
 30
0.0
 11
2400.690575616649
 21
1185.286566593113
 31
0.0
  0
LINE
  5
2488
330
1F
100
AcDbEntity
  8
AM_VIS
100
AcDbLine
 10
2414.190575616649
 20
1163.486566593113
 30
0.0
 11
2400.690575616649
 21
1163.486566593113
 31
0.0
  0
LINE
  5
2489
330
1F
100
AcDbEntity
  8
AM_VIS
100
AcDbLine
 10
2431.69057561665
 20
1187.886566593113
 30
0.0
 11
2431.69057561665
 21
1160.886566593113
 31
0.0
  0
LINE
  5
248A
330
1F
100
AcDbEntity
  8
AM_VIS
100
AcDbLine
 10
2399.190575616649
 20
1164.986566593113
 30
0.0
 11
2399.190575616649
 21
1183.786566593113
 31
0.0
  0
LINE
  5
248C
330
1F
100
AcDbEntity
  8
AM_VIS
100
AcDbLine
 10
2414.190575616649
 20
1160.886566593113
 30
0.0
 11
2414.190575616649
 21
1187.886566593113
 31
0.0
  0
LINE
  5
248D
330
1F
100
AcDbEntity
  8
AM_VIS
100
AcDbLine
 10
2429.19057561665
 20
1187.886566593113
 30
0.0
 11
2429.19057561665
 21
1160.886566593113
 31
0.0
  0
ARC
  5
248E
330
1F
100
AcDbEntity
  8
AM_VIS
100
AcDbCircle
 10
2400.690575616649
 20
1183.786566593113
 30
0.0
 40
1.5
100
AcDbArc
 50
90.0
 51
180.0
  0
ARC
  5
248F
330
1F
100
AcDbEntity
  8
AM_VIS
100
AcDbCircle
 10
2400.690575616649
 20
1164.986566593113
 30
0.0
 40
1.5
100
AcDbArc
 50
180.0
 51
270.0
  0
LINE
  5
2490
330
1F
100
AcDbEntity
  8
AM_VIS
100
AcDbLine
 10
2524.428208149661
 20
1130.714308748716
 30
0.0
 11
2524.428208149661
 21
1128.246516212865
 31
0.0
  0
LINE
  5
2491
330
1F
100
AcDbEntity
  8
AM_VIS
100
AcDbLine
 10
2524.428208149661
 20
1128.246516212865
 30
0.0
 11
2524.428208149661
 21
1118.375346069463
 31
0.0
  0
LINE
  5
2492
330
1F
100
AcDbEntity
  8
AM_VIS
100
AcDbLine
 10
2524.428208149661
 20
1118.375346069463
 30
0.0
 11
2524.428208149661
 21
1115.907553533612
 31
0.0
  0
LINE
  5
2493
330
1F
100
AcDbEntity
  8
AM_VIS
100
AcDbLine
 10
2540.428208149661
 20
1118.375346069463
 30
0.0
 11
2540.428208149661
 21
1115.907553533612
 31
0.0
  0
LINE
  5
2494
330
1F
100
AcDbEntity
  8
AM_VIS
100
AcDbLine
 10
2540.428208149661
 20
1118.375346069463
 30
0.0
 11
2540.428208149661
 21
1128.246516212865
 31
0.0
  0
LINE
  5
2495
330
1F
100
AcDbEntity
  8
AM_VIS
100
AcDbLine
 10
2540.428208149661
 20
1130.714308748716
 30
0.0
 11
2540.428208149661
 21
1128.246516212865
 31
0.0
  0
CIRCLE
  5
2496
330
1F
100
AcDbEntity
  8
AM_VIS
100
AcDbCircle
 10
2532.428208149661
 20
1123.310931141164
 30
0.0
 40
14.85
  0
ARC
  5
2497
330
1F
100
AcDbEntity
  8
AM_VIS
100
AcDbCircle
 10
2532.428208149661
 20
1123.310931141164
 30
0.0
 40
10.9
100
AcDbArc
 50
137.2181411331908
 51
222.7818588668092
  0
ARC
  5
2498
330
1F
100
AcDbEntity
  8
AM_VIS
100
AcDbCircle
 10
2532.428208149661
 20
1123.310931141164
 30
0.0
 40
10.9
100
AcDbArc
 50
222.7818588668092
 51
317.2181411331908
  0
ARC
  5
2499
330
1F
100
AcDbEntity
  8
AM_VIS
100
AcDbCircle
 10
2532.428208149661
 20
1123.310931141164
 30
0.0
 40
10.9
100
AcDbArc
 50
42.78185886680918
 51
137.2181411331908
  0
ARC
  5
249A
330
1F
100
AcDbEntity
  8
AM_VIS
100
AcDbCircle
 10
2532.428208149661
 20
1123.310931141164
 30
0.0
 40
10.9
100
AcDbArc
 50
317.2181411331908
 51
42.78185886680918
  0
LINE
  5
249B
330
1F
100
AcDbEntity
  8
AM_VIS
100
AcDbLine
 10
2347.341980786155
 20
1140.631431141164
 30
0.0
 11
2350.662498186846
 21
1140.631431141164
 31
0.0
  0
LINE
  5
249C
330
1F
100
AcDbEntity
  8
AM_VIS
100
AcDbLine
 10
2347.341971461151
 20
1105.99044729254
 30
0.0
 11
2347.341980786167
 21
1105.990431141163
 31
0.0
  0
SPLINE
  5
249D
330
1F
100
AcDbEntity
  8
AM_VIS
100
AcDbSpline
210
0.0
220
0.0
230
1.0
 70
    12
 71
     2
 72
     6
 73
     3
 74
     0
 42
0.0000000001
 43
0.0000000001
 40
0.3225471522250178
 40
0.3225471522250178
 40
0.3225471522250178
 40
9.138968350774945
 40
9.138968350774945
 40
9.138968350774945
 10
2347.341980786154
 20
1140.631431141164
 30
0.0
 41
1.002771087174056
 10
2346.004476560822
 20
1138.314805867548
 30
0.0
 41
1.039257636916397
 10
2346.0022394865
 20
1136.30854859413
 30
0.0
 41
1.0
  0
SPLINE
  5
249E
330
1F
100
AcDbEntity
  8
AM_VIS
100
AcDbSpline
210
0.0
220
0.0
230
1.0
 70
    12
 71
     2
 72
     6
 73
     3
 74
     0
 42
0.0000000001
 43
0.0000000001
 40
0.0
 40
0.0
 40
0.0
 40
8.816428612226554
 40
8.816428612226554
 40
8.816428612226554
 10
2346.0022394865
 20
1136.294063688198
 30
0.0
 41
1.0
 10
2346.004476562631
 20
1134.287804791457
 30
0.0
 41
1.039257669927926
 10
2347.341983117406
 20
1131.97117710332
 30
0.0
 41
1.002771025811354
  0
SPLINE
  5
249F
330
1F
100
AcDbEntity
  8
AM_VIS
100
AcDbSpline
210
0.0
220
0.0
230
1.0
 70
    12
 71
     2
 72
     6
 73
     3
 74
     0
 42
0.0000000001
 43
0.0000000001
 40
9.153397245139405
 40
9.153397245139405
 40
9.153397245139405
 40
17.98432095287651
 40
17.98432095287651
 40
17.98432095287651
 10
2346.0022394865
 20
1123.310931141164
 30
0.0
 41
1.0
 10
2346.002239486501
 20
1119.291690008894
 30
0.0
 41
1.039394456041176
 10
2347.341987779905
 20
1114.65066902763
 30
0.0
 41
1.002775727798852
  0
SPLINE
  5
24A0
330
1F
100
AcDbEntity
  8
AM_VIS
100
AcDbSpline
210
-0.0000000000000194
220
0.0000000000000039
230
1.0
 70
    12
 71
     2
 72
     6
 73
     3
 74
     0
 42
0.0000000001
 43
0.0000000001
 40
0.3224883624199651
 40
0.3224883624199651
 40
0.3224883624199651
 40
9.153397245139405
 40
9.153397245139405
 40
9.153397245139405
 10
2347.341983117408
 20
1131.97117710332
 30
-0.0000000000000071
 41
1.002775850746884
 10
2346.0022394865
 20
1127.330165781818
 30
0.0
 41
1.039394389907263
 10
2346.0022394865
 20
1123.310931141164
 30
0.0
 41
1.0
  0
LINE
  5
24A1
330
1F
100
AcDbEntity
  8
AM_VIS
100
AcDbLine
 10
2347.341983117407
 20
1131.97117710332
 30
0.0
 11
2350.662495855595
 21
1131.97117710332
 31
0.0
  0
LINE
  5
24A2
330
1F
100
AcDbEntity
  8
AM_VIS
100
AcDbLine
 10
2347.341980786168
 20
1105.990431141164
 30
0.0
 11
2350.662498186833
 21
1105.990431141164
 31
0.0
  0
SPLINE
  5
24A3
330
1F
100
AcDbEntity
  8
AM_VIS
100
AcDbSpline
210
0.0
220
0.0
230
1.0
 70
    12
 71
     2
 72
     6
 73
     3
 74
     0
 42
0.0000000001
 43
0.0000000001
 40
0.3094151123769164
 40
0.3094151123769164
 40
0.3094151123769164
 40
17.9479578438577
 40
17.9479578438577
 40
17.9479578438577
 10
2347.341987779908
 20
1114.650669027631
 30
0.0
 41
1.00555337263829
 10
2344.841993316627
 20
1110.320548570211
 30
0.0
 41
1.16111256163256
 10
2347.341980786168
 20
1105.990431141164
 30
0.0
 41
1.005553749513035
  0
LINE
  5
24A4
330
1F
100
AcDbEntity
  8
AM_VIS
100
AcDbLine
 10
2347.341987779907
 20
1114.650669027631
 30
0.0
 11
2350.662491193094
 21
1114.650669027631
 31
0.0
  0
SPLINE
  5
24A5
330
1F
100
AcDbEntity
  8
AM_VIS
100
AcDbSpline
210
0.0
220
0.0
230
1.0
 70
    12
 71
     2
 72
     6
 73
     3
 74
     0
 42
0.0000000001
 43
0.0000000001
 40
0.0
 40
0.0
 40
0.0
 40
8.816421198539558
 40
8.816421198539558
 40
8.816421198539558
 10
2352.002239486501
 20
1136.308548594126
 30
0.0
 41
1.0
 10
2352.00000241218
 20
1138.314805867541
 30
0.0000000000000071
 41
1.039257636916389
 10
2350.662498186847
 20
1140.631431141164
 30
0.0
 41
1.002771087174199
  0
SPLINE
  5
24A6
330
1F
100
AcDbEntity
  8
AM_VIS
100
AcDbSpline
210
0.0
220
0.0
230
1.0
 70
    12
 71
     2
 72
     6
 73
     3
 74
     0
 42
0.0000000001
 43
0.0000000001
 40
0.3094364789364323
 40
0.3094364789364323
 40
0.3094364789364323
 40
17.94797921041721
 40
17.94797921041721
 40
17.94797921041721
 10
2350.662498186833
 20
1105.990431141164
 30
0.0
 41
1.005553749513035
 10
2353.162485656373
 20
1110.320548570211
 30
-0.0000000000000071
 41
1.161112561632567
 10
2350.662491193094
 20
1114.650669027631
 30
0.0
 41
1.00555337263829
  0
SPLINE
  5
24A7
330
1F
100
AcDbEntity
  8
AM_VIS
100
AcDbSpline
210
0.0
220
0.0
230
1.0
 70
    12
 71
     2
 72
     6
 73
     3
 74
     0
 42
0.0000000001
 43
0.0000000001
 40
0.3224735373852576
 40
0.3224735373852576
 40
0.3224735373852576
 40
9.153397245139395
 40
9.153397245139395
 40
9.153397245139395
 10
2350.662491193094
 20
1114.65066902763
 30
0.0
 41
1.00277572779871
 10
2352.0022394865
 20
1119.291690008886
 30
0.0
 41
1.039394456041231
 10
2352.002239486501
 20
1123.310931141164
 30
0.0
 41
1.0
  0
LINE
  5
24A8
330
1F
100
AcDbEntity
  8
AM_VIS
100
AcDbLine
 10
2350.662498186835
 20
1105.990431141163
 30
0.0
 11
2350.66250751185
 21
1105.99044729254
 31
0.0
  0
SPLINE
  5
24A9
330
1F
100
AcDbEntity
  8
AM_VIS
100
AcDbSpline
210
-0.0000000000000195
220
0.0000000000000079
230
1.0
 70
    12
 71
     2
 72
     6
 73
     3
 74
     0
 42
0.0000000001
 43
0.0000000001
 40
0.3225397385312991
 40
0.3225397385312991
 40
0.3225397385312991
 40
9.138968350781595
 40
9.138968350781595
 40
9.138968350781595
 10
2350.662495855594
 20
1131.97117710332
 30
0.0000000000000071
 41
1.002771025811214
 10
2352.00000241037
 20
1134.287804791456
 30
0.0
 41
1.039257669928064
 10
2352.002239486501
 20
1136.294063688201
 30
0.0
 41
1.0
  0
SPLINE
  5
24AA
330
1F
100
AcDbEntity
  8
AM_VIS
100
AcDbSpline
210
0.0
220
0.0
230
1.0
 70
    12
 71
     2
 72
     6
 73
     3
 74
     0
 42
0.0000000001
 43
0.0000000001
 40
9.153397245139395
 40
9.153397245139395
 40
9.153397245139395
 40
17.98430612784178
 40
17.98430612784178
 40
17.98430612784178
 10
2352.002239486501
 20
1123.310931141164
 30
0.0
 41
1.0
 10
2352.002239486501
 20
1127.330165781811
 30
0.0
 41
1.039394389907163
 10
2350.662495855596
 20
1131.97117710332
 30
0.0
 41
1.002775850747024
  0
LINE
  5
24AB
330
1F
100
AcDbEntity
  8
AM_VIS
100
AcDbLine
 10
2346.0022394865
 20
1108.310931141164
 30
0.0
 11
2347.341971461153
 21
1105.990447292542
 31
0.0
  0
LINE
  5
24AC
330
1F
100
AcDbEntity
  8
AM_VIS
100
AcDbLine
 10
2346.0022394865
 20
1138.310931141164
 30
0.0
 11
2347.341980786155
 21
1140.631431141164
 31
0.0
  0
LINE
  5
24AD
330
1F
100
AcDbEntity
  8
AM_VIS
100
AcDbLine
 10
2352.002239486501
 20
1138.310931141164
 30
0.0
 11
2350.662498186846
 21
1140.631431141164
 31
0.0
  0
LINE
  5
24AE
330
1F
100
AcDbEntity
  8
AM_VIS
100
AcDbLine
 10
2352.002239486501
 20
1108.310931141164
 30
0.0
 11
2350.662507511848
 21
1105.990447292542
 31
0.0
  0
LINE
  5
24AF
330
1F
100
AcDbEntity
  8
AM_VIS
100
AcDbLine
 10
2346.0022394865
 20
1138.310931141164
 30
0.0
 11
2346.0022394865
 21
1136.308548594131
 31
0.0
  0
LINE
  5
24B0
330
1F
100
AcDbEntity
  8
AM_VIS
100
AcDbLine
 10
2346.0022394865
 20
1136.294063688197
 30
0.0
 11
2346.0022394865
 21
1136.308548594131
 31
0.0
  0
LINE
  5
24B1
330
1F
100
AcDbEntity
  8
AM_VIS
100
AcDbLine
 10
2346.0022394865
 20
1136.294063688197
 30
0.0
 11
2346.0022394865
 21
1123.310931141164
 31
0.0
  0
LINE
  5
24B2
330
1F
100
AcDbEntity
  8
AM_VIS
100
AcDbLine
 10
2346.0022394865
 20
1123.310931141164
 30
0.0
 11
2346.0022394865
 21
1108.310931141164
 31
0.0
  0
LINE
  5
24B3
330
1F
100
AcDbEntity
  8
AM_VIS
100
AcDbLine
 10
2352.002239486501
 20
1108.310931141164
 30
0.0
 11
2352.002239486501
 21
1123.310931141164
 31
0.0
  0
LINE
  5
24B4
330
1F
100
AcDbEntity
  8
AM_VIS
100
AcDbLine
 10
2352.002239486501
 20
1123.310931141164
 30
0.0
 11
2352.002239486501
 21
1136.294063688197
 31
0.0
  0
LINE
  5
24B5
330
1F
100
AcDbEntity
  8
AM_VIS
100
AcDbLine
 10
2352.002239486501
 20
1136.308548594131
 30
0.0
 11
2352.002239486501
 21
1136.294063688197
 31
0.0
  0
LINE
  5
24B6
330
1F
100
AcDbEntity
  8
AM_VIS
100
AcDbLine
 10
2352.002239486501
 20
1136.308548594131
 30
0.0
 11
2352.002239486501
 21
1138.310931141164
 31
0.0
  0
LINE
  5
24B7
330
1F
100
AcDbEntity
  8
AM_VIS
100
AcDbLine
 10
2347.341980786155
 20
1174.386566593122
 30
0.0
 11
2350.662498186846
 21
1174.386566593122
 31
0.0
  0
SPLINE
  5
24B8
330
1F
100
AcDbEntity
  8
AM_VIS
100
AcDbSpline
210
0.0
220
0.0
230
1.0
 70
    12
 71
     2
 72
     6
 73
     3
 74
     0
 42
0.0000000001
 43
0.0000000001
 40
0.3225397385314554
 40
0.3225397385314554
 40
0.3225397385314554
 40
9.138968350751648
 40
9.138968350751648
 40
9.138968350751648
 10
2347.341983117407
 20
1189.386566593122
 30
0.0
 41
1.002771025811205
 10
2346.004476562635
 20
1185.374049735061
 30
-0.0000000000000018
 41
1.039257669927786
 10
2346.0022394865
 20
1181.899107392775
 30
0.0
 41
1.0
  0
SPLINE
  5
24B9
330
1F
100
AcDbEntity
  8
AM_VIS
100
AcDbSpline
210
0.0
220
0.0
230
1.0
 70
    12
 71
     2
 72
     6
 73
     3
 74
     0
 42
0.0000000001
 43
0.0000000001
 40
0.3225471522250178
 40
0.3225471522250178
 40
0.3225471522250178
 40
9.138968350774945
 40
9.138968350774945
 40
9.138968350774945
 10
2347.341980786154
 20
1174.386566593121
 30
0.0
 41
1.002771087174056
 10
2346.004476560822
 20
1170.374053917121
 30
0.0
 41
1.039257636916397
 10
2346.0022394865
 20
1166.899114386507
 30
0.0
 41
1.0
  0
SPLINE
  5
24BA
330
1F
100
AcDbEntity
  8
AM_VIS
100
AcDbSpline
210
0.0
220
0.0
230
1.0
 70
    12
 71
     2
 72
     6
 73
     3
 74
     0
 42
0.0000000001
 43
0.0000000001
 40
0.0
 40
0.0
 40
0.0
 40
8.816421198509496
 40
8.816421198509496
 40
8.816421198509496
 10
2346.0022394865
 20
1181.874018799718
 30
0.0
 41
1.0
 10
2346.004476560823
 20
1178.399079269118
 30
-0.0000000000000018
 41
1.039257636916123
 10
2347.341980786155
 20
1174.386566593122
 30
0.0
 41
1.00277108717419
  0
SPLINE
  5
24BB
330
1F
100
AcDbEntity
  8
AM_VIS
100
AcDbSpline
210
0.0
220
0.0
230
1.0
 70
    12
 71
     2
 72
     6
 73
     3
 74
     0
 42
0.0000000001
 43
0.0000000001
 40
0.0
 40
0.0
 40
0.0
 40
8.816428612226554
 40
8.816428612226554
 40
8.816428612226554
 10
2346.0022394865
 20
1166.874025793489
 30
0.0
 41
1.0
 10
2346.004476562631
 20
1163.399083451198
 30
0.0
 41
1.039257669927926
 10
2347.341983117406
 20
1159.386566593121
 30
0.0
 41
1.002771025811354
  0
LINE
  5
24BC
330
1F
100
AcDbEntity
  8
AM_VIS
100
AcDbLine
 10
2346.0022394865
 20
1159.386566593122
 30
0.0
 11
2347.341983117407
 21
1159.386566593122
 31
0.0
  0
LINE
  5
24BD
330
1F
100
AcDbEntity
  8
AM_VIS
100
AcDbLine
 10
2347.341983117407
 20
1159.386566593122
 30
0.0
 11
2350.662495855595
 21
1159.386566593122
 31
0.0
  0
LINE
  5
24BE
330
1F
100
AcDbEntity
  8
AM_VIS
100
AcDbLine
 10
2347.341983117407
 20
1189.386566593122
 30
0.0
 11
2350.662495855595
 21
1189.386566593122
 31
0.0
  0
LINE
  5
24BF
330
1F
100
AcDbEntity
  8
AM_VIS
100
AcDbLine
 10
2346.0022394865
 20
1189.386566593122
 30
0.0
 11
2347.341983117407
 21
1189.386566593122
 31
0.0
  0
SPLINE
  5
24C0
330
1F
100
AcDbEntity
  8
AM_VIS
100
AcDbSpline
210
0.0
220
0.0
230
1.0
 70
    12
 71
     2
 72
     6
 73
     3
 74
     0
 42
0.0000000001
 43
0.0000000001
 40
0.0
 40
0.0
 40
0.0
 40
8.816428612209827
 40
8.816428612209827
 40
8.816428612209827
 10
2352.002239486501
 20
1181.899107392769
 30
0.0
 41
1.0
 10
2352.000002410367
 20
1185.374049735053
 30
0.0
 41
1.039257669927766
 10
2350.662495855595
 20
1189.386566593122
 30
0.0
 41
1.002771025811348
  0
LINE
  5
24C1
330
1F
100
AcDbEntity
  8
AM_VIS
100
AcDbLine
 10
2350.662495855595
 20
1189.386566593122
 30
0.0
 11
2352.002239486501
 21
1189.386566593122
 31
0.0
  0
SPLINE
  5
24C2
330
1F
100
AcDbEntity
  8
AM_VIS
100
AcDbSpline
210
0.0
220
0.0
230
1.0
 70
    12
 71
     2
 72
     6
 73
     3
 74
     0
 42
0.0000000001
 43
0.0000000001
 40
0.0
 40
0.0
 40
0.0
 40
8.816421198539558
 40
8.816421198539558
 40
8.816421198539558
 10
2352.002239486501
 20
1166.899114386501
 30
0.0
 41
1.0
 10
2352.00000241218
 20
1170.37405391711
 30
-0.0000000000000018
 41
1.039257636916389
 10
2350.662498186847
 20
1174.386566593123
 30
0.0
 41
1.002771087174199
  0
SPLINE
  5
24C3
330
1F
100
AcDbEntity
  8
AM_VIS
100
AcDbSpline
210
0.0
220
0.0
230
1.0
 70
    12
 71
     2
 72
     6
 73
     3
 74
     0
 42
0.0000000001
 43
0.0000000001
 40
0.3225471522250597
 40
0.3225471522250597
 40
0.3225471522250597
 40
9.138968350758304
 40
9.138968350758304
 40
9.138968350758304
 10
2350.662498186845
 20
1174.386566593122
 30
0.0
 41
1.002771087174051
 10
2352.000002412176
 20
1178.399079269115
 30
0.0
 41
1.03925763691626
 10
2352.002239486501
 20
1181.874018799723
 30
0.0
 41
1.0
  0
SPLINE
  5
24C4
330
1F
100
AcDbEntity
  8
AM_VIS
100
AcDbSpline
210
0.0
220
0.0
230
1.0
 70
    12
 71
     2
 72
     6
 73
     3
 74
     0
 42
0.0000000001
 43
0.0000000001
 40
0.3225397385312991
 40
0.3225397385312991
 40
0.3225397385312991
 40
9.138968350781595
 40
9.138968350781595
 40
9.138968350781595
 10
2350.662495855593
 20
1159.386566593122
 30
0.0
 41
1.002771025811214
 10
2352.00000241037
 20
1163.399083451195
 30
0.0
 41
1.039257669928064
 10
2352.002239486501
 20
1166.874025793495
 30
0.0
 41
1.0
  0
LINE
  5
24C5
330
1F
100
AcDbEntity
  8
AM_VIS
100
AcDbLine
 10
2350.662495855595
 20
1159.386566593122
 30
0.0
 11
2352.002239486501
 21
1159.386566593122
 31
0.0
  0
LINE
  5
24C6
330
1F
100
AcDbEntity
  8
AM_VIS
100
AcDbLine
 10
2346.0022394865
 20
1181.874018799717
 30
0.0
 11
2346.0022394865
 21
1181.899107392776
 31
0.0
  0
LINE
  5
24C7
330
1F
100
AcDbEntity
  8
AM_VIS
100
AcDbLine
 10
2346.0022394865
 20
1181.874018799717
 30
0.0
 11
2346.0022394865
 21
1166.899114386508
 31
0.0
  0
LINE
  5
24C8
330
1F
100
AcDbEntity
  8
AM_VIS
100
AcDbLine
 10
2346.0022394865
 20
1166.874025793488
 30
0.0
 11
2346.0022394865
 21
1166.899114386508
 31
0.0
  0
LINE
  5
24C9
330
1F
100
AcDbEntity
  8
AM_VIS
100
AcDbLine
 10
2346.0022394865
 20
1166.874025793488
 30
0.0
 11
2346.0022394865
 21
1159.386566593122
 31
0.0
  0
LINE
  5
24CA
330
1F
100
AcDbEntity
  8
AM_VIS
100
AcDbLine
 10
2346.0022394865
 20
1189.386566593122
 30
0.0
 11
2346.0022394865
 21
1181.899107392776
 31
0.0
  0
LINE
  5
24CB
330
1F
100
AcDbEntity
  8
AM_VIS
100
AcDbLine
 10
2352.002239486501
 20
1159.386566593122
 30
0.0
 11
2352.002239486501
 21
1166.874025793488
 31
0.0
  0
LINE
  5
24CC
330
1F
100
AcDbEntity
  8
AM_VIS
100
AcDbLine
 10
2352.002239486501
 20
1166.899114386508
 30
0.0
 11
2352.002239486501
 21
1166.874025793488
 31
0.0
  0
LINE
  5
24CD
330
1F
100
AcDbEntity
  8
AM_VIS
100
AcDbLine
 10
2352.002239486501
 20
1166.899114386508
 30
0.0
 11
2352.002239486501
 21
1181.874018799717
 31
0.0
  0
LINE
  5
24CE
330
1F
100
AcDbEntity
  8
AM_VIS
100
AcDbLine
 10
2352.002239486501
 20
1181.899107392776
 30
0.0
 11
2352.002239486501
 21
1181.874018799717
 31
0.0
  0
LINE
  5
24CF
330
1F
100
AcDbEntity
  8
AM_VIS
100
AcDbLine
 10
2352.002239486501
 20
1181.899107392776
 30
0.0
 11
2352.002239486501
 21
1189.386566593122
 31
0.0
  0
LINE
  5
24D0
330
1F
100
AcDbEntity
  8
AM_VIS
100
AcDbLine
 10
2333.818296415881
 20
1128.218408429276
 30
0.0
 11
2338.011242524177
 21
1128.218408429276
 31
0.0
  0
LINE
  5
24D1
330
1F
100
AcDbEntity
  8
AM_VIS
100
AcDbLine
 10
2333.818296415881
 20
1118.403453853052
 30
0.0
 11
2338.011242524177
 21
1118.403453853052
 31
0.0
  0
SPLINE
  5
24D2
330
1F
100
AcDbEntity
  8
AM_VIS
100
AcDbSpline
210
0.0
220
0.0
230
1.0
 70
    12
 71
     2
 72
     6
 73
     3
 74
     0
 42
0.0000000001
 43
0.0000000001
 40
0.3149383697693815
 40
0.3149383697693815
 40
0.3149383697693815
 40
10.36213988225152
 40
10.36213988225152
 40
10.36213988225152
 10
2333.818296415881
 20
1133.125885717387
 30
0.0
 41
1.010103515299819
 10
2332.401629749216
 20
1130.672147073334
 30
-0.0000000000000071
 41
1.166367072935303
 10
2333.818296415884
 20
1128.218408429277
 30
0.0
 41
1.010103515300144
  0
SPLINE
  5
24D3
330
1F
100
AcDbEntity
  8
AM_VIS
100
AcDbSpline
210
0.0
220
0.0
230
1.0
 70
    12
 71
     2
 72
     6
 73
     3
 74
     0
 42
0.0000000001
 43
0.0000000001
 40
0.314938369769363
 40
0.314938369769363
 40
0.314938369769363
 40
10.36213988225147
 40
10.36213988225147
 40
10.36213988225147
 10
2333.818296415881
 20
1128.218408429276
 30
0.0
 41
1.010103515299817
 10
2332.401629749216
 20
1123.310931141168
 30
0.0
 41
1.16636707293527
 10
2333.818296415879
 20
1118.403453853052
 30
0.0
 41
1.010103515300142
  0
SPLINE
  5
24D4
330
1F
100
AcDbEntity
  8
AM_VIS
100
AcDbSpline
210
0.0
220
0.0000000000000014
230
1.0
 70
    12
 71
     2
 72
     6
 73
     3
 74
     0
 42
0.0000000001
 43
0.0000000001
 40
0.3149383697693445
 40
0.3149383697693445
 40
0.3149383697693445
 40
10.3621398822515
 40
10.3621398822515
 40
10.3621398822515
 10
2333.818296415883
 20
1118.403453853052
 30
-0.0000000000000071
 41
1.010103515299821
 10
2332.401629749213
 20
1115.949715208997
 30
0.0000000000000071
 41
1.166367072935347
 10
2333.818296415881
 20
1113.49597656494
 30
0.0
 41
1.010103515300146
  0
LINE
  5
24D5
330
1F
100
AcDbEntity
  8
AM_VIS
100
AcDbLine
 10
2333.818296415881
 20
1113.49597656494
 30
0.0
 11
2338.011242524177
 21
1113.49597656494
 31
0.0
  0
LINE
  5
24D6
330
1F
100
AcDbEntity
  8
AM_VIS
100
AcDbLine
 10
2333.818296415881
 20
1133.125885717387
 30
0.0
 11
2338.011242524177
 21
1133.125885717387
 31
0.0
  0
SPLINE
  5
24D7
330
1F
100
AcDbEntity
  8
AM_VIS
100
AcDbSpline
210
0.0
220
0.0
230
1.0
 70
    12
 71
     2
 72
     6
 73
     3
 74
     0
 42
0.0000000001
 43
0.0000000001
 40
0.3149383697693409
 40
0.3149383697693409
 40
0.3149383697693409
 40
10.36213988225149
 40
10.36213988225149
 40
10.36213988225149
 10
2338.011242524177
 20
1118.403453853052
 30
0.0
 41
1.010103515299816
 10
2339.427909190842
 20
1123.310931141159
 30
0.0
 41
1.166367072935272
 10
2338.011242524177
 20
1128.218408429276
 30
0.0
 41
1.010103515300142
  0
SPLINE
  5
24D8
330
1F
100
AcDbEntity
  8
AM_VIS
100
AcDbSpline
210
0.0
220
0.0
230
1.0
 70
    12
 71
     2
 72
     6
 73
     3
 74
     0
 42
0.0000000001
 43
0.0000000001
 40
0.3149383697693582
 40
0.3149383697693582
 40
0.3149383697693582
 40
10.36213988225151
 40
10.36213988225151
 40
10.36213988225151
 10
2338.011242524177
 20
1128.218408429276
 30
0.0
 41
1.010103515299818
 10
2339.427909190842
 20
1130.672147073329
 30
0.0
 41
1.1663670729353
 10
2338.011242524178
 20
1133.125885717388
 30
0.0
 41
1.010103515300144
  0
SPLINE
  5
24D9
330
1F
100
AcDbEntity
  8
AM_VIS
100
AcDbSpline
210
0.0
220
0.0000000000000014
230
1.0
 70
    12
 71
     2
 72
     6
 73
     3
 74
     0
 42
0.0000000001
 43
0.0000000001
 40
0.314938369769333
 40
0.314938369769333
 40
0.314938369769333
 40
10.3621398822515
 40
10.3621398822515
 40
10.3621398822515
 10
2338.011242524176
 20
1113.49597656494
 30
0.0000000000000071
 41
1.01010351529982
 10
2339.427909190842
 20
1115.949715208993
 30
0.0
 41
1.166367072935343
 10
2338.011242524178
 20
1118.403453853052
 30
0.0
 41
1.010103515300146
  0
LINE
  5
24DA
330
1F
100
AcDbEntity
  8
AM_VIS
100
AcDbLine
 10
2332.914769470029
 20
1115.060931141164
 30
0.0
 11
2333.818296415881
 21
1113.49597656494
 31
0.0
  0
LINE
  5
24DB
330
1F
100
AcDbEntity
  8
AM_VIS
100
AcDbLine
 10
2332.914769470029
 20
1131.560931141164
 30
0.0
 11
2333.818296415881
 21
1133.125885717387
 31
0.0
  0
LINE
  5
24DC
330
1F
100
AcDbEntity
  8
AM_VIS
100
AcDbLine
 10
2338.914769470029
 20
1131.560931141164
 30
0.0
 11
2338.011242524177
 21
1133.125885717387
 31
0.0
  0
LINE
  5
24DD
330
1F
100
AcDbEntity
  8
AM_VIS
100
AcDbLine
 10
2338.914769470029
 20
1115.060931141164
 30
0.0
 11
2338.011242524177
 21
1113.49597656494
 31
0.0
  0
LINE
  5
24DE
330
1F
100
AcDbEntity
  8
AM_VIS
100
AcDbLine
 10
2332.914769470029
 20
1131.560931141164
 30
0.0
 11
2332.914769470029
 21
1115.060931141164
 31
0.0
  0
LINE
  5
24DF
330
1F
100
AcDbEntity
  8
AM_VIS
100
AcDbLine
 10
2338.914769470029
 20
1115.060931141164
 30
0.0
 11
2338.914769470029
 21
1131.560931141164
 31
0.0
  0
LINE
  5
24E0
330
1F
100
AcDbEntity
  8
AM_VIS
100
AcDbLine
 10
2333.818296415881
 20
1165.886566593113
 30
0.0
 11
2338.011242524177
 21
1165.886566593113
 31
0.0
  0
SPLINE
  5
24E1
330
1F
100
AcDbEntity
  8
AM_VIS
100
AcDbSpline
210
0.0
220
0.0
230
1.0
 70
    12
 71
     2
 72
     6
 73
     3
 74
     0
 42
0.0000000001
 43
0.0000000001
 40
0.3149383697693815
 40
0.3149383697693815
 40
0.3149383697693815
 40
10.36213988225152
 40
10.36213988225152
 40
10.36213988225152
 10
2333.818296415881
 20
1174.386566593112
 30
0.0
 41
1.010103515299819
 10
2332.401629749216
 20
1170.136566593118
 30
0.0000000000000018
 41
1.166367072935303
 10
2333.818296415884
 20
1165.886566593114
 30
0.0
 41
1.010103515300144
  0
LINE
  5
24E2
330
1F
100
AcDbEntity
  8
AM_VIS
100
AcDbLine
 10
2333.059107037326
 20
1165.886566593113
 30
0.0
 11
2333.818296415881
 21
1165.886566593113
 31
0.0
  0
LINE
  5
24E3
330
1F
100
AcDbEntity
  8
AM_VIS
100
AcDbLine
 10
2333.059107037327
 20
1182.886566593113
 30
0.0
 11
2333.818296415882
 21
1182.886566593113
 31
0.0
  0
LINE
  5
24E4
330
1F
100
AcDbEntity
  8
AM_VIS
100
AcDbLine
 10
2333.818296415881
 20
1174.386566593113
 30
0.0
 11
2338.011242524177
 21
1174.386566593113
 31
0.0
  0
SPLINE
  5
24E5
330
1F
100
AcDbEntity
  8
AM_VIS
100
AcDbSpline
210
0.0
220
0.0
230
1.0
 70
    12
 71
     2
 72
     6
 73
     3
 74
     0
 42
0.0000000001
 43
0.0000000001
 40
0.3149383697693467
 40
0.3149383697693467
 40
0.3149383697693467
 40
10.36213988225153
 40
10.36213988225153
 40
10.36213988225153
 10
2333.818296415881
 20
1182.886566593113
 30
0.0
 41
1.010103515299823
 10
2332.401629749218
 20
1178.636566593117
 30
0.0
 41
1.166367072935389
 10
2333.818296415881
 20
1174.386566593111
 30
0.0
 41
1.010103515300148
  0
LINE
  5
24E6
330
1F
100
AcDbEntity
  8
AM_VIS
100
AcDbLine
 10
2333.818296415881
 20
1182.886566593113
 30
0.0
 11
2338.011242524177
 21
1182.886566593113
 31
0.0
  0
LINE
  5
24E7
330
1F
100
AcDbEntity
  8
AM_VIS
100
AcDbLine
 10
2338.011242524177
 20
1165.886566593113
 30
0.0
 11
2338.770431902731
 21
1165.886566593113
 31
0.0
  0
SPLINE
  5
24E8
330
1F
100
AcDbEntity
  8
AM_VIS
100
AcDbSpline
210
0.0
220
0.0000000000000002
230
-1.0
 70
    12
 71
     2
 72
     6
 73
     3
 74
     0
 42
0.0000000001
 43
0.0000000001
 40
0.3149383697693582
 40
0.3149383697693582
 40
0.3149383697693582
 40
10.36213988225151
 40
10.36213988225151
 40
10.36213988225151
 10
2338.011242524177
 20
1165.886566593113
 30
0.0
 41
1.010103515299818
 10
2339.427909190842
 20
1170.136566593109
 30
0.0
 41
1.1663670729353
 10
2338.011242524178
 20
1174.386566593114
 30
0.0000000000000018
 41
1.010103515300144
  0
SPLINE
  5
24E9
330
1F
100
AcDbEntity
  8
AM_VIS
100
AcDbSpline
210
0.0
220
0.0
230
1.0
 70
    12
 71
     2
 72
     6
 73
     3
 74
     0
 42
0.0000000001
 43
0.0000000001
 40
0.3149383697693224
 40
0.3149383697693224
 40
0.3149383697693224
 40
10.36213988225147
 40
10.36213988225147
 40
10.36213988225147
 10
2338.011242524178
 20
1174.386566593113
 30
0.0
 41
1.010103515299821
 10
2339.427909190842
 20
1178.636566593109
 30
0.0
 41
1.166367072935363
 10
2338.011242524177
 20
1182.886566593112
 30
0.0
 41
1.010103515300148
  0
LINE
  5
24EA
330
1F
100
AcDbEntity
  8
AM_VIS
100
AcDbLine
 10
2338.011242524177
 20
1182.886566593113
 30
0.0
 11
2338.770431902731
 21
1182.886566593113
 31
0.0
  0
LINE
  5
24EB
330
1F
100
AcDbEntity
  8
AM_VIS
100
AcDbLine
 10
2332.914769470029
 20
1166.136566593113
 30
0.0
 11
2333.059107037326
 21
1165.886566593112
 31
0.0
  0
LINE
  5
24EC
330
1F
100
AcDbEntity
  8
AM_VIS
100
AcDbLine
 10
2332.914769470029
 20
1182.636566593113
 30
0.0
 11
2333.059107037326
 21
1182.886566593113
 31
0.0
  0
LINE
  5
24ED
330
1F
100
AcDbEntity
  8
AM_VIS
100
AcDbLine
 10
2338.914769470029
 20
1182.636566593113
 30
0.0
 11
2338.770431902731
 21
1182.886566593113
 31
0.0
  0
LINE
  5
24EE
330
1F
100
AcDbEntity
  8
AM_VIS
100
AcDbLine
 10
2338.914769470029
 20
1166.136566593113
 30
0.0
 11
2338.770431902731
 21
1165.886566593112
 31
0.0
  0
LINE
  5
24EF
330
1F
100
AcDbEntity
  8
AM_VIS
100
AcDbLine
 10
2332.914769470029
 20
1182.636566593113
 30
0.0
 11
2332.914769470029
 21
1166.136566593113
 31
0.0
  0
LINE
  5
24F0
330
1F
100
AcDbEntity
  8
AM_VIS
100
AcDbLine
 10
2338.914769470029
 20
1166.136566593113
 30
0.0
 11
2338.914769470029
 21
1182.636566593113
 31
0.0
  0
LINE
  5
2534
330
1F
100
AcDbEntity
  8
AM_7
100
AcDbLine
 10
2669.502653421988
 20
862.5691027059579
 30
0.0
 11
2723.702653421987
 21
862.5691027059579
 31
0.0
  0
LINE
  5
2535
330
1F
100
AcDbEntity
  8
AM_7
100
AcDbLine
 10
2682.102653421987
 20
862.5691027059579
 30
0.0
 11
2684.102653421988
 21
862.5691027059579
 31
0.0
  0
LINE
  5
2536
330
1F
100
AcDbEntity
  8
AM_7
100
AcDbLine
 10
2683.102653421987
 20
861.5691027059579
 30
0.0
 11
2683.102653421987
 21
863.5691027059579
 31
0.0
  0
LINE
  5
2537
330
1F
100
AcDbEntity
  8
AM_7
100
AcDbLine
 10
2676.502653421988
 20
862.5691027059579
 30
0.0
 11
2681.302653421987
 21
862.5691027059579
 31
0.0
  0
LINE
  5
2538
330
1F
100
AcDbEntity
  8
AM_7
100
AcDbLine
 10
2684.902653421987
 20
862.5691027059579
 30
0.0
 11
2689.702653421987
 21
862.5691027059579
 31
0.0
  0
LINE
  5
2539
330
1F
100
AcDbEntity
  8
AM_7
100
AcDbLine
 10
2683.102653421987
 20
855.9691027059578
 30
0.0
 11
2683.102653421987
 21
860.7691027059578
 31
0.0
  0
LINE
  5
253A
330
1F
100
AcDbEntity
  8
AM_7
100
AcDbLine
 10
2683.102653421987
 20
864.3691027059578
 30
0.0
 11
2683.102653421987
 21
869.1691027059578
 31
0.0
  0
LINE
  5
253B
330
1F
100
AcDbEntity
  8
AM_7
100
AcDbLine
 10
2648.792491979512
 20
862.5691027059579
 30
0.0
 11
2650.792491979512
 21
862.5691027059579
 31
0.0
  0
LINE
  5
253C
330
1F
100
AcDbEntity
  8
AM_7
100
AcDbLine
 10
2649.792491979511
 20
861.5691027059579
 30
0.0
 11
2649.792491979511
 21
863.5691027059579
 31
0.0
  0
LINE
  5
253D
330
1F
100
AcDbEntity
  8
AM_7
100
AcDbLine
 10
2638.192491979511
 20
862.5691027059579
 30
0.0
 11
2647.992491979512
 21
862.5691027059579
 31
0.0
  0
LINE
  5
253E
330
1F
100
AcDbEntity
  8
AM_7
100
AcDbLine
 10
2651.592491979512
 20
862.5691027059579
 30
0.0
 11
2661.392491979511
 21
862.5691027059579
 31
0.0
  0
LINE
  5
253F
330
1F
100
AcDbEntity
  8
AM_7
100
AcDbLine
 10
2649.792491979511
 20
850.9691027059579
 30
0.0
 11
2649.792491979511
 21
860.7691027059578
 31
0.0
  0
LINE
  5
2540
330
1F
100
AcDbEntity
  8
AM_7
100
AcDbLine
 10
2649.792491979511
 20
864.3691027059578
 30
0.0
 11
2649.792491979511
 21
874.1691027059578
 31
0.0
  0
LINE
  5
2541
330
1F
100
AcDbEntity
  8
AM_7
100
AcDbLine
 10
2669.502653421988
 20
895.0164990496949
 30
0.0
 11
2723.702653421987
 21
895.0164990496949
 31
0.0
  0
LINE
  5
2542
330
1F
100
AcDbEntity
  8
AM_VIS
100
AcDbLine
 10
2671.102653421987
 20
857.6701232203914
 30
0.0
 11
2671.102653421987
 21
867.4680821915242
 31
0.0
  0
SPLINE
  5
2543
330
1F
100
AcDbEntity
  8
AM_VIS
100
AcDbSpline
210
0.0
220
0.0
230
1.0
 70
    12
 71
     2
 72
     6
 73
     3
 74
     0
 42
0.0000000001
 43
0.0000000001
 40
2.437868961222831
 40
2.437868961222831
 40
2.437868961222831
 40
7.821224605803673
 40
7.821224605803673
 40
7.821224605803673
 10
2674.102653421987
 20
871.229356743802
 30
0.0
 41
1.023222088326349
 10
2672.186559708527
 20
869.0168423012831
 30
0.0
 41
1.037250806237978
 10
2671.102653421987
 20
867.4680821915242
 30
0.0
 41
1.0
  0
SPLINE
  5
2544
330
1F
100
AcDbEntity
  8
AM_VIS
100
AcDbSpline
210
0.0
220
0.0
230
1.0
 70
    12
 71
     2
 72
     6
 73
     3
 74
     0
 42
0.0000000001
 43
0.0000000001
 40
0.0
 40
0.0
 40
0.0
 40
5.383355644580843
 40
5.383355644580843
 40
5.383355644580843
 10
2671.102653421987
 20
857.6701232203914
 30
0.0
 41
1.0
 10
2672.186559708527
 20
856.1213631106326
 30
0.0
 41
1.037250806237978
 10
2674.102653421987
 20
853.9088486681134
 30
0.0
 41
1.023222088326349
  0
LINE
  5
2545
330
1F
100
AcDbEntity
  8
AM_VIS
100
AcDbLine
 10
2698.102653421987
 20
853.9088486681135
 30
0.0
 11
2674.102653421988
 21
853.9088486681135
 31
0.0
  0
LINE
  5
2546
330
1F
100
AcDbEntity
  8
AM_VIS
100
AcDbLine
 10
2674.102653421988
 20
871.2293567438022
 30
0.0
 11
2698.102653421987
 21
871.2293567438022
 31
0.0
  0
LINE
  5
2547
330
1F
100
AcDbEntity
  8
AM_VIS
100
AcDbLine
 10
2671.102653421987
 20
855.5691027059578
 30
0.0
 11
2674.102653421988
 21
852.5691027059579
 31
0.0
  0
LINE
  5
2548
330
1F
100
AcDbEntity
  8
AM_VIS
100
AcDbLine
 10
2671.102653421987
 20
869.5691027059579
 30
0.0
 11
2674.102653421988
 21
872.5691027059578
 31
0.0
  0
LINE
  5
2549
330
1F
100
AcDbEntity
  8
AM_VIS
100
AcDbLine
 10
2722.102653421988
 20
872.5691027059578
 30
0.0
 11
2674.102653421988
 21
872.5691027059578
 31
0.0
  0
LINE
  5
254A
330
1F
100
AcDbEntity
  8
AM_VIS
100
AcDbLine
 10
2722.102653421988
 20
852.5691027059579
 30
0.0
 11
2674.102653421988
 21
852.5691027059579
 31
0.0
  0
LINE
  5
254B
330
1F
100
AcDbEntity
  8
AM_VIS
100
AcDbLine
 10
2723.102653421987
 20
871.5691027059579
 30
0.0
 11
2722.102653421988
 21
872.5691027059578
 31
0.0
  0
LINE
  5
254C
330
1F
100
AcDbEntity
  8
AM_VIS
100
AcDbLine
 10
2723.102653421987
 20
853.5691027059579
 30
0.0
 11
2722.102653421988
 21
852.5691027059579
 31
0.0
  0
LINE
  5
254D
330
1F
100
AcDbEntity
  8
AM_VIS
100
AcDbLine
 10
2671.102653421987
 20
857.6701232203914
 30
0.0
 11
2671.102653421987
 21
855.5691027059578
 31
0.0
  0
LINE
  5
254E
330
1F
100
AcDbEntity
  8
AM_VIS
100
AcDbLine
 10
2671.102653421987
 20
869.5691027059579
 30
0.0
 11
2671.102653421987
 21
867.4680821915242
 31
0.0
  0
CIRCLE
  5
2550
330
1F
100
AcDbEntity
  8
AM_VIS
100
AcDbCircle
 10
2683.102653421987
 20
862.5691027059579
 30
0.0
 40
5.0
  0
LINE
  5
2551
330
1F
100
AcDbEntity
  8
AM_VIS
100
AcDbLine
 10
2698.102653421987
 20
853.9088486681134
 30
0.0
 11
2698.102653421987
 21
871.2293567438022
 31
0.0
  0
LINE
  5
2552
330
1F
100
AcDbEntity
  8
AM_VIS
100
AcDbLine
 10
2674.102653421988
 20
871.2293567438022
 30
0.0
 11
2674.102653421988
 21
872.5691027059578
 31
0.0
  0
LINE
  5
2553
330
1F
100
AcDbEntity
  8
AM_VIS
100
AcDbLine
 10
2674.102653421988
 20
852.5691027059579
 30
0.0
 11
2674.102653421988
 21
853.9088486681135
 31
0.0
  0
LINE
  5
2554
330
1F
100
AcDbEntity
  8
AM_VIS
100
AcDbLine
 10
2723.102653421987
 20
871.5691027059579
 30
0.0
 11
2723.102653421987
 21
853.5691027059579
 31
0.0
  0
LINE
  5
2555
330
1F
100
AcDbEntity
  8
AM_VIS
100
AcDbLine
 10
2654.792491979512
 20
857.6701232203914
 30
0.0
 11
2654.792491979512
 21
867.4680821915242
 31
0.0
  0
LINE
  5
2556
330
1F
100
AcDbEntity
  8
AM_VIS
100
AcDbLine
 10
2654.792491979512
 20
871.2293567438022
 30
0.0
 11
2654.792491979512
 21
867.4680821915242
 31
0.0
  0
LINE
  5
2557
330
1F
100
AcDbEntity
  8
AM_VIS
100
AcDbLine
 10
2654.792491979512
 20
857.6701232203914
 30
0.0
 11
2654.792491979512
 21
853.9088486681135
 31
0.0
  0
LINE
  5
2558
330
1F
100
AcDbEntity
  8
AM_VIS
100
AcDbLine
 10
2644.792491979512
 20
871.2293567438022
 30
0.0
 11
2644.792491979512
 21
867.4680821915242
 31
0.0
  0
LINE
  5
2559
330
1F
100
AcDbEntity
  8
AM_VIS
100
AcDbLine
 10
2644.792491979512
 20
867.4680821915242
 30
0.0
 11
2644.792491979512
 21
857.6701232203914
 31
0.0
  0
LINE
  5
255A
330
1F
100
AcDbEntity
  8
AM_VIS
100
AcDbLine
 10
2644.792491979512
 20
857.6701232203914
 30
0.0
 11
2644.792491979512
 21
853.9088486681135
 31
0.0
  0
ARC
  5
255B
330
1F
100
AcDbEntity
  8
AM_VIS
100
AcDbCircle
 10
2649.792491979511
 20
862.5691027059579
 30
0.0
 40
7.000000000000003
100
AcDbArc
 50
224.4153085971888
 51
315.5846914028112
  0
ARC
  5
255C
330
1F
100
AcDbEntity
  8
AM_VIS
100
AcDbCircle
 10
2649.792491979511
 20
862.5691027059579
 30
0.0
 40
7.000000000000003
100
AcDbArc
 50
44.4153085971888
 51
135.5846914028112
  0
ARC
  5
255D
330
1F
100
AcDbEntity
  8
AM_VIS
100
AcDbCircle
 10
2649.792491979511
 20
862.5691027059579
 30
0.0
 40
10.0
100
AcDbArc
 50
300.0000000000005
 51
59.99999999999946
  0
ARC
  5
255E
330
1F
100
AcDbEntity
  8
AM_VIS
100
AcDbCircle
 10
2649.792491979511
 20
862.5691027059579
 30
0.0
 40
10.0
100
AcDbArc
 50
59.99999999999946
 51
120.0000000000005
  0
ARC
  5
255F
330
1F
100
AcDbEntity
  8
AM_VIS
100
AcDbCircle
 10
2649.792491979511
 20
862.5691027059579
 30
0.0
 40
10.0
100
AcDbArc
 50
120.0000000000005
 51
239.9999999999995
  0
ARC
  5
2560
330
1F
100
AcDbEntity
  8
AM_VIS
100
AcDbCircle
 10
2649.792491979511
 20
862.5691027059579
 30
0.0
 40
10.0
100
AcDbArc
 50
239.9999999999995
 51
300.0000000000005
  0
LINE
  5
2561
330
1F
100
AcDbEntity
  8
AM_VIS
100
AcDbLine
 10
2671.102653421987
 20
890.0164990496948
 30
0.0
 11
2674.102653421988
 21
890.0164990496948
 31
0.0
  0
LINE
  5
2562
330
1F
100
AcDbEntity
  8
AM_VIS
100
AcDbLine
 10
2671.102653421987
 20
900.0164990496948
 30
0.0
 11
2674.102653421988
 21
900.0164990496948
 31
0.0
  0
LINE
  5
2563
330
1F
100
AcDbEntity
  8
AM_VIS
100
AcDbLine
 10
2674.102653421988
 20
890.0164990496948
 30
0.0
 11
2698.102653421987
 21
890.0164990496948
 31
0.0
  0
LINE
  5
2564
330
1F
100
AcDbEntity
  8
AM_VIS
100
AcDbLine
 10
2698.102653421987
 20
900.0164990496948
 30
0.0
 11
2674.102653421988
 21
900.0164990496948
 31
0.0
  0
LINE
  5
2565
330
1F
100
AcDbEntity
  8
AM_VIS
100
AcDbLine
 10
2722.102653421988
 20
905.0164990496949
 30
0.0
 11
2698.102653421987
 21
905.0164990496949
 31
0.0
  0
LINE
  5
2566
330
1F
100
AcDbEntity
  8
AM_VIS
100
AcDbLine
 10
2722.102653421988
 20
885.0164990496947
 30
0.0
 11
2698.102653421987
 21
885.0164990496947
 31
0.0
  0
LINE
  5
2567
330
1F
100
AcDbEntity
  8
AM_VIS
100
AcDbLine
 10
2723.102653421987
 20
904.0164990496949
 30
0.0
 11
2722.102653421988
 21
905.0164990496949
 31
0.0
  0
LINE
  5
2568
330
1F
100
AcDbEntity
  8
AM_VIS
100
AcDbLine
 10
2723.102653421987
 20
886.0164990496949
 30
0.0
 11
2722.102653421988
 21
885.0164990496947
 31
0.0
  0
LINE
  5
2569
330
1F
100
AcDbEntity
  8
AM_VIS
100
AcDbLine
 10
2671.102653421987
 20
900.0164990496948
 30
0.0
 11
2671.102653421987
 21
890.0164990496948
 31
0.0
  0
LINE
  5
256A
330
1F
100
AcDbEntity
  8
AM_VIS
100
AcDbLine
 10
2698.102653421987
 20
885.0164990496947
 30
0.0
 11
2698.102653421987
 21
890.0164990496948
 31
0.0
  0
LINE
  5
256B
330
1F
100
AcDbEntity
  8
AM_VIS
100
AcDbLine
 10
2674.102653421988
 20
890.0164990496948
 30
0.0
 11
2674.102653421988
 21
900.0164990496948
 31
0.0
  0
LINE
  5
256C
330
1F
100
AcDbEntity
  8
AM_VIS
100
AcDbLine
 10
2698.102653421987
 20
900.0164990496948
 30
0.0
 11
2698.102653421987
 21
905.0164990496949
 31
0.0
  0
LINE
  5
256D
330
1F
100
AcDbEntity
  8
AM_VIS
100
AcDbLine
 10
2723.102653421987
 20
904.0164990496949
 30
0.0
 11
2723.102653421987
 21
886.0164990496949
 31
0.0
  0
LINE
  5
256E
330
1F
100
AcDbEntity
  8
AM_7
100
AcDbLine
 10
2683.102653421987
 20
888.3975686967497
 30
0.0
 11
2683.102653421987
 21
901.4113983464726
 31
0.0
  0
LINE
  5
25C5
330
1F
100
AcDbEntity
  8
AM_VIS
100
AcDbLine
 10
2384.843278982221
 20
855.0021458394622
 30
0.0
 11
2384.843278982221
 21
869.9687753865582
 31
0.0
  0
LINE
  5
25C6
330
1F
100
AcDbEntity
  8
AM_VIS
100
AcDbLine
 10
2384.843278982221
 20
871.9854606130102
 30
0.0
 11
2384.843278982221
 21
869.9687753865582
 31
0.0
  0
LINE
  5
25C7
330
1F
100
AcDbEntity
  8
AM_VIS
100
AcDbLine
 10
2394.843278982221
 20
852.9854606130102
 30
0.0
 11
2384.843278982221
 21
852.9854606130102
 31
0.0
  0
LINE
  5
25C8
330
1F
100
AcDbEntity
  8
AM_VIS
100
AcDbLine
 10
2384.843278982221
 20
871.9854606130102
 30
0.0
 11
2394.843278982221
 21
871.9854606130102
 31
0.0
  0
LINE
  5
25C9
330
1F
100
AcDbEntity
  8
AM_VIS
100
AcDbLine
 10
2394.843278982221
 20
871.9854606130102
 30
0.0
 11
2394.843278982221
 21
869.9687753865582
 31
0.0
  0
LINE
  5
25CA
330
1F
100
AcDbEntity
  8
AM_VIS
100
AcDbLine
 10
2394.843278982221
 20
869.9687753865582
 30
0.0
 11
2394.843278982221
 21
855.0021458394622
 31
0.0
  0
LINE
  5
25CB
330
1F
100
AcDbEntity
  8
AM_VIS
100
AcDbLine
 10
2394.843278982221
 20
855.0021458394622
 30
0.0
 11
2394.843278982221
 21
852.9854606130102
 31
0.0
  0
LINE
  5
25CC
330
1F
100
AcDbEntity
  8
AM_VIS
100
AcDbLine
 10
2399.343278982221
 20
871.9854606130102
 30
0.0
 11
2399.343278982221
 21
852.9854606130102
 31
0.0
  0
LINE
  5
25CD
330
1F
100
AcDbEntity
  8
AM_VIS
100
AcDbLine
 10
2380.343278982221
 20
871.9854606130102
 30
0.0
 11
2380.343278982221
 21
852.9854606130102
 31
0.0
  0
ARC
  5
25CE
330
1F
100
AcDbEntity
  8
AM_VIS
100
AcDbCircle
 10
2389.843278982221
 20
862.4854606130101
 30
0.0
 40
9.000000000000017
100
AcDbArc
 50
303.7489885958921
 51
56.25101140410797
  0
ARC
  5
25CF
330
1F
100
AcDbEntity
  8
AM_VIS
100
AcDbCircle
 10
2389.843278982221
 20
862.4854606130101
 30
0.0
 40
9.000000000000017
100
AcDbArc
 50
123.748988595892
 51
236.251011404108
  0
CIRCLE
  5
25D0
330
1F
100
AcDbEntity
  8
AM_VIS
100
AcDbCircle
 10
2389.843278982221
 20
862.4854606130101
 30
0.0
 40
4.4
  0
SPLINE
  5
25D1
330
1F
100
AcDbEntity
  8
AM_VIS
100
AcDbSpline
210
0.0
220
0.0
230
1.0
 70
    12
 71
     2
 72
     6
 73
     3
 74
     0
 42
0.0000000001
 43
0.0000000001
 40
2.408165155195238
 40
2.408165155195238
 40
2.408165155195238
 40
24.41222509799333
 40
24.41222509799333
 40
24.41222509799333
 10
2450.035268861777
 20
887.0296400414849
 30
0.0
 41
1.111836404264623
 10
2453.913627621183
 20
896.5296400414851
 30
0.0
 41
1.572374122051168
 10
2450.035268861777
 20
906.029640041485
 30
0.0
 41
1.111836404264623
  0
SPLINE
  5
25D2
330
1F
100
AcDbEntity
  8
AM_VIS
100
AcDbSpline
210
0.0
220
0.0
230
1.0
 70
    12
 71
     2
 72
     6
 73
     3
 74
     0
 42
0.0000000001
 43
0.0000000001
 40
19.97324241346454
 40
19.97324241346454
 40
19.97324241346454
 40
24.4122250979933
 40
24.4122250979933
 40
24.4122250979933
 10
2416.597799529105
 20
891.5296400414849
 30
0.0
 41
1.260164382327782
 10
2417.135247641134
 20
889.5309399531026
 30
0.0
 41
1.204742847900083
 10
2418.15639905399
 20
887.0296400414845
 30
0.0
 41
1.111836404264623
  0
SPLINE
  5
25D3
330
1F
100
AcDbEntity
  8
AM_VIS
100
AcDbSpline
210
0.0
220
0.0
230
1.0
 70
    12
 71
     2
 72
     6
 73
     3
 74
     0
 42
0.0000000001
 43
0.0000000001
 40
2.408165155195242
 40
2.408165155195242
 40
2.408165155195242
 40
6.847147839724009
 40
6.847147839724009
 40
6.847147839724009
 10
2418.15639905399
 20
906.0296400414848
 30
0.0
 41
1.111836404264623
 10
2417.135247641135
 20
903.5283401298672
 30
0.0
 41
1.204742847900083
 10
2416.597799529105
 20
901.5296400414847
 30
0.0
 41
1.260164382327782
  0
LINE
  5
25D4
330
1F
100
AcDbEntity
  8
AM_VIS
100
AcDbLine
 10
2415.595833957883
 20
901.5296400414849
 30
0.0
 11
2416.597799529105
 21
901.5296400414849
 31
0.0
  0
LINE
  5
25D5
330
1F
100
AcDbEntity
  8
AM_VIS
100
AcDbLine
 10
2416.597799529105
 20
901.5296400414849
 30
0.0
 11
2447.595833957883
 21
901.5296400414849
 31
0.0
  0
LINE
  5
25D6
330
1F
100
AcDbEntity
  8
AM_VIS
100
AcDbLine
 10
2447.595833957883
 20
901.5296400414849
 30
0.0
 11
2447.595833957883
 21
891.5296400414849
 31
0.0
  0
LINE
  5
25D7
330
1F
100
AcDbEntity
  8
AM_VIS
100
AcDbLine
 10
2415.595833957883
 20
891.5296400414849
 30
0.0
 11
2416.597799529105
 21
891.5296400414849
 31
0.0
  0
LINE
  5
25D8
330
1F
100
AcDbEntity
  8
AM_VIS
100
AcDbLine
 10
2447.595833957883
 20
891.5296400414849
 30
0.0
 11
2416.597799529105
 21
891.5296400414849
 31
0.0
  0
LINE
  5
25D9
330
1F
100
AcDbEntity
  8
AM_VIS
100
AcDbLine
 10
2450.035268861777
 20
887.0296400414849
 30
0.0
 11
2418.15639905399
 21
887.0296400414849
 31
0.0
  0
LINE
  5
25DA
330
1F
100
AcDbEntity
  8
AM_VIS
100
AcDbLine
 10
2450.035268861777
 20
887.0296400414849
 30
0.0
 11
2452.307158823288
 21
887.0296400414849
 31
0.0
  0
LINE
  5
25DB
330
1F
100
AcDbEntity
  8
AM_VIS
100
AcDbLine
 10
2415.884509092478
 20
887.0296400414849
 30
0.0
 11
2418.15639905399
 21
887.0296400414849
 31
0.0
  0
LINE
  5
25DC
330
1F
100
AcDbEntity
  8
AM_VIS
100
AcDbLine
 10
2450.035268861777
 20
906.0296400414848
 30
0.0
 11
2452.307158823288
 21
906.0296400414848
 31
0.0
  0
LINE
  5
25DD
330
1F
100
AcDbEntity
  8
AM_VIS
100
AcDbLine
 10
2450.035268861777
 20
906.0296400414848
 30
0.0
 11
2418.15639905399
 21
906.0296400414848
 31
0.0
  0
LINE
  5
25DE
330
1F
100
AcDbEntity
  8
AM_VIS
100
AcDbLine
 10
2415.884509092478
 20
906.0296400414848
 30
0.0
 11
2418.15639905399
 21
906.0296400414848
 31
0.0
  0
LINE
  5
25DF
330
1F
100
AcDbEntity
  8
AM_VIS
100
AcDbLine
 10
2452.595833957883
 20
905.5296400414848
 30
0.0
 11
2452.307158823288
 21
906.0296400414848
 31
0.0
  0
LINE
  5
25E0
330
1F
100
AcDbEntity
  8
AM_VIS
100
AcDbLine
 10
2452.595833957883
 20
887.5296400414848
 30
0.0
 11
2452.307158823288
 21
887.0296400414849
 31
0.0
  0
LINE
  5
25E1
330
1F
100
AcDbEntity
  8
AM_VIS
100
AcDbLine
 10
2415.595833957883
 20
887.5296400414848
 30
0.0
 11
2415.884509092478
 21
887.0296400414849
 31
0.0
  0
LINE
  5
25E2
330
1F
100
AcDbEntity
  8
AM_VIS
100
AcDbLine
 10
2415.595833957883
 20
905.5296400414848
 30
0.0
 11
2415.884509092478
 21
906.0296400414848
 31
0.0
  0
LINE
  5
25E3
330
1F
100
AcDbEntity
  8
AM_VIS
100
AcDbLine
 10
2466.595833957883
 20
905.5296400414848
 30
0.0
 11
2452.595833957883
 21
905.5296400414848
 31
0.0
  0
LINE
  5
25E4
330
1F
100
AcDbEntity
  8
AM_VIS
100
AcDbLine
 10
2466.595833957883
 20
887.5296400414848
 30
0.0
 11
2452.595833957883
 21
887.5296400414848
 31
0.0
  0
LINE
  5
25E5
330
1F
100
AcDbEntity
  8
AM_VIS
100
AcDbLine
 10
2467.595833957883
 20
904.5296400414848
 30
0.0
 11
2466.595833957883
 21
905.5296400414848
 31
0.0
  0
LINE
  5
25E6
330
1F
100
AcDbEntity
  8
AM_VIS
100
AcDbLine
 10
2467.595833957883
 20
888.5296400414848
 30
0.0
 11
2466.595833957883
 21
887.5296400414848
 31
0.0
  0
LINE
  5
25E7
330
1F
100
AcDbEntity
  8
AM_VIS
100
AcDbLine
 10
2415.595833957883
 20
891.5296400414849
 30
0.0
 11
2415.595833957883
 21
887.5296400414848
 31
0.0
  0
LINE
  5
25E8
330
1F
100
AcDbEntity
  8
AM_VIS
100
AcDbLine
 10
2415.595833957883
 20
905.5296400414848
 30
0.0
 11
2415.595833957883
 21
901.5296400414849
 31
0.0
  0
LINE
  5
25E9
330
1F
100
AcDbEntity
  8
AM_VIS
100
AcDbLine
 10
2452.595833957883
 20
887.5296400414848
 30
0.0
 11
2452.595833957883
 21
905.5296400414848
 31
0.0
  0
LINE
  5
25EA
330
1F
100
AcDbEntity
  8
AM_VIS
100
AcDbLine
 10
2467.595833957883
 20
904.5296400414848
 30
0.0
 11
2467.595833957883
 21
888.5296400414848
 31
0.0
  0
LINE
  5
25EB
330
1F
100
AcDbEntity
  8
AM_7
100
AcDbLine
 10
2448.435268861777
 20
862.4854606130101
 30
0.0
 11
2468.195833957884
 21
862.4854606130101
 31
0.0
  0
LINE
  5
25EC
330
1F
100
AcDbEntity
  8
AM_7
100
AcDbLine
 10
2413.995833957883
 20
862.4854606130101
 30
0.0
 11
2419.75639905399
 21
862.4854606130101
 31
0.0
  0
LINE
  5
25ED
330
1F
100
AcDbEntity
  8
AM_7
100
AcDbLine
 10
2426.595833957883
 20
862.4854606130101
 30
0.0
 11
2428.595833957883
 21
862.4854606130101
 31
0.0
  0
LINE
  5
25EE
330
1F
100
AcDbEntity
  8
AM_7
100
AcDbLine
 10
2427.595833957883
 20
861.4854606130101
 30
0.0
 11
2427.595833957883
 21
863.4854606130103
 31
0.0
  0
LINE
  5
25EF
330
1F
100
AcDbEntity
  8
AM_7
100
AcDbLine
 10
2420.995833957883
 20
862.4854606130101
 30
0.0
 11
2425.795833957883
 21
862.4854606130101
 31
0.0
  0
LINE
  5
25F0
330
1F
100
AcDbEntity
  8
AM_7
100
AcDbLine
 10
2429.395833957884
 20
862.4854606130101
 30
0.0
 11
2434.195833957883
 21
862.4854606130101
 31
0.0
  0
LINE
  5
25F1
330
1F
100
AcDbEntity
  8
AM_7
100
AcDbLine
 10
2427.595833957883
 20
855.8854606130102
 30
0.0
 11
2427.595833957883
 21
860.6854606130102
 31
0.0
  0
LINE
  5
25F2
330
1F
100
AcDbEntity
  8
AM_7
100
AcDbLine
 10
2427.595833957883
 20
864.2854606130102
 30
0.0
 11
2427.595833957883
 21
869.0854606130102
 31
0.0
  0
LINE
  5
25F3
330
1F
100
AcDbEntity
  8
AM_7
100
AcDbLine
 10
2388.843278982221
 20
862.4854606130101
 30
0.0
 11
2390.843278982221
 21
862.4854606130101
 31
0.0
  0
LINE
  5
25F4
330
1F
100
AcDbEntity
  8
AM_7
100
AcDbLine
 10
2389.843278982221
 20
861.4854606130101
 30
0.0
 11
2389.843278982221
 21
863.4854606130103
 31
0.0
  0
LINE
  5
25F5
330
1F
100
AcDbEntity
  8
AM_7
100
AcDbLine
 10
2375.743278982221
 20
862.4854606130101
 30
0.0
 11
2388.043278982221
 21
862.4854606130101
 31
0.0
  0
LINE
  5
25F6
330
1F
100
AcDbEntity
  8
AM_7
100
AcDbLine
 10
2391.643278982221
 20
862.4854606130101
 30
0.0
 11
2403.943278982221
 21
862.4854606130101
 31
0.0
  0
LINE
  5
25F7
330
1F
100
AcDbEntity
  8
AM_7
100
AcDbLine
 10
2389.843278982221
 20
848.3854606130101
 30
0.0
 11
2389.843278982221
 21
860.6854606130102
 31
0.0
  0
LINE
  5
25F8
330
1F
100
AcDbEntity
  8
AM_7
100
AcDbLine
 10
2389.843278982221
 20
864.2854606130102
 30
0.0
 11
2389.843278982221
 21
876.5854606130103
 31
0.0
  0
ARC
  5
25F9
330
1F
100
AcDbEntity
  8
AM_4
  6
HIDDEN2
100
AcDbCircle
 10
2389.843278982221
 20
862.4854606130101
 30
0.0
 40
5.0
100
AcDbArc
 50
259.999999999995
 51
189.9999999999975
  0
LINE
  5
25FA
330
1F
100
AcDbEntity
  8
AM_7
100
AcDbLine
 10
2443.243581432003
 20
896.5296400414848
 30
0.0
 11
2468.195833957884
 21
896.5296400414848
 31
0.0
  0
LINE
  5
25FB
330
1F
100
AcDbEntity
  8
AM_VIS
100
AcDbLine
 10
2450.035268861777
 20
871.9854606130102
 30
0.0
 11
2452.307158823288
 21
871.9854606130102
 31
0.0
  0
LINE
  5
25FC
330
1F
100
AcDbEntity
  8
AM_VIS
100
AcDbLine
 10
2416.597799529105
 20
871.9854606130102
 30
0.0
 11
2418.15639905399
 21
871.9854606130102
 31
0.0
  0
LINE
  5
25FD
330
1F
100
AcDbEntity
  8
AM_VIS
100
AcDbLine
 10
2416.597799529105
 20
852.9854606130102
 30
0.0
 11
2418.15639905399
 21
852.9854606130102
 31
0.0
  0
LINE
  5
25FE
330
1F
100
AcDbEntity
  8
AM_VIS
100
AcDbLine
 10
2450.035268861777
 20
852.9854606130102
 30
0.0
 11
2452.307158823288
 21
852.9854606130102
 31
0.0
  0
LINE
  5
25FF
330
1F
100
AcDbEntity
  8
AM_VIS
100
AcDbLine
 10
2415.591147574302
 20
869.9711071185365
 30
0.0
 11
2416.594271851688
 21
871.98721582534
 31
0.0
  0
LINE
  5
2600
330
1F
100
AcDbEntity
  8
AM_VIS
100
AcDbLine
 10
2415.591147574302
 20
854.9998141074839
 30
0.0
 11
2416.594271851688
 21
852.9837054006803
 31
0.0
  0
LINE
  5
2601
330
1F
100
AcDbEntity
  8
AM_VIS
100
AcDbLine
 10
2450.035268861777
 20
871.9854606130102
 30
0.0
 11
2418.15639905399
 21
871.9854606130102
 31
0.0
  0
SPLINE
  5
2602
330
1F
100
AcDbEntity
  8
AM_VIS
100
AcDbSpline
210
0.0
220
0.0
230
1.0
 70
    12
 71
     2
 72
     6
 73
     3
 74
     0
 42
0.0000000001
 43
0.0000000001
 40
2.408165155195235
 40
2.408165155195235
 40
2.408165155195235
 40
24.41222509799333
 40
24.41222509799333
 40
24.41222509799333
 10
2450.035268861777
 20
852.9854606130102
 30
0.0
 41
1.111836404264623
 10
2453.913627621183
 20
862.4854606130103
 30
0.0
 41
1.572374122051168
 10
2450.035268861777
 20
871.9854606130104
 30
0.0
 41
1.111836404264623
  0
LINE
  5
2603
330
1F
100
AcDbEntity
  8
AM_VIS
100
AcDbLine
 10
2450.035268861777
 20
852.9854606130102
 30
0.0
 11
2418.15639905399
 21
852.9854606130102
 31
0.0
  0
SPLINE
  5
2604
330
1F
100
AcDbEntity
  8
AM_VIS
100
AcDbSpline
210
0.0
220
0.0
230
1.0
 70
    12
 71
     2
 72
     6
 73
     3
 74
     0
 42
0.0000000001
 43
0.0000000001
 40
2.408165155195243
 40
2.408165155195243
 40
2.408165155195243
 40
24.41222509799331
 40
24.41222509799331
 40
24.41222509799331
 10
2418.15639905399
 20
871.9854606130102
 30
0.0
 41
1.111836404264623
 10
2414.278040294583
 20
862.4854606130101
 30
0.0
 41
1.572374122051163
 10
2418.156399053991
 20
852.9854606130102
 30
0.0
 41
1.111836404264623
  0
LINE
  5
2605
330
1F
100
AcDbEntity
  8
AM_VIS
100
AcDbLine
 10
2452.595833957883
 20
871.4854606130101
 30
0.0
 11
2452.307158823288
 21
871.9854606130102
 31
0.0
  0
LINE
  5
2606
330
1F
100
AcDbEntity
  8
AM_VIS
100
AcDbLine
 10
2452.595833957883
 20
853.4854606130101
 30
0.0
 11
2452.307158823288
 21
852.9854606130102
 31
0.0
  0
LINE
  5
2607
330
1F
100
AcDbEntity
  8
AM_VIS
100
AcDbLine
 10
2466.595833957883
 20
871.4854606130101
 30
0.0
 11
2452.595833957883
 21
871.4854606130101
 31
0.0
  0
LINE
  5
2608
330
1F
100
AcDbEntity
  8
AM_VIS
100
AcDbLine
 10
2466.595833957883
 20
853.4854606130101
 30
0.0
 11
2452.595833957883
 21
853.4854606130101
 31
0.0
  0
LINE
  5
2609
330
1F
100
AcDbEntity
  8
AM_VIS
100
AcDbLine
 10
2467.595833957883
 20
870.4854606130101
 30
0.0
 11
2466.595833957883
 21
871.4854606130101
 31
0.0
  0
LINE
  5
260A
330
1F
100
AcDbEntity
  8
AM_VIS
100
AcDbLine
 10
2467.595833957883
 20
854.4854606130101
 30
0.0
 11
2466.595833957883
 21
853.4854606130101
 31
0.0
  0
LINE
  5
260B
330
1F
100
AcDbEntity
  8
AM_VIS
100
AcDbLine
 10
2415.595833957883
 20
869.9687753865582
 30
0.0
 11
2415.595833957883
 21
855.0021458394622
 31
0.0
  0
LINE
  5
260C
330
1F
100
AcDbEntity
  8
AM_VIS
100
AcDbLine
 10
2452.595833957883
 20
853.4854606130101
 30
0.0
 11
2452.595833957883
 21
871.4854606130101
 31
0.0
  0
LINE
  5
260D
330
1F
100
AcDbEntity
  8
AM_VIS
100
AcDbLine
 10
2467.595833957883
 20
870.4854606130101
 30
0.0
 11
2467.595833957883
 21
854.4854606130101
 31
0.0
  0
CIRCLE
  5
260E
330
1F
100
AcDbEntity
  8
AM_VIS
100
AcDbCircle
 10
2427.595833957883
 20
862.4854606130101
 30
0.0
 40
5.0
  0
LINE
  5
260F
330
1F
100
AcDbEntity
  8
AM_VIS
100
AcDbLine
 10
2394.843278982221
 20
871.9854606130102
 30
0.0
 11
2399.343278982221
 21
871.9854606130102
 31
0.0
  0
LINE
  5
2610
330
1F
100
AcDbEntity
  8
AM_VIS
100
AcDbLine
 10
2380.343278982221
 20
871.9854606130102
 30
0.0
 11
2384.843278982221
 21
871.9854606130102
 31
0.0
  0
LINE
  5
2611
330
1F
100
AcDbEntity
  8
AM_VIS
100
AcDbLine
 10
2394.843278982221
 20
852.9854606130102
 30
0.0
 11
2399.343278982221
 21
852.9854606130102
 31
0.0
  0
LINE
  5
2612
330
1F
100
AcDbEntity
  8
AM_VIS
100
AcDbLine
 10
2380.343278982221
 20
852.9854606130102
 30
0.0
 11
2384.843278982221
 21
852.9854606130102
 31
0.0
  0
LINE
  5
2613
330
1F
100
AcDbEntity
  8
AM_VIS
100
AcDbLine
 10
2384.843278982221
 20
855.0021458394622
 30
0.0
 11
2384.843278982221
 21
852.9854606130102
 31
0.0
  0
LINE
  5
2614
330
1F
100
AcDbEntity
  8
AM_7
100
AcDbLine
 10
2427.595833957883
 20
884.9453004340608
 30
0.0
 11
2427.595833957883
 21
892.6616558564219
 31
0.0
  0
LINE
  5
2615
330
1F
100
AcDbEntity
  8
AM_7
100
AcDbLine
 10
2427.595833957883
 20
908.113979648909
 30
0.0
 11
2427.595833957883
 21
900.3976242265476
 31
0.0
  0
DIMENSION
  5
265A
102
{ACAD_XDICTIONARY
360
2667
102
}
102
{ACAD_REACTORS
330
2668
102
}
330
1F
100
AcDbEntity
  8
AM_5
100
AcDbDimension
  2
*D5
 10
2505.19057561665
 20
1087.838303732628
 30
0.0
 11
2435.19057561665
 21
1090.338303732627
 31
0.0
 70
    32
  1
<>+stroke
 71
     5
 42
140.0
  3
AM_ISO$0
100
AcDbAlignedDimension
 13
2365.190575616649
 23
1119.410931141164
 33
0.0
 14
2505.19057561665
 24
1113.910931141164
 34
0.0
100
AcDbRotatedDimension
1001
ACAD
1000
DSTYLE
1002
{
1070
    40
1040
1.0
1070
   144
1040
1.0
1070
    47
1040
-0.05
1070
    48
1040
0.4
1070
   272
1070
     8
1002
}
  0
INSERT
  5
26C5
330
1F
100
AcDbEntity
  8
AM_5
100
AcDbBlockReference
  2
*S11
 10
0.0
 20
0.0
 30
0.0
  0
TEXT
  5
26C6
330
1F
100
AcDbEntity
  8
AM_5
100
AcDbText
 10
2383.317861858997
 20
1143.200731299567
 30
0.0
 40
3.0
  1
M10x1.25
100
AcDbText
  0
DIMENSION
  5
26DB
102
{ACAD_XDICTIONARY
360
26E4
102
}
102
{ACAD_REACTORS
330
26E5
102
}
330
1F
100
AcDbEntity
  8
AM_5
100
AcDbDimension
  2
*D6
 10
2494.723918272406
 20
1119.589517937207
 30
0.0
 11
2509.29553550564
 21
1141.573636409879
 31
0.0
 70
   163
  1
<>{}{\C2; H9}
 71
     5
 42
8.000000000000227
  3
AM_ISO$3
100
AcDbDiametricDimension
 15
2497.657232960895
 25
1127.032344345118
 35
0.0
 40
0.0
1001
GENIUS_GENDTOL_13
1000
FitTxt
1000
H9
1000
{$3 $T}
1040
8.0
1001
ACAD
1000
DSTYLE
1002
{
1070
    47
1040
0.03
1070
    48
1040
0.0
1070
   272
1070
     8
1070
   274
1070
     3
1002
}
  0
INSERT
  5
2710
330
1F
100
AcDbEntity
  8
AM_5
100
AcDbBlockReference
  2
*S12
 10
0.0
 20
0.0
 30
0.0
  0
TEXT
  5
2711
330
1F
100
AcDbEntity
  8
AM_5
100
AcDbText
 10
2489.585912357684
 20
1194.412743174241
 30
0.0
 40
3.0
  1
2-PT1/8
100
AcDbText
  0
ARC
  5
2712
330
1F
100
AcDbEntity
  8
AM_4
100
AcDbCircle
 10
2421.690575616649
 20
1174.386566593113
 30
0.0
 40
4.863999999999999
100
AcDbArc
 50
260.0
 51
170.0
  0
CIRCLE
  5
2713
330
1F
100
AcDbEntity
  8
AM_0
100
AcDbCircle
 10
2421.690575616649
 20
1174.386566593113
 30
0.0
 40
4.283
  0
ARC
  5
2714
330
1F
100
AcDbEntity
  8
AM_4
100
AcDbCircle
 10
2476.690575616649
 20
1174.386566593113
 30
0.0
 40
4.863999999999999
100
AcDbArc
 50
260.0
 51
170.0
  0
CIRCLE
  5
2715
330
1F
100
AcDbEntity
  8
AM_0
100
AcDbCircle
 10
2476.690575616649
 20
1174.386566593113
 30
0.0
 40
4.283
  0
DIMENSION
  5
2737
330
1F
100
AcDbEntity
  8
AM_5
100
AcDbDimension
  2
*D7
 10
2540.428208149661
 20
1097.960931141164
 30
0.0
 11
2532.428208149661
 21
1101.278302759572
 31
0.0
 70
    32
  1
<>{}{\H0.71x;\C3;\S-0.05^ -0.4;}
 71
     5
 42
16.0
  3
AM_ISO$0
100
AcDbAlignedDimension
 13
2524.428208149661
 23
1115.761096705893
 33
0.0
 14
2540.428208149661
 24
1115.761096705893
 34
0.0
100
AcDbRotatedDimension
1001
ACAD
1000
DSTYLE
1002
{
1070
   286
1070
     0
1070
   284
1070
     8
1070
   274
1070
     2
1070
    47
1040
-0.05
1070
    48
1040
0.4
1070
   272
1070
     8
1002
}
1001
GENIUS_GENDTOL_13
1000
TolSmNrm
1000

1000
{\H0.71x;$2\S$+$P^ $-$M;}
1040
16.0
  0
DIMENSION
  5
27BA
102
{ACAD_XDICTIONARY
360
27C7
102
}
102
{ACAD_REACTORS
330
27C8
102
}
330
1F
100
AcDbEntity
  8
AM_5
100
AcDbDimension
  2
*D8
 10
2387.190575616649
 20
1096.525790787769
 30
0.0
 11
2376.19057561665
 21
1099.02608606336
 31
0.0
 70
    32
  1
<>
 71
     5
 42
22.0
  3
AM_ISO$0
100
AcDbAlignedDimension
 13
2365.190575616649
 23
1119.410931141164
 33
0.0
 14
2387.190575616649
 24
1118.410931141164
 34
0.0
 50
0.0000000000001132
100
AcDbRotatedDimension
1001
ACAD
1000
DSTYLE
1002
{
1070
   286
1070
     0
1070
   284
1070
     8
1070
    47
1040
-0.05
1070
    48
1040
0.4
1070
   272
1070
     8
1070
   274
1070
     3
1002
}
  0
DIMENSION
  5
2804
102
{ACAD_XDICTIONARY
360
2811
102
}
102
{ACAD_REACTORS
330
2812
102
}
330
1F
100
AcDbEntity
  8
AM_5
100
AcDbDimension
  2
*D9
 10
2505.19057561665
 20
1096.52579078777
 30
0.0
 11
2446.190575616649
 21
1099.025790787769
 31
0.0
 70
    32
  1
<>+stroke
 71
     5
 42
118.0
  3
AM_ISO$0
100
AcDbAlignedDimension
 13
2387.190575616649
 23
1118.410931141164
 33
0.0
 14
2505.19057561665
 24
1113.910931141164
 34
0.0
 50
0.0000000000001132
100
AcDbRotatedDimension
1001
ACAD
1000
DSTYLE
1002
{
1070
    40
1040
1.0
1070
   144
1040
1.0
1070
    47
1040
-0.05
1070
    48
1040
0.4
1070
   272
1070
     8
1002
}
  0
TEXT
  5
28AE
330
1F
100
AcDbEntity
  8
0
100
AcDbText
 10
2306.930910419351
 20
1196.873506315053
 30
0.0
 40
7.199999999999999
  1
11 type
  7
CHINESET
100
AcDbText
  0
ENDSEC
  0
SECTION
  2
OBJECTS
  0
DICTIONARY
  5
C
330
0
100
AcDbDictionary
281
     1
  3
ACAD_COLOR
350
BE
  3
ACAD_GROUP
350
D
  3
ACAD_LAYOUT
350
1A
  3
ACAD_MATERIAL
350
BD
  3
ACAD_MLINESTYLE
350
17
  3
ACAD_PLOTSETTINGS
350
19
  3
ACAD_PLOTSTYLENAME
350
E
  3
ACAD_TABLESTYLE
350
11A
  3
ACDBHEADERROUNDTRIPXREC
350
290D
  3
AcDbVariableDictionary
350
94
  3
AcmDictionary
350
5B
  3
AMG
350
41
  3
AMGSNAPSETTINGS
350
1B8
  3
DWGPROPS
350
290C
  0
DICTIONARY
  5
3F9
330
2
100
AcDbDictionary
280
     1
281
     1
  3
ACAD_LAYERFILTERS
360
5B7
  3
ACAD_LAYERSTATES
360
71D
  3
ACLYDICTIONARY
360
5B6
  0
DICTIONARY
  5
8F
330
1F
100
AcDbDictionary
280
     1
281
     1
  3
ACAD_SORTENTS
360
12F5
  0
DICTIONARY
  5
2667
330
265A
100
AcDbDictionary
280
     1
281
     1
  3
ACAD_DIMASSOC
360
2668
  0
DICTIONARY
  5
26E4
330
26DB
100
AcDbDictionary
280
     1
281
     1
  3
ACAD_DIMASSOC
360
26E5
  0
DICTIONARY
  5
27C7
330
27BA
100
AcDbDictionary
280
     1
281
     1
  3
ACAD_DIMASSOC
360
27C8
  0
DICTIONARY
  5
2811
330
2804
100
AcDbDictionary
280
     1
281
     1
  3
ACAD_DIMASSOC
360
2812
  0
DICTIONARY
  5
BE
102
{ACAD_REACTORS
330
C
102
}
330
C
100
AcDbDictionary
281
     1
  0
DICTIONARY
  5
D
102
{ACAD_REACTORS
330
C
102
}
330
C
100
AcDbDictionary
281
     1
  0
DICTIONARY
  5
1A
102
{ACAD_REACTORS
330
C
102
}
330
C
100
AcDbDictionary
281
     1
  3
Model
350
22
  3
配置1
350
1E
  3
配置2
350
26
  0
DICTIONARY
  5
BD
102
{ACAD_REACTORS
330
C
102
}
330
C
100
AcDbDictionary
281
     1
  0
DICTIONARY
  5
17
102
{ACAD_REACTORS
330
C
102
}
330
C
100
AcDbDictionary
281
     1
  3
Standard
350
18
  0
DICTIONARY
  5
19
102
{ACAD_REACTORS
330
C
102
}
330
C
100
AcDbDictionary
281
     1
  0
ACDBDICTIONARYWDFLT
  5
E
102
{ACAD_REACTORS
330
C
102
}
330
C
100
AcDbDictionary
281
     1
  3
Normal
350
F
100
AcDbDictionaryWithDefault
340
F
  0
DICTIONARY
  5
11A
102
{ACAD_REACTORS
330
C
102
}
330
C
100
AcDbDictionary
281
     1
  3
Standard
350
11B
  0
DICTIONARY
  5
290D
102
{ACAD_REACTORS
330
C
102
}
330
C
100
AcDbDictionary
281
     1
  0
DICTIONARY
  5
94
102
{ACAD_REACTORS
330
C
102
}
330
C
100
AcDbDictionary
281
     1
  3
CTABLESTYLE
350
138
  3
DIMASSOC
350
96
  3
INDEXCTL
350
95
  3
PROJECTNAME
350
290A
  0
DICTIONARY
  5
5B
102
{ACAD_REACTORS
330
C
102
}
330
C
100
AcDbDictionary
281
     1
  3
AcmBOM
350
1B5
  3
AcmStdDictionary
350
61
  3
AMDTSECTSYM_ARROWCOLOR
350
123
  0
DICTIONARY
  5
41
102
{ACAD_REACTORS
330
C
102
}
330
C
100
AcDbDictionary
281
     1
  0
DICTIONARY
  5
1B8
102
{ACAD_REACTORS
330
C
102
}
330
C
100
AcDbDictionary
281
     1
  0
XRECORD
  5
290C
102
{ACAD_REACTORS
330
C
102
}
330
C
100
AcDbXrecord
280
     1
  1
DWGPROPS COOKIE
  2

  3

  4

  6

  7

  8

  9

300
AmdtFileType=84
301
=
302
=
303
=
304
=
305
=
306
=
307
=
308
=
309
=
 40
0.4946292361111111
 41
2453580.633342373
 42
2453594.387816841
  1

 90
        1
  0
DICTIONARY
  5
5B7
102
{ACAD_REACTORS
330
3F9
102
}
330
3F9
100
AcDbDictionary
281
     1
  0
DICTIONARY
  5
71D
102
{ACAD_REACTORS
330
3F9
102
}
330
3F9
100
AcDbDictionary
281
     1
  0
DICTIONARY
  5
5B6
102
{ACAD_REACTORS
330
3F9
102
}
330
3F9
100
AcDbDictionary
281
     1
1001
ACAD
1000
<All
  0
SORTENTSTABLE
  5
12F5
102
{ACAD_REACTORS
330
8F
102
}
330
8F
100
AcDbSortentsTable
330
1F
331
19AD
  5
19AD
331
196E
  5
196E
331
1976
  5
1976
331
19B5
  5
19B5
331
197E
  5
197E
331
19BD
  5
19BD
331
1986
  5
1986
331
19E2
  5
19E2
331
19EA
  5
19EA
331
19F2
  5
19F2
331
19FA
  5
19FA
331
199E
  5
199E
331
19C3
  5
19C3
331
19CB
  5
19CB
331
19D3
  5
19D3
331
1A1A
  5
1A1A
331
19DB
  5
19DB
331
19AE
  5
19AE
331
196F
  5
196F
331
1977
  5
1977
331
19B6
  5
19B6
331
197F
  5
197F
331
19BE
  5
19BE
331
1987
  5
1987
331
19E3
  5
19E3
331
19EB
  5
19EB
331
19F3
  5
19F3
331
19FB
  5
19FB
331
199F
  5
199F
331
19C4
  5
19C4
331
19CC
  5
19CC
331
19D4
  5
19D4
331
1A1B
  5
1A1B
331
19DC
  5
19DC
331
1970
  5
1970
331
1978
  5
1978
331
19B7
  5
19B7
331
1980
  5
1980
331
19BF
  5
19BF
331
19E4
  5
19E4
331
19EC
  5
19EC
331
19F4
  5
19F4
331
19FC
  5
19FC
331
1988
  5
1988
331
1990
  5
1990
331
19A0
  5
19A0
331
19C5
  5
19C5
331
19CD
  5
19CD
331
19D5
  5
19D5
331
19DD
  5
19DD
331
19A8
  5
19A8
331
1971
  5
1971
331
1979
  5
1979
331
19B8
  5
19B8
331
1981
  5
1981
331
19E5
  5
19E5
331
19ED
  5
19ED
331
19F5
  5
19F5
331
19FD
  5
19FD
331
1989
  5
1989
331
1999
  5
1999
331
19C6
  5
19C6
331
19CE
  5
19CE
331
19D6
  5
19D6
331
1A1D
  5
1A1D
331
19DE
  5
19DE
331
1972
  5
1972
331
197A
  5
197A
331
19B9
  5
19B9
331
1982
  5
1982
331
19E6
  5
19E6
331
19EE
  5
19EE
331
19F6
  5
19F6
331
19FE
  5
19FE
331
198A
  5
198A
331
199A
  5
199A
331
19C7
  5
19C7
331
1A0E
  5
1A0E
331
19CF
  5
19CF
331
19D7
  5
19D7
331
19DF
  5
19DF
331
1973
  5
1973
331
19B2
  5
19B2
331
197B
  5
197B
331
19BA
  5
19BA
331
1983
  5
1983
331
19E7
  5
19E7
331
19EF
  5
19EF
331
19F7
  5
19F7
331
19FF
  5
19FF
331
198B
  5
198B
331
199B
  5
199B
331
19C0
  5
19C0
331
19C8
  5
19C8
331
1A0F
  5
1A0F
331
19D0
  5
19D0
331
19D8
  5
19D8
331
1974
  5
1974
331
19B3
  5
19B3
331
197C
  5
197C
331
19BB
  5
19BB
331
1984
  5
1984
331
19E0
  5
19E0
331
19E8
  5
19E8
331
19F0
  5
19F0
331
19F8
  5
19F8
331
198C
  5
198C
331
1994
  5
1994
331
199C
  5
199C
331
19A4
  5
19A4
331
1A00
  5
1A00
331
19C1
  5
19C1
331
19C9
  5
19C9
331
1A10
  5
1A10
331
19D1
  5
19D1
331
1A18
  5
1A18
331
19D9
  5
19D9
331
E1F
  5
E1F
331
19AC
  5
19AC
331
1975
  5
1975
331
19B4
  5
19B4
331
197D
  5
197D
331
19BC
  5
19BC
331
1985
  5
1985
331
19E1
  5
19E1
331
19E9
  5
19E9
331
19F1
  5
19F1
331
19F9
  5
19F9
331
1995
  5
1995
331
199D
  5
199D
331
1A01
  5
1A01
331
19C2
  5
19C2
331
19CA
  5
19CA
331
19D2
  5
19D2
331
1A19
  5
1A19
331
19DA
  5
19DA
  0
DIMASSOC
  5
2668
102
{ACAD_REACTORS
330
2667
102
}
330
2667
100
AcDbDimAssoc
330
265A
 90
        3
 70
     0
 71
     0
  1
AcDbOsnapPointRef
 72
    13
331
2412
 73
     0
 91
        0
 40
0.0
 10
0.0
 20
0.0
 30
2.000000000000000E+50
 75
     0
  1
AcDbOsnapPointRef
 72
     1
331
2430
 73
     0
 91
        0
 40
0.0
 10
0.0
 20
0.0
 30
2.000000000000000E+50
 75
     0
  0
DIMASSOC
  5
26E5
102
{ACAD_REACTORS
330
26E4
102
}
330
26E4
100
AcDbDimAssoc
330
26DB
 90
        2
 70
     0
 71
     0
  1
AcDbOsnapPointRef
 72
     3
331
242F
 73
     2
 91
        0
 40
0.0
 10
0.0
 20
0.0
 30
0.0
 75
     0
  0
DIMASSOC
  5
27C8
102
{ACAD_REACTORS
330
27C7
102
}
330
27C7
100
AcDbDimAssoc
330
27BA
 90
        3
 70
     0
 71
     0
  1
AcDbOsnapPointRef
 72
    13
331
2412
 73
     0
 91
        0
 40
0.0
 10
0.0
 20
0.0
 30
2.000000000000000E+50
 75
     0
  1
AcDbOsnapPointRef
 72
    13
331
2414
 73
     0
 91
        0
 40
0.0
 10
0.0
 20
0.0
 30
2.000000000000000E+50
 75
     0
  0
DIMASSOC
  5
2812
102
{ACAD_REACTORS
330
2811
102
}
330
2811
100
AcDbDimAssoc
330
2804
 90
        3
 70
     0
 71
     0
  1
AcDbOsnapPointRef
 72
    13
331
2414
 73
     0
 91
        0
 40
0.0
 10
0.0
 20
0.0
 30
2.000000000000000E+50
 75
     0
  1
AcDbOsnapPointRef
 72
     1
331
2430
 73
     0
 91
        0
 40
0.0
 10
0.0
 20
0.0
 30
2.000000000000000E+50
 75
     0
  0
LAYOUT
  5
22
102
{ACAD_XDICTIONARY
360
2910
102
}
102
{ACAD_REACTORS
330
1A
102
}
330
1A
100
AcDbPlotSettings
  1

  2
\\RD\EPSON Stylus C63 Series單色
  4
A4
  6

 40
3.757083177566528
 41
3.757076978683471
 42
3.757080078125
 43
3.757080078125
 44
209.9733276367187
 45
296.9683227539062
 46
0.0
 47
0.0
 48
0.0
 49
0.0
140
0.0
141
0.0
142
1.0
143
0.3405120737814363
 70
 11952
 72
     1
 73
     0
 74
     0
  7
單色出圖.ctb
 75
     0
147
2.936753428137963
148
-2047.07469463503
149
-1261.649717473083
100
AcDbLayout
  1
Model
 70
     1
 71
     0
 10
0.0
 20
0.0
 11
12.0
 21
9.0
 12
0.0
 22
0.0
 32
0.0
 14
0.0
 24
0.0
 34
0.0
 15
0.0
 25
0.0
 35
0.0
146
0.0
 13
0.0
 23
0.0
 33
0.0
 16
1.0
 26
0.0
 36
0.0
 17
0.0
 27
1.0
 37
0.0
 76
     0
330
1F
1001
ACAD_PSEXT
1000
\\RD\EPSON Stylus C63 Series單色
1000
EPSON Stylus C63 Series
1000
\\RD
1000

1070
     0
  0
LAYOUT
  5
1E
102
{ACAD_XDICTIONARY
360
290E
102
}
102
{ACAD_REACTORS
330
1A
102
}
330
1A
100
AcDbPlotSettings
  1

  2

  4

  6

 40
0.0
 41
0.0
 42
0.0
 43
0.0
 44
0.0
 45
0.0
 46
0.0
 47
0.0
 48
0.0
 49
0.0
140
0.0
141
0.0
142
1.0
143
1.0
 70
   688
 72
     0
 73
     0
 74
     5
  7
單色出圖.ctb
 75
    16
147
1.0
148
0.0
149
0.0
100
AcDbLayout
  1
配置1
 70
     1
 71
     1
 10
0.0
 20
0.0
 11
420.0
 21
297.0
 12
0.0
 22
0.0
 32
0.0
 14
1.000000000000000E+20
 24
1.000000000000000E+20
 34
1.000000000000000E+20
 15
-1.000000000000000E+20
 25
-1.000000000000000E+20
 35
-1.000000000000000E+20
146
0.0
 13
0.0
 23
0.0
 33
0.0
 16
1.0
 26
0.0
 36
0.0
 17
0.0
 27
1.0
 37
0.0
 76
     0
330
1B
  0
LAYOUT
  5
26
102
{ACAD_XDICTIONARY
360
2912
102
}
102
{ACAD_REACTORS
330
1A
102
}
330
1A
100
AcDbPlotSettings
  1

  2

  4

  6

 40
0.0
 41
0.0
 42
0.0
 43
0.0
 44
0.0
 45
0.0
 46
0.0
 47
0.0
 48
0.0
 49
0.0
140
0.0
141
0.0
142
1.0
143
1.0
 70
   688
 72
     0
 73
     0
 74
     5
  7
單色出圖.ctb
 75
    16
147
1.0
148
0.0
149
0.0
100
AcDbLayout
  1
配置2
 70
     1
 71
     2
 10
0.0
 20
0.0
 11
12.0
 21
9.0
 12
0.0
 22
0.0
 32
0.0
 14
0.0
 24
0.0
 34
0.0
 15
0.0
 25
0.0
 35
0.0
146
0.0
 13
0.0
 23
0.0
 33
0.0
 16
1.0
 26
0.0
 36
0.0
 17
0.0
 27
1.0
 37
0.0
 76
     0
330
23
  0
MLINESTYLE
  5
18
102
{ACAD_REACTORS
330
17
102
}
330
17
100
AcDbMlineStyle
  2
STANDARD
 70
     0
  3

 62
   256
 51
90.0
 52
90.0
 71
     2
 49
0.5
 62
   256
  6
BYLAYER
 49
-0.5
 62
   256
  6
BYLAYER
  0
ACDBPLACEHOLDER
  5
F
102
{ACAD_REACTORS
330
E
102
}
330
E
  0
TABLESTYLE
  5
11B
102
{ACAD_REACTORS
330
11A
102
}
330
11A
100
AcDbTableStyle
  3
Standard
 70
     0
 71
     0
 40
1.5
 41
1.5
280
     0
281
     0
  7
STANDARD
140
4.5
170
     2
 62
     0
 63
     7
283
     0
274
    -2
284
     1
 64
     0
275
    -2
285
     1
 65
     0
276
    -2
286
     1
 66
     0
277
    -2
287
     1
 67
     0
278
    -2
288
     1
 68
     0
279
    -2
289
     1
 69
     0
  7
STANDARD
140
6.0
170
     5
 62
     0
 63
     7
283
     0
274
    -2
284
     1
 64
     0
275
    -2
285
     1
 65
     0
276
    -2
286
     1
 66
     0
277
    -2
287
     1
 67
     0
278
    -2
288
     1
 68
     0
279
    -2
289
     1
 69
     0
  7
STANDARD
140
4.5
170
     5
 62
     0
 63
     7
283
     0
274
    -2
284
     1
 64
     0
275
    -2
285
     1
 65
     0
276
    -2
286
     1
 66
     0
277
    -2
287
     1
 67
     0
278
    -2
288
     1
 68
     0
279
    -2
289
     1
 69
     0
  0
DICTIONARYVAR
  5
138
102
{ACAD_REACTORS
330
94
102
}
330
94
100
DictionaryVariables
280
     0
  1
STANDARD
  0
DICTIONARYVAR
  5
96
102
{ACAD_REACTORS
330
94
102
}
330
94
100
DictionaryVariables
280
     0
  1
2
  0
DICTIONARYVAR
  5
95
102
{ACAD_REACTORS
330
94
102
}
330
94
100
DictionaryVariables
280
     0
  1
0
  0
DICTIONARYVAR
  5
290A
102
{ACAD_REACTORS
330
94
102
}
330
94
100
DictionaryVariables
280
     0
  1

  0
DICTIONARY
  5
1B5
102
{ACAD_REACTORS
330
5B
102
}
330
5B
100
AcDbDictionary
281
     1
  0
DICTIONARY
  5
61
102
{ACAD_REACTORS
330
5B
102
}
330
5B
100
AcDbDictionary
281
     1
  0
XRECORD
  5
123
102
{ACAD_REACTORS
330
5B
102
}
330
5B
100
AcDbXrecord
280
     1
 90
-1023410169
  0
DICTIONARY
  5
2910
330
22
100
AcDbDictionary
280
     1
281
     1
  3
ACAD_XREC_ROUNDTRIP
360
2911
  0
DICTIONARY
  5
290E
330
1E
100
AcDbDictionary
280
     1
281
     1
  3
ACAD_XREC_ROUNDTRIP
360
290F
  0
DICTIONARY
  5
2912
330
26
100
AcDbDictionary
280
     1
281
     1
  3
ACAD_XREC_ROUNDTRIP
360
2913
  0
XRECORD
  5
2911
102
{ACAD_REACTORS
330
2910
102
}
330
2910
100
AcDbXrecord
280
     1
102
SHADEPLOT
 70
     0
102
SHADEPLOTRESLEVEL
 70
     2
102
SHADEPLOTCUSTOMDPI
 70
   300
  0
XRECORD
  5
290F
102
{ACAD_REACTORS
330
290E
102
}
330
290E
100
AcDbXrecord
280
     1
102
SHADEPLOT
 70
     0
102
SHADEPLOTRESLEVEL
 70
     2
102
SHADEPLOTCUSTOMDPI
 70
   300
  0
XRECORD
  5
2913
102
{ACAD_REACTORS
330
2912
102
}
330
2912
100
AcDbXrecord
280
     1
102
SHADEPLOT
 70
     0
102
SHADEPLOTRESLEVEL
 70
     2
102
SHADEPLOTCUSTOMDPI
 70
   300
  0
ENDSEC
  0
EOF
