  0
SECTION
  2
HEADER
  9
$ACADVER
  1
AC1015
  9
$ACADMAINTVER
 70
    20
  9
$DWGCODEPAGE
  3
ANSI_950
  9
$INSBASE
 10
0.0
 20
0.0
 30
0.0
  9
$EXTMIN
 10
2290.672243880219
 20
803.6298337202458
 30
-0.0000000000000038
  9
$EXTMAX
 10
2834.386571385537
 20
1250.45373845698
 30
259.1198662763692
  9
$LIMMIN
 10
0.0
 20
0.0
  9
$LIMMAX
 10
420.0
 20
297.0
  9
$ORTHOMODE
 70
     1
  9
$REGENMODE
 70
     1
  9
$FILLMODE
 70
     1
  9
$QTEXTMODE
 70
     0
  9
$MIRRTEXT
 70
     1
  9
$LTSCALE
 40
1.0
  9
$ATTMODE
 70
     1
  9
$TEXTSIZE
 40
3.0
  9
$TRACEWID
 40
1.0
  9
$TEXTSTYLE
  7
CHINESET
  9
$CLAYER
  8
0
  9
$CELTYPE
  6
ByLayer
  9
$CECOLOR
 62
   256
  9
$CELTSCALE
 40
1.0
  9
$DISPSILH
 70
     0
  9
$DIMSCALE
 40
1.0
  9
$DIMASZ
 40
3.0
  9
$DIMEXO
 40
1.0
  9
$DIMDLI
 40
8.0
  9
$DIMRND
 40
0.0
  9
$DIMDLE
 40
0.0
  9
$DIMEXE
 40
1.5
  9
$DIMTP
 40
-0.05
  9
$DIMTM
 40
0.4
  9
$DIMTXT
 40
3.0
  9
$DIMCEN
 40
0.0
  9
$DIMTSZ
 40
0.0
  9
$DIMTOL
 70
     0
  9
$DIMLIM
 70
     0
  9
$DIMTIH
 70
     0
  9
$DIMTOH
 70
     0
  9
$DIMSE1
 70
     0
  9
$DIMSE2
 70
     0
  9
$DIMTAD
 70
     1
  9
$DIMZIN
 70
     8
  9
$DIMBLK
  1

  9
$DIMASO
 70
     1
  9
$DIMSHO
 70
     1
  9
$DIMPOST
  1

  9
$DIMAPOST
  1
"
  9
$DIMALT
 70
     0
  9
$DIMALTD
 70
     2
  9
$DIMALTF
 40
0.0393701
  9
$DIMLFAC
 40
1.0
  9
$DIMTOFL
 70
     1
  9
$DIMTVP
 40
0.0
  9
$DIMTIX
 70
     0
  9
$DIMSOXD
 70
     0
  9
$DIMSAH
 70
     0
  9
$DIMBLK1
  1

  9
$DIMBLK2
  1

  9
$DIMSTYLE
  2
AM_ISO
  9
$DIMCLRD
 70
   256
  9
$DIMCLRE
 70
   256
  9
$DIMCLRT
 70
   256
  9
$DIMTFAC
 40
0.71
  9
$DIMGAP
 40
1.0
  9
$DIMJUST
 70
     0
  9
$DIMSD1
 70
     0
  9
$DIMSD2
 70
     0
  9
$DIMTOLJ
 70
     0
  9
$DIMTZIN
 70
     8
  9
$DIMALTZ
 70
     0
  9
$DIMALTTZ
 70
     0
  9
$DIMUPT
 70
     0
  9
$DIMDEC
 70
     2
  9
$DIMTDEC
 70
     8
  9
$DIMALTU
 70
     2
  9
$DIMALTTD
 70
     2
  9
$DIMTXSTY
  7
STANDARD
  9
$DIMAUNIT
 70
     0
  9
$DIMADEC
 70
     0
  9
$DIMALTRND
 40
0.0
  9
$DIMAZIN
 70
     2
  9
$DIMDSEP
 70
    46
  9
$DIMATFIT
 70
     3
  9
$DIMFRAC
 70
     0
  9
$DIMLDRBLK
  1

  9
$DIMLUNIT
 70
     2
  9
$DIMLWD
 70
    -1
  9
$DIMLWE
 70
    -1
  9
$DIMTMOVE
 70
     0
  9
$LUNITS
 70
     2
  9
$LUPREC
 70
     2
  9
$SKETCHINC
 40
1.0
  9
$FILLETRAD
 40
2.5
  9
$AUNITS
 70
     0
  9
$AUPREC
 70
     0
  9
$MENU
  1
.
  9
$ELEVATION
 40
0.0
  9
$PELEVATION
 40
0.0
  9
$THICKNESS
 40
0.0
  9
$LIMCHECK
 70
     0
  9
$CHAMFERA
 40
2.5
  9
$CHAMFERB
 40
2.5
  9
$CHAMFERC
 40
20.0
  9
$CHAMFERD
 40
0.0
  9
$SKPOLY
 70
     0
  9
$TDCREATE
 40
2453580.633342373
  9
$TDUCREATE
 40
2453580.300009039
  9
$TDUPDATE
 40
2454634.691983033
  9
$TDUUPDATE
 40
2454634.358649699
  9
$TDINDWG
 40
0.7877787037
  9
$TDUSRTIMER
 40
0.7877787037
  9
$USRTIMER
 70
     1
  9
$ANGBASE
 50
0.0
  9
$ANGDIR
 70
     0
  9
$PDMODE
 70
     0
  9
$PDSIZE
 40
0.0
  9
$PLINEWID
 40
0.0
  9
$SPLFRAME
 70
     0
  9
$SPLINETYPE
 70
     6
  9
$SPLINESEGS
 70
     8
  9
$HANDSEED
  5
3CDF
  9
$SURFTAB1
 70
     6
  9
$SURFTAB2
 70
     6
  9
$SURFTYPE
 70
     6
  9
$SURFU
 70
     6
  9
$SURFV
 70
     6
  9
$UCSBASE
  2

  9
$UCSNAME
  2

  9
$UCSORG
 10
0.0
 20
0.0
 30
0.0
  9
$UCSXDIR
 10
1.0
 20
0.0
 30
0.0
  9
$UCSYDIR
 10
0.0
 20
1.0
 30
0.0
  9
$UCSORTHOREF
  2

  9
$UCSORTHOVIEW
 70
     0
  9
$UCSORGTOP
 10
0.0
 20
0.0
 30
0.0
  9
$UCSORGBOTTOM
 10
0.0
 20
0.0
 30
0.0
  9
$UCSORGLEFT
 10
0.0
 20
0.0
 30
0.0
  9
$UCSORGRIGHT
 10
0.0
 20
0.0
 30
0.0
  9
$UCSORGFRONT
 10
0.0
 20
0.0
 30
0.0
  9
$UCSORGBACK
 10
0.0
 20
0.0
 30
0.0
  9
$PUCSBASE
  2

  9
$PUCSNAME
  2

  9
$PUCSORG
 10
0.0
 20
0.0
 30
0.0
  9
$PUCSXDIR
 10
1.0
 20
0.0
 30
0.0
  9
$PUCSYDIR
 10
0.0
 20
1.0
 30
0.0
  9
$PUCSORTHOREF
  2

  9
$PUCSORTHOVIEW
 70
     0
  9
$PUCSORGTOP
 10
0.0
 20
0.0
 30
0.0
  9
$PUCSORGBOTTOM
 10
0.0
 20
0.0
 30
0.0
  9
$PUCSORGLEFT
 10
0.0
 20
0.0
 30
0.0
  9
$PUCSORGRIGHT
 10
0.0
 20
0.0
 30
0.0
  9
$PUCSORGFRONT
 10
0.0
 20
0.0
 30
0.0
  9
$PUCSORGBACK
 10
0.0
 20
0.0
 30
0.0
  9
$USERI1
 70
     0
  9
$USERI2
 70
     0
  9
$USERI3
 70
     0
  9
$USERI4
 70
     0
  9
$USERI5
 70
     0
  9
$USERR1
 40
0.0
  9
$USERR2
 40
0.0
  9
$USERR3
 40
0.0
  9
$USERR4
 40
0.0
  9
$USERR5
 40
0.0
  9
$WORLDVIEW
 70
     1
  9
$SHADEDGE
 70
     3
  9
$SHADEDIF
 70
    70
  9
$TILEMODE
 70
     1
  9
$MAXACTVP
 70
    64
  9
$PINSBASE
 10
0.0
 20
0.0
 30
0.0
  9
$PLIMCHECK
 70
     0
  9
$PEXTMIN
 10
1.000000000000000E+20
 20
1.000000000000000E+20
 30
1.000000000000000E+20
  9
$PEXTMAX
 10
-1.000000000000000E+20
 20
-1.000000000000000E+20
 30
-1.000000000000000E+20
  9
$PLIMMIN
 10
0.0
 20
0.0
  9
$PLIMMAX
 10
420.0
 20
297.0
  9
$UNITMODE
 70
     0
  9
$VISRETAIN
 70
     1
  9
$PLINEGEN
 70
     0
  9
$PSLTSCALE
 70
     1
  9
$TREEDEPTH
 70
  3020
  9
$CMLSTYLE
  2
Standard
  9
$CMLJUST
 70
     0
  9
$CMLSCALE
 40
20.0
  9
$PROXYGRAPHICS
 70
     1
  9
$MEASUREMENT
 70
     1
  9
$CELWEIGHT
370
    -1
  9
$ENDCAPS
280
     0
  9
$JOINSTYLE
280
     0
  9
$LWDISPLAY
290
     0
  9
$INSUNITS
 70
     4
  9
$HYPERLINKBASE
  1

  9
$STYLESHEET
  1
單色出圖.ctb
  9
$XEDIT
290
     1
  9
$CEPSNTYPE
380
     0
  9
$PSTYLEMODE
290
     1
  9
$FINGERPRINTGUID
  2
{B9E4BE39-A089-470C-A359-98F2256325D3}
  9
$VERSIONGUID
  2
{57D32A1C-957D-4B0F-8610-CCC94BD5BD01}
  9
$EXTNAMES
290
     1
  9
$PSVPSCALE
 40
0.0
  9
$OLESTARTUP
290
     0
  0
ENDSEC
  0
SECTION
  2
CLASSES
  0
CLASS
  1
ACDBDICTIONARYWDFLT
  2
AcDbDictionaryWithDefault
  3
ObjectDBX Classes
 90
        0
280
     0
281
     0
  0
CLASS
  1
ACDBPLACEHOLDER
  2
AcDbPlaceHolder
  3
ObjectDBX Classes
 90
        0
280
     0
281
     0
  0
CLASS
  1
LAYOUT
  2
AcDbLayout
  3
ObjectDBX Classes
 90
        0
280
     0
281
     0
  0
CLASS
  1
ACME_DOCUMENT
  2
AcMeDbDoc
  3
AcMeServices
 90
        0
280
     0
281
     0
  0
CLASS
  1
AMGSETTINGSOBJ
  2
AmgSettingsObj
  3
"AcadM|Product Description: AutoCAD Mechanical 2000|Company: Autodesk"
 90
        0
280
     0
281
     0
  0
CLASS
  1
ACMESCOPE
  2
AcMeScope
  3
AcMeServices
 90
        0
280
     0
281
     0
  0
CLASS
  1
ACMECOMMANDHISTORY
  2
AcMeCommandHistory
  3
AcMeServices
 90
        0
280
     0
281
     0
  0
CLASS
  1
ACIMSYSVARMAN
  2
AcImSysVarManager
  3
AcMeServices
 90
        0
280
     0
281
     0
  0
CLASS
  1
ACIMREALSYSVAR
  2
AcImRealSysVar
  3
AcMeServices
 90
        0
280
     0
281
     0
  0
CLASS
  1
ACIMINTSYSVAR
  2
AcImIntSysVar
  3
AcMeServices
 90
        0
280
     0
281
     0
  0
CLASS
  1
ACMEDRAWINGMAN
  2
AcMeDrawingMan
  3
AcMeServices
 90
        0
280
     0
281
     0
  0
CLASS
  1
ACMEVIEW
  2
AcMeView
  3
AcMeServices
 90
        0
280
     0
281
     0
  0
CLASS
  1
ACDBENTITYCACHE
  2
AcMeEntityCache
  3
AcMeServices
 90
        0
280
     0
281
     0
  0
CLASS
  1
GSMANAGER
  2
AcMeGSManager
  3
AcMeServices
 90
        0
280
     0
281
     0
  0
CLASS
  1
AMDTINTERNALREACTOR
  2
AmdtInternalReactor
  3
AcMeServices
 90
        0
280
     0
281
     0
  0
CLASS
  1
ACMESTATEMGR
  2
AcMeStateMgr
  3
AcMeServices
 90
        0
280
     0
281
     0
  0
CLASS
  1
ACGREFMASTER
  2
AcGrefMaster
  3
AcAttribServices
 90
        0
280
     0
281
     0
  0
CLASS
  1
ACME_DATABASE
  2
AcMeDbDatabase
  3
AcMeServices
 90
        0
280
     0
281
     0
  0
CLASS
  1
ACRFINSADJUSTERMGR
  2
AcRfInsAdjusterMgr
  3
AcMeServices
 90
        0
280
     0
281
     0
  0
CLASS
  1
ACGREFACADMASTER
  2
AcGrefacadMaster
  3
AcGrefServices
 90
        0
280
     0
281
     0
  0
CLASS
  1
AMIMASTER
  2
AmiMaster
  3
AmiServices
 90
        0
280
     0
281
     0
  0
CLASS
  1
ACMDATADICTIONARY
  2
AcmDataDictionary
  3
"AcmSymBB|Product Description: AutoCAD Mechanical 2004 DX|Company: Autodesk"
 90
        0
280
     0
281
     0
  0
CLASS
  1
ACMDATAENTRYBLOCK
  2
AcmDataEntryBlock
  3
"AcmSymBB|Product Description: AutoCAD Mechanical 2004 DX|Company: Autodesk"
 90
    32768
280
     0
281
     0
  0
CLASS
  1
ACIMSTRSYSVAR
  2
AcImStrSysVar
  3
AcMeServices
 90
        0
280
     0
281
     0
  0
CLASS
  1
ACMSTANDARDISO
  2
AcmStandardISO
  3
"Amdt_StdImp|Product Description: AutoCAD Mechanical 2004 DX|Company: Autodesk"
 90
        0
280
     0
281
     0
  0
CLASS
  1
AMGOBJPROPCFG
  2
AmgObjPropCfg
  3
"AmgLay|Product Description: AutoCAD Mechanical 2000|Company: Autodesk"
 90
        1
280
     0
281
     0
  0
CLASS
  1
AMDTEDGESTANDARDISO
  2
AmdtEdgeStdISO
  3
"Amdt_StdImp|Product Description: AutoCAD Mechanical 2004 DX|Company: Autodesk"
 90
    32768
280
     0
281
     0
  0
CLASS
  1
ACMSURFSTANDARDISO
  2
AcmSurfTextStdISO
  3
"Amdt_StdImp|Product Description: AutoCAD Mechanical 2004 DX|Company: Autodesk"
 90
        0
280
     0
281
     0
  0
CLASS
  1
ACMFCFSTANDARDISO
  2
AcmFCFStdISO
  3
"Amdt_StdImp|Product Description: AutoCAD Mechanical 2004 DX|Company: Autodesk"
 90
        0
280
     0
281
     0
  0
CLASS
  1
ACMWELDSTANDARDISO
  2
AcmWeldingStdISO
  3
"Amdt_StdImp|Product Description: AutoCAD Mechanical 2004 DX|Company: Autodesk"
 90
        0
280
     0
281
     0
  0
CLASS
  1
ACMIDSTANDARDISO
  2
AcmIdStdISO
  3
"Amdt_StdImp|Product Description: AutoCAD Mechanical 2004 DX|Company: Autodesk"
 90
        0
280
     0
281
     0
  0
CLASS
  1
ACMDATUMSTANDARDISO
  2
AcmDatumStdISO
  3
"Amdt_StdImp|Product Description: AutoCAD Mechanical 2004 DX|Company: Autodesk"
 90
        0
280
     0
281
     0
  0
CLASS
  1
ACMBOMSTANDARDISO
  2
AcmBOMStdISO
  3
"Amdt_StdImp|Product Description: AutoCAD Mechanical 2004 DX|Company: Autodesk"
 90
        0
280
     0
281
     0
  0
CLASS
  1
ACMDETAILSTANDARDISO
  2
AmdtDetailSymStdISO
  3
"Amdt_StdImp|Product Description: AutoCAD Mechanical 2004 DX|Company: Autodesk"
 90
        0
280
     0
281
     0
  0
CLASS
  1
ACMSECTIONSTANDARDISO
  2
AmdtSectionSymStdISO
  3
"Amdt_StdImp|Product Description: AutoCAD Mechanical 2004 DX|Company: Autodesk"
 90
        0
280
     0
281
     0
  0
CLASS
  1
ACMCENTERLINESTANDARDISO
  2
AmdtCenterLineStdISO
  3
"Amdt_StdImp|Product Description: AutoCAD Mechanical 2004 DX|Company: Autodesk"
 90
        0
280
     0
281
     0
  0
CLASS
  1
ACMNOTESTANDARDISO
  2
AmdtNoteStdISO
  3
"Amdt_StdImp|Product Description: AutoCAD Mechanical 2004 DX|Company: Autodesk"
 90
        0
280
     0
281
     0
  0
CLASS
  1
ACAMGLAYSTD
  2
AcAmgLayStd
  3
"AcAmgLayStd|Product Description: AutoCAD Mechanical 2000|Company: Autodesk"
 90
        0
280
     0
281
     0
  0
CLASS
  1
ACAMGDIMSTD
  2
AcAmgDimStd
  3
"AcAmgDimStd|Product Description: AutoCAD Mechanical 2000|Company: Autodesk"
 90
        0
280
     0
281
     0
  0
CLASS
  1
ACAMGHOLECHARTSTDISO
  2
AcAmgHoleChartStdISO
  3
ACMSYMBB_MODULE_NAME
 90
        0
280
     0
281
     0
  0
CLASS
  1
ACAMGTITLESTD
  2
AcAmgTitleStd
  3
"TITLEAPP"
 90
        0
280
     0
281
     0
  0
CLASS
  1
LAYER_INDEX
  2
AcDbLayerIndex
  3
ObjectDBX Classes
 90
        0
280
     0
281
     0
  0
CLASS
  1
IDBUFFER
  2
AcDbIdBuffer
  3
ObjectDBX Classes
 90
        0
280
     0
281
     0
  0
CLASS
  1
DICTIONARYVAR
  2
AcDbDictionaryVar
  3
ObjectDBX Classes
 90
        0
280
     0
281
     0
  0
CLASS
  1
AM_DRAWING_MGR
  2
AcDmDwgMgr
  3
AcMechDwgViewMgmt
 90
        0
280
     0
281
     0
  0
CLASS
  1
AM_DWG_DOCUMENT
  2
AcDmDwgDocument
  3
AcMechDwgViewMgmt
 90
        0
280
     0
281
     0
  0
CLASS
  1
AM_DWG_SHEET
  2
AcDmSheet
  3
AcMechDwgViewMgmt
 90
        0
280
     0
281
     0
  0
CLASS
  1
AM_VIEWDIMPARMAP
  2
AcDmViewDimParMap
  3
AcMechDwgViewMgmt
 90
        0
280
     0
281
     0
  0
CLASS
  1
AM_DWGMGR_NAME
  2
AcDmDwgMgrName
  3
AcMechDwgViewMgmt
 90
        0
280
     0
281
     0
  0
CLASS
  1
AMDTMENUSTATEMGR
  2
AmdtMenuStateMgr
  3
McadcomServices
 90
        0
280
     0
281
     0
  0
CLASS
  1
AMDTMCOMMENUSTATE
  2
AmdtMcomMenuState
  3
McadcomServices
 90
        0
280
     0
281
     0
  0
CLASS
  1
MAPIAMMOUDLE
  2
MApiAmModule
  3
MApiAmServices
 90
        0
280
     0
281
     0
  0
CLASS
  1
AMDTADMENUSTATE
  2
AmdtAdMenuState
  3
DesignerServices
 90
        0
280
     0
281
     0
  0
CLASS
  1
ADAPPL
  2
AcAdAppl
  3
DesignerServices
 90
        0
280
     0
281
     0
  0
CLASS
  1
DEPMGR
  2
AcAdDepMgr
  3
DesignerServices
 90
        0
280
     0
281
     0
  0
CLASS
  1
PARAMMGR
  2
AcAdParamMgr
  3
DesignerServices
 90
        0
280
     0
281
     0
  0
CLASS
  1
PARAMSCOPE
  2
AcAdParamScope
  3
DesignerServices
 90
        0
280
     0
281
     0
  0
CLASS
  1
NAMEDAPPL
  2
AcAdNamedAppl
  3
DesignerServices
 90
        0
280
     0
281
     0
  0
CLASS
  1
AMDTDMMENUSTATE
  2
AmdtDmMenuState
  3
AcMechDwgViewMgmt
 90
        0
280
     0
281
     0
  0
CLASS
  1
AMDTAMMENUSTATE
  2
AmdtAmMenuState
  3
DesignerAssemblies
 90
        0
280
     0
281
     0
  0
CLASS
  1
ACAMPROJECT
  2
AcAmProject
  3
DesignerAssemblies
 90
        0
280
     0
281
     0
  0
CLASS
  1
ACAMGRCOMPDEF
  2
AcAmGrCompDef
  3
DesignerAssemblies
 90
        0
280
     0
281
     0
  0
CLASS
  1
ACCMCONTEXT
  2
AcCmContext
  3
DesignerAssemblies
 90
        0
280
     0
281
     0
  0
CLASS
  1
ACAMCOMPDEF
  2
AcAmCompDef
  3
DesignerAssemblies
 90
        0
280
     0
281
     0
  0
CLASS
  1
ACAMCOMPDEFMGR
  2
AcAmCompDefMgr
  3
DesignerAssemblies
 90
        0
280
     0
281
     0
  0
CLASS
  1
AMCONTEXTMGR
  2
AcAmContextMgr
  3
DesignerAssemblies
 90
        0
280
     0
281
     0
  0
CLASS
  1
ACAMCONTEXTMODELER
  2
AcAmContextModeler
  3
DesignerAssemblies
 90
        0
280
     0
281
     0
  0
CLASS
  1
ACMTHREADLINESTANDARDISO
  2
AmdtThreadLineStdISO
  3
"Amdt_StdImp|Product Description: AutoCAD Mechanical 2004 DX|Company: Autodesk"
 90
        0
280
     0
281
     0
  0
CLASS
  1
CATALOGSTATE
  2
AcAmCatalogState
  3
DesignerAssemblies
 90
        0
280
     0
281
     0
  0
CLASS
  1
ACAMGRCOMPDEFSET
  2
AcAmGrCompDefSet
  3
DesignerAssemblies
 90
        0
280
     0
281
     0
  0
CLASS
  1
AMDTBROWSERDBTAB
  2
AmdtBrowserDbTab
  3
McadcomServices
 90
        0
280
     0
281
     0
  0
CLASS
  1
CBROWSERAPPOBJECT
  2
CBrowserAppObject
  3
McadcomServices
 90
        0
280
     0
281
     0
  0
CLASS
  1
DM_PLACEHOLDER
  2
AcDmSelsetPlaceholder
  3
AcMechDwgViewMgmt
 90
        0
280
     0
281
     0
  0
CLASS
  1
TABLESTYLE
  2
AcDbTableStyle
  3
ObjectDBX Classes
 90
     2047
280
     0
281
     0
  0
CLASS
  1
VAACXREFPANELOBJECT
  2
VaAcXREFPanelObject
  3
VAAC_ADDIN
 90
    32768
280
     0
281
     0
  0
CLASS
  1
VAACIMAGEINVENTORY
  2
VaAcImageInventory
  3
VAAC_ADDIN
 90
    32768
280
     0
281
     0
  0
CLASS
  1
AMDTNOTETEMPLATEDB
  2
AmdtNoteTemplateDB
  3
AMDT_STDIMP_MODULE_NAME
 90
        0
280
     0
281
     0
  0
CLASS
  1
ACMBOM
  2
AcmBom
  3
"AcmSymBB|Product Description: AutoCAD Mechanical 2004 DX|Company: Autodesk"
 90
    32768
280
     0
281
     0
  0
CLASS
  1
AMDTFORMULAUPDATEDISPATCHER
  2
AmdtFormulaUpdateDispatcher
  3
AcMeServices
 90
    32768
280
     0
281
     0
  0
CLASS
  1
ACMPARTLIST
  2
AcmPartList
  3
"AcmSymBB|Product Description: AutoCAD Mechanical 2004 DX|Company: Autodesk"
 90
    33791
280
     0
281
     1
  0
CLASS
  1
ACAMGFILTERDAT
  2
AcAmgFilterDat
  3
"AcadM|Product Description: AutoCAD Mechanical 2000|Company: Autodesk"
 90
    32768
280
     0
281
     0
  0
CLASS
  1
DIMASSOC
  2
AcDbDimAssoc
  3
"AcDbDimAssoc|Product Desc:     AcDim ARX App For Dimension|Company:          Autodesk, Inc.|WEB Address:      www.autodesk.com"
 90
        0
280
     0
281
     0
  0
CLASS
  1
SORTENTSTABLE
  2
AcDbSortentsTable
  3
ObjectDBX Classes
 90
        0
280
     0
281
     0
  0
CLASS
  1
AMDTNOTE
  2
AmdtNote
  3
"AcmSymBB|Product Description: AutoCAD Mechanical 2004 DX|Company: Autodesk"
 90
    33791
280
     0
281
     1
  0
CLASS
  1
ACMSTANDARDANSI
  2
AcmStandardANSI
  3
"Amdt_StdImp|Product Description: AutoCAD Mechanical 2004 DX|Company: Autodesk"
 90
    32768
280
     0
281
     0
  0
CLASS
  1
ACMSURFSTANDARDANSI
  2
AcmSurfTextStdANSI
  3
"Amdt_StdImp|Product Description: AutoCAD Mechanical 2004 DX|Company: Autodesk"
 90
    32768
280
     0
281
     0
  0
CLASS
  1
ACMFCFSTANDARDANSI
  2
AcmFCFStdANSI
  3
"Amdt_StdImp|Product Description: AutoCAD Mechanical 2004 DX|Company: Autodesk"
 90
    32768
280
     0
281
     0
  0
CLASS
  1
ACMWELDSTANDARDANSI
  2
AcmWeldingStdANSI
  3
"Amdt_StdImp|Product Description: AutoCAD Mechanical 2004 DX|Company: Autodesk"
 90
    32768
280
     0
281
     0
  0
CLASS
  1
ACMIDSTANDARDANSI
  2
AcmIdStdANSI
  3
"Amdt_StdImp|Product Description: AutoCAD Mechanical 2004 DX|Company: Autodesk"
 90
    32768
280
     0
281
     0
  0
CLASS
  1
ACMDATUMSTANDARDANSI
  2
AcmDatumStdANSI
  3
"Amdt_StdImp|Product Description: AutoCAD Mechanical 2004 DX|Company: Autodesk"
 90
    32768
280
     0
281
     0
  0
CLASS
  1
ACMBOMSTANDARDANSI
  2
AcmBOMStdANSI
  3
"Amdt_StdImp|Product Description: AutoCAD Mechanical 2004 DX|Company: Autodesk"
 90
    32768
280
     0
281
     0
  0
CLASS
  1
ACMDETAILSTANDARDANSI
  2
AmdtDetailSymStdANSI
  3
"Amdt_StdImp|Product Description: AutoCAD Mechanical 2004 DX|Company: Autodesk"
 90
    32768
280
     0
281
     0
  0
CLASS
  1
ACMSECTIONSTANDARDANSI
  2
AmdtSectionSymStdANSI
  3
"Amdt_StdImp|Product Description: AutoCAD Mechanical 2004 DX|Company: Autodesk"
 90
    32768
280
     0
281
     0
  0
CLASS
  1
ACMCENTERLINESTANDARDANSI
  2
AmdtCenterLineStdANSI
  3
"Amdt_StdImp|Product Description: AutoCAD Mechanical 2004 DX|Company: Autodesk"
 90
    32768
280
     0
281
     0
  0
CLASS
  1
ACMTHREADLINESTANDARDANSI
  2
AmdtThreadLineStdANSI
  3
"Amdt_StdImp|Product Description: AutoCAD Mechanical 2004 DX|Company: Autodesk"
 90
    32768
280
     0
281
     0
  0
CLASS
  1
ACMNOTESTANDARDANSI
  2
AmdtNoteStdANSI
  3
"Amdt_StdImp|Product Description: AutoCAD Mechanical 2004 DX|Company: Autodesk"
 90
    32768
280
     0
281
     0
  0
CLASS
  1
ACAMGHOLECHARTSTDANSI
  2
AcAmgHoleChartStdANSI
  3
ACMSYMBB_MODULE_NAME
 90
    32768
280
     0
281
     0
  0
CLASS
  1
STDPART2D
  2
AmgStdPart
  3
"AmgStdPart|Product Description: AutoCAD Mechanical 2000|Company: Autodesk"
 90
    33791
280
     0
281
     1
  0
CLASS
  1
ACAMSTDPCOMPDEF
  2
AcAmStdpCompDef
  3
DesignerAssemblies
 90
    32768
280
     0
281
     0
  0
CLASS
  1
ACRFATTGENMGR
  2
AcRfAttGeneralMgr
  3
AcAttribServices
 90
    32768
280
     0
281
     0
  0
CLASS
  1
ACRFOBJATTMGR
  2
AcRfObjAttGroupMgr
  3
AcAttribServices
 90
    32768
280
     0
281
     0
  0
CLASS
  1
ACRFMCADAPIATTHOLDER
  2
AcRfMCADAPIAttHolder
  3
AcAttribServices
 90
    32768
280
     0
281
     0
  0
CLASS
  1
AMDTSYSATTR
  2
AmdtSystemAttribute
  3
AcAttribServices
 90
    32768
280
     0
281
     0
  0
CLASS
  1
ACAMCOMP
  2
AcAmComp
  3
DesignerAssemblies
 90
    32768
280
     0
281
     0
  0
CLASS
  1
AC_AM_STDP_VIEW_DEF
  2
AcAmStdpViewDef
  3
DesignerAssemblies
 90
    32768
280
     0
281
     0
  0
CLASS
  1
AC_AM_MVD_DEP_MGR
  2
AcAmMVDdepMgr
  3
DesignerAssemblies
 90
    32768
280
     0
281
     0
  0
CLASS
  1
AC_AM_MASTER_VIEW_DEF
  2
AcAmMasterViewDef
  3
DesignerAssemblies
 90
    32768
280
     0
281
     0
  0
CLASS
  1
AC_AM_DIRTY_NODES
  2
AcAmDirtyNodes
  3
DesignerAssemblies
 90
    32768
280
     0
281
     0
  0
CLASS
  1
AC_AM_MAPPER_CACHE
  2
AcAmMapperCache
  3
DesignerAssemblies
 90
    32768
280
     0
281
     0
  0
CLASS
  1
ACAMMVDBACKUPOBJECT
  2
AcAmMVDBackupObject
  3
DesignerAssemblies
 90
    32768
280
     0
281
     0
  0
CLASS
  1
AC_AM_COMP_VIEW_INST
  2
AcAmCompView
  3
DesignerAssemblies
 90
    32768
280
     0
281
     0
  0
CLASS
  1
AC_AM_2D_XREF_MGR
  2
AcAmXrefMgr2d
  3
DesignerAssemblies
 90
    32768
280
     0
281
     0
  0
CLASS
  1
ASAPP
  2
AcAsAppObject
  3
AutoSurfServices
 90
        0
280
     0
281
     0
  0
CLASS
  1
IM_STATIC_MAN
  2
AcImStaticVarManager
  3
AcMeServices
 90
    32768
280
     0
281
     0
  0
CLASS
  1
ACIMDBLSTATICVAR
  2
AcImDblStaticVar
  3
AcMeServices
 90
    32768
280
     0
281
     0
  0
CLASS
  1
ACIMSTRSTATICVAR
  2
AcImStrStaticVar
  3
AcMeServices
 90
    32768
280
     0
281
     0
  0
CLASS
  1
ACIMINTSTATICVAR
  2
AcImIntStaticVar
  3
AcMeServices
 90
    32768
280
     0
281
     0
  0
CLASS
  1
ACASGREFMASTER
  2
AcAsGrefMaster
  3
AutoSurfResolverServices
 90
        0
280
     0
281
     0
  0
CLASS
  1
ACADGREFMODULE
  2
AcAdGrefModule
  3
AdGrefServices
 90
        0
280
     0
281
     0
  0
CLASS
  1
AMDTMAPISURFMOUDULE
  2
AmdtMApiSurfModule
  3
MApiSurfServices
 90
        0
280
     0
281
     0
  0
CLASS
  1
MAPIADMODULE
  2
MApiAdModule
  3
MApiAdServices
 90
        0
280
     0
281
     0
  0
CLASS
  1
AMDTEDGESTANDARDISO13715
  2
AmdtEdgeStdISO13715
  3
"Amdt_StdImp|Product Description: AutoCAD Mechanical 2004 DX|Company: Autodesk"
 90
        0
280
     0
281
     0
  0
ENDSEC
  0
SECTION
  2
TABLES
  0
TABLE
  2
VPORT
  5
8
330
0
100
AcDbSymbolTable
 70
     3
  0
VPORT
  5
3CD6
330
8
100
AcDbSymbolTableRecord
100
AcDbViewportTableRecord
  2
*Active
 70
     0
 10
0.0
 20
0.0
 11
1.0
 21
1.0
 12
9.895105428862279
 22
-92.79628239202907
 13
0.0
 23
0.0
 14
2.5
 24
2.5
 15
10.0
 25
10.0
 16
0.0
 26
0.0
 36
1.0
 17
2562.542408610106
 27
1119.808315656112
 37
0.0
 40
586.3772844259038
 41
0.9691629955947137
 42
50.0
 43
0.0
 44
0.0
 50
0.0
 51
0.0
 71
     0
 72
   100
 73
     1
 74
     3
 75
     0
 76
     0
 77
     0
 78
     0
281
     0
 65
     0
110
0.0
120
0.0
130
0.0
111
1.0
121
0.0
131
0.0
112
0.0
122
1.0
132
0.0
 79
     0
146
0.0
  0
ENDTAB
  0
TABLE
  2
LTYPE
  5
5
330
0
100
AcDbSymbolTable
 70
    19
  0
LTYPE
  5
14
330
5
100
AcDbSymbolTableRecord
100
AcDbLinetypeTableRecord
  2
ByBlock
 70
     0
  3

 72
    65
 73
     0
 40
0.0
  0
LTYPE
  5
15
330
5
100
AcDbSymbolTableRecord
100
AcDbLinetypeTableRecord
  2
ByLayer
 70
     0
  3

 72
    65
 73
     0
 40
0.0
  0
LTYPE
  5
16
330
5
100
AcDbSymbolTableRecord
100
AcDbLinetypeTableRecord
  2
Continuous
 70
     0
  3
Solid line
 72
    65
 73
     0
 40
0.0
  0
LTYPE
  5
64
330
5
100
AcDbSymbolTableRecord
100
AcDbLinetypeTableRecord
  2
AM_ISO02W050
 70
     0
  3
__ __ __ __ __ __ __ __ __ __ __ __ __ __ __
 72
    65
 73
     2
 40
7.5
 49
6.0
 74
     0
 49
-1.5
 74
     0
  0
LTYPE
  5
65
330
5
100
AcDbSymbolTableRecord
100
AcDbLinetypeTableRecord
  2
AM_ISO08W050
 70
     0
  3
____ . ____ . ____ . ____ . ____ . ____ . ____
 72
    65
 73
     4
 40
18.0
 49
12.0
 74
     0
 49
-1.5
 74
     0
 49
3.0
 74
     0
 49
-1.5
 74
     0
  0
LTYPE
  5
66
330
5
100
AcDbSymbolTableRecord
100
AcDbLinetypeTableRecord
  2
AM_ISO09W050
 70
     0
  3
_____ . . _____ . . _____ . . ____ .. ____
 72
    65
 73
     6
 40
22.5
 49
12.0
 74
     0
 49
-1.5
 74
     0
 49
3.0
 74
     0
 49
-1.5
 74
     0
 49
3.0
 74
     0
 49
-1.5
 74
     0
  0
LTYPE
  5
67
330
5
100
AcDbSymbolTableRecord
100
AcDbLinetypeTableRecord
  2
Amconstr
 70
     0
  3
_______________________
 72
    65
 73
     2
 40
9999.0
 49
9999.0
 74
     0
 49
0.0
 74
     0
  0
LTYPE
  5
68
330
5
100
AcDbSymbolTableRecord
100
AcDbLinetypeTableRecord
  2
AM_ISO08W050x2
 70
     0
  3
__ . __ . __ . __ . __ . __
 72
    65
 73
     4
 40
9.0
 49
6.0
 74
     0
 49
-0.75
 74
     0
 49
1.5
 74
     0
 49
-0.75
 74
     0
  0
LTYPE
  5
69
330
5
100
AcDbSymbolTableRecord
100
AcDbLinetypeTableRecord
  2
AM_ISO02W050x2
 70
     0
  3
 _ _ _ _ _ _ _ _ _ _ _ _
 72
    65
 73
     2
 40
3.75
 49
3.0
 74
     0
 49
-0.75
 74
     0
  0
LTYPE
  5
6C
330
5
100
AcDbSymbolTableRecord
100
AcDbLinetypeTableRecord
  2
Amzigzag
 70
     0
  3
/\/-/\/-/\/-/\/-/\/-/\/
 72
    65
 73
     2
 40
11.0001
 49
0.0001
 74
     4
 75
   135
340
6B
 46
0.04
 50
0.0
 44
0.0
 45
0.0
 49
-11.0
 74
     0
  0
LTYPE
  5
7A
330
5
100
AcDbSymbolTableRecord
100
AcDbLinetypeTableRecord
  2
ACISOWELD
 70
     0
  3
_ _ _ _ _
 72
    65
 73
     2
 40
2.0
 49
2.0
 74
     0
 49
-1.0
 74
     0
  0
LTYPE
  5
7B
330
5
100
AcDbSymbolTableRecord
100
AcDbLinetypeTableRecord
  2
ACISOTGB
 70
     0
  3
__ . . __ . .
 72
    65
 73
     6
 40
9.0
 49
4.0
 74
     0
 49
-1.0
 74
     0
 49
1.0
 74
     0
 49
-1.0
 74
     0
 49
1.0
 74
     0
 49
-1.0
 74
     0
  0
LTYPE
  5
7C
330
5
100
AcDbSymbolTableRecord
100
AcDbLinetypeTableRecord
  2
ACISOTGL
 70
     0
  3
_ _ _ _ _
 72
    65
 73
     2
 40
3.0
 49
2.0
 74
     0
 49
-1.0
 74
     0
  0
LTYPE
  5
7E
330
5
100
AcDbSymbolTableRecord
100
AcDbLinetypeTableRecord
  2
CENTER
 70
     0
  3
__ . __
 72
    65
 73
     4
 40
7.0
 49
4.0
 74
     0
 49
-1.0
 74
     0
 49
1.0
 74
     0
 49
-1.0
 74
     0
  0
LTYPE
  5
D8
330
5
100
AcDbSymbolTableRecord
100
AcDbLinetypeTableRecord
  2
HIDDEN
 70
     0
  3
Hidden __ __ __ __ __ __ __ __ __ __ __ __ __ _
 72
    65
 73
     2
 40
9.524999999999998
 49
6.349999999999999
 74
     0
 49
-3.174999999999999
 74
     0
  0
LTYPE
  5
D9
330
5
100
AcDbSymbolTableRecord
100
AcDbLinetypeTableRecord
  2
PHANTOM2
 70
     0
  3
Phantom (.5x) ___ _ _ ___ _ _ ___ _ _ ___ _ _
 72
    65
 73
     6
 40
31.75
 49
15.875
 74
     0
 49
-3.174999999999999
 74
     0
 49
3.174999999999999
 74
     0
 49
-3.174999999999999
 74
     0
 49
3.174999999999999
 74
     0
 49
-3.174999999999999
 74
     0
  0
LTYPE
  5
F85
330
5
100
AcDbSymbolTableRecord
100
AcDbLinetypeTableRecord
  2
ACANSTGB
 70
     0
  3
__ . . __ . .
 72
    65
 73
     6
 40
0.35433070866
 49
0.15748031496
 74
     0
 49
-0.03937007874
 74
     0
 49
0.03937007874
 74
     0
 49
-0.03937007874
 74
     0
 49
0.03937007874
 74
     0
 49
-0.03937007874
 74
     0
  0
LTYPE
  5
F86
330
5
100
AcDbSymbolTableRecord
100
AcDbLinetypeTableRecord
  2
ACANSTGL
 70
     0
  3
_ _ _ _ _
 72
    65
 73
     2
 40
0.11811023622
 49
0.07874015748
 74
     0
 49
-0.03937007874
 74
     0
  0
LTYPE
  5
22C5
330
5
100
AcDbSymbolTableRecord
100
AcDbLinetypeTableRecord
  2
HIDDEN2
 70
     0
  3
Hidden (.5x) _ _ _ _ _ _ _ _ _ _ _ _ _ _ _ _ _
 72
    65
 73
     2
 40
0.1875
 49
0.125
 74
     0
 49
-0.0625
 74
     0
  0
LTYPE
  5
3003
330
5
100
AcDbSymbolTableRecord
100
AcDbLinetypeTableRecord
  2
ASULTYPE
 70
     0
  3
實線
 72
    65
 73
     2
 40
3.0
 49
2.5
 74
     0
 49
0.5
 74
     0
  0
LTYPE
  5
3004
330
5
100
AcDbSymbolTableRecord
100
AcDbLinetypeTableRecord
  2
ASVLTYPE
 70
     0
  3
__ __ __ __ __ __ __ __ __ __ __ __ __ __ __ __ __ __ __ __ __
 72
    65
 73
     2
 40
0.75
 49
0.5
 74
     0
 49
-0.25
 74
     0
  0
ENDTAB
  0
TABLE
  2
LAYER
  5
2
102
{ACAD_XDICTIONARY
360
3F9
102
}
330
0
100
AcDbSymbolTable
 70
    12
  0
LAYER
  5
10
330
2
100
AcDbSymbolTableRecord
100
AcDbLayerTableRecord
  2
0
 70
     0
 62
     7
  6
Continuous
370
    -3
390
F
  0
LAYER
  5
206
330
2
100
AcDbSymbolTableRecord
100
AcDbLayerTableRecord
  2
Defpoints
 70
     0
 62
     7
  6
Continuous
290
     0
370
    -3
390
F
  0
LAYER
  5
5AE
330
2
100
AcDbSymbolTableRecord
100
AcDbLayerTableRecord
  2
AM_7
 70
     0
 62
     1
  6
CENTER
370
    25
390
F
  0
LAYER
  5
71A
330
2
100
AcDbSymbolTableRecord
100
AcDbLayerTableRecord
  2
LOGO
 70
     0
 62
     7
  6
Continuous
370
    -3
390
F
  0
LAYER
  5
84F
330
2
100
AcDbSymbolTableRecord
100
AcDbLayerTableRecord
  2
AM_VIS
 70
     0
 62
     7
  6
Continuous
370
    50
390
F
  0
LAYER
  5
850
330
2
100
AcDbSymbolTableRecord
100
AcDbLayerTableRecord
  2
AM_4
 70
     0
 62
     3
  6
Continuous
370
    25
390
F
  0
LAYER
  5
851
330
2
100
AcDbSymbolTableRecord
100
AcDbLayerTableRecord
  2
AM_0
 70
     0
 62
     7
  6
Continuous
370
    50
390
F
  0
LAYER
  5
B99
330
2
100
AcDbSymbolTableRecord
100
AcDbLayerTableRecord
  2
AM_5
 70
     0
 62
     5
  6
Continuous
370
    50
390
F
  0
LAYER
  5
38F8
330
2
100
AcDbSymbolTableRecord
100
AcDbLayerTableRecord
  2
AM_HID
 70
     0
 62
     7
  6
AM_ISO02W050x2
370
    25
390
F
  0
LAYER
  5
38F9
330
2
100
AcDbSymbolTableRecord
100
AcDbLayerTableRecord
  2
AM_PARDIM
 70
     0
 62
     3
  6
Continuous
370
    25
390
F
  0
LAYER
  5
38FA
330
2
100
AcDbSymbolTableRecord
100
AcDbLayerTableRecord
  2
AM_REFDIM
 70
     0
 62
     4
  6
Continuous
370
    25
390
F
  0
LAYER
  5
38FB
330
2
100
AcDbSymbolTableRecord
100
AcDbLayerTableRecord
  2
BORDER
 70
     0
 62
     7
  6
Continuous
370
    -3
390
F
  0
ENDTAB
  0
TABLE
  2
STYLE
  5
3
330
0
100
AcDbSymbolTable
 70
     8
  0
STYLE
  5
11
330
3
100
AcDbSymbolTableRecord
100
AcDbTextStyleTableRecord
  2
STANDARD
 70
     0
 40
0.0
 41
1.0
 50
0.0
 71
     0
 42
3.0
  3
ISOCP.SHX
  4
CHINESET.SHX
  0
STYLE
  5
6B
330
3
100
AcDbSymbolTableRecord
100
AcDbTextStyleTableRecord
  2

 70
     1
 40
0.0
 41
1.0
 50
0.0
 71
     0
 42
2.5
  3
ltypeshp.shx
  4

  0
STYLE
  5
6D
330
3
100
AcDbSymbolTableRecord
100
AcDbTextStyleTableRecord
  2
ACISOTS
 70
     0
 40
1.0
 41
1.0
 50
0.0
 71
     0
 42
1.0
  3
isocp.shx
  4
chineset.shx
  0
STYLE
  5
79
330
3
100
AcDbSymbolTableRecord
100
AcDbTextStyleTableRecord
  2
ACISOGDT
 70
     0
 40
0.0
 41
1.0
 50
0.0
 71
     0
 42
2.5
  3
amgdt.shx
  4
chineset.shx
  0
STYLE
  5
60C
330
3
100
AcDbSymbolTableRecord
100
AcDbTextStyleTableRecord
  2
CHINESET
 70
     0
 40
0.0
 41
1.0
 50
0.0
 71
     0
 42
3.0
  3
simplex.shx
  4
CHINESET.SHX
  0
STYLE
  5
F87
330
3
100
AcDbSymbolTableRecord
100
AcDbTextStyleTableRecord
  2
ACANSTS
 70
     0
 40
1.0
 41
1.0
 50
0.0
 71
     0
 42
5.0
  3
romans.shx
  4
chineset.shx
  0
STYLE
  5
F88
330
3
100
AcDbSymbolTableRecord
100
AcDbTextStyleTableRecord
  2
ACANSGDT
 70
     0
 40
0.0
 41
1.0
 50
0.0
 71
     0
 42
5.0
  3
amgdtans.shx
  4

  0
STYLE
  5
38FC
330
3
100
AcDbSymbolTableRecord
100
AcDbTextStyleTableRecord
  2
dayus
 70
     0
 40
0.0
 41
1.0
 50
0.0
 71
     0
 42
2.5
  3
simplex.shx
  4
dayus.shx
  0
ENDTAB
  0
TABLE
  2
VIEW
  5
6
330
0
100
AcDbSymbolTable
 70
     0
  0
ENDTAB
  0
TABLE
  2
UCS
  5
7
330
0
100
AcDbSymbolTable
 70
     0
  0
ENDTAB
  0
TABLE
  2
APPID
  5
9
330
0
100
AcDbSymbolTable
 70
    32
  0
APPID
  5
12
330
9
100
AcDbSymbolTableRecord
100
AcDbRegAppTableRecord
  2
ACAD
 70
     0
  0
APPID
  5
46
330
9
100
AcDbSymbolTableRecord
100
AcDbRegAppTableRecord
  2
MCAD_NO_VIS
 70
     0
  0
APPID
  5
47
330
9
100
AcDbSymbolTableRecord
100
AcDbRegAppTableRecord
  2
ACAD_TEMP_GRAPHIC
 70
     0
  0
APPID
  5
58
330
9
100
AcDbSymbolTableRecord
100
AcDbRegAppTableRecord
  2
ACATTRIBSERVICES
 70
     0
  0
APPID
  5
EE
330
9
100
AcDbSymbolTableRecord
100
AcDbRegAppTableRecord
  2
AD_DRAW
 70
     0
  0
APPID
  5
10C
330
9
100
AcDbSymbolTableRecord
100
AcDbRegAppTableRecord
  2
DESIGNERASSEMBLIES
 70
     0
  0
APPID
  5
111
330
9
100
AcDbSymbolTableRecord
100
AcDbRegAppTableRecord
  2
ACADM_DIM_EDIT
 70
     0
  0
APPID
  5
112
330
9
100
AcDbSymbolTableRecord
100
AcDbRegAppTableRecord
  2
AMDT_DM_ADJ
 70
     0
  0
APPID
  5
22C
330
9
100
AcDbSymbolTableRecord
100
AcDbRegAppTableRecord
  2
ACAD_DSTYLE_DIMTEXT_FILL
 70
     0
  0
APPID
  5
452
330
9
100
AcDbSymbolTableRecord
100
AcDbRegAppTableRecord
  2
GENIUS_GENOENT_13
 70
     0
  0
APPID
  5
453
330
9
100
AcDbSymbolTableRecord
100
AcDbRegAppTableRecord
  2
GENIUS_GENOBJ-N-CRS_13
 70
     0
  0
APPID
  5
454
330
9
100
AcDbSymbolTableRecord
100
AcDbRegAppTableRecord
  2
GENIUS_GENOLIS_13
 70
     0
  0
APPID
  5
455
330
9
100
AcDbSymbolTableRecord
100
AcDbRegAppTableRecord
  2
GENIUS_GENODEF_13
 70
     0
  0
APPID
  5
456
330
9
100
AcDbSymbolTableRecord
100
AcDbRegAppTableRecord
  2
GENIUS_GENOREF_13
 70
     0
  0
APPID
  5
6F3
330
9
100
AcDbSymbolTableRecord
100
AcDbRegAppTableRecord
  2
ACAD_PSEXT
 70
     0
  0
APPID
  5
71B
330
9
100
AcDbSymbolTableRecord
100
AcDbRegAppTableRecord
  2
GENIUS_GENREC_14
 70
     0
  0
APPID
  5
71C
330
9
100
AcDbSymbolTableRecord
100
AcDbRegAppTableRecord
  2
GENIUS_GENOBJ-N-REC_13
 70
     0
  0
APPID
  5
12C9
330
9
100
AcDbSymbolTableRecord
100
AcDbRegAppTableRecord
  2
GEVID1123030070
 70
     0
  0
APPID
  5
12CA
330
9
100
AcDbSymbolTableRecord
100
AcDbRegAppTableRecord
  2
GEVDC
 70
     0
  0
APPID
  5
12CB
330
9
100
AcDbSymbolTableRecord
100
AcDbRegAppTableRecord
  2
GEVRADREF
 70
     0
  0
APPID
  5
12D4
330
9
100
AcDbSymbolTableRecord
100
AcDbRegAppTableRecord
  2
AMG_2DHIDE
 70
     0
  0
APPID
  5
12D5
330
9
100
AcDbSymbolTableRecord
100
AcDbRegAppTableRecord
  2
AMG_2DSTRUCT_BTR
 70
     0
  0
APPID
  5
12E6
330
9
100
AcDbSymbolTableRecord
100
AcDbRegAppTableRecord
  2
ACADM_2DVIEW_IGN_NOTIFY
 70
     0
  0
APPID
  5
1345
330
9
100
AcDbSymbolTableRecord
100
AcDbRegAppTableRecord
  2
GENIUS_GENOBJ-N-CEN_13
 70
     0
  0
APPID
  5
1346
330
9
100
AcDbSymbolTableRecord
100
AcDbRegAppTableRecord
  2
GENIUS_GENCEN_19
 70
     0
  0
APPID
  5
1759
330
9
100
AcDbSymbolTableRecord
100
AcDbRegAppTableRecord
  2
GENIUS_GENDTOL_13
 70
     0
  0
APPID
  5
1CDA
330
9
100
AcDbSymbolTableRecord
100
AcDbRegAppTableRecord
  2
GEVID1123206672
 70
     0
  0
APPID
  5
2F84
330
9
100
AcDbSymbolTableRecord
100
AcDbRegAppTableRecord
  2
GENIUS_GENDIM_13
 70
     0
  0
APPID
  5
2F85
330
9
100
AcDbSymbolTableRecord
100
AcDbRegAppTableRecord
  2
GENIUS_GE3DTOL_13
 70
     0
  0
APPID
  5
3005
330
9
100
AcDbSymbolTableRecord
100
AcDbRegAppTableRecord
  2
ASURF_PCURVE_APPNAME
 70
     0
  0
APPID
  5
300A
330
9
100
AcDbSymbolTableRecord
100
AcDbRegAppTableRecord
  2
AMG_3D2D_5.0
 70
     0
  0
APPID
  5
38FF
330
9
100
AcDbSymbolTableRecord
100
AcDbRegAppTableRecord
  2
AD_SKETCHDIM
 70
     0
  0
ENDTAB
  0
TABLE
  2
DIMSTYLE
  5
A
330
0
100
AcDbSymbolTable
 70
    16
100
AcDbDimStyleTable
 71
     3
340
81
340
8B
340
86
  0
DIMSTYLE
105
81
330
A
100
AcDbSymbolTableRecord
100
AcDbDimStyleTableRecord
  2
AM_ISO
 70
     0
  4
"
 41
3.0
 42
1.0
 43
8.0
 44
1.5
 47
0.1
 48
0.1
 73
     0
 74
     0
 77
     1
 78
     8
 79
     2
140
3.0
141
0.0
143
0.0393701
146
0.71
147
1.0
172
     1
176
   256
177
   256
178
   256
271
     2
272
     2
283
     0
284
     8
340
11
371
    -1
372
    -1
  0
DIMSTYLE
105
82
102
{ACAD_REACTORS
330
2D6C
102
}
330
A
100
AcDbSymbolTableRecord
100
AcDbDimStyleTableRecord
  2
AM_ISO$3
 70
     0
  4
"
 41
3.0
 42
1.0
 43
8.0
 44
1.5
 47
0.1
 48
0.1
 73
     0
 77
     1
 78
     8
 79
     2
140
3.0
141
0.0
143
0.0393701
146
0.71
147
1.0
176
   256
177
   256
178
   256
271
     2
272
     2
283
     0
284
     8
288
     1
289
     0
340
11
371
    -1
372
    -1
  0
DIMSTYLE
105
83
330
A
100
AcDbSymbolTableRecord
100
AcDbDimStyleTableRecord
  2
AM_ISO$4
 70
     0
  4
"
 41
3.0
 42
1.0
 43
8.0
 44
1.5
 47
0.1
 48
0.1
 73
     0
 77
     1
 78
     8
 79
     2
140
3.0
141
0.0
143
0.0393701
146
0.71
147
1.0
176
   256
177
   256
178
   256
271
     2
272
     2
283
     0
284
     8
288
     1
289
     0
340
11
371
    -1
372
    -1
  0
DIMSTYLE
105
84
330
A
100
AcDbSymbolTableRecord
100
AcDbDimStyleTableRecord
  2
AM_ISO$6
 70
     0
  4
"
 41
3.0
 42
1.0
 43
8.0
 44
1.5
 47
0.1
 48
0.1
 73
     0
 74
     0
 78
     8
 79
     2
140
3.0
141
0.0
143
0.0393701
146
0.71
147
1.0
172
     1
176
   256
177
   256
178
   256
271
     2
272
     2
283
     0
284
     8
340
11
371
    -1
372
    -1
  0
DIMSTYLE
105
85
330
A
100
AcDbSymbolTableRecord
100
AcDbDimStyleTableRecord
  2
AM_ISO$7
 70
     0
  4
"
 41
3.0
 42
1.0
 43
8.0
 44
1.5
 47
0.1
 48
0.1
 73
     0
 74
     0
 77
     1
 78
     8
 79
     2
140
5.0
141
0.0
143
0.0393701
146
0.71
147
1.0
172
     1
176
   256
177
   256
178
   256
271
     2
272
     2
283
     0
284
     8
340
11
371
    -1
372
    -1
  0
DIMSTYLE
105
86
330
A
100
AcDbSymbolTableRecord
100
AcDbDimStyleTableRecord
  2
AM_ISO$SF
 70
     0
  4
"
 41
2.5
 42
1.0
 43
10.0
 44
1.0
 47
0.1
 48
0.1
 73
     0
 74
     0
 75
     1
 76
     1
 77
     1
 78
     8
 79
     2
140
3.5
141
0.0
143
0.0393701
146
0.71
147
1.5
172
     1
176
   256
177
   256
178
     2
271
     2
272
     3
274
     4
283
     0
284
     8
340
11
371
    -1
372
    -1
  0
DIMSTYLE
105
8B
330
A
100
AcDbSymbolTableRecord
100
AcDbDimStyleTableRecord
  2
AM_ISO$SH
 70
     0
  4
"
 41
2.5
 42
1.0
 43
10.0
 44
1.0
 47
0.1
 48
0.1
 73
     0
 74
     0
 75
     1
 76
     1
 77
     1
 78
     8
 79
     2
140
3.5
141
0.0
143
0.0393701
144
2.0
146
0.71
147
1.5
172
     1
173
     1
176
   256
177
   256
178
     2
271
     2
272
     3
274
     4
283
     0
284
     8
340
11
343
87
371
    -1
372
    -1
  0
DIMSTYLE
105
40B
102
{ACAD_REACTORS
330
2D03
330
2D46
102
}
330
A
100
AcDbSymbolTableRecord
100
AcDbDimStyleTableRecord
  2
AM_ISO$0
 70
     0
  4
"
 41
3.0
 42
1.0
 43
8.0
 44
1.5
 47
0.1
 48
0.1
 73
     0
 74
     0
 77
     1
 78
     8
 79
     2
140
3.0
141
0.0
143
0.0393701
146
0.71
147
1.0
172
     1
176
   256
177
   256
178
   256
271
     2
272
     2
283
     0
284
     8
340
11
371
    -1
372
    -1
  0
DIMSTYLE
105
F89
330
A
100
AcDbSymbolTableRecord
100
AcDbDimStyleTableRecord
  2
AM_ANSI
 70
     0
  4
mm
 41
0.1
 42
0.05
 43
0.5
 44
0.1
 47
0.1
 48
0.1
 78
     7
 79
     2
140
0.12
141
0.0
146
0.71
147
0.06
176
   256
177
   256
178
     2
274
     4
284
     7
340
11
371
    -1
372
    -1
  0
DIMSTYLE
105
F8A
330
A
100
AcDbSymbolTableRecord
100
AcDbDimStyleTableRecord
  2
AM_ANSI$3
 70
     0
  4
mm
 41
0.1
 42
0.05
 43
0.5
 44
0.1
 47
0.1
 48
0.1
 78
     7
 79
     2
140
0.12
141
0.0
146
0.71
147
0.06
176
   256
177
   256
178
     2
274
     4
284
     7
288
     1
289
     0
340
11
371
    -1
372
    -1
  0
DIMSTYLE
105
F8B
330
A
100
AcDbSymbolTableRecord
100
AcDbDimStyleTableRecord
  2
AM_ANSI$4
 70
     0
  4
mm
 41
0.1
 42
0.05
 43
0.5
 44
0.1
 47
0.1
 48
0.1
 78
     7
 79
     2
140
0.12
141
0.0
146
0.71
147
0.06
176
   256
177
   256
178
     2
274
     4
284
     7
288
     1
289
     0
340
11
371
    -1
372
    -1
  0
DIMSTYLE
105
F8C
330
A
100
AcDbSymbolTableRecord
100
AcDbDimStyleTableRecord
  2
AM_ANSI$7
 70
     0
  4
mm
 41
0.1
 42
0.05
 43
0.5
 44
0.1
 47
0.1
 48
0.1
 78
     7
 79
     2
140
0.24
141
0.0
146
0.71
147
0.06
176
   256
177
   256
178
     2
274
     4
284
     7
340
11
371
    -1
372
    -1
  0
DIMSTYLE
105
F8D
330
A
100
AcDbSymbolTableRecord
100
AcDbDimStyleTableRecord
  2
AM_ANSI$SF
 70
     0
  4
mm
 41
0.1
 42
0.05
 43
0.5
 44
0.1
 47
0.1
 48
0.1
 75
     1
 76
     1
 78
     7
 79
     2
140
0.12
141
0.0
146
0.71
147
0.06
176
   256
177
   256
178
     2
274
     4
284
     7
340
11
371
    -1
372
    -1
  0
DIMSTYLE
105
F8E
330
A
100
AcDbSymbolTableRecord
100
AcDbDimStyleTableRecord
  2
AM_ANSI$SH
 70
     0
  4
mm
 41
0.1
 42
0.05
 43
0.5
 44
0.1
 47
0.1
 48
0.1
 75
     1
 76
     1
 78
     7
 79
     2
140
0.12
141
0.0
146
0.71
147
0.06
173
     1
176
   256
177
   256
178
     2
274
     4
284
     7
340
11
341
87
343
87
371
    -1
372
    -1
  0
DIMSTYLE
105
38FD
330
A
100
AcDbSymbolTableRecord
100
AcDbDimStyleTableRecord
  2
STANDARD
 70
     0
340
11
  0
DIMSTYLE
105
38FE
330
A
100
AcDbSymbolTableRecord
100
AcDbDimStyleTableRecord
  2
STANDARD$0
 70
     0
 41
3.0
 42
1.5
 43
8.0
 44
2.0
 73
     0
 74
     0
 77
     1
 78
     8
 79
     2
140
3.0
141
0.0
146
0.7
147
1.0
176
   256
177
   256
178
   256
271
     2
272
     8
279
     2
284
     8
340
60C
  0
ENDTAB
  0
TABLE
  2
BLOCK_RECORD
  5
1
330
0
100
AcDbSymbolTable
 70
     8
  0
BLOCK_RECORD
  5
1F
102
{ACAD_XDICTIONARY
360
8F
102
}
330
1
100
AcDbSymbolTableRecord
100
AcDbBlockTableRecord
  2
*Model_Space
340
22
  0
BLOCK_RECORD
  5
1B
330
1
100
AcDbSymbolTableRecord
100
AcDbBlockTableRecord
  2
*Paper_Space
340
1E
  0
BLOCK_RECORD
  5
23
330
1
100
AcDbSymbolTableRecord
100
AcDbBlockTableRecord
  2
*Paper_Space0
340
26
  0
BLOCK_RECORD
  5
87
330
1
100
AcDbSymbolTableRecord
100
AcDbBlockTableRecord
  2
GENAXEH
340
0
  0
BLOCK_RECORD
  5
2D04
330
1
100
AcDbSymbolTableRecord
100
AcDbBlockTableRecord
  2
*D2
340
0
  0
BLOCK_RECORD
  5
2D47
330
1
100
AcDbSymbolTableRecord
100
AcDbBlockTableRecord
  2
*D3
340
0
  0
BLOCK_RECORD
  5
2D6D
330
1
100
AcDbSymbolTableRecord
100
AcDbBlockTableRecord
  2
*D4
340
0
  0
BLOCK_RECORD
  5
2F5F
330
1
100
AcDbSymbolTableRecord
100
AcDbBlockTableRecord
  2
*S5
340
0
102
{BLKREFS
331
2D44
102
}
  0
BLOCK_RECORD
  5
2F67
330
1
100
AcDbSymbolTableRecord
100
AcDbBlockTableRecord
  2
*S6
340
0
102
{BLKREFS
331
2D66
102
}
  0
ENDTAB
  0
ENDSEC
  0
SECTION
  2
BLOCKS
  0
BLOCK
  5
20
330
1F
100
AcDbEntity
  8
0
100
AcDbBlockBegin
  2
*Model_Space
 70
     0
 10
0.0
 20
0.0
 30
0.0
  3
*Model_Space
  1

  0
ENDBLK
  5
21
330
1F
100
AcDbEntity
  8
0
100
AcDbBlockEnd
  0
BLOCK
  5
1C
330
1B
100
AcDbEntity
 67
     1
  8
0
100
AcDbBlockBegin
  2
*Paper_Space
 70
     0
 10
0.0
 20
0.0
 30
0.0
  3
*Paper_Space
  1

  0
ENDBLK
  5
1D
330
1B
100
AcDbEntity
 67
     1
  8
0
100
AcDbBlockEnd
  0
BLOCK
  5
24
330
23
100
AcDbEntity
  8
0
100
AcDbBlockBegin
  2
*Paper_Space0
 70
     0
 10
0.0
 20
0.0
 30
0.0
  3
*Paper_Space0
  1

  0
ENDBLK
  5
25
330
23
100
AcDbEntity
  8
0
100
AcDbBlockEnd
  0
BLOCK
  5
89
330
87
100
AcDbEntity
  8
0
100
AcDbBlockBegin
  2
GENAXEH
 70
     0
 10
0.0
 20
0.0
 30
0.0
  3
GENAXEH
  1

  0
LINE
  5
88
330
87
100
AcDbEntity
  8
0
100
AcDbLine
 10
-1.0
 20
0.0
 30
0.0
 11
1.0
 21
0.0
 31
0.0
  0
ENDBLK
  5
8A
330
87
100
AcDbEntity
  8
0
100
AcDbBlockEnd
  0
BLOCK
  5
2D0E
330
2D04
100
AcDbEntity
  8
0
100
AcDbBlockBegin
  2
*D2
 70
     1
 10
0.0
 20
0.0
 30
0.0
  3
*D2
  1

  0
LINE
  5
31DB
330
2D04
100
AcDbEntity
  8
AM_5
100
AcDbLine
 10
2393.715316155666
 20
1150.109331169754
 30
0.0
 11
2393.715316155666
 21
1123.609331169754
 31
0.0
  0
LINE
  5
31DC
330
2D04
100
AcDbEntity
  8
AM_5
100
AcDbLine
 10
2539.715316155666
 20
1144.109331169754
 30
0.0
 11
2539.715316155666
 21
1123.609331169754
 31
0.0
  0
LINE
  5
31DD
330
2D04
100
AcDbEntity
  8
AM_5
100
AcDbLine
 10
2396.715316155666
 20
1125.109331169754
 30
0.0
 11
2536.715316155666
 21
1125.109331169754
 31
0.0
  0
SOLID
  5
31DE
330
2D04
100
AcDbEntity
  8
AM_5
100
AcDbTrace
 10
2396.715316155666
 20
1125.609331169754
 30
0.0
 11
2396.715316155666
 21
1124.609331169754
 31
0.0
 12
2393.715316155666
 22
1125.109331169754
 32
0.0
 13
2393.715316155666
 23
1125.109331169754
 33
0.0
  0
SOLID
  5
31DF
330
2D04
100
AcDbEntity
  8
AM_5
100
AcDbTrace
 10
2536.715316155666
 20
1125.609331169754
 30
0.0
 11
2536.715316155666
 21
1124.609331169754
 31
0.0
 12
2539.715316155666
 22
1125.109331169754
 32
0.0
 13
2539.715316155666
 23
1125.109331169754
 33
0.0
  0
MTEXT
  5
31E0
330
2D04
100
AcDbEntity
  8
AM_5
100
AcDbMText
 10
2466.715316155666
 20
1127.609331169754
 30
0.0
 40
3.0
 41
0.0
 71
     5
 72
     1
  1
146+stroke
 73
     1
 44
1.0
1001
ACAD
1000
MTEXTBEGIN
1070
    73
1070
     1
1070
    44
1040
1.0
1070
    74
1070
     0
1000
MTEXTEND
  0
POINT
  5
31E1
330
2D04
100
AcDbEntity
  8
Defpoints
 62
     0
100
AcDbPoint
 10
2393.715316155666
 20
1151.109331169754
 30
0.0
  0
POINT
  5
31E2
330
2D04
100
AcDbEntity
  8
Defpoints
 62
     0
100
AcDbPoint
 10
2539.715316155666
 20
1145.109331169754
 30
0.0
  0
POINT
  5
31E3
330
2D04
100
AcDbEntity
  8
Defpoints
 62
     0
100
AcDbPoint
 10
2539.715316155666
 20
1125.109331169754
 30
0.0
  0
ENDBLK
  5
2D0F
330
2D04
100
AcDbEntity
  8
0
100
AcDbBlockEnd
  0
BLOCK
  5
2D51
330
2D47
100
AcDbEntity
  8
0
100
AcDbBlockBegin
  2
*D3
 70
     1
 10
0.0
 20
0.0
 30
0.0
  3
*D3
  1

  0
LINE
  5
39E9
330
2D47
100
AcDbEntity
  8
AM_5
100
AcDbLine
 10
2568.840273024678
 20
1145.018602432035
 30
0.0
 11
2568.840273024678
 21
1123.609331169754
 31
0.0
  0
LINE
  5
39EA
330
2D47
100
AcDbEntity
  8
AM_5
100
AcDbLine
 10
2584.840273024678
 20
1145.018602432035
 30
0.0
 11
2584.840273024678
 21
1123.609331169754
 31
0.0
  0
LINE
  5
39EB
330
2D47
100
AcDbEntity
  8
AM_5
100
AcDbLine
 10
2571.840273024678
 20
1125.109331169754
 30
0.0
 11
2581.840273024678
 21
1125.109331169754
 31
0.0
  0
SOLID
  5
39EC
330
2D47
100
AcDbEntity
  8
AM_5
100
AcDbTrace
 10
2571.840273024678
 20
1125.609331169754
 30
0.0
 11
2571.840273024678
 21
1124.609331169754
 31
0.0
 12
2568.840273024678
 22
1125.109331169754
 32
0.0
 13
2568.840273024678
 23
1125.109331169754
 33
0.0
  0
SOLID
  5
39ED
330
2D47
100
AcDbEntity
  8
AM_5
100
AcDbTrace
 10
2581.840273024678
 20
1125.609331169754
 30
0.0
 11
2581.840273024678
 21
1124.609331169754
 31
0.0
 12
2584.840273024678
 22
1125.109331169754
 32
0.0
 13
2584.840273024678
 23
1125.109331169754
 33
0.0
  0
MTEXT
  5
39EE
330
2D47
100
AcDbEntity
  8
AM_5
100
AcDbMText
 10
2576.840273024678
 20
1128.426702788162
 30
0.0
 40
3.0
 41
0.0
 71
     5
 72
     1
  1
16{\H2.130000;\S-0.05^ -0.4;}
 73
     1
 44
1.0
1001
ACAD
1000
MTEXTBEGIN
1070
    73
1070
     1
1070
    44
1040
1.0
1070
    74
1070
     0
1000
MTEXTEND
  0
POINT
  5
39EF
330
2D47
100
AcDbEntity
  8
Defpoints
 62
     0
100
AcDbPoint
 10
2568.840273024678
 20
1146.018602432035
 30
0.0
  0
POINT
  5
39F0
330
2D47
100
AcDbEntity
  8
Defpoints
 62
     0
100
AcDbPoint
 10
2584.840273024678
 20
1146.018602432035
 30
0.0
  0
POINT
  5
39F1
330
2D47
100
AcDbEntity
  8
Defpoints
 62
     0
100
AcDbPoint
 10
2584.840273024678
 20
1125.109331169754
 30
0.0
  0
ENDBLK
  5
2D52
330
2D47
100
AcDbEntity
  8
0
100
AcDbBlockEnd
  0
BLOCK
  5
2D76
330
2D6D
100
AcDbEntity
  8
0
100
AcDbBlockBegin
  2
*D4
 70
     1
 10
0.0
 20
0.0
 30
0.0
  3
*D4
  1

  0
LINE
  5
31E4
330
2D6D
100
AcDbEntity
  8
AM_5
100
AcDbLine
 10
2532.401445745712
 20
1162.644894043586
 30
0.0
 11
2535.138416208968
 21
1170.323083914289
 31
0.0
  0
LINE
  5
31E5
330
2D6D
100
AcDbEntity
  8
AM_5
100
AcDbLine
 10
2535.138416208968
 20
1170.323083914289
 30
0.0
 11
2545.868410319242
 21
1170.323083914289
 31
0.0
  0
SOLID
  5
31E6
330
2D6D
100
AcDbEntity
  8
AM_5
100
AcDbTrace
 10
2531.930473066097
 20
1162.812777142964
 30
0.0
 11
2532.872418425327
 21
1162.477010944209
 31
0.0
 12
2531.394147149445
 22
1159.819057965899
 32
0.0
 13
2531.394147149445
 23
1159.819057965899
 33
0.0
  0
MTEXT
  5
31E7
330
2D6D
100
AcDbEntity
  8
AM_5
100
AcDbMText
 10
2541.003413264105
 20
1172.823083914289
 30
0.0
 40
3.0
 41
0.0
 71
     5
 72
     1
  1
\U+220510{}{\H0.71x;\C3; H9}
 73
     1
 44
1.0
1001
ACAD
1000
MTEXTBEGIN
1070
    73
1070
     1
1070
    44
1040
1.0
1070
    74
1070
     0
1000
MTEXTEND
  0
POINT
  5
31E8
330
2D6D
100
AcDbEntity
  8
Defpoints
 62
     0
100
AcDbPoint
 10
2531.394147149445
 20
1159.819057965899
 30
0.0
  0
POINT
  5
31E9
330
2D6D
100
AcDbEntity
  8
Defpoints
 62
     0
100
AcDbPoint
 10
2528.036485161887
 20
1150.39960437361
 30
0.0
  0
ENDBLK
  5
2D77
330
2D6D
100
AcDbEntity
  8
0
100
AcDbBlockEnd
  0
BLOCK
  5
2F64
330
2F5F
100
AcDbEntity
  8
0
100
AcDbBlockBegin
  2
*S5
 70
     1
 10
0.0
 20
0.0
 30
0.0
  3
*S5
  1

  0
LINE
  5
2F60
330
2F5F
100
AcDbEntity
  8
AM_5
 62
     5
100
AcDbLine
 10
2428.424085853493
 20
1173.967960158854
 30
0.0
 11
2411.740847160901
 21
1173.967960158854
 31
0.0
  0
LINE
  5
2F61
330
2F5F
100
AcDbEntity
  8
AM_5
 62
     5
100
AcDbLine
 10
2411.740847160901
 20
1173.967960158854
 30
0.0
 11
2407.110865364351
 21
1163.319072967179
 31
0.0
  0
TRACE
  5
2F62
330
2F5F
100
AcDbEntity
  8
AM_5
 62
     5
370
    35
100
AcDbTrace
 10
2406.688294841994
 20
1163.502800505189
 30
0.0
 11
2407.533435886707
 21
1163.13534542917
 31
0.0
 12
2405.715316155666
 22
1160.109331169754
 32
0.0
 13
2405.715316155666
 23
1160.109331169754
 33
0.0
  0
MTEXT
  5
2F63
330
2F5F
100
AcDbEntity
  8
AM_5
 62
     2
100
AcDbMText
 10
2428.424085853493
 20
1178.731421813835
 30
0.0
 40
3.5
 41
0.0
 71
     7
 72
     5
  1

  7
ACISOTS
 73
     1
 44
1.0
1001
ACAD
1000
MTEXTBEGIN
1070
    73
1070
     1
1070
    44
1040
1.0
1070
    74
1070
     0
1000
MTEXTEND
  0
ENDBLK
  5
2F65
330
2F5F
100
AcDbEntity
  8
0
100
AcDbBlockEnd
  0
BLOCK
  5
2F6C
330
2F67
100
AcDbEntity
  8
0
100
AcDbBlockBegin
  2
*S6
 70
     1
 10
0.0
 20
0.0
 30
0.0
  3
*S6
  1

  0
LINE
  5
2F68
330
2F67
100
AcDbEntity
  8
AM_5
 62
     5
100
AcDbLine
 10
2524.507221619226
 20
1229.464422015127
 30
0.0
 11
2507.925747463472
 21
1229.464422015127
 31
0.0
  0
LINE
  5
2F69
330
2F67
100
AcDbEntity
  8
AM_5
 62
     5
100
AcDbLine
 10
2507.925747463472
 20
1229.464422015127
 30
0.0
 11
2500.673656272735
 21
1213.845757048237
 31
0.0
  0
TRACE
  5
2F6A
330
2F67
100
AcDbEntity
  8
AM_5
 62
     5
370
    35
100
AcDbTrace
 10
2500.255727095922
 20
1214.039810797897
 30
0.0
 11
2501.091585449546
 21
1213.651703298577
 31
0.0
 12
2499.199671699088
 22
1210.671269770478
 32
0.0
 13
2499.199671699088
 23
1210.671269770478
 33
0.0
  0
MTEXT
  5
2F6B
330
2F67
100
AcDbEntity
  8
AM_5
 62
     2
100
AcDbMText
 10
2524.507221619226
 20
1234.352701149378
 30
0.0
 40
3.5
 41
0.0
 71
     7
 72
     5
  1

  7
ACISOTS
 73
     1
 44
1.0
1001
ACAD
1000
MTEXTBEGIN
1070
    73
1070
     1
1070
    44
1040
1.0
1070
    74
1070
     0
1000
MTEXTEND
  0
ENDBLK
  5
2F6D
330
2F67
100
AcDbEntity
  8
0
100
AcDbBlockEnd
  0
ENDSEC
  0
SECTION
  2
ENTITIES
  0
TEXT
  5
E1F
330
1F
100
AcDbEntity
  8
AM_5
100
AcDbText
 10
2673.874599262465
 20
1604.83630397753
 30
0.0
 40
6.0
  1

100
AcDbText
  0
LINE
  5
1970
330
1F
100
AcDbEntity
  8
LOGO
 62
     1
100
AcDbLine
 10
2834.386571385537
 20
843.1669682394382
 30
0.0
 11
2290.67224388022
 21
843.1669682394382
 31
0.0
  0
LWPOLYLINE
  5
1984
330
1F
100
AcDbEntity
  8
0
 62
     4
100
AcDbPolyline
 90
        4
 70
     1
 43
0.0
 10
2290.67224388022
 20
843.1669682394382
 10
2834.386571385536
 20
843.1669682394382
 10
2834.386571385536
 20
1250.45373845698
 10
2290.67224388022
 20
1250.45373845698
1001
GENIUS_GENREC_14
1002
{
1000
PYDIR
1011
2290.67224388022
1021
1250.45373845698
1031
0.0
1002
}
1002
{
1000
PXDIR
1011
2834.386571385536
1021
843.1669682394382
1031
0.0
1002
}
1002
{
1000
PORI
1011
2290.67224388022
1021
843.1669682394382
1031
0.0
1002
}
1002
{
1000
PINS
1011
2290.67224388022
1021
843.1669682394382
1031
0.0
1002
}
1002
{
1000
PINS2
1011
2834.386571385536
1021
1250.45373845698
1031
0.0
1002
}
1002
{
1000
C
1070
     1
1002
}
1001
GENIUS_GENODEF_13
1002
{
1000
HIER
1070
     0
1002
}
1002
{
1000
MANEDIT
1070
     0
1002
}
1002
{
1000
NOSEL
1070
     0
1002
}
1002
{
1000
BEHIND
1070
     0
1002
}
1002
{
1000
OTHER
1070
     0
1002
}
1002
{
1000
REACTOR
1002
}
1001
GENIUS_GENOBJ-N-REC_13
1002
{
1000
OWNER
1000
GEN
1002
}
  0
LINE
  5
1A0E
330
1F
100
AcDbEntity
  8
0
 62
     4
100
AcDbLine
 10
2290.672243880219
 20
1099.095257677527
 30
0.0
 11
2834.386571385536
 21
1099.095257677527
 31
0.0
  0
LINE
  5
1A0F
330
1F
100
AcDbEntity
  8
0
 62
     4
100
AcDbLine
 10
2612.632413294771
 20
1250.45373845698
 30
0.0
 11
2612.632413294771
 21
843.1669682394382
 31
0.0
  0
LINE
  5
1A10
330
1F
100
AcDbEntity
  8
0
 62
     4
100
AcDbLine
 10
2290.672243880219
 20
942.9282984429873
 30
0.0
 11
2834.386571385536
 21
942.9282984429873
 31
0.0
  0
TEXT
  5
1A18
330
1F
100
AcDbEntity
  8
0
100
AcDbText
 10
2300.945735704175
 20
1081.569386057101
 30
0.0
 40
7.919999999999999
  1
FA/FB
  7
CHINESET
100
AcDbText
  0
TEXT
  5
1A19
330
1F
100
AcDbEntity
  8
0
100
AcDbText
 10
2300.945735704175
 20
923.3751441711994
 30
0.0
 40
7.919999999999999
  1
Y
  7
CHINESET
100
AcDbText
  0
TEXT
  5
1A1A
330
1F
100
AcDbEntity
  8
0
100
AcDbText
 10
2622.905905118726
 20
1081.569386057101
 30
0.0
 40
7.919999999999999
  1
SDB
  7
CHINESET
100
AcDbText
  0
TEXT
  5
1A1B
330
1F
100
AcDbEntity
  8
0
100
AcDbText
 10
2622.905905118726
 20
923.3751441711994
 30
0.0
 40
7.919999999999999
  1
I
  7
CHINESET
100
AcDbText
  0
TEXT
  5
1A1D
330
1F
100
AcDbEntity
  8
0
100
AcDbText
 10
2622.905905118726
 20
1233.649204930517
 30
0.0
 40
7.919999999999999
  1
LB
  7
CHINESET
100
AcDbText
  0
LINE
  5
2949
330
1F
100
AcDbEntity
  8
AM_VIS
100
AcDbLine
 10
2495.215316155666
 20
1171.809331169754
 30
0.0
 11
2495.115316155667
 21
1171.909331169754
 31
0.0
  0
LINE
  5
294A
330
1F
100
AcDbEntity
  8
AM_VIS
100
AcDbLine
 10
2495.215316155666
 20
1138.409331169754
 30
0.0
 11
2495.115316155667
 21
1138.309331169754
 31
0.0
  0
LINE
  5
294B
330
1F
100
AcDbEntity
  8
AM_VIS
100
AcDbLine
 10
2495.115316155666
 20
1171.909331169754
 30
0.0
 11
2463.315316155667
 21
1171.909331169754
 31
0.0
  0
LINE
  5
294C
330
1F
100
AcDbEntity
  8
AM_VIS
100
AcDbLine
 10
2495.115316155666
 20
1138.309331169754
 30
0.0
 11
2463.315316155667
 21
1138.309331169754
 31
0.0
  0
LINE
  5
294D
330
1F
100
AcDbEntity
  8
AM_VIS
100
AcDbLine
 10
2463.215316155666
 20
1138.409331169754
 30
0.0
 11
2463.315316155667
 21
1138.309331169754
 31
0.0
  0
LINE
  5
294E
330
1F
100
AcDbEntity
  8
AM_VIS
100
AcDbLine
 10
2463.215316155666
 20
1171.809331169754
 30
0.0
 11
2463.315316155667
 21
1171.909331169754
 31
0.0
  0
LINE
  5
294F
330
1F
100
AcDbEntity
  8
AM_VIS
100
AcDbLine
 10
2423.715316155667
 20
1151.792706379398
 30
0.0
 11
2416.715316155666
 21
1151.792706379398
 31
0.0
  0
LINE
  5
2950
330
1F
100
AcDbEntity
  8
AM_VIS
100
AcDbLine
 10
2416.715316155666
 20
1158.425955960109
 30
0.0
 11
2423.715316155667
 21
1158.425955960109
 31
0.0
  0
LINE
  5
2951
330
1F
100
AcDbEntity
  8
AM_VIS
100
AcDbLine
 10
2423.715316155667
 20
1158.425955960109
 30
0.0
 11
2423.715316155667
 21
1151.792706379398
 31
0.0
  0
SPLINE
  5
2952
330
1F
100
AcDbEntity
  8
AM_VIS
100
AcDbSpline
210
0.0
220
0.0
230
1.0
 70
     8
 71
     3
 72
    26
 73
    22
 74
     0
 42
0.0000000001
 43
0.0000000001
 40
0.0
 40
0.0
 40
0.0
 40
0.0
 40
0.5960155106068609
 40
0.5960155106068609
 40
1.192031021213721
 40
1.192031021213721
 40
1.788046531820582
 40
1.788046531820582
 40
2.384062042427443
 40
2.384062042427443
 40
2.65774308752443
 40
2.65774308752443
 40
2.931424132621418
 40
2.931424132621418
 40
3.103598980849876
 40
3.103598980849876
 40
3.275773829078334
 40
3.275773829078334
 40
3.407142786945158
 40
3.407142786945158
 40
3.538511744811981
 40
3.538511744811981
 40
3.538511744811981
 40
3.538511744811981
 10
2415.715316155667
 20
1155.109331169754
 30
0.0
 10
2415.715316155667
 20
1155.308003006623
 30
0.0
 10
2415.715046488444
 20
1155.516419023411
 30
0.0
 10
2415.717050958496
 20
1155.941864854574
 30
0.0
 10
2415.719365022404
 20
1156.158894479899
 30
0.0
 10
2415.736277256012
 20
1156.590661623975
 30
0.0
 10
2415.750983845687
 20
1156.805324927407
 30
0.0
 10
2415.806321540859
 20
1157.221207563399
 30
0.0
 10
2415.846765033041
 20
1157.422451838413
 30
0.0
 10
2415.937082277667
 20
1157.697922598489
 30
0.0
 10
2415.973429408523
 20
1157.791370147914
 30
0.0
 10
2416.06221993508
 20
1157.969651380111
 30
0.0
 10
2416.114888596205
 20
1158.054372783687
 30
0.0
 10
2416.207567829586
 20
1158.170553923346
 30
0.0
 10
2416.250376293544
 20
1158.216813019955
 30
0.0
 10
2416.34496683171
 20
1158.29841274299
 30
0.0
 10
2416.396856779668
 20
1158.333628238357
 30
0.0
 10
2416.48702993391
 20
1158.379524331759
 30
0.0
 10
2416.531705530962
 20
1158.397120920027
 30
0.0
 10
2416.623945992228
 20
1158.420367798072
 30
0.0
 10
2416.671526503044
 20
1158.425955960109
 30
0.0
 10
2416.715316155666
 20
1158.425955960109
 30
0.0
  0
SPLINE
  5
2953
330
1F
100
AcDbEntity
  8
AM_VIS
100
AcDbSpline
210
0.0
220
0.0
230
1.0
 70
     8
 71
     3
 72
    26
 73
    22
 74
     0
 42
0.0000000001
 43
0.0000000001
 40
-3.53851174481198
 40
-3.53851174481198
 40
-3.53851174481198
 40
-3.53851174481198
 40
-3.407142786945156
 40
-3.407142786945156
 40
-3.275773829078334
 40
-3.275773829078334
 40
-3.103598980849875
 40
-3.103598980849875
 40
-2.931424132621417
 40
-2.931424132621417
 40
-2.65774308752443
 40
-2.65774308752443
 40
-2.384062042427443
 40
-2.384062042427443
 40
-1.788046531820581
 40
-1.788046531820581
 40
-1.19203102121372
 40
-1.19203102121372
 40
-0.5960155106068595
 40
-0.5960155106068595
 40
0.0
 40
0.0
 40
0.0
 40
0.0
 10
2416.715316155666
 20
1151.792706379398
 30
0.0
 10
2416.671526503044
 20
1151.792706379398
 30
0.0
 10
2416.623945992228
 20
1151.798294541436
 30
0.0
 10
2416.531705530962
 20
1151.82154141948
 30
0.0
 10
2416.48702993391
 20
1151.839138007749
 30
0.0
 10
2416.396856779668
 20
1151.885034101151
 30
0.0
 10
2416.34496683171
 20
1151.920249596518
 30
0.0
 10
2416.250376293544
 20
1152.001849319552
 30
0.0
 10
2416.207567829586
 20
1152.048108416162
 30
0.0
 10
2416.114888596205
 20
1152.164289555821
 30
0.0
 10
2416.06221993508
 20
1152.249010959397
 30
0.0
 10
2415.973429408523
 20
1152.427292191593
 30
0.0
 10
2415.937082277667
 20
1152.520739741018
 30
0.0
 10
2415.846765033041
 20
1152.796210501094
 30
0.0
 10
2415.806321540859
 20
1152.997454776109
 30
0.0
 10
2415.750983845687
 20
1153.413337412101
 30
0.0
 10
2415.736277256012
 20
1153.628000715532
 30
0.0
 10
2415.719365022404
 20
1154.059767859609
 30
0.0
 10
2415.717050958496
 20
1154.276797484934
 30
0.0
 10
2415.715046488444
 20
1154.702243316097
 30
0.0
 10
2415.715316155667
 20
1154.910659332885
 30
0.0
 10
2415.715316155667
 20
1155.109331169754
 30
0.0
  0
LINE
  5
2954
330
1F
100
AcDbEntity
  8
AM_VIS
100
AcDbLine
 10
2415.715316155667
 20
1160.109331169754
 30
0.0
 11
2394.715316155666
 21
1160.109331169754
 31
0.0
  0
LINE
  5
2955
330
1F
100
AcDbEntity
  8
AM_VIS
100
AcDbLine
 10
2415.715316155667
 20
1150.109331169754
 30
0.0
 11
2394.715316155666
 21
1150.109331169754
 31
0.0
  0
LINE
  5
2956
330
1F
100
AcDbEntity
  8
AM_VIS
100
AcDbLine
 10
2393.715316155666
 20
1151.109331169754
 30
0.0
 11
2394.715316155666
 21
1150.109331169754
 31
0.0
  0
LINE
  5
2957
330
1F
100
AcDbEntity
  8
AM_VIS
100
AcDbLine
 10
2393.715316155666
 20
1159.109331169754
 30
0.0
 11
2394.715316155666
 21
1160.109331169754
 31
0.0
  0
LINE
  5
2958
330
1F
100
AcDbEntity
  8
AM_VIS
100
AcDbLine
 10
2427.715316155666
 20
1161.109331169754
 30
0.0
 11
2416.715316155666
 21
1161.109331169754
 31
0.0
  0
LINE
  5
2959
330
1F
100
AcDbEntity
  8
AM_VIS
100
AcDbLine
 10
2427.715316155666
 20
1149.109331169754
 30
0.0
 11
2416.715316155666
 21
1149.109331169754
 31
0.0
  0
LINE
  5
295A
102
{ACAD_REACTORS
330
2D11
102
}
330
1F
100
AcDbEntity
  8
AM_VIS
100
AcDbLine
 10
2393.715316155666
 20
1151.109331169754
 30
0.0
 11
2393.715316155666
 21
1159.109331169754
 31
0.0
  0
LINE
  5
295B
330
1F
100
AcDbEntity
  8
AM_VIS
100
AcDbLine
 10
2415.715316155667
 20
1155.109331169754
 30
0.0
 11
2415.715316155667
 21
1160.109331169754
 31
0.0
  0
LINE
  5
295C
330
1F
100
AcDbEntity
  8
AM_VIS
100
AcDbLine
 10
2415.715316155667
 20
1150.109331169754
 30
0.0
 11
2415.715316155667
 21
1155.109331169754
 31
0.0
  0
ARC
  5
295D
330
1F
100
AcDbEntity
  8
AM_VIS
100
AcDbCircle
 10
2416.715316155666
 20
1160.109331169754
 30
0.0
 40
1.0
100
AcDbArc
 50
90.0
 51
180.0
  0
ARC
  5
295E
330
1F
100
AcDbEntity
  8
AM_VIS
100
AcDbCircle
 10
2416.715316155666
 20
1150.109331169754
 30
0.0
 40
1.0
100
AcDbArc
 50
180.0
 51
270.0
  0
LINE
  5
295F
330
1F
100
AcDbEntity
  8
AM_VIS
100
AcDbLine
 10
2515.715316155667
 20
1160.251072120055
 30
0.0
 11
2515.715316155667
 21
1149.967590219453
 31
0.0
  0
LINE
  5
2960
330
1F
100
AcDbEntity
  8
AM_VIS
100
AcDbLine
 10
2497.715316155666
 20
1155.109331169754
 30
0.0
 11
2497.715316155666
 21
1160.251072120055
 31
0.0
  0
LINE
  5
2961
330
1F
100
AcDbEntity
  8
AM_VIS
100
AcDbLine
 10
2497.715316155666
 20
1149.967590219453
 30
0.0
 11
2497.715316155666
 21
1155.109331169754
 31
0.0
  0
LINE
  5
2962
330
1F
100
AcDbEntity
  8
AM_VIS
100
AcDbLine
 10
2497.715316155666
 20
1160.251072120055
 30
0.0
 11
2515.715316155667
 21
1160.251072120055
 31
0.0
  0
ARC
  5
2963
330
1F
100
AcDbEntity
  8
AM_VIS
100
AcDbCircle
 10
2505.215316155667
 20
1195.946789410236
 30
0.0
 40
23.61248608016034
100
AcDbArc
 50
255.27956870927
 51
284.72043129073
  0
LINE
  5
2964
330
1F
100
AcDbEntity
  8
AM_VIS
100
AcDbLine
 10
2515.715316155667
 20
1149.967590219453
 30
0.0
 11
2497.715316155666
 21
1149.967590219453
 31
0.0
  0
LINE
  5
2965
330
1F
100
AcDbEntity
  8
AM_VIS
100
AcDbLine
 10
2516.015316155666
 20
1164.053603079753
 30
0.0
 11
2537.715316155666
 21
1164.053603079753
 31
0.0
  0
SPLINE
  5
2966
330
1F
100
AcDbEntity
  8
AM_VIS
100
AcDbSpline
210
0.0
220
0.0
230
1.0
 70
     8
 71
     3
 72
    22
 73
    18
 74
     0
 42
0.0000000001
 43
0.0000000001
 40
9.789434019462722
 40
9.789434019462722
 40
9.789434019462722
 40
9.789434019462722
 40
10.11860218314474
 40
10.11860218314474
 40
10.44777034682676
 40
10.44777034682676
 40
10.83159695199661
 40
10.83159695199661
 40
11.21542355716647
 40
11.21542355716647
 40
11.69811317052316
 40
11.69811317052316
 40
12.18080278387985
 40
12.18080278387985
 40
12.84485720066655
 40
12.84485720066655
 40
13.50891161745326
 40
13.50891161745326
 40
13.50891161745326
 40
13.50891161745326
 10
2537.715316155666
 20
1164.053603079753
 30
0.0
 10
2537.825038876893
 20
1164.053603079753
 30
0.0
 10
2537.944479758533
 20
1164.040634085822
 30
0.0
 10
2538.176737333941
 20
1163.985906210066
 30
0.0
 10
2538.289572490733
 20
1163.9442257124
 30
0.0
 10
2538.503557744111
 20
1163.84080943255
 30
0.0
 10
2538.621973325737
 20
1163.766113540328
 30
0.0
 10
2538.838883560496
 20
1163.591311240478
 30
0.0
 10
2538.937516261694
 20
1163.491376204419
 30
0.0
 10
2539.12280192519
 20
1163.269797684827
 30
0.0
 10
2539.221160653851
 20
1163.123623773198
 30
0.0
 10
2539.38702241701
 20
1162.814101549852
 30
0.0
 10
2539.454796445174
 20
1162.650898530207
 30
0.0
 10
2539.576967746662
 20
1162.288700084216
 30
0.0
 10
2539.632416449709
 20
1162.052555754344
 30
0.0
 10
2539.701377146229
 20
1161.573516248881
 30
0.0
 10
2539.715316155666
 20
1161.330682642016
 30
0.0
 10
2539.715316155666
 20
1161.109331169754
 30
0.0
  0
LINE
  5
2967
330
1F
100
AcDbEntity
  8
AM_VIS
100
AcDbLine
 10
2539.715316155666
 20
1161.109331169754
 30
0.0
 11
2539.715316155666
 21
1149.109331169754
 31
0.0
  0
SPLINE
  5
2968
330
1F
100
AcDbEntity
  8
AM_VIS
100
AcDbSpline
210
0.0
220
0.0
230
1.0
 70
     8
 71
     3
 72
    22
 73
    18
 74
     0
 42
0.0000000001
 43
0.0000000001
 40
6.069956421472122
 40
6.069956421472122
 40
6.069956421472122
 40
6.069956421472122
 40
6.734010838258825
 40
6.734010838258825
 40
7.398065255045528
 40
7.398065255045528
 40
7.880754868402219
 40
7.880754868402219
 40
8.363444481758911
 40
8.363444481758911
 40
8.747271086928767
 40
8.747271086928767
 40
9.131097692098624
 40
9.131097692098624
 40
9.46026585578064
 40
9.46026585578064
 40
9.789434019462659
 40
9.789434019462659
 40
9.789434019462659
 40
9.789434019462659
 10
2539.715316155666
 20
1149.109331169754
 30
0.0
 10
2539.715316155666
 20
1148.887979697492
 30
0.0
 10
2539.701377146229
 20
1148.645146090626
 30
0.0
 10
2539.632416449709
 20
1148.166106585164
 30
0.0
 10
2539.576967746662
 20
1147.929962255292
 30
0.0
 10
2539.454796445174
 20
1147.567763809301
 30
0.0
 10
2539.38702241701
 20
1147.404560789655
 30
0.0
 10
2539.221160653851
 20
1147.09503856631
 30
0.0
 10
2539.12280192519
 20
1146.94886465468
 30
0.0
 10
2538.937516261694
 20
1146.727286135089
 30
0.0
 10
2538.838883560496
 20
1146.62735109903
 30
0.0
 10
2538.621973325737
 20
1146.452548799179
 30
0.0
 10
2538.503557744111
 20
1146.377852906958
 30
0.0
 10
2538.289572490733
 20
1146.274436627107
 30
0.0
 10
2538.176737333941
 20
1146.232756129442
 30
0.0
 10
2537.944479758533
 20
1146.178028253685
 30
0.0
 10
2537.825038876893
 20
1146.165059259755
 30
0.0
 10
2537.715316155666
 20
1146.165059259755
 30
0.0
  0
LINE
  5
2969
330
1F
100
AcDbEntity
  8
AM_VIS
100
AcDbLine
 10
2537.715316155666
 20
1146.165059259755
 30
0.0
 11
2516.015316155666
 21
1146.165059259755
 31
0.0
  0
LINE
  5
296A
330
1F
100
AcDbEntity
  8
AM_VIS
100
AcDbLine
 10
2497.715316155666
 20
1172.359331169754
 30
0.0
 11
2495.215316155666
 21
1172.359331169754
 31
0.0
  0
LINE
  5
296B
330
1F
100
AcDbEntity
  8
AM_VIS
100
AcDbLine
 10
2497.715316155666
 20
1137.859331169754
 30
0.0
 11
2495.215316155666
 21
1137.859331169754
 31
0.0
  0
LINE
  5
296C
330
1F
100
AcDbEntity
  8
AM_VIS
100
AcDbLine
 10
2499.215316155666
 20
1173.109331169754
 30
0.0
 11
2497.715316155666
 21
1173.109331169754
 31
0.0
  0
LINE
  5
296D
330
1F
100
AcDbEntity
  8
AM_VIS
100
AcDbLine
 10
2515.715316155667
 20
1173.109331169754
 30
0.0
 11
2511.215316155666
 21
1173.109331169754
 31
0.0
  0
LINE
  5
296E
330
1F
100
AcDbEntity
  8
AM_VIS
100
AcDbLine
 10
2515.715316155667
 20
1137.109331169754
 30
0.0
 11
2497.715316155666
 21
1137.109331169754
 31
0.0
  0
LINE
  5
296F
330
1F
100
AcDbEntity
  8
AM_VIS
100
AcDbLine
 10
2515.715316155667
 20
1143.109331169754
 30
0.0
 11
2537.715316155666
 21
1143.109331169754
 31
0.0
  0
LINE
  5
2970
330
1F
100
AcDbEntity
  8
AM_VIS
100
AcDbLine
 10
2515.715316155667
 20
1167.109331169754
 30
0.0
 11
2537.715316155666
 21
1167.109331169754
 31
0.0
  0
LINE
  5
2971
330
1F
100
AcDbEntity
  8
AM_VIS
100
AcDbLine
 10
2495.215316155666
 20
1137.859331169754
 30
0.0
 11
2495.215316155666
 21
1172.359331169754
 31
0.0
  0
LINE
  5
2972
330
1F
100
AcDbEntity
  8
AM_VIS
100
AcDbLine
 10
2515.715316155667
 20
1173.109331169754
 30
0.0
 11
2515.715316155667
 21
1160.251072120055
 31
0.0
  0
LINE
  5
2973
330
1F
100
AcDbEntity
  8
AM_VIS
100
AcDbLine
 10
2497.715316155666
 20
1160.251072120055
 30
0.0
 11
2497.715316155666
 21
1173.109331169754
 31
0.0
  0
LINE
  5
2974
330
1F
100
AcDbEntity
  8
AM_VIS
100
AcDbLine
 10
2497.715316155666
 20
1137.109331169754
 30
0.0
 11
2497.715316155666
 21
1149.967590219453
 31
0.0
  0
LINE
  5
2975
330
1F
100
AcDbEntity
  8
AM_VIS
100
AcDbLine
 10
2515.715316155667
 20
1149.967590219453
 30
0.0
 11
2515.715316155667
 21
1137.109331169754
 31
0.0
  0
LINE
  5
2976
330
1F
100
AcDbEntity
  8
AM_VIS
100
AcDbLine
 10
2516.015316155666
 20
1164.053603079753
 30
0.0
 11
2516.015316155666
 21
1146.165059259755
 31
0.0
  0
LINE
  5
2977
330
1F
100
AcDbEntity
  8
AM_VIS
100
AcDbLine
 10
2539.715316155666
 20
1149.109331169754
 30
0.0
 11
2539.715316155666
 21
1145.109331169754
 31
0.0
  0
LINE
  5
2978
330
1F
100
AcDbEntity
  8
AM_VIS
100
AcDbLine
 10
2539.715316155666
 20
1165.109331169754
 30
0.0
 11
2539.715316155666
 21
1161.109331169754
 31
0.0
  0
CIRCLE
  5
2979
102
{ACAD_REACTORS
330
2D79
102
}
330
1F
100
AcDbEntity
  8
AM_VIS
100
AcDbCircle
 10
2529.715316155666
 20
1155.109331169754
 30
0.0
 40
5.0
  0
ARC
  5
297A
102
{ACAD_REACTORS
330
2D11
102
}
330
1F
100
AcDbEntity
  8
AM_VIS
100
AcDbCircle
 10
2537.715316155666
 20
1145.109331169754
 30
0.0
 40
2.0
100
AcDbArc
 50
270.0
 51
0.0
  0
ARC
  5
297B
330
1F
100
AcDbEntity
  8
AM_VIS
100
AcDbCircle
 10
2537.715316155666
 20
1165.109331169754
 30
0.0
 40
2.0
100
AcDbArc
 50
0.0
 51
90.0
  0
LINE
  5
297C
330
1F
100
AcDbEntity
  8
AM_VIS
100
AcDbLine
 10
2460.715316155666
 20
1149.967590219453
 30
0.0
 11
2445.715316155666
 21
1149.967590219453
 31
0.0
  0
LINE
  5
297D
330
1F
100
AcDbEntity
  8
AM_VIS
100
AcDbLine
 10
2445.715316155666
 20
1149.967590219453
 30
0.0
 11
2445.715316155666
 21
1160.251072120055
 31
0.0
  0
ARC
  5
297E
330
1F
100
AcDbEntity
  8
AM_VIS
100
AcDbCircle
 10
2453.215316155667
 20
1195.946789410236
 30
0.0
 40
23.61248608016034
100
AcDbArc
 50
255.27956870927
 51
284.72043129073
  0
LINE
  5
297F
330
1F
100
AcDbEntity
  8
AM_VIS
100
AcDbLine
 10
2445.715316155666
 20
1160.251072120055
 30
0.0
 11
2460.715316155666
 21
1160.251072120055
 31
0.0
  0
LINE
  5
2980
330
1F
100
AcDbEntity
  8
AM_VIS
100
AcDbLine
 10
2460.715316155666
 20
1155.109331169754
 30
0.0
 11
2460.715316155666
 21
1149.967590219453
 31
0.0
  0
LINE
  5
2981
330
1F
100
AcDbEntity
  8
AM_VIS
100
AcDbLine
 10
2460.715316155666
 20
1160.251072120055
 30
0.0
 11
2460.715316155666
 21
1155.109331169754
 31
0.0
  0
LINE
  5
2982
330
1F
100
AcDbEntity
  8
AM_VIS
100
AcDbLine
 10
2445.715316155666
 20
1167.109331169754
 30
0.0
 11
2429.715316155666
 21
1167.109331169754
 31
0.0
  0
LINE
  5
2983
330
1F
100
AcDbEntity
  8
AM_VIS
100
AcDbLine
 10
2445.715316155666
 20
1143.109331169754
 30
0.0
 11
2429.715316155666
 21
1143.109331169754
 31
0.0
  0
LINE
  5
2984
330
1F
100
AcDbEntity
  8
AM_VIS
100
AcDbLine
 10
2460.715316155666
 20
1137.859331169754
 30
0.0
 11
2463.215316155666
 21
1137.859331169754
 31
0.0
  0
LINE
  5
2985
330
1F
100
AcDbEntity
  8
AM_VIS
100
AcDbLine
 10
2460.715316155666
 20
1172.359331169754
 30
0.0
 11
2463.215316155666
 21
1172.359331169754
 31
0.0
  0
LINE
  5
2986
330
1F
100
AcDbEntity
  8
AM_VIS
100
AcDbLine
 10
2460.715316155666
 20
1137.109331169754
 30
0.0
 11
2445.715316155666
 21
1137.109331169754
 31
0.0
  0
LINE
  5
2987
330
1F
100
AcDbEntity
  8
AM_VIS
100
AcDbLine
 10
2447.215316155666
 20
1173.109331169754
 30
0.0
 11
2445.715316155666
 21
1173.109331169754
 31
0.0
  0
LINE
  5
2988
330
1F
100
AcDbEntity
  8
AM_VIS
100
AcDbLine
 10
2460.715316155666
 20
1173.109331169754
 30
0.0
 11
2459.215316155666
 21
1173.109331169754
 31
0.0
  0
LINE
  5
2989
330
1F
100
AcDbEntity
  8
AM_VIS
100
AcDbLine
 10
2427.715316155666
 20
1145.109331169754
 30
0.0
 11
2427.715316155666
 21
1165.109331169754
 31
0.0
  0
LINE
  5
298A
330
1F
100
AcDbEntity
  8
AM_VIS
100
AcDbLine
 10
2463.215316155666
 20
1172.359331169754
 30
0.0
 11
2463.215316155666
 21
1137.859331169754
 31
0.0
  0
LINE
  5
298B
330
1F
100
AcDbEntity
  8
AM_VIS
100
AcDbLine
 10
2445.715316155666
 20
1137.109331169754
 30
0.0
 11
2445.715316155666
 21
1149.967590219453
 31
0.0
  0
LINE
  5
298C
330
1F
100
AcDbEntity
  8
AM_VIS
100
AcDbLine
 10
2445.715316155666
 20
1160.251072120055
 30
0.0
 11
2445.715316155666
 21
1173.109331169754
 31
0.0
  0
LINE
  5
298D
330
1F
100
AcDbEntity
  8
AM_VIS
100
AcDbLine
 10
2460.715316155666
 20
1149.967590219453
 30
0.0
 11
2460.715316155666
 21
1137.109331169754
 31
0.0
  0
LINE
  5
298E
330
1F
100
AcDbEntity
  8
AM_VIS
100
AcDbLine
 10
2460.715316155666
 20
1173.109331169754
 30
0.0
 11
2460.715316155666
 21
1160.251072120055
 31
0.0
  0
ARC
  5
298F
330
1F
100
AcDbEntity
  8
AM_VIS
100
AcDbCircle
 10
2429.715316155666
 20
1165.109331169754
 30
0.0
 40
2.0
100
AcDbArc
 50
90.0
 51
180.0
  0
ARC
  5
2990
330
1F
100
AcDbEntity
  8
AM_VIS
100
AcDbCircle
 10
2429.715316155666
 20
1145.109331169754
 30
0.0
 40
2.0
100
AcDbArc
 50
180.0
 51
270.0
  0
LINE
  5
2991
330
1F
100
AcDbEntity
  8
AM_VIS
100
AcDbLine
 10
2559.590273024677
 20
1160.251072120055
 30
0.0
 11
2559.590273024677
 21
1149.967590219453
 31
0.0
  0
LINE
  5
2992
330
1F
100
AcDbEntity
  8
AM_VIS
100
AcDbLine
 10
2594.090273024677
 20
1149.967590219453
 30
0.0
 11
2594.090273024677
 21
1160.251072120055
 31
0.0
  0
LINE
  5
2993
330
1F
100
AcDbEntity
  8
AM_VIS
100
AcDbLine
 10
2568.840273024677
 20
1164.053603079753
 30
0.0
 11
2568.840273024677
 21
1161.109331169754
 31
0.0
  0
LINE
  5
2994
330
1F
100
AcDbEntity
  8
AM_VIS
100
AcDbLine
 10
2568.840273024677
 20
1161.109331169754
 30
0.0
 11
2568.840273024677
 21
1149.109331169754
 31
0.0
  0
LINE
  5
2995
330
1F
100
AcDbEntity
  8
AM_VIS
100
AcDbLine
 10
2568.840273024677
 20
1149.109331169754
 30
0.0
 11
2568.840273024677
 21
1146.165059259755
 31
0.0
  0
LINE
  5
2996
330
1F
100
AcDbEntity
  8
AM_VIS
100
AcDbLine
 10
2584.840273024677
 20
1149.109331169754
 30
0.0
 11
2584.840273024677
 21
1161.109331169754
 31
0.0
  0
LINE
  5
2997
330
1F
100
AcDbEntity
  8
AM_VIS
100
AcDbLine
 10
2584.840273024677
 20
1164.053603079753
 30
0.0
 11
2584.840273024677
 21
1161.109331169754
 31
0.0
  0
LINE
  5
2998
330
1F
100
AcDbEntity
  8
AM_VIS
100
AcDbLine
 10
2584.840273024677
 20
1149.109331169754
 30
0.0
 11
2584.840273024677
 21
1146.165059259755
 31
0.0
  0
ARC
  5
2999
330
1F
100
AcDbEntity
  8
AM_VIS
100
AcDbCircle
 10
2576.840273024677
 20
1155.109331169754
 30
0.0
 40
18.0
100
AcDbArc
 50
16.59784213586205
 51
163.4021578641379
  0
ARC
  5
299A
330
1F
100
AcDbEntity
  8
AM_VIS
100
AcDbCircle
 10
2576.840273024677
 20
1155.109331169754
 30
0.0
 40
18.0
100
AcDbArc
 50
196.597842135862
 51
343.402157864138
  0
ARC
  5
299B
330
1F
100
AcDbEntity
  8
AM_VIS
100
AcDbCircle
 10
2576.840273024677
 20
1155.109331169754
 30
0.0
 40
12.0
100
AcDbArc
 50
228.1896851042299
 51
311.8103148957701
  0
ARC
  5
299C
330
1F
100
AcDbEntity
  8
AM_VIS
100
AcDbCircle
 10
2576.840273024677
 20
1155.109331169754
 30
0.0
 40
12.0
100
AcDbArc
 50
131.8103148957701
 51
228.1896851042299
  0
ARC
  5
299D
330
1F
100
AcDbEntity
  8
AM_VIS
100
AcDbCircle
 10
2576.840273024677
 20
1155.109331169754
 30
0.0
 40
12.0
100
AcDbArc
 50
48.18968510422982
 51
131.8103148957701
  0
ARC
  5
299E
330
1F
100
AcDbEntity
  8
AM_VIS
100
AcDbCircle
 10
2576.840273024677
 20
1155.109331169754
 30
0.0
 40
12.0
100
AcDbArc
 50
311.8103148957701
 51
48.18968510422982
  0
LINE
  5
299F
330
1F
100
AcDbEntity
  8
AM_VIS
100
AcDbLine
 10
2495.215316155666
 20
1224.581393984067
 30
0.0
 11
2495.115316155666
 21
1224.681393984067
 31
0.0
  0
LINE
  5
29A0
330
1F
100
AcDbEntity
  8
AM_VIS
100
AcDbLine
 10
2495.215316155666
 20
1191.181393984066
 30
0.0
 11
2495.115316155667
 21
1191.081393984067
 31
0.0
  0
LINE
  5
29A1
330
1F
100
AcDbEntity
  8
AM_VIS
100
AcDbLine
 10
2495.115316155666
 20
1224.681393984067
 30
0.0
 11
2463.315316155667
 21
1224.681393984067
 31
0.0
  0
LINE
  5
29A2
330
1F
100
AcDbEntity
  8
AM_VIS
100
AcDbLine
 10
2495.115316155666
 20
1191.081393984067
 30
0.0
 11
2463.315316155667
 21
1191.081393984067
 31
0.0
  0
LINE
  5
29A3
330
1F
100
AcDbEntity
  8
AM_VIS
100
AcDbLine
 10
2463.215316155666
 20
1191.181393984066
 30
0.0
 11
2463.315316155667
 21
1191.081393984067
 31
0.0
  0
LINE
  5
29A4
330
1F
100
AcDbEntity
  8
AM_VIS
100
AcDbLine
 10
2463.215316155666
 20
1224.581393984067
 30
0.0
 11
2463.315316155667
 21
1224.681393984067
 31
0.0
  0
LINE
  5
29A5
330
1F
100
AcDbEntity
  8
AM_VIS
100
AcDbLine
 10
2416.715316155666
 20
1202.881393984067
 30
0.0
 11
2423.715316155667
 21
1202.881393984067
 31
0.0
  0
LINE
  5
29A6
330
1F
100
AcDbEntity
  8
AM_VIS
100
AcDbLine
 10
2424.715316155666
 20
1201.881393984067
 30
0.0
 11
2423.715316155667
 21
1202.881393984067
 31
0.0
  0
LINE
  5
29A7
330
1F
100
AcDbEntity
  8
AM_VIS
100
AcDbLine
 10
2415.715046488444
 20
1202.881393984067
 30
0.0
 11
2416.715316155666
 21
1202.881393984067
 31
0.0
  0
LINE
  5
29A8
330
1F
100
AcDbEntity
  8
AM_VIS
100
AcDbLine
 10
2423.715316155667
 20
1212.881393984067
 30
0.0
 11
2424.715316155666
 21
1213.881393984067
 31
0.0
  0
LINE
  5
29A9
330
1F
100
AcDbEntity
  8
AM_VIS
100
AcDbLine
 10
2415.714903238711
 20
1212.881393984067
 30
0.0
 11
2416.715316155666
 21
1212.881393984067
 31
0.0
  0
LINE
  5
29AA
330
1F
100
AcDbEntity
  8
AM_VIS
100
AcDbLine
 10
2423.715316155667
 20
1212.881393984067
 30
0.0
 11
2416.715316155666
 21
1212.881393984067
 31
0.0
  0
LINE
  5
29AB
330
1F
100
AcDbEntity
  8
AM_VIS
100
AcDbLine
 10
2415.715316155667
 20
1212.881393984067
 30
0.0
 11
2394.715316155666
 21
1212.881393984067
 31
0.0
  0
LINE
  5
29AC
330
1F
100
AcDbEntity
  8
AM_VIS
100
AcDbLine
 10
2415.715316155667
 20
1202.881393984067
 30
0.0
 11
2394.715316155666
 21
1202.881393984067
 31
0.0
  0
LINE
  5
29AD
330
1F
100
AcDbEntity
  8
AM_VIS
100
AcDbLine
 10
2393.715316155666
 20
1203.881393984067
 30
0.0
 11
2394.715316155666
 21
1202.881393984067
 31
0.0
  0
LINE
  5
29AE
330
1F
100
AcDbEntity
  8
AM_VIS
100
AcDbLine
 10
2393.715316155666
 20
1211.881393984067
 30
0.0
 11
2394.715316155666
 21
1212.881393984067
 31
0.0
  0
LINE
  5
29AF
330
1F
100
AcDbEntity
  8
AM_VIS
100
AcDbLine
 10
2427.715316155666
 20
1213.881393984067
 30
0.0
 11
2424.715316155666
 21
1213.881393984067
 31
0.0
  0
LINE
  5
29B0
330
1F
100
AcDbEntity
  8
AM_VIS
100
AcDbLine
 10
2427.715316155666
 20
1201.881393984067
 30
0.0
 11
2424.715316155666
 21
1201.881393984067
 31
0.0
  0
LINE
  5
29B1
330
1F
100
AcDbEntity
  8
AM_VIS
100
AcDbLine
 10
2393.715316155666
 20
1203.881393984067
 30
0.0
 11
2393.715316155666
 21
1211.881393984067
 31
0.0
  0
LINE
  5
29B2
330
1F
100
AcDbEntity
  8
AM_VIS
100
AcDbLine
 10
2415.715316155667
 20
1202.881393984067
 30
0.0
 11
2415.715316155667
 21
1212.881393984067
 31
0.0
  0
LINE
  5
29B3
330
1F
100
AcDbEntity
  8
AM_VIS
100
AcDbLine
 10
2497.715316155666
 20
1190.631393984067
 30
0.0
 11
2515.715316155667
 21
1190.631393984067
 31
0.0
  0
SPLINE
  5
29B4
330
1F
100
AcDbEntity
  8
AM_VIS
100
AcDbSpline
210
0.0
220
0.0
230
1.0
 70
     8
 71
     3
 72
    38
 73
    34
 74
     0
 42
0.0000000001
 43
0.0000000001
 40
8.513284082566162
 40
8.513284082566162
 40
8.513284082566162
 40
8.513284082566162
 40
9.595652876897029
 40
9.595652876897029
 40
10.67802167122789
 40
10.67802167122789
 40
11.76039046555876
 40
11.76039046555876
 40
12.84275925988963
 40
12.84275925988963
 40
13.88871148620028
 40
13.88871148620028
 40
14.93466371251093
 40
14.93466371251093
 40
15.98061593882159
 40
15.98061593882159
 40
17.02656816513224
 40
17.02656816513224
 40
18.07252039144292
 40
18.07252039144292
 40
19.1184726177536
 40
19.1184726177536
 40
20.16442484406428
 40
20.16442484406428
 40
21.21037707037496
 40
21.21037707037496
 40
22.29274586470583
 40
22.29274586470583
 40
23.3751146590367
 40
23.3751146590367
 40
24.45748345336757
 40
24.45748345336757
 40
25.53985224769844
 40
25.53985224769844
 40
25.53985224769844
 40
25.53985224769844
 10
2511.215316155666
 20
1207.881393984067
 30
0.0
 10
2511.215316155666
 20
1207.520604385956
 30
0.0
 10
2511.171217415722
 20
1207.15223235748
 30
0.0
 10
2510.992392573686
 20
1206.429933917873
 30
0.0
 10
2510.857737674571
 20
1206.075986694971
 30
0.0
 10
2510.510567833848
 20
1205.408011971671
 30
0.0
 10
2510.297719299267
 20
1205.093210412501
 30
0.0
 10
2509.816864932522
 20
1204.52094285918
 30
0.0
 10
2509.548851579991
 20
1204.263464452538
 30
0.0
 10
2509.000249260659
 20
1203.824003971573
 30
0.0
 10
2508.701323258632
 20
1203.62439951093
 30
0.0
 10
2508.060994519836
 20
1203.275763783154
 30
0.0
 10
2507.719601202822
 20
1203.126696293788
 30
0.0
 10
2507.015139637781
 20
1202.888779497194
 30
0.0
 10
2506.651664215606
 20
1202.799801024155
 30
0.0
 10
2505.926080262982
 20
1202.683609630172
 30
0.0
 10
2505.56396689777
 20
1202.656421823745
 30
0.0
 10
2504.866665413562
 20
1202.656421823745
 30
0.0
 10
2504.50455204835
 20
1202.683609630172
 30
0.0
 10
2503.778968095727
 20
1202.799801024155
 30
0.0
 10
2503.415492673551
 20
1202.888779497194
 30
0.0
 10
2502.711031108511
 20
1203.126696293788
 30
0.0
 10
2502.369637791496
 20
1203.275763783154
 30
0.0
 10
2501.7293090527
 20
1203.62439951093
 30
0.0
 10
2501.430383050674
 20
1203.824003971573
 30
0.0
 10
2500.881780731341
 20
1204.263464452538
 30
0.0
 10
2500.613767378811
 20
1204.52094285918
 30
0.0
 10
2500.132913012065
 20
1205.093210412501
 30
0.0
 10
2499.920064477485
 20
1205.408011971671
 30
0.0
 10
2499.572894636761
 20
1206.075986694972
 30
0.0
 10
2499.438239737646
 20
1206.429933917873
 30
0.0
 10
2499.25941489561
 20
1207.15223235748
 30
0.0
 10
2499.215316155666
 20
1207.520604385956
 30
0.0
 10
2499.215316155666
 20
1207.881393984067
 30
0.0
  0
SPLINE
  5
29B5
330
1F
100
AcDbEntity
  8
AM_VIS
100
AcDbSpline
210
0.0
220
0.0
230
1.0
 70
     8
 71
     3
 72
    39
 73
    35
 74
     0
 42
0.0000000001
 43
0.0000000001
 40
25.53985224769844
 40
25.53985224769844
 40
25.53985224769844
 40
25.53985224769844
 40
26.62222104202931
 40
26.62222104202931
 40
27.70458983636018
 40
27.70458983636018
 40
28.78695863069104
 40
28.78695863069104
 40
29.86932742502191
 40
29.86932742502191
 40
30.91527965133256
 40
30.91527965133256
 40
31.9612318776432
 40
31.9612318776432
 40
33.00718410395383
 40
33.00718410395383
 40
34.05313633026448
 40
34.05313633026448
 40
34.05313633026448
 40
35.09908855657516
 40
35.09908855657516
 40
36.14504078288582
 40
36.14504078288582
 40
37.1909930091965
 40
37.1909930091965
 40
38.23694523550717
 40
38.23694523550717
 40
39.31931402983803
 40
39.31931402983803
 40
40.4016828241689
 40
40.4016828241689
 40
41.48405161849977
 40
41.48405161849977
 40
42.56642041283064
 40
42.56642041283064
 40
42.56642041283064
 40
42.56642041283064
 10
2499.215316155666
 20
1207.881393984067
 30
0.0
 10
2499.215316155666
 20
1208.242183582177
 30
0.0
 10
2499.25941489561
 20
1208.610555610654
 30
0.0
 10
2499.438239737646
 20
1209.33285405026
 30
0.0
 10
2499.572894636761
 20
1209.686801273162
 30
0.0
 10
2499.920064477485
 20
1210.354775996462
 30
0.0
 10
2500.132913012065
 20
1210.669577555633
 30
0.0
 10
2500.613767378811
 20
1211.241845108953
 30
0.0
 10
2500.881780731341
 20
1211.499323515595
 30
0.0
 10
2501.430383050674
 20
1211.938783996561
 30
0.0
 10
2501.7293090527
 20
1212.138388457204
 30
0.0
 10
2502.369637791496
 20
1212.487024184979
 30
0.0
 10
2502.711031108511
 20
1212.636091674345
 30
0.0
 10
2503.415492673551
 20
1212.874008470939
 30
0.0
 10
2503.778968095727
 20
1212.962986943978
 30
0.0
 10
2504.50455204835
 20
1213.079178337961
 30
0.0
 10
2504.866665413563
 20
1213.106366144389
 30
0.0
 10
2505.215316155667
 20
1213.106366144389
 30
0.0
 10
2505.56396689777
 20
1213.106366144389
 30
0.0
 10
2505.926080262983
 20
1213.079178337961
 30
0.0
 10
2506.651664215606
 20
1212.962986943978
 30
0.0
 10
2507.015139637781
 20
1212.874008470939
 30
0.0
 10
2507.719601202822
 20
1212.636091674345
 30
0.0
 10
2508.060994519836
 20
1212.487024184979
 30
0.0
 10
2508.701323258632
 20
1212.138388457204
 30
0.0
 10
2509.000249260659
 20
1211.93878399656
 30
0.0
 10
2509.548851579991
 20
1211.499323515595
 30
0.0
 10
2509.816864932522
 20
1211.241845108953
 30
0.0
 10
2510.297719299267
 20
1210.669577555633
 30
0.0
 10
2510.510567833848
 20
1210.354775996462
 30
0.0
 10
2510.857737674572
 20
1209.686801273162
 30
0.0
 10
2510.992392573686
 20
1209.33285405026
 30
0.0
 10
2511.171217415722
 20
1208.610555610653
 30
0.0
 10
2511.215316155666
 20
1208.242183582177
 30
0.0
 10
2511.215316155666
 20
1207.881393984067
 30
0.0
  0
LINE
  5
29B6
330
1F
100
AcDbEntity
  8
AM_VIS
100
AcDbLine
 10
2515.715316155667
 20
1225.131393984067
 30
0.0
 11
2497.715316155666
 21
1225.131393984067
 31
0.0
  0
LINE
  5
29B7
330
1F
100
AcDbEntity
  8
AM_VIS
100
AcDbLine
 10
2516.015316155666
 20
1199.881393984067
 30
0.0
 11
2537.715316155666
 21
1199.881393984067
 31
0.0
  0
LINE
  5
29B8
330
1F
100
AcDbEntity
  8
AM_VIS
100
AcDbLine
 10
2537.715316155666
 20
1199.881393984067
 30
0.0
 11
2539.715316155666
 21
1199.881393984067
 31
0.0
  0
LINE
  5
29B9
330
1F
100
AcDbEntity
  8
AM_VIS
100
AcDbLine
 10
2537.715316155666
 20
1215.881393984067
 30
0.0
 11
2539.715316155666
 21
1215.881393984067
 31
0.0
  0
LINE
  5
29BA
330
1F
100
AcDbEntity
  8
AM_VIS
100
AcDbLine
 10
2537.715316155666
 20
1215.881393984067
 30
0.0
 11
2516.015316155666
 21
1215.881393984067
 31
0.0
  0
LINE
  5
29BB
330
1F
100
AcDbEntity
  8
AM_VIS
100
AcDbLine
 10
2497.715316155666
 20
1225.131393984067
 30
0.0
 11
2495.215316155666
 21
1225.131393984067
 31
0.0
  0
LINE
  5
29BC
330
1F
100
AcDbEntity
  8
AM_VIS
100
AcDbLine
 10
2497.715316155666
 20
1190.631393984067
 30
0.0
 11
2495.215316155666
 21
1190.631393984067
 31
0.0
  0
LINE
  5
29BD
330
1F
100
AcDbEntity
  8
AM_VIS
100
AcDbLine
 10
2515.715316155667
 20
1195.881393984067
 30
0.0
 11
2516.015316155666
 21
1195.881393984067
 31
0.0
  0
LINE
  5
29BE
330
1F
100
AcDbEntity
  8
AM_VIS
100
AcDbLine
 10
2515.715316155667
 20
1219.881393984067
 30
0.0
 11
2516.015316155666
 21
1219.881393984067
 31
0.0
  0
LINE
  5
29C0
330
1F
100
AcDbEntity
  8
AM_VIS
100
AcDbLine
 10
2495.215316155666
 20
1190.631393984067
 30
0.0
 11
2495.215316155666
 21
1225.131393984067
 31
0.0
  0
LINE
  5
29C1
330
1F
100
AcDbEntity
  8
AM_VIS
100
AcDbLine
 10
2515.715316155667
 20
1225.131393984067
 30
0.0
 11
2515.715316155667
 21
1190.631393984067
 31
0.0
  0
LINE
  5
29C2
330
1F
100
AcDbEntity
  8
AM_VIS
100
AcDbLine
 10
2497.715316155666
 20
1190.631393984067
 30
0.0
 11
2497.715316155666
 21
1225.131393984067
 31
0.0
  0
LINE
  5
29C3
330
1F
100
AcDbEntity
  8
AM_VIS
100
AcDbLine
 10
2516.015316155666
 20
1199.881393984067
 30
0.0
 11
2516.015316155666
 21
1195.881393984067
 31
0.0
  0
LINE
  5
29C4
330
1F
100
AcDbEntity
  8
AM_VIS
100
AcDbLine
 10
2539.715316155666
 20
1215.881393984067
 30
0.0
 11
2539.715316155666
 21
1199.881393984067
 31
0.0
  0
LINE
  5
29C5
330
1F
100
AcDbEntity
  8
AM_VIS
100
AcDbLine
 10
2516.015316155666
 20
1219.881393984067
 30
0.0
 11
2516.015316155666
 21
1215.881393984067
 31
0.0
  0
SPLINE
  5
29C7
330
1F
100
AcDbEntity
  8
AM_VIS
100
AcDbSpline
210
0.0
220
0.0
230
1.0
 70
     8
 71
     3
 72
    38
 73
    34
 74
     0
 42
0.0000000001
 43
0.0000000001
 40
8.513284082566162
 40
8.513284082566162
 40
8.513284082566162
 40
8.513284082566162
 40
9.59565287689703
 40
9.59565287689703
 40
10.6780216712279
 40
10.6780216712279
 40
11.76039046555876
 40
11.76039046555876
 40
12.84275925988963
 40
12.84275925988963
 40
13.88871148620028
 40
13.88871148620028
 40
14.93466371251094
 40
14.93466371251094
 40
15.98061593882159
 40
15.98061593882159
 40
17.02656816513224
 40
17.02656816513224
 40
18.07252039144292
 40
18.07252039144292
 40
19.1184726177536
 40
19.1184726177536
 40
20.16442484406429
 40
20.16442484406429
 40
21.21037707037496
 40
21.21037707037496
 40
22.29274586470584
 40
22.29274586470584
 40
23.3751146590367
 40
23.3751146590367
 40
24.45748345336757
 40
24.45748345336757
 40
25.53985224769844
 40
25.53985224769844
 40
25.53985224769844
 40
25.53985224769844
 10
2459.215316155666
 20
1207.881393984067
 30
0.0
 10
2459.215316155666
 20
1207.520604385956
 30
0.0
 10
2459.171217415722
 20
1207.15223235748
 30
0.0
 10
2458.992392573686
 20
1206.429933917873
 30
0.0
 10
2458.857737674571
 20
1206.075986694971
 30
0.0
 10
2458.510567833848
 20
1205.408011971671
 30
0.0
 10
2458.297719299267
 20
1205.093210412501
 30
0.0
 10
2457.816864932522
 20
1204.52094285918
 30
0.0
 10
2457.548851579991
 20
1204.263464452538
 30
0.0
 10
2457.000249260659
 20
1203.824003971573
 30
0.0
 10
2456.701323258632
 20
1203.62439951093
 30
0.0
 10
2456.060994519836
 20
1203.275763783154
 30
0.0
 10
2455.719601202822
 20
1203.126696293788
 30
0.0
 10
2455.015139637782
 20
1202.888779497194
 30
0.0
 10
2454.651664215606
 20
1202.799801024155
 30
0.0
 10
2453.926080262982
 20
1202.683609630172
 30
0.0
 10
2453.56396689777
 20
1202.656421823745
 30
0.0
 10
2452.866665413563
 20
1202.656421823745
 30
0.0
 10
2452.50455204835
 20
1202.683609630172
 30
0.0
 10
2451.778968095727
 20
1202.799801024155
 30
0.0
 10
2451.415492673551
 20
1202.888779497194
 30
0.0
 10
2450.71103110851
 20
1203.126696293788
 30
0.0
 10
2450.369637791496
 20
1203.275763783154
 30
0.0
 10
2449.7293090527
 20
1203.62439951093
 30
0.0
 10
2449.430383050674
 20
1203.824003971573
 30
0.0
 10
2448.881780731341
 20
1204.263464452538
 30
0.0
 10
2448.613767378811
 20
1204.52094285918
 30
0.0
 10
2448.132913012065
 20
1205.093210412501
 30
0.0
 10
2447.920064477485
 20
1205.408011971671
 30
0.0
 10
2447.572894636761
 20
1206.075986694972
 30
0.0
 10
2447.438239737647
 20
1206.429933917873
 30
0.0
 10
2447.25941489561
 20
1207.15223235748
 30
0.0
 10
2447.215316155666
 20
1207.520604385956
 30
0.0
 10
2447.215316155666
 20
1207.881393984067
 30
0.0
  0
SPLINE
  5
29C8
330
1F
100
AcDbEntity
  8
AM_VIS
100
AcDbSpline
210
0.0
220
0.0
230
1.0
 70
     8
 71
     3
 72
    39
 73
    35
 74
     0
 42
0.0000000001
 43
0.0000000001
 40
25.53985224769844
 40
25.53985224769844
 40
25.53985224769844
 40
25.53985224769844
 40
26.62222104202931
 40
26.62222104202931
 40
27.70458983636018
 40
27.70458983636018
 40
28.78695863069104
 40
28.78695863069104
 40
29.86932742502192
 40
29.86932742502192
 40
30.91527965133256
 40
30.91527965133256
 40
31.9612318776432
 40
31.9612318776432
 40
33.00718410395384
 40
33.00718410395384
 40
34.05313633026448
 40
34.05313633026448
 40
34.05313633026448
 40
35.09908855657516
 40
35.09908855657516
 40
36.14504078288582
 40
36.14504078288582
 40
37.1909930091965
 40
37.1909930091965
 40
38.23694523550717
 40
38.23694523550717
 40
39.31931402983803
 40
39.31931402983803
 40
40.4016828241689
 40
40.4016828241689
 40
41.48405161849978
 40
41.48405161849978
 40
42.56642041283064
 40
42.56642041283064
 40
42.56642041283064
 40
42.56642041283064
 10
2447.215316155666
 20
1207.881393984067
 30
0.0
 10
2447.215316155666
 20
1208.242183582177
 30
0.0
 10
2447.25941489561
 20
1208.610555610654
 30
0.0
 10
2447.438239737647
 20
1209.33285405026
 30
0.0
 10
2447.572894636761
 20
1209.686801273162
 30
0.0
 10
2447.920064477485
 20
1210.354775996462
 30
0.0
 10
2448.132913012065
 20
1210.669577555633
 30
0.0
 10
2448.613767378811
 20
1211.241845108953
 30
0.0
 10
2448.881780731341
 20
1211.499323515595
 30
0.0
 10
2449.430383050674
 20
1211.938783996561
 30
0.0
 10
2449.7293090527
 20
1212.138388457204
 30
0.0
 10
2450.369637791496
 20
1212.487024184979
 30
0.0
 10
2450.71103110851
 20
1212.636091674345
 30
0.0
 10
2451.415492673551
 20
1212.874008470939
 30
0.0
 10
2451.778968095727
 20
1212.962986943978
 30
0.0
 10
2452.50455204835
 20
1213.079178337961
 30
0.0
 10
2452.866665413563
 20
1213.106366144389
 30
0.0
 10
2453.215316155667
 20
1213.106366144389
 30
0.0
 10
2453.56396689777
 20
1213.106366144389
 30
0.0
 10
2453.926080262983
 20
1213.079178337961
 30
0.0
 10
2454.651664215606
 20
1212.962986943978
 30
0.0
 10
2455.015139637782
 20
1212.874008470939
 30
0.0
 10
2455.719601202822
 20
1212.636091674345
 30
0.0
 10
2456.060994519836
 20
1212.487024184979
 30
0.0
 10
2456.701323258632
 20
1212.138388457204
 30
0.0
 10
2457.000249260659
 20
1211.93878399656
 30
0.0
 10
2457.548851579991
 20
1211.499323515595
 30
0.0
 10
2457.816864932522
 20
1211.241845108953
 30
0.0
 10
2458.297719299267
 20
1210.669577555633
 30
0.0
 10
2458.510567833848
 20
1210.354775996462
 30
0.0
 10
2458.857737674572
 20
1209.686801273162
 30
0.0
 10
2458.992392573686
 20
1209.33285405026
 30
0.0
 10
2459.171217415722
 20
1208.610555610653
 30
0.0
 10
2459.215316155666
 20
1208.242183582177
 30
0.0
 10
2459.215316155666
 20
1207.881393984067
 30
0.0
  0
LINE
  5
29C9
330
1F
100
AcDbEntity
  8
AM_VIS
100
AcDbLine
 10
2445.715316155666
 20
1190.631393984067
 30
0.0
 11
2460.715316155666
 21
1190.631393984067
 31
0.0
  0
LINE
  5
29CA
330
1F
100
AcDbEntity
  8
AM_VIS
100
AcDbLine
 10
2460.715316155666
 20
1225.131393984067
 30
0.0
 11
2445.715316155666
 21
1225.131393984067
 31
0.0
  0
LINE
  5
29CB
330
1F
100
AcDbEntity
  8
AM_VIS
100
AcDbLine
 10
2445.715316155666
 20
1219.881393984067
 30
0.0
 11
2429.715316155666
 21
1219.881393984067
 31
0.0
  0
LINE
  5
29CC
330
1F
100
AcDbEntity
  8
AM_VIS
100
AcDbLine
 10
2445.715316155666
 20
1195.881393984067
 30
0.0
 11
2429.715316155666
 21
1195.881393984067
 31
0.0
  0
LINE
  5
29CD
330
1F
100
AcDbEntity
  8
AM_VIS
100
AcDbLine
 10
2460.715316155666
 20
1190.631393984067
 30
0.0
 11
2463.215316155666
 21
1190.631393984067
 31
0.0
  0
LINE
  5
29CE
330
1F
100
AcDbEntity
  8
AM_VIS
100
AcDbLine
 10
2460.715316155666
 20
1225.131393984067
 30
0.0
 11
2463.215316155666
 21
1225.131393984067
 31
0.0
  0
LINE
  5
29D0
330
1F
100
AcDbEntity
  8
AM_VIS
100
AcDbLine
 10
2427.715316155666
 20
1197.881393984067
 30
0.0
 11
2427.715316155666
 21
1217.881393984067
 31
0.0
  0
LINE
  5
29D1
330
1F
100
AcDbEntity
  8
AM_VIS
100
AcDbLine
 10
2463.215316155666
 20
1225.131393984067
 30
0.0
 11
2463.215316155666
 21
1190.631393984067
 31
0.0
  0
LINE
  5
29D2
330
1F
100
AcDbEntity
  8
AM_VIS
100
AcDbLine
 10
2445.715316155666
 20
1190.631393984067
 30
0.0
 11
2445.715316155666
 21
1225.131393984067
 31
0.0
  0
LINE
  5
29D3
330
1F
100
AcDbEntity
  8
AM_VIS
100
AcDbLine
 10
2460.715316155666
 20
1225.131393984067
 30
0.0
 11
2460.715316155666
 21
1190.631393984067
 31
0.0
  0
ARC
  5
29D5
330
1F
100
AcDbEntity
  8
AM_VIS
100
AcDbCircle
 10
2429.715316155666
 20
1217.881393984067
 30
0.0
 40
2.0
100
AcDbArc
 50
90.0
 51
180.0
  0
ARC
  5
29D6
330
1F
100
AcDbEntity
  8
AM_VIS
100
AcDbCircle
 10
2429.715316155666
 20
1197.881393984067
 30
0.0
 40
2.0
100
AcDbArc
 50
180.0
 51
270.0
  0
SPLINE
  5
29D7
330
1F
100
AcDbEntity
  8
AM_VIS
100
AcDbSpline
210
0.0
220
0.0
230
1.0
 70
    12
 71
     2
 72
     6
 73
     3
 74
     0
 42
0.0000000001
 43
0.0000000001
 40
11.36583521716976
 40
11.36583521716976
 40
11.36583521716976
 40
20.98981589343729
 40
20.98981589343729
 40
20.98981589343729
 10
2361.741155035002
 20
1168.965737630306
 30
0.0
 41
1.0
 10
2361.741155035004
 20
1166.822144090858
 30
0.0
 41
1.045105101207728
 10
2363.170217394639
 20
1164.346935476789
 30
0.0
 41
1.013825033331092
  0
SPLINE
  5
29D8
330
1F
100
AcDbEntity
  8
AM_VIS
100
AcDbSpline
210
0.0
220
0.0
230
1.0
 70
    12
 71
     2
 72
     6
 73
     3
 74
     0
 42
0.0000000001
 43
0.0000000001
 40
1.741854540902273
 40
1.741854540902273
 40
1.741854540902273
 40
11.36583521716976
 40
11.36583521716976
 40
11.36583521716976
 10
2363.170217394635
 20
1173.584539783823
 30
0.0
 41
1.013825033331089
 10
2361.741155035003
 20
1171.109331169754
 30
-0.0000000000000036
 41
1.045105101207717
 10
2361.741155035002
 20
1168.965737630306
 30
0.0
 41
1.0
  0
LINE
  5
29D9
330
1F
100
AcDbEntity
  8
AM_VIS
100
AcDbLine
 10
2363.170217394635
 20
1173.584539783823
 30
0.0
 11
2368.31209267537
 21
1173.584539783823
 31
0.0
  0
SPLINE
  5
29DA
330
1F
100
AcDbEntity
  8
AM_VIS
100
AcDbSpline
210
-0.0000000000000091
220
-0.0000000000000018
230
1.0
 70
    12
 71
     2
 72
     6
 73
     3
 74
     0
 42
0.0000000001
 43
0.0000000001
 40
11.36583521716975
 40
11.36583521716975
 40
11.36583521716975
 40
20.98981589343723
 40
20.98981589343723
 40
20.98981589343723
 10
2361.741155035002
 20
1155.109331169755
 30
0.0
 41
1.0
 10
2361.741155035002
 20
1150.822144090858
 30
0.0
 41
1.045105101207716
 10
2363.170217394635
 20
1145.871726862721
 30
-0.0000000000000036
 41
1.013825033331088
  0
SPLINE
  5
29DB
330
1F
100
AcDbEntity
  8
AM_VIS
100
AcDbSpline
210
0.0
220
0.0
230
1.0
 70
    12
 71
     2
 72
     6
 73
     3
 74
     0
 42
0.0000000001
 43
0.0000000001
 40
1.741854540902262
 40
1.741854540902262
 40
1.741854540902262
 40
11.36583521716975
 40
11.36583521716975
 40
11.36583521716975
 10
2363.170217394635
 20
1164.346935476789
 30
0.0
 41
1.013825033331086
 10
2361.741155035005
 20
1159.396518248652
 30
0.0
 41
1.04510510120771
 10
2361.741155035002
 20
1155.109331169755
 30
0.0
 41
1.0
  0
LINE
  5
29DC
330
1F
100
AcDbEntity
  8
AM_VIS
100
AcDbLine
 10
2363.170217394635
 20
1164.346935476789
 30
0.0
 11
2368.31209267537
 21
1164.346935476789
 31
0.0
  0
LINE
  5
29DD
330
1F
100
AcDbEntity
  8
AM_VIS
100
AcDbLine
 10
2363.170217394635
 20
1136.634122555687
 30
0.0
 11
2368.31209267537
 21
1136.634122555687
 31
0.0
  0
SPLINE
  5
29DE
330
1F
100
AcDbEntity
  8
AM_VIS
100
AcDbSpline
210
0.0
220
0.0
230
1.0
 70
    12
 71
     2
 72
     6
 73
     3
 74
     0
 42
0.0000000001
 43
0.0000000001
 40
11.36583521716978
 40
11.36583521716978
 40
11.36583521716978
 40
20.98981589343729
 40
20.98981589343729
 40
20.98981589343729
 10
2361.741155035002
 20
1141.252924709204
 30
0.0
 41
1.0
 10
2361.741155035002
 20
1139.109331169755
 30
0.0
 41
1.04510510120773
 10
2363.170217394635
 20
1136.634122555687
 30
0.0
 41
1.013825033331092
  0
SPLINE
  5
29DF
330
1F
100
AcDbEntity
  8
AM_VIS
100
AcDbSpline
210
0.0
220
0.0
230
1.0
 70
    12
 71
     2
 72
     6
 73
     3
 74
     0
 42
0.0000000001
 43
0.0000000001
 40
1.741854540902251
 40
1.741854540902251
 40
1.741854540902251
 40
11.36583521716978
 40
11.36583521716978
 40
11.36583521716978
 10
2363.170217394635
 20
1145.871726862721
 30
0.0
 41
1.013825033331094
 10
2361.741155035002
 20
1143.396518248652
 30
0.0
 41
1.045105101207737
 10
2361.741155035002
 20
1141.252924709204
 30
0.0
 41
1.0
  0
LINE
  5
29E0
330
1F
100
AcDbEntity
  8
AM_VIS
100
AcDbLine
 10
2363.170217394635
 20
1145.871726862721
 30
0.0
 11
2368.31209267537
 21
1145.871726862721
 31
0.0
  0
SPLINE
  5
29E1
330
1F
100
AcDbEntity
  8
AM_VIS
100
AcDbSpline
210
0.0
220
0.0
230
1.0
 70
    12
 71
     2
 72
     6
 73
     3
 74
     0
 42
0.0000000001
 43
0.0000000001
 40
13.96235701294602
 40
13.96235701294602
 40
13.96235701294602
 40
23.93595392785844
 40
23.93595392785844
 40
23.93595392785844
 10
2369.741155035002
 20
1168.965737630306
 30
0.0
 41
1.0
 10
2369.741155035002
 20
1171.109331169755
 30
0.0
 41
1.053781655736745
 10
2368.31209267537
 20
1173.584539783823
 30
0.0
 41
1.030728640187327
  0
SPLINE
  5
29E2
330
1F
100
AcDbEntity
  8
AM_VIS
100
AcDbSpline
210
-0.0000000000000091
220
0.0000000000000037
230
1.0
 70
    12
 71
     2
 72
     6
 73
     3
 74
     0
 42
0.0000000001
 43
0.0000000001
 40
3.988760098033601
 40
3.988760098033601
 40
3.988760098033601
 40
13.96235701294602
 40
13.96235701294602
 40
13.96235701294602
 10
2368.31209267537
 20
1164.346935476789
 30
0.0000000000000036
 41
1.030728640187324
 10
2369.741155035002
 20
1166.822144090857
 30
0.0
 41
1.05378165573674
 10
2369.741155035002
 20
1168.965737630306
 30
0.0
 41
1.0
  0
SPLINE
  5
29E3
330
1F
100
AcDbEntity
  8
AM_VIS
100
AcDbSpline
210
0.0
220
0.0
230
1.0
 70
    12
 71
     2
 72
     6
 73
     3
 74
     0
 42
0.0000000001
 43
0.0000000001
 40
13.96235701294602
 40
13.96235701294602
 40
13.96235701294602
 40
23.93595392785846
 40
23.93595392785846
 40
23.93595392785846
 10
2369.741155035002
 20
1155.109331169755
 30
0.0
 41
1.0
 10
2369.741155035002
 20
1159.396518248652
 30
0.0
 41
1.053781655736748
 10
2368.31209267537
 20
1164.346935476789
 30
0.0
 41
1.030728640187328
  0
SPLINE
  5
29E4
330
1F
100
AcDbEntity
  8
AM_VIS
100
AcDbSpline
210
-0.0000000000000091
220
0.0000000000000018
230
1.0
 70
    12
 71
     2
 72
     6
 73
     3
 74
     0
 42
0.0000000001
 43
0.0000000001
 40
3.98876009803363
 40
3.98876009803363
 40
3.98876009803363
 40
13.96235701294602
 40
13.96235701294602
 40
13.96235701294602
 10
2368.31209267537
 20
1145.871726862721
 30
0.0000000000000036
 41
1.030728640187324
 10
2369.741155035002
 20
1150.822144090857
 30
0.0
 41
1.05378165573674
 10
2369.741155035002
 20
1155.109331169755
 30
0.0
 41
1.0
  0
SPLINE
  5
29E5
330
1F
100
AcDbEntity
  8
AM_VIS
100
AcDbSpline
210
0.0
220
0.0
230
1.0
 70
    12
 71
     2
 72
     6
 73
     3
 74
     0
 42
0.0000000001
 43
0.0000000001
 40
13.96235701294605
 40
13.96235701294605
 40
13.96235701294605
 40
23.93595392785849
 40
23.93595392785849
 40
23.93595392785849
 10
2369.741155035002
 20
1141.252924709204
 30
0.0
 41
1.0
 10
2369.741155035004
 20
1143.396518248653
 30
0.0
 41
1.05378165573675
 10
2368.31209267537
 20
1145.871726862721
 30
0.0
 41
1.030728640187329
  0
SPLINE
  5
29E6
330
1F
100
AcDbEntity
  8
AM_VIS
100
AcDbSpline
210
0.0
220
0.0
230
1.0
 70
    12
 71
     2
 72
     6
 73
     3
 74
     0
 42
0.0000000001
 43
0.0000000001
 40
3.988760098033622
 40
3.988760098033622
 40
3.988760098033622
 40
13.96235701294605
 40
13.96235701294605
 40
13.96235701294605
 10
2368.31209267537
 20
1136.634122555687
 30
0.0
 41
1.030728640187333
 10
2369.741155035002
 20
1139.109331169755
 30
0.0
 41
1.053781655736756
 10
2369.741155035002
 20
1141.252924709204
 30
0.0
 41
1.0
  0
LINE
  5
29E7
330
1F
100
AcDbEntity
  8
AM_VIS
100
AcDbLine
 10
2361.741155035002
 20
1139.109331169755
 30
0.0
 11
2363.170217394635
 21
1136.634122555687
 31
0.0
  0
LINE
  5
29E8
330
1F
100
AcDbEntity
  8
AM_VIS
100
AcDbLine
 10
2361.741155035002
 20
1171.109331169755
 30
0.0
 11
2363.170217394635
 21
1173.584539783823
 31
0.0
  0
LINE
  5
29E9
330
1F
100
AcDbEntity
  8
AM_VIS
100
AcDbLine
 10
2369.741155035002
 20
1171.109331169755
 30
0.0
 11
2368.31209267537
 21
1173.584539783823
 31
0.0
  0
LINE
  5
29EA
330
1F
100
AcDbEntity
  8
AM_VIS
100
AcDbLine
 10
2369.741155035002
 20
1139.109331169755
 30
0.0
 11
2368.31209267537
 21
1136.634122555687
 31
0.0
  0
LINE
  5
29EB
330
1F
100
AcDbEntity
  8
AM_VIS
100
AcDbLine
 10
2361.741155035002
 20
1171.109331169755
 30
0.0
 11
2361.741155035002
 21
1168.965737630306
 31
0.0
  0
LINE
  5
29EC
330
1F
100
AcDbEntity
  8
AM_VIS
100
AcDbLine
 10
2361.741155035002
 20
1168.965737630306
 30
0.0
 11
2361.741155035002
 21
1155.109331169755
 31
0.0
  0
LINE
  5
29ED
330
1F
100
AcDbEntity
  8
AM_VIS
100
AcDbLine
 10
2361.741155035002
 20
1155.109331169755
 30
0.0
 11
2361.741155035002
 21
1141.252924709204
 31
0.0
  0
LINE
  5
29EE
330
1F
100
AcDbEntity
  8
AM_VIS
100
AcDbLine
 10
2361.741155035002
 20
1141.252924709204
 30
0.0
 11
2361.741155035002
 21
1139.109331169755
 31
0.0
  0
LINE
  5
29EF
330
1F
100
AcDbEntity
  8
AM_VIS
100
AcDbLine
 10
2369.741155035002
 20
1139.109331169755
 30
0.0
 11
2369.741155035002
 21
1141.252924709204
 31
0.0
  0
LINE
  5
29F0
330
1F
100
AcDbEntity
  8
AM_VIS
100
AcDbLine
 10
2369.741155035002
 20
1141.252924709204
 30
0.0
 11
2369.741155035002
 21
1155.109331169755
 31
0.0
  0
LINE
  5
29F1
330
1F
100
AcDbEntity
  8
AM_VIS
100
AcDbLine
 10
2369.741155035002
 20
1155.109331169755
 30
0.0
 11
2369.741155035002
 21
1168.965737630306
 31
0.0
  0
LINE
  5
29F2
330
1F
100
AcDbEntity
  8
AM_VIS
100
AcDbLine
 10
2369.741155035002
 20
1168.965737630306
 30
0.0
 11
2369.741155035002
 21
1171.109331169755
 31
0.0
  0
LINE
  5
29F3
330
1F
100
AcDbEntity
  8
AM_VIS
100
AcDbLine
 10
2363.170217394635
 20
1223.881393984067
 30
0.0
 11
2368.31209267537
 21
1223.881393984067
 31
0.0
  0
SPLINE
  5
29F4
330
1F
100
AcDbEntity
  8
AM_VIS
100
AcDbSpline
210
0.0
220
0.0
230
1.0
 70
    12
 71
     2
 72
     6
 73
     3
 74
     0
 42
0.0000000001
 43
0.0000000001
 40
11.36583521716975
 40
11.36583521716975
 40
11.36583521716975
 40
20.98981589343722
 40
20.98981589343722
 40
20.98981589343722
 10
2361.741155035002
 20
1215.881393984067
 30
0.0
 41
1.0
 10
2361.741155035002
 20
1212.168581062966
 30
0.0
 41
1.045105101207708
 10
2363.170217394634
 20
1207.881393984067
 30
0.0
 41
1.013825033331086
  0
LINE
  5
29F5
330
1F
100
AcDbEntity
  8
AM_VIS
100
AcDbLine
 10
2361.741155035002
 20
1223.881393984067
 30
0.0
 11
2363.170217394635
 21
1223.881393984067
 31
0.0
  0
SPLINE
  5
29F6
330
1F
100
AcDbEntity
  8
AM_VIS
100
AcDbSpline
210
0.0
220
0.0
230
1.0
 70
    12
 71
     2
 72
     6
 73
     3
 74
     0
 42
0.0000000001
 43
0.0000000001
 40
1.741854540902238
 40
1.741854540902238
 40
1.741854540902238
 40
11.36583521716975
 40
11.36583521716975
 40
11.36583521716975
 10
2363.170217394635
 20
1223.881393984067
 30
0.0
 41
1.013825033331086
 10
2361.741155035002
 20
1219.594206905168
 30
0.0
 41
1.045105101207707
 10
2361.741155035002
 20
1215.881393984067
 30
0.0
 41
1.0
  0
SPLINE
  5
29F7
330
1F
100
AcDbEntity
  8
AM_VIS
100
AcDbSpline
210
0.0
220
0.0
230
1.0
 70
    12
 71
     2
 72
     6
 73
     3
 74
     0
 42
0.0000000001
 43
0.0000000001
 40
11.36583521716976
 40
11.36583521716976
 40
11.36583521716976
 40
20.98981589343729
 40
20.98981589343729
 40
20.98981589343729
 10
2361.741155035002
 20
1199.881393984067
 30
0.0
 41
1.0
 10
2361.741155035004
 20
1196.168581062966
 30
0.0
 41
1.045105101207728
 10
2363.170217394639
 20
1191.881393984069
 30
0.0
 41
1.013825033331092
  0
SPLINE
  5
29F8
330
1F
100
AcDbEntity
  8
AM_VIS
100
AcDbSpline
210
0.0
220
0.0
230
1.0
 70
    12
 71
     2
 72
     6
 73
     3
 74
     0
 42
0.0000000001
 43
0.0000000001
 40
1.741854540902273
 40
1.741854540902273
 40
1.741854540902273
 40
11.36583521716976
 40
11.36583521716976
 40
11.36583521716976
 10
2363.170217394635
 20
1207.881393984067
 30
0.0
 41
1.013825033331089
 10
2361.741155035003
 20
1203.594206905168
 30
0.0000000000000071
 41
1.045105101207717
 10
2361.741155035002
 20
1199.881393984067
 30
0.0
 41
1.0
  0
LINE
  5
29F9
330
1F
100
AcDbEntity
  8
AM_VIS
100
AcDbLine
 10
2363.170217394635
 20
1207.881393984067
 30
0.0
 11
2368.31209267537
 21
1207.881393984067
 31
0.0
  0
LINE
  5
29FA
330
1F
100
AcDbEntity
  8
AM_VIS
100
AcDbLine
 10
2361.741155035002
 20
1191.881393984067
 30
0.0
 11
2363.170217394635
 21
1191.881393984067
 31
0.0
  0
LINE
  5
29FB
330
1F
100
AcDbEntity
  8
AM_VIS
100
AcDbLine
 10
2363.170217394635
 20
1191.881393984067
 30
0.0
 11
2368.31209267537
 21
1191.881393984067
 31
0.0
  0
SPLINE
  5
29FC
330
1F
100
AcDbEntity
  8
AM_VIS
100
AcDbSpline
210
0.0
220
0.0
230
1.0
 70
    12
 71
     2
 72
     6
 73
     3
 74
     0
 42
0.0000000001
 43
0.0000000001
 40
3.988760098033624
 40
3.988760098033624
 40
3.988760098033624
 40
13.96235701294601
 40
13.96235701294601
 40
13.96235701294601
 10
2368.31209267537
 20
1207.881393984067
 30
0.0
 41
1.030728640187323
 10
2369.741155035002
 20
1212.168581062965
 30
0.0
 41
1.053781655736738
 10
2369.741155035002
 20
1215.881393984067
 30
0.0
 41
1.0
  0
SPLINE
  5
29FD
330
1F
100
AcDbEntity
  8
AM_VIS
100
AcDbSpline
210
0.0
220
0.0
230
1.0
 70
    12
 71
     2
 72
     6
 73
     3
 74
     0
 42
0.0000000001
 43
0.0000000001
 40
13.96235701294602
 40
13.96235701294602
 40
13.96235701294602
 40
23.93595392785844
 40
23.93595392785844
 40
23.93595392785844
 10
2369.741155035002
 20
1199.881393984067
 30
0.0
 41
1.0
 10
2369.741155035002
 20
1203.594206905169
 30
0.0
 41
1.053781655736745
 10
2368.31209267537
 20
1207.881393984067
 30
0.0
 41
1.030728640187327
  0
SPLINE
  5
29FE
330
1F
100
AcDbEntity
  8
AM_VIS
100
AcDbSpline
210
0.0
220
0.0
230
1.0
 70
    12
 71
     2
 72
     6
 73
     3
 74
     0
 42
0.0000000001
 43
0.0000000001
 40
3.988760098033601
 40
3.988760098033601
 40
3.988760098033601
 40
13.96235701294602
 40
13.96235701294602
 40
13.96235701294602
 10
2368.31209267537
 20
1191.881393984067
 30
0.0
 41
1.030728640187324
 10
2369.741155035002
 20
1196.168581062965
 30
0.0
 41
1.05378165573674
 10
2369.741155035002
 20
1199.881393984067
 30
0.0
 41
1.0
  0
LINE
  5
29FF
330
1F
100
AcDbEntity
  8
AM_VIS
100
AcDbLine
 10
2368.31209267537
 20
1191.881393984067
 30
0.0
 11
2369.741155035002
 21
1191.881393984067
 31
0.0
  0
SPLINE
  5
2A00
330
1F
100
AcDbEntity
  8
AM_VIS
100
AcDbSpline
210
0.0
220
0.0
230
1.0
 70
    12
 71
     2
 72
     6
 73
     3
 74
     0
 42
0.0000000001
 43
0.0000000001
 40
13.96235701294601
 40
13.96235701294601
 40
13.96235701294601
 40
23.93595392785846
 40
23.93595392785846
 40
23.93595392785846
 10
2369.741155035002
 20
1215.881393984067
 30
0.0
 41
1.0
 10
2369.741155035002
 20
1219.594206905169
 30
0.0
 41
1.053781655736745
 10
2368.31209267537
 20
1223.881393984068
 30
0.0
 41
1.030728640187326
  0
LINE
  5
2A01
330
1F
100
AcDbEntity
  8
AM_VIS
100
AcDbLine
 10
2368.31209267537
 20
1223.881393984067
 30
0.0
 11
2369.741155035002
 21
1223.881393984067
 31
0.0
  0
LINE
  5
2A02
330
1F
100
AcDbEntity
  8
AM_VIS
100
AcDbLine
 10
2361.741155035002
 20
1223.881393984067
 30
0.0
 11
2361.741155035002
 21
1215.881393984067
 31
0.0
  0
LINE
  5
2A03
330
1F
100
AcDbEntity
  8
AM_VIS
100
AcDbLine
 10
2361.741155035002
 20
1215.881393984067
 30
0.0
 11
2361.741155035002
 21
1199.881393984067
 31
0.0
  0
LINE
  5
2A04
330
1F
100
AcDbEntity
  8
AM_VIS
100
AcDbLine
 10
2361.741155035002
 20
1199.881393984067
 30
0.0
 11
2361.741155035002
 21
1191.881393984067
 31
0.0
  0
LINE
  5
2A05
330
1F
100
AcDbEntity
  8
AM_VIS
100
AcDbLine
 10
2369.741155035002
 20
1215.881393984067
 30
0.0
 11
2369.741155035002
 21
1223.881393984067
 31
0.0
  0
LINE
  5
2A06
330
1F
100
AcDbEntity
  8
AM_VIS
100
AcDbLine
 10
2369.741155035002
 20
1191.881393984067
 30
0.0
 11
2369.741155035002
 21
1199.881393984067
 31
0.0
  0
LINE
  5
2A07
330
1F
100
AcDbEntity
  8
AM_VIS
100
AcDbLine
 10
2369.741155035002
 20
1199.881393984067
 30
0.0
 11
2369.741155035002
 21
1215.881393984067
 31
0.0
  0
SPLINE
  5
2A08
330
1F
100
AcDbEntity
  8
AM_VIS
100
AcDbSpline
210
0.0
220
0.0
230
1.0
 70
    12
 71
     2
 72
     6
 73
     3
 74
     0
 42
0.0000000001
 43
0.0000000001
 40
0.3149383697693579
 40
0.3149383697693579
 40
0.3149383697693579
 40
10.36213988225149
 40
10.36213988225149
 40
10.36213988225149
 10
2337.144695806663
 20
1168.552393179984
 30
0.0
 41
1.010103515299818
 10
2335.728029139997
 20
1166.09865453593
 30
0.0
 41
1.166367072935303
 10
2337.144695806667
 20
1163.644915891872
 30
0.0
 41
1.010103515300145
  0
LINE
  5
2A09
330
1F
100
AcDbEntity
  8
AM_VIS
100
AcDbLine
 10
2337.144695806663
 20
1168.552393179984
 30
0.0
 11
2341.337641914959
 21
1168.552393179984
 31
0.0
  0
SPLINE
  5
2A0A
330
1F
100
AcDbEntity
  8
AM_VIS
100
AcDbSpline
210
0.0
220
0.0
230
1.0
 70
    12
 71
     2
 72
     6
 73
     3
 74
     0
 42
0.0000000001
 43
0.0000000001
 40
0.314938369769357
 40
0.314938369769357
 40
0.314938369769357
 40
10.36213988225154
 40
10.36213988225154
 40
10.36213988225154
 10
2337.144695806664
 20
1163.644915891872
 30
0.0
 41
1.010103515299821
 10
2335.728029139997
 20
1158.737438603765
 30
0.0
 41
1.166367072935355
 10
2337.144695806663
 20
1153.829961315646
 30
0.0
 41
1.010103515300148
  0
LINE
  5
2A0B
330
1F
100
AcDbEntity
  8
AM_VIS
100
AcDbLine
 10
2337.144695806663
 20
1163.644915891872
 30
0.0
 11
2341.337641914959
 21
1163.644915891872
 31
0.0
  0
LINE
  5
2A0C
330
1F
100
AcDbEntity
  8
AM_VIS
100
AcDbLine
 10
2337.144695806663
 20
1148.922484027536
 30
0.0
 11
2341.337641914959
 21
1148.922484027536
 31
0.0
  0
SPLINE
  5
2A0D
330
1F
100
AcDbEntity
  8
AM_VIS
100
AcDbSpline
210
0.0
220
0.0
230
1.0
 70
    12
 71
     2
 72
     6
 73
     3
 74
     0
 42
0.0000000001
 43
0.0000000001
 40
0.3149383697693467
 40
0.3149383697693467
 40
0.3149383697693467
 40
10.36213988225153
 40
10.36213988225153
 40
10.36213988225153
 10
2337.144695806663
 20
1153.829961315648
 30
0.0
 41
1.010103515299823
 10
2335.728029139998
 20
1151.376222671595
 30
0.0
 41
1.166367072935389
 10
2337.144695806663
 20
1148.922484027536
 30
0.0
 41
1.010103515300148
  0
LINE
  5
2A0E
330
1F
100
AcDbEntity
  8
AM_VIS
100
AcDbLine
 10
2337.144695806663
 20
1153.829961315648
 30
0.0
 11
2341.337641914959
 21
1153.829961315648
 31
0.0
  0
SPLINE
  5
2A0F
330
1F
100
AcDbEntity
  8
AM_VIS
100
AcDbSpline
210
0.0
220
0.0
230
1.0
 70
    12
 71
     2
 72
     6
 73
     3
 74
     0
 42
0.0000000001
 43
0.0000000001
 40
0.3149383697693224
 40
0.3149383697693224
 40
0.3149383697693224
 40
10.36213988225147
 40
10.36213988225147
 40
10.36213988225147
 10
2341.33764191496
 20
1148.922484027539
 30
0.0
 41
1.010103515299821
 10
2342.754308581624
 20
1151.37622267159
 30
0.0
 41
1.166367072935363
 10
2341.337641914958
 20
1153.829961315646
 30
0.0
 41
1.010103515300148
  0
SPLINE
  5
2A10
330
1F
100
AcDbEntity
  8
AM_VIS
100
AcDbSpline
210
0.0
220
0.0000000000000004
230
1.0
 70
    12
 71
     2
 72
     6
 73
     3
 74
     0
 42
0.0000000001
 43
0.0000000001
 40
0.3149383697693951
 40
0.3149383697693951
 40
0.3149383697693951
 40
10.36213988225158
 40
10.36213988225158
 40
10.36213988225158
 10
2341.33764191496
 20
1153.829961315649
 30
0.0
 41
1.010103515299821
 10
2342.754308581624
 20
1158.737438603756
 30
0.0
 41
1.166367072935331
 10
2341.337641914959
 20
1163.644915891872
 30
-0.0000000000000036
 41
1.010103515300145
  0
SPLINE
  5
2A11
330
1F
100
AcDbEntity
  8
AM_VIS
100
AcDbSpline
210
0.0
220
0.0
230
1.0
 70
    12
 71
     2
 72
     6
 73
     3
 74
     0
 42
0.0000000001
 43
0.0000000001
 40
0.3149383697693811
 40
0.3149383697693811
 40
0.3149383697693811
 40
10.36213988225151
 40
10.36213988225151
 40
10.36213988225151
 10
2341.337641914959
 20
1163.644915891872
 30
0.0
 41
1.010103515299819
 10
2342.754308581624
 20
1166.098654535925
 30
0.0
 41
1.166367072935299
 10
2341.337641914959
 20
1168.552393179986
 30
0.0
 41
1.010103515300144
  0
LINE
  5
2A12
330
1F
100
AcDbEntity
  8
AM_VIS
100
AcDbLine
 10
2336.241168860811
 20
1150.48743860376
 30
0.0
 11
2337.144695806663
 21
1148.922484027536
 31
0.0
  0
LINE
  5
2A13
330
1F
100
AcDbEntity
  8
AM_VIS
100
AcDbLine
 10
2336.241168860811
 20
1166.98743860376
 30
0.0
 11
2337.144695806663
 21
1168.552393179984
 31
0.0
  0
LINE
  5
2A14
330
1F
100
AcDbEntity
  8
AM_VIS
100
AcDbLine
 10
2342.241168860811
 20
1166.98743860376
 30
0.0
 11
2341.337641914959
 21
1168.552393179984
 31
0.0
  0
LINE
  5
2A15
330
1F
100
AcDbEntity
  8
AM_VIS
100
AcDbLine
 10
2342.241168860811
 20
1150.48743860376
 30
0.0
 11
2341.337641914959
 21
1148.922484027536
 31
0.0
  0
LINE
  5
2A16
330
1F
100
AcDbEntity
  8
AM_VIS
100
AcDbLine
 10
2336.241168860811
 20
1166.98743860376
 30
0.0
 11
2336.241168860811
 21
1150.48743860376
 31
0.0
  0
LINE
  5
2A17
330
1F
100
AcDbEntity
  8
AM_VIS
100
AcDbLine
 10
2342.241168860811
 20
1150.48743860376
 30
0.0
 11
2342.241168860811
 21
1166.98743860376
 31
0.0
  0
LINE
  5
2A18
330
1F
100
AcDbEntity
  8
AM_VIS
100
AcDbLine
 10
2337.144695806663
 20
1216.665357235222
 30
0.0
 11
2341.337641914959
 21
1216.665357235222
 31
0.0
  0
LINE
  5
2A19
330
1F
100
AcDbEntity
  8
AM_VIS
100
AcDbLine
 10
2336.38550642811
 20
1216.665357235222
 30
0.0
 11
2337.144695806663
 21
1216.665357235222
 31
0.0
  0
SPLINE
  5
2A1A
330
1F
100
AcDbEntity
  8
AM_VIS
100
AcDbSpline
210
0.0
220
-0.0000000000000008
230
1.0
 70
    12
 71
     2
 72
     6
 73
     3
 74
     0
 42
0.0000000001
 43
0.0000000001
 40
0.3149383697693445
 40
0.3149383697693445
 40
0.3149383697693445
 40
10.3621398822515
 40
10.3621398822515
 40
10.3621398822515
 10
2337.144695806664
 20
1216.665357235223
 30
0.0000000000000071
 41
1.010103515299821
 10
2335.728029139997
 20
1212.415357235226
 30
0.0
 41
1.166367072935347
 10
2337.144695806663
 20
1208.165357235222
 30
0.0
 41
1.010103515300146
  0
SPLINE
  5
2A1B
330
1F
100
AcDbEntity
  8
AM_VIS
100
AcDbSpline
210
0.0
220
0.0
230
1.0
 70
    12
 71
     2
 72
     6
 73
     3
 74
     0
 42
0.0000000001
 43
0.0000000001
 40
0.3149383697693579
 40
0.3149383697693579
 40
0.3149383697693579
 40
10.36213988225149
 40
10.36213988225149
 40
10.36213988225149
 10
2337.144695806663
 20
1208.165357235222
 30
0.0
 41
1.010103515299818
 10
2335.728029139997
 20
1203.915357235226
 30
0.0
 41
1.166367072935303
 10
2337.144695806667
 20
1199.665357235222
 30
0.0
 41
1.010103515300145
  0
LINE
  5
2A1C
330
1F
100
AcDbEntity
  8
AM_VIS
100
AcDbLine
 10
2337.144695806663
 20
1208.165357235222
 30
0.0
 11
2341.337641914959
 21
1208.165357235222
 31
0.0
  0
LINE
  5
2A1D
330
1F
100
AcDbEntity
  8
AM_VIS
100
AcDbLine
 10
2336.385506428109
 20
1199.665357235222
 30
0.0
 11
2337.144695806663
 21
1199.665357235222
 31
0.0
  0
LINE
  5
2A1E
330
1F
100
AcDbEntity
  8
AM_VIS
100
AcDbLine
 10
2337.144695806663
 20
1199.665357235222
 30
0.0
 11
2341.337641914959
 21
1199.665357235222
 31
0.0
  0
LINE
  5
2A1F
330
1F
100
AcDbEntity
  8
AM_VIS
100
AcDbLine
 10
2341.337641914959
 20
1216.665357235222
 30
0.0
 11
2342.096831293513
 21
1216.665357235222
 31
0.0
  0
LINE
  5
2A20
330
1F
100
AcDbEntity
  8
AM_VIS
100
AcDbLine
 10
2341.337641914959
 20
1199.665357235222
 30
0.0
 11
2342.096831293512
 21
1199.665357235222
 31
0.0
  0
SPLINE
  5
2A21
330
1F
100
AcDbEntity
  8
AM_VIS
100
AcDbSpline
210
0.0
220
0.0
230
1.0
 70
    12
 71
     2
 72
     6
 73
     3
 74
     0
 42
0.0000000001
 43
0.0000000001
 40
0.3149383697693811
 40
0.3149383697693811
 40
0.3149383697693811
 40
10.36213988225151
 40
10.36213988225151
 40
10.36213988225151
 10
2341.337641914959
 20
1199.665357235222
 30
0.0
 41
1.010103515299819
 10
2342.754308581624
 20
1203.915357235218
 30
0.0
 41
1.166367072935299
 10
2341.337641914959
 20
1208.165357235222
 30
0.0
 41
1.010103515300144
  0
SPLINE
  5
2A22
330
1F
100
AcDbEntity
  8
AM_VIS
100
AcDbSpline
210
0.0
220
0.0
230
1.0
 70
    12
 71
     2
 72
     6
 73
     3
 74
     0
 42
0.0000000001
 43
0.0000000001
 40
0.314938369769333
 40
0.314938369769333
 40
0.314938369769333
 40
10.3621398822515
 40
10.3621398822515
 40
10.3621398822515
 10
2341.337641914955
 20
1208.16535723522
 30
0.0
 41
1.01010351529982
 10
2342.754308581624
 20
1212.415357235218
 30
-0.0000000000000071
 41
1.166367072935343
 10
2341.337641914959
 20
1216.665357235222
 30
0.0
 41
1.010103515300146
  0
LINE
  5
2A23
330
1F
100
AcDbEntity
  8
AM_VIS
100
AcDbLine
 10
2336.241168860811
 20
1199.915357235222
 30
0.0
 11
2336.385506428108
 21
1199.665357235222
 31
0.0
  0
LINE
  5
2A24
330
1F
100
AcDbEntity
  8
AM_VIS
100
AcDbLine
 10
2336.241168860811
 20
1216.415357235222
 30
0.0
 11
2336.385506428108
 21
1216.665357235222
 31
0.0
  0
LINE
  5
2A25
330
1F
100
AcDbEntity
  8
AM_VIS
100
AcDbLine
 10
2342.241168860811
 20
1216.415357235222
 30
0.0
 11
2342.096831293513
 21
1216.665357235222
 31
0.0
  0
LINE
  5
2A26
330
1F
100
AcDbEntity
  8
AM_VIS
100
AcDbLine
 10
2342.241168860811
 20
1199.915357235222
 30
0.0
 11
2342.096831293513
 21
1199.665357235222
 31
0.0
  0
LINE
  5
2A27
330
1F
100
AcDbEntity
  8
AM_VIS
100
AcDbLine
 10
2336.241168860811
 20
1216.415357235222
 30
0.0
 11
2336.241168860811
 21
1199.915357235222
 31
0.0
  0
LINE
  5
2A28
330
1F
100
AcDbEntity
  8
AM_VIS
100
AcDbLine
 10
2342.241168860811
 20
1199.915357235222
 30
0.0
 11
2342.241168860811
 21
1216.415357235222
 31
0.0
  0
LINE
  5
2A36
330
1F
100
AcDbEntity
  8
AM_7
100
AcDbLine
 10
2391.715316155666
 20
1155.109331169754
 30
0.0
 11
2543.080900513355
 21
1155.109331169754
 31
0.0
1001
GENIUS_GENODEF_13
1002
{
1000
HIER
1070
     0
1002
}
1002
{
1000
MANEDIT
1070
     0
1002
}
1002
{
1000
NOSEL
1070
     0
1002
}
1002
{
1000
BEHIND
1070
     0
1002
}
1002
{
1000
OTHER
1070
     0
1002
}
1002
{
1000
REACTOR
1002
}
1001
GENIUS_GENOBJ-N-CEN_13
1002
{
1000
OWNER
1000
GEN
1002
}
1001
GENIUS_GENCEN_19
1002
{
1040
2.0
1002
}
  0
LINE
  5
2A37
330
1F
100
AcDbEntity
  8
AM_7
100
AcDbLine
 10
2391.715316155666
 20
1207.881393984067
 30
0.0
 11
2543.080900513355
 21
1207.881393984067
 31
0.0
1001
GENIUS_GENODEF_13
1002
{
1000
HIER
1070
     0
1002
}
1002
{
1000
MANEDIT
1070
     0
1002
}
1002
{
1000
NOSEL
1070
     0
1002
}
1002
{
1000
BEHIND
1070
     0
1002
}
1002
{
1000
OTHER
1070
     0
1002
}
1002
{
1000
REACTOR
1002
}
1001
GENIUS_GENOBJ-N-CEN_13
1002
{
1000
OWNER
1000
GEN
1002
}
1001
GENIUS_GENCEN_19
1002
{
1040
2.0
1002
}
  0
LINE
  5
2A45
330
1F
100
AcDbEntity
  8
AM_7
100
AcDbLine
 10
2576.840273024677
 20
1155.109331169754
 30
0.0
 11
2596.090273024677
 21
1155.109331169754
 31
0.0
1001
GENIUS_GENOREF_13
1005
2A49
  0
LINE
  5
2A46
330
1F
100
AcDbEntity
  8
AM_7
100
AcDbLine
 10
2576.840273024677
 20
1155.109331169754
 30
0.0
 11
2576.840273024677
 21
1174.359331169754
 31
0.0
1001
GENIUS_GENOREF_13
1005
2A49
  0
LINE
  5
2A47
330
1F
100
AcDbEntity
  8
AM_7
100
AcDbLine
 10
2576.840273024677
 20
1155.109331169754
 30
0.0
 11
2557.590273024677
 21
1155.109331169754
 31
0.0
1001
GENIUS_GENOREF_13
1005
2A49
  0
LINE
  5
2A48
330
1F
100
AcDbEntity
  8
AM_7
100
AcDbLine
 10
2576.840273024677
 20
1155.109331169754
 30
0.0
 11
2576.840273024677
 21
1135.859331169754
 31
0.0
1001
GENIUS_GENOREF_13
1005
2A49
  0
POINT
  5
2A49
330
1F
100
AcDbEntity
  8
0
 60
     1
100
AcDbPoint
 10
0.0
 20
0.0
 30
0.0
1001
GENIUS_GENOBJ-N-CRS_13
1002
{
1000
OWNER
1000
GEN
1002
}
1001
GENIUS_GENOLIS_13
1002
{
1000
ENT
1005
2A48
1005
2A47
1005
2A46
1005
2A45
1002
}
1001
GENIUS_GENOENT_13
1002
{
1000
MYREF
1005
2A49
1002
}
1002
{
1000
GRP
1005
0
1002
}
1001
GENIUS_GENODEF_13
1002
{
1000
HIER
1070
    10
1002
}
1002
{
1000
MANEDIT
1070
     0
1002
}
1002
{
1000
NOSEL
1070
     0
1002
}
1002
{
1000
BEHIND
1070
     0
1002
}
1002
{
1000
OTHER
1070
     0
1002
}
1002
{
1000
REACTOR
1002
}
  0
LINE
  5
2A56
330
1F
100
AcDbEntity
  8
AM_7
  6
AM_ISO08W050x2
100
AcDbLine
 10
2359.741155035074
 20
1155.109415416475
 30
0.0
 11
2371.741155034932
 21
1155.109314320411
 31
0.0
1001
GENIUS_GENOBJ-N-CEN_13
1002
{
1000
OWNER
1000
GEN
1002
}
1001
GENIUS_GENODEF_13
1002
{
1000
HIER
1070
     0
1002
}
1002
{
1000
MANEDIT
1070
     0
1002
}
1002
{
1000
NOSEL
1070
     0
1002
}
1002
{
1000
BEHIND
1070
     0
1002
}
1002
{
1000
OTHER
1070
     0
1002
}
1002
{
1000
REACTOR
1002
}
1001
GENIUS_GENCEN_19
1002
{
1040
2.0
1002
}
  0
LINE
  5
2A63
330
1F
100
AcDbEntity
  8
AM_7
  6
AM_ISO08W050x2
100
AcDbLine
 10
2334.241168860811
 20
1158.73743860376
 30
0.0
 11
2344.241168860811
 21
1158.73743860376
 31
0.0
1001
GENIUS_GENOBJ-N-CEN_13
1002
{
1000
OWNER
1000
GEN
1002
}
1001
GENIUS_GENODEF_13
1002
{
1000
HIER
1070
     0
1002
}
1002
{
1000
MANEDIT
1070
     0
1002
}
1002
{
1000
NOSEL
1070
     0
1002
}
1002
{
1000
BEHIND
1070
     0
1002
}
1002
{
1000
OTHER
1070
     0
1002
}
1002
{
1000
REACTOR
1002
}
1001
GENIUS_GENCEN_19
1002
{
1040
2.0
1002
}
  0
LINE
  5
2A70
330
1F
100
AcDbEntity
  8
AM_7
  6
AM_ISO08W050x2
100
AcDbLine
 10
2334.241168860811
 20
1208.165357235222
 30
0.0
 11
2344.241168860811
 21
1208.165357235222
 31
0.0
1001
GENIUS_GENOBJ-N-CEN_13
1002
{
1000
OWNER
1000
GEN
1002
}
1001
GENIUS_GENODEF_13
1002
{
1000
HIER
1070
     0
1002
}
1002
{
1000
MANEDIT
1070
     0
1002
}
1002
{
1000
NOSEL
1070
     0
1002
}
1002
{
1000
BEHIND
1070
     0
1002
}
1002
{
1000
OTHER
1070
     0
1002
}
1002
{
1000
REACTOR
1002
}
1001
GENIUS_GENCEN_19
1002
{
1040
2.0
1002
}
  0
LINE
  5
2A7D
330
1F
100
AcDbEntity
  8
AM_7
  6
AM_ISO08W050x2
100
AcDbLine
 10
2359.741155035003
 20
1207.881393984067
 30
0.0
 11
2371.741155035003
 21
1207.881393984067
 31
0.0
1001
GENIUS_GENODEF_13
1002
{
1000
HIER
1070
     0
1002
}
1002
{
1000
MANEDIT
1070
     0
1002
}
1002
{
1000
NOSEL
1070
     0
1002
}
1002
{
1000
BEHIND
1070
     0
1002
}
1002
{
1000
OTHER
1070
     0
1002
}
1002
{
1000
REACTOR
1002
}
1001
GENIUS_GENOBJ-N-CEN_13
1002
{
1000
OWNER
1000
GEN
1002
}
1001
GENIUS_GENCEN_19
1002
{
1040
2.0
1002
}
  0
LINE
  5
2A8B
330
1F
100
AcDbEntity
  8
AM_7
  6
AM_ISO08W050x2
100
AcDbLine
 10
2453.215316155667
 20
1207.881393984067
 30
0.0
 11
2459.515316155667
 21
1207.881393984067
 31
0.0
1001
GENIUS_GENOREF_13
1005
2A8F
  0
LINE
  5
2A8C
330
1F
100
AcDbEntity
  8
AM_7
  6
AM_ISO08W050x2
100
AcDbLine
 10
2453.215316155667
 20
1207.881393984067
 30
0.0
 11
2453.215316155667
 21
1214.181393984067
 31
0.0
1001
GENIUS_GENOREF_13
1005
2A8F
  0
LINE
  5
2A8D
330
1F
100
AcDbEntity
  8
AM_7
  6
AM_ISO08W050x2
100
AcDbLine
 10
2453.215316155667
 20
1207.881393984067
 30
0.0
 11
2446.915316155666
 21
1207.881393984067
 31
0.0
1001
GENIUS_GENOREF_13
1005
2A8F
  0
LINE
  5
2A8E
330
1F
100
AcDbEntity
  8
AM_7
  6
AM_ISO08W050x2
100
AcDbLine
 10
2453.215316155667
 20
1207.881393984067
 30
0.0
 11
2453.215316155667
 21
1201.581393984067
 31
0.0
1001
GENIUS_GENOREF_13
1005
2A8F
  0
POINT
  5
2A8F
330
1F
100
AcDbEntity
  8
0
 60
     1
100
AcDbPoint
 10
0.0
 20
0.0
 30
0.0
1001
GENIUS_GENOENT_13
1002
{
1000
MYREF
1005
2A8F
1002
}
1002
{
1000
GRP
1005
0
1002
}
1001
GENIUS_GENOBJ-N-CRS_13
1002
{
1000
OWNER
1000
GEN
1002
}
1001
GENIUS_GENOLIS_13
1002
{
1000
ENT
1005
2A8E
1005
2A8D
1005
2A8C
1005
2A8B
1002
}
1001
GENIUS_GENODEF_13
1002
{
1000
HIER
1070
    10
1002
}
1002
{
1000
MANEDIT
1070
     0
1002
}
1002
{
1000
NOSEL
1070
     0
1002
}
1002
{
1000
BEHIND
1070
     0
1002
}
1002
{
1000
OTHER
1070
     0
1002
}
1002
{
1000
REACTOR
1002
}
  0
LINE
  5
2A9D
330
1F
100
AcDbEntity
  8
AM_7
  6
AM_ISO08W050x2
100
AcDbLine
 10
2505.215316155667
 20
1207.881393984067
 30
0.0
 11
2511.515316155666
 21
1207.881393984067
 31
0.0
1001
GENIUS_GENOREF_13
1005
2AA1
  0
LINE
  5
2A9E
330
1F
100
AcDbEntity
  8
AM_7
  6
AM_ISO08W050x2
100
AcDbLine
 10
2505.215316155667
 20
1207.881393984067
 30
0.0
 11
2505.215316155667
 21
1214.181393984067
 31
0.0
1001
GENIUS_GENOREF_13
1005
2AA1
  0
LINE
  5
2A9F
330
1F
100
AcDbEntity
  8
AM_7
  6
AM_ISO08W050x2
100
AcDbLine
 10
2505.215316155667
 20
1207.881393984067
 30
0.0
 11
2498.915316155666
 21
1207.881393984067
 31
0.0
1001
GENIUS_GENOREF_13
1005
2AA1
  0
LINE
  5
2AA0
330
1F
100
AcDbEntity
  8
AM_7
  6
AM_ISO08W050x2
100
AcDbLine
 10
2505.215316155667
 20
1207.881393984067
 30
0.0
 11
2505.215316155667
 21
1201.581393984067
 31
0.0
1001
GENIUS_GENOREF_13
1005
2AA1
  0
POINT
  5
2AA1
330
1F
100
AcDbEntity
  8
0
 60
     1
100
AcDbPoint
 10
0.0
 20
0.0
 30
0.0
1001
GENIUS_GENODEF_13
1002
{
1000
HIER
1070
    10
1002
}
1002
{
1000
MANEDIT
1070
     0
1002
}
1002
{
1000
NOSEL
1070
     0
1002
}
1002
{
1000
BEHIND
1070
     0
1002
}
1002
{
1000
OTHER
1070
     0
1002
}
1002
{
1000
REACTOR
1002
}
1001
GENIUS_GENOENT_13
1002
{
1000
MYREF
1005
2AA1
1002
}
1002
{
1000
GRP
1005
0
1002
}
1001
GENIUS_GENOBJ-N-CRS_13
1002
{
1000
OWNER
1000
GEN
1002
}
1001
GENIUS_GENOLIS_13
1002
{
1000
ENT
1005
2AA0
1005
2A9F
1005
2A9E
1005
2A9D
1002
}
  0
ARC
  5
2AA2
330
1F
100
AcDbEntity
  8
AM_4
100
AcDbCircle
 10
2453.215316155667
 20
1207.881393984067
 30
0.0
 40
4.863999999999999
100
AcDbArc
 50
260.0
 51
170.0
  0
CIRCLE
  5
2AA3
330
1F
100
AcDbEntity
  8
AM_0
100
AcDbCircle
 10
2453.215316155667
 20
1207.881393984067
 30
0.0
 40
4.283
  0
ARC
  5
2AA4
330
1F
100
AcDbEntity
  8
AM_4
100
AcDbCircle
 10
2505.215316155667
 20
1207.881393984067
 30
0.0
 40
4.863999999999999
100
AcDbArc
 50
260.0
 51
170.0
  0
CIRCLE
  5
2AA5
330
1F
100
AcDbEntity
  8
AM_0
100
AcDbCircle
 10
2505.215316155667
 20
1207.881393984067
 30
0.0
 40
4.283
  0
LINE
  5
2AA6
330
1F
100
AcDbEntity
  8
AM_7
  6
AM_ISO08W050x2
100
AcDbLine
 10
2453.215316155667
 20
1174.891084887283
 30
0.0
 11
2453.215316155667
 21
1168.591084887284
 31
0.0
  0
LINE
  5
2AA7
330
1F
100
AcDbEntity
  8
AM_7
  6
AM_ISO08W050x2
100
AcDbLine
 10
2505.215316155667
 20
1174.891084887283
 30
0.0
 11
2505.215316155667
 21
1168.591084887284
 31
0.0
  0
LINE
  5
2AB5
330
1F
100
AcDbEntity
  8
AM_7
  6
AM_ISO08W050x2
100
AcDbLine
 10
2529.715316155666
 20
1155.109331169754
 30
0.0
 11
2536.715316155666
 21
1155.109331169754
 31
0.0
1001
GENIUS_GENOREF_13
1005
2AB9
  0
LINE
  5
2AB6
330
1F
100
AcDbEntity
  8
AM_7
  6
AM_ISO08W050x2
100
AcDbLine
 10
2529.715316155666
 20
1155.109331169754
 30
0.0
 11
2529.715316155666
 21
1162.109331169754
 31
0.0
1001
GENIUS_GENOREF_13
1005
2AB9
  0
LINE
  5
2AB7
330
1F
100
AcDbEntity
  8
AM_7
  6
AM_ISO08W050x2
100
AcDbLine
 10
2529.715316155666
 20
1155.109331169754
 30
0.0
 11
2522.715316155666
 21
1155.109331169754
 31
0.0
1001
GENIUS_GENOREF_13
1005
2AB9
  0
LINE
  5
2AB8
330
1F
100
AcDbEntity
  8
AM_7
  6
AM_ISO08W050x2
100
AcDbLine
 10
2529.715316155666
 20
1155.109331169754
 30
0.0
 11
2529.715316155666
 21
1148.109331169754
 31
0.0
1001
GENIUS_GENOREF_13
1005
2AB9
  0
POINT
  5
2AB9
330
1F
100
AcDbEntity
  8
0
 60
     1
100
AcDbPoint
 10
0.0
 20
0.0
 30
0.0
1001
GENIUS_GENOLIS_13
1002
{
1000
ENT
1005
2AB8
1005
2AB7
1005
2AB6
1005
2AB5
1002
}
1001
GENIUS_GENODEF_13
1002
{
1000
HIER
1070
    10
1002
}
1002
{
1000
MANEDIT
1070
     0
1002
}
1002
{
1000
NOSEL
1070
     0
1002
}
1002
{
1000
BEHIND
1070
     0
1002
}
1002
{
1000
OTHER
1070
     0
1002
}
1002
{
1000
REACTOR
1002
}
1001
GENIUS_GENOENT_13
1002
{
1000
MYREF
1005
2AB9
1002
}
1002
{
1000
GRP
1005
0
1002
}
1001
GENIUS_GENOBJ-N-CRS_13
1002
{
1000
OWNER
1000
GEN
1002
}
  0
LINE
  5
2ABA
330
1F
100
AcDbEntity
  8
AM_7
  6
AM_ISO08W050x2
100
AcDbLine
 10
2529.715316155666
 20
1197.056371977184
 30
0.0
 11
2529.715316155666
 21
1217.874007608122
 31
0.0
  0
LINE
  5
2AFF
330
1F
100
AcDbEntity
  8
AM_7
100
AcDbLine
 10
2425.55011719683
 20
1012.85667225722
 30
0.0
 11
2425.55011719683
 21
1012.85667225722
 31
0.0
  0
LINE
  5
2B00
330
1F
100
AcDbEntity
  8
AM_7
100
AcDbLine
 10
2425.55011719683
 20
1012.85667225722
 30
0.0
 11
2425.55011719683
 21
1012.85667225722
 31
0.0
  0
LINE
  5
2B01
330
1F
100
AcDbEntity
  8
AM_7
100
AcDbLine
 10
2410.55011719683
 20
1012.85667225722
 30
0.0
 11
2425.55011719683
 21
1012.85667225722
 31
0.0
  0
LINE
  5
2B02
330
1F
100
AcDbEntity
  8
AM_7
100
AcDbLine
 10
2425.55011719683
 20
1012.85667225722
 30
0.0
 11
2440.55011719683
 21
1012.85667225722
 31
0.0
  0
LINE
  5
2B03
330
1F
100
AcDbEntity
  8
AM_7
100
AcDbLine
 10
2425.55011719683
 20
997.8566722572198
 30
0.0
 11
2425.55011719683
 21
1012.85667225722
 31
0.0
  0
LINE
  5
2B04
330
1F
100
AcDbEntity
  8
AM_7
100
AcDbLine
 10
2425.55011719683
 20
1012.85667225722
 30
0.0
 11
2425.55011719683
 21
1027.85667225722
 31
0.0
  0
LINE
  5
2B05
330
1F
100
AcDbEntity
  8
AM_7
100
AcDbLine
 10
2396.55011719683
 20
996.3566722572199
 30
0.0
 11
2396.55011719683
 21
996.3566722572199
 31
0.0
  0
LINE
  5
2B06
330
1F
100
AcDbEntity
  8
AM_7
100
AcDbLine
 10
2396.55011719683
 20
996.3566722572199
 30
0.0
 11
2396.55011719683
 21
996.3566722572199
 31
0.0
  0
LINE
  5
2B07
330
1F
100
AcDbEntity
  8
AM_7
100
AcDbLine
 10
2390.25011719683
 20
996.3566722572199
 30
0.0
 11
2396.55011719683
 21
996.3566722572199
 31
0.0
  0
LINE
  5
2B08
330
1F
100
AcDbEntity
  8
AM_7
100
AcDbLine
 10
2396.55011719683
 20
996.3566722572199
 30
0.0
 11
2402.85011719683
 21
996.3566722572199
 31
0.0
  0
LINE
  5
2B09
330
1F
100
AcDbEntity
  8
AM_7
100
AcDbLine
 10
2396.55011719683
 20
990.0566722572198
 30
0.0
 11
2396.55011719683
 21
996.3566722572199
 31
0.0
  0
LINE
  5
2B0A
330
1F
100
AcDbEntity
  8
AM_7
100
AcDbLine
 10
2396.55011719683
 20
996.3566722572199
 30
0.0
 11
2396.55011719683
 21
1002.65667225722
 31
0.0
  0
LINE
  5
2B0B
330
1F
100
AcDbEntity
  8
AM_7
100
AcDbLine
 10
2454.55011719683
 20
996.3566722572199
 30
0.0
 11
2454.55011719683
 21
996.3566722572199
 31
0.0
  0
LINE
  5
2B0C
330
1F
100
AcDbEntity
  8
AM_7
100
AcDbLine
 10
2454.55011719683
 20
996.3566722572199
 30
0.0
 11
2454.55011719683
 21
996.3566722572199
 31
0.0
  0
LINE
  5
2B0D
330
1F
100
AcDbEntity
  8
AM_7
100
AcDbLine
 10
2448.25011719683
 20
996.3566722572199
 30
0.0
 11
2454.55011719683
 21
996.3566722572199
 31
0.0
  0
LINE
  5
2B0E
330
1F
100
AcDbEntity
  8
AM_7
100
AcDbLine
 10
2454.55011719683
 20
996.3566722572199
 30
0.0
 11
2460.85011719683
 21
996.3566722572199
 31
0.0
  0
LINE
  5
2B0F
330
1F
100
AcDbEntity
  8
AM_7
100
AcDbLine
 10
2454.55011719683
 20
990.0566722572198
 30
0.0
 11
2454.55011719683
 21
996.3566722572199
 31
0.0
  0
LINE
  5
2B10
330
1F
100
AcDbEntity
  8
AM_7
100
AcDbLine
 10
2454.55011719683
 20
996.3566722572199
 30
0.0
 11
2454.55011719683
 21
1002.65667225722
 31
0.0
  0
LINE
  5
2B11
330
1F
100
AcDbEntity
  8
AM_7
100
AcDbLine
 10
2396.55011719683
 20
1029.35667225722
 30
0.0
 11
2396.55011719683
 21
1029.35667225722
 31
0.0
  0
LINE
  5
2B12
330
1F
100
AcDbEntity
  8
AM_7
100
AcDbLine
 10
2396.55011719683
 20
1029.35667225722
 30
0.0
 11
2396.55011719683
 21
1029.35667225722
 31
0.0
  0
LINE
  5
2B13
330
1F
100
AcDbEntity
  8
AM_7
100
AcDbLine
 10
2390.25011719683
 20
1029.35667225722
 30
0.0
 11
2396.55011719683
 21
1029.35667225722
 31
0.0
  0
LINE
  5
2B14
330
1F
100
AcDbEntity
  8
AM_7
100
AcDbLine
 10
2396.55011719683
 20
1029.35667225722
 30
0.0
 11
2402.85011719683
 21
1029.35667225722
 31
0.0
  0
LINE
  5
2B15
330
1F
100
AcDbEntity
  8
AM_7
100
AcDbLine
 10
2396.55011719683
 20
1023.05667225722
 30
0.0
 11
2396.55011719683
 21
1029.35667225722
 31
0.0
  0
LINE
  5
2B16
330
1F
100
AcDbEntity
  8
AM_7
100
AcDbLine
 10
2396.55011719683
 20
1029.35667225722
 30
0.0
 11
2396.55011719683
 21
1035.65667225722
 31
0.0
  0
LINE
  5
2B17
330
1F
100
AcDbEntity
  8
AM_7
100
AcDbLine
 10
2454.55011719683
 20
1029.35667225722
 30
0.0
 11
2454.55011719683
 21
1029.35667225722
 31
0.0
  0
LINE
  5
2B18
330
1F
100
AcDbEntity
  8
AM_7
100
AcDbLine
 10
2454.55011719683
 20
1029.35667225722
 30
0.0
 11
2454.55011719683
 21
1029.35667225722
 31
0.0
  0
LINE
  5
2B19
330
1F
100
AcDbEntity
  8
AM_7
100
AcDbLine
 10
2448.25011719683
 20
1029.35667225722
 30
0.0
 11
2454.55011719683
 21
1029.35667225722
 31
0.0
  0
LINE
  5
2B1A
330
1F
100
AcDbEntity
  8
AM_7
100
AcDbLine
 10
2454.55011719683
 20
1029.35667225722
 30
0.0
 11
2460.85011719683
 21
1029.35667225722
 31
0.0
  0
LINE
  5
2B1B
330
1F
100
AcDbEntity
  8
AM_7
100
AcDbLine
 10
2454.55011719683
 20
1023.05667225722
 30
0.0
 11
2454.55011719683
 21
1029.35667225722
 31
0.0
  0
LINE
  5
2B1C
330
1F
100
AcDbEntity
  8
AM_7
100
AcDbLine
 10
2454.55011719683
 20
1029.35667225722
 30
0.0
 11
2454.55011719683
 21
1035.65667225722
 31
0.0
  0
LINE
  5
2B1D
330
1F
100
AcDbEntity
  8
AM_VIS
100
AcDbLine
 10
2456.55011719683
 20
989.3566722572199
 30
0.0
 11
2394.55011719683
 21
989.3566722572199
 31
0.0
  0
LINE
  5
2B1E
330
1F
100
AcDbEntity
  8
AM_VIS
100
AcDbLine
 10
2389.55011719683
 20
994.3566722572198
 30
0.0
 11
2389.55011719683
 21
1031.35667225722
 31
0.0
  0
LINE
  5
2B1F
330
1F
100
AcDbEntity
  8
AM_VIS
100
AcDbLine
 10
2394.55011719683
 20
1036.35667225722
 30
0.0
 11
2456.55011719683
 21
1036.35667225722
 31
0.0
  0
LINE
  5
2B20
330
1F
100
AcDbEntity
  8
AM_VIS
100
AcDbLine
 10
2461.55011719683
 20
1031.35667225722
 30
0.0
 11
2461.55011719683
 21
994.3566722572198
 31
0.0
  0
ARC
  5
2B21
330
1F
100
AcDbEntity
  8
AM_VIS
100
AcDbCircle
 10
2456.55011719683
 20
994.3566722572198
 30
0.0
 40
5.0
100
AcDbArc
 50
270.0
 51
0.0
  0
ARC
  5
2B22
330
1F
100
AcDbEntity
  8
AM_VIS
100
AcDbCircle
 10
2394.55011719683
 20
994.3566722572198
 30
0.0
 40
5.0
100
AcDbArc
 50
180.0
 51
270.0
  0
ARC
  5
2B23
330
1F
100
AcDbEntity
  8
AM_VIS
100
AcDbCircle
 10
2394.55011719683
 20
1031.35667225722
 30
0.0
 40
5.0
100
AcDbArc
 50
90.0
 51
180.0
  0
CIRCLE
  5
2B24
330
1F
100
AcDbEntity
  8
AM_VIS
100
AcDbCircle
 10
2425.55011719683
 20
1012.85667225722
 30
0.0
 40
12.0
  0
CIRCLE
  5
2B25
330
1F
100
AcDbEntity
  8
AM_VIS
100
AcDbCircle
 10
2396.55011719683
 20
996.3566722572199
 30
0.0
 40
3.299999999999999
  0
CIRCLE
  5
2B26
330
1F
100
AcDbEntity
  8
AM_VIS
100
AcDbCircle
 10
2454.55011719683
 20
996.3566722572199
 30
0.0
 40
3.299999999999999
  0
CIRCLE
  5
2B27
330
1F
100
AcDbEntity
  8
AM_VIS
100
AcDbCircle
 10
2396.55011719683
 20
1029.35667225722
 30
0.0
 40
3.299999999999999
  0
CIRCLE
  5
2B28
330
1F
100
AcDbEntity
  8
AM_VIS
100
AcDbCircle
 10
2454.55011719683
 20
1029.35667225722
 30
0.0
 40
3.299999999999999
  0
ARC
  5
2B29
330
1F
100
AcDbEntity
  8
AM_VIS
100
AcDbCircle
 10
2456.55011719683
 20
1031.35667225722
 30
0.0
 40
5.0
100
AcDbArc
 50
0.0
 51
90.0
  0
LINE
  5
2B2A
330
1F
100
AcDbEntity
  8
AM_VIS
100
AcDbLine
 10
2456.55011719683
 20
1066.582099493021
 30
0.0
 11
2394.55011719683
 21
1066.582099493021
 31
0.0
  0
LINE
  5
2B2B
330
1F
100
AcDbEntity
  8
AM_VIS
100
AcDbLine
 10
2389.55011719683
 20
1066.582099493021
 30
0.0
 11
2389.55011719683
 21
1062.082099493021
 31
0.0
  0
LINE
  5
2B2C
330
1F
100
AcDbEntity
  8
AM_VIS
100
AcDbLine
 10
2394.55011719683
 20
1062.082099493021
 30
0.0
 11
2456.55011719683
 21
1062.082099493021
 31
0.0
  0
LINE
  5
2B2D
330
1F
100
AcDbEntity
  8
AM_VIS
100
AcDbLine
 10
2461.55011719683
 20
1062.082099493021
 30
0.0
 11
2461.55011719683
 21
1066.582099493021
 31
0.0
  0
LINE
  5
2B2E
330
1F
100
AcDbEntity
  8
AM_VIS
100
AcDbLine
 10
2389.55011719683
 20
1066.582099493021
 30
0.0
 11
2394.55011719683
 21
1066.582099493021
 31
0.0
  0
LINE
  5
2B2F
330
1F
100
AcDbEntity
  8
AM_VIS
100
AcDbLine
 10
2394.55011719683
 20
1062.082099493021
 30
0.0
 11
2389.55011719683
 21
1062.082099493021
 31
0.0
  0
LINE
  5
2B30
330
1F
100
AcDbEntity
  8
AM_VIS
100
AcDbLine
 10
2456.55011719683
 20
1066.582099493021
 30
0.0
 11
2461.55011719683
 21
1066.582099493021
 31
0.0
  0
LINE
  5
2B31
330
1F
100
AcDbEntity
  8
AM_VIS
100
AcDbLine
 10
2461.55011719683
 20
1062.082099493021
 30
0.0
 11
2456.55011719683
 21
1062.082099493021
 31
0.0
  0
LINE
  5
2B32
330
1F
100
AcDbEntity
  8
AM_VIS
100
AcDbLine
 10
2490.767679306243
 20
989.3566722572199
 30
0.0
 11
2495.267679306243
 21
989.3566722572199
 31
0.0
  0
LINE
  5
2B33
330
1F
100
AcDbEntity
  8
AM_VIS
100
AcDbLine
 10
2495.267679306243
 20
994.3566722572198
 30
0.0
 11
2495.267679306243
 21
1031.35667225722
 31
0.0
  0
LINE
  5
2B34
330
1F
100
AcDbEntity
  8
AM_VIS
100
AcDbLine
 10
2490.767679306243
 20
1031.35667225722
 30
0.0
 11
2490.767679306243
 21
994.3566722572198
 31
0.0
  0
LINE
  5
2B35
330
1F
100
AcDbEntity
  8
AM_VIS
100
AcDbLine
 10
2495.267679306243
 20
1036.35667225722
 30
0.0
 11
2490.767679306243
 21
1036.35667225722
 31
0.0
  0
LINE
  5
2B36
330
1F
100
AcDbEntity
  8
AM_VIS
100
AcDbLine
 10
2495.267679306243
 20
994.3566722572198
 30
0.0
 11
2495.267679306243
 21
989.3566722572199
 31
0.0
  0
LINE
  5
2B37
330
1F
100
AcDbEntity
  8
AM_VIS
100
AcDbLine
 10
2490.767679306243
 20
989.3566722572199
 30
0.0
 11
2490.767679306243
 21
994.3566722572198
 31
0.0
  0
LINE
  5
2B38
330
1F
100
AcDbEntity
  8
AM_VIS
100
AcDbLine
 10
2495.267679306243
 20
1036.35667225722
 30
0.0
 11
2495.267679306243
 21
1031.35667225722
 31
0.0
  0
LINE
  5
2B39
330
1F
100
AcDbEntity
  8
AM_VIS
100
AcDbLine
 10
2490.767679306243
 20
1031.35667225722
 30
0.0
 11
2490.767679306243
 21
1036.35667225722
 31
0.0
  0
LINE
  5
2B3A
330
1F
100
AcDbEntity
  8
AM_7
100
AcDbLine
 10
2487.461408619124
 20
1012.85667225722
 30
0.0
 11
2497.434944756055
 21
1012.85667225722
 31
0.0
  0
LINE
  5
2B3B
330
1F
100
AcDbEntity
  8
AM_7
100
AcDbLine
 10
2425.55011719683
 20
1058.96527632581
 30
0.0
 11
2425.55011719683
 21
1068.447972101641
 31
0.0
  0
LINE
  5
2B7E
330
1F
100
AcDbEntity
  8
AM_7
100
AcDbLine
 10
2698.221371450875
 20
1152.126084969678
 30
0.0
 11
2698.221371450875
 21
1152.126084969678
 31
0.0
  0
LINE
  5
2B7F
330
1F
100
AcDbEntity
  8
AM_7
100
AcDbLine
 10
2698.221371450875
 20
1152.126084969678
 30
0.0
 11
2698.221371450875
 21
1152.126084969678
 31
0.0
  0
LINE
  5
2B80
330
1F
100
AcDbEntity
  8
AM_7
100
AcDbLine
 10
2676.221371450875
 20
1152.126084969678
 30
0.0
 11
2698.221371450875
 21
1152.126084969678
 31
0.0
  0
LINE
  5
2B81
330
1F
100
AcDbEntity
  8
AM_7
100
AcDbLine
 10
2698.221371450875
 20
1152.126084969678
 30
0.0
 11
2720.221371450875
 21
1152.126084969678
 31
0.0
  0
LINE
  5
2B82
330
1F
100
AcDbEntity
  8
AM_7
100
AcDbLine
 10
2698.221371450875
 20
1130.126084969678
 30
0.0
 11
2698.221371450875
 21
1152.126084969678
 31
0.0
  0
LINE
  5
2B83
330
1F
100
AcDbEntity
  8
AM_7
100
AcDbLine
 10
2698.221371450875
 20
1152.126084969678
 30
0.0
 11
2698.221371450875
 21
1174.126084969678
 31
0.0
  0
LINE
  5
2B84
330
1F
100
AcDbEntity
  8
AM_7
100
AcDbLine
 10
2698.221371450875
 20
1231.758135534915
 30
0.0
 11
2698.221371450875
 21
1221.758135534915
 31
0.0
  0
LINE
  5
2B85
330
1F
100
AcDbEntity
  8
AM_7
100
AcDbLine
 10
2796.166377362289
 20
1152.126084969678
 30
0.0
 11
2786.166377362289
 21
1152.126084969678
 31
0.0
  0
LINE
  5
2B86
330
1F
100
AcDbEntity
  8
AM_7
100
AcDbLine
 10
2675.721371450875
 20
1203.758135534915
 30
0.0
 11
2675.721371450875
 21
1203.758135534915
 31
0.0
  0
LINE
  5
2B87
330
1F
100
AcDbEntity
  8
AM_7
100
AcDbLine
 10
2675.721371450875
 20
1203.758135534915
 30
0.0
 11
2675.721371450875
 21
1203.758135534915
 31
0.0
  0
LINE
  5
2B88
330
1F
100
AcDbEntity
  8
AM_7
100
AcDbLine
 10
2669.421371450875
 20
1203.758135534915
 30
0.0
 11
2675.721371450875
 21
1203.758135534915
 31
0.0
  0
LINE
  5
2B89
330
1F
100
AcDbEntity
  8
AM_7
100
AcDbLine
 10
2675.721371450875
 20
1203.758135534915
 30
0.0
 11
2682.021371450875
 21
1203.758135534915
 31
0.0
  0
LINE
  5
2B8A
330
1F
100
AcDbEntity
  8
AM_7
100
AcDbLine
 10
2675.721371450875
 20
1197.458135534915
 30
0.0
 11
2675.721371450875
 21
1203.758135534915
 31
0.0
  0
LINE
  5
2B8B
330
1F
100
AcDbEntity
  8
AM_7
100
AcDbLine
 10
2675.721371450875
 20
1203.758135534915
 30
0.0
 11
2675.721371450875
 21
1210.058135534915
 31
0.0
  0
LINE
  5
2B8C
330
1F
100
AcDbEntity
  8
AM_7
100
AcDbLine
 10
2720.721371450875
 20
1203.758135534915
 30
0.0
 11
2720.721371450875
 21
1203.758135534915
 31
0.0
  0
LINE
  5
2B8D
330
1F
100
AcDbEntity
  8
AM_7
100
AcDbLine
 10
2720.721371450875
 20
1203.758135534915
 30
0.0
 11
2720.721371450875
 21
1203.758135534915
 31
0.0
  0
LINE
  5
2B8E
330
1F
100
AcDbEntity
  8
AM_7
100
AcDbLine
 10
2714.421371450875
 20
1203.758135534915
 30
0.0
 11
2720.721371450875
 21
1203.758135534915
 31
0.0
  0
LINE
  5
2B8F
330
1F
100
AcDbEntity
  8
AM_7
100
AcDbLine
 10
2720.721371450875
 20
1203.758135534915
 30
0.0
 11
2727.021371450875
 21
1203.758135534915
 31
0.0
  0
LINE
  5
2B90
330
1F
100
AcDbEntity
  8
AM_7
100
AcDbLine
 10
2720.721371450875
 20
1197.458135534915
 30
0.0
 11
2720.721371450875
 21
1203.758135534915
 31
0.0
  0
LINE
  5
2B91
330
1F
100
AcDbEntity
  8
AM_7
100
AcDbLine
 10
2720.721371450875
 20
1203.758135534915
 30
0.0
 11
2720.721371450875
 21
1210.058135534915
 31
0.0
  0
LINE
  5
2B92
330
1F
100
AcDbEntity
  8
AM_VIS
100
AcDbLine
 10
2668.721371450875
 20
1124.126084969678
 30
0.0
 11
2668.721371450875
 21
1120.126084969678
 31
0.0
  0
LINE
  5
2B93
330
1F
100
AcDbEntity
  8
AM_VIS
100
AcDbLine
 10
2726.721371450875
 20
1124.126084969678
 30
0.0
 11
2669.721371450875
 21
1124.126084969678
 31
0.0
  0
LINE
  5
2B94
330
1F
100
AcDbEntity
  8
AM_VIS
100
AcDbLine
 10
2669.721371450875
 20
1120.126084969678
 30
0.0
 11
2726.721371450875
 21
1120.126084969678
 31
0.0
  0
LINE
  5
2B95
330
1F
100
AcDbEntity
  8
AM_VIS
100
AcDbLine
 10
2727.721371450875
 20
1120.126084969678
 30
0.0
 11
2727.721371450875
 21
1124.126084969678
 31
0.0
  0
LINE
  5
2B96
330
1F
100
AcDbEntity
  8
AM_VIS
100
AcDbLine
 10
2668.721371450875
 20
1124.126084969678
 30
0.0
 11
2680.218548561301
 21
1158.200487656908
 31
0.0
  0
LINE
  5
2B97
330
1F
100
AcDbEntity
  8
AM_VIS
100
AcDbLine
 10
2716.224194340449
 20
1158.200487656908
 30
0.0
 11
2727.721371450875
 21
1124.126084969678
 31
0.0
  0
LINE
  5
2B98
330
1F
100
AcDbEntity
  8
AM_VIS
100
AcDbLine
 10
2668.721371450875
 20
1124.126084969678
 30
0.0
 11
2669.721371450875
 21
1124.126084969678
 31
0.0
  0
LINE
  5
2B99
330
1F
100
AcDbEntity
  8
AM_VIS
100
AcDbLine
 10
2669.721371450875
 20
1120.126084969678
 30
0.0
 11
2668.721371450875
 21
1120.126084969678
 31
0.0
  0
LINE
  5
2B9A
330
1F
100
AcDbEntity
  8
AM_VIS
100
AcDbLine
 10
2727.721371450875
 20
1120.126084969678
 30
0.0
 11
2726.721371450875
 21
1120.126084969678
 31
0.0
  0
LINE
  5
2B9B
330
1F
100
AcDbEntity
  8
AM_VIS
100
AcDbLine
 10
2726.721371450875
 20
1124.126084969678
 30
0.0
 11
2727.721371450875
 21
1124.126084969678
 31
0.0
  0
ARC
  5
2B9C
330
1F
100
AcDbEntity
  8
AM_VIS
100
AcDbCircle
 10
2698.221371450875
 20
1152.126084969678
 30
0.0
 40
19.0
100
AcDbArc
 50
18.645109943975
 51
161.354890056025
  0
CIRCLE
  5
2B9D
330
1F
100
AcDbEntity
  8
AM_VIS
100
AcDbCircle
 10
2698.221371450875
 20
1152.126084969678
 30
0.0
 40
12.0
  0
LINE
  5
2B9E
330
1F
100
AcDbEntity
  8
AM_VIS
100
AcDbLine
 10
2668.721371450875
 20
1196.758135534915
 30
0.0
 11
2668.721371450875
 21
1224.758135534915
 31
0.0
  0
LINE
  5
2B9F
330
1F
100
AcDbEntity
  8
AM_VIS
100
AcDbLine
 10
2727.721371450875
 20
1224.758135534915
 30
0.0
 11
2727.721371450875
 21
1196.758135534915
 31
0.0
  0
LINE
  5
2BA0
330
1F
100
AcDbEntity
  8
AM_VIS
100
AcDbLine
 10
2727.721371450875
 20
1228.758135534915
 30
0.0
 11
2727.721371450875
 21
1224.758135534915
 31
0.0
  0
LINE
  5
2BA1
330
1F
100
AcDbEntity
  8
AM_VIS
100
AcDbLine
 10
2668.721371450875
 20
1224.758135534915
 30
0.0
 11
2668.721371450875
 21
1228.758135534915
 31
0.0
  0
LINE
  5
2BA2
330
1F
100
AcDbEntity
  8
AM_VIS
100
AcDbLine
 10
2726.721371450875
 20
1195.758135534915
 30
0.0
 11
2669.721371450875
 21
1195.758135534915
 31
0.0
  0
LINE
  5
2BA3
330
1F
100
AcDbEntity
  8
AM_VIS
100
AcDbLine
 10
2668.721371450875
 20
1224.758135534915
 30
0.0
 11
2680.218548561301
 21
1224.758135534915
 31
0.0
  0
LINE
  5
2BA4
330
1F
100
AcDbEntity
  8
AM_VIS
100
AcDbLine
 10
2716.224194340449
 20
1224.758135534915
 30
0.0
 11
2727.721371450875
 21
1224.758135534915
 31
0.0
  0
LINE
  5
2BA5
330
1F
100
AcDbEntity
  8
AM_VIS
100
AcDbLine
 10
2716.224194340449
 20
1228.758135534915
 30
0.0
 11
2727.721371450875
 21
1228.758135534915
 31
0.0
  0
LINE
  5
2BA6
330
1F
100
AcDbEntity
  8
AM_VIS
100
AcDbLine
 10
2668.721371450875
 20
1228.758135534915
 30
0.0
 11
2680.218548561301
 21
1228.758135534915
 31
0.0
  0
ARC
  5
2BA7
330
1F
100
AcDbEntity
  8
AM_VIS
100
AcDbCircle
 10
2669.721371450875
 20
1196.758135534915
 30
0.0
 40
0.9999999999999998
100
AcDbArc
 50
180.0
 51
270.0
  0
ARC
  5
2BA8
330
1F
100
AcDbEntity
  8
AM_VIS
100
AcDbCircle
 10
2726.721371450875
 20
1196.758135534915
 30
0.0
 40
0.9999999999999998
100
AcDbArc
 50
270.0
 51
0.0
  0
LINE
  5
2BA9
330
1F
100
AcDbEntity
  8
AM_VIS
100
AcDbLine
 10
2716.224194340449
 20
1224.758135534915
 30
0.0
 11
2680.218548561301
 21
1224.758135534915
 31
0.0
  0
LINE
  5
2BAA
330
1F
100
AcDbEntity
  8
AM_VIS
100
AcDbLine
 10
2716.224194340449
 20
1228.758135534915
 30
0.0
 11
2680.218548561301
 21
1228.758135534915
 31
0.0
  0
CIRCLE
  5
2BAB
330
1F
100
AcDbEntity
  8
AM_VIS
100
AcDbCircle
 10
2675.721371450875
 20
1203.758135534915
 30
0.0
 40
3.299999999999999
  0
CIRCLE
  5
2BAC
330
1F
100
AcDbEntity
  8
AM_VIS
100
AcDbCircle
 10
2720.721371450875
 20
1203.758135534915
 30
0.0
 40
3.299999999999999
  0
LINE
  5
2BAD
330
1F
100
AcDbEntity
  8
AM_VIS
100
AcDbLine
 10
2789.166377362289
 20
1124.126084969678
 30
0.0
 11
2761.166377362289
 21
1124.126084969678
 31
0.0
  0
LINE
  5
2BAE
330
1F
100
AcDbEntity
  8
AM_VIS
100
AcDbLine
 10
2793.166377362289
 20
1124.126084969678
 30
0.0
 11
2789.166377362289
 21
1124.126084969678
 31
0.0
  0
LINE
  5
2BAF
330
1F
100
AcDbEntity
  8
AM_VIS
100
AcDbLine
 10
2761.166377362289
 20
1120.126084969678
 30
0.0
 11
2793.166377362289
 21
1120.126084969678
 31
0.0
  0
LINE
  5
2BB0
330
1F
100
AcDbEntity
  8
AM_VIS
100
AcDbLine
 10
2760.166377362289
 20
1124.126084969678
 30
0.0
 11
2760.166377362289
 21
1120.126084969678
 31
0.0
  0
LINE
  5
2BB1
330
1F
100
AcDbEntity
  8
AM_VIS
100
AcDbLine
 10
2789.166377362289
 20
1158.200487656908
 30
0.0
 11
2789.166377362289
 21
1124.126084969678
 31
0.0
  0
LINE
  5
2BB2
330
1F
100
AcDbEntity
  8
AM_VIS
100
AcDbLine
 10
2793.166377362289
 20
1158.200487656908
 30
0.0
 11
2793.166377362289
 21
1124.126084969678
 31
0.0
  0
LINE
  5
2BB3
330
1F
100
AcDbEntity
  8
AM_VIS
100
AcDbLine
 10
2793.166377362289
 20
1120.126084969678
 30
0.0
 11
2793.166377362289
 21
1124.126084969678
 31
0.0
  0
LINE
  5
2BB4
330
1F
100
AcDbEntity
  8
AM_VIS
100
AcDbLine
 10
2793.166377362289
 20
1171.126084969678
 30
0.0
 11
2789.166377362289
 21
1171.126084969678
 31
0.0
  0
LINE
  5
2BB5
330
1F
100
AcDbEntity
  8
AM_VIS
100
AcDbLine
 10
2761.166377362289
 20
1120.126084969678
 30
0.0
 11
2760.166377362289
 21
1120.126084969678
 31
0.0
  0
LINE
  5
2BB6
330
1F
100
AcDbEntity
  8
AM_VIS
100
AcDbLine
 10
2760.166377362289
 20
1124.126084969678
 30
0.0
 11
2761.166377362289
 21
1124.126084969678
 31
0.0
  0
LINE
  5
2BB7
330
1F
100
AcDbEntity
  8
AM_VIS
100
AcDbLine
 10
2789.166377362289
 20
1158.200487656908
 30
0.0
 11
2789.166377362289
 21
1171.126084969678
 31
0.0
  0
LINE
  5
2BB8
330
1F
100
AcDbEntity
  8
AM_VIS
100
AcDbLine
 10
2793.166377362289
 20
1158.200487656908
 30
0.0
 11
2793.166377362289
 21
1171.126084969678
 31
0.0
  0
LINE
  5
2C06
330
1F
100
AcDbEntity
  8
AM_VIS
100
AcDbLine
 10
2680.557086057802
 20
959.0406859868544
 30
0.0
 11
2680.557086057802
 21
983.1034320536605
 31
0.0
  0
ARC
  5
2C07
330
1F
100
AcDbEntity
  8
AM_VIS
100
AcDbCircle
 10
2689.557086057802
 20
991.0406859868544
 30
0.0
 40
12.0
100
AcDbArc
 50
22.17346462878872
 51
221.4096221092698
  0
LINE
  5
2C08
330
1F
100
AcDbEntity
  8
AM_VIS
100
AcDbLine
 10
2700.669631754923
 20
995.5696293657657
 30
0.0
 11
2715.557086057803
 21
959.0406859868544
 31
0.0
  0
CIRCLE
  5
2C09
330
1F
100
AcDbEntity
  8
AM_VIS
100
AcDbCircle
 10
2689.557086057802
 20
991.0406859868544
 30
0.0
 40
5.0
  0
LINE
  5
2C0A
330
1F
100
AcDbEntity
  8
AM_VIS
100
AcDbLine
 10
2666.557086057802
 20
955.0406859868544
 30
0.0
 11
2663.557086057803
 21
955.0406859868544
 31
0.0
  0
LINE
  5
2C0B
330
1F
100
AcDbEntity
  8
AM_VIS
100
AcDbLine
 10
2663.557086057803
 20
959.0406859868544
 30
0.0
 11
2663.557086057803
 21
955.0406859868544
 31
0.0
  0
LINE
  5
2C0C
330
1F
100
AcDbEntity
  8
AM_VIS
100
AcDbLine
 10
2663.557086057803
 20
959.0406859868544
 30
0.0
 11
2666.557086057802
 21
959.0406859868544
 31
0.0
  0
LINE
  5
2C0D
330
1F
100
AcDbEntity
  8
AM_VIS
100
AcDbLine
 10
2712.557086057802
 20
955.0406859868544
 30
0.0
 11
2666.557086057802
 21
955.0406859868544
 31
0.0
  0
LINE
  5
2C0E
330
1F
100
AcDbEntity
  8
AM_VIS
100
AcDbLine
 10
2666.557086057802
 20
959.0406859868544
 30
0.0
 11
2712.557086057802
 21
959.0406859868544
 31
0.0
  0
LINE
  5
2C0F
330
1F
100
AcDbEntity
  8
AM_VIS
100
AcDbLine
 10
2712.557086057802
 20
959.0406859868544
 30
0.0
 11
2715.557086057803
 21
959.0406859868544
 31
0.0
  0
LINE
  5
2C10
330
1F
100
AcDbEntity
  8
AM_VIS
100
AcDbLine
 10
2715.557086057803
 20
955.0406859868544
 30
0.0
 11
2715.557086057803
 21
959.0406859868544
 31
0.0
  0
LINE
  5
2C11
330
1F
100
AcDbEntity
  8
AM_VIS
100
AcDbLine
 10
2715.557086057803
 20
955.0406859868544
 30
0.0
 11
2712.557086057802
 21
955.0406859868544
 31
0.0
  0
LINE
  5
2C12
330
1F
100
AcDbEntity
  8
AM_VIS
100
AcDbLine
 10
2766.428558604782
 20
959.0406859868544
 30
0.0
 11
2766.428558604782
 21
995.5696293657657
 31
0.0
  0
LINE
  5
2C13
330
1F
100
AcDbEntity
  8
AM_VIS
100
AcDbLine
 10
2762.428558604782
 20
959.0406859868544
 30
0.0
 11
2766.428558604782
 21
959.0406859868544
 31
0.0
  0
LINE
  5
2C14
330
1F
100
AcDbEntity
  8
AM_VIS
100
AcDbLine
 10
2766.428558604782
 20
955.0406859868544
 30
0.0
 11
2766.428558604782
 21
959.0406859868544
 31
0.0
  0
LINE
  5
2C15
330
1F
100
AcDbEntity
  8
AM_VIS
100
AcDbLine
 10
2766.428558604782
 20
1003.040685986854
 30
0.0
 11
2766.428558604782
 21
995.5696293657657
 31
0.0
  0
LINE
  5
2C16
330
1F
100
AcDbEntity
  8
AM_VIS
100
AcDbLine
 10
2762.428558604782
 20
995.5696293657657
 30
0.0
 11
2762.428558604782
 21
1003.040685986854
 31
0.0
  0
LINE
  5
2C17
330
1F
100
AcDbEntity
  8
AM_VIS
100
AcDbLine
 10
2762.428558604782
 20
995.5696293657657
 30
0.0
 11
2762.428558604782
 21
959.0406859868544
 31
0.0
  0
LINE
  5
2C18
330
1F
100
AcDbEntity
  8
AM_VIS
100
AcDbLine
 10
2743.928558604782
 20
955.0406859868544
 30
0.0
 11
2766.428558604782
 21
955.0406859868544
 31
0.0
  0
LINE
  5
2C19
330
1F
100
AcDbEntity
  8
AM_VIS
100
AcDbLine
 10
2762.428558604782
 20
959.0406859868544
 30
0.0
 11
2743.928558604782
 21
959.0406859868544
 31
0.0
  0
LINE
  5
2C1A
330
1F
100
AcDbEntity
  8
AM_VIS
100
AcDbLine
 10
2740.928558604782
 20
959.0406859868544
 30
0.0
 11
2740.928558604782
 21
955.0406859868544
 31
0.0
  0
LINE
  5
2C1B
330
1F
100
AcDbEntity
  8
AM_VIS
100
AcDbLine
 10
2740.928558604782
 20
959.0406859868544
 30
0.0
 11
2743.928558604782
 21
959.0406859868544
 31
0.0
  0
LINE
  5
2C1C
330
1F
100
AcDbEntity
  8
AM_VIS
100
AcDbLine
 10
2743.928558604782
 20
955.0406859868544
 30
0.0
 11
2740.928558604782
 21
955.0406859868544
 31
0.0
  0
LINE
  5
2C1D
330
1F
100
AcDbEntity
  8
AM_VIS
100
AcDbLine
 10
2762.428558604782
 20
1003.040685986854
 30
0.0
 11
2766.428558604782
 21
1003.040685986854
 31
0.0
  0
LINE
  5
2C1E
330
1F
100
AcDbEntity
  8
AM_VIS
100
AcDbLine
 10
2715.557086057803
 20
1043.571568960282
 30
0.0
 11
2700.669631754923
 21
1043.571568960282
 31
0.0
  0
LINE
  5
2C1F
330
1F
100
AcDbEntity
  8
AM_VIS
100
AcDbLine
 10
2715.557086057803
 20
1039.571568960282
 30
0.0
 11
2715.557086057803
 21
1043.571568960282
 31
0.0
  0
LINE
  5
2C20
330
1F
100
AcDbEntity
  8
AM_VIS
100
AcDbLine
 10
2677.557086057803
 20
1043.571568960282
 30
0.0
 11
2700.669631754923
 21
1043.571568960282
 31
0.0
  0
LINE
  5
2C21
330
1F
100
AcDbEntity
  8
AM_VIS
100
AcDbLine
 10
2700.669631754923
 20
1039.571568960282
 30
0.0
 11
2677.557086057803
 21
1039.571568960282
 31
0.0
  0
LINE
  5
2C22
330
1F
100
AcDbEntity
  8
AM_VIS
100
AcDbLine
 10
2700.669631754923
 20
1039.571568960282
 30
0.0
 11
2715.557086057803
 21
1039.571568960282
 31
0.0
  0
ARC
  5
2C23
330
1F
100
AcDbEntity
  8
AM_VIS
100
AcDbCircle
 10
2666.557086057802
 20
1021.071568960282
 30
0.0
 40
3.0
100
AcDbArc
 50
180.0
 51
270.0
  0
LINE
  5
2C24
330
1F
100
AcDbEntity
  8
AM_VIS
100
AcDbLine
 10
2663.557086057803
 20
1039.071568960282
 30
0.0
 11
2663.557086057803
 21
1021.071568960282
 31
0.0
  0
LINE
  5
2C25
330
1F
100
AcDbEntity
  8
AM_VIS
100
AcDbLine
 10
2663.557086057803
 20
1039.071568960282
 30
0.0
 11
2677.557086057803
 21
1039.071568960282
 31
0.0
  0
LINE
  5
2C26
330
1F
100
AcDbEntity
  8
AM_VIS
100
AcDbLine
 10
2715.557086057803
 20
1039.571568960282
 30
0.0
 11
2715.557086057803
 21
1021.071568960282
 31
0.0
  0
CIRCLE
  5
2C27
330
1F
100
AcDbEntity
  8
AM_VIS
100
AcDbCircle
 10
2707.557086057802
 20
1026.071568960282
 30
0.0
 40
3.299999999999999
  0
CIRCLE
  5
2C28
330
1F
100
AcDbEntity
  8
AM_VIS
100
AcDbCircle
 10
2671.557086057803
 20
1026.071568960282
 30
0.0
 40
3.299999999999999
  0
LINE
  5
2C29
330
1F
100
AcDbEntity
  8
AM_VIS
100
AcDbLine
 10
2666.557086057802
 20
1018.071568960282
 30
0.0
 11
2712.557086057802
 21
1018.071568960282
 31
0.0
  0
ARC
  5
2C2A
330
1F
100
AcDbEntity
  8
AM_VIS
100
AcDbCircle
 10
2712.557086057802
 20
1021.071568960282
 30
0.0
 40
3.0
100
AcDbArc
 50
270.0
 51
0.0
  0
LINE
  5
2C2B
330
1F
100
AcDbEntity
  8
AM_VIS
100
AcDbLine
 10
2677.557086057803
 20
1039.071568960282
 30
0.0
 11
2677.557086057803
 21
1043.571568960282
 31
0.0
  0
LINE
  5
2C3A
330
1F
100
AcDbEntity
  8
AM_VIS
100
AcDbLine
 10
2782.428558604782
 20
959.0406859868544
 30
0.0
 11
2782.428558604782
 21
995.5696293657657
 31
0.0
  0
LINE
  5
2C3B
330
1F
100
AcDbEntity
  8
AM_VIS
100
AcDbLine
 10
2786.428558604783
 20
959.0406859868544
 30
0.0
 11
2782.428558604782
 21
959.0406859868544
 31
0.0
  0
LINE
  5
2C3C
330
1F
100
AcDbEntity
  8
AM_VIS
100
AcDbLine
 10
2782.428558604782
 20
955.0406859868544
 30
0.0
 11
2782.428558604782
 21
959.0406859868544
 31
0.0
  0
LINE
  5
2C3D
330
1F
100
AcDbEntity
  8
AM_VIS
100
AcDbLine
 10
2782.428558604782
 20
1003.040685986854
 30
0.0
 11
2782.428558604782
 21
995.5696293657657
 31
0.0
  0
LINE
  5
2C3E
330
1F
100
AcDbEntity
  8
AM_VIS
100
AcDbLine
 10
2786.428558604783
 20
995.5696293657657
 30
0.0
 11
2786.428558604783
 21
1003.040685986854
 31
0.0
  0
LINE
  5
2C3F
330
1F
100
AcDbEntity
  8
AM_VIS
100
AcDbLine
 10
2786.428558604783
 20
995.5696293657657
 30
0.0
 11
2786.428558604783
 21
959.0406859868544
 31
0.0
  0
LINE
  5
2C40
330
1F
100
AcDbEntity
  8
AM_VIS
100
AcDbLine
 10
2804.928558604782
 20
955.0406859868544
 30
0.0
 11
2782.428558604782
 21
955.0406859868544
 31
0.0
  0
LINE
  5
2C41
330
1F
100
AcDbEntity
  8
AM_VIS
100
AcDbLine
 10
2786.428558604783
 20
959.0406859868544
 30
0.0
 11
2804.928558604782
 21
959.0406859868544
 31
0.0
  0
LINE
  5
2C42
330
1F
100
AcDbEntity
  8
AM_VIS
100
AcDbLine
 10
2807.928558604782
 20
959.0406859868544
 30
0.0
 11
2807.928558604782
 21
955.0406859868544
 31
0.0
  0
LINE
  5
2C43
330
1F
100
AcDbEntity
  8
AM_VIS
100
AcDbLine
 10
2807.928558604782
 20
959.0406859868544
 30
0.0
 11
2804.928558604782
 21
959.0406859868544
 31
0.0
  0
LINE
  5
2C44
330
1F
100
AcDbEntity
  8
AM_VIS
100
AcDbLine
 10
2804.928558604782
 20
955.0406859868544
 30
0.0
 11
2807.928558604782
 21
955.0406859868544
 31
0.0
  0
LINE
  5
2C45
330
1F
100
AcDbEntity
  8
AM_VIS
100
AcDbLine
 10
2786.428558604783
 20
1003.040685986854
 30
0.0
 11
2782.428558604782
 21
1003.040685986854
 31
0.0
  0
LINE
  5
2C53
330
1F
100
AcDbEntity
  8
AM_7
  6
AM_ISO08W050x2
100
AcDbLine
 10
2689.557086057802
 20
991.0406859868544
 30
0.0
 11
2696.557086057802
 21
991.0406859868544
 31
0.0
1001
GENIUS_GENOREF_13
1005
2C57
  0
LINE
  5
2C54
330
1F
100
AcDbEntity
  8
AM_7
  6
AM_ISO08W050x2
100
AcDbLine
 10
2689.557086057802
 20
991.0406859868544
 30
0.0
 11
2689.557086057802
 21
998.0406859868544
 31
0.0
1001
GENIUS_GENOREF_13
1005
2C57
  0
LINE
  5
2C55
330
1F
100
AcDbEntity
  8
AM_7
  6
AM_ISO08W050x2
100
AcDbLine
 10
2689.557086057802
 20
991.0406859868544
 30
0.0
 11
2682.557086057802
 21
991.0406859868544
 31
0.0
1001
GENIUS_GENOREF_13
1005
2C57
  0
LINE
  5
2C56
330
1F
100
AcDbEntity
  8
AM_7
  6
AM_ISO08W050x2
100
AcDbLine
 10
2689.557086057802
 20
991.0406859868544
 30
0.0
 11
2689.557086057802
 21
984.0406859868544
 31
0.0
1001
GENIUS_GENOREF_13
1005
2C57
  0
POINT
  5
2C57
330
1F
100
AcDbEntity
  8
0
 60
     1
100
AcDbPoint
 10
0.0
 20
0.0
 30
0.0
1001
GENIUS_GENOENT_13
1002
{
1000
MYREF
1005
2C57
1002
}
1002
{
1000
GRP
1005
0
1002
}
1001
GENIUS_GENOLIS_13
1002
{
1000
ENT
1005
2C56
1005
2C55
1005
2C54
1005
2C53
1002
}
1001
GENIUS_GENODEF_13
1002
{
1000
HIER
1070
    10
1002
}
1002
{
1000
MANEDIT
1070
     0
1002
}
1002
{
1000
NOSEL
1070
     0
1002
}
1002
{
1000
BEHIND
1070
     0
1002
}
1002
{
1000
OTHER
1070
     0
1002
}
1002
{
1000
REACTOR
1002
}
1001
GENIUS_GENOBJ-N-CRS_13
1002
{
1000
OWNER
1000
GEN
1002
}
  0
LINE
  5
2C65
330
1F
100
AcDbEntity
  8
AM_7
  6
AM_ISO08W050x2
100
AcDbLine
 10
2671.557086057803
 20
1026.071568960282
 30
0.0
 11
2676.857086057803
 21
1026.071568960282
 31
0.0
1001
GENIUS_GENOREF_13
1005
2C69
  0
LINE
  5
2C66
330
1F
100
AcDbEntity
  8
AM_7
  6
AM_ISO08W050x2
100
AcDbLine
 10
2671.557086057803
 20
1026.071568960282
 30
0.0
 11
2671.557086057803
 21
1031.371568960282
 31
0.0
1001
GENIUS_GENOREF_13
1005
2C69
  0
LINE
  5
2C67
330
1F
100
AcDbEntity
  8
AM_7
  6
AM_ISO08W050x2
100
AcDbLine
 10
2671.557086057803
 20
1026.071568960282
 30
0.0
 11
2666.257086057802
 21
1026.071568960282
 31
0.0
1001
GENIUS_GENOREF_13
1005
2C69
  0
LINE
  5
2C68
330
1F
100
AcDbEntity
  8
AM_7
  6
AM_ISO08W050x2
100
AcDbLine
 10
2671.557086057803
 20
1026.071568960282
 30
0.0
 11
2671.557086057803
 21
1020.771568960282
 31
0.0
1001
GENIUS_GENOREF_13
1005
2C69
  0
POINT
  5
2C69
330
1F
100
AcDbEntity
  8
0
 60
     1
100
AcDbPoint
 10
0.0
 20
0.0
 30
0.0
1001
GENIUS_GENODEF_13
1002
{
1000
HIER
1070
    10
1002
}
1002
{
1000
MANEDIT
1070
     0
1002
}
1002
{
1000
NOSEL
1070
     0
1002
}
1002
{
1000
BEHIND
1070
     0
1002
}
1002
{
1000
OTHER
1070
     0
1002
}
1002
{
1000
REACTOR
1002
}
1001
GENIUS_GENOBJ-N-CRS_13
1002
{
1000
OWNER
1000
GEN
1002
}
1001
GENIUS_GENOENT_13
1002
{
1000
MYREF
1005
2C69
1002
}
1002
{
1000
GRP
1005
0
1002
}
1001
GENIUS_GENOLIS_13
1002
{
1000
ENT
1005
2C68
1005
2C67
1005
2C66
1005
2C65
1002
}
  0
LINE
  5
2C77
330
1F
100
AcDbEntity
  8
AM_7
  6
AM_ISO08W050x2
100
AcDbLine
 10
2707.557086057802
 20
1026.071568960282
 30
0.0
 11
2712.857086057803
 21
1026.071568960282
 31
0.0
1001
GENIUS_GENOREF_13
1005
2C7B
  0
LINE
  5
2C78
330
1F
100
AcDbEntity
  8
AM_7
  6
AM_ISO08W050x2
100
AcDbLine
 10
2707.557086057802
 20
1026.071568960282
 30
0.0
 11
2707.557086057802
 21
1031.371568960282
 31
0.0
1001
GENIUS_GENOREF_13
1005
2C7B
  0
LINE
  5
2C79
330
1F
100
AcDbEntity
  8
AM_7
  6
AM_ISO08W050x2
100
AcDbLine
 10
2707.557086057802
 20
1026.071568960282
 30
0.0
 11
2702.257086057802
 21
1026.071568960282
 31
0.0
1001
GENIUS_GENOREF_13
1005
2C7B
  0
LINE
  5
2C7A
330
1F
100
AcDbEntity
  8
AM_7
  6
AM_ISO08W050x2
100
AcDbLine
 10
2707.557086057802
 20
1026.071568960282
 30
0.0
 11
2707.557086057802
 21
1020.771568960282
 31
0.0
1001
GENIUS_GENOREF_13
1005
2C7B
  0
POINT
  5
2C7B
330
1F
100
AcDbEntity
  8
0
 60
     1
100
AcDbPoint
 10
0.0
 20
0.0
 30
0.0
1001
GENIUS_GENOBJ-N-CRS_13
1002
{
1000
OWNER
1000
GEN
1002
}
1001
GENIUS_GENOLIS_13
1002
{
1000
ENT
1005
2C7A
1005
2C79
1005
2C78
1005
2C77
1002
}
1001
GENIUS_GENOENT_13
1002
{
1000
MYREF
1005
2C7B
1002
}
1002
{
1000
GRP
1005
0
1002
}
1001
GENIUS_GENODEF_13
1002
{
1000
HIER
1070
    10
1002
}
1002
{
1000
MANEDIT
1070
     0
1002
}
1002
{
1000
NOSEL
1070
     0
1002
}
1002
{
1000
BEHIND
1070
     0
1002
}
1002
{
1000
OTHER
1070
     0
1002
}
1002
{
1000
REACTOR
1002
}
  0
LINE
  5
2CA0
330
1F
100
AcDbEntity
  8
AM_7
  6
AM_ISO08W050x2
100
AcDbLine
 10
2671.557086057803
 20
961.3909019213359
 30
0.0
 11
2671.557086057803
 21
952.6518201410027
 31
0.0
  0
LINE
  5
2CA1
330
1F
100
AcDbEntity
  8
AM_7
  6
AM_ISO08W050x2
100
AcDbLine
 10
2707.557086057802
 20
961.3909019213359
 30
0.0
 11
2707.557086057802
 21
952.6518201410027
 31
0.0
  0
LINE
  5
2CA2
330
1F
100
AcDbEntity
  8
AM_7
  6
AM_ISO08W050x2
100
AcDbLine
 10
2760.922519627331
 20
991.0406859868544
 30
0.0
 11
2767.922519627331
 21
991.0406859868544
 31
0.0
  0
LINE
  5
2CA3
330
1F
100
AcDbEntity
  8
AM_7
  6
AM_ISO08W050x2
100
AcDbLine
 10
2780.708270901041
 20
991.0406859868544
 30
0.0
 11
2787.708270901041
 21
991.0406859868544
 31
0.0
  0
LINE
  5
2CA4
330
1F
100
AcDbEntity
  8
AM_7
  6
AM_ISO08W050x2
100
AcDbLine
 10
2748.928558604783
 20
961.3909019213359
 30
0.0
 11
2748.928558604783
 21
952.6518201410027
 31
0.0
  0
LINE
  5
2CA5
330
1F
100
AcDbEntity
  8
AM_7
  6
AM_ISO08W050x2
100
AcDbLine
 10
2799.928558604782
 20
961.3909019213359
 30
0.0
 11
2799.928558604782
 21
952.6518201410027
 31
0.0
  0
LINE
  5
2CA6
330
1F
100
AcDbEntity
  8
AM_7
100
AcDbLine
 10
2675.721371450875
 20
1117.340660149698
 30
0.0
 11
2675.721371450875
 21
1127.202978686715
 31
0.0
  0
LINE
  5
2CA7
330
1F
100
AcDbEntity
  8
AM_7
100
AcDbLine
 10
2720.721371450875
 20
1117.340660149698
 30
0.0
 11
2720.721371450875
 21
1127.202978686715
 31
0.0
  0
DIMENSION
  5
2D03
102
{ACAD_XDICTIONARY
360
2D10
102
}
102
{ACAD_REACTORS
330
2D11
102
}
330
1F
100
AcDbEntity
  8
AM_5
100
AcDbDimension
  2
*D2
 10
2539.715316155666
 20
1125.109331169754
 30
0.0
 11
2466.715316155666
 21
1127.609331169754
 31
0.0
 70
    32
  1
<>+stroke
 71
     5
 42
146.0
  3
AM_ISO$0
100
AcDbAlignedDimension
 13
2393.715316155666
 23
1151.109331169754
 33
0.0
 14
2539.715316155666
 24
1145.109331169754
 34
0.0
100
AcDbRotatedDimension
1001
ACAD
1000
DSTYLE
1002
{
1070
    40
1040
1.0
1070
   144
1040
1.0
1070
    47
1040
-0.05
1070
    48
1040
0.4
1070
   272
1070
     8
1002
}
  0
INSERT
  5
2D44
330
1F
100
AcDbEntity
  8
AM_5
100
AcDbBlockReference
  2
*S5
 10
0.0
 20
0.0
 30
0.0
  0
TEXT
  5
2D45
330
1F
100
AcDbEntity
  8
AM_5
100
AcDbText
 10
2412.396915978297
 20
1174.867369841821
 30
0.0
 40
3.0
  1
M10x1.25
100
AcDbText
  0
DIMENSION
  5
2D46
330
1F
100
AcDbEntity
  8
AM_5
100
AcDbDimension
  2
*D3
 10
2584.840273024678
 20
1125.109331169754
 30
0.0
 11
2576.840273024678
 21
1128.426702788162
 31
0.0
 70
    32
  1
<>
 71
     5
 42
16.0
  3
AM_ISO$0
100
AcDbAlignedDimension
 13
2568.840273024678
 23
1146.018602432035
 33
0.0
 14
2584.840273024678
 24
1146.018602432035
 34
0.0
100
AcDbRotatedDimension
1001
ACAD
1000
DSTYLE
1002
{
1070
    47
1040
-0.05
1070
    48
1040
0.4
1070
    71
1070
     1
1070
   272
1070
     8
1002
}
1001
GENIUS_GENDTOL_13
1000
TolAcTol
1000

1000

1040
16.0
  0
INSERT
  5
2D66
330
1F
100
AcDbEntity
  8
AM_5
100
AcDbBlockReference
  2
*S6
 10
6.015644456578229
 20
2.074124213588447
 30
0.0
  0
TEXT
  5
2D67
330
1F
100
AcDbEntity
  8
AM_5
100
AcDbText
 10
2513.872778865794
 20
1232.049853140277
 30
0.0
 40
3.0
  1
2-PT1/8
100
AcDbText
  0
DIMENSION
  5
2D6C
102
{ACAD_XDICTIONARY
360
2D78
102
}
102
{ACAD_REACTORS
330
2D79
102
}
330
1F
100
AcDbEntity
  8
AM_5
100
AcDbDimension
  2
*D4
 10
2528.036485161887
 20
1150.39960437361
 30
0.0
 11
2541.003413264105
 21
1170.323083914289
 31
0.0
 70
   163
  1
<>{}{\H0.71x;\C3; H9}
 71
     5
 42
9.99999999999909
  3
AM_ISO$3
100
AcDbDiametricDimension
 15
2531.394147149445
 25
1159.819057965899
 35
0.0
 40
0.0
1001
GENIUS_GENDTOL_13
1000
FitSmTxt
1000
H9
1000
{\H0.71x;$2 $T}
1040
10.0
1001
ACAD
1000
DSTYLE
1002
{
1070
   286
1070
     0
1070
   284
1070
     8
1070
    47
1040
-0.05
1070
    48
1040
0.4
1070
   272
1070
     8
1070
   274
1070
     3
1002
}
  0
TEXT
  5
2F2E
330
1F
100
AcDbEntity
  8
0
100
AcDbText
 10
2308.580340358104
 20
1233.595430423233
 30
0.0
 40
7.919999999999999
  1
11 type
  7
CHINESET
100
AcDbText
  0
ARC
  5
32DE
330
1F
100
AcDbEntity
  8
0
100
AcDbCircle
 10
2418.715316155666
 20
1155.109331169754
 30
0.0
 40
5.999999999999924
100
AcDbArc
 50
326.4426902380768
 51
33.55730976191957
  0
LINE
  5
32DF
330
1F
100
AcDbEntity
  8
0
100
AcDbLine
 10
2416.238578321699
 20
1158.201701670562
 30
0.0
 11
2423.715316155667
 21
1151.792706379398
 31
0.0
  0
LINE
  5
32E0
330
1F
100
AcDbEntity
  8
0
100
AcDbLine
 10
2416.238578321699
 20
1152.016960668946
 30
0.0
 11
2423.715316155667
 21
1158.425955960109
 31
0.0
  0
LINE
  5
3472
330
1F
100
AcDbEntity
  8
AM_VIS
100
AcDbLine
 10
2715.557086057803
 20
1059.571568960282
 30
0.0
 11
2700.669631754923
 21
1059.571568960282
 31
0.0
  0
LINE
  5
3473
330
1F
100
AcDbEntity
  8
AM_VIS
100
AcDbLine
 10
2715.557086057803
 20
1063.571568960282
 30
0.0
 11
2715.557086057803
 21
1059.571568960282
 31
0.0
  0
LINE
  5
3474
330
1F
100
AcDbEntity
  8
AM_VIS
100
AcDbLine
 10
2677.557086057803
 20
1059.571568960282
 30
0.0
 11
2700.669631754923
 21
1059.571568960282
 31
0.0
  0
LINE
  5
3475
330
1F
100
AcDbEntity
  8
AM_VIS
100
AcDbLine
 10
2700.669631754923
 20
1063.571568960282
 30
0.0
 11
2677.557086057803
 21
1063.571568960282
 31
0.0
  0
LINE
  5
3476
330
1F
100
AcDbEntity
  8
AM_VIS
100
AcDbLine
 10
2700.669631754923
 20
1063.571568960282
 30
0.0
 11
2715.557086057803
 21
1063.571568960282
 31
0.0
  0
ARC
  5
3477
330
1F
100
AcDbEntity
  8
AM_VIS
100
AcDbCircle
 10
2666.557086057802
 20
1082.071568960282
 30
0.0
 40
3.0
100
AcDbArc
 50
90.00000000000003
 51
180.0
  0
LINE
  5
3478
330
1F
100
AcDbEntity
  8
AM_VIS
100
AcDbLine
 10
2663.557086057803
 20
1064.071568960282
 30
0.0
 11
2663.557086057803
 21
1082.071568960282
 31
0.0
  0
LINE
  5
3479
330
1F
100
AcDbEntity
  8
AM_VIS
100
AcDbLine
 10
2663.557086057803
 20
1064.071568960282
 30
0.0
 11
2677.557086057803
 21
1064.071568960282
 31
0.0
  0
LINE
  5
347A
330
1F
100
AcDbEntity
  8
AM_VIS
100
AcDbLine
 10
2715.557086057803
 20
1063.571568960282
 30
0.0
 11
2715.557086057803
 21
1082.071568960282
 31
0.0
  0
CIRCLE
  5
347B
330
1F
100
AcDbEntity
  8
AM_VIS
100
AcDbCircle
 10
2707.557086057802
 20
1077.071568960282
 30
0.0
 40
3.299999999999999
  0
CIRCLE
  5
347C
330
1F
100
AcDbEntity
  8
AM_VIS
100
AcDbCircle
 10
2671.557086057803
 20
1077.071568960282
 30
0.0
 40
3.299999999999999
  0
LINE
  5
347D
330
1F
100
AcDbEntity
  8
AM_VIS
100
AcDbLine
 10
2666.557086057802
 20
1085.071568960282
 30
0.0
 11
2712.557086057802
 21
1085.071568960282
 31
0.0
  0
ARC
  5
347E
330
1F
100
AcDbEntity
  8
AM_VIS
100
AcDbCircle
 10
2712.557086057802
 20
1082.071568960282
 30
0.0
 40
3.0
100
AcDbArc
 50
0.0
 51
90.00000000000003
  0
LINE
  5
347F
330
1F
100
AcDbEntity
  8
AM_VIS
100
AcDbLine
 10
2677.557086057803
 20
1064.071568960282
 30
0.0
 11
2677.557086057803
 21
1059.571568960282
 31
0.0
  0
LINE
  5
3480
330
1F
100
AcDbEntity
  8
AM_7
  6
AM_ISO08W050x2
100
AcDbLine
 10
2671.557086057803
 20
1077.071568960282
 30
0.0
 11
2676.857086057803
 21
1077.071568960282
 31
0.0
1001
GENIUS_GENOREF_13
1005
3489
  0
LINE
  5
3481
330
1F
100
AcDbEntity
  8
AM_7
  6
AM_ISO08W050x2
100
AcDbLine
 10
2671.557086057803
 20
1077.071568960282
 30
0.0
 11
2671.557086057803
 21
1071.771568960283
 31
0.0
1001
GENIUS_GENOREF_13
1005
3489
  0
LINE
  5
3482
330
1F
100
AcDbEntity
  8
AM_7
  6
AM_ISO08W050x2
100
AcDbLine
 10
2671.557086057803
 20
1077.071568960282
 30
0.0
 11
2666.257086057802
 21
1077.071568960282
 31
0.0
1001
GENIUS_GENOREF_13
1005
3489
  0
LINE
  5
3483
330
1F
100
AcDbEntity
  8
AM_7
  6
AM_ISO08W050x2
100
AcDbLine
 10
2671.557086057803
 20
1077.071568960282
 30
0.0
 11
2671.557086057803
 21
1082.371568960283
 31
0.0
1001
GENIUS_GENOREF_13
1005
3489
  0
LINE
  5
3484
330
1F
100
AcDbEntity
  8
AM_7
  6
AM_ISO08W050x2
100
AcDbLine
 10
2707.557086057802
 20
1077.071568960282
 30
0.0
 11
2712.857086057803
 21
1077.071568960282
 31
0.0
1001
GENIUS_GENOREF_13
1005
3488
  0
LINE
  5
3485
330
1F
100
AcDbEntity
  8
AM_7
  6
AM_ISO08W050x2
100
AcDbLine
 10
2707.557086057802
 20
1077.071568960282
 30
0.0
 11
2707.557086057802
 21
1071.771568960283
 31
0.0
1001
GENIUS_GENOREF_13
1005
3488
  0
LINE
  5
3486
330
1F
100
AcDbEntity
  8
AM_7
  6
AM_ISO08W050x2
100
AcDbLine
 10
2707.557086057802
 20
1077.071568960282
 30
0.0
 11
2702.257086057802
 21
1077.071568960282
 31
0.0
1001
GENIUS_GENOREF_13
1005
3488
  0
LINE
  5
3487
330
1F
100
AcDbEntity
  8
AM_7
  6
AM_ISO08W050x2
100
AcDbLine
 10
2707.557086057802
 20
1077.071568960282
 30
0.0
 11
2707.557086057802
 21
1082.371568960283
 31
0.0
1001
GENIUS_GENOREF_13
1005
3488
  0
POINT
  5
3488
330
1F
100
AcDbEntity
  8
0
 60
     1
100
AcDbPoint
 10
0.0
 20
2097.143137920565
 30
0.0
1001
GENIUS_GENOBJ-N-CRS_13
1002
{
1000
OWNER
1000
GEN
1002
}
1001
GENIUS_GENOLIS_13
1002
{
1000
ENT
1005
3487
1005
3486
1005
3485
1005
3484
1002
}
1001
GENIUS_GENOENT_13
1002
{
1000
MYREF
1005
3488
1002
}
1002
{
1000
GRP
1005
0
1002
}
1001
GENIUS_GENODEF_13
1002
{
1000
HIER
1070
    10
1002
}
1002
{
1000
MANEDIT
1070
     0
1002
}
1002
{
1000
NOSEL
1070
     0
1002
}
1002
{
1000
BEHIND
1070
     0
1002
}
1002
{
1000
OTHER
1070
     0
1002
}
1002
{
1000
REACTOR
1002
}
  0
POINT
  5
3489
330
1F
100
AcDbEntity
  8
0
 60
     1
100
AcDbPoint
 10
0.0
 20
2097.143137920565
 30
0.0
1001
GENIUS_GENODEF_13
1002
{
1000
HIER
1070
    10
1002
}
1002
{
1000
MANEDIT
1070
     0
1002
}
1002
{
1000
NOSEL
1070
     0
1002
}
1002
{
1000
BEHIND
1070
     0
1002
}
1002
{
1000
OTHER
1070
     0
1002
}
1002
{
1000
REACTOR
1002
}
1001
GENIUS_GENOBJ-N-CRS_13
1002
{
1000
OWNER
1000
GEN
1002
}
1001
GENIUS_GENOENT_13
1002
{
1000
MYREF
1005
3489
1002
}
1002
{
1000
GRP
1005
0
1002
}
1001
GENIUS_GENOLIS_13
1002
{
1000
ENT
1005
3483
1005
3482
1005
3481
1005
3480
1002
}
  0
LINE
  5
3961
330
1F
100
AcDbEntity
  8
AM_7
100
AcDbLine
 10
2679.697830589396
 20
874.2516440265911
 30
0.0
 11
2681.697830589396
 21
874.2516440265911
 31
0.0
  0
LINE
  5
3962
330
1F
100
AcDbEntity
  8
AM_7
100
AcDbLine
 10
2680.697830589396
 20
873.2516440265911
 30
0.0
 11
2680.697830589396
 21
875.251644026591
 31
0.0
  0
LINE
  5
3963
330
1F
100
AcDbEntity
  8
AM_7
100
AcDbLine
 10
2669.097830589396
 20
874.2516440265911
 30
0.0
 11
2678.897830589396
 21
874.2516440265911
 31
0.0
  0
LINE
  5
3964
330
1F
100
AcDbEntity
  8
AM_7
100
AcDbLine
 10
2682.497830589396
 20
874.2516440265911
 30
0.0
 11
2692.297830589396
 21
874.2516440265911
 31
0.0
  0
LINE
  5
3965
330
1F
100
AcDbEntity
  8
AM_7
100
AcDbLine
 10
2680.697830589396
 20
862.6516440265911
 30
0.0
 11
2680.697830589396
 21
872.4516440265912
 31
0.0
  0
LINE
  5
3966
330
1F
100
AcDbEntity
  8
AM_7
100
AcDbLine
 10
2680.697830589396
 20
876.0516440265909
 30
0.0
 11
2680.697830589396
 21
885.851644026591
 31
0.0
  0
LINE
  5
3968
330
1F
100
AcDbEntity
  8
AM_7
100
AcDbLine
 10
2721.508390097222
 20
874.2516440265911
 30
0.0
 11
2775.708390097222
 21
874.2516440265911
 31
0.0
  0
LINE
  5
3969
330
1F
100
AcDbEntity
  8
AM_7
100
AcDbLine
 10
2734.108390097222
 20
874.2516440265911
 30
0.0
 11
2736.108390097222
 21
874.2516440265911
 31
0.0
  0
LINE
  5
396A
330
1F
100
AcDbEntity
  8
AM_7
100
AcDbLine
 10
2735.108390097222
 20
873.2516440265911
 30
0.0
 11
2735.108390097222
 21
875.251644026591
 31
0.0
  0
LINE
  5
396B
330
1F
100
AcDbEntity
  8
AM_7
100
AcDbLine
 10
2728.508390097222
 20
874.2516440265911
 30
0.0
 11
2733.308390097222
 21
874.2516440265911
 31
0.0
  0
LINE
  5
396C
330
1F
100
AcDbEntity
  8
AM_7
100
AcDbLine
 10
2736.908390097222
 20
874.2516440265911
 30
0.0
 11
2741.708390097222
 21
874.2516440265911
 31
0.0
  0
LINE
  5
396D
330
1F
100
AcDbEntity
  8
AM_7
100
AcDbLine
 10
2735.108390097222
 20
867.651644026591
 30
0.0
 11
2735.108390097222
 21
872.4516440265912
 31
0.0
  0
LINE
  5
396E
330
1F
100
AcDbEntity
  8
AM_7
100
AcDbLine
 10
2735.108390097222
 20
876.0516440265909
 30
0.0
 11
2735.108390097222
 21
880.8516440265911
 31
0.0
  0
LINE
  5
396F
330
1F
100
AcDbEntity
  8
AM_4
  6
AM_ISO02W050x2
100
AcDbLine
 10
2774.858390097222
 20
879.2516440265911
 30
0.0
 11
2758.108390097222
 21
879.2516440265911
 31
0.0
  0
LINE
  5
3970
330
1F
100
AcDbEntity
  8
AM_4
  6
AM_ISO02W050x2
100
AcDbLine
 10
2774.858390097222
 20
869.251644026591
 30
0.0
 11
2758.108390097222
 21
869.251644026591
 31
0.0
  0
LINE
  5
3971
330
1F
100
AcDbEntity
  8
AM_4
  6
AM_ISO02W050x2
100
AcDbLine
 10
2758.108390097222
 20
879.2516440265911
 30
0.0
 11
2758.108390097222
 21
869.251644026591
 31
0.0
  0
LINE
  5
3972
330
1F
100
AcDbEntity
  8
AM_7
100
AcDbLine
 10
2721.508390097222
 20
907.6244035550619
 30
0.0
 11
2775.708390097222
 21
907.6244035550619
 31
0.0
  0
LINE
  5
3973
330
1F
100
AcDbEntity
  8
AM_7
100
AcDbLine
 10
2735.108390097222
 20
913.224403555062
 30
0.0
 11
2735.108390097222
 21
902.0244035550618
 31
0.0
  0
LINE
  5
3974
330
1F
100
AcDbEntity
  8
AM_4
  6
AM_ISO02W050x2
100
AcDbLine
 10
2774.858390097222
 20
912.624403555062
 30
0.0
 11
2758.108390097222
 21
912.624403555062
 31
0.0
  0
LINE
  5
3975
330
1F
100
AcDbEntity
  8
AM_4
  6
AM_ISO02W050x2
100
AcDbLine
 10
2774.858390097222
 20
902.6244035550618
 30
0.0
 11
2758.108390097222
 21
902.6244035550618
 31
0.0
  0
LINE
  5
3976
330
1F
100
AcDbEntity
  8
AM_4
  6
AM_ISO02W050x2
100
AcDbLine
 10
2758.108390097222
 20
912.624403555062
 30
0.0
 11
2758.108390097222
 21
902.6244035550618
 31
0.0
  0
ARC
  5
3977
330
1F
100
AcDbEntity
  8
AM_VIS
100
AcDbCircle
 10
2680.697830589396
 20
874.2516440265911
 30
0.0
 40
10.0
100
AcDbArc
 50
59.99999999999946
 51
120.0000000000005
  0
ARC
  5
3978
330
1F
100
AcDbEntity
  8
AM_VIS
100
AcDbCircle
 10
2680.697830589396
 20
874.2516440265911
 30
0.0
 40
10.0
100
AcDbArc
 50
300.0000000000005
 51
59.99999999999946
  0
ARC
  5
3979
330
1F
100
AcDbEntity
  8
AM_VIS
100
AcDbCircle
 10
2680.697830589396
 20
874.2516440265911
 30
0.0
 40
10.0
100
AcDbArc
 50
239.9999999999995
 51
300.0000000000005
  0
ARC
  5
397A
330
1F
100
AcDbEntity
  8
AM_VIS
100
AcDbCircle
 10
2680.697830589396
 20
874.2516440265911
 30
0.0
 40
10.0
100
AcDbArc
 50
120.0000000000005
 51
239.9999999999995
  0
LINE
  5
397B
330
1F
100
AcDbEntity
  8
AM_VIS
100
AcDbLine
 10
2685.697830589396
 20
882.9118980644354
 30
0.0
 11
2685.697830589396
 21
879.1506235121573
 31
0.0
  0
LINE
  5
397C
330
1F
100
AcDbEntity
  8
AM_VIS
100
AcDbLine
 10
2685.697830589396
 20
869.3526645410248
 30
0.0
 11
2685.697830589396
 21
879.1506235121573
 31
0.0
  0
LINE
  5
397D
330
1F
100
AcDbEntity
  8
AM_VIS
100
AcDbLine
 10
2685.697830589396
 20
869.3526645410248
 30
0.0
 11
2685.697830589396
 21
865.5913899887465
 31
0.0
  0
LINE
  5
397E
330
1F
100
AcDbEntity
  8
AM_VIS
100
AcDbLine
 10
2675.697830589396
 20
882.9118980644354
 30
0.0
 11
2675.697830589396
 21
879.1506235121573
 31
0.0
  0
LINE
  5
397F
330
1F
100
AcDbEntity
  8
AM_VIS
100
AcDbLine
 10
2675.697830589396
 20
869.3526645410248
 30
0.0
 11
2675.697830589396
 21
865.5913899887465
 31
0.0
  0
LINE
  5
3980
330
1F
100
AcDbEntity
  8
AM_VIS
100
AcDbLine
 10
2675.697830589396
 20
879.1506235121573
 30
0.0
 11
2675.697830589396
 21
869.3526645410248
 31
0.0
  0
ARC
  5
3981
330
1F
100
AcDbEntity
  8
AM_VIS
100
AcDbCircle
 10
2680.697830589396
 20
874.2516440265911
 30
0.0
 40
7.000000000000003
100
AcDbArc
 50
224.4153085971888
 51
315.5846914028112
  0
ARC
  5
3982
330
1F
100
AcDbEntity
  8
AM_VIS
100
AcDbCircle
 10
2680.697830589396
 20
874.2516440265911
 30
0.0
 40
7.000000000000003
100
AcDbArc
 50
44.4153085971888
 51
135.5846914028112
  0
SPLINE
  5
3983
330
1F
100
AcDbEntity
  8
AM_VIS
100
AcDbSpline
210
0.0
220
0.0
230
1.0
 70
    12
 71
     2
 72
     6
 73
     3
 74
     0
 42
0.0000000001
 43
0.0000000001
 40
0.0
 40
0.0
 40
0.0
 40
5.383355644580904
 40
5.383355644580904
 40
5.383355644580904
 10
2723.108390097222
 20
869.3526645410248
 30
0.0
 41
1.0
 10
2724.192296383761
 20
867.8039044312656
 30
0.0
 41
1.037250806238016
 10
2726.108390097222
 20
865.5913899887472
 30
0.0
 41
1.023222088326372
  0
LINE
  5
3984
330
1F
100
AcDbEntity
  8
AM_VIS
100
AcDbLine
 10
2723.108390097222
 20
869.3526645410248
 30
0.0
 11
2723.108390097222
 21
879.1506235121573
 31
0.0
  0
SPLINE
  5
3985
330
1F
100
AcDbEntity
  8
AM_VIS
100
AcDbSpline
210
0.0
220
0.0
230
1.0
 70
    12
 71
     2
 72
     6
 73
     3
 74
     0
 42
0.0000000001
 43
0.0000000001
 40
2.437868961222763
 40
2.437868961222763
 40
2.437868961222763
 40
7.821224605803668
 40
7.821224605803668
 40
7.821224605803668
 10
2726.108390097222
 20
882.9118980644356
 30
0.0
 41
1.023222088326372
 10
2724.192296383761
 20
880.6993836219161
 30
0.0
 41
1.037250806238016
 10
2723.108390097222
 20
879.1506235121573
 30
0.0
 41
1.0
  0
LINE
  5
3986
330
1F
100
AcDbEntity
  8
AM_VIS
100
AcDbLine
 10
2750.108390097222
 20
865.5913899887465
 30
0.0
 11
2726.108390097222
 21
865.5913899887465
 31
0.0
  0
LINE
  5
3987
330
1F
100
AcDbEntity
  8
AM_VIS
100
AcDbLine
 10
2726.108390097222
 20
882.9118980644354
 30
0.0
 11
2750.108390097222
 21
882.9118980644354
 31
0.0
  0
LINE
  5
3988
330
1F
100
AcDbEntity
  8
AM_VIS
100
AcDbLine
 10
2723.108390097222
 20
881.2516440265911
 30
0.0
 11
2726.108390097222
 21
884.251644026591
 31
0.0
  0
LINE
  5
3989
330
1F
100
AcDbEntity
  8
AM_VIS
100
AcDbLine
 10
2723.108390097222
 20
867.251644026591
 30
0.0
 11
2726.108390097222
 21
864.2516440265911
 31
0.0
  0
LINE
  5
398A
330
1F
100
AcDbEntity
  8
AM_HID
100
AcDbLine
 10
2752.554732466355
 20
874.2516440265911
 30
0.0
 11
2755.108390097222
 21
870.001644026591
 31
0.0
  0
LINE
  5
398B
330
1F
100
AcDbEntity
  8
AM_HID
100
AcDbLine
 10
2752.554732466355
 20
874.2516440265911
 30
0.0
 11
2755.108390097222
 21
878.5016440265911
 31
0.0
  0
LINE
  5
398C
330
1F
100
AcDbEntity
  8
AM_VIS
100
AcDbLine
 10
2774.108390097222
 20
884.251644026591
 30
0.0
 11
2726.108390097222
 21
884.251644026591
 31
0.0
  0
LINE
  5
398D
330
1F
100
AcDbEntity
  8
AM_VIS
100
AcDbLine
 10
2774.108390097222
 20
864.2516440265911
 30
0.0
 11
2726.108390097222
 21
864.2516440265911
 31
0.0
  0
LINE
  5
398E
330
1F
100
AcDbEntity
  8
AM_VIS
100
AcDbLine
 10
2775.108390097222
 20
883.251644026591
 30
0.0
 11
2774.108390097222
 21
884.251644026591
 31
0.0
  0
LINE
  5
398F
330
1F
100
AcDbEntity
  8
AM_VIS
100
AcDbLine
 10
2775.108390097222
 20
865.2516440265911
 30
0.0
 11
2774.108390097222
 21
864.2516440265911
 31
0.0
  0
LINE
  5
3990
330
1F
100
AcDbEntity
  8
AM_HID
100
AcDbLine
 10
2774.108390097222
 20
878.5016440265911
 30
0.0
 11
2755.108390097222
 21
878.5016440265911
 31
0.0
  0
LINE
  5
3991
330
1F
100
AcDbEntity
  8
AM_HID
100
AcDbLine
 10
2774.108390097222
 20
870.001644026591
 30
0.0
 11
2755.108390097222
 21
870.001644026591
 31
0.0
  0
LINE
  5
3992
330
1F
100
AcDbEntity
  8
AM_HID
100
AcDbLine
 10
2774.108390097222
 20
870.001644026591
 30
0.0
 11
2775.108390097222
 21
869.001644026591
 31
0.0
  0
LINE
  5
3993
330
1F
100
AcDbEntity
  8
AM_HID
100
AcDbLine
 10
2774.108390097222
 20
878.5016440265911
 30
0.0
 11
2775.108390097222
 21
879.5016440265911
 31
0.0
  0
LINE
  5
3994
330
1F
100
AcDbEntity
  8
AM_VIS
100
AcDbLine
 10
2723.108390097222
 20
881.2516440265911
 30
0.0
 11
2723.108390097222
 21
879.1506235121573
 31
0.0
  0
LINE
  5
3995
330
1F
100
AcDbEntity
  8
AM_VIS
100
AcDbLine
 10
2723.108390097222
 20
869.3526645410248
 30
0.0
 11
2723.108390097222
 21
867.251644026591
 31
0.0
  0
CIRCLE
  5
3996
330
1F
100
AcDbEntity
  8
AM_VIS
100
AcDbCircle
 10
2735.108390097222
 20
874.2516440265911
 30
0.0
 40
6.0
  0
CIRCLE
  5
3997
330
1F
100
AcDbEntity
  8
AM_VIS
100
AcDbCircle
 10
2735.108390097222
 20
874.2516440265911
 30
0.0
 40
5.0
  0
LINE
  5
3998
330
1F
100
AcDbEntity
  8
AM_VIS
100
AcDbLine
 10
2726.108390097222
 20
864.2516440265911
 30
0.0
 11
2726.108390097222
 21
865.5913899887465
 31
0.0
  0
LINE
  5
3999
330
1F
100
AcDbEntity
  8
AM_VIS
100
AcDbLine
 10
2750.108390097222
 20
865.5913899887465
 30
0.0
 11
2750.108390097222
 21
882.9118980644354
 31
0.0
  0
LINE
  5
399A
330
1F
100
AcDbEntity
  8
AM_VIS
100
AcDbLine
 10
2726.108390097222
 20
882.9118980644354
 30
0.0
 11
2726.108390097222
 21
884.251644026591
 31
0.0
  0
LINE
  5
399B
330
1F
100
AcDbEntity
  8
AM_VIS
100
AcDbLine
 10
2774.108390097222
 20
864.2516440265911
 30
0.0
 11
2774.108390097222
 21
884.251644026591
 31
0.0
  0
LINE
  5
399C
330
1F
100
AcDbEntity
  8
AM_HID
100
AcDbLine
 10
2755.108390097222
 20
878.5016440265911
 30
0.0
 11
2755.108390097222
 21
870.001644026591
 31
0.0
  0
LINE
  5
399D
330
1F
100
AcDbEntity
  8
AM_VIS
100
AcDbLine
 10
2775.108390097222
 20
883.251644026591
 30
0.0
 11
2775.108390097222
 21
865.2516440265911
 31
0.0
  0
LINE
  5
399E
330
1F
100
AcDbEntity
  8
AM_VIS
100
AcDbLine
 10
2723.108390097222
 20
912.624403555062
 30
0.0
 11
2726.108390097222
 21
912.624403555062
 31
0.0
  0
LINE
  5
399F
330
1F
100
AcDbEntity
  8
AM_VIS
100
AcDbLine
 10
2723.108390097222
 20
902.6244035550618
 30
0.0
 11
2726.108390097222
 21
902.6244035550618
 31
0.0
  0
LINE
  5
39A0
330
1F
100
AcDbEntity
  8
AM_VIS
100
AcDbLine
 10
2750.108390097222
 20
912.624403555062
 30
0.0
 11
2726.108390097222
 21
912.624403555062
 31
0.0
  0
LINE
  5
39A1
330
1F
100
AcDbEntity
  8
AM_VIS
100
AcDbLine
 10
2726.108390097222
 20
902.6244035550618
 30
0.0
 11
2750.108390097222
 21
902.6244035550618
 31
0.0
  0
LINE
  5
39A2
330
1F
100
AcDbEntity
  8
AM_HID
100
AcDbLine
 10
2740.108390097222
 20
911.624403555062
 30
0.0
 11
2741.108390097222
 21
912.624403555062
 31
0.0
  0
LINE
  5
39A3
330
1F
100
AcDbEntity
  8
AM_HID
100
AcDbLine
 10
2730.108390097222
 20
911.624403555062
 30
0.0
 11
2729.108390097222
 21
912.624403555062
 31
0.0
  0
LINE
  5
39A4
330
1F
100
AcDbEntity
  8
AM_HID
100
AcDbLine
 10
2730.108390097222
 20
911.624403555062
 30
0.0
 11
2730.108390097222
 21
903.624403555062
 31
0.0
  0
LINE
  5
39A5
330
1F
100
AcDbEntity
  8
AM_HID
100
AcDbLine
 10
2740.108390097222
 20
911.624403555062
 30
0.0
 11
2740.108390097222
 21
903.624403555062
 31
0.0
  0
LINE
  5
39A6
330
1F
100
AcDbEntity
  8
AM_HID
100
AcDbLine
 10
2730.108390097222
 20
903.624403555062
 30
0.0
 11
2729.108390097222
 21
902.6244035550618
 31
0.0
  0
LINE
  5
39A7
330
1F
100
AcDbEntity
  8
AM_HID
100
AcDbLine
 10
2740.108390097222
 20
903.624403555062
 30
0.0
 11
2741.108390097222
 21
902.6244035550618
 31
0.0
  0
LINE
  5
39A8
330
1F
100
AcDbEntity
  8
AM_HID
100
AcDbLine
 10
2752.554732466355
 20
907.6244035550619
 30
0.0
 11
2755.108390097222
 21
903.3744035550618
 31
0.0
  0
LINE
  5
39A9
330
1F
100
AcDbEntity
  8
AM_HID
100
AcDbLine
 10
2752.554732466355
 20
907.6244035550619
 30
0.0
 11
2755.108390097222
 21
911.8744035550619
 31
0.0
  0
LINE
  5
39AA
330
1F
100
AcDbEntity
  8
AM_VIS
100
AcDbLine
 10
2774.108390097222
 20
917.6244035550618
 30
0.0
 11
2750.108390097222
 21
917.6244035550618
 31
0.0
  0
LINE
  5
39AB
330
1F
100
AcDbEntity
  8
AM_VIS
100
AcDbLine
 10
2774.108390097222
 20
897.6244035550619
 30
0.0
 11
2750.108390097222
 21
897.6244035550619
 31
0.0
  0
LINE
  5
39AC
330
1F
100
AcDbEntity
  8
AM_VIS
100
AcDbLine
 10
2775.108390097222
 20
916.6244035550619
 30
0.0
 11
2774.108390097222
 21
917.6244035550618
 31
0.0
  0
LINE
  5
39AD
330
1F
100
AcDbEntity
  8
AM_VIS
100
AcDbLine
 10
2775.108390097222
 20
898.6244035550619
 30
0.0
 11
2774.108390097222
 21
897.6244035550619
 31
0.0
  0
LINE
  5
39AE
330
1F
100
AcDbEntity
  8
AM_HID
100
AcDbLine
 10
2774.108390097222
 20
911.8744035550619
 30
0.0
 11
2755.108390097222
 21
911.8744035550619
 31
0.0
  0
LINE
  5
39AF
330
1F
100
AcDbEntity
  8
AM_HID
100
AcDbLine
 10
2774.108390097222
 20
903.3744035550618
 30
0.0
 11
2755.108390097222
 21
903.3744035550618
 31
0.0
  0
LINE
  5
39B0
330
1F
100
AcDbEntity
  8
AM_HID
100
AcDbLine
 10
2774.108390097222
 20
903.3744035550618
 30
0.0
 11
2775.108390097222
 21
902.3744035550619
 31
0.0
  0
LINE
  5
39B1
330
1F
100
AcDbEntity
  8
AM_HID
100
AcDbLine
 10
2774.108390097222
 20
911.8744035550619
 30
0.0
 11
2775.108390097222
 21
912.8744035550619
 31
0.0
  0
LINE
  5
39B2
330
1F
100
AcDbEntity
  8
AM_VIS
100
AcDbLine
 10
2723.108390097222
 20
912.624403555062
 30
0.0
 11
2723.108390097222
 21
902.6244035550618
 31
0.0
  0
LINE
  5
39B3
330
1F
100
AcDbEntity
  8
AM_HID
100
AcDbLine
 10
2730.108390097222
 20
911.624403555062
 30
0.0
 11
2740.108390097222
 21
911.624403555062
 31
0.0
  0
LINE
  5
39B4
330
1F
100
AcDbEntity
  8
AM_HID
100
AcDbLine
 10
2740.108390097222
 20
903.624403555062
 30
0.0
 11
2730.108390097222
 21
903.624403555062
 31
0.0
  0
LINE
  5
39B5
330
1F
100
AcDbEntity
  8
AM_VIS
100
AcDbLine
 10
2750.108390097222
 20
912.624403555062
 30
0.0
 11
2750.108390097222
 21
917.6244035550618
 31
0.0
  0
LINE
  5
39B6
330
1F
100
AcDbEntity
  8
AM_VIS
100
AcDbLine
 10
2750.108390097222
 20
897.6244035550619
 30
0.0
 11
2750.108390097222
 21
902.6244035550618
 31
0.0
  0
LINE
  5
39B7
330
1F
100
AcDbEntity
  8
AM_VIS
100
AcDbLine
 10
2726.108390097222
 20
902.6244035550618
 30
0.0
 11
2726.108390097222
 21
912.624403555062
 31
0.0
  0
LINE
  5
39B8
330
1F
100
AcDbEntity
  8
AM_VIS
100
AcDbLine
 10
2774.108390097222
 20
897.6244035550619
 30
0.0
 11
2774.108390097222
 21
917.6244035550618
 31
0.0
  0
LINE
  5
39B9
330
1F
100
AcDbEntity
  8
AM_HID
100
AcDbLine
 10
2755.108390097222
 20
911.8744035550619
 30
0.0
 11
2755.108390097222
 21
903.3744035550618
 31
0.0
  0
LINE
  5
39BA
330
1F
100
AcDbEntity
  8
AM_VIS
100
AcDbLine
 10
2775.108390097222
 20
916.6244035550619
 30
0.0
 11
2775.108390097222
 21
898.6244035550619
 31
0.0
  0
LINE
  5
3A5F
330
1F
100
AcDbEntity
  8
AM_7
100
AcDbLine
 10
2450.484073189056
 20
869.9505205730796
 30
0.0
 11
2452.484073189057
 21
869.9505205730796
 31
0.0
  0
LINE
  5
3A60
330
1F
100
AcDbEntity
  8
AM_7
100
AcDbLine
 10
2451.484073189056
 20
868.9505205730794
 30
0.0
 11
2451.484073189056
 21
870.9505205730796
 31
0.0
  0
LINE
  5
3A61
330
1F
100
AcDbEntity
  8
AM_7
100
AcDbLine
 10
2444.884073189057
 20
869.9505205730796
 30
0.0
 11
2449.684073189057
 21
869.9505205730796
 31
0.0
  0
LINE
  5
3A62
330
1F
100
AcDbEntity
  8
AM_7
100
AcDbLine
 10
2453.284073189057
 20
869.9505205730796
 30
0.0
 11
2458.084073189057
 21
869.9505205730796
 31
0.0
  0
LINE
  5
3A63
330
1F
100
AcDbEntity
  8
AM_7
100
AcDbLine
 10
2451.484073189056
 20
863.3505205730795
 30
0.0
 11
2451.484073189056
 21
868.1505205730795
 31
0.0
  0
LINE
  5
3A64
330
1F
100
AcDbEntity
  8
AM_7
100
AcDbLine
 10
2451.484073189056
 20
871.7505205730795
 30
0.0
 11
2451.484073189056
 21
876.5505205730795
 31
0.0
  0
LINE
  5
3A65
330
1F
100
AcDbEntity
  8
AM_7
100
AcDbLine
 10
2437.884073189056
 20
869.9505205730796
 30
0.0
 11
2443.644638285163
 21
869.9505205730796
 31
0.0
  0
LINE
  5
3A66
330
1F
100
AcDbEntity
  8
AM_7
100
AcDbLine
 10
2393.743724979469
 20
869.9505205730796
 30
0.0
 11
2395.743724979469
 21
869.9505205730796
 31
0.0
  0
LINE
  5
3A67
330
1F
100
AcDbEntity
  8
AM_7
100
AcDbLine
 10
2394.743724979469
 20
868.9505205730794
 30
0.0
 11
2394.743724979469
 21
870.9505205730796
 31
0.0
  0
LINE
  5
3A68
330
1F
100
AcDbEntity
  8
AM_7
100
AcDbLine
 10
2380.643724979469
 20
869.9505205730796
 30
0.0
 11
2392.943724979469
 21
869.9505205730796
 31
0.0
  0
LINE
  5
3A69
330
1F
100
AcDbEntity
  8
AM_7
100
AcDbLine
 10
2396.543724979469
 20
869.9505205730796
 30
0.0
 11
2408.843724979469
 21
869.9505205730796
 31
0.0
  0
LINE
  5
3A6A
330
1F
100
AcDbEntity
  8
AM_7
100
AcDbLine
 10
2394.743724979469
 20
855.8505205730794
 30
0.0
 11
2394.743724979469
 21
868.1505205730795
 31
0.0
  0
LINE
  5
3A6B
330
1F
100
AcDbEntity
  8
AM_7
100
AcDbLine
 10
2394.743724979469
 20
871.7505205730795
 30
0.0
 11
2394.743724979469
 21
884.0505205730796
 31
0.0
  0
ARC
  5
3A6C
330
1F
100
AcDbEntity
  8
AM_4
  6
HIDDEN2
100
AcDbCircle
 10
2394.743724979469
 20
869.9505205730796
 30
0.0
 40
5.0
100
AcDbArc
 50
259.999999999995
 51
189.9999999999975
  0
LINE
  5
3A6D
330
1F
100
AcDbEntity
  8
AM_7
100
AcDbLine
 10
2469.884073189057
 20
910.8753767845318
 30
0.0
 11
2493.084073189057
 21
910.8753767845318
 31
0.0
  0
LINE
  5
3A6E
330
1F
100
AcDbEntity
  8
AM_7
100
AcDbLine
 10
2451.484073189056
 20
900.2753767845318
 30
0.0
 11
2451.484073189056
 21
921.4753767845317
 31
0.0
  0
LINE
  5
3A6F
330
1F
100
AcDbEntity
  8
AM_4
  6
AM_ISO02W050x2
100
AcDbLine
 10
2491.484073189056
 20
915.8753767845318
 30
0.0
 11
2471.484073189057
 21
915.8753767845318
 31
0.0
  0
LINE
  5
3A70
330
1F
100
AcDbEntity
  8
AM_4
  6
AM_ISO02W050x2
100
AcDbLine
 10
2491.484073189056
 20
905.8753767845317
 30
0.0
 11
2471.484073189057
 21
905.8753767845317
 31
0.0
  0
LINE
  5
3A71
330
1F
100
AcDbEntity
  8
AM_4
  6
AM_ISO02W050x2
100
AcDbLine
 10
2491.484073189056
 20
874.9505205730795
 30
0.0
 11
2471.484073189057
 21
874.9505205730795
 31
0.0
  0
LINE
  5
3A72
330
1F
100
AcDbEntity
  8
AM_4
  6
AM_ISO02W050x2
100
AcDbLine
 10
2491.484073189056
 20
864.9505205730795
 30
0.0
 11
2471.484073189057
 21
864.9505205730795
 31
0.0
  0
LINE
  5
3A73
330
1F
100
AcDbEntity
  8
AM_4
  6
AM_ISO02W050
100
AcDbLine
 10
2471.484073189057
 20
874.9505205730795
 30
0.0
 11
2471.484073189057
 21
864.9505205730795
 31
0.0
  0
LINE
  5
3A74
330
1F
100
AcDbEntity
  8
AM_VIS
100
AcDbLine
 10
2473.92350809295
 20
879.4505205730795
 30
0.0
 11
2476.195398054462
 21
879.4505205730795
 31
0.0
  0
LINE
  5
3A75
330
1F
100
AcDbEntity
  8
AM_VIS
100
AcDbLine
 10
2440.486038760279
 20
879.4505205730795
 30
0.0
 11
2442.044638285163
 21
879.4505205730795
 31
0.0
  0
LINE
  5
3A76
330
1F
100
AcDbEntity
  8
AM_VIS
100
AcDbLine
 10
2440.486038760279
 20
860.4505205730795
 30
0.0
 11
2442.044638285163
 21
860.4505205730795
 31
0.0
  0
LINE
  5
3A77
330
1F
100
AcDbEntity
  8
AM_VIS
100
AcDbLine
 10
2473.92350809295
 20
860.4505205730795
 30
0.0
 11
2476.195398054462
 21
860.4505205730795
 31
0.0
  0
LINE
  5
3A78
330
1F
100
AcDbEntity
  8
AM_VIS
100
AcDbLine
 10
2439.479386805475
 20
877.4361670786058
 30
0.0
 11
2440.482511082861
 21
879.4522757854094
 31
0.0
  0
LINE
  5
3A79
330
1F
100
AcDbEntity
  8
AM_VIS
100
AcDbLine
 10
2439.479386805475
 20
862.4648740675532
 30
0.0
 11
2440.482511082861
 21
860.4487653607497
 31
0.0
  0
LINE
  5
3A7A
330
1F
100
AcDbEntity
  8
AM_HID
100
AcDbLine
 10
2471.484073189057
 20
879.4505205730795
 30
0.0
 11
2471.484073189057
 21
860.4505205730795
 31
0.0
  0
LINE
  5
3A7B
330
1F
100
AcDbEntity
  8
AM_VIS
100
AcDbLine
 10
2473.92350809295
 20
879.4505205730795
 30
0.0
 11
2442.044638285163
 21
879.4505205730795
 31
0.0
  0
SPLINE
  5
3A7C
330
1F
100
AcDbEntity
  8
AM_VIS
100
AcDbSpline
210
0.0
220
0.0
230
1.0
 70
    12
 71
     2
 72
     6
 73
     3
 74
     0
 42
0.0000000001
 43
0.0000000001
 40
2.408165155195235
 40
2.408165155195235
 40
2.408165155195235
 40
24.41222509799333
 40
24.41222509799333
 40
24.41222509799333
 10
2473.92350809295
 20
860.4505205730799
 30
0.0
 41
1.111836404264623
 10
2477.801866852356
 20
869.9505205730796
 30
0.0
 41
1.572374122051168
 10
2473.92350809295
 20
879.45052057308
 30
0.0
 41
1.111836404264623
  0
LINE
  5
3A7D
330
1F
100
AcDbEntity
  8
AM_VIS
100
AcDbLine
 10
2473.92350809295
 20
860.4505205730795
 30
0.0
 11
2442.044638285163
 21
860.4505205730795
 31
0.0
  0
SPLINE
  5
3A7E
330
1F
100
AcDbEntity
  8
AM_VIS
100
AcDbSpline
210
0.0
220
0.0
230
1.0
 70
    12
 71
     2
 72
     6
 73
     3
 74
     0
 42
0.0000000001
 43
0.0000000001
 40
2.408165155195243
 40
2.408165155195243
 40
2.408165155195243
 40
24.41222509799331
 40
24.41222509799331
 40
24.41222509799331
 10
2442.044638285163
 20
879.4505205730795
 30
0.0
 41
1.111836404264623
 10
2438.166279525757
 20
869.9505205730796
 30
0.0
 41
1.572374122051163
 10
2442.044638285165
 20
860.4505205730799
 30
0.0
 41
1.111836404264623
  0
LINE
  5
3A7F
330
1F
100
AcDbEntity
  8
AM_VIS
100
AcDbLine
 10
2476.484073189056
 20
878.9505205730796
 30
0.0
 11
2476.195398054462
 21
879.4505205730795
 31
0.0
  0
LINE
  5
3A80
330
1F
100
AcDbEntity
  8
AM_VIS
100
AcDbLine
 10
2476.484073189056
 20
860.9505205730796
 30
0.0
 11
2476.195398054462
 21
860.4505205730795
 31
0.0
  0
LINE
  5
3A81
330
1F
100
AcDbEntity
  8
AM_HID
100
AcDbLine
 10
2491.484073189056
 20
874.3505205730794
 30
0.0
 11
2471.484073189057
 21
874.3505205730794
 31
0.0
  0
LINE
  5
3A82
330
1F
100
AcDbEntity
  8
AM_HID
100
AcDbLine
 10
2491.484073189056
 20
865.5505205730795
 30
0.0
 11
2471.484073189057
 21
865.5505205730795
 31
0.0
  0
LINE
  5
3A83
330
1F
100
AcDbEntity
  8
AM_VIS
100
AcDbLine
 10
2490.484073189056
 20
878.9505205730796
 30
0.0
 11
2476.484073189056
 21
878.9505205730796
 31
0.0
  0
LINE
  5
3A84
330
1F
100
AcDbEntity
  8
AM_VIS
100
AcDbLine
 10
2490.484073189056
 20
860.9505205730796
 30
0.0
 11
2476.484073189056
 21
860.9505205730796
 31
0.0
  0
LINE
  5
3A85
330
1F
100
AcDbEntity
  8
AM_VIS
100
AcDbLine
 10
2491.484073189056
 20
877.9505205730796
 30
0.0
 11
2490.484073189056
 21
878.9505205730796
 31
0.0
  0
LINE
  5
3A86
330
1F
100
AcDbEntity
  8
AM_VIS
100
AcDbLine
 10
2491.484073189056
 20
861.9505205730796
 30
0.0
 11
2490.484073189056
 21
860.9505205730796
 31
0.0
  0
LINE
  5
3A87
330
1F
100
AcDbEntity
  8
AM_VIS
100
AcDbLine
 10
2439.484073189057
 20
877.4338353466275
 30
0.0
 11
2439.484073189057
 21
862.4672057995315
 31
0.0
  0
LINE
  5
3A88
330
1F
100
AcDbEntity
  8
AM_VIS
100
AcDbLine
 10
2476.484073189056
 20
860.9505205730796
 30
0.0
 11
2476.484073189056
 21
878.9505205730796
 31
0.0
  0
LINE
  5
3A89
330
1F
100
AcDbEntity
  8
AM_VIS
100
AcDbLine
 10
2490.484073189056
 20
860.9505205730796
 30
0.0
 11
2490.484073189056
 21
878.9505205730796
 31
0.0
  0
LINE
  5
3A8A
330
1F
100
AcDbEntity
  8
AM_VIS
100
AcDbLine
 10
2491.484073189056
 20
877.9505205730796
 30
0.0
 11
2491.484073189056
 21
861.9505205730796
 31
0.0
  0
CIRCLE
  5
3A8B
330
1F
100
AcDbEntity
  8
AM_VIS
100
AcDbCircle
 10
2451.484073189056
 20
869.9505205730796
 30
0.0
 40
5.5
  0
CIRCLE
  5
3A8C
330
1F
100
AcDbEntity
  8
AM_VIS
100
AcDbCircle
 10
2451.484073189056
 20
869.9505205730796
 30
0.0
 40
5.0
  0
LINE
  5
3A8D
330
1F
100
AcDbEntity
  8
AM_VIS
100
AcDbLine
 10
2399.743724979469
 20
879.4505205730795
 30
0.0
 11
2404.243724979469
 21
879.4505205730795
 31
0.0
  0
LINE
  5
3A8E
330
1F
100
AcDbEntity
  8
AM_VIS
100
AcDbLine
 10
2385.243724979469
 20
879.4505205730795
 30
0.0
 11
2389.743724979469
 21
879.4505205730795
 31
0.0
  0
LINE
  5
3A8F
330
1F
100
AcDbEntity
  8
AM_VIS
100
AcDbLine
 10
2399.743724979469
 20
860.4505205730795
 30
0.0
 11
2404.243724979469
 21
860.4505205730795
 31
0.0
  0
LINE
  5
3A90
330
1F
100
AcDbEntity
  8
AM_VIS
100
AcDbLine
 10
2385.243724979469
 20
860.4505205730795
 30
0.0
 11
2389.743724979469
 21
860.4505205730795
 31
0.0
  0
LINE
  5
3A91
330
1F
100
AcDbEntity
  8
AM_VIS
100
AcDbLine
 10
2389.743724979469
 20
862.4672057995315
 30
0.0
 11
2389.743724979469
 21
860.4505205730795
 31
0.0
  0
LINE
  5
3A92
330
1F
100
AcDbEntity
  8
AM_VIS
100
AcDbLine
 10
2389.743724979469
 20
862.4672057995315
 30
0.0
 11
2389.743724979469
 21
877.4338353466275
 31
0.0
  0
LINE
  5
3A93
330
1F
100
AcDbEntity
  8
AM_VIS
100
AcDbLine
 10
2389.743724979469
 20
879.4505205730795
 30
0.0
 11
2389.743724979469
 21
877.4338353466275
 31
0.0
  0
LINE
  5
3A94
330
1F
100
AcDbEntity
  8
AM_VIS
100
AcDbLine
 10
2399.743724979469
 20
860.4505205730795
 30
0.0
 11
2389.743724979469
 21
860.4505205730795
 31
0.0
  0
LINE
  5
3A95
330
1F
100
AcDbEntity
  8
AM_VIS
100
AcDbLine
 10
2389.743724979469
 20
879.4505205730795
 30
0.0
 11
2399.743724979469
 21
879.4505205730795
 31
0.0
  0
LINE
  5
3A96
330
1F
100
AcDbEntity
  8
AM_VIS
100
AcDbLine
 10
2399.743724979469
 20
879.4505205730795
 30
0.0
 11
2399.743724979469
 21
877.4338353466275
 31
0.0
  0
LINE
  5
3A97
330
1F
100
AcDbEntity
  8
AM_VIS
100
AcDbLine
 10
2399.743724979469
 20
877.4338353466275
 30
0.0
 11
2399.743724979469
 21
862.4672057995315
 31
0.0
  0
LINE
  5
3A98
330
1F
100
AcDbEntity
  8
AM_VIS
100
AcDbLine
 10
2399.743724979469
 20
862.4672057995315
 30
0.0
 11
2399.743724979469
 21
860.4505205730795
 31
0.0
  0
LINE
  5
3A99
330
1F
100
AcDbEntity
  8
AM_VIS
100
AcDbLine
 10
2404.243724979469
 20
879.4505205730795
 30
0.0
 11
2404.243724979469
 21
860.4505205730795
 31
0.0
  0
LINE
  5
3A9A
330
1F
100
AcDbEntity
  8
AM_VIS
100
AcDbLine
 10
2385.243724979469
 20
879.4505205730795
 30
0.0
 11
2385.243724979469
 21
860.4505205730795
 31
0.0
  0
ARC
  5
3A9B
330
1F
100
AcDbEntity
  8
AM_VIS
100
AcDbCircle
 10
2394.743724979469
 20
869.9505205730796
 30
0.0
 40
9.000000000000017
100
AcDbArc
 50
303.7489885958921
 51
56.25101140410797
  0
ARC
  5
3A9C
330
1F
100
AcDbEntity
  8
AM_VIS
100
AcDbCircle
 10
2394.743724979469
 20
869.9505205730796
 30
0.0
 40
9.000000000000017
100
AcDbArc
 50
123.748988595892
 51
236.251011404108
  0
CIRCLE
  5
3A9D
330
1F
100
AcDbEntity
  8
AM_VIS
100
AcDbCircle
 10
2394.743724979469
 20
869.9505205730796
 30
0.0
 40
4.4
  0
SPLINE
  5
3A9E
330
1F
100
AcDbEntity
  8
AM_VIS
100
AcDbSpline
210
0.0
220
0.0
230
1.0
 70
    12
 71
     2
 72
     6
 73
     3
 74
     0
 42
0.0000000001
 43
0.0000000001
 40
2.408165155195238
 40
2.408165155195238
 40
2.408165155195238
 40
24.41222509799333
 40
24.41222509799333
 40
24.41222509799333
 10
2473.92350809295
 20
901.3753767845317
 30
0.0
 41
1.111836404264623
 10
2477.801866852356
 20
910.8753767845318
 30
0.0
 41
1.572374122051168
 10
2473.92350809295
 20
920.3753767845318
 30
0.0
 41
1.111836404264623
  0
SPLINE
  5
3A9F
330
1F
100
AcDbEntity
  8
AM_VIS
100
AcDbSpline
210
0.0
220
0.0
230
1.0
 70
    12
 71
     2
 72
     6
 73
     3
 74
     0
 42
0.0000000001
 43
0.0000000001
 40
19.97324241346454
 40
19.97324241346454
 40
19.97324241346454
 40
24.4122250979933
 40
24.4122250979933
 40
24.4122250979933
 10
2440.486038760279
 20
905.8753767845317
 30
0.0
 41
1.260164382327782
 10
2441.023486872308
 20
903.8766766961494
 30
0.0
 41
1.204742847900083
 10
2442.044638285163
 20
901.3753767845317
 30
0.0
 41
1.111836404264623
  0
SPLINE
  5
3AA0
330
1F
100
AcDbEntity
  8
AM_VIS
100
AcDbSpline
210
0.0
220
0.0
230
1.0
 70
    12
 71
     2
 72
     6
 73
     3
 74
     0
 42
0.0000000001
 43
0.0000000001
 40
2.408165155195242
 40
2.408165155195242
 40
2.408165155195242
 40
6.847147839724009
 40
6.847147839724009
 40
6.847147839724009
 10
2442.044638285163
 20
920.3753767845318
 30
0.0
 41
1.111836404264623
 10
2441.023486872309
 20
917.8740768729143
 30
0.0
 41
1.204742847900083
 10
2440.486038760279
 20
915.8753767845318
 30
0.0
 41
1.260164382327782
  0
LINE
  5
3AA1
330
1F
100
AcDbEntity
  8
AM_VIS
100
AcDbLine
 10
2439.484073189057
 20
915.8753767845318
 30
0.0
 11
2440.486038760279
 21
915.8753767845318
 31
0.0
  0
LINE
  5
3AA2
330
1F
100
AcDbEntity
  8
AM_VIS
100
AcDbLine
 10
2440.486038760279
 20
915.8753767845318
 30
0.0
 11
2471.484073189057
 21
915.8753767845318
 31
0.0
  0
LINE
  5
3AA3
330
1F
100
AcDbEntity
  8
AM_VIS
100
AcDbLine
 10
2471.484073189057
 20
915.8753767845318
 30
0.0
 11
2471.484073189057
 21
905.8753767845317
 31
0.0
  0
LINE
  5
3AA4
330
1F
100
AcDbEntity
  8
AM_VIS
100
AcDbLine
 10
2439.484073189057
 20
905.8753767845317
 30
0.0
 11
2440.486038760279
 21
905.8753767845317
 31
0.0
  0
LINE
  5
3AA5
330
1F
100
AcDbEntity
  8
AM_VIS
100
AcDbLine
 10
2471.484073189057
 20
905.8753767845317
 30
0.0
 11
2440.486038760279
 21
905.8753767845317
 31
0.0
  0
LINE
  5
3AA6
330
1F
100
AcDbEntity
  8
AM_VIS
100
AcDbLine
 10
2473.92350809295
 20
901.3753767845317
 30
0.0
 11
2442.044638285163
 21
901.3753767845317
 31
0.0
  0
LINE
  5
3AA7
330
1F
100
AcDbEntity
  8
AM_VIS
100
AcDbLine
 10
2473.92350809295
 20
901.3753767845317
 30
0.0
 11
2476.195398054462
 21
901.3753767845317
 31
0.0
  0
LINE
  5
3AA8
330
1F
100
AcDbEntity
  8
AM_VIS
100
AcDbLine
 10
2439.772748323651
 20
901.3753767845317
 30
0.0
 11
2442.044638285163
 21
901.3753767845317
 31
0.0
  0
LINE
  5
3AA9
330
1F
100
AcDbEntity
  8
AM_VIS
100
AcDbLine
 10
2473.92350809295
 20
920.3753767845318
 30
0.0
 11
2476.195398054462
 21
920.3753767845318
 31
0.0
  0
LINE
  5
3AAA
330
1F
100
AcDbEntity
  8
AM_VIS
100
AcDbLine
 10
2473.92350809295
 20
920.3753767845318
 30
0.0
 11
2442.044638285163
 21
920.3753767845318
 31
0.0
  0
LINE
  5
3AAB
330
1F
100
AcDbEntity
  8
AM_VIS
100
AcDbLine
 10
2439.772748323651
 20
920.3753767845318
 30
0.0
 11
2442.044638285163
 21
920.3753767845318
 31
0.0
  0
LINE
  5
3AAC
330
1F
100
AcDbEntity
  8
AM_VIS
100
AcDbLine
 10
2476.484073189056
 20
919.8753767845317
 30
0.0
 11
2476.195398054462
 21
920.3753767845318
 31
0.0
  0
LINE
  5
3AAD
330
1F
100
AcDbEntity
  8
AM_VIS
100
AcDbLine
 10
2476.484073189056
 20
901.8753767845318
 30
0.0
 11
2476.195398054462
 21
901.3753767845317
 31
0.0
  0
LINE
  5
3AAE
330
1F
100
AcDbEntity
  8
AM_VIS
100
AcDbLine
 10
2439.484073189057
 20
901.8753767845318
 30
0.0
 11
2439.772748323651
 21
901.3753767845317
 31
0.0
  0
LINE
  5
3AAF
330
1F
100
AcDbEntity
  8
AM_VIS
100
AcDbLine
 10
2439.484073189057
 20
919.8753767845317
 30
0.0
 11
2439.772748323651
 21
920.3753767845318
 31
0.0
  0
LINE
  5
3AB0
330
1F
100
AcDbEntity
  8
AM_HID
100
AcDbLine
 10
2491.484073189056
 20
915.2753767845318
 30
0.0
 11
2471.484073189057
 21
915.2753767845318
 31
0.0
  0
LINE
  5
3AB1
330
1F
100
AcDbEntity
  8
AM_HID
100
AcDbLine
 10
2491.484073189056
 20
906.4753767845317
 30
0.0
 11
2471.484073189057
 21
906.4753767845317
 31
0.0
  0
LINE
  5
3AB2
330
1F
100
AcDbEntity
  8
AM_VIS
100
AcDbLine
 10
2490.484073189056
 20
919.8753767845317
 30
0.0
 11
2476.484073189056
 21
919.8753767845317
 31
0.0
  0
LINE
  5
3AB3
330
1F
100
AcDbEntity
  8
AM_VIS
100
AcDbLine
 10
2490.484073189056
 20
901.8753767845318
 30
0.0
 11
2476.484073189056
 21
901.8753767845318
 31
0.0
  0
LINE
  5
3AB4
330
1F
100
AcDbEntity
  8
AM_VIS
100
AcDbLine
 10
2491.484073189056
 20
918.8753767845318
 30
0.0
 11
2490.484073189056
 21
919.8753767845317
 31
0.0
  0
LINE
  5
3AB5
330
1F
100
AcDbEntity
  8
AM_VIS
100
AcDbLine
 10
2491.484073189056
 20
902.8753767845318
 30
0.0
 11
2490.484073189056
 21
901.8753767845318
 31
0.0
  0
LINE
  5
3AB6
330
1F
100
AcDbEntity
  8
AM_HID
100
AcDbLine
 10
2456.484073189056
 20
901.8753767845318
 30
0.0
 11
2456.484073189056
 21
905.8753767845317
 31
0.0
  0
LINE
  5
3AB7
330
1F
100
AcDbEntity
  8
AM_HID
100
AcDbLine
 10
2446.484073189056
 20
901.8753767845318
 30
0.0
 11
2446.484073189056
 21
905.8753767845317
 31
0.0
  0
LINE
  5
3AB8
330
1F
100
AcDbEntity
  8
AM_HID
100
AcDbLine
 10
2446.484073189056
 20
901.8753767845318
 30
0.0
 11
2445.984073189056
 21
901.3753767845317
 31
0.0
  0
LINE
  5
3AB9
330
1F
100
AcDbEntity
  8
AM_HID
100
AcDbLine
 10
2456.484073189056
 20
901.8753767845318
 30
0.0
 11
2456.984073189057
 21
901.3753767845317
 31
0.0
  0
LINE
  5
3ABA
330
1F
100
AcDbEntity
  8
AM_HID
100
AcDbLine
 10
2456.484073189056
 20
915.8753767845318
 30
0.0
 11
2456.484073189056
 21
919.8753767845317
 31
0.0
  0
LINE
  5
3ABB
330
1F
100
AcDbEntity
  8
AM_HID
100
AcDbLine
 10
2446.484073189056
 20
915.8753767845318
 30
0.0
 11
2446.484073189056
 21
919.8753767845317
 31
0.0
  0
LINE
  5
3ABC
330
1F
100
AcDbEntity
  8
AM_HID
100
AcDbLine
 10
2456.484073189056
 20
919.8753767845317
 30
0.0
 11
2456.984073189057
 21
920.3753767845318
 31
0.0
  0
LINE
  5
3ABD
330
1F
100
AcDbEntity
  8
AM_HID
100
AcDbLine
 10
2446.484073189056
 20
919.8753767845317
 30
0.0
 11
2445.984073189056
 21
920.3753767845318
 31
0.0
  0
LINE
  5
3ABE
330
1F
100
AcDbEntity
  8
AM_VIS
100
AcDbLine
 10
2439.484073189057
 20
905.8753767845317
 30
0.0
 11
2439.484073189057
 21
901.8753767845318
 31
0.0
  0
LINE
  5
3ABF
330
1F
100
AcDbEntity
  8
AM_VIS
100
AcDbLine
 10
2439.484073189057
 20
919.8753767845317
 30
0.0
 11
2439.484073189057
 21
915.8753767845318
 31
0.0
  0
LINE
  5
3AC0
330
1F
100
AcDbEntity
  8
AM_VIS
100
AcDbLine
 10
2476.484073189056
 20
901.8753767845318
 30
0.0
 11
2476.484073189056
 21
919.8753767845317
 31
0.0
  0
LINE
  5
3AC1
330
1F
100
AcDbEntity
  8
AM_VIS
100
AcDbLine
 10
2490.484073189056
 20
901.8753767845318
 30
0.0
 11
2490.484073189056
 21
919.8753767845317
 31
0.0
  0
LINE
  5
3AC2
330
1F
100
AcDbEntity
  8
AM_VIS
100
AcDbLine
 10
2491.484073189056
 20
918.8753767845318
 30
0.0
 11
2491.484073189056
 21
902.8753767845318
 31
0.0
  0
LINE
  5
3AC3
330
1F
100
AcDbEntity
  8
AM_HID
100
AcDbLine
 10
2456.484073189056
 20
901.8753767845318
 30
0.0
 11
2446.484073189056
 21
901.8753767845318
 31
0.0
  0
LINE
  5
3AC4
330
1F
100
AcDbEntity
  8
AM_HID
100
AcDbLine
 10
2446.484073189056
 20
919.8753767845317
 30
0.0
 11
2456.484073189056
 21
919.8753767845317
 31
0.0
  0
TEXT
  5
3C19
330
1F
100
AcDbEntity
  8
LOGO
 62
     7
100
AcDbText
 10
2379.944475695888
 20
825.846422388413
 30
0.0
 40
5.271617935892258
  1
Order example:
 41
0.8
  7
CHINESET
100
AcDbText
  0
TEXT
  5
3C1A
330
1F
100
AcDbEntity
  8
LOGO
 62
     7
100
AcDbText
 10
2380.890247548093
 20
833.2677689397282
 30
0.0
 40
7.907426903838388
  1
訂購代號：
  7
CHINESET
100
AcDbText
  0
LINE
  5
3C1B
330
1F
100
AcDbEntity
  8
LOGO
 62
     4
100
AcDbLine
 10
2377.653939822442
 20
803.629833720246
 30
0.0
 11
2377.653939822442
 21
843.1669682394382
 31
0.0
  0
TEXT
  5
3C1C
330
1F
100
AcDbEntity
  8
LOGO
  6
Continuous
100
AcDbText
 10
2304.874160322371
 20
811.3968441298029
 30
0.0
 40
5.930570177878792
  1
金器工業股份有限公司
  7
CHINESET
100
AcDbText
  0
TEXT
  5
3C1D
330
1F
100
AcDbEntity
  8
LOGO
  6
Continuous
100
AcDbText
 10
2293.980876211057
 20
805.465112025144
 30
0.0
 40
3.953713451919194
  1
MINDMAN INDUSTRIAL CO., LTD.
 41
0.85
  7
CHINESET
100
AcDbText
  0
LINE
  5
3C1E
330
1F
100
AcDbEntity
  8
LOGO
 62
     4
100
AcDbLine
 10
2377.653939822442
 20
835.2595413355995
 30
0.0
 11
2319.666142527626
 21
835.2595413355995
 31
0.0
  0
LINE
  5
3C1F
330
1F
100
AcDbEntity
  8
LOGO
 62
     4
100
AcDbLine
 10
2377.653939822442
 20
827.3521144317614
 30
0.0
 11
2319.666142527626
 21
827.3521144317614
 31
0.0
  0
LINE
  5
3C20
330
1F
100
AcDbEntity
  8
LOGO
 62
     4
100
AcDbLine
 10
2377.653939822442
 20
819.4446875279234
 30
0.0
 11
2290.67224388022
 21
819.4446875279234
 31
0.0
  0
LINE
  5
3C21
330
1F
100
AcDbEntity
  8
LOGO
 62
     4
100
AcDbLine
 10
2319.666142527626
 20
819.4446875279234
 30
0.0
 11
2319.666142527626
 21
843.1669682394382
 31
0.0
  0
TEXT
  5
3C22
330
1F
100
AcDbEntity
  8
LOGO
100
AcDbText
 10
2359.29806499629
 20
821.4215442538822
 30
0.0
 40
3.953713451919194
  1
mm
  7
CHINESET
 72
     1
 11
2364.193138793905
 21
823.3984009798419
 31
0.0
100
AcDbText
 73
     2
  0
TEXT
  5
3C23
330
1F
100
AcDbEntity
  8
LOGO
100
AcDbText
 10
2357.227072235761
 20
837.2363980615592
 30
0.0
 40
3.953713451919194
  1
1 : 1
  7
CHINESET
 72
     1
 11
2364.193138793905
 21
839.2132547875187
 31
0.0
100
AcDbText
 73
     2
  0
LINE
  5
3C24
330
1F
100
AcDbEntity
  8
LOGO
 62
     4
100
AcDbLine
 10
2351.295850142981
 20
819.4446875279234
 30
0.0
 11
2351.295850142981
 21
843.1669682394382
 31
0.0
  0
TEXT
  5
3C25
330
1F
100
AcDbEntity
  8
LOGO
100
AcDbText
 10
2322.926191074813
 20
837.2383437866831
 30
259.1198662763692
 40
3.953713451919194
  1
比例 Scale:
 41
0.9
  7
CHINESET
 72
     4
 11
2335.480996335304
 21
839.2132547875187
 31
259.1198662763692
100
AcDbText
  0
TEXT
  5
3C26
330
1F
100
AcDbEntity
  8
LOGO
100
AcDbText
 10
2322.698499541198
 20
829.3845864675143
 30
259.1198662763692
 40
3.953713451919194
  1
投影  View:
 41
0.9
  7
CHINESET
 72
     4
 11
2335.480996335304
 21
831.3058278836802
 31
259.1198662763692
100
AcDbText
  0
TEXT
  5
3C27
330
1F
100
AcDbEntity
  8
LOGO
100
AcDbText
 10
2323.085045633149
 20
821.4215442538822
 30
259.1198662763692
 40
3.953713451919194
  1
單位  Unit:
 41
0.9
  7
CHINESET
 72
     4
 11
2335.480996335304
 21
823.3984009798419
 31
259.1198662763692
100
AcDbText
  0
SOLID
  5
3C28
330
1F
100
AcDbEntity
  8
LOGO
 62
     5
100
AcDbTrace
 10
2294.77428503886
 20
826.0171733749441
 30
0.0
 11
2296.483766990029
 21
826.0171733749437
 31
0.0
 12
2303.616433062147
 22
842.2277780843046
 32
0.0
 13
2305.325915013317
 23
842.2277780843035
 33
0.0
  0
SOLID
  5
3C29
330
1F
100
AcDbEntity
  8
LOGO
 62
     5
100
AcDbTrace
 10
2297.191138831895
 20
826.0171733749441
 30
0.0
 11
2298.900620783063
 21
826.0171733749441
 31
0.0
 12
2305.325915013317
 22
840.930929707555
 32
0.0
 13
2303.616433062147
 23
834.6628292199358
 33
0.0
  0
SOLID
  5
3C2A
330
1F
100
AcDbEntity
  8
LOGO
 62
     2
100
AcDbTrace
 10
2296.483766990029
 20
826.0171733749437
 30
0.0
 11
2297.191138831895
 21
826.0171733749441
 31
0.0
 12
2305.325915013317
 22
842.2277780843035
 32
0.0
 13
2306.03328685518
 23
842.2277780843035
 33
0.0
  0
SOLID
  5
3C2B
330
1F
100
AcDbEntity
  8
LOGO
 62
     5
100
AcDbTrace
 10
2292.033566254811
 20
820.1224080260862
 30
0.0
 11
2292.623042789698
 21
820.1224080260862
 31
0.0
 12
2294.283054593122
 22
823.0697907005149
 32
0.0
 13
2294.872531128007
 23
823.0697907005149
 33
0.0
  0
SOLID
  5
3C2C
330
1F
100
AcDbEntity
  8
LOGO
 62
     5
100
AcDbTrace
 10
2294.283054593122
 20
823.0697907005149
 30
0.0
 11
2294.872531128007
 21
823.0697907005149
 31
0.0
 12
2294.283054593122
 22
820.1224080260862
 32
0.0
 13
2294.872531128007
 23
820.1224080260862
 33
0.0
  0
SOLID
  5
3C2D
330
1F
100
AcDbEntity
  8
LOGO
 62
     5
100
AcDbTrace
 10
2294.283054593122
 20
820.1224080260862
 30
0.0
 11
2294.872531128007
 21
820.1224080260862
 31
0.0
 12
2296.532542931436
 22
823.0697907005149
 32
0.0
 13
2297.122019466321
 23
823.0697907005149
 33
0.0
  0
SOLID
  5
3C2E
330
1F
100
AcDbEntity
  8
LOGO
 62
     5
100
AcDbTrace
 10
2296.532542931436
 20
823.0697907005149
 30
0.0
 11
2297.122019466321
 21
823.0697907005149
 31
0.0
 12
2296.532542931436
 22
820.1224080260862
 32
0.0
 13
2297.122019466321
 23
820.1224080260862
 33
0.0
  0
POLYLINE
  5
3C2F
330
1F
100
AcDbEntity
  8
LOGO
 62
     5
100
AcDb2dPolyline
 66
     1
 10
0.0
 20
0.0
 30
0.0
 40
0.5904212088199329
 41
0.5904212088199329
  0
VERTEX
  5
3C30
330
3C2F
100
AcDbEntity
  8
LOGO
 62
     5
100
AcDbVertex
100
AcDb2dVertex
 10
2316.291595573095
 20
821.8908376307435
 30
0.0
 42
1.0
  0
VERTEX
  5
3C31
330
3C2F
100
AcDbEntity
  8
LOGO
 62
     5
100
AcDbVertex
100
AcDb2dVertex
 10
2314.520331946635
 20
821.8908376307435
 30
0.0
 42
1.0
  0
SEQEND
  5
3C32
330
3C2F
100
AcDbEntity
  8
LOGO
 62
     5
  0
POLYLINE
  5
3C33
330
1F
100
AcDbEntity
  8
LOGO
 62
     5
100
AcDb2dPolyline
 66
     1
 10
0.0
 20
0.0
 30
0.0
 70
     1
  0
VERTEX
  5
3C34
330
3C33
100
AcDbEntity
  8
LOGO
 62
     5
100
AcDbVertex
100
AcDb2dVertex
 10
2311.181421224952
 20
821.5960993633
 30
0.0
 42
1.000000057330635
  0
VERTEX
  5
3C35
330
3C33
100
AcDbEntity
  8
LOGO
 62
     5
100
AcDbVertex
100
AcDb2dVertex
 10
2312.949850829609
 20
821.5960993633
 30
0.0
 42
1.000000057330635
  0
SEQEND
  5
3C36
330
3C33
100
AcDbEntity
  8
LOGO
 62
     5
  0
CIRCLE
  5
3C37
330
1F
100
AcDbEntity
  8
LOGO
 62
     5
100
AcDbCircle
 10
2312.065636027282
 20
821.5960993633
 30
0.0
 40
0.8842148023287318
  0
POLYLINE
  5
3C38
330
1F
100
AcDbEntity
  8
LOGO
 62
     5
100
AcDb2dPolyline
 66
     1
 10
0.0
 20
0.0
 30
0.0
 70
     1
 40
0.5904212088199329
 41
0.5904212088199329
  0
VERTEX
  5
3C39
330
3C38
100
AcDbEntity
  8
LOGO
 62
     5
100
AcDbVertex
100
AcDb2dVertex
 10
2310.884793609641
 20
821.5960993633
 30
0.0
 42
1.0
  0
VERTEX
  5
3C3A
330
3C38
100
AcDbEntity
  8
LOGO
 62
     5
100
AcDbVertex
100
AcDb2dVertex
 10
2313.246478444921
 20
821.5960993633
 30
0.0
 42
1.0
  0
SEQEND
  5
3C3B
330
3C38
100
AcDbEntity
  8
LOGO
 62
     5
  0
LINE
  5
3C3C
330
1F
100
AcDbEntity
  8
LOGO
100
AcDbLine
 10
2316.584916829636
 20
820.1224080260862
 30
0.0
 11
2316.584916829636
 21
821.8908376307435
 31
0.0
  0
SOLID
  5
3C3D
330
1F
100
AcDbEntity
  8
LOGO
 62
     5
100
AcDbTrace
 10
2312.949791881958
 20
823.0697907005149
 30
0.0
 11
2313.539268416842
 21
823.0697907005149
 31
0.0
 12
2312.949791881958
 22
820.1224080260862
 32
0.0
 13
2313.539268416842
 23
820.1224080260862
 33
0.0
  0
SOLID
  5
3C3E
330
1F
100
AcDbEntity
  8
LOGO
 62
     5
100
AcDbTrace
 10
2314.227010690093
 20
820.1224080260862
 30
0.0
 11
2314.816487224979
 21
820.1224080260862
 31
0.0
 12
2314.227010690093
 22
823.0697907005149
 32
0.0
 13
2314.816487224979
 23
823.0697907005149
 33
0.0
  0
SOLID
  5
3C3F
330
1F
100
AcDbEntity
  8
LOGO
 62
     5
100
AcDbTrace
 10
2315.995440294751
 20
821.8908376307435
 30
0.0
 11
2316.584916829636
 21
821.8908376307435
 31
0.0
 12
2315.995440294751
 22
820.1224080260862
 32
0.0
 13
2316.584916829636
 23
820.1224080260862
 33
0.0
  0
SOLID
  5
3C40
330
1F
100
AcDbEntity
  8
LOGO
 62
     5
100
AcDbTrace
 10
2314.168063036604
 20
840.930929707555
 30
0.0
 11
2312.458581085436
 21
834.6628292199358
 31
0.0
 12
2314.168063036604
 22
826.0171733749437
 32
0.0
 13
2312.458581085436
 23
826.0171733749437
 33
0.0
  0
SOLID
  5
3C41
330
1F
100
AcDbEntity
  8
LOGO
 62
     5
100
AcDbTrace
 10
2314.875434878468
 20
826.0171733749437
 30
0.0
 11
2316.584916829636
 21
826.0171733749437
 31
0.0
 12
2314.875434878468
 22
842.2277780843035
 32
0.0
 13
2316.584916829636
 23
842.2277780843046
 33
0.0
  0
SOLID
  5
3C42
330
1F
100
AcDbEntity
  8
LOGO
 62
     2
100
AcDbTrace
 10
2314.168063036604
 20
842.2277780843046
 30
0.0
 11
2314.875434878468
 21
842.2277780843035
 31
0.0
 12
2314.168063036604
 22
826.0171733749437
 32
0.0
 13
2314.875434878468
 23
826.0171733749437
 33
0.0
  0
POLYLINE
  5
3C43
330
1F
100
AcDbEntity
  8
LOGO
 62
     5
100
AcDb2dPolyline
 66
     1
 10
0.0
 20
0.0
 30
0.0
 40
0.5904212088199329
 41
0.5904212088199329
  0
VERTEX
  5
3C44
330
3C43
100
AcDbEntity
  8
LOGO
 62
     5
100
AcDbVertex
100
AcDb2dVertex
 10
2307.842392607963
 20
821.8908376307435
 30
0.0
 42
1.0
  0
VERTEX
  5
3C45
330
3C43
100
AcDbEntity
  8
LOGO
 62
     5
100
AcDbVertex
100
AcDb2dVertex
 10
2306.071128981503
 20
821.8908376307435
 30
0.0
 42
1.0
  0
SEQEND
  5
3C46
330
3C43
100
AcDbEntity
  8
LOGO
 62
     5
  0
POLYLINE
  5
3C47
330
1F
100
AcDbEntity
  8
LOGO
 62
     5
100
AcDb2dPolyline
 66
     1
 10
0.0
 20
0.0
 30
0.0
 40
0.5904212088199329
 41
0.5904212088199329
  0
VERTEX
  5
3C48
330
3C47
100
AcDbEntity
  8
LOGO
 62
     5
100
AcDbVertex
100
AcDb2dVertex
 10
2309.610822212619
 20
821.8908376307435
 30
0.0
 42
1.0
  0
VERTEX
  5
3C49
330
3C47
100
AcDbEntity
  8
LOGO
 62
     5
100
AcDbVertex
100
AcDb2dVertex
 10
2307.839558586159
 20
821.8908376307435
 30
0.0
 42
1.0
  0
SEQEND
  5
3C4A
330
3C47
100
AcDbEntity
  8
LOGO
 62
     5
  0
POLYLINE
  5
3C4B
330
1F
100
AcDbEntity
  8
LOGO
 62
     5
100
AcDb2dPolyline
 66
     1
 10
0.0
 20
0.0
 30
0.0
 40
0.5904212088199329
 41
0.5904212088199329
  0
VERTEX
  5
3C4C
330
3C4B
100
AcDbEntity
  8
LOGO
 62
     5
100
AcDbVertex
100
AcDb2dVertex
 10
2301.161619247487
 20
821.8908376307435
 30
0.0
 42
1.0
  0
VERTEX
  5
3C4D
330
3C4B
100
AcDbEntity
  8
LOGO
 62
     5
100
AcDbVertex
100
AcDb2dVertex
 10
2299.390355621028
 20
821.8908376307435
 30
0.0
 42
1.0
  0
SEQEND
  5
3C4E
330
3C4B
100
AcDbEntity
  8
LOGO
 62
     5
  0
SOLID
  5
3C4F
330
1F
100
AcDbEntity
  8
LOGO
 62
     5
100
AcDbTrace
 10
2299.097034364486
 20
823.0697907005149
 30
0.0
 11
2299.686510899371
 21
823.0697907005149
 31
0.0
 12
2299.097034364486
 22
820.1224080260862
 32
0.0
 13
2299.686510899371
 23
820.1224080260862
 33
0.0
  0
SOLID
  5
3C50
330
1F
100
AcDbEntity
  8
LOGO
 62
     5
100
AcDbTrace
 10
2300.865463969144
 20
821.8908376307435
 30
0.0
 11
2301.45494050403
 21
821.8908376307435
 31
0.0
 12
2300.865463969144
 22
820.1224080260862
 32
0.0
 13
2301.45494050403
 23
820.1224080260862
 33
0.0
  0
POLYLINE
  5
3C51
330
1F
100
AcDbEntity
  8
LOGO
 62
     5
100
AcDb2dPolyline
 66
     1
 10
0.0
 20
0.0
 30
0.0
 70
     1
 40
0.5904212088199329
 41
0.5904212088199329
  0
VERTEX
  5
3C52
330
3C51
100
AcDbEntity
  8
LOGO
 62
     5
100
AcDbVertex
100
AcDb2dVertex
 10
2302.435590644508
 20
821.5960993633
 30
0.0
 42
1.0
  0
VERTEX
  5
3C53
330
3C51
100
AcDbEntity
  8
LOGO
 62
     5
100
AcDbVertex
100
AcDb2dVertex
 10
2304.797275479788
 20
821.5960993633
 30
0.0
 42
1.0
  0
SEQEND
  5
3C54
330
3C51
100
AcDbEntity
  8
LOGO
 62
     5
  0
SOLID
  5
3C55
330
1F
100
AcDbEntity
  8
LOGO
 62
     5
100
AcDbTrace
 10
2304.500588916825
 20
823.954005502844
 30
0.0
 11
2305.090065451709
 21
823.954005502844
 31
0.0
 12
2304.500588916825
 22
820.1224080260862
 32
0.0
 13
2305.090065451709
 23
820.1224080260862
 33
0.0
  0
SOLID
  5
3C56
330
1F
100
AcDbEntity
  8
LOGO
 62
     5
100
AcDbTrace
 10
2305.777807724962
 20
823.0697907005149
 30
0.0
 11
2306.367284259847
 21
823.0697907005149
 31
0.0
 12
2305.777807724962
 22
820.1224080260862
 32
0.0
 13
2306.367284259847
 23
820.1224080260862
 33
0.0
  0
SOLID
  5
3C57
330
1F
100
AcDbEntity
  8
LOGO
 62
     5
100
AcDbTrace
 10
2307.546237329618
 20
821.8908376307435
 30
0.0
 11
2308.135713864505
 21
821.8908376307435
 31
0.0
 12
2307.546237329618
 22
820.1224080260862
 32
0.0
 13
2308.135713864505
 23
820.1224080260862
 33
0.0
  0
SOLID
  5
3C58
330
1F
100
AcDbEntity
  8
LOGO
 62
     5
100
AcDbTrace
 10
2309.314666934276
 20
821.8908376307435
 30
0.0
 11
2309.904143469161
 21
821.8908376307435
 31
0.0
 12
2309.314666934276
 22
820.1224080260853
 32
0.0
 13
2309.904143469161
 23
820.1224080260853
 33
0.0
  0
SOLID
  5
3C59
330
1F
100
AcDbEntity
  8
LOGO
 62
     5
100
AcDbTrace
 10
2297.819815556348
 20
823.482424274935
 30
0.0
 11
2298.409292091236
 21
823.482424274935
 31
0.0
 12
2297.819815556348
 22
823.954005502844
 32
0.0
 13
2298.409292091236
 23
823.954005502844
 33
0.0
  0
SOLID
  5
3C5A
330
1F
100
AcDbEntity
  8
LOGO
 62
     5
100
AcDbTrace
 10
2297.819815556348
 20
823.0697907005149
 30
0.0
 11
2298.409292091236
 21
823.0697907005149
 31
0.0
 12
2297.819815556348
 22
820.1224080260853
 32
0.0
 13
2298.409292091236
 23
820.1224080260862
 33
0.0
  0
SOLID
  5
3C5B
330
1F
100
AcDbEntity
  8
LOGO
 62
     5
100
AcDbTrace
 10
2303.616433062147
 20
826.0171733749441
 30
0.0
 11
2305.325915013317
 21
826.0171733749441
 31
0.0
 12
2303.616433062147
 22
834.6628292199358
 32
0.0
 13
2305.325915013317
 23
840.930929707555
 33
0.0
  0
SOLID
  5
3C5C
330
1F
100
AcDbEntity
  8
LOGO
 62
     5
100
AcDbTrace
 10
2306.03328685518
 20
842.2277780843035
 30
0.0
 11
2307.742768806349
 21
842.2277780843046
 31
0.0
 12
2306.03328685518
 22
827.3140217516926
 32
0.0
 13
2307.742768806349
 23
833.582122239312
 33
0.0
  0
SOLID
  5
3C5D
330
1F
100
AcDbEntity
  8
LOGO
 62
     2
100
AcDbTrace
 10
2305.325915013317
 20
842.2277780843035
 30
0.0
 11
2306.03328685518
 21
842.2277780843035
 31
0.0
 12
2305.325915013317
 22
826.0171733749441
 32
0.0
 13
2306.03328685518
 23
826.0171733749441
 33
0.0
  0
SOLID
  5
3C5E
330
1F
100
AcDbEntity
  8
LOGO
 62
     5
100
AcDbTrace
 10
2306.03328685518
 20
827.3140217516926
 30
0.0
 11
2307.742768806349
 21
833.582122239312
 31
0.0
 12
2314.168063036604
 22
842.2277780843046
 32
0.0
 13
2312.458581085436
 23
842.2277780843046
 33
0.0
  0
SOLID
  5
3C5F
330
1F
100
AcDbEntity
  8
LOGO
 62
     5
100
AcDbTrace
 10
2306.03328685518
 20
826.0171733749441
 30
0.0
 11
2307.742768806349
 21
826.0171733749441
 31
0.0
 12
2314.168063036604
 22
840.930929707555
 32
0.0
 13
2312.458581085436
 23
834.6628292199358
 33
0.0
  0
SOLID
  5
3C60
330
1F
100
AcDbEntity
  8
LOGO
 62
     2
100
AcDbTrace
 10
2305.325915013317
 20
826.0171733749441
 30
0.0
 11
2306.03328685518
 21
826.0171733749441
 31
0.0
 12
2314.168063036604
 22
842.2277780843046
 32
0.0
 13
2314.875434878468
 23
842.2277780843035
 33
0.0
  0
LWPOLYLINE
  5
3C61
330
1F
100
AcDbEntity
  8
LOGO
 62
     4
100
AcDbPolyline
 90
        4
 70
     1
 43
0.0
 10
2290.67224388022
 20
843.1669682394382
 10
2834.386571385536
 20
843.1669682394382
 10
2834.386571385536
 20
803.6298337202458
 10
2290.67224388022
 20
803.6298337202458
1001
GENIUS_GENREC_14
1002
{
1000
PYDIR
1011
2290.67224388022
1021
803.6298337202458
1031
0.0
1002
}
1002
{
1000
PXDIR
1011
2834.386571385536
1021
843.1669682394382
1031
0.0
1002
}
1002
{
1000
PORI
1011
2290.67224388022
1021
843.1669682394382
1031
0.0
1002
}
1002
{
1000
PINS
1011
2290.67224388022
1021
843.1669682394382
1031
0.0
1002
}
1002
{
1000
PINS2
1011
2834.386571385536
1021
803.6298337202458
1031
0.0
1002
}
1002
{
1000
C
1070
     1
1002
}
1001
GENIUS_GENOBJ-N-REC_13
1002
{
1000
OWNER
1000
GEN
1002
}
1001
GENIUS_GENODEF_13
1002
{
1000
HIER
1070
     0
1002
}
1002
{
1000
MANEDIT
1070
     0
1002
}
1002
{
1000
NOSEL
1070
     0
1002
}
1002
{
1000
BEHIND
1070
     0
1002
}
1002
{
1000
OTHER
1070
     0
1002
}
1002
{
1000
REACTOR
1002
}
  0
LINE
  5
3C62
330
1F
100
AcDbEntity
  8
LOGO
 62
     4
100
AcDbLine
 10
2458.393603285942
 20
821.4215442538831
 30
0.0
 11
2458.393603285942
 21
806.9245949301784
 31
0.0
  0
LINE
  5
3C63
330
1F
100
AcDbEntity
  8
LOGO
 62
     4
100
AcDbLine
 10
2432.035513606482
 20
821.4215442538831
 30
0.0
 11
2432.035513606482
 21
806.9245949301784
 31
0.0
  0
LINE
  5
3C64
330
1F
100
AcDbEntity
  8
LOGO
 62
     4
100
AcDbLine
 10
2458.393603285942
 20
806.9245949301784
 30
0.0
 11
2432.035513606482
 21
806.9245949301784
 31
0.0
  0
LINE
  5
3C65
330
1F
100
AcDbEntity
  8
LOGO
 62
     4
100
AcDbLine
 10
2463.121206790685
 20
839.2132547875187
 30
0.0
 11
2432.035513606482
 21
839.2132547875187
 31
0.0
  0
LINE
  5
3C66
330
1F
100
AcDbEntity
  8
LOGO
 62
     4
100
AcDbLine
 10
2463.121206790685
 20
827.3521144317614
 30
0.0
 11
2432.035513606482
 21
827.3521144317614
 31
0.0
  0
LINE
  5
3C67
330
1F
100
AcDbEntity
  8
LOGO
 62
     4
100
AcDbLine
 10
2432.035513606482
 20
839.2132547875187
 30
0.0
 11
2432.035513606482
 21
827.3521144317614
 31
0.0
  0
LINE
  5
3C68
330
1F
100
AcDbEntity
  8
LOGO
 62
     4
100
AcDbLine
 10
2463.121206790685
 20
839.2132547875187
 30
0.0
 11
2463.121206790685
 21
827.3521144317614
 31
0.0
  0
LINE
  5
3C69
330
1F
100
AcDbEntity
  8
LOGO
 62
     4
100
AcDbLine
 10
2446.589788694028
 20
827.3521144317614
 30
0.0
 11
2446.589788694028
 21
821.4215442538831
 31
0.0
  0
TEXT
  5
3C6A
330
1F
100
AcDbEntity
  8
LOGO
  6
Continuous
100
AcDbText
 10
2434.143052485584
 20
829.8281101400402
 30
0.0
 40
6.799999999999999
  1
MCMA
  7
CHINESET
100
AcDbText
  0
LINE
  5
3C6B
330
1F
100
AcDbEntity
  8
LOGO
 62
     4
100
AcDbLine
 10
2458.393603285942
 20
821.4215442538831
 30
0.0
 11
2432.035513606482
 21
821.4215442538831
 31
0.0
  0
TEXT
  5
3C6C
330
1F
100
AcDbEntity
  8
LOGO
  6
Continuous
100
AcDbText
 10
2440.493741136178
 20
808.9708085857241
 30
259.1198662763692
 40
2.965714513665356
  1
Model
 41
0.8
  7
CHINESET
100
AcDbText
  0
TEXT
  5
3C6D
330
1F
100
AcDbEntity
  8
LOGO
100
AcDbText
 10
2439.704364342089
 20
814.4686041369642
 30
259.1198662763692
 40
4.942857522775594
  1
型號
  7
CHINESET
100
AcDbText
  0
LINE
  5
3C6E
330
1F
100
AcDbEntity
  8
LOGO
  6
Continuous
100
AcDbLine
 10
2464.382144041478
 20
833.240670575997
 30
0.0
 11
2469.619590828799
 21
833.240670575997
 31
0.0
  0
LINE
  5
3C6F
330
1F
100
AcDbEntity
  8
LOGO
 62
     4
100
AcDbLine
 10
2498.005830200705
 20
821.4215442538831
 30
0.0
 11
2498.005830200705
 21
806.9245949301784
 31
0.0
  0
LINE
  5
3C70
330
1F
100
AcDbEntity
  8
LOGO
 62
     4
100
AcDbLine
 10
2463.974963581713
 20
821.4215442538831
 30
0.0
 11
2463.974963581713
 21
806.9245949301784
 31
0.0
  0
LINE
  5
3C71
330
1F
100
AcDbEntity
  8
LOGO
 62
     4
100
AcDbLine
 10
2498.005830200705
 20
806.9245949301784
 30
0.0
 11
2463.974963581713
 21
806.9245949301784
 31
0.0
  0
LINE
  5
3C72
330
1F
100
AcDbEntity
  8
LOGO
 62
     4
100
AcDbLine
 10
2486.547831031088
 20
839.2132547875187
 30
0.0
 11
2471.271729207904
 21
839.2132547875187
 31
0.0
  0
LINE
  5
3C73
330
1F
100
AcDbEntity
  8
LOGO
 62
     4
100
AcDbLine
 10
2486.547831031088
 20
827.3521144317614
 30
0.0
 11
2471.271729207904
 21
827.3521144317614
 31
0.0
  0
LINE
  5
3C74
330
1F
100
AcDbEntity
  8
LOGO
 62
     4
100
AcDbLine
 10
2471.271729207904
 20
839.2132547875187
 30
0.0
 11
2471.271729207904
 21
827.3521144317614
 31
0.0
  0
LINE
  5
3C75
330
1F
100
AcDbEntity
  8
LOGO
 62
     4
100
AcDbLine
 10
2486.547831031088
 20
839.2132547875187
 30
0.0
 11
2486.547831031088
 21
827.3521144317614
 31
0.0
  0
LINE
  5
3C76
330
1F
100
AcDbEntity
  8
LOGO
 62
     4
100
AcDbLine
 10
2478.909780119495
 20
827.3521144317614
 30
0.0
 11
2478.909780119495
 21
821.4215442538831
 31
0.0
  0
TEXT
  5
3C77
330
1F
100
AcDbEntity
  8
LOGO
  6
Continuous
100
AcDbText
 10
2474.993828130421
 20
829.8281101400402
 30
0.0
 40
6.920000531885831
  1
11
  7
CHINESET
100
AcDbText
  0
LINE
  5
3C78
330
1F
100
AcDbEntity
  8
LOGO
 62
     4
100
AcDbLine
 10
2498.005830200705
 20
821.4215442538831
 30
0.0
 11
2463.974963581713
 21
821.4215442538831
 31
0.0
  0
LINE
  5
3C79
330
1F
100
AcDbEntity
  8
LOGO
  6
Continuous
100
AcDbLine
 10
2488.651200706715
 20
833.240670575997
 30
0.0
 11
2493.888647494035
 21
833.240670575997
 31
0.0
  0
LINE
  5
3C7A
330
1F
100
AcDbEntity
  8
LOGO
 62
     4
100
AcDbLine
 10
2528.56593068893
 20
821.4215442538831
 30
0.0
 11
2528.56593068893
 21
806.9245949301784
 31
0.0
  0
LINE
  5
3C7B
330
1F
100
AcDbEntity
  8
LOGO
 62
     4
100
AcDbLine
 10
2502.207841009469
 20
821.4215442538831
 30
0.0
 11
2502.207841009469
 21
806.9245949301784
 31
0.0
  0
LINE
  5
3C7C
330
1F
100
AcDbEntity
  8
LOGO
 62
     4
100
AcDbLine
 10
2528.56593068893
 20
806.9245949301784
 30
0.0
 11
2502.207841009469
 21
806.9245949301784
 31
0.0
  0
LINE
  5
3C7D
330
1F
100
AcDbEntity
  8
LOGO
 62
     4
100
AcDbLine
 10
2510.748579238029
 20
839.2132547875187
 30
0.0
 11
2495.54078587314
 21
839.2132547875187
 31
0.0
  0
LINE
  5
3C7E
330
1F
100
AcDbEntity
  8
LOGO
 62
     4
100
AcDbLine
 10
2510.748579238029
 20
827.3521144317614
 30
0.0
 11
2495.54078587314
 21
827.3521144317614
 31
0.0
  0
LINE
  5
3C7F
330
1F
100
AcDbEntity
  8
LOGO
 62
     4
100
AcDbLine
 10
2495.54078587314
 20
839.2132547875187
 30
0.0
 11
2495.54078587314
 21
827.3521144317614
 31
0.0
  0
LINE
  5
3C80
330
1F
100
AcDbEntity
  8
LOGO
 62
     4
100
AcDbLine
 10
2510.748579238029
 20
839.2132547875187
 30
0.0
 11
2510.748579238029
 21
827.3521144317614
 31
0.0
  0
LINE
  5
3C81
330
1F
100
AcDbEntity
  8
LOGO
 62
     4
100
AcDbLine
 10
2500.144682555584
 20
827.3521144317614
 30
0.0
 11
2500.144682555584
 21
824.3868293428221
 31
0.0
  0
TEXT
  5
3C82
330
1F
100
AcDbEntity
  8
LOGO
  6
Continuous
100
AcDbText
 10
2497.889665522222
 20
829.8281101400402
 30
0.0
 40
6.920000531885831
  1
32
  7
CHINESET
100
AcDbText
  0
LINE
  5
3C83
330
1F
100
AcDbEntity
  8
LOGO
 62
     4
100
AcDbLine
 10
2528.56593068893
 20
821.4215442538831
 30
0.0
 11
2502.207841009469
 21
821.4215442538831
 31
0.0
  0
LINE
  5
3C84
330
1F
100
AcDbEntity
  8
LOGO
  6
Continuous
100
AcDbLine
 10
2511.701615626601
 20
833.240670575997
 30
0.0
 11
2516.939062413924
 21
833.240670575997
 31
0.0
  0
LINE
  5
3C85
330
1F
100
AcDbEntity
  8
LOGO
 62
     4
100
AcDbLine
 10
2552.52515100685
 20
821.4215442538831
 30
0.0
 11
2552.52515100685
 21
806.9245949301784
 31
0.0
  0
LINE
  5
3C86
330
1F
100
AcDbEntity
  8
LOGO
 62
     4
100
AcDbLine
 10
2531.052284926837
 20
821.4215442538831
 30
0.0
 11
2531.052284926837
 21
806.9245949301784
 31
0.0
  0
LINE
  5
3C87
330
1F
100
AcDbEntity
  8
LOGO
 62
     4
100
AcDbLine
 10
2552.52515100685
 20
806.9245949301784
 30
0.0
 11
2531.052284926837
 21
806.9245949301784
 31
0.0
  0
LINE
  5
3C88
330
1F
100
AcDbEntity
  8
LOGO
 62
     4
100
AcDbLine
 10
2531.211124750035
 20
839.2132547875187
 30
0.0
 11
2518.591200793027
 21
839.2132547875187
 31
0.0
  0
LINE
  5
3C89
330
1F
100
AcDbEntity
  8
LOGO
 62
     4
100
AcDbLine
 10
2531.211124750035
 20
827.3521144317614
 30
0.0
 11
2518.591200793027
 21
827.3521144317614
 31
0.0
  0
LINE
  5
3C8A
330
1F
100
AcDbEntity
  8
LOGO
 62
     4
100
AcDbLine
 10
2518.591200793027
 20
839.2132547875187
 30
0.0
 11
2518.591200793027
 21
827.3521144317614
 31
0.0
  0
LINE
  5
3C8B
330
1F
100
AcDbEntity
  8
LOGO
 62
     4
100
AcDbLine
 10
2531.211124750035
 20
839.2132547875187
 30
0.0
 11
2531.211124750035
 21
827.3521144317614
 31
0.0
  0
LINE
  5
3C8C
330
1F
100
AcDbEntity
  8
LOGO
 62
     4
100
AcDbLine
 10
2524.901162771531
 20
827.3521144317614
 30
0.0
 11
2524.901162771531
 21
824.3868293428221
 31
0.0
  0
TEXT
  5
3C8D
330
1F
100
AcDbEntity
  8
LOGO
  6
Continuous
100
AcDbText
 10
2522.844717493233
 20
829.8281101400402
 30
0.0
 40
6.920000531885831
  1
0
  7
CHINESET
100
AcDbText
  0
LINE
  5
3C8E
330
1F
100
AcDbEntity
  8
LOGO
 62
     4
100
AcDbLine
 10
2552.52515100685
 20
821.4215442538831
 30
0.0
 11
2531.052284926837
 21
821.4215442538831
 31
0.0
  0
TEXT
  5
3C8F
330
1F
100
AcDbEntity
  8
LOGO
  6
Continuous
100
AcDbText
 10
2472.990841107577
 20
808.9708085857241
 30
259.1198662763692
 40
2.965714513665356
  1
Acting type
 41
0.8
  7
CHINESET
100
AcDbText
  0
TEXT
  5
3C90
330
1F
100
AcDbEntity
  8
LOGO
100
AcDbText
 10
2472.962903049688
 20
814.4686041369642
 30
259.1198662763692
 40
4.942857522775594
  1
作動型式
  7
CHINESET
100
AcDbText
  0
TEXT
  5
3C91
330
1F
100
AcDbEntity
  8
LOGO
  6
Continuous
100
AcDbText
 10
2507.728783513541
 20
808.9708085857241
 30
259.1198662763692
 40
2.965714513665356
  1
Tube I.D.
 41
0.8
  7
CHINESET
100
AcDbText
  0
TEXT
  5
3C92
330
1F
100
AcDbEntity
  8
LOGO
100
AcDbText
 10
2509.679719767291
 20
814.4686041369642
 30
259.1198662763692
 40
4.942857522775594
  1
內徑
  7
CHINESET
100
AcDbText
  0
TEXT
  5
3C93
330
1F
100
AcDbEntity
  8
LOGO
  6
Continuous
100
AcDbText
 10
2536.711475600438
 20
808.9708085857241
 30
259.1198662763692
 40
2.965714513665356
  1
Stroke
 41
0.8
  7
CHINESET
100
AcDbText
  0
TEXT
  5
3C94
330
1F
100
AcDbEntity
  8
LOGO
100
AcDbText
 10
2536.505842705183
 20
814.4686041369642
 30
259.1198662763692
 40
4.942857522775594
  1
行程
  7
CHINESET
100
AcDbText
  0
TEXT
  5
3C95
330
1F
100
AcDbEntity
  8
LOGO
100
AcDbText
 10
2379.815357024201
 20
805.7331936716105
 30
0.0
 40
3.954286018220475
  1
20806161
 41
0.7
  7
CHINESET
 72
     1
 11
2389.107929167019
 21
805.7331936716105
 31
0.0
100
AcDbText
  0
LINE
  5
3C96
330
1F
100
AcDbEntity
  8
LOGO
 62
     4
100
AcDbLine
 10
2401.379655931763
 20
811.5372606240855
 30
0.0
 11
2401.379655931765
 21
803.6298337202465
 31
0.0
  0
LINE
  5
3C97
330
1F
100
AcDbEntity
  8
LOGO
 62
     4
100
AcDbLine
 10
2401.379655931763
 20
811.5372606240855
 30
0.0
 11
2377.653939822442
 21
811.5372606240855
 31
0.0
  0
CIRCLE
  5
3C98
330
1F
100
AcDbEntity
  8
LOGO
  6
Continuous
100
AcDbCircle
 10
2358.61664512187
 20
831.314284905687
 30
0.0
 40
2.295619090108629
  0
CIRCLE
  5
3C99
330
1F
100
AcDbEntity
  8
LOGO
  6
Continuous
100
AcDbCircle
 10
2358.61664512187
 20
831.314284905687
 30
0.0
 40
1.345029567143503
  0
LINE
  5
3C9A
330
1F
100
AcDbEntity
  8
LOGO
100
AcDbLine
 10
2373.042581856487
 20
829.0186658155777
 30
0.0
 11
2373.042581856487
 21
833.6099039957959
 31
0.0
  0
LINE
  5
3C9B
330
1F
100
AcDbEntity
  8
LOGO
100
AcDbLine
 10
2365.84594778382
 20
829.9692553385437
 30
0.0
 11
2365.84594778382
 21
832.6593144728304
 31
0.0
  0
LINE
  5
3C9C
330
1F
100
AcDbEntity
  8
LOGO
  6
Continuous
100
AcDbLine
 10
2365.84594778382
 20
832.6593144728304
 30
0.0
 11
2373.042581856487
 21
833.6099039957959
 31
0.0
  0
LINE
  5
3C9D
330
1F
100
AcDbEntity
  8
LOGO
  6
Continuous
100
AcDbLine
 10
2365.84594778382
 20
829.9692553385437
 30
0.0
 11
2373.042581856487
 21
829.0186658155777
 31
0.0
  0
LINE
  5
3C9E
330
1F
100
AcDbEntity
  8
LOGO
  6
AM_ISO08W050x2
 48
0.3
100
AcDbLine
 10
2355.452099831966
 20
831.314284905687
 30
0.0
 11
2361.781190411774
 21
831.314284905687
 31
0.0
1001
GENIUS_GENOREF_13
1005
3CA7
  0
LINE
  5
3C9F
330
1F
100
AcDbEntity
  8
LOGO
  6
AM_ISO08W050x2
 48
0.3
100
AcDbLine
 10
2358.61664512187
 20
828.1497396157831
 30
0.0
 11
2358.61664512187
 21
834.4788301955908
 31
0.0
1001
GENIUS_GENOREF_13
1005
3CA6
  0
LINE
  5
3CA0
330
1F
100
AcDbEntity
  8
LOGO
  6
CENTER
 48
0.5
100
AcDbLine
 10
2365.270417087516
 20
831.314284905687
 30
0.0
 11
2373.767259610899
 21
831.314284905687
 31
0.0
1001
GENIUS_GENOREF_13
1005
3CA5
  0
LINE
  5
3CA1
330
1F
100
AcDbEntity
  8
LOGO
 62
     4
100
AcDbLine
 10
2524.901162771531
 20
824.3868293428221
 30
0.0
 11
2541.788717966844
 21
824.3868293428221
 31
0.0
  0
LINE
  5
3CA2
330
1F
100
AcDbEntity
  8
LOGO
 62
     4
100
AcDbLine
 10
2541.788717966844
 20
821.4215442538831
 30
0.0
 11
2541.788717966844
 21
824.3868293428221
 31
0.0
  0
LINE
  5
3CA3
330
1F
100
AcDbEntity
  8
LOGO
 62
     4
100
AcDbLine
 10
2500.144682555584
 20
824.3868293428221
 30
0.0
 11
2515.3868858492
 21
824.3868293428221
 31
0.0
  0
LINE
  5
3CA4
330
1F
100
AcDbEntity
  8
LOGO
 62
     4
100
AcDbLine
 10
2515.3868858492
 20
821.4215442538831
 30
0.0
 11
2515.3868858492
 21
824.3868293428221
 31
0.0
  0
POINT
  5
3CA5
330
1F
100
AcDbEntity
  8
0
 60
     1
100
AcDbPoint
 10
321.0718931854503
 20
-512.9694738572639
 30
0.0
1001
GENIUS_GENOBJ-N-CRS_13
1002
{
1000
OWNER
1000
GEN
1002
}
1001
GENIUS_GENOLIS_13
1002
{
1000
ENT
1005
0
1005
0
1005
0
1005
3CA0
1002
}
1001
GENIUS_GENOENT_13
1002
{
1000
MYREF
1005
3CA5
1002
}
1002
{
1000
GRP
1005
0
1002
}
1001
GENIUS_GENODEF_13
1002
{
1000
HIER
1070
    10
1002
}
1002
{
1000
MANEDIT
1070
     1
1002
}
1002
{
1000
NOSEL
1070
     0
1002
}
1002
{
1000
BEHIND
1070
     0
1002
}
1002
{
1000
OTHER
1070
     0
1002
}
1002
{
1000
REACTOR
1002
}
  0
POINT
  5
3CA6
330
1F
100
AcDbEntity
  8
0
 60
     1
100
AcDbPoint
 10
309.7473079625956
 20
-504.0938873786276
 30
0.0
1001
GENIUS_GENOBJ-N-CRS_13
1002
{
1000
OWNER
1000
GEN
1002
}
1001
GENIUS_GENOLIS_13
1002
{
1000
ENT
1005
0
1005
0
1005
0
1005
3C9F
1002
}
1001
GENIUS_GENOENT_13
1002
{
1000
MYREF
1005
3CA6
1002
}
1002
{
1000
GRP
1005
0
1002
}
1001
GENIUS_GENODEF_13
1002
{
1000
HIER
1070
    10
1002
}
1002
{
1000
MANEDIT
1070
     1
1002
}
1002
{
1000
NOSEL
1070
     0
1002
}
1002
{
1000
BEHIND
1070
     0
1002
}
1002
{
1000
OTHER
1070
     0
1002
}
1002
{
1000
REACTOR
1002
}
  0
POINT
  5
3CA7
330
1F
100
AcDbEntity
  8
0
 60
     1
100
AcDbPoint
 10
316.1059816604325
 20
-512.9694738572639
 30
0.0
1001
GENIUS_GENOBJ-N-CRS_13
1002
{
1000
OWNER
1000
GEN
1002
}
1001
GENIUS_GENOLIS_13
1002
{
1000
ENT
1005
0
1005
0
1005
0
1005
3C9E
1002
}
1001
GENIUS_GENOENT_13
1002
{
1000
MYREF
1005
3CA7
1002
}
1002
{
1000
GRP
1005
0
1002
}
1001
GENIUS_GENODEF_13
1002
{
1000
HIER
1070
    10
1002
}
1002
{
1000
MANEDIT
1070
     1
1002
}
1002
{
1000
NOSEL
1070
     0
1002
}
1002
{
1000
BEHIND
1070
     0
1002
}
1002
{
1000
OTHER
1070
     0
1002
}
1002
{
1000
REACTOR
1002
}
  0
ENDSEC
  0
SECTION
  2
OBJECTS
  0
DICTIONARY
  5
C
330
0
100
AcDbDictionary
281
     1
  3
ACAD_COLOR
350
BE
  3
ACAD_GROUP
350
D
  3
ACAD_LAYOUT
350
1A
  3
ACAD_MATERIAL
350
BD
  3
ACAD_MLINESTYLE
350
17
  3
ACAD_PLOTSETTINGS
350
19
  3
ACAD_PLOTSTYLENAME
350
E
  3
ACAD_TABLESTYLE
350
11A
  3
AcAsAppObject
350
2FBE
  3
ACASGREF_MASTER
350
3006
  3
ACDBHEADERROUNDTRIPXREC
350
3CD8
  3
AcDbVariableDictionary
350
94
  3
AcmDictionary
350
5B
  3
AD_GREF_MODULE
350
3007
  3
AD_MAPI_MODULE
350
3020
  3
AMG
350
41
  3
AMGSNAPSETTINGS
350
1B8
  3
DWGPROPS
350
3CD7
  3
MAPISURF_MODULE
350
3008
  0
DICTIONARY
  5
3F9
330
2
100
AcDbDictionary
280
     1
281
     1
  3
ACAD_LAYERFILTERS
360
3AC8
  3
ACAD_LAYERSTATES
360
71D
  3
ACLYDICTIONARY
360
3AC7
  0
DICTIONARY
  5
8F
330
1F
100
AcDbDictionary
280
     1
281
     1
  3
ACAD_INDEX
360
319D
  3
ACAD_SORTENTS
360
12F5
  0
DICTIONARY
  5
2D10
330
2D03
100
AcDbDictionary
280
     1
281
     1
  3
ACAD_DIMASSOC
360
2D11
  0
DICTIONARY
  5
2D78
330
2D6C
100
AcDbDictionary
280
     1
281
     1
  3
ACAD_DIMASSOC
360
2D79
  0
DICTIONARY
  5
BE
102
{ACAD_REACTORS
330
C
102
}
330
C
100
AcDbDictionary
281
     1
  0
DICTIONARY
  5
D
102
{ACAD_REACTORS
330
C
102
}
330
C
100
AcDbDictionary
281
     1
  0
DICTIONARY
  5
1A
102
{ACAD_REACTORS
330
C
102
}
330
C
100
AcDbDictionary
281
     1
  3
Model
350
22
  3
配置1
350
1E
  3
配置2
350
26
  0
DICTIONARY
  5
BD
102
{ACAD_REACTORS
330
C
102
}
330
C
100
AcDbDictionary
281
     1
  0
DICTIONARY
  5
17
102
{ACAD_REACTORS
330
C
102
}
330
C
100
AcDbDictionary
281
     1
  3
Standard
350
18
  0
DICTIONARY
  5
19
102
{ACAD_REACTORS
330
C
102
}
330
C
100
AcDbDictionary
281
     1
  0
ACDBDICTIONARYWDFLT
  5
E
102
{ACAD_REACTORS
330
C
102
}
330
C
100
AcDbDictionary
281
     1
  3
Normal
350
F
100
AcDbDictionaryWithDefault
340
F
  0
DICTIONARY
  5
11A
102
{ACAD_REACTORS
330
C
102
}
330
C
100
AcDbDictionary
281
     1
  3
Standard
350
11B
  0
ACAD_PROXY_OBJECT
  5
2FBE
102
{ACAD_REACTORS
330
C
102
}
330
C
100
AcDbProxyObject
 90
      499
 91
      612
 95
  2555929
 70
     0
 93
       10
310
4040
 94
        0
1001
ACAD
1000
AcRTDxfName
1000
ASAPP
1000
AcRTDxfName
1000
ASAPP
  0
ACAD_PROXY_OBJECT
  5
3006
102
{ACAD_REACTORS
330
C
102
}
330
C
100
AcDbProxyObject
 90
      499
 91
      617
 95
  2555929
 70
     0
 93
       34
310
0100004040
 94
        0
1001
ACAD
1000
AcRTDxfName
1000
ACASGREFMASTER
1000
AcRTDxfName
1000
ACASGREFMASTER
  0
DICTIONARY
  5
3CD8
102
{ACAD_REACTORS
330
C
102
}
330
C
100
AcDbDictionary
281
     1
  0
DICTIONARY
  5
94
102
{ACAD_REACTORS
330
C
102
}
330
C
100
AcDbDictionary
281
     1
  3
CTABLESTYLE
350
138
  3
DIMASSOC
350
96
  3
INDEXCTL
350
95
  3
PROJECTNAME
350
2F78
  0
DICTIONARY
  5
5B
102
{ACAD_REACTORS
330
C
102
}
330
C
100
AcDbDictionary
281
     1
  3
AcmBOM
350
1B5
  3
AcmStdDictionary
350
61
  3
AMDTSECTSYM_ARROWCOLOR
350
123
  0
ACAD_PROXY_OBJECT
  5
3007
102
{ACAD_REACTORS
330
C
102
}
330
C
100
AcDbProxyObject
 90
      499
 91
      618
 95
  2555929
 70
     0
 93
      114
310
000000438080000000000000000000
 94
        0
1001
ACAD
1000
AcRTDxfName
1000
ACADGREFMODULE
1000
AcRTDxfName
1000
ACADGREFMODULE
  0
ACAD_PROXY_OBJECT
  5
3020
102
{ACAD_REACTORS
330
C
102
}
330
C
100
AcDbProxyObject
 90
      499
 91
      620
 95
  2555929
 70
     0
 93
       34
310
05000044C0
 94
        0
1001
ACAD
1000
AcRTDxfName
1000
MAPIADMODULE
1000
AcRTDxfName
1000
MAPIADMODULE
  0
DICTIONARY
  5
41
102
{ACAD_REACTORS
330
C
102
}
330
C
100
AcDbDictionary
281
     1
  0
DICTIONARY
  5
1B8
102
{ACAD_REACTORS
330
C
102
}
330
C
100
AcDbDictionary
281
     1
  0
XRECORD
  5
3CD7
102
{ACAD_REACTORS
330
C
102
}
330
C
100
AcDbXrecord
280
     1
  1
DWGPROPS COOKIE
  2

  3

  4

  6

  7

  8

  9

300
AmdtFileType=84
301
=
302
=
303
=
304
=
305
=
306
=
307
=
308
=
309
=
 40
0.7877781597222223
 41
2453580.633342373
 42
2454634.691983033
  1

 90
        1
  0
ACAD_PROXY_OBJECT
  5
3008
102
{ACAD_REACTORS
330
C
102
}
330
C
100
AcDbProxyObject
 90
      499
 91
      619
 95
  2555929
 70
     0
 93
        8
310
047E
 94
        0
1001
ACAD
1000
AcRTDxfName
1000
AMDTMAPISURFMOUDULE
1000
AcRTDxfName
1000
AMDTMAPISURFMOUDULE
  0
DICTIONARY
  5
3AC8
102
{ACAD_REACTORS
330
3F9
102
}
330
3F9
100
AcDbDictionary
281
     1
  0
DICTIONARY
  5
71D
102
{ACAD_REACTORS
330
3F9
102
}
330
3F9
100
AcDbDictionary
281
     1
  0
DICTIONARY
  5
3AC7
102
{ACAD_REACTORS
330
3F9
102
}
330
3F9
100
AcDbDictionary
281
     1
1001
ACAD
1000
<All
  0
DICTIONARY
  5
319D
102
{ACAD_REACTORS
330
8F
102
}
330
8F
100
AcDbDictionary
281
     1
  3
*A1
350
319E
  0
SORTENTSTABLE
  5
12F5
102
{ACAD_REACTORS
330
8F
102
}
330
8F
100
AcDbSortentsTable
330
1F
331
2A28
  5
2A28
331
2C43
  5
2C43
331
2B85
  5
2B85
331
2B0E
  5
2B0E
331
2C53
  5
2C53
331
2B8D
  5
2B8D
331
2A9F
  5
2A9F
331
2B16
  5
2B16
331
2B95
  5
2B95
331
2C0C
  5
2C0C
331
2AA7
  5
2AA7
331
2B1E
  5
2B1E
331
2A48
  5
2A48
331
2C14
  5
2C14
331
2B26
  5
2B26
331
295E
  5
295E
331
2995
  5
2995
331
29DC
  5
29DC
331
2966
  5
2966
331
1A0F
  5
1A0F
331
299D
  5
299D
331
29E4
  5
29E4
331
296E
  5
296E
331
29A5
  5
29A5
331
2976
  5
2976
331
29AD
  5
29AD
331
29EC
  5
29EC
331
3475
  5
3476
331
347D
  5
347E
331
3485
  5
3486
331
2A09
  5
2A09
331
2C1C
  5
2C1C
331
2B9D
  5
2B9D
331
2B2E
  5
2B2E
331
2A11
  5
2A11
331
2AB7
  5
2AB7
331
2C24
  5
2C24
331
2BA5
  5
2BA5
331
2B36
  5
2B36
331
2A70
  5
2A70
331
2A19
  5
2A19
331
2BAD
  5
2BAD
331
2AFF
  5
2AFF
331
2A21
  5
2A21
331
2CA3
  5
2CA3
331
2BB5
  5
2BB5
331
2B07
  5
2B07
331
2B7E
  5
2B7E
331
2C3C
  5
2C3C
331
29F4
  5
29F4
331
297E
  5
297E
331
29B5
  5
29B5
331
29FC
  5
29FC
331
1970
  5
1970
331
2986
  5
2986
331
29BD
  5
29BD
331
2A04
  5
2A04
331
294F
  5
294F
331
298E
  5
298E
331
29C5
  5
29C5
331
2957
  5
2957
331
29CD
  5
29CD
331
32E0
  5
32E0
331
2C44
  5
2C44
331
2B86
  5
2B86
331
2D03
  5
2D03
331
2B0F
  5
2B0F
331
2C54
  5
2C54
331
2B8E
  5
2B8E
331
2AA0
  5
2AA0
331
2B17
  5
2B17
331
2B96
  5
2B96
331
2C0D
  5
2C0D
331
2B1F
  5
2B1F
331
2C15
  5
2C15
331
2B27
  5
2B27
331
29D5
  5
29D5
331
295F
  5
295F
331
2996
  5
2996
331
29DD
  5
29DD
331
2967
  5
2967
331
1A10
  5
1A10
331
299E
  5
299E
331
29E5
  5
29E5
331
296F
  5
296F
331
1A18
  5
1A18
331
29A6
  5
29A6
331
2977
  5
2977
331
29AE
  5
29AE
331
29ED
  5
29ED
331
3476
  5
3477
331
347E
  5
347F
331
3486
  5
3487
331
2A0A
  5
2A0A
331
2C1D
  5
2C1D
331
2B9E
  5
2B9E
331
2AB8
  5
2AB8
331
2A12
  5
2A12
331
2B2F
  5
2B2F
331
2C25
  5
2C25
331
2BA6
  5
2BA6
331
2B37
  5
2B37
331
2A1A
  5
2A1A
331
2BAE
  5
2BAE
331
2B00
  5
2B00
331
2A22
  5
2A22
331
2BB6
  5
2BB6
331
2B7F
  5
2B7F
331
2C3D
  5
2C3D
331
2CA4
  5
2CA4
331
29F5
  5
29F5
331
297F
  5
297F
331
29B6
  5
29B6
331
29FD
  5
29FD
331
2987
  5
2987
331
29BE
  5
29BE
331
2A05
  5
2A05
331
298F
  5
298F
331
2950
  5
2950
331
29CE
  5
29CE
331
2B08
  5
2B08
331
2C45
  5
2C45
331
2B87
  5
2B87
331
2B10
  5
2B10
331
2C55
  5
2C55
331
2B8F
  5
2B8F
331
2C06
  5
2C06
331
2B18
  5
2B18
331
2C65
  5
2C65
331
2B97
  5
2B97
331
2C0E
  5
2C0E
331
2B20
  5
2B20
331
2D44
  5
2D44
331
2C16
  5
2C16
331
2958
  5
2958
331
29D6
  5
29D6
331
2997
  5
2997
331
2960
  5
2960
331
29DE
  5
29DE
331
299F
  5
299F
331
2968
  5
2968
331
29E6
  5
29E6
331
29A7
  5
29A7
331
1A19
  5
1A19
331
2970
  5
2970
331
29AF
  5
29AF
331
29EE
  5
29EE
331
3477
  5
3478
331
347F
  5
3480
331
3487
  5
34A2
331
2B28
  5
2B28
331
2A0B
  5
2A0B
331
2C1E
  5
2C1E
331
2B30
  5
2B30
331
2A13
  5
2A13
331
2B9F
  5
2B9F
331
2C26
  5
2C26
331
2BA7
  5
2BA7
331
2B38
  5
2B38
331
2A1B
  5
2A1B
331
2D6C
  5
2D6C
331
2BAF
  5
2BAF
331
2B01
  5
2B01
331
2A23
  5
2A23
331
2CA5
  5
2CA5
331
2BB7
  5
2BB7
331
2C3E
  5
2C3E
331
2978
  5
2978
331
29F6
  5
29F6
331
2980
  5
2980
331
29B7
  5
29B7
331
29FE
  5
29FE
331
2988
  5
2988
331
2949
  5
2949
331
2A06
  5
2A06
331
29C7
  5
29C7
331
2951
  5
2951
331
2B80
  5
2B80
331
2B09
  5
2B09
331
2B88
  5
2B88
331
2B11
  5
2B11
331
2C56
  5
2C56
331
2B90
  5
2B90
331
2C07
  5
2C07
331
2AA2
  5
2AA2
331
2B19
  5
2B19
331
2C66
  5
2C66
331
2C0F
  5
2C0F
331
2B21
  5
2B21
331
2D45
  5
2D45
331
2C17
  5
2C17
331
2990
  5
2990
331
2959
  5
2959
331
2998
  5
2998
331
29D7
  5
29D7
331
2961
  5
2961
331
29DF
  5
29DF
331
29A0
  5
29A0
331
2969
  5
2969
331
29E7
  5
29E7
331
29A8
  5
29A8
331
1A1A
  5
1A1A
331
2971
  5
2971
331
29EF
  5
29EF
331
3478
  5
3479
331
3480
  5
3481
331
2B98
  5
2B98
331
2B29
  5
2B29
331
2A0C
  5
2A0C
331
2BA0
  5
2BA0
331
2B31
  5
2B31
331
2ABA
  5
2ABA
331
2A63
  5
2A63
331
2A14
  5
2A14
331
2C1F
  5
2C1F
331
2C27
  5
2C27
331
2BA8
  5
2BA8
331
2B39
  5
2B39
331
2A1C
  5
2A1C
331
2BB0
  5
2BB0
331
2B02
  5
2B02
331
2A24
  5
2A24
331
2CA6
  5
2CA6
331
2C3F
  5
2C3F
331
2979
  5
2979
331
29B0
  5
29B0
331
29F7
  5
29F7
331
2981
  5
2981
331
29B8
  5
29B8
331
29FF
  5
29FF
331
2989
  5
2989
331
29C0
  5
29C0
331
294A
  5
294A
331
2A07
  5
2A07
331
29C8
  5
29C8
331
2952
  5
2952
331
2B81
  5
2B81
331
2BB8
  5
2BB8
331
2A8B
  5
2A8B
331
2B0A
  5
2B0A
331
2B89
  5
2B89
331
2B12
  5
2B12
331
2B91
  5
2B91
331
2C08
  5
2C08
331
2AA3
  5
2AA3
331
2B1A
  5
2B1A
331
2C67
  5
2C67
331
2C10
  5
2C10
331
2B22
  5
2B22
331
2D46
  5
2D46
331
29D0
  5
29D0
331
2991
  5
2991
331
295A
  5
295A
331
29D8
  5
29D8
331
2999
  5
2999
331
2962
  5
2962
331
29E0
  5
29E0
331
29A1
  5
29A1
331
296A
  5
296A
331
29A9
  5
29A9
331
29E8
  5
29E8
331
1A1B
  5
1A1B
331
2972
  5
2972
331
3479
  5
347A
331
3481
  5
3482
331
2C18
  5
2C18
331
2B99
  5
2B99
331
2B2A
  5
2B2A
331
2A0D
  5
2A0D
331
2C20
  5
2C20
331
2BA1
  5
2BA1
331
2B32
  5
2B32
331
2A15
  5
2A15
331
2C77
  5
2C77
331
2D66
  5
2D66
331
2C28
  5
2C28
331
2BA9
  5
2BA9
331
2B3A
  5
2B3A
331
2A1D
  5
2A1D
331
2BB1
  5
2BB1
331
2B03
  5
2B03
331
2A25
  5
2A25
331
2CA7
  5
2CA7
331
29F0
  5
29F0
331
297A
  5
297A
331
29B1
  5
29B1
331
29F8
  5
29F8
331
2982
  5
2982
331
29B9
  5
29B9
331
2A00
  5
2A00
331
298A
  5
298A
331
29C1
  5
29C1
331
294B
  5
294B
331
29C9
  5
29C9
331
2953
  5
2953
331
2C40
  5
2C40
331
2B82
  5
2B82
331
2A8C
  5
2A8C
331
2B0B
  5
2B0B
331
2B8A
  5
2B8A
331
2B13
  5
2B13
331
2F2E
  5
2F2E
331
2B92
  5
2B92
331
2C09
  5
2C09
331
2AA4
  5
2AA4
331
2B1B
  5
2B1B
331
2A45
  5
2A45
331
2C11
  5
2C11
331
2B23
  5
2B23
331
29D1
  5
29D1
331
2992
  5
2992
331
295B
  5
295B
331
1984
  5
1984
331
29D9
  5
29D9
331
299A
  5
299A
331
2963
  5
2963
331
29E1
  5
29E1
331
29A2
  5
29A2
331
296B
  5
296B
331
29AA
  5
29AA
331
29E9
  5
29E9
331
2973
  5
2973
331
3472
  5
3473
331
347A
  5
347B
331
3482
  5
3483
331
2C68
  5
2C68
331
2C19
  5
2C19
331
2B9A
  5
2B9A
331
2B2B
  5
2B2B
331
2A0E
  5
2A0E
331
2C21
  5
2C21
331
2BA2
  5
2BA2
331
2B33
  5
2B33
331
2A16
  5
2A16
331
2C78
  5
2C78
331
2D67
  5
2D67
331
2C29
  5
2C29
331
2BAA
  5
2BAA
331
2B3B
  5
2B3B
331
2A1E
  5
2A1E
331
2CA0
  5
2CA0
331
2BB2
  5
2BB2
331
2B04
  5
2B04
331
2A26
  5
2A26
331
2A7D
  5
2A7D
331
29F1
  5
29F1
331
297B
  5
297B
331
29B2
  5
29B2
331
29F9
  5
29F9
331
2983
  5
2983
331
29BA
  5
29BA
331
2A01
  5
2A01
331
298B
  5
298B
331
29C2
  5
29C2
331
294C
  5
294C
331
29CA
  5
29CA
331
2954
  5
2954
331
2C41
  5
2C41
331
2B83
  5
2B83
331
2A8D
  5
2A8D
331
2B0C
  5
2B0C
331
2B8B
  5
2B8B
331
2A9D
  5
2A9D
331
2B14
  5
2B14
331
2A36
  5
2A36
331
2B93
  5
2B93
331
2C0A
  5
2C0A
331
2AA5
  5
2AA5
331
2B1C
  5
2B1C
331
2A46
  5
2A46
331
2C12
  5
2C12
331
2B24
  5
2B24
331
29D2
  5
29D2
331
2993
  5
2993
331
295C
  5
295C
331
29DA
  5
29DA
331
299B
  5
299B
331
2964
  5
2964
331
29E2
  5
29E2
331
29A3
  5
29A3
331
296C
  5
296C
331
29AB
  5
29AB
331
29EA
  5
29EA
331
1A1D
  5
1A1D
331
2974
  5
2974
331
3473
  5
3474
331
347B
  5
347C
331
3483
  5
3484
331
2C1A
  5
2C1A
331
2B9B
  5
2B9B
331
2B2C
  5
2B2C
331
2AB5
  5
2AB5
331
2A56
  5
2A56
331
2A0F
  5
2A0F
331
2C22
  5
2C22
331
2BA3
  5
2BA3
331
2B34
  5
2B34
331
2A17
  5
2A17
331
2C79
  5
2C79
331
2C2A
  5
2C2A
331
2BAB
  5
2BAB
331
2A1F
  5
2A1F
331
2CA1
  5
2CA1
331
2BB3
  5
2BB3
331
2B05
  5
2B05
331
2A27
  5
2A27
331
2C3A
  5
2C3A
331
29F2
  5
29F2
331
297C
  5
297C
331
29B3
  5
29B3
331
29FA
  5
29FA
331
2984
  5
2984
331
29BB
  5
29BB
331
E1F
  5
E1F
331
2A02
  5
2A02
331
298C
  5
298C
331
29C3
  5
29C3
331
294D
  5
294D
331
29CB
  5
29CB
331
2955
  5
2955
331
32DE
  5
32DE
331
2C42
  5
2C42
331
2B84
  5
2B84
331
2A8E
  5
2A8E
331
2B0D
  5
2B0D
331
2B8C
  5
2B8C
331
2A9E
  5
2A9E
331
2B15
  5
2B15
331
2A37
  5
2A37
331
2B94
  5
2B94
331
2C0B
  5
2C0B
331
2AA6
  5
2AA6
331
2B1D
  5
2B1D
331
2A47
  5
2A47
331
2C13
  5
2C13
331
2B25
  5
2B25
331
29D3
  5
29D3
331
2994
  5
2994
331
295D
  5
295D
331
29DB
  5
29DB
331
299C
  5
299C
331
2965
  5
2965
331
1A0E
  5
1A0E
331
29E3
  5
29E3
331
29A4
  5
29A4
331
296D
  5
296D
331
29AC
  5
29AC
331
29EB
  5
29EB
331
2975
  5
2975
331
3474
  5
3475
331
347C
  5
347D
331
3484
  5
3485
331
2A08
  5
2A08
331
2C1B
  5
2C1B
331
2B9C
  5
2B9C
331
2B2D
  5
2B2D
331
2A10
  5
2A10
331
2AB6
  5
2AB6
331
2C23
  5
2C23
331
2BA4
  5
2BA4
331
2B35
  5
2B35
331
2A18
  5
2A18
331
2C7A
  5
2C7A
331
2C2B
  5
2C2B
331
2BAC
  5
2BAC
331
2A20
  5
2A20
331
2CA2
  5
2CA2
331
2BB4
  5
2BB4
331
2B06
  5
2B06
331
2C3B
  5
2C3B
331
29B4
  5
29B4
331
29F3
  5
29F3
331
297D
  5
297D
331
29FB
  5
29FB
331
2985
  5
2985
331
29BC
  5
29BC
331
2A03
  5
2A03
331
294E
  5
294E
331
298D
  5
298D
331
29C4
  5
29C4
331
2956
  5
2956
331
29CC
  5
29CC
331
32DF
  5
32DF
  0
DIMASSOC
  5
2D11
102
{ACAD_REACTORS
330
2D10
102
}
330
2D10
100
AcDbDimAssoc
330
2D03
 90
        3
 70
     0
 71
     0
  1
AcDbOsnapPointRef
 72
    13
331
295A
 73
     0
 91
        0
 40
0.0
 10
0.0
 20
0.0
 30
2.000000000000000E+50
 75
     0
  1
AcDbOsnapPointRef
 72
     1
331
297A
 73
     0
 91
        0
 40
0.0
 10
0.0
 20
0.0
 30
2.000000000000000E+50
 75
     0
  0
DIMASSOC
  5
2D79
102
{ACAD_REACTORS
330
2D78
102
}
330
2D78
100
AcDbDimAssoc
330
2D6C
 90
        2
 70
     0
 71
     0
  1
AcDbOsnapPointRef
 72
     3
331
2979
 73
     2
 91
        0
 40
0.0
 10
0.0
 20
0.0
 30
0.0
 75
     0
  0
LAYOUT
  5
22
102
{ACAD_XDICTIONARY
360
3CDB
102
}
102
{ACAD_REACTORS
330
1A
102
}
330
1A
100
AcDbPlotSettings
  1

  2
\\RD\EPSON Stylus C63 Series單色
  4
A4
  6

 40
3.757083177566528
 41
3.757076978683471
 42
3.757080078125
 43
3.757080078125
 44
209.9733276367187
 45
296.9683227539062
 46
0.0
 47
0.0
 48
0.0
 49
0.0
140
0.0
141
0.0
142
1.0
143
0.3405120737814363
 70
 11952
 72
     1
 73
     0
 74
     0
  7
單色出圖.ctb
 75
     0
147
2.936753428137963
148
-2047.07469463503
149
-1261.649717473083
100
AcDbLayout
  1
Model
 70
     1
 71
     0
 10
0.0
 20
0.0
 11
12.0
 21
9.0
 12
0.0
 22
0.0
 32
0.0
 14
0.0
 24
0.0
 34
0.0
 15
0.0
 25
0.0
 35
0.0
146
0.0
 13
0.0
 23
0.0
 33
0.0
 16
1.0
 26
0.0
 36
0.0
 17
0.0
 27
1.0
 37
0.0
 76
     0
330
1F
1001
ACAD_PSEXT
1000
\\RD\EPSON Stylus C63 Series單色
1000
EPSON Stylus C63 Series
1000
\\RD
1000

1070
     0
  0
LAYOUT
  5
1E
102
{ACAD_XDICTIONARY
360
3CD9
102
}
102
{ACAD_REACTORS
330
1A
102
}
330
1A
100
AcDbPlotSettings
  1

  2

  4

  6

 40
0.0
 41
0.0
 42
0.0
 43
0.0
 44
0.0
 45
0.0
 46
0.0
 47
0.0
 48
0.0
 49
0.0
140
0.0
141
0.0
142
1.0
143
1.0
 70
   688
 72
     0
 73
     0
 74
     5
  7
單色出圖.ctb
 75
    16
147
1.0
148
0.0
149
0.0
100
AcDbLayout
  1
配置1
 70
     1
 71
     1
 10
0.0
 20
0.0
 11
420.0
 21
297.0
 12
0.0
 22
0.0
 32
0.0
 14
1.000000000000000E+20
 24
1.000000000000000E+20
 34
1.000000000000000E+20
 15
-1.000000000000000E+20
 25
-1.000000000000000E+20
 35
-1.000000000000000E+20
146
0.0
 13
0.0
 23
0.0
 33
0.0
 16
1.0
 26
0.0
 36
0.0
 17
0.0
 27
1.0
 37
0.0
 76
     0
330
1B
  0
LAYOUT
  5
26
102
{ACAD_XDICTIONARY
360
3CDD
102
}
102
{ACAD_REACTORS
330
1A
102
}
330
1A
100
AcDbPlotSettings
  1

  2

  4

  6

 40
0.0
 41
0.0
 42
0.0
 43
0.0
 44
0.0
 45
0.0
 46
0.0
 47
0.0
 48
0.0
 49
0.0
140
0.0
141
0.0
142
1.0
143
1.0
 70
   688
 72
     0
 73
     0
 74
     5
  7
單色出圖.ctb
 75
    16
147
1.0
148
0.0
149
0.0
100
AcDbLayout
  1
配置2
 70
     1
 71
     2
 10
0.0
 20
0.0
 11
12.0
 21
9.0
 12
0.0
 22
0.0
 32
0.0
 14
0.0
 24
0.0
 34
0.0
 15
0.0
 25
0.0
 35
0.0
146
0.0
 13
0.0
 23
0.0
 33
0.0
 16
1.0
 26
0.0
 36
0.0
 17
0.0
 27
1.0
 37
0.0
 76
     0
330
23
  0
MLINESTYLE
  5
18
102
{ACAD_REACTORS
330
17
102
}
330
17
100
AcDbMlineStyle
  2
STANDARD
 70
     0
  3

 62
   256
 51
90.0
 52
90.0
 71
     2
 49
0.5
 62
   256
  6
BYLAYER
 49
-0.5
 62
   256
  6
BYLAYER
  0
ACDBPLACEHOLDER
  5
F
102
{ACAD_REACTORS
330
E
102
}
330
E
  0
TABLESTYLE
  5
11B
102
{ACAD_REACTORS
330
11A
102
}
330
11A
100
AcDbTableStyle
  3
Standard
 70
     0
 71
     0
 40
1.5
 41
1.5
280
     0
281
     0
  7
STANDARD
140
4.5
170
     2
 62
     0
 63
     7
283
     0
274
    -2
284
     1
 64
     0
275
    -2
285
     1
 65
     0
276
    -2
286
     1
 66
     0
277
    -2
287
     1
 67
     0
278
    -2
288
     1
 68
     0
279
    -2
289
     1
 69
     0
  7
STANDARD
140
6.0
170
     5
 62
     0
 63
     7
283
     0
274
    -2
284
     1
 64
     0
275
    -2
285
     1
 65
     0
276
    -2
286
     1
 66
     0
277
    -2
287
     1
 67
     0
278
    -2
288
     1
 68
     0
279
    -2
289
     1
 69
     0
  7
STANDARD
140
4.5
170
     5
 62
     0
 63
     7
283
     0
274
    -2
284
     1
 64
     0
275
    -2
285
     1
 65
     0
276
    -2
286
     1
 66
     0
277
    -2
287
     1
 67
     0
278
    -2
288
     1
 68
     0
279
    -2
289
     1
 69
     0
  0
DICTIONARYVAR
  5
138
102
{ACAD_REACTORS
330
94
102
}
330
94
100
DictionaryVariables
280
     0
  1
STANDARD
  0
DICTIONARYVAR
  5
96
102
{ACAD_REACTORS
330
94
102
}
330
94
100
DictionaryVariables
280
     0
  1
2
  0
DICTIONARYVAR
  5
95
102
{ACAD_REACTORS
330
94
102
}
330
94
100
DictionaryVariables
280
     0
  1
1
  0
DICTIONARYVAR
  5
2F78
102
{ACAD_REACTORS
330
94
102
}
330
94
100
DictionaryVariables
280
     0
  1

  0
DICTIONARY
  5
1B5
102
{ACAD_REACTORS
330
5B
102
}
330
5B
100
AcDbDictionary
281
     1
  0
DICTIONARY
  5
61
102
{ACAD_REACTORS
330
5B
102
}
330
5B
100
AcDbDictionary
281
     1
  0
XRECORD
  5
123
102
{ACAD_REACTORS
330
5B
102
}
330
5B
100
AcDbXrecord
280
     1
 90
-1023410169
  0
LAYER_INDEX
  5
319E
102
{ACAD_REACTORS
330
319D
102
}
330
319D
100
AcDbIndex
 40
2454634.691983033
100
AcDbLayerIndex
  8
0
360
319F
 90
       25
  8
Defpoints
360
31A0
 90
        0
  8
AM_7
360
31A1
 90
      135
  8
LOGO
360
31A2
 90
      120
  8
AM_VIS
360
31A3
 90
      464
  8
AM_4
360
31A4
 90
       14
  8
AM_0
360
31A5
 90
        2
  8
AM_5
360
31A6
 90
        8
  8
AM_HID
360
3ACA
 90
       37
  8
AM_PARDIM
360
3ACB
 90
        0
  8
AM_REFDIM
360
3ACC
 90
        0
  8
BORDER
360
3ACD
 90
        0
  0
DICTIONARY
  5
3CDB
330
22
100
AcDbDictionary
280
     1
281
     1
  3
ACAD_XREC_ROUNDTRIP
360
3CDC
  0
DICTIONARY
  5
3CD9
330
1E
100
AcDbDictionary
280
     1
281
     1
  3
ACAD_XREC_ROUNDTRIP
360
3CDA
  0
DICTIONARY
  5
3CDD
330
26
100
AcDbDictionary
280
     1
281
     1
  3
ACAD_XREC_ROUNDTRIP
360
3CDE
  0
IDBUFFER
  5
319F
330
0
100
AcDbIdBuffer
330
3CA7
330
1984
330
1A0E
330
1A0F
330
1A10
330
1A18
330
1A19
330
1A1A
330
1A1B
330
1A1D
330
2A49
330
2A8F
330
2AA1
330
2AB9
330
2C57
330
2C69
330
2C7B
330
2F2E
330
32DE
330
32DF
330
32E0
330
3488
330
3489
330
3CA5
330
3CA6
  0
IDBUFFER
  5
31A0
330
0
100
AcDbIdBuffer
  0
IDBUFFER
  5
31A1
330
0
100
AcDbIdBuffer
330
2A36
330
2A37
330
2A45
330
2A46
330
2A47
330
2A48
330
2A56
330
2A63
330
2A70
330
2A7D
330
2A8B
330
2A8C
330
2A8D
330
2A8E
330
2A9D
330
2A9E
330
2A9F
330
2AA0
330
2AA6
330
2AA7
330
2AB5
330
2AB6
330
2AB7
330
2AB8
330
2ABA
330
2AFF
330
2B00
330
2B01
330
2B02
330
2B03
330
2B04
330
2B05
330
2B06
330
2B07
330
2B08
330
2B09
330
2B0A
330
2B0B
330
2B0C
330
2B0D
330
2B0E
330
2B0F
330
2B10
330
2B11
330
2B12
330
2B13
330
2B14
330
2B15
330
2B16
330
2B17
330
2B18
330
2B19
330
2B1A
330
2B1B
330
2B1C
330
2B3A
330
2B3B
330
2B7E
330
2B7F
330
2B80
330
2B81
330
2B82
330
2B83
330
2B84
330
2B85
330
2B86
330
2B87
330
2B88
330
2B89
330
2B8A
330
2B8B
330
2B8C
330
2B8D
330
2B8E
330
2B8F
330
2B90
330
2B91
330
2C53
330
2C54
330
2C55
330
2C56
330
2C65
330
2C66
330
2C67
330
2C68
330
2C77
330
2C78
330
2C79
330
2C7A
330
2CA0
330
2CA1
330
2CA2
330
2CA3
330
2CA4
330
2CA5
330
2CA6
330
2CA7
330
3480
330
3481
330
3482
330
3483
330
3484
330
3485
330
3486
330
3487
330
3961
330
3962
330
3963
330
3964
330
3965
330
3966
330
3968
330
3969
330
396A
330
396B
330
396C
330
396D
330
396E
330
3972
330
3973
330
3A5F
330
3A60
330
3A61
330
3A62
330
3A63
330
3A64
330
3A65
330
3A66
330
3A67
330
3A68
330
3A69
330
3A6A
330
3A6B
330
3A6D
330
3A6E
  0
IDBUFFER
  5
31A2
330
0
100
AcDbIdBuffer
330
1970
330
3C19
330
3C1A
330
3C1B
330
3C1C
330
3C1D
330
3C1E
330
3C1F
330
3C20
330
3C21
330
3C22
330
3C23
330
3C24
330
3C25
330
3C26
330
3C27
330
3C28
330
3C29
330
3C2A
330
3C2B
330
3C2C
330
3C2D
330
3C2E
330
3C2F
330
3C33
330
3C37
330
3C38
330
3C3C
330
3C3D
330
3C3E
330
3C3F
330
3C40
330
3C41
330
3C42
330
3C43
330
3C47
330
3C4B
330
3C4F
330
3C50
330
3C51
330
3C55
330
3C56
330
3C57
330
3C58
330
3C59
330
3C5A
330
3C5B
330
3C5C
330
3C5D
330
3C5E
330
3C5F
330
3C60
330
3C61
330
3C62
330
3C63
330
3C64
330
3C65
330
3C66
330
3C67
330
3C68
330
3C69
330
3C6A
330
3C6B
330
3C6C
330
3C6D
330
3C6E
330
3C6F
330
3C70
330
3C71
330
3C72
330
3C73
330
3C74
330
3C75
330
3C76
330
3C77
330
3C78
330
3C79
330
3C7A
330
3C7B
330
3C7C
330
3C7D
330
3C7E
330
3C7F
330
3C80
330
3C81
330
3C82
330
3C83
330
3C84
330
3C85
330
3C86
330
3C87
330
3C88
330
3C89
330
3C8A
330
3C8B
330
3C8C
330
3C8D
330
3C8E
330
3C8F
330
3C90
330
3C91
330
3C92
330
3C93
330
3C94
330
3C95
330
3C96
330
3C97
330
3C98
330
3C99
330
3C9A
330
3C9B
330
3C9C
330
3C9D
330
3C9E
330
3C9F
330
3CA0
330
3CA1
330
3CA2
330
3CA3
330
3CA4
  0
IDBUFFER
  5
31A3
330
0
100
AcDbIdBuffer
330
2949
330
294A
330
294B
330
294C
330
294D
330
294E
330
294F
330
2950
330
2951
330
2952
330
2953
330
2954
330
2955
330
2956
330
2957
330
2958
330
2959
330
295A
330
295B
330
295C
330
295D
330
295E
330
295F
330
2960
330
2961
330
2962
330
2963
330
2964
330
2965
330
2966
330
2967
330
2968
330
2969
330
296A
330
296B
330
296C
330
296D
330
296E
330
296F
330
2970
330
2971
330
2972
330
2973
330
2974
330
2975
330
2976
330
2977
330
2978
330
2979
330
297A
330
297B
330
297C
330
297D
330
297E
330
297F
330
2980
330
2981
330
2982
330
2983
330
2984
330
2985
330
2986
330
2987
330
2988
330
2989
330
298A
330
298B
330
298C
330
298D
330
298E
330
298F
330
2990
330
2991
330
2992
330
2993
330
2994
330
2995
330
2996
330
2997
330
2998
330
2999
330
299A
330
299B
330
299C
330
299D
330
299E
330
299F
330
29A0
330
29A1
330
29A2
330
29A3
330
29A4
330
29A5
330
29A6
330
29A7
330
29A8
330
29A9
330
29AA
330
29AB
330
29AC
330
29AD
330
29AE
330
29AF
330
29B0
330
29B1
330
29B2
330
29B3
330
29B4
330
29B5
330
29B6
330
29B7
330
29B8
330
29B9
330
29BA
330
29BB
330
29BC
330
29BD
330
29BE
330
29C0
330
29C1
330
29C2
330
29C3
330
29C4
330
29C5
330
29C7
330
29C8
330
29C9
330
29CA
330
29CB
330
29CC
330
29CD
330
29CE
330
29D0
330
29D1
330
29D2
330
29D3
330
29D5
330
29D6
330
29D7
330
29D8
330
29D9
330
29DA
330
29DB
330
29DC
330
29DD
330
29DE
330
29DF
330
29E0
330
29E1
330
29E2
330
29E3
330
29E4
330
29E5
330
29E6
330
29E7
330
29E8
330
29E9
330
29EA
330
29EB
330
29EC
330
29ED
330
29EE
330
29EF
330
29F0
330
29F1
330
29F2
330
29F3
330
29F4
330
29F5
330
29F6
330
29F7
330
29F8
330
29F9
330
29FA
330
29FB
330
29FC
330
29FD
330
29FE
330
29FF
330
2A00
330
2A01
330
2A02
330
2A03
330
2A04
330
2A05
330
2A06
330
2A07
330
2A08
330
2A09
330
2A0A
330
2A0B
330
2A0C
330
2A0D
330
2A0E
330
2A0F
330
2A10
330
2A11
330
2A12
330
2A13
330
2A14
330
2A15
330
2A16
330
2A17
330
2A18
330
2A19
330
2A1A
330
2A1B
330
2A1C
330
2A1D
330
2A1E
330
2A1F
330
2A20
330
2A21
330
2A22
330
2A23
330
2A24
330
2A25
330
2A26
330
2A27
330
2A28
330
2B1D
330
2B1E
330
2B1F
330
2B20
330
2B21
330
2B22
330
2B23
330
2B24
330
2B25
330
2B26
330
2B27
330
2B28
330
2B29
330
2B2A
330
2B2B
330
2B2C
330
2B2D
330
2B2E
330
2B2F
330
2B30
330
2B31
330
2B32
330
2B33
330
2B34
330
2B35
330
2B36
330
2B37
330
2B38
330
2B39
330
2B92
330
2B93
330
2B94
330
2B95
330
2B96
330
2B97
330
2B98
330
2B99
330
2B9A
330
2B9B
330
2B9C
330
2B9D
330
2B9E
330
2B9F
330
2BA0
330
2BA1
330
2BA2
330
2BA3
330
2BA4
330
2BA5
330
2BA6
330
2BA7
330
2BA8
330
2BA9
330
2BAA
330
2BAB
330
2BAC
330
2BAD
330
2BAE
330
2BAF
330
2BB0
330
2BB1
330
2BB2
330
2BB3
330
2BB4
330
2BB5
330
2BB6
330
2BB7
330
2BB8
330
2C06
330
2C07
330
2C08
330
2C09
330
2C0A
330
2C0B
330
2C0C
330
2C0D
330
2C0E
330
2C0F
330
2C10
330
2C11
330
2C12
330
2C13
330
2C14
330
2C15
330
2C16
330
2C17
330
2C18
330
2C19
330
2C1A
330
2C1B
330
2C1C
330
2C1D
330
2C1E
330
2C1F
330
2C20
330
2C21
330
2C22
330
2C23
330
2C24
330
2C25
330
2C26
330
2C27
330
2C28
330
2C29
330
2C2A
330
2C2B
330
2C3A
330
2C3B
330
2C3C
330
2C3D
330
2C3E
330
2C3F
330
2C40
330
2C41
330
2C42
330
2C43
330
2C44
330
2C45
330
3472
330
3473
330
3474
330
3475
330
3476
330
3477
330
3478
330
3479
330
347A
330
347B
330
347C
330
347D
330
347E
330
347F
330
3977
330
3978
330
3979
330
397A
330
397B
330
397C
330
397D
330
397E
330
397F
330
3980
330
3981
330
3982
330
3983
330
3984
330
3985
330
3986
330
3987
330
3988
330
3989
330
398C
330
398D
330
398E
330
398F
330
3994
330
3995
330
3996
330
3997
330
3998
330
3999
330
399A
330
399B
330
399D
330
399E
330
399F
330
39A0
330
39A1
330
39AA
330
39AB
330
39AC
330
39AD
330
39B2
330
39B5
330
39B6
330
39B7
330
39B8
330
39BA
330
3A74
330
3A75
330
3A76
330
3A77
330
3A78
330
3A79
330
3A7B
330
3A7C
330
3A7D
330
3A7E
330
3A7F
330
3A80
330
3A83
330
3A84
330
3A85
330
3A86
330
3A87
330
3A88
330
3A89
330
3A8A
330
3A8B
330
3A8C
330
3A8D
330
3A8E
330
3A8F
330
3A90
330
3A91
330
3A92
330
3A93
330
3A94
330
3A95
330
3A96
330
3A97
330
3A98
330
3A99
330
3A9A
330
3A9B
330
3A9C
330
3A9D
330
3A9E
330
3A9F
330
3AA0
330
3AA1
330
3AA2
330
3AA3
330
3AA4
330
3AA5
330
3AA6
330
3AA7
330
3AA8
330
3AA9
330
3AAA
330
3AAB
330
3AAC
330
3AAD
330
3AAE
330
3AAF
330
3AB2
330
3AB3
330
3AB4
330
3AB5
330
3ABE
330
3ABF
330
3AC0
330
3AC1
330
3AC2
  0
IDBUFFER
  5
31A4
330
0
100
AcDbIdBuffer
330
2AA2
330
2AA4
330
396F
330
3970
330
3971
330
3974
330
3975
330
3976
330
3A6C
330
3A6F
330
3A70
330
3A71
330
3A72
330
3A73
  0
IDBUFFER
  5
31A5
330
0
100
AcDbIdBuffer
330
2AA3
330
2AA5
  0
IDBUFFER
  5
31A6
330
0
100
AcDbIdBuffer
330
E1F
330
2D03
330
2D44
330
2D45
330
2D46
330
2D66
330
2D67
330
2D6C
  0
IDBUFFER
  5
3ACA
330
0
100
AcDbIdBuffer
330
398A
330
398B
330
3990
330
3991
330
3992
330
3993
330
399C
330
39A2
330
39A3
330
39A4
330
39A5
330
39A6
330
39A7
330
39A8
330
39A9
330
39AE
330
39AF
330
39B0
330
39B1
330
39B3
330
39B4
330
39B9
330
3A7A
330
3A81
330
3A82
330
3AB0
330
3AB1
330
3AB6
330
3AB7
330
3AB8
330
3AB9
330
3ABA
330
3ABB
330
3ABC
330
3ABD
330
3AC3
330
3AC4
  0
IDBUFFER
  5
3ACB
330
0
100
AcDbIdBuffer
  0
IDBUFFER
  5
3ACC
330
0
100
AcDbIdBuffer
  0
IDBUFFER
  5
3ACD
330
0
100
AcDbIdBuffer
  0
XRECORD
  5
3CDC
102
{ACAD_REACTORS
330
3CDB
102
}
330
3CDB
100
AcDbXrecord
280
     1
102
SHADEPLOT
 70
     0
102
SHADEPLOTRESLEVEL
 70
     2
102
SHADEPLOTCUSTOMDPI
 70
   300
  0
XRECORD
  5
3CDA
102
{ACAD_REACTORS
330
3CD9
102
}
330
3CD9
100
AcDbXrecord
280
     1
102
SHADEPLOT
 70
     0
102
SHADEPLOTRESLEVEL
 70
     2
102
SHADEPLOTCUSTOMDPI
 70
   300
  0
XRECORD
  5
3CDE
102
{ACAD_REACTORS
330
3CDD
102
}
330
3CDD
100
AcDbXrecord
280
     1
102
SHADEPLOT
 70
     0
102
SHADEPLOTRESLEVEL
 70
     2
102
SHADEPLOTCUSTOMDPI
 70
   300
  0
ENDSEC
  0
EOF
