  0
SECTION
  2
HEADER
  9
$ACADVER
  1
AC1015
  9
$ACADMAINTVER
 70
    20
  9
$DWGCODEPAGE
  3
ANSI_950
  9
$INSBASE
 10
0.0
 20
0.0
 30
0.0
  9
$EXTMIN
 10
2127.883049731955
 20
747.5878654592333
 30
-0.0025816325169217
  9
$EXTMAX
 10
2845.891048332325
 20
1335.461550908428
 30
328.8530713879842
  9
$LIMMIN
 10
0.0
 20
0.0
  9
$LIMMAX
 10
420.0
 20
297.0
  9
$ORTHOMODE
 70
     1
  9
$REGENMODE
 70
     1
  9
$FILLMODE
 70
     1
  9
$QTEXTMODE
 70
     0
  9
$MIRRTEXT
 70
     1
  9
$LTSCALE
 40
1.0
  9
$ATTMODE
 70
     1
  9
$TEXTSIZE
 40
3.0
  9
$TRACEWID
 40
1.0
  9
$TEXTSTYLE
  7
CHINESET
  9
$CLAYER
  8
0
  9
$CELTYPE
  6
ByLayer
  9
$CECOLOR
 62
   256
  9
$CELTSCALE
 40
1.0
  9
$DISPSILH
 70
     0
  9
$DIMSCALE
 40
1.0
  9
$DIMASZ
 40
3.0
  9
$DIMEXO
 40
1.0
  9
$DIMDLI
 40
8.0
  9
$DIMRND
 40
0.0
  9
$DIMDLE
 40
0.0
  9
$DIMEXE
 40
1.5
  9
$DIMTP
 40
-0.05
  9
$DIMTM
 40
0.4
  9
$DIMTXT
 40
3.0
  9
$DIMCEN
 40
0.0
  9
$DIMTSZ
 40
0.0
  9
$DIMTOL
 70
     0
  9
$DIMLIM
 70
     0
  9
$DIMTIH
 70
     0
  9
$DIMTOH
 70
     0
  9
$DIMSE1
 70
     0
  9
$DIMSE2
 70
     0
  9
$DIMTAD
 70
     1
  9
$DIMZIN
 70
     8
  9
$DIMBLK
  1

  9
$DIMASO
 70
     1
  9
$DIMSHO
 70
     1
  9
$DIMPOST
  1

  9
$DIMAPOST
  1
"
  9
$DIMALT
 70
     0
  9
$DIMALTD
 70
     2
  9
$DIMALTF
 40
0.0393701
  9
$DIMLFAC
 40
1.0
  9
$DIMTOFL
 70
     1
  9
$DIMTVP
 40
0.0
  9
$DIMTIX
 70
     0
  9
$DIMSOXD
 70
     0
  9
$DIMSAH
 70
     0
  9
$DIMBLK1
  1

  9
$DIMBLK2
  1

  9
$DIMSTYLE
  2
AM_ISO
  9
$DIMCLRD
 70
   256
  9
$DIMCLRE
 70
   256
  9
$DIMCLRT
 70
   256
  9
$DIMTFAC
 40
0.71
  9
$DIMGAP
 40
1.0
  9
$DIMJUST
 70
     0
  9
$DIMSD1
 70
     0
  9
$DIMSD2
 70
     0
  9
$DIMTOLJ
 70
     0
  9
$DIMTZIN
 70
     8
  9
$DIMALTZ
 70
     0
  9
$DIMALTTZ
 70
     0
  9
$DIMUPT
 70
     0
  9
$DIMDEC
 70
     2
  9
$DIMTDEC
 70
     8
  9
$DIMALTU
 70
     2
  9
$DIMALTTD
 70
     2
  9
$DIMTXSTY
  7
STANDARD
  9
$DIMAUNIT
 70
     0
  9
$DIMADEC
 70
     0
  9
$DIMALTRND
 40
0.0
  9
$DIMAZIN
 70
     2
  9
$DIMDSEP
 70
    46
  9
$DIMATFIT
 70
     3
  9
$DIMFRAC
 70
     0
  9
$DIMLDRBLK
  1

  9
$DIMLUNIT
 70
     2
  9
$DIMLWD
 70
    -1
  9
$DIMLWE
 70
    -1
  9
$DIMTMOVE
 70
     0
  9
$LUNITS
 70
     2
  9
$LUPREC
 70
     2
  9
$SKETCHINC
 40
1.0
  9
$FILLETRAD
 40
2.5
  9
$AUNITS
 70
     0
  9
$AUPREC
 70
     0
  9
$MENU
  1
.
  9
$ELEVATION
 40
0.0
  9
$PELEVATION
 40
0.0
  9
$THICKNESS
 40
0.0
  9
$LIMCHECK
 70
     0
  9
$CHAMFERA
 40
2.5
  9
$CHAMFERB
 40
2.5
  9
$CHAMFERC
 40
20.0
  9
$CHAMFERD
 40
0.0
  9
$SKPOLY
 70
     0
  9
$TDCREATE
 40
2453580.633342373
  9
$TDUCREATE
 40
2453580.300009039
  9
$TDUPDATE
 40
2454942.423265162
  9
$TDUUPDATE
 40
2454942.089931829
  9
$TDINDWG
 40
0.7938750579
  9
$TDUSRTIMER
 40
0.7938750579
  9
$USRTIMER
 70
     1
  9
$ANGBASE
 50
0.0
  9
$ANGDIR
 70
     0
  9
$PDMODE
 70
     0
  9
$PDSIZE
 40
0.0
  9
$PLINEWID
 40
0.0
  9
$SPLFRAME
 70
     0
  9
$SPLINETYPE
 70
     6
  9
$SPLINESEGS
 70
     8
  9
$HANDSEED
  5
38DE
  9
$SURFTAB1
 70
     6
  9
$SURFTAB2
 70
     6
  9
$SURFTYPE
 70
     6
  9
$SURFU
 70
     6
  9
$SURFV
 70
     6
  9
$UCSBASE
  2

  9
$UCSNAME
  2

  9
$UCSORG
 10
0.0
 20
0.0
 30
0.0
  9
$UCSXDIR
 10
1.0
 20
0.0
 30
0.0
  9
$UCSYDIR
 10
0.0
 20
1.0
 30
0.0
  9
$UCSORTHOREF
  2

  9
$UCSORTHOVIEW
 70
     0
  9
$UCSORGTOP
 10
0.0
 20
0.0
 30
0.0
  9
$UCSORGBOTTOM
 10
0.0
 20
0.0
 30
0.0
  9
$UCSORGLEFT
 10
0.0
 20
0.0
 30
0.0
  9
$UCSORGRIGHT
 10
0.0
 20
0.0
 30
0.0
  9
$UCSORGFRONT
 10
0.0
 20
0.0
 30
0.0
  9
$UCSORGBACK
 10
0.0
 20
0.0
 30
0.0
  9
$PUCSBASE
  2

  9
$PUCSNAME
  2

  9
$PUCSORG
 10
0.0
 20
0.0
 30
0.0
  9
$PUCSXDIR
 10
1.0
 20
0.0
 30
0.0
  9
$PUCSYDIR
 10
0.0
 20
1.0
 30
0.0
  9
$PUCSORTHOREF
  2

  9
$PUCSORTHOVIEW
 70
     0
  9
$PUCSORGTOP
 10
0.0
 20
0.0
 30
0.0
  9
$PUCSORGBOTTOM
 10
0.0
 20
0.0
 30
0.0
  9
$PUCSORGLEFT
 10
0.0
 20
0.0
 30
0.0
  9
$PUCSORGRIGHT
 10
0.0
 20
0.0
 30
0.0
  9
$PUCSORGFRONT
 10
0.0
 20
0.0
 30
0.0
  9
$PUCSORGBACK
 10
0.0
 20
0.0
 30
0.0
  9
$USERI1
 70
     0
  9
$USERI2
 70
     0
  9
$USERI3
 70
     0
  9
$USERI4
 70
     0
  9
$USERI5
 70
     0
  9
$USERR1
 40
0.0
  9
$USERR2
 40
0.0
  9
$USERR3
 40
0.0
  9
$USERR4
 40
0.0
  9
$USERR5
 40
0.0
  9
$WORLDVIEW
 70
     1
  9
$SHADEDGE
 70
     3
  9
$SHADEDIF
 70
    70
  9
$TILEMODE
 70
     1
  9
$MAXACTVP
 70
    64
  9
$PINSBASE
 10
0.0
 20
0.0
 30
0.0
  9
$PLIMCHECK
 70
     0
  9
$PEXTMIN
 10
1.000000000000000E+20
 20
1.000000000000000E+20
 30
1.000000000000000E+20
  9
$PEXTMAX
 10
-1.000000000000000E+20
 20
-1.000000000000000E+20
 30
-1.000000000000000E+20
  9
$PLIMMIN
 10
0.0
 20
0.0
  9
$PLIMMAX
 10
420.0
 20
297.0
  9
$UNITMODE
 70
     0
  9
$VISRETAIN
 70
     1
  9
$PLINEGEN
 70
     0
  9
$PSLTSCALE
 70
     1
  9
$TREEDEPTH
 70
  3020
  9
$CMLSTYLE
  2
Standard
  9
$CMLJUST
 70
     0
  9
$CMLSCALE
 40
20.0
  9
$PROXYGRAPHICS
 70
     1
  9
$MEASUREMENT
 70
     1
  9
$CELWEIGHT
370
    -1
  9
$ENDCAPS
280
     0
  9
$JOINSTYLE
280
     0
  9
$LWDISPLAY
290
     0
  9
$INSUNITS
 70
     4
  9
$HYPERLINKBASE
  1

  9
$STYLESHEET
  1
彩色出圖.ctb
  9
$XEDIT
290
     1
  9
$CEPSNTYPE
380
     0
  9
$PSTYLEMODE
290
     1
  9
$FINGERPRINTGUID
  2
{B9E4BE39-A089-470C-A359-98F2256325D3}
  9
$VERSIONGUID
  2
{AF855D20-FC83-4F05-8BC4-2AE8B4340AF8}
  9
$EXTNAMES
290
     1
  9
$PSVPSCALE
 40
0.0
  9
$OLESTARTUP
290
     0
  0
ENDSEC
  0
SECTION
  2
CLASSES
  0
CLASS
  1
ACDBDICTIONARYWDFLT
  2
AcDbDictionaryWithDefault
  3
ObjectDBX Classes
 90
        0
280
     0
281
     0
  0
CLASS
  1
ACDBPLACEHOLDER
  2
AcDbPlaceHolder
  3
ObjectDBX Classes
 90
        0
280
     0
281
     0
  0
CLASS
  1
LAYOUT
  2
AcDbLayout
  3
ObjectDBX Classes
 90
        0
280
     0
281
     0
  0
CLASS
  1
ACME_DOCUMENT
  2
AcMeDbDoc
  3
AcMeServices
 90
        0
280
     0
281
     0
  0
CLASS
  1
AMGSETTINGSOBJ
  2
AmgSettingsObj
  3
"AcadM|Product Description: AutoCAD Mechanical 2000|Company: Autodesk"
 90
        0
280
     0
281
     0
  0
CLASS
  1
ACMESCOPE
  2
AcMeScope
  3
AcMeServices
 90
        0
280
     0
281
     0
  0
CLASS
  1
ACMECOMMANDHISTORY
  2
AcMeCommandHistory
  3
AcMeServices
 90
        0
280
     0
281
     0
  0
CLASS
  1
ACIMSYSVARMAN
  2
AcImSysVarManager
  3
AcMeServices
 90
        0
280
     0
281
     0
  0
CLASS
  1
ACIMREALSYSVAR
  2
AcImRealSysVar
  3
AcMeServices
 90
        0
280
     0
281
     0
  0
CLASS
  1
ACIMINTSYSVAR
  2
AcImIntSysVar
  3
AcMeServices
 90
        0
280
     0
281
     0
  0
CLASS
  1
ACMEDRAWINGMAN
  2
AcMeDrawingMan
  3
AcMeServices
 90
        0
280
     0
281
     0
  0
CLASS
  1
ACMEVIEW
  2
AcMeView
  3
AcMeServices
 90
        0
280
     0
281
     0
  0
CLASS
  1
ACDBENTITYCACHE
  2
AcMeEntityCache
  3
AcMeServices
 90
        0
280
     0
281
     0
  0
CLASS
  1
GSMANAGER
  2
AcMeGSManager
  3
AcMeServices
 90
        0
280
     0
281
     0
  0
CLASS
  1
AMDTINTERNALREACTOR
  2
AmdtInternalReactor
  3
AcMeServices
 90
        0
280
     0
281
     0
  0
CLASS
  1
ACMESTATEMGR
  2
AcMeStateMgr
  3
AcMeServices
 90
        0
280
     0
281
     0
  0
CLASS
  1
ACGREFMASTER
  2
AcGrefMaster
  3
AcAttribServices
 90
        0
280
     0
281
     0
  0
CLASS
  1
ACME_DATABASE
  2
AcMeDbDatabase
  3
AcMeServices
 90
        0
280
     0
281
     0
  0
CLASS
  1
ACRFINSADJUSTERMGR
  2
AcRfInsAdjusterMgr
  3
AcMeServices
 90
        0
280
     0
281
     0
  0
CLASS
  1
ACGREFACADMASTER
  2
AcGrefacadMaster
  3
AcGrefServices
 90
        0
280
     0
281
     0
  0
CLASS
  1
AMIMASTER
  2
AmiMaster
  3
AmiServices
 90
        0
280
     0
281
     0
  0
CLASS
  1
ACMDATADICTIONARY
  2
AcmDataDictionary
  3
"AcmSymBB|Product Description: AutoCAD Mechanical 2004 DX|Company: Autodesk"
 90
        0
280
     0
281
     0
  0
CLASS
  1
ACMDATAENTRYBLOCK
  2
AcmDataEntryBlock
  3
"AcmSymBB|Product Description: AutoCAD Mechanical 2004 DX|Company: Autodesk"
 90
    32768
280
     0
281
     0
  0
CLASS
  1
ACIMSTRSYSVAR
  2
AcImStrSysVar
  3
AcMeServices
 90
        0
280
     0
281
     0
  0
CLASS
  1
ACMSTANDARDISO
  2
AcmStandardISO
  3
"Amdt_StdImp|Product Description: AutoCAD Mechanical 2004 DX|Company: Autodesk"
 90
        0
280
     0
281
     0
  0
CLASS
  1
AMGOBJPROPCFG
  2
AmgObjPropCfg
  3
"AmgLay|Product Description: AutoCAD Mechanical 2000|Company: Autodesk"
 90
        1
280
     0
281
     0
  0
CLASS
  1
AMDTEDGESTANDARDISO
  2
AmdtEdgeStdISO
  3
"Amdt_StdImp|Product Description: AutoCAD Mechanical 2004 DX|Company: Autodesk"
 90
    32768
280
     0
281
     0
  0
CLASS
  1
ACMSURFSTANDARDISO
  2
AcmSurfTextStdISO
  3
"Amdt_StdImp|Product Description: AutoCAD Mechanical 2004 DX|Company: Autodesk"
 90
        0
280
     0
281
     0
  0
CLASS
  1
ACMFCFSTANDARDISO
  2
AcmFCFStdISO
  3
"Amdt_StdImp|Product Description: AutoCAD Mechanical 2004 DX|Company: Autodesk"
 90
        0
280
     0
281
     0
  0
CLASS
  1
ACMWELDSTANDARDISO
  2
AcmWeldingStdISO
  3
"Amdt_StdImp|Product Description: AutoCAD Mechanical 2004 DX|Company: Autodesk"
 90
        0
280
     0
281
     0
  0
CLASS
  1
ACMIDSTANDARDISO
  2
AcmIdStdISO
  3
"Amdt_StdImp|Product Description: AutoCAD Mechanical 2004 DX|Company: Autodesk"
 90
        0
280
     0
281
     0
  0
CLASS
  1
ACMDATUMSTANDARDISO
  2
AcmDatumStdISO
  3
"Amdt_StdImp|Product Description: AutoCAD Mechanical 2004 DX|Company: Autodesk"
 90
        0
280
     0
281
     0
  0
CLASS
  1
ACMBOMSTANDARDISO
  2
AcmBOMStdISO
  3
"Amdt_StdImp|Product Description: AutoCAD Mechanical 2004 DX|Company: Autodesk"
 90
        0
280
     0
281
     0
  0
CLASS
  1
ACMDETAILSTANDARDISO
  2
AmdtDetailSymStdISO
  3
"Amdt_StdImp|Product Description: AutoCAD Mechanical 2004 DX|Company: Autodesk"
 90
        0
280
     0
281
     0
  0
CLASS
  1
ACMSECTIONSTANDARDISO
  2
AmdtSectionSymStdISO
  3
"Amdt_StdImp|Product Description: AutoCAD Mechanical 2004 DX|Company: Autodesk"
 90
        0
280
     0
281
     0
  0
CLASS
  1
ACMCENTERLINESTANDARDISO
  2
AmdtCenterLineStdISO
  3
"Amdt_StdImp|Product Description: AutoCAD Mechanical 2004 DX|Company: Autodesk"
 90
        0
280
     0
281
     0
  0
CLASS
  1
ACMNOTESTANDARDISO
  2
AmdtNoteStdISO
  3
"Amdt_StdImp|Product Description: AutoCAD Mechanical 2004 DX|Company: Autodesk"
 90
        0
280
     0
281
     0
  0
CLASS
  1
ACAMGLAYSTD
  2
AcAmgLayStd
  3
"AcAmgLayStd|Product Description: AutoCAD Mechanical 2000|Company: Autodesk"
 90
        0
280
     0
281
     0
  0
CLASS
  1
ACAMGDIMSTD
  2
AcAmgDimStd
  3
"AcAmgDimStd|Product Description: AutoCAD Mechanical 2000|Company: Autodesk"
 90
        0
280
     0
281
     0
  0
CLASS
  1
ACAMGHOLECHARTSTDISO
  2
AcAmgHoleChartStdISO
  3
ACMSYMBB_MODULE_NAME
 90
        0
280
     0
281
     0
  0
CLASS
  1
ACAMGTITLESTD
  2
AcAmgTitleStd
  3
"TITLEAPP"
 90
        0
280
     0
281
     0
  0
CLASS
  1
LAYER_INDEX
  2
AcDbLayerIndex
  3
ObjectDBX Classes
 90
    32768
280
     0
281
     0
  0
CLASS
  1
IDBUFFER
  2
AcDbIdBuffer
  3
ObjectDBX Classes
 90
    32768
280
     0
281
     0
  0
CLASS
  1
DICTIONARYVAR
  2
AcDbDictionaryVar
  3
ObjectDBX Classes
 90
        0
280
     0
281
     0
  0
CLASS
  1
AM_DRAWING_MGR
  2
AcDmDwgMgr
  3
AcMechDwgViewMgmt
 90
        0
280
     0
281
     0
  0
CLASS
  1
AM_DWG_DOCUMENT
  2
AcDmDwgDocument
  3
AcMechDwgViewMgmt
 90
        0
280
     0
281
     0
  0
CLASS
  1
AM_DWG_SHEET
  2
AcDmSheet
  3
AcMechDwgViewMgmt
 90
        0
280
     0
281
     0
  0
CLASS
  1
AM_VIEWDIMPARMAP
  2
AcDmViewDimParMap
  3
AcMechDwgViewMgmt
 90
        0
280
     0
281
     0
  0
CLASS
  1
AM_DWGMGR_NAME
  2
AcDmDwgMgrName
  3
AcMechDwgViewMgmt
 90
        0
280
     0
281
     0
  0
CLASS
  1
AMDTMENUSTATEMGR
  2
AmdtMenuStateMgr
  3
McadcomServices
 90
        0
280
     0
281
     0
  0
CLASS
  1
AMDTMCOMMENUSTATE
  2
AmdtMcomMenuState
  3
McadcomServices
 90
        0
280
     0
281
     0
  0
CLASS
  1
MAPIAMMOUDLE
  2
MApiAmModule
  3
MApiAmServices
 90
        0
280
     0
281
     0
  0
CLASS
  1
AMDTADMENUSTATE
  2
AmdtAdMenuState
  3
DesignerServices
 90
        0
280
     0
281
     0
  0
CLASS
  1
ADAPPL
  2
AcAdAppl
  3
DesignerServices
 90
        0
280
     0
281
     0
  0
CLASS
  1
DEPMGR
  2
AcAdDepMgr
  3
DesignerServices
 90
        0
280
     0
281
     0
  0
CLASS
  1
PARAMMGR
  2
AcAdParamMgr
  3
DesignerServices
 90
        0
280
     0
281
     0
  0
CLASS
  1
PARAMSCOPE
  2
AcAdParamScope
  3
DesignerServices
 90
        0
280
     0
281
     0
  0
CLASS
  1
NAMEDAPPL
  2
AcAdNamedAppl
  3
DesignerServices
 90
        0
280
     0
281
     0
  0
CLASS
  1
AMDTDMMENUSTATE
  2
AmdtDmMenuState
  3
AcMechDwgViewMgmt
 90
        0
280
     0
281
     0
  0
CLASS
  1
AMDTAMMENUSTATE
  2
AmdtAmMenuState
  3
DesignerAssemblies
 90
        0
280
     0
281
     0
  0
CLASS
  1
ACAMPROJECT
  2
AcAmProject
  3
DesignerAssemblies
 90
        0
280
     0
281
     0
  0
CLASS
  1
ACAMGRCOMPDEF
  2
AcAmGrCompDef
  3
DesignerAssemblies
 90
        0
280
     0
281
     0
  0
CLASS
  1
ACCMCONTEXT
  2
AcCmContext
  3
DesignerAssemblies
 90
        0
280
     0
281
     0
  0
CLASS
  1
ACAMCOMPDEF
  2
AcAmCompDef
  3
DesignerAssemblies
 90
        0
280
     0
281
     0
  0
CLASS
  1
ACAMCOMPDEFMGR
  2
AcAmCompDefMgr
  3
DesignerAssemblies
 90
        0
280
     0
281
     0
  0
CLASS
  1
AMCONTEXTMGR
  2
AcAmContextMgr
  3
DesignerAssemblies
 90
        0
280
     0
281
     0
  0
CLASS
  1
ACAMCONTEXTMODELER
  2
AcAmContextModeler
  3
DesignerAssemblies
 90
        0
280
     0
281
     0
  0
CLASS
  1
ACMTHREADLINESTANDARDISO
  2
AmdtThreadLineStdISO
  3
"Amdt_StdImp|Product Description: AutoCAD Mechanical 2004 DX|Company: Autodesk"
 90
        0
280
     0
281
     0
  0
CLASS
  1
CATALOGSTATE
  2
AcAmCatalogState
  3
DesignerAssemblies
 90
        0
280
     0
281
     0
  0
CLASS
  1
ACAMGRCOMPDEFSET
  2
AcAmGrCompDefSet
  3
DesignerAssemblies
 90
        0
280
     0
281
     0
  0
CLASS
  1
AMDTBROWSERDBTAB
  2
AmdtBrowserDbTab
  3
McadcomServices
 90
        0
280
     0
281
     0
  0
CLASS
  1
CBROWSERAPPOBJECT
  2
CBrowserAppObject
  3
McadcomServices
 90
        0
280
     0
281
     0
  0
CLASS
  1
DM_PLACEHOLDER
  2
AcDmSelsetPlaceholder
  3
AcMechDwgViewMgmt
 90
        0
280
     0
281
     0
  0
CLASS
  1
TABLESTYLE
  2
AcDbTableStyle
  3
ObjectDBX Classes
 90
     2047
280
     0
281
     0
  0
CLASS
  1
VAACXREFPANELOBJECT
  2
VaAcXREFPanelObject
  3
VAAC_ADDIN
 90
    32768
280
     0
281
     0
  0
CLASS
  1
VAACIMAGEINVENTORY
  2
VaAcImageInventory
  3
VAAC_ADDIN
 90
    32768
280
     0
281
     0
  0
CLASS
  1
AMDTNOTETEMPLATEDB
  2
AmdtNoteTemplateDB
  3
AMDT_STDIMP_MODULE_NAME
 90
        0
280
     0
281
     0
  0
CLASS
  1
ACMBOM
  2
AcmBom
  3
"AcmSymBB|Product Description: AutoCAD Mechanical 2004 DX|Company: Autodesk"
 90
    32768
280
     0
281
     0
  0
CLASS
  1
AMDTFORMULAUPDATEDISPATCHER
  2
AmdtFormulaUpdateDispatcher
  3
AcMeServices
 90
    32768
280
     0
281
     0
  0
CLASS
  1
ACMPARTLIST
  2
AcmPartList
  3
"AcmSymBB|Product Description: AutoCAD Mechanical 2004 DX|Company: Autodesk"
 90
    33791
280
     0
281
     1
  0
CLASS
  1
ACAMGFILTERDAT
  2
AcAmgFilterDat
  3
"AcadM|Product Description: AutoCAD Mechanical 2000|Company: Autodesk"
 90
    32768
280
     0
281
     0
  0
CLASS
  1
DIMASSOC
  2
AcDbDimAssoc
  3
"AcDbDimAssoc|Product Desc:     AcDim ARX App For Dimension|Company:          Autodesk, Inc.|WEB Address:      www.autodesk.com"
 90
        0
280
     0
281
     0
  0
CLASS
  1
SORTENTSTABLE
  2
AcDbSortentsTable
  3
ObjectDBX Classes
 90
        0
280
     0
281
     0
  0
CLASS
  1
AMDTNOTE
  2
AmdtNote
  3
"AcmSymBB|Product Description: AutoCAD Mechanical 2004 DX|Company: Autodesk"
 90
    33791
280
     0
281
     1
  0
CLASS
  1
ACMSTANDARDANSI
  2
AcmStandardANSI
  3
"Amdt_StdImp|Product Description: AutoCAD Mechanical 2004 DX|Company: Autodesk"
 90
        0
280
     0
281
     0
  0
CLASS
  1
ACMSURFSTANDARDANSI
  2
AcmSurfTextStdANSI
  3
"Amdt_StdImp|Product Description: AutoCAD Mechanical 2004 DX|Company: Autodesk"
 90
        0
280
     0
281
     0
  0
CLASS
  1
ACMFCFSTANDARDANSI
  2
AcmFCFStdANSI
  3
"Amdt_StdImp|Product Description: AutoCAD Mechanical 2004 DX|Company: Autodesk"
 90
        0
280
     0
281
     0
  0
CLASS
  1
ACMWELDSTANDARDANSI
  2
AcmWeldingStdANSI
  3
"Amdt_StdImp|Product Description: AutoCAD Mechanical 2004 DX|Company: Autodesk"
 90
        0
280
     0
281
     0
  0
CLASS
  1
ACMIDSTANDARDANSI
  2
AcmIdStdANSI
  3
"Amdt_StdImp|Product Description: AutoCAD Mechanical 2004 DX|Company: Autodesk"
 90
        0
280
     0
281
     0
  0
CLASS
  1
ACMDATUMSTANDARDANSI
  2
AcmDatumStdANSI
  3
"Amdt_StdImp|Product Description: AutoCAD Mechanical 2004 DX|Company: Autodesk"
 90
        0
280
     0
281
     0
  0
CLASS
  1
ACMBOMSTANDARDANSI
  2
AcmBOMStdANSI
  3
"Amdt_StdImp|Product Description: AutoCAD Mechanical 2004 DX|Company: Autodesk"
 90
        0
280
     0
281
     0
  0
CLASS
  1
ACMDETAILSTANDARDANSI
  2
AmdtDetailSymStdANSI
  3
"Amdt_StdImp|Product Description: AutoCAD Mechanical 2004 DX|Company: Autodesk"
 90
        0
280
     0
281
     0
  0
CLASS
  1
ACMSECTIONSTANDARDANSI
  2
AmdtSectionSymStdANSI
  3
"Amdt_StdImp|Product Description: AutoCAD Mechanical 2004 DX|Company: Autodesk"
 90
        0
280
     0
281
     0
  0
CLASS
  1
ACMCENTERLINESTANDARDANSI
  2
AmdtCenterLineStdANSI
  3
"Amdt_StdImp|Product Description: AutoCAD Mechanical 2004 DX|Company: Autodesk"
 90
        0
280
     0
281
     0
  0
CLASS
  1
ACMTHREADLINESTANDARDANSI
  2
AmdtThreadLineStdANSI
  3
"Amdt_StdImp|Product Description: AutoCAD Mechanical 2004 DX|Company: Autodesk"
 90
        0
280
     0
281
     0
  0
CLASS
  1
ACMNOTESTANDARDANSI
  2
AmdtNoteStdANSI
  3
"Amdt_StdImp|Product Description: AutoCAD Mechanical 2004 DX|Company: Autodesk"
 90
        0
280
     0
281
     0
  0
CLASS
  1
ACAMGHOLECHARTSTDANSI
  2
AcAmgHoleChartStdANSI
  3
ACMSYMBB_MODULE_NAME
 90
        0
280
     0
281
     0
  0
CLASS
  1
STDPART2D
  2
AmgStdPart
  3
"AmgStdPart|Product Description: AutoCAD Mechanical 2000|Company: Autodesk"
 90
    33791
280
     0
281
     1
  0
CLASS
  1
ACAMSTDPCOMPDEF
  2
AcAmStdpCompDef
  3
DesignerAssemblies
 90
    32768
280
     0
281
     0
  0
CLASS
  1
ACRFATTGENMGR
  2
AcRfAttGeneralMgr
  3
AcAttribServices
 90
        0
280
     0
281
     0
  0
CLASS
  1
ACRFOBJATTMGR
  2
AcRfObjAttGroupMgr
  3
AcAttribServices
 90
    32768
280
     0
281
     0
  0
CLASS
  1
ACRFMCADAPIATTHOLDER
  2
AcRfMCADAPIAttHolder
  3
AcAttribServices
 90
    32768
280
     0
281
     0
  0
CLASS
  1
AMDTSYSATTR
  2
AmdtSystemAttribute
  3
AcAttribServices
 90
    32768
280
     0
281
     0
  0
CLASS
  1
ACAMCOMP
  2
AcAmComp
  3
DesignerAssemblies
 90
    32768
280
     0
281
     0
  0
CLASS
  1
AC_AM_STDP_VIEW_DEF
  2
AcAmStdpViewDef
  3
DesignerAssemblies
 90
    32768
280
     0
281
     0
  0
CLASS
  1
AC_AM_MVD_DEP_MGR
  2
AcAmMVDdepMgr
  3
DesignerAssemblies
 90
    32768
280
     0
281
     0
  0
CLASS
  1
AC_AM_MASTER_VIEW_DEF
  2
AcAmMasterViewDef
  3
DesignerAssemblies
 90
    32768
280
     0
281
     0
  0
CLASS
  1
AC_AM_DIRTY_NODES
  2
AcAmDirtyNodes
  3
DesignerAssemblies
 90
    32768
280
     0
281
     0
  0
CLASS
  1
AC_AM_MAPPER_CACHE
  2
AcAmMapperCache
  3
DesignerAssemblies
 90
    32768
280
     0
281
     0
  0
CLASS
  1
ACAMMVDBACKUPOBJECT
  2
AcAmMVDBackupObject
  3
DesignerAssemblies
 90
    32768
280
     0
281
     0
  0
CLASS
  1
AC_AM_COMP_VIEW_INST
  2
AcAmCompView
  3
DesignerAssemblies
 90
    32768
280
     0
281
     0
  0
CLASS
  1
AC_AM_2D_XREF_MGR
  2
AcAmXrefMgr2d
  3
DesignerAssemblies
 90
    32768
280
     0
281
     0
  0
CLASS
  1
AMDTEDGESTANDARDISO13715
  2
AmdtEdgeStdISO13715
  3
"Amdt_StdImp|Product Description: AutoCAD Mechanical 2004 DX|Company: Autodesk"
 90
        0
280
     0
281
     0
  0
ENDSEC
  0
SECTION
  2
TABLES
  0
TABLE
  2
VPORT
  5
8
330
0
100
AcDbSymbolTable
 70
   176
  0
VPORT
  5
38D5
330
8
100
AcDbSymbolTableRecord
100
AcDbViewportTableRecord
  2
*Active
 70
     0
 10
0.0
 20
0.0
 11
1.0
 21
1.0
 12
2486.88704903214
 22
1041.52470818383
 13
0.0
 23
0.0
 14
2.5
 24
2.5
 15
10.0
 25
10.0
 16
0.0
 26
0.0
 36
1.0
 17
0.0
 27
0.0
 37
0.0
 40
592.5026121062747
 41
1.247043363994743
 42
50.0
 43
0.0
 44
0.0
 50
0.0
 51
0.0
 71
     0
 72
   100
 73
     1
 74
     3
 75
     0
 76
     0
 77
     0
 78
     0
281
     0
 65
     1
110
0.0
120
0.0
130
0.0
111
1.0
121
0.0
131
0.0
112
0.0
122
1.0
132
0.0
 79
     0
146
0.0
  0
ENDTAB
  0
TABLE
  2
LTYPE
  5
5
330
0
100
AcDbSymbolTable
 70
    19
  0
LTYPE
  5
14
330
5
100
AcDbSymbolTableRecord
100
AcDbLinetypeTableRecord
  2
ByBlock
 70
     0
  3

 72
    65
 73
     0
 40
0.0
  0
LTYPE
  5
15
330
5
100
AcDbSymbolTableRecord
100
AcDbLinetypeTableRecord
  2
ByLayer
 70
     0
  3

 72
    65
 73
     0
 40
0.0
  0
LTYPE
  5
16
330
5
100
AcDbSymbolTableRecord
100
AcDbLinetypeTableRecord
  2
Continuous
 70
     0
  3
Solid line
 72
    65
 73
     0
 40
0.0
  0
LTYPE
  5
64
330
5
100
AcDbSymbolTableRecord
100
AcDbLinetypeTableRecord
  2
AM_ISO02W050
 70
     0
  3
__ __ __ __ __ __ __ __ __ __ __ __ __ __ __
 72
    65
 73
     2
 40
7.5
 49
6.0
 74
     0
 49
-1.5
 74
     0
  0
LTYPE
  5
65
330
5
100
AcDbSymbolTableRecord
100
AcDbLinetypeTableRecord
  2
AM_ISO08W050
 70
     0
  3
____ . ____ . ____ . ____ . ____ . ____ . ____
 72
    65
 73
     4
 40
18.0
 49
12.0
 74
     0
 49
-1.5
 74
     0
 49
3.0
 74
     0
 49
-1.5
 74
     0
  0
LTYPE
  5
66
330
5
100
AcDbSymbolTableRecord
100
AcDbLinetypeTableRecord
  2
AM_ISO09W050
 70
     0
  3
_____ . . _____ . . _____ . . ____ .. ____
 72
    65
 73
     6
 40
22.5
 49
12.0
 74
     0
 49
-1.5
 74
     0
 49
3.0
 74
     0
 49
-1.5
 74
     0
 49
3.0
 74
     0
 49
-1.5
 74
     0
  0
LTYPE
  5
67
330
5
100
AcDbSymbolTableRecord
100
AcDbLinetypeTableRecord
  2
Amconstr
 70
     0
  3
_______________________
 72
    65
 73
     2
 40
9999.0
 49
9999.0
 74
     0
 49
0.0
 74
     0
  0
LTYPE
  5
68
330
5
100
AcDbSymbolTableRecord
100
AcDbLinetypeTableRecord
  2
AM_ISO08W050x2
 70
     0
  3
__ . __ . __ . __ . __ . __
 72
    65
 73
     4
 40
9.0
 49
6.0
 74
     0
 49
-0.75
 74
     0
 49
1.5
 74
     0
 49
-0.75
 74
     0
  0
LTYPE
  5
69
330
5
100
AcDbSymbolTableRecord
100
AcDbLinetypeTableRecord
  2
AM_ISO02W050x2
 70
     0
  3
 _ _ _ _ _ _ _ _ _ _ _ _
 72
    65
 73
     2
 40
3.75
 49
3.0
 74
     0
 49
-0.75
 74
     0
  0
LTYPE
  5
6C
330
5
100
AcDbSymbolTableRecord
100
AcDbLinetypeTableRecord
  2
Amzigzag
 70
     0
  3
/\/-/\/-/\/-/\/-/\/-/\/
 72
    65
 73
     2
 40
11.0001
 49
0.0001
 74
     4
 75
   135
340
6B
 46
0.04
 50
0.0
 44
0.0
 45
0.0
 49
-11.0
 74
     0
  0
LTYPE
  5
7A
330
5
100
AcDbSymbolTableRecord
100
AcDbLinetypeTableRecord
  2
ACISOWELD
 70
     0
  3
_ _ _ _ _
 72
    65
 73
     2
 40
2.0
 49
2.0
 74
     0
 49
-1.0
 74
     0
  0
LTYPE
  5
7B
330
5
100
AcDbSymbolTableRecord
100
AcDbLinetypeTableRecord
  2
ACISOTGB
 70
     0
  3
__ . . __ . .
 72
    65
 73
     6
 40
9.0
 49
4.0
 74
     0
 49
-1.0
 74
     0
 49
1.0
 74
     0
 49
-1.0
 74
     0
 49
1.0
 74
     0
 49
-1.0
 74
     0
  0
LTYPE
  5
7C
330
5
100
AcDbSymbolTableRecord
100
AcDbLinetypeTableRecord
  2
ACISOTGL
 70
     0
  3
_ _ _ _ _
 72
    65
 73
     2
 40
3.0
 49
2.0
 74
     0
 49
-1.0
 74
     0
  0
LTYPE
  5
7E
330
5
100
AcDbSymbolTableRecord
100
AcDbLinetypeTableRecord
  2
CENTER
 70
     0
  3
__ . __
 72
    65
 73
     4
 40
7.0
 49
4.0
 74
     0
 49
-1.0
 74
     0
 49
1.0
 74
     0
 49
-1.0
 74
     0
  0
LTYPE
  5
D8
330
5
100
AcDbSymbolTableRecord
100
AcDbLinetypeTableRecord
  2
HIDDEN
 70
     0
  3
Hidden __ __ __ __ __ __ __ __ __ __ __ __ __ _
 72
    65
 73
     2
 40
9.524999999999998
 49
6.349999999999999
 74
     0
 49
-3.174999999999999
 74
     0
  0
LTYPE
  5
D9
330
5
100
AcDbSymbolTableRecord
100
AcDbLinetypeTableRecord
  2
PHANTOM2
 70
     0
  3
Phantom (.5x) ___ _ _ ___ _ _ ___ _ _ ___ _ _
 72
    65
 73
     6
 40
31.75
 49
15.875
 74
     0
 49
-3.174999999999999
 74
     0
 49
3.174999999999999
 74
     0
 49
-3.174999999999999
 74
     0
 49
3.174999999999999
 74
     0
 49
-3.174999999999999
 74
     0
  0
LTYPE
  5
F85
330
5
100
AcDbSymbolTableRecord
100
AcDbLinetypeTableRecord
  2
ACANSTGB
 70
     0
  3
__ . . __ . .
 72
    65
 73
     6
 40
0.35433070866
 49
0.15748031496
 74
     0
 49
-0.03937007874
 74
     0
 49
0.03937007874
 74
     0
 49
-0.03937007874
 74
     0
 49
0.03937007874
 74
     0
 49
-0.03937007874
 74
     0
  0
LTYPE
  5
F86
330
5
100
AcDbSymbolTableRecord
100
AcDbLinetypeTableRecord
  2
ACANSTGL
 70
     0
  3
_ _ _ _ _
 72
    65
 73
     2
 40
0.11811023622
 49
0.07874015748
 74
     0
 49
-0.03937007874
 74
     0
  0
LTYPE
  5
22C5
330
5
100
AcDbSymbolTableRecord
100
AcDbLinetypeTableRecord
  2
HIDDEN2
 70
     0
  3
Hidden (.5x) _ _ _ _ _ _ _ _ _ _ _ _ _ _ _ _ _
 72
    65
 73
     2
 40
0.1875
 49
0.125
 74
     0
 49
-0.0625
 74
     0
  0
ENDTAB
  0
TABLE
  2
LAYER
  5
2
102
{ACAD_XDICTIONARY
360
3F9
102
}
330
0
100
AcDbSymbolTable
 70
     8
  0
LAYER
  5
10
330
2
100
AcDbSymbolTableRecord
100
AcDbLayerTableRecord
  2
0
 70
     0
 62
     7
  6
Continuous
370
    -3
390
F
  0
LAYER
  5
206
330
2
100
AcDbSymbolTableRecord
100
AcDbLayerTableRecord
  2
Defpoints
 70
     0
 62
     7
  6
Continuous
290
     0
370
    -3
390
F
  0
LAYER
  5
5AE
330
2
100
AcDbSymbolTableRecord
100
AcDbLayerTableRecord
  2
AM_7
 70
     0
 62
     1
  6
CENTER
370
    25
390
F
  0
LAYER
  5
71A
330
2
100
AcDbSymbolTableRecord
100
AcDbLayerTableRecord
  2
LOGO
 70
     0
 62
     7
  6
Continuous
370
    -3
390
F
  0
LAYER
  5
84F
330
2
100
AcDbSymbolTableRecord
100
AcDbLayerTableRecord
  2
AM_VIS
 70
     0
 62
     7
  6
Continuous
370
    50
390
F
  0
LAYER
  5
850
330
2
100
AcDbSymbolTableRecord
100
AcDbLayerTableRecord
  2
AM_4
 70
     0
 62
     3
  6
Continuous
370
    25
390
F
  0
LAYER
  5
851
330
2
100
AcDbSymbolTableRecord
100
AcDbLayerTableRecord
  2
AM_0
 70
     0
 62
     7
  6
Continuous
370
    50
390
F
  0
LAYER
  5
B99
330
2
100
AcDbSymbolTableRecord
100
AcDbLayerTableRecord
  2
AM_5
 70
     0
 62
     5
  6
Continuous
370
    50
390
F
  0
ENDTAB
  0
TABLE
  2
STYLE
  5
3
330
0
100
AcDbSymbolTable
 70
     8
  0
STYLE
  5
11
330
3
100
AcDbSymbolTableRecord
100
AcDbTextStyleTableRecord
  2
STANDARD
 70
     0
 40
0.0
 41
1.0
 50
0.0
 71
     0
 42
3.0
  3
ISOCP.SHX
  4
CHINESET.SHX
  0
STYLE
  5
6B
330
3
100
AcDbSymbolTableRecord
100
AcDbTextStyleTableRecord
  2

 70
     1
 40
0.0
 41
1.0
 50
0.0
 71
     0
 42
2.5
  3
ltypeshp.shx
  4

  0
STYLE
  5
6D
330
3
100
AcDbSymbolTableRecord
100
AcDbTextStyleTableRecord
  2
ACISOTS
 70
     0
 40
1.0
 41
1.0
 50
0.0
 71
     0
 42
1.0
  3
isocp.shx
  4
chineset.shx
  0
STYLE
  5
79
330
3
100
AcDbSymbolTableRecord
100
AcDbTextStyleTableRecord
  2
ACISOGDT
 70
     0
 40
0.0
 41
1.0
 50
0.0
 71
     0
 42
2.5
  3
amgdt.shx
  4
chineset.shx
  0
STYLE
  5
60C
330
3
100
AcDbSymbolTableRecord
100
AcDbTextStyleTableRecord
  2
CHINESET
 70
     0
 40
0.0
 41
1.0
 50
0.0
 71
     0
 42
3.0
  3
simplex.shx
  4
CHINESET.SHX
  0
STYLE
  5
F87
330
3
100
AcDbSymbolTableRecord
100
AcDbTextStyleTableRecord
  2
ACANSTS
 70
     0
 40
1.0
 41
1.0
 50
0.0
 71
     0
 42
5.0
  3
romans.shx
  4
chineset.shx
  0
STYLE
  5
F88
330
3
100
AcDbSymbolTableRecord
100
AcDbTextStyleTableRecord
  2
ACANSGDT
 70
     0
 40
0.0
 41
1.0
 50
0.0
 71
     0
 42
5.0
  3
amgdtans.shx
  4

  0
STYLE
  5
3753
330
3
100
AcDbSymbolTableRecord
100
AcDbTextStyleTableRecord
  2
DAYUS
 70
     0
 40
0.0
 41
1.0
 50
0.0
 71
     0
 42
3.0
  3
simplex
  4
dayus
  0
ENDTAB
  0
TABLE
  2
VIEW
  5
6
330
0
100
AcDbSymbolTable
 70
     0
  0
ENDTAB
  0
TABLE
  2
UCS
  5
7
330
0
100
AcDbSymbolTable
 70
     0
  0
ENDTAB
  0
TABLE
  2
APPID
  5
9
330
0
100
AcDbSymbolTable
 70
    27
  0
APPID
  5
12
330
9
100
AcDbSymbolTableRecord
100
AcDbRegAppTableRecord
  2
ACAD
 70
     0
  0
APPID
  5
46
330
9
100
AcDbSymbolTableRecord
100
AcDbRegAppTableRecord
  2
MCAD_NO_VIS
 70
     0
  0
APPID
  5
47
330
9
100
AcDbSymbolTableRecord
100
AcDbRegAppTableRecord
  2
ACAD_TEMP_GRAPHIC
 70
     0
  0
APPID
  5
58
330
9
100
AcDbSymbolTableRecord
100
AcDbRegAppTableRecord
  2
ACATTRIBSERVICES
 70
     0
  0
APPID
  5
EE
330
9
100
AcDbSymbolTableRecord
100
AcDbRegAppTableRecord
  2
AD_DRAW
 70
     0
  0
APPID
  5
10C
330
9
100
AcDbSymbolTableRecord
100
AcDbRegAppTableRecord
  2
DESIGNERASSEMBLIES
 70
     0
  0
APPID
  5
111
330
9
100
AcDbSymbolTableRecord
100
AcDbRegAppTableRecord
  2
ACADM_DIM_EDIT
 70
     0
  0
APPID
  5
112
330
9
100
AcDbSymbolTableRecord
100
AcDbRegAppTableRecord
  2
AMDT_DM_ADJ
 70
     0
  0
APPID
  5
22C
330
9
100
AcDbSymbolTableRecord
100
AcDbRegAppTableRecord
  2
ACAD_DSTYLE_DIMTEXT_FILL
 70
     0
  0
APPID
  5
452
330
9
100
AcDbSymbolTableRecord
100
AcDbRegAppTableRecord
  2
GENIUS_GENOENT_13
 70
     0
  0
APPID
  5
453
330
9
100
AcDbSymbolTableRecord
100
AcDbRegAppTableRecord
  2
GENIUS_GENOBJ-N-CRS_13
 70
     0
  0
APPID
  5
454
330
9
100
AcDbSymbolTableRecord
100
AcDbRegAppTableRecord
  2
GENIUS_GENOLIS_13
 70
     0
  0
APPID
  5
455
330
9
100
AcDbSymbolTableRecord
100
AcDbRegAppTableRecord
  2
GENIUS_GENODEF_13
 70
     0
  0
APPID
  5
456
330
9
100
AcDbSymbolTableRecord
100
AcDbRegAppTableRecord
  2
GENIUS_GENOREF_13
 70
     0
  0
APPID
  5
6F3
330
9
100
AcDbSymbolTableRecord
100
AcDbRegAppTableRecord
  2
ACAD_PSEXT
 70
     0
  0
APPID
  5
71B
330
9
100
AcDbSymbolTableRecord
100
AcDbRegAppTableRecord
  2
GENIUS_GENREC_14
 70
     0
  0
APPID
  5
71C
330
9
100
AcDbSymbolTableRecord
100
AcDbRegAppTableRecord
  2
GENIUS_GENOBJ-N-REC_13
 70
     0
  0
APPID
  5
12C9
330
9
100
AcDbSymbolTableRecord
100
AcDbRegAppTableRecord
  2
GEVID1123030070
 70
     0
  0
APPID
  5
12CA
330
9
100
AcDbSymbolTableRecord
100
AcDbRegAppTableRecord
  2
GEVDC
 70
     0
  0
APPID
  5
12CB
330
9
100
AcDbSymbolTableRecord
100
AcDbRegAppTableRecord
  2
GEVRADREF
 70
     0
  0
APPID
  5
12D4
330
9
100
AcDbSymbolTableRecord
100
AcDbRegAppTableRecord
  2
AMG_2DHIDE
 70
     0
  0
APPID
  5
12D5
330
9
100
AcDbSymbolTableRecord
100
AcDbRegAppTableRecord
  2
AMG_2DSTRUCT_BTR
 70
     0
  0
APPID
  5
12E6
330
9
100
AcDbSymbolTableRecord
100
AcDbRegAppTableRecord
  2
ACADM_2DVIEW_IGN_NOTIFY
 70
     0
  0
APPID
  5
1345
330
9
100
AcDbSymbolTableRecord
100
AcDbRegAppTableRecord
  2
GENIUS_GENOBJ-N-CEN_13
 70
     0
  0
APPID
  5
1346
330
9
100
AcDbSymbolTableRecord
100
AcDbRegAppTableRecord
  2
GENIUS_GENCEN_19
 70
     0
  0
APPID
  5
1759
330
9
100
AcDbSymbolTableRecord
100
AcDbRegAppTableRecord
  2
GENIUS_GENDTOL_13
 70
     0
  0
APPID
  5
1CDA
330
9
100
AcDbSymbolTableRecord
100
AcDbRegAppTableRecord
  2
GEVID1123206672
 70
     0
  0
ENDTAB
  0
TABLE
  2
DIMSTYLE
  5
A
330
0
100
AcDbSymbolTable
 70
    15
100
AcDbDimStyleTable
 71
     3
340
81
340
8B
340
86
  0
DIMSTYLE
105
81
330
A
100
AcDbSymbolTableRecord
100
AcDbDimStyleTableRecord
  2
AM_ISO
 70
     0
  4
"
 41
3.0
 42
1.0
 43
8.0
 44
1.5
 47
0.1
 48
0.1
 73
     0
 74
     0
 77
     1
 78
     8
 79
     2
140
3.0
141
0.0
143
0.0393701
146
0.71
147
1.0
172
     1
176
   256
177
   256
178
   256
271
     2
272
     2
283
     0
284
     8
340
11
371
    -1
372
    -1
  0
DIMSTYLE
105
82
102
{ACAD_REACTORS
330
3590
102
}
330
A
100
AcDbSymbolTableRecord
100
AcDbDimStyleTableRecord
  2
AM_ISO$3
 70
     0
  4
"
 41
3.0
 42
1.0
 43
8.0
 44
1.5
 47
0.1
 48
0.1
 73
     0
 77
     1
 78
     8
 79
     2
140
3.0
141
0.0
143
0.0393701
146
0.71
147
1.0
176
   256
177
   256
178
   256
271
     2
272
     2
283
     0
284
     8
288
     1
289
     0
340
11
371
    -1
372
    -1
  0
DIMSTYLE
105
83
330
A
100
AcDbSymbolTableRecord
100
AcDbDimStyleTableRecord
  2
AM_ISO$4
 70
     0
  4
"
 41
3.0
 42
1.0
 43
8.0
 44
1.5
 47
0.1
 48
0.1
 73
     0
 77
     1
 78
     8
 79
     2
140
3.0
141
0.0
143
0.0393701
146
0.71
147
1.0
176
   256
177
   256
178
   256
271
     2
272
     2
283
     0
284
     8
288
     1
289
     0
340
11
371
    -1
372
    -1
  0
DIMSTYLE
105
84
330
A
100
AcDbSymbolTableRecord
100
AcDbDimStyleTableRecord
  2
AM_ISO$6
 70
     0
  4
"
 41
3.0
 42
1.0
 43
8.0
 44
1.5
 47
0.1
 48
0.1
 73
     0
 74
     0
 78
     8
 79
     2
140
3.0
141
0.0
143
0.0393701
146
0.71
147
1.0
172
     1
176
   256
177
   256
178
   256
271
     2
272
     2
283
     0
284
     8
340
11
371
    -1
372
    -1
  0
DIMSTYLE
105
85
330
A
100
AcDbSymbolTableRecord
100
AcDbDimStyleTableRecord
  2
AM_ISO$7
 70
     0
  4
"
 41
3.0
 42
1.0
 43
8.0
 44
1.5
 47
0.1
 48
0.1
 73
     0
 74
     0
 77
     1
 78
     8
 79
     2
140
5.0
141
0.0
143
0.0393701
146
0.71
147
1.0
172
     1
176
   256
177
   256
178
   256
271
     2
272
     2
283
     0
284
     8
340
11
371
    -1
372
    -1
  0
DIMSTYLE
105
86
330
A
100
AcDbSymbolTableRecord
100
AcDbDimStyleTableRecord
  2
AM_ISO$SF
 70
     0
  4
"
 41
2.5
 42
1.0
 43
10.0
 44
1.0
 47
0.1
 48
0.1
 73
     0
 74
     0
 75
     1
 76
     1
 77
     1
 78
     8
 79
     2
140
3.5
141
0.0
143
0.0393701
146
0.71
147
1.5
172
     1
176
   256
177
   256
178
     2
271
     2
272
     3
274
     4
283
     0
284
     8
340
11
371
    -1
372
    -1
  0
DIMSTYLE
105
8B
330
A
100
AcDbSymbolTableRecord
100
AcDbDimStyleTableRecord
  2
AM_ISO$SH
 70
     0
  4
"
 41
2.5
 42
1.0
 43
10.0
 44
1.0
 47
0.1
 48
0.1
 73
     0
 74
     0
 75
     1
 76
     1
 77
     1
 78
     8
 79
     2
140
3.5
141
0.0
143
0.0393701
144
2.0
146
0.71
147
1.5
172
     1
173
     1
176
   256
177
   256
178
     2
271
     2
272
     3
274
     4
283
     0
284
     8
340
11
343
87
371
    -1
372
    -1
  0
DIMSTYLE
105
40B
102
{ACAD_REACTORS
330
3478
330
34E3
330
36BA
330
36E5
330
370F
330
3735
330
384B
102
}
330
A
100
AcDbSymbolTableRecord
100
AcDbDimStyleTableRecord
  2
AM_ISO$0
 70
     0
  4
"
 41
3.0
 42
1.0
 43
8.0
 44
1.5
 47
0.1
 48
0.1
 73
     0
 74
     0
 77
     1
 78
     8
 79
     2
140
3.0
141
0.0
143
0.0393701
146
0.71
147
1.0
172
     1
176
   256
177
   256
178
   256
271
     2
272
     2
283
     0
284
     8
340
11
371
    -1
372
    -1
  0
DIMSTYLE
105
F89
330
A
100
AcDbSymbolTableRecord
100
AcDbDimStyleTableRecord
  2
AM_ANSI
 70
     0
  4
mm
 41
0.1
 42
0.05
 43
0.5
 44
0.1
 47
0.1
 48
0.1
 78
     7
 79
     2
140
0.12
141
0.0
146
0.71
147
0.06
176
   256
177
   256
178
     2
274
     4
284
     7
340
11
371
    -1
372
    -1
  0
DIMSTYLE
105
F8A
330
A
100
AcDbSymbolTableRecord
100
AcDbDimStyleTableRecord
  2
AM_ANSI$3
 70
     0
  4
mm
 41
0.1
 42
0.05
 43
0.5
 44
0.1
 47
0.1
 48
0.1
 78
     7
 79
     2
140
0.12
141
0.0
146
0.71
147
0.06
176
   256
177
   256
178
     2
274
     4
284
     7
288
     1
289
     0
340
11
371
    -1
372
    -1
  0
DIMSTYLE
105
F8B
330
A
100
AcDbSymbolTableRecord
100
AcDbDimStyleTableRecord
  2
AM_ANSI$4
 70
     0
  4
mm
 41
0.1
 42
0.05
 43
0.5
 44
0.1
 47
0.1
 48
0.1
 78
     7
 79
     2
140
0.12
141
0.0
146
0.71
147
0.06
176
   256
177
   256
178
     2
274
     4
284
     7
288
     1
289
     0
340
11
371
    -1
372
    -1
  0
DIMSTYLE
105
F8C
330
A
100
AcDbSymbolTableRecord
100
AcDbDimStyleTableRecord
  2
AM_ANSI$7
 70
     0
  4
mm
 41
0.1
 42
0.05
 43
0.5
 44
0.1
 47
0.1
 48
0.1
 78
     7
 79
     2
140
0.24
141
0.0
146
0.71
147
0.06
176
   256
177
   256
178
     2
274
     4
284
     7
340
11
371
    -1
372
    -1
  0
DIMSTYLE
105
F8D
330
A
100
AcDbSymbolTableRecord
100
AcDbDimStyleTableRecord
  2
AM_ANSI$SF
 70
     0
  4
mm
 41
0.1
 42
0.05
 43
0.5
 44
0.1
 47
0.1
 48
0.1
 75
     1
 76
     1
 78
     7
 79
     2
140
0.12
141
0.0
146
0.71
147
0.06
176
   256
177
   256
178
     2
274
     4
284
     7
340
11
371
    -1
372
    -1
  0
DIMSTYLE
105
F8E
330
A
100
AcDbSymbolTableRecord
100
AcDbDimStyleTableRecord
  2
AM_ANSI$SH
 70
     0
  4
mm
 41
0.1
 42
0.05
 43
0.5
 44
0.1
 47
0.1
 48
0.1
 75
     1
 76
     1
 78
     7
 79
     2
140
0.12
141
0.0
146
0.71
147
0.06
173
     1
176
   256
177
   256
178
     2
274
     4
284
     7
340
11
341
87
343
87
371
    -1
372
    -1
  0
DIMSTYLE
105
3754
330
A
100
AcDbSymbolTableRecord
100
AcDbDimStyleTableRecord
  2
Standard
 70
     0
 41
3.0
 42
2.0
 44
3.0
 73
     0
 77
     1
140
3.0
141
5.0
271
     2
272
     2
279
     2
285
     8
340
3753
  0
ENDTAB
  0
TABLE
  2
BLOCK_RECORD
  5
1
330
0
100
AcDbSymbolTable
 70
    17
  0
BLOCK_RECORD
  5
1F
102
{ACAD_XDICTIONARY
360
8F
102
}
330
1
100
AcDbSymbolTableRecord
100
AcDbBlockTableRecord
  2
*Model_Space
340
22
  0
BLOCK_RECORD
  5
1B
330
1
100
AcDbSymbolTableRecord
100
AcDbBlockTableRecord
  2
*Paper_Space
340
1E
  0
BLOCK_RECORD
  5
23
330
1
100
AcDbSymbolTableRecord
100
AcDbBlockTableRecord
  2
*Paper_Space0
340
26
  0
BLOCK_RECORD
  5
87
330
1
100
AcDbSymbolTableRecord
100
AcDbBlockTableRecord
  2
GENAXEH
340
0
  0
BLOCK_RECORD
  5
3479
330
1
100
AcDbSymbolTableRecord
100
AcDbBlockTableRecord
  2
*D3
340
0
  0
BLOCK_RECORD
  5
34E4
330
1
100
AcDbSymbolTableRecord
100
AcDbBlockTableRecord
  2
*D4
340
0
  0
BLOCK_RECORD
  5
3591
330
1
100
AcDbSymbolTableRecord
100
AcDbBlockTableRecord
  2
*D5
340
0
  0
BLOCK_RECORD
  5
3615
330
1
100
AcDbSymbolTableRecord
100
AcDbBlockTableRecord
  2
*S6
340
0
102
{BLKREFS
331
350B
102
}
  0
BLOCK_RECORD
  5
361D
330
1
100
AcDbSymbolTableRecord
100
AcDbBlockTableRecord
  2
*S7
340
0
102
{BLKREFS
331
350D
102
}
  0
BLOCK_RECORD
  5
36BB
330
1
100
AcDbSymbolTableRecord
100
AcDbBlockTableRecord
  2
*D9
340
0
  0
BLOCK_RECORD
  5
36E6
330
1
100
AcDbSymbolTableRecord
100
AcDbBlockTableRecord
  2
*D10
340
0
  0
BLOCK_RECORD
  5
3710
330
1
100
AcDbSymbolTableRecord
100
AcDbBlockTableRecord
  2
*D11
340
0
  0
BLOCK_RECORD
  5
3736
330
1
100
AcDbSymbolTableRecord
100
AcDbBlockTableRecord
  2
*D12
340
0
  0
BLOCK_RECORD
  5
384C
330
1
100
AcDbSymbolTableRecord
100
AcDbBlockTableRecord
  2
*D15
340
0
  0
ENDTAB
  0
ENDSEC
  0
SECTION
  2
BLOCKS
  0
BLOCK
  5
20
330
1F
100
AcDbEntity
  8
0
100
AcDbBlockBegin
  2
*Model_Space
 70
     0
 10
0.0
 20
0.0
 30
0.0
  3
*Model_Space
  1

  0
ENDBLK
  5
21
330
1F
100
AcDbEntity
  8
0
100
AcDbBlockEnd
  0
BLOCK
  5
1C
330
1B
100
AcDbEntity
 67
     1
  8
0
100
AcDbBlockBegin
  2
*Paper_Space
 70
     0
 10
0.0
 20
0.0
 30
0.0
  3
*Paper_Space
  1

  0
ENDBLK
  5
1D
330
1B
100
AcDbEntity
 67
     1
  8
0
100
AcDbBlockEnd
  0
BLOCK
  5
24
330
23
100
AcDbEntity
  8
0
100
AcDbBlockBegin
  2
*Paper_Space0
 70
     0
 10
0.0
 20
0.0
 30
0.0
  3
*Paper_Space0
  1

  0
ENDBLK
  5
25
330
23
100
AcDbEntity
  8
0
100
AcDbBlockEnd
  0
BLOCK
  5
89
330
87
100
AcDbEntity
  8
0
100
AcDbBlockBegin
  2
GENAXEH
 70
     0
 10
0.0
 20
0.0
 30
0.0
  3
GENAXEH
  1

  0
LINE
  5
88
330
87
100
AcDbEntity
  8
0
100
AcDbLine
 10
-1.0
 20
0.0
 30
0.0
 11
1.0
 21
0.0
 31
0.0
  0
ENDBLK
  5
8A
330
87
100
AcDbEntity
  8
0
100
AcDbBlockEnd
  0
BLOCK
  5
3483
330
3479
100
AcDbEntity
  8
0
100
AcDbBlockBegin
  2
*D3
 70
     1
 10
0.0
 20
0.0
 30
0.0
  3
*D3
  1

  0
LINE
  5
356B
330
3479
100
AcDbEntity
  8
AM_5
100
AcDbLine
 10
2256.202373406662
 20
1194.542634195268
 30
0.0
 11
2256.202373406662
 21
1157.754640097627
 31
0.0
  0
LINE
  5
356C
330
3479
100
AcDbEntity
  8
AM_5
100
AcDbLine
 10
2416.202373406662
 20
1186.542634195268
 30
0.0
 11
2416.202373406662
 21
1157.754640097627
 31
0.0
  0
LINE
  5
356D
330
3479
100
AcDbEntity
  8
AM_5
100
AcDbLine
 10
2262.202373406662
 20
1160.754640097627
 30
0.0
 11
2410.202373406662
 21
1160.754640097627
 31
0.0
  0
SOLID
  5
356E
330
3479
100
AcDbEntity
  8
AM_5
100
AcDbTrace
 10
2262.202373406662
 20
1161.754640097627
 30
0.0
 11
2262.202373406662
 21
1159.754640097627
 31
0.0
 12
2256.202373406662
 22
1160.754640097627
 32
0.0
 13
2256.202373406662
 23
1160.754640097627
 33
0.0
  0
SOLID
  5
356F
330
3479
100
AcDbEntity
  8
AM_5
100
AcDbTrace
 10
2410.202373406662
 20
1161.754640097627
 30
0.0
 11
2410.202373406662
 21
1159.754640097627
 31
0.0
 12
2416.202373406662
 22
1160.754640097627
 32
0.0
 13
2416.202373406662
 23
1160.754640097627
 33
0.0
  0
MTEXT
  5
3570
330
3479
100
AcDbEntity
  8
AM_5
100
AcDbMText
 10
2336.202373406662
 20
1165.754640097627
 30
0.0
 40
6.0
 41
0.0
 71
     5
 72
     1
  1
160+stroke
 73
     1
 44
1.0
1001
ACAD
1000
MTEXTBEGIN
1070
    73
1070
     1
1070
    44
1040
1.0
1070
    74
1070
     0
1000
MTEXTEND
  0
POINT
  5
3571
330
3479
100
AcDbEntity
  8
Defpoints
 62
     0
100
AcDbPoint
 10
2256.202373406662
 20
1196.542634195268
 30
0.0
  0
POINT
  5
3572
330
3479
100
AcDbEntity
  8
Defpoints
 62
     0
100
AcDbPoint
 10
2416.202373406662
 20
1188.542634195268
 30
0.0
  0
POINT
  5
3573
330
3479
100
AcDbEntity
  8
Defpoints
 62
     0
100
AcDbPoint
 10
2416.202373406662
 20
1160.754640097627
 30
0.0
  0
ENDBLK
  5
3484
330
3479
100
AcDbEntity
  8
0
100
AcDbBlockEnd
  0
BLOCK
  5
34EE
330
34E4
100
AcDbEntity
  8
0
100
AcDbBlockBegin
  2
*D4
 70
     1
 10
0.0
 20
0.0
 30
0.0
  3
*D4
  1

  0
LINE
  5
3574
330
34E4
100
AcDbEntity
  8
AM_5
100
AcDbLine
 10
2451.972951512065
 20
1189.65269549234
 30
0.0
 11
2451.972951512065
 21
1157.754640097627
 31
0.0
  0
LINE
  5
3575
330
34E4
100
AcDbEntity
  8
AM_5
100
AcDbLine
 10
2471.972951512063
 20
1188.362294307767
 30
0.0
 11
2471.972951512063
 21
1157.754640097627
 31
0.0
  0
LINE
  5
3576
330
34E4
100
AcDbEntity
  8
AM_5
100
AcDbLine
 10
2457.972951512065
 20
1160.754640097627
 30
0.0
 11
2465.972951512064
 21
1160.754640097627
 31
0.0
  0
LINE
  5
3577
330
34E4
100
AcDbEntity
  8
AM_5
100
AcDbLine
 10
2471.972951512063
 20
1160.754640097627
 30
0.0
 11
2501.729768694359
 21
1160.754640097627
 31
0.0
  0
SOLID
  5
3578
330
34E4
100
AcDbEntity
  8
AM_5
100
AcDbTrace
 10
2457.972951512065
 20
1161.754640097627
 30
0.0
 11
2457.972951512065
 21
1159.754640097627
 31
0.0
 12
2451.972951512065
 22
1160.754640097627
 32
0.0
 13
2451.972951512065
 23
1160.754640097627
 33
0.0
  0
SOLID
  5
3579
330
34E4
100
AcDbEntity
  8
AM_5
100
AcDbTrace
 10
2465.972951512064
 20
1161.754640097627
 30
0.0
 11
2465.972951512064
 21
1159.754640097627
 31
0.0
 12
2471.972951512063
 22
1160.754640097627
 32
0.0
 13
2471.972951512063
 23
1160.754640097627
 33
0.0
  0
MTEXT
  5
357A
330
34E4
100
AcDbEntity
  8
AM_5
100
AcDbMText
 10
2489.851360103211
 20
1167.389383334444
 30
0.0
 40
6.0
 41
0.0
 71
     5
 72
     1
  1
20{}{\H0.71x;\C3;\S-0.05^ -0.4;}
 73
     1
 44
1.0
1001
ACAD
1000
MTEXTBEGIN
1070
    73
1070
     1
1070
    44
1040
1.0
1070
    74
1070
     0
1000
MTEXTEND
  0
POINT
  5
357B
330
34E4
100
AcDbEntity
  8
Defpoints
 62
     0
100
AcDbPoint
 10
2451.972951512065
 20
1191.65269549234
 30
0.0
  0
POINT
  5
357C
330
34E4
100
AcDbEntity
  8
Defpoints
 62
     0
100
AcDbPoint
 10
2471.972951512063
 20
1190.362294307767
 30
0.0
  0
POINT
  5
357D
330
34E4
100
AcDbEntity
  8
Defpoints
 62
     0
100
AcDbPoint
 10
2471.972951512063
 20
1160.754640097627
 30
0.0
  0
ENDBLK
  5
34EF
330
34E4
100
AcDbEntity
  8
0
100
AcDbBlockEnd
  0
BLOCK
  5
359A
330
3591
100
AcDbEntity
  8
0
100
AcDbBlockBegin
  2
*D5
 70
     1
 10
0.0
 20
0.0
 30
0.0
  3
*D5
  1

  0
LINE
  5
35CE
330
3591
100
AcDbEntity
  8
AM_5
100
AcDbLine
 10
2407.535654827965
 20
1213.07039351642
 30
0.0
 11
2412.410313863242
 21
1229.928824902448
 31
0.0
  0
LINE
  5
35CF
330
3591
100
AcDbEntity
  8
AM_5
100
AcDbLine
 10
2412.410313863242
 20
1229.928824902448
 30
0.0
 11
2437.039874737253
 21
1229.928824902448
 31
0.0
  0
SOLID
  5
35D0
330
3591
100
AcDbEntity
  8
AM_5
100
AcDbTrace
 10
2406.575008217869
 20
1213.348166968196
 30
0.0
 11
2408.496301438061
 21
1212.792620064645
 31
0.0
 12
2405.869014117314
 22
1207.306513855845
 32
0.0
 13
2405.869014117314
 23
1207.306513855845
 33
0.0
  0
MTEXT
  5
35D1
330
3591
100
AcDbEntity
  8
AM_5
100
AcDbMText
 10
2425.725094300247
 20
1234.929415453628
 30
0.0
 40
6.0
 41
0.0
 71
     5
 72
     1
  1
\U+220512{}{\C2; H9}
 73
     1
 44
1.0
1001
ACAD
1000
MTEXTBEGIN
1070
    73
1070
     1
1070
    44
1040
1.0
1070
    74
1070
     0
1000
MTEXTEND
  0
POINT
  5
35D2
330
3591
100
AcDbEntity
  8
Defpoints
 62
     0
100
AcDbPoint
 10
2405.869014117314
 20
1207.306513855845
 30
0.0
  0
POINT
  5
35D3
330
3591
100
AcDbEntity
  8
Defpoints
 62
     0
100
AcDbPoint
 10
2402.53573269601
 20
1195.778754534692
 30
0.0
  0
ENDBLK
  5
359B
330
3591
100
AcDbEntity
  8
0
100
AcDbBlockEnd
  0
BLOCK
  5
361A
330
3615
100
AcDbEntity
  8
0
100
AcDbBlockBegin
  2
*S6
 70
     1
 10
0.0
 20
0.0
 30
0.0
  3
*S6
  1

  0
LINE
  5
3616
330
3615
100
AcDbEntity
  8
AM_5
 62
     5
100
AcDbLine
 10
2427.11569580035
 20
1307.291646933656
 30
0.0
 11
2393.952747488842
 21
1307.291646933656
 31
0.0
  0
LINE
  5
3617
330
3615
100
AcDbEntity
  8
AM_5
 62
     5
100
AcDbLine
 10
2393.952747488842
 20
1307.291646933656
 30
0.0
 11
2382.995697044004
 21
1283.693694919234
 31
0.0
  0
TRACE
  5
3618
330
3615
100
AcDbEntity
  8
AM_5
 62
     5
370
    35
100
AcDbTrace
 10
2382.15983869038
 20
1284.081802418554
 30
0.0
 11
2383.831555397627
 21
1283.305587419914
 31
0.0
 12
2380.047727896711
 22
1277.344720363717
 32
0.0
 13
2380.047727896711
 23
1277.344720363717
 33
0.0
  0
MTEXT
  5
3619
330
3615
100
AcDbEntity
  8
AM_5
 62
     2
100
AcDbMText
 10
2427.11569580035
 20
1317.068205202158
 30
0.0
 40
7.0
 41
0.0
 71
     7
 72
     5
  1

  7
ACISOTS
 73
     1
 44
1.0
1001
ACAD
1000
MTEXTBEGIN
1070
    73
1070
     1
1070
    44
1040
1.0
1070
    74
1070
     0
1000
MTEXTEND
  0
ENDBLK
  5
361B
330
3615
100
AcDbEntity
  8
0
100
AcDbBlockEnd
  0
BLOCK
  5
3622
330
361D
100
AcDbEntity
  8
0
100
AcDbBlockBegin
  2
*S7
 70
     1
 10
0.0
 20
0.0
 30
0.0
  3
*S7
  1

  0
LINE
  5
361E
330
361D
100
AcDbEntity
  8
AM_5
 62
     5
100
AcDbLine
 10
2311.888673756051
 20
1232.998957372119
 30
0.0
 11
2278.522196370868
 21
1232.998957372119
 31
0.0
  0
LINE
  5
361F
330
361D
100
AcDbEntity
  8
AM_5
 62
     5
100
AcDbLine
 10
2278.522196370868
 20
1232.998957372119
 30
0.0
 11
2273.513814719407
 21
1214.304193214494
 31
0.0
  0
TRACE
  5
3620
330
361D
100
AcDbEntity
  8
AM_5
 62
     5
370
    35
100
AcDbTrace
 10
2272.623638590914
 20
1214.542673986486
 30
0.0
 11
2274.403990847902
 21
1214.065712442502
 31
0.0
 12
2271.702373406662
 22
1207.542634195268
 32
0.0
 13
2271.702373406662
 23
1207.542634195268
 33
0.0
  0
MTEXT
  5
3621
330
361D
100
AcDbEntity
  8
AM_5
 62
     2
100
AcDbMText
 10
2311.888673756051
 20
1242.525880682081
 30
0.0
 40
7.0
 41
0.0
 71
     7
 72
     5
  1

  7
ACISOTS
 73
     1
 44
1.0
1001
ACAD
1000
MTEXTBEGIN
1070
    73
1070
     1
1070
    44
1040
1.0
1070
    74
1070
     0
1000
MTEXTEND
  0
ENDBLK
  5
3623
330
361D
100
AcDbEntity
  8
0
100
AcDbBlockEnd
  0
BLOCK
  5
36C5
330
36BB
100
AcDbEntity
  8
0
100
AcDbBlockBegin
  2
*D9
 70
     1
 10
0.0
 20
0.0
 30
0.0
  3
*D9
  1

  0
LINE
  5
3833
330
36BB
100
AcDbEntity
  8
AM_5
100
AcDbLine
 10
2696.64609159654
 20
1093.224296716137
 30
0.0
 11
2717.14609259654
 21
1093.224296716137
 31
0.0
  0
LINE
  5
3834
330
36BB
100
AcDbEntity
  8
AM_5
100
AcDbLine
 10
2696.64609159654
 20
1040.224296716137
 30
0.0
 11
2717.14609259654
 21
1040.224296716137
 31
0.0
  0
LINE
  5
3835
330
36BB
100
AcDbEntity
  8
AM_5
100
AcDbLine
 10
2715.64609259654
 20
1090.224296716137
 30
0.0
 11
2715.64609259654
 21
1043.224296716137
 31
0.0
  0
SOLID
  5
3836
330
36BB
100
AcDbEntity
  8
AM_5
100
AcDbTrace
 10
2715.14609259654
 20
1090.224296716137
 30
0.0
 11
2716.146092596539
 21
1090.224296716137
 31
0.0
 12
2715.64609259654
 22
1093.224296716137
 32
0.0
 13
2715.64609259654
 23
1093.224296716137
 33
0.0
  0
SOLID
  5
3837
330
36BB
100
AcDbEntity
  8
AM_5
100
AcDbTrace
 10
2715.14609259654
 20
1043.224296716137
 30
0.0
 11
2716.146092596539
 21
1043.224296716137
 31
0.0
 12
2715.64609259654
 22
1040.224296716137
 32
0.0
 13
2715.64609259654
 23
1040.224296716137
 33
0.0
  0
MTEXT
  5
3838
330
36BB
100
AcDbEntity
  8
AM_5
100
AcDbMText
 10
2713.146092596539
 20
1066.724296716137
 30
0.0
 40
3.0
 41
0.0
 71
     5
 72
     1
  1
53
 11
0.0000000000000001
 21
1.0
 31
0.0
 73
     1
 44
1.0
1001
ACAD
1000
MTEXTBEGIN
1070
    73
1070
     1
1070
    44
1040
1.0
1070
    74
1070
     0
1000
MTEXTEND
  0
POINT
  5
3839
330
36BB
100
AcDbEntity
  8
Defpoints
 62
     0
100
AcDbPoint
 10
2695.64609159654
 20
1093.224296716137
 30
0.0
  0
POINT
  5
383A
330
36BB
100
AcDbEntity
  8
Defpoints
 62
     0
100
AcDbPoint
 10
2695.64609159654
 20
1040.224296716137
 30
0.0
  0
POINT
  5
383B
330
36BB
100
AcDbEntity
  8
Defpoints
 62
     0
100
AcDbPoint
 10
2715.64609259654
 20
1040.224296716137
 30
0.0
  0
ENDBLK
  5
36C6
330
36BB
100
AcDbEntity
  8
0
100
AcDbBlockEnd
  0
BLOCK
  5
36F0
330
36E6
100
AcDbEntity
  8
0
100
AcDbBlockBegin
  2
*D10
 70
     1
 10
0.0
 20
0.0
 30
0.0
  3
*D10
  1

  0
LINE
  5
382A
330
36E6
100
AcDbEntity
  8
AM_5
100
AcDbLine
 10
2701.64609159654
 20
1101.224296716137
 30
0.0
 11
2725.146092596539
 21
1101.224296716137
 31
0.0
  0
LINE
  5
382B
330
36E6
100
AcDbEntity
  8
AM_5
100
AcDbLine
 10
2701.64609159654
 20
1032.224296716137
 30
0.0
 11
2725.146092596539
 21
1032.224296716137
 31
0.0
  0
LINE
  5
382C
330
36E6
100
AcDbEntity
  8
AM_5
100
AcDbLine
 10
2723.646092596539
 20
1098.224296716137
 30
0.0
 11
2723.646092596539
 21
1035.224296716137
 31
0.0
  0
SOLID
  5
382D
330
36E6
100
AcDbEntity
  8
AM_5
100
AcDbTrace
 10
2723.14609259654
 20
1098.224296716137
 30
0.0
 11
2724.146092596539
 21
1098.224296716137
 31
0.0
 12
2723.646092596539
 22
1101.224296716137
 32
0.0
 13
2723.646092596539
 23
1101.224296716137
 33
0.0
  0
SOLID
  5
382E
330
36E6
100
AcDbEntity
  8
AM_5
100
AcDbTrace
 10
2723.14609259654
 20
1035.224296716137
 30
0.0
 11
2724.146092596539
 21
1035.224296716137
 31
0.0
 12
2723.646092596539
 22
1032.224296716137
 32
0.0
 13
2723.646092596539
 23
1032.224296716137
 33
0.0
  0
MTEXT
  5
382F
330
36E6
100
AcDbEntity
  8
AM_5
100
AcDbMText
 10
2721.146092596539
 20
1066.724296716137
 30
0.0
 40
3.0
 41
0.0
 71
     5
 72
     1
  1
69
 11
0.0000000000000001
 21
1.0
 31
0.0
 73
     1
 44
1.0
1001
ACAD
1000
MTEXTBEGIN
1070
    73
1070
     1
1070
    44
1040
1.0
1070
    74
1070
     0
1000
MTEXTEND
  0
POINT
  5
3830
330
36E6
100
AcDbEntity
  8
Defpoints
 62
     0
100
AcDbPoint
 10
2700.64609159654
 20
1101.224296716137
 30
0.0
  0
POINT
  5
3831
330
36E6
100
AcDbEntity
  8
Defpoints
 62
     0
100
AcDbPoint
 10
2700.64609159654
 20
1032.224296716137
 30
0.0
  0
POINT
  5
3832
330
36E6
100
AcDbEntity
  8
Defpoints
 62
     0
100
AcDbPoint
 10
2723.646092596539
 20
1032.224296716137
 30
0.0
  0
ENDBLK
  5
36F1
330
36E6
100
AcDbEntity
  8
0
100
AcDbBlockEnd
  0
BLOCK
  5
371A
330
3710
100
AcDbEntity
  8
0
100
AcDbBlockBegin
  2
*D11
 70
     1
 10
0.0
 20
0.0
 30
0.0
  3
*D11
  1

  0
LINE
  5
371E
330
3710
100
AcDbEntity
  8
AM_5
100
AcDbLine
 10
2655.64609159654
 20
1032.924296716137
 30
0.0
 11
2655.64609159654
 21
1020.424296716137
 31
0.0
  0
LINE
  5
371F
330
3710
100
AcDbEntity
  8
AM_5
100
AcDbLine
 10
2695.64609159654
 20
1032.924296716137
 30
0.0
 11
2695.64609159654
 21
1020.424296716137
 31
0.0
  0
LINE
  5
3720
330
3710
100
AcDbEntity
  8
AM_5
100
AcDbLine
 10
2658.64609159654
 20
1021.924296716137
 30
0.0
 11
2692.64609159654
 21
1021.924296716137
 31
0.0
  0
SOLID
  5
3721
330
3710
100
AcDbEntity
  8
AM_5
100
AcDbTrace
 10
2658.64609159654
 20
1022.424296716137
 30
0.0
 11
2658.64609159654
 21
1021.424296716137
 31
0.0
 12
2655.64609159654
 22
1021.924296716137
 32
0.0
 13
2655.64609159654
 23
1021.924296716137
 33
0.0
  0
SOLID
  5
3722
330
3710
100
AcDbEntity
  8
AM_5
100
AcDbTrace
 10
2692.64609159654
 20
1022.424296716137
 30
0.0
 11
2692.64609159654
 21
1021.424296716137
 31
0.0
 12
2695.64609159654
 22
1021.924296716137
 32
0.0
 13
2695.64609159654
 23
1021.924296716137
 33
0.0
  0
MTEXT
  5
3723
330
3710
100
AcDbEntity
  8
AM_5
100
AcDbMText
 10
2675.64609159654
 20
1024.424296716137
 30
0.0
 40
3.0
 41
0.0
 71
     5
 72
     1
  1
40
 73
     1
 44
1.0
1001
ACAD
1000
MTEXTBEGIN
1070
    73
1070
     1
1070
    44
1040
1.0
1070
    74
1070
     0
1000
MTEXTEND
  0
POINT
  5
3724
330
3710
100
AcDbEntity
  8
Defpoints
 62
     0
100
AcDbPoint
 10
2655.64609159654
 20
1033.924296716137
 30
0.0
  0
POINT
  5
3725
330
3710
100
AcDbEntity
  8
Defpoints
 62
     0
100
AcDbPoint
 10
2695.64609159654
 20
1033.924296716137
 30
0.0
  0
POINT
  5
3726
330
3710
100
AcDbEntity
  8
Defpoints
 62
     0
100
AcDbPoint
 10
2695.64609159654
 20
1021.924296716137
 30
0.0
  0
ENDBLK
  5
371B
330
3710
100
AcDbEntity
  8
0
100
AcDbBlockEnd
  0
BLOCK
  5
3740
330
3736
100
AcDbEntity
  8
0
100
AcDbBlockBegin
  2
*D12
 70
     1
 10
0.0
 20
0.0
 30
0.0
  3
*D12
  1

  0
LINE
  5
3744
330
3736
100
AcDbEntity
  8
AM_5
100
AcDbLine
 10
2647.64609159654
 20
1034.224296716137
 30
0.0
 11
2647.64609159654
 21
1012.424296716135
 31
0.0
  0
LINE
  5
3745
330
3736
100
AcDbEntity
  8
AM_5
100
AcDbLine
 10
2703.64609159654
 20
1034.224296716137
 30
0.0
 11
2703.64609159654
 21
1012.424296716135
 31
0.0
  0
LINE
  5
3746
330
3736
100
AcDbEntity
  8
AM_5
100
AcDbLine
 10
2650.64609159654
 20
1013.924296716135
 30
0.0
 11
2700.64609159654
 21
1013.924296716135
 31
0.0
  0
SOLID
  5
3747
330
3736
100
AcDbEntity
  8
AM_5
100
AcDbTrace
 10
2650.64609159654
 20
1014.424296716135
 30
0.0
 11
2650.64609159654
 21
1013.424296716135
 31
0.0
 12
2647.64609159654
 22
1013.924296716135
 32
0.0
 13
2647.64609159654
 23
1013.924296716135
 33
0.0
  0
SOLID
  5
3748
330
3736
100
AcDbEntity
  8
AM_5
100
AcDbTrace
 10
2700.64609159654
 20
1014.424296716135
 30
0.0
 11
2700.64609159654
 21
1013.424296716135
 31
0.0
 12
2703.64609159654
 22
1013.924296716135
 32
0.0
 13
2703.64609159654
 23
1013.924296716135
 33
0.0
  0
MTEXT
  5
3749
330
3736
100
AcDbEntity
  8
AM_5
100
AcDbMText
 10
2675.64609159654
 20
1016.424296716135
 30
0.0
 40
3.0
 41
0.0
 71
     5
 72
     1
  1
56
 73
     1
 44
1.0
1001
ACAD
1000
MTEXTBEGIN
1070
    73
1070
     1
1070
    44
1040
1.0
1070
    74
1070
     0
1000
MTEXTEND
  0
POINT
  5
374A
330
3736
100
AcDbEntity
  8
Defpoints
 62
     0
100
AcDbPoint
 10
2647.64609159654
 20
1035.224296716137
 30
0.0
  0
POINT
  5
374B
330
3736
100
AcDbEntity
  8
Defpoints
 62
     0
100
AcDbPoint
 10
2703.64609159654
 20
1035.224296716137
 30
0.0
  0
POINT
  5
374C
330
3736
100
AcDbEntity
  8
Defpoints
 62
     0
100
AcDbPoint
 10
2703.64609159654
 20
1013.924296716135
 30
0.0
  0
ENDBLK
  5
3741
330
3736
100
AcDbEntity
  8
0
100
AcDbBlockEnd
  0
BLOCK
  5
3856
330
384C
100
AcDbEntity
  8
0
100
AcDbBlockBegin
  2
*D15
 70
     1
 10
0.0
 20
0.0
 30
0.0
  3
*D15
  1

  0
LINE
  5
385A
330
384C
100
AcDbEntity
  8
AM_5
100
AcDbLine
 10
2736.314623672085
 20
948.7432342351597
 30
0.0
 11
2736.314623672085
 21
936.2432332351598
 31
0.0
  0
LINE
  5
385B
330
384C
100
AcDbEntity
  8
AM_5
100
AcDbLine
 10
2805.314623672085
 20
948.7432342351597
 30
0.0
 11
2805.314623672085
 21
936.2432332351598
 31
0.0
  0
LINE
  5
385C
330
384C
100
AcDbEntity
  8
AM_5
100
AcDbLine
 10
2739.314623672085
 20
937.7432332351597
 30
0.0
 11
2802.314623672085
 21
937.7432332351597
 31
0.0
  0
SOLID
  5
385D
330
384C
100
AcDbEntity
  8
AM_5
100
AcDbTrace
 10
2739.314623672085
 20
938.2432332351598
 30
0.0
 11
2739.314623672085
 21
937.2432332351598
 31
0.0
 12
2736.314623672085
 22
937.7432332351597
 32
0.0
 13
2736.314623672085
 23
937.7432332351597
 33
0.0
  0
SOLID
  5
385E
330
384C
100
AcDbEntity
  8
AM_5
100
AcDbTrace
 10
2802.314623672085
 20
938.2432332351598
 30
0.0
 11
2802.314623672085
 21
937.2432332351598
 31
0.0
 12
2805.314623672085
 22
937.7432332351597
 32
0.0
 13
2805.314623672085
 23
937.7432332351597
 33
0.0
  0
MTEXT
  5
385F
330
384C
100
AcDbEntity
  8
AM_5
100
AcDbMText
 10
2770.814623672085
 20
940.2432332351597
 30
0.0
 40
3.0
 41
0.0
 71
     5
 72
     1
  1
69
 73
     1
 44
1.0
1001
ACAD
1000
MTEXTBEGIN
1070
    73
1070
     1
1070
    44
1040
1.0
1070
    74
1070
     0
1000
MTEXTEND
  0
POINT
  5
3860
330
384C
100
AcDbEntity
  8
Defpoints
 62
     0
100
AcDbPoint
 10
2736.314623672085
 20
949.7432342351597
 30
0.0
  0
POINT
  5
3861
330
384C
100
AcDbEntity
  8
Defpoints
 62
     0
100
AcDbPoint
 10
2805.314623672085
 20
949.7432342351597
 30
0.0
  0
POINT
  5
3862
330
384C
100
AcDbEntity
  8
Defpoints
 62
     0
100
AcDbPoint
 10
2805.314623672085
 20
937.7432332351597
 30
0.0
  0
ENDBLK
  5
3857
330
384C
100
AcDbEntity
  8
0
100
AcDbBlockEnd
  0
ENDSEC
  0
SECTION
  2
ENTITIES
  0
TEXT
  5
E1F
330
1F
100
AcDbEntity
  8
AM_5
100
AcDbText
 10
2673.874599262465
 20
1604.83630397753
 30
0.0
 40
6.0
  1

100
AcDbText
  0
TEXT
  5
196E
330
1F
100
AcDbEntity
  8
LOGO
 62
     7
100
AcDbText
 10
2241.280207423519
 20
775.7963128660097
 30
0.0
 40
6.689847194063349
  1
Order example:
 41
0.8
  7
CHINESET
100
AcDbText
  0
TEXT
  5
196F
330
1F
100
AcDbEntity
  8
LOGO
 62
     7
100
AcDbText
 10
2242.480421332919
 20
785.214232564715
 30
0.0
 40
10.03477079109502
  1
訂購代號:
  7
CHINESET
100
AcDbText
  0
LINE
  5
1970
330
1F
100
AcDbEntity
  8
LOGO
 62
     1
100
AcDbLine
 10
2845.693879732015
 20
797.7766245028228
 30
0.0
 11
2127.990967424996
 21
797.7766245028228
 31
0.0
  0
LINE
  5
1971
330
1F
100
AcDbEntity
  8
LOGO
 62
     1
100
AcDbLine
 10
2238.373446127042
 20
747.6027705473475
 30
0.0
 11
2238.373446127042
 21
797.7766245028228
 31
0.0
  0
TEXT
  5
1972
330
1F
100
AcDbEntity
  8
LOGO
  6
Continuous
 62
     5
100
AcDbText
 10
2146.01364130164
 20
757.459348437953
 30
0.0
 40
7.526078093321268
  1
金器工業股份有限公司
  7
CHINESET
100
AcDbText
  0
TEXT
  5
1973
330
1F
100
AcDbEntity
  8
LOGO
  6
Continuous
 62
     5
100
AcDbText
 10
2132.189724805332
 20
749.9317958233929
 30
0.0
 40
5.01738539554751
  1
MINDMAN INDUSTRIAL CO., LTD.
 41
0.85
  7
CHINESET
100
AcDbText
  0
LINE
  5
1974
330
1F
100
AcDbEntity
  8
LOGO
 62
     1
100
AcDbLine
 10
2238.373446127042
 20
787.7418537117278
 30
0.0
 11
2164.785126992343
 21
787.7418537117278
 31
0.0
  0
LINE
  5
1975
330
1F
100
AcDbEntity
  8
LOGO
 62
     1
100
AcDbLine
 10
2238.373446127042
 20
777.7070829206328
 30
0.0
 11
2164.785126992343
 21
777.7070829206328
 31
0.0
  0
LINE
  5
1976
330
1F
100
AcDbEntity
  8
LOGO
 62
     1
100
AcDbLine
 10
2238.373446127042
 20
767.6723121295383
 30
0.0
 11
2127.990967424996
 21
767.6723121295383
 31
0.0
  0
LINE
  5
1977
330
1F
100
AcDbEntity
  8
LOGO
 62
     1
100
AcDbLine
 10
2164.785126992343
 20
767.6723121295383
 30
0.0
 11
2164.785126992343
 21
797.7766245028228
 31
0.0
  0
TEXT
  5
1978
330
1F
100
AcDbEntity
  8
LOGO
 62
     6
100
AcDbText
 10
2212.451115550341
 20
770.1810048273113
 30
0.0
 40
5.01738539554751
  1
m/m
  7
CHINESET
 72
     1
 11
2221.291270771068
 21
772.689697525085
 31
0.0
100
AcDbText
 73
     2
  0
TEXT
  5
1979
330
1F
100
AcDbEntity
  8
LOGO
 62
     6
100
AcDbText
 10
2212.451115550341
 20
790.2505464095012
 30
0.0
 40
5.01738539554751
  1
1 : 1
  7
CHINESET
 72
     1
 11
2221.291270771068
 21
792.7592391072749
 31
0.0
100
AcDbText
 73
     2
  0
LINE
  5
197A
330
1F
100
AcDbEntity
  8
LOGO
 62
     1
100
AcDbLine
 10
2204.924210156725
 20
767.6723121295383
 30
0.0
 11
2204.924210156725
 21
797.7766245028228
 31
0.0
  0
CIRCLE
  5
197B
330
1F
100
AcDbEntity
  8
LOGO
  6
Continuous
 62
     6
100
AcDbCircle
 10
2214.214526781226
 20
782.7352005402581
 30
0.0
 40
2.913212056594563
  0
CIRCLE
  5
197C
330
1F
100
AcDbEntity
  8
LOGO
  6
Continuous
 62
     6
100
AcDbCircle
 10
2214.214526781226
 20
782.7352005402581
 30
0.0
 40
1.706884373092228
  0
LINE
  5
197D
330
1F
100
AcDbEntity
  8
LOGO
 62
     6
100
AcDbLine
 10
2232.521489379696
 20
779.8219884836627
 30
0.0
 11
2232.521489379696
 21
785.6484125968533
 31
0.0
  0
LINE
  5
197E
330
1F
100
AcDbEntity
  8
LOGO
 62
     6
100
AcDbLine
 10
2223.388736808625
 20
781.0283161671658
 30
0.0
 11
2223.388736808625
 21
784.4420849133504
 31
0.0
  0
LINE
  5
197F
330
1F
100
AcDbEntity
  8
LOGO
  6
Continuous
 62
     6
100
AcDbLine
 10
2223.388736808625
 20
784.4420849133504
 30
0.0
 11
2232.521489379696
 21
785.6484125968533
 31
0.0
  0
LINE
  5
1980
330
1F
100
AcDbEntity
  8
LOGO
  6
Continuous
 62
     6
100
AcDbLine
 10
2223.388736808625
 20
781.0283161671658
 30
0.0
 11
2232.521489379696
 21
779.8219884836627
 31
0.0
  0
TEXT
  5
1981
330
1F
100
AcDbEntity
  8
LOGO
 62
     6
100
AcDbText
 10
2168.922230039477
 20
790.2530155952273
 30
328.8311731646075
 40
5.01738539554751
  1
比例 Scale:
 41
0.9
  7
CHINESET
 72
     4
 11
2184.854668574534
 21
792.7592391072749
 31
328.8311731646075
100
AcDbText
  0
TEXT
  5
1982
330
1F
100
AcDbEntity
  8
LOGO
 62
     6
100
AcDbText
 10
2170.676075023724
 20
780.2863531770788
 30
328.8311731646075
 40
5.01738539554751
  1
投影 View:
 41
0.9
  7
CHINESET
 72
     4
 11
2184.854668574534
 21
782.7244683161799
 31
328.8311731646075
100
AcDbText
  0
TEXT
  5
1983
330
1F
100
AcDbEntity
  8
LOGO
 62
     6
100
AcDbText
 10
2171.166614042306
 20
770.1810048273113
 30
328.8311731646075
 40
5.01738539554751
  1
單位 Unit:
 41
0.9
  7
CHINESET
 72
     4
 11
2184.854668574534
 21
772.689697525085
 31
328.8311731646075
100
AcDbText
  0
LWPOLYLINE
  5
1984
330
1F
100
AcDbEntity
  8
0
 62
     4
100
AcDbPolyline
 90
        4
 70
     1
 43
0.0
 10
2127.990967424996
 20
797.7766245028228
 10
2845.693879732012
 20
797.7766245028228
 10
2845.693879732012
 20
1335.395161189977
 10
2127.990967424996
 20
1335.395161189977
1001
GENIUS_GENREC_14
1002
{
1000
PYDIR
1011
2127.990967424996
1021
1335.395161189977
1031
0.0
1002
}
1002
{
1000
PXDIR
1011
2845.693879732012
1021
797.7766245028228
1031
0.0
1002
}
1002
{
1000
PORI
1011
2127.990967424996
1021
797.7766245028228
1031
0.0
1002
}
1002
{
1000
PINS
1011
2127.990967424996
1021
797.7766245028228
1031
0.0
1002
}
1002
{
1000
PINS2
1011
2845.693879732012
1021
1335.395161189977
1031
0.0
1002
}
1002
{
1000
C
1070
     1
1002
}
1001
GENIUS_GENODEF_13
1002
{
1000
HIER
1070
     0
1002
}
1002
{
1000
MANEDIT
1070
     0
1002
}
1002
{
1000
NOSEL
1070
     0
1002
}
1002
{
1000
BEHIND
1070
     0
1002
}
1002
{
1000
OTHER
1070
     0
1002
}
1002
{
1000
REACTOR
1002
}
1001
GENIUS_GENOBJ-N-REC_13
1002
{
1000
OWNER
1000
GEN
1002
}
  0
SOLID
  5
1985
330
1F
100
AcDbEntity
  8
LOGO
 62
     5
100
AcDbTrace
 10
2133.196585295787
 20
776.013001181062
 30
0.0
 11
2135.36597108463
 21
776.0130011810615
 31
0.0
 12
2144.417546272555
 22
796.5847629718053
 32
0.0
 13
2146.586932061398
 23
796.5847629718041
 33
0.0
  0
SOLID
  5
1986
330
1F
100
AcDbEntity
  8
LOGO
 62
     5
100
AcDbTrace
 10
2136.263647962773
 20
776.013001181062
 30
0.0
 11
2138.433033751613
 21
776.013001181062
 31
0.0
 12
2146.586932061398
 22
794.9390220285451
 32
0.0
 13
2144.417546272555
 23
786.9846074694578
 33
0.0
  0
SOLID
  5
1987
330
1F
100
AcDbEntity
  8
LOGO
 62
     2
100
AcDbTrace
 10
2135.36597108463
 20
776.0130011810615
 30
0.0
 11
2136.263647962773
 21
776.013001181062
 31
0.0
 12
2146.586932061398
 22
796.5847629718041
 32
0.0
 13
2147.484608939541
 23
796.5847629718041
 33
0.0
  0
SOLID
  5
1988
330
1F
100
AcDbEntity
  8
LOGO
 62
     5
100
AcDbTrace
 10
2129.718527877711
 20
768.5323605298833
 30
0.0
 11
2130.46659194283
 21
768.5323605298833
 31
0.0
 12
2132.573198574856
 22
772.2726808554725
 32
0.0
 13
2133.321262639972
 23
772.2726808554725
 33
0.0
  0
SOLID
  5
1989
330
1F
100
AcDbEntity
  8
LOGO
 62
     5
100
AcDbTrace
 10
2132.573198574856
 20
772.2726808554725
 30
0.0
 11
2133.321262639972
 21
772.2726808554725
 31
0.0
 12
2132.573198574856
 22
768.5323605298833
 32
0.0
 13
2133.321262639972
 23
768.5323605298833
 33
0.0
  0
SOLID
  5
198A
330
1F
100
AcDbEntity
  8
LOGO
 62
     5
100
AcDbTrace
 10
2132.573198574856
 20
768.5323605298833
 30
0.0
 11
2133.321262639972
 21
768.5323605298833
 31
0.0
 12
2135.427869272002
 22
772.2726808554725
 32
0.0
 13
2136.175933337119
 23
772.2726808554725
 33
0.0
  0
SOLID
  5
198B
330
1F
100
AcDbEntity
  8
LOGO
 62
     5
100
AcDbTrace
 10
2135.427869272002
 20
772.2726808554725
 30
0.0
 11
2136.175933337119
 21
772.2726808554725
 31
0.0
 12
2135.427869272002
 22
768.5323605298833
 32
0.0
 13
2136.175933337119
 23
768.5323605298833
 33
0.0
  0
POLYLINE
  5
198C
330
1F
100
AcDbEntity
  8
LOGO
 62
     5
100
AcDb2dPolyline
 66
     1
 10
0.0
 20
0.0
 30
0.0
 40
0.7492628857350949
 41
0.7492628857350949
  0
VERTEX
  5
198D
330
198C
100
AcDbEntity
  8
LOGO
 62
     5
100
AcDbVertex
100
AcDb2dVertex
 10
2160.502721903518
 20
770.7765527252368
 30
0.0
 42
1.0
  0
VERTEX
  5
198E
330
198C
100
AcDbEntity
  8
LOGO
 62
     5
100
AcDbVertex
100
AcDb2dVertex
 10
2158.254933246313
 20
770.7765527252368
 30
0.0
 42
1.0
  0
SEQEND
  5
198F
330
198C
100
AcDbEntity
  8
LOGO
 62
     5
  0
POLYLINE
  5
1990
330
1F
100
AcDbEntity
  8
LOGO
 62
     5
100
AcDb2dPolyline
 66
     1
 10
0.0
 20
0.0
 30
0.0
 70
     1
  0
VERTEX
  5
1991
330
1990
100
AcDbEntity
  8
LOGO
 62
     5
100
AcDbVertex
100
AcDb2dVertex
 10
2154.01775164584
 20
770.4025206926774
 30
0.0
 42
1.000000057330635
  0
VERTEX
  5
1992
330
1990
100
AcDbEntity
  8
LOGO
 62
     5
100
AcDbVertex
100
AcDb2dVertex
 10
2156.261943841193
 20
770.4025206926774
 30
0.0
 42
1.000000057330635
  0
SEQEND
  5
1993
330
1990
100
AcDbEntity
  8
LOGO
 62
     5
  0
CIRCLE
  5
1994
330
1F
100
AcDbEntity
  8
LOGO
 62
     5
100
AcDbCircle
 10
2155.139847743519
 20
770.4025206926774
 30
0.0
 40
1.122096097676878
  0
POLYLINE
  5
1995
330
1F
100
AcDbEntity
  8
LOGO
 62
     5
100
AcDb2dPolyline
 66
     1
 10
0.0
 20
0.0
 30
0.0
 70
     1
 40
0.7492628857350949
 41
0.7492628857350949
  0
VERTEX
  5
1996
330
1995
100
AcDbEntity
  8
LOGO
 62
     5
100
AcDbVertex
100
AcDb2dVertex
 10
2153.641321972048
 20
770.4025206926774
 30
0.0
 42
1.0
  0
VERTEX
  5
1997
330
1995
100
AcDbEntity
  8
LOGO
 62
     5
100
AcDbVertex
100
AcDb2dVertex
 10
2156.638373514988
 20
770.4025206926774
 30
0.0
 42
1.0
  0
SEQEND
  5
1998
330
1995
100
AcDbEntity
  8
LOGO
 62
     5
  0
LINE
  5
1999
330
1F
100
AcDbEntity
  8
LOGO
 62
     5
100
AcDbLine
 10
2160.874955705151
 20
768.5323605298833
 30
0.0
 11
2160.874955705151
 21
770.7765527252368
 31
0.0
  0
SOLID
  5
199A
330
1F
100
AcDbEntity
  8
LOGO
 62
     5
100
AcDbTrace
 10
2156.26186903479
 20
772.2726808554725
 30
0.0
 11
2157.009933099908
 21
772.2726808554725
 31
0.0
 12
2156.26186903479
 22
768.5323605298833
 32
0.0
 13
2157.009933099908
 23
768.5323605298833
 33
0.0
  0
SOLID
  5
199B
330
1F
100
AcDbEntity
  8
LOGO
 62
     5
100
AcDbTrace
 10
2157.882699444678
 20
768.5323605298833
 30
0.0
 11
2158.630763509798
 21
768.5323605298833
 31
0.0
 12
2157.882699444678
 22
772.2726808554725
 32
0.0
 13
2158.630763509798
 23
772.2726808554725
 33
0.0
  0
SOLID
  5
199C
330
1F
100
AcDbEntity
  8
LOGO
 62
     5
100
AcDbTrace
 10
2160.126891640033
 20
770.7765527252368
 30
0.0
 11
2160.874955705151
 21
770.7765527252368
 31
0.0
 12
2160.126891640033
 22
768.5323605298833
 32
0.0
 13
2160.874955705151
 23
768.5323605298833
 33
0.0
  0
SOLID
  5
199D
330
1F
100
AcDbEntity
  8
LOGO
 62
     5
100
AcDbTrace
 10
2157.807893038167
 20
794.9390220285451
 30
0.0
 11
2155.638507249325
 21
786.9846074694578
 31
0.0
 12
2157.807893038167
 22
776.0130011810615
 32
0.0
 13
2155.638507249325
 23
776.0130011810615
 33
0.0
  0
SOLID
  5
199E
330
1F
100
AcDbEntity
  8
LOGO
 62
     5
100
AcDbTrace
 10
2158.705569916309
 20
776.0130011810615
 30
0.0
 11
2160.874955705151
 21
776.0130011810615
 31
0.0
 12
2158.705569916309
 22
796.5847629718041
 32
0.0
 13
2160.874955705151
 23
796.5847629718053
 33
0.0
  0
SOLID
  5
199F
330
1F
100
AcDbEntity
  8
LOGO
 62
     2
100
AcDbTrace
 10
2157.807893038167
 20
796.5847629718053
 30
0.0
 11
2158.705569916309
 21
796.5847629718041
 31
0.0
 12
2157.807893038167
 22
776.0130011810615
 32
0.0
 13
2158.705569916309
 23
776.0130011810615
 33
0.0
  0
POLYLINE
  5
19A0
330
1F
100
AcDbEntity
  8
LOGO
 62
     5
100
AcDb2dPolyline
 66
     1
 10
0.0
 20
0.0
 30
0.0
 40
0.7492628857350949
 41
0.7492628857350949
  0
VERTEX
  5
19A1
330
19A0
100
AcDbEntity
  8
LOGO
 62
     5
100
AcDbVertex
100
AcDb2dVertex
 10
2149.780420432559
 20
770.7765527252368
 30
0.0
 42
1.0
  0
VERTEX
  5
19A2
330
19A0
100
AcDbEntity
  8
LOGO
 62
     5
100
AcDbVertex
100
AcDb2dVertex
 10
2147.532631775351
 20
770.7765527252368
 30
0.0
 42
1.0
  0
SEQEND
  5
19A3
330
19A0
100
AcDbEntity
  8
LOGO
 62
     5
  0
POLYLINE
  5
19A4
330
1F
100
AcDbEntity
  8
LOGO
 62
     5
100
AcDb2dPolyline
 66
     1
 10
0.0
 20
0.0
 30
0.0
 40
0.7492628857350949
 41
0.7492628857350949
  0
VERTEX
  5
19A5
330
19A4
100
AcDbEntity
  8
LOGO
 62
     5
100
AcDbVertex
100
AcDb2dVertex
 10
2152.024612627909
 20
770.7765527252368
 30
0.0
 42
1.0
  0
VERTEX
  5
19A6
330
19A4
100
AcDbEntity
  8
LOGO
 62
     5
100
AcDbVertex
100
AcDb2dVertex
 10
2149.776823970705
 20
770.7765527252368
 30
0.0
 42
1.0
  0
SEQEND
  5
19A7
330
19A4
100
AcDbEntity
  8
LOGO
 62
     5
  0
POLYLINE
  5
19A8
330
1F
100
AcDbEntity
  8
LOGO
 62
     5
100
AcDb2dPolyline
 66
     1
 10
0.0
 20
0.0
 30
0.0
 40
0.7492628857350949
 41
0.7492628857350949
  0
VERTEX
  5
19A9
330
19A8
100
AcDbEntity
  8
LOGO
 62
     5
100
AcDbVertex
100
AcDb2dVertex
 10
2141.302311156948
 20
770.7765527252368
 30
0.0
 42
1.0
  0
VERTEX
  5
19AA
330
19A8
100
AcDbEntity
  8
LOGO
 62
     5
100
AcDbVertex
100
AcDb2dVertex
 10
2139.054522499744
 20
770.7765527252368
 30
0.0
 42
1.0
  0
SEQEND
  5
19AB
330
19A8
100
AcDbEntity
  8
LOGO
 62
     5
  0
SOLID
  5
19AC
330
1F
100
AcDbEntity
  8
LOGO
 62
     5
100
AcDbTrace
 10
2138.682288698111
 20
772.2726808554725
 30
0.0
 11
2139.430352763227
 21
772.2726808554725
 31
0.0
 12
2138.682288698111
 22
768.5323605298833
 32
0.0
 13
2139.430352763227
 23
768.5323605298833
 33
0.0
  0
SOLID
  5
19AD
330
1F
100
AcDbEntity
  8
LOGO
 62
     5
100
AcDbTrace
 10
2140.926480893465
 20
770.7765527252368
 30
0.0
 11
2141.674544958583
 21
770.7765527252368
 31
0.0
 12
2140.926480893465
 22
768.5323605298833
 32
0.0
 13
2141.674544958583
 23
768.5323605298833
 33
0.0
  0
POLYLINE
  5
19AE
330
1F
100
AcDbEntity
  8
LOGO
 62
     5
100
AcDb2dPolyline
 66
     1
 10
0.0
 20
0.0
 30
0.0
 70
     1
 40
0.7492628857350949
 41
0.7492628857350949
  0
VERTEX
  5
19AF
330
19AE
100
AcDbEntity
  8
LOGO
 62
     5
100
AcDbVertex
100
AcDb2dVertex
 10
2142.919020501085
 20
770.4025206926774
 30
0.0
 42
1.0
  0
VERTEX
  5
19B0
330
19AE
100
AcDbEntity
  8
LOGO
 62
     5
100
AcDbVertex
100
AcDb2dVertex
 10
2145.916072044027
 20
770.4025206926774
 30
0.0
 42
1.0
  0
SEQEND
  5
19B1
330
19AE
100
AcDbEntity
  8
LOGO
 62
     5
  0
SOLID
  5
19B2
330
1F
100
AcDbEntity
  8
LOGO
 62
     5
100
AcDbTrace
 10
2145.539567563828
 20
773.3947769531501
 30
0.0
 11
2146.287631628944
 21
773.3947769531501
 31
0.0
 12
2145.539567563828
 22
768.5323605298833
 32
0.0
 13
2146.287631628944
 23
768.5323605298833
 33
0.0
  0
SOLID
  5
19B3
330
1F
100
AcDbEntity
  8
LOGO
 62
     5
100
AcDbTrace
 10
2147.160397973719
 20
772.2726808554725
 30
0.0
 11
2147.908462038837
 21
772.2726808554725
 31
0.0
 12
2147.160397973719
 22
768.5323605298833
 32
0.0
 13
2147.908462038837
 23
768.5323605298833
 33
0.0
  0
SOLID
  5
19B4
330
1F
100
AcDbEntity
  8
LOGO
 62
     5
100
AcDbTrace
 10
2149.404590169071
 20
770.7765527252368
 30
0.0
 11
2150.152654234191
 21
770.7765527252368
 31
0.0
 12
2149.404590169071
 22
768.5323605298833
 32
0.0
 13
2150.152654234191
 23
768.5323605298833
 33
0.0
  0
SOLID
  5
19B5
330
1F
100
AcDbEntity
  8
LOGO
 62
     5
100
AcDbTrace
 10
2151.648782364426
 20
770.7765527252368
 30
0.0
 11
2152.396846429544
 21
770.7765527252368
 31
0.0
 12
2151.648782364426
 22
768.5323605298824
 32
0.0
 13
2152.396846429544
 23
768.5323605298824
 33
0.0
  0
SOLID
  5
19B6
330
1F
100
AcDbEntity
  8
LOGO
 62
     5
100
AcDbTrace
 10
2137.061458288219
 20
772.7963257010554
 30
0.0
 11
2137.809522353338
 21
772.7963257010554
 31
0.0
 12
2137.061458288219
 22
773.3947769531501
 32
0.0
 13
2137.809522353338
 23
773.3947769531501
 33
0.0
  0
SOLID
  5
19B7
330
1F
100
AcDbEntity
  8
LOGO
 62
     5
100
AcDbTrace
 10
2137.061458288219
 20
772.2726808554725
 30
0.0
 11
2137.809522353338
 21
772.2726808554725
 31
0.0
 12
2137.061458288219
 22
768.5323605298824
 32
0.0
 13
2137.809522353338
 23
768.5323605298833
 33
0.0
  0
SOLID
  5
19B8
330
1F
100
AcDbEntity
  8
LOGO
 62
     5
100
AcDbTrace
 10
2144.417546272555
 20
776.013001181062
 30
0.0
 11
2146.586932061398
 21
776.013001181062
 31
0.0
 12
2144.417546272555
 22
786.9846074694578
 32
0.0
 13
2146.586932061398
 23
794.9390220285451
 33
0.0
  0
SOLID
  5
19B9
330
1F
100
AcDbEntity
  8
LOGO
 62
     5
100
AcDbTrace
 10
2147.484608939541
 20
796.5847629718041
 30
0.0
 11
2149.653994728382
 21
796.5847629718053
 31
0.0
 12
2147.484608939541
 22
777.6587421243212
 32
0.0
 13
2149.653994728382
 23
785.6131566834086
 33
0.0
  0
SOLID
  5
19BA
330
1F
100
AcDbEntity
  8
LOGO
 62
     2
100
AcDbTrace
 10
2146.586932061398
 20
796.5847629718041
 30
0.0
 11
2147.484608939541
 21
796.5847629718041
 31
0.0
 12
2146.586932061398
 22
776.013001181062
 32
0.0
 13
2147.484608939541
 23
776.013001181062
 33
0.0
  0
SOLID
  5
19BB
330
1F
100
AcDbEntity
  8
LOGO
 62
     5
100
AcDbTrace
 10
2147.484608939541
 20
777.6587421243212
 30
0.0
 11
2149.653994728382
 21
785.6131566834086
 31
0.0
 12
2157.807893038167
 22
796.5847629718053
 32
0.0
 13
2155.638507249325
 23
796.5847629718053
 33
0.0
  0
SOLID
  5
19BC
330
1F
100
AcDbEntity
  8
LOGO
 62
     5
100
AcDbTrace
 10
2147.484608939541
 20
776.013001181062
 30
0.0
 11
2149.653994728382
 21
776.013001181062
 31
0.0
 12
2157.807893038167
 22
794.9390220285451
 32
0.0
 13
2155.638507249325
 23
786.9846074694578
 33
0.0
  0
SOLID
  5
19BD
330
1F
100
AcDbEntity
  8
LOGO
 62
     2
100
AcDbTrace
 10
2146.586932061398
 20
776.013001181062
 30
0.0
 11
2147.484608939541
 21
776.013001181062
 31
0.0
 12
2157.807893038167
 22
796.5847629718053
 32
0.0
 13
2158.705569916309
 23
796.5847629718041
 33
0.0
  0
LWPOLYLINE
  5
19BE
330
1F
100
AcDbEntity
  8
0
 62
     1
100
AcDbPolyline
 90
        4
 70
     1
 43
0.0
 10
2127.990967424996
 20
797.7766245028228
 10
2845.693879732012
 20
797.7766245028228
 10
2845.693879732012
 20
747.6027705473464
 10
2127.990967424996
 20
747.6027705473464
1001
GENIUS_GENREC_14
1002
{
1000
PYDIR
1011
2127.990967424996
1021
747.6027705473464
1031
0.0
1002
}
1002
{
1000
PXDIR
1011
2845.693879732012
1021
797.7766245028228
1031
0.0
1002
}
1002
{
1000
PORI
1011
2127.990967424996
1021
797.7766245028228
1031
0.0
1002
}
1002
{
1000
PINS
1011
2127.990967424996
1021
797.7766245028228
1031
0.0
1002
}
1002
{
1000
PINS2
1011
2845.693879732012
1021
747.6027705473464
1031
0.0
1002
}
1002
{
1000
C
1070
     1
1002
}
1001
GENIUS_GENOBJ-N-REC_13
1002
{
1000
OWNER
1000
GEN
1002
}
1001
GENIUS_GENODEF_13
1002
{
1000
HIER
1070
     0
1002
}
1002
{
1000
MANEDIT
1070
     0
1002
}
1002
{
1000
NOSEL
1070
     0
1002
}
1002
{
1000
BEHIND
1070
     0
1002
}
1002
{
1000
OTHER
1070
     0
1002
}
1002
{
1000
REACTOR
1002
}
  0
LINE
  5
19BF
330
1F
100
AcDbEntity
  8
LOGO
 62
     6
100
AcDbLine
 10
2340.83459138443
 20
770.1810048273125
 30
0.0
 11
2340.83459138443
 21
751.7839250436369
 31
0.0
  0
LINE
  5
19C0
330
1F
100
AcDbEntity
  8
LOGO
 62
     6
100
AcDbLine
 10
2307.385355414114
 20
770.1810048273125
 30
0.0
 11
2307.385355414114
 21
751.7839250436369
 31
0.0
  0
LINE
  5
19C1
330
1F
100
AcDbEntity
  8
LOGO
 62
     6
100
AcDbLine
 10
2340.83459138443
 20
751.7839250436369
 30
0.0
 11
2307.385355414114
 21
751.7839250436369
 31
0.0
  0
LINE
  5
19C2
330
1F
100
AcDbEntity
  8
LOGO
 62
     6
100
AcDbLine
 10
2349.089813818378
 20
792.7592391072749
 30
0.0
 11
2307.385355414114
 21
792.7592391072749
 31
0.0
  0
LINE
  5
19C3
330
1F
100
AcDbEntity
  8
LOGO
 62
     6
100
AcDbLine
 10
2349.089813818378
 20
777.7070829206328
 30
0.0
 11
2307.385355414114
 21
777.7070829206328
 31
0.0
  0
LINE
  5
19C4
330
1F
100
AcDbEntity
  8
LOGO
 62
     6
100
AcDbLine
 10
2307.385355414114
 20
792.7592391072749
 30
0.0
 11
2307.385355414114
 21
777.7070829206328
 31
0.0
  0
LINE
  5
19C5
330
1F
100
AcDbEntity
  8
LOGO
 62
     6
100
AcDbLine
 10
2349.089813818378
 20
792.7592391072749
 30
0.0
 11
2349.089813818378
 21
777.7070829206328
 31
0.0
  0
LINE
  5
19C6
330
1F
100
AcDbEntity
  8
LOGO
 62
     6
100
AcDbLine
 10
2325.855183375872
 20
777.7070829206328
 30
0.0
 11
2325.855183375872
 21
770.1810048273125
 31
0.0
  0
TEXT
  5
19C7
330
1F
100
AcDbEntity
  8
LOGO
  6
Continuous
 62
     7
100
AcDbText
 10
2310.059887830576
 20
780.8491985183443
 30
0.0
 40
8.781696000000003
  1
MCMA
  7
CHINESET
100
AcDbText
  0
LINE
  5
19C8
330
1F
100
AcDbEntity
  8
LOGO
 62
     6
100
AcDbLine
 10
2340.83459138443
 20
770.1810048273125
 30
0.0
 11
2307.385355414114
 21
770.1810048273125
 31
0.0
  0
TEXT
  5
19C9
330
1F
100
AcDbEntity
  8
LOGO
  6
Continuous
 62
     6
100
AcDbText
 10
2316.474956265123
 20
754.3806338431886
 30
328.8311731646075
 40
3.763584
  1
Model
  7
CHINESET
100
AcDbText
  0
TEXT
  5
19CA
330
1F
100
AcDbEntity
  8
LOGO
 62
     6
100
AcDbText
 10
2317.117365624108
 20
761.3575074689464
 30
328.8311731646075
 40
6.272640000000001
  1
型號
  7
CHINESET
100
AcDbText
  0
LINE
  5
19CB
330
1F
100
AcDbEntity
  8
LOGO
  6
Continuous
 62
     7
100
AcDbLine
 10
2351.931218100244
 20
785.1798438979382
 30
0.0
 11
2358.57770104349
 21
785.1798438979382
 31
0.0
  0
LINE
  5
19CC
330
1F
100
AcDbEntity
  8
LOGO
 62
     6
100
AcDbLine
 10
2382.640140031898
 20
770.1810048273125
 30
0.0
 11
2382.640140031898
 21
751.7839250436369
 31
0.0
  0
LINE
  5
19CD
330
1F
100
AcDbEntity
  8
LOGO
 62
     6
100
AcDbLine
 10
2344.020063187661
 20
770.1810048273125
 30
0.0
 11
2344.020063187661
 21
751.7839250436369
 31
0.0
  0
LINE
  5
19CE
330
1F
100
AcDbEntity
  8
LOGO
 62
     6
100
AcDbLine
 10
2382.640140031898
 20
751.7839250436369
 30
0.0
 11
2344.020063187661
 21
751.7839250436369
 31
0.0
  0
LINE
  5
19CF
330
1F
100
AcDbEntity
  8
LOGO
 62
     6
100
AcDbLine
 10
2378.20363946041
 20
792.7592391072749
 30
0.0
 11
2360.67431605506
 21
792.7592391072749
 31
0.0
  0
LINE
  5
19D0
330
1F
100
AcDbEntity
  8
LOGO
 62
     6
100
AcDbLine
 10
2378.20363946041
 20
777.7070829206328
 30
0.0
 11
2360.67431605506
 21
777.7070829206328
 31
0.0
  0
LINE
  5
19D1
330
1F
100
AcDbEntity
  8
LOGO
 62
     6
100
AcDbLine
 10
2360.67431605506
 20
792.7592391072749
 30
0.0
 11
2360.67431605506
 21
777.7070829206328
 31
0.0
  0
LINE
  5
19D2
330
1F
100
AcDbEntity
  8
LOGO
 62
     6
100
AcDbLine
 10
2378.20363946041
 20
792.7592391072749
 30
0.0
 11
2378.20363946041
 21
777.7070829206328
 31
0.0
  0
LINE
  5
19D3
330
1F
100
AcDbEntity
  8
LOGO
 62
     6
100
AcDbLine
 10
2369.438977757735
 20
777.7070829206328
 30
0.0
 11
2369.438977757735
 21
770.1810048273125
 31
0.0
  0
TEXT
  5
19D4
330
1F
100
AcDbEntity
  8
LOGO
  6
Continuous
 62
     7
100
AcDbText
 10
2364.420816842672
 20
780.8491985183443
 30
0.0
 40
8.781696000000003
  1
11
  7
CHINESET
100
AcDbText
  0
LINE
  5
19D5
330
1F
100
AcDbEntity
  8
LOGO
 62
     6
100
AcDbLine
 10
2382.640140031898
 20
770.1810048273125
 30
0.0
 11
2344.020063187661
 21
770.1810048273125
 31
0.0
  0
LINE
  5
19D6
330
1F
100
AcDbEntity
  8
LOGO
  6
Continuous
 62
     7
100
AcDbLine
 10
2381.314043737542
 20
785.1798438979382
 30
0.0
 11
2387.960526680788
 21
785.1798438979382
 31
0.0
  0
LINE
  5
19D7
330
1F
100
AcDbEntity
  8
LOGO
 62
     6
100
AcDbLine
 10
2416.667626270094
 20
770.1810048273125
 30
0.0
 11
2416.667626270094
 21
751.7839250436369
 31
0.0
  0
LINE
  5
19D8
330
1F
100
AcDbEntity
  8
LOGO
 62
     6
100
AcDbLine
 10
2386.060140871218
 20
770.1810048273125
 30
0.0
 11
2386.060140871218
 21
751.7839250436369
 31
0.0
  0
LINE
  5
19D9
330
1F
100
AcDbEntity
  8
LOGO
 62
     6
100
AcDbLine
 10
2416.667626270094
 20
751.7839250436369
 30
0.0
 11
2386.060140871218
 21
751.7839250436369
 31
0.0
  0
LINE
  5
19DA
330
1F
100
AcDbEntity
  8
LOGO
 62
     6
100
AcDbLine
 10
2409.516180503406
 20
792.7592391072749
 30
0.0
 11
2390.057141692357
 21
792.7592391072749
 31
0.0
  0
LINE
  5
19DB
330
1F
100
AcDbEntity
  8
LOGO
 62
     6
100
AcDbLine
 10
2409.516180503406
 20
777.7070829206328
 30
0.0
 11
2390.057141692357
 21
777.7070829206328
 31
0.0
  0
LINE
  5
19DC
330
1F
100
AcDbEntity
  8
LOGO
 62
     6
100
AcDbLine
 10
2390.057141692357
 20
792.7592391072749
 30
0.0
 11
2390.057141692357
 21
777.7070829206328
 31
0.0
  0
LINE
  5
19DD
330
1F
100
AcDbEntity
  8
LOGO
 62
     6
100
AcDbLine
 10
2409.516180503406
 20
792.7592391072749
 30
0.0
 11
2409.516180503406
 21
777.7070829206328
 31
0.0
  0
LINE
  5
19DE
330
1F
100
AcDbEntity
  8
LOGO
 62
     6
100
AcDbLine
 10
2399.786661097882
 20
777.7070829206328
 30
0.0
 11
2399.786661097882
 21
770.1810048273125
 31
0.0
  0
TEXT
  5
19DF
330
1F
100
AcDbEntity
  8
LOGO
  6
Continuous
 62
     7
100
AcDbText
 10
2392.943548085686
 20
780.8491985183443
 30
0.0
 40
8.781696000000003
  1
40
  7
CHINESET
100
AcDbText
  0
LINE
  5
19E0
330
1F
100
AcDbEntity
  8
LOGO
 62
     6
100
AcDbLine
 10
2416.667626270094
 20
770.1810048273125
 30
0.0
 11
2386.060140871218
 21
770.1810048273125
 31
0.0
  0
LINE
  5
19E1
330
1F
100
AcDbEntity
  8
LOGO
  6
Continuous
 62
     7
100
AcDbLine
 10
2412.508288950091
 20
785.1798438979382
 30
0.0
 11
2419.154771893339
 21
785.1798438979382
 31
0.0
  0
LINE
  5
19E2
330
1F
100
AcDbEntity
  8
LOGO
 62
     6
100
AcDbLine
 10
2447.330457793731
 20
770.1810048273125
 30
0.0
 11
2447.330457793731
 21
751.7839250436369
 31
0.0
  0
LINE
  5
19E3
330
1F
100
AcDbEntity
  8
LOGO
 62
     6
100
AcDbLine
 10
2420.080722581353
 20
770.1810048273125
 30
0.0
 11
2420.080722581353
 21
751.7839250436369
 31
0.0
  0
LINE
  5
19E4
330
1F
100
AcDbEntity
  8
LOGO
 62
     6
100
AcDbLine
 10
2447.330457793731
 20
751.7839250436369
 30
0.0
 11
2420.080722581353
 21
751.7839250436369
 31
0.0
  0
LINE
  5
19E5
330
1F
100
AcDbEntity
  8
LOGO
 62
     6
100
AcDbLine
 10
2437.266463092099
 20
792.7592391072749
 30
0.0
 11
2421.251386904907
 21
792.7592391072749
 31
0.0
  0
LINE
  5
19E6
330
1F
100
AcDbEntity
  8
LOGO
 62
     6
100
AcDbLine
 10
2437.266463092099
 20
777.7070829206328
 30
0.0
 11
2421.251386904907
 21
777.7070829206328
 31
0.0
  0
LINE
  5
19E7
330
1F
100
AcDbEntity
  8
LOGO
 62
     6
100
AcDbLine
 10
2421.251386904907
 20
792.7592391072749
 30
0.0
 11
2421.251386904907
 21
777.7070829206328
 31
0.0
  0
LINE
  5
19E8
330
1F
100
AcDbEntity
  8
LOGO
 62
     6
100
AcDbLine
 10
2437.266463092099
 20
792.7592391072749
 30
0.0
 11
2437.266463092099
 21
777.7070829206328
 31
0.0
  0
LINE
  5
19E9
330
1F
100
AcDbEntity
  8
LOGO
 62
     6
100
AcDbLine
 10
2429.258924998502
 20
777.7070829206328
 30
0.0
 11
2429.258924998502
 21
770.1810048273125
 31
0.0
  0
TEXT
  5
19EA
330
1F
100
AcDbEntity
  8
LOGO
  6
Continuous
 62
     7
100
AcDbText
 10
2426.64923195131
 20
780.8491985183443
 30
0.0
 40
8.781696000000003
  1
0
  7
CHINESET
100
AcDbText
  0
LINE
  5
19EB
330
1F
100
AcDbEntity
  8
LOGO
 62
     6
100
AcDbLine
 10
2447.330457793731
 20
770.1810048273125
 30
0.0
 11
2420.080722581353
 21
770.1810048273125
 31
0.0
  0
TEXT
  5
19EC
330
1F
100
AcDbEntity
  8
LOGO
  6
Continuous
 62
     6
100
AcDbText
 10
2347.638154116582
 20
754.3806338431886
 30
328.8311731646075
 40
3.763584
  1
Acting type
  7
CHINESET
100
AcDbText
  0
TEXT
  5
19ED
330
1F
100
AcDbEntity
  8
LOGO
 62
     6
100
AcDbText
 10
2350.202408881243
 20
761.3575074689464
 30
328.8311731646075
 40
6.272640000000001
  1
作動型式
  7
CHINESET
100
AcDbText
  0
TEXT
  5
19EE
330
1F
100
AcDbEntity
  8
LOGO
  6
Continuous
 62
     6
100
AcDbText
 10
2389.342246484302
 20
754.3806338431886
 30
328.8311731646075
 40
3.763584
  1
Tube I.D.
  7
CHINESET
100
AcDbText
  0
TEXT
  5
19EF
330
1F
100
AcDbEntity
  8
LOGO
 62
     6
100
AcDbText
 10
2394.58390631796
 20
761.3575074689464
 30
328.8311731646075
 40
6.272640000000001
  1
內徑
  7
CHINESET
100
AcDbText
  0
TEXT
  5
19F0
330
1F
100
AcDbEntity
  8
LOGO
  6
Continuous
 62
     6
100
AcDbText
 10
2424.437202332129
 20
754.3806338431886
 30
328.8311731646075
 40
3.763584
  1
Stroke
  7
CHINESET
100
AcDbText
  0
TEXT
  5
19F1
330
1F
100
AcDbEntity
  8
LOGO
 62
     6
100
AcDbText
 10
2427.001457096791
 20
761.3575074689464
 30
328.8311731646075
 40
6.272640000000001
  1
行程
  7
CHINESET
100
AcDbText
  0
TEXT
  5
19F2
330
1F
100
AcDbEntity
  8
0
100
AcDbText
 10
2238.18911981145
 20
750.2719997744769
 30
0.0
 40
5.018112
  1
20904203
 41
0.8
  7
CHINESET
 72
     1
 11
2252.90891501145
 21
750.2719997744769
 31
0.0
100
AcDbText
  0
LINE
  5
19F3
330
1F
100
AcDbEntity
  8
LOGO
 62
     1
100
AcDbLine
 10
2268.482118127039
 20
757.6375413384438
 30
0.0
 11
2268.48211812704
 21
747.602770547348
 31
0.0
  0
LINE
  5
19F4
330
1F
100
AcDbEntity
  8
LOGO
 62
     1
100
AcDbLine
 10
2268.482118127039
 20
757.6375413384438
 30
0.0
 11
2238.373446127042
 21
757.6375413384438
 31
0.0
  0
LINE
  5
19F5
330
1F
100
AcDbEntity
  8
LOGO
  6
Continuous
 62
     7
100
AcDbLine
 10
2441.942527719004
 20
785.1798438979382
 30
0.0
 11
2448.589010662251
 21
785.1798438979382
 31
0.0
  0
LINE
  5
19F6
330
1F
100
AcDbEntity
  8
LOGO
 62
     6
100
AcDbLine
 10
2484.1890943212
 20
770.1810048273125
 30
0.0
 11
2484.1890943212
 21
751.7839250436369
 31
0.0
  0
LINE
  5
19F7
330
1F
100
AcDbEntity
  8
LOGO
 62
     6
100
AcDbLine
 10
2450.410047902134
 20
770.1810048273125
 30
0.0
 11
2450.410047902134
 21
751.7839250436369
 31
0.0
  0
LINE
  5
19F8
330
1F
100
AcDbEntity
  8
LOGO
 62
     6
100
AcDbLine
 10
2484.1890943212
 20
751.7839250436369
 30
0.0
 11
2450.410047902134
 21
751.7839250436369
 31
0.0
  0
LINE
  5
19F9
330
1F
100
AcDbEntity
  8
LOGO
 62
     6
100
AcDbLine
 10
2466.700701861011
 20
792.7592391072749
 30
0.0
 11
2450.68562567382
 21
792.7592391072749
 31
0.0
  0
LINE
  5
19FA
330
1F
100
AcDbEntity
  8
LOGO
 62
     6
100
AcDbLine
 10
2466.700701861011
 20
777.7070829206328
 30
0.0
 11
2450.68562567382
 21
777.7070829206328
 31
0.0
  0
LINE
  5
19FB
330
1F
100
AcDbEntity
  8
LOGO
 62
     6
100
AcDbLine
 10
2450.68562567382
 20
792.7592391072749
 30
0.0
 11
2450.68562567382
 21
777.7070829206328
 31
0.0
  0
LINE
  5
19FC
330
1F
100
AcDbEntity
  8
LOGO
 62
     6
100
AcDbLine
 10
2466.700701861011
 20
792.7592391072749
 30
0.0
 11
2466.700701861011
 21
777.7070829206328
 31
0.0
  0
LINE
  5
19FD
330
1F
100
AcDbEntity
  8
LOGO
 62
     6
100
AcDbLine
 10
2458.861891052539
 20
777.7070829206328
 30
0.0
 11
2458.861891052539
 21
770.1810048273125
 31
0.0
  0
TEXT
  5
19FE
330
1F
100
AcDbEntity
  8
LOGO
  6
Continuous
 62
     7
100
AcDbText
 10
2456.083470720222
 20
780.8491985183443
 30
0.0
 40
8.781696000000003
  1
?
  7
CHINESET
100
AcDbText
  0
LINE
  5
19FF
330
1F
100
AcDbEntity
  8
LOGO
 62
     6
100
AcDbLine
 10
2484.1890943212
 20
770.1810048273125
 30
0.0
 11
2450.410047902134
 21
770.1810048273125
 31
0.0
  0
TEXT
  5
1A00
330
1F
100
AcDbEntity
  8
LOGO
  6
Continuous
 62
     6
100
AcDbText
 10
2453.168627742385
 20
754.3806338431886
 30
328.8311731646075
 40
3.763584
  1
Accessory
  7
CHINESET
100
AcDbText
  0
TEXT
  5
1A01
330
1F
100
AcDbEntity
  8
LOGO
 62
     6
100
AcDbText
 10
2461.55378627101
 20
761.3575074689464
 30
328.8311731646075
 40
6.272640000000001
  1
配件
  7
CHINESET
100
AcDbText
  0
LINE
  5
1A0E
330
1F
100
AcDbEntity
  8
0
 62
     4
100
AcDbLine
 10
2127.990967424995
 20
1135.6019665611
 30
0.0
 11
2845.693879732012
 21
1135.6019665611
 31
0.0
  0
LINE
  5
1A0F
330
1F
100
AcDbEntity
  8
0
 62
     4
100
AcDbLine
 10
2552.978391052203
 20
1335.395161189977
 30
0.0
 11
2552.978391052203
 21
797.7766245028228
 31
0.0
  0
LINE
  5
1A10
330
1F
100
AcDbEntity
  8
0
 62
     4
100
AcDbLine
 10
2127.990967424995
 20
929.4615803715075
 30
0.0
 11
2845.693879732012
 21
929.4615803715075
 31
0.0
  0
TEXT
  5
1A18
330
1F
100
AcDbEntity
  8
0
100
AcDbText
 10
2141.551976632617
 20
1112.467816022137
 30
0.0
 40
10.4544
  1
FA/FB
  7
CHINESET
100
AcDbText
  0
TEXT
  5
1A19
330
1F
100
AcDbEntity
  8
0
100
AcDbText
 10
2141.551976632617
 20
903.6514167327478
 30
0.0
 40
10.4544
  1
Y
  7
CHINESET
100
AcDbText
  0
TEXT
  5
1A1A
330
1F
100
AcDbEntity
  8
0
100
AcDbText
 10
2566.539400259824
 20
1112.467816022137
 30
0.0
 40
10.4544
  1
SDB
  7
CHINESET
100
AcDbText
  0
TEXT
  5
1A1B
330
1F
100
AcDbEntity
  8
0
100
AcDbText
 10
2566.539400259824
 20
903.6514167327478
 30
0.0
 40
10.4544
  1
I
  7
CHINESET
100
AcDbText
  0
TEXT
  5
1A1D
330
1F
100
AcDbEntity
  8
0
100
AcDbText
 10
2566.539400259824
 20
1313.213176935047
 30
0.0
 40
10.4544
  1
LB
  7
CHINESET
100
AcDbText
  0
LINE
  5
3043
330
1F
100
AcDbEntity
  8
AM_7
100
AcDbLine
 10
2415.802373406662
 20
1201.542634195267
 30
0.0
 11
2255.602373406662
 21
1201.542634195267
 31
0.0
  0
LINE
  5
3044
330
1F
100
AcDbEntity
  8
AM_7
100
AcDbLine
 10
2377.702373406662
 20
1225.642634195267
 30
0.0
 11
2377.702373406662
 21
1220.742634195268
 31
0.0
  0
LINE
  5
3045
330
1F
100
AcDbEntity
  8
AM_7
100
AcDbLine
 10
2403.202373406662
 20
1201.542634195267
 30
0.0
 11
2405.202373406662
 21
1201.542634195267
 31
0.0
  0
LINE
  5
3046
330
1F
100
AcDbEntity
  8
AM_7
100
AcDbLine
 10
2404.202373406662
 20
1200.542634195268
 30
0.0
 11
2404.202373406662
 21
1202.542634195268
 31
0.0
  0
LINE
  5
3047
330
1F
100
AcDbEntity
  8
AM_7
100
AcDbLine
 10
2396.602373406662
 20
1201.542634195267
 30
0.0
 11
2402.402373406662
 21
1201.542634195267
 31
0.0
  0
LINE
  5
3048
330
1F
100
AcDbEntity
  8
AM_7
100
AcDbLine
 10
2406.002373406662
 20
1201.542634195267
 30
0.0
 11
2411.802373406662
 21
1201.542634195267
 31
0.0
  0
LINE
  5
3049
330
1F
100
AcDbEntity
  8
AM_7
100
AcDbLine
 10
2404.202373406662
 20
1193.942634195267
 30
0.0
 11
2404.202373406662
 21
1199.742634195268
 31
0.0
  0
LINE
  5
304A
330
1F
100
AcDbEntity
  8
AM_7
100
AcDbLine
 10
2404.202373406662
 20
1203.342634195267
 30
0.0
 11
2404.202373406662
 21
1209.142634195268
 31
0.0
  0
LINE
  5
304B
330
1F
100
AcDbEntity
  8
AM_7
100
AcDbLine
 10
2320.702373406662
 20
1225.642634195267
 30
0.0
 11
2320.702373406662
 21
1220.742634195267
 31
0.0
  0
LINE
  5
304C
330
1F
100
AcDbEntity
  8
AM_7
100
AcDbLine
 10
2415.802373406662
 20
1273.760951214342
 30
0.0
 11
2255.602373406662
 21
1273.760951214342
 31
0.0
  0
LINE
  5
304D
330
1F
100
AcDbEntity
  8
AM_7
100
AcDbLine
 10
2376.702373406662
 20
1273.760951214342
 30
0.0
 11
2378.702373406662
 21
1273.760951214342
 31
0.0
  0
LINE
  5
304E
330
1F
100
AcDbEntity
  8
AM_7
100
AcDbLine
 10
2377.702373406662
 20
1272.760951214342
 30
0.0
 11
2377.702373406662
 21
1274.760951214342
 31
0.0
  0
LINE
  5
304F
330
1F
100
AcDbEntity
  8
AM_7
100
AcDbLine
 10
2371.102373406662
 20
1273.760951214342
 30
0.0
 11
2375.902373406662
 21
1273.760951214342
 31
0.0
  0
LINE
  5
3050
330
1F
100
AcDbEntity
  8
AM_7
100
AcDbLine
 10
2379.502373406662
 20
1273.760951214342
 30
0.0
 11
2384.302373406662
 21
1273.760951214342
 31
0.0
  0
LINE
  5
3051
330
1F
100
AcDbEntity
  8
AM_7
100
AcDbLine
 10
2377.702373406662
 20
1267.160951214342
 30
0.0
 11
2377.702373406662
 21
1271.960951214342
 31
0.0
  0
LINE
  5
3052
330
1F
100
AcDbEntity
  8
AM_7
100
AcDbLine
 10
2377.702373406662
 20
1275.560951214342
 30
0.0
 11
2377.702373406662
 21
1280.360951214343
 31
0.0
  0
LINE
  5
3053
330
1F
100
AcDbEntity
  8
AM_7
100
AcDbLine
 10
2319.702373406662
 20
1273.760951214342
 30
0.0
 11
2321.702373406662
 21
1273.760951214342
 31
0.0
  0
LINE
  5
3054
330
1F
100
AcDbEntity
  8
AM_7
100
AcDbLine
 10
2320.702373406662
 20
1272.760951214342
 30
0.0
 11
2320.702373406662
 21
1274.760951214342
 31
0.0
  0
LINE
  5
3055
330
1F
100
AcDbEntity
  8
AM_7
100
AcDbLine
 10
2314.102373406662
 20
1273.760951214342
 30
0.0
 11
2318.902373406662
 21
1273.760951214342
 31
0.0
  0
LINE
  5
3056
330
1F
100
AcDbEntity
  8
AM_7
100
AcDbLine
 10
2322.502373406662
 20
1273.760951214342
 30
0.0
 11
2327.302373406662
 21
1273.760951214342
 31
0.0
  0
LINE
  5
3057
330
1F
100
AcDbEntity
  8
AM_7
100
AcDbLine
 10
2320.702373406662
 20
1267.160951214342
 30
0.0
 11
2320.702373406662
 21
1271.960951214342
 31
0.0
  0
LINE
  5
3058
330
1F
100
AcDbEntity
  8
AM_7
100
AcDbLine
 10
2320.702373406662
 20
1275.560951214342
 30
0.0
 11
2320.702373406662
 21
1280.360951214343
 31
0.0
  0
LINE
  5
305B
330
1F
100
AcDbEntity
  8
AM_7
100
AcDbLine
 10
2460.972951512065
 20
1201.542634195267
 30
0.0
 11
2462.972951512066
 21
1201.542634195267
 31
0.0
  0
LINE
  5
305C
330
1F
100
AcDbEntity
  8
AM_7
100
AcDbLine
 10
2461.972951512065
 20
1200.542634195268
 30
0.0
 11
2461.972951512065
 21
1202.542634195268
 31
0.0
  0
LINE
  5
305D
330
1F
100
AcDbEntity
  8
AM_7
100
AcDbLine
 10
2437.872951512066
 20
1201.542634195267
 30
0.0
 11
2460.172951512066
 21
1201.542634195267
 31
0.0
  0
LINE
  5
305E
330
1F
100
AcDbEntity
  8
AM_7
100
AcDbLine
 10
2463.772951512066
 20
1201.542634195267
 30
0.0
 11
2486.072951512066
 21
1201.542634195267
 31
0.0
  0
LINE
  5
305F
330
1F
100
AcDbEntity
  8
AM_7
100
AcDbLine
 10
2461.972951512065
 20
1177.442634195267
 30
0.0
 11
2461.972951512065
 21
1199.742634195268
 31
0.0
  0
LINE
  5
3060
330
1F
100
AcDbEntity
  8
AM_7
100
AcDbLine
 10
2461.972951512065
 20
1203.342634195267
 30
0.0
 11
2461.972951512065
 21
1225.642634195267
 31
0.0
  0
LINE
  5
3061
330
1F
100
AcDbEntity
  8
AM_7
100
AcDbLine
 10
2219.567138812019
 20
1201.542677353335
 30
0.0
 11
2224.598124960299
 21
1201.542677353335
 31
0.0
  0
LINE
  5
3062
330
1F
100
AcDbEntity
  8
AM_7
100
AcDbLine
 10
2225.73615266374
 20
1201.542677353335
 30
0.0
 11
2230.767138812019
 21
1201.542677353335
 31
0.0
  0
LINE
  5
3063
330
1F
100
AcDbEntity
  8
AM_7
100
AcDbLine
 10
2219.567138812019
 20
1273.760951214342
 30
0.0
 11
2224.598124960299
 21
1273.760951214342
 31
0.0
  0
LINE
  5
3064
330
1F
100
AcDbEntity
  8
AM_7
100
AcDbLine
 10
2225.73615266374
 20
1273.760951214342
 30
0.0
 11
2230.767138812019
 21
1273.760951214342
 31
0.0
  0
LINE
  5
3065
330
1F
100
AcDbEntity
  8
AM_7
100
AcDbLine
 10
2196.037812504546
 20
1201.542675029264
 30
0.0
 11
2200.086318280578
 21
1201.542675029264
 31
0.0
  0
LINE
  5
3066
330
1F
100
AcDbEntity
  8
AM_7
100
AcDbLine
 10
2202.189306728515
 20
1201.542675029264
 30
0.0
 11
2206.237812504546
 21
1201.542675029264
 31
0.0
  0
LINE
  5
3067
330
1F
100
AcDbEntity
  8
AM_7
100
AcDbLine
 10
2196.037812504546
 20
1273.760951214342
 30
0.0
 11
2200.086318280578
 21
1273.760951214342
 31
0.0
  0
LINE
  5
3068
330
1F
100
AcDbEntity
  8
AM_7
100
AcDbLine
 10
2202.189306728515
 20
1273.760951214342
 30
0.0
 11
2206.237812504546
 21
1273.760951214342
 31
0.0
  0
LINE
  5
3069
330
1F
100
AcDbEntity
  8
AM_VIS
100
AcDbLine
 10
2293.202373406662
 20
1197.66965084906
 30
0.0
 11
2287.202373406662
 21
1197.66965084906
 31
0.0
  0
LINE
  5
306A
330
1F
100
AcDbEntity
  8
AM_VIS
100
AcDbLine
 10
2287.202373406662
 20
1205.415617541475
 30
0.0
 11
2293.202373406662
 21
1205.415617541475
 31
0.0
  0
LINE
  5
306B
330
1F
100
AcDbEntity
  8
AM_VIS
100
AcDbLine
 10
2293.202373406662
 20
1205.415617541475
 30
0.0
 11
2293.202373406662
 21
1197.66965084906
 31
0.0
  0
ELLIPSE
  5
306C
330
1F
100
AcDbEntity
  8
AM_VIS
100
AcDbEllipse
 10
2282.702373406662
 20
1201.542634195267
 30
0.0
 11
-12.00000000000007
 21
0.0
 31
0.0000000000000003
210
0.0
220
0.0
230
1.0
 40
0.6666666666666625
 41
2.636232143305623
 42
3.646953163873948
  0
SPLINE
  5
306D
330
1F
100
AcDbEntity
  8
AM_VIS
100
AcDbSpline
210
0.0
220
0.0
230
1.0
 70
     8
 71
     3
 72
    26
 73
    22
 74
     0
 42
0.0000000001
 43
0.0000000001
 40
0.0
 40
0.0
 40
0.0
 40
0.0
 40
0.7078006489485367
 40
0.7078006489485367
 40
1.415601297897073
 40
1.415601297897073
 40
2.12340194684561
 40
2.12340194684561
 40
2.831202595794146
 40
2.831202595794146
 40
3.131734526018453
 40
3.131734526018453
 40
3.432266456242759
 40
3.432266456242759
 40
3.608727904966053
 40
3.608727904966053
 40
3.785189353689347
 40
3.785189353689347
 40
3.910627475966048
 40
3.910627475966048
 40
4.036065598242749
 40
4.036065598242749
 40
4.036065598242749
 40
4.036065598242749
 10
2286.202373406662
 20
1201.542634195267
 30
0.0
 10
2286.202373406662
 20
1201.778567744917
 30
0.0
 10
2286.202097605249
 20
1202.026079672112
 30
0.0
 10
2286.204140131064
 20
1202.531553103552
 30
0.0
 10
2286.206480538565
 20
1202.789514518334
 30
0.0
 10
2286.223930699599
 20
1203.3031513658
 30
0.0
 10
2286.23911498171
 20
1203.558728714045
 30
0.0
 10
2286.297450463897
 20
1204.054663534658
 30
0.0
 10
2286.340261152591
 20
1204.29506100121
 30
0.0
 10
2286.436633136124
 20
1204.617059372036
 30
0.0
 10
2286.473292065934
 20
1204.720901249415
 30
0.0
 10
2286.56346803607
 20
1204.92027697019
 30
0.0
 10
2286.617217502424
 20
1205.015705607623
 30
0.0
 10
2286.711131117115
 20
1205.144004209131
 30
0.0
 10
2286.752825794857
 20
1205.193364173106
 30
0.0
 10
2286.845888277387
 20
1205.281160357535
 30
0.0
 10
2286.897393454909
 20
1205.319450850989
 30
0.0
 10
2286.985625514714
 20
1205.367846539012
 30
0.0
 10
2287.027786124685
 20
1205.385859654617
 30
0.0
 10
2287.115241876651
 20
1205.409788472245
 30
0.0
 10
2287.160560699236
 20
1205.415617541475
 30
0.0
 10
2287.202373406662
 20
1205.415617541475
 30
0.0
  0
SPLINE
  5
306E
330
1F
100
AcDbEntity
  8
AM_VIS
100
AcDbSpline
210
0.0
220
0.0
230
1.0
 70
     8
 71
     3
 72
    26
 73
    22
 74
     0
 42
0.0000000001
 43
0.0000000001
 40
-4.03606559824275
 40
-4.03606559824275
 40
-4.03606559824275
 40
-4.03606559824275
 40
-3.910627475966048
 40
-3.910627475966048
 40
-3.785189353689348
 40
-3.785189353689348
 40
-3.608727904966055
 40
-3.608727904966055
 40
-3.432266456242761
 40
-3.432266456242761
 40
-3.131734526018455
 40
-3.131734526018455
 40
-2.831202595794147
 40
-2.831202595794147
 40
-2.123401946845611
 40
-2.123401946845611
 40
-1.415601297897072
 40
-1.415601297897072
 40
-0.7078006489485365
 40
-0.7078006489485365
 40
0.0
 40
0.0
 40
0.0
 40
0.0
 10
2287.202373406662
 20
1197.66965084906
 30
0.0
 10
2287.160560699236
 20
1197.66965084906
 30
0.0
 10
2287.115241876651
 20
1197.67547991829
 30
0.0
 10
2287.027786124685
 20
1197.699408735918
 30
0.0
 10
2286.985625514714
 20
1197.717421851523
 30
0.0
 10
2286.897393454909
 20
1197.765817539546
 30
0.0
 10
2286.845888277387
 20
1197.804108033
 30
0.0
 10
2286.752825794857
 20
1197.891904217429
 30
0.0
 10
2286.711131117115
 20
1197.941264181404
 30
0.0
 10
2286.617217502424
 20
1198.069562782912
 30
0.0
 10
2286.56346803607
 20
1198.164991420345
 30
0.0
 10
2286.473292065934
 20
1198.36436714112
 30
0.0
 10
2286.436633136124
 20
1198.468209018499
 30
0.0
 10
2286.340261152591
 20
1198.790207389325
 30
0.0
 10
2286.297450463897
 20
1199.030604855876
 30
0.0
 10
2286.23911498171
 20
1199.52653967649
 30
0.0
 10
2286.223930699599
 20
1199.782117024735
 30
0.0
 10
2286.206480538565
 20
1200.295753872201
 30
0.0
 10
2286.204140131064
 20
1200.553715286983
 30
0.0
 10
2286.202097605249
 20
1201.059188718424
 30
0.0
 10
2286.202373406662
 20
1201.306700645618
 30
0.0
 10
2286.202373406662
 20
1201.542634195267
 30
0.0
  0
LINE
  5
306F
330
1F
100
AcDbEntity
  8
AM_VIS
100
AcDbLine
 10
2286.202373406662
 20
1207.542634195268
 30
0.0
 11
2257.202373406662
 21
1207.542634195268
 31
0.0
  0
LINE
  5
3070
330
1F
100
AcDbEntity
  8
AM_VIS
100
AcDbLine
 10
2286.202373406662
 20
1195.542634195267
 30
0.0
 11
2257.202373406662
 21
1195.542634195267
 31
0.0
  0
LINE
  5
3071
330
1F
100
AcDbEntity
  8
AM_VIS
100
AcDbLine
 10
2256.202373406662
 20
1196.542634195268
 30
0.0
 11
2257.202373406662
 21
1195.542634195267
 31
0.0
  0
LINE
  5
3072
330
1F
100
AcDbEntity
  8
AM_VIS
100
AcDbLine
 10
2256.202373406662
 20
1206.542634195268
 30
0.0
 11
2257.202373406662
 21
1207.542634195268
 31
0.0
  0
LINE
  5
3073
330
1F
100
AcDbEntity
  8
AM_VIS
100
AcDbLine
 10
2296.202373406662
 20
1209.542634195267
 30
0.0
 11
2287.202373406662
 21
1209.542634195267
 31
0.0
  0
LINE
  5
3074
330
1F
100
AcDbEntity
  8
AM_VIS
100
AcDbLine
 10
2296.202373406662
 20
1193.542634195267
 30
0.0
 11
2287.202373406662
 21
1193.542634195267
 31
0.0
  0
LINE
  5
3075
102
{ACAD_REACTORS
330
3486
102
}
330
1F
100
AcDbEntity
  8
AM_VIS
100
AcDbLine
 10
2256.202373406662
 20
1196.542634195268
 30
0.0
 11
2256.202373406662
 21
1206.542634195268
 31
0.0
  0
LINE
  5
3076
330
1F
100
AcDbEntity
  8
AM_VIS
100
AcDbLine
 10
2286.202373406662
 20
1201.542634195267
 30
0.0
 11
2286.202373406662
 21
1208.542634195268
 31
0.0
  0
LINE
  5
3077
330
1F
100
AcDbEntity
  8
AM_VIS
100
AcDbLine
 10
2286.202373406662
 20
1194.542634195268
 30
0.0
 11
2286.202373406662
 21
1201.542634195267
 31
0.0
  0
ARC
  5
3078
330
1F
100
AcDbEntity
  8
AM_VIS
100
AcDbCircle
 10
2287.202373406662
 20
1208.542634195268
 30
0.0
 40
1.0
100
AcDbArc
 50
90.0
 51
180.0
  0
ARC
  5
3079
330
1F
100
AcDbEntity
  8
AM_VIS
100
AcDbCircle
 10
2287.202373406662
 20
1194.542634195268
 30
0.0
 40
1.0
100
AcDbArc
 50
180.0
 51
270.0
  0
LINE
  5
307A
330
1F
100
AcDbEntity
  8
AM_VIS
100
AcDbLine
 10
2330.702373406662
 20
1180.842634195268
 30
0.0
 11
2330.802373406662
 21
1180.742634195267
 31
0.0
  0
LINE
  5
307B
330
1F
100
AcDbEntity
  8
AM_VIS
100
AcDbLine
 10
2330.702373406662
 20
1222.242634195267
 30
0.0
 11
2330.802373406662
 21
1222.342634195268
 31
0.0
  0
LINE
  5
307C
330
1F
100
AcDbEntity
  8
AM_VIS
100
AcDbLine
 10
2367.602373406662
 20
1222.342634195268
 30
0.0
 11
2330.802373406662
 21
1222.342634195268
 31
0.0
  0
LINE
  5
307D
330
1F
100
AcDbEntity
  8
AM_VIS
100
AcDbLine
 10
2367.602373406662
 20
1180.742634195267
 30
0.0
 11
2330.802373406662
 21
1180.742634195267
 31
0.0
  0
LINE
  5
307E
330
1F
100
AcDbEntity
  8
AM_VIS
100
AcDbLine
 10
2367.702373406662
 20
1222.242634195268
 30
0.0
 11
2367.602373406662
 21
1222.342634195268
 31
0.0
  0
LINE
  5
307F
330
1F
100
AcDbEntity
  8
AM_VIS
100
AcDbLine
 10
2367.702373406662
 20
1180.842634195268
 30
0.0
 11
2367.602373406662
 21
1180.742634195267
 31
0.0
  0
LINE
  5
3080
330
1F
100
AcDbEntity
  8
AM_VIS
100
AcDbLine
 10
2388.202373406662
 20
1208.937733924142
 30
0.0
 11
2388.202373406662
 21
1194.147534466393
 31
0.0
  0
LINE
  5
3081
330
1F
100
AcDbEntity
  8
AM_VIS
100
AcDbLine
 10
2370.202373406662
 20
1201.542634195267
 30
0.0
 11
2370.202373406662
 21
1208.937733924142
 31
0.0
  0
LINE
  5
3082
330
1F
100
AcDbEntity
  8
AM_VIS
100
AcDbLine
 10
2370.202373406662
 20
1194.147534466393
 30
0.0
 11
2370.202373406662
 21
1201.542634195267
 31
0.0
  0
LINE
  5
3083
330
1F
100
AcDbEntity
  8
AM_VIS
100
AcDbLine
 10
2370.202373406662
 20
1208.937733924142
 30
0.0
 11
2388.202373406662
 21
1208.937733924142
 31
0.0
  0
ARC
  5
3084
330
1F
100
AcDbEntity
  8
AM_VIS
100
AcDbCircle
 10
2377.702373406662
 20
1251.573285985887
 30
0.0
 40
28.17688393020641
100
AcDbArc
 50
257.7052705313739
 51
282.2947294686262
  0
LINE
  5
3085
330
1F
100
AcDbEntity
  8
AM_VIS
100
AcDbLine
 10
2388.202373406662
 20
1194.147534466393
 30
0.0
 11
2370.202373406662
 21
1194.147534466393
 31
0.0
  0
LINE
  5
3086
330
1F
100
AcDbEntity
  8
AM_VIS
100
AcDbLine
 10
2388.502373406662
 20
1212.722974082766
 30
0.0
 11
2414.202373406662
 21
1212.722974082766
 31
0.0
  0
SPLINE
  5
3087
330
1F
100
AcDbEntity
  8
AM_VIS
100
AcDbSpline
210
0.0
220
0.0
230
1.0
 70
     8
 71
     3
 72
    22
 73
    18
 74
     0
 42
0.0000000001
 43
0.0000000001
 40
0.0
 40
0.0
 40
0.0
 40
0.0
 40
0.3310165893634958
 40
0.3310165893634958
 40
0.6620331787269917
 40
0.6620331787269917
 40
1.048397951862111
 40
1.048397951862111
 40
1.43476272499723
 40
1.43476272499723
 40
1.915494440922237
 40
1.915494440922237
 40
2.396226156847244
 40
2.396226156847244
 40
3.025991918116192
 40
3.025991918116192
 40
3.65575767938514
 40
3.65575767938514
 40
3.65575767938514
 40
3.65575767938514
 10
2414.202373406662
 20
1212.722974082766
 30
0.0
 10
2414.312712269783
 20
1212.722974082766
 30
0.0
 10
2414.432808467022
 20
1212.709856344746
 30
0.0
 10
2414.666285059986
 20
1212.654553645119
 30
0.0
 10
2414.779685292133
 20
1212.612452462305
 30
0.0
 10
2414.994809164435
 20
1212.508032639072
 30
0.0
 10
2415.113863732449
 20
1212.432620807327
 30
0.0
 10
2415.331931836206
 20
1212.256305838332
 30
0.0
 10
2415.431087298343
 20
1212.155578309344
 30
0.0
 10
2415.616279610034
 20
1211.93366977199
 30
0.0
 10
2415.714331931851
 20
1211.788121126416
 30
0.0
 10
2415.879950920967
 20
1211.480038165655
 30
0.0
 10
2415.947770759029
 20
1211.317640016859
 30
0.0
 10
2416.066592511395
 20
1210.967063164081
 30
0.0
 10
2416.120394149678
 20
1210.743319131866
 30
0.0
 10
2416.188127150599
 20
1210.289354019681
 30
0.0
 10
2416.202373406662
 20
1210.059179978609
 30
0.0
 10
2416.202373406662
 20
1209.849258058186
 30
0.0
  0
LINE
  5
3088
330
1F
100
AcDbEntity
  8
AM_VIS
100
AcDbLine
 10
2416.202373406662
 20
1209.849258058186
 30
0.0
 11
2416.202373406662
 21
1193.236010332349
 31
0.0
  0
SPLINE
  5
3089
330
1F
100
AcDbEntity
  8
AM_VIS
100
AcDbSpline
210
0.0
220
0.0
230
1.0
 70
     8
 71
     3
 72
    22
 73
    18
 74
     0
 42
0.0000000001
 43
0.0000000001
 40
-3.655757679385139
 40
-3.655757679385139
 40
-3.655757679385139
 40
-3.655757679385139
 40
-3.025991918116192
 40
-3.025991918116192
 40
-2.396226156847244
 40
-2.396226156847244
 40
-1.915494440922238
 40
-1.915494440922238
 40
-1.434762724997231
 40
-1.434762724997231
 40
-1.048397951862112
 40
-1.048397951862112
 40
-0.6620331787269916
 40
-0.6620331787269916
 40
-0.3310165893634949
 40
-0.3310165893634949
 40
0.0
 40
0.0
 40
0.0
 40
0.0
 10
2416.202373406662
 20
1193.236010332349
 30
0.0
 10
2416.202373406662
 20
1193.026088411926
 30
0.0
 10
2416.188127150599
 20
1192.795914370854
 30
0.0
 10
2416.120394149678
 20
1192.341949258668
 30
0.0
 10
2416.066592511395
 20
1192.118205226454
 30
0.0
 10
2415.947770759029
 20
1191.767628373676
 30
0.0
 10
2415.879950920967
 20
1191.60523022488
 30
0.0
 10
2415.714331931851
 20
1191.297147264119
 30
0.0
 10
2415.616279610034
 20
1191.151598618545
 30
0.0
 10
2415.431087298343
 20
1190.92969008119
 30
0.0
 10
2415.331931836206
 20
1190.828962552203
 30
0.0
 10
2415.113863732449
 20
1190.652647583208
 30
0.0
 10
2414.994809164435
 20
1190.577235751463
 30
0.0
 10
2414.779685292133
 20
1190.47281592823
 30
0.0
 10
2414.666285059986
 20
1190.430714745416
 30
0.0
 10
2414.432808467022
 20
1190.375412045789
 30
0.0
 10
2414.312712269783
 20
1190.362294307768
 30
0.0
 10
2414.202373406662
 20
1190.362294307768
 30
0.0
  0
LINE
  5
308A
330
1F
100
AcDbEntity
  8
AM_VIS
100
AcDbLine
 10
2414.202373406662
 20
1190.362294307768
 30
0.0
 11
2388.502373406662
 21
1190.362294307768
 31
0.0
  0
LINE
  5
308B
330
1F
100
AcDbEntity
  8
AM_VIS
100
AcDbLine
 10
2370.202373406662
 20
1222.792634195268
 30
0.0
 11
2367.702373406662
 21
1222.792634195268
 31
0.0
  0
LINE
  5
308C
330
1F
100
AcDbEntity
  8
AM_VIS
100
AcDbLine
 10
2370.202373406662
 20
1180.292634195267
 30
0.0
 11
2367.702373406662
 21
1180.292634195267
 31
0.0
  0
LINE
  5
308D
330
1F
100
AcDbEntity
  8
AM_VIS
100
AcDbLine
 10
2371.702373406662
 20
1224.042634195267
 30
0.0
 11
2370.202373406662
 21
1224.042634195267
 31
0.0
  0
LINE
  5
308E
330
1F
100
AcDbEntity
  8
AM_VIS
100
AcDbLine
 10
2388.202373406662
 20
1224.042634195267
 30
0.0
 11
2383.702373406662
 21
1224.042634195267
 31
0.0
  0
LINE
  5
308F
330
1F
100
AcDbEntity
  8
AM_VIS
100
AcDbLine
 10
2388.202373406662
 20
1179.042634195268
 30
0.0
 11
2370.202373406662
 21
1179.042634195268
 31
0.0
  0
LINE
  5
3090
330
1F
100
AcDbEntity
  8
AM_VIS
100
AcDbLine
 10
2388.202373406662
 20
1186.542634195268
 30
0.0
 11
2414.202373406662
 21
1186.542634195268
 31
0.0
  0
LINE
  5
3091
330
1F
100
AcDbEntity
  8
AM_VIS
100
AcDbLine
 10
2388.202373406662
 20
1216.542634195268
 30
0.0
 11
2414.202373406662
 21
1216.542634195268
 31
0.0
  0
LINE
  5
3092
330
1F
100
AcDbEntity
  8
AM_VIS
100
AcDbLine
 10
2367.702373406662
 20
1180.292634195267
 30
0.0
 11
2367.702373406662
 21
1222.792634195268
 31
0.0
  0
LINE
  5
3093
330
1F
100
AcDbEntity
  8
AM_VIS
100
AcDbLine
 10
2388.202373406662
 20
1224.042634195267
 30
0.0
 11
2388.202373406662
 21
1208.937733924142
 31
0.0
  0
LINE
  5
3094
330
1F
100
AcDbEntity
  8
AM_VIS
100
AcDbLine
 10
2370.202373406662
 20
1208.937733924142
 30
0.0
 11
2370.202373406662
 21
1224.042634195267
 31
0.0
  0
LINE
  5
3095
330
1F
100
AcDbEntity
  8
AM_VIS
100
AcDbLine
 10
2370.202373406662
 20
1179.042634195268
 30
0.0
 11
2370.202373406662
 21
1194.147534466393
 31
0.0
  0
LINE
  5
3096
330
1F
100
AcDbEntity
  8
AM_VIS
100
AcDbLine
 10
2388.202373406662
 20
1194.147534466393
 30
0.0
 11
2388.202373406662
 21
1179.042634195268
 31
0.0
  0
LINE
  5
3097
330
1F
100
AcDbEntity
  8
AM_VIS
100
AcDbLine
 10
2388.502373406662
 20
1212.722974082766
 30
0.0
 11
2388.502373406662
 21
1190.362294307768
 31
0.0
  0
LINE
  5
3098
330
1F
100
AcDbEntity
  8
AM_VIS
100
AcDbLine
 10
2416.202373406662
 20
1193.236010332349
 30
0.0
 11
2416.202373406662
 21
1188.542634195268
 31
0.0
  0
LINE
  5
3099
330
1F
100
AcDbEntity
  8
AM_VIS
100
AcDbLine
 10
2416.202373406662
 20
1214.542634195268
 30
0.0
 11
2416.202373406662
 21
1209.849258058186
 31
0.0
  0
CIRCLE
  5
309A
102
{ACAD_REACTORS
330
359D
102
}
330
1F
100
AcDbEntity
  8
AM_VIS
100
AcDbCircle
 10
2404.202373406662
 20
1201.542634195267
 30
0.0
 40
6.0
  0
ARC
  5
309B
102
{ACAD_REACTORS
330
3486
102
}
330
1F
100
AcDbEntity
  8
AM_VIS
100
AcDbCircle
 10
2414.202373406662
 20
1188.542634195268
 30
0.0
 40
2.0
100
AcDbArc
 50
270.0
 51
0.0
  0
ARC
  5
309C
330
1F
100
AcDbEntity
  8
AM_VIS
100
AcDbCircle
 10
2414.202373406662
 20
1214.542634195268
 30
0.0
 40
2.0
100
AcDbArc
 50
0.0
 51
90.0
  0
LINE
  5
309D
330
1F
100
AcDbEntity
  8
AM_VIS
100
AcDbLine
 10
2328.202373406662
 20
1194.147534466393
 30
0.0
 11
2313.202373406662
 21
1194.147534466393
 31
0.0
  0
LINE
  5
309E
330
1F
100
AcDbEntity
  8
AM_VIS
100
AcDbLine
 10
2313.202373406662
 20
1194.147534466393
 30
0.0
 11
2313.202373406662
 21
1208.937733924142
 31
0.0
  0
ARC
  5
309F
330
1F
100
AcDbEntity
  8
AM_VIS
100
AcDbCircle
 10
2320.702373406662
 20
1251.573285985887
 30
0.0
 40
28.17688393020633
100
AcDbArc
 50
257.7052705313739
 51
282.2947294686262
  0
LINE
  5
30A0
330
1F
100
AcDbEntity
  8
AM_VIS
100
AcDbLine
 10
2313.202373406662
 20
1208.937733924142
 30
0.0
 11
2328.202373406662
 21
1208.937733924142
 31
0.0
  0
LINE
  5
30A1
330
1F
100
AcDbEntity
  8
AM_VIS
100
AcDbLine
 10
2328.202373406662
 20
1201.542634195267
 30
0.0
 11
2328.202373406662
 21
1194.147534466393
 31
0.0
  0
LINE
  5
30A2
330
1F
100
AcDbEntity
  8
AM_VIS
100
AcDbLine
 10
2328.202373406662
 20
1208.937733924142
 30
0.0
 11
2328.202373406662
 21
1201.542634195267
 31
0.0
  0
LINE
  5
30A3
330
1F
100
AcDbEntity
  8
AM_VIS
100
AcDbLine
 10
2313.202373406662
 20
1216.542634195267
 30
0.0
 11
2298.202373406662
 21
1216.542634195267
 31
0.0
  0
LINE
  5
30A4
330
1F
100
AcDbEntity
  8
AM_VIS
100
AcDbLine
 10
2313.202373406662
 20
1186.542634195267
 30
0.0
 11
2298.202373406662
 21
1186.542634195267
 31
0.0
  0
LINE
  5
30A5
330
1F
100
AcDbEntity
  8
AM_VIS
100
AcDbLine
 10
2328.202373406662
 20
1180.292634195267
 30
0.0
 11
2330.702373406662
 21
1180.292634195267
 31
0.0
  0
LINE
  5
30A6
330
1F
100
AcDbEntity
  8
AM_VIS
100
AcDbLine
 10
2328.202373406662
 20
1222.792634195268
 30
0.0
 11
2330.702373406662
 21
1222.792634195268
 31
0.0
  0
LINE
  5
30A7
330
1F
100
AcDbEntity
  8
AM_VIS
100
AcDbLine
 10
2328.202373406662
 20
1179.042634195267
 30
0.0
 11
2313.202373406662
 21
1179.042634195267
 31
0.0
  0
LINE
  5
30A8
330
1F
100
AcDbEntity
  8
AM_VIS
100
AcDbLine
 10
2314.702373406662
 20
1224.042634195267
 30
0.0
 11
2313.202373406662
 21
1224.042634195267
 31
0.0
  0
LINE
  5
30A9
330
1F
100
AcDbEntity
  8
AM_VIS
100
AcDbLine
 10
2328.202373406662
 20
1224.042634195267
 30
0.0
 11
2326.702373406662
 21
1224.042634195267
 31
0.0
  0
LINE
  5
30AA
330
1F
100
AcDbEntity
  8
AM_VIS
100
AcDbLine
 10
2330.702373406662
 20
1222.792634195268
 30
0.0
 11
2330.702373406662
 21
1180.292634195267
 31
0.0
  0
LINE
  5
30AB
330
1F
100
AcDbEntity
  8
AM_VIS
100
AcDbLine
 10
2313.202373406662
 20
1179.042634195267
 30
0.0
 11
2313.202373406662
 21
1194.147534466393
 31
0.0
  0
LINE
  5
30AC
330
1F
100
AcDbEntity
  8
AM_VIS
100
AcDbLine
 10
2313.202373406662
 20
1208.937733924142
 30
0.0
 11
2313.202373406662
 21
1224.042634195267
 31
0.0
  0
LINE
  5
30AD
330
1F
100
AcDbEntity
  8
AM_VIS
100
AcDbLine
 10
2328.202373406662
 20
1194.147534466393
 30
0.0
 11
2328.202373406662
 21
1179.042634195268
 31
0.0
  0
LINE
  5
30AE
330
1F
100
AcDbEntity
  8
AM_VIS
100
AcDbLine
 10
2328.202373406662
 20
1224.042634195267
 30
0.0
 11
2328.202373406662
 21
1208.937733924142
 31
0.0
  0
LINE
  5
30AF
330
1F
100
AcDbEntity
  8
AM_VIS
100
AcDbLine
 10
2296.202373406662
 20
1188.542634195267
 30
0.0
 11
2296.202373406662
 21
1214.542634195267
 31
0.0
  0
ARC
  5
30B0
330
1F
100
AcDbEntity
  8
AM_VIS
100
AcDbCircle
 10
2298.202373406662
 20
1214.542634195267
 30
0.0
 40
2.0
100
AcDbArc
 50
90.0
 51
180.0
  0
ARC
  5
30B1
330
1F
100
AcDbEntity
  8
AM_VIS
100
AcDbCircle
 10
2298.202373406662
 20
1188.542634195267
 30
0.0
 40
2.0
100
AcDbArc
 50
180.0
 51
270.0
  0
LINE
  5
30B2
330
1F
100
AcDbEntity
  8
AM_VIS
100
AcDbLine
 10
2287.202373406662
 20
1266.760951214342
 30
0.0
 11
2293.202373406662
 21
1266.760951214342
 31
0.0
  0
LINE
  5
30B3
330
1F
100
AcDbEntity
  8
AM_VIS
100
AcDbLine
 10
2294.702373406662
 20
1265.760951214342
 30
0.0
 11
2293.202373406662
 21
1266.760951214342
 31
0.0
  0
LINE
  5
30B4
330
1F
100
AcDbEntity
  8
AM_VIS
100
AcDbLine
 10
2286.202097605249
 20
1266.760951214342
 30
0.0
 11
2287.202373406662
 21
1266.760951214342
 31
0.0
  0
LINE
  5
30B5
330
1F
100
AcDbEntity
  8
AM_VIS
100
AcDbLine
 10
2293.202373406662
 20
1280.760951214342
 30
0.0
 11
2294.702373406662
 21
1281.760951214342
 31
0.0
  0
LINE
  5
30B6
330
1F
100
AcDbEntity
  8
AM_VIS
100
AcDbLine
 10
2286.202097605249
 20
1280.760951214342
 30
0.0
 11
2287.202373406662
 21
1280.760951214342
 31
0.0
  0
LINE
  5
30B7
330
1F
100
AcDbEntity
  8
AM_VIS
100
AcDbLine
 10
2293.202373406662
 20
1280.760951214342
 30
0.0
 11
2287.202373406662
 21
1280.760951214342
 31
0.0
  0
LINE
  5
30B8
330
1F
100
AcDbEntity
  8
AM_VIS
100
AcDbLine
 10
2286.202373406662
 20
1279.760951214342
 30
0.0
 11
2257.202373406662
 21
1279.760951214342
 31
0.0
  0
LINE
  5
30B9
330
1F
100
AcDbEntity
  8
AM_VIS
100
AcDbLine
 10
2286.202373406662
 20
1267.760951214342
 30
0.0
 11
2257.202373406662
 21
1267.760951214342
 31
0.0
  0
LINE
  5
30BA
330
1F
100
AcDbEntity
  8
AM_VIS
100
AcDbLine
 10
2256.202373406662
 20
1268.760951214342
 30
0.0
 11
2257.202373406662
 21
1267.760951214342
 31
0.0
  0
LINE
  5
30BB
330
1F
100
AcDbEntity
  8
AM_VIS
100
AcDbLine
 10
2256.202373406662
 20
1278.760951214342
 30
0.0
 11
2257.202373406662
 21
1279.760951214342
 31
0.0
  0
LINE
  5
30BC
330
1F
100
AcDbEntity
  8
AM_VIS
100
AcDbLine
 10
2296.202373406662
 20
1281.760951214342
 30
0.0
 11
2294.702373406662
 21
1281.760951214342
 31
0.0
  0
LINE
  5
30BD
330
1F
100
AcDbEntity
  8
AM_VIS
100
AcDbLine
 10
2296.202373406662
 20
1265.760951214342
 30
0.0
 11
2294.702373406662
 21
1265.760951214342
 31
0.0
  0
LINE
  5
30BE
330
1F
100
AcDbEntity
  8
AM_VIS
100
AcDbLine
 10
2256.202373406662
 20
1268.760951214342
 30
0.0
 11
2256.202373406662
 21
1278.760951214342
 31
0.0
  0
LINE
  5
30BF
330
1F
100
AcDbEntity
  8
AM_VIS
100
AcDbLine
 10
2286.202373406662
 20
1266.760951214342
 30
0.0
 11
2286.202373406662
 21
1280.760951214342
 31
0.0
  0
LINE
  5
30C0
330
1F
100
AcDbEntity
  8
AM_VIS
100
AcDbLine
 10
2330.702373406662
 20
1253.060951214342
 30
0.0
 11
2330.802373406662
 21
1252.960951214342
 31
0.0
  0
LINE
  5
30C1
330
1F
100
AcDbEntity
  8
AM_VIS
100
AcDbLine
 10
2330.702373406662
 20
1294.460951214342
 30
0.0
 11
2330.802373406662
 21
1294.560951214342
 31
0.0
  0
LINE
  5
30C2
330
1F
100
AcDbEntity
  8
AM_VIS
100
AcDbLine
 10
2367.602373406662
 20
1294.560951214342
 30
0.0
 11
2330.802373406662
 21
1294.560951214342
 31
0.0
  0
LINE
  5
30C3
330
1F
100
AcDbEntity
  8
AM_VIS
100
AcDbLine
 10
2367.602373406662
 20
1252.960951214342
 30
0.0
 11
2330.802373406662
 21
1252.960951214342
 31
0.0
  0
LINE
  5
30C4
330
1F
100
AcDbEntity
  8
AM_VIS
100
AcDbLine
 10
2367.702373406662
 20
1294.460951214342
 30
0.0
 11
2367.602373406662
 21
1294.560951214342
 31
0.0
  0
LINE
  5
30C5
330
1F
100
AcDbEntity
  8
AM_VIS
100
AcDbLine
 10
2367.702373406662
 20
1253.060951214342
 30
0.0
 11
2367.602373406662
 21
1252.960951214342
 31
0.0
  0
LINE
  5
30C6
330
1F
100
AcDbEntity
  8
AM_VIS
100
AcDbLine
 10
2370.202373406662
 20
1252.510951214342
 30
0.0
 11
2388.202373406662
 21
1252.510951214342
 31
0.0
  0
SPLINE
  5
30C7
330
1F
100
AcDbEntity
  8
AM_VIS
100
AcDbSpline
210
0.0
220
0.0
230
1.0
 70
     8
 71
     3
 72
    38
 73
    34
 74
     0
 42
0.0000000001
 43
0.0000000001
 40
8.591944062631451
 40
8.591944062631451
 40
8.591944062631451
 40
8.591944062631451
 40
9.680717627170301
 40
9.680717627170301
 40
10.76949119170915
 40
10.76949119170915
 40
11.858264756248
 40
11.858264756248
 40
12.94703832078685
 40
12.94703832078685
 40
14.00625077190584
 40
14.00625077190584
 40
15.06546322302483
 40
15.06546322302483
 40
16.12467567414382
 40
16.12467567414382
 40
17.18388812526282
 40
17.18388812526282
 40
18.24310057638184
 40
18.24310057638184
 40
19.30231302750086
 40
19.30231302750086
 40
20.36152547861989
 40
20.36152547861989
 40
21.42073792973892
 40
21.42073792973892
 40
22.50951149427777
 40
22.50951149427777
 40
23.59828505881662
 40
23.59828505881662
 40
24.68705862335547
 40
24.68705862335547
 40
25.77583218789432
 40
25.77583218789432
 40
25.77583218789432
 40
25.77583218789432
 10
2383.702373406662
 20
1273.760951214342
 30
0.0
 10
2383.702373406662
 20
1273.398026692829
 30
0.0
 10
2383.659973649924
 20
1273.02629537598
 30
0.0
 10
2383.486523521797
 20
1272.295112406085
 30
0.0
 10
2383.355535232712
 20
1271.935644079508
 30
0.0
 10
2383.016002767522
 20
1271.255083199531
 30
0.0
 10
2382.807138937907
 20
1270.933244296903
 30
0.0
 10
2382.333203119588
 20
1270.346379451564
 30
0.0
 10
2382.068123092285
 20
1270.081347309558
 30
0.0
 10
2381.521441901226
 20
1269.626010612445
 30
0.0
 10
2381.221643245372
 20
1269.418082711781
 30
0.0
 10
2380.577869382774
 20
1269.054538736024
 30
0.0
 10
2380.233907177833
 20
1268.898886425444
 30
0.0
 10
2379.523097479763
 20
1268.650314617083
 30
0.0
 10
2379.155821489459
 20
1268.557249887142
 30
0.0
 10
2378.421997235388
 20
1268.435671602319
 30
0.0
 10
2378.055444223702
 20
1268.40718335393
 30
0.0
 10
2377.349302589622
 20
1268.40718335393
 30
0.0
 10
2376.982749577936
 20
1268.435671602319
 30
0.0
 10
2376.248925323865
 20
1268.557249887142
 30
0.0
 10
2375.881649333561
 20
1268.650314617083
 30
0.0
 10
2375.170839635491
 20
1268.898886425444
 30
0.0
 10
2374.82687743055
 20
1269.054538736024
 30
0.0
 10
2374.183103567951
 20
1269.418082711781
 30
0.0
 10
2373.883304912097
 20
1269.626010612445
 30
0.0
 10
2373.336623721039
 20
1270.081347309558
 30
0.0
 10
2373.071543693736
 20
1270.346379451564
 30
0.0
 10
2372.597607875416
 20
1270.933244296903
 30
0.0
 10
2372.388744045802
 20
1271.255083199531
 30
0.0
 10
2372.049211580613
 20
1271.935644079508
 30
0.0
 10
2371.918223291527
 20
1272.295112406085
 30
0.0
 10
2371.7447731634
 20
1273.02629537598
 30
0.0
 10
2371.702373406662
 20
1273.398026692829
 30
0.0
 10
2371.702373406662
 20
1273.760951214342
 30
0.0
  0
SPLINE
  5
30C8
330
1F
100
AcDbEntity
  8
AM_VIS
100
AcDbSpline
210
0.0
220
0.0
230
1.0
 70
     8
 71
     3
 72
    39
 73
    35
 74
     0
 42
0.0000000001
 43
0.0000000001
 40
25.77583218789432
 40
25.77583218789432
 40
25.77583218789432
 40
25.77583218789432
 40
26.86460575243316
 40
26.86460575243316
 40
27.95337931697201
 40
27.95337931697201
 40
29.04215288151086
 40
29.04215288151086
 40
30.13092644604971
 40
30.13092644604971
 40
31.19013889716869
 40
31.19013889716869
 40
32.24935134828768
 40
32.24935134828768
 40
33.30856379940666
 40
33.30856379940666
 40
34.36777625052565
 40
34.36777625052565
 40
34.36777625052565
 40
35.42698870164466
 40
35.42698870164466
 40
36.48620115276367
 40
36.48620115276367
 40
37.54541360388269
 40
37.54541360388269
 40
38.6046260550017
 40
38.6046260550017
 40
39.69339961954054
 40
39.69339961954054
 40
40.78217318407939
 40
40.78217318407939
 40
41.87094674861824
 40
41.87094674861824
 40
42.95972031315709
 40
42.95972031315709
 40
42.95972031315709
 40
42.95972031315709
 10
2371.702373406662
 20
1273.760951214342
 30
0.0
 10
2371.702373406662
 20
1274.123875735855
 30
0.0
 10
2371.7447731634
 20
1274.495607052705
 30
0.0
 10
2371.918223291527
 20
1275.2267900226
 30
0.0
 10
2372.049211580613
 20
1275.586258349177
 30
0.0
 10
2372.388744045802
 20
1276.266819229154
 30
0.0
 10
2372.597607875416
 20
1276.588658131782
 30
0.0
 10
2373.071543693736
 20
1277.175522977121
 30
0.0
 10
2373.336623721039
 20
1277.440555119127
 30
0.0
 10
2373.883304912097
 20
1277.89589181624
 30
0.0
 10
2374.183103567952
 20
1278.103819716904
 30
0.0
 10
2374.82687743055
 20
1278.467363692661
 30
0.0
 10
2375.170839635491
 20
1278.62301600324
 30
0.0
 10
2375.881649333561
 20
1278.871587811601
 30
0.0
 10
2376.248925323865
 20
1278.964652541543
 30
0.0
 10
2376.982749577936
 20
1279.086230826365
 30
0.0
 10
2377.349302589622
 20
1279.114719074755
 30
0.0
 10
2377.702373406662
 20
1279.114719074755
 30
0.0
 10
2378.055444223702
 20
1279.114719074755
 30
0.0
 10
2378.421997235388
 20
1279.086230826365
 30
0.0
 10
2379.155821489459
 20
1278.964652541543
 30
0.0
 10
2379.523097479763
 20
1278.871587811601
 30
0.0
 10
2380.233907177833
 20
1278.62301600324
 30
0.0
 10
2380.577869382775
 20
1278.467363692661
 30
0.0
 10
2381.221643245372
 20
1278.103819716904
 30
0.0
 10
2381.521441901227
 20
1277.89589181624
 30
0.0
 10
2382.068123092285
 20
1277.440555119127
 30
0.0
 10
2382.333203119588
 20
1277.175522977121
 30
0.0
 10
2382.807138937907
 20
1276.588658131782
 30
0.0
 10
2383.016002767522
 20
1276.266819229154
 30
0.0
 10
2383.355535232712
 20
1275.586258349177
 30
0.0
 10
2383.486523521797
 20
1275.2267900226
 30
0.0
 10
2383.659973649924
 20
1274.495607052705
 30
0.0
 10
2383.702373406662
 20
1274.123875735855
 30
0.0
 10
2383.702373406662
 20
1273.760951214342
 30
0.0
  0
LINE
  5
30C9
330
1F
100
AcDbEntity
  8
AM_VIS
100
AcDbLine
 10
2388.202373406662
 20
1295.010951214342
 30
0.0
 11
2370.202373406662
 21
1295.010951214342
 31
0.0
  0
LINE
  5
30CA
330
1F
100
AcDbEntity
  8
AM_VIS
100
AcDbLine
 10
2388.502373406662
 20
1263.760951214342
 30
0.0
 11
2414.202373406662
 21
1263.760951214342
 31
0.0
  0
LINE
  5
30CB
330
1F
100
AcDbEntity
  8
AM_VIS
100
AcDbLine
 10
2414.202373406662
 20
1263.760951214342
 30
0.0
 11
2416.202373406662
 21
1263.760951214342
 31
0.0
  0
LINE
  5
30CC
330
1F
100
AcDbEntity
  8
AM_VIS
100
AcDbLine
 10
2414.202373406662
 20
1283.760951214342
 30
0.0
 11
2416.202373406662
 21
1283.760951214342
 31
0.0
  0
LINE
  5
30CD
330
1F
100
AcDbEntity
  8
AM_VIS
100
AcDbLine
 10
2414.202373406662
 20
1283.760951214342
 30
0.0
 11
2388.502373406662
 21
1283.760951214342
 31
0.0
  0
LINE
  5
30CE
330
1F
100
AcDbEntity
  8
AM_VIS
100
AcDbLine
 10
2370.202373406662
 20
1295.010951214342
 30
0.0
 11
2367.702373406662
 21
1295.010951214342
 31
0.0
  0
LINE
  5
30CF
330
1F
100
AcDbEntity
  8
AM_VIS
100
AcDbLine
 10
2370.202373406662
 20
1252.510951214342
 30
0.0
 11
2367.702373406662
 21
1252.510951214342
 31
0.0
  0
LINE
  5
30D0
330
1F
100
AcDbEntity
  8
AM_VIS
100
AcDbLine
 10
2388.202373406662
 20
1258.760951214342
 30
0.0
 11
2388.502373406662
 21
1258.760951214342
 31
0.0
  0
LINE
  5
30D1
330
1F
100
AcDbEntity
  8
AM_VIS
100
AcDbLine
 10
2388.202373406662
 20
1288.760951214342
 30
0.0
 11
2388.502373406662
 21
1288.760951214342
 31
0.0
  0
LINE
  5
30D3
330
1F
100
AcDbEntity
  8
AM_VIS
100
AcDbLine
 10
2367.702373406662
 20
1252.510951214342
 30
0.0
 11
2367.702373406662
 21
1295.010951214342
 31
0.0
  0
LINE
  5
30D4
330
1F
100
AcDbEntity
  8
AM_VIS
100
AcDbLine
 10
2388.202373406662
 20
1295.010951214342
 30
0.0
 11
2388.202373406662
 21
1252.510951214342
 31
0.0
  0
LINE
  5
30D5
330
1F
100
AcDbEntity
  8
AM_VIS
100
AcDbLine
 10
2370.202373406662
 20
1252.510951214342
 30
0.0
 11
2370.202373406662
 21
1295.010951214342
 31
0.0
  0
LINE
  5
30D6
330
1F
100
AcDbEntity
  8
AM_VIS
100
AcDbLine
 10
2388.502373406662
 20
1263.760951214342
 30
0.0
 11
2388.502373406662
 21
1258.760951214342
 31
0.0
  0
LINE
  5
30D7
330
1F
100
AcDbEntity
  8
AM_VIS
100
AcDbLine
 10
2416.202373406662
 20
1283.760951214342
 30
0.0
 11
2416.202373406662
 21
1263.760951214342
 31
0.0
  0
LINE
  5
30D8
330
1F
100
AcDbEntity
  8
AM_VIS
100
AcDbLine
 10
2388.502373406662
 20
1288.760951214342
 30
0.0
 11
2388.502373406662
 21
1283.760951214342
 31
0.0
  0
SPLINE
  5
30DA
330
1F
100
AcDbEntity
  8
AM_VIS
100
AcDbSpline
210
0.0
220
0.0
230
1.0
 70
     8
 71
     3
 72
    38
 73
    34
 74
     0
 42
0.0000000001
 43
0.0000000001
 40
8.591944062631448
 40
8.591944062631448
 40
8.591944062631448
 40
8.591944062631448
 40
9.680717627170297
 40
9.680717627170297
 40
10.76949119170914
 40
10.76949119170914
 40
11.858264756248
 40
11.858264756248
 40
12.94703832078685
 40
12.94703832078685
 40
14.00625077190584
 40
14.00625077190584
 40
15.06546322302483
 40
15.06546322302483
 40
16.12467567414382
 40
16.12467567414382
 40
17.18388812526282
 40
17.18388812526282
 40
18.24310057638184
 40
18.24310057638184
 40
19.30231302750086
 40
19.30231302750086
 40
20.36152547861989
 40
20.36152547861989
 40
21.42073792973891
 40
21.42073792973891
 40
22.50951149427776
 40
22.50951149427776
 40
23.59828505881661
 40
23.59828505881661
 40
24.68705862335546
 40
24.68705862335546
 40
25.77583218789431
 40
25.77583218789431
 40
25.77583218789431
 40
25.77583218789431
 10
2326.702373406662
 20
1273.760951214342
 30
0.0
 10
2326.702373406662
 20
1273.398026692829
 30
0.0
 10
2326.659973649924
 20
1273.02629537598
 30
0.0
 10
2326.486523521797
 20
1272.295112406085
 30
0.0
 10
2326.355535232712
 20
1271.935644079508
 30
0.0
 10
2326.016002767522
 20
1271.255083199531
 30
0.0
 10
2325.807138937908
 20
1270.933244296903
 30
0.0
 10
2325.333203119588
 20
1270.346379451564
 30
0.0
 10
2325.068123092286
 20
1270.081347309558
 30
0.0
 10
2324.521441901227
 20
1269.626010612445
 30
0.0
 10
2324.221643245373
 20
1269.418082711781
 30
0.0
 10
2323.577869382774
 20
1269.054538736024
 30
0.0
 10
2323.233907177833
 20
1268.898886425444
 30
0.0
 10
2322.523097479763
 20
1268.650314617083
 30
0.0
 10
2322.155821489459
 20
1268.557249887142
 30
0.0
 10
2321.421997235388
 20
1268.435671602319
 30
0.0
 10
2321.055444223702
 20
1268.40718335393
 30
0.0
 10
2320.349302589622
 20
1268.40718335393
 30
0.0
 10
2319.982749577936
 20
1268.435671602319
 30
0.0
 10
2319.248925323865
 20
1268.557249887142
 30
0.0
 10
2318.881649333561
 20
1268.650314617083
 30
0.0
 10
2318.170839635491
 20
1268.898886425444
 30
0.0
 10
2317.826877430549
 20
1269.054538736024
 30
0.0
 10
2317.183103567951
 20
1269.418082711781
 30
0.0
 10
2316.883304912098
 20
1269.626010612445
 30
0.0
 10
2316.336623721038
 20
1270.081347309558
 30
0.0
 10
2316.071543693736
 20
1270.346379451564
 30
0.0
 10
2315.597607875416
 20
1270.933244296903
 30
0.0
 10
2315.388744045802
 20
1271.255083199531
 30
0.0
 10
2315.049211580612
 20
1271.935644079508
 30
0.0
 10
2314.918223291527
 20
1272.295112406085
 30
0.0
 10
2314.7447731634
 20
1273.02629537598
 30
0.0
 10
2314.702373406662
 20
1273.398026692829
 30
0.0
 10
2314.702373406662
 20
1273.760951214342
 30
0.0
  0
SPLINE
  5
30DB
330
1F
100
AcDbEntity
  8
AM_VIS
100
AcDbSpline
210
0.0
220
0.0
230
1.0
 70
     8
 71
     3
 72
    39
 73
    35
 74
     0
 42
0.0000000001
 43
0.0000000001
 40
25.77583218789431
 40
25.77583218789431
 40
25.77583218789431
 40
25.77583218789431
 40
26.86460575243316
 40
26.86460575243316
 40
27.95337931697201
 40
27.95337931697201
 40
29.04215288151085
 40
29.04215288151085
 40
30.13092644604971
 40
30.13092644604971
 40
31.19013889716869
 40
31.19013889716869
 40
32.24935134828767
 40
32.24935134828767
 40
33.30856379940665
 40
33.30856379940665
 40
34.36777625052563
 40
34.36777625052563
 40
34.36777625052563
 40
35.42698870164464
 40
35.42698870164464
 40
36.48620115276365
 40
36.48620115276365
 40
37.54541360388266
 40
37.54541360388266
 40
38.60462605500167
 40
38.60462605500167
 40
39.69339961954053
 40
39.69339961954053
 40
40.78217318407937
 40
40.78217318407937
 40
41.87094674861823
 40
41.87094674861823
 40
42.95972031315708
 40
42.95972031315708
 40
42.95972031315708
 40
42.95972031315708
 10
2314.702373406662
 20
1273.760951214342
 30
0.0
 10
2314.702373406662
 20
1274.123875735855
 30
0.0
 10
2314.7447731634
 20
1274.495607052705
 30
0.0
 10
2314.918223291527
 20
1275.2267900226
 30
0.0
 10
2315.049211580612
 20
1275.586258349177
 30
0.0
 10
2315.388744045802
 20
1276.266819229154
 30
0.0
 10
2315.597607875417
 20
1276.588658131782
 30
0.0
 10
2316.071543693736
 20
1277.175522977121
 30
0.0
 10
2316.336623721038
 20
1277.440555119127
 30
0.0
 10
2316.883304912098
 20
1277.89589181624
 30
0.0
 10
2317.183103567952
 20
1278.103819716904
 30
0.0
 10
2317.826877430549
 20
1278.467363692661
 30
0.0
 10
2318.170839635491
 20
1278.62301600324
 30
0.0
 10
2318.881649333561
 20
1278.871587811601
 30
0.0
 10
2319.248925323865
 20
1278.964652541543
 30
0.0
 10
2319.982749577936
 20
1279.086230826365
 30
0.0
 10
2320.349302589622
 20
1279.114719074755
 30
0.0
 10
2320.702373406662
 20
1279.114719074755
 30
0.0
 10
2321.055444223702
 20
1279.114719074755
 30
0.0
 10
2321.421997235388
 20
1279.086230826365
 30
0.0
 10
2322.155821489459
 20
1278.964652541543
 30
0.0
 10
2322.523097479763
 20
1278.871587811601
 30
0.0
 10
2323.233907177833
 20
1278.62301600324
 30
0.0
 10
2323.577869382775
 20
1278.467363692661
 30
0.0
 10
2324.221643245373
 20
1278.103819716904
 30
0.0
 10
2324.521441901227
 20
1277.89589181624
 30
0.0
 10
2325.068123092286
 20
1277.440555119127
 30
0.0
 10
2325.333203119588
 20
1277.175522977121
 30
0.0
 10
2325.807138937908
 20
1276.588658131782
 30
0.0
 10
2326.016002767522
 20
1276.266819229154
 30
0.0
 10
2326.355535232712
 20
1275.586258349177
 30
0.0
 10
2326.486523521797
 20
1275.2267900226
 30
0.0
 10
2326.659973649924
 20
1274.495607052705
 30
0.0
 10
2326.702373406662
 20
1274.123875735855
 30
0.0
 10
2326.702373406662
 20
1273.760951214342
 30
0.0
  0
LINE
  5
30DC
330
1F
100
AcDbEntity
  8
AM_VIS
100
AcDbLine
 10
2313.202373406662
 20
1252.510951214342
 30
0.0
 11
2328.202373406662
 21
1252.510951214342
 31
0.0
  0
LINE
  5
30DD
330
1F
100
AcDbEntity
  8
AM_VIS
100
AcDbLine
 10
2328.202373406662
 20
1295.010951214342
 30
0.0
 11
2313.202373406662
 21
1295.010951214342
 31
0.0
  0
LINE
  5
30DE
330
1F
100
AcDbEntity
  8
AM_VIS
100
AcDbLine
 10
2313.202373406662
 20
1288.760951214342
 30
0.0
 11
2298.202373406662
 21
1288.760951214342
 31
0.0
  0
LINE
  5
30DF
330
1F
100
AcDbEntity
  8
AM_VIS
100
AcDbLine
 10
2313.202373406662
 20
1258.760951214342
 30
0.0
 11
2298.202373406662
 21
1258.760951214342
 31
0.0
  0
LINE
  5
30E0
330
1F
100
AcDbEntity
  8
AM_VIS
100
AcDbLine
 10
2328.202373406662
 20
1252.510951214342
 30
0.0
 11
2330.702373406662
 21
1252.510951214342
 31
0.0
  0
LINE
  5
30E1
330
1F
100
AcDbEntity
  8
AM_VIS
100
AcDbLine
 10
2328.202373406662
 20
1295.010951214342
 30
0.0
 11
2330.702373406662
 21
1295.010951214342
 31
0.0
  0
LINE
  5
30E3
330
1F
100
AcDbEntity
  8
AM_VIS
100
AcDbLine
 10
2330.702373406662
 20
1295.010951214342
 30
0.0
 11
2330.702373406662
 21
1252.510951214342
 31
0.0
  0
LINE
  5
30E4
330
1F
100
AcDbEntity
  8
AM_VIS
100
AcDbLine
 10
2313.202373406662
 20
1252.510951214342
 30
0.0
 11
2313.202373406662
 21
1295.010951214342
 31
0.0
  0
LINE
  5
30E5
330
1F
100
AcDbEntity
  8
AM_VIS
100
AcDbLine
 10
2328.202373406662
 20
1295.010951214342
 30
0.0
 11
2328.202373406662
 21
1252.510951214342
 31
0.0
  0
LINE
  5
30E7
330
1F
100
AcDbEntity
  8
AM_VIS
100
AcDbLine
 10
2296.202373406662
 20
1260.760951214342
 30
0.0
 11
2296.202373406662
 21
1286.760951214342
 31
0.0
  0
ARC
  5
30E8
330
1F
100
AcDbEntity
  8
AM_VIS
100
AcDbCircle
 10
2298.202373406662
 20
1286.760951214342
 30
0.0
 40
2.0
100
AcDbArc
 50
90.0
 51
180.0
  0
ARC
  5
30E9
330
1F
100
AcDbEntity
  8
AM_VIS
100
AcDbCircle
 10
2298.202373406662
 20
1260.760951214342
 30
0.0
 40
2.0
100
AcDbArc
 50
180.0
 51
270.0
  0
LINE
  5
30EA
330
1F
100
AcDbEntity
  8
AM_VIS
100
AcDbLine
 10
2440.722951512066
 20
1208.937733924142
 30
0.0
 11
2440.722951512066
 21
1194.147534466393
 31
0.0
  0
LINE
  5
30EB
330
1F
100
AcDbEntity
  8
AM_VIS
100
AcDbLine
 10
2483.222951512065
 20
1194.147534466393
 30
0.0
 11
2483.222951512065
 21
1208.937733924142
 31
0.0
  0
LINE
  5
30EC
330
1F
100
AcDbEntity
  8
AM_VIS
100
AcDbLine
 10
2451.972951512065
 20
1212.722974082766
 30
0.0
 11
2451.972951512065
 21
1209.849258058186
 31
0.0
  0
LINE
  5
30ED
330
1F
100
AcDbEntity
  8
AM_VIS
100
AcDbLine
 10
2451.972951512065
 20
1209.849258058186
 30
0.0
 11
2451.972951512065
 21
1193.236010332349
 31
0.0
  0
LINE
  5
30EE
330
1F
100
AcDbEntity
  8
AM_VIS
100
AcDbLine
 10
2451.972951512065
 20
1193.236010332349
 30
0.0
 11
2451.972951512065
 21
1190.362294307768
 31
0.0
  0
LINE
  5
30EF
330
1F
100
AcDbEntity
  8
AM_VIS
100
AcDbLine
 10
2471.972951512066
 20
1193.236010332349
 30
0.0
 11
2471.972951512066
 21
1209.849258058186
 31
0.0
  0
LINE
  5
30F0
330
1F
100
AcDbEntity
  8
AM_VIS
100
AcDbLine
 10
2471.972951512066
 20
1212.722974082766
 30
0.0
 11
2471.972951512066
 21
1209.849258058186
 31
0.0
  0
LINE
  5
30F1
330
1F
100
AcDbEntity
  8
AM_VIS
100
AcDbLine
 10
2471.972951512066
 20
1193.236010332349
 30
0.0
 11
2471.972951512066
 21
1190.362294307768
 31
0.0
  0
ARC
  5
30F2
330
1F
100
AcDbEntity
  8
AM_VIS
100
AcDbCircle
 10
2461.972951512065
 20
1201.542634195267
 30
0.0
 40
22.5
100
AcDbArc
 50
19.18813645372476
 51
160.8118635462752
  0
ARC
  5
30F3
330
1F
100
AcDbEntity
  8
AM_VIS
100
AcDbCircle
 10
2461.972951512065
 20
1201.542634195267
 30
0.0
 40
22.5
100
AcDbArc
 50
199.1881364537247
 51
340.8118635462753
  0
ARC
  5
30F4
330
1F
100
AcDbEntity
  8
AM_VIS
100
AcDbCircle
 10
2461.972951512065
 20
1201.542634195267
 30
0.0
 40
15.0
100
AcDbArc
 50
228.1896851042299
 51
311.8103148957701
  0
ARC
  5
30F5
330
1F
100
AcDbEntity
  8
AM_VIS
100
AcDbCircle
 10
2461.972951512065
 20
1201.542634195267
 30
0.0
 40
15.0
100
AcDbArc
 50
131.8103148957701
 51
228.1896851042299
  0
ARC
  5
30F6
330
1F
100
AcDbEntity
  8
AM_VIS
100
AcDbCircle
 10
2461.972951512065
 20
1201.542634195267
 30
0.0
 40
15.0
100
AcDbArc
 50
48.18968510422982
 51
131.8103148957701
  0
ARC
  5
30F7
330
1F
100
AcDbEntity
  8
AM_VIS
100
AcDbCircle
 10
2461.972951512065
 20
1201.542634195267
 30
0.0
 40
15.0
100
AcDbArc
 50
311.8103148957701
 51
48.18968510422982
  0
LINE
  5
30F8
330
1F
100
AcDbEntity
  8
AM_VIS
100
AcDbLine
 10
2222.998124960298
 20
1189.706996834948
 30
0.0
 11
2227.33615266374
 21
1189.706996834948
 31
0.0
  0
LINE
  5
30F9
330
1F
100
AcDbEntity
  8
AM_VIS
100
AcDbLine
 10
2222.998124960298
 20
1213.378357871722
 30
0.0
 11
2227.33615266374
 21
1213.378357871722
 31
0.0
  0
SPLINE
  5
30FA
330
1F
100
AcDbEntity
  8
AM_VIS
100
AcDbSpline
210
0.0
220
0.0
230
1.0
 70
    12
 71
     2
 72
     6
 73
     3
 74
     0
 42
0.0000000001
 43
0.0000000001
 40
1.441801391293479
 40
1.441801391293479
 40
1.441801391293479
 40
13.65513878628547
 40
13.65513878628547
 40
13.65513878628547
 10
2222.998124960298
 20
1225.21403839011
 30
0.0
 41
1.008999096913435
 10
2221.167138812019
 20
1222.042677353335
 30
0.0
 41
1.042614717271824
 10
2221.167138812019
 20
1219.296198130916
 30
0.0
 41
1.0
  0
SPLINE
  5
30FB
330
1F
100
AcDbEntity
  8
AM_VIS
100
AcDbSpline
210
0.0
220
0.0
230
1.0
 70
    12
 71
     2
 72
     6
 73
     3
 74
     0
 42
0.0000000001
 43
0.0000000001
 40
13.65513878628544
 40
13.65513878628544
 40
13.65513878628544
 40
25.86847618127741
 40
25.86847618127741
 40
25.86847618127741
 10
2221.167138812019
 20
1183.789156575754
 30
0.0
 41
1.0
 10
2221.167138812019
 20
1181.042677353335
 30
0.0
 41
1.042614717271791
 10
2222.998124960298
 20
1177.87131631656
 30
0.0
 41
1.008999096913427
  0
SPLINE
  5
30FC
330
1F
100
AcDbEntity
  8
AM_VIS
100
AcDbSpline
210
-0.0000000000001133
220
-0.0000000000000228
230
1.0
 70
    12
 71
     2
 72
     6
 73
     3
 74
     0
 42
0.0000000001
 43
0.0000000001
 40
13.65513878628542
 40
13.65513878628542
 40
13.65513878628542
 40
25.86847618127743
 40
25.86847618127743
 40
25.86847618127743
 10
2221.167138812019
 20
1201.542677353335
 30
0.0
 41
1.0
 10
2221.167138812019
 20
1196.049718908497
 30
0.0
 41
1.042614717271788
 10
2222.9981249603
 20
1189.706996834948
 30
-0.0000000000000568
 41
1.008999096913427
  0
SPLINE
  5
30FD
330
1F
100
AcDbEntity
  8
AM_VIS
100
AcDbSpline
210
0.0
220
0.0
230
1.0
 70
    12
 71
     2
 72
     6
 73
     3
 74
     0
 42
0.0000000001
 43
0.0000000001
 40
1.441801391293426
 40
1.441801391293426
 40
1.441801391293426
 40
13.65513878628544
 40
13.65513878628544
 40
13.65513878628544
 10
2222.998124960299
 20
1189.706996834948
 30
0.0
 41
1.008999096913428
 10
2221.167138812019
 20
1186.535635798173
 30
0.0
 41
1.042614717271796
 10
2221.167138812019
 20
1183.789156575754
 30
0.0
 41
1.0
  0
SPLINE
  5
30FE
330
1F
100
AcDbEntity
  8
AM_VIS
100
AcDbSpline
210
0.0
220
0.0
230
1.0
 70
    12
 71
     2
 72
     6
 73
     3
 74
     0
 42
0.0000000001
 43
0.0000000001
 40
13.65513878628547
 40
13.65513878628547
 40
13.65513878628547
 40
25.86847618127753
 40
25.86847618127753
 40
25.86847618127753
 10
2221.167138812019
 20
1219.296198130916
 30
0.0
 41
1.0
 10
2221.167138812021
 20
1216.549718908497
 30
0.0
 41
1.042614717271828
 10
2222.998124960298
 20
1213.378357871722
 30
0.0
 41
1.008999096913435
  0
SPLINE
  5
30FF
330
1F
100
AcDbEntity
  8
AM_VIS
100
AcDbSpline
210
0.0
220
0.0
230
1.0
 70
    12
 71
     2
 72
     6
 73
     3
 74
     0
 42
0.0000000001
 43
0.0000000001
 40
1.441801391293442
 40
1.441801391293442
 40
1.441801391293442
 40
13.65513878628542
 40
13.65513878628542
 40
13.65513878628542
 10
2222.998124960298
 20
1213.378357871722
 30
0.0
 41
1.008999096913428
 10
2221.167138812019
 20
1207.035635798173
 30
0.0
 41
1.042614717271792
 10
2221.167138812019
 20
1201.542677353335
 30
0.0
 41
1.0
  0
LINE
  5
3100
330
1F
100
AcDbEntity
  8
AM_VIS
100
AcDbLine
 10
2222.998124960298
 20
1177.87131631656
 30
0.0
 11
2227.33615266374
 21
1177.87131631656
 31
0.0
  0
LINE
  5
3101
330
1F
100
AcDbEntity
  8
AM_VIS
100
AcDbLine
 10
2222.998124960298
 20
1225.21403839011
 30
0.0
 11
2227.33615266374
 21
1225.21403839011
 31
0.0
  0
SPLINE
  5
3102
330
1F
100
AcDbEntity
  8
AM_VIS
100
AcDbSpline
210
0.0
220
0.0
230
1.0
 70
    12
 71
     2
 72
     6
 73
     3
 74
     0
 42
0.0000000001
 43
0.0000000001
 40
3.039483633081045
 40
3.039483633081045
 40
3.039483633081045
 40
15.49298014414669
 40
15.49298014414669
 40
15.49298014414669
 10
2227.33615266374
 20
1177.87131631656
 30
0.0
 41
1.018678162971871
 10
2229.167138812019
 20
1181.042677353335
 30
0.0
 41
1.047603547672174
 10
2229.167138812019
 20
1183.789156575754
 30
0.0
 41
1.0
  0
SPLINE
  5
3103
330
1F
100
AcDbEntity
  8
AM_VIS
100
AcDbSpline
210
0.0
220
0.0
230
1.0
 70
    12
 71
     2
 72
     6
 73
     3
 74
     0
 42
0.0000000001
 43
0.0000000001
 40
15.49298014414672
 40
15.49298014414672
 40
15.49298014414672
 40
27.94647665512876
 40
27.94647665512876
 40
27.94647665512876
 10
2229.167138812019
 20
1219.296198130916
 30
0.0
 41
1.0
 10
2229.167138812019
 20
1222.042677353317
 30
0.0
 41
1.047603547671879
 10
2227.336152663739
 20
1225.214038390109
 30
0.0
 41
1.018678162972269
  0
SPLINE
  5
3104
330
1F
100
AcDbEntity
  8
AM_VIS
100
AcDbSpline
210
0.0000000000001133
220
0.0000000000000228
230
1.0
 70
    12
 71
     2
 72
     6
 73
     3
 74
     0
 42
0.0000000001
 43
0.0000000001
 40
15.49298014414668
 40
15.49298014414668
 40
15.49298014414668
 40
27.94647665512868
 40
27.94647665512868
 40
27.94647665512868
 10
2229.167138812019
 20
1201.542677353335
 30
0.0
 41
1.0
 10
2229.167138812019
 20
1207.035635798138
 30
0.0
 41
1.047603547671844
 10
2227.33615266374
 20
1213.378357871722
 30
-0.0000000000000568
 41
1.018678162972255
  0
SPLINE
  5
3105
330
1F
100
AcDbEntity
  8
AM_VIS
100
AcDbSpline
210
0.0
220
0.0
230
1.0
 70
    12
 71
     2
 72
     6
 73
     3
 74
     0
 42
0.0000000001
 43
0.0000000001
 40
3.039483633080976
 40
3.039483633080976
 40
3.039483633080976
 40
15.49298014414672
 40
15.49298014414672
 40
15.49298014414672
 10
2227.33615266374
 20
1213.378357871722
 30
0.0
 41
1.018678162971881
 10
2229.167138812019
 20
1216.549718908497
 30
0.0
 41
1.047603547672202
 10
2229.167138812019
 20
1219.296198130916
 30
0.0
 41
1.0
  0
SPLINE
  5
3106
330
1F
100
AcDbEntity
  8
AM_VIS
100
AcDbSpline
210
0.0
220
0.0
230
1.0
 70
    12
 71
     2
 72
     6
 73
     3
 74
     0
 42
0.0000000001
 43
0.0000000001
 40
15.49298014414669
 40
15.49298014414669
 40
15.49298014414669
 40
27.94647665512874
 40
27.94647665512874
 40
27.94647665512874
 10
2229.167138812019
 20
1183.789156575754
 30
0.0
 41
1.0
 10
2229.167138812019
 20
1186.535635798155
 30
0.0
 41
1.047603547671853
 10
2227.33615266374
 20
1189.706996834948
 30
0.0
 41
1.018678162972258
  0
SPLINE
  5
3107
330
1F
100
AcDbEntity
  8
AM_VIS
100
AcDbSpline
210
0.0
220
0.0
230
1.0
 70
    12
 71
     2
 72
     6
 73
     3
 74
     0
 42
0.0000000001
 43
0.0000000001
 40
3.039483633080984
 40
3.039483633080984
 40
3.039483633080984
 40
15.49298014414668
 40
15.49298014414668
 40
15.49298014414668
 10
2227.33615266374
 20
1189.706996834948
 30
0.0
 41
1.018678162971871
 10
2229.167138812019
 20
1196.049718908497
 30
0.0
 41
1.047603547672175
 10
2229.167138812019
 20
1201.542677353335
 30
0.0
 41
1.0
  0
LINE
  5
3108
330
1F
100
AcDbEntity
  8
AM_VIS
100
AcDbLine
 10
2221.167138812019
 20
1222.042677353335
 30
0.0
 11
2222.998124960298
 21
1225.21403839011
 31
0.0
  0
LINE
  5
3109
330
1F
100
AcDbEntity
  8
AM_VIS
100
AcDbLine
 10
2221.167138812019
 20
1181.042677353335
 30
0.0
 11
2222.998124960298
 21
1177.87131631656
 31
0.0
  0
LINE
  5
310A
330
1F
100
AcDbEntity
  8
AM_VIS
100
AcDbLine
 10
2229.167138812019
 20
1181.042677353335
 30
0.0
 11
2227.33615266374
 21
1177.87131631656
 31
0.0
  0
LINE
  5
310B
330
1F
100
AcDbEntity
  8
AM_VIS
100
AcDbLine
 10
2229.167138812019
 20
1222.042677353335
 30
0.0
 11
2227.33615266374
 21
1225.21403839011
 31
0.0
  0
LINE
  5
310C
330
1F
100
AcDbEntity
  8
AM_VIS
100
AcDbLine
 10
2221.167138812019
 20
1219.296198130916
 30
0.0
 11
2221.167138812019
 21
1201.542677353335
 31
0.0
  0
LINE
  5
310D
330
1F
100
AcDbEntity
  8
AM_VIS
100
AcDbLine
 10
2221.167138812019
 20
1201.542677353335
 30
0.0
 11
2221.167138812019
 21
1183.789156575754
 31
0.0
  0
LINE
  5
310E
330
1F
100
AcDbEntity
  8
AM_VIS
100
AcDbLine
 10
2221.167138812019
 20
1183.789156575754
 30
0.0
 11
2221.167138812019
 21
1181.042677353335
 31
0.0
  0
LINE
  5
310F
330
1F
100
AcDbEntity
  8
AM_VIS
100
AcDbLine
 10
2221.167138812019
 20
1222.042677353335
 30
0.0
 11
2221.167138812019
 21
1219.296198130916
 31
0.0
  0
LINE
  5
3110
330
1F
100
AcDbEntity
  8
AM_VIS
100
AcDbLine
 10
2229.167138812019
 20
1183.789156575754
 30
0.0
 11
2229.167138812019
 21
1201.542677353335
 31
0.0
  0
LINE
  5
3111
330
1F
100
AcDbEntity
  8
AM_VIS
100
AcDbLine
 10
2229.167138812019
 20
1201.542677353335
 30
0.0
 11
2229.167138812019
 21
1219.296198130916
 31
0.0
  0
LINE
  5
3112
330
1F
100
AcDbEntity
  8
AM_VIS
100
AcDbLine
 10
2229.167138812019
 20
1219.296198130916
 30
0.0
 11
2229.167138812019
 21
1222.042677353335
 31
0.0
  0
LINE
  5
3113
330
1F
100
AcDbEntity
  8
AM_VIS
100
AcDbLine
 10
2229.167138812019
 20
1181.042677353335
 30
0.0
 11
2229.167138812019
 21
1183.789156575754
 31
0.0
  0
LINE
  5
3114
330
1F
100
AcDbEntity
  8
AM_VIS
100
AcDbLine
 10
2222.998124960298
 20
1253.260951214342
 30
0.0
 11
2227.33615266374
 21
1253.260951214342
 31
0.0
  0
SPLINE
  5
3115
330
1F
100
AcDbEntity
  8
AM_VIS
100
AcDbSpline
210
0.0
220
0.0
230
1.0
 70
    12
 71
     2
 72
     6
 73
     3
 74
     0
 42
0.0000000001
 43
0.0000000001
 40
1.441801391293479
 40
1.441801391293479
 40
1.441801391293479
 40
13.65513878628547
 40
13.65513878628547
 40
13.65513878628547
 10
2222.998124960298
 20
1273.760951214342
 30
0.0
 41
1.008999096913435
 10
2221.167138812019
 20
1268.267992769504
 30
0.0
 41
1.042614717271824
 10
2221.167138812019
 20
1263.510951214342
 30
0.0
 41
1.0
  0
SPLINE
  5
3116
330
1F
100
AcDbEntity
  8
AM_VIS
100
AcDbSpline
210
0.0
220
0.0
230
1.0
 70
    12
 71
     2
 72
     6
 73
     3
 74
     0
 42
0.0000000001
 43
0.0000000001
 40
13.65513878628547
 40
13.65513878628547
 40
13.65513878628547
 40
25.86847618127753
 40
25.86847618127753
 40
25.86847618127753
 10
2221.167138812019
 20
1263.510951214342
 30
0.0
 41
1.0
 10
2221.167138812021
 20
1258.753909659182
 30
-0.0000000000000018
 41
1.042614717271828
 10
2222.998124960298
 20
1253.260951214342
 30
0.0
 41
1.008999096913435
  0
LINE
  5
3117
330
1F
100
AcDbEntity
  8
AM_VIS
100
AcDbLine
 10
2221.167138812019
 20
1253.260951214342
 30
0.0
 11
2222.998124960298
 21
1253.260951214342
 31
0.0
  0
LINE
  5
3118
330
1F
100
AcDbEntity
  8
AM_VIS
100
AcDbLine
 10
2221.167138812019
 20
1294.260951214342
 30
0.0
 11
2222.998124960298
 21
1294.260951214342
 31
0.0
  0
LINE
  5
3119
330
1F
100
AcDbEntity
  8
AM_VIS
100
AcDbLine
 10
2222.998124960298
 20
1273.760951214342
 30
0.0
 11
2227.33615266374
 21
1273.760951214342
 31
0.0
  0
SPLINE
  5
311A
330
1F
100
AcDbEntity
  8
AM_VIS
100
AcDbSpline
210
0.0
220
0.0
230
1.0
 70
    12
 71
     2
 72
     6
 73
     3
 74
     0
 42
0.0000000001
 43
0.0000000001
 40
13.65513878628547
 40
13.65513878628547
 40
13.65513878628547
 40
25.86847618127747
 40
25.86847618127747
 40
25.86847618127747
 10
2221.167138812019
 20
1284.010951214342
 30
0.0
 41
1.0
 10
2221.167138812019
 20
1279.253909659181
 30
-0.0000000000000018
 41
1.042614717271824
 10
2222.998124960298
 20
1273.760951214342
 30
0.0
 41
1.008999096913435
  0
SPLINE
  5
311B
330
1F
100
AcDbEntity
  8
AM_VIS
100
AcDbSpline
210
0.0
220
0.0
230
1.0
 70
    12
 71
     2
 72
     6
 73
     3
 74
     0
 42
0.0000000001
 43
0.0000000001
 40
1.441801391293423
 40
1.441801391293423
 40
1.441801391293423
 40
13.65513878628547
 40
13.65513878628547
 40
13.65513878628547
 10
2222.998124960298
 20
1294.260951214342
 30
0.0
 41
1.008999096913436
 10
2221.16713881202
 20
1288.767992769505
 30
-0.0000000000000018
 41
1.04261471727183
 10
2221.167138812019
 20
1284.010951214342
 30
0.0
 41
1.0
  0
LINE
  5
311C
330
1F
100
AcDbEntity
  8
AM_VIS
100
AcDbLine
 10
2222.998124960298
 20
1294.260951214342
 30
0.0
 11
2227.33615266374
 21
1294.260951214342
 31
0.0
  0
LINE
  5
311D
330
1F
100
AcDbEntity
  8
AM_VIS
100
AcDbLine
 10
2227.33615266374
 20
1294.260951214342
 30
0.0
 11
2229.167138812019
 21
1294.260951214342
 31
0.0
  0
SPLINE
  5
311E
330
1F
100
AcDbEntity
  8
AM_VIS
100
AcDbSpline
210
0.0
220
0.0
230
1.0
 70
    12
 71
     2
 72
     6
 73
     3
 74
     0
 42
0.0000000001
 43
0.0000000001
 40
15.49298014414672
 40
15.49298014414672
 40
15.49298014414672
 40
27.94647665512879
 40
27.94647665512879
 40
27.94647665512879
 10
2229.167138812019
 20
1284.010951214342
 30
0.0
 41
1.0
 10
2229.167138812019
 20
1288.767992769474
 30
0.0000000000000018
 41
1.047603547671875
 10
2227.33615266374
 20
1294.260951214342
 30
0.0
 41
1.018678162972267
  0
SPLINE
  5
311F
330
1F
100
AcDbEntity
  8
AM_VIS
100
AcDbSpline
210
-0.0000000000000035
220
-0.0000000000000008
230
1.0
 70
    12
 71
     2
 72
     6
 73
     3
 74
     0
 42
0.0000000001
 43
0.0000000001
 40
15.49298014414672
 40
15.49298014414672
 40
15.49298014414672
 40
27.94647665512876
 40
27.94647665512876
 40
27.94647665512876
 10
2229.167138812019
 20
1263.510951214342
 30
0.0
 41
1.0
 10
2229.167138812019
 20
1268.267992769474
 30
0.0
 41
1.047603547671879
 10
2227.336152663739
 20
1273.760951214342
 30
0.0000000000000018
 41
1.018678162972269
  0
SPLINE
  5
3120
330
1F
100
AcDbEntity
  8
AM_VIS
100
AcDbSpline
210
0.0
220
0.0
230
1.0
 70
    12
 71
     2
 72
     6
 73
     3
 74
     0
 42
0.0000000001
 43
0.0000000001
 40
3.039483633081057
 40
3.039483633081057
 40
3.039483633081057
 40
15.49298014414672
 40
15.49298014414672
 40
15.49298014414672
 10
2227.33615266374
 20
1273.760951214342
 30
0.0
 41
1.018678162971877
 10
2229.167138812017
 20
1279.253909659179
 30
0.0000000000000018
 41
1.047603547672191
 10
2229.167138812019
 20
1284.010951214342
 30
0.0
 41
1.0
  0
LINE
  5
3121
330
1F
100
AcDbEntity
  8
AM_VIS
100
AcDbLine
 10
2227.33615266374
 20
1253.260951214342
 30
0.0
 11
2229.167138812019
 21
1253.260951214342
 31
0.0
  0
SPLINE
  5
3122
330
1F
100
AcDbEntity
  8
AM_VIS
100
AcDbSpline
210
0.0
220
0.0
230
1.0
 70
    12
 71
     2
 72
     6
 73
     3
 74
     0
 42
0.0000000001
 43
0.0000000001
 40
3.039483633080976
 40
3.039483633080976
 40
3.039483633080976
 40
15.49298014414672
 40
15.49298014414672
 40
15.49298014414672
 10
2227.33615266374
 20
1253.260951214342
 30
0.0
 41
1.018678162971881
 10
2229.167138812019
 20
1258.753909659181
 30
0.0
 41
1.047603547672202
 10
2229.167138812019
 20
1263.510951214342
 30
0.0
 41
1.0
  0
LINE
  5
3123
330
1F
100
AcDbEntity
  8
AM_VIS
100
AcDbLine
 10
2221.167138812019
 20
1263.510951214342
 30
0.0
 11
2221.167138812019
 21
1253.260951214342
 31
0.0
  0
LINE
  5
3124
330
1F
100
AcDbEntity
  8
AM_VIS
100
AcDbLine
 10
2221.167138812019
 20
1294.260951214342
 30
0.0
 11
2221.167138812019
 21
1284.010951214342
 31
0.0
  0
LINE
  5
3125
330
1F
100
AcDbEntity
  8
AM_VIS
100
AcDbLine
 10
2221.167138812019
 20
1284.010951214342
 30
0.0
 11
2221.167138812019
 21
1263.510951214342
 31
0.0
  0
LINE
  5
3126
330
1F
100
AcDbEntity
  8
AM_VIS
100
AcDbLine
 10
2229.167138812019
 20
1253.260951214342
 30
0.0
 11
2229.167138812019
 21
1263.510951214342
 31
0.0
  0
LINE
  5
3127
330
1F
100
AcDbEntity
  8
AM_VIS
100
AcDbLine
 10
2229.167138812019
 20
1263.510951214342
 30
0.0
 11
2229.167138812019
 21
1284.010951214342
 31
0.0
  0
LINE
  5
3128
330
1F
100
AcDbEntity
  8
AM_VIS
100
AcDbLine
 10
2229.167138812019
 20
1284.010951214342
 30
0.0
 11
2229.167138812019
 21
1294.260951214342
 31
0.0
  0
LINE
  5
3129
330
1F
100
AcDbEntity
  8
AM_VIS
100
AcDbLine
 10
2198.486318280579
 20
1190.573019914661
 30
0.0
 11
2203.789306728515
 21
1190.573019914661
 31
0.0
  0
LINE
  5
312A
330
1F
100
AcDbEntity
  8
AM_VIS
100
AcDbLine
 10
2198.486318280579
 20
1196.057847471962
 30
0.0
 11
2203.789306728515
 21
1196.057847471962
 31
0.0
  0
SPLINE
  5
312B
330
1F
100
AcDbEntity
  8
AM_VIS
100
AcDbSpline
210
0.0
220
0.0
230
1.0
 70
    12
 71
     2
 72
     6
 73
     3
 74
     0
 42
0.0000000001
 43
0.0000000001
 40
10.77582234792779
 40
10.77582234792779
 40
10.77582234792779
 40
18.09599235687494
 40
18.09599235687494
 40
18.09599235687494
 10
2198.486318280577
 20
1207.027502586565
 30
0.0
 41
1.113427891912013
 10
2197.637812504549
 20
1204.08819235736
 30
0.0
 41
1.095240539367789
 10
2197.637812504547
 20
1201.542675029264
 30
0.0
 41
1.0
  0
SPLINE
  5
312C
330
1F
100
AcDbEntity
  8
AM_VIS
100
AcDbSpline
210
-0.0000000000002446
220
-0.0000000000000985
230
-1.0
 70
    12
 71
     2
 72
     6
 73
     3
 74
     0
 42
0.0000000001
 43
0.0000000001
 40
18.09599235687494
 40
18.09599235687494
 40
18.09599235687494
 40
25.41616236582213
 40
25.41616236582213
 40
25.41616236582213
 10
2197.637812504547
 20
1193.315433693311
 30
0.0
 41
1.0
 10
2197.637812504547
 20
1192.042675029264
 30
0.0
 41
1.095240539367785
 10
2198.486318280579
 20
1190.573019914661
 30
0.0000000000000568
 41
1.113427891912009
  0
SPLINE
  5
312D
330
1F
100
AcDbEntity
  8
AM_VIS
100
AcDbSpline
210
0.0
220
0.0
230
1.0
 70
    12
 71
     2
 72
     6
 73
     3
 74
     0
 42
0.0000000001
 43
0.0000000001
 40
18.09599235687494
 40
18.09599235687494
 40
18.09599235687494
 40
25.41616236582215
 40
25.41616236582215
 40
25.41616236582215
 10
2197.637812504547
 20
1201.542675029264
 30
0.0
 41
1.0
 10
2197.637812504549
 20
1198.997157701168
 30
0.0
 41
1.09524053936779
 10
2198.486318280577
 20
1196.057847471962
 30
0.0
 41
1.113427891912014
  0
SPLINE
  5
312E
330
1F
100
AcDbEntity
  8
AM_VIS
100
AcDbSpline
210
0.0000000000000114
220
-0.0000000000000046
230
1.0
 70
    12
 71
     2
 72
     6
 73
     3
 74
     0
 42
0.0000000001
 43
0.0000000001
 40
10.77582234792776
 40
10.77582234792776
 40
10.77582234792776
 40
18.09599235687494
 40
18.09599235687494
 40
18.09599235687494
 10
2198.486318280579
 20
1196.057847471962
 30
0.0
 41
1.113427891912011
 10
2197.637812504547
 20
1194.58819235736
 30
-0.0000000000000568
 41
1.095240539367787
 10
2197.637812504547
 20
1193.315433693311
 30
0.0
 41
1.0
  0
LINE
  5
312F
330
1F
100
AcDbEntity
  8
AM_VIS
100
AcDbLine
 10
2198.486318280579
 20
1207.027502586565
 30
0.0
 11
2203.789306728515
 21
1207.027502586565
 31
0.0
  0
SPLINE
  5
3130
330
1F
100
AcDbEntity
  8
AM_VIS
100
AcDbSpline
210
0.0000000000002446
220
0.0000000000000985
230
1.0
 70
    12
 71
     2
 72
     6
 73
     3
 74
     0
 42
0.0000000001
 43
0.0000000001
 40
18.09599235687495
 40
18.09599235687495
 40
18.09599235687495
 40
25.41616236582212
 40
25.41616236582212
 40
25.41616236582212
 10
2197.637812504547
 20
1209.769916365216
 30
0.0
 41
1.0
 10
2197.637812504547
 20
1208.497157701168
 30
0.0
 41
1.095240539367792
 10
2198.486318280577
 20
1207.027502586565
 30
0.0000000000000568
 41
1.113427891912017
  0
SPLINE
  5
3131
330
1F
100
AcDbEntity
  8
AM_VIS
100
AcDbSpline
210
0.0
220
0.0
230
1.0
 70
    12
 71
     2
 72
     6
 73
     3
 74
     0
 42
0.0000000001
 43
0.0000000001
 40
10.77582234792777
 40
10.77582234792777
 40
10.77582234792777
 40
18.09599235687495
 40
18.09599235687495
 40
18.09599235687495
 10
2198.486318280579
 20
1212.512330143867
 30
0.0
 41
1.113427891912015
 10
2197.637812504549
 20
1211.042675029264
 30
0.0
 41
1.09524053936779
 10
2197.637812504547
 20
1209.769916365216
 30
0.0
 41
1.0
  0
LINE
  5
3132
330
1F
100
AcDbEntity
  8
AM_VIS
100
AcDbLine
 10
2198.486318280579
 20
1212.512330143866
 30
0.0
 11
2203.789306728515
 21
1212.512330143866
 31
0.0
  0
SPLINE
  5
3133
330
1F
100
AcDbEntity
  8
AM_VIS
100
AcDbSpline
210
0.0
220
0.0
230
1.0
 70
    12
 71
     2
 72
     6
 73
     3
 74
     0
 42
0.0000000001
 43
0.0000000001
 40
18.09599235687494
 40
18.09599235687494
 40
18.09599235687494
 40
25.41616236582213
 40
25.41616236582213
 40
25.41616236582213
 10
2204.637812504547
 20
1209.769916365216
 30
0.0
 41
1.0
 10
2204.637812504547
 20
1211.042675029264
 30
0.0
 41
1.095240539367789
 10
2203.789306728515
 20
1212.512330143867
 30
0.0
 41
1.113427891912013
  0
SPLINE
  5
3134
330
1F
100
AcDbEntity
  8
AM_VIS
100
AcDbSpline
210
0.0
220
0.0
230
1.0
 70
    12
 71
     2
 72
     6
 73
     3
 74
     0
 42
0.0000000001
 43
0.0000000001
 40
18.09599235687494
 40
18.09599235687494
 40
18.09599235687494
 40
25.41616236582209
 40
25.41616236582209
 40
25.41616236582209
 10
2204.637812504547
 20
1201.542675029264
 30
0.0
 41
1.0
 10
2204.637812504547
 20
1204.088192357359
 30
0.0
 41
1.095240539367791
 10
2203.789306728515
 20
1207.027502586565
 30
0.0
 41
1.113427891912016
  0
SPLINE
  5
3135
330
1F
100
AcDbEntity
  8
AM_VIS
100
AcDbSpline
210
0.0
220
0.0
230
1.0
 70
    12
 71
     2
 72
     6
 73
     3
 74
     0
 42
0.0000000001
 43
0.0000000001
 40
10.77582234792779
 40
10.77582234792779
 40
10.77582234792779
 40
18.09599235687494
 40
18.09599235687494
 40
18.09599235687494
 10
2203.789306728515
 20
1207.027502586565
 30
0.0
 41
1.113427891912014
 10
2204.637812504547
 20
1208.497157701168
 30
0.0
 41
1.095240539367789
 10
2204.637812504547
 20
1209.769916365216
 30
0.0
 41
1.0
  0
SPLINE
  5
3136
330
1F
100
AcDbEntity
  8
AM_VIS
100
AcDbSpline
210
0.0
220
0.0
230
1.0
 70
    12
 71
     2
 72
     6
 73
     3
 74
     0
 42
0.0000000001
 43
0.0000000001
 40
18.09599235687493
 40
18.09599235687493
 40
18.09599235687493
 40
25.41616236582211
 40
25.41616236582211
 40
25.41616236582211
 10
2204.637812504547
 20
1193.315433693311
 30
0.0
 41
1.0
 10
2204.637812504548
 20
1194.58819235736
 30
0.0
 41
1.095240539367789
 10
2203.789306728515
 20
1196.057847471962
 30
0.0
 41
1.113427891912013
  0
SPLINE
  5
3137
330
1F
100
AcDbEntity
  8
AM_VIS
100
AcDbSpline
210
0.0
220
0.0
230
1.0
 70
    12
 71
     2
 72
     6
 73
     3
 74
     0
 42
0.0000000001
 43
0.0000000001
 40
10.77582234792775
 40
10.77582234792775
 40
10.77582234792775
 40
18.09599235687494
 40
18.09599235687494
 40
18.09599235687494
 10
2203.789306728512
 20
1196.057847471962
 30
0.0
 41
1.113427891912014
 10
2204.637812504548
 20
1198.997157701168
 30
0.0
 41
1.09524053936779
 10
2204.637812504547
 20
1201.542675029264
 30
0.0
 41
1.0
  0
SPLINE
  5
3138
330
1F
100
AcDbEntity
  8
AM_VIS
100
AcDbSpline
210
0.0
220
0.0
230
1.0
 70
    12
 71
     2
 72
     6
 73
     3
 74
     0
 42
0.0000000001
 43
0.0000000001
 40
10.77582234792775
 40
10.77582234792775
 40
10.77582234792775
 40
18.09599235687493
 40
18.09599235687493
 40
18.09599235687493
 10
2203.789306728515
 20
1190.573019914661
 30
0.0
 41
1.113427891912009
 10
2204.637812504545
 20
1192.042675029263
 30
0.0
 41
1.095240539367786
 10
2204.637812504547
 20
1193.315433693311
 30
0.0
 41
1.0
  0
LINE
  5
3139
330
1F
100
AcDbEntity
  8
AM_VIS
100
AcDbLine
 10
2197.637812504547
 20
1211.042675029264
 30
0.0
 11
2198.486318280579
 21
1212.512330143866
 31
0.0
  0
LINE
  5
313A
330
1F
100
AcDbEntity
  8
AM_VIS
100
AcDbLine
 10
2197.637812504547
 20
1192.042675029264
 30
0.0
 11
2198.486318280579
 21
1190.573019914661
 31
0.0
  0
LINE
  5
313B
330
1F
100
AcDbEntity
  8
AM_VIS
100
AcDbLine
 10
2204.637812504547
 20
1211.042675029264
 30
0.0
 11
2203.789306728515
 21
1212.512330143866
 31
0.0
  0
LINE
  5
313C
330
1F
100
AcDbEntity
  8
AM_VIS
100
AcDbLine
 10
2204.637812504547
 20
1192.042675029264
 30
0.0
 11
2203.789306728515
 21
1190.573019914661
 31
0.0
  0
LINE
  5
313D
330
1F
100
AcDbEntity
  8
AM_VIS
100
AcDbLine
 10
2197.637812504547
 20
1201.542675029264
 30
0.0
 11
2197.637812504547
 21
1193.315433693311
 31
0.0
  0
LINE
  5
313E
330
1F
100
AcDbEntity
  8
AM_VIS
100
AcDbLine
 10
2197.637812504547
 20
1193.315433693311
 30
0.0
 11
2197.637812504547
 21
1192.042675029264
 31
0.0
  0
LINE
  5
313F
330
1F
100
AcDbEntity
  8
AM_VIS
100
AcDbLine
 10
2197.637812504547
 20
1211.042675029264
 30
0.0
 11
2197.637812504547
 21
1209.769916365216
 31
0.0
  0
LINE
  5
3140
330
1F
100
AcDbEntity
  8
AM_VIS
100
AcDbLine
 10
2197.637812504547
 20
1209.769916365216
 30
0.0
 11
2197.637812504547
 21
1201.542675029264
 31
0.0
  0
LINE
  5
3141
330
1F
100
AcDbEntity
  8
AM_VIS
100
AcDbLine
 10
2204.637812504547
 20
1192.042675029264
 30
0.0
 11
2204.637812504547
 21
1193.315433693311
 31
0.0
  0
LINE
  5
3142
330
1F
100
AcDbEntity
  8
AM_VIS
100
AcDbLine
 10
2204.637812504547
 20
1193.315433693311
 30
0.0
 11
2204.637812504547
 21
1201.542675029264
 31
0.0
  0
LINE
  5
3143
330
1F
100
AcDbEntity
  8
AM_VIS
100
AcDbLine
 10
2204.637812504547
 20
1201.542675029264
 30
0.0
 11
2204.637812504547
 21
1209.769916365216
 31
0.0
  0
LINE
  5
3144
330
1F
100
AcDbEntity
  8
AM_VIS
100
AcDbLine
 10
2204.637812504547
 20
1209.769916365216
 30
0.0
 11
2204.637812504547
 21
1211.042675029264
 31
0.0
  0
LINE
  5
3145
330
1F
100
AcDbEntity
  8
AM_VIS
100
AcDbLine
 10
2197.637812504547
 20
1264.260951214342
 30
0.0
 11
2198.486318280579
 21
1264.260951214342
 31
0.0
  0
LINE
  5
3146
330
1F
100
AcDbEntity
  8
AM_VIS
100
AcDbLine
 10
2197.637812504547
 20
1283.260951214342
 30
0.0
 11
2198.486318280579
 21
1283.260951214342
 31
0.0
  0
SPLINE
  5
3147
330
1F
100
AcDbEntity
  8
AM_VIS
100
AcDbSpline
210
0.0
220
0.0
230
1.0
 70
    12
 71
     2
 72
     6
 73
     3
 74
     0
 42
0.0000000001
 43
0.0000000001
 40
18.09599235687494
 40
18.09599235687494
 40
18.09599235687494
 40
25.41616236582211
 40
25.41616236582211
 40
25.41616236582211
 10
2197.637812504547
 20
1278.510951214342
 30
0.0
 41
1.0
 10
2197.637812504544
 20
1276.306468542437
 30
0.0000000000000018
 41
1.09524053936779
 10
2198.486318280577
 20
1273.760951214342
 30
0.0
 41
1.113427891912014
  0
SPLINE
  5
3148
330
1F
100
AcDbEntity
  8
AM_VIS
100
AcDbSpline
210
0.0
220
0.0
230
1.0
 70
    12
 71
     2
 72
     6
 73
     3
 74
     0
 42
0.0000000001
 43
0.0000000001
 40
10.77582234792775
 40
10.77582234792775
 40
10.77582234792775
 40
18.09599235687494
 40
18.09599235687494
 40
18.09599235687494
 10
2198.486318280579
 20
1283.260951214342
 30
0.0
 41
1.113427891912013
 10
2197.637812504547
 20
1280.715433886246
 30
0.0000000000000018
 41
1.095240539367789
 10
2197.637812504547
 20
1278.510951214342
 30
0.0
 41
1.0
  0
LINE
  5
3149
330
1F
100
AcDbEntity
  8
AM_VIS
100
AcDbLine
 10
2198.486318280579
 20
1283.260951214342
 30
0.0
 11
2203.789306728515
 21
1283.260951214342
 31
0.0
  0
LINE
  5
314A
330
1F
100
AcDbEntity
  8
AM_VIS
100
AcDbLine
 10
2198.486318280579
 20
1264.260951214342
 30
0.0
 11
2203.789306728515
 21
1264.260951214342
 31
0.0
  0
SPLINE
  5
314B
330
1F
100
AcDbEntity
  8
AM_VIS
100
AcDbSpline
210
0.0
220
0.0
230
1.0
 70
    12
 71
     2
 72
     6
 73
     3
 74
     0
 42
0.0000000001
 43
0.0000000001
 40
18.09599235687495
 40
18.09599235687495
 40
18.09599235687495
 40
25.41616236582212
 40
25.41616236582212
 40
25.41616236582212
 10
2197.637812504547
 20
1269.010951214342
 30
0.0
 41
1.0
 10
2197.637812504547
 20
1266.806468542437
 30
0.0000000000000018
 41
1.095240539367792
 10
2198.486318280577
 20
1264.260951214342
 30
0.0
 41
1.113427891912017
  0
SPLINE
  5
314C
330
1F
100
AcDbEntity
  8
AM_VIS
100
AcDbSpline
210
0.0
220
0.0
230
1.0
 70
    12
 71
     2
 72
     6
 73
     3
 74
     0
 42
0.0000000001
 43
0.0000000001
 40
10.77582234792777
 40
10.77582234792777
 40
10.77582234792777
 40
18.09599235687495
 40
18.09599235687495
 40
18.09599235687495
 10
2198.486318280579
 20
1273.760951214342
 30
0.0
 41
1.113427891912015
 10
2197.637812504549
 20
1271.215433886247
 30
0.0
 41
1.09524053936779
 10
2197.637812504547
 20
1269.010951214342
 30
0.0
 41
1.0
  0
LINE
  5
314D
330
1F
100
AcDbEntity
  8
AM_VIS
100
AcDbLine
 10
2198.486318280579
 20
1273.760951214342
 30
0.0
 11
2203.789306728515
 21
1273.760951214342
 31
0.0
  0
LINE
  5
314E
330
1F
100
AcDbEntity
  8
AM_VIS
100
AcDbLine
 10
2203.789306728515
 20
1283.260951214342
 30
0.0
 11
2204.637812504547
 21
1283.260951214342
 31
0.0
  0
SPLINE
  5
314F
330
1F
100
AcDbEntity
  8
AM_VIS
100
AcDbSpline
210
0.0
220
0.0
230
1.0
 70
    12
 71
     2
 72
     6
 73
     3
 74
     0
 42
0.0000000001
 43
0.0000000001
 40
18.09599235687494
 40
18.09599235687494
 40
18.09599235687494
 40
25.41616236582213
 40
25.41616236582213
 40
25.41616236582213
 10
2204.637812504547
 20
1278.510951214342
 30
0.0
 41
1.0
 10
2204.637812504547
 20
1280.715433886246
 30
0.0
 41
1.095240539367789
 10
2203.789306728514
 20
1283.260951214342
 30
0.0
 41
1.113427891912014
  0
SPLINE
  5
3150
330
1F
100
AcDbEntity
  8
AM_VIS
100
AcDbSpline
210
-0.0000000000000076
220
0.0000000000000018
230
-1.0
 70
    12
 71
     2
 72
     6
 73
     3
 74
     0
 42
0.0000000001
 43
0.0000000001
 40
10.77582234792776
 40
10.77582234792776
 40
10.77582234792776
 40
18.09599235687494
 40
18.09599235687494
 40
18.09599235687494
 10
2203.789306728515
 20
1273.760951214342
 30
-0.0000000000000018
 41
1.113427891912016
 10
2204.637812504546
 20
1276.306468542437
 30
0.0
 41
1.095240539367791
 10
2204.637812504547
 20
1278.510951214342
 30
0.0
 41
1.0
  0
SPLINE
  5
3151
330
1F
100
AcDbEntity
  8
AM_VIS
100
AcDbSpline
210
-0.000000000000008
220
-0.0000000000000019
230
1.0
 70
    12
 71
     2
 72
     6
 73
     3
 74
     0
 42
0.0000000001
 43
0.0000000001
 40
18.09599235687494
 40
18.09599235687494
 40
18.09599235687494
 40
25.41616236582213
 40
25.41616236582213
 40
25.41616236582213
 10
2204.637812504547
 20
1269.010951214342
 30
0.0
 41
1.0
 10
2204.637812504547
 20
1271.215433886246
 30
-0.0000000000000018
 41
1.095240539367789
 10
2203.789306728515
 20
1273.760951214342
 30
0.0000000000000018
 41
1.113427891912013
  0
LINE
  5
3152
330
1F
100
AcDbEntity
  8
AM_VIS
100
AcDbLine
 10
2203.789306728515
 20
1264.260951214342
 30
0.0
 11
2204.637812504547
 21
1264.260951214342
 31
0.0
  0
SPLINE
  5
3153
330
1F
100
AcDbEntity
  8
AM_VIS
100
AcDbSpline
210
0.0000000000000076
220
-0.0000000000000018
230
1.0
 70
    12
 71
     2
 72
     6
 73
     3
 74
     0
 42
0.0000000001
 43
0.0000000001
 40
10.77582234792779
 40
10.77582234792779
 40
10.77582234792779
 40
18.09599235687494
 40
18.09599235687494
 40
18.09599235687494
 10
2203.789306728515
 20
1264.260951214342
 30
-0.0000000000000018
 41
1.113427891912014
 10
2204.637812504547
 20
1266.806468542438
 30
0.0
 41
1.095240539367789
 10
2204.637812504547
 20
1269.010951214342
 30
0.0
 41
1.0
  0
LINE
  5
3154
330
1F
100
AcDbEntity
  8
AM_VIS
100
AcDbLine
 10
2197.637812504547
 20
1283.260951214342
 30
0.0
 11
2197.637812504547
 21
1278.510951214342
 31
0.0
  0
LINE
  5
3155
330
1F
100
AcDbEntity
  8
AM_VIS
100
AcDbLine
 10
2197.637812504547
 20
1278.510951214342
 30
0.0
 11
2197.637812504547
 21
1269.010951214342
 31
0.0
  0
LINE
  5
3156
330
1F
100
AcDbEntity
  8
AM_VIS
100
AcDbLine
 10
2197.637812504547
 20
1269.010951214342
 30
0.0
 11
2197.637812504547
 21
1264.260951214342
 31
0.0
  0
LINE
  5
3157
330
1F
100
AcDbEntity
  8
AM_VIS
100
AcDbLine
 10
2204.637812504547
 20
1264.260951214342
 30
0.0
 11
2204.637812504547
 21
1269.010951214342
 31
0.0
  0
LINE
  5
3158
330
1F
100
AcDbEntity
  8
AM_VIS
100
AcDbLine
 10
2204.637812504547
 20
1269.010951214342
 30
0.0
 11
2204.637812504547
 21
1278.510951214342
 31
0.0
  0
LINE
  5
3159
330
1F
100
AcDbEntity
  8
AM_VIS
100
AcDbLine
 10
2204.637812504547
 20
1278.510951214342
 30
0.0
 11
2204.637812504547
 21
1283.260951214342
 31
0.0
  0
ARC
  5
317C
330
1F
100
AcDbEntity
  8
AM_4
100
AcDbCircle
 10
2320.702373406662
 20
1273.760951214342
 30
0.0
 40
4.863999999999999
100
AcDbArc
 50
260.0
 51
170.0
  0
CIRCLE
  5
317D
330
1F
100
AcDbEntity
  8
AM_0
100
AcDbCircle
 10
2320.702373406662
 20
1273.760951214342
 30
0.0
 40
4.283
  0
ARC
  5
317E
330
1F
100
AcDbEntity
  8
AM_4
100
AcDbCircle
 10
2377.702373406662
 20
1273.760951214342
 30
0.0
 40
4.863999999999999
100
AcDbArc
 50
260.0
 51
170.0
  0
CIRCLE
  5
317F
330
1F
100
AcDbEntity
  8
AM_0
100
AcDbCircle
 10
2377.702373406662
 20
1273.760951214342
 30
0.0
 40
4.283
  0
LINE
  5
3180
330
1F
100
AcDbEntity
  8
AM_7
100
AcDbLine
 10
2404.202373406662
 20
1261.446090756707
 30
0.0
 11
2404.202373406662
 21
1286.209916363144
 31
0.0
  0
LINE
  5
31C2
330
1F
100
AcDbEntity
  8
AM_7
100
AcDbLine
 10
2681.276423019764
 20
835.7407879480385
 30
0.0
 11
2745.476423019764
 21
835.7407879480385
 31
0.0
  0
LINE
  5
31C3
330
1F
100
AcDbEntity
  8
AM_7
100
AcDbLine
 10
2695.876423019764
 20
835.7407879480385
 30
0.0
 11
2697.876423019764
 21
835.7407879480385
 31
0.0
  0
LINE
  5
31C4
330
1F
100
AcDbEntity
  8
AM_7
100
AcDbLine
 10
2696.876423019764
 20
834.7407879480385
 30
0.0
 11
2696.876423019764
 21
836.7407879480385
 31
0.0
  0
LINE
  5
31C5
330
1F
100
AcDbEntity
  8
AM_7
100
AcDbLine
 10
2689.276423019764
 20
835.7407879480385
 30
0.0
 11
2695.076423019764
 21
835.7407879480385
 31
0.0
  0
LINE
  5
31C6
330
1F
100
AcDbEntity
  8
AM_7
100
AcDbLine
 10
2698.676423019764
 20
835.7407879480385
 30
0.0
 11
2704.476423019764
 21
835.7407879480385
 31
0.0
  0
LINE
  5
31C7
330
1F
100
AcDbEntity
  8
AM_7
100
AcDbLine
 10
2696.876423019764
 20
828.1407879480385
 30
0.0
 11
2696.876423019764
 21
833.9407879480384
 31
0.0
  0
LINE
  5
31C8
330
1F
100
AcDbEntity
  8
AM_7
100
AcDbLine
 10
2696.876423019764
 20
837.5407879480386
 30
0.0
 11
2696.876423019764
 21
843.3407879480384
 31
0.0
  0
LINE
  5
31C9
330
1F
100
AcDbEntity
  8
AM_7
100
AcDbLine
 10
2681.276423019764
 20
886.8070568286796
 30
0.0
 11
2745.476423019764
 21
886.8070568286796
 31
0.0
  0
LINE
  5
31CA
330
1F
100
AcDbEntity
  8
AM_7
100
AcDbLine
 10
2636.754866178649
 20
835.7407879480385
 30
0.0
 11
2638.754866178648
 21
835.7407879480385
 31
0.0
  0
LINE
  5
31CB
330
1F
100
AcDbEntity
  8
AM_7
100
AcDbLine
 10
2637.754866178648
 20
834.7407879480385
 30
0.0
 11
2637.754866178648
 21
836.7407879480385
 31
0.0
  0
LINE
  5
31CC
330
1F
100
AcDbEntity
  8
AM_7
100
AcDbLine
 10
2624.154866178648
 20
835.7407879480385
 30
0.0
 11
2635.954866178648
 21
835.7407879480385
 31
0.0
  0
LINE
  5
31CD
330
1F
100
AcDbEntity
  8
AM_7
100
AcDbLine
 10
2639.554866178648
 20
835.7407879480385
 30
0.0
 11
2651.354866178648
 21
835.7407879480385
 31
0.0
  0
LINE
  5
31CE
330
1F
100
AcDbEntity
  8
AM_7
100
AcDbLine
 10
2637.754866178648
 20
822.1407879480386
 30
0.0
 11
2637.754866178648
 21
833.9407879480384
 31
0.0
  0
LINE
  5
31CF
330
1F
100
AcDbEntity
  8
AM_7
100
AcDbLine
 10
2637.754866178648
 20
837.5407879480386
 30
0.0
 11
2637.754866178648
 21
849.3407879480384
 31
0.0
  0
LINE
  5
31D0
330
1F
100
AcDbEntity
  8
AM_VIS
100
AcDbLine
 10
2682.876423019764
 20
829.0325840155391
 30
0.0
 11
2682.876423019764
 21
842.4489918805377
 31
0.0
  0
SPLINE
  5
31D1
330
1F
100
AcDbEntity
  8
AM_VIS
100
AcDbSpline
210
0.0
220
0.0
230
1.0
 70
    12
 71
     2
 72
     6
 73
     3
 74
     0
 42
0.0000000001
 43
0.0000000001
 40
2.550543128795549
 40
2.550543128795549
 40
2.550543128795549
 40
7.766931607884815
 40
7.766931607884815
 40
7.766931607884815
 10
2685.876423019764
 20
846.1330927934522
 30
0.0
 41
1.015494566218524
 10
2684.053265887941
 20
844.0278922717865
 30
0.0
 41
1.023592080203315
 10
2682.876423019764
 20
842.4489918805377
 30
0.0
 41
1.0
  0
SPLINE
  5
31D2
330
1F
100
AcDbEntity
  8
AM_VIS
100
AcDbSpline
210
0.0
220
0.0
230
1.0
 70
    12
 71
     2
 72
     6
 73
     3
 74
     0
 42
0.0000000001
 43
0.0000000001
 40
0.0
 40
0.0
 40
0.0
 40
5.216388479089266
 40
5.216388479089266
 40
5.216388479089266
 10
2682.876423019764
 20
829.0325840155391
 30
0.0
 41
1.0
 10
2684.053265887941
 20
827.4536836242901
 30
0.0
 41
1.023592080203315
 10
2685.876423019764
 20
825.3484831026256
 30
0.0
 41
1.015494566218524
  0
LINE
  5
31D3
330
1F
100
AcDbEntity
  8
AM_VIS
100
AcDbLine
 10
2714.876423019764
 20
825.3484831026252
 30
0.0
 11
2685.876423019764
 21
825.3484831026252
 31
0.0
  0
LINE
  5
31D4
330
1F
100
AcDbEntity
  8
AM_VIS
100
AcDbLine
 10
2685.876423019764
 20
846.1330927934518
 30
0.0
 11
2714.876423019764
 21
846.1330927934518
 31
0.0
  0
LINE
  5
31D5
330
1F
100
AcDbEntity
  8
AM_VIS
100
AcDbLine
 10
2682.876423019764
 20
826.7407879480385
 30
0.0
 11
2685.876423019764
 21
823.7407879480386
 31
0.0
  0
LINE
  5
31D6
330
1F
100
AcDbEntity
  8
AM_VIS
100
AcDbLine
 10
2682.876423019764
 20
844.7407879480385
 30
0.0
 11
2685.876423019764
 21
847.7407879480386
 31
0.0
  0
LINE
  5
31D7
330
1F
100
AcDbEntity
  8
AM_VIS
100
AcDbLine
 10
2743.876423019764
 20
847.7407879480386
 30
0.0
 11
2685.876423019764
 21
847.7407879480386
 31
0.0
  0
LINE
  5
31D8
330
1F
100
AcDbEntity
  8
AM_VIS
100
AcDbLine
 10
2743.876423019764
 20
823.7407879480386
 30
0.0
 11
2685.876423019764
 21
823.7407879480386
 31
0.0
  0
LINE
  5
31D9
330
1F
100
AcDbEntity
  8
AM_VIS
100
AcDbLine
 10
2744.876423019764
 20
846.7407879480386
 30
0.0
 11
2743.876423019764
 21
847.7407879480386
 31
0.0
  0
LINE
  5
31DA
330
1F
100
AcDbEntity
  8
AM_VIS
100
AcDbLine
 10
2744.876423019764
 20
824.7407879480386
 30
0.0
 11
2743.876423019764
 21
823.7407879480386
 31
0.0
  0
LINE
  5
31DB
330
1F
100
AcDbEntity
  8
AM_VIS
100
AcDbLine
 10
2682.876423019764
 20
829.0325840155391
 30
0.0
 11
2682.876423019764
 21
826.7407879480385
 31
0.0
  0
LINE
  5
31DC
330
1F
100
AcDbEntity
  8
AM_VIS
100
AcDbLine
 10
2682.876423019764
 20
844.7407879480385
 30
0.0
 11
2682.876423019764
 21
842.4489918805377
 31
0.0
  0
CIRCLE
  5
31DD
330
1F
100
AcDbEntity
  8
AM_VIS
100
AcDbCircle
 10
2696.876423019764
 20
835.7407879480385
 30
0.0
 40
6.0
  0
LINE
  5
31DE
330
1F
100
AcDbEntity
  8
AM_VIS
100
AcDbLine
 10
2714.876423019764
 20
825.3484831026252
 30
0.0
 11
2714.876423019764
 21
846.1330927934518
 31
0.0
  0
LINE
  5
31DF
330
1F
100
AcDbEntity
  8
AM_VIS
100
AcDbLine
 10
2685.876423019764
 20
846.1330927934518
 30
0.0
 11
2685.876423019764
 21
847.7407879480386
 31
0.0
  0
LINE
  5
31E0
330
1F
100
AcDbEntity
  8
AM_VIS
100
AcDbLine
 10
2685.876423019764
 20
823.7407879480386
 30
0.0
 11
2685.876423019764
 21
825.3484831026252
 31
0.0
  0
LINE
  5
31E1
330
1F
100
AcDbEntity
  8
AM_VIS
100
AcDbLine
 10
2744.876423019764
 20
846.7407879480386
 30
0.0
 11
2744.876423019764
 21
824.7407879480386
 31
0.0
  0
LINE
  5
31E2
330
1F
100
AcDbEntity
  8
AM_VIS
100
AcDbLine
 10
2682.876423019764
 20
880.8070568286796
 30
0.0
 11
2685.876423019764
 21
880.8070568286796
 31
0.0
  0
LINE
  5
31E3
330
1F
100
AcDbEntity
  8
AM_VIS
100
AcDbLine
 10
2682.876423019764
 20
892.8070568286797
 30
0.0
 11
2685.876423019764
 21
892.8070568286797
 31
0.0
  0
LINE
  5
31E4
330
1F
100
AcDbEntity
  8
AM_VIS
100
AcDbLine
 10
2685.876423019764
 20
880.8070568286796
 30
0.0
 11
2714.876423019764
 21
880.8070568286796
 31
0.0
  0
LINE
  5
31E5
330
1F
100
AcDbEntity
  8
AM_VIS
100
AcDbLine
 10
2714.876423019764
 20
892.8070568286797
 30
0.0
 11
2685.876423019764
 21
892.8070568286797
 31
0.0
  0
LINE
  5
31E6
330
1F
100
AcDbEntity
  8
AM_VIS
100
AcDbLine
 10
2743.876423019764
 20
898.8070568286795
 30
0.0
 11
2714.876423019764
 21
898.8070568286795
 31
0.0
  0
LINE
  5
31E7
330
1F
100
AcDbEntity
  8
AM_VIS
100
AcDbLine
 10
2743.876423019764
 20
874.8070568286795
 30
0.0
 11
2714.876423019764
 21
874.8070568286795
 31
0.0
  0
LINE
  5
31E8
330
1F
100
AcDbEntity
  8
AM_VIS
100
AcDbLine
 10
2744.876423019764
 20
897.8070568286796
 30
0.0
 11
2743.876423019764
 21
898.8070568286795
 31
0.0
  0
LINE
  5
31E9
330
1F
100
AcDbEntity
  8
AM_VIS
100
AcDbLine
 10
2744.876423019764
 20
875.8070568286795
 30
0.0
 11
2743.876423019764
 21
874.8070568286795
 31
0.0
  0
LINE
  5
31EA
330
1F
100
AcDbEntity
  8
AM_VIS
100
AcDbLine
 10
2682.876423019764
 20
892.8070568286797
 30
0.0
 11
2682.876423019764
 21
880.8070568286796
 31
0.0
  0
LINE
  5
31EB
330
1F
100
AcDbEntity
  8
AM_VIS
100
AcDbLine
 10
2714.876423019764
 20
874.8070568286795
 30
0.0
 11
2714.876423019764
 21
880.8070568286796
 31
0.0
  0
LINE
  5
31EC
330
1F
100
AcDbEntity
  8
AM_VIS
100
AcDbLine
 10
2685.876423019764
 20
880.8070568286796
 30
0.0
 11
2685.876423019764
 21
892.8070568286797
 31
0.0
  0
LINE
  5
31ED
330
1F
100
AcDbEntity
  8
AM_VIS
100
AcDbLine
 10
2714.876423019764
 20
892.8070568286797
 30
0.0
 11
2714.876423019764
 21
898.8070568286795
 31
0.0
  0
LINE
  5
31EE
330
1F
100
AcDbEntity
  8
AM_VIS
100
AcDbLine
 10
2744.876423019764
 20
897.8070568286796
 30
0.0
 11
2744.876423019764
 21
875.8070568286795
 31
0.0
  0
LINE
  5
31EF
330
1F
100
AcDbEntity
  8
AM_VIS
100
AcDbLine
 10
2643.754866178648
 20
829.0325840155391
 30
0.0
 11
2643.754866178648
 21
842.4489918805377
 31
0.0
  0
LINE
  5
31F0
330
1F
100
AcDbEntity
  8
AM_VIS
100
AcDbLine
 10
2643.754866178648
 20
846.1330927934518
 30
0.0
 11
2643.754866178648
 21
842.4489918805377
 31
0.0
  0
LINE
  5
31F1
330
1F
100
AcDbEntity
  8
AM_VIS
100
AcDbLine
 10
2643.754866178648
 20
829.0325840155391
 30
0.0
 11
2643.754866178648
 21
825.3484831026252
 31
0.0
  0
LINE
  5
31F2
330
1F
100
AcDbEntity
  8
AM_VIS
100
AcDbLine
 10
2631.754866178648
 20
846.1330927934518
 30
0.0
 11
2631.754866178648
 21
842.4489918805379
 31
0.0
  0
LINE
  5
31F3
330
1F
100
AcDbEntity
  8
AM_VIS
100
AcDbLine
 10
2631.754866178648
 20
842.4489918805379
 30
0.0
 11
2631.754866178648
 21
829.0325840155391
 31
0.0
  0
LINE
  5
31F4
330
1F
100
AcDbEntity
  8
AM_VIS
100
AcDbLine
 10
2631.754866178648
 20
829.0325840155391
 30
0.0
 11
2631.754866178648
 21
825.3484831026252
 31
0.0
  0
ARC
  5
31F5
330
1F
100
AcDbEntity
  8
AM_VIS
100
AcDbCircle
 10
2637.754866178648
 20
835.7407879480385
 30
0.0
 40
9.0
100
AcDbArc
 50
228.1896851042299
 51
311.8103148957701
  0
ARC
  5
31F6
330
1F
100
AcDbEntity
  8
AM_VIS
100
AcDbCircle
 10
2637.754866178648
 20
835.7407879480385
 30
0.0
 40
9.0
100
AcDbArc
 50
48.18968510422982
 51
131.8103148957701
  0
ARC
  5
31F7
330
1F
100
AcDbEntity
  8
AM_VIS
100
AcDbCircle
 10
2637.754866178648
 20
835.7407879480385
 30
0.0
 40
12.0
100
AcDbArc
 50
300.0000000000005
 51
59.99999999999946
  0
ARC
  5
31F8
330
1F
100
AcDbEntity
  8
AM_VIS
100
AcDbCircle
 10
2637.754866178648
 20
835.7407879480385
 30
0.0
 40
12.0
100
AcDbArc
 50
59.99999999999946
 51
120.0000000000005
  0
ARC
  5
31F9
330
1F
100
AcDbEntity
  8
AM_VIS
100
AcDbCircle
 10
2637.754866178648
 20
835.7407879480385
 30
0.0
 40
12.0
100
AcDbArc
 50
120.0000000000005
 51
239.9999999999995
  0
ARC
  5
31FA
330
1F
100
AcDbEntity
  8
AM_VIS
100
AcDbCircle
 10
2637.754866178648
 20
835.7407879480385
 30
0.0
 40
12.0
100
AcDbArc
 50
239.9999999999995
 51
300.0000000000005
  0
LINE
  5
31FB
330
1F
100
AcDbEntity
  8
AM_7
100
AcDbLine
 10
2696.876423019764
 20
878.3271632000785
 30
0.0
 11
2696.876423019764
 21
894.9733406530603
 31
0.0
  0
LINE
  5
3253
330
1F
100
AcDbEntity
  8
AM_7
100
AcDbLine
 10
2296.677342170751
 20
844.0159190830621
 30
0.0
 11
2363.31215951304
 21
844.0159190830621
 31
0.0
  0
LINE
  5
3254
330
1F
100
AcDbEntity
  8
AM_7
100
AcDbLine
 10
2313.71215951304
 20
844.0159190830621
 30
0.0
 11
2315.71215951304
 21
844.0159190830621
 31
0.0
  0
LINE
  5
3255
330
1F
100
AcDbEntity
  8
AM_7
100
AcDbLine
 10
2314.71215951304
 20
843.0159190830622
 30
0.0
 11
2314.71215951304
 21
845.0159190830621
 31
0.0
  0
LINE
  5
3256
330
1F
100
AcDbEntity
  8
AM_7
100
AcDbLine
 10
2307.112159513039
 20
844.0159190830621
 30
0.0
 11
2312.912159513039
 21
844.0159190830621
 31
0.0
  0
LINE
  5
3257
330
1F
100
AcDbEntity
  8
AM_7
100
AcDbLine
 10
2316.51215951304
 20
844.0159190830621
 30
0.0
 11
2322.31215951304
 21
844.0159190830621
 31
0.0
  0
LINE
  5
3258
330
1F
100
AcDbEntity
  8
AM_7
100
AcDbLine
 10
2314.71215951304
 20
836.4159190830621
 30
0.0
 11
2314.71215951304
 21
842.2159190830623
 31
0.0
  0
LINE
  5
3259
330
1F
100
AcDbEntity
  8
AM_7
100
AcDbLine
 10
2314.71215951304
 20
845.815919083062
 30
0.0
 11
2314.71215951304
 21
851.6159190830622
 31
0.0
  0
LINE
  5
325A
330
1F
100
AcDbEntity
  8
AM_7
100
AcDbLine
 10
2339.904199814731
 20
892.779439905745
 30
0.0
 11
2363.31215951304
 21
892.779439905745
 31
0.0
  0
LINE
  5
325B
330
1F
100
AcDbEntity
  8
AM_7
100
AcDbLine
 10
2257.851106860064
 20
844.0159190830621
 30
0.0
 11
2259.851106860064
 21
844.0159190830621
 31
0.0
  0
LINE
  5
325C
330
1F
100
AcDbEntity
  8
AM_7
100
AcDbLine
 10
2258.851106860064
 20
843.0159190830622
 30
0.0
 11
2258.851106860064
 21
845.0159190830621
 31
0.0
  0
LINE
  5
325D
330
1F
100
AcDbEntity
  8
AM_7
100
AcDbLine
 10
2243.751106860064
 20
844.0159190830621
 30
0.0
 11
2257.051106860064
 21
844.0159190830621
 31
0.0
  0
LINE
  5
325E
330
1F
100
AcDbEntity
  8
AM_7
100
AcDbLine
 10
2260.651106860064
 20
844.0159190830621
 30
0.0
 11
2273.951106860064
 21
844.0159190830621
 31
0.0
  0
LINE
  5
325F
330
1F
100
AcDbEntity
  8
AM_7
100
AcDbLine
 10
2258.851106860064
 20
828.9159190830622
 30
0.0
 11
2258.851106860064
 21
842.2159190830623
 31
0.0
  0
LINE
  5
3260
330
1F
100
AcDbEntity
  8
AM_7
100
AcDbLine
 10
2258.851106860064
 20
845.815919083062
 30
0.0
 11
2258.851106860064
 21
859.1159190830621
 31
0.0
  0
ARC
  5
3261
330
1F
100
AcDbEntity
  8
AM_4
  6
HIDDEN2
100
AcDbCircle
 10
2258.851106860064
 20
844.0159190830621
 30
0.0
 40
6.0
100
AcDbArc
 50
259.999999999995
 51
189.9999999999975
  0
LINE
  5
3262
330
1F
100
AcDbEntity
  8
AM_VIS
100
AcDbLine
 10
2341.504199814731
 20
855.0159190830621
 30
0.0
 11
2344.134809243847
 21
855.0159190830621
 31
0.0
  0
LINE
  5
3263
330
1F
100
AcDbEntity
  8
AM_VIS
100
AcDbLine
 10
2302.172834959215
 20
855.0159190830621
 30
0.0
 11
2303.920119211348
 21
855.0159190830621
 31
0.0
  0
LINE
  5
3264
330
1F
100
AcDbEntity
  8
AM_VIS
100
AcDbLine
 10
2302.172834959215
 20
833.0159190830622
 30
0.0
 11
2303.920119211348
 21
833.0159190830622
 31
0.0
  0
LINE
  5
3265
330
1F
100
AcDbEntity
  8
AM_VIS
100
AcDbLine
 10
2341.504199814731
 20
833.0159190830622
 30
0.0
 11
2344.134809243847
 21
833.0159190830622
 31
0.0
  0
LINE
  5
3266
330
1F
100
AcDbEntity
  8
AM_VIS
100
AcDbLine
 10
2300.701638620788
 20
852.0210556624514
 30
0.0
 11
2302.165547632988
 21
855.0194769495249
 31
0.0
  0
LINE
  5
3267
330
1F
100
AcDbEntity
  8
AM_VIS
100
AcDbLine
 10
2300.701638620788
 20
836.0107825036729
 30
0.0
 11
2302.165547632988
 21
833.0123612165994
 31
0.0
  0
LINE
  5
3268
330
1F
100
AcDbEntity
  8
AM_VIS
100
AcDbLine
 10
2341.504199814731
 20
855.0159190830621
 30
0.0
 11
2303.920119211348
 21
855.0159190830621
 31
0.0
  0
SPLINE
  5
3269
330
1F
100
AcDbEntity
  8
AM_VIS
100
AcDbSpline
210
0.0
220
0.0
230
1.0
 70
    12
 71
     2
 72
     6
 73
     3
 74
     0
 42
0.0000000001
 43
0.0000000001
 40
1.411358293550513
 40
1.411358293550513
 40
1.411358293550513
 40
25.42145743644694
 40
25.42145743644694
 40
25.42145743644694
 10
2341.504199814732
 20
833.0159190830626
 30
0.0
 41
1.054361795131925
 10
2345.994931009831
 20
844.0159190830618
 30
0.0
 41
1.491092750322616
 10
2341.504199814733
 20
855.0159190830623
 30
0.0
 41
1.054361795131925
  0
LINE
  5
326A
330
1F
100
AcDbEntity
  8
AM_VIS
100
AcDbLine
 10
2341.504199814731
 20
833.0159190830622
 30
0.0
 11
2303.920119211348
 21
833.0159190830622
 31
0.0
  0
SPLINE
  5
326B
330
1F
100
AcDbEntity
  8
AM_VIS
100
AcDbSpline
210
0.0
220
0.0
230
1.0
 70
    12
 71
     2
 72
     6
 73
     3
 74
     0
 42
0.0000000001
 43
0.0000000001
 40
1.411358293550525
 40
1.411358293550525
 40
1.411358293550525
 40
25.42145743644697
 40
25.42145743644697
 40
25.42145743644697
 10
2303.920119211349
 20
855.0159190830623
 30
0.0
 41
1.054361795131925
 10
2299.429388016248
 20
844.0159190830627
 30
0.0
 41
1.491092750322615
 10
2303.920119211349
 20
833.0159190830626
 30
0.0
 41
1.054361795131925
  0
LINE
  5
326C
330
1F
100
AcDbEntity
  8
AM_VIS
100
AcDbLine
 10
2344.71215951304
 20
854.0159190830621
 30
0.0
 11
2344.134809243849
 21
855.0159190830633
 31
0.0
  0
LINE
  5
326D
330
1F
100
AcDbEntity
  8
AM_VIS
100
AcDbLine
 10
2344.71215951304
 20
834.0159190830622
 30
0.0
 11
2344.134809243849
 21
833.015919083061
 31
0.0
  0
LINE
  5
326E
330
1F
100
AcDbEntity
  8
AM_VIS
100
AcDbLine
 10
2361.71215951304
 20
854.0159190830621
 30
0.0
 11
2344.71215951304
 21
854.0159190830621
 31
0.0
  0
LINE
  5
326F
330
1F
100
AcDbEntity
  8
AM_VIS
100
AcDbLine
 10
2361.71215951304
 20
834.0159190830622
 30
0.0
 11
2344.71215951304
 21
834.0159190830622
 31
0.0
  0
LINE
  5
3270
330
1F
100
AcDbEntity
  8
AM_VIS
100
AcDbLine
 10
2362.71215951304
 20
853.0159190830621
 30
0.0
 11
2361.71215951304
 21
854.0159190830621
 31
0.0
  0
LINE
  5
3271
330
1F
100
AcDbEntity
  8
AM_VIS
100
AcDbLine
 10
2362.71215951304
 20
835.0159190830622
 30
0.0
 11
2361.71215951304
 21
834.0159190830622
 31
0.0
  0
LINE
  5
3272
330
1F
100
AcDbEntity
  8
AM_VIS
100
AcDbLine
 10
2300.712159513039
 20
852.0159190830622
 30
0.0
 11
2300.712159513039
 21
836.0159190830621
 31
0.0
  0
LINE
  5
3273
330
1F
100
AcDbEntity
  8
AM_VIS
100
AcDbLine
 10
2344.71215951304
 20
834.0159190830622
 30
0.0
 11
2344.71215951304
 21
854.0159190830621
 31
0.0
  0
CIRCLE
  5
3274
330
1F
100
AcDbEntity
  8
AM_VIS
100
AcDbCircle
 10
2314.71215951304
 20
844.0159190830621
 30
0.0
 40
6.0
  0
LINE
  5
3275
330
1F
100
AcDbEntity
  8
AM_VIS
100
AcDbLine
 10
2362.71215951304
 20
853.0159190830621
 30
0.0
 11
2362.71215951304
 21
835.0159190830622
 31
0.0
  0
SPLINE
  5
3276
330
1F
100
AcDbEntity
  8
AM_VIS
100
AcDbSpline
210
0.0
220
0.0
230
1.0
 70
    12
 71
     2
 72
     6
 73
     3
 74
     0
 42
0.0000000001
 43
0.0000000001
 40
1.411358293550512
 40
1.411358293550512
 40
1.411358293550512
 40
25.42145743644694
 40
25.42145743644694
 40
25.42145743644694
 10
2341.504199814732
 20
881.7794399057458
 30
0.0
 41
1.054361795131925
 10
2345.994931009831
 20
892.7794399057447
 30
0.0
 41
1.491092750322616
 10
2341.504199814731
 20
903.779439905745
 30
0.0
 41
1.054361795131925
  0
SPLINE
  5
3277
330
1F
100
AcDbEntity
  8
AM_VIS
100
AcDbSpline
210
0.0
220
0.0
230
1.0
 70
    12
 71
     2
 72
     6
 73
     3
 74
     0
 42
0.0000000001
 43
0.0000000001
 40
20.80683652512977
 40
20.80683652512977
 40
20.80683652512977
 40
25.42145743644696
 40
25.42145743644696
 40
25.42145743644696
 10
2302.172834959215
 20
886.7794399057451
 30
0.0
 41
1.189972066999259
 10
2302.789523518793
 20
884.5488224578998
 30
0.0
 41
1.13829929936496
 10
2303.920119211349
 20
881.7794399057449
 30
0.0
 41
1.054361795131925
  0
SPLINE
  5
3278
330
1F
100
AcDbEntity
  8
AM_VIS
100
AcDbSpline
210
0.0
220
0.0
230
1.0
 70
    12
 71
     2
 72
     6
 73
     3
 74
     0
 42
0.0000000001
 43
0.0000000001
 40
1.411358293550529
 40
1.411358293550529
 40
1.411358293550529
 40
6.025979204868191
 40
6.025979204868191
 40
6.025979204868191
 10
2303.920119211349
 20
903.7794399057462
 30
0.0
 41
1.054361795131925
 10
2302.789523518791
 20
901.0100573535902
 30
0.0
 41
1.138299299364968
 10
2302.172834959213
 20
898.7794399057447
 30
0.0
 41
1.18997206699927
  0
LINE
  5
3279
330
1F
100
AcDbEntity
  8
AM_VIS
100
AcDbLine
 10
2300.712159513039
 20
898.7794399057449
 30
0.0
 11
2302.172834959215
 21
898.7794399057449
 31
0.0
  0
LINE
  5
327A
330
1F
100
AcDbEntity
  8
AM_VIS
100
AcDbLine
 10
2302.172834959215
 20
898.7794399057449
 30
0.0
 11
2338.71215951304
 21
898.7794399057449
 31
0.0
  0
LINE
  5
327B
330
1F
100
AcDbEntity
  8
AM_VIS
100
AcDbLine
 10
2338.71215951304
 20
898.7794399057449
 30
0.0
 11
2338.71215951304
 21
886.779439905745
 31
0.0
  0
LINE
  5
327C
330
1F
100
AcDbEntity
  8
AM_VIS
100
AcDbLine
 10
2300.712159513039
 20
886.779439905745
 30
0.0
 11
2302.172834959215
 21
886.779439905745
 31
0.0
  0
LINE
  5
327D
330
1F
100
AcDbEntity
  8
AM_VIS
100
AcDbLine
 10
2338.71215951304
 20
886.779439905745
 30
0.0
 11
2302.172834959215
 21
886.779439905745
 31
0.0
  0
LINE
  5
327E
330
1F
100
AcDbEntity
  8
AM_VIS
100
AcDbLine
 10
2341.504199814731
 20
881.7794399057449
 30
0.0
 11
2303.920119211348
 21
881.7794399057449
 31
0.0
  0
LINE
  5
327F
330
1F
100
AcDbEntity
  8
AM_VIS
100
AcDbLine
 10
2341.504199814731
 20
881.7794399057449
 30
0.0
 11
2344.134809243847
 21
881.7794399057449
 31
0.0
  0
LINE
  5
3280
330
1F
100
AcDbEntity
  8
AM_VIS
100
AcDbLine
 10
2301.289509782232
 20
881.7794399057449
 30
0.0
 11
2303.920119211348
 21
881.7794399057449
 31
0.0
  0
LINE
  5
3281
330
1F
100
AcDbEntity
  8
AM_VIS
100
AcDbLine
 10
2341.504199814731
 20
903.779439905745
 30
0.0
 11
2344.134809243847
 21
903.779439905745
 31
0.0
  0
LINE
  5
3282
330
1F
100
AcDbEntity
  8
AM_VIS
100
AcDbLine
 10
2341.504199814731
 20
903.779439905745
 30
0.0
 11
2303.920119211348
 21
903.779439905745
 31
0.0
  0
LINE
  5
3283
330
1F
100
AcDbEntity
  8
AM_VIS
100
AcDbLine
 10
2301.289509782232
 20
903.779439905745
 30
0.0
 11
2303.920119211348
 21
903.779439905745
 31
0.0
  0
LINE
  5
3284
330
1F
100
AcDbEntity
  8
AM_VIS
100
AcDbLine
 10
2344.71215951304
 20
902.779439905745
 30
0.0
 11
2344.134809243849
 21
903.779439905746
 31
0.0
  0
LINE
  5
3285
330
1F
100
AcDbEntity
  8
AM_VIS
100
AcDbLine
 10
2344.71215951304
 20
882.7794399057451
 30
0.0
 11
2344.134809243849
 21
881.7794399057438
 31
0.0
  0
LINE
  5
3286
330
1F
100
AcDbEntity
  8
AM_VIS
100
AcDbLine
 10
2300.712159513039
 20
882.7794399057451
 30
0.0
 11
2301.28950978223
 21
881.7794399057438
 31
0.0
  0
LINE
  5
3287
330
1F
100
AcDbEntity
  8
AM_VIS
100
AcDbLine
 10
2300.712159513039
 20
902.779439905745
 30
0.0
 11
2301.28950978223
 21
903.779439905746
 31
0.0
  0
LINE
  5
3288
330
1F
100
AcDbEntity
  8
AM_VIS
100
AcDbLine
 10
2361.71215951304
 20
902.779439905745
 30
0.0
 11
2344.71215951304
 21
902.779439905745
 31
0.0
  0
LINE
  5
3289
330
1F
100
AcDbEntity
  8
AM_VIS
100
AcDbLine
 10
2361.71215951304
 20
882.7794399057451
 30
0.0
 11
2344.71215951304
 21
882.7794399057451
 31
0.0
  0
LINE
  5
328A
330
1F
100
AcDbEntity
  8
AM_VIS
100
AcDbLine
 10
2362.71215951304
 20
901.779439905745
 30
0.0
 11
2361.71215951304
 21
902.779439905745
 31
0.0
  0
LINE
  5
328B
330
1F
100
AcDbEntity
  8
AM_VIS
100
AcDbLine
 10
2362.71215951304
 20
883.779439905745
 30
0.0
 11
2361.71215951304
 21
882.7794399057451
 31
0.0
  0
LINE
  5
328C
330
1F
100
AcDbEntity
  8
AM_VIS
100
AcDbLine
 10
2300.712159513039
 20
886.779439905745
 30
0.0
 11
2300.712159513039
 21
882.7794399057451
 31
0.0
  0
LINE
  5
328D
330
1F
100
AcDbEntity
  8
AM_VIS
100
AcDbLine
 10
2300.712159513039
 20
902.779439905745
 30
0.0
 11
2300.712159513039
 21
898.7794399057449
 31
0.0
  0
LINE
  5
328E
330
1F
100
AcDbEntity
  8
AM_VIS
100
AcDbLine
 10
2344.71215951304
 20
882.7794399057451
 30
0.0
 11
2344.71215951304
 21
902.779439905745
 31
0.0
  0
LINE
  5
328F
330
1F
100
AcDbEntity
  8
AM_VIS
100
AcDbLine
 10
2362.71215951304
 20
901.779439905745
 30
0.0
 11
2362.71215951304
 21
883.779439905745
 31
0.0
  0
LINE
  5
3290
330
1F
100
AcDbEntity
  8
AM_VIS
100
AcDbLine
 10
2264.851106860064
 20
855.0159190830621
 30
0.0
 11
2269.851106860064
 21
855.0159190830621
 31
0.0
  0
LINE
  5
3291
330
1F
100
AcDbEntity
  8
AM_VIS
100
AcDbLine
 10
2247.851106860064
 20
855.0159190830621
 30
0.0
 11
2252.851106860064
 21
855.0159190830621
 31
0.0
  0
LINE
  5
3292
330
1F
100
AcDbEntity
  8
AM_VIS
100
AcDbLine
 10
2264.851106860064
 20
833.0159190830622
 30
0.0
 11
2269.851106860064
 21
833.0159190830622
 31
0.0
  0
LINE
  5
3293
330
1F
100
AcDbEntity
  8
AM_VIS
100
AcDbLine
 10
2247.851106860064
 20
833.0159190830622
 30
0.0
 11
2252.851106860064
 21
833.0159190830622
 31
0.0
  0
LINE
  5
3294
330
1F
100
AcDbEntity
  8
AM_VIS
100
AcDbLine
 10
2252.851106860064
 20
836.0159190830621
 30
0.0
 11
2252.851106860064
 21
833.0159190830622
 31
0.0
  0
LINE
  5
3295
330
1F
100
AcDbEntity
  8
AM_VIS
100
AcDbLine
 10
2252.851106860064
 20
836.0159190830621
 30
0.0
 11
2252.851106860064
 21
852.0159190830622
 31
0.0
  0
LINE
  5
3296
330
1F
100
AcDbEntity
  8
AM_VIS
100
AcDbLine
 10
2252.851106860064
 20
855.0159190830621
 30
0.0
 11
2252.851106860064
 21
852.0159190830622
 31
0.0
  0
LINE
  5
3297
330
1F
100
AcDbEntity
  8
AM_VIS
100
AcDbLine
 10
2264.851106860064
 20
833.0159190830622
 30
0.0
 11
2252.851106860064
 21
833.0159190830622
 31
0.0
  0
LINE
  5
3298
330
1F
100
AcDbEntity
  8
AM_VIS
100
AcDbLine
 10
2252.851106860064
 20
855.0159190830621
 30
0.0
 11
2264.851106860064
 21
855.0159190830621
 31
0.0
  0
LINE
  5
3299
330
1F
100
AcDbEntity
  8
AM_VIS
100
AcDbLine
 10
2264.851106860064
 20
855.0159190830621
 30
0.0
 11
2264.851106860064
 21
852.0159190830622
 31
0.0
  0
LINE
  5
329A
330
1F
100
AcDbEntity
  8
AM_VIS
100
AcDbLine
 10
2264.851106860064
 20
852.0159190830622
 30
0.0
 11
2264.851106860064
 21
836.0159190830621
 31
0.0
  0
LINE
  5
329B
330
1F
100
AcDbEntity
  8
AM_VIS
100
AcDbLine
 10
2264.851106860064
 20
836.0159190830621
 30
0.0
 11
2264.851106860064
 21
833.0159190830622
 31
0.0
  0
LINE
  5
329C
330
1F
100
AcDbEntity
  8
AM_VIS
100
AcDbLine
 10
2269.851106860064
 20
855.0159190830621
 30
0.0
 11
2269.851106860064
 21
833.0159190830622
 31
0.0
  0
LINE
  5
329D
330
1F
100
AcDbEntity
  8
AM_VIS
100
AcDbLine
 10
2247.851106860064
 20
855.0159190830621
 30
0.0
 11
2247.851106860064
 21
833.0159190830622
 31
0.0
  0
ARC
  5
329E
330
1F
100
AcDbEntity
  8
AM_VIS
100
AcDbCircle
 10
2258.851106860064
 20
844.0159190830621
 30
0.0
 40
10.0
100
AcDbArc
 50
306.8698976458414
 51
53.13010235415858
  0
ARC
  5
329F
330
1F
100
AcDbEntity
  8
AM_VIS
100
AcDbCircle
 10
2258.851106860064
 20
844.0159190830621
 30
0.0
 40
10.0
100
AcDbArc
 50
126.8698976458414
 51
233.1301023541586
  0
CIRCLE
  5
32A0
330
1F
100
AcDbEntity
  8
AM_VIS
100
AcDbCircle
 10
2258.851106860064
 20
844.0159190830621
 30
0.0
 40
5.4
  0
LINE
  5
32A1
330
1F
100
AcDbEntity
  8
AM_7
100
AcDbLine
 10
2314.71215951304
 20
880.0278004812797
 30
0.0
 11
2314.71215951304
 21
889.1901324955702
 31
0.0
  0
LINE
  5
32A2
330
1F
100
AcDbEntity
  8
AM_7
100
AcDbLine
 10
2314.71215951304
 20
905.5310793302101
 30
0.0
 11
2314.71215951304
 21
896.3687473159197
 31
0.0
  0
LINE
  5
32E4
330
1F
100
AcDbEntity
  8
AM_7
100
AcDbLine
 10
2655.64609159654
 20
1040.224296716137
 30
0.0
 11
2655.64609159654
 21
1040.224296716137
 31
0.0
  0
LINE
  5
32E5
330
1F
100
AcDbEntity
  8
AM_7
100
AcDbLine
 10
2655.64609159654
 20
1040.224296716137
 30
0.0
 11
2655.64609159654
 21
1040.224296716137
 31
0.0
  0
LINE
  5
32E6
330
1F
100
AcDbEntity
  8
AM_7
100
AcDbLine
 10
2649.34609159654
 20
1040.224296716137
 30
0.0
 11
2655.64609159654
 21
1040.224296716137
 31
0.0
  0
LINE
  5
32E7
330
1F
100
AcDbEntity
  8
AM_7
100
AcDbLine
 10
2655.64609159654
 20
1040.224296716137
 30
0.0
 11
2661.94609159654
 21
1040.224296716137
 31
0.0
  0
LINE
  5
32E8
102
{ACAD_REACTORS
330
371D
102
}
330
1F
100
AcDbEntity
  8
AM_7
100
AcDbLine
 10
2655.64609159654
 20
1033.924296716137
 30
0.0
 11
2655.64609159654
 21
1040.224296716137
 31
0.0
  0
LINE
  5
32E9
330
1F
100
AcDbEntity
  8
AM_7
100
AcDbLine
 10
2655.64609159654
 20
1040.224296716137
 30
0.0
 11
2655.64609159654
 21
1046.524296716137
 31
0.0
  0
LINE
  5
32EA
330
1F
100
AcDbEntity
  8
AM_7
100
AcDbLine
 10
2695.64609159654
 20
1040.224296716137
 30
0.0
 11
2695.64609159654
 21
1040.224296716137
 31
0.0
  0
LINE
  5
32EB
330
1F
100
AcDbEntity
  8
AM_7
100
AcDbLine
 10
2695.64609159654
 20
1040.224296716137
 30
0.0
 11
2695.64609159654
 21
1040.224296716137
 31
0.0
  0
LINE
  5
32EC
330
1F
100
AcDbEntity
  8
AM_7
100
AcDbLine
 10
2689.34609159654
 20
1040.224296716137
 30
0.0
 11
2695.64609159654
 21
1040.224296716137
 31
0.0
  0
LINE
  5
32ED
330
1F
100
AcDbEntity
  8
AM_7
100
AcDbLine
 10
2695.64609159654
 20
1040.224296716137
 30
0.0
 11
2701.94609159654
 21
1040.224296716137
 31
0.0
  0
LINE
  5
32EE
102
{ACAD_REACTORS
330
371D
102
}
330
1F
100
AcDbEntity
  8
AM_7
100
AcDbLine
 10
2695.64609159654
 20
1033.924296716137
 30
0.0
 11
2695.64609159654
 21
1040.224296716137
 31
0.0
  0
LINE
  5
32EF
330
1F
100
AcDbEntity
  8
AM_7
100
AcDbLine
 10
2695.64609159654
 20
1040.224296716137
 30
0.0
 11
2695.64609159654
 21
1046.524296716137
 31
0.0
  0
LINE
  5
32F0
330
1F
100
AcDbEntity
  8
AM_7
100
AcDbLine
 10
2675.64609159654
 20
989.7432342351597
 30
0.0
 11
2675.64609159654
 21
989.7432342351597
 31
0.0
  0
LINE
  5
32F1
330
1F
100
AcDbEntity
  8
AM_7
100
AcDbLine
 10
2675.64609159654
 20
989.7432342351597
 30
0.0
 11
2675.64609159654
 21
989.7432342351597
 31
0.0
  0
LINE
  5
32F2
330
1F
100
AcDbEntity
  8
AM_7
100
AcDbLine
 10
2658.64609159654
 20
989.7432342351597
 30
0.0
 11
2675.64609159654
 21
989.7432342351597
 31
0.0
  0
LINE
  5
32F3
330
1F
100
AcDbEntity
  8
AM_7
100
AcDbLine
 10
2675.64609159654
 20
989.7432342351597
 30
0.0
 11
2692.64609159654
 21
989.7432342351597
 31
0.0
  0
LINE
  5
32F4
330
1F
100
AcDbEntity
  8
AM_7
100
AcDbLine
 10
2675.64609159654
 20
972.7432342351598
 30
0.0
 11
2675.64609159654
 21
989.7432342351597
 31
0.0
  0
LINE
  5
32F5
330
1F
100
AcDbEntity
  8
AM_7
100
AcDbLine
 10
2675.64609159654
 20
989.7432342351597
 30
0.0
 11
2675.64609159654
 21
1006.74323423516
 31
0.0
  0
LINE
  5
32F6
330
1F
100
AcDbEntity
  8
AM_7
100
AcDbLine
 10
2675.64609159654
 20
1059.724296716137
 30
0.0
 11
2675.64609159654
 21
1049.724296716137
 31
0.0
  0
LINE
  5
32F7
330
1F
100
AcDbEntity
  8
AM_7
100
AcDbLine
 10
2763.814623672085
 20
989.7432342351597
 30
0.0
 11
2753.814623672085
 21
989.7432342351597
 31
0.0
  0
LINE
  5
32F8
330
1F
100
AcDbEntity
  8
AM_VIS
100
AcDbLine
 10
2703.64609159654
 20
949.7432342351597
 30
0.0
 11
2703.64609159654
 21
953.7432342351598
 31
0.0
  0
LINE
  5
32F9
330
1F
100
AcDbEntity
  8
AM_VIS
100
AcDbLine
 10
2650.64609159654
 20
949.7432342351597
 30
0.0
 11
2700.64609159654
 21
949.7432342351597
 31
0.0
  0
LINE
  5
32FA
330
1F
100
AcDbEntity
  8
AM_VIS
100
AcDbLine
 10
2688.801935197273
 20
994.5311125912853
 30
0.0
 11
2703.64609159654
 21
953.7432342351598
 31
0.0
  0
LINE
  5
32FB
330
1F
100
AcDbEntity
  8
AM_VIS
100
AcDbLine
 10
2666.64609159654
 20
953.7432342351598
 30
0.0
 11
2666.64609159654
 21
979.0194289403961
 31
0.0
  0
LINE
  5
32FC
330
1F
100
AcDbEntity
  8
AM_VIS
100
AcDbLine
 10
2647.64609159654
 20
953.7432342351598
 30
0.0
 11
2647.64609159654
 21
949.7432342351597
 31
0.0
  0
LINE
  5
32FD
330
1F
100
AcDbEntity
  8
AM_VIS
100
AcDbLine
 10
2700.64609159654
 20
953.7432342351598
 30
0.0
 11
2650.64609159654
 21
953.7432342351598
 31
0.0
  0
LINE
  5
32FE
330
1F
100
AcDbEntity
  8
AM_VIS
100
AcDbLine
 10
2650.64609159654
 20
949.7432342351597
 30
0.0
 11
2647.64609159654
 21
949.7432342351597
 31
0.0
  0
LINE
  5
32FF
330
1F
100
AcDbEntity
  8
AM_VIS
100
AcDbLine
 10
2703.64609159654
 20
949.7432342351597
 30
0.0
 11
2700.64609159654
 21
949.7432342351597
 31
0.0
  0
ARC
  5
3300
330
1F
100
AcDbEntity
  8
AM_VIS
100
AcDbCircle
 10
2675.64609159654
 20
989.7432342351597
 30
0.0
 40
14.0
100
AcDbArc
 50
19.99824202870529
 51
229.9947991151308
  0
LINE
  5
3301
330
1F
100
AcDbEntity
  8
AM_VIS
100
AcDbLine
 10
2700.64609159654
 20
953.7432342351598
 30
0.0
 11
2703.64609159654
 21
953.7432342351598
 31
0.0
  0
LINE
  5
3302
330
1F
100
AcDbEntity
  8
AM_VIS
100
AcDbLine
 10
2647.64609159654
 20
953.7432342351598
 30
0.0
 11
2650.64609159654
 21
953.7432342351598
 31
0.0
  0
CIRCLE
  5
3303
330
1F
100
AcDbEntity
  8
AM_VIS
100
AcDbCircle
 10
2675.64609159654
 20
989.7432342351597
 30
0.0
 40
6.0
  0
LINE
  5
3304
330
1F
100
AcDbEntity
  8
AM_VIS
100
AcDbLine
 10
2688.801935197273
 20
1056.724296716137
 30
0.0
 11
2703.64609159654
 21
1056.724296716137
 31
0.0
  0
LINE
  5
3305
330
1F
100
AcDbEntity
  8
AM_VIS
100
AcDbLine
 10
2703.64609159654
 20
1056.724296716137
 30
0.0
 11
2703.64609159654
 21
1052.724296716137
 31
0.0
  0
LINE
  5
3306
330
1F
100
AcDbEntity
  8
AM_VIS
100
AcDbLine
 10
2688.801935197273
 20
1052.724296716137
 30
0.0
 11
2703.64609159654
 21
1052.724296716137
 31
0.0
  0
LINE
  5
3307
102
{ACAD_REACTORS
330
3743
102
}
330
1F
100
AcDbEntity
  8
AM_VIS
100
AcDbLine
 10
2703.64609159654
 20
1052.724296716137
 30
0.0
 11
2703.64609159654
 21
1035.224296716137
 31
0.0
  0
LINE
  5
3308
102
{ACAD_REACTORS
330
36F3
102
}
330
1F
100
AcDbEntity
  8
AM_VIS
100
AcDbLine
 10
2700.64609159654
 20
1032.224296716137
 30
0.0
 11
2650.64609159654
 21
1032.224296716137
 31
0.0
  0
LINE
  5
3309
102
{ACAD_REACTORS
330
3743
102
}
330
1F
100
AcDbEntity
  8
AM_VIS
100
AcDbLine
 10
2647.64609159654
 20
1035.224296716137
 30
0.0
 11
2647.64609159654
 21
1053.224296716137
 31
0.0
  0
LINE
  5
330A
330
1F
100
AcDbEntity
  8
AM_VIS
100
AcDbLine
 10
2661.646091596539
 20
1053.224296716137
 30
0.0
 11
2647.64609159654
 21
1053.224296716137
 31
0.0
  0
LINE
  5
330B
330
1F
100
AcDbEntity
  8
AM_VIS
100
AcDbLine
 10
2661.646091596539
 20
1056.724296716137
 30
0.0
 11
2661.646091596539
 21
1052.724296716137
 31
0.0
  0
LINE
  5
330C
330
1F
100
AcDbEntity
  8
AM_VIS
100
AcDbLine
 10
2688.801935197273
 20
1056.724296716137
 30
0.0
 11
2661.646091596539
 21
1056.724296716137
 31
0.0
  0
LINE
  5
330D
330
1F
100
AcDbEntity
  8
AM_VIS
100
AcDbLine
 10
2688.801935197273
 20
1052.724296716137
 30
0.0
 11
2661.646091596539
 21
1052.724296716137
 31
0.0
  0
ARC
  5
330E
330
1F
100
AcDbEntity
  8
AM_VIS
100
AcDbCircle
 10
2700.64609159654
 20
1035.224296716137
 30
0.0
 40
3.0
100
AcDbArc
 50
270.0
 51
0.0
  0
ARC
  5
330F
330
1F
100
AcDbEntity
  8
AM_VIS
100
AcDbCircle
 10
2650.64609159654
 20
1035.224296716137
 30
0.0
 40
3.0
100
AcDbArc
 50
180.0
 51
270.0
  0
CIRCLE
  5
3310
102
{ACAD_REACTORS
330
36C8
102
}
330
1F
100
AcDbEntity
  8
AM_VIS
100
AcDbCircle
 10
2695.64609159654
 20
1040.224296716137
 30
0.0
 40
3.299999999999999
  0
CIRCLE
  5
3311
330
1F
100
AcDbEntity
  8
AM_VIS
100
AcDbCircle
 10
2655.64609159654
 20
1040.224296716137
 30
0.0
 40
3.299999999999999
  0
LINE
  5
3312
330
1F
100
AcDbEntity
  8
AM_VIS
100
AcDbLine
 10
2736.314623672085
 20
953.7432342351598
 30
0.0
 11
2736.314623672085
 21
949.7432342351597
 31
0.0
  0
LINE
  5
3313
330
1F
100
AcDbEntity
  8
AM_VIS
100
AcDbLine
 10
2760.814623672085
 20
949.7432342351597
 30
0.0
 11
2760.814623672085
 21
953.7432342351598
 31
0.0
  0
LINE
  5
3314
330
1F
100
AcDbEntity
  8
AM_VIS
100
AcDbLine
 10
2739.314623672085
 20
949.7432342351597
 30
0.0
 11
2760.814623672085
 21
949.7432342351597
 31
0.0
  0
LINE
  5
3315
330
1F
100
AcDbEntity
  8
AM_VIS
100
AcDbLine
 10
2760.814623672085
 20
994.5311125912853
 30
0.0
 11
2760.814623672085
 21
953.7432342351598
 31
0.0
  0
LINE
  5
3316
330
1F
100
AcDbEntity
  8
AM_VIS
100
AcDbLine
 10
2760.814623672085
 20
953.7432342351598
 30
0.0
 11
2756.814623672085
 21
953.7432342351598
 31
0.0
  0
LINE
  5
3317
330
1F
100
AcDbEntity
  8
AM_VIS
100
AcDbLine
 10
2756.814623672085
 20
994.5311125912853
 30
0.0
 11
2756.814623672085
 21
953.7432342351598
 31
0.0
  0
LINE
  5
3318
330
1F
100
AcDbEntity
  8
AM_VIS
100
AcDbLine
 10
2756.814623672085
 20
953.7432342351598
 30
0.0
 11
2739.314623672085
 21
953.7432342351598
 31
0.0
  0
LINE
  5
3319
330
1F
100
AcDbEntity
  8
AM_VIS
100
AcDbLine
 10
2760.814623672085
 20
1003.74323423516
 30
0.0
 11
2756.814623672085
 21
1003.74323423516
 31
0.0
  0
LINE
  5
331A
102
{ACAD_REACTORS
330
3859
102
}
330
1F
100
AcDbEntity
  8
AM_VIS
100
AcDbLine
 10
2739.314623672085
 20
949.7432342351597
 30
0.0
 11
2736.314623672085
 21
949.7432342351597
 31
0.0
  0
LINE
  5
331B
330
1F
100
AcDbEntity
  8
AM_VIS
100
AcDbLine
 10
2760.814623672085
 20
994.5311125912853
 30
0.0
 11
2760.814623672085
 21
1003.74323423516
 31
0.0
  0
LINE
  5
331C
330
1F
100
AcDbEntity
  8
AM_VIS
100
AcDbLine
 10
2756.814623672085
 20
994.5311125912853
 30
0.0
 11
2756.814623672085
 21
1003.74323423516
 31
0.0
  0
LINE
  5
331D
330
1F
100
AcDbEntity
  8
AM_VIS
100
AcDbLine
 10
2736.314623672085
 20
953.7432342351598
 30
0.0
 11
2739.314623672085
 21
953.7432342351598
 31
0.0
  0
LINE
  5
331F
330
1F
100
AcDbEntity
  8
AM_7
100
AcDbLine
 10
2777.814623672085
 20
989.7432342351597
 30
0.0
 11
2787.814623672085
 21
989.7432342351597
 31
0.0
  0
LINE
  5
3320
330
1F
100
AcDbEntity
  8
AM_VIS
100
AcDbLine
 10
2805.314623672085
 20
953.7432342351598
 30
0.0
 11
2805.314623672085
 21
949.7432342351597
 31
0.0
  0
LINE
  5
3321
330
1F
100
AcDbEntity
  8
AM_VIS
100
AcDbLine
 10
2780.814623672085
 20
949.7432342351597
 30
0.0
 11
2780.814623672085
 21
953.7432342351598
 31
0.0
  0
LINE
  5
3322
330
1F
100
AcDbEntity
  8
AM_VIS
100
AcDbLine
 10
2802.314623672085
 20
949.7432342351597
 30
0.0
 11
2780.814623672085
 21
949.7432342351597
 31
0.0
  0
LINE
  5
3323
330
1F
100
AcDbEntity
  8
AM_VIS
100
AcDbLine
 10
2780.814623672085
 20
994.5311125912853
 30
0.0
 11
2780.814623672085
 21
953.7432342351598
 31
0.0
  0
LINE
  5
3324
330
1F
100
AcDbEntity
  8
AM_VIS
100
AcDbLine
 10
2780.814623672085
 20
953.7432342351598
 30
0.0
 11
2784.814623672085
 21
953.7432342351598
 31
0.0
  0
LINE
  5
3325
330
1F
100
AcDbEntity
  8
AM_VIS
100
AcDbLine
 10
2784.814623672085
 20
994.5311125912853
 30
0.0
 11
2784.814623672085
 21
953.7432342351598
 31
0.0
  0
LINE
  5
3326
330
1F
100
AcDbEntity
  8
AM_VIS
100
AcDbLine
 10
2784.814623672085
 20
953.7432342351598
 30
0.0
 11
2802.314623672085
 21
953.7432342351598
 31
0.0
  0
LINE
  5
3327
330
1F
100
AcDbEntity
  8
AM_VIS
100
AcDbLine
 10
2780.814623672085
 20
1003.74323423516
 30
0.0
 11
2784.814623672085
 21
1003.74323423516
 31
0.0
  0
LINE
  5
3328
102
{ACAD_REACTORS
330
3859
102
}
330
1F
100
AcDbEntity
  8
AM_VIS
100
AcDbLine
 10
2802.314623672085
 20
949.7432342351597
 30
0.0
 11
2805.314623672085
 21
949.7432342351597
 31
0.0
  0
LINE
  5
3329
330
1F
100
AcDbEntity
  8
AM_VIS
100
AcDbLine
 10
2780.814623672085
 20
994.5311125912853
 30
0.0
 11
2780.814623672085
 21
1003.74323423516
 31
0.0
  0
LINE
  5
332A
330
1F
100
AcDbEntity
  8
AM_VIS
100
AcDbLine
 10
2784.814623672085
 20
994.5311125912853
 30
0.0
 11
2784.814623672085
 21
1003.74323423516
 31
0.0
  0
LINE
  5
332B
330
1F
100
AcDbEntity
  8
AM_VIS
100
AcDbLine
 10
2805.314623672085
 20
953.7432342351598
 30
0.0
 11
2802.314623672085
 21
953.7432342351598
 31
0.0
  0
LINE
  5
332D
330
1F
100
AcDbEntity
  8
AM_7
100
AcDbLine
 10
2655.64609159654
 20
1093.224296716137
 30
0.0
 11
2655.64609159654
 21
1093.224296716137
 31
0.0
  0
LINE
  5
332E
330
1F
100
AcDbEntity
  8
AM_7
100
AcDbLine
 10
2655.64609159654
 20
1093.224296716137
 30
0.0
 11
2655.64609159654
 21
1093.224296716137
 31
0.0
  0
LINE
  5
332F
330
1F
100
AcDbEntity
  8
AM_7
100
AcDbLine
 10
2649.34609159654
 20
1093.224296716137
 30
0.0
 11
2655.64609159654
 21
1093.224296716137
 31
0.0
  0
LINE
  5
3330
330
1F
100
AcDbEntity
  8
AM_7
100
AcDbLine
 10
2655.64609159654
 20
1093.224296716137
 30
0.0
 11
2661.94609159654
 21
1093.224296716137
 31
0.0
  0
LINE
  5
3331
330
1F
100
AcDbEntity
  8
AM_7
100
AcDbLine
 10
2655.64609159654
 20
1099.524296716137
 30
0.0
 11
2655.64609159654
 21
1093.224296716137
 31
0.0
  0
LINE
  5
3332
330
1F
100
AcDbEntity
  8
AM_7
100
AcDbLine
 10
2655.64609159654
 20
1093.224296716137
 30
0.0
 11
2655.64609159654
 21
1086.924296716137
 31
0.0
  0
LINE
  5
3333
330
1F
100
AcDbEntity
  8
AM_7
100
AcDbLine
 10
2695.64609159654
 20
1093.224296716137
 30
0.0
 11
2695.64609159654
 21
1093.224296716137
 31
0.0
  0
LINE
  5
3334
330
1F
100
AcDbEntity
  8
AM_7
100
AcDbLine
 10
2695.64609159654
 20
1093.224296716137
 30
0.0
 11
2695.64609159654
 21
1093.224296716137
 31
0.0
  0
LINE
  5
3335
330
1F
100
AcDbEntity
  8
AM_7
100
AcDbLine
 10
2689.34609159654
 20
1093.224296716137
 30
0.0
 11
2695.64609159654
 21
1093.224296716137
 31
0.0
  0
LINE
  5
3336
330
1F
100
AcDbEntity
  8
AM_7
100
AcDbLine
 10
2695.64609159654
 20
1093.224296716137
 30
0.0
 11
2701.94609159654
 21
1093.224296716137
 31
0.0
  0
LINE
  5
3337
330
1F
100
AcDbEntity
  8
AM_7
100
AcDbLine
 10
2695.64609159654
 20
1099.524296716137
 30
0.0
 11
2695.64609159654
 21
1093.224296716137
 31
0.0
  0
LINE
  5
3338
330
1F
100
AcDbEntity
  8
AM_7
100
AcDbLine
 10
2695.64609159654
 20
1093.224296716137
 30
0.0
 11
2695.64609159654
 21
1086.924296716137
 31
0.0
  0
LINE
  5
3339
330
1F
100
AcDbEntity
  8
AM_7
100
AcDbLine
 10
2675.64609159654
 20
1073.724296716137
 30
0.0
 11
2675.64609159654
 21
1083.724296716137
 31
0.0
  0
LINE
  5
333A
330
1F
100
AcDbEntity
  8
AM_VIS
100
AcDbLine
 10
2688.801935197273
 20
1076.724296716137
 30
0.0
 11
2703.64609159654
 21
1076.724296716137
 31
0.0
  0
LINE
  5
333B
330
1F
100
AcDbEntity
  8
AM_VIS
100
AcDbLine
 10
2703.64609159654
 20
1076.724296716137
 30
0.0
 11
2703.64609159654
 21
1080.724296716137
 31
0.0
  0
LINE
  5
333C
330
1F
100
AcDbEntity
  8
AM_VIS
100
AcDbLine
 10
2688.801935197273
 20
1080.724296716137
 30
0.0
 11
2703.64609159654
 21
1080.724296716137
 31
0.0
  0
LINE
  5
333D
330
1F
100
AcDbEntity
  8
AM_VIS
100
AcDbLine
 10
2703.64609159654
 20
1080.724296716137
 30
0.0
 11
2703.64609159654
 21
1098.224296716137
 31
0.0
  0
LINE
  5
333E
102
{ACAD_REACTORS
330
36F3
102
}
330
1F
100
AcDbEntity
  8
AM_VIS
100
AcDbLine
 10
2700.64609159654
 20
1101.224296716137
 30
0.0
 11
2650.64609159654
 21
1101.224296716137
 31
0.0
  0
LINE
  5
333F
330
1F
100
AcDbEntity
  8
AM_VIS
100
AcDbLine
 10
2647.64609159654
 20
1098.224296716137
 30
0.0
 11
2647.64609159654
 21
1080.224296716137
 31
0.0
  0
LINE
  5
3340
330
1F
100
AcDbEntity
  8
AM_VIS
100
AcDbLine
 10
2661.646091596539
 20
1080.224296716137
 30
0.0
 11
2647.64609159654
 21
1080.224296716137
 31
0.0
  0
LINE
  5
3341
330
1F
100
AcDbEntity
  8
AM_VIS
100
AcDbLine
 10
2661.646091596539
 20
1076.724296716137
 30
0.0
 11
2661.646091596539
 21
1080.724296716137
 31
0.0
  0
LINE
  5
3342
330
1F
100
AcDbEntity
  8
AM_VIS
100
AcDbLine
 10
2688.801935197273
 20
1076.724296716137
 30
0.0
 11
2661.646091596539
 21
1076.724296716137
 31
0.0
  0
LINE
  5
3343
330
1F
100
AcDbEntity
  8
AM_VIS
100
AcDbLine
 10
2688.801935197273
 20
1080.724296716137
 30
0.0
 11
2661.646091596539
 21
1080.724296716137
 31
0.0
  0
ARC
  5
3344
330
1F
100
AcDbEntity
  8
AM_VIS
100
AcDbCircle
 10
2700.64609159654
 20
1098.224296716137
 30
0.0
 40
3.0
100
AcDbArc
 50
0.0
 51
90.00000000000003
  0
ARC
  5
3345
330
1F
100
AcDbEntity
  8
AM_VIS
100
AcDbCircle
 10
2650.64609159654
 20
1098.224296716137
 30
0.0
 40
3.0
100
AcDbArc
 50
90.00000000000003
 51
180.0
  0
CIRCLE
  5
3346
102
{ACAD_REACTORS
330
36C8
102
}
330
1F
100
AcDbEntity
  8
AM_VIS
100
AcDbCircle
 10
2695.64609159654
 20
1093.224296716137
 30
0.0
 40
3.299999999999999
  0
CIRCLE
  5
3347
330
1F
100
AcDbEntity
  8
AM_VIS
100
AcDbCircle
 10
2655.64609159654
 20
1093.224296716137
 30
0.0
 40
3.299999999999999
  0
LINE
  5
3389
330
1F
100
AcDbEntity
  8
AM_7
100
AcDbLine
 10
2322.693110338291
 20
1020.245127809154
 30
0.0
 11
2322.693110338291
 21
1020.245127809154
 31
0.0
  0
LINE
  5
338A
330
1F
100
AcDbEntity
  8
AM_7
100
AcDbLine
 10
2322.693110338291
 20
1020.245127809154
 30
0.0
 11
2322.693110338291
 21
1020.245127809154
 31
0.0
  0
LINE
  5
338B
330
1F
100
AcDbEntity
  8
AM_7
100
AcDbLine
 10
2304.693110338291
 20
1020.245127809154
 30
0.0
 11
2322.693110338291
 21
1020.245127809154
 31
0.0
  0
LINE
  5
338C
330
1F
100
AcDbEntity
  8
AM_7
100
AcDbLine
 10
2322.693110338291
 20
1020.245127809154
 30
0.0
 11
2340.693110338291
 21
1020.245127809154
 31
0.0
  0
LINE
  5
338D
330
1F
100
AcDbEntity
  8
AM_7
100
AcDbLine
 10
2322.693110338291
 20
1002.245127809153
 30
0.0
 11
2322.693110338291
 21
1020.245127809154
 31
0.0
  0
LINE
  5
338E
330
1F
100
AcDbEntity
  8
AM_7
100
AcDbLine
 10
2322.693110338291
 20
1020.245127809154
 30
0.0
 11
2322.693110338291
 21
1038.245127809154
 31
0.0
  0
LINE
  5
338F
330
1F
100
AcDbEntity
  8
AM_7
100
AcDbLine
 10
2287.693110338291
 20
1002.245127809153
 30
0.0
 11
2287.693110338291
 21
1002.245127809153
 31
0.0
  0
LINE
  5
3390
330
1F
100
AcDbEntity
  8
AM_7
100
AcDbLine
 10
2287.693110338291
 20
1002.245127809153
 30
0.0
 11
2287.693110338291
 21
1002.245127809153
 31
0.0
  0
LINE
  5
3391
330
1F
100
AcDbEntity
  8
AM_7
100
AcDbLine
 10
2281.393110338292
 20
1002.245127809153
 30
0.0
 11
2287.693110338291
 21
1002.245127809153
 31
0.0
  0
LINE
  5
3392
330
1F
100
AcDbEntity
  8
AM_7
100
AcDbLine
 10
2287.693110338291
 20
1002.245127809153
 30
0.0
 11
2293.993110338291
 21
1002.245127809153
 31
0.0
  0
LINE
  5
3393
330
1F
100
AcDbEntity
  8
AM_7
100
AcDbLine
 10
2287.693110338291
 20
995.9451278091538
 30
0.0
 11
2287.693110338291
 21
1002.245127809153
 31
0.0
  0
LINE
  5
3394
330
1F
100
AcDbEntity
  8
AM_7
100
AcDbLine
 10
2287.693110338291
 20
1002.245127809153
 30
0.0
 11
2287.693110338291
 21
1008.545127809154
 31
0.0
  0
LINE
  5
3395
330
1F
100
AcDbEntity
  8
AM_7
100
AcDbLine
 10
2357.693110338292
 20
1002.245127809153
 30
0.0
 11
2357.693110338292
 21
1002.245127809153
 31
0.0
  0
LINE
  5
3396
330
1F
100
AcDbEntity
  8
AM_7
100
AcDbLine
 10
2357.693110338292
 20
1002.245127809153
 30
0.0
 11
2357.693110338292
 21
1002.245127809153
 31
0.0
  0
LINE
  5
3397
330
1F
100
AcDbEntity
  8
AM_7
100
AcDbLine
 10
2351.393110338292
 20
1002.245127809153
 30
0.0
 11
2357.693110338292
 21
1002.245127809153
 31
0.0
  0
LINE
  5
3398
330
1F
100
AcDbEntity
  8
AM_7
100
AcDbLine
 10
2357.693110338292
 20
1002.245127809153
 30
0.0
 11
2363.993110338292
 21
1002.245127809153
 31
0.0
  0
LINE
  5
3399
330
1F
100
AcDbEntity
  8
AM_7
100
AcDbLine
 10
2357.693110338292
 20
995.9451278091536
 30
0.0
 11
2357.693110338292
 21
1002.245127809153
 31
0.0
  0
LINE
  5
339A
330
1F
100
AcDbEntity
  8
AM_7
100
AcDbLine
 10
2357.693110338292
 20
1002.245127809153
 30
0.0
 11
2357.693110338292
 21
1008.545127809154
 31
0.0
  0
LINE
  5
339B
330
1F
100
AcDbEntity
  8
AM_7
100
AcDbLine
 10
2287.693110338291
 20
1038.245127809154
 30
0.0
 11
2287.693110338291
 21
1038.245127809154
 31
0.0
  0
LINE
  5
339C
330
1F
100
AcDbEntity
  8
AM_7
100
AcDbLine
 10
2287.693110338291
 20
1038.245127809154
 30
0.0
 11
2287.693110338291
 21
1038.245127809154
 31
0.0
  0
LINE
  5
339D
330
1F
100
AcDbEntity
  8
AM_7
100
AcDbLine
 10
2281.393110338292
 20
1038.245127809154
 30
0.0
 11
2287.693110338291
 21
1038.245127809154
 31
0.0
  0
LINE
  5
339E
330
1F
100
AcDbEntity
  8
AM_7
100
AcDbLine
 10
2287.693110338291
 20
1038.245127809154
 30
0.0
 11
2293.993110338291
 21
1038.245127809154
 31
0.0
  0
LINE
  5
339F
330
1F
100
AcDbEntity
  8
AM_7
100
AcDbLine
 10
2287.693110338291
 20
1031.945127809154
 30
0.0
 11
2287.693110338291
 21
1038.245127809154
 31
0.0
  0
LINE
  5
33A0
330
1F
100
AcDbEntity
  8
AM_7
100
AcDbLine
 10
2287.693110338291
 20
1038.245127809154
 30
0.0
 11
2287.693110338291
 21
1044.545127809154
 31
0.0
  0
LINE
  5
33A1
330
1F
100
AcDbEntity
  8
AM_7
100
AcDbLine
 10
2357.693110338292
 20
1038.245127809154
 30
0.0
 11
2357.693110338292
 21
1038.245127809154
 31
0.0
  0
LINE
  5
33A2
330
1F
100
AcDbEntity
  8
AM_7
100
AcDbLine
 10
2357.693110338292
 20
1038.245127809154
 30
0.0
 11
2357.693110338292
 21
1038.245127809154
 31
0.0
  0
LINE
  5
33A3
330
1F
100
AcDbEntity
  8
AM_7
100
AcDbLine
 10
2351.393110338292
 20
1038.245127809154
 30
0.0
 11
2357.693110338292
 21
1038.245127809154
 31
0.0
  0
LINE
  5
33A4
330
1F
100
AcDbEntity
  8
AM_7
100
AcDbLine
 10
2357.693110338292
 20
1038.245127809154
 30
0.0
 11
2363.993110338292
 21
1038.245127809154
 31
0.0
  0
LINE
  5
33A5
330
1F
100
AcDbEntity
  8
AM_7
100
AcDbLine
 10
2357.693110338292
 20
1031.945127809154
 30
0.0
 11
2357.693110338292
 21
1038.245127809154
 31
0.0
  0
LINE
  5
33A6
330
1F
100
AcDbEntity
  8
AM_7
100
AcDbLine
 10
2357.693110338292
 20
1038.245127809154
 30
0.0
 11
2357.693110338292
 21
1044.545127809154
 31
0.0
  0
LINE
  5
33A7
330
1F
100
AcDbEntity
  8
AM_VIS
100
AcDbLine
 10
2359.693110338291
 20
995.2451278091539
 30
0.0
 11
2285.693110338291
 21
995.2451278091539
 31
0.0
  0
LINE
  5
33A8
330
1F
100
AcDbEntity
  8
AM_VIS
100
AcDbLine
 10
2280.693110338291
 20
1000.245127809153
 30
0.0
 11
2280.693110338292
 21
1040.245127809154
 31
0.0
  0
LINE
  5
33A9
330
1F
100
AcDbEntity
  8
AM_VIS
100
AcDbLine
 10
2285.693110338291
 20
1045.245127809154
 30
0.0
 11
2359.693110338291
 21
1045.245127809154
 31
0.0
  0
LINE
  5
33AA
330
1F
100
AcDbEntity
  8
AM_VIS
100
AcDbLine
 10
2364.693110338291
 20
1040.245127809154
 30
0.0
 11
2364.693110338291
 21
1000.245127809153
 31
0.0
  0
ARC
  5
33AB
330
1F
100
AcDbEntity
  8
AM_VIS
100
AcDbCircle
 10
2359.693110338291
 20
1000.245127809153
 30
0.0
 40
5.0
100
AcDbArc
 50
270.0
 51
0.0
  0
ARC
  5
33AC
330
1F
100
AcDbEntity
  8
AM_VIS
100
AcDbCircle
 10
2285.693110338291
 20
1000.245127809153
 30
0.0
 40
5.0
100
AcDbArc
 50
180.0
 51
270.0
  0
ARC
  5
33AD
330
1F
100
AcDbEntity
  8
AM_VIS
100
AcDbCircle
 10
2285.693110338291
 20
1040.245127809154
 30
0.0
 40
5.0
100
AcDbArc
 50
90.0
 51
180.0
  0
CIRCLE
  5
33AE
330
1F
100
AcDbEntity
  8
AM_VIS
100
AcDbCircle
 10
2322.693110338291
 20
1020.245127809154
 30
0.0
 40
15.0
  0
CIRCLE
  5
33AF
330
1F
100
AcDbEntity
  8
AM_VIS
100
AcDbCircle
 10
2287.693110338291
 20
1002.245127809153
 30
0.0
 40
3.299999999999999
  0
CIRCLE
  5
33B0
330
1F
100
AcDbEntity
  8
AM_VIS
100
AcDbCircle
 10
2357.693110338292
 20
1002.245127809153
 30
0.0
 40
3.299999999999999
  0
CIRCLE
  5
33B1
330
1F
100
AcDbEntity
  8
AM_VIS
100
AcDbCircle
 10
2287.693110338291
 20
1038.245127809154
 30
0.0
 40
3.299999999999999
  0
CIRCLE
  5
33B2
330
1F
100
AcDbEntity
  8
AM_VIS
100
AcDbCircle
 10
2357.693110338292
 20
1038.245127809154
 30
0.0
 40
3.299999999999999
  0
ARC
  5
33B3
330
1F
100
AcDbEntity
  8
AM_VIS
100
AcDbCircle
 10
2359.693110338291
 20
1040.245127809154
 30
0.0
 40
5.0
100
AcDbArc
 50
0.0
 51
90.0
  0
LINE
  5
33B4
330
1F
100
AcDbEntity
  8
AM_VIS
100
AcDbLine
 10
2359.693110338291
 20
1077.464163320515
 30
0.0
 11
2285.693110338291
 21
1077.464163320515
 31
0.0
  0
LINE
  5
33B5
330
1F
100
AcDbEntity
  8
AM_VIS
100
AcDbLine
 10
2280.693110338291
 20
1077.464163320515
 30
0.0
 11
2280.693110338291
 21
1072.964163320516
 31
0.0
  0
LINE
  5
33B6
330
1F
100
AcDbEntity
  8
AM_VIS
100
AcDbLine
 10
2285.693110338291
 20
1072.964163320516
 30
0.0
 11
2359.693110338291
 21
1072.964163320516
 31
0.0
  0
LINE
  5
33B7
330
1F
100
AcDbEntity
  8
AM_VIS
100
AcDbLine
 10
2364.693110338291
 20
1072.964163320516
 30
0.0
 11
2364.693110338291
 21
1077.464163320515
 31
0.0
  0
LINE
  5
33B8
330
1F
100
AcDbEntity
  8
AM_VIS
100
AcDbLine
 10
2280.693110338291
 20
1077.464163320515
 30
0.0
 11
2285.693110338291
 21
1077.464163320515
 31
0.0
  0
LINE
  5
33B9
330
1F
100
AcDbEntity
  8
AM_VIS
100
AcDbLine
 10
2285.693110338291
 20
1072.964163320516
 30
0.0
 11
2280.693110338291
 21
1072.964163320516
 31
0.0
  0
LINE
  5
33BA
330
1F
100
AcDbEntity
  8
AM_VIS
100
AcDbLine
 10
2359.693110338291
 20
1077.464163320515
 30
0.0
 11
2364.693110338291
 21
1077.464163320515
 31
0.0
  0
LINE
  5
33BB
330
1F
100
AcDbEntity
  8
AM_VIS
100
AcDbLine
 10
2364.693110338291
 20
1072.964163320516
 30
0.0
 11
2359.693110338291
 21
1072.964163320516
 31
0.0
  0
LINE
  5
33BC
330
1F
100
AcDbEntity
  8
AM_VIS
100
AcDbLine
 10
2407.337411941967
 20
995.2451278091539
 30
0.0
 11
2411.837411941966
 21
995.2451278091539
 31
0.0
  0
LINE
  5
33BD
330
1F
100
AcDbEntity
  8
AM_VIS
100
AcDbLine
 10
2411.837411941966
 20
1000.245127809153
 30
0.0
 11
2411.837411941966
 21
1040.245127809154
 31
0.0
  0
LINE
  5
33BE
330
1F
100
AcDbEntity
  8
AM_VIS
100
AcDbLine
 10
2407.337411941967
 20
1040.245127809154
 30
0.0
 11
2407.337411941967
 21
1000.245127809153
 31
0.0
  0
LINE
  5
33BF
330
1F
100
AcDbEntity
  8
AM_VIS
100
AcDbLine
 10
2411.837411941966
 20
1045.245127809154
 30
0.0
 11
2407.337411941967
 21
1045.245127809154
 31
0.0
  0
LINE
  5
33C0
330
1F
100
AcDbEntity
  8
AM_VIS
100
AcDbLine
 10
2411.837411941966
 20
1000.245127809153
 30
0.0
 11
2411.837411941966
 21
995.2451278091539
 31
0.0
  0
LINE
  5
33C1
330
1F
100
AcDbEntity
  8
AM_VIS
100
AcDbLine
 10
2407.337411941967
 20
995.2451278091539
 30
0.0
 11
2407.337411941967
 21
1000.245127809153
 31
0.0
  0
LINE
  5
33C2
330
1F
100
AcDbEntity
  8
AM_VIS
100
AcDbLine
 10
2411.837411941966
 20
1045.245127809154
 30
0.0
 11
2411.837411941966
 21
1040.245127809154
 31
0.0
  0
LINE
  5
33C3
330
1F
100
AcDbEntity
  8
AM_VIS
100
AcDbLine
 10
2407.337411941967
 20
1040.245127809154
 30
0.0
 11
2407.337411941967
 21
1045.245127809154
 31
0.0
  0
LINE
  5
33C4
330
1F
100
AcDbEntity
  8
AM_7
100
AcDbLine
 10
2322.693110338291
 20
1069.650303799764
 30
0.0
 11
2322.693110338291
 21
1080.390713300319
 31
0.0
  0
LINE
  5
33C5
330
1F
100
AcDbEntity
  8
AM_7
100
AcDbLine
 10
2404.491155713128
 20
1020.245127809154
 30
0.0
 11
2415.091577960854
 21
1020.245127809154
 31
0.0
  0
LINE
  5
3407
330
1F
100
AcDbEntity
  8
AM_7
100
AcDbLine
 10
2677.916245914744
 20
1215.359124218234
 30
0.0
 11
2677.916245914744
 21
1215.359124218234
 31
0.0
  0
LINE
  5
3408
330
1F
100
AcDbEntity
  8
AM_7
100
AcDbLine
 10
2677.916245914744
 20
1215.359124218234
 30
0.0
 11
2677.916245914744
 21
1215.359124218234
 31
0.0
  0
LINE
  5
3409
330
1F
100
AcDbEntity
  8
AM_7
100
AcDbLine
 10
2651.916245914744
 20
1215.359124218234
 30
0.0
 11
2677.916245914744
 21
1215.359124218234
 31
0.0
  0
LINE
  5
340A
330
1F
100
AcDbEntity
  8
AM_7
100
AcDbLine
 10
2677.916245914744
 20
1215.359124218234
 30
0.0
 11
2703.916245914744
 21
1215.359124218234
 31
0.0
  0
LINE
  5
340B
330
1F
100
AcDbEntity
  8
AM_7
100
AcDbLine
 10
2677.916245914744
 20
1189.359124218234
 30
0.0
 11
2677.916245914744
 21
1215.359124218234
 31
0.0
  0
LINE
  5
340C
330
1F
100
AcDbEntity
  8
AM_7
100
AcDbLine
 10
2677.916245914744
 20
1215.359124218234
 30
0.0
 11
2677.916245914744
 21
1241.359124218234
 31
0.0
  0
LINE
  5
340D
330
1F
100
AcDbEntity
  8
AM_7
100
AcDbLine
 10
2677.916245914744
 20
1294.991174783471
 30
0.0
 11
2677.916245914744
 21
1284.991174783471
 31
0.0
  0
LINE
  5
340E
330
1F
100
AcDbEntity
  8
AM_7
100
AcDbLine
 10
2775.861251826159
 20
1215.359124218234
 30
0.0
 11
2765.861251826159
 21
1215.359124218234
 31
0.0
  0
LINE
  5
340F
330
1F
100
AcDbEntity
  8
AM_7
100
AcDbLine
 10
2652.916245914744
 20
1266.991174783471
 30
0.0
 11
2652.916245914744
 21
1266.991174783471
 31
0.0
  0
LINE
  5
3410
330
1F
100
AcDbEntity
  8
AM_7
100
AcDbLine
 10
2652.916245914744
 20
1266.991174783471
 30
0.0
 11
2652.916245914744
 21
1266.991174783471
 31
0.0
  0
LINE
  5
3411
330
1F
100
AcDbEntity
  8
AM_7
100
AcDbLine
 10
2646.616245914744
 20
1266.991174783471
 30
0.0
 11
2652.916245914744
 21
1266.991174783471
 31
0.0
  0
LINE
  5
3412
330
1F
100
AcDbEntity
  8
AM_7
100
AcDbLine
 10
2652.916245914744
 20
1266.991174783471
 30
0.0
 11
2659.216245914745
 21
1266.991174783471
 31
0.0
  0
LINE
  5
3413
330
1F
100
AcDbEntity
  8
AM_7
100
AcDbLine
 10
2652.916245914744
 20
1260.691174783471
 30
0.0
 11
2652.916245914744
 21
1266.991174783471
 31
0.0
  0
LINE
  5
3414
330
1F
100
AcDbEntity
  8
AM_7
100
AcDbLine
 10
2652.916245914744
 20
1266.991174783471
 30
0.0
 11
2652.916245914744
 21
1273.291174783471
 31
0.0
  0
LINE
  5
3415
330
1F
100
AcDbEntity
  8
AM_7
100
AcDbLine
 10
2702.916245914745
 20
1266.991174783471
 30
0.0
 11
2702.916245914745
 21
1266.991174783471
 31
0.0
  0
LINE
  5
3416
330
1F
100
AcDbEntity
  8
AM_7
100
AcDbLine
 10
2702.916245914745
 20
1266.991174783471
 30
0.0
 11
2702.916245914745
 21
1266.991174783471
 31
0.0
  0
LINE
  5
3417
330
1F
100
AcDbEntity
  8
AM_7
100
AcDbLine
 10
2696.616245914745
 20
1266.991174783471
 30
0.0
 11
2702.916245914745
 21
1266.991174783471
 31
0.0
  0
LINE
  5
3418
330
1F
100
AcDbEntity
  8
AM_7
100
AcDbLine
 10
2702.916245914745
 20
1266.991174783471
 30
0.0
 11
2709.216245914745
 21
1266.991174783471
 31
0.0
  0
LINE
  5
3419
330
1F
100
AcDbEntity
  8
AM_7
100
AcDbLine
 10
2702.916245914745
 20
1260.691174783471
 30
0.0
 11
2702.916245914745
 21
1266.991174783471
 31
0.0
  0
LINE
  5
341A
330
1F
100
AcDbEntity
  8
AM_7
100
AcDbLine
 10
2702.916245914745
 20
1266.991174783471
 30
0.0
 11
2702.916245914745
 21
1273.291174783471
 31
0.0
  0
LINE
  5
341B
330
1F
100
AcDbEntity
  8
AM_VIS
100
AcDbLine
 10
2645.916245914744
 20
1183.359124218234
 30
0.0
 11
2645.916245914744
 21
1179.359124218234
 31
0.0
  0
LINE
  5
341C
330
1F
100
AcDbEntity
  8
AM_VIS
100
AcDbLine
 10
2708.916245914744
 20
1183.359124218234
 30
0.0
 11
2646.916245914744
 21
1183.359124218234
 31
0.0
  0
LINE
  5
341D
330
1F
100
AcDbEntity
  8
AM_VIS
100
AcDbLine
 10
2646.916245914744
 20
1179.359124218234
 30
0.0
 11
2708.916245914744
 21
1179.359124218234
 31
0.0
  0
LINE
  5
341E
330
1F
100
AcDbEntity
  8
AM_VIS
100
AcDbLine
 10
2709.916245914744
 20
1179.359124218234
 30
0.0
 11
2709.916245914744
 21
1183.359124218234
 31
0.0
  0
LINE
  5
341F
330
1F
100
AcDbEntity
  8
AM_VIS
100
AcDbLine
 10
2645.916245914744
 20
1183.359124218234
 30
0.0
 11
2655.6442136895
 21
1221.099906443479
 31
0.0
  0
LINE
  5
3420
330
1F
100
AcDbEntity
  8
AM_VIS
100
AcDbLine
 10
2700.188278139989
 20
1221.099906443479
 30
0.0
 11
2709.916245914744
 21
1183.359124218234
 31
0.0
  0
LINE
  5
3421
330
1F
100
AcDbEntity
  8
AM_VIS
100
AcDbLine
 10
2645.916245914744
 20
1183.359124218234
 30
0.0
 11
2646.916245914744
 21
1183.359124218234
 31
0.0
  0
LINE
  5
3422
330
1F
100
AcDbEntity
  8
AM_VIS
100
AcDbLine
 10
2646.916245914744
 20
1179.359124218234
 30
0.0
 11
2645.916245914744
 21
1179.359124218234
 31
0.0
  0
LINE
  5
3423
330
1F
100
AcDbEntity
  8
AM_VIS
100
AcDbLine
 10
2709.916245914744
 20
1179.359124218234
 30
0.0
 11
2708.916245914744
 21
1179.359124218234
 31
0.0
  0
LINE
  5
3424
330
1F
100
AcDbEntity
  8
AM_VIS
100
AcDbLine
 10
2708.916245914744
 20
1183.359124218234
 30
0.0
 11
2709.916245914744
 21
1183.359124218234
 31
0.0
  0
ARC
  5
3425
330
1F
100
AcDbEntity
  8
AM_VIS
100
AcDbCircle
 10
2677.916245914744
 20
1215.359124218234
 30
0.0
 40
23.0
100
AcDbArc
 50
14.45379779051823
 51
165.5462022094817
  0
CIRCLE
  5
3426
330
1F
100
AcDbEntity
  8
AM_VIS
100
AcDbCircle
 10
2677.916245914744
 20
1215.359124218234
 30
0.0
 40
15.0
  0
LINE
  5
3427
330
1F
100
AcDbEntity
  8
AM_VIS
100
AcDbLine
 10
2645.916245914744
 20
1259.991174783471
 30
0.0
 11
2645.916245914744
 21
1287.991174783471
 31
0.0
  0
LINE
  5
3428
330
1F
100
AcDbEntity
  8
AM_VIS
100
AcDbLine
 10
2709.916245914744
 20
1287.991174783471
 30
0.0
 11
2709.916245914744
 21
1259.991174783471
 31
0.0
  0
LINE
  5
3429
330
1F
100
AcDbEntity
  8
AM_VIS
100
AcDbLine
 10
2709.916245914744
 20
1291.991174783471
 30
0.0
 11
2709.916245914744
 21
1287.991174783471
 31
0.0
  0
LINE
  5
342A
330
1F
100
AcDbEntity
  8
AM_VIS
100
AcDbLine
 10
2645.916245914744
 20
1287.991174783471
 30
0.0
 11
2645.916245914744
 21
1291.991174783471
 31
0.0
  0
LINE
  5
342B
330
1F
100
AcDbEntity
  8
AM_VIS
100
AcDbLine
 10
2708.916245914744
 20
1258.991174783471
 30
0.0
 11
2646.916245914744
 21
1258.991174783471
 31
0.0
  0
LINE
  5
342C
330
1F
100
AcDbEntity
  8
AM_VIS
100
AcDbLine
 10
2645.916245914744
 20
1287.991174783471
 30
0.0
 11
2655.6442136895
 21
1287.991174783471
 31
0.0
  0
LINE
  5
342D
330
1F
100
AcDbEntity
  8
AM_VIS
100
AcDbLine
 10
2700.188278139989
 20
1287.991174783471
 30
0.0
 11
2709.916245914744
 21
1287.991174783471
 31
0.0
  0
LINE
  5
342E
330
1F
100
AcDbEntity
  8
AM_VIS
100
AcDbLine
 10
2700.188278139989
 20
1291.991174783471
 30
0.0
 11
2709.916245914744
 21
1291.991174783471
 31
0.0
  0
LINE
  5
342F
330
1F
100
AcDbEntity
  8
AM_VIS
100
AcDbLine
 10
2645.916245914744
 20
1291.991174783471
 30
0.0
 11
2655.6442136895
 21
1291.991174783471
 31
0.0
  0
ARC
  5
3430
330
1F
100
AcDbEntity
  8
AM_VIS
100
AcDbCircle
 10
2646.916245914744
 20
1259.991174783471
 30
0.0
 40
0.9999999999999998
100
AcDbArc
 50
180.0
 51
270.0
  0
ARC
  5
3431
330
1F
100
AcDbEntity
  8
AM_VIS
100
AcDbCircle
 10
2708.916245914744
 20
1259.991174783471
 30
0.0
 40
0.9999999999999998
100
AcDbArc
 50
270.0
 51
0.0
  0
LINE
  5
3432
330
1F
100
AcDbEntity
  8
AM_VIS
100
AcDbLine
 10
2700.188278139989
 20
1287.991174783471
 30
0.0
 11
2655.6442136895
 21
1287.991174783471
 31
0.0
  0
LINE
  5
3433
330
1F
100
AcDbEntity
  8
AM_VIS
100
AcDbLine
 10
2700.188278139989
 20
1291.991174783471
 30
0.0
 11
2655.6442136895
 21
1291.991174783471
 31
0.0
  0
CIRCLE
  5
3434
330
1F
100
AcDbEntity
  8
AM_VIS
100
AcDbCircle
 10
2652.916245914744
 20
1266.991174783471
 30
0.0
 40
3.299999999999999
  0
CIRCLE
  5
3435
330
1F
100
AcDbEntity
  8
AM_VIS
100
AcDbCircle
 10
2702.916245914745
 20
1266.991174783471
 30
0.0
 40
3.299999999999999
  0
LINE
  5
3436
330
1F
100
AcDbEntity
  8
AM_VIS
100
AcDbLine
 10
2768.861251826159
 20
1183.359124218234
 30
0.0
 11
2740.861251826159
 21
1183.359124218234
 31
0.0
  0
LINE
  5
3437
330
1F
100
AcDbEntity
  8
AM_VIS
100
AcDbLine
 10
2772.861251826159
 20
1183.359124218234
 30
0.0
 11
2768.861251826159
 21
1183.359124218234
 31
0.0
  0
LINE
  5
3438
330
1F
100
AcDbEntity
  8
AM_VIS
100
AcDbLine
 10
2740.861251826159
 20
1179.359124218234
 30
0.0
 11
2772.861251826159
 21
1179.359124218234
 31
0.0
  0
LINE
  5
3439
330
1F
100
AcDbEntity
  8
AM_VIS
100
AcDbLine
 10
2739.861251826159
 20
1183.359124218234
 30
0.0
 11
2739.861251826159
 21
1179.359124218234
 31
0.0
  0
LINE
  5
343A
330
1F
100
AcDbEntity
  8
AM_VIS
100
AcDbLine
 10
2768.861251826159
 20
1221.099906443479
 30
0.0
 11
2768.861251826159
 21
1183.359124218234
 31
0.0
  0
LINE
  5
343B
330
1F
100
AcDbEntity
  8
AM_VIS
100
AcDbLine
 10
2772.861251826159
 20
1221.099906443479
 30
0.0
 11
2772.861251826159
 21
1183.359124218234
 31
0.0
  0
LINE
  5
343C
330
1F
100
AcDbEntity
  8
AM_VIS
100
AcDbLine
 10
2772.861251826159
 20
1179.359124218234
 30
0.0
 11
2772.861251826159
 21
1183.359124218234
 31
0.0
  0
LINE
  5
343D
330
1F
100
AcDbEntity
  8
AM_VIS
100
AcDbLine
 10
2772.861251826159
 20
1238.359124218234
 30
0.0
 11
2768.861251826159
 21
1238.359124218234
 31
0.0
  0
LINE
  5
343E
330
1F
100
AcDbEntity
  8
AM_VIS
100
AcDbLine
 10
2740.861251826159
 20
1179.359124218234
 30
0.0
 11
2739.861251826159
 21
1179.359124218234
 31
0.0
  0
LINE
  5
343F
330
1F
100
AcDbEntity
  8
AM_VIS
100
AcDbLine
 10
2739.861251826159
 20
1183.359124218234
 30
0.0
 11
2740.861251826159
 21
1183.359124218234
 31
0.0
  0
LINE
  5
3440
330
1F
100
AcDbEntity
  8
AM_VIS
100
AcDbLine
 10
2768.861251826159
 20
1221.099906443479
 30
0.0
 11
2768.861251826159
 21
1238.359124218234
 31
0.0
  0
LINE
  5
3441
330
1F
100
AcDbEntity
  8
AM_VIS
100
AcDbLine
 10
2772.861251826159
 20
1221.099906443479
 30
0.0
 11
2772.861251826159
 21
1238.359124218234
 31
0.0
  0
DIMENSION
  5
3478
102
{ACAD_XDICTIONARY
360
3485
102
}
102
{ACAD_REACTORS
330
3486
102
}
330
1F
100
AcDbEntity
  8
AM_5
100
AcDbDimension
  2
*D3
 10
2416.202373406662
 20
1160.754640097627
 30
0.0
 11
2336.202373406662
 21
1165.754640097627
 31
0.0
 70
    32
  1
<>+stroke
 71
     5
 42
160.0
  3
AM_ISO$0
100
AcDbAlignedDimension
 13
2256.202373406662
 23
1196.542634195268
 33
0.0
 14
2416.202373406662
 24
1188.542634195268
 34
0.0
100
AcDbRotatedDimension
1001
ACAD
1000
DSTYLE
1002
{
1070
    40
1040
2.0
1070
   144
1040
1.0
1070
    47
1040
-0.05
1070
    48
1040
0.4
1070
   272
1070
     8
1002
}
  0
DIMENSION
  5
34E3
330
1F
100
AcDbEntity
  8
AM_5
100
AcDbDimension
  2
*D4
 10
2471.972951512063
 20
1160.754640097627
 30
0.0
 11
2489.851360103211
 21
1167.389383334444
 31
0.0
 70
    32
  1
<>{}{\H0.71x;\C3;\S-0.05^ -0.4;}
 71
     5
 42
19.99999999999818
  3
AM_ISO$0
100
AcDbAlignedDimension
 13
2451.972951512065
 23
1191.65269549234
 33
0.0
 14
2471.972951512063
 24
1190.362294307767
 34
0.0
100
AcDbRotatedDimension
1001
GENIUS_GENDTOL_13
1000
TolSmNrm
1000

1000
{\H0.71x;$2\S$+$P^ $-$M;}
1040
16.0
1001
ACAD
1000
DSTYLE
1002
{
1070
    40
1040
2.0
1070
   286
1070
     0
1070
   284
1070
     8
1070
   274
1070
     2
1070
    47
1040
-0.05
1070
    48
1040
0.4
1070
   272
1070
     8
1002
}
  0
INSERT
  5
350B
330
1F
100
AcDbEntity
  8
AM_5
100
AcDbBlockReference
  2
*S6
 10
0.0
 20
0.0
 30
0.0
  0
TEXT
  5
350C
330
1F
100
AcDbEntity
  8
AM_5
100
AcDbText
 10
2395.264885123634
 20
1309.090466299589
 30
0.0
 40
6.0
  1
2-PT1/8
100
AcDbText
  0
INSERT
  5
350D
330
1F
100
AcDbEntity
  8
AM_5
100
AcDbBlockReference
  2
*S7
 10
0.0
 20
0.0
 30
0.0
  0
TEXT
  5
350E
330
1F
100
AcDbEntity
  8
AM_5
100
AcDbText
 10
2279.834334005659
 20
1234.797776738052
 30
0.0
 40
6.0
  1
M12x1.25
100
AcDbText
  0
DIMENSION
  5
3590
102
{ACAD_XDICTIONARY
360
359C
102
}
102
{ACAD_REACTORS
330
359D
102
}
330
1F
100
AcDbEntity
  8
AM_5
100
AcDbDimension
  2
*D5
 10
2402.53573269601
 20
1195.778754534692
 30
0.0
 11
2425.725094300247
 21
1229.928824902447
 31
0.0
 70
   163
  1
<>{}{\C2; H9}
 71
     5
 42
12.00000000000182
  3
AM_ISO$3
100
AcDbDiametricDimension
 15
2405.869014117314
 25
1207.306513855845
 35
0.0
 40
0.0
1001
GENIUS_GENDTOL_13
1000
FitTxt
1000
H9
1000
{$3 $T}
1040
12.0
1001
ACAD
1000
DSTYLE
1002
{
1070
    40
1040
2.0
1070
   286
1070
     0
1070
   284
1070
     8
1070
    47
1040
-0.05
1070
    48
1040
0.4
1070
   272
1070
     8
1070
   274
1070
     3
1002
}
  0
TEXT
  5
35E2
330
1F
100
AcDbEntity
  8
0
100
AcDbText
 10
2151.554252264317
 20
1313.213176935047
 30
0.0
 40
10.4544
  1
11 type
  7
CHINESET
100
AcDbText
  0
DIMENSION
  5
36BA
102
{ACAD_XDICTIONARY
360
36C7
102
}
102
{ACAD_REACTORS
330
36C8
102
}
330
1F
100
AcDbEntity
  8
AM_5
100
AcDbDimension
  2
*D9
 10
2715.64609259654
 20
1040.224296716137
 30
0.0
 11
2713.146092596539
 21
1066.724296716137
 31
0.0
 70
    32
 71
     5
 42
53.0
  3
AM_ISO$0
100
AcDbAlignedDimension
 13
2695.64609159654
 23
1093.224296716137
 33
0.0
 14
2695.64609159654
 24
1040.224296716137
 34
0.0
 50
90.0
100
AcDbRotatedDimension
1001
ACAD
1000
DSTYLE
1002
{
1070
    40
1040
1.0
1070
   144
1040
1.0
1070
    47
1040
-0.05
1070
    48
1040
0.4
1070
   272
1070
     8
1002
}
  0
DIMENSION
  5
36E5
102
{ACAD_XDICTIONARY
360
36F2
102
}
102
{ACAD_REACTORS
330
36F3
102
}
330
1F
100
AcDbEntity
  8
AM_5
100
AcDbDimension
  2
*D10
 10
2723.646092596539
 20
1032.224296716137
 30
0.0
 11
2721.146092596539
 21
1066.724296716137
 31
0.0
 70
    32
 71
     5
 42
69.0
  3
AM_ISO$0
100
AcDbAlignedDimension
 13
2700.64609159654
 23
1101.224296716137
 33
0.0
 14
2700.64609159654
 24
1032.224296716137
 34
0.0
 50
90.00000000000003
100
AcDbRotatedDimension
1001
ACAD
1000
DSTYLE
1002
{
1070
    40
1040
1.0
1070
   144
1040
1.0
1070
    47
1040
-0.05
1070
    48
1040
0.4
1070
   272
1070
     8
1002
}
  0
DIMENSION
  5
370F
102
{ACAD_XDICTIONARY
360
371C
102
}
102
{ACAD_REACTORS
330
371D
102
}
330
1F
100
AcDbEntity
  8
AM_5
100
AcDbDimension
  2
*D11
 10
2695.64609159654
 20
1021.924296716137
 30
0.0
 11
2675.64609159654
 21
1024.424296716137
 31
0.0
 70
    32
 71
     5
 42
40.0
  3
AM_ISO$0
100
AcDbAlignedDimension
 13
2655.64609159654
 23
1033.924296716137
 33
0.0
 14
2695.64609159654
 24
1033.924296716137
 34
0.0
 50
0.0000000000001132
100
AcDbRotatedDimension
1001
ACAD
1000
DSTYLE
1002
{
1070
    40
1040
1.0
1070
   144
1040
1.0
1070
    47
1040
-0.05
1070
    48
1040
0.4
1070
   272
1070
     8
1002
}
  0
DIMENSION
  5
3735
102
{ACAD_XDICTIONARY
360
3742
102
}
102
{ACAD_REACTORS
330
3743
102
}
330
1F
100
AcDbEntity
  8
AM_5
100
AcDbDimension
  2
*D12
 10
2703.64609159654
 20
1013.924296716135
 30
0.0
 11
2675.64609159654
 21
1016.424296716135
 31
0.0
 70
    32
 71
     5
 42
56.0
  3
AM_ISO$0
100
AcDbAlignedDimension
 13
2647.64609159654
 23
1035.224296716137
 33
0.0
 14
2703.64609159654
 24
1035.224296716137
 34
0.0
 50
0.0000000000001132
100
AcDbRotatedDimension
1001
ACAD
1000
DSTYLE
1002
{
1070
    40
1040
1.0
1070
   144
1040
1.0
1070
    47
1040
-0.05
1070
    48
1040
0.4
1070
   272
1070
     8
1002
}
  0
DIMENSION
  5
384B
102
{ACAD_XDICTIONARY
360
3858
102
}
102
{ACAD_REACTORS
330
3859
102
}
330
1F
100
AcDbEntity
  8
AM_5
100
AcDbDimension
  2
*D15
 10
2805.314623672085
 20
937.7432332351597
 30
0.0
 11
2770.814623672085
 21
940.2432332351597
 31
0.0
 70
    32
 71
     5
 42
69.0
  3
AM_ISO$0
100
AcDbAlignedDimension
 13
2736.314623672085
 23
949.7432342351597
 33
0.0
 14
2805.314623672085
 24
949.7432342351597
 34
0.0
 50
0.0000000000001132
100
AcDbRotatedDimension
1001
ACAD
1000
DSTYLE
1002
{
1070
    40
1040
1.0
1070
   144
1040
1.0
1070
    47
1040
-0.05
1070
    48
1040
0.4
1070
   272
1070
     8
1002
}
  0
ENDSEC
  0
SECTION
  2
OBJECTS
  0
DICTIONARY
  5
C
330
0
100
AcDbDictionary
281
     1
  3
ACAD_COLOR
350
BE
  3
ACAD_GROUP
350
D
  3
ACAD_LAYOUT
350
1A
  3
ACAD_MATERIAL
350
BD
  3
ACAD_MLINESTYLE
350
17
  3
ACAD_PLOTSETTINGS
350
19
  3
ACAD_PLOTSTYLENAME
350
E
  3
ACAD_TABLESTYLE
350
11A
  3
ACDBHEADERROUNDTRIPXREC
350
38D7
  3
AcDbVariableDictionary
350
94
  3
AcmDictionary
350
5B
  3
AMG
350
41
  3
AMGSNAPSETTINGS
350
1B8
  3
DWGPROPS
350
38D6
  0
DICTIONARY
  5
3F9
330
2
100
AcDbDictionary
280
     1
281
     1
  3
ACAD_LAYERFILTERS
360
5B7
  3
ACAD_LAYERSTATES
360
71D
  3
ACLYDICTIONARY
360
5B6
  0
DICTIONARY
  5
8F
330
1F
100
AcDbDictionary
280
     1
281
     1
  3
ACAD_SORTENTS
360
12F5
  0
DICTIONARY
  5
3485
330
3478
100
AcDbDictionary
280
     1
281
     1
  3
ACAD_DIMASSOC
360
3486
  0
DICTIONARY
  5
359C
330
3590
100
AcDbDictionary
280
     1
281
     1
  3
ACAD_DIMASSOC
360
359D
  0
DICTIONARY
  5
36C7
330
36BA
100
AcDbDictionary
280
     1
281
     1
  3
ACAD_DIMASSOC
360
36C8
  0
DICTIONARY
  5
36F2
330
36E5
100
AcDbDictionary
280
     1
281
     1
  3
ACAD_DIMASSOC
360
36F3
  0
DICTIONARY
  5
371C
330
370F
100
AcDbDictionary
280
     1
281
     1
  3
ACAD_DIMASSOC
360
371D
  0
DICTIONARY
  5
3742
330
3735
100
AcDbDictionary
280
     1
281
     1
  3
ACAD_DIMASSOC
360
3743
  0
DICTIONARY
  5
3858
330
384B
100
AcDbDictionary
280
     1
281
     1
  3
ACAD_DIMASSOC
360
3859
  0
DICTIONARY
  5
BE
102
{ACAD_REACTORS
330
C
102
}
330
C
100
AcDbDictionary
281
     1
  0
DICTIONARY
  5
D
102
{ACAD_REACTORS
330
C
102
}
330
C
100
AcDbDictionary
281
     1
  0
DICTIONARY
  5
1A
102
{ACAD_REACTORS
330
C
102
}
330
C
100
AcDbDictionary
281
     1
  3
Model
350
22
  3
配置1
350
1E
  3
配置2
350
26
  0
DICTIONARY
  5
BD
102
{ACAD_REACTORS
330
C
102
}
330
C
100
AcDbDictionary
281
     1
  0
DICTIONARY
  5
17
102
{ACAD_REACTORS
330
C
102
}
330
C
100
AcDbDictionary
281
     1
  3
Standard
350
18
  0
DICTIONARY
  5
19
102
{ACAD_REACTORS
330
C
102
}
330
C
100
AcDbDictionary
281
     1
  0
ACDBDICTIONARYWDFLT
  5
E
102
{ACAD_REACTORS
330
C
102
}
330
C
100
AcDbDictionary
281
     1
  3
Normal
350
F
100
AcDbDictionaryWithDefault
340
F
  0
DICTIONARY
  5
11A
102
{ACAD_REACTORS
330
C
102
}
330
C
100
AcDbDictionary
281
     1
  3
Standard
350
11B
  0
DICTIONARY
  5
38D7
102
{ACAD_REACTORS
330
C
102
}
330
C
100
AcDbDictionary
281
     1
  0
DICTIONARY
  5
94
102
{ACAD_REACTORS
330
C
102
}
330
C
100
AcDbDictionary
281
     1
  3
CTABLESTYLE
350
138
  3
DIMASSOC
350
96
  3
INDEXCTL
350
95
  3
PROJECTNAME
350
362E
  0
DICTIONARY
  5
5B
102
{ACAD_REACTORS
330
C
102
}
330
C
100
AcDbDictionary
281
     1
  3
AcmBOM
350
1B5
  3
AcmStdDictionary
350
61
  3
AMDTSECTSYM_ARROWCOLOR
350
123
  0
DICTIONARY
  5
41
102
{ACAD_REACTORS
330
C
102
}
330
C
100
AcDbDictionary
281
     1
  0
DICTIONARY
  5
1B8
102
{ACAD_REACTORS
330
C
102
}
330
C
100
AcDbDictionary
281
     1
  0
XRECORD
  5
38D6
102
{ACAD_REACTORS
330
C
102
}
330
C
100
AcDbXrecord
280
     1
  1
DWGPROPS COOKIE
  2

  3

  4

  6

  7

  8

  9

300
AmdtFileType=84
301
=
302
=
303
=
304
=
305
=
306
=
307
=
308
=
309
=
 40
0.7938746990740741
 41
2453580.633342373
 42
2454942.423265162
  1

 90
        1
  0
DICTIONARY
  5
5B7
102
{ACAD_REACTORS
330
3F9
102
}
330
3F9
100
AcDbDictionary
281
     1
  0
DICTIONARY
  5
71D
102
{ACAD_REACTORS
330
3F9
102
}
330
3F9
100
AcDbDictionary
281
     1
  0
DICTIONARY
  5
5B6
102
{ACAD_REACTORS
330
3F9
102
}
330
3F9
100
AcDbDictionary
281
     1
1001
ACAD
1000
<All
  0
SORTENTSTABLE
  5
12F5
102
{ACAD_REACTORS
330
8F
102
}
330
8F
100
AcDbSortentsTable
330
1F
331
19C3
  5
19C3
331
19FA
  5
19FA
331
1984
  5
1984
331
19CB
  5
19CB
331
198C
  5
198C
331
19D3
  5
19D3
331
1994
  5
1994
331
199C
  5
199C
331
1A1A
  5
1A1A
331
19DB
  5
19DB
331
19A4
  5
19A4
331
19E3
  5
19E3
331
19AC
  5
19AC
331
19EB
  5
19EB
331
1975
  5
1975
331
19B4
  5
19B4
331
19F3
  5
19F3
331
197D
  5
197D
331
19BC
  5
19BC
331
19C4
  5
19C4
331
19FB
  5
19FB
331
1985
  5
1985
331
19CC
  5
19CC
331
19D4
  5
19D4
331
1995
  5
1995
331
E1F
  5
E1F
331
199D
  5
199D
331
1A1B
  5
1A1B
331
19DC
  5
19DC
331
19E4
  5
19E4
331
19AD
  5
19AD
331
196E
  5
196E
331
19EC
  5
19EC
331
1976
  5
1976
331
19B5
  5
19B5
331
19F4
  5
19F4
331
197E
  5
197E
331
19BD
  5
19BD
331
19FC
  5
19FC
331
1986
  5
1986
331
19C5
  5
19C5
331
19CD
  5
19CD
331
19D5
  5
19D5
331
199E
  5
199E
331
19DD
  5
19DD
331
19AE
  5
19AE
331
196F
  5
196F
331
19E5
  5
19E5
331
1977
  5
1977
331
19B6
  5
19B6
331
19ED
  5
19ED
331
197F
  5
197F
331
19BE
  5
19BE
331
19F5
  5
19F5
331
1987
  5
1987
331
19C6
  5
19C6
331
19FD
  5
19FD
331
19CE
  5
19CE
331
19D6
  5
19D6
331
199F
  5
199F
331
1A1D
  5
1A1D
331
19DE
  5
19DE
331
1970
  5
1970
331
19E6
  5
19E6
331
1978
  5
1978
331
19B7
  5
19B7
331
19EE
  5
19EE
331
19BF
  5
19BF
331
19F6
  5
19F6
331
1980
  5
1980
331
1988
  5
1988
331
19C7
  5
19C7
331
19FE
  5
19FE
331
1990
  5
1990
331
19CF
  5
19CF
331
19D7
  5
19D7
331
1A0E
  5
1A0E
331
19A0
  5
19A0
331
19A8
  5
19A8
331
19DF
  5
19DF
331
1971
  5
1971
331
19E7
  5
19E7
331
1979
  5
1979
331
19B8
  5
19B8
331
19EF
  5
19EF
331
19F7
  5
19F7
331
1981
  5
1981
331
19C0
  5
19C0
331
1989
  5
1989
331
19C8
  5
19C8
331
19FF
  5
19FF
331
19D0
  5
19D0
331
1999
  5
1999
331
1A0F
  5
1A0F
331
19D8
  5
19D8
331
19E0
  5
19E0
331
1972
  5
1972
331
19E8
  5
19E8
331
197A
  5
197A
331
19B9
  5
19B9
331
19F0
  5
19F0
331
1982
  5
1982
331
19C1
  5
19C1
331
19F8
  5
19F8
331
19C9
  5
19C9
331
1A00
  5
1A00
331
198A
  5
198A
331
19D1
  5
19D1
331
1A10
  5
1A10
331
199A
  5
199A
331
1A18
  5
1A18
331
19D9
  5
19D9
331
19E1
  5
19E1
331
19E9
  5
19E9
331
1973
  5
1973
331
19B2
  5
19B2
331
19F1
  5
19F1
331
197B
  5
197B
331
19BA
  5
19BA
331
19C2
  5
19C2
331
19F9
  5
19F9
331
1983
  5
1983
331
19CA
  5
19CA
331
1A01
  5
1A01
331
198B
  5
198B
331
19D2
  5
19D2
331
199B
  5
199B
331
1A19
  5
1A19
331
19DA
  5
19DA
331
19E2
  5
19E2
331
19EA
  5
19EA
331
1974
  5
1974
331
19B3
  5
19B3
331
19F2
  5
19F2
331
197C
  5
197C
331
19BB
  5
19BB
  0
DIMASSOC
  5
3486
102
{ACAD_REACTORS
330
3485
102
}
330
3485
100
AcDbDimAssoc
330
3478
 90
        3
 70
     0
 71
     0
  1
AcDbOsnapPointRef
 72
    13
331
3075
 73
     0
 91
        0
 40
0.0
 10
0.0
 20
0.0
 30
2.000000000000000E+50
 75
     0
  1
AcDbOsnapPointRef
 72
     1
331
309B
 73
     0
 91
        0
 40
0.0
 10
0.0
 20
0.0
 30
2.000000000000000E+50
 75
     0
  0
DIMASSOC
  5
359D
102
{ACAD_REACTORS
330
359C
102
}
330
359C
100
AcDbDimAssoc
330
3590
 90
        2
 70
     0
 71
     0
  1
AcDbOsnapPointRef
 72
     3
331
309A
 73
     2
 91
        0
 40
0.0
 10
0.0
 20
0.0
 30
0.0
 75
     0
  0
DIMASSOC
  5
36C8
102
{ACAD_REACTORS
330
36C7
102
}
330
36C7
100
AcDbDimAssoc
330
36BA
 90
        3
 70
     0
 71
     0
  1
AcDbOsnapPointRef
 72
     3
331
3346
 73
     0
 91
        0
 40
0.0
 10
0.0
 20
0.0
 30
0.0
 75
     0
  1
AcDbOsnapPointRef
 72
     3
331
3310
 73
     0
 91
        0
 40
0.0
 10
0.0
 20
0.0
 30
0.0
 75
     0
  0
DIMASSOC
  5
36F3
102
{ACAD_REACTORS
330
36F2
102
}
330
36F2
100
AcDbDimAssoc
330
36E5
 90
        3
 70
     0
 71
     0
  1
AcDbOsnapPointRef
 72
    13
331
333E
 73
     0
 91
        0
 40
0.0
 10
0.0
 20
0.0
 30
2.000000000000000E+50
 75
     0
  1
AcDbOsnapPointRef
 72
    13
331
3308
 73
     0
 91
        0
 40
0.0
 10
0.0
 20
0.0
 30
2.000000000000000E+50
 75
     0
  0
DIMASSOC
  5
371D
102
{ACAD_REACTORS
330
371C
102
}
330
371C
100
AcDbDimAssoc
330
370F
 90
        3
 70
     0
 71
     0
  1
AcDbOsnapPointRef
 72
    13
331
32E8
 73
     0
 91
        0
 40
0.0
 10
0.0
 20
0.0
 30
2.000000000000000E+50
 75
     0
  1
AcDbOsnapPointRef
 72
    13
331
32EE
 73
     0
 91
        0
 40
0.0
 10
0.0
 20
0.0
 30
2.000000000000000E+50
 75
     0
  0
DIMASSOC
  5
3743
102
{ACAD_REACTORS
330
3742
102
}
330
3742
100
AcDbDimAssoc
330
3735
 90
        3
 70
     0
 71
     0
  1
AcDbOsnapPointRef
 72
    13
331
3309
 73
     0
 91
        0
 40
0.0
 10
0.0
 20
0.0
 30
2.000000000000000E+50
 75
     0
  1
AcDbOsnapPointRef
 72
     1
331
3307
 73
     0
 91
        0
 40
0.0
 10
0.0
 20
0.0
 30
2.000000000000000E+50
 75
     0
  0
DIMASSOC
  5
3859
102
{ACAD_REACTORS
330
3858
102
}
330
3858
100
AcDbDimAssoc
330
384B
 90
        3
 70
     0
 71
     0
  1
AcDbOsnapPointRef
 72
     1
331
331A
 73
     0
 91
        0
 40
0.0
 10
0.0
 20
0.0
 30
2.000000000000000E+50
 75
     0
  1
AcDbOsnapPointRef
 72
     1
331
3328
 73
     0
 91
        0
 40
0.0
 10
0.0
 20
0.0
 30
2.000000000000000E+50
 75
     0
  0
LAYOUT
  5
22
102
{ACAD_XDICTIONARY
360
38DA
102
}
102
{ACAD_REACTORS
330
1A
102
}
330
1A
100
AcDbPlotSettings
  1

  2
\\RD\EPSON Stylus C63 Series單色
  4
A4
  6

 40
3.757083177566528
 41
3.757076978683471
 42
3.757080078125
 43
3.757080078125
 44
209.9733276367187
 45
296.9683227539062
 46
0.0
 47
0.0
 48
0.0
 49
0.0
140
0.0
141
0.0
142
1.0
143
0.3405120737814363
 70
 11952
 72
     1
 73
     0
 74
     0
  7
單色出圖.ctb
 75
     0
147
2.936753428137963
148
-2047.07469463503
149
-1261.649717473083
100
AcDbLayout
  1
Model
 70
     1
 71
     0
 10
0.0
 20
0.0
 11
12.0
 21
9.0
 12
0.0
 22
0.0
 32
0.0
 14
0.0
 24
0.0
 34
0.0
 15
0.0
 25
0.0
 35
0.0
146
0.0
 13
0.0
 23
0.0
 33
0.0
 16
1.0
 26
0.0
 36
0.0
 17
0.0
 27
1.0
 37
0.0
 76
     0
330
1F
1001
ACAD_PSEXT
1000
\\RD\EPSON Stylus C63 Series單色
1000
EPSON Stylus C63 Series
1000
\\RD
1000

1070
     0
  0
LAYOUT
  5
1E
102
{ACAD_XDICTIONARY
360
38D8
102
}
102
{ACAD_REACTORS
330
1A
102
}
330
1A
100
AcDbPlotSettings
  1

  2

  4

  6

 40
0.0
 41
0.0
 42
0.0
 43
0.0
 44
0.0
 45
0.0
 46
0.0
 47
0.0
 48
0.0
 49
0.0
140
0.0
141
0.0
142
1.0
143
1.0
 70
   688
 72
     0
 73
     0
 74
     5
  7
單色出圖.ctb
 75
    16
147
1.0
148
0.0
149
0.0
100
AcDbLayout
  1
配置1
 70
     1
 71
     1
 10
0.0
 20
0.0
 11
420.0
 21
297.0
 12
0.0
 22
0.0
 32
0.0
 14
1.000000000000000E+20
 24
1.000000000000000E+20
 34
1.000000000000000E+20
 15
-1.000000000000000E+20
 25
-1.000000000000000E+20
 35
-1.000000000000000E+20
146
0.0
 13
0.0
 23
0.0
 33
0.0
 16
1.0
 26
0.0
 36
0.0
 17
0.0
 27
1.0
 37
0.0
 76
     0
330
1B
  0
LAYOUT
  5
26
102
{ACAD_XDICTIONARY
360
38DC
102
}
102
{ACAD_REACTORS
330
1A
102
}
330
1A
100
AcDbPlotSettings
  1

  2

  4

  6

 40
0.0
 41
0.0
 42
0.0
 43
0.0
 44
0.0
 45
0.0
 46
0.0
 47
0.0
 48
0.0
 49
0.0
140
0.0
141
0.0
142
1.0
143
1.0
 70
   688
 72
     0
 73
     0
 74
     5
  7
單色出圖.ctb
 75
    16
147
1.0
148
0.0
149
0.0
100
AcDbLayout
  1
配置2
 70
     1
 71
     2
 10
0.0
 20
0.0
 11
12.0
 21
9.0
 12
0.0
 22
0.0
 32
0.0
 14
0.0
 24
0.0
 34
0.0
 15
0.0
 25
0.0
 35
0.0
146
0.0
 13
0.0
 23
0.0
 33
0.0
 16
1.0
 26
0.0
 36
0.0
 17
0.0
 27
1.0
 37
0.0
 76
     0
330
23
  0
MLINESTYLE
  5
18
102
{ACAD_REACTORS
330
17
102
}
330
17
100
AcDbMlineStyle
  2
STANDARD
 70
     0
  3

 62
   256
 51
90.0
 52
90.0
 71
     2
 49
0.5
 62
   256
  6
BYLAYER
 49
-0.5
 62
   256
  6
BYLAYER
  0
ACDBPLACEHOLDER
  5
F
102
{ACAD_REACTORS
330
E
102
}
330
E
  0
TABLESTYLE
  5
11B
102
{ACAD_REACTORS
330
11A
102
}
330
11A
100
AcDbTableStyle
  3
Standard
 70
     0
 71
     0
 40
1.5
 41
1.5
280
     0
281
     0
  7
STANDARD
140
4.5
170
     2
 62
     0
 63
     7
283
     0
274
    -2
284
     1
 64
     0
275
    -2
285
     1
 65
     0
276
    -2
286
     1
 66
     0
277
    -2
287
     1
 67
     0
278
    -2
288
     1
 68
     0
279
    -2
289
     1
 69
     0
  7
STANDARD
140
6.0
170
     5
 62
     0
 63
     7
283
     0
274
    -2
284
     1
 64
     0
275
    -2
285
     1
 65
     0
276
    -2
286
     1
 66
     0
277
    -2
287
     1
 67
     0
278
    -2
288
     1
 68
     0
279
    -2
289
     1
 69
     0
  7
STANDARD
140
4.5
170
     5
 62
     0
 63
     7
283
     0
274
    -2
284
     1
 64
     0
275
    -2
285
     1
 65
     0
276
    -2
286
     1
 66
     0
277
    -2
287
     1
 67
     0
278
    -2
288
     1
 68
     0
279
    -2
289
     1
 69
     0
  0
DICTIONARYVAR
  5
138
102
{ACAD_REACTORS
330
94
102
}
330
94
100
DictionaryVariables
280
     0
  1
STANDARD
  0
DICTIONARYVAR
  5
96
102
{ACAD_REACTORS
330
94
102
}
330
94
100
DictionaryVariables
280
     0
  1
2
  0
DICTIONARYVAR
  5
95
102
{ACAD_REACTORS
330
94
102
}
330
94
100
DictionaryVariables
280
     0
  1
0
  0
DICTIONARYVAR
  5
362E
102
{ACAD_REACTORS
330
94
102
}
330
94
100
DictionaryVariables
280
     0
  1

  0
DICTIONARY
  5
1B5
102
{ACAD_REACTORS
330
5B
102
}
330
5B
100
AcDbDictionary
281
     1
  0
DICTIONARY
  5
61
102
{ACAD_REACTORS
330
5B
102
}
330
5B
100
AcDbDictionary
281
     1
  0
XRECORD
  5
123
102
{ACAD_REACTORS
330
5B
102
}
330
5B
100
AcDbXrecord
280
     1
 90
-1023410169
  0
DICTIONARY
  5
38DA
330
22
100
AcDbDictionary
280
     1
281
     1
  3
ACAD_XREC_ROUNDTRIP
360
38DB
  0
DICTIONARY
  5
38D8
330
1E
100
AcDbDictionary
280
     1
281
     1
  3
ACAD_XREC_ROUNDTRIP
360
38D9
  0
DICTIONARY
  5
38DC
330
26
100
AcDbDictionary
280
     1
281
     1
  3
ACAD_XREC_ROUNDTRIP
360
38DD
  0
XRECORD
  5
38DB
102
{ACAD_REACTORS
330
38DA
102
}
330
38DA
100
AcDbXrecord
280
     1
102
SHADEPLOT
 70
     0
102
SHADEPLOTRESLEVEL
 70
     2
102
SHADEPLOTCUSTOMDPI
 70
   300
  0
XRECORD
  5
38D9
102
{ACAD_REACTORS
330
38D8
102
}
330
38D8
100
AcDbXrecord
280
     1
102
SHADEPLOT
 70
     0
102
SHADEPLOTRESLEVEL
 70
     2
102
SHADEPLOTCUSTOMDPI
 70
   300
  0
XRECORD
  5
38DD
102
{ACAD_REACTORS
330
38DC
102
}
330
38DC
100
AcDbXrecord
280
     1
102
SHADEPLOT
 70
     0
102
SHADEPLOTRESLEVEL
 70
     2
102
SHADEPLOTCUSTOMDPI
 70
   300
  0
ENDSEC
  0
EOF
