  0
SECTION
  2
HEADER
  9
$ACADVER
  1
AC1015
  9
$ACADMAINTVER
 70
    20
  9
$DWGCODEPAGE
  3
ANSI_950
  9
$INSBASE
 10
0.0
 20
0.0
 30
0.0
  9
$EXTMIN
 10
15.5775155885816
 20
-272.151752378971
 30
-0.0025977028245734
  9
$EXTMAX
 10
315.61688315265
 20
140.4260951421124
 30
196.6009892842411
  9
$LIMMIN
 10
0.0
 20
0.0
  9
$LIMMAX
 10
396.0
 20
273.0
  9
$ORTHOMODE
 70
     1
  9
$REGENMODE
 70
     1
  9
$FILLMODE
 70
     1
  9
$QTEXTMODE
 70
     0
  9
$MIRRTEXT
 70
     1
  9
$LTSCALE
 40
5.0
  9
$ATTMODE
 70
     1
  9
$TEXTSIZE
 40
3.0
  9
$TRACEWID
 40
0.05
  9
$TEXTSTYLE
  7
DAYUS
  9
$CLAYER
  8
0
  9
$CELTYPE
  6
BYLAYER
  9
$CECOLOR
 62
   256
  9
$CELTSCALE
 40
1.0
  9
$DISPSILH
 70
     0
  9
$DIMSCALE
 40
1.0
  9
$DIMASZ
 40
3.0
  9
$DIMEXO
 40
1.0
  9
$DIMDLI
 40
6.0
  9
$DIMRND
 40
0.0
  9
$DIMDLE
 40
0.0
  9
$DIMEXE
 40
1.5
  9
$DIMTP
 40
0.1
  9
$DIMTM
 40
0.1
  9
$DIMTXT
 40
3.0
  9
$DIMCEN
 40
3.0
  9
$DIMTSZ
 40
0.0
  9
$DIMTOL
 70
     0
  9
$DIMLIM
 70
     0
  9
$DIMTIH
 70
     0
  9
$DIMTOH
 70
     0
  9
$DIMSE1
 70
     0
  9
$DIMSE2
 70
     0
  9
$DIMTAD
 70
     1
  9
$DIMZIN
 70
     8
  9
$DIMBLK
  1

  9
$DIMASO
 70
     1
  9
$DIMSHO
 70
     0
  9
$DIMPOST
  1

  9
$DIMAPOST
  1
"
  9
$DIMALT
 70
     0
  9
$DIMALTD
 70
     2
  9
$DIMALTF
 40
0.0393701
  9
$DIMLFAC
 40
1.0
  9
$DIMTOFL
 70
     1
  9
$DIMTVP
 40
0.0
  9
$DIMTIX
 70
     0
  9
$DIMSOXD
 70
     0
  9
$DIMSAH
 70
     0
  9
$DIMBLK1
  1

  9
$DIMBLK2
  1

  9
$DIMSTYLE
  2
AM_ISO
  9
$DIMCLRD
 70
   256
  9
$DIMCLRE
 70
   256
  9
$DIMCLRT
 70
   256
  9
$DIMTFAC
 40
0.71
  9
$DIMGAP
 40
0.8
  9
$DIMJUST
 70
     0
  9
$DIMSD1
 70
     0
  9
$DIMSD2
 70
     0
  9
$DIMTOLJ
 70
     0
  9
$DIMTZIN
 70
     8
  9
$DIMALTZ
 70
     0
  9
$DIMALTTZ
 70
     0
  9
$DIMUPT
 70
     0
  9
$DIMDEC
 70
     2
  9
$DIMTDEC
 70
     8
  9
$DIMALTU
 70
     2
  9
$DIMALTTD
 70
     2
  9
$DIMTXSTY
  7
STANDARD
  9
$DIMAUNIT
 70
     0
  9
$DIMADEC
 70
     0
  9
$DIMALTRND
 40
0.0
  9
$DIMAZIN
 70
     2
  9
$DIMDSEP
 70
    46
  9
$DIMATFIT
 70
     3
  9
$DIMFRAC
 70
     0
  9
$DIMLDRBLK
  1

  9
$DIMLUNIT
 70
     2
  9
$DIMLWD
 70
    -1
  9
$DIMLWE
 70
    -1
  9
$DIMTMOVE
 70
     0
  9
$LUNITS
 70
     2
  9
$LUPREC
 70
     2
  9
$SKETCHINC
 40
0.1
  9
$FILLETRAD
 40
2.5
  9
$AUNITS
 70
     0
  9
$AUPREC
 70
     0
  9
$MENU
  1
C:\CACAD\ACAD
  9
$ELEVATION
 40
0.0
  9
$PELEVATION
 40
0.0
  9
$THICKNESS
 40
0.0
  9
$LIMCHECK
 70
     0
  9
$CHAMFERA
 40
2.5
  9
$CHAMFERB
 40
2.5
  9
$CHAMFERC
 40
0.0
  9
$CHAMFERD
 40
0.0
  9
$SKPOLY
 70
     0
  9
$TDCREATE
 40
2450294.602131481
  9
$TDUCREATE
 40
2450294.268798149
  9
$TDUPDATE
 40
2454117.699053993
  9
$TDUUPDATE
 40
2454117.365720660
  9
$TDINDWG
 40
0.3658398611
  9
$TDUSRTIMER
 40
0.3658366088
  9
$USRTIMER
 70
     1
  9
$ANGBASE
 50
0.0
  9
$ANGDIR
 70
     0
  9
$PDMODE
 70
    65
  9
$PDSIZE
 40
8.3
  9
$PLINEWID
 40
0.0
  9
$SPLFRAME
 70
     0
  9
$SPLINETYPE
 70
     6
  9
$SPLINESEGS
 70
     8
  9
$HANDSEED
  5
3BE0
  9
$SURFTAB1
 70
     6
  9
$SURFTAB2
 70
     6
  9
$SURFTYPE
 70
     6
  9
$SURFU
 70
     6
  9
$SURFV
 70
     6
  9
$UCSBASE
  2

  9
$UCSNAME
  2

  9
$UCSORG
 10
0.0
 20
0.0
 30
0.0
  9
$UCSXDIR
 10
1.0
 20
0.0
 30
0.0
  9
$UCSYDIR
 10
0.0
 20
1.0
 30
0.0
  9
$UCSORTHOREF
  2

  9
$UCSORTHOVIEW
 70
     0
  9
$UCSORGTOP
 10
0.0
 20
0.0
 30
0.0
  9
$UCSORGBOTTOM
 10
0.0
 20
0.0
 30
0.0
  9
$UCSORGLEFT
 10
0.0
 20
0.0
 30
0.0
  9
$UCSORGRIGHT
 10
0.0
 20
0.0
 30
0.0
  9
$UCSORGFRONT
 10
0.0
 20
0.0
 30
0.0
  9
$UCSORGBACK
 10
0.0
 20
0.0
 30
0.0
  9
$PUCSBASE
  2

  9
$PUCSNAME
  2

  9
$PUCSORG
 10
0.0
 20
0.0
 30
0.0
  9
$PUCSXDIR
 10
1.0
 20
0.0
 30
0.0
  9
$PUCSYDIR
 10
0.0
 20
1.0
 30
0.0
  9
$PUCSORTHOREF
  2

  9
$PUCSORTHOVIEW
 70
     0
  9
$PUCSORGTOP
 10
0.0
 20
0.0
 30
0.0
  9
$PUCSORGBOTTOM
 10
0.0
 20
0.0
 30
0.0
  9
$PUCSORGLEFT
 10
0.0
 20
0.0
 30
0.0
  9
$PUCSORGRIGHT
 10
0.0
 20
0.0
 30
0.0
  9
$PUCSORGFRONT
 10
0.0
 20
0.0
 30
0.0
  9
$PUCSORGBACK
 10
0.0
 20
0.0
 30
0.0
  9
$USERI1
 70
     0
  9
$USERI2
 70
     0
  9
$USERI3
 70
     0
  9
$USERI4
 70
     0
  9
$USERI5
 70
     0
  9
$USERR1
 40
0.0
  9
$USERR2
 40
0.0
  9
$USERR3
 40
0.0
  9
$USERR4
 40
0.0
  9
$USERR5
 40
0.0
  9
$WORLDVIEW
 70
     1
  9
$SHADEDGE
 70
     3
  9
$SHADEDIF
 70
    70
  9
$TILEMODE
 70
     1
  9
$MAXACTVP
 70
    16
  9
$PINSBASE
 10
101.9887994410416
 20
50.0
 30
155.412184630939
  9
$PLIMCHECK
 70
     0
  9
$PEXTMIN
 10
1.000000000000000E+20
 20
1.000000000000000E+20
 30
1.000000000000000E+20
  9
$PEXTMAX
 10
-1.000000000000000E+20
 20
-1.000000000000000E+20
 30
-1.000000000000000E+20
  9
$PLIMMIN
 10
0.0
 20
0.0
  9
$PLIMMAX
 10
12.0
 20
9.0
  9
$UNITMODE
 70
     0
  9
$VISRETAIN
 70
     0
  9
$PLINEGEN
 70
     0
  9
$PSLTSCALE
 70
     0
  9
$TREEDEPTH
 70
  3020
  9
$CMLSTYLE
  2
STANDARD
  9
$CMLJUST
 70
     0
  9
$CMLSCALE
 40
1.0
  9
$PROXYGRAPHICS
 70
     1
  9
$MEASUREMENT
 70
     1
  9
$CELWEIGHT
370
    -1
  9
$ENDCAPS
280
     0
  9
$JOINSTYLE
280
     0
  9
$LWDISPLAY
290
     0
  9
$INSUNITS
 70
     4
  9
$HYPERLINKBASE
  1

  9
$STYLESHEET
  1
彩色出圖.ctb
  9
$XEDIT
290
     1
  9
$CEPSNTYPE
380
     0
  9
$PSTYLEMODE
290
     1
  9
$FINGERPRINTGUID
  2
{727C4F51-B094-446D-A919-594C4FA4BCB3}
  9
$VERSIONGUID
  2
{997EF7C3-7608-4677-8309-E9DF8B0FAC40}
  9
$EXTNAMES
290
     1
  9
$PSVPSCALE
 40
0.0
  9
$OLESTARTUP
290
     0
  0
ENDSEC
  0
SECTION
  2
CLASSES
  0
CLASS
  1
ACDBDICTIONARYWDFLT
  2
AcDbDictionaryWithDefault
  3
ObjectDBX Classes
 90
        0
280
     0
281
     0
  0
CLASS
  1
ACDBPLACEHOLDER
  2
AcDbPlaceHolder
  3
ObjectDBX Classes
 90
        0
280
     0
281
     0
  0
CLASS
  1
LAYOUT
  2
AcDbLayout
  3
ObjectDBX Classes
 90
        0
280
     0
281
     0
  0
CLASS
  1
IMAGEDEF
  2
AcDbRasterImageDef
  3
ISM
 90
        0
280
     0
281
     0
  0
CLASS
  1
ACME_DOCUMENT
  2
AcMeDbDoc
  3
AcMeServices
 90
        0
280
     0
281
     0
  0
CLASS
  1
AMGSETTINGSOBJ
  2
AmgSettingsObj
  3
"AcadM|Product Description: AutoCAD Mechanical 2000|Company: Autodesk"
 90
        0
280
     0
281
     0
  0
CLASS
  1
ACMESCOPE
  2
AcMeScope
  3
AcMeServices
 90
        0
280
     0
281
     0
  0
CLASS
  1
ACMECOMMANDHISTORY
  2
AcMeCommandHistory
  3
AcMeServices
 90
        0
280
     0
281
     0
  0
CLASS
  1
ACIMSYSVARMAN
  2
AcImSysVarManager
  3
AcMeServices
 90
        0
280
     0
281
     0
  0
CLASS
  1
ACIMREALSYSVAR
  2
AcImRealSysVar
  3
AcMeServices
 90
        0
280
     0
281
     0
  0
CLASS
  1
ACIMINTSYSVAR
  2
AcImIntSysVar
  3
AcMeServices
 90
        0
280
     0
281
     0
  0
CLASS
  1
ACMEDRAWINGMAN
  2
AcMeDrawingMan
  3
AcMeServices
 90
        0
280
     0
281
     0
  0
CLASS
  1
ACMEVIEW
  2
AcMeView
  3
AcMeServices
 90
        0
280
     0
281
     0
  0
CLASS
  1
ACDBENTITYCACHE
  2
AcMeEntityCache
  3
AcMeServices
 90
        0
280
     0
281
     0
  0
CLASS
  1
GSMANAGER
  2
AcMeGSManager
  3
AcMeServices
 90
        0
280
     0
281
     0
  0
CLASS
  1
AMDTINTERNALREACTOR
  2
AmdtInternalReactor
  3
AcMeServices
 90
        0
280
     0
281
     0
  0
CLASS
  1
ACMESTATEMGR
  2
AcMeStateMgr
  3
AcMeServices
 90
        0
280
     0
281
     0
  0
CLASS
  1
ACGREFMASTER
  2
AcGrefMaster
  3
AcAttribServices
 90
        0
280
     0
281
     0
  0
CLASS
  1
ACME_DATABASE
  2
AcMeDbDatabase
  3
AcMeServices
 90
        0
280
     0
281
     0
  0
CLASS
  1
ACRFINSADJUSTERMGR
  2
AcRfInsAdjusterMgr
  3
AcMeServices
 90
        0
280
     0
281
     0
  0
CLASS
  1
ACGREFACADMASTER
  2
AcGrefacadMaster
  3
AcGrefServices
 90
        0
280
     0
281
     0
  0
CLASS
  1
AMIMASTER
  2
AmiMaster
  3
AmiServices
 90
        0
280
     0
281
     0
  0
CLASS
  1
ACMDATADICTIONARY
  2
AcmDataDictionary
  3
"AcmSymBB|Product Description: AutoCAD Mechanical 2004 DX|Company: Autodesk"
 90
        0
280
     0
281
     0
  0
CLASS
  1
ACMDATAENTRYBLOCK
  2
AcmDataEntryBlock
  3
"AcmSymBB|Product Description: AutoCAD Mechanical 2004 DX|Company: Autodesk"
 90
    32768
280
     0
281
     0
  0
CLASS
  1
ACIMSTRSYSVAR
  2
AcImStrSysVar
  3
AcMeServices
 90
        0
280
     0
281
     0
  0
CLASS
  1
ACMSTANDARDANSI
  2
AcmStandardANSI
  3
"Amdt_StdImp|Product Description: AutoCAD Mechanical 2004 DX|Company: Autodesk"
 90
    32768
280
     0
281
     0
  0
CLASS
  1
AMGOBJPROPCFG
  2
AmgObjPropCfg
  3
"AmgLay|Product Description: AutoCAD Mechanical 2000|Company: Autodesk"
 90
        1
280
     0
281
     0
  0
CLASS
  1
ACMSURFSTANDARDANSI
  2
AcmSurfTextStdANSI
  3
"Amdt_StdImp|Product Description: AutoCAD Mechanical 2004 DX|Company: Autodesk"
 90
    32768
280
     0
281
     0
  0
CLASS
  1
ACMFCFSTANDARDANSI
  2
AcmFCFStdANSI
  3
"Amdt_StdImp|Product Description: AutoCAD Mechanical 2004 DX|Company: Autodesk"
 90
    32768
280
     0
281
     0
  0
CLASS
  1
ACMWELDSTANDARDANSI
  2
AcmWeldingStdANSI
  3
"Amdt_StdImp|Product Description: AutoCAD Mechanical 2004 DX|Company: Autodesk"
 90
    32768
280
     0
281
     0
  0
CLASS
  1
ACMIDSTANDARDANSI
  2
AcmIdStdANSI
  3
"Amdt_StdImp|Product Description: AutoCAD Mechanical 2004 DX|Company: Autodesk"
 90
    32768
280
     0
281
     0
  0
CLASS
  1
ACMDATUMSTANDARDANSI
  2
AcmDatumStdANSI
  3
"Amdt_StdImp|Product Description: AutoCAD Mechanical 2004 DX|Company: Autodesk"
 90
    32768
280
     0
281
     0
  0
CLASS
  1
ACMBOMSTANDARDANSI
  2
AcmBOMStdANSI
  3
"Amdt_StdImp|Product Description: AutoCAD Mechanical 2004 DX|Company: Autodesk"
 90
    32768
280
     0
281
     0
  0
CLASS
  1
ACMDETAILSTANDARDANSI
  2
AmdtDetailSymStdANSI
  3
"Amdt_StdImp|Product Description: AutoCAD Mechanical 2004 DX|Company: Autodesk"
 90
    32768
280
     0
281
     0
  0
CLASS
  1
ACMSECTIONSTANDARDANSI
  2
AmdtSectionSymStdANSI
  3
"Amdt_StdImp|Product Description: AutoCAD Mechanical 2004 DX|Company: Autodesk"
 90
    32768
280
     0
281
     0
  0
CLASS
  1
ACMCENTERLINESTANDARDANSI
  2
AmdtCenterLineStdANSI
  3
"Amdt_StdImp|Product Description: AutoCAD Mechanical 2004 DX|Company: Autodesk"
 90
    32768
280
     0
281
     0
  0
CLASS
  1
ACMNOTESTANDARDANSI
  2
AmdtNoteStdANSI
  3
"Amdt_StdImp|Product Description: AutoCAD Mechanical 2004 DX|Company: Autodesk"
 90
    32768
280
     0
281
     0
  0
CLASS
  1
ACAMGLAYSTD
  2
AcAmgLayStd
  3
"AcAmgLayStd|Product Description: AutoCAD Mechanical 2000|Company: Autodesk"
 90
        0
280
     0
281
     0
  0
CLASS
  1
ACAMGDIMSTD
  2
AcAmgDimStd
  3
"AcAmgDimStd|Product Description: AutoCAD Mechanical 2000|Company: Autodesk"
 90
        0
280
     0
281
     0
  0
CLASS
  1
ACAMGHOLECHARTSTDANSI
  2
AcAmgHoleChartStdANSI
  3
ACMSYMBB_MODULE_NAME
 90
    32768
280
     0
281
     0
  0
CLASS
  1
ACAMGTITLESTD
  2
AcAmgTitleStd
  3
"TITLEAPP"
 90
        0
280
     0
281
     0
  0
CLASS
  1
ACAMGFILTERDAT
  2
AcAmgFilterDat
  3
"AcadM|Product Description: AutoCAD Mechanical 2000|Company: Autodesk"
 90
    32768
280
     0
281
     0
  0
CLASS
  1
AMDTFORMULAUPDATEDISPATCHER
  2
AmdtFormulaUpdateDispatcher
  3
AcMeServices
 90
    32768
280
     0
281
     0
  0
CLASS
  1
LAYER_INDEX
  2
AcDbLayerIndex
  3
ObjectDBX Classes
 90
        0
280
     0
281
     0
  0
CLASS
  1
IDBUFFER
  2
AcDbIdBuffer
  3
ObjectDBX Classes
 90
        0
280
     0
281
     0
  0
CLASS
  1
DICTIONARYVAR
  2
AcDbDictionaryVar
  3
ObjectDBX Classes
 90
        0
280
     0
281
     0
  0
CLASS
  1
ACMSTANDARDISO
  2
AcmStandardISO
  3
"Amdt_StdImp|Product Description: AutoCAD Mechanical 2004 DX|Company: Autodesk"
 90
        0
280
     0
281
     0
  0
CLASS
  1
AMDTEDGESTANDARDISO
  2
AmdtEdgeStdISO
  3
"Amdt_StdImp|Product Description: AutoCAD Mechanical 2004 DX|Company: Autodesk"
 90
    32768
280
     0
281
     0
  0
CLASS
  1
ACMSURFSTANDARDISO
  2
AcmSurfTextStdISO
  3
"Amdt_StdImp|Product Description: AutoCAD Mechanical 2004 DX|Company: Autodesk"
 90
        0
280
     0
281
     0
  0
CLASS
  1
ACMFCFSTANDARDISO
  2
AcmFCFStdISO
  3
"Amdt_StdImp|Product Description: AutoCAD Mechanical 2004 DX|Company: Autodesk"
 90
        0
280
     0
281
     0
  0
CLASS
  1
ACMWELDSTANDARDISO
  2
AcmWeldingStdISO
  3
"Amdt_StdImp|Product Description: AutoCAD Mechanical 2004 DX|Company: Autodesk"
 90
        0
280
     0
281
     0
  0
CLASS
  1
ACMIDSTANDARDISO
  2
AcmIdStdISO
  3
"Amdt_StdImp|Product Description: AutoCAD Mechanical 2004 DX|Company: Autodesk"
 90
        0
280
     0
281
     0
  0
CLASS
  1
ACMDATUMSTANDARDISO
  2
AcmDatumStdISO
  3
"Amdt_StdImp|Product Description: AutoCAD Mechanical 2004 DX|Company: Autodesk"
 90
        0
280
     0
281
     0
  0
CLASS
  1
ACMBOMSTANDARDISO
  2
AcmBOMStdISO
  3
"Amdt_StdImp|Product Description: AutoCAD Mechanical 2004 DX|Company: Autodesk"
 90
        0
280
     0
281
     0
  0
CLASS
  1
ACMDETAILSTANDARDISO
  2
AmdtDetailSymStdISO
  3
"Amdt_StdImp|Product Description: AutoCAD Mechanical 2004 DX|Company: Autodesk"
 90
        0
280
     0
281
     0
  0
CLASS
  1
ACMSECTIONSTANDARDISO
  2
AmdtSectionSymStdISO
  3
"Amdt_StdImp|Product Description: AutoCAD Mechanical 2004 DX|Company: Autodesk"
 90
        0
280
     0
281
     0
  0
CLASS
  1
ACMCENTERLINESTANDARDISO
  2
AmdtCenterLineStdISO
  3
"Amdt_StdImp|Product Description: AutoCAD Mechanical 2004 DX|Company: Autodesk"
 90
        0
280
     0
281
     0
  0
CLASS
  1
ACMNOTESTANDARDISO
  2
AmdtNoteStdISO
  3
"Amdt_StdImp|Product Description: AutoCAD Mechanical 2004 DX|Company: Autodesk"
 90
        0
280
     0
281
     0
  0
CLASS
  1
ACAMGHOLECHARTSTDISO
  2
AcAmgHoleChartStdISO
  3
ACMSYMBB_MODULE_NAME
 90
        0
280
     0
281
     0
  0
CLASS
  1
AMDTNOTE
  2
AmdtNote
  3
"AcmSymBB|Product Description: AutoCAD Mechanical 2004 DX|Company: Autodesk"
 90
    33791
280
     0
281
     1
  0
CLASS
  1
TABLESTYLE
  2
AcDbTableStyle
  3
ObjectDBX Classes
 90
     2047
280
     0
281
     0
  0
CLASS
  1
AM_DRAWING_MGR
  2
AcDmDwgMgr
  3
AcMechDwgViewMgmt
 90
        0
280
     0
281
     0
  0
CLASS
  1
AM_DWG_DOCUMENT
  2
AcDmDwgDocument
  3
AcMechDwgViewMgmt
 90
        0
280
     0
281
     0
  0
CLASS
  1
AM_DWG_SHEET
  2
AcDmSheet
  3
AcMechDwgViewMgmt
 90
        0
280
     0
281
     0
  0
CLASS
  1
AM_VIEWDIMPARMAP
  2
AcDmViewDimParMap
  3
AcMechDwgViewMgmt
 90
        0
280
     0
281
     0
  0
CLASS
  1
AM_DWGMGR_NAME
  2
AcDmDwgMgrName
  3
AcMechDwgViewMgmt
 90
        0
280
     0
281
     0
  0
CLASS
  1
AMDTMENUSTATEMGR
  2
AmdtMenuStateMgr
  3
McadcomServices
 90
        0
280
     0
281
     0
  0
CLASS
  1
AMDTMCOMMENUSTATE
  2
AmdtMcomMenuState
  3
McadcomServices
 90
        0
280
     0
281
     0
  0
CLASS
  1
MAPIAMMOUDLE
  2
MApiAmModule
  3
MApiAmServices
 90
        0
280
     0
281
     0
  0
CLASS
  1
AMDTADMENUSTATE
  2
AmdtAdMenuState
  3
DesignerServices
 90
        0
280
     0
281
     0
  0
CLASS
  1
ADAPPL
  2
AcAdAppl
  3
DesignerServices
 90
        0
280
     0
281
     0
  0
CLASS
  1
DEPMGR
  2
AcAdDepMgr
  3
DesignerServices
 90
        0
280
     0
281
     0
  0
CLASS
  1
PARAMMGR
  2
AcAdParamMgr
  3
DesignerServices
 90
        0
280
     0
281
     0
  0
CLASS
  1
PARAMSCOPE
  2
AcAdParamScope
  3
DesignerServices
 90
        0
280
     0
281
     0
  0
CLASS
  1
NAMEDAPPL
  2
AcAdNamedAppl
  3
DesignerServices
 90
        0
280
     0
281
     0
  0
CLASS
  1
AMDTDMMENUSTATE
  2
AmdtDmMenuState
  3
AcMechDwgViewMgmt
 90
        0
280
     0
281
     0
  0
CLASS
  1
AMDTAMMENUSTATE
  2
AmdtAmMenuState
  3
DesignerAssemblies
 90
        0
280
     0
281
     0
  0
CLASS
  1
ACAMPROJECT
  2
AcAmProject
  3
DesignerAssemblies
 90
        0
280
     0
281
     0
  0
CLASS
  1
ACAMGRCOMPDEF
  2
AcAmGrCompDef
  3
DesignerAssemblies
 90
        0
280
     0
281
     0
  0
CLASS
  1
ACCMCONTEXT
  2
AcCmContext
  3
DesignerAssemblies
 90
        0
280
     0
281
     0
  0
CLASS
  1
ACAMCOMPDEF
  2
AcAmCompDef
  3
DesignerAssemblies
 90
        0
280
     0
281
     0
  0
CLASS
  1
ACAMCOMPDEFMGR
  2
AcAmCompDefMgr
  3
DesignerAssemblies
 90
        0
280
     0
281
     0
  0
CLASS
  1
AMCONTEXTMGR
  2
AcAmContextMgr
  3
DesignerAssemblies
 90
        0
280
     0
281
     0
  0
CLASS
  1
ACAMCONTEXTMODELER
  2
AcAmContextModeler
  3
DesignerAssemblies
 90
        0
280
     0
281
     0
  0
CLASS
  1
CATALOGSTATE
  2
AcAmCatalogState
  3
DesignerAssemblies
 90
        0
280
     0
281
     0
  0
CLASS
  1
ACAMGRCOMPDEFSET
  2
AcAmGrCompDefSet
  3
DesignerAssemblies
 90
        0
280
     0
281
     0
  0
CLASS
  1
AMDTBROWSERDBTAB
  2
AmdtBrowserDbTab
  3
McadcomServices
 90
        0
280
     0
281
     0
  0
CLASS
  1
CBROWSERAPPOBJECT
  2
CBrowserAppObject
  3
McadcomServices
 90
        0
280
     0
281
     0
  0
CLASS
  1
DM_PLACEHOLDER
  2
AcDmSelsetPlaceholder
  3
AcMechDwgViewMgmt
 90
        0
280
     0
281
     0
  0
CLASS
  1
AMDTEDGESTANDARDISO13715
  2
AmdtEdgeStdISO13715
  3
"Amdt_StdImp|Product Description: AutoCAD Mechanical 2004 DX|Company: Autodesk"
 90
        0
280
     0
281
     0
  0
CLASS
  1
ACMTHREADLINESTANDARDISO
  2
AmdtThreadLineStdISO
  3
"Amdt_StdImp|Product Description: AutoCAD Mechanical 2004 DX|Company: Autodesk"
 90
        0
280
     0
281
     0
  0
CLASS
  1
AMDTNOTETEMPLATEDB
  2
AmdtNoteTemplateDB
  3
AMDT_STDIMP_MODULE_NAME
 90
        0
280
     0
281
     0
  0
CLASS
  1
SORTENTSTABLE
  2
AcDbSortentsTable
  3
ObjectDBX Classes
 90
        0
280
     0
281
     0
  0
CLASS
  1
ACRFATTGENMGR
  2
AcRfAttGeneralMgr
  3
AcAttribServices
 90
        0
280
     0
281
     0
  0
ENDSEC
  0
SECTION
  2
TABLES
  0
TABLE
  2
VPORT
  5
8
330
0
100
AcDbSymbolTable
 70
     4
  0
VPORT
  5
3BD9
330
8
100
AcDbSymbolTableRecord
100
AcDbViewportTableRecord
  2
*Active
 70
     0
 10
0.0
 20
0.0
 11
1.0
 21
1.0
 12
165.5971993706158
 22
-65.86282861842926
 13
0.0
 23
0.0
 14
2.5
 24
2.5
 15
10.0
 25
10.0
 16
0.0
 26
0.0
 36
1.0
 17
0.0
 27
0.0
 37
0.0
 40
415.8307609049552
 41
1.609210526315789
 42
50.0
 43
0.0
 44
0.0
 50
0.0
 51
0.0
 71
     0
 72
   100
 73
     1
 74
     1
 75
     0
 76
     0
 77
     0
 78
     0
281
     0
 65
     1
110
0.0
120
0.0
130
0.0
111
1.0
121
0.0
131
0.0
112
0.0
122
1.0
132
0.0
 79
     0
146
0.0
  0
ENDTAB
  0
TABLE
  2
LTYPE
  5
5
330
0
100
AcDbSymbolTable
 70
    14
  0
LTYPE
  5
13
330
5
100
AcDbSymbolTableRecord
100
AcDbLinetypeTableRecord
  2
BYBLOCK
 70
     0
  3

 72
    65
 73
     0
 40
0.0
  0
LTYPE
  5
14
330
5
100
AcDbSymbolTableRecord
100
AcDbLinetypeTableRecord
  2
BYLAYER
 70
     0
  3

 72
    65
 73
     0
 40
0.0
  0
LTYPE
  5
15
330
5
100
AcDbSymbolTableRecord
100
AcDbLinetypeTableRecord
  2
CONTINUOUS
 70
     0
  3
Solid line
 72
    65
 73
     0
 40
0.0
  0
LTYPE
  5
23
330
5
100
AcDbSymbolTableRecord
100
AcDbLinetypeTableRecord
  2
HIDDEN
 70
     0
  3
_ _ _ _ _ _ _ _ _ _ _ _ _ _ _ _ _ _ _ _ _ _ _
 72
    65
 73
     2
 40
0.375
 49
0.25
 74
     0
 49
-0.125
 74
     0
  0
LTYPE
  5
24
330
5
100
AcDbSymbolTableRecord
100
AcDbLinetypeTableRecord
  2
CENTER
 70
     0
  3
____ _ ____ _ ____ _ ____ _ ____ _ ____ _ ____
 72
    65
 73
     4
 40
2.0
 49
1.25
 74
     0
 49
-0.25
 74
     0
 49
0.25
 74
     0
 49
-0.25
 74
     0
  0
LTYPE
  5
7CE
330
5
100
AcDbSymbolTableRecord
100
AcDbLinetypeTableRecord
  2
AMCONSTR
 70
     0
  3
_______________________
 72
    65
 73
     2
 40
9999.0
 49
9999.0
 74
     0
 49
0.0
 74
     0
  0
LTYPE
  5
7CF
330
5
100
AcDbSymbolTableRecord
100
AcDbLinetypeTableRecord
  2
AM_ISO08W050X2
 70
     0
  3
__ . __ . __ . __ . __ . __
 72
    65
 73
     4
 40
9.0
 49
6.0
 74
     0
 49
-0.75
 74
     0
 49
1.5
 74
     0
 49
-0.75
 74
     0
  0
LTYPE
  5
7D4
330
5
100
AcDbSymbolTableRecord
100
AcDbLinetypeTableRecord
  2
PHANTOM2
 70
     0
  3
Phantom (.5x) ___ _ _ ___ _ _ ___ _ _ ___ _ _
 72
    65
 73
     6
 40
1.25
 49
0.625
 74
     0
 49
-0.125
 74
     0
 49
0.125
 74
     0
 49
-0.125
 74
     0
 49
0.125
 74
     0
 49
-0.125
 74
     0
  0
LTYPE
  5
C13
330
5
100
AcDbSymbolTableRecord
100
AcDbLinetypeTableRecord
  2
ACISOWELD
 70
     0
  3
_ _ _ _ _
 72
    65
 73
     2
 40
2.0
 49
2.0
 74
     0
 49
-1.0
 74
     0
  0
LTYPE
  5
C14
330
5
100
AcDbSymbolTableRecord
100
AcDbLinetypeTableRecord
  2
ACISOTGB
 70
     0
  3
__ . . __ . .
 72
    65
 73
     6
 40
9.0
 49
4.0
 74
     0
 49
-1.0
 74
     0
 49
1.0
 74
     0
 49
-1.0
 74
     0
 49
1.0
 74
     0
 49
-1.0
 74
     0
  0
LTYPE
  5
C15
330
5
100
AcDbSymbolTableRecord
100
AcDbLinetypeTableRecord
  2
ACISOTGL
 70
     0
  3
_ _ _ _ _
 72
    65
 73
     2
 40
3.0
 49
2.0
 74
     0
 49
-1.0
 74
     0
  0
LTYPE
  5
16FD
330
5
100
AcDbSymbolTableRecord
100
AcDbLinetypeTableRecord
  2
AM_ISO02W050
 70
     0
  3
__ __ __ __ __ __ __ __ __ __ __ __ __ __ __
 72
    65
 73
     2
 40
7.5
 49
6.0
 74
     0
 49
-1.5
 74
     0
  0
LTYPE
  5
16FE
330
5
100
AcDbSymbolTableRecord
100
AcDbLinetypeTableRecord
  2
AM_ISO08W050
 70
     0
  3
____ . ____ . ____ . ____ . ____ . ____ . ____
 72
    65
 73
     4
 40
18.0
 49
12.0
 74
     0
 49
-1.5
 74
     0
 49
3.0
 74
     0
 49
-1.5
 74
     0
  0
LTYPE
  5
16FF
330
5
100
AcDbSymbolTableRecord
100
AcDbLinetypeTableRecord
  2
AM_ISO09W050
 70
     0
  3
_____ . . _____ . . _____ . . ____ .. ____
 72
    65
 73
     6
 40
22.5
 49
12.0
 74
     0
 49
-1.5
 74
     0
 49
3.0
 74
     0
 49
-1.5
 74
     0
 49
3.0
 74
     0
 49
-1.5
 74
     0
  0
LTYPE
  5
1700
330
5
100
AcDbSymbolTableRecord
100
AcDbLinetypeTableRecord
  2
AM_ISO02W050x2
 70
     0
  3
 _ _ _ _ _ _ _ _ _ _ _ _
 72
    65
 73
     2
 40
3.75
 49
3.0
 74
     0
 49
-0.75
 74
     0
  0
LTYPE
  5
1701
330
5
100
AcDbSymbolTableRecord
100
AcDbLinetypeTableRecord
  2
Amzigzag
 70
     0
  3
/\/-/\/-/\/-/\/-/\/-/\/
 72
    65
 73
     2
 40
11.0001
 49
0.0001
 74
     4
 75
   135
340
7D2
 46
0.04
 50
0.0
 44
0.0
 45
0.0
 49
-11.0
 74
     0
  0
ENDTAB
  0
TABLE
  2
LAYER
  5
2
102
{ACAD_XDICTIONARY
360
361C
102
}
330
0
100
AcDbSymbolTable
 70
     8
  0
LAYER
  5
10
330
2
100
AcDbSymbolTableRecord
100
AcDbLayerTableRecord
  2
0
 70
     0
 62
     7
  6
CONTINUOUS
370
    -3
390
B32
  0
LAYER
  5
26
330
2
100
AcDbSymbolTableRecord
100
AcDbLayerTableRecord
  2
DEFPOINTS
 70
     0
 62
     7
  6
CONTINUOUS
290
     0
370
    -3
390
B32
  0
LAYER
  5
516
330
2
100
AcDbSymbolTableRecord
100
AcDbLayerTableRecord
  2
ASHADE
 70
     0
 62
     7
  6
CONTINUOUS
370
    -3
390
B32
  0
LAYER
  5
C16
330
2
100
AcDbSymbolTableRecord
100
AcDbLayerTableRecord
  2
AM_7
 70
     0
 62
     1
  6
CENTER
370
    25
390
B32
  0
LAYER
  5
C17
330
2
100
AcDbSymbolTableRecord
100
AcDbLayerTableRecord
  2
AM_VIS
 70
     2
 62
     7
  6
CONTINUOUS
370
    50
390
B32
  0
LAYER
  5
C18
330
2
100
AcDbSymbolTableRecord
100
AcDbLayerTableRecord
  2
AM_4
 70
     0
 62
     3
  6
CONTINUOUS
370
    25
390
B32
  0
LAYER
  5
11C1
330
2
100
AcDbSymbolTableRecord
100
AcDbLayerTableRecord
  2
AM_5
 70
     0
 62
     5
  6
CONTINUOUS
370
    25
390
B32
  0
LAYER
  5
3617
330
2
100
AcDbSymbolTableRecord
100
AcDbLayerTableRecord
  2
LOGO
 70
     0
 62
     7
  6
CONTINUOUS
370
    -3
390
B32
  0
ENDTAB
  0
TABLE
  2
STYLE
  5
3
330
0
100
AcDbSymbolTable
 70
     9
  0
STYLE
  5
11
330
3
100
AcDbSymbolTableRecord
100
AcDbTextStyleTableRecord
  2
STANDARD
 70
     0
 40
0.0
 41
1.0
 50
0.0
 71
     0
 42
3.5
  3
ISOCP.SHX
  4

  0
STYLE
  5
22
330
3
100
AcDbSymbolTableRecord
100
AcDbTextStyleTableRecord
  2
DAYUS
 70
     0
 40
0.0
 41
1.0
 50
0.0
 71
     0
 42
3.0
  3
simplex
  4
dayus
  0
STYLE
  5
7D2
330
3
100
AcDbSymbolTableRecord
100
AcDbTextStyleTableRecord
  2

 70
     1
 40
0.0
 41
1.0
 50
0.0
 71
     0
 42
4.0
  3
ltypeshp.shx
  4

  0
STYLE
  5
C19
330
3
100
AcDbSymbolTableRecord
100
AcDbTextStyleTableRecord
  2
ACISOTS
 70
     0
 40
1.0
 41
1.0
 50
0.0
 71
     0
 42
2.5
  3
isocp.shx
  4
chineset.shx
  0
STYLE
  5
C1A
330
3
100
AcDbSymbolTableRecord
100
AcDbTextStyleTableRecord
  2
ACISOGDT
 70
     0
 40
0.0
 41
1.0
 50
0.0
 71
     0
 42
2.5
  3
amgdt.shx
  4

  0
STYLE
  5
3618
330
3
100
AcDbSymbolTableRecord
100
AcDbTextStyleTableRecord
  2
CHINESET
 70
     0
 40
0.0
 41
1.0
 50
0.0
 71
     0
 42
3.0
  3
simplex.shx
  4
CHINESET.SHX
  0
ENDTAB
  0
TABLE
  2
VIEW
  5
6
330
0
100
AcDbSymbolTable
 70
     0
  0
ENDTAB
  0
TABLE
  2
UCS
  5
7
330
0
100
AcDbSymbolTable
 70
     0
  0
ENDTAB
  0
TABLE
  2
APPID
  5
9
330
0
100
AcDbSymbolTable
 70
    24
  0
APPID
  5
12
330
9
100
AcDbSymbolTableRecord
100
AcDbRegAppTableRecord
  2
ACAD
 70
     0
  0
APPID
  5
514
330
9
100
AcDbSymbolTableRecord
100
AcDbRegAppTableRecord
  2
AVE_RENDER
 70
     0
  0
APPID
  5
515
330
9
100
AcDbSymbolTableRecord
100
AcDbRegAppTableRecord
  2
AVE_ENTITY_MATERIAL
 70
     0
  0
APPID
  5
522
330
9
100
AcDbSymbolTableRecord
100
AcDbRegAppTableRecord
  2
AVE_FINISH
 70
     0
  0
APPID
  5
523
330
9
100
AcDbSymbolTableRecord
100
AcDbRegAppTableRecord
  2
AVE_MATERIAL
 70
     0
  0
APPID
  5
524
330
9
100
AcDbSymbolTableRecord
100
AcDbRegAppTableRecord
  2
AVE_GLOBAL
 70
     0
  0
APPID
  5
7AD
330
9
100
AcDbSymbolTableRecord
100
AcDbRegAppTableRecord
  2
MCAD_NO_VIS
 70
     0
  0
APPID
  5
7AE
330
9
100
AcDbSymbolTableRecord
100
AcDbRegAppTableRecord
  2
ACAD_TEMP_GRAPHIC
 70
     0
  0
APPID
  5
7BF
330
9
100
AcDbSymbolTableRecord
100
AcDbRegAppTableRecord
  2
ACATTRIBSERVICES
 70
     0
  0
APPID
  5
C22
330
9
100
AcDbSymbolTableRecord
100
AcDbRegAppTableRecord
  2
GENIUS_GENODEF_13
 70
     0
  0
APPID
  5
C23
330
9
100
AcDbSymbolTableRecord
100
AcDbRegAppTableRecord
  2
GENIUS_GENOREF_13
 70
     0
  0
APPID
  5
C24
330
9
100
AcDbSymbolTableRecord
100
AcDbRegAppTableRecord
  2
GENIUS_GENOBJ-N-CEN_13
 70
     0
  0
APPID
  5
16D2
330
9
100
AcDbSymbolTableRecord
100
AcDbRegAppTableRecord
  2
GENIUS_GENDTOL_13
 70
     0
  0
APPID
  5
2E9A
330
9
100
AcDbSymbolTableRecord
100
AcDbRegAppTableRecord
  2
AD_DRAW
 70
     0
  0
APPID
  5
2EB8
330
9
100
AcDbSymbolTableRecord
100
AcDbRegAppTableRecord
  2
DESIGNERASSEMBLIES
 70
     0
  0
APPID
  5
2EBD
330
9
100
AcDbSymbolTableRecord
100
AcDbRegAppTableRecord
  2
ACADM_DIM_EDIT
 70
     0
  0
APPID
  5
2EBE
330
9
100
AcDbSymbolTableRecord
100
AcDbRegAppTableRecord
  2
AMDT_DM_ADJ
 70
     0
  0
APPID
  5
2EF2
330
9
100
AcDbSymbolTableRecord
100
AcDbRegAppTableRecord
  2
GENIUS_GENOLIS_13
 70
     0
  0
APPID
  5
2EF3
330
9
100
AcDbSymbolTableRecord
100
AcDbRegAppTableRecord
  2
GENIUS_GENOENT_13
 70
     0
  0
APPID
  5
2EF4
330
9
100
AcDbSymbolTableRecord
100
AcDbRegAppTableRecord
  2
GENIUS_GENOBJ-N-CRS_13
 70
     0
  0
APPID
  5
3619
330
9
100
AcDbSymbolTableRecord
100
AcDbRegAppTableRecord
  2
ACAD_PSEXT
 70
     0
  0
APPID
  5
361A
330
9
100
AcDbSymbolTableRecord
100
AcDbRegAppTableRecord
  2
GENIUS_GENREC_14
 70
     0
  0
APPID
  5
361B
330
9
100
AcDbSymbolTableRecord
100
AcDbRegAppTableRecord
  2
GENIUS_GENOBJ-N-REC_13
 70
     0
  0
APPID
  5
3B55
330
9
100
AcDbSymbolTableRecord
100
AcDbRegAppTableRecord
  2
GENIUS_GENCEN_19
 70
     0
  0
ENDTAB
  0
TABLE
  2
DIMSTYLE
  5
A
330
0
100
AcDbSymbolTable
 70
    11
100
AcDbDimStyleTable
 71
     1
340
C1B
  0
DIMSTYLE
105
C1B
102
{ACAD_REACTORS
330
121C
330
1251
330
12C5
330
12E9
330
136D
330
1391
330
13B9
330
1479
330
149D
330
14C1
330
14E5
330
1509
330
1668
330
1699
330
1AE3
330
1DA4
330
26ED
330
2BB2
330
3309
330
330A
330
330B
330
330C
330
330F
330
3310
330
3311
330
3312
330
3313
330
3314
330
3315
330
3316
330
3317
330
3324
330
333C
102
}
330
A
100
AcDbSymbolTableRecord
100
AcDbDimStyleTableRecord
  2
AM_ISO
 70
     0
  4
"
 41
3.0
 42
1.0
 43
6.0
 44
1.5
 47
0.1
 48
0.1
 73
     0
 74
     0
 77
     1
 78
     8
 79
     2
140
3.0
141
3.0
143
0.0393701
146
0.71
147
0.8
172
     1
176
   256
177
   256
178
   256
271
     2
272
     2
283
     0
284
     8
340
11
371
    -1
372
    -1
  0
DIMSTYLE
105
C1C
102
{ACAD_REACTORS
330
26B8
330
3329
102
}
330
A
100
AcDbSymbolTableRecord
100
AcDbDimStyleTableRecord
  2
AM_ISO$3
 70
     0
  4
"
 41
3.0
 42
1.0
 43
6.0
 44
1.5
 47
0.1
 48
0.1
 73
     0
 77
     1
 78
     8
 79
     2
140
3.0
141
3.0
143
0.0393701
146
0.71
147
0.8
176
   256
177
   256
178
   256
271
     2
272
     2
283
     0
284
     8
288
     1
289
     0
340
11
371
    -1
372
    -1
  0
DIMSTYLE
105
C1D
330
A
100
AcDbSymbolTableRecord
100
AcDbDimStyleTableRecord
  2
AM_ISO$4
 70
     0
  4
"
 41
3.0
 42
1.0
 43
6.0
 44
1.5
 47
0.1
 48
0.1
 73
     0
 77
     1
 78
     8
 79
     2
140
3.0
141
3.0
143
0.0393701
146
0.71
147
0.8
176
   256
177
   256
178
   256
271
     2
272
     2
283
     0
284
     8
288
     1
289
     0
340
11
371
    -1
372
    -1
  0
DIMSTYLE
105
C1E
330
A
100
AcDbSymbolTableRecord
100
AcDbDimStyleTableRecord
  2
AM_ISO$6
 70
     0
  4
"
 41
3.0
 42
1.0
 43
6.0
 44
1.5
 47
0.1
 48
0.1
 73
     0
 74
     0
 78
     8
 79
     2
140
3.0
141
3.0
143
0.0393701
146
0.71
147
0.8
172
     1
176
   256
177
   256
178
   256
271
     2
272
     2
283
     0
284
     8
340
11
371
    -1
372
    -1
  0
DIMSTYLE
105
C1F
330
A
100
AcDbSymbolTableRecord
100
AcDbDimStyleTableRecord
  2
AM_ISO$7
 70
     0
  4
"
 41
3.0
 42
1.0
 43
6.0
 44
1.5
 47
0.1
 48
0.1
 73
     0
 74
     0
 77
     1
 78
     8
 79
     2
140
5.0
141
3.0
143
0.0393701
146
0.71
147
0.8
172
     1
176
   256
177
   256
178
   256
271
     2
272
     2
283
     0
284
     8
340
11
371
    -1
372
    -1
  0
DIMSTYLE
105
C20
330
A
100
AcDbSymbolTableRecord
100
AcDbDimStyleTableRecord
  2
AM_ISO$SF
 70
     0
  4
"
 41
2.5
 42
1.0
 43
10.0
 44
1.0
 47
0.1
 48
0.1
 73
     0
 74
     0
 75
     1
 76
     1
 77
     1
 78
     8
 79
     2
140
3.5
141
0.0
143
0.0393701
146
0.71
147
1.5
172
     1
176
   256
177
   256
178
     2
271
     2
272
     3
274
     4
283
     0
284
     8
340
11
371
    -1
372
    -1
  0
DIMSTYLE
105
C21
330
A
100
AcDbSymbolTableRecord
100
AcDbDimStyleTableRecord
  2
AM_ISO$SH
 70
     0
  4
"
 41
2.5
 42
1.0
 43
10.0
 44
1.0
 47
0.1
 48
0.1
 73
     0
 74
     0
 75
     1
 76
     1
 77
     1
 78
     8
 79
     2
140
3.5
141
0.0
143
0.0393701
144
2.0
146
0.71
147
1.5
172
     1
173
     1
176
   256
177
   256
178
     2
271
     2
272
     3
274
     4
283
     0
284
     8
340
11
341
7ED
343
7ED
371
    -1
372
    -1
  0
DIMSTYLE
105
35F1
102
{ACAD_REACTORS
330
121C
330
1251
330
12C5
330
12E9
330
136D
330
1391
330
13B9
330
1479
330
149D
330
14C1
330
14E5
330
1509
330
1668
330
1699
330
1AE3
330
1DA4
330
26ED
330
2BB2
330
3309
330
330A
330
330B
330
330C
330
330F
330
3310
330
3311
330
3312
330
3313
330
3314
330
3315
330
3316
330
3317
330
3324
330
333C
330
35F5
102
}
330
A
100
AcDbSymbolTableRecord
100
AcDbDimStyleTableRecord
  2
AM_ISO$0
 70
     0
  4
"
 41
3.0
 42
1.0
 43
6.0
 44
1.5
 47
0.1
 48
0.1
 73
     0
 74
     0
 77
     1
 78
     8
 79
     2
140
3.0
141
3.0
143
0.0393701
146
0.71
147
0.8
172
     1
176
   256
177
   256
178
   256
271
     2
272
     2
283
     0
284
     8
340
11
371
    -1
372
    -1
  0
ENDTAB
  0
TABLE
  2
BLOCK_RECORD
  5
1
330
0
100
AcDbSymbolTable
 70
    51
  0
BLOCK_RECORD
  5
1E
102
{ACAD_XDICTIONARY
360
708
102
}
330
1
100
AcDbSymbolTableRecord
100
AcDbBlockTableRecord
  2
*MODEL_SPACE
340
B33
  0
BLOCK_RECORD
  5
1A
102
{ACAD_XDICTIONARY
360
70A
102
}
330
1
100
AcDbSymbolTableRecord
100
AcDbBlockTableRecord
  2
*PAPER_SPACE
340
B34
  0
BLOCK_RECORD
  5
517
330
1
100
AcDbSymbolTableRecord
100
AcDbBlockTableRecord
  2
AVE_RENDER
340
0
102
{BLKREFS
331
51A
331
51B
331
51C
331
51D
331
51E
331
51F
331
520
331
521
102
}
  0
BLOCK_RECORD
  5
525
330
1
100
AcDbSymbolTableRecord
100
AcDbBlockTableRecord
  2
AVE_GLOBAL
340
0
102
{BLKREFS
331
528
102
}
  0
BLOCK_RECORD
  5
7ED
330
1
100
AcDbSymbolTableRecord
100
AcDbBlockTableRecord
  2
GENAXEH
340
0
  0
BLOCK_RECORD
  5
121D
330
1
100
AcDbSymbolTableRecord
100
AcDbBlockTableRecord
  2
*D3
340
0
  0
BLOCK_RECORD
  5
1252
330
1
100
AcDbSymbolTableRecord
100
AcDbBlockTableRecord
  2
*D4
340
0
  0
BLOCK_RECORD
  5
12C6
330
1
100
AcDbSymbolTableRecord
100
AcDbBlockTableRecord
  2
*D5
340
0
  0
BLOCK_RECORD
  5
12EA
330
1
100
AcDbSymbolTableRecord
100
AcDbBlockTableRecord
  2
*D6
340
0
  0
BLOCK_RECORD
  5
136E
330
1
100
AcDbSymbolTableRecord
100
AcDbBlockTableRecord
  2
*D7
340
0
  0
BLOCK_RECORD
  5
1392
330
1
100
AcDbSymbolTableRecord
100
AcDbBlockTableRecord
  2
*D8
340
0
  0
BLOCK_RECORD
  5
13BA
330
1
100
AcDbSymbolTableRecord
100
AcDbBlockTableRecord
  2
*D9
340
0
  0
BLOCK_RECORD
  5
147A
330
1
100
AcDbSymbolTableRecord
100
AcDbBlockTableRecord
  2
*D10
340
0
  0
BLOCK_RECORD
  5
149E
330
1
100
AcDbSymbolTableRecord
100
AcDbBlockTableRecord
  2
*D11
340
0
  0
BLOCK_RECORD
  5
14C2
330
1
100
AcDbSymbolTableRecord
100
AcDbBlockTableRecord
  2
*D12
340
0
  0
BLOCK_RECORD
  5
14E6
330
1
100
AcDbSymbolTableRecord
100
AcDbBlockTableRecord
  2
*D13
340
0
  0
BLOCK_RECORD
  5
150A
330
1
100
AcDbSymbolTableRecord
100
AcDbBlockTableRecord
  2
*D14
340
0
  0
BLOCK_RECORD
  5
1669
330
1
100
AcDbSymbolTableRecord
100
AcDbBlockTableRecord
  2
*D15
340
0
  0
BLOCK_RECORD
  5
169A
330
1
100
AcDbSymbolTableRecord
100
AcDbBlockTableRecord
  2
*D16
340
0
  0
BLOCK_RECORD
  5
18E9
330
1
100
AcDbSymbolTableRecord
100
AcDbBlockTableRecord
  2
GENDOT
340
0
102
{BLKREFS
331
3AB1
331
3ACE
102
}
  0
BLOCK_RECORD
  5
1AE4
330
1
100
AcDbSymbolTableRecord
100
AcDbBlockTableRecord
  2
*D18
340
0
  0
BLOCK_RECORD
  5
1DA5
330
1
100
AcDbSymbolTableRecord
100
AcDbBlockTableRecord
  2
*D19
340
0
  0
BLOCK_RECORD
  5
26B9
330
1
100
AcDbSymbolTableRecord
100
AcDbBlockTableRecord
  2
*D20
340
0
  0
BLOCK_RECORD
  5
26EE
330
1
100
AcDbSymbolTableRecord
100
AcDbBlockTableRecord
  2
*D21
340
0
  0
BLOCK_RECORD
  5
2BB3
330
1
100
AcDbSymbolTableRecord
100
AcDbBlockTableRecord
  2
*D22
340
0
  0
BLOCK_RECORD
  5
2DAA
330
1
100
AcDbSymbolTableRecord
100
AcDbBlockTableRecord
  2
*S23
340
0
102
{BLKREFS
331
2419
102
}
  0
BLOCK_RECORD
  5
2DB2
330
1
100
AcDbSymbolTableRecord
100
AcDbBlockTableRecord
  2
*S24
340
0
102
{BLKREFS
331
24AF
102
}
  0
BLOCK_RECORD
  5
2DC3
330
1
100
AcDbSymbolTableRecord
100
AcDbBlockTableRecord
  2
*S25
340
0
102
{BLKREFS
331
2BCD
102
}
  0
BLOCK_RECORD
  5
2FD1
330
1
100
AcDbSymbolTableRecord
100
AcDbBlockTableRecord
  2
*S27
340
0
102
{BLKREFS
331
330E
102
}
  0
BLOCK_RECORD
  5
2FD8
330
1
100
AcDbSymbolTableRecord
100
AcDbBlockTableRecord
  2
*S28
340
0
102
{BLKREFS
331
3319
102
}
  0
BLOCK_RECORD
  5
2FDF
330
1
100
AcDbSymbolTableRecord
100
AcDbBlockTableRecord
  2
*S29
340
0
102
{BLKREFS
331
333B
102
}
  0
BLOCK_RECORD
  5
333D
330
1
100
AcDbSymbolTableRecord
100
AcDbBlockTableRecord
  2
*D30
340
0
  0
BLOCK_RECORD
  5
3349
330
1
100
AcDbSymbolTableRecord
100
AcDbBlockTableRecord
  2
*D31
340
0
  0
BLOCK_RECORD
  5
3355
330
1
100
AcDbSymbolTableRecord
100
AcDbBlockTableRecord
  2
*D32
340
0
  0
BLOCK_RECORD
  5
3361
330
1
100
AcDbSymbolTableRecord
100
AcDbBlockTableRecord
  2
*D33
340
0
  0
BLOCK_RECORD
  5
336E
330
1
100
AcDbSymbolTableRecord
100
AcDbBlockTableRecord
  2
*D34
340
0
  0
BLOCK_RECORD
  5
337A
330
1
100
AcDbSymbolTableRecord
100
AcDbBlockTableRecord
  2
*D35
340
0
  0
BLOCK_RECORD
  5
3386
330
1
100
AcDbSymbolTableRecord
100
AcDbBlockTableRecord
  2
*D36
340
0
  0
BLOCK_RECORD
  5
3392
330
1
100
AcDbSymbolTableRecord
100
AcDbBlockTableRecord
  2
*D37
340
0
  0
BLOCK_RECORD
  5
339E
330
1
100
AcDbSymbolTableRecord
100
AcDbBlockTableRecord
  2
*D38
340
0
  0
BLOCK_RECORD
  5
33AA
330
1
100
AcDbSymbolTableRecord
100
AcDbBlockTableRecord
  2
*D39
340
0
  0
BLOCK_RECORD
  5
33B6
330
1
100
AcDbSymbolTableRecord
100
AcDbBlockTableRecord
  2
*D40
340
0
  0
BLOCK_RECORD
  5
33C2
330
1
100
AcDbSymbolTableRecord
100
AcDbBlockTableRecord
  2
*D41
340
0
  0
BLOCK_RECORD
  5
33CE
330
1
100
AcDbSymbolTableRecord
100
AcDbBlockTableRecord
  2
*D42
340
0
  0
BLOCK_RECORD
  5
33DA
330
1
100
AcDbSymbolTableRecord
100
AcDbBlockTableRecord
  2
*D43
340
0
  0
BLOCK_RECORD
  5
33E6
330
1
100
AcDbSymbolTableRecord
100
AcDbBlockTableRecord
  2
*D44
340
0
  0
BLOCK_RECORD
  5
33F1
330
1
100
AcDbSymbolTableRecord
100
AcDbBlockTableRecord
  2
*D45
340
0
  0
BLOCK_RECORD
  5
35F6
330
1
100
AcDbSymbolTableRecord
100
AcDbBlockTableRecord
  2
*D46
340
0
  0
BLOCK_RECORD
  5
3B4B
102
{ACAD_XDICTIONARY
360
3B4C
102
}
330
1
100
AcDbSymbolTableRecord
100
AcDbBlockTableRecord
  2
A$C1F6E6265
340
0
102
{BLKREFS
331
3B5E
331
3B61
102
}
  0
ENDTAB
  0
ENDSEC
  0
SECTION
  2
BLOCKS
  0
BLOCK
  5
29
330
1E
100
AcDbEntity
  8
0
100
AcDbBlockBegin
  2
*MODEL_SPACE
 70
     0
 10
0.0
 20
0.0
 30
0.0
  3
*MODEL_SPACE
  1

  0
ENDBLK
  5
2A
330
1E
100
AcDbEntity
  8
0
100
AcDbBlockEnd
  0
BLOCK
  5
27
330
1A
100
AcDbEntity
 67
     1
  8
0
100
AcDbBlockBegin
  2
*PAPER_SPACE
 70
     0
 10
0.0
 20
0.0
 30
0.0
  3
*PAPER_SPACE
  1

  0
ENDBLK
  5
28
330
1A
100
AcDbEntity
 67
     1
  8
0
100
AcDbBlockEnd
  0
BLOCK
  5
518
330
517
100
AcDbEntity
  8
0
100
AcDbBlockBegin
  2
AVE_RENDER
 70
     0
 10
0.0
 20
0.0
 30
0.0
  3
AVE_RENDER
  1
AVE_RENDER
  0
ENDBLK
  5
519
330
517
100
AcDbEntity
  8
0
100
AcDbBlockEnd
  0
BLOCK
  5
526
330
525
100
AcDbEntity
  8
0
100
AcDbBlockBegin
  2
AVE_GLOBAL
 70
     0
 10
0.0
 20
0.0
 30
0.0
  3
AVE_GLOBAL
  1
AVE_GLOBAL
  0
ENDBLK
  5
527
330
525
100
AcDbEntity
  8
0
100
AcDbBlockEnd
  0
BLOCK
  5
7EF
330
7ED
100
AcDbEntity
  8
0
100
AcDbBlockBegin
  2
GENAXEH
 70
     0
 10
0.0
 20
0.0
 30
0.0
  3
GENAXEH
  1

  0
LINE
  5
7EE
330
7ED
100
AcDbEntity
  8
0
100
AcDbLine
 10
-1.0
 20
0.0
 30
0.0
 11
1.0
 21
0.0
 31
0.0
  0
ENDBLK
  5
7F0
330
7ED
100
AcDbEntity
  8
0
100
AcDbBlockEnd
  0
BLOCK
  5
1227
330
121D
100
AcDbEntity
  8
0
100
AcDbBlockBegin
  2
*D3
 70
     1
 10
0.0
 20
0.0
 30
0.0
  3
*D3
  1

  0
LINE
  5
3A9C
330
121D
100
AcDbEntity
  8
AM_5
100
AcDbLine
 10
146.1574393037989
 20
57.91415931774929
 30
0.0
 11
107.2824138418195
 21
57.91415931774931
 31
0.0
  0
LINE
  5
3A9D
330
121D
100
AcDbEntity
  8
AM_5
100
AcDbLine
 10
146.1574393037989
 20
78.91415931774929
 30
0.0
 11
107.2824138418195
 21
78.91415931774929
 31
0.0
  0
LINE
  5
3A9E
330
121D
100
AcDbEntity
  8
AM_5
100
AcDbLine
 10
108.7824138418195
 20
60.91415931774931
 30
0.0
 11
108.7824138418195
 21
75.91415931774929
 31
0.0
  0
SOLID
  5
3A9F
330
121D
100
AcDbEntity
  8
AM_5
100
AcDbTrace
 10
108.2824138418195
 20
60.91415931774931
 30
0.0
 11
109.2824138418195
 21
60.91415931774931
 31
0.0
 12
108.7824138418195
 22
57.91415931774931
 32
0.0
 13
108.7824138418195
 23
57.91415931774931
 33
0.0
  0
SOLID
  5
3AA0
330
121D
100
AcDbEntity
  8
AM_5
100
AcDbTrace
 10
108.2824138418195
 20
75.91415931774929
 30
0.0
 11
109.2824138418195
 21
75.91415931774929
 31
0.0
 12
108.7824138418195
 22
78.91415931774929
 32
0.0
 13
108.7824138418195
 23
78.91415931774929
 33
0.0
  0
MTEXT
  5
3AA1
330
121D
100
AcDbEntity
  8
AM_5
100
AcDbMText
 10
106.482118566229
 20
68.41415931774932
 30
0.0
 40
3.0
 41
0.0
 71
     5
 72
     1
  1
21
 11
0.0000000000000001
 21
1.0
 31
0.0
 73
     1
 44
1.0
1001
ACAD
1000
MTEXTBEGIN
1070
    73
1070
     1
1070
    44
1040
1.0
1070
    74
1070
     0
1000
MTEXTEND
  0
POINT
  5
3AA2
330
121D
100
AcDbEntity
  8
DEFPOINTS
 62
     0
100
AcDbPoint
 10
147.1574393037989
 20
57.91415931774929
 30
0.0
  0
POINT
  5
3AA3
330
121D
100
AcDbEntity
  8
DEFPOINTS
 62
     0
100
AcDbPoint
 10
147.1574393037989
 20
78.91415931774929
 30
0.0
  0
POINT
  5
3AA4
330
121D
100
AcDbEntity
  8
DEFPOINTS
 62
     0
100
AcDbPoint
 10
108.7824138418195
 20
78.91415931774929
 30
0.0
  0
ENDBLK
  5
1228
330
121D
100
AcDbEntity
  8
0
100
AcDbBlockEnd
  0
BLOCK
  5
125C
330
1252
100
AcDbEntity
  8
0
100
AcDbBlockBegin
  2
*D4
 70
     1
 10
0.0
 20
0.0
 30
0.0
  3
*D4
  1

  0
LINE
  5
3AA5
330
1252
100
AcDbEntity
  8
AM_5
100
AcDbLine
 10
78.73426819218088
 20
27.71687519020463
 30
0.0
 11
94.13932545325764
 21
27.71687519020463
 31
0.0
  0
LINE
  5
3AA6
330
1252
100
AcDbEntity
  8
AM_5
100
AcDbLine
 10
78.73426819218088
 20
-2.283124809795367
 30
0.0
 11
94.13932545325764
 21
-2.283124809795372
 31
0.0
  0
LINE
  5
3AA7
330
1252
100
AcDbEntity
  8
AM_5
100
AcDbLine
 10
92.63932545325763
 20
24.71687519020463
 30
0.0
 11
92.63932545325763
 21
0.7168751902046284
 31
0.0
  0
SOLID
  5
3AA8
330
1252
100
AcDbEntity
  8
AM_5
100
AcDbTrace
 10
92.13932545325764
 20
24.71687519020463
 30
0.0
 11
93.13932545325764
 21
24.71687519020463
 31
0.0
 12
92.63932545325763
 22
27.71687519020463
 32
0.0
 13
92.63932545325763
 23
27.71687519020463
 33
0.0
  0
SOLID
  5
3AA9
330
1252
100
AcDbEntity
  8
AM_5
100
AcDbTrace
 10
92.13932545325764
 20
0.7168751902046285
 30
0.0
 11
93.13932545325764
 21
0.7168751902046282
 31
0.0
 12
92.63932545325763
 22
-2.283124809795371
 32
0.0
 13
92.63932545325763
 23
-2.283124809795371
 33
0.0
  0
MTEXT
  5
3AAA
330
1252
100
AcDbEntity
  8
AM_5
100
AcDbMText
 10
90.33932545325765
 20
12.71687519020464
 30
0.0
 40
3.0
 41
0.0
 71
     5
 72
     1
  1
30
 11
0.0000000000000001
 21
1.0
 31
0.0
 73
     1
 44
1.0
1001
ACAD
1000
MTEXTBEGIN
1070
    73
1070
     1
1070
    44
1040
1.0
1070
    74
1070
     0
1000
MTEXTEND
  0
POINT
  5
3AAB
330
1252
100
AcDbEntity
  8
DEFPOINTS
 62
     0
100
AcDbPoint
 10
77.73426819218087
 20
27.71687519020463
 30
0.0
  0
POINT
  5
3AAC
330
1252
100
AcDbEntity
  8
DEFPOINTS
 62
     0
100
AcDbPoint
 10
77.73426819218087
 20
-2.283124809795367
 30
0.0
  0
POINT
  5
3AAD
330
1252
100
AcDbEntity
  8
DEFPOINTS
 62
     0
100
AcDbPoint
 10
92.63932545325763
 20
-2.283124809795371
 30
0.0
  0
ENDBLK
  5
125D
330
1252
100
AcDbEntity
  8
0
100
AcDbBlockEnd
  0
BLOCK
  5
12D0
330
12C6
100
AcDbEntity
  8
0
100
AcDbBlockBegin
  2
*D5
 70
     1
 10
0.0
 20
0.0
 30
0.0
  3
*D5
  1

  0
LINE
  5
3AAE
330
12C6
100
AcDbEntity
  8
AM_5
100
AcDbLine
 10
142.7014393037989
 20
50.6641593177493
 30
0.0
 11
142.7014393037989
 21
43.18218022888674
 31
0.0
  0
LINE
  5
3AAF
330
12C6
100
AcDbEntity
  8
AM_5
100
AcDbLine
 10
154.7014393037989
 20
49.37015931774931
 30
0.0
 11
154.7014393037989
 21
43.18218022888674
 31
0.0
  0
LINE
  5
3AB0
330
12C6
100
AcDbEntity
  8
AM_5
100
AcDbLine
 10
145.7014393037989
 20
44.68218022888675
 30
0.0
 11
151.7014393037989
 21
44.68218022888675
 31
0.0
  0
INSERT
  5
3AB1
330
12C6
100
AcDbEntity
  8
AM_5
100
AcDbBlockReference
  2
GENDOT
 10
142.7014393037989
 20
44.68218022888675
 30
0.0
 41
3.0
 42
3.0
 43
3.0
 50
180.0
  0
SOLID
  5
3AB2
330
12C6
100
AcDbEntity
  8
AM_5
100
AcDbTrace
 10
151.7014393037989
 20
45.18218022888675
 30
0.0
 11
151.7014393037989
 21
44.18218022888675
 31
0.0
 12
154.7014393037989
 22
44.68218022888675
 32
0.0
 13
154.7014393037989
 23
44.68218022888675
 33
0.0
  0
MTEXT
  5
3AB3
330
12C6
100
AcDbEntity
  8
AM_5
100
AcDbMText
 10
148.7014393037989
 20
46.9824755044773
 30
0.0
 40
3.0
 41
0.0
 71
     5
 72
     1
  1
12
 73
     1
 44
1.0
1001
ACAD
1000
MTEXTBEGIN
1070
    73
1070
     1
1070
    44
1040
1.0
1070
    74
1070
     0
1000
MTEXTEND
  0
POINT
  5
3AB4
330
12C6
100
AcDbEntity
  8
DEFPOINTS
 62
     0
100
AcDbPoint
 10
142.7014393037989
 20
51.66415931774929
 30
0.0
  0
POINT
  5
3AB5
330
12C6
100
AcDbEntity
  8
DEFPOINTS
 62
     0
100
AcDbPoint
 10
154.7014393037989
 20
50.37015931774931
 30
0.0
  0
POINT
  5
3AB6
330
12C6
100
AcDbEntity
  8
DEFPOINTS
 62
     0
100
AcDbPoint
 10
154.7014393037989
 20
44.68218022888675
 30
0.0
  0
ENDBLK
  5
12D1
330
12C6
100
AcDbEntity
  8
0
100
AcDbBlockEnd
  0
BLOCK
  5
12F4
330
12EA
100
AcDbEntity
  8
0
100
AcDbBlockBegin
  2
*D6
 70
     1
 10
0.0
 20
0.0
 30
0.0
  3
*D6
  1

  0
LINE
  5
3AB7
330
12EA
100
AcDbEntity
  8
AM_5
100
AcDbLine
 10
142.7014393037989
 20
86.16415931774929
 30
0.0
 11
142.7014393037989
 21
94.5309875495476
 31
0.0
  0
LINE
  5
3AB8
330
12EA
100
AcDbEntity
  8
AM_5
100
AcDbLine
 10
164.7014393037989
 20
77.20815931774928
 30
0.0
 11
164.7014393037989
 21
94.5309875495476
 31
0.0
  0
LINE
  5
3AB9
330
12EA
100
AcDbEntity
  8
AM_5
100
AcDbLine
 10
145.7014393037989
 20
93.0309875495476
 30
0.0
 11
161.7014393037989
 21
93.0309875495476
 31
0.0
  0
SOLID
  5
3ABA
330
12EA
100
AcDbEntity
  8
AM_5
100
AcDbTrace
 10
145.7014393037989
 20
93.53098754954761
 30
0.0
 11
145.7014393037989
 21
92.53098754954761
 31
0.0
 12
142.7014393037989
 22
93.0309875495476
 32
0.0
 13
142.7014393037989
 23
93.0309875495476
 33
0.0
  0
SOLID
  5
3ABB
330
12EA
100
AcDbEntity
  8
AM_5
100
AcDbTrace
 10
161.7014393037989
 20
93.53098754954761
 30
0.0
 11
161.7014393037989
 21
92.53098754954761
 31
0.0
 12
164.7014393037989
 22
93.0309875495476
 32
0.0
 13
164.7014393037989
 23
93.0309875495476
 33
0.0
  0
MTEXT
  5
3ABC
330
12EA
100
AcDbEntity
  8
AM_5
100
AcDbMText
 10
153.7014393037989
 20
95.33128282513816
 30
0.0
 40
3.0
 41
0.0
 71
     5
 72
     1
  1
22
 73
     1
 44
1.0
1001
ACAD
1000
MTEXTBEGIN
1070
    73
1070
     1
1070
    44
1040
1.0
1070
    74
1070
     0
1000
MTEXTEND
  0
POINT
  5
3ABD
330
12EA
100
AcDbEntity
  8
DEFPOINTS
 62
     0
100
AcDbPoint
 10
142.7014393037989
 20
85.16415931774929
 30
0.0
  0
POINT
  5
3ABE
330
12EA
100
AcDbEntity
  8
DEFPOINTS
 62
     0
100
AcDbPoint
 10
164.7014393037989
 20
76.20815931774927
 30
0.0
  0
POINT
  5
3ABF
330
12EA
100
AcDbEntity
  8
DEFPOINTS
 62
     0
100
AcDbPoint
 10
164.7014393037989
 20
93.0309875495476
 30
0.0
  0
ENDBLK
  5
12F5
330
12EA
100
AcDbEntity
  8
0
100
AcDbBlockEnd
  0
BLOCK
  5
1378
330
136E
100
AcDbEntity
  8
0
100
AcDbBlockBegin
  2
*D7
 70
     1
 10
0.0
 20
0.0
 30
0.0
  3
*D7
  1

  0
LINE
  5
3AC0
330
136E
100
AcDbEntity
  8
AM_5
100
AcDbLine
 10
142.7014393037989
 20
50.6641593177493
 30
0.0
 11
142.7014393037989
 21
37.18218022888681
 31
0.0
  0
LINE
  5
3AC1
330
136E
100
AcDbEntity
  8
AM_5
100
AcDbLine
 10
171.7014393037989
 20
50.6641593177493
 30
0.0
 11
171.7014393037989
 21
37.18218022888681
 31
0.0
  0
LINE
  5
3AC2
330
136E
100
AcDbEntity
  8
AM_5
100
AcDbLine
 10
145.7014393037989
 20
38.68218022888681
 30
0.0
 11
168.7014393037989
 21
38.68218022888681
 31
0.0
  0
SOLID
  5
3AC3
330
136E
100
AcDbEntity
  8
AM_5
100
AcDbTrace
 10
145.7014393037989
 20
39.18218022888681
 30
0.0
 11
145.7014393037989
 21
38.18218022888681
 31
0.0
 12
142.7014393037989
 22
38.68218022888681
 32
0.0
 13
142.7014393037989
 23
38.68218022888681
 33
0.0
  0
SOLID
  5
3AC4
330
136E
100
AcDbEntity
  8
AM_5
100
AcDbTrace
 10
168.7014393037989
 20
39.18218022888681
 30
0.0
 11
168.7014393037989
 21
38.18218022888681
 31
0.0
 12
171.7014393037989
 22
38.68218022888681
 32
0.0
 13
171.7014393037989
 23
38.68218022888681
 33
0.0
  0
MTEXT
  5
3AC5
330
136E
100
AcDbEntity
  8
AM_5
100
AcDbMText
 10
157.2014393037989
 20
40.98247550447736
 30
0.0
 40
3.0
 41
0.0
 71
     5
 72
     1
  1
29
 73
     1
 44
1.0
1001
ACAD
1000
MTEXTBEGIN
1070
    73
1070
     1
1070
    44
1040
1.0
1070
    74
1070
     0
1000
MTEXTEND
  0
POINT
  5
3AC6
330
136E
100
AcDbEntity
  8
DEFPOINTS
 62
     0
100
AcDbPoint
 10
142.7014393037989
 20
51.66415931774929
 30
0.0
  0
POINT
  5
3AC7
330
136E
100
AcDbEntity
  8
DEFPOINTS
 62
     0
100
AcDbPoint
 10
171.7014393037989
 20
51.66415931774929
 30
0.0
  0
POINT
  5
3AC8
330
136E
100
AcDbEntity
  8
DEFPOINTS
 62
     0
100
AcDbPoint
 10
171.7014393037989
 20
38.68218022888681
 30
0.0
  0
ENDBLK
  5
1379
330
136E
100
AcDbEntity
  8
0
100
AcDbBlockEnd
  0
BLOCK
  5
139E
330
1392
100
AcDbEntity
  8
0
100
AcDbBlockBegin
  2
*D8
 70
     1
 10
0.0
 20
0.0
 30
0.0
  3
*D8
  1

  0
LINE
  5
3AC9
330
1392
100
AcDbEntity
  8
AM_5
100
AcDbLine
 10
142.7014393037989
 20
50.6641593177493
 30
0.0
 11
142.7014393037989
 21
43.18218022888674
 31
0.0
  0
LINE
  5
3ACA
330
1392
100
AcDbEntity
  8
AM_5
100
AcDbLine
 10
139.7014393037989
 20
57.91415931774929
 30
0.0
 11
139.7014393037989
 21
43.18218022888674
 31
0.0
  0
LINE
  5
3ACB
330
1392
100
AcDbEntity
  8
AM_5
100
AcDbLine
 10
145.7014393037989
 20
44.68218022888675
 30
0.0
 11
148.7014393037989
 21
44.68218022888675
 31
0.0
  0
LINE
  5
3ACC
330
1392
100
AcDbEntity
  8
AM_5
100
AcDbLine
 10
136.7014393037989
 20
44.68218022888675
 30
0.0
 11
133.7014393037989
 21
44.68218022888675
 31
0.0
  0
LINE
  5
3ACD
330
1392
100
AcDbEntity
  8
AM_5
100
AcDbLine
 10
142.7014393037989
 20
44.68218022888675
 30
0.0
 11
139.7014393037989
 21
44.68218022888675
 31
0.0
  0
INSERT
  5
3ACE
330
1392
100
AcDbEntity
  8
AM_5
100
AcDbBlockReference
  2
GENDOT
 10
142.7014393037989
 20
44.68218022888675
 30
0.0
 41
3.0
 42
3.0
 43
3.0
 50
180.0
  0
SOLID
  5
3ACF
330
1392
100
AcDbEntity
  8
AM_5
100
AcDbTrace
 10
136.7014393037989
 20
45.18218022888675
 30
0.0
 11
136.7014393037989
 21
44.18218022888675
 31
0.0
 12
139.7014393037989
 22
44.68218022888675
 32
0.0
 13
139.7014393037989
 23
44.68218022888675
 33
0.0
  0
MTEXT
  5
3AD0
330
1392
100
AcDbEntity
  8
AM_5
100
AcDbMText
 10
141.2014393037989
 20
46.98218022888674
 30
0.0
 40
3.0
 41
0.0
 71
     5
 72
     1
  1
3
 73
     1
 44
1.0
1001
ACAD
1000
MTEXTBEGIN
1070
    73
1070
     1
1070
    44
1040
1.0
1070
    74
1070
     0
1000
MTEXTEND
  0
POINT
  5
3AD1
330
1392
100
AcDbEntity
  8
DEFPOINTS
 62
     0
100
AcDbPoint
 10
142.7014393037989
 20
51.66415931774929
 30
0.0
  0
POINT
  5
3AD2
330
1392
100
AcDbEntity
  8
DEFPOINTS
 62
     0
100
AcDbPoint
 10
139.7014393037989
 20
58.91415931774929
 30
0.0
  0
POINT
  5
3AD3
330
1392
100
AcDbEntity
  8
DEFPOINTS
 62
     0
100
AcDbPoint
 10
139.7014393037989
 20
44.68218022888675
 30
0.0
  0
ENDBLK
  5
139F
330
1392
100
AcDbEntity
  8
0
100
AcDbBlockEnd
  0
BLOCK
  5
13C4
330
13BA
100
AcDbEntity
  8
0
100
AcDbBlockBegin
  2
*D9
 70
     1
 10
0.0
 20
0.0
 30
0.0
  3
*D9
  1

  0
LINE
  5
3AD4
330
13BA
100
AcDbEntity
  8
AM_5
100
AcDbLine
 10
115.7014393037989
 20
8.816875190204655
 30
0.0
 11
115.7014393037989
 21
-9.783124809795253
 31
0.0
  0
LINE
  5
3AD5
330
13BA
100
AcDbEntity
  8
AM_5
100
AcDbLine
 10
133.7014393037989
 20
7.716875190204632
 30
0.0
 11
133.7014393037989
 21
-9.783124809795253
 31
0.0
  0
LINE
  5
3AD6
330
13BA
100
AcDbEntity
  8
AM_5
100
AcDbLine
 10
118.7014393037989
 20
-8.283124809795253
 30
0.0
 11
130.7014393037989
 21
-8.283124809795253
 31
0.0
  0
SOLID
  5
3AD7
330
13BA
100
AcDbEntity
  8
AM_5
100
AcDbTrace
 10
118.7014393037989
 20
-7.783124809795253
 30
0.0
 11
118.7014393037989
 21
-8.783124809795253
 31
0.0
 12
115.7014393037989
 22
-8.283124809795253
 32
0.0
 13
115.7014393037989
 23
-8.283124809795253
 33
0.0
  0
SOLID
  5
3AD8
330
13BA
100
AcDbEntity
  8
AM_5
100
AcDbTrace
 10
130.7014393037989
 20
-7.783124809795253
 30
0.0
 11
130.7014393037989
 21
-8.783124809795253
 31
0.0
 12
133.7014393037989
 22
-8.283124809795253
 32
0.0
 13
133.7014393037989
 23
-8.283124809795253
 33
0.0
  0
MTEXT
  5
3AD9
330
13BA
100
AcDbEntity
  8
AM_5
100
AcDbMText
 10
124.7014393037989
 20
-5.983124809795254
 30
0.0
 40
3.0
 41
0.0
 71
     5
 72
     1
  1
18
 73
     1
 44
1.0
1001
ACAD
1000
MTEXTBEGIN
1070
    73
1070
     1
1070
    44
1040
1.0
1070
    74
1070
     0
1000
MTEXTEND
  0
POINT
  5
3ADA
330
13BA
100
AcDbEntity
  8
DEFPOINTS
 62
     0
100
AcDbPoint
 10
115.7014393037989
 20
9.816875190204655
 30
0.0
  0
POINT
  5
3ADB
330
13BA
100
AcDbEntity
  8
DEFPOINTS
 62
     0
100
AcDbPoint
 10
133.7014393037989
 20
8.716875190204632
 30
0.0
  0
POINT
  5
3ADC
330
13BA
100
AcDbEntity
  8
DEFPOINTS
 62
     0
100
AcDbPoint
 10
133.7014393037989
 20
-8.283124809795253
 30
0.0
  0
ENDBLK
  5
13C5
330
13BA
100
AcDbEntity
  8
0
100
AcDbBlockEnd
  0
BLOCK
  5
1484
330
147A
100
AcDbEntity
  8
0
100
AcDbBlockBegin
  2
*D10
 70
     1
 10
0.0
 20
0.0
 30
0.0
  3
*D10
  1

  0
LINE
  5
3ADD
330
147A
100
AcDbEntity
  8
AM_5
100
AcDbLine
 10
115.7014393037989
 20
8.816875190204655
 30
0.0
 11
115.7014393037989
 21
-15.78312480979519
 31
0.0
  0
LINE
  5
3ADE
330
147A
100
AcDbEntity
  8
AM_5
100
AcDbLine
 10
142.7014393037989
 20
-3.283124809795367
 30
0.0
 11
142.7014393037989
 21
-15.78312480979519
 31
0.0
  0
LINE
  5
3ADF
330
147A
100
AcDbEntity
  8
AM_5
100
AcDbLine
 10
118.7014393037989
 20
-14.2831248097952
 30
0.0
 11
139.7014393037989
 21
-14.2831248097952
 31
0.0
  0
SOLID
  5
3AE0
330
147A
100
AcDbEntity
  8
AM_5
100
AcDbTrace
 10
118.7014393037989
 20
-13.78312480979519
 30
0.0
 11
118.7014393037989
 21
-14.7831248097952
 31
0.0
 12
115.7014393037989
 22
-14.2831248097952
 32
0.0
 13
115.7014393037989
 23
-14.2831248097952
 33
0.0
  0
SOLID
  5
3AE1
330
147A
100
AcDbEntity
  8
AM_5
100
AcDbTrace
 10
139.7014393037989
 20
-13.78312480979519
 30
0.0
 11
139.7014393037989
 21
-14.7831248097952
 31
0.0
 12
142.7014393037989
 22
-14.2831248097952
 32
0.0
 13
142.7014393037989
 23
-14.2831248097952
 33
0.0
  0
MTEXT
  5
3AE2
330
147A
100
AcDbEntity
  8
AM_5
100
AcDbMText
 10
129.2014393037989
 20
-11.98282953420464
 30
0.0
 40
3.0
 41
0.0
 71
     5
 72
     1
  1
27
 73
     1
 44
1.0
1001
ACAD
1000
MTEXTBEGIN
1070
    73
1070
     1
1070
    44
1040
1.0
1070
    74
1070
     0
1000
MTEXTEND
  0
POINT
  5
3AE3
330
147A
100
AcDbEntity
  8
DEFPOINTS
 62
     0
100
AcDbPoint
 10
115.7014393037989
 20
9.816875190204655
 30
0.0
  0
POINT
  5
3AE4
330
147A
100
AcDbEntity
  8
DEFPOINTS
 62
     0
100
AcDbPoint
 10
142.7014393037989
 20
-2.283124809795367
 30
0.0
  0
POINT
  5
3AE5
330
147A
100
AcDbEntity
  8
DEFPOINTS
 62
     0
100
AcDbPoint
 10
142.7014393037989
 20
-14.2831248097952
 30
0.0
  0
ENDBLK
  5
1485
330
147A
100
AcDbEntity
  8
0
100
AcDbBlockEnd
  0
BLOCK
  5
14A8
330
149E
100
AcDbEntity
  8
0
100
AcDbBlockBegin
  2
*D11
 70
     1
 10
0.0
 20
0.0
 30
0.0
  3
*D11
  1

  0
LINE
  5
3AE6
330
149E
100
AcDbEntity
  8
AM_5
100
AcDbLine
 10
142.7014393037989
 20
-3.283124809795367
 30
0.0
 11
142.7014393037989
 21
-15.78312480979519
 31
0.0
  0
LINE
  5
3AE7
330
149E
100
AcDbEntity
  8
AM_5
100
AcDbLine
 10
218.7014393037989
 20
0.2168751902046324
 30
0.0
 11
218.7014393037989
 21
-15.78312480979519
 31
0.0
  0
LINE
  5
3AE8
330
149E
100
AcDbEntity
  8
AM_5
100
AcDbLine
 10
145.7014393037989
 20
-14.2831248097952
 30
0.0
 11
215.7014393037989
 21
-14.2831248097952
 31
0.0
  0
SOLID
  5
3AE9
330
149E
100
AcDbEntity
  8
AM_5
100
AcDbTrace
 10
145.7014393037989
 20
-13.78312480979519
 30
0.0
 11
145.7014393037989
 21
-14.7831248097952
 31
0.0
 12
142.7014393037989
 22
-14.2831248097952
 32
0.0
 13
142.7014393037989
 23
-14.2831248097952
 33
0.0
  0
SOLID
  5
3AEA
330
149E
100
AcDbEntity
  8
AM_5
100
AcDbTrace
 10
215.7014393037989
 20
-13.78312480979519
 30
0.0
 11
215.7014393037989
 21
-14.7831248097952
 31
0.0
 12
218.7014393037989
 22
-14.2831248097952
 32
0.0
 13
218.7014393037989
 23
-14.2831248097952
 33
0.0
  0
MTEXT
  5
3AEB
330
149E
100
AcDbEntity
  8
AM_5
100
AcDbMText
 10
180.7014393037989
 20
-11.98312480979519
 30
0.0
 40
3.0
 41
0.0
 71
     5
 72
     1
  1
76+stroke
 73
     1
 44
1.0
1001
ACAD
1000
MTEXTBEGIN
1070
    73
1070
     1
1070
    44
1040
1.0
1070
    74
1070
     0
1000
MTEXTEND
  0
POINT
  5
3AEC
330
149E
100
AcDbEntity
  8
DEFPOINTS
 62
     0
100
AcDbPoint
 10
142.7014393037989
 20
-2.283124809795367
 30
0.0
  0
POINT
  5
3AED
330
149E
100
AcDbEntity
  8
DEFPOINTS
 62
     0
100
AcDbPoint
 10
218.7014393037989
 20
1.216875190204632
 30
0.0
  0
POINT
  5
3AEE
330
149E
100
AcDbEntity
  8
DEFPOINTS
 62
     0
100
AcDbPoint
 10
218.7014393037989
 20
-14.2831248097952
 30
0.0
  0
ENDBLK
  5
14A9
330
149E
100
AcDbEntity
  8
0
100
AcDbBlockEnd
  0
BLOCK
  5
14CC
330
14C2
100
AcDbEntity
  8
0
100
AcDbBlockBegin
  2
*D12
 70
     1
 10
0.0
 20
0.0
 30
0.0
  3
*D12
  1

  0
LINE
  5
3AEF
330
14C2
100
AcDbEntity
  8
AM_5
100
AcDbLine
 10
115.7014393037989
 20
8.816875190204655
 30
0.0
 11
115.7014393037989
 21
-21.7831248097952
 31
0.0
  0
LINE
  5
3AF0
330
14C2
100
AcDbEntity
  8
AM_5
100
AcDbLine
 10
218.7014393037989
 20
0.2168751902046324
 30
0.0
 11
218.7014393037989
 21
-21.7831248097952
 31
0.0
  0
LINE
  5
3AF1
330
14C2
100
AcDbEntity
  8
AM_5
100
AcDbLine
 10
118.7014393037989
 20
-20.2831248097952
 30
0.0
 11
215.7014393037989
 21
-20.2831248097952
 31
0.0
  0
SOLID
  5
3AF2
330
14C2
100
AcDbEntity
  8
AM_5
100
AcDbTrace
 10
118.7014393037989
 20
-19.7831248097952
 30
0.0
 11
118.7014393037989
 21
-20.7831248097952
 31
0.0
 12
115.7014393037989
 22
-20.2831248097952
 32
0.0
 13
115.7014393037989
 23
-20.2831248097952
 33
0.0
  0
SOLID
  5
3AF3
330
14C2
100
AcDbEntity
  8
AM_5
100
AcDbTrace
 10
215.7014393037989
 20
-19.7831248097952
 30
0.0
 11
215.7014393037989
 21
-20.7831248097952
 31
0.0
 12
218.7014393037989
 22
-20.2831248097952
 32
0.0
 13
218.7014393037989
 23
-20.2831248097952
 33
0.0
  0
MTEXT
  5
3AF4
330
14C2
100
AcDbEntity
  8
AM_5
100
AcDbMText
 10
167.2014393037989
 20
-17.98312480979519
 30
0.0
 40
3.0
 41
0.0
 71
     5
 72
     1
  1
103+stroke
 73
     1
 44
1.0
1001
ACAD
1000
MTEXTBEGIN
1070
    73
1070
     1
1070
    44
1040
1.0
1070
    74
1070
     0
1000
MTEXTEND
  0
POINT
  5
3AF5
330
14C2
100
AcDbEntity
  8
DEFPOINTS
 62
     0
100
AcDbPoint
 10
115.7014393037989
 20
9.816875190204655
 30
0.0
  0
POINT
  5
3AF6
330
14C2
100
AcDbEntity
  8
DEFPOINTS
 62
     0
100
AcDbPoint
 10
218.7014393037989
 20
1.216875190204632
 30
0.0
  0
POINT
  5
3AF7
330
14C2
100
AcDbEntity
  8
DEFPOINTS
 62
     0
100
AcDbPoint
 10
218.7014393037989
 20
-20.2831248097952
 30
0.0
  0
ENDBLK
  5
14CD
330
14C2
100
AcDbEntity
  8
0
100
AcDbBlockEnd
  0
BLOCK
  5
14F0
330
14E6
100
AcDbEntity
  8
0
100
AcDbBlockBegin
  2
*D13
 70
     1
 10
0.0
 20
0.0
 30
0.0
  3
*D13
  1

  0
LINE
  5
3AF8
330
14E6
100
AcDbEntity
  8
AM_5
100
AcDbLine
 10
134.7014393037989
 20
16.71687519020463
 30
0.0
 11
138.1929741081974
 21
16.71687519020463
 31
0.0
  0
LINE
  5
3AF9
330
14E6
100
AcDbEntity
  8
AM_5
100
AcDbLine
 10
134.7014393037989
 20
8.716875190204632
 30
0.0
 11
138.1929741081974
 21
8.716875190204632
 31
0.0
  0
LINE
  5
3AFA
330
14E6
100
AcDbEntity
  8
AM_5
100
AcDbLine
 10
136.6929741081974
 20
11.71687519020463
 30
0.0
 11
136.6929741081974
 21
13.71687519020463
 31
0.0
  0
LINE
  5
3AFB
330
14E6
100
AcDbEntity
  8
AM_5
100
AcDbLine
 10
136.6929741081974
 20
16.71687519020463
 30
0.0
 11
136.6929741081974
 21
31.6494178268533
 31
0.0
  0
SOLID
  5
3AFC
330
14E6
100
AcDbEntity
  8
AM_5
100
AcDbTrace
 10
136.1929741081974
 20
11.71687519020463
 30
0.0
 11
137.1929741081974
 21
11.71687519020463
 31
0.0
 12
136.6929741081974
 22
8.716875190204632
 32
0.0
 13
136.6929741081974
 23
8.716875190204632
 33
0.0
  0
SOLID
  5
3AFD
330
14E6
100
AcDbEntity
  8
AM_5
100
AcDbTrace
 10
136.1929741081974
 20
13.71687519020463
 30
0.0
 11
137.1929741081974
 21
13.71687519020463
 31
0.0
 12
136.6929741081974
 22
16.71687519020463
 32
0.0
 13
136.6929741081974
 23
16.71687519020463
 33
0.0
  0
MTEXT
  5
3AFE
330
14E6
100
AcDbEntity
  8
AM_5
100
AcDbMText
 10
134.3929741081974
 20
28.89941782685332
 30
0.0
 40
3.0
 41
0.0
 71
     5
 72
     1
  1
%%c8
 11
0.0000000000000001
 21
1.0
 31
0.0
 73
     1
 44
1.0
1001
ACAD
1000
MTEXTBEGIN
1070
    73
1070
     1
1070
    44
1040
1.0
1070
    74
1070
     0
1000
MTEXTEND
  0
POINT
  5
3AFF
330
14E6
100
AcDbEntity
  8
DEFPOINTS
 62
     0
100
AcDbPoint
 10
133.7014393037989
 20
16.71687519020463
 30
0.0
  0
POINT
  5
3B00
330
14E6
100
AcDbEntity
  8
DEFPOINTS
 62
     0
100
AcDbPoint
 10
133.7014393037989
 20
8.716875190204632
 30
0.0
  0
POINT
  5
3B01
330
14E6
100
AcDbEntity
  8
DEFPOINTS
 62
     0
100
AcDbPoint
 10
136.6929741081974
 20
8.716875190204632
 30
0.0
  0
ENDBLK
  5
14F1
330
14E6
100
AcDbEntity
  8
0
100
AcDbBlockEnd
  0
BLOCK
  5
1514
330
150A
100
AcDbEntity
  8
0
100
AcDbBlockBegin
  2
*D14
 70
     1
 10
0.0
 20
0.0
 30
0.0
  3
*D14
  1

  0
LINE
  5
3B02
330
150A
100
AcDbEntity
  8
AM_5
100
AcDbLine
 10
139.2014393037989
 20
22.71687519020463
 30
0.0
 11
106.1527836721521
 21
22.71687519020464
 31
0.0
  0
LINE
  5
3B03
330
150A
100
AcDbEntity
  8
AM_5
100
AcDbLine
 10
139.2014393037989
 20
2.716875190204632
 30
0.0
 11
106.1527836721521
 21
2.716875190204642
 31
0.0
  0
LINE
  5
3B04
330
150A
100
AcDbEntity
  8
AM_5
100
AcDbLine
 10
107.6527836721521
 20
19.71687519020464
 30
0.0
 11
107.6527836721521
 21
5.716875190204641
 31
0.0
  0
SOLID
  5
3B05
330
150A
100
AcDbEntity
  8
AM_5
100
AcDbTrace
 10
107.1527836721521
 20
19.71687519020464
 30
0.0
 11
108.1527836721521
 21
19.71687519020464
 31
0.0
 12
107.6527836721521
 22
22.71687519020464
 32
0.0
 13
107.6527836721521
 23
22.71687519020464
 33
0.0
  0
SOLID
  5
3B06
330
150A
100
AcDbEntity
  8
AM_5
100
AcDbTrace
 10
107.1527836721521
 20
5.716875190204641
 30
0.0
 11
108.1527836721521
 21
5.716875190204641
 31
0.0
 12
107.6527836721521
 22
2.716875190204641
 32
0.0
 13
107.6527836721521
 23
2.716875190204641
 33
0.0
  0
MTEXT
  5
3B07
330
150A
100
AcDbEntity
  8
AM_5
100
AcDbMText
 10
104.4825813450822
 20
12.71687519020466
 30
0.0
 40
3.0
 41
0.0
 71
     5
 72
     1
  1
%%c20{\H2.130000;\S 0^ -0.033;}
 11
0.0000000000000001
 21
1.0
 31
0.0
 73
     1
 44
1.0
1001
ACAD
1000
MTEXTBEGIN
1070
    73
1070
     1
1070
    44
1040
1.0
1070
    74
1070
     0
1000
MTEXTEND
  0
POINT
  5
3B08
330
150A
100
AcDbEntity
  8
DEFPOINTS
 62
     0
100
AcDbPoint
 10
140.2014393037989
 20
22.71687519020463
 30
0.0
  0
POINT
  5
3B09
330
150A
100
AcDbEntity
  8
DEFPOINTS
 62
     0
100
AcDbPoint
 10
140.2014393037989
 20
2.716875190204632
 30
0.0
  0
POINT
  5
3B0A
330
150A
100
AcDbEntity
  8
DEFPOINTS
 62
     0
100
AcDbPoint
 10
107.6527836721521
 20
2.716875190204641
 30
0.0
  0
ENDBLK
  5
1515
330
150A
100
AcDbEntity
  8
0
100
AcDbBlockEnd
  0
BLOCK
  5
1673
330
1669
100
AcDbEntity
  8
0
100
AcDbBlockBegin
  2
*D15
 70
     1
 10
0.0
 20
0.0
 30
0.0
  3
*D15
  1

  0
LINE
  5
3B0B
330
1669
100
AcDbEntity
  8
AM_5
100
AcDbLine
 10
141.7014393037989
 20
85.16415931774929
 30
0.0
 11
99.42275562968717
 21
85.16415931774929
 31
0.0
  0
LINE
  5
3B0C
330
1669
100
AcDbEntity
  8
AM_5
100
AcDbLine
 10
141.7014393037989
 20
51.66415931774929
 30
0.0
 11
99.42275562968717
 21
51.6641593177493
 31
0.0
  0
LINE
  5
3B0D
330
1669
100
AcDbEntity
  8
AM_5
100
AcDbLine
 10
100.9227556296871
 20
82.1641593177493
 30
0.0
 11
100.9227556296871
 21
54.6641593177493
 31
0.0
  0
SOLID
  5
3B0E
330
1669
100
AcDbEntity
  8
AM_5
100
AcDbTrace
 10
100.4227556296871
 20
82.1641593177493
 30
0.0
 11
101.4227556296871
 21
82.1641593177493
 31
0.0
 12
100.9227556296871
 22
85.16415931774929
 32
0.0
 13
100.9227556296871
 23
85.16415931774929
 33
0.0
  0
SOLID
  5
3B0F
330
1669
100
AcDbEntity
  8
AM_5
100
AcDbTrace
 10
100.4227556296871
 20
54.6641593177493
 30
0.0
 11
101.4227556296871
 21
54.6641593177493
 31
0.0
 12
100.9227556296871
 22
51.6641593177493
 32
0.0
 13
100.9227556296871
 23
51.6641593177493
 33
0.0
  0
MTEXT
  5
3B10
330
1669
100
AcDbEntity
  8
AM_5
100
AcDbMText
 10
98.62275562968717
 20
68.41415931774932
 30
0.0
 40
3.0
 41
0.0
 71
     5
 72
     1
  1
33.5
 11
0.0000000000000001
 21
1.0
 31
0.0
 73
     1
 44
1.0
1001
ACAD
1000
MTEXTBEGIN
1070
    73
1070
     1
1070
    44
1040
1.0
1070
    74
1070
     0
1000
MTEXTEND
  0
POINT
  5
3B11
330
1669
100
AcDbEntity
  8
DEFPOINTS
 62
     0
100
AcDbPoint
 10
142.7014393037989
 20
85.16415931774929
 30
0.0
  0
POINT
  5
3B12
330
1669
100
AcDbEntity
  8
DEFPOINTS
 62
     0
100
AcDbPoint
 10
142.7014393037989
 20
51.66415931774929
 30
0.0
  0
POINT
  5
3B13
330
1669
100
AcDbEntity
  8
DEFPOINTS
 62
     0
100
AcDbPoint
 10
100.9227556296871
 20
51.6641593177493
 30
0.0
  0
ENDBLK
  5
1674
330
1669
100
AcDbEntity
  8
0
100
AcDbBlockEnd
  0
BLOCK
  5
16A4
330
169A
100
AcDbEntity
  8
0
100
AcDbBlockBegin
  2
*D16
 70
     1
 10
0.0
 20
0.0
 30
0.0
  3
*D16
  1

  0
LINE
  5
3B14
330
169A
100
AcDbEntity
  8
AM_5
100
AcDbLine
 10
78.73426819218088
 20
-2.283124809795367
 30
0.0
 11
88.13932545325764
 21
-2.28312480979537
 31
0.0
  0
LINE
  5
3B15
330
169A
100
AcDbEntity
  8
AM_5
100
AcDbLine
 10
82.08466948087931
 20
12.71687519020463
 30
0.0
 11
88.13932545325764
 21
12.71687519020463
 31
0.0
  0
LINE
  5
3B16
330
169A
100
AcDbEntity
  8
AM_5
100
AcDbLine
 10
86.63932545325764
 20
0.7168751902046301
 30
0.0
 11
86.63932545325764
 21
9.71687519020463
 31
0.0
  0
SOLID
  5
3B17
330
169A
100
AcDbEntity
  8
AM_5
100
AcDbTrace
 10
86.13932545325765
 20
0.7168751902046302
 30
0.0
 11
87.13932545325764
 21
0.71687519020463
 31
0.0
 12
86.63932545325764
 22
-2.283124809795369
 32
0.0
 13
86.63932545325764
 23
-2.283124809795369
 33
0.0
  0
SOLID
  5
3B18
330
169A
100
AcDbEntity
  8
AM_5
100
AcDbTrace
 10
86.13932545325765
 20
9.71687519020463
 30
0.0
 11
87.13932545325764
 21
9.71687519020463
 31
0.0
 12
86.63932545325764
 22
12.71687519020463
 32
0.0
 13
86.63932545325764
 23
12.71687519020463
 33
0.0
  0
MTEXT
  5
3B19
330
169A
100
AcDbEntity
  8
AM_5
100
AcDbMText
 10
84.33932545325765
 20
5.216875190204644
 30
0.0
 40
3.0
 41
0.0
 71
     5
 72
     1
  1
15
 11
0.0000000000000001
 21
1.0
 31
0.0
 73
     1
 44
1.0
1001
ACAD
1000
MTEXTBEGIN
1070
    73
1070
     1
1070
    44
1040
1.0
1070
    74
1070
     0
1000
MTEXTEND
  0
POINT
  5
3B1A
330
169A
100
AcDbEntity
  8
DEFPOINTS
 62
     0
100
AcDbPoint
 10
77.73426819218087
 20
-2.283124809795367
 30
0.0
  0
POINT
  5
3B1B
330
169A
100
AcDbEntity
  8
DEFPOINTS
 62
     0
100
AcDbPoint
 10
81.08466948087931
 20
12.71687519020463
 30
0.0
  0
POINT
  5
3B1C
330
169A
100
AcDbEntity
  8
DEFPOINTS
 62
     0
100
AcDbPoint
 10
86.63932545325764
 20
12.71687519020463
 30
0.0
  0
ENDBLK
  5
16A5
330
169A
100
AcDbEntity
  8
0
100
AcDbBlockEnd
  0
BLOCK
  5
18EC
330
18E9
100
AcDbEntity
  8
0
100
AcDbBlockBegin
  2
GENDOT
 70
     0
 10
0.0
 20
0.0
 30
0.0
  3
GENDOT
  1

  0
LINE
  5
18EA
330
18E9
100
AcDbEntity
  8
0
100
AcDbLine
 10
0.0
 20
0.0
 30
0.0
 11
-1.0
 21
0.0
 31
0.0
  0
LWPOLYLINE
  5
18EB
330
18E9
100
AcDbEntity
  8
0
100
AcDbPolyline
 90
        2
 70
     1
 43
0.25
 10
-0.125
 20
0.0
 42
1.0
 10
0.125
 20
0.0
 42
1.0
  0
ENDBLK
  5
18ED
330
18E9
100
AcDbEntity
  8
0
100
AcDbBlockEnd
  0
BLOCK
  5
1AEE
330
1AE4
100
AcDbEntity
  8
0
100
AcDbBlockBegin
  2
*D18
 70
     1
 10
0.0
 20
0.0
 30
0.0
  3
*D18
  1

  0
LINE
  5
3B1D
330
1AE4
100
AcDbEntity
  8
AM_5
100
AcDbLine
 10
218.7014393037989
 20
80.9141593177493
 30
0.0
 11
218.7014393037989
 21
88.5668541540498
 31
0.0
  0
LINE
  5
3B1E
330
1AE4
100
AcDbEntity
  8
AM_5
100
AcDbLine
 10
210.7014393037989
 20
76.20815931774945
 30
0.0
 11
210.7014393037989
 21
88.5668541540498
 31
0.0
  0
LINE
  5
3B1F
330
1AE4
100
AcDbEntity
  8
AM_5
100
AcDbLine
 10
215.7014393037989
 20
87.06685415404979
 30
0.0
 11
213.7014393037989
 21
87.06685415404979
 31
0.0
  0
SOLID
  5
3B20
330
1AE4
100
AcDbEntity
  8
AM_5
100
AcDbTrace
 10
215.7014393037989
 20
87.56685415404978
 30
0.0
 11
215.7014393037989
 21
86.56685415404979
 31
0.0
 12
218.7014393037989
 22
87.06685415404979
 32
0.0
 13
218.7014393037989
 23
87.06685415404979
 33
0.0
  0
SOLID
  5
3B21
330
1AE4
100
AcDbEntity
  8
AM_5
100
AcDbTrace
 10
213.7014393037989
 20
87.56685415404978
 30
0.0
 11
213.7014393037989
 21
86.56685415404979
 31
0.0
 12
210.7014393037989
 22
87.06685415404979
 32
0.0
 13
210.7014393037989
 23
87.06685415404979
 33
0.0
  0
MTEXT
  5
3B22
330
1AE4
100
AcDbEntity
  8
AM_5
100
AcDbMText
 10
214.7014393037989
 20
89.36685415404978
 30
0.0
 40
3.0
 41
0.0
 71
     5
 72
     1
  1
8
 73
     1
 44
1.0
1001
ACAD
1000
MTEXTBEGIN
1070
    73
1070
     1
1070
    44
1040
1.0
1070
    74
1070
     0
1000
MTEXTEND
  0
POINT
  5
3B23
330
1AE4
100
AcDbEntity
  8
DEFPOINTS
 62
     0
100
AcDbPoint
 10
218.7014393037989
 20
79.9141593177493
 30
0.0
  0
POINT
  5
3B24
330
1AE4
100
AcDbEntity
  8
DEFPOINTS
 62
     0
100
AcDbPoint
 10
210.7014393037989
 20
75.20815931774945
 30
0.0
  0
POINT
  5
3B25
330
1AE4
100
AcDbEntity
  8
DEFPOINTS
 62
     0
100
AcDbPoint
 10
210.7014393037989
 20
87.06685415404979
 30
0.0
  0
ENDBLK
  5
1AEF
330
1AE4
100
AcDbEntity
  8
0
100
AcDbBlockEnd
  0
BLOCK
  5
1DAF
330
1DA5
100
AcDbEntity
  8
0
100
AcDbBlockBegin
  2
*D19
 70
     1
 10
0.0
 20
0.0
 30
0.0
  3
*D19
  1

  0
LINE
  5
3B26
330
1DA5
100
AcDbEntity
  8
AM_5
100
AcDbLine
 10
115.7014393037989
 20
8.816875190204655
 30
0.0
 11
115.7014393037989
 21
-4.683124809795344
 31
0.0
  0
LINE
  5
3B27
330
1DA5
100
AcDbEntity
  8
AM_5
100
AcDbLine
 10
131.2014393037989
 20
7.816875190204655
 30
0.0
 11
131.2014393037989
 21
-4.683124809795344
 31
0.0
  0
LINE
  5
3B28
330
1DA5
100
AcDbEntity
  8
AM_5
100
AcDbLine
 10
118.7014393037989
 20
-3.183124809795344
 30
0.0
 11
128.2014393037989
 21
-3.183124809795344
 31
0.0
  0
SOLID
  5
3B29
330
1DA5
100
AcDbEntity
  8
AM_5
100
AcDbTrace
 10
118.7014393037989
 20
-2.683124809795344
 30
0.0
 11
118.7014393037989
 21
-3.683124809795344
 31
0.0
 12
115.7014393037989
 22
-3.183124809795344
 32
0.0
 13
115.7014393037989
 23
-3.183124809795344
 33
0.0
  0
SOLID
  5
3B2A
330
1DA5
100
AcDbEntity
  8
AM_5
100
AcDbTrace
 10
128.2014393037989
 20
-2.683124809795344
 30
0.0
 11
128.2014393037989
 21
-3.683124809795344
 31
0.0
 12
131.2014393037989
 22
-3.183124809795344
 32
0.0
 13
131.2014393037989
 23
-3.183124809795344
 33
0.0
  0
MTEXT
  5
3B2B
330
1DA5
100
AcDbEntity
  8
AM_5
100
AcDbMText
 10
123.4514393037989
 20
-0.883124809795345
 30
0.0
 40
3.0
 41
0.0
 71
     5
 72
     1
  1
15.5
 73
     1
 44
1.0
1001
ACAD
1000
MTEXTBEGIN
1070
    73
1070
     1
1070
    44
1040
1.0
1070
    74
1070
     0
1000
MTEXTEND
  0
POINT
  5
3B2C
330
1DA5
100
AcDbEntity
  8
DEFPOINTS
 62
     0
100
AcDbPoint
 10
115.7014393037989
 20
9.816875190204655
 30
0.0
  0
POINT
  5
3B2D
330
1DA5
100
AcDbEntity
  8
DEFPOINTS
 62
     0
100
AcDbPoint
 10
131.2014393037989
 20
8.816875190204655
 30
0.0
  0
POINT
  5
3B2E
330
1DA5
100
AcDbEntity
  8
DEFPOINTS
 62
     0
100
AcDbPoint
 10
131.2014393037989
 20
-3.183124809795344
 30
0.0
  0
ENDBLK
  5
1DB0
330
1DA5
100
AcDbEntity
  8
0
100
AcDbBlockEnd
  0
BLOCK
  5
26C2
330
26B9
100
AcDbEntity
  8
0
100
AcDbBlockBegin
  2
*D20
 70
     1
 10
0.0
 20
0.0
 30
0.0
  3
*D20
  1

  0
LINE
  5
3B2F
330
26B9
100
AcDbEntity
  8
AM_5
100
AcDbLine
 10
254.5748576346798
 20
4.177981097536459
 30
0.0
 11
268.4438572632319
 21
21.25576928287309
 31
0.0
  0
LINE
  5
3B30
330
26B9
100
AcDbEntity
  8
AM_5
100
AcDbLine
 10
270.3350844853072
 20
23.58455858087355
 30
0.0
 11
275.5816249337154
 21
30.04496011547722
 31
0.0
  0
LINE
  5
3B31
330
26B9
100
AcDbEntity
  8
AM_5
100
AcDbLine
 10
275.5816249337154
 20
30.04496011547722
 30
0.0
 11
282.3816249337154
 21
30.04496011547722
 31
0.0
  0
SOLID
  5
3B32
330
26B9
100
AcDbEntity
  8
AM_5
100
AcDbTrace
 10
254.1867260850131
 20
4.493185634549007
 30
0.0
 11
254.9629891843465
 21
3.862776560523911
 31
0.0
 12
252.6836304126045
 22
1.849191799536015
 32
0.0
 13
252.6836304126045
 23
1.849191799536015
 33
0.0
  0
SOLID
  5
3B33
330
26B9
100
AcDbEntity
  8
AM_5
100
AcDbTrace
 10
268.0557257135652
 20
21.57097381988564
 30
0.0
 11
268.8319888128987
 21
20.94056474586054
 31
0.0
 12
270.3350844853072
 22
23.58455858087355
 32
0.0
 13
270.3350844853072
 23
23.58455858087355
 33
0.0
  0
MTEXT
  5
3B34
330
26B9
100
AcDbEntity
  8
AM_5
100
AcDbMText
 10
279.3816249337153
 20
32.34525539106782
 30
0.0
 40
3.0
 41
0.0
 71
     5
 72
     1
  1
\U+220528
 73
     1
 44
1.0
1001
ACAD
1000
MTEXTBEGIN
1070
    73
1070
     1
1070
    44
1040
1.0
1070
    74
1070
     0
1000
MTEXTEND
  0
POINT
  5
3B35
330
26B9
100
AcDbEntity
  8
DEFPOINTS
 62
     0
100
AcDbPoint
 10
270.3350844853072
 20
23.58455858087355
 30
0.0
  0
POINT
  5
3B36
330
26B9
100
AcDbEntity
  8
DEFPOINTS
 62
     0
100
AcDbPoint
 10
252.6836304126045
 20
1.849191799536015
 30
0.0
  0
ENDBLK
  5
26C3
330
26B9
100
AcDbEntity
  8
0
100
AcDbBlockEnd
  0
BLOCK
  5
26F8
330
26EE
100
AcDbEntity
  8
0
100
AcDbBlockBegin
  2
*D21
 70
     1
 10
0.0
 20
0.0
 30
0.0
  3
*D21
  1

  0
LINE
  5
3B37
330
26EE
100
AcDbEntity
  8
AM_5
100
AcDbLine
 10
249.5093574489557
 20
4.505772639276642
 30
0.0
 11
249.5093574489557
 21
-12.02056514596961
 31
0.0
  0
LINE
  5
3B38
330
26EE
100
AcDbEntity
  8
AM_5
100
AcDbLine
 10
273.5093574489557
 20
4.505772639276642
 30
0.0
 11
273.5093574489557
 21
-12.02056514596961
 31
0.0
  0
LINE
  5
3B39
330
26EE
100
AcDbEntity
  8
AM_5
100
AcDbLine
 10
252.5093574489557
 20
-10.52056514596961
 30
0.0
 11
270.5093574489557
 21
-10.52056514596961
 31
0.0
  0
SOLID
  5
3B3A
330
26EE
100
AcDbEntity
  8
AM_5
100
AcDbTrace
 10
252.5093574489557
 20
-10.02056514596961
 30
0.0
 11
252.5093574489557
 21
-11.02056514596961
 31
0.0
 12
249.5093574489557
 22
-10.52056514596961
 32
0.0
 13
249.5093574489557
 23
-10.52056514596961
 33
0.0
  0
SOLID
  5
3B3B
330
26EE
100
AcDbEntity
  8
AM_5
100
AcDbTrace
 10
270.5093574489557
 20
-10.02056514596961
 30
0.0
 11
270.5093574489557
 21
-11.02056514596961
 31
0.0
 12
273.5093574489557
 22
-10.52056514596961
 32
0.0
 13
273.5093574489557
 23
-10.52056514596961
 33
0.0
  0
MTEXT
  5
3B3C
330
26EE
100
AcDbEntity
  8
AM_5
100
AcDbMText
 10
261.5093574489557
 20
-8.220269870379061
 30
0.0
 40
3.0
 41
0.0
 71
     5
 72
     1
  1
{\Famgdt|c136;o}24
 73
     1
 44
1.0
1001
ACAD
1000
MTEXTBEGIN
1070
    73
1070
     1
1070
    44
1040
1.0
1070
    74
1070
     0
1000
MTEXTEND
  0
POINT
  5
3B3D
330
26EE
100
AcDbEntity
  8
DEFPOINTS
 62
     0
100
AcDbPoint
 10
249.5093574489557
 20
5.505772639276642
 30
0.0
  0
POINT
  5
3B3E
330
26EE
100
AcDbEntity
  8
DEFPOINTS
 62
     0
100
AcDbPoint
 10
273.5093574489557
 20
5.505772639276642
 30
0.0
  0
POINT
  5
3B3F
330
26EE
100
AcDbEntity
  8
DEFPOINTS
 62
     0
100
AcDbPoint
 10
273.5093574489557
 20
-10.52056514596961
 30
0.0
  0
ENDBLK
  5
26F9
330
26EE
100
AcDbEntity
  8
0
100
AcDbBlockEnd
  0
BLOCK
  5
2BBD
330
2BB3
100
AcDbEntity
  8
0
100
AcDbBlockBegin
  2
*D22
 70
     1
 10
0.0
 20
0.0
 30
0.0
  3
*D22
  1

  0
LINE
  5
3B40
330
2BB3
100
AcDbEntity
  8
AM_5
100
AcDbLine
 10
218.7014393037989
 20
55.91415931774929
 30
0.0
 11
218.7014393037989
 21
48.39597070468176
 31
0.0
  0
LINE
  5
3B41
330
2BB3
100
AcDbEntity
  8
AM_5
100
AcDbLine
 10
203.7014393037989
 20
55.91415931774929
 30
0.0
 11
203.7014393037989
 21
48.39597070468176
 31
0.0
  0
LINE
  5
3B42
330
2BB3
100
AcDbEntity
  8
AM_5
100
AcDbLine
 10
215.7014393037989
 20
49.89597070468176
 30
0.0
 11
206.7014393037989
 21
49.89597070468176
 31
0.0
  0
SOLID
  5
3B43
330
2BB3
100
AcDbEntity
  8
AM_5
100
AcDbTrace
 10
215.7014393037989
 20
50.39597070468175
 30
0.0
 11
215.7014393037989
 21
49.39597070468176
 31
0.0
 12
218.7014393037989
 22
49.89597070468176
 32
0.0
 13
218.7014393037989
 23
49.89597070468176
 33
0.0
  0
SOLID
  5
3B44
330
2BB3
100
AcDbEntity
  8
AM_5
100
AcDbTrace
 10
206.7014393037989
 20
50.39597070468175
 30
0.0
 11
206.7014393037989
 21
49.39597070468176
 31
0.0
 12
203.7014393037989
 22
49.89597070468176
 32
0.0
 13
203.7014393037989
 23
49.89597070468176
 33
0.0
  0
MTEXT
  5
3B45
330
2BB3
100
AcDbEntity
  8
AM_5
100
AcDbMText
 10
211.2014393037989
 20
52.19597070468175
 30
0.0
 40
3.0
 41
0.0
 71
     5
 72
     1
  1
15
 73
     1
 44
1.0
1001
ACAD
1000
MTEXTBEGIN
1070
    73
1070
     1
1070
    44
1040
1.0
1070
    74
1070
     0
1000
MTEXTEND
  0
POINT
  5
3B46
330
2BB3
100
AcDbEntity
  8
DEFPOINTS
 62
     0
100
AcDbPoint
 10
218.7014393037989
 20
56.9141593177493
 30
0.0
  0
POINT
  5
3B47
330
2BB3
100
AcDbEntity
  8
DEFPOINTS
 62
     0
100
AcDbPoint
 10
203.7014393037989
 20
56.9141593177493
 30
0.0
  0
POINT
  5
3B48
330
2BB3
100
AcDbEntity
  8
DEFPOINTS
 62
     0
100
AcDbPoint
 10
203.7014393037989
 20
49.89597070468176
 30
0.0
  0
ENDBLK
  5
2BBE
330
2BB3
100
AcDbEntity
  8
0
100
AcDbBlockEnd
  0
BLOCK
  5
2DAF
330
2DAA
100
AcDbEntity
  8
0
100
AcDbBlockBegin
  2
*S23
 70
     1
 10
0.0
 20
0.0
 30
0.0
  3
*S23
  1

  0
LINE
  5
2DAB
330
2DAA
100
AcDbEntity
  8
AM_5
100
AcDbLine
 10
89.96404442861011
 20
34.57516185265991
 30
0.0
 11
103.7191932141848
 21
34.57516185265991
 31
0.0
  0
LINE
  5
2DAC
330
2DAA
100
AcDbEntity
  8
AM_5
100
AcDbLine
 10
103.7191932141848
 20
34.57516185265991
 30
0.0
 11
111.0957494469215
 21
26.1954317906106
 31
0.0
  0
TRACE
  5
2DAD
330
2DAA
100
AcDbEntity
  8
AM_5
100
AcDbTrace
 10
110.7498818696447
 20
25.89096952106597
 30
0.0
 11
111.4416170241983
 21
26.49989406015523
 31
0.0
 12
113.408369993303
 22
23.56830670633042
 32
0.0
 13
113.408369993303
 23
23.56830670633042
 33
0.0
  0
MTEXT
  5
2DAE
330
2DAA
100
AcDbEntity
  8
AM_5
 62
     2
100
AcDbMText
 10
89.96404442861011
 20
31.08164926872155
 30
0.0
 40
3.5
 41
0.0
 71
     9
 72
     5
  1

  7
ACISOTS
 73
     1
 44
1.0
1001
ACAD
1000
MTEXTBEGIN
1070
    73
1070
     1
1070
    44
1040
1.0
1070
    74
1070
     0
1000
MTEXTEND
  0
ENDBLK
  5
2DB0
330
2DAA
100
AcDbEntity
  8
0
100
AcDbBlockEnd
  0
BLOCK
  5
2DB7
330
2DB2
100
AcDbEntity
  8
0
100
AcDbBlockBegin
  2
*S24
 70
     1
 10
0.0
 20
0.0
 30
0.0
  3
*S24
  1

  0
LINE
  5
2DB3
330
2DB2
100
AcDbEntity
  8
AM_5
100
AcDbLine
 10
184.0606800978637
 20
98.79613909937711
 30
0.0
 11
165.4546631606202
 21
98.79613909937711
 31
0.0
  0
LINE
  5
2DB4
330
2DB2
100
AcDbEntity
  8
AM_5
100
AcDbLine
 10
165.4546631606202
 20
98.79613909937711
 30
0.0
 11
155.9633202242899
 21
91.2247374045163
 31
0.0
  0
TRACE
  5
2DB5
330
2DB2
100
AcDbEntity
  8
AM_5
100
AcDbTrace
 10
155.675972716729
 20
91.58494993134754
 30
0.0
 11
156.2506677318508
 21
90.86452487768506
 31
0.0
 12
153.2272344299488
 22
89.04211638244111
 32
0.0
 13
153.2272344299488
 23
89.04211638244111
 33
0.0
  0
MTEXT
  5
2DB6
330
2DB2
100
AcDbEntity
  8
AM_5
 62
     2
100
AcDbMText
 10
184.0606800978637
 20
95.30262651543877
 30
0.0
 40
3.5
 41
0.0
 71
     9
 72
     5
  1

  7
ACISOTS
210
0.0
220
0.0
230
-1.0
 11
-1.0
 21
0.0
 31
0.0
 73
     1
 44
1.0
1001
ACAD
1000
MTEXTBEGIN
1070
    73
1070
     1
1070
    44
1040
1.0
1070
    74
1070
     0
1000
MTEXTEND
  0
ENDBLK
  5
2DB8
330
2DB2
100
AcDbEntity
  8
0
100
AcDbBlockEnd
  0
BLOCK
  5
2DC8
330
2DC3
100
AcDbEntity
  8
0
100
AcDbBlockBegin
  2
*S25
 70
     1
 10
0.0
 20
0.0
 30
0.0
  3
*S25
  1

  0
LINE
  5
2DC4
330
2DC3
100
AcDbEntity
  8
AM_5
100
AcDbLine
 10
189.8549215024004
 20
53.56170003270108
 30
0.0
 11
173.9892711664314
 21
53.56170003270108
 31
0.0
  0
LINE
  5
2DC5
330
2DC3
100
AcDbEntity
  8
AM_5
100
AcDbLine
 10
173.9892711664314
 20
53.56170003270108
 30
0.0
 11
165.2347351544128
 21
68.66810649247442
 31
0.0
  0
TRACE
  5
2DC6
330
2DC3
100
AcDbEntity
  8
AM_5
100
AcDbTrace
 10
165.6334096704687
 20
68.89914823077129
 30
0.0
 11
164.836060638357
 21
68.43706475417755
 31
0.0
 12
163.4797989127032
 22
71.69634010095546
 32
0.0
 13
163.4797989127032
 23
71.69634010095546
 33
0.0
  0
MTEXT
  5
2DC7
330
2DC3
100
AcDbEntity
  8
AM_5
 62
     2
100
AcDbMText
 10
189.8549215024004
 20
52.06702585901189
 30
0.0
 40
3.5
 41
0.0
 71
     9
 72
     5
  1

  7
ACISOTS
210
0.0
220
0.0
230
-1.0
 11
-1.0
 21
0.0
 31
0.0
 73
     1
 44
1.0
1001
ACAD
1000
MTEXTBEGIN
1070
    73
1070
     1
1070
    44
1040
1.0
1070
    74
1070
     0
1000
MTEXTEND
  0
ENDBLK
  5
2DC9
330
2DC3
100
AcDbEntity
  8
0
100
AcDbBlockEnd
  0
BLOCK
  5
2FD2
330
2FD1
100
AcDbEntity
  8
0
100
AcDbBlockBegin
  2
*S27
 70
     1
 10
0.0
 20
0.0
 30
0.0
  3
*S27
  1

  0
LINE
  5
2FD3
330
2FD1
100
AcDbEntity
  8
AM_5
100
AcDbLine
 10
89.96404442861011
 20
32.64885828077328
 30
0.0
 11
103.7191932141848
 21
32.64885828077328
 31
0.0
  0
LINE
  5
2FD4
330
2FD1
100
AcDbEntity
  8
AM_5
100
AcDbLine
 10
103.7191932141848
 20
32.64885828077328
 30
0.0
 11
111.4963019661551
 21
24.47176030337414
 31
0.0
  0
TRACE
  5
2FD5
330
2FD1
100
AcDbEntity
  8
AM_5
100
AcDbTrace
 10
111.1624148338673
 20
24.15420552466624
 30
0.0
 11
111.8301890984429
 21
24.78931508208204
 31
0.0
 12
113.9083699933031
 22
21.93563573379751
 32
0.0
 13
113.9083699933031
 23
21.93563573379751
 33
0.0
  0
MTEXT
  5
2FD6
330
2FD1
100
AcDbEntity
  8
AM_5
 62
     2
100
AcDbMText
 10
89.96404442861011
 20
29.15534569683493
 30
0.0
 40
3.5
 41
0.0
 71
     9
 72
     5
  1

  7
ACISOTS
 73
     1
 44
1.0
1001
ACAD
1000
MTEXTBEGIN
1070
    73
1070
     1
1070
    44
1040
1.0
1070
    74
1070
     0
1000
MTEXTEND
  0
ENDBLK
  5
2FD7
330
2FD1
100
AcDbEntity
  8
0
100
AcDbBlockEnd
  0
BLOCK
  5
2FD9
330
2FD8
100
AcDbEntity
  8
0
100
AcDbBlockBegin
  2
*S28
 70
     1
 10
0.0
 20
0.0
 30
0.0
  3
*S28
  1

  0
LINE
  5
2FDA
330
2FD8
100
AcDbEntity
  8
AM_5
100
AcDbLine
 10
73.54786241853389
 20
38.84775001043167
 30
0.0
 11
48.60315053494094
 21
38.84775001043167
 31
0.0
  0
LINE
  5
2FDB
330
2FD8
100
AcDbEntity
  8
AM_5
100
AcDbLine
 10
48.60315053494094
 20
38.84775001043167
 30
0.0
 11
43.23810981011866
 21
33.20677660260915
 31
0.0
  0
TRACE
  5
2FDC
330
2FD8
100
AcDbEntity
  8
AM_5
100
AcDbTrace
 10
42.90422267783084
 20
33.52433138131705
 30
0.0
 11
43.57199694240647
 21
32.88922182390125
 31
0.0
 12
40.82604178297063
 22
30.67065203303253
 32
0.0
 13
40.82604178297063
 23
30.67065203303253
 33
0.0
  0
MTEXT
  5
2FDD
330
2FD8
100
AcDbEntity
  8
AM_5
 62
     2
100
AcDbMText
 10
73.54786241853389
 20
34.66091090230543
 30
0.0
 40
3.5
 41
0.0
 71
     9
 72
     5
  1

  7
ACISOTS
210
0.0
220
0.0
230
-1.0
 11
-1.0
 21
0.0
 31
0.0
 73
     1
 44
1.0
1001
ACAD
1000
MTEXTBEGIN
1070
    73
1070
     1
1070
    44
1040
1.0
1070
    74
1070
     0
1000
MTEXTEND
  0
ENDBLK
  5
2FDE
330
2FD8
100
AcDbEntity
  8
0
100
AcDbBlockEnd
  0
BLOCK
  5
2FE0
330
2FDF
100
AcDbEntity
  8
0
100
AcDbBlockBegin
  2
*S29
 70
     1
 10
0.0
 20
0.0
 30
0.0
  3
*S29
  1

  0
LINE
  5
2FE1
330
2FDF
100
AcDbEntity
  8
AM_5
100
AcDbLine
 10
189.8549215024005
 20
50.18174493262356
 30
0.0
 11
173.9892711664315
 21
50.18174493262356
 31
0.0
  0
LINE
  5
2FE2
330
2FDF
100
AcDbEntity
  8
AM_5
100
AcDbLine
 10
173.9892711664315
 20
50.18174493262356
 30
0.0
 11
165.2347351544129
 21
65.28815139239689
 31
0.0
  0
TRACE
  5
2FE3
330
2FDF
100
AcDbEntity
  8
AM_5
100
AcDbTrace
 10
165.6334096704688
 20
65.51919313069376
 30
0.0
 11
164.8360606383571
 21
65.05710965410003
 31
0.0
 12
163.4797989127033
 22
68.31638500087795
 32
0.0
 13
163.4797989127033
 23
68.31638500087795
 33
0.0
  0
MTEXT
  5
2FE4
330
2FDF
100
AcDbEntity
  8
AM_5
 62
     2
100
AcDbMText
 10
189.8549215024005
 20
48.68707075893436
 30
0.0
 40
3.5
 41
0.0
 71
     9
 72
     5
  1

  7
ACISOTS
210
0.0
220
0.0
230
-1.0
 11
-1.0
 21
0.0
 31
0.0
 73
     1
 44
1.0
1001
ACAD
1000
MTEXTBEGIN
1070
    73
1070
     1
1070
    44
1040
1.0
1070
    74
1070
     0
1000
MTEXTEND
  0
ENDBLK
  5
2FE5
330
2FDF
100
AcDbEntity
  8
0
100
AcDbBlockEnd
  0
BLOCK
  5
3347
330
333D
100
AcDbEntity
  8
0
100
AcDbBlockBegin
  2
*D30
 70
     1
 10
0.0
 20
0.0
 30
0.0
  3
*D30
  1

  0
LINE
  5
3A01
330
333D
100
AcDbEntity
  8
AM_5
100
AcDbLine
 10
142.7014393037988
 20
-140.8083232943181
 30
0.0
 11
142.7014393037988
 21
-149.2413097998171
 31
0.0
  0
LINE
  5
3A02
330
333D
100
AcDbEntity
  8
AM_5
100
AcDbLine
 10
171.7014393037989
 20
-140.8083232943181
 30
0.0
 11
171.7014393037989
 21
-149.2413097998171
 31
0.0
  0
LINE
  5
3A03
330
333D
100
AcDbEntity
  8
AM_5
100
AcDbLine
 10
145.7014393037988
 20
-147.7413097998171
 30
0.0
 11
168.7014393037989
 21
-147.7413097998171
 31
0.0
  0
SOLID
  5
3A04
330
333D
100
AcDbEntity
  8
AM_5
100
AcDbTrace
 10
145.7014393037988
 20
-147.2413097998171
 30
0.0
 11
145.7014393037988
 21
-148.2413097998171
 31
0.0
 12
142.7014393037988
 22
-147.7413097998171
 32
0.0
 13
142.7014393037988
 23
-147.7413097998171
 33
0.0
  0
SOLID
  5
3A05
330
333D
100
AcDbEntity
  8
AM_5
100
AcDbTrace
 10
168.7014393037989
 20
-147.2413097998171
 30
0.0
 11
168.7014393037989
 21
-148.2413097998171
 31
0.0
 12
171.7014393037989
 22
-147.7413097998171
 32
0.0
 13
171.7014393037989
 23
-147.7413097998171
 33
0.0
  0
MTEXT
  5
3A06
330
333D
100
AcDbEntity
  8
AM_5
100
AcDbMText
 10
157.2014393037988
 20
-145.4410145242265
 30
0.0
 40
3.0
 41
0.0
 71
     5
 72
     1
  1
29
 73
     1
 44
1.0
1001
ACAD
1000
MTEXTBEGIN
1070
    73
1070
     1
1070
    44
1040
1.0
1070
    74
1070
     0
1000
MTEXTEND
  0
POINT
  5
3A07
330
333D
100
AcDbEntity
  8
DEFPOINTS
 62
     0
100
AcDbPoint
 10
142.7014393037988
 20
-139.8083232943181
 30
0.0
  0
POINT
  5
3A08
330
333D
100
AcDbEntity
  8
DEFPOINTS
 62
     0
100
AcDbPoint
 10
171.7014393037989
 20
-139.8083232943181
 30
0.0
  0
POINT
  5
3A09
330
333D
100
AcDbEntity
  8
DEFPOINTS
 62
     0
100
AcDbPoint
 10
171.7014393037989
 20
-147.7413097998171
 30
0.0
  0
ENDBLK
  5
3348
330
333D
100
AcDbEntity
  8
0
100
AcDbBlockEnd
  0
BLOCK
  5
3353
330
3349
100
AcDbEntity
  8
0
100
AcDbBlockBegin
  2
*D31
 70
     1
 10
0.0
 20
0.0
 30
0.0
  3
*D31
  1

  0
LINE
  5
3A0A
330
3349
100
AcDbEntity
  8
AM_5
100
AcDbLine
 10
218.7014393037989
 20
-112.308323294318
 30
0.0
 11
218.7014393037989
 21
-106.4056284580175
 31
0.0
  0
LINE
  5
3A0B
330
3349
100
AcDbEntity
  8
AM_5
100
AcDbLine
 10
210.7014393037989
 20
-118.7643232943178
 30
0.0
 11
210.7014393037989
 21
-106.4056284580175
 31
0.0
  0
LINE
  5
3A0C
330
3349
100
AcDbEntity
  8
AM_5
100
AcDbLine
 10
215.7014393037989
 20
-107.9056284580175
 30
0.0
 11
213.7014393037989
 21
-107.9056284580175
 31
0.0
  0
SOLID
  5
3A0D
330
3349
100
AcDbEntity
  8
AM_5
100
AcDbTrace
 10
215.7014393037989
 20
-107.4056284580175
 30
0.0
 11
215.7014393037989
 21
-108.4056284580175
 31
0.0
 12
218.7014393037989
 22
-107.9056284580175
 32
0.0
 13
218.7014393037989
 23
-107.9056284580175
 33
0.0
  0
SOLID
  5
3A0E
330
3349
100
AcDbEntity
  8
AM_5
100
AcDbTrace
 10
213.7014393037989
 20
-107.4056284580175
 30
0.0
 11
213.7014393037989
 21
-108.4056284580175
 31
0.0
 12
210.7014393037989
 22
-107.9056284580175
 32
0.0
 13
210.7014393037989
 23
-107.9056284580175
 33
0.0
  0
MTEXT
  5
3A0F
330
3349
100
AcDbEntity
  8
AM_5
100
AcDbMText
 10
214.7014393037989
 20
-105.6056284580175
 30
0.0
 40
3.0
 41
0.0
 71
     5
 72
     1
  1
8
 73
     1
 44
1.0
1001
ACAD
1000
MTEXTBEGIN
1070
    73
1070
     1
1070
    44
1040
1.0
1070
    74
1070
     0
1000
MTEXTEND
  0
POINT
  5
3A10
330
3349
100
AcDbEntity
  8
DEFPOINTS
 62
     0
100
AcDbPoint
 10
218.7014393037989
 20
-113.308323294318
 30
0.0
  0
POINT
  5
3A11
330
3349
100
AcDbEntity
  8
DEFPOINTS
 62
     0
100
AcDbPoint
 10
210.7014393037989
 20
-119.7643232943178
 30
0.0
  0
POINT
  5
3A12
330
3349
100
AcDbEntity
  8
DEFPOINTS
 62
     0
100
AcDbPoint
 10
210.7014393037989
 20
-107.9056284580175
 30
0.0
  0
ENDBLK
  5
3354
330
3349
100
AcDbEntity
  8
0
100
AcDbBlockEnd
  0
BLOCK
  5
335F
330
3355
100
AcDbEntity
  8
0
100
AcDbBlockBegin
  2
*D32
 70
     1
 10
0.0
 20
0.0
 30
0.0
  3
*D32
  1

  0
LINE
  5
3A13
330
3355
100
AcDbEntity
  8
AM_5
100
AcDbLine
 10
142.7014393037989
 20
-108.808323294318
 30
0.0
 11
142.7014393037989
 21
-101.1647817610611
 31
0.0
  0
LINE
  5
3A14
330
3355
100
AcDbEntity
  8
AM_5
100
AcDbLine
 10
164.7014393037989
 20
-117.208323294318
 30
0.0
 11
164.7014393037989
 21
-101.1647817610611
 31
0.0
  0
LINE
  5
3A15
330
3355
100
AcDbEntity
  8
AM_5
100
AcDbLine
 10
145.7014393037989
 20
-102.6647817610611
 30
0.0
 11
161.7014393037989
 21
-102.6647817610611
 31
0.0
  0
SOLID
  5
3A16
330
3355
100
AcDbEntity
  8
AM_5
100
AcDbTrace
 10
145.7014393037989
 20
-102.1647817610611
 30
0.0
 11
145.7014393037989
 21
-103.1647817610611
 31
0.0
 12
142.7014393037989
 22
-102.6647817610611
 32
0.0
 13
142.7014393037989
 23
-102.6647817610611
 33
0.0
  0
SOLID
  5
3A17
330
3355
100
AcDbEntity
  8
AM_5
100
AcDbTrace
 10
161.7014393037989
 20
-102.1647817610611
 30
0.0
 11
161.7014393037989
 21
-103.1647817610611
 31
0.0
 12
164.7014393037989
 22
-102.6647817610611
 32
0.0
 13
164.7014393037989
 23
-102.6647817610611
 33
0.0
  0
MTEXT
  5
3A18
330
3355
100
AcDbEntity
  8
AM_5
100
AcDbMText
 10
153.7014393037989
 20
-100.3644864854706
 30
0.0
 40
3.0
 41
0.0
 71
     5
 72
     1
  1
22
 73
     1
 44
1.0
1001
ACAD
1000
MTEXTBEGIN
1070
    73
1070
     1
1070
    44
1040
1.0
1070
    74
1070
     0
1000
MTEXTEND
  0
POINT
  5
3A19
330
3355
100
AcDbEntity
  8
DEFPOINTS
 62
     0
100
AcDbPoint
 10
142.7014393037989
 20
-109.808323294318
 30
0.0
  0
POINT
  5
3A1A
330
3355
100
AcDbEntity
  8
DEFPOINTS
 62
     0
100
AcDbPoint
 10
164.7014393037989
 20
-118.208323294318
 30
0.0
  0
POINT
  5
3A1B
330
3355
100
AcDbEntity
  8
DEFPOINTS
 62
     0
100
AcDbPoint
 10
164.7014393037989
 20
-102.6647817610611
 30
0.0
  0
ENDBLK
  5
3360
330
3355
100
AcDbEntity
  8
0
100
AcDbBlockEnd
  0
BLOCK
  5
336C
330
3361
100
AcDbEntity
  8
0
100
AcDbBlockBegin
  2
*D33
 70
     1
 10
0.0
 20
0.0
 30
0.0
  3
*D33
  1

  0
LINE
  5
3A1C
330
3361
100
AcDbEntity
  8
AM_5
100
AcDbLine
 10
135.2014393037989
 20
-176.5056074218627
 30
0.0
 11
138.1929741081974
 21
-176.5056074218627
 31
0.0
  0
LINE
  5
3A1D
330
3361
100
AcDbEntity
  8
AM_5
100
AcDbLine
 10
135.2014393037989
 20
-184.5056074218627
 30
0.0
 11
138.1929741081974
 21
-184.5056074218627
 31
0.0
  0
LINE
  5
3A1E
330
3361
100
AcDbEntity
  8
AM_5
100
AcDbLine
 10
136.6929741081974
 20
-181.5056074218627
 30
0.0
 11
136.6929741081974
 21
-179.5056074218627
 31
0.0
  0
LINE
  5
3A1F
330
3361
100
AcDbEntity
  8
AM_5
100
AcDbLine
 10
136.6929741081974
 20
-176.5056074218627
 30
0.0
 11
136.6929741081974
 21
-161.573064785214
 31
0.0
  0
SOLID
  5
3A20
330
3361
100
AcDbEntity
  8
AM_5
100
AcDbTrace
 10
136.1929741081974
 20
-181.5056074218627
 30
0.0
 11
137.1929741081974
 21
-181.5056074218627
 31
0.0
 12
136.6929741081974
 22
-184.5056074218627
 32
0.0
 13
136.6929741081974
 23
-184.5056074218627
 33
0.0
  0
SOLID
  5
3A21
330
3361
100
AcDbEntity
  8
AM_5
100
AcDbTrace
 10
136.1929741081974
 20
-179.5056074218627
 30
0.0
 11
137.1929741081974
 21
-179.5056074218627
 31
0.0
 12
136.6929741081974
 22
-176.5056074218627
 32
0.0
 13
136.6929741081974
 23
-176.5056074218627
 33
0.0
  0
MTEXT
  5
3A22
330
3361
100
AcDbEntity
  8
AM_5
100
AcDbMText
 10
134.3929741081974
 20
-164.323064785214
 30
0.0
 40
3.0
 41
0.0
 71
     5
 72
     1
  1
%%c8
 11
0.0000000000000001
 21
1.0
 31
0.0
 73
     1
 44
1.0
1001
ACAD
1000
MTEXTBEGIN
1070
    73
1070
     1
1070
    44
1040
1.0
1070
    74
1070
     0
1000
MTEXTEND
  0
POINT
  5
3A23
330
3361
100
AcDbEntity
  8
DEFPOINTS
 62
     0
100
AcDbPoint
 10
134.2014393037989
 20
-176.5056074218627
 30
0.0
  0
POINT
  5
3A24
330
3361
100
AcDbEntity
  8
DEFPOINTS
 62
     0
100
AcDbPoint
 10
134.2014393037989
 20
-184.5056074218627
 30
0.0
  0
POINT
  5
3A25
330
3361
100
AcDbEntity
  8
DEFPOINTS
 62
     0
100
AcDbPoint
 10
136.6929741081974
 20
-184.5056074218627
 30
0.0
  0
ENDBLK
  5
336D
330
3361
100
AcDbEntity
  8
0
100
AcDbBlockEnd
  0
BLOCK
  5
3378
330
336E
100
AcDbEntity
  8
0
100
AcDbBlockBegin
  2
*D34
 70
     1
 10
0.0
 20
0.0
 30
0.0
  3
*D34
  1

  0
LINE
  5
3A26
330
336E
100
AcDbEntity
  8
AM_5
100
AcDbLine
 10
139.2014393037989
 20
-170.5056074218627
 30
0.0
 11
106.6527836721521
 21
-170.5056074218627
 31
0.0
  0
LINE
  5
3A27
330
336E
100
AcDbEntity
  8
AM_5
100
AcDbLine
 10
139.2014393037989
 20
-190.5056074218627
 30
0.0
 11
106.6527836721521
 21
-190.5056074218627
 31
0.0
  0
LINE
  5
3A28
330
336E
100
AcDbEntity
  8
AM_5
100
AcDbLine
 10
108.1527836721521
 20
-173.5056074218627
 30
0.0
 11
108.1527836721521
 21
-187.5056074218626
 31
0.0
  0
SOLID
  5
3A29
330
336E
100
AcDbEntity
  8
AM_5
100
AcDbTrace
 10
107.6527836721521
 20
-173.5056074218627
 30
0.0
 11
108.6527836721521
 21
-173.5056074218627
 31
0.0
 12
108.1527836721521
 22
-170.5056074218627
 32
0.0
 13
108.1527836721521
 23
-170.5056074218627
 33
0.0
  0
SOLID
  5
3A2A
330
336E
100
AcDbEntity
  8
AM_5
100
AcDbTrace
 10
107.6527836721521
 20
-187.5056074218626
 30
0.0
 11
108.6527836721521
 21
-187.5056074218626
 31
0.0
 12
108.1527836721521
 22
-190.5056074218627
 32
0.0
 13
108.1527836721521
 23
-190.5056074218627
 33
0.0
  0
MTEXT
  5
3A2B
330
336E
100
AcDbEntity
  8
AM_5
100
AcDbMText
 10
104.9825813450822
 20
-180.5056074218626
 30
0.0
 40
3.0
 41
0.0
 71
     5
 72
     1
  1
%%c20{\H2.130000;\S 0^ -0.033;}
 11
0.0000000000000001
 21
1.0
 31
0.0
 73
     1
 44
1.0
1001
ACAD
1000
MTEXTBEGIN
1070
    73
1070
     1
1070
    44
1040
1.0
1070
    74
1070
     0
1000
MTEXTEND
  0
POINT
  5
3A2C
330
336E
100
AcDbEntity
  8
DEFPOINTS
 62
     0
100
AcDbPoint
 10
140.2014393037989
 20
-170.5056074218627
 30
0.0
  0
POINT
  5
3A2D
330
336E
100
AcDbEntity
  8
DEFPOINTS
 62
     0
100
AcDbPoint
 10
140.2014393037989
 20
-190.5056074218627
 30
0.0
  0
POINT
  5
3A2E
330
336E
100
AcDbEntity
  8
DEFPOINTS
 62
     0
100
AcDbPoint
 10
108.1527836721521
 20
-190.5056074218627
 30
0.0
  0
ENDBLK
  5
3379
330
336E
100
AcDbEntity
  8
0
100
AcDbBlockEnd
  0
BLOCK
  5
3384
330
337A
100
AcDbEntity
  8
0
100
AcDbBlockBegin
  2
*D35
 70
     1
 10
0.0
 20
0.0
 30
0.0
  3
*D35
  1

  0
LINE
  5
3A2F
330
337A
100
AcDbEntity
  8
AM_5
100
AcDbLine
 10
115.7014393037988
 20
-184.4056074218626
 30
0.0
 11
115.7014393037988
 21
-215.0056074218626
 31
0.0
  0
LINE
  5
3A30
330
337A
100
AcDbEntity
  8
AM_5
100
AcDbLine
 10
218.7014393037989
 20
-193.0056074218627
 30
0.0
 11
218.7014393037989
 21
-215.0056074218626
 31
0.0
  0
LINE
  5
3A31
330
337A
100
AcDbEntity
  8
AM_5
100
AcDbLine
 10
118.7014393037988
 20
-213.5056074218625
 30
0.0
 11
215.7014393037989
 21
-213.5056074218625
 31
0.0
  0
SOLID
  5
3A32
330
337A
100
AcDbEntity
  8
AM_5
100
AcDbTrace
 10
118.7014393037988
 20
-213.0056074218626
 30
0.0
 11
118.7014393037988
 21
-214.0056074218625
 31
0.0
 12
115.7014393037988
 22
-213.5056074218625
 32
0.0
 13
115.7014393037988
 23
-213.5056074218625
 33
0.0
  0
SOLID
  5
3A33
330
337A
100
AcDbEntity
  8
AM_5
100
AcDbTrace
 10
215.7014393037989
 20
-213.0056074218626
 30
0.0
 11
215.7014393037989
 21
-214.0056074218625
 31
0.0
 12
218.7014393037989
 22
-213.5056074218625
 32
0.0
 13
218.7014393037989
 23
-213.5056074218625
 33
0.0
  0
MTEXT
  5
3A34
330
337A
100
AcDbEntity
  8
AM_5
100
AcDbMText
 10
167.2014393037988
 20
-211.2056074218625
 30
0.0
 40
3.0
 41
0.0
 71
     5
 72
     1
  1
103+stroke
 73
     1
 44
1.0
1001
ACAD
1000
MTEXTBEGIN
1070
    73
1070
     1
1070
    44
1040
1.0
1070
    74
1070
     0
1000
MTEXTEND
  0
POINT
  5
3A35
330
337A
100
AcDbEntity
  8
DEFPOINTS
 62
     0
100
AcDbPoint
 10
115.7014393037988
 20
-183.4056074218626
 30
0.0
  0
POINT
  5
3A36
330
337A
100
AcDbEntity
  8
DEFPOINTS
 62
     0
100
AcDbPoint
 10
218.7014393037989
 20
-192.0056074218627
 30
0.0
  0
POINT
  5
3A37
330
337A
100
AcDbEntity
  8
DEFPOINTS
 62
     0
100
AcDbPoint
 10
218.7014393037989
 20
-213.5056074218625
 30
0.0
  0
ENDBLK
  5
3385
330
337A
100
AcDbEntity
  8
0
100
AcDbBlockEnd
  0
BLOCK
  5
3390
330
3386
100
AcDbEntity
  8
0
100
AcDbBlockBegin
  2
*D36
 70
     1
 10
0.0
 20
0.0
 30
0.0
  3
*D36
  1

  0
LINE
  5
3A38
330
3386
100
AcDbEntity
  8
AM_5
100
AcDbLine
 10
115.7014393037988
 20
-184.4056074218626
 30
0.0
 11
115.7014393037988
 21
-209.0056074218626
 31
0.0
  0
LINE
  5
3A39
330
3386
100
AcDbEntity
  8
AM_5
100
AcDbLine
 10
142.7014393037989
 20
-196.5056074218627
 30
0.0
 11
142.7014393037989
 21
-209.0056074218626
 31
0.0
  0
LINE
  5
3A3A
330
3386
100
AcDbEntity
  8
AM_5
100
AcDbLine
 10
118.7014393037988
 20
-207.5056074218625
 30
0.0
 11
139.7014393037989
 21
-207.5056074218625
 31
0.0
  0
SOLID
  5
3A3B
330
3386
100
AcDbEntity
  8
AM_5
100
AcDbTrace
 10
118.7014393037988
 20
-207.0056074218626
 30
0.0
 11
118.7014393037988
 21
-208.0056074218625
 31
0.0
 12
115.7014393037988
 22
-207.5056074218625
 32
0.0
 13
115.7014393037988
 23
-207.5056074218625
 33
0.0
  0
SOLID
  5
3A3C
330
3386
100
AcDbEntity
  8
AM_5
100
AcDbTrace
 10
139.7014393037989
 20
-207.0056074218626
 30
0.0
 11
139.7014393037989
 21
-208.0056074218625
 31
0.0
 12
142.7014393037989
 22
-207.5056074218625
 32
0.0
 13
142.7014393037989
 23
-207.5056074218625
 33
0.0
  0
MTEXT
  5
3A3D
330
3386
100
AcDbEntity
  8
AM_5
100
AcDbMText
 10
129.2014393037988
 20
-205.205312146272
 30
0.0
 40
3.0
 41
0.0
 71
     5
 72
     1
  1
27
 73
     1
 44
1.0
1001
ACAD
1000
MTEXTBEGIN
1070
    73
1070
     1
1070
    44
1040
1.0
1070
    74
1070
     0
1000
MTEXTEND
  0
POINT
  5
3A3E
330
3386
100
AcDbEntity
  8
DEFPOINTS
 62
     0
100
AcDbPoint
 10
115.7014393037988
 20
-183.4056074218626
 30
0.0
  0
POINT
  5
3A3F
330
3386
100
AcDbEntity
  8
DEFPOINTS
 62
     0
100
AcDbPoint
 10
142.7014393037989
 20
-195.5056074218627
 30
0.0
  0
POINT
  5
3A40
330
3386
100
AcDbEntity
  8
DEFPOINTS
 62
     0
100
AcDbPoint
 10
142.7014393037989
 20
-207.5056074218625
 30
0.0
  0
ENDBLK
  5
3391
330
3386
100
AcDbEntity
  8
0
100
AcDbBlockEnd
  0
BLOCK
  5
339C
330
3392
100
AcDbEntity
  8
0
100
AcDbBlockBegin
  2
*D37
 70
     1
 10
0.0
 20
0.0
 30
0.0
  3
*D37
  1

  0
LINE
  5
3A41
330
3392
100
AcDbEntity
  8
AM_5
100
AcDbLine
 10
115.7014393037989
 20
-184.4056074218626
 30
0.0
 11
115.7014393037989
 21
-203.0056074218626
 31
0.0
  0
LINE
  5
3A42
330
3392
100
AcDbEntity
  8
AM_5
100
AcDbLine
 10
133.7014393037989
 20
-185.5056074218627
 30
0.0
 11
133.7014393037989
 21
-203.0056074218626
 31
0.0
  0
LINE
  5
3A43
330
3392
100
AcDbEntity
  8
AM_5
100
AcDbLine
 10
118.7014393037989
 20
-201.5056074218626
 30
0.0
 11
130.7014393037989
 21
-201.5056074218626
 31
0.0
  0
SOLID
  5
3A44
330
3392
100
AcDbEntity
  8
AM_5
100
AcDbTrace
 10
118.7014393037989
 20
-201.0056074218626
 30
0.0
 11
118.7014393037989
 21
-202.0056074218626
 31
0.0
 12
115.7014393037989
 22
-201.5056074218626
 32
0.0
 13
115.7014393037989
 23
-201.5056074218626
 33
0.0
  0
SOLID
  5
3A45
330
3392
100
AcDbEntity
  8
AM_5
100
AcDbTrace
 10
130.7014393037989
 20
-201.0056074218626
 30
0.0
 11
130.7014393037989
 21
-202.0056074218626
 31
0.0
 12
133.7014393037989
 22
-201.5056074218626
 32
0.0
 13
133.7014393037989
 23
-201.5056074218626
 33
0.0
  0
MTEXT
  5
3A46
330
3392
100
AcDbEntity
  8
AM_5
100
AcDbMText
 10
124.7014393037989
 20
-199.2056074218625
 30
0.0
 40
3.0
 41
0.0
 71
     5
 72
     1
  1
18
 73
     1
 44
1.0
1001
ACAD
1000
MTEXTBEGIN
1070
    73
1070
     1
1070
    44
1040
1.0
1070
    74
1070
     0
1000
MTEXTEND
  0
POINT
  5
3A47
330
3392
100
AcDbEntity
  8
DEFPOINTS
 62
     0
100
AcDbPoint
 10
115.7014393037989
 20
-183.4056074218626
 30
0.0
  0
POINT
  5
3A48
330
3392
100
AcDbEntity
  8
DEFPOINTS
 62
     0
100
AcDbPoint
 10
133.7014393037989
 20
-184.5056074218627
 30
0.0
  0
POINT
  5
3A49
330
3392
100
AcDbEntity
  8
DEFPOINTS
 62
     0
100
AcDbPoint
 10
133.7014393037989
 20
-201.5056074218626
 30
0.0
  0
ENDBLK
  5
339D
330
3392
100
AcDbEntity
  8
0
100
AcDbBlockEnd
  0
BLOCK
  5
33A8
330
339E
100
AcDbEntity
  8
0
100
AcDbBlockBegin
  2
*D38
 70
     1
 10
0.0
 20
0.0
 30
0.0
  3
*D38
  1

  0
LINE
  5
3A4A
330
339E
100
AcDbEntity
  8
AM_5
100
AcDbLine
 10
115.7014393037989
 20
-184.4056074218626
 30
0.0
 11
115.7014393037989
 21
-197.9056074218626
 31
0.0
  0
LINE
  5
3A4B
330
339E
100
AcDbEntity
  8
AM_5
100
AcDbLine
 10
131.2014393037989
 20
-185.4056074218626
 30
0.0
 11
131.2014393037989
 21
-197.9056074218626
 31
0.0
  0
LINE
  5
3A4C
330
339E
100
AcDbEntity
  8
AM_5
100
AcDbLine
 10
118.7014393037989
 20
-196.4056074218627
 30
0.0
 11
128.2014393037989
 21
-196.4056074218627
 31
0.0
  0
SOLID
  5
3A4D
330
339E
100
AcDbEntity
  8
AM_5
100
AcDbTrace
 10
118.7014393037989
 20
-195.9056074218626
 30
0.0
 11
118.7014393037989
 21
-196.9056074218626
 31
0.0
 12
115.7014393037989
 22
-196.4056074218627
 32
0.0
 13
115.7014393037989
 23
-196.4056074218627
 33
0.0
  0
SOLID
  5
3A4E
330
339E
100
AcDbEntity
  8
AM_5
100
AcDbTrace
 10
128.2014393037989
 20
-195.9056074218626
 30
0.0
 11
128.2014393037989
 21
-196.9056074218626
 31
0.0
 12
131.2014393037989
 22
-196.4056074218627
 32
0.0
 13
131.2014393037989
 23
-196.4056074218627
 33
0.0
  0
MTEXT
  5
3A4F
330
339E
100
AcDbEntity
  8
AM_5
100
AcDbMText
 10
123.4514393037989
 20
-194.1056074218627
 30
0.0
 40
3.0
 41
0.0
 71
     5
 72
     1
  1
15.5
 73
     1
 44
1.0
1001
ACAD
1000
MTEXTBEGIN
1070
    73
1070
     1
1070
    44
1040
1.0
1070
    74
1070
     0
1000
MTEXTEND
  0
POINT
  5
3A50
330
339E
100
AcDbEntity
  8
DEFPOINTS
 62
     0
100
AcDbPoint
 10
115.7014393037989
 20
-183.4056074218626
 30
0.0
  0
POINT
  5
3A51
330
339E
100
AcDbEntity
  8
DEFPOINTS
 62
     0
100
AcDbPoint
 10
131.2014393037989
 20
-184.4056074218626
 30
0.0
  0
POINT
  5
3A52
330
339E
100
AcDbEntity
  8
DEFPOINTS
 62
     0
100
AcDbPoint
 10
131.2014393037989
 20
-196.4056074218627
 30
0.0
  0
ENDBLK
  5
33A9
330
339E
100
AcDbEntity
  8
0
100
AcDbBlockEnd
  0
BLOCK
  5
33B4
330
33AA
100
AcDbEntity
  8
0
100
AcDbBlockBegin
  2
*D39
 70
     1
 10
0.0
 20
0.0
 30
0.0
  3
*D39
  1

  0
LINE
  5
3A53
330
33AA
100
AcDbEntity
  8
AM_5
100
AcDbLine
 10
142.7014393037989
 20
-196.5056074218627
 30
0.0
 11
142.7014393037989
 21
-209.0056074218626
 31
0.0
  0
LINE
  5
3A54
330
33AA
100
AcDbEntity
  8
AM_5
100
AcDbLine
 10
218.7014393037989
 20
-193.0056074218627
 30
0.0
 11
218.7014393037989
 21
-209.0056074218626
 31
0.0
  0
LINE
  5
3A55
330
33AA
100
AcDbEntity
  8
AM_5
100
AcDbLine
 10
145.7014393037989
 20
-207.5056074218625
 30
0.0
 11
215.7014393037989
 21
-207.5056074218625
 31
0.0
  0
SOLID
  5
3A56
330
33AA
100
AcDbEntity
  8
AM_5
100
AcDbTrace
 10
145.7014393037989
 20
-207.0056074218626
 30
0.0
 11
145.7014393037989
 21
-208.0056074218625
 31
0.0
 12
142.7014393037989
 22
-207.5056074218625
 32
0.0
 13
142.7014393037989
 23
-207.5056074218625
 33
0.0
  0
SOLID
  5
3A57
330
33AA
100
AcDbEntity
  8
AM_5
100
AcDbTrace
 10
215.7014393037989
 20
-207.0056074218626
 30
0.0
 11
215.7014393037989
 21
-208.0056074218625
 31
0.0
 12
218.7014393037989
 22
-207.5056074218625
 32
0.0
 13
218.7014393037989
 23
-207.5056074218625
 33
0.0
  0
MTEXT
  5
3A58
330
33AA
100
AcDbEntity
  8
AM_5
100
AcDbMText
 10
180.7014393037989
 20
-205.2056074218625
 30
0.0
 40
3.0
 41
0.0
 71
     5
 72
     1
  1
76+stroke
 73
     1
 44
1.0
1001
ACAD
1000
MTEXTBEGIN
1070
    73
1070
     1
1070
    44
1040
1.0
1070
    74
1070
     0
1000
MTEXTEND
  0
POINT
  5
3A59
330
33AA
100
AcDbEntity
  8
DEFPOINTS
 62
     0
100
AcDbPoint
 10
142.7014393037989
 20
-195.5056074218627
 30
0.0
  0
POINT
  5
3A5A
330
33AA
100
AcDbEntity
  8
DEFPOINTS
 62
     0
100
AcDbPoint
 10
218.7014393037989
 20
-192.0056074218627
 30
0.0
  0
POINT
  5
3A5B
330
33AA
100
AcDbEntity
  8
DEFPOINTS
 62
     0
100
AcDbPoint
 10
218.7014393037989
 20
-207.5056074218625
 30
0.0
  0
ENDBLK
  5
33B5
330
33AA
100
AcDbEntity
  8
0
100
AcDbBlockEnd
  0
BLOCK
  5
33C0
330
33B6
100
AcDbEntity
  8
0
100
AcDbBlockBegin
  2
*D40
 70
     1
 10
0.0
 20
0.0
 30
0.0
  3
*D40
  1

  0
LINE
  5
3A5C
330
33B6
100
AcDbEntity
  8
AM_5
100
AcDbLine
 10
76.48426819218087
 20
-195.5056074218627
 30
0.0
 11
86.76038469722902
 21
-195.5056074218627
 31
0.0
  0
LINE
  5
3A5D
330
33B6
100
AcDbEntity
  8
AM_5
100
AcDbLine
 10
74.5842681921809
 20
-180.5056074218627
 30
0.0
 11
86.76038469722902
 21
-180.5056074218627
 31
0.0
  0
LINE
  5
3A5E
330
33B6
100
AcDbEntity
  8
AM_5
100
AcDbLine
 10
85.26038469722903
 20
-192.5056074218627
 30
0.0
 11
85.26038469722903
 21
-183.5056074218627
 31
0.0
  0
SOLID
  5
3A5F
330
33B6
100
AcDbEntity
  8
AM_5
100
AcDbTrace
 10
84.76038469722903
 20
-192.5056074218627
 30
0.0
 11
85.76038469722902
 21
-192.5056074218627
 31
0.0
 12
85.26038469722903
 22
-195.5056074218627
 32
0.0
 13
85.26038469722903
 23
-195.5056074218627
 33
0.0
  0
SOLID
  5
3A60
330
33B6
100
AcDbEntity
  8
AM_5
100
AcDbTrace
 10
84.76038469722903
 20
-183.5056074218627
 30
0.0
 11
85.76038469722902
 21
-183.5056074218627
 31
0.0
 12
85.26038469722903
 22
-180.5056074218627
 32
0.0
 13
85.26038469722903
 23
-180.5056074218627
 33
0.0
  0
MTEXT
  5
3A61
330
33B6
100
AcDbEntity
  8
AM_5
100
AcDbMText
 10
82.96038469722907
 20
-188.0056074218627
 30
0.0
 40
3.0
 41
0.0
 71
     5
 72
     1
  1
15
 11
0.0000000000000001
 21
1.0
 31
0.0
 73
     1
 44
1.0
1001
ACAD
1000
MTEXTBEGIN
1070
    73
1070
     1
1070
    44
1040
1.0
1070
    74
1070
     0
1000
MTEXTEND
  0
POINT
  5
3A62
330
33B6
100
AcDbEntity
  8
DEFPOINTS
 62
     0
100
AcDbPoint
 10
75.48426819218088
 20
-195.5056074218627
 30
0.0
  0
POINT
  5
3A63
330
33B6
100
AcDbEntity
  8
DEFPOINTS
 62
     0
100
AcDbPoint
 10
73.5842681921809
 20
-180.5056074218627
 30
0.0
  0
POINT
  5
3A64
330
33B6
100
AcDbEntity
  8
DEFPOINTS
 62
     0
100
AcDbPoint
 10
85.26038469722903
 20
-180.5056074218627
 30
0.0
  0
ENDBLK
  5
33C1
330
33B6
100
AcDbEntity
  8
0
100
AcDbBlockEnd
  0
BLOCK
  5
33CC
330
33C2
100
AcDbEntity
  8
0
100
AcDbBlockBegin
  2
*D41
 70
     1
 10
0.0
 20
0.0
 30
0.0
  3
*D41
  1

  0
LINE
  5
3A65
330
33C2
100
AcDbEntity
  8
AM_5
100
AcDbLine
 10
50.98426819218087
 20
-196.2726074218627
 30
0.0
 11
50.98426819218087
 21
-204.4340967667971
 31
0.0
  0
LINE
  5
3A66
330
33C2
100
AcDbEntity
  8
AM_5
100
AcDbLine
 10
72.98426819218088
 20
-196.2726074218627
 30
0.0
 11
72.98426819218088
 21
-204.4340967667971
 31
0.0
  0
LINE
  5
3A67
330
33C2
100
AcDbEntity
  8
AM_5
100
AcDbLine
 10
53.98426819218087
 20
-202.9340967667971
 30
0.0
 11
69.98426819218088
 21
-202.9340967667971
 31
0.0
  0
SOLID
  5
3A68
330
33C2
100
AcDbEntity
  8
AM_5
100
AcDbTrace
 10
53.98426819218087
 20
-202.4340967667971
 30
0.0
 11
53.98426819218087
 21
-203.4340967667971
 31
0.0
 12
50.98426819218087
 22
-202.9340967667971
 32
0.0
 13
50.98426819218087
 23
-202.9340967667971
 33
0.0
  0
SOLID
  5
3A69
330
33C2
100
AcDbEntity
  8
AM_5
100
AcDbTrace
 10
69.98426819218088
 20
-202.4340967667971
 30
0.0
 11
69.98426819218088
 21
-203.4340967667971
 31
0.0
 12
72.98426819218088
 22
-202.9340967667971
 32
0.0
 13
72.98426819218088
 23
-202.9340967667971
 33
0.0
  0
MTEXT
  5
3A6A
330
33C2
100
AcDbEntity
  8
AM_5
100
AcDbMText
 10
61.98426819218088
 20
-200.6338014912065
 30
0.0
 40
3.0
 41
0.0
 71
     5
 72
     1
  1
{\Famgdt|c136;o}22
 73
     1
 44
1.0
1001
ACAD
1000
MTEXTBEGIN
1070
    73
1070
     1
1070
    44
1040
1.0
1070
    74
1070
     0
1000
MTEXTEND
  0
POINT
  5
3A6B
330
33C2
100
AcDbEntity
  8
DEFPOINTS
 62
     0
100
AcDbPoint
 10
50.98426819218087
 20
-195.2726074218627
 30
0.0
  0
POINT
  5
3A6C
330
33C2
100
AcDbEntity
  8
DEFPOINTS
 62
     0
100
AcDbPoint
 10
72.98426819218088
 20
-195.2726074218627
 30
0.0
  0
POINT
  5
3A6D
330
33C2
100
AcDbEntity
  8
DEFPOINTS
 62
     0
100
AcDbPoint
 10
72.98426819218088
 20
-202.9340967667971
 30
0.0
  0
ENDBLK
  5
33CD
330
33C2
100
AcDbEntity
  8
0
100
AcDbBlockEnd
  0
BLOCK
  5
33D8
330
33CE
100
AcDbEntity
  8
0
100
AcDbBlockBegin
  2
*D42
 70
     1
 10
0.0
 20
0.0
 30
0.0
  3
*D42
  1

  0
LINE
  5
3A6E
330
33CE
100
AcDbEntity
  8
AM_5
100
AcDbLine
 10
46.98426819218087
 20
-195.0056074218627
 30
0.0
 11
46.98426819218087
 21
-210.4340967667971
 31
0.0
  0
LINE
  5
3A6F
330
33CE
100
AcDbEntity
  8
AM_5
100
AcDbLine
 10
76.98426819218088
 20
-195.0056074218627
 30
0.0
 11
76.98426819218088
 21
-210.4340967667971
 31
0.0
  0
LINE
  5
3A70
330
33CE
100
AcDbEntity
  8
AM_5
100
AcDbLine
 10
49.98426819218088
 20
-208.9340967667971
 30
0.0
 11
73.98426819218087
 21
-208.9340967667971
 31
0.0
  0
SOLID
  5
3A71
330
33CE
100
AcDbEntity
  8
AM_5
100
AcDbTrace
 10
49.98426819218088
 20
-208.4340967667971
 30
0.0
 11
49.98426819218088
 21
-209.434096766797
 31
0.0
 12
46.98426819218087
 22
-208.9340967667971
 32
0.0
 13
46.98426819218087
 23
-208.9340967667971
 33
0.0
  0
SOLID
  5
3A72
330
33CE
100
AcDbEntity
  8
AM_5
100
AcDbTrace
 10
73.98426819218087
 20
-208.4340967667971
 30
0.0
 11
73.98426819218087
 21
-209.434096766797
 31
0.0
 12
76.98426819218088
 22
-208.9340967667971
 32
0.0
 13
76.98426819218088
 23
-208.9340967667971
 33
0.0
  0
MTEXT
  5
3A73
330
33CE
100
AcDbEntity
  8
AM_5
100
AcDbMText
 10
61.98426819218088
 20
-206.634096766797
 30
0.0
 40
3.0
 41
0.0
 71
     5
 72
     1
  1
{\Famgdt|c136;o}30
 73
     1
 44
1.0
1001
ACAD
1000
MTEXTBEGIN
1070
    73
1070
     1
1070
    44
1040
1.0
1070
    74
1070
     0
1000
MTEXTEND
  0
POINT
  5
3A74
330
33CE
100
AcDbEntity
  8
DEFPOINTS
 62
     0
100
AcDbPoint
 10
46.98426819218087
 20
-194.0056074218627
 30
0.0
  0
POINT
  5
3A75
330
33CE
100
AcDbEntity
  8
DEFPOINTS
 62
     0
100
AcDbPoint
 10
76.98426819218088
 20
-194.0056074218627
 30
0.0
  0
POINT
  5
3A76
330
33CE
100
AcDbEntity
  8
DEFPOINTS
 62
     0
100
AcDbPoint
 10
76.98426819218088
 20
-208.9340967667971
 30
0.0
  0
ENDBLK
  5
33D9
330
33CE
100
AcDbEntity
  8
0
100
AcDbBlockEnd
  0
BLOCK
  5
33E4
330
33DA
100
AcDbEntity
  8
0
100
AcDbBlockBegin
  2
*D43
 70
     1
 10
0.0
 20
0.0
 30
0.0
  3
*D43
  1

  0
LINE
  5
3A77
330
33DA
100
AcDbEntity
  8
AM_5
100
AcDbLine
 10
249.6178659269782
 20
-188.7167099727905
 30
0.0
 11
249.6178659269782
 21
-205.2430477580368
 31
0.0
  0
LINE
  5
3A78
330
33DA
100
AcDbEntity
  8
AM_5
100
AcDbLine
 10
273.6178659269782
 20
-188.7167099727905
 30
0.0
 11
273.6178659269782
 21
-205.2430477580368
 31
0.0
  0
LINE
  5
3A79
330
33DA
100
AcDbEntity
  8
AM_5
100
AcDbLine
 10
252.6178659269782
 20
-203.7430477580368
 30
0.0
 11
270.6178659269781
 21
-203.7430477580368
 31
0.0
  0
SOLID
  5
3A7A
330
33DA
100
AcDbEntity
  8
AM_5
100
AcDbTrace
 10
252.6178659269782
 20
-203.2430477580368
 30
0.0
 11
252.6178659269782
 21
-204.2430477580368
 31
0.0
 12
249.6178659269782
 22
-203.7430477580368
 32
0.0
 13
249.6178659269782
 23
-203.7430477580368
 33
0.0
  0
SOLID
  5
3A7B
330
33DA
100
AcDbEntity
  8
AM_5
100
AcDbTrace
 10
270.6178659269781
 20
-203.2430477580368
 30
0.0
 11
270.6178659269781
 21
-204.2430477580368
 31
0.0
 12
273.6178659269782
 22
-203.7430477580368
 32
0.0
 13
273.6178659269782
 23
-203.7430477580368
 33
0.0
  0
MTEXT
  5
3A7C
330
33DA
100
AcDbEntity
  8
AM_5
100
AcDbMText
 10
261.6178659269782
 20
-201.4427524824462
 30
0.0
 40
3.0
 41
0.0
 71
     5
 72
     1
  1
{\Famgdt|c136;o}24
 73
     1
 44
1.0
1001
ACAD
1000
MTEXTBEGIN
1070
    73
1070
     1
1070
    44
1040
1.0
1070
    74
1070
     0
1000
MTEXTEND
  0
POINT
  5
3A7D
330
33DA
100
AcDbEntity
  8
DEFPOINTS
 62
     0
100
AcDbPoint
 10
249.6178659269782
 20
-187.7167099727905
 30
0.0
  0
POINT
  5
3A7E
330
33DA
100
AcDbEntity
  8
DEFPOINTS
 62
     0
100
AcDbPoint
 10
273.6178659269782
 20
-187.7167099727905
 30
0.0
  0
POINT
  5
3A7F
330
33DA
100
AcDbEntity
  8
DEFPOINTS
 62
     0
100
AcDbPoint
 10
273.6178659269782
 20
-203.7430477580368
 30
0.0
  0
ENDBLK
  5
33E5
330
33DA
100
AcDbEntity
  8
0
100
AcDbBlockEnd
  0
BLOCK
  5
33EF
330
33E6
100
AcDbEntity
  8
0
100
AcDbBlockBegin
  2
*D44
 70
     1
 10
0.0
 20
0.0
 30
0.0
  3
*D44
  1

  0
LINE
  5
3A80
330
33E6
100
AcDbEntity
  8
AM_5
100
AcDbLine
 10
254.6833661127019
 20
-189.044501514531
 30
0.0
 11
268.5523657412542
 21
-171.9667133291942
 31
0.0
  0
LINE
  5
3A81
330
33E6
100
AcDbEntity
  8
AM_5
100
AcDbLine
 10
270.4435929633295
 20
-169.6379240311937
 30
0.0
 11
275.6901334117377
 21
-163.17752249659
 31
0.0
  0
LINE
  5
3A82
330
33E6
100
AcDbEntity
  8
AM_5
100
AcDbLine
 10
275.6901334117377
 20
-163.17752249659
 30
0.0
 11
282.4901334117377
 21
-163.17752249659
 31
0.0
  0
SOLID
  5
3A83
330
33E6
100
AcDbEntity
  8
AM_5
100
AcDbTrace
 10
254.2952345630352
 20
-188.7292969775185
 30
0.0
 11
255.0714976623687
 21
-189.3597060515436
 31
0.0
 12
252.7921388906266
 22
-191.3732908125315
 32
0.0
 13
252.7921388906266
 23
-191.3732908125315
 33
0.0
  0
SOLID
  5
3A84
330
33E6
100
AcDbEntity
  8
AM_5
100
AcDbTrace
 10
268.1642341915875
 20
-171.6515087921816
 30
0.0
 11
268.940497290921
 21
-172.2819178662067
 31
0.0
 12
270.4435929633295
 22
-169.6379240311937
 32
0.0
 13
270.4435929633295
 23
-169.6379240311937
 33
0.0
  0
MTEXT
  5
3A85
330
33E6
100
AcDbEntity
  8
AM_5
100
AcDbMText
 10
279.4901334117377
 20
-160.8772272209994
 30
0.0
 40
3.0
 41
0.0
 71
     5
 72
     1
  1
\U+220528
 73
     1
 44
1.0
1001
ACAD
1000
MTEXTBEGIN
1070
    73
1070
     1
1070
    44
1040
1.0
1070
    74
1070
     0
1000
MTEXTEND
  0
POINT
  5
3A86
330
33E6
100
AcDbEntity
  8
DEFPOINTS
 62
     0
100
AcDbPoint
 10
270.4435929633295
 20
-169.6379240311937
 30
0.0
  0
POINT
  5
3A87
330
33E6
100
AcDbEntity
  8
DEFPOINTS
 62
     0
100
AcDbPoint
 10
252.7921388906266
 20
-191.3732908125315
 30
0.0
  0
ENDBLK
  5
33F0
330
33E6
100
AcDbEntity
  8
0
100
AcDbBlockEnd
  0
BLOCK
  5
33FB
330
33F1
100
AcDbEntity
  8
0
100
AcDbBlockBegin
  2
*D45
 70
     1
 10
0.0
 20
0.0
 30
0.0
  3
*D45
  1

  0
LINE
  5
3A88
330
33F1
100
AcDbEntity
  8
AM_5
100
AcDbLine
 10
203.7014393037989
 20
-137.308323294318
 30
0.0
 11
203.7014393037989
 21
-145.254102122595
 31
0.0
  0
LINE
  5
3A89
330
33F1
100
AcDbEntity
  8
AM_5
100
AcDbLine
 10
218.7014393037989
 20
-137.308323294318
 30
0.0
 11
218.7014393037989
 21
-145.254102122595
 31
0.0
  0
LINE
  5
3A8A
330
33F1
100
AcDbEntity
  8
AM_5
100
AcDbLine
 10
206.7014393037989
 20
-143.754102122595
 30
0.0
 11
215.7014393037989
 21
-143.754102122595
 31
0.0
  0
SOLID
  5
3A8B
330
33F1
100
AcDbEntity
  8
AM_5
100
AcDbTrace
 10
206.7014393037989
 20
-143.2541021225951
 30
0.0
 11
206.7014393037989
 21
-144.2541021225951
 31
0.0
 12
203.7014393037989
 22
-143.754102122595
 32
0.0
 13
203.7014393037989
 23
-143.754102122595
 33
0.0
  0
SOLID
  5
3A8C
330
33F1
100
AcDbEntity
  8
AM_5
100
AcDbTrace
 10
215.7014393037989
 20
-143.2541021225951
 30
0.0
 11
215.7014393037989
 21
-144.2541021225951
 31
0.0
 12
218.7014393037989
 22
-143.754102122595
 32
0.0
 13
218.7014393037989
 23
-143.754102122595
 33
0.0
  0
MTEXT
  5
3A8D
330
33F1
100
AcDbEntity
  8
AM_5
100
AcDbMText
 10
211.2014393037989
 20
-141.454102122595
 30
0.0
 40
3.0
 41
0.0
 71
     5
 72
     1
  1
15
 73
     1
 44
1.0
1001
ACAD
1000
MTEXTBEGIN
1070
    73
1070
     1
1070
    44
1040
1.0
1070
    74
1070
     0
1000
MTEXTEND
  0
POINT
  5
3A8E
330
33F1
100
AcDbEntity
  8
DEFPOINTS
 62
     0
100
AcDbPoint
 10
203.7014393037989
 20
-136.308323294318
 30
0.0
  0
POINT
  5
3A8F
330
33F1
100
AcDbEntity
  8
DEFPOINTS
 62
     0
100
AcDbPoint
 10
218.7014393037989
 20
-136.308323294318
 30
0.0
  0
POINT
  5
3A90
330
33F1
100
AcDbEntity
  8
DEFPOINTS
 62
     0
100
AcDbPoint
 10
218.7014393037989
 20
-143.754102122595
 30
0.0
  0
ENDBLK
  5
33FC
330
33F1
100
AcDbEntity
  8
0
100
AcDbBlockEnd
  0
BLOCK
  5
3602
330
35F6
100
AcDbEntity
  8
0
100
AcDbBlockBegin
  2
*D46
 70
     1
 10
0.0
 20
0.0
 30
0.0
  3
*D46
  1

  0
LINE
  5
3A91
330
35F6
100
AcDbEntity
  8
AM_5
100
AcDbLine
 10
139.7014393037988
 20
-135.3083232943181
 30
0.0
 11
139.7014393037988
 21
-149.2413097998169
 31
0.0
  0
LINE
  5
3A92
330
35F6
100
AcDbEntity
  8
AM_5
100
AcDbLine
 10
142.7014393037988
 20
-140.8083232943181
 30
0.0
 11
142.7014393037988
 21
-149.2413097998169
 31
0.0
  0
LINE
  5
3A93
330
35F6
100
AcDbEntity
  8
AM_5
100
AcDbLine
 10
136.7014393037988
 20
-147.7413097998169
 30
0.0
 11
133.7014393037988
 21
-147.7413097998169
 31
0.0
  0
LINE
  5
3A94
330
35F6
100
AcDbEntity
  8
AM_5
100
AcDbLine
 10
145.7014393037988
 20
-147.7413097998169
 30
0.0
 11
148.7014393037988
 21
-147.7413097998169
 31
0.0
  0
LINE
  5
3A95
330
35F6
100
AcDbEntity
  8
AM_5
100
AcDbLine
 10
139.7014393037988
 20
-147.7413097998169
 30
0.0
 11
142.7014393037988
 21
-147.7413097998169
 31
0.0
  0
SOLID
  5
3A96
330
35F6
100
AcDbEntity
  8
AM_5
100
AcDbTrace
 10
136.7014393037988
 20
-147.2413097998169
 30
0.0
 11
136.7014393037988
 21
-148.2413097998169
 31
0.0
 12
139.7014393037988
 22
-147.7413097998169
 32
0.0
 13
139.7014393037988
 23
-147.7413097998169
 33
0.0
  0
SOLID
  5
3A97
330
35F6
100
AcDbEntity
  8
AM_5
100
AcDbTrace
 10
145.7014393037988
 20
-147.2413097998169
 30
0.0
 11
145.7014393037988
 21
-148.2413097998169
 31
0.0
 12
142.7014393037988
 22
-147.7413097998169
 32
0.0
 13
142.7014393037988
 23
-147.7413097998169
 33
0.0
  0
MTEXT
  5
3A98
330
35F6
100
AcDbEntity
  8
AM_5
100
AcDbMText
 10
141.2014393037988
 20
-145.4413097998169
 30
0.0
 40
3.0
 41
0.0
 71
     5
 72
     1
  1
3
 73
     1
 44
1.0
1001
ACAD
1000
MTEXTBEGIN
1070
    73
1070
     1
1070
    44
1040
1.0
1070
    74
1070
     0
1000
MTEXTEND
  0
POINT
  5
3A99
330
35F6
100
AcDbEntity
  8
DEFPOINTS
 62
     0
100
AcDbPoint
 10
139.7014393037988
 20
-134.3083232943181
 30
0.0
  0
POINT
  5
3A9A
330
35F6
100
AcDbEntity
  8
DEFPOINTS
 62
     0
100
AcDbPoint
 10
142.7014393037988
 20
-139.8083232943181
 30
0.0
  0
POINT
  5
3A9B
330
35F6
100
AcDbEntity
  8
DEFPOINTS
 62
     0
100
AcDbPoint
 10
142.7014393037988
 20
-147.7413097998169
 30
0.0
  0
ENDBLK
  5
3603
330
35F6
100
AcDbEntity
  8
0
100
AcDbBlockEnd
  0
BLOCK
  5
3B4E
330
3B4B
100
AcDbEntity
  8
0
100
AcDbBlockBegin
  2
A$C1F6E6265
 70
     0
 10
0.0
 20
0.0
 30
0.0
  3
A$C1F6E6265
  1

  0
LINE
  5
3B4F
330
3B4B
100
AcDbEntity
  8
AM_5
 62
     5
100
AcDbLine
 10
12.57846733029419
 20
0.460783587398737
 30
0.0
 11
7.091423997858555
 21
0.460783587398737
 31
0.0
  0
LINE
  5
3B50
330
3B4B
100
AcDbEntity
  8
AM_5
 62
     5
100
AcDbLine
 10
7.091423997858555
 20
0.460783587398737
 30
0.0
 11
3.50000046420655
 21
0.460783587398737
 31
0.0
  0
TRACE
  5
3B51
330
3B4B
100
AcDbEntity
  8
AM_5
 62
     5
370
    35
100
AcDbTrace
 10
3.50000046420655
 20
0.9215673268987245
 30
0.0
 11
3.50000046420655
 21
-0.0000001521012507
 31
0.0
 12
0.0000004642065505
 22
0.460783587398737
 32
0.0
 13
0.0000004642065505
 23
0.460783587398737
 33
0.0
  0
MTEXT
  5
3B52
330
3B4B
100
AcDbEntity
  8
AM_5
 62
     5
100
AcDbMText
 10
6.603782167567317
 20
1.421084835219261
 30
0.0
 40
2.449999999999999
 41
0.0
 71
     7
 72
     5
  1
SL
  7
ACISOTS
 73
     1
 44
1.0
1001
ACAD
1000
MTEXTBEGIN
1070
    73
1070
     1
1070
    44
1040
1.0
1070
    74
1070
     0
1000
MTEXTEND
  0
ENDBLK
  5
3B53
330
3B4B
100
AcDbEntity
  8
0
100
AcDbBlockEnd
  0
ENDSEC
  0
SECTION
  2
ENTITIES
  0
INSERT
  5
51A
330
1E
100
AcDbEntity
  8
ASHADE
 62
     1
100
AcDbBlockReference
  2
AVE_RENDER
 10
0.0
 20
0.0
 30
0.0
1001
AVE_RENDER
1002
{
1070
     7
1000
Pref
1070
    30
1070
    20
1070
     1
1070
     0
1000

1070
    10
1070
     1
1070
    10
1040
1.0
1070
     1
1040
0.3
1040
0.7
1040
0.0
1040
10.0
1010
-1.0
1020
-1.0
1030
-1.0
1040
0.3
1070
    49
1070
     0
1070
     0
1010
1.0
1020
1.0
1030
1.0
1040
45.0
1070
     1
1070
     0
1000
WCS
1040
0.0
1070
     0
1040
10.0
1002
}
  0
INSERT
  5
51B
330
1E
100
AcDbEntity
  8
ASHADE
 62
     3
100
AcDbBlockReference
  2
AVE_RENDER
 10
0.0
 20
0.0
 30
0.0
1001
AVE_RENDER
1002
{
1070
     0
1000
Full Opt
1070
     0
1070
     1
1070
     1
1070
     1
1070
     0
1070
     0
1070
     0
1070
     1
1070
     1
1040
0.0001
1040
0.0001
1002
}
  0
INSERT
  5
51C
330
1E
100
AcDbEntity
  8
ASHADE
 62
     4
100
AcDbBlockReference
  2
AVE_RENDER
 10
0.0
 20
0.0
 30
0.0
1001
AVE_RENDER
1002
{
1070
     0
1000
Quick Opt
1070
     0
1070
     1
1070
     1
1070
     1
1070
     0
1070
     0
1070
     1
1002
}
  0
INSERT
  5
51D
330
1E
100
AcDbEntity
  8
ASHADE
 62
     5
100
AcDbBlockReference
  2
AVE_RENDER
 10
0.0
 20
0.0
 30
0.0
1001
AVE_RENDER
1002
{
1070
     1
1000
Scanl Opt
1070
     2
1070
     0
1070
     2
1040
2.0
1040
4.0
1070
     0
1070
     1
1070
     0
1040
0.03
1002
}
  0
INSERT
  5
51E
330
1E
100
AcDbEntity
  8
ASHADE
 62
     6
100
AcDbBlockReference
  2
AVE_RENDER
 10
0.0
 20
0.0
 30
0.0
1001
AVE_RENDER
1002
{
1070
     2
1000
Raytr Opt
1070
     2
1070
     0
1070
     2
1040
2.0
1040
4.0
1070
     0
1070
     1
1070
     1
1040
0.03
1070
     3
1040
0.03
1002
}
  0
INSERT
  5
51F
330
1E
100
AcDbEntity
  8
ASHADE
 62
     7
100
AcDbBlockReference
  2
AVE_RENDER
 10
0.0
 20
0.0
 30
0.0
1001
AVE_RENDER
1002
{
1070
     0
1000
RFile Opt
1070
     1
1070
   640
1070
   480
1070
 10000
1070
     1
1070
     8
1070
     8
1070
     0
1070
     0
1070
     0
1070
     0
1070
     0
1070
     0
1070
     0
1002
}
  0
INSERT
  5
520
330
1E
100
AcDbEntity
  8
ASHADE
 62
     8
100
AcDbBlockReference
  2
AVE_RENDER
 10
0.0
 20
0.0
 30
0.0
1001
AVE_RENDER
1002
{
1070
     0
1000
Fog Opt
1070
     0
1070
     0
1040
0.0
1040
1.0
1040
0.0
1040
1.0
1010
0.5
1020
0.5
1030
0.5
1002
}
  0
INSERT
  5
521
330
1E
100
AcDbEntity
  8
ASHADE
 62
     9
100
AcDbBlockReference
  2
AVE_RENDER
 10
0.0
 20
0.0
 30
0.0
1001
AVE_RENDER
1002
{
1070
     0
1000
BG Opt
1070
     0
1070
     1
1010
0.0
1020
0.0
1030
0.0
1010
1.0
1020
0.0
1030
0.0
1010
0.0
1020
1.0
1030
0.0
1010
0.0
1020
0.0
1030
1.0
1040
0.5
1040
0.33
1040
0.0
1000

1070
     1
1000

1070
     1
1070
     1
1040
1.0
1040
1.0
1040
0.0
1040
0.0
1070
     0
1002
}
  0
INSERT
  5
528
330
1E
100
AcDbEntity
  8
ASHADE
 62
     1
100
AcDbBlockReference
  2
AVE_GLOBAL
 10
0.0
 20
0.0
 30
0.0
1001
AVE_MATERIAL
1002
{
1000
*整體*
1000
2
1000
整體修飾.
1002
{
1002
}
1002
{
1070
    63
1002
{
1002
{
1010
-1.0
1020
-1.0
1030
-1.0
1002
}
1040
0.1000000014901161
1000

1040
0.0
1002
{
1002
}
1040
0.0
1002
{
1002
}
1040
0.0
1002
}
1002
{
1002
{
1010
-1.0
1020
-1.0
1030
-1.0
1002
}
1040
0.6999999880790711
1000

1040
0.0
1002
{
1002
}
1040
0.0
1002
{
1002
}
1040
0.0
1002
}
1002
{
1002
{
1010
-1.0
1020
-1.0
1030
-1.0
1002
}
1040
0.2000000029802322
1000

1040
0.0
1002
{
1002
}
1040
0.0
1002
{
1002
}
1040
0.0
1002
}
1002
{
1070
     0
1002
{
1070
     1
1002
{
1040
1.0
1040
1.0
1000

1040
0.0
1002
{
1002
}
1040
0.0
1002
{
1002
}
1040
0.0
1002
}
1002
}
1040
1.0
1040
0.0
1040
0.0
1002
}
1002
{
1040
1.0
1040
1.0
1000

1040
0.0
1002
{
1002
}
1040
0.0
1002
{
1002
}
1040
0.0
1002
}
1002
{
1040
0.5
1040
1.0
1000

1040
0.0
1002
{
1002
}
1040
0.0
1002
{
1002
}
1040
0.0
1002
}
1002
{
1070
     0
1040
0.0
1002
{
1002
}
1040
1.0
1002
{
1002
}
1040
0.0
1002
}
1002
{
1040
0.0
1002
{
1002
{
1010
0.0
1020
0.0
1030
0.0
1002
}
1040
1.0
1000

1040
0.0
1002
{
1002
}
1040
0.0
1002
{
1002
}
1040
0.0
1002
}
1002
}
1002
{
1002
{
1070
     1
1002
{
1040
0.0
1040
1.0
1000

1040
0.0
1002
{
1002
}
1040
0.0
1002
{
1002
}
1040
0.0
1002
}
1002
}
1040
0.0
1002
{
1002
}
1010
1.0
1020
0.0
1030
0.0
1010
0.0
1020
1.0
1030
0.0
1010
0.0
1020
0.0
1030
1.0
1070
     0
1002
}
1002
{
1002
{
1040
1.0
1040
1.0
1002
{
1070
     1
1002
{
1040
1.0
1040
1.0
1000

1040
0.0
1002
{
1002
}
1040
0.0
1002
{
1002
}
1040
0.0
1002
}
1002
}
1002
}
1070
     0
1040
0.0
1002
{
1002
}
1002
}
1002
{
1002
}
1002
}
1002
{
1071
        3
1070
     3
1070
     0
1002
{
1070
     2
1070
     0
1070
     0
1040
0.0
1002
}
1070
     0
1070
     2
1002
{
1002
}
1002
}
1002
{
1040
8030.0
1040
190.3000030517578
1040
0.3050000071525574
1040
228.0
1040
545.0
1040
14.0
1040
17.39999961853027
1040
0.4560000002384186
1002
}
1002
}
  0
LINE
  5
EEC
330
1E
100
AcDbEntity
  8
AM_7
100
AcDbLine
 10
221.4954393037989
 20
68.41415931774929
 30
0.0
 11
113.9074393037989
 21
68.41415931774929
 31
0.0
  0
LINE
  5
EED
330
1E
100
AcDbEntity
  8
AM_7
100
AcDbLine
 10
221.4954393037989
 20
12.71687519020463
 30
0.0
 11
113.9074393037989
 21
12.71687519020463
 31
0.0
  0
LINE
  5
EEE
330
1E
100
AcDbEntity
  8
AM_VIS
100
AcDbLine
 10
201.101439303799
 20
23.31687519020466
 30
0.0
 11
174.3014393037989
 21
23.31687519020466
 31
0.0
  0
LINE
  5
EEF
330
1E
100
AcDbEntity
  8
AM_VIS
100
AcDbLine
 10
201.101439303799
 20
2.116875190204609
 30
0.0
 11
174.3014393037989
 21
2.116875190204609
 31
0.0
  0
LINE
  5
EF0
330
1E
100
AcDbEntity
  8
AM_VIS
100
AcDbLine
 10
201.101439303799
 20
57.81415931774927
 30
0.0
 11
174.3014393037989
 21
57.81415931774927
 31
0.0
  0
LINE
  5
EF1
330
1E
100
AcDbEntity
  8
AM_VIS
100
AcDbLine
 10
201.101439303799
 20
79.01415931774931
 30
0.0
 11
174.3014393037989
 21
79.01415931774931
 31
0.0
  0
LINE
  5
EFB
330
1E
100
AcDbEntity
  8
AM_VIS
100
AcDbLine
 10
142.7014393037989
 20
26.71687519020463
 30
0.0
 11
142.7014393037989
 21
-1.283124809795367
 31
0.0
  0
LINE
  5
EFC
330
1E
100
AcDbEntity
  8
AM_VIS
100
AcDbLine
 10
171.7014393037989
 20
26.71687519020463
 30
0.0
 11
171.7014393037989
 21
-1.283124809795367
 31
0.0
  0
LINE
  5
EFD
330
1E
100
AcDbEntity
  8
AM_VIS
100
AcDbLine
 10
45.23426819218087
 20
-1.283124809795367
 30
0.0
 11
45.23426819218087
 21
26.71687519020463
 31
0.0
  0
LINE
  5
EFE
330
1E
100
AcDbEntity
  8
AM_VIS
100
AcDbLine
 10
78.73426819218088
 20
26.71687519020463
 30
0.0
 11
78.73426819218088
 21
-1.283124809795367
 31
0.0
  0
LINE
  5
EFF
330
1E
100
AcDbEntity
  8
AM_VIS
100
AcDbLine
 10
77.73426819218087
 20
-2.283124809795367
 30
0.0
 11
46.23426819218088
 21
-2.283124809795367
 31
0.0
  0
LINE
  5
F00
330
1E
100
AcDbEntity
  8
AM_VIS
100
AcDbLine
 10
46.23426819218088
 20
-2.283124809795367
 30
0.0
 11
45.23426819218087
 21
-1.283124809795367
 31
0.0
  0
LINE
  5
F01
330
1E
100
AcDbEntity
  8
AM_VIS
100
AcDbLine
 10
171.7014393037989
 20
-1.283124809795367
 30
0.0
 11
142.7014393037989
 21
-1.283124809795367
 31
0.0
  0
LINE
  5
F02
330
1E
100
AcDbEntity
  8
AM_VIS
100
AcDbLine
 10
142.7014393037989
 20
-2.283124809795367
 30
0.0
 11
171.7014393037989
 21
-2.283124809795367
 31
0.0
  0
LINE
  5
F03
330
1E
100
AcDbEntity
  8
AM_VIS
100
AcDbLine
 10
78.73426819218088
 20
-1.283124809795367
 30
0.0
 11
77.73426819218087
 21
-2.283124809795367
 31
0.0
  0
LINE
  5
F04
330
1E
100
AcDbEntity
  8
AM_VIS
100
AcDbLine
 10
142.7014393037989
 20
-1.283124809795367
 30
0.0
 11
142.7014393037989
 21
-2.283124809795367
 31
0.0
  0
LINE
  5
F05
330
1E
100
AcDbEntity
  8
AM_VIS
100
AcDbLine
 10
171.7014393037989
 20
-2.283124809795367
 30
0.0
 11
171.7014393037989
 21
-1.283124809795367
 31
0.0
  0
LINE
  5
F08
330
1E
100
AcDbEntity
  8
AM_VIS
100
AcDbLine
 10
46.23426819218088
 20
27.71687519020463
 30
0.0
 11
77.73426819218087
 21
27.71687519020463
 31
0.0
  0
LINE
  5
F0B
330
1E
100
AcDbEntity
  8
AM_VIS
100
AcDbLine
 10
45.23426819218087
 20
26.71687519020463
 30
0.0
 11
46.23426819218088
 21
27.71687519020463
 31
0.0
  0
CIRCLE
  5
F0E
330
1E
100
AcDbEntity
  8
AM_VIS
100
AcDbCircle
 10
61.98426819218088
 20
12.71687519020463
 30
0.0
 40
10.0
  0
LINE
  5
F10
330
1E
100
AcDbEntity
  8
AM_VIS
100
AcDbLine
 10
55.48426819218088
 20
8.964098440472071
 30
0.0
 11
61.98426819218088
 21
5.211321690739509
 31
0.0
  0
LINE
  5
F11
330
1E
100
AcDbEntity
  8
AM_VIS
100
AcDbLine
 10
55.48426819218088
 20
16.46965193993719
 30
0.0
 11
61.98426819218088
 21
20.22242868966981
 31
0.0
  0
LINE
  5
F12
330
1E
100
AcDbEntity
  8
AM_VIS
100
AcDbLine
 10
55.48426819218088
 20
16.46965193993719
 30
0.0
 11
61.98426819218093
 21
20.22242868966981
 31
0.0
  0
LINE
  5
F13
330
1E
100
AcDbEntity
  8
AM_VIS
100
AcDbLine
 10
55.48426819218088
 20
8.964098440472071
 30
0.0
 11
61.98426819218088
 21
5.211321690739509
 31
0.0
  0
CIRCLE
  5
F14
330
1E
100
AcDbEntity
  8
AM_VIS
100
AcDbCircle
 10
61.98426819218088
 20
12.71687519020463
 30
0.0
 40
4.266025403784443
  0
CIRCLE
  5
F15
330
1E
100
AcDbEntity
  8
AM_VIS
100
AcDbCircle
 10
61.98426819218088
 20
12.71687519020463
 30
0.0
 40
6.250000000000005
  0
CIRCLE
  5
F16
330
1E
100
AcDbEntity
  8
AM_VIS
100
AcDbCircle
 10
61.98426819218088
 20
12.71687519020463
 30
0.0
 40
3.9
  0
CIRCLE
  5
F17
330
1E
100
AcDbEntity
  8
AM_VIS
100
AcDbCircle
 10
61.98426819218088
 20
12.71687519020463
 30
0.0
 40
2.9
  0
LINE
  5
F18
330
1E
100
AcDbEntity
  8
AM_VIS
100
AcDbLine
 10
55.48426819218088
 20
16.46965193993719
 30
0.0
 11
55.48426819218088
 21
8.964098440472071
 31
0.0
  0
LINE
  5
F19
330
1E
100
AcDbEntity
  8
AM_VIS
100
AcDbLine
 10
55.48426819218088
 20
16.46965193993719
 30
0.0
 11
55.48426819218088
 21
8.964098440472071
 31
0.0
  0
LINE
  5
F1B
330
1E
100
AcDbEntity
  8
AM_VIS
100
AcDbLine
 10
68.48426819218087
 20
16.46965193993719
 30
0.0
 11
68.48426819218087
 21
8.964098440472071
 31
0.0
  0
LINE
  5
F1C
330
1E
100
AcDbEntity
  8
AM_VIS
100
AcDbLine
 10
68.48426819218094
 20
16.46965193993719
 30
0.0
 11
68.48426819218094
 21
8.964098440472071
 31
0.0
  0
LINE
  5
F1D
330
1E
100
AcDbEntity
  8
AM_VIS
100
AcDbLine
 10
61.98426819218088
 20
5.211321690739509
 30
0.0
 11
68.48426819218087
 21
8.964098440472071
 31
0.0
  0
LINE
  5
F1E
330
1E
100
AcDbEntity
  8
AM_VIS
100
AcDbLine
 10
61.98426819218088
 20
5.211321690739509
 30
0.0
 11
68.48426819218094
 21
8.964098440472071
 31
0.0
  0
LINE
  5
F1F
330
1E
100
AcDbEntity
  8
AM_VIS
100
AcDbLine
 10
61.98426819218088
 20
20.22242868966981
 30
0.0
 11
68.48426819218087
 21
16.46965193993719
 31
0.0
  0
LINE
  5
F20
330
1E
100
AcDbEntity
  8
AM_VIS
100
AcDbLine
 10
61.98426819218093
 20
20.22242868966981
 30
0.0
 11
68.48426819218094
 21
16.46965193993719
 31
0.0
  0
LINE
  5
F25
330
1E
100
AcDbEntity
  8
AM_7
100
AcDbLine
 10
164.7014393037989
 20
68.41415931774929
 30
0.0
 11
164.7014393037989
 21
76.20815931774927
 31
0.0
  0
ARC
  5
F26
330
1E
100
AcDbEntity
  8
AM_4
100
AcDbCircle
 10
164.7014393037989
 20
68.41415931774929
 30
0.0
 40
4.863999999999999
100
AcDbArc
 50
259.9999999999982
 51
189.9999999999986
  0
LINE
  5
F27
330
1E
100
AcDbEntity
  8
AM_VIS
100
AcDbLine
 10
171.7014393037989
 20
84.16415931774929
 30
0.0
 11
171.7014393037989
 21
52.66415931774929
 31
0.0
  0
LINE
  5
F28
330
1E
100
AcDbEntity
  8
AM_VIS
100
AcDbLine
 10
142.7014393037989
 20
84.16415931774929
 30
0.0
 11
142.7014393037989
 21
52.66415931774929
 31
0.0
  0
LINE
  5
F2A
330
1E
100
AcDbEntity
  8
AM_VIS
100
AcDbLine
 10
139.7014393037989
 20
58.91415931774929
 30
0.0
 11
139.7014393037989
 21
77.91415931774929
 31
0.0
  0
CIRCLE
  5
F2D
330
1E
100
AcDbEntity
  8
AM_VIS
100
AcDbCircle
 10
164.7014393037989
 20
68.41415931774929
 30
0.0
 40
4.283
  0
LINE
  5
F2E
330
1E
100
AcDbEntity
  8
AM_VIS
100
AcDbLine
 10
174.2014393037989
 20
57.51415931774926
 30
0.0
 11
174.2014393037989
 21
79.31415931774927
 31
0.0
  0
SPLINE
  5
F2F
330
1E
100
AcDbEntity
  8
AM_VIS
100
AcDbSpline
210
0.0
220
0.0
230
1.0
 70
    12
 71
     2
 72
     6
 73
     3
 74
     0
 42
0.0000000001
 43
0.0000000001
 40
4.619277005814863
 40
4.619277005814863
 40
4.619277005814863
 40
14.54666500947176
 40
14.54666500947176
 40
14.54666500947176
 10
125.9263334546971
 20
74.91415931774927
 30
0.0
 41
1.267354410568478
 10
124.8430001213638
 20
71.66415931774927
 30
0.0
 41
1.463414820200741
 10
125.9263334546971
 20
68.41415931774927
 30
0.0
 41
1.26735441056848
  0
SPLINE
  5
F30
330
1E
100
AcDbEntity
  8
AM_VIS
100
AcDbSpline
210
0.0
220
0.0
230
1.0
 70
    12
 71
     2
 72
     6
 73
     3
 74
     0
 42
0.0000000001
 43
0.0000000001
 40
4.619277005814921
 40
4.619277005814921
 40
4.619277005814921
 40
14.54666500947182
 40
14.54666500947182
 40
14.54666500947182
 10
129.4765451529007
 20
68.41415931774931
 30
0.0
 41
1.26735441056848
 10
130.5598784862341
 20
71.66415931774934
 30
-0.0000000000000018
 41
1.46341482020074
 10
129.4765451529007
 20
74.91415931774932
 30
0.0
 41
1.267354410568478
  0
LINE
  5
F31
330
1E
100
AcDbEntity
  8
AM_VIS
100
AcDbLine
 10
125.2014393037989
 20
74.66415931774929
 30
0.0
 11
125.2014393037989
 21
68.41415931774929
 31
0.0
  0
LINE
  5
F32
330
1E
100
AcDbEntity
  8
AM_VIS
100
AcDbLine
 10
130.2014393037989
 20
68.41415931774929
 30
0.0
 11
130.2014393037989
 21
74.66415931774929
 31
0.0
  0
SPLINE
  5
F33
330
1E
100
AcDbEntity
  8
AM_VIS
100
AcDbSpline
210
0.0
220
-0.0000000000000003
230
1.0
 70
    12
 71
     2
 72
     6
 73
     3
 74
     0
 42
0.0000000001
 43
0.0000000001
 40
4.619277005814876
 40
4.619277005814876
 40
4.619277005814876
 40
14.54666500947179
 40
14.54666500947179
 40
14.54666500947179
 10
124.4765451529007
 20
68.41415931774918
 30
0.0
 41
1.267354410568481
 10
125.559878486234
 20
71.66415931774929
 30
0.0
 41
1.463414820200745
 10
124.4765451529007
 20
74.91415931774927
 30
0.0000000000000018
 41
1.267354410568482
  0
SPLINE
  5
F34
330
1E
100
AcDbEntity
  8
AM_VIS
100
AcDbSpline
210
0.0
220
0.0
230
1.0
 70
    12
 71
     2
 72
     6
 73
     3
 74
     0
 42
0.0000000001
 43
0.0000000001
 40
4.619277005814916
 40
4.619277005814916
 40
4.619277005814916
 40
14.54666500947183
 40
14.54666500947183
 40
14.54666500947183
 10
120.9263334546971
 20
74.9141593177493
 30
0.0
 41
1.267354410568483
 10
119.8430001213638
 20
71.66415931774924
 30
0.0000000000000018
 41
1.463414820200745
 10
120.9263334546972
 20
68.41415931774921
 30
0.0
 41
1.267354410568481
  0
LINE
  5
F35
330
1E
100
AcDbEntity
  8
AM_VIS
100
AcDbLine
 10
125.2014393037989
 20
68.41415931774929
 30
0.0
 11
125.2014393037989
 21
74.66415931774929
 31
0.0
  0
LINE
  5
F36
330
1E
100
AcDbEntity
  8
AM_VIS
100
AcDbLine
 10
120.2014393037989
 20
74.66415931774929
 30
0.0
 11
120.2014393037989
 21
68.41415931774929
 31
0.0
  0
LINE
  5
F39
330
1E
100
AcDbEntity
  8
AM_VIS
100
AcDbLine
 10
133.7014393037989
 20
64.9141593177493
 30
0.0
 11
133.7014393037989
 21
71.9141593177493
 31
0.0
  0
LINE
  5
F3A
330
1E
100
AcDbEntity
  8
AM_VIS
100
AcDbLine
 10
115.7014393037989
 20
65.51415931774926
 30
0.0
 11
115.7014393037989
 21
71.31415931774927
 31
0.0
  0
LINE
  5
F3B
330
1E
100
AcDbEntity
  8
AM_VIS
100
AcDbLine
 10
171.7014393037989
 20
27.71687519020463
 30
0.0
 11
142.7014393037989
 21
27.71687519020463
 31
0.0
  0
LINE
  5
F3C
330
1E
100
AcDbEntity
  8
AM_VIS
100
AcDbLine
 10
142.7014393037989
 20
26.71687519020463
 30
0.0
 11
171.7014393037989
 21
26.71687519020463
 31
0.0
  0
LINE
  5
F3D
330
1E
100
AcDbEntity
  8
AM_VIS
100
AcDbLine
 10
142.7014393037989
 20
51.66415931774929
 30
0.0
 11
171.7014393037989
 21
51.66415931774929
 31
0.0
  0
LINE
  5
F3E
330
1E
100
AcDbEntity
  8
AM_VIS
100
AcDbLine
 10
171.7014393037989
 20
52.66415931774929
 30
0.0
 11
142.7014393037989
 21
52.66415931774929
 31
0.0
  0
LINE
  5
F3F
330
1E
100
AcDbEntity
  8
AM_VIS
100
AcDbLine
 10
120.2014393037989
 20
6.466875190204632
 30
0.0
 11
120.9263334546971
 21
5.211321690739509
 31
0.0
  0
LINE
  5
F40
330
1E
100
AcDbEntity
  8
AM_VIS
100
AcDbLine
 10
120.2014393037989
 20
18.96687519020463
 30
0.0
 11
120.9263334546971
 21
20.22242868966981
 31
0.0
  0
SPLINE
  5
F41
330
1E
100
AcDbEntity
  8
AM_VIS
100
AcDbSpline
210
0.0
220
0.0
230
1.0
 70
    12
 71
     2
 72
     6
 73
     3
 74
     0
 42
0.0000000001
 43
0.0000000001
 40
4.619277005814921
 40
4.619277005814921
 40
4.619277005814921
 40
14.54666500947182
 40
14.54666500947182
 40
14.54666500947182
 10
120.9263334546971
 20
20.22242868966982
 30
0.0
 41
1.26735441056848
 10
119.8430001213637
 20
18.34604031480353
 30
-0.0000000000000071
 41
1.46341482020074
 10
120.9263334546971
 20
16.46965193993719
 30
0.0
 41
1.267354410568478
  0
SPLINE
  5
F42
330
1E
100
AcDbEntity
  8
AM_VIS
100
AcDbSpline
210
0.0
220
0.0
230
1.0
 70
    12
 71
     2
 72
     6
 73
     3
 74
     0
 42
0.0000000001
 43
0.0000000001
 40
4.61927700581488
 40
4.61927700581488
 40
4.61927700581488
 40
14.54666500947177
 40
14.54666500947177
 40
14.54666500947177
 10
120.9263334546971
 20
16.46965193993719
 30
0.0
 41
1.267354410568479
 10
119.8430001213637
 20
12.71687519020463
 30
0.0000000000000071
 41
1.463414820200741
 10
120.9263334546971
 20
8.964098440472071
 30
0.0
 41
1.267354410568479
  0
SPLINE
  5
F43
330
1E
100
AcDbEntity
  8
AM_VIS
100
AcDbSpline
210
0.0
220
0.0
230
1.0
 70
    12
 71
     2
 72
     6
 73
     3
 74
     0
 42
0.0000000001
 43
0.0000000001
 40
4.61927700581486
 40
4.61927700581486
 40
4.61927700581486
 40
14.54666500947178
 40
14.54666500947178
 40
14.54666500947178
 10
120.9263334546971
 20
8.964098440472071
 30
0.0
 41
1.267354410568481
 10
119.8430001213638
 20
7.087710065605818
 30
0.0
 41
1.463414820200747
 10
120.9263334546971
 20
5.211321690739509
 30
0.0
 41
1.267354410568483
  0
LINE
  5
F44
330
1E
100
AcDbEntity
  8
AM_VIS
100
AcDbLine
 10
120.2014393037989
 20
18.96687519020463
 30
0.0
 11
120.2014393037989
 21
6.466875190204632
 31
0.0
  0
LINE
  5
F45
330
1E
100
AcDbEntity
  8
AM_VIS
100
AcDbLine
 10
115.7014393037989
 20
9.816875190204655
 30
0.0
 11
115.7014393037989
 21
12.71687519020463
 31
0.0
  0
LINE
  5
F46
330
1E
100
AcDbEntity
  8
AM_VIS
100
AcDbLine
 10
116.7014393037989
 20
12.71687519020463
 30
0.0
 11
116.7014393037989
 21
8.816875190204655
 31
0.0
  0
LINE
  5
F47
330
1E
100
AcDbEntity
  8
AM_VIS
100
AcDbLine
 10
115.7014393037989
 20
9.816875190204655
 30
0.0
 11
116.7014393037989
 21
8.816875190204655
 31
0.0
  0
LINE
  5
F48
330
1E
100
AcDbEntity
  8
AM_VIS
100
AcDbLine
 10
120.2014393037989
 20
8.816875190204655
 30
0.0
 11
116.7014393037989
 21
8.816875190204655
 31
0.0
  0
LINE
  5
F49
330
1E
100
AcDbEntity
  8
AM_VIS
100
AcDbLine
 10
115.7014393037989
 20
12.71687519020463
 30
0.0
 11
115.7014393037989
 21
15.61687519020461
 31
0.0
  0
LINE
  5
F4A
330
1E
100
AcDbEntity
  8
AM_VIS
100
AcDbLine
 10
116.7014393037989
 20
16.61687519020461
 30
0.0
 11
116.7014393037989
 21
12.71687519020463
 31
0.0
  0
LINE
  5
F4B
330
1E
100
AcDbEntity
  8
AM_VIS
100
AcDbLine
 10
115.7014393037989
 20
15.61687519020461
 30
0.0
 11
116.7014393037989
 21
16.61687519020461
 31
0.0
  0
LINE
  5
F4C
330
1E
100
AcDbEntity
  8
AM_VIS
100
AcDbLine
 10
120.2014393037989
 20
16.61687519020461
 30
0.0
 11
116.7014393037989
 21
16.61687519020461
 31
0.0
  0
LINE
  5
F4E
330
1E
100
AcDbEntity
  8
AM_VIS
100
AcDbLine
 10
77.73426819218087
 20
27.71687519020463
 30
0.0
 11
78.73426819218088
 21
26.71687519020463
 31
0.0
  0
LINE
  5
F50
330
1E
100
AcDbEntity
  8
AM_VIS
100
AcDbLine
 10
139.7014393037989
 20
12.71687519020463
 30
0.0
 11
139.7014393037989
 21
22.21687519020463
 31
0.0
  0
LINE
  5
F51
330
1E
100
AcDbEntity
  8
AM_VIS
100
AcDbLine
 10
133.7014393037989
 20
16.61687519020461
 30
0.0
 11
130.2014393037989
 21
16.61687519020461
 31
0.0
  0
LINE
  5
F52
330
1E
100
AcDbEntity
  8
AM_VIS
100
AcDbLine
 10
133.7014393037989
 20
8.816875190204655
 30
0.0
 11
130.2014393037989
 21
8.816875190204655
 31
0.0
  0
ELLIPSE
  5
F53
330
1E
100
AcDbEntity
  8
AM_VIS
100
AcDbEllipse
 10
144.2014393037988
 20
12.71687519020463
 30
0.0
 11
-11.69999999999993
 21
0.0000000000000475
 31
-0.0000000000000001
210
0.0
220
0.0
230
1.0
 40
0.3333333333333353
 41
-0.4568740035326594
 42
0.4568740035326666
  0
LINE
  5
F54
330
1E
100
AcDbEntity
  8
AM_VIS
100
AcDbLine
 10
130.2014393037989
 20
6.466875190204632
 30
0.0
 11
130.2014393037989
 21
18.96687519020463
 31
0.0
  0
LINE
  5
F55
330
1E
100
AcDbEntity
  8
AM_VIS
100
AcDbLine
 10
125.2014393037989
 20
18.96687519020463
 30
0.0
 11
125.2014393037989
 21
6.466875190204632
 31
0.0
  0
SPLINE
  5
F56
330
1E
100
AcDbEntity
  8
AM_VIS
100
AcDbSpline
210
0.0
220
0.0
230
1.0
 70
    12
 71
     2
 72
     6
 73
     3
 74
     0
 42
0.0000000001
 43
0.0000000001
 40
4.619277005814915
 40
4.619277005814915
 40
4.619277005814915
 40
14.54666500947185
 40
14.54666500947185
 40
14.54666500947185
 10
129.4765451529007
 20
8.964098440472071
 30
0.0
 41
1.267354410568483
 10
130.5598784862341
 20
12.71687519020467
 30
0.0
 41
1.463414820200747
 10
129.4765451529008
 20
16.46965193993719
 30
0.0
 41
1.267354410568482
  0
SPLINE
  5
F57
330
1E
100
AcDbEntity
  8
AM_VIS
100
AcDbSpline
210
0.0
220
0.0
230
1.0
 70
    12
 71
     2
 72
     6
 73
     3
 74
     0
 42
0.0000000001
 43
0.0000000001
 40
4.619277005814888
 40
4.619277005814888
 40
4.619277005814888
 40
14.54666500947182
 40
14.54666500947182
 40
14.54666500947182
 10
125.9263334546971
 20
16.46965193993719
 30
0.0
 41
1.267354410568482
 10
124.8430001213638
 20
12.71687519020466
 30
0.0
 41
1.463414820200747
 10
125.9263334546971
 20
8.964098440472071
 30
0.0
 41
1.267354410568483
  0
LINE
  5
F58
330
1E
100
AcDbEntity
  8
AM_VIS
100
AcDbLine
 10
125.2014393037989
 20
6.466875190204632
 30
0.0
 11
125.2014393037989
 21
18.96687519020463
 31
0.0
  0
SPLINE
  5
F59
330
1E
100
AcDbEntity
  8
AM_VIS
100
AcDbSpline
210
0.0
220
0.0
230
1.0
 70
    12
 71
     2
 72
     6
 73
     3
 74
     0
 42
0.0000000001
 43
0.0000000001
 40
4.619277005814892
 40
4.619277005814892
 40
4.619277005814892
 40
14.54666500947178
 40
14.54666500947178
 40
14.54666500947178
 10
124.4765451529007
 20
8.964098440472071
 30
0.0
 41
1.26735441056848
 10
125.559878486234
 20
12.71687519020463
 30
0.0
 41
1.463414820200741
 10
124.4765451529007
 20
16.46965193993719
 30
0.0
 41
1.267354410568479
  0
LINE
  5
F5A
330
1E
100
AcDbEntity
  8
AM_VIS
100
AcDbLine
 10
125.9263334546971
 20
5.211321690739509
 30
0.0
 11
129.4765451529007
 21
5.211321690739509
 31
0.0
  0
LINE
  5
F5B
330
1E
100
AcDbEntity
  8
AM_VIS
100
AcDbLine
 10
125.9263334546971
 20
8.964098440472071
 30
0.0
 11
129.4765451529007
 21
8.964098440472071
 31
0.0
  0
LINE
  5
F5C
330
1E
100
AcDbEntity
  8
AM_VIS
100
AcDbLine
 10
125.2014393037989
 20
6.466875190204632
 30
0.0
 11
125.9263334546971
 21
5.211321690739509
 31
0.0
  0
SPLINE
  5
F5D
330
1E
100
AcDbEntity
  8
AM_VIS
100
AcDbSpline
210
0.0
220
0.0
230
1.0
 70
    12
 71
     2
 72
     6
 73
     3
 74
     0
 42
0.0000000001
 43
0.0000000001
 40
4.619277005814908
 40
4.619277005814908
 40
4.619277005814908
 40
14.54666500947183
 40
14.54666500947183
 40
14.54666500947183
 10
125.9263334546971
 20
8.964098440472071
 30
0.0
 41
1.267354410568483
 10
124.8430001213638
 20
7.087710065605791
 30
0.0000000000000071
 41
1.463414820200747
 10
125.9263334546971
 20
5.211321690739509
 30
0.0
 41
1.267354410568482
  0
LINE
  5
F5E
330
1E
100
AcDbEntity
  8
AM_VIS
100
AcDbLine
 10
125.2014393037989
 20
6.466875190204632
 30
0.0
 11
124.4765451529007
 21
5.211321690739509
 31
0.0
  0
LINE
  5
F5F
330
1E
100
AcDbEntity
  8
AM_VIS
100
AcDbLine
 10
124.4765451529007
 20
8.964098440472071
 30
0.0
 11
120.9263334546971
 21
8.964098440472071
 31
0.0
  0
LINE
  5
F60
330
1E
100
AcDbEntity
  8
AM_VIS
100
AcDbLine
 10
124.4765451529007
 20
5.211321690739509
 30
0.0
 11
120.9263334546971
 21
5.211321690739509
 31
0.0
  0
SPLINE
  5
F61
330
1E
100
AcDbEntity
  8
AM_VIS
100
AcDbSpline
210
0.0
220
0.0
230
1.0
 70
    12
 71
     2
 72
     6
 73
     3
 74
     0
 42
0.0000000001
 43
0.0000000001
 40
4.619277005814922
 40
4.619277005814922
 40
4.619277005814922
 40
14.54666500947183
 40
14.54666500947183
 40
14.54666500947183
 10
124.4765451529007
 20
5.211321690739509
 30
0.0
 41
1.267354410568481
 10
125.5598784862339
 20
7.087710065605794
 30
0.0000000000000071
 41
1.463414820200743
 10
124.4765451529006
 20
8.964098440472071
 30
0.0
 41
1.267354410568479
  0
LINE
  5
F62
330
1E
100
AcDbEntity
  8
AM_VIS
100
AcDbLine
 10
130.2014393037989
 20
6.466875190204632
 30
0.0
 11
129.4765451529007
 21
5.211321690739509
 31
0.0
  0
SPLINE
  5
F63
330
1E
100
AcDbEntity
  8
AM_VIS
100
AcDbSpline
210
0.0
220
0.0
230
1.0
 70
    12
 71
     2
 72
     6
 73
     3
 74
     0
 42
0.0000000001
 43
0.0000000001
 40
4.619277005814901
 40
4.619277005814901
 40
4.619277005814901
 40
14.54666500947183
 40
14.54666500947183
 40
14.54666500947183
 10
129.4765451529007
 20
5.211321690739509
 30
0.0
 41
1.267354410568483
 10
130.5598784862341
 20
7.08771006560579
 30
-0.0000000000000071
 41
1.463414820200748
 10
129.4765451529007
 20
8.964098440472074
 30
0.0
 41
1.267354410568484
  0
LINE
  5
F64
330
1E
100
AcDbEntity
  8
AM_VIS
100
AcDbLine
 10
125.9263334546971
 20
20.22242868966981
 30
0.0
 11
129.4765451529007
 21
20.22242868966981
 31
0.0
  0
LINE
  5
F65
330
1E
100
AcDbEntity
  8
AM_VIS
100
AcDbLine
 10
125.9263334546971
 20
16.46965193993719
 30
0.0
 11
129.4765451529007
 21
16.46965193993719
 31
0.0
  0
LINE
  5
F66
330
1E
100
AcDbEntity
  8
AM_VIS
100
AcDbLine
 10
125.2014393037989
 20
18.96687519020463
 30
0.0
 11
125.9263334546971
 21
20.22242868966976
 31
0.0
  0
SPLINE
  5
F67
330
1E
100
AcDbEntity
  8
AM_VIS
100
AcDbSpline
210
0.0
220
0.0
230
1.0
 70
    12
 71
     2
 72
     6
 73
     3
 74
     0
 42
0.0000000001
 43
0.0000000001
 40
4.619277005814876
 40
4.619277005814876
 40
4.619277005814876
 40
14.54666500947179
 40
14.54666500947179
 40
14.54666500947179
 10
125.9263334546971
 20
20.22242868966981
 30
0.0
 41
1.267354410568481
 10
124.8430001213638
 20
18.34604031480353
 30
0.0
 41
1.463414820200745
 10
125.9263334546971
 20
16.46965193993719
 30
0.0
 41
1.267354410568482
  0
LINE
  5
F68
330
1E
100
AcDbEntity
  8
AM_VIS
100
AcDbLine
 10
125.2014393037989
 20
18.96687519020463
 30
0.0
 11
124.4765451529007
 21
20.22242868966981
 31
0.0
  0
LINE
  5
F69
330
1E
100
AcDbEntity
  8
AM_VIS
100
AcDbLine
 10
124.4765451529007
 20
16.46965193993719
 30
0.0
 11
120.9263334546971
 21
16.46965193993719
 31
0.0
  0
LINE
  5
F6A
330
1E
100
AcDbEntity
  8
AM_VIS
100
AcDbLine
 10
124.4765451529007
 20
20.22242868966981
 30
0.0
 11
120.9263334546971
 21
20.22242868966981
 31
0.0
  0
SPLINE
  5
F6B
330
1E
100
AcDbEntity
  8
AM_VIS
100
AcDbSpline
210
0.0
220
0.0
230
1.0
 70
    12
 71
     2
 72
     6
 73
     3
 74
     0
 42
0.0000000001
 43
0.0000000001
 40
4.619277005814863
 40
4.619277005814863
 40
4.619277005814863
 40
14.54666500947176
 40
14.54666500947176
 40
14.54666500947176
 10
124.4765451529007
 20
16.46965193993719
 30
0.0
 41
1.267354410568478
 10
125.5598784862341
 20
18.34604031480356
 30
0.0000000000000071
 41
1.463414820200741
 10
124.4765451529007
 20
20.22242868966981
 30
0.0
 41
1.26735441056848
  0
LINE
  5
F6C
330
1E
100
AcDbEntity
  8
AM_VIS
100
AcDbLine
 10
130.2014393037989
 20
18.96687519020463
 30
0.0
 11
129.4765451529007
 21
20.22242868966976
 31
0.0
  0
SPLINE
  5
F6D
330
1E
100
AcDbEntity
  8
AM_VIS
100
AcDbSpline
210
0.0
220
0.0
230
1.0
 70
    12
 71
     2
 72
     6
 73
     3
 74
     0
 42
0.0000000001
 43
0.0000000001
 40
4.619277005814916
 40
4.619277005814916
 40
4.619277005814916
 40
14.54666500947183
 40
14.54666500947183
 40
14.54666500947183
 10
129.4765451529007
 20
16.46965193993719
 30
0.0
 41
1.267354410568483
 10
130.559878486234
 20
18.34604031480353
 30
-0.0000000000000071
 41
1.463414820200745
 10
129.4765451529007
 20
20.22242868966982
 30
0.0
 41
1.267354410568481
  0
LINE
  5
F6F
330
1E
100
AcDbEntity
  8
AM_VIS
100
AcDbLine
 10
139.7014393037989
 20
3.216875190204632
 30
0.0
 11
139.7014393037989
 21
12.71687519020463
 31
0.0
  0
LINE
  5
F70
330
1E
100
AcDbEntity
  8
AM_VIS
100
AcDbLine
 10
133.7014393037989
 20
8.716875190204632
 30
0.0
 11
133.7014393037989
 21
10.78038351710091
 31
0.0
  0
LINE
  5
F71
330
1E
100
AcDbEntity
  8
AM_VIS
100
AcDbLine
 10
139.7014393037989
 20
8.716875190204632
 30
0.0
 11
133.7014393037989
 21
8.716875190204632
 31
0.0
  0
LINE
  5
F72
330
1E
100
AcDbEntity
  8
AM_VIS
100
AcDbLine
 10
142.7014393037989
 20
2.716875190204632
 30
0.0
 11
140.2014393037989
 21
2.716875190204632
 31
0.0
  0
LINE
  5
F73
330
1E
100
AcDbEntity
  8
AM_VIS
100
AcDbLine
 10
139.7014393037989
 20
3.216875190204632
 30
0.0
 11
140.2014393037989
 21
2.716875190204632
 31
0.0
  0
LINE
  5
F74
330
1E
100
AcDbEntity
  8
AM_VIS
100
AcDbLine
 10
139.7014393037989
 20
16.71687519020463
 30
0.0
 11
133.7014393037989
 21
16.71687519020463
 31
0.0
  0
LINE
  5
F75
330
1E
100
AcDbEntity
  8
AM_VIS
100
AcDbLine
 10
133.7014393037989
 20
14.65336686330835
 30
0.0
 11
139.2014393037989
 21
14.65336686330835
 31
0.0
  0
LINE
  5
F76
330
1E
100
AcDbEntity
  8
AM_VIS
100
AcDbLine
 10
139.2014393037989
 20
10.78038351710091
 30
0.0
 11
133.7014393037989
 21
10.78038351710091
 31
0.0
  0
LINE
  5
F77
330
1E
100
AcDbEntity
  8
AM_VIS
100
AcDbLine
 10
133.7014393037989
 20
14.65336686330835
 30
0.0
 11
133.7014393037989
 21
16.71687519020463
 31
0.0
  0
LINE
  5
F78
330
1E
100
AcDbEntity
  8
AM_VIS
100
AcDbLine
 10
133.7014393037989
 20
10.78038351710091
 30
0.0
 11
133.7014393037989
 21
10.9964101367961
 31
0.0
  0
LINE
  5
F79
330
1E
100
AcDbEntity
  8
AM_VIS
100
AcDbLine
 10
133.7014393037989
 20
14.43734024361316
 30
0.0
 11
133.7014393037989
 21
14.65336686330835
 31
0.0
  0
LINE
  5
F7A
330
1E
100
AcDbEntity
  8
AM_VIS
100
AcDbLine
 10
133.7014393037989
 20
10.9964101367961
 30
0.0
 11
133.7014393037989
 21
14.43734024361316
 31
0.0
  0
LINE
  5
F7B
330
1E
100
AcDbEntity
  8
AM_VIS
100
AcDbLine
 10
139.2014393037989
 20
14.65336686330835
 30
0.0
 11
139.2014393037989
 21
10.78038351710091
 31
0.0
  0
ELLIPSE
  5
F7C
330
1E
100
AcDbEntity
  8
AM_VIS
100
AcDbEllipse
 10
128.7014393037989
 20
12.71687519020463
 30
0.0
 11
-11.99999999998924
 21
0.0000000000164862
 31
0.0
210
0.0
220
0.0
230
1.0
 40
0.3333333333323907
 41
2.636232143307694
 42
2.730454791269928
  0
ELLIPSE
  5
F7D
330
1E
100
AcDbEntity
  8
AM_VIS
100
AcDbEllipse
 10
128.7014393037989
 20
12.71687519020463
 30
0.0
 11
-12.00000000000219
 21
0.0000000000033794
 31
0.0
210
0.0
220
0.0
230
1.0
 40
0.3333333333335209
 41
3.552730515912665
 42
3.646953163874385
  0
LINE
  5
F7E
330
1E
100
AcDbEntity
  8
AM_VIS
100
AcDbLine
 10
142.7014393037989
 20
22.71687519020463
 30
0.0
 11
140.2014393037989
 21
22.71687519020463
 31
0.0
  0
LINE
  5
F7F
330
1E
100
AcDbEntity
  8
AM_VIS
100
AcDbLine
 10
139.7014393037989
 20
22.21687519020463
 30
0.0
 11
140.2014393037989
 21
22.71687519020463
 31
0.0
  0
LINE
  5
F80
330
1E
100
AcDbEntity
  8
AM_VIS
100
AcDbLine
 10
142.7014393037989
 20
27.71687519020463
 30
0.0
 11
142.7014393037989
 21
26.71687519020463
 31
0.0
  0
LINE
  5
F81
330
1E
100
AcDbEntity
  8
AM_VIS
100
AcDbLine
 10
120.3457768710963
 20
61.91415931774918
 30
0.0
 11
120.9263334546971
 21
61.91415931774918
 31
0.0
  0
SPLINE
  5
F82
330
1E
100
AcDbEntity
  8
AM_VIS
100
AcDbSpline
210
0.0
220
0.0
230
1.0
 70
    12
 71
     2
 72
     6
 73
     3
 74
     0
 42
0.0000000001
 43
0.0000000001
 40
4.619277005814921
 40
4.619277005814921
 40
4.619277005814921
 40
14.54666500947182
 40
14.54666500947182
 40
14.54666500947182
 10
120.9263334546971
 20
68.41415931774915
 30
0.0
 41
1.26735441056848
 10
119.8430001213637
 20
65.16415931774922
 30
-0.0000000000000018
 41
1.46341482020074
 10
120.9263334546971
 20
61.91415931774916
 30
0.0
 41
1.267354410568478
  0
LINE
  5
F83
330
1E
100
AcDbEntity
  8
AM_VIS
100
AcDbLine
 10
120.2014393037989
 20
62.16415931774924
 30
0.0
 11
120.3457768710963
 21
61.91415931774918
 31
0.0
  0
LINE
  5
F84
330
1E
100
AcDbEntity
  8
AM_VIS
100
AcDbLine
 10
120.2014393037989
 20
68.41415931774929
 30
0.0
 11
120.2014393037989
 21
62.16415931774929
 31
0.0
  0
LINE
  5
F85
330
1E
100
AcDbEntity
  8
AM_VIS
100
AcDbLine
 10
120.2014393037989
 20
64.51415931774926
 30
0.0
 11
116.7014393037989
 21
64.51415931774926
 31
0.0
  0
LINE
  5
F86
330
1E
100
AcDbEntity
  8
AM_VIS
100
AcDbLine
 10
115.7014393037989
 20
65.51415931774926
 30
0.0
 11
116.7014393037989
 21
64.51415931774926
 31
0.0
  0
LINE
  5
F87
330
1E
100
AcDbEntity
  8
AM_VIS
100
AcDbLine
 10
133.7014393037989
 20
64.9141593177493
 30
0.0
 11
132.5014393037989
 21
64.51415931774926
 31
0.0
  0
LINE
  5
F88
330
1E
100
AcDbEntity
  8
AM_VIS
100
AcDbLine
 10
125.9263334546971
 20
61.9141593177493
 30
0.0
 11
129.4765451529007
 21
61.9141593177493
 31
0.0
  0
LINE
  5
F89
330
1E
100
AcDbEntity
  8
AM_VIS
100
AcDbLine
 10
125.9263334546971
 20
68.41415931774929
 30
0.0
 11
129.4765451529007
 21
68.41415931774929
 31
0.0
  0
LINE
  5
F8A
330
1E
100
AcDbEntity
  8
AM_VIS
100
AcDbLine
 10
125.3457768710963
 20
61.9141593177493
 30
0.0
 11
125.9263334546971
 21
61.9141593177493
 31
0.0
  0
SPLINE
  5
F8B
330
1E
100
AcDbEntity
  8
AM_VIS
100
AcDbSpline
210
0.0
220
0.0000000000000003
230
1.0
 70
    12
 71
     2
 72
     6
 73
     3
 74
     0
 42
0.0000000001
 43
0.0000000001
 40
4.619277005814876
 40
4.619277005814876
 40
4.619277005814876
 40
14.54666500947179
 40
14.54666500947179
 40
14.54666500947179
 10
125.9263334546971
 20
68.41415931774918
 30
0.0
 41
1.267354410568481
 10
124.8430001213638
 20
65.16415931774938
 30
0.0
 41
1.463414820200745
 10
125.9263334546971
 20
61.91415931774938
 30
0.0000000000000018
 41
1.267354410568482
  0
LINE
  5
F8C
330
1E
100
AcDbEntity
  8
AM_VIS
100
AcDbLine
 10
125.2014393037989
 20
62.16415931774929
 30
0.0
 11
125.3457768710963
 21
61.9141593177493
 31
0.0
  0
LINE
  5
F8D
330
1E
100
AcDbEntity
  8
AM_VIS
100
AcDbLine
 10
125.2014393037989
 20
68.41415931774929
 30
0.0
 11
125.2014393037989
 21
62.16415931774929
 31
0.0
  0
SPLINE
  5
F8E
330
1E
100
AcDbEntity
  8
AM_VIS
100
AcDbSpline
210
0.0
220
0.0
230
1.0
 70
    12
 71
     2
 72
     6
 73
     3
 74
     0
 42
0.0000000001
 43
0.0000000001
 40
4.619277005814863
 40
4.619277005814863
 40
4.619277005814863
 40
14.54666500947176
 40
14.54666500947176
 40
14.54666500947176
 10
124.4765451529007
 20
61.91415931774914
 30
0.0
 41
1.267354410568478
 10
125.5598784862341
 20
65.16415931774918
 30
0.0
 41
1.463414820200741
 10
124.4765451529007
 20
68.41415931774927
 30
0.0
 41
1.26735441056848
  0
LINE
  5
F8F
330
1E
100
AcDbEntity
  8
AM_VIS
100
AcDbLine
 10
124.4765451529007
 20
61.91415931774918
 30
0.0
 11
125.0571017365014
 21
61.91415931774918
 31
0.0
  0
LINE
  5
F90
330
1E
100
AcDbEntity
  8
AM_VIS
100
AcDbLine
 10
124.4765451529007
 20
68.41415931774924
 30
0.0
 11
120.9263334546971
 21
68.41415931774924
 31
0.0
  0
LINE
  5
F91
330
1E
100
AcDbEntity
  8
AM_VIS
100
AcDbLine
 10
124.4765451529007
 20
61.91415931774918
 30
0.0
 11
120.9263334546971
 21
61.91415931774918
 31
0.0
  0
LINE
  5
F92
330
1E
100
AcDbEntity
  8
AM_VIS
100
AcDbLine
 10
125.2014393037989
 20
62.16415931774929
 30
0.0
 11
125.0571017365014
 21
61.91415931774918
 31
0.0
  0
LINE
  5
F93
330
1E
100
AcDbEntity
  8
AM_VIS
100
AcDbLine
 10
125.2014393037989
 20
62.16415931774929
 30
0.0
 11
125.2014393037989
 21
68.41415931774929
 31
0.0
  0
SPLINE
  5
F94
330
1E
100
AcDbEntity
  8
AM_VIS
100
AcDbSpline
210
0.0
220
0.0
230
1.0
 70
    12
 71
     2
 72
     6
 73
     3
 74
     0
 42
0.0000000001
 43
0.0000000001
 40
4.619277005814916
 40
4.619277005814916
 40
4.619277005814916
 40
14.54666500947183
 40
14.54666500947183
 40
14.54666500947183
 10
129.4765451529007
 20
61.91415931774921
 30
0.0
 41
1.267354410568483
 10
130.559878486234
 20
65.16415931774921
 30
0.0000000000000018
 41
1.463414820200745
 10
129.4765451529007
 20
68.41415931774932
 30
0.0
 41
1.267354410568481
  0
LINE
  5
F95
330
1E
100
AcDbEntity
  8
AM_VIS
100
AcDbLine
 10
129.4765451529007
 20
61.91415931774923
 30
0.0
 11
130.0571017365015
 21
61.91415931774923
 31
0.0
  0
LINE
  5
F96
330
1E
100
AcDbEntity
  8
AM_VIS
100
AcDbLine
 10
130.2014393037989
 20
62.16415931774924
 30
0.0
 11
130.0571017365015
 21
61.91415931774923
 31
0.0
  0
LINE
  5
F97
330
1E
100
AcDbEntity
  8
AM_VIS
100
AcDbLine
 10
130.2014393037989
 20
62.16415931774924
 30
0.0
 11
130.2014393037989
 21
68.41415931774924
 31
0.0
  0
LINE
  5
F98
330
1E
100
AcDbEntity
  8
AM_VIS
100
AcDbLine
 10
132.5014393037989
 20
64.51415931774926
 30
0.0
 11
130.2014393037989
 21
64.51415931774926
 31
0.0
  0
LINE
  5
F99
330
1E
100
AcDbEntity
  8
AM_VIS
100
AcDbLine
 10
142.7014393037989
 20
52.66415931774929
 30
0.0
 11
142.7014393037989
 21
51.66415931774929
 31
0.0
  0
LINE
  5
F9A
330
1E
100
AcDbEntity
  8
AM_VIS
100
AcDbLine
 10
133.7014393037989
 20
64.9141593177493
 30
0.0
 11
139.2014393037989
 21
64.9141593177493
 31
0.0
  0
LINE
  5
F9B
330
1E
100
AcDbEntity
  8
AM_VIS
100
AcDbLine
 10
139.7014393037989
 20
58.91415931774929
 30
0.0
 11
140.2014393037989
 21
58.41415931774929
 31
0.0
  0
LINE
  5
F9C
330
1E
100
AcDbEntity
  8
AM_VIS
100
AcDbLine
 10
142.7014393037989
 20
58.41415931774929
 30
0.0
 11
140.2014393037989
 21
58.41415931774929
 31
0.0
  0
LINE
  5
F9D
330
1E
100
AcDbEntity
  8
AM_VIS
100
AcDbLine
 10
139.7014393037989
 20
64.74749265108261
 30
0.0
 11
139.2014393037989
 21
64.9141593177493
 31
0.0
  0
LINE
  5
FA2
330
1E
100
AcDbEntity
  8
AM_7
100
AcDbLine
 10
164.7014393037989
 20
29.3425397112826
 30
0.0
 11
164.7014393037989
 21
18.57618771431924
 31
0.0
  0
LINE
  5
FA9
330
1E
100
AcDbEntity
  8
AM_VIS
100
AcDbLine
 10
174.2014393037989
 20
12.71687519020463
 30
0.0
 11
174.2014393037989
 21
23.61687519020461
 31
0.0
  0
LINE
  5
FAB
330
1E
100
AcDbEntity
  8
AM_VIS
100
AcDbLine
 10
174.2014393037989
 20
1.816875190204655
 30
0.0
 11
174.2014393037989
 21
12.71687519020463
 31
0.0
  0
LINE
  5
FAC
330
1E
100
AcDbEntity
  8
AM_VIS
100
AcDbLine
 10
174.2014393037989
 20
1.816875190204655
 30
0.0
 11
171.7014393037989
 21
1.816875190204655
 31
0.0
  0
LINE
  5
FAD
330
1E
100
AcDbEntity
  8
AM_VIS
100
AcDbLine
 10
174.2014393037989
 20
2.216875190204632
 30
0.0
 11
174.3014393037988
 21
2.116875190204609
 31
0.0
  0
LINE
  5
FAE
330
1E
100
AcDbEntity
  8
AM_VIS
100
AcDbLine
 10
174.2014393037989
 20
23.61687519020461
 30
0.0
 11
171.7014393037989
 21
23.61687519020461
 31
0.0
  0
LINE
  5
FAF
330
1E
100
AcDbEntity
  8
AM_VIS
100
AcDbLine
 10
171.7014393037989
 20
26.71687519020463
 30
0.0
 11
171.7014393037989
 21
27.71687519020463
 31
0.0
  0
LINE
  5
FB0
330
1E
100
AcDbEntity
  8
AM_VIS
100
AcDbLine
 10
174.2014393037989
 20
23.21687519020463
 30
0.0
 11
174.3014393037988
 21
23.31687519020466
 31
0.0
  0
LINE
  5
FB1
330
1E
100
AcDbEntity
  8
AM_7
100
AcDbLine
 10
164.7014393037989
 20
68.41415931774929
 30
0.0
 11
172.4954393037989
 21
68.41415931774929
 31
0.0
  0
LINE
  5
FB2
330
1E
100
AcDbEntity
  8
AM_7
100
AcDbLine
 10
154.7014393037989
 20
57.91415931774929
 30
0.0
 11
162.2454393037989
 21
57.91415931774929
 31
0.0
  0
LINE
  5
FB3
330
1E
100
AcDbEntity
  8
AM_7
100
AcDbLine
 10
156.9074393037989
 20
68.41415931774929
 30
0.0
 11
164.7014393037989
 21
68.41415931774929
 31
0.0
  0
CIRCLE
  5
FB4
330
1E
100
AcDbEntity
  8
AM_VIS
100
AcDbCircle
 10
154.7014393037989
 20
57.91415931774929
 30
0.0
 40
4.75
  0
CIRCLE
  5
FB5
330
1E
100
AcDbEntity
  8
AM_VIS
100
AcDbCircle
 10
154.7014393037989
 20
57.91415931774929
 30
0.0
 40
2.75
  0
LINE
  5
FB6
330
1E
100
AcDbEntity
  8
AM_7
100
AcDbLine
 10
154.7014393037989
 20
57.91415931774929
 30
0.0
 11
154.7014393037989
 21
65.45815931774928
 31
0.0
  0
LINE
  5
FB7
330
1E
100
AcDbEntity
  8
AM_7
100
AcDbLine
 10
147.1574393037989
 20
57.91415931774929
 30
0.0
 11
154.7014393037989
 21
57.91415931774929
 31
0.0
  0
LINE
  5
FB8
330
1E
100
AcDbEntity
  8
AM_7
100
AcDbLine
 10
154.7014393037989
 20
57.91415931774929
 30
0.0
 11
154.7014393037989
 21
57.91415931774929
 31
0.0
  0
LINE
  5
FB9
330
1E
100
AcDbEntity
  8
AM_7
100
AcDbLine
 10
154.7014393037989
 20
57.91415931774929
 30
0.0
 11
154.7014393037989
 21
57.91415931774929
 31
0.0
  0
LINE
  5
FBA
330
1E
100
AcDbEntity
  8
AM_7
100
AcDbLine
 10
154.7014393037989
 20
50.37015931774931
 30
0.0
 11
154.7014393037989
 21
57.91415931774929
 31
0.0
  0
LINE
  5
FBB
330
1E
100
AcDbEntity
  8
AM_7
100
AcDbLine
 10
164.7014393037989
 20
68.41415931774929
 30
0.0
 11
164.7014393037989
 21
68.41415931774929
 31
0.0
  0
LINE
  5
FBC
330
1E
100
AcDbEntity
  8
AM_7
100
AcDbLine
 10
164.7014393037989
 20
68.41415931774929
 30
0.0
 11
164.7014393037989
 21
68.41415931774929
 31
0.0
  0
LINE
  5
FBD
330
1E
100
AcDbEntity
  8
AM_7
100
AcDbLine
 10
164.7014393037989
 20
60.62015931774931
 30
0.0
 11
164.7014393037989
 21
68.41415931774929
 31
0.0
  0
LINE
  5
FBE
330
1E
100
AcDbEntity
  8
AM_VIS
100
AcDbLine
 10
171.7014393037989
 20
51.66415931774929
 30
0.0
 11
171.7014393037989
 21
52.66415931774929
 31
0.0
  0
LINE
  5
FBF
330
1E
100
AcDbEntity
  8
AM_VIS
100
AcDbLine
 10
174.2014393037989
 20
57.51415931774926
 30
0.0
 11
171.7014393037989
 21
57.51415931774926
 31
0.0
  0
LINE
  5
FC0
330
1E
100
AcDbEntity
  8
AM_VIS
100
AcDbLine
 10
174.2014393037989
 20
57.91415931774929
 30
0.0
 11
174.3014393037989
 21
57.81415931774927
 31
0.0
  0
LINE
  5
FC1
330
1E
100
AcDbEntity
  8
AM_VIS
100
AcDbLine
 10
171.7014393037989
 20
85.16415931774929
 30
0.0
 11
142.7014393037989
 21
85.16415931774929
 31
0.0
  0
LINE
  5
FC2
330
1E
100
AcDbEntity
  8
AM_VIS
100
AcDbLine
 10
142.7014393037989
 20
84.16415931774929
 30
0.0
 11
171.7014393037989
 21
84.16415931774929
 31
0.0
  0
LINE
  5
FC3
330
1E
100
AcDbEntity
  8
AM_VIS
100
AcDbLine
 10
120.3457768710963
 20
74.9141593177493
 30
0.0
 11
120.9263334546971
 21
74.9141593177493
 31
0.0
  0
LINE
  5
FC4
330
1E
100
AcDbEntity
  8
AM_VIS
100
AcDbLine
 10
120.2014393037989
 20
74.66415931774929
 30
0.0
 11
120.3457768710963
 21
74.9141593177493
 31
0.0
  0
LINE
  5
FC5
330
1E
100
AcDbEntity
  8
AM_VIS
100
AcDbLine
 10
120.2014393037989
 20
72.31415931774927
 30
0.0
 11
116.7014393037989
 21
72.31415931774927
 31
0.0
  0
LINE
  5
FC6
330
1E
100
AcDbEntity
  8
AM_VIS
100
AcDbLine
 10
115.7014393037989
 20
71.31415931774927
 30
0.0
 11
116.7014393037989
 21
72.31415931774927
 31
0.0
  0
LINE
  5
FC7
330
1E
100
AcDbEntity
  8
AM_VIS
100
AcDbLine
 10
132.5014393037989
 20
72.31415931774927
 30
0.0
 11
133.7014393037989
 21
71.9141593177493
 31
0.0
  0
LINE
  5
FC8
330
1E
100
AcDbEntity
  8
AM_VIS
100
AcDbLine
 10
125.9263334546971
 20
74.9141593177493
 30
0.0
 11
129.4765451529007
 21
74.9141593177493
 31
0.0
  0
LINE
  5
FC9
330
1E
100
AcDbEntity
  8
AM_VIS
100
AcDbLine
 10
125.3457768710963
 20
74.9141593177493
 30
0.0
 11
125.9263334546971
 21
74.9141593177493
 31
0.0
  0
LINE
  5
FCA
330
1E
100
AcDbEntity
  8
AM_VIS
100
AcDbLine
 10
125.2014393037989
 20
74.66415931774929
 30
0.0
 11
125.3457768710963
 21
74.9141593177493
 31
0.0
  0
LINE
  5
FCB
330
1E
100
AcDbEntity
  8
AM_VIS
100
AcDbLine
 10
124.4765451529007
 20
74.9141593177493
 30
0.0
 11
125.0571017365015
 21
74.9141593177493
 31
0.0
  0
LINE
  5
FCC
330
1E
100
AcDbEntity
  8
AM_VIS
100
AcDbLine
 10
124.4765451529007
 20
74.9141593177493
 30
0.0
 11
120.9263334546971
 21
74.9141593177493
 31
0.0
  0
LINE
  5
FCD
330
1E
100
AcDbEntity
  8
AM_VIS
100
AcDbLine
 10
125.2014393037989
 20
74.66415931774929
 30
0.0
 11
125.0571017365015
 21
74.9141593177493
 31
0.0
  0
LINE
  5
FCE
330
1E
100
AcDbEntity
  8
AM_VIS
100
AcDbLine
 10
129.4765451529007
 20
74.9141593177493
 30
0.0
 11
130.0571017365014
 21
74.9141593177493
 31
0.0
  0
LINE
  5
FCF
330
1E
100
AcDbEntity
  8
AM_VIS
100
AcDbLine
 10
130.2014393037989
 20
74.66415931774929
 30
0.0
 11
130.0571017365014
 21
74.9141593177493
 31
0.0
  0
LINE
  5
FD0
330
1E
100
AcDbEntity
  8
AM_VIS
100
AcDbLine
 10
132.5014393037989
 20
72.31415931774927
 30
0.0
 11
130.2014393037989
 21
72.31415931774927
 31
0.0
  0
LINE
  5
FD1
330
1E
100
AcDbEntity
  8
AM_VIS
100
AcDbLine
 10
139.2014393037989
 20
71.9141593177493
 30
0.0
 11
133.7014393037989
 21
71.9141593177493
 31
0.0
  0
LINE
  5
FD2
330
1E
100
AcDbEntity
  8
AM_VIS
100
AcDbLine
 10
139.7014393037989
 20
77.91415931774929
 30
0.0
 11
140.2014393037989
 21
78.41415931774929
 31
0.0
  0
LINE
  5
FD3
330
1E
100
AcDbEntity
  8
AM_VIS
100
AcDbLine
 10
142.7014393037989
 20
78.41415931774929
 30
0.0
 11
140.2014393037989
 21
78.41415931774929
 31
0.0
  0
LINE
  5
FD4
330
1E
100
AcDbEntity
  8
AM_VIS
100
AcDbLine
 10
139.2014393037989
 20
71.9141593177493
 30
0.0
 11
139.7014393037984
 21
72.08082598441575
 31
0.0
  0
LINE
  5
FD5
330
1E
100
AcDbEntity
  8
AM_VIS
100
AcDbLine
 10
142.7014393037989
 20
85.16415931774929
 30
0.0
 11
142.7014393037989
 21
84.16415931774929
 31
0.0
  0
LINE
  5
FD6
330
1E
100
AcDbEntity
  8
AM_7
100
AcDbLine
 10
154.7014393037989
 20
78.91415931774929
 30
0.0
 11
162.2454393037989
 21
78.91415931774929
 31
0.0
  0
CIRCLE
  5
FD7
330
1E
100
AcDbEntity
  8
AM_VIS
100
AcDbCircle
 10
154.7014393037989
 20
78.91415931774929
 30
0.0
 40
4.75
  0
CIRCLE
  5
FD8
330
1E
100
AcDbEntity
  8
AM_VIS
100
AcDbCircle
 10
154.7014393037989
 20
78.91415931774929
 30
0.0
 40
2.75
  0
LINE
  5
FD9
330
1E
100
AcDbEntity
  8
AM_7
100
AcDbLine
 10
154.7014393037989
 20
78.91415931774929
 30
0.0
 11
154.7014393037989
 21
86.45815931774928
 31
0.0
  0
LINE
  5
FDA
330
1E
100
AcDbEntity
  8
AM_7
100
AcDbLine
 10
147.1574393037989
 20
78.91415931774929
 30
0.0
 11
154.7014393037989
 21
78.91415931774929
 31
0.0
  0
LINE
  5
FDB
330
1E
100
AcDbEntity
  8
AM_7
100
AcDbLine
 10
154.7014393037989
 20
78.91415931774929
 30
0.0
 11
154.7014393037989
 21
78.91415931774929
 31
0.0
  0
LINE
  5
FDC
330
1E
100
AcDbEntity
  8
AM_7
100
AcDbLine
 10
154.7014393037989
 20
78.91415931774929
 30
0.0
 11
154.7014393037989
 21
78.91415931774929
 31
0.0
  0
LINE
  5
FDD
330
1E
100
AcDbEntity
  8
AM_7
100
AcDbLine
 10
154.7014393037989
 20
71.37015931774931
 30
0.0
 11
154.7014393037989
 21
78.91415931774929
 31
0.0
  0
LINE
  5
FDE
330
1E
100
AcDbEntity
  8
AM_VIS
100
AcDbLine
 10
174.2014393037989
 20
79.31415931774927
 30
0.0
 11
171.7014393037989
 21
79.31415931774927
 31
0.0
  0
LINE
  5
FDF
330
1E
100
AcDbEntity
  8
AM_VIS
100
AcDbLine
 10
174.2014393037989
 20
78.91415931774929
 30
0.0
 11
174.3014393037989
 21
79.01415931774931
 31
0.0
  0
LINE
  5
FE0
330
1E
100
AcDbEntity
  8
AM_VIS
100
AcDbLine
 10
171.7014393037989
 20
84.16415931774929
 30
0.0
 11
171.7014393037989
 21
85.16415931774929
 31
0.0
  0
LINE
  5
FE9
330
1E
100
AcDbEntity
  8
AM_7
100
AcDbLine
 10
210.7014393037989
 20
68.41415931774941
 30
0.0
 11
210.7014393037989
 21
75.20815931774945
 31
0.0
  0
ARC
  5
FEA
330
1E
100
AcDbEntity
  8
AM_4
100
AcDbCircle
 10
210.7014393037989
 20
68.41415931774941
 30
0.0
 40
4.75
100
AcDbArc
 50
259.9999999999982
 51
189.9999999999986
  0
SPLINE
  5
FEB
330
1E
100
AcDbEntity
  8
AM_VIS
100
AcDbSpline
210
0.0
220
0.0
230
1.0
 70
    12
 71
     2
 72
     6
 73
     3
 74
     0
 42
0.0000000001
 43
0.0000000001
 40
0.0
 40
0.0
 40
0.0
 40
14.60593486680442
 40
14.60593486680442
 40
14.60593486680442
 10
205.144814976773
 20
75.62526186867728
 30
0.0
 41
1.0
 10
203.000371119783
 20
68.41415931774927
 30
0.0
 41
1.166666666666666
 10
205.144814976773
 20
61.2030567668213
 30
0.0
 41
1.0
  0
SPLINE
  5
FEC
330
1E
100
AcDbEntity
  8
AM_VIS
100
AcDbSpline
210
0.0
220
0.0
230
1.0
 70
    12
 71
     2
 72
     6
 73
     3
 74
     0
 42
0.0000000001
 43
0.0000000001
 40
0.0
 40
0.0
 40
0.0
 40
14.60593486680443
 40
14.60593486680443
 40
14.60593486680443
 10
217.2580636308249
 20
61.2030567668213
 30
0.0
 41
1.0
 10
219.4025074878149
 20
68.41415931774932
 30
0.0
 41
1.166666666666668
 10
217.2580636308249
 20
75.62526186867728
 30
0.0
 41
1.0
  0
CIRCLE
  5
FED
330
1E
100
AcDbEntity
  8
AM_VIS
100
AcDbCircle
 10
210.7014393037989
 20
68.41415931774941
 30
0.0
 40
4.0
  0
LINE
  5
FF0
330
1E
100
AcDbEntity
  8
AM_VIS
100
AcDbLine
 10
203.7014393037989
 20
79.9141593177493
 30
0.0
 11
203.7014393037989
 21
68.41415931774929
 31
0.0
  0
LINE
  5
FF1
330
1E
100
AcDbEntity
  8
AM_VIS
100
AcDbLine
 10
201.2014393037989
 20
57.51415931774932
 30
0.0
 11
201.2014393037989
 21
79.31415931774927
 31
0.0
  0
LINE
  5
FF2
330
1E
100
AcDbEntity
  8
AM_VIS
100
AcDbLine
 10
218.7014393037989
 20
68.41415931774929
 30
0.0
 11
218.7014393037989
 21
79.9141593177493
 31
0.0
  0
LINE
  5
FF4
330
1E
100
AcDbEntity
  8
AM_VIS
100
AcDbLine
 10
205.144814976773
 20
19.92797774113262
 30
0.0
 11
217.2580636308249
 21
19.92797774113262
 31
0.0
  0
LINE
  5
FF5
330
1E
100
AcDbEntity
  8
AM_VIS
100
AcDbLine
 10
217.2580636308249
 20
5.505772639276642
 30
0.0
 11
205.144814976773
 21
5.505772639276642
 31
0.0
  0
LINE
  5
FF6
330
1E
100
AcDbEntity
  8
AM_VIS
100
AcDbLine
 10
205.144814976773
 20
0.7168751902046325
 30
0.0
 11
217.2580636308249
 21
0.7168751902046325
 31
0.0
  0
LINE
  5
FF7
330
1E
100
AcDbEntity
  8
AM_VIS
100
AcDbLine
 10
217.2580636308249
 20
24.71687519020463
 30
0.0
 11
205.144814976773
 21
24.71687519020463
 31
0.0
  0
LINE
  5
FFC
330
1E
100
AcDbEntity
  8
AM_7
100
AcDbLine
 10
210.701439303799
 20
27.58308658963893
 30
0.0
 11
210.701439303799
 21
15.57618771431924
 31
0.0
  0
LINE
  5
FFD
330
1E
100
AcDbEntity
  8
AM_VIS
100
AcDbLine
 10
201.2014393037989
 20
1.816875190204655
 30
0.0
 11
201.2014393037989
 21
23.61687519020461
 31
0.0
  0
LINE
  5
FFE
330
1E
100
AcDbEntity
  8
AM_VIS
100
AcDbLine
 10
203.7014393037989
 20
24.21687519020463
 30
0.0
 11
203.7014393037989
 21
1.216875190204632
 31
0.0
  0
LINE
  5
FFF
330
1E
100
AcDbEntity
  8
AM_VIS
100
AcDbLine
 10
205.144814976773
 20
19.92797774113262
 30
0.0
 11
205.144814976773
 21
24.71687519020463
 31
0.0
  0
LINE
  5
1001
330
1E
100
AcDbEntity
  8
AM_VIS
100
AcDbLine
 10
203.9901144383937
 20
0.7168751902046325
 30
0.0
 11
205.144814976773
 21
0.7168751902046325
 31
0.0
  0
SPLINE
  5
1002
330
1E
100
AcDbEntity
  8
AM_VIS
100
AcDbSpline
210
0.0
220
0.0
230
1.0
 70
    12
 71
     2
 72
     6
 73
     3
 74
     0
 42
0.0000000001
 43
0.0000000001
 40
0.0
 40
0.0
 40
0.0
 40
14.60593486680443
 40
14.60593486680443
 40
14.60593486680443
 10
205.144814976773
 20
19.92797774113262
 30
0.0
 41
1.0
 10
203.000371119783
 20
12.71687519020463
 30
0.0
 41
1.166666666666667
 10
205.144814976773
 20
5.505772639276642
 30
0.0
 41
1.0
  0
LINE
  5
1003
330
1E
100
AcDbEntity
  8
AM_VIS
100
AcDbLine
 10
203.7014393037989
 20
1.816875190204655
 30
0.0
 11
201.2014393037989
 21
1.816875190204655
 31
0.0
  0
LINE
  5
1004
330
1E
100
AcDbEntity
  8
AM_VIS
100
AcDbLine
 10
203.7014393037989
 20
1.216875190204632
 30
0.0
 11
203.9901144383937
 21
0.7168751902046325
 31
0.0
  0
LINE
  5
1005
330
1E
100
AcDbEntity
  8
AM_VIS
100
AcDbLine
 10
201.2014393037989
 20
2.216875190204632
 30
0.0
 11
201.101439303799
 21
2.116875190204609
 31
0.0
  0
LINE
  5
1006
330
1E
100
AcDbEntity
  8
AM_VIS
100
AcDbLine
 10
205.144814976773
 20
0.7168751902046325
 30
0.0
 11
205.144814976773
 21
5.505772639276642
 31
0.0
  0
LINE
  5
1007
330
1E
100
AcDbEntity
  8
AM_VIS
100
AcDbLine
 10
203.9901144383937
 20
24.71687519020463
 30
0.0
 11
205.144814976773
 21
24.71687519020463
 31
0.0
  0
LINE
  5
1008
330
1E
100
AcDbEntity
  8
AM_VIS
100
AcDbLine
 10
203.7014393037989
 20
23.61687519020461
 30
0.0
 11
201.2014393037989
 21
23.61687519020461
 31
0.0
  0
LINE
  5
1009
330
1E
100
AcDbEntity
  8
AM_VIS
100
AcDbLine
 10
203.7014393037989
 20
24.21687519020463
 30
0.0
 11
203.9901144383937
 21
24.71687519020463
 31
0.0
  0
LINE
  5
100A
330
1E
100
AcDbEntity
  8
AM_VIS
100
AcDbLine
 10
201.2014393037989
 20
23.21687519020463
 30
0.0
 11
201.101439303799
 21
23.31687519020466
 31
0.0
  0
LINE
  5
100E
330
1E
100
AcDbEntity
  8
AM_VIS
100
AcDbLine
 10
218.7014393037989
 20
1.216875190204632
 30
0.0
 11
218.7014393037989
 21
24.21687519020463
 31
0.0
  0
LINE
  5
100F
330
1E
100
AcDbEntity
  8
AM_VIS
100
AcDbLine
 10
217.2580636308249
 20
24.71687519020463
 30
0.0
 11
217.2580636308249
 21
19.92797774113262
 31
0.0
  0
SPLINE
  5
1010
330
1E
100
AcDbEntity
  8
AM_VIS
100
AcDbSpline
210
0.0
220
0.0
230
1.0
 70
    12
 71
     2
 72
     6
 73
     3
 74
     0
 42
0.0000000001
 43
0.0000000001
 40
0.0
 40
0.0
 40
0.0
 40
14.60593486680443
 40
14.60593486680443
 40
14.60593486680443
 10
217.2580636308249
 20
5.505772639276642
 30
0.0
 41
1.0
 10
219.4025074878149
 20
12.71687519020463
 30
0.0
 41
1.166666666666668
 10
217.2580636308249
 20
19.92797774113262
 30
0.0
 41
1.0
  0
LINE
  5
1011
330
1E
100
AcDbEntity
  8
AM_VIS
100
AcDbLine
 10
217.2580636308249
 20
5.505772639276642
 30
0.0
 11
217.2580636308249
 21
0.7168751902046325
 31
0.0
  0
LINE
  5
1012
330
1E
100
AcDbEntity
  8
AM_VIS
100
AcDbLine
 10
218.7014393037989
 20
1.216875190204632
 30
0.0
 11
218.4127641692041
 21
0.7168751902046325
 31
0.0
  0
LINE
  5
1013
330
1E
100
AcDbEntity
  8
AM_VIS
100
AcDbLine
 10
217.2580636308249
 20
0.7168751902046325
 30
0.0
 11
218.4127641692041
 21
0.7168751902046325
 31
0.0
  0
LINE
  5
1014
330
1E
100
AcDbEntity
  8
AM_VIS
100
AcDbLine
 10
218.7014393037989
 20
24.21687519020463
 30
0.0
 11
218.4127641692041
 21
24.71687519020463
 31
0.0
  0
LINE
  5
1015
330
1E
100
AcDbEntity
  8
AM_VIS
100
AcDbLine
 10
217.2580636308249
 20
24.71687519020463
 30
0.0
 11
218.4127641692041
 21
24.71687519020463
 31
0.0
  0
LINE
  5
1016
330
1E
100
AcDbEntity
  8
AM_7
100
AcDbLine
 10
210.7014393037989
 20
68.41415931774941
 30
0.0
 11
217.4954393037989
 21
68.41415931774941
 31
0.0
  0
LINE
  5
1017
330
1E
100
AcDbEntity
  8
AM_VIS
100
AcDbLine
 10
217.2580636308249
 20
61.2030567668213
 30
0.0
 11
205.144814976773
 21
61.2030567668213
 31
0.0
  0
LINE
  5
1018
330
1E
100
AcDbEntity
  8
AM_VIS
100
AcDbLine
 10
205.144814976773
 20
56.41415931774929
 30
0.0
 11
217.2580636308249
 21
56.41415931774929
 31
0.0
  0
LINE
  5
1019
330
1E
100
AcDbEntity
  8
AM_7
100
AcDbLine
 10
203.9074393037989
 20
68.41415931774941
 30
0.0
 11
210.7014393037989
 21
68.41415931774941
 31
0.0
  0
LINE
  5
101A
330
1E
100
AcDbEntity
  8
AM_VIS
100
AcDbLine
 10
203.9901144383937
 20
56.41415931774929
 30
0.0
 11
205.144814976773
 21
56.41415931774929
 31
0.0
  0
LINE
  5
101B
330
1E
100
AcDbEntity
  8
AM_VIS
100
AcDbLine
 10
203.7014393037989
 20
68.41415931774929
 30
0.0
 11
203.7014393037989
 21
56.9141593177493
 31
0.0
  0
LINE
  5
101C
330
1E
100
AcDbEntity
  8
AM_VIS
100
AcDbLine
 10
203.7014393037989
 20
56.9141593177493
 30
0.0
 11
203.9901144383937
 21
56.41415931774929
 31
0.0
  0
LINE
  5
101D
330
1E
100
AcDbEntity
  8
AM_VIS
100
AcDbLine
 10
203.7014393037989
 20
57.51415931774932
 30
0.0
 11
201.2014393037989
 21
57.51415931774932
 31
0.0
  0
LINE
  5
101E
330
1E
100
AcDbEntity
  8
AM_VIS
100
AcDbLine
 10
201.2014393037989
 20
57.91415931774929
 30
0.0
 11
201.101439303799
 21
57.81415931774927
 31
0.0
  0
LINE
  5
101F
330
1E
100
AcDbEntity
  8
AM_VIS
100
AcDbLine
 10
205.144814976773
 20
56.41415931774929
 30
0.0
 11
205.144814976773
 21
61.2030567668213
 31
0.0
  0
LINE
  5
1020
330
1E
100
AcDbEntity
  8
AM_7
100
AcDbLine
 10
210.7014393037989
 20
68.41415931774941
 30
0.0
 11
210.7014393037989
 21
68.41415931774941
 31
0.0
  0
LINE
  5
1021
330
1E
100
AcDbEntity
  8
AM_7
100
AcDbLine
 10
210.7014393037989
 20
68.41415931774941
 30
0.0
 11
210.7014393037989
 21
68.41415931774941
 31
0.0
  0
LINE
  5
1022
330
1E
100
AcDbEntity
  8
AM_7
100
AcDbLine
 10
210.7014393037989
 20
61.62015931774942
 30
0.0
 11
210.7014393037989
 21
68.41415931774941
 31
0.0
  0
LINE
  5
1023
330
1E
100
AcDbEntity
  8
AM_VIS
100
AcDbLine
 10
217.2580636308249
 20
61.2030567668213
 30
0.0
 11
217.2580636308249
 21
56.41415931774929
 31
0.0
  0
LINE
  5
1024
330
1E
100
AcDbEntity
  8
AM_VIS
100
AcDbLine
 10
218.7014393037989
 20
56.9141593177493
 30
0.0
 11
218.7014393037989
 21
68.41415931774929
 31
0.0
  0
LINE
  5
1025
330
1E
100
AcDbEntity
  8
AM_VIS
100
AcDbLine
 10
217.2580636308249
 20
56.41415931774929
 30
0.0
 11
218.4127641692041
 21
56.41415931774929
 31
0.0
  0
LINE
  5
1026
330
1E
100
AcDbEntity
  8
AM_VIS
100
AcDbLine
 10
218.7014393037989
 20
56.9141593177493
 30
0.0
 11
218.4127641692041
 21
56.41415931774929
 31
0.0
  0
LINE
  5
1027
330
1E
100
AcDbEntity
  8
AM_VIS
100
AcDbLine
 10
205.144814976773
 20
75.62526186867728
 30
0.0
 11
217.2580636308249
 21
75.62526186867728
 31
0.0
  0
LINE
  5
1028
330
1E
100
AcDbEntity
  8
AM_VIS
100
AcDbLine
 10
217.2580636308248
 20
80.41415931774929
 30
0.0
 11
205.1448149767729
 21
80.41415931774929
 31
0.0
  0
LINE
  5
1029
330
1E
100
AcDbEntity
  8
AM_VIS
100
AcDbLine
 10
203.9901144383937
 20
80.41415931774929
 30
0.0
 11
205.144814976773
 21
80.41415931774929
 31
0.0
  0
LINE
  5
102A
330
1E
100
AcDbEntity
  8
AM_VIS
100
AcDbLine
 10
203.7014393037989
 20
79.9141593177493
 30
0.0
 11
203.9901144383937
 21
80.41415931774929
 31
0.0
  0
LINE
  5
102B
330
1E
100
AcDbEntity
  8
AM_VIS
100
AcDbLine
 10
203.7014393037989
 20
79.31415931774927
 30
0.0
 11
201.2014393037989
 21
79.31415931774927
 31
0.0
  0
LINE
  5
102C
330
1E
100
AcDbEntity
  8
AM_VIS
100
AcDbLine
 10
201.2014393037989
 20
78.91415931774929
 30
0.0
 11
201.101439303799
 21
79.01415931774931
 31
0.0
  0
LINE
  5
102D
330
1E
100
AcDbEntity
  8
AM_VIS
100
AcDbLine
 10
205.144814976773
 20
75.62526186867728
 30
0.0
 11
205.144814976773
 21
80.41415931774929
 31
0.0
  0
LINE
  5
102E
330
1E
100
AcDbEntity
  8
AM_VIS
100
AcDbLine
 10
218.7014393037989
 20
79.9141593177493
 30
0.0
 11
218.4127641692041
 21
80.41415931774929
 31
0.0
  0
LINE
  5
102F
330
1E
100
AcDbEntity
  8
AM_VIS
100
AcDbLine
 10
217.2580636308248
 20
80.41415931774929
 30
0.0
 11
217.2580636308248
 21
75.62526186867728
 31
0.0
  0
LINE
  5
1030
330
1E
100
AcDbEntity
  8
AM_VIS
100
AcDbLine
 10
217.2580636308248
 20
80.41415931774929
 30
0.0
 11
218.4127641692041
 21
80.41415931774929
 31
0.0
  0
DIMENSION
  5
121C
330
1E
100
AcDbEntity
  8
AM_5
100
AcDbDimension
  2
*D3
 10
108.7824138418195
 20
78.91415931774929
 30
0.0
 11
106.482118566229
 21
68.41415931774932
 31
0.0
 70
    32
 71
     5
 42
20.99999999999999
  3
AM_ISO
100
AcDbAlignedDimension
 13
147.1574393037989
 23
57.91415931774929
 33
0.0
 14
147.1574393037989
 24
78.91415931774929
 34
0.0
 50
90.0
100
AcDbRotatedDimension
  0
DIMENSION
  5
1251
330
1E
100
AcDbEntity
  8
AM_5
100
AcDbDimension
  2
*D4
 10
92.63932545325763
 20
-2.283124809795371
 30
0.0
 11
90.33932545325765
 21
12.71687519020464
 31
0.0
 70
    32
 71
     5
 42
30.0
  3
AM_ISO
100
AcDbAlignedDimension
 13
77.73426819218087
 23
27.71687519020463
 33
0.0
 14
77.73426819218087
 24
-2.283124809795367
 34
0.0
 50
90.0
100
AcDbRotatedDimension
  0
DIMENSION
  5
12C5
330
1E
100
AcDbEntity
  8
AM_5
100
AcDbDimension
  2
*D5
 10
154.7014393037989
 20
44.68218022888675
 30
0.0
 11
148.7014393037989
 21
46.9824755044773
 31
0.0
 70
    32
 71
     5
 42
12.0
  3
AM_ISO
100
AcDbAlignedDimension
 13
142.7014393037989
 23
51.66415931774929
 33
0.0
 14
154.7014393037989
 24
50.37015931774931
 34
0.0
100
AcDbRotatedDimension
1001
ACAD
1000
DSTYLE
1002
{
1070
   173
1070
     1
1070
     6
1000
GENDOT
1002
}
  0
DIMENSION
  5
12E9
330
1E
100
AcDbEntity
  8
AM_5
100
AcDbDimension
  2
*D6
 10
164.7014393037989
 20
93.0309875495476
 30
0.0
 11
153.7014393037989
 21
93.0309875495476
 31
0.0
 70
   160
 71
     5
 42
22.0
  3
AM_ISO
100
AcDbAlignedDimension
 13
142.7014393037989
 23
85.16415931774929
 33
0.0
 14
164.7014393037989
 24
76.20815931774927
 34
0.0
100
AcDbRotatedDimension
  0
DIMENSION
  5
136D
330
1E
100
AcDbEntity
  8
AM_5
100
AcDbDimension
  2
*D7
 10
171.7014393037989
 20
38.68218022888681
 30
0.0
 11
157.2014393037989
 21
40.98247550447736
 31
0.0
 70
    32
 71
     5
 42
29.0
  3
AM_ISO
100
AcDbAlignedDimension
 13
142.7014393037989
 23
51.66415931774929
 33
0.0
 14
171.7014393037989
 24
51.66415931774929
 34
0.0
100
AcDbRotatedDimension
  0
DIMENSION
  5
1391
330
1E
100
AcDbEntity
  8
AM_5
100
AcDbDimension
  2
*D8
 10
139.7014393037989
 20
44.68218022888675
 30
0.0
 11
141.2014393037989
 21
46.98218022888674
 31
0.0
 70
    32
 71
     5
 42
3.0
  3
AM_ISO
100
AcDbAlignedDimension
 13
142.7014393037989
 23
51.66415931774929
 33
0.0
 14
139.7014393037989
 24
58.91415931774929
 34
0.0
100
AcDbRotatedDimension
1001
ACAD
1000
DSTYLE
1002
{
1070
   173
1070
     1
1070
     6
1000
GENDOT
1002
}
  0
DIMENSION
  5
13B9
330
1E
100
AcDbEntity
  8
AM_5
100
AcDbDimension
  2
*D9
 10
133.7014393037989
 20
-8.283124809795253
 30
0.0
 11
124.7014393037989
 21
-5.983124809795254
 31
0.0
 70
    32
 71
     5
 42
18.0
  3
AM_ISO
100
AcDbAlignedDimension
 13
115.7014393037989
 23
9.816875190204655
 33
0.0
 14
133.7014393037989
 24
8.716875190204632
 34
0.0
100
AcDbRotatedDimension
  0
LINE
  5
13D2
330
1E
100
AcDbEntity
  8
AM_VIS
100
AcDbLine
 10
131.2014393037989
 20
8.816875190204655
 30
0.0
 11
131.2014393037989
 21
16.61687519020461
 31
0.0
  0
LINE
  5
13D3
330
1E
100
AcDbEntity
  8
AM_VIS
100
AcDbLine
 10
131.2014393037989
 20
64.51415931774931
 30
0.0
 11
131.2014393037989
 21
72.31415931774927
 31
0.0
  0
DIMENSION
  5
1479
330
1E
100
AcDbEntity
  8
AM_5
100
AcDbDimension
  2
*D10
 10
142.7014393037989
 20
-14.2831248097952
 30
0.0
 11
129.2014393037989
 21
-11.98282953420464
 31
0.0
 70
    32
 71
     5
 42
27.0
  3
AM_ISO
100
AcDbAlignedDimension
 13
115.7014393037989
 23
9.816875190204655
 33
0.0
 14
142.7014393037989
 24
-2.283124809795367
 34
0.0
100
AcDbRotatedDimension
  0
DIMENSION
  5
149D
330
1E
100
AcDbEntity
  8
AM_5
100
AcDbDimension
  2
*D11
 10
218.7014393037989
 20
-14.2831248097952
 30
0.0
 11
180.7014393037989
 21
-11.98312480979519
 31
0.0
 70
    32
  1
<>+stroke
 71
     5
 42
76.0
  3
AM_ISO
100
AcDbAlignedDimension
 13
142.7014393037989
 23
-2.283124809795367
 33
0.0
 14
218.7014393037989
 24
1.216875190204632
 34
0.0
100
AcDbRotatedDimension
  0
DIMENSION
  5
14C1
330
1E
100
AcDbEntity
  8
AM_5
100
AcDbDimension
  2
*D12
 10
218.7014393037989
 20
-20.2831248097952
 30
0.0
 11
167.2014393037989
 21
-17.98312480979519
 31
0.0
 70
    32
  1
<>+stroke
 71
     5
 42
103.0
  3
AM_ISO
100
AcDbAlignedDimension
 13
115.7014393037989
 23
9.816875190204655
 33
0.0
 14
218.7014393037989
 24
1.216875190204632
 34
0.0
100
AcDbRotatedDimension
  0
DIMENSION
  5
14E5
330
1E
100
AcDbEntity
  8
AM_5
100
AcDbDimension
  2
*D13
 10
136.6929741081974
 20
8.716875190204632
 30
0.0
 11
136.6929741081974
 21
28.89941782685332
 31
0.0
 70
   160
  1
%%c<>
 71
     5
 42
7.999999999999998
  3
AM_ISO
100
AcDbAlignedDimension
 13
133.7014393037989
 23
16.71687519020463
 33
0.0
 14
133.7014393037989
 24
8.716875190204632
 34
0.0
 50
90.0
100
AcDbRotatedDimension
  0
DIMENSION
  5
1509
330
1E
100
AcDbEntity
  8
AM_5
100
AcDbDimension
  2
*D14
 10
107.6527836721521
 20
2.716875190204641
 30
0.0
 11
104.4825813450822
 21
12.71687519020466
 31
0.0
 70
    32
  1
%%c<>
 71
     5
 42
20.0
  3
AM_ISO
100
AcDbAlignedDimension
 13
140.2014393037989
 23
22.71687519020463
 33
0.0
 14
140.2014393037989
 24
2.716875190204632
 34
0.0
 50
90.0
100
AcDbRotatedDimension
1001
GENIUS_GENDTOL_13
1000
TolAcTol
1000

1000

1040
20.0
1001
ACAD
1000
DSTYLE
1002
{
1070
    47
1040
0.0
1070
    48
1040
0.033
1070
    71
1070
     1
1070
   272
1070
     3
1002
}
  0
DIMENSION
  5
1668
330
1E
100
AcDbEntity
  8
AM_5
100
AcDbDimension
  2
*D15
 10
100.9227556296871
 20
51.6641593177493
 30
0.0
 11
98.62275562968717
 21
68.41415931774932
 31
0.0
 70
    32
 71
     5
 42
33.5
  3
AM_ISO
100
AcDbAlignedDimension
 13
142.7014393037989
 23
85.16415931774929
 33
0.0
 14
142.7014393037989
 24
51.66415931774929
 34
0.0
 50
90.0
100
AcDbRotatedDimension
  0
DIMENSION
  5
1699
330
1E
100
AcDbEntity
  8
AM_5
100
AcDbDimension
  2
*D16
 10
86.63932545325764
 20
12.71687519020463
 30
0.0
 11
84.33932545325765
 21
5.216875190204644
 31
0.0
 70
    32
 71
     5
 42
15.0
  3
AM_ISO
100
AcDbAlignedDimension
 13
77.73426819218087
 23
-2.283124809795367
 33
0.0
 14
81.08466948087931
 24
12.71687519020463
 34
0.0
 50
90.0
100
AcDbRotatedDimension
  0
DIMENSION
  5
1AE3
330
1E
100
AcDbEntity
  8
AM_5
100
AcDbDimension
  2
*D18
 10
210.7014393037989
 20
87.06685415404979
 30
0.0
 11
214.7014393037989
 21
89.36685415404978
 31
0.0
 70
    32
 71
     5
 42
8.0
  3
AM_ISO
100
AcDbAlignedDimension
 13
218.7014393037989
 23
79.9141593177493
 33
0.0
 14
210.7014393037989
 24
75.20815931774945
 34
0.0
100
AcDbRotatedDimension
  0
LINE
  5
1B26
330
1E
100
AcDbEntity
  8
AM_VIS
 62
     3
100
AcDbLine
 10
116.2014393037989
 20
16.11687519020461
 30
0.0
 11
120.2014393037989
 21
16.11687519020461
 31
0.0
  0
LINE
  5
1B27
330
1E
100
AcDbEntity
  8
AM_VIS
 62
     3
100
AcDbLine
 10
116.2014393037989
 20
9.316875190204655
 30
0.0
 11
120.2014393037989
 21
9.316875190204655
 31
0.0
  0
LINE
  5
1B28
330
1E
100
AcDbEntity
  8
AM_VIS
 62
     3
100
AcDbLine
 10
130.2014393037989
 20
16.11687519020461
 30
0.0
 11
131.2014393037989
 21
16.11687519020461
 31
0.0
  0
LINE
  5
1B29
330
1E
100
AcDbEntity
  8
AM_VIS
 62
     3
100
AcDbLine
 10
130.2014393037989
 20
9.316875190204655
 30
0.0
 11
131.2014393037989
 21
9.316875190204655
 31
0.0
  0
LINE
  5
1B2A
330
1E
100
AcDbEntity
  8
AM_VIS
 62
     3
100
AcDbLine
 10
116.2014393037989
 20
71.81415931774927
 30
0.0
 11
120.2014393037989
 21
71.81415931774927
 31
0.0
  0
LINE
  5
1B2B
330
1E
100
AcDbEntity
  8
AM_VIS
 62
     3
100
AcDbLine
 10
116.2014393037989
 20
65.01415931774932
 30
0.0
 11
120.2014393037989
 21
65.01415931774932
 31
0.0
  0
LINE
  5
1B2C
330
1E
100
AcDbEntity
  8
AM_VIS
 62
     3
100
AcDbLine
 10
130.2014393037989
 20
71.81415931774927
 30
0.0
 11
131.2014393037989
 21
71.81415931774927
 31
0.0
  0
LINE
  5
1B2D
330
1E
100
AcDbEntity
  8
AM_VIS
 62
     3
100
AcDbLine
 10
130.2014393037989
 20
65.01415931774932
 30
0.0
 11
131.2014393037989
 21
65.01415931774932
 31
0.0
  0
DIMENSION
  5
1DA4
330
1E
100
AcDbEntity
  8
AM_5
100
AcDbDimension
  2
*D19
 10
131.2014393037989
 20
-3.183124809795344
 30
0.0
 11
123.4514393037989
 21
-0.883124809795345
 31
0.0
 70
    32
 71
     5
 42
15.5
  3
AM_ISO
100
AcDbAlignedDimension
 13
115.7014393037989
 23
9.816875190204655
 33
0.0
 14
131.2014393037989
 24
8.816875190204655
 34
0.0
100
AcDbRotatedDimension
  0
INSERT
  5
2419
330
1E
100
AcDbEntity
  8
AM_5
100
AcDbBlockReference
  2
*S23
 10
5.043069310495866
 20
-1.674146245925953
 30
0.0
  0
TEXT
  5
241A
330
1E
100
AcDbEntity
  8
AM_5
100
AcDbText
 10
94.92942034985555
 20
34.09268007855962
 30
0.0
 40
3.0
  1
M8X1.25
100
AcDbText
  0
INSERT
  5
24AF
330
1E
100
AcDbEntity
  8
AM_5
100
AcDbBlockReference
  2
*S24
 10
5.043069310495866
 20
-6.951431516125808
 30
0.0
  0
TEXT
  5
24B0
330
1E
100
AcDbEntity
  8
AM_5
100
AcDbText
 10
170.4200390818657
 20
97.45638413032589
 30
0.0
 40
3.0
  1
%%c5.5 thru
100
AcDbText
  0
TEXT
  5
24B3
330
1E
100
AcDbEntity
  8
AM_5
100
AcDbText
 10
170.4200390818657
 20
93.0332552295224
 30
0.0
 40
3.0
  1
%%C9.5x6.5L
100
AcDbText
  0
LINE
  5
266B
330
1E
100
AcDbEntity
  8
AM_VIS
100
AcDbLine
 10
245.7593574489557
 20
-2.283124809795367
 30
0.0
 11
277.2593574489557
 21
-2.283124809795367
 31
0.0
  0
LINE
  5
266C
330
1E
100
AcDbEntity
  8
AM_VIS
100
AcDbLine
 10
245.7593574489557
 20
-2.283124809795367
 30
0.0
 11
244.7593574489558
 21
-1.283124809795367
 31
0.0
  0
LINE
  5
266D
330
1E
100
AcDbEntity
  8
AM_VIS
100
AcDbLine
 10
244.7593574489558
 20
26.71687519020463
 30
0.0
 11
244.7593574489558
 21
-1.283124809795367
 31
0.0
  0
LINE
  5
266E
330
1E
100
AcDbEntity
  8
AM_VIS
100
AcDbLine
 10
244.7593574489558
 20
26.71687519020463
 30
0.0
 11
245.7593574489557
 21
27.71687519020463
 31
0.0
  0
LINE
  5
266F
330
1E
100
AcDbEntity
  8
AM_VIS
100
AcDbLine
 10
277.2593574489557
 20
27.71687519020463
 30
0.0
 11
245.7593574489557
 21
27.71687519020463
 31
0.0
  0
LINE
  5
2670
330
1E
100
AcDbEntity
  8
AM_VIS
100
AcDbLine
 10
277.2593574489557
 20
27.71687519020463
 30
0.0
 11
278.2593574489557
 21
26.71687519020463
 31
0.0
  0
LINE
  5
2671
330
1E
100
AcDbEntity
  8
AM_VIS
100
AcDbLine
 10
278.2593574489557
 20
-1.283124809795367
 30
0.0
 11
278.2593574489557
 21
26.71687519020463
 31
0.0
  0
LINE
  5
2672
330
1E
100
AcDbEntity
  8
AM_VIS
100
AcDbLine
 10
278.2593574489557
 20
-1.283124809795367
 30
0.0
 11
277.2593574489557
 21
-2.283124809795367
 31
0.0
  0
CIRCLE
  5
2673
330
1E
100
AcDbEntity
  8
AM_VIS
100
AcDbCircle
 10
261.5093574489557
 20
12.71687519020463
 30
0.0
 40
11.5
  0
ARC
  5
2674
330
1E
100
AcDbEntity
  8
AM_VIS
100
AcDbCircle
 10
261.5093574489557
 20
12.71687519020463
 30
0.0
 40
14.0
100
AcDbArc
 50
121.0027191338737
 51
148.9972808661263
  0
ARC
  5
2675
330
1E
100
AcDbEntity
  8
AM_VIS
100
AcDbCircle
 10
261.5093574489557
 20
12.71687519020463
 30
0.0
 40
14.0
100
AcDbArc
 50
31.00271913387371
 51
58.99728086612629
  0
ARC
  5
2676
330
1E
100
AcDbEntity
  8
AM_VIS
100
AcDbCircle
 10
261.5093574489557
 20
12.71687519020463
 30
0.0
 40
14.0
100
AcDbArc
 50
301.0027191338737
 51
328.9972808661263
  0
ARC
  5
2677
330
1E
100
AcDbEntity
  8
AM_VIS
100
AcDbCircle
 10
261.5093574489557
 20
12.71687519020463
 30
0.0
 40
14.0
100
AcDbArc
 50
211.0027191338737
 51
238.9972808661263
  0
LINE
  5
2678
330
1E
100
AcDbEntity
  8
AM_VIS
100
AcDbLine
 10
249.5093574489557
 20
19.92797774113262
 30
0.0
 11
249.5093574489557
 21
5.505772639276642
 31
0.0
  0
LINE
  5
2679
330
1E
100
AcDbEntity
  8
AM_VIS
100
AcDbLine
 10
273.5093574489557
 20
19.92797774113262
 30
0.0
 11
273.5093574489557
 21
5.505772639276642
 31
0.0
  0
LINE
  5
267A
330
1E
100
AcDbEntity
  8
AM_VIS
100
AcDbLine
 10
254.2982548980277
 20
0.7168751902046325
 30
0.0
 11
268.7204599998837
 21
0.7168751902046325
 31
0.0
  0
LINE
  5
267B
330
1E
100
AcDbEntity
  8
AM_VIS
100
AcDbLine
 10
254.2982548980277
 20
24.71687519020463
 30
0.0
 11
268.7204599998837
 21
24.71687519020463
 31
0.0
  0
LINE
  5
267C
330
1E
100
AcDbEntity
  8
AM_7
100
AcDbLine
 10
261.5093574489557
 20
12.71687519020463
 30
0.0
 11
261.5093574489557
 21
29.51087519020461
 31
0.0
  0
LINE
  5
267D
330
1E
100
AcDbEntity
  8
AM_7
100
AcDbLine
 10
261.5093574489557
 20
-4.07712480979535
 30
0.0
 11
261.5093574489557
 21
12.71687519020463
 31
0.0
  0
LINE
  5
267E
330
1E
100
AcDbEntity
  8
AM_7
100
AcDbLine
 10
261.5093574489557
 20
12.71687519020463
 30
0.0
 11
280.1946583579049
 21
12.71687519020463
 31
0.0
  0
LINE
  5
267F
330
1E
100
AcDbEntity
  8
AM_7
100
AcDbLine
 10
243.5019323922574
 20
12.71687519020463
 30
0.0
 11
261.5093574489557
 21
12.71687519020463
 31
0.0
  0
LINE
  5
2680
330
1E
100
AcDbEntity
  8
AM_7
100
AcDbLine
 10
261.5093574489557
 20
12.71687519020463
 30
0.0
 11
261.5093574489557
 21
12.71687519020463
 31
0.0
  0
LINE
  5
2681
330
1E
100
AcDbEntity
  8
AM_7
100
AcDbLine
 10
261.5093574489557
 20
12.71687519020463
 30
0.0
 11
261.5093574489557
 21
12.71687519020463
 31
0.0
  0
DIMENSION
  5
26B8
330
1E
100
AcDbEntity
  8
AM_5
100
AcDbDimension
  2
*D20
 10
252.6836304126045
 20
1.849191799536015
 30
0.0
 11
279.3816249337153
 21
30.04496011547727
 31
0.0
 70
   163
 71
     5
 42
28.00000000000006
  3
AM_ISO$3
100
AcDbDiametricDimension
 15
270.3350844853072
 25
23.58455858087355
 35
0.0
 40
0.0
1001
ACAD
1000
DSTYLE
1002
{
1070
   287
1070
     2
1070
   287
1070
     2
1070
   141
1040
0.0
1070
   172
1070
     1
1070
   289
1070
     2
1002
}
  0
DIMENSION
  5
26ED
330
1E
100
AcDbEntity
  8
AM_5
100
AcDbDimension
  2
*D21
 10
273.5093574489557
 20
-10.52056514596961
 30
0.0
 11
261.5093574489557
 21
-8.220269870379061
 31
0.0
 70
    32
  1
{\Famgdt;o}<>
 71
     5
 42
23.99999999999997
  3
AM_ISO
100
AcDbAlignedDimension
 13
249.5093574489557
 23
5.505772639276642
 33
0.0
 14
273.5093574489557
 24
5.505772639276642
 34
0.0
 50
0.0000000000002036
100
AcDbRotatedDimension
  0
DIMENSION
  5
2BB2
330
1E
100
AcDbEntity
  8
AM_5
100
AcDbDimension
  2
*D22
 10
203.7014393037989
 20
49.89597070468176
 30
0.0
 11
211.2014393037989
 21
52.19597070468175
 31
0.0
 70
    32
 71
     5
 42
15.0
  3
AM_ISO
100
AcDbAlignedDimension
 13
218.7014393037989
 23
56.9141593177493
 33
0.0
 14
203.7014393037989
 24
56.9141593177493
 34
0.0
 50
0.0000000000002036
100
AcDbRotatedDimension
  0
TEXT
  5
2BCC
330
1E
100
AcDbEntity
  8
AM_5
100
AcDbText
 10
179.8040847238414
 20
47.29951727941875
 30
0.0
 40
3.0
  1
2-PT1/8
100
AcDbText
  0
INSERT
  5
2BCD
330
1E
100
AcDbEntity
  8
AM_5
100
AcDbBlockReference
  2
*S25
 10
5.043069310495866
 20
-6.951431516125808
 30
0.0
  0
LINE
  5
2D34
330
1E
100
AcDbEntity
  8
AM_VIS
100
AcDbLine
 10
133.7014393037989
 20
14.65336686330835
 30
0.0
 11
139.2014393037989
 21
10.78038351710094
 31
0.0
  0
LINE
  5
2D35
330
1E
100
AcDbEntity
  8
AM_VIS
100
AcDbLine
 10
139.2014393037989
 20
14.65336686330835
 30
0.0
 11
133.7014393037989
 21
10.78038351710091
 31
0.0
  0
LINE
  5
2EED
330
1E
100
AcDbEntity
  8
AM_7
100
AcDbLine
 10
61.98426819218088
 20
12.71687519020463
 30
0.0
 11
81.73426819218088
 21
12.71687519020463
 31
0.0
1001
GENIUS_GENOREF_13
1005
2EF1
  0
LINE
  5
2EEE
330
1E
100
AcDbEntity
  8
AM_7
100
AcDbLine
 10
61.98426819218088
 20
12.71687519020463
 30
0.0
 11
61.98426819218088
 21
32.46687519020464
 31
0.0
1001
GENIUS_GENOREF_13
1005
2EF1
  0
LINE
  5
2EEF
330
1E
100
AcDbEntity
  8
AM_7
100
AcDbLine
 10
61.98426819218088
 20
12.71687519020463
 30
0.0
 11
42.23426819218087
 21
12.71687519020463
 31
0.0
1001
GENIUS_GENOREF_13
1005
2EF1
  0
LINE
  5
2EF0
330
1E
100
AcDbEntity
  8
AM_7
100
AcDbLine
 10
61.98426819218088
 20
12.71687519020463
 30
0.0
 11
61.98426819218088
 21
-7.033124809795367
 31
0.0
1001
GENIUS_GENOREF_13
1005
2EF1
  0
POINT
  5
2EF1
330
1E
100
AcDbEntity
  8
0
 60
     1
100
AcDbPoint
 10
0.0
 20
0.0
 30
0.0
1001
GENIUS_GENOLIS_13
1002
{
1000
ENT
1005
2EF0
1005
2EEF
1005
2EEE
1005
2EED
1002
}
1001
GENIUS_GENOENT_13
1002
{
1000
MYREF
1005
2EF1
1002
}
1002
{
1000
GRP
1005
0
1002
}
1001
GENIUS_GENOBJ-N-CRS_13
1002
{
1000
OWNER
1000
GEN
1002
}
1001
GENIUS_GENODEF_13
1002
{
1000
HIER
1070
    10
1002
}
1002
{
1000
MANEDIT
1070
     0
1002
}
1002
{
1000
NOSEL
1070
     0
1002
}
1002
{
1000
BEHIND
1070
     0
1002
}
1002
{
1000
OTHER
1070
     0
1002
}
1002
{
1000
REACTOR
1002
}
  0
LINE
  5
3196
330
1E
100
AcDbEntity
  8
AM_7
100
AcDbLine
 10
220.3014393037988
 20
-180.5056074218627
 30
0.0
 11
115.1014393037989
 21
-180.5056074218627
 31
0.0
  0
LINE
  5
3197
330
1E
100
AcDbEntity
  8
AM_7
100
AcDbLine
 10
220.3014393037988
 20
-124.808323294318
 30
0.0
 11
114.6014393037989
 21
-124.808323294318
 31
0.0
  0
LINE
  5
3198
330
1E
100
AcDbEntity
  8
AM_VIS
100
AcDbLine
 10
138.7014393037988
 20
-182.4420990949663
 30
0.0
 11
133.7014393037988
 21
-182.4420990949663
 31
0.0
  0
LINE
  5
3199
330
1E
100
AcDbEntity
  8
AM_VIS
100
AcDbLine
 10
133.7014393037988
 20
-178.5691157487589
 30
0.0
 11
138.7014393037988
 21
-178.5691157487589
 31
0.0
  0
LINE
  5
319A
330
1E
100
AcDbEntity
  8
AM_VIS
100
AcDbLine
 10
139.7014393037988
 20
-184.5056074218627
 30
0.0
 11
133.7014393037988
 21
-184.5056074218627
 31
0.0
  0
LINE
  5
319B
330
1E
100
AcDbEntity
  8
AM_VIS
100
AcDbLine
 10
139.7014393037988
 20
-176.5056074218627
 30
0.0
 11
133.7014393037988
 21
-176.5056074218627
 31
0.0
  0
LINE
  5
319C
330
1E
100
AcDbEntity
  8
AM_VIS
100
AcDbLine
 10
133.2014393037988
 20
-128.3083232943181
 30
0.0
 11
138.7014393037988
 21
-128.3083232943181
 31
0.0
  0
LINE
  5
319D
330
1E
100
AcDbEntity
  8
AM_VIS
100
AcDbLine
 10
138.7014393037988
 20
-121.3083232943181
 30
0.0
 11
133.2014393037988
 21
-121.3083232943181
 31
0.0
  0
LINE
  5
319E
330
1E
100
AcDbEntity
  8
AM_7
100
AcDbLine
 10
69.21726819218083
 20
-191.5056074218627
 30
0.0
 11
71.18426819218092
 21
-191.5056074218627
 31
0.0
  0
LINE
  5
319F
330
1E
100
AcDbEntity
  8
AM_7
100
AcDbLine
 10
69.21726819218083
 20
-169.5056074218627
 30
0.0
 11
71.18426819218092
 21
-169.5056074218627
 31
0.0
  0
LINE
  5
31A0
330
1E
100
AcDbEntity
  8
AM_7
100
AcDbLine
 10
63.78426819218083
 20
-180.5056074218627
 30
0.0
 11
73.5842681921809
 21
-180.5056074218627
 31
0.0
  0
LINE
  5
31A1
330
1E
100
AcDbEntity
  8
AM_VIS
100
AcDbLine
 10
48.48426819218087
 20
-165.5056074218627
 30
0.0
 11
75.48426819218088
 21
-165.5056074218627
 31
0.0
  0
LINE
  5
31A2
330
1E
100
AcDbEntity
  8
AM_VIS
100
AcDbLine
 10
75.48426819218088
 20
-195.5056074218627
 30
0.0
 11
48.48426819218087
 21
-195.5056074218627
 31
0.0
  0
CIRCLE
  5
31A4
330
1E
100
AcDbEntity
  8
AM_VIS
100
AcDbCircle
 10
61.98426819218088
 20
-180.5056074218627
 30
0.0
 40
10.0
  0
LINE
  5
31A5
330
1E
100
AcDbEntity
  8
AM_7
100
AcDbLine
 10
61.98426819218088
 20
-192.1056074218626
 30
0.0
 11
61.98426819218088
 21
-182.3056074218627
 31
0.0
  0
LINE
  5
31A6
330
1E
100
AcDbEntity
  8
AM_VIS
100
AcDbLine
 10
55.48426819218088
 20
-184.2583841715952
 30
0.0
 11
61.98426819218088
 21
-188.0111609213278
 31
0.0
  0
LINE
  5
31A7
330
1E
100
AcDbEntity
  8
AM_VIS
100
AcDbLine
 10
61.98426819218088
 20
-188.0111609213278
 30
0.0
 11
68.48426819218087
 21
-184.2583841715952
 31
0.0
  0
LINE
  5
31A8
330
1E
100
AcDbEntity
  8
AM_VIS
100
AcDbLine
 10
55.48426819218088
 20
-184.2583841715952
 30
0.0
 11
61.98426819218088
 21
-188.0111609213278
 31
0.0
  0
LINE
  5
31A9
330
1E
100
AcDbEntity
  8
AM_VIS
100
AcDbLine
 10
61.98426819218088
 20
-188.0111609213278
 30
0.0
 11
68.48426819218087
 21
-184.2583841715952
 31
0.0
  0
CIRCLE
  5
31AA
330
1E
100
AcDbEntity
  8
AM_VIS
100
AcDbCircle
 10
61.98426819218088
 20
-180.5056074218627
 30
0.0
 40
6.250000000000005
  0
LINE
  5
31AB
330
1E
100
AcDbEntity
  8
AM_VIS
100
AcDbLine
 10
46.98426819218087
 20
-194.0056074218627
 30
0.0
 11
46.98426819218087
 21
-167.0056074218627
 31
0.0
  0
LINE
  5
31AC
330
1E
100
AcDbEntity
  8
AM_7
100
AcDbLine
 10
49.98426819218088
 20
-191.5056074218627
 30
0.0
 11
51.98426819218088
 21
-191.5056074218627
 31
0.0
  0
CIRCLE
  5
31AE
330
1E
100
AcDbEntity
  8
AM_VIS
100
AcDbCircle
 10
50.98426819218087
 20
-191.5056074218627
 30
0.0
 40
2.166999999999999
  0
LINE
  5
31AF
330
1E
100
AcDbEntity
  8
AM_7
100
AcDbLine
 10
50.98426819218087
 20
-192.5056074218627
 30
0.0
 11
50.98426819218087
 21
-190.5056074218627
 31
0.0
  0
LINE
  5
31B0
330
1E
100
AcDbEntity
  8
AM_7
100
AcDbLine
 10
47.21726819218083
 20
-191.5056074218627
 30
0.0
 11
49.18426819218092
 21
-191.5056074218627
 31
0.0
  0
LINE
  5
31B1
330
1E
100
AcDbEntity
  8
AM_7
100
AcDbLine
 10
50.98426819218087
 20
-195.2726074218627
 30
0.0
 11
50.98426819218087
 21
-193.3056074218627
 31
0.0
  0
LINE
  5
31B2
330
1E
100
AcDbEntity
  8
AM_7
100
AcDbLine
 10
50.98426819218087
 20
-189.7056074218627
 30
0.0
 11
50.98426819218087
 21
-187.7386074218627
 31
0.0
  0
LINE
  5
31B3
330
1E
100
AcDbEntity
  8
AM_VIS
100
AcDbLine
 10
48.48426819218087
 20
-195.5056074218627
 30
0.0
 11
46.98426819218087
 21
-194.0056074218627
 31
0.0
  0
LINE
  5
31B4
330
1E
100
AcDbEntity
  8
AM_7
100
AcDbLine
 10
52.78426819218083
 20
-191.5056074218627
 30
0.0
 11
54.75126819218093
 21
-191.5056074218627
 31
0.0
  0
LINE
  5
31B5
330
1E
100
AcDbEntity
  8
AM_7
100
AcDbLine
 10
50.38426819218085
 20
-180.5056074218627
 30
0.0
 11
60.18426819218092
 21
-180.5056074218627
 31
0.0
  0
LINE
  5
31B6
330
1E
100
AcDbEntity
  8
AM_VIS
100
AcDbLine
 10
55.48426819218088
 20
-176.7528306721301
 30
0.0
 11
61.98426819218088
 21
-173.0000539223975
 31
0.0
  0
LINE
  5
31B7
330
1E
100
AcDbEntity
  8
AM_VIS
100
AcDbLine
 10
55.48426819218088
 20
-176.7528306721301
 30
0.0
 11
61.98426819218088
 21
-173.0000539223975
 31
0.0
  0
LINE
  5
31B8
330
1E
100
AcDbEntity
  8
AM_VIS
100
AcDbLine
 10
55.48426819218088
 20
-176.7528306721301
 30
0.0
 11
55.48426819218088
 21
-184.2583841715952
 31
0.0
  0
LINE
  5
31B9
330
1E
100
AcDbEntity
  8
AM_VIS
100
AcDbLine
 10
55.48426819218088
 20
-176.7528306721301
 30
0.0
 11
55.48426819218088
 21
-184.2583841715952
 31
0.0
  0
LINE
  5
31BA
330
1E
100
AcDbEntity
  8
AM_7
100
AcDbLine
 10
49.98426819218088
 20
-169.5056074218627
 30
0.0
 11
51.98426819218088
 21
-169.5056074218627
 31
0.0
  0
CIRCLE
  5
31BC
330
1E
100
AcDbEntity
  8
AM_VIS
100
AcDbCircle
 10
50.98426819218087
 20
-169.5056074218627
 30
0.0
 40
2.166999999999999
  0
LINE
  5
31BD
330
1E
100
AcDbEntity
  8
AM_7
100
AcDbLine
 10
50.98426819218087
 20
-170.5056074218627
 30
0.0
 11
50.98426819218087
 21
-168.5056074218627
 31
0.0
  0
LINE
  5
31BE
330
1E
100
AcDbEntity
  8
AM_7
100
AcDbLine
 10
47.21726819218083
 20
-169.5056074218627
 30
0.0
 11
49.18426819218092
 21
-169.5056074218627
 31
0.0
  0
LINE
  5
31BF
330
1E
100
AcDbEntity
  8
AM_7
100
AcDbLine
 10
50.98426819218087
 20
-173.2726074218627
 30
0.0
 11
50.98426819218087
 21
-171.3056074218627
 31
0.0
  0
LINE
  5
31C0
330
1E
100
AcDbEntity
  8
AM_7
100
AcDbLine
 10
50.98426819218087
 20
-167.7056074218627
 30
0.0
 11
50.98426819218087
 21
-165.7386074218627
 31
0.0
  0
LINE
  5
31C1
330
1E
100
AcDbEntity
  8
AM_VIS
100
AcDbLine
 10
46.98426819218087
 20
-167.0056074218627
 30
0.0
 11
48.48426819218087
 21
-165.5056074218627
 31
0.0
  0
LINE
  5
31C2
330
1E
100
AcDbEntity
  8
AM_7
100
AcDbLine
 10
52.78426819218083
 20
-169.5056074218627
 30
0.0
 11
54.75126819218093
 21
-169.5056074218627
 31
0.0
  0
LINE
  5
31C3
330
1E
100
AcDbEntity
  8
AM_7
100
AcDbLine
 10
61.98426819218088
 20
-178.7056074218626
 30
0.0
 11
61.98426819218088
 21
-168.9056074218627
 31
0.0
  0
LINE
  5
31C4
330
1E
100
AcDbEntity
  8
AM_VIS
100
AcDbLine
 10
61.98426819218088
 20
-173.0000539223975
 30
0.0
 11
68.48426819218087
 21
-176.7528306721301
 31
0.0
  0
LINE
  5
31C5
330
1E
100
AcDbEntity
  8
AM_VIS
100
AcDbLine
 10
61.98426819218088
 20
-173.0000539223975
 30
0.0
 11
68.48426819218087
 21
-176.7528306721301
 31
0.0
  0
CIRCLE
  5
31C6
330
1E
100
AcDbEntity
  8
AM_VIS
100
AcDbCircle
 10
61.98426819218088
 20
-180.5056074218627
 30
0.0
 40
4.266025403784443
  0
CIRCLE
  5
31C7
330
1E
100
AcDbEntity
  8
AM_VIS
100
AcDbCircle
 10
61.98426819218088
 20
-180.5056074218627
 30
0.0
 40
3.9
  0
CIRCLE
  5
31C8
330
1E
100
AcDbEntity
  8
AM_VIS
100
AcDbCircle
 10
61.98426819218088
 20
-180.5056074218627
 30
0.0
 40
2.9
  0
LINE
  5
31C9
330
1E
100
AcDbEntity
  8
AM_7
100
AcDbLine
 10
60.98426819218087
 20
-180.5056074218627
 30
0.0
 11
62.98426819218088
 21
-180.5056074218627
 31
0.0
  0
LINE
  5
31CA
330
1E
100
AcDbEntity
  8
AM_7
100
AcDbLine
 10
61.98426819218088
 20
-181.5056074218627
 30
0.0
 11
61.98426819218088
 21
-179.5056074218627
 31
0.0
  0
LINE
  5
31CB
330
1E
100
AcDbEntity
  8
AM_VIS
100
AcDbLine
 10
68.48426819218087
 20
-176.7528306721301
 30
0.0
 11
68.48426819218087
 21
-184.2583841715952
 31
0.0
  0
LINE
  5
31CC
330
1E
100
AcDbEntity
  8
AM_VIS
100
AcDbLine
 10
68.48426819218087
 20
-176.7528306721301
 30
0.0
 11
68.48426819218087
 21
-184.2583841715952
 31
0.0
  0
LINE
  5
31CD
330
1E
100
AcDbEntity
  8
AM_VIS
100
AcDbLine
 10
76.98426819218088
 20
-167.0056074218627
 30
0.0
 11
76.98426819218088
 21
-194.0056074218627
 31
0.0
  0
LINE
  5
31CE
330
1E
100
AcDbEntity
  8
AM_7
100
AcDbLine
 10
74.78426819218083
 20
-191.5056074218627
 30
0.0
 11
76.75126819218093
 21
-191.5056074218627
 31
0.0
  0
LINE
  5
31D0
330
1E
100
AcDbEntity
  8
AM_7
100
AcDbLine
 10
71.98426819218088
 20
-191.5056074218627
 30
0.0
 11
73.98426819218087
 21
-191.5056074218627
 31
0.0
  0
LINE
  5
31D1
330
1E
100
AcDbEntity
  8
AM_7
100
AcDbLine
 10
72.98426819218088
 20
-192.5056074218627
 30
0.0
 11
72.98426819218088
 21
-190.5056074218627
 31
0.0
  0
LINE
  5
31D2
330
1E
100
AcDbEntity
  8
AM_7
100
AcDbLine
 10
72.98426819218088
 20
-195.2726074218627
 30
0.0
 11
72.98426819218088
 21
-193.3056074218627
 31
0.0
  0
LINE
  5
31D3
330
1E
100
AcDbEntity
  8
AM_7
100
AcDbLine
 10
72.98426819218088
 20
-189.7056074218627
 30
0.0
 11
72.98426819218088
 21
-187.7386074218627
 31
0.0
  0
CIRCLE
  5
31D4
330
1E
100
AcDbEntity
  8
AM_VIS
100
AcDbCircle
 10
72.98426819218088
 20
-191.5056074218627
 30
0.0
 40
2.166999999999999
  0
LINE
  5
31D5
330
1E
100
AcDbEntity
  8
AM_VIS
100
AcDbLine
 10
76.98426819218088
 20
-194.0056074218627
 30
0.0
 11
75.48426819218088
 21
-195.5056074218627
 31
0.0
  0
LINE
  5
31D6
330
1E
100
AcDbEntity
  8
AM_7
100
AcDbLine
 10
74.78426819218083
 20
-169.5056074218627
 30
0.0
 11
76.75126819218093
 21
-169.5056074218627
 31
0.0
  0
ARC
  5
31D7
330
1E
100
AcDbEntity
  8
AM_4
100
AcDbCircle
 10
72.98426819218088
 20
-169.5056074218627
 30
0.0
 40
2.62
100
AcDbArc
 50
280.0
 51
190.0
  0
LINE
  5
31D8
330
1E
100
AcDbEntity
  8
AM_7
100
AcDbLine
 10
71.98426819218088
 20
-169.5056074218627
 30
0.0
 11
73.98426819218087
 21
-169.5056074218627
 31
0.0
  0
LINE
  5
31D9
330
1E
100
AcDbEntity
  8
AM_7
100
AcDbLine
 10
72.98426819218088
 20
-170.5056074218627
 30
0.0
 11
72.98426819218088
 21
-168.5056074218627
 31
0.0
  0
LINE
  5
31DA
330
1E
100
AcDbEntity
  8
AM_7
100
AcDbLine
 10
72.98426819218088
 20
-173.2726074218627
 30
0.0
 11
72.98426819218088
 21
-171.3056074218627
 31
0.0
  0
LINE
  5
31DB
330
1E
100
AcDbEntity
  8
AM_7
100
AcDbLine
 10
72.98426819218088
 20
-167.7056074218627
 30
0.0
 11
72.98426819218088
 21
-165.7386074218627
 31
0.0
  0
CIRCLE
  5
31DC
330
1E
100
AcDbEntity
  8
AM_VIS
100
AcDbCircle
 10
72.98426819218088
 20
-169.5056074218627
 30
0.0
 40
2.166999999999999
  0
LINE
  5
31DD
330
1E
100
AcDbEntity
  8
AM_VIS
100
AcDbLine
 10
75.48426819218088
 20
-165.5056074218627
 30
0.0
 11
76.98426819218088
 21
-167.0056074218627
 31
0.0
  0
SPLINE
  5
31DE
330
1E
100
AcDbEntity
  8
AM_VIS
100
AcDbSpline
210
0.0
220
0.0
230
1.0
 70
    12
 71
     2
 72
     6
 73
     3
 74
     0
 42
0.0000000001
 43
0.0000000001
 40
4.619277005814908
 40
4.619277005814908
 40
4.619277005814908
 40
14.54666500947183
 40
14.54666500947183
 40
14.54666500947183
 10
125.926333454697
 20
-184.2583841715952
 30
0.0
 41
1.267354410568483
 10
124.8430001213637
 20
-186.1347725464615
 30
0.0
 41
1.463414820200747
 10
125.9263334546971
 20
-188.0111609213278
 30
0.0
 41
1.267354410568482
  0
SPLINE
  5
31DF
330
1E
100
AcDbEntity
  8
AM_VIS
100
AcDbSpline
210
0.0
220
0.0
230
1.0
 70
    12
 71
     2
 72
     6
 73
     3
 74
     0
 42
0.0000000001
 43
0.0000000001
 40
4.619277005814901
 40
4.619277005814901
 40
4.619277005814901
 40
14.54666500947183
 40
14.54666500947183
 40
14.54666500947183
 10
129.4765451529007
 20
-188.0111609213278
 30
0.0
 41
1.267354410568483
 10
130.559878486234
 20
-186.1347725464615
 30
0.0
 41
1.463414820200748
 10
129.4765451529006
 20
-184.2583841715952
 30
0.0
 41
1.267354410568484
  0
LINE
  5
31E0
330
1E
100
AcDbEntity
  8
AM_VIS
100
AcDbLine
 10
125.2014393037988
 20
-174.2556074218627
 30
0.0
 11
125.2014393037988
 21
-186.7556074218627
 31
0.0
  0
LINE
  5
31E1
330
1E
100
AcDbEntity
  8
AM_VIS
100
AcDbLine
 10
130.2014393037988
 20
-186.7556074218627
 30
0.0
 11
130.2014393037988
 21
-174.2556074218627
 31
0.0
  0
SPLINE
  5
31E2
330
1E
100
AcDbEntity
  8
AM_VIS
100
AcDbSpline
210
0.0
220
0.0
230
1.0
 70
    12
 71
     2
 72
     6
 73
     3
 74
     0
 42
0.0000000001
 43
0.0000000001
 40
4.619277005814922
 40
4.619277005814922
 40
4.619277005814922
 40
14.54666500947183
 40
14.54666500947183
 40
14.54666500947183
 10
124.4765451529007
 20
-188.0111609213278
 30
0.0
 41
1.267354410568481
 10
125.559878486234
 20
-186.1347725464615
 30
0.0
 41
1.463414820200743
 10
124.4765451529007
 20
-184.2583841715952
 30
0.0
 41
1.267354410568479
  0
SPLINE
  5
31E3
330
1E
100
AcDbEntity
  8
AM_VIS
100
AcDbSpline
210
0.0
220
0.0
230
1.0
 70
    12
 71
     2
 72
     6
 73
     3
 74
     0
 42
0.0000000001
 43
0.0000000001
 40
4.61927700581486
 40
4.61927700581486
 40
4.61927700581486
 40
14.54666500947178
 40
14.54666500947178
 40
14.54666500947178
 10
120.926333454697
 20
-184.2583841715952
 30
0.0
 41
1.267354410568481
 10
119.8430001213637
 20
-186.1347725464615
 30
0.0
 41
1.463414820200747
 10
120.9263334546971
 20
-188.0111609213278
 30
0.0
 41
1.267354410568483
  0
LINE
  5
31E4
330
1E
100
AcDbEntity
  8
AM_VIS
100
AcDbLine
 10
125.2014393037988
 20
-186.7556074218627
 30
0.0
 11
125.2014393037988
 21
-174.2556074218627
 31
0.0
  0
LINE
  5
31E5
330
1E
100
AcDbEntity
  8
AM_VIS
100
AcDbLine
 10
120.2014393037988
 20
-174.2556074218627
 30
0.0
 11
120.2014393037988
 21
-186.7556074218627
 31
0.0
  0
LINE
  5
31E6
330
1E
100
AcDbEntity
  8
AM_VIS
100
AcDbLine
 10
125.2014393037988
 20
-186.7556074218627
 30
0.0
 11
124.4765451529007
 21
-188.0111609213279
 31
0.0
  0
LINE
  5
31E7
330
1E
100
AcDbEntity
  8
AM_VIS
100
AcDbLine
 10
124.4765451529007
 20
-188.0111609213278
 30
0.0
 11
120.9263334546971
 21
-188.0111609213278
 31
0.0
  0
LINE
  5
31E8
330
1E
100
AcDbEntity
  8
AM_VIS
100
AcDbLine
 10
120.2014393037988
 20
-186.7556074218627
 30
0.0
 11
120.9263334546971
 21
-188.0111609213278
 31
0.0
  0
LINE
  5
31E9
330
1E
100
AcDbEntity
  8
AM_VIS
100
AcDbLine
 10
125.9263334546971
 20
-188.0111609213278
 30
0.0
 11
129.4765451529007
 21
-188.0111609213278
 31
0.0
  0
LINE
  5
31EA
330
1E
100
AcDbEntity
  8
AM_VIS
100
AcDbLine
 10
125.2014393037988
 20
-186.7556074218627
 30
0.0
 11
125.9263334546971
 21
-188.0111609213279
 31
0.0
  0
LINE
  5
31EB
330
1E
100
AcDbEntity
  8
AM_VIS
100
AcDbLine
 10
130.2014393037988
 20
-186.7556074218627
 30
0.0
 11
129.4765451529007
 21
-188.0111609213278
 31
0.0
  0
LINE
  5
31EC
330
1E
100
AcDbEntity
  8
AM_VIS
100
AcDbLine
 10
125.2014393037988
 20
-174.2556074218627
 30
0.0
 11
124.4765451529007
 21
-173.0000539223975
 31
0.0
  0
SPLINE
  5
31ED
330
1E
100
AcDbEntity
  8
AM_VIS
100
AcDbSpline
210
0.0
220
0.0
230
1.0
 70
    12
 71
     2
 72
     6
 73
     3
 74
     0
 42
0.0000000001
 43
0.0000000001
 40
4.619277005814863
 40
4.619277005814863
 40
4.619277005814863
 40
14.54666500947176
 40
14.54666500947176
 40
14.54666500947176
 10
124.4765451529005
 20
-176.75283067213
 30
0.0
 41
1.267354410568478
 10
125.5598784862339
 20
-174.8764422972638
 30
0.0
 41
1.463414820200741
 10
124.4765451529007
 20
-173.0000539223975
 30
0.0
 41
1.26735441056848
  0
SPLINE
  5
31EE
330
1E
100
AcDbEntity
  8
AM_VIS
100
AcDbSpline
210
0.0
220
0.0
230
1.0
 70
    12
 71
     2
 72
     6
 73
     3
 74
     0
 42
0.0000000001
 43
0.0000000001
 40
4.619277005814921
 40
4.619277005814921
 40
4.619277005814921
 40
14.54666500947182
 40
14.54666500947182
 40
14.54666500947182
 10
120.9263334546971
 20
-173.0000539223975
 30
0.0
 41
1.26735441056848
 10
119.8430001213637
 20
-174.8764422972638
 30
0.0
 41
1.46341482020074
 10
120.926333454697
 20
-176.7528306721301
 30
0.0
 41
1.267354410568478
  0
LINE
  5
31EF
330
1E
100
AcDbEntity
  8
AM_VIS
100
AcDbLine
 10
120.2014393037988
 20
-184.4056074218626
 30
0.0
 11
116.7014393037988
 21
-184.4056074218626
 31
0.0
  0
LINE
  5
31F0
330
1E
100
AcDbEntity
  8
AM_VIS
100
AcDbLine
 10
120.2014393037988
 20
-176.6056074218626
 30
0.0
 11
116.7014393037988
 21
-176.6056074218626
 31
0.0
  0
LINE
  5
31F1
330
1E
100
AcDbEntity
  8
AM_VIS
100
AcDbLine
 10
115.7014393037988
 20
-177.6056074218626
 30
0.0
 11
116.7014393037988
 21
-176.6056074218626
 31
0.0
  0
LINE
  5
31F2
330
1E
100
AcDbEntity
  8
AM_VIS
100
AcDbLine
 10
115.7014393037988
 20
-183.4056074218626
 30
0.0
 11
116.7014393037988
 21
-184.4056074218626
 31
0.0
  0
LINE
  5
31F5
330
1E
100
AcDbEntity
  8
AM_VIS
100
AcDbLine
 10
115.7014393037988
 20
-183.4056074218626
 30
0.0
 11
115.7014393037988
 21
-180.5056074218627
 31
0.0
  0
LINE
  5
31F6
330
1E
100
AcDbEntity
  8
AM_VIS
100
AcDbLine
 10
115.7014393037988
 20
-180.5056074218627
 30
0.0
 11
115.7014393037988
 21
-177.6056074218626
 31
0.0
  0
SPLINE
  5
31F7
330
1E
100
AcDbEntity
  8
AM_VIS
100
AcDbSpline
210
0.0
220
0.0
230
1.0
 70
    12
 71
     2
 72
     6
 73
     3
 74
     0
 42
0.0000000001
 43
0.0000000001
 40
4.619277005814892
 40
4.619277005814892
 40
4.619277005814892
 40
14.54666500947178
 40
14.54666500947178
 40
14.54666500947178
 10
124.4765451529007
 20
-184.2583841715952
 30
0.0
 41
1.26735441056848
 10
125.559878486234
 20
-180.5056074218626
 30
0.0000000000000071
 41
1.463414820200741
 10
124.4765451529007
 20
-176.7528306721301
 30
0.0
 41
1.267354410568479
  0
SPLINE
  5
31F8
330
1E
100
AcDbEntity
  8
AM_VIS
100
AcDbSpline
210
0.0
220
0.0
230
1.0
 70
    12
 71
     2
 72
     6
 73
     3
 74
     0
 42
0.0000000001
 43
0.0000000001
 40
4.61927700581488
 40
4.61927700581488
 40
4.61927700581488
 40
14.54666500947177
 40
14.54666500947177
 40
14.54666500947177
 10
120.9263334546971
 20
-176.7528306721301
 30
0.0
 41
1.267354410568479
 10
119.8430001213637
 20
-180.5056074218626
 30
0.0
 41
1.463414820200741
 10
120.9263334546971
 20
-184.2583841715952
 30
0.0
 41
1.267354410568479
  0
LINE
  5
31F9
330
1E
100
AcDbEntity
  8
AM_VIS
100
AcDbLine
 10
124.4765451529007
 20
-184.2583841715952
 30
0.0
 11
120.9263334546971
 21
-184.2583841715952
 31
0.0
  0
LINE
  5
31FA
330
1E
100
AcDbEntity
  8
AM_VIS
100
AcDbLine
 10
124.4765451529007
 20
-176.7528306721301
 30
0.0
 11
120.9263334546971
 21
-176.7528306721301
 31
0.0
  0
LINE
  5
31FB
330
1E
100
AcDbEntity
  8
AM_VIS
100
AcDbLine
 10
124.4765451529007
 20
-173.0000539223975
 30
0.0
 11
120.9263334546971
 21
-173.0000539223975
 31
0.0
  0
LINE
  5
31FC
330
1E
100
AcDbEntity
  8
AM_VIS
100
AcDbLine
 10
120.2014393037988
 20
-174.2556074218627
 30
0.0
 11
120.9263334546971
 21
-173.0000539223975
 31
0.0
  0
SPLINE
  5
31FD
330
1E
100
AcDbEntity
  8
AM_VIS
100
AcDbSpline
210
0.0
220
0.0
230
1.0
 70
    12
 71
     2
 72
     6
 73
     3
 74
     0
 42
0.0000000001
 43
0.0000000001
 40
4.619277005814876
 40
4.619277005814876
 40
4.619277005814876
 40
14.54666500947179
 40
14.54666500947179
 40
14.54666500947179
 10
125.9263334546969
 20
-173.0000539223974
 30
0.0
 41
1.267354410568481
 10
124.8430001213639
 20
-174.8764422972638
 30
0.0
 41
1.463414820200745
 10
125.9263334546971
 20
-176.7528306721301
 30
0.0
 41
1.267354410568482
  0
SPLINE
  5
31FE
330
1E
100
AcDbEntity
  8
AM_VIS
100
AcDbSpline
210
0.0
220
0.0
230
1.0
 70
    12
 71
     2
 72
     6
 73
     3
 74
     0
 42
0.0000000001
 43
0.0000000001
 40
4.619277005814916
 40
4.619277005814916
 40
4.619277005814916
 40
14.54666500947183
 40
14.54666500947183
 40
14.54666500947183
 10
129.4765451529007
 20
-176.7528306721301
 30
0.0
 41
1.267354410568483
 10
130.559878486234
 20
-174.8764422972638
 30
0.0
 41
1.463414820200745
 10
129.4765451529007
 20
-173.0000539223975
 30
0.0
 41
1.267354410568481
  0
LINE
  5
31FF
330
1E
100
AcDbEntity
  8
AM_VIS
100
AcDbLine
 10
133.7014393037988
 20
-184.4056074218626
 30
0.0
 11
130.2014393037988
 21
-184.4056074218626
 31
0.0
  0
LINE
  5
3200
330
1E
100
AcDbEntity
  8
AM_VIS
100
AcDbLine
 10
133.7014393037988
 20
-176.6056074218626
 30
0.0
 11
130.2014393037988
 21
-176.6056074218626
 31
0.0
  0
SPLINE
  5
3201
330
1E
100
AcDbEntity
  8
AM_VIS
100
AcDbSpline
210
0.0
220
0.0
230
1.0
 70
    12
 71
     2
 72
     6
 73
     3
 74
     0
 42
0.0000000001
 43
0.0000000001
 40
4.619277005814888
 40
4.619277005814888
 40
4.619277005814888
 40
14.54666500947182
 40
14.54666500947182
 40
14.54666500947182
 10
125.9263334546971
 20
-176.7528306721301
 30
0.0
 41
1.267354410568482
 10
124.8430001213636
 20
-180.5056074218627
 30
0.0
 41
1.463414820200747
 10
125.9263334546971
 20
-184.2583841715952
 30
0.0
 41
1.267354410568483
  0
LINE
  5
3202
330
1E
100
AcDbEntity
  8
AM_VIS
100
AcDbLine
 10
125.9263334546971
 20
-176.7528306721301
 30
0.0
 11
129.4765451529007
 21
-176.7528306721301
 31
0.0
  0
LINE
  5
3203
330
1E
100
AcDbEntity
  8
AM_VIS
100
AcDbLine
 10
125.9263334546971
 20
-184.2583841715952
 30
0.0
 11
129.4765451529007
 21
-184.2583841715952
 31
0.0
  0
SPLINE
  5
3204
330
1E
100
AcDbEntity
  8
AM_VIS
100
AcDbSpline
210
0.0
220
0.0
230
1.0
 70
    12
 71
     2
 72
     6
 73
     3
 74
     0
 42
0.0000000001
 43
0.0000000001
 40
4.619277005814915
 40
4.619277005814915
 40
4.619277005814915
 40
14.54666500947185
 40
14.54666500947185
 40
14.54666500947185
 10
129.4765451529007
 20
-184.2583841715952
 30
0.0
 41
1.267354410568483
 10
130.559878486234
 20
-180.5056074218626
 30
0.0
 41
1.463414820200747
 10
129.4765451529007
 20
-176.7528306721301
 30
0.0
 41
1.267354410568482
  0
ELLIPSE
  5
3205
330
1E
100
AcDbEntity
  8
AM_VIS
100
AcDbEllipse
 10
144.2014393037988
 20
-180.5056074218627
 30
0.0
 11
-11.7
 21
0.0000000000000007
 31
-0.0000000000000001
210
0.0
220
0.0
230
1.0
 40
0.3333333333333321
 41
-0.4568740035326729
 42
0.4568740035326507
  0
LINE
  5
3206
330
1E
100
AcDbEntity
  8
AM_VIS
100
AcDbLine
 10
133.7014393037988
 20
-182.2260724752711
 30
0.0
 11
133.7014393037988
 21
-178.7851423684541
 31
0.0
  0
LINE
  5
3207
330
1E
100
AcDbEntity
  8
AM_VIS
100
AcDbLine
 10
133.7014393037988
 20
-178.7851423684541
 30
0.0
 11
133.7014393037988
 21
-178.5691157487589
 31
0.0
  0
LINE
  5
3208
330
1E
100
AcDbEntity
  8
AM_VIS
100
AcDbLine
 10
133.7014393037988
 20
-182.4420990949663
 30
0.0
 11
133.7014393037988
 21
-182.2260724752711
 31
0.0
  0
LINE
  5
3209
330
1E
100
AcDbEntity
  8
AM_VIS
100
AcDbLine
 10
133.7014393037988
 20
-178.5691157487589
 30
0.0
 11
133.7014393037988
 21
-176.5056074218627
 31
0.0
  0
LINE
  5
320A
330
1E
100
AcDbEntity
  8
AM_VIS
100
AcDbLine
 10
133.7014393037988
 20
-184.5056074218627
 30
0.0
 11
133.7014393037988
 21
-182.4420990949664
 31
0.0
  0
LINE
  5
320B
330
1E
100
AcDbEntity
  8
AM_VIS
100
AcDbLine
 10
125.9263334546971
 20
-173.0000539223975
 30
0.0
 11
129.4765451529007
 21
-173.0000539223975
 31
0.0
  0
LINE
  5
320C
330
1E
100
AcDbEntity
  8
AM_VIS
100
AcDbLine
 10
125.2014393037988
 20
-174.2556074218627
 30
0.0
 11
125.9263334546971
 21
-173.0000539223975
 31
0.0
  0
LINE
  5
320D
330
1E
100
AcDbEntity
  8
AM_VIS
100
AcDbLine
 10
130.2014393037988
 20
-174.2556074218627
 30
0.0
 11
129.4765451529007
 21
-173.0000539223975
 31
0.0
  0
LINE
  5
320E
330
1E
100
AcDbEntity
  8
AM_VIS
100
AcDbLine
 10
125.2014393037988
 20
-131.0583232943181
 30
0.0
 11
125.0571017365014
 21
-131.3083232943181
 31
0.0
  0
LINE
  5
320F
330
1E
100
AcDbEntity
  8
AM_VIS
100
AcDbLine
 10
125.2014393037988
 20
-118.5583232943181
 30
0.0
 11
125.0571017365015
 21
-118.3083232943181
 31
0.0
  0
SPLINE
  5
3210
330
1E
100
AcDbEntity
  8
AM_VIS
100
AcDbSpline
210
0.0
220
0.0
230
1.0
 70
    12
 71
     2
 72
     6
 73
     3
 74
     0
 42
0.0000000001
 43
0.0000000001
 40
4.619277005814863
 40
4.619277005814863
 40
4.619277005814863
 40
14.54666500947176
 40
14.54666500947176
 40
14.54666500947176
 10
124.4765451529005
 20
-131.3083232943181
 30
0.0
 41
1.267354410568478
 10
125.5598784862339
 20
-128.0583232943181
 30
0.0
 41
1.463414820200741
 10
124.4765451529007
 20
-124.8083232943181
 30
0.0
 41
1.26735441056848
  0
SPLINE
  5
3211
330
1E
100
AcDbEntity
  8
AM_VIS
100
AcDbSpline
210
0.0
220
0.0
230
1.0
 70
    12
 71
     2
 72
     6
 73
     3
 74
     0
 42
0.0000000001
 43
0.0000000001
 40
4.619277005814921
 40
4.619277005814921
 40
4.619277005814921
 40
14.54666500947182
 40
14.54666500947182
 40
14.54666500947182
 10
120.9263334546971
 20
-124.808323294318
 30
0.0
 41
1.26735441056848
 10
119.8430001213637
 20
-128.058323294318
 30
-0.0000000000000018
 41
1.46341482020074
 10
120.926333454697
 20
-131.3083232943181
 30
0.0
 41
1.267354410568478
  0
LINE
  5
3212
330
1E
100
AcDbEntity
  8
AM_VIS
100
AcDbLine
 10
120.2014393037988
 20
-124.8083232943181
 30
0.0
 11
120.2014393037988
 21
-131.0583232943181
 31
0.0
  0
LINE
  5
3213
330
1E
100
AcDbEntity
  8
AM_VIS
100
AcDbLine
 10
115.2014393037988
 20
-127.708323294318
 30
0.0
 11
116.2014393037988
 21
-128.708323294318
 31
0.0
  0
LINE
  5
3214
330
1E
100
AcDbEntity
  8
AM_VIS
100
AcDbLine
 10
116.2014393037988
 20
-120.908323294318
 30
0.0
 11
116.2014393037988
 21
-128.708323294318
 31
0.0
  0
LINE
  5
3215
330
1E
100
AcDbEntity
  8
AM_VIS
100
AcDbLine
 10
120.2014393037988
 20
-128.708323294318
 30
0.0
 11
116.2014393037988
 21
-128.708323294318
 31
0.0
  0
LINE
  5
3216
330
1E
100
AcDbEntity
  8
AM_VIS
100
AcDbLine
 10
124.4765451529007
 20
-131.3083232943181
 30
0.0
 11
125.0571017365014
 21
-131.3083232943181
 31
0.0
  0
LINE
  5
3217
330
1E
100
AcDbEntity
  8
AM_VIS
100
AcDbLine
 10
120.3457768710963
 20
-131.3083232943181
 30
0.0
 11
120.9263334546971
 21
-131.3083232943181
 31
0.0
  0
LINE
  5
3218
330
1E
100
AcDbEntity
  8
AM_VIS
100
AcDbLine
 10
124.4765451529007
 20
-131.3083232943181
 30
0.0
 11
120.9263334546971
 21
-131.3083232943181
 31
0.0
  0
LINE
  5
3219
330
1E
100
AcDbEntity
  8
AM_VIS
100
AcDbLine
 10
120.2014393037988
 20
-131.0583232943181
 30
0.0
 11
120.3457768710963
 21
-131.3083232943181
 31
0.0
  0
LINE
  5
321A
330
1E
100
AcDbEntity
  8
AM_VIS
100
AcDbLine
 10
120.2014393037988
 20
-120.908323294318
 30
0.0
 11
116.2014393037988
 21
-120.908323294318
 31
0.0
  0
LINE
  5
321B
330
1E
100
AcDbEntity
  8
AM_VIS
100
AcDbLine
 10
115.2014393037988
 20
-121.908323294318
 30
0.0
 11
116.2014393037988
 21
-120.908323294318
 31
0.0
  0
LINE
  5
321C
330
1E
100
AcDbEntity
  8
AM_VIS
100
AcDbLine
 10
115.2014393037988
 20
-127.708323294318
 30
0.0
 11
115.2014393037988
 21
-121.908323294318
 31
0.0
  0
LINE
  5
321D
330
1E
100
AcDbEntity
  8
AM_VIS
100
AcDbLine
 10
124.4765451529007
 20
-118.3083232943181
 30
0.0
 11
125.0571017365015
 21
-118.3083232943181
 31
0.0
  0
SPLINE
  5
321E
330
1E
100
AcDbEntity
  8
AM_VIS
100
AcDbSpline
210
0.0
220
-0.0000000000000003
230
1.0
 70
    12
 71
     2
 72
     6
 73
     3
 74
     0
 42
0.0000000001
 43
0.0000000001
 40
4.619277005814876
 40
4.619277005814876
 40
4.619277005814876
 40
14.54666500947179
 40
14.54666500947179
 40
14.54666500947179
 10
124.4765451529006
 20
-124.808323294318
 30
0.0
 41
1.267354410568481
 10
125.5598784862339
 20
-121.5583232943179
 30
0.0
 41
1.463414820200745
 10
124.4765451529007
 20
-118.3083232943182
 30
0.0000000000000018
 41
1.267354410568482
  0
LINE
  5
321F
330
1E
100
AcDbEntity
  8
AM_VIS
100
AcDbLine
 10
124.4765451529007
 20
-118.3083232943181
 30
0.0
 11
120.9263334546971
 21
-118.3083232943181
 31
0.0
  0
SPLINE
  5
3220
330
1E
100
AcDbEntity
  8
AM_VIS
100
AcDbSpline
210
0.0
220
0.0
230
1.0
 70
    12
 71
     2
 72
     6
 73
     3
 74
     0
 42
0.0000000001
 43
0.0000000001
 40
4.619277005814916
 40
4.619277005814916
 40
4.619277005814916
 40
14.54666500947183
 40
14.54666500947183
 40
14.54666500947183
 10
120.9263334546971
 20
-118.3083232943181
 30
0.0
 41
1.267354410568483
 10
119.8430001213637
 20
-121.5583232943181
 30
0.0000000000000018
 41
1.463414820200745
 10
120.9263334546971
 20
-124.8083232943181
 30
0.0
 41
1.267354410568481
  0
LINE
  5
3221
330
1E
100
AcDbEntity
  8
AM_VIS
100
AcDbLine
 10
124.4765451529007
 20
-124.8083232943181
 30
0.0
 11
120.9263334546971
 21
-124.8083232943181
 31
0.0
  0
LINE
  5
3222
330
1E
100
AcDbEntity
  8
AM_VIS
100
AcDbLine
 10
120.3457768710963
 20
-118.3083232943181
 30
0.0
 11
120.9263334546971
 21
-118.3083232943181
 31
0.0
  0
LINE
  5
3223
330
1E
100
AcDbEntity
  8
AM_VIS
100
AcDbLine
 10
120.2014393037988
 20
-118.5583232943181
 30
0.0
 11
120.3457768710963
 21
-118.3083232943181
 31
0.0
  0
LINE
  5
3224
330
1E
100
AcDbEntity
  8
AM_VIS
100
AcDbLine
 10
120.2014393037988
 20
-118.5583232943181
 30
0.0
 11
120.2014393037988
 21
-124.8083232943181
 31
0.0
  0
SPLINE
  5
3225
330
1E
100
AcDbEntity
  8
AM_VIS
100
AcDbSpline
210
0.0
220
0.0000000000000003
230
1.0
 70
    12
 71
     2
 72
     6
 73
     3
 74
     0
 42
0.0000000001
 43
0.0000000001
 40
4.619277005814876
 40
4.619277005814876
 40
4.619277005814876
 40
14.54666500947179
 40
14.54666500947179
 40
14.54666500947179
 10
125.9263334546969
 20
-124.808323294318
 30
0.0
 41
1.267354410568481
 10
124.8430001213639
 20
-128.0583232943181
 30
0.0
 41
1.463414820200745
 10
125.9263334546971
 20
-131.3083232943182
 30
0.0000000000000018
 41
1.267354410568482
  0
SPLINE
  5
3226
330
1E
100
AcDbEntity
  8
AM_VIS
100
AcDbSpline
210
0.0
220
0.0
230
1.0
 70
    12
 71
     2
 72
     6
 73
     3
 74
     0
 42
0.0000000001
 43
0.0000000001
 40
4.619277005814916
 40
4.619277005814916
 40
4.619277005814916
 40
14.54666500947183
 40
14.54666500947183
 40
14.54666500947183
 10
129.4765451529007
 20
-131.3083232943181
 30
0.0
 41
1.267354410568483
 10
130.559878486234
 20
-128.058323294318
 30
0.0000000000000018
 41
1.463414820200745
 10
129.4765451529007
 20
-124.808323294318
 30
0.0
 41
1.267354410568481
  0
LINE
  5
3227
330
1E
100
AcDbEntity
  8
AM_VIS
100
AcDbLine
 10
125.2014393037988
 20
-124.8083232943181
 30
0.0
 11
125.2014393037988
 21
-131.0583232943181
 31
0.0
  0
LINE
  5
3228
330
1E
100
AcDbEntity
  8
AM_VIS
100
AcDbLine
 10
130.2014393037988
 20
-131.0583232943181
 30
0.0
 11
130.2014393037988
 21
-124.8083232943181
 31
0.0
  0
LINE
  5
3229
330
1E
100
AcDbEntity
  8
AM_VIS
100
AcDbLine
 10
125.2014393037988
 20
-131.0583232943181
 30
0.0
 11
125.2014393037988
 21
-124.8083232943181
 31
0.0
  0
LINE
  5
322A
330
1E
100
AcDbEntity
  8
AM_VIS
100
AcDbLine
 10
133.2014393037988
 20
-128.3083232943181
 30
0.0
 11
133.2014393037988
 21
-121.3083232943181
 31
0.0
  0
LINE
  5
322B
330
1E
100
AcDbEntity
  8
AM_VIS
100
AcDbLine
 10
132.0014393037988
 20
-128.708323294318
 30
0.0
 11
130.2014393037988
 21
-128.708323294318
 31
0.0
  0
LINE
  5
322C
330
1E
100
AcDbEntity
  8
AM_VIS
100
AcDbLine
 10
125.3457768710963
 20
-131.3083232943181
 30
0.0
 11
125.9263334546971
 21
-131.3083232943181
 31
0.0
  0
LINE
  5
322D
330
1E
100
AcDbEntity
  8
AM_VIS
100
AcDbLine
 10
125.9263334546971
 20
-131.3083232943181
 30
0.0
 11
129.4765451529007
 21
-131.3083232943181
 31
0.0
  0
LINE
  5
322E
330
1E
100
AcDbEntity
  8
AM_VIS
100
AcDbLine
 10
129.4765451529007
 20
-131.3083232943181
 30
0.0
 11
130.0571017365015
 21
-131.3083232943181
 31
0.0
  0
LINE
  5
322F
330
1E
100
AcDbEntity
  8
AM_VIS
100
AcDbLine
 10
125.2014393037988
 20
-131.0583232943181
 30
0.0
 11
125.3457768710963
 21
-131.3083232943181
 31
0.0
  0
LINE
  5
3230
330
1E
100
AcDbEntity
  8
AM_VIS
100
AcDbLine
 10
130.2014393037988
 20
-131.0583232943181
 30
0.0
 11
130.0571017365015
 21
-131.3083232943181
 31
0.0
  0
LINE
  5
3231
330
1E
100
AcDbEntity
  8
AM_VIS
100
AcDbLine
 10
133.2014393037989
 20
-128.3083232943181
 30
0.0
 11
132.0014393037988
 21
-128.708323294318
 31
0.0
  0
LINE
  5
3232
330
1E
100
AcDbEntity
  8
AM_VIS
100
AcDbLine
 10
132.0014393037988
 20
-120.908323294318
 30
0.0
 11
130.2014393037988
 21
-120.908323294318
 31
0.0
  0
SPLINE
  5
3233
330
1E
100
AcDbEntity
  8
AM_VIS
100
AcDbSpline
210
0.0
220
0.0
230
1.0
 70
    12
 71
     2
 72
     6
 73
     3
 74
     0
 42
0.0000000001
 43
0.0000000001
 40
4.619277005814863
 40
4.619277005814863
 40
4.619277005814863
 40
14.54666500947176
 40
14.54666500947176
 40
14.54666500947176
 10
125.9263334546971
 20
-118.308323294318
 30
0.0
 41
1.267354410568478
 10
124.8430001213638
 20
-121.558323294318
 30
0.0
 41
1.463414820200741
 10
125.9263334546971
 20
-124.808323294318
 30
0.0
 41
1.26735441056848
  0
LINE
  5
3234
330
1E
100
AcDbEntity
  8
AM_VIS
100
AcDbLine
 10
125.3457768710963
 20
-118.308323294318
 30
0.0
 11
125.9263334546971
 21
-118.308323294318
 31
0.0
  0
LINE
  5
3235
330
1E
100
AcDbEntity
  8
AM_VIS
100
AcDbLine
 10
125.9263334546971
 20
-124.808323294318
 30
0.0
 11
129.4765451529007
 21
-124.808323294318
 31
0.0
  0
LINE
  5
3236
330
1E
100
AcDbEntity
  8
AM_VIS
100
AcDbLine
 10
129.4765451529007
 20
-118.308323294318
 30
0.0
 11
130.0571017365014
 21
-118.308323294318
 31
0.0
  0
SPLINE
  5
3237
330
1E
100
AcDbEntity
  8
AM_VIS
100
AcDbSpline
210
0.0
220
0.0
230
1.0
 70
    12
 71
     2
 72
     6
 73
     3
 74
     0
 42
0.0000000001
 43
0.0000000001
 40
4.619277005814921
 40
4.619277005814921
 40
4.619277005814921
 40
14.54666500947182
 40
14.54666500947182
 40
14.54666500947182
 10
129.4765451529007
 20
-124.808323294318
 30
0.0
 41
1.26735441056848
 10
130.559878486234
 20
-121.558323294318
 30
-0.0000000000000018
 41
1.46341482020074
 10
129.4765451529007
 20
-118.308323294318
 30
0.0
 41
1.267354410568478
  0
LINE
  5
3238
330
1E
100
AcDbEntity
  8
AM_VIS
100
AcDbLine
 10
125.9263334546971
 20
-118.308323294318
 30
0.0
 11
129.4765451529007
 21
-118.308323294318
 31
0.0
  0
LINE
  5
3239
330
1E
100
AcDbEntity
  8
AM_VIS
100
AcDbLine
 10
125.2014393037988
 20
-118.5583232943181
 30
0.0
 11
125.3457768710963
 21
-118.3083232943179
 31
0.0
  0
LINE
  5
323A
330
1E
100
AcDbEntity
  8
AM_VIS
100
AcDbLine
 10
130.2014393037988
 20
-118.5583232943181
 30
0.0
 11
130.0571017365014
 21
-118.308323294318
 31
0.0
  0
LINE
  5
323B
330
1E
100
AcDbEntity
  8
AM_VIS
100
AcDbLine
 10
125.2014393037988
 20
-118.5583232943181
 30
0.0
 11
125.2014393037988
 21
-124.8083232943181
 31
0.0
  0
LINE
  5
323C
330
1E
100
AcDbEntity
  8
AM_VIS
100
AcDbLine
 10
130.2014393037988
 20
-124.8083232943181
 30
0.0
 11
130.2014393037988
 21
-118.5583232943181
 31
0.0
  0
LINE
  5
323D
330
1E
100
AcDbEntity
  8
AM_VIS
100
AcDbLine
 10
125.2014393037988
 20
-124.8083232943181
 30
0.0
 11
125.2014393037988
 21
-118.5583232943181
 31
0.0
  0
LINE
  5
323E
330
1E
100
AcDbEntity
  8
AM_VIS
100
AcDbLine
 10
132.0014393037988
 20
-120.908323294318
 30
0.0
 11
133.2014393037988
 21
-121.3083232943181
 31
0.0
  0
LINE
  5
323F
330
1E
100
AcDbEntity
  8
AM_VIS
100
AcDbLine
 10
205.144814976773
 20
-117.59722074339
 30
0.0
 11
205.144814976773
 21
-112.808323294318
 31
0.0
  0
LINE
  5
3240
330
1E
100
AcDbEntity
  8
AM_VIS
100
AcDbLine
 10
203.7014393037989
 20
-113.308323294318
 30
0.0
 11
203.7014393037989
 21
-124.808323294318
 31
0.0
  0
LINE
  5
3241
330
1E
100
AcDbEntity
  8
AM_VIS
100
AcDbLine
 10
201.2014393037989
 20
-135.708323294318
 30
0.0
 11
201.2014393037989
 21
-113.908323294318
 31
0.0
  0
LINE
  5
3242
330
1E
100
AcDbEntity
  8
AM_VIS
100
AcDbLine
 10
217.2580636308248
 20
-112.808323294318
 30
0.0
 11
217.2580636308248
 21
-117.59722074339
 31
0.0
  0
LINE
  5
3243
330
1E
100
AcDbEntity
  8
AM_VIS
100
AcDbLine
 10
218.7014393037989
 20
-124.808323294318
 30
0.0
 11
218.7014393037989
 21
-113.308323294318
 31
0.0
  0
LINE
  5
3244
330
1E
100
AcDbEntity
  8
AM_VIS
100
AcDbLine
 10
171.7014393037989
 20
-111.308323294318
 30
0.0
 11
171.7014393037989
 21
-138.308323294318
 31
0.0
  0
LINE
  5
3245
330
1E
100
AcDbEntity
  8
AM_VIS
100
AcDbLine
 10
142.7014393037988
 20
-111.308323294318
 30
0.0
 11
142.7014393037988
 21
-138.308323294318
 31
0.0
  0
LINE
  5
3246
330
1E
100
AcDbEntity
  8
AM_VIS
100
AcDbLine
 10
139.7014393037988
 20
-134.3083232943181
 30
0.0
 11
139.7014393037988
 21
-115.3083232943181
 31
0.0
  0
LINE
  5
3248
330
1E
100
AcDbEntity
  8
AM_VIS
100
AcDbLine
 10
174.2014393037989
 20
-135.708323294318
 30
0.0
 11
174.2014393037989
 21
-113.908323294318
 31
0.0
  0
LINE
  5
324B
330
1E
100
AcDbEntity
  8
AM_VIS
100
AcDbLine
 10
201.1014393037989
 20
-191.1056074218626
 30
0.0
 11
174.3014393037988
 21
-191.1056074218626
 31
0.0
  0
LINE
  5
324C
330
1E
100
AcDbEntity
  8
AM_VIS
100
AcDbLine
 10
201.1014393037989
 20
-169.9056074218627
 30
0.0
 11
174.3014393037988
 21
-169.9056074218627
 31
0.0
  0
LINE
  5
324D
330
1E
100
AcDbEntity
  8
AM_VIS
100
AcDbLine
 10
201.1014393037989
 20
-135.408323294318
 30
0.0
 11
174.3014393037988
 21
-135.408323294318
 31
0.0
  0
LINE
  5
3250
330
1E
100
AcDbEntity
  8
AM_VIS
100
AcDbLine
 10
142.7014393037988
 20
-195.5056074218627
 30
0.0
 11
171.7014393037989
 21
-195.5056074218627
 31
0.0
  0
LINE
  5
3251
330
1E
100
AcDbEntity
  8
AM_VIS
100
AcDbLine
 10
171.7014393037989
 20
-194.0056074218627
 30
0.0
 11
142.7014393037988
 21
-194.0056074218627
 31
0.0
  0
LINE
  5
3252
330
1E
100
AcDbEntity
  8
AM_VIS
100
AcDbLine
 10
142.7014393037988
 20
-167.0056074218627
 30
0.0
 11
171.7014393037989
 21
-167.0056074218627
 31
0.0
  0
LINE
  5
3253
330
1E
100
AcDbEntity
  8
AM_VIS
100
AcDbLine
 10
171.7014393037989
 20
-165.5056074218627
 30
0.0
 11
142.7014393037988
 21
-165.5056074218627
 31
0.0
  0
LINE
  5
3254
330
1E
100
AcDbEntity
  8
AM_VIS
100
AcDbLine
 10
142.7014393037988
 20
-167.0056074218627
 30
0.0
 11
142.7014393037988
 21
-194.0056074218627
 31
0.0
  0
LINE
  5
3255
330
1E
100
AcDbEntity
  8
AM_VIS
100
AcDbLine
 10
139.7014393037988
 20
-190.0056074218627
 30
0.0
 11
139.7014393037988
 21
-180.5056074218627
 31
0.0
  0
LINE
  5
325F
330
1E
100
AcDbEntity
  8
AM_VIS
100
AcDbLine
 10
142.7014393037988
 20
-194.0056074218627
 30
0.0
 11
142.7014393037988
 21
-195.5056074218627
 31
0.0
  0
LINE
  5
3260
330
1E
100
AcDbEntity
  8
AM_VIS
100
AcDbLine
 10
139.7014393037988
 20
-190.0056074218627
 30
0.0
 11
140.2014393037988
 21
-190.5056074218627
 31
0.0
  0
LINE
  5
3261
330
1E
100
AcDbEntity
  8
AM_VIS
100
AcDbLine
 10
142.7014393037988
 20
-190.5056074218627
 30
0.0
 11
140.2014393037988
 21
-190.5056074218627
 31
0.0
  0
LINE
  5
326D
330
1E
100
AcDbEntity
  8
AM_VIS
100
AcDbLine
 10
139.7014393037988
 20
-180.5056074218627
 30
0.0
 11
139.7014393037988
 21
-171.0056074218627
 31
0.0
  0
ELLIPSE
  5
326F
330
1E
100
AcDbEntity
  8
AM_VIS
100
AcDbEllipse
 10
128.2014393037988
 20
-180.5056074218627
 30
0.0
 11
11.99999999999978
 21
0.0000000000004137
 31
0.0
210
0.0
220
0.0
230
1.0
 40
0.3333333333333054
 41
0.2896869939970483
 42
0.5053605102841186
  0
ELLIPSE
  5
3270
330
1E
100
AcDbEntity
  8
AM_VIS
100
AcDbEllipse
 10
128.2014393037988
 20
-180.5056074218627
 30
0.0
 11
-11.99999999999995
 21
0.0000000000001499
 31
0.0
210
0.0
220
0.0
230
1.0
 40
0.3333333333333198
 41
2.636232143305656
 42
2.851905659592706
  0
LINE
  5
3271
330
1E
100
AcDbEntity
  8
AM_VIS
100
AcDbLine
 10
138.7014393037988
 20
-178.5691157487589
 30
0.0
 11
138.7014393037988
 21
-182.4420990949663
 31
0.0
  0
LINE
  5
3275
330
1E
100
AcDbEntity
  8
AM_VIS
100
AcDbLine
 10
142.7014393037988
 20
-165.5056074218627
 30
0.0
 11
142.7014393037988
 21
-167.0056074218627
 31
0.0
  0
LINE
  5
3276
330
1E
100
AcDbEntity
  8
AM_VIS
100
AcDbLine
 10
139.7014393037988
 20
-171.0056074218627
 30
0.0
 11
140.2014393037988
 21
-170.5056074218627
 31
0.0
  0
LINE
  5
3277
330
1E
100
AcDbEntity
  8
AM_VIS
100
AcDbLine
 10
142.7014393037988
 20
-170.5056074218627
 30
0.0
 11
140.2014393037988
 21
-170.5056074218627
 31
0.0
  0
LINE
  5
3280
330
1E
100
AcDbEntity
  8
AM_VIS
100
AcDbLine
 10
171.7014393037989
 20
-167.0056074218627
 30
0.0
 11
171.7014393037989
 21
-194.0056074218627
 31
0.0
  0
LINE
  5
3281
330
1E
100
AcDbEntity
  8
AM_VIS
100
AcDbLine
 10
174.2014393037989
 20
-191.4056074218627
 30
0.0
 11
174.2014393037989
 21
-180.5056074218627
 31
0.0
  0
LINE
  5
3283
330
1E
100
AcDbEntity
  8
AM_VIS
100
AcDbLine
 10
174.2014393037989
 20
-191.4056074218627
 30
0.0
 11
171.7014393037989
 21
-191.4056074218627
 31
0.0
  0
LINE
  5
3284
330
1E
100
AcDbEntity
  8
AM_VIS
100
AcDbLine
 10
171.7014393037989
 20
-195.5056074218627
 30
0.0
 11
171.7014393037989
 21
-194.0056074218627
 31
0.0
  0
LINE
  5
3285
330
1E
100
AcDbEntity
  8
AM_VIS
100
AcDbLine
 10
174.2014393037989
 20
-191.0056074218627
 30
0.0
 11
174.3014393037988
 21
-191.1056074218626
 31
0.0
  0
LINE
  5
3286
330
1E
100
AcDbEntity
  8
AM_VIS
100
AcDbLine
 10
174.2014393037989
 20
-169.6056074218626
 30
0.0
 11
171.7014393037989
 21
-169.6056074218626
 31
0.0
  0
LINE
  5
328B
330
1E
100
AcDbEntity
  8
AM_VIS
100
AcDbLine
 10
171.7014393037989
 20
-167.0056074218627
 30
0.0
 11
171.7014393037989
 21
-165.5056074218627
 31
0.0
  0
LINE
  5
328C
330
1E
100
AcDbEntity
  8
AM_VIS
100
AcDbLine
 10
174.2014393037989
 20
-180.5056074218627
 30
0.0
 11
174.2014393037989
 21
-169.6056074218626
 31
0.0
  0
LINE
  5
328D
330
1E
100
AcDbEntity
  8
AM_VIS
100
AcDbLine
 10
174.2014393037989
 20
-170.0056074218627
 30
0.0
 11
174.3014393037988
 21
-169.9056074218627
 31
0.0
  0
LINE
  5
328E
330
1E
100
AcDbEntity
  8
AM_7
100
AcDbLine
 10
158.1014393037989
 20
-124.808323294318
 30
0.0
 11
162.9014393037988
 21
-124.808323294318
 31
0.0
  0
LINE
  5
3290
330
1E
100
AcDbEntity
  8
AM_VIS
100
AcDbLine
 10
142.7014393037988
 20
-139.8083232943181
 30
0.0
 11
171.7014393037989
 21
-139.8083232943181
 31
0.0
  0
LINE
  5
3291
330
1E
100
AcDbEntity
  8
AM_VIS
100
AcDbLine
 10
171.7014393037989
 20
-138.3083232943181
 30
0.0
 11
142.7014393037988
 21
-138.3083232943181
 31
0.0
  0
LINE
  5
3294
330
1E
100
AcDbEntity
  8
AM_VIS
100
AcDbLine
 10
142.7014393037988
 20
-138.3083232943181
 30
0.0
 11
142.7014393037988
 21
-139.8083232943181
 31
0.0
  0
LINE
  5
329D
330
1E
100
AcDbEntity
  8
AM_VIS
100
AcDbLine
 10
139.7014393037988
 20
-134.3083232943181
 30
0.0
 11
140.2014393037988
 21
-134.8083232943181
 31
0.0
  0
LINE
  5
329E
330
1E
100
AcDbEntity
  8
AM_VIS
100
AcDbLine
 10
142.7014393037988
 20
-134.8083232943181
 30
0.0
 11
140.2014393037988
 21
-134.8083232943181
 31
0.0
  0
LINE
  5
329F
330
1E
100
AcDbEntity
  8
AM_VIS
100
AcDbLine
 10
139.7014393037988
 20
-128.6416566276514
 30
0.0
 11
138.7014393037988
 21
-128.3083232943181
 31
0.0
  0
LINE
  5
32A0
330
1E
100
AcDbEntity
  8
AM_VIS
100
AcDbLine
 10
138.7014393037988
 20
-121.3083232943181
 30
0.0
 11
139.7014393037988
 21
-120.9749899609847
 31
0.0
  0
LINE
  5
32A7
330
1E
100
AcDbEntity
  8
AM_VIS
100
AcDbLine
 10
171.7014393037989
 20
-139.8083232943181
 30
0.0
 11
171.7014393037989
 21
-138.3083232943181
 31
0.0
  0
LINE
  5
32A8
330
1E
100
AcDbEntity
  8
AM_VIS
100
AcDbLine
 10
174.2014393037989
 20
-135.708323294318
 30
0.0
 11
171.7014393037989
 21
-135.708323294318
 31
0.0
  0
LINE
  5
32A9
330
1E
100
AcDbEntity
  8
AM_7
100
AcDbLine
 10
164.7014393037989
 20
-131.408323294318
 30
0.0
 11
164.7014393037989
 21
-126.608323294318
 31
0.0
  0
LINE
  5
32AA
330
1E
100
AcDbEntity
  8
AM_7
100
AcDbLine
 10
166.5014393037988
 20
-124.808323294318
 30
0.0
 11
171.3014393037988
 21
-124.808323294318
 31
0.0
  0
LINE
  5
32AB
330
1E
100
AcDbEntity
  8
AM_7
100
AcDbLine
 10
163.7014393037989
 20
-124.808323294318
 30
0.0
 11
165.7014393037989
 21
-124.808323294318
 31
0.0
  0
LINE
  5
32AC
330
1E
100
AcDbEntity
  8
AM_7
100
AcDbLine
 10
164.7014393037989
 20
-125.808323294318
 30
0.0
 11
164.7014393037989
 21
-123.808323294318
 31
0.0
  0
LINE
  5
32AD
330
1E
100
AcDbEntity
  8
AM_7
100
AcDbLine
 10
164.7014393037989
 20
-123.008323294318
 30
0.0
 11
164.7014393037989
 21
-118.208323294318
 31
0.0
  0
LINE
  5
32AF
330
1E
100
AcDbEntity
  8
AM_VIS
100
AcDbLine
 10
174.2014393037989
 20
-135.3083232943181
 30
0.0
 11
174.3014393037988
 21
-135.408323294318
 31
0.0
  0
LINE
  5
32B1
330
1E
100
AcDbEntity
  8
AM_VIS
100
AcDbLine
 10
217.2580636308248
 20
-168.5056074218627
 30
0.0
 11
205.144814976773
 21
-168.5056074218627
 31
0.0
  0
LINE
  5
32B2
330
1E
100
AcDbEntity
  8
AM_VIS
100
AcDbLine
 10
205.144814976773
 20
-192.5056074218627
 30
0.0
 11
217.2580636308248
 21
-192.5056074218627
 31
0.0
  0
LINE
  5
32B3
330
1E
100
AcDbEntity
  8
AM_VIS
100
AcDbLine
 10
217.2580636308248
 20
-187.7167099727907
 30
0.0
 11
205.144814976773
 21
-187.7167099727907
 31
0.0
  0
LINE
  5
32B4
330
1E
100
AcDbEntity
  8
AM_VIS
100
AcDbLine
 10
205.144814976773
 20
-173.2945048709347
 30
0.0
 11
217.2580636308248
 21
-173.2945048709347
 31
0.0
  0
SPLINE
  5
32B5
330
1E
100
AcDbEntity
  8
AM_VIS
100
AcDbSpline
210
0.0
220
0.0
230
1.0
 70
    12
 71
     2
 72
     6
 73
     3
 74
     0
 42
0.0000000001
 43
0.0000000001
 40
0.0
 40
0.0
 40
0.0
 40
14.60593486680443
 40
14.60593486680443
 40
14.60593486680443
 10
205.144814976773
 20
-173.2945048709347
 30
0.0
 41
1.0
 10
203.0003711197829
 20
-180.5056074218627
 30
0.0
 41
1.166666666666667
 10
205.144814976773
 20
-187.7167099727907
 30
0.0
 41
1.0
  0
LINE
  5
32B6
330
1E
100
AcDbEntity
  8
AM_VIS
100
AcDbLine
 10
203.7014393037989
 20
-169.0056074218627
 30
0.0
 11
203.7014393037989
 21
-192.0056074218627
 31
0.0
  0
LINE
  5
32B7
330
1E
100
AcDbEntity
  8
AM_VIS
100
AcDbLine
 10
201.2014393037989
 20
-191.4056074218627
 30
0.0
 11
201.2014393037989
 21
-169.6056074218626
 31
0.0
  0
LINE
  5
32B9
330
1E
100
AcDbEntity
  8
AM_VIS
100
AcDbLine
 10
203.7014393037989
 20
-191.4056074218627
 30
0.0
 11
201.2014393037989
 21
-191.4056074218627
 31
0.0
  0
LINE
  5
32BA
330
1E
100
AcDbEntity
  8
AM_VIS
100
AcDbLine
 10
201.2014393037989
 20
-191.0056074218627
 30
0.0
 11
201.1014393037989
 21
-191.1056074218626
 31
0.0
  0
LINE
  5
32BB
330
1E
100
AcDbEntity
  8
AM_VIS
100
AcDbLine
 10
203.9901144383937
 20
-192.5056074218627
 30
0.0
 11
205.144814976773
 21
-192.5056074218627
 31
0.0
  0
LINE
  5
32BC
330
1E
100
AcDbEntity
  8
AM_VIS
100
AcDbLine
 10
203.7014393037989
 20
-192.0056074218627
 30
0.0
 11
203.9901144383937
 21
-192.5056074218627
 31
0.0
  0
LINE
  5
32BD
330
1E
100
AcDbEntity
  8
AM_VIS
100
AcDbLine
 10
205.144814976773
 20
-192.5056074218627
 30
0.0
 11
205.144814976773
 21
-187.7167099727907
 31
0.0
  0
LINE
  5
32C0
330
1E
100
AcDbEntity
  8
AM_VIS
100
AcDbLine
 10
203.7014393037989
 20
-169.6056074218626
 30
0.0
 11
201.2014393037989
 21
-169.6056074218626
 31
0.0
  0
LINE
  5
32C1
330
1E
100
AcDbEntity
  8
AM_VIS
100
AcDbLine
 10
201.2014393037989
 20
-170.0056074218627
 30
0.0
 11
201.1014393037989
 21
-169.9056074218627
 31
0.0
  0
LINE
  5
32C3
330
1E
100
AcDbEntity
  8
AM_VIS
100
AcDbLine
 10
203.9901144383937
 20
-168.5056074218627
 30
0.0
 11
205.144814976773
 21
-168.5056074218627
 31
0.0
  0
LINE
  5
32C4
330
1E
100
AcDbEntity
  8
AM_VIS
100
AcDbLine
 10
203.7014393037989
 20
-169.0056074218627
 30
0.0
 11
203.9901144383937
 21
-168.5056074218627
 31
0.0
  0
LINE
  5
32C5
330
1E
100
AcDbEntity
  8
AM_VIS
100
AcDbLine
 10
205.144814976773
 20
-173.2945048709347
 30
0.0
 11
205.144814976773
 21
-168.5056074218627
 31
0.0
  0
SPLINE
  5
32C6
330
1E
100
AcDbEntity
  8
AM_VIS
100
AcDbSpline
210
0.0
220
0.0
230
1.0
 70
    12
 71
     2
 72
     6
 73
     3
 74
     0
 42
0.0000000001
 43
0.0000000001
 40
0.0
 40
0.0
 40
0.0
 40
14.60593486680443
 40
14.60593486680443
 40
14.60593486680443
 10
217.2580636308248
 20
-187.7167099727907
 30
0.0
 41
1.0
 10
219.4025074878148
 20
-180.5056074218627
 30
0.0
 41
1.166666666666668
 10
217.2580636308248
 20
-173.2945048709347
 30
0.0
 41
1.0
  0
LINE
  5
32C7
330
1E
100
AcDbEntity
  8
AM_VIS
100
AcDbLine
 10
218.7014393037989
 20
-192.0056074218627
 30
0.0
 11
218.7014393037989
 21
-169.0056074218627
 31
0.0
  0
LINE
  5
32C8
330
1E
100
AcDbEntity
  8
AM_VIS
100
AcDbLine
 10
217.2580636308248
 20
-192.5056074218627
 30
0.0
 11
218.412764169204
 21
-192.5056074218627
 31
0.0
  0
LINE
  5
32C9
330
1E
100
AcDbEntity
  8
AM_VIS
100
AcDbLine
 10
218.7014393037989
 20
-192.0056074218627
 30
0.0
 11
218.412764169204
 21
-192.5056074218627
 31
0.0
  0
LINE
  5
32CA
330
1E
100
AcDbEntity
  8
AM_VIS
100
AcDbLine
 10
217.2580636308248
 20
-187.7167099727907
 30
0.0
 11
217.2580636308248
 21
-192.5056074218627
 31
0.0
  0
LINE
  5
32CD
330
1E
100
AcDbEntity
  8
AM_7
100
AcDbLine
 10
210.7014393037989
 20
-167.7387883385536
 30
0.0
 11
210.7014393037989
 21
-177.6462948977481
 31
0.0
  0
LINE
  5
32CF
330
1E
100
AcDbEntity
  8
AM_VIS
100
AcDbLine
 10
217.2580636308248
 20
-168.5056074218627
 30
0.0
 11
218.412764169204
 21
-168.5056074218627
 31
0.0
  0
LINE
  5
32D0
330
1E
100
AcDbEntity
  8
AM_VIS
100
AcDbLine
 10
218.7014393037989
 20
-169.0056074218627
 30
0.0
 11
218.412764169204
 21
-168.5056074218627
 31
0.0
  0
LINE
  5
32D1
330
1E
100
AcDbEntity
  8
AM_VIS
100
AcDbLine
 10
217.2580636308248
 20
-168.5056074218627
 30
0.0
 11
217.2580636308248
 21
-173.2945048709347
 31
0.0
  0
LINE
  5
32D3
330
1E
100
AcDbEntity
  8
AM_VIS
100
AcDbLine
 10
217.2580636308248
 20
-132.019425845246
 30
0.0
 11
205.144814976773
 21
-132.019425845246
 31
0.0
  0
LINE
  5
32D4
330
1E
100
AcDbEntity
  8
AM_VIS
100
AcDbLine
 10
205.144814976773
 20
-117.59722074339
 30
0.0
 11
217.2580636308248
 21
-117.59722074339
 31
0.0
  0
LINE
  5
32D5
330
1E
100
AcDbEntity
  8
AM_VIS
100
AcDbLine
 10
205.144814976773
 20
-136.808323294318
 30
0.0
 11
217.2580636308248
 21
-136.808323294318
 31
0.0
  0
SPLINE
  5
32D8
330
1E
100
AcDbEntity
  8
AM_VIS
100
AcDbSpline
210
0.0
220
0.0
230
1.0
 70
    12
 71
     2
 72
     6
 73
     3
 74
     0
 42
0.0000000001
 43
0.0000000001
 40
0.0
 40
0.0
 40
0.0
 40
14.60593486680442
 40
14.60593486680442
 40
14.60593486680442
 10
205.144814976773
 20
-117.5972207433901
 30
0.0
 41
1.0
 10
203.0003711197828
 20
-124.808323294318
 30
0.0
 41
1.166666666666666
 10
205.144814976773
 20
-132.019425845246
 30
0.0
 41
1.0
  0
LINE
  5
32D9
330
1E
100
AcDbEntity
  8
AM_VIS
100
AcDbLine
 10
203.7014393037989
 20
-124.808323294318
 30
0.0
 11
203.7014393037989
 21
-136.308323294318
 31
0.0
  0
LINE
  5
32DA
330
1E
100
AcDbEntity
  8
AM_VIS
100
AcDbLine
 10
203.7014393037989
 20
-135.708323294318
 30
0.0
 11
201.2014393037989
 21
-135.708323294318
 31
0.0
  0
LINE
  5
32DB
330
1E
100
AcDbEntity
  8
AM_VIS
100
AcDbLine
 10
201.2014393037989
 20
-135.308323294318
 30
0.0
 11
201.1014393037989
 21
-135.408323294318
 31
0.0
  0
LINE
  5
32DC
330
1E
100
AcDbEntity
  8
AM_VIS
100
AcDbLine
 10
203.9901144383937
 20
-136.808323294318
 30
0.0
 11
205.144814976773
 21
-136.808323294318
 31
0.0
  0
LINE
  5
32DD
330
1E
100
AcDbEntity
  8
AM_VIS
100
AcDbLine
 10
203.7014393037989
 20
-136.308323294318
 30
0.0
 11
203.9901144383937
 21
-136.808323294318
 31
0.0
  0
LINE
  5
32DE
330
1E
100
AcDbEntity
  8
AM_VIS
100
AcDbLine
 10
205.144814976773
 20
-136.808323294318
 30
0.0
 11
205.144814976773
 21
-132.019425845246
 31
0.0
  0
LINE
  5
32DF
330
1E
100
AcDbEntity
  8
AM_7
100
AcDbLine
 10
205.1014393037989
 20
-124.8083232943178
 30
0.0
 11
208.9014393037988
 21
-124.8083232943178
 31
0.0
  0
LINE
  5
32E0
330
1E
100
AcDbEntity
  8
AM_7
100
AcDbLine
 10
210.7014393037989
 20
-130.4083232943179
 30
0.0
 11
210.7014393037989
 21
-126.6083232943179
 31
0.0
  0
SPLINE
  5
32E1
330
1E
100
AcDbEntity
  8
AM_VIS
100
AcDbSpline
210
0.0
220
0.0
230
1.0
 70
    12
 71
     2
 72
     6
 73
     3
 74
     0
 42
0.0000000001
 43
0.0000000001
 40
0.0
 40
0.0
 40
0.0
 40
14.60593486680443
 40
14.60593486680443
 40
14.60593486680443
 10
217.2580636308248
 20
-132.019425845246
 30
0.0
 41
1.0
 10
219.4025074878148
 20
-124.808323294318
 30
0.0
 41
1.166666666666668
 10
217.2580636308248
 20
-117.59722074339
 30
0.0
 41
1.0
  0
LINE
  5
32E2
330
1E
100
AcDbEntity
  8
AM_VIS
100
AcDbLine
 10
218.7014393037989
 20
-136.308323294318
 30
0.0
 11
218.7014393037989
 21
-124.808323294318
 31
0.0
  0
LINE
  5
32E3
330
1E
100
AcDbEntity
  8
AM_VIS
100
AcDbLine
 10
217.2580636308248
 20
-136.808323294318
 30
0.0
 11
218.412764169204
 21
-136.808323294318
 31
0.0
  0
LINE
  5
32E4
330
1E
100
AcDbEntity
  8
AM_VIS
100
AcDbLine
 10
218.7014393037989
 20
-136.308323294318
 30
0.0
 11
218.412764169204
 21
-136.808323294318
 31
0.0
  0
LINE
  5
32E5
330
1E
100
AcDbEntity
  8
AM_VIS
100
AcDbLine
 10
217.2580636308248
 20
-132.019425845246
 30
0.0
 11
217.2580636308248
 21
-136.808323294318
 31
0.0
  0
LINE
  5
32E6
330
1E
100
AcDbEntity
  8
AM_7
100
AcDbLine
 10
212.5014393037989
 20
-124.8083232943178
 30
0.0
 11
216.3014393037988
 21
-124.8083232943178
 31
0.0
  0
LINE
  5
32E7
330
1E
100
AcDbEntity
  8
AM_7
100
AcDbLine
 10
209.7014393037989
 20
-124.8083232943178
 30
0.0
 11
211.7014393037989
 21
-124.8083232943178
 31
0.0
  0
LINE
  5
32E8
330
1E
100
AcDbEntity
  8
AM_7
100
AcDbLine
 10
210.7014393037989
 20
-125.8083232943178
 30
0.0
 11
210.7014393037989
 21
-123.8083232943178
 31
0.0
  0
LINE
  5
32E9
330
1E
100
AcDbEntity
  8
AM_7
100
AcDbLine
 10
210.7014393037989
 20
-123.0083232943179
 30
0.0
 11
210.7014393037989
 21
-119.2083232943179
 31
0.0
  0
LINE
  5
32EB
330
1E
100
AcDbEntity
  8
AM_VIS
100
AcDbLine
 10
201.1014393037989
 20
-114.208323294318
 30
0.0
 11
174.3014393037988
 21
-114.208323294318
 31
0.0
  0
LINE
  5
32EC
330
1E
100
AcDbEntity
  8
AM_VIS
100
AcDbLine
 10
171.7014393037989
 20
-109.808323294318
 30
0.0
 11
142.7014393037988
 21
-109.808323294318
 31
0.0
  0
LINE
  5
32ED
330
1E
100
AcDbEntity
  8
AM_VIS
100
AcDbLine
 10
142.7014393037988
 20
-111.308323294318
 30
0.0
 11
171.7014393037989
 21
-111.308323294318
 31
0.0
  0
LINE
  5
32F6
330
1E
100
AcDbEntity
  8
AM_VIS
100
AcDbLine
 10
142.7014393037988
 20
-109.808323294318
 30
0.0
 11
142.7014393037988
 21
-111.308323294318
 31
0.0
  0
LINE
  5
32F7
330
1E
100
AcDbEntity
  8
AM_VIS
100
AcDbLine
 10
139.7014393037989
 20
-115.3083232943181
 30
0.0
 11
140.2014393037989
 21
-114.8083232943181
 31
0.0
  0
LINE
  5
32F8
330
1E
100
AcDbEntity
  8
AM_VIS
100
AcDbLine
 10
142.7014393037989
 20
-114.8083232943181
 30
0.0
 11
140.2014393037989
 21
-114.8083232943181
 31
0.0
  0
LINE
  5
32FF
330
1E
100
AcDbEntity
  8
AM_VIS
100
AcDbLine
 10
174.2014393037989
 20
-113.908323294318
 30
0.0
 11
171.7014393037989
 21
-113.908323294318
 31
0.0
  0
LINE
  5
3300
330
1E
100
AcDbEntity
  8
AM_VIS
100
AcDbLine
 10
171.7014393037989
 20
-111.308323294318
 30
0.0
 11
171.7014393037989
 21
-109.808323294318
 31
0.0
  0
LINE
  5
3301
330
1E
100
AcDbEntity
  8
AM_VIS
100
AcDbLine
 10
174.2014393037989
 20
-114.308323294318
 30
0.0
 11
174.3014393037988
 21
-114.208323294318
 31
0.0
  0
LINE
  5
3302
330
1E
100
AcDbEntity
  8
AM_VIS
100
AcDbLine
 10
217.2580636308248
 20
-112.808323294318
 30
0.0
 11
205.1448149767729
 21
-112.808323294318
 31
0.0
  0
LINE
  5
3303
330
1E
100
AcDbEntity
  8
AM_VIS
100
AcDbLine
 10
203.7014393037989
 20
-113.908323294318
 30
0.0
 11
201.2014393037989
 21
-113.908323294318
 31
0.0
  0
LINE
  5
3304
330
1E
100
AcDbEntity
  8
AM_VIS
100
AcDbLine
 10
201.2014393037989
 20
-114.308323294318
 30
0.0
 11
201.1014393037989
 21
-114.208323294318
 31
0.0
  0
LINE
  5
3305
330
1E
100
AcDbEntity
  8
AM_VIS
100
AcDbLine
 10
203.9901144383937
 20
-112.808323294318
 30
0.0
 11
205.144814976773
 21
-112.808323294318
 31
0.0
  0
LINE
  5
3306
330
1E
100
AcDbEntity
  8
AM_VIS
100
AcDbLine
 10
203.7014393037989
 20
-113.308323294318
 30
0.0
 11
203.9901144383937
 21
-112.808323294318
 31
0.0
  0
LINE
  5
3307
330
1E
100
AcDbEntity
  8
AM_VIS
100
AcDbLine
 10
217.2580636308248
 20
-112.808323294318
 30
0.0
 11
218.412764169204
 21
-112.808323294318
 31
0.0
  0
LINE
  5
3308
330
1E
100
AcDbEntity
  8
AM_VIS
100
AcDbLine
 10
218.7014393037989
 20
-113.308323294318
 30
0.0
 11
218.412764169204
 21
-112.808323294318
 31
0.0
  0
DIMENSION
  5
3309
330
1E
100
AcDbEntity
  8
AM_5
100
AcDbDimension
  2
*D30
 10
171.7014393037989
 20
-147.7413097998171
 30
0.0
 11
157.2014393037988
 21
-145.4410145242265
 31
0.0
 70
    32
 71
     5
 42
29.00000000000011
  3
AM_ISO
100
AcDbAlignedDimension
 13
142.7014393037988
 23
-139.8083232943181
 33
0.0
 14
171.7014393037989
 24
-139.8083232943181
 34
0.0
100
AcDbRotatedDimension
  0
DIMENSION
  5
330A
330
1E
100
AcDbEntity
  8
AM_5
100
AcDbDimension
  2
*D31
 10
210.7014393037989
 20
-107.9056284580175
 30
0.0
 11
214.7014393037989
 21
-105.6056284580175
 31
0.0
 70
    32
 71
     5
 42
8.0
  3
AM_ISO
100
AcDbAlignedDimension
 13
218.7014393037989
 23
-113.308323294318
 33
0.0
 14
210.7014393037989
 24
-119.7643232943178
 34
0.0
100
AcDbRotatedDimension
  0
DIMENSION
  5
330B
330
1E
100
AcDbEntity
  8
AM_5
100
AcDbDimension
  2
*D32
 10
164.7014393037989
 20
-102.6647817610611
 30
0.0
 11
153.7014393037989
 21
-100.3644864854706
 31
0.0
 70
    32
 71
     5
 42
22.0
  3
AM_ISO
100
AcDbAlignedDimension
 13
142.7014393037989
 23
-109.808323294318
 33
0.0
 14
164.7014393037989
 24
-118.208323294318
 34
0.0
100
AcDbRotatedDimension
  0
DIMENSION
  5
330C
330
1E
100
AcDbEntity
  8
AM_5
100
AcDbDimension
  2
*D33
 10
136.6929741081974
 20
-184.5056074218627
 30
0.0
 11
136.6929741081974
 21
-164.323064785214
 31
0.0
 70
   160
  1
%%c<>
 71
     5
 42
8.0
  3
AM_ISO
100
AcDbAlignedDimension
 13
134.2014393037989
 23
-176.5056074218627
 33
0.0
 14
134.2014393037989
 24
-184.5056074218627
 34
0.0
 50
90.0
100
AcDbRotatedDimension
  0
TEXT
  5
330D
330
1E
100
AcDbEntity
  8
AM_5
100
AcDbText
 10
94.92942034985544
 20
-164.7007204030613
 30
0.0
 40
3.0
  1
M8X1.25
100
AcDbText
  0
INSERT
  5
330E
330
1E
100
AcDbEntity
  8
AM_5
100
AcDbBlockReference
  2
*S27
 10
5.043069310495752
 20
-198.5412431556602
 30
0.0
  0
DIMENSION
  5
330F
330
1E
100
AcDbEntity
  8
AM_5
100
AcDbDimension
  2
*D34
 10
108.1527836721521
 20
-190.5056074218627
 30
0.0
 11
104.9825813450822
 21
-180.5056074218626
 31
0.0
 70
    32
  1
%%c<>
 71
     5
 42
20.0
  3
AM_ISO
100
AcDbAlignedDimension
 13
140.2014393037989
 23
-170.5056074218627
 33
0.0
 14
140.2014393037989
 24
-190.5056074218627
 34
0.0
 50
90.0
100
AcDbRotatedDimension
1001
GENIUS_GENDTOL_13
1000
TolAcTol
1000

1000

1040
20.0
1001
ACAD
1000
DSTYLE
1002
{
1070
    47
1040
0.0
1070
    48
1040
0.033
1070
    71
1070
     1
1070
   272
1070
     3
1002
}
  0
DIMENSION
  5
3310
330
1E
100
AcDbEntity
  8
AM_5
100
AcDbDimension
  2
*D35
 10
218.7014393037989
 20
-213.5056074218625
 30
0.0
 11
167.2014393037988
 21
-211.2056074218625
 31
0.0
 70
    32
  1
<>+stroke
 71
     5
 42
103.0000000000001
  3
AM_ISO
100
AcDbAlignedDimension
 13
115.7014393037988
 23
-183.4056074218626
 33
0.0
 14
218.7014393037989
 24
-192.0056074218627
 34
0.0
100
AcDbRotatedDimension
  0
DIMENSION
  5
3311
330
1E
100
AcDbEntity
  8
AM_5
100
AcDbDimension
  2
*D36
 10
142.7014393037989
 20
-207.5056074218625
 30
0.0
 11
129.2014393037988
 21
-205.205312146272
 31
0.0
 70
    32
 71
     5
 42
27.00000000000012
  3
AM_ISO
100
AcDbAlignedDimension
 13
115.7014393037988
 23
-183.4056074218626
 33
0.0
 14
142.7014393037989
 24
-195.5056074218627
 34
0.0
100
AcDbRotatedDimension
  0
DIMENSION
  5
3312
330
1E
100
AcDbEntity
  8
AM_5
100
AcDbDimension
  2
*D37
 10
133.7014393037989
 20
-201.5056074218626
 30
0.0
 11
124.7014393037989
 21
-199.2056074218625
 31
0.0
 70
    32
 71
     5
 42
18.0
  3
AM_ISO
100
AcDbAlignedDimension
 13
115.7014393037989
 23
-183.4056074218626
 33
0.0
 14
133.7014393037989
 24
-184.5056074218627
 34
0.0
100
AcDbRotatedDimension
  0
DIMENSION
  5
3313
330
1E
100
AcDbEntity
  8
AM_5
100
AcDbDimension
  2
*D38
 10
131.2014393037989
 20
-196.4056074218627
 30
0.0
 11
123.4514393037989
 21
-194.1056074218627
 31
0.0
 70
    32
 71
     5
 42
15.5
  3
AM_ISO
100
AcDbAlignedDimension
 13
115.7014393037989
 23
-183.4056074218626
 33
0.0
 14
131.2014393037989
 24
-184.4056074218626
 34
0.0
100
AcDbRotatedDimension
  0
DIMENSION
  5
3314
330
1E
100
AcDbEntity
  8
AM_5
100
AcDbDimension
  2
*D39
 10
218.7014393037989
 20
-207.5056074218625
 30
0.0
 11
180.7014393037989
 21
-205.2056074218625
 31
0.0
 70
    32
  1
<>+stroke
 71
     5
 42
76.0
  3
AM_ISO
100
AcDbAlignedDimension
 13
142.7014393037989
 23
-195.5056074218627
 33
0.0
 14
218.7014393037989
 24
-192.0056074218627
 34
0.0
100
AcDbRotatedDimension
  0
DIMENSION
  5
3315
330
1E
100
AcDbEntity
  8
AM_5
100
AcDbDimension
  2
*D40
 10
85.26038469722903
 20
-180.5056074218627
 30
0.0
 11
82.96038469722907
 21
-188.0056074218627
 31
0.0
 70
    32
 71
     5
 42
15.0
  3
AM_ISO
100
AcDbAlignedDimension
 13
75.48426819218088
 23
-195.5056074218627
 33
0.0
 14
73.5842681921809
 24
-180.5056074218627
 34
0.0
 50
90.0
100
AcDbRotatedDimension
  0
DIMENSION
  5
3316
330
1E
100
AcDbEntity
  8
AM_5
100
AcDbDimension
  2
*D41
 10
72.98426819218088
 20
-202.9340967667971
 30
0.0
 11
61.98426819218088
 21
-200.6338014912065
 31
0.0
 70
    32
  1
{\Famgdt;o}<>
 71
     5
 42
22.0
  3
AM_ISO
100
AcDbAlignedDimension
 13
50.98426819218087
 23
-195.2726074218627
 33
0.0
 14
72.98426819218088
 24
-195.2726074218627
 34
0.0
100
AcDbRotatedDimension
  0
DIMENSION
  5
3317
330
1E
100
AcDbEntity
  8
AM_5
100
AcDbDimension
  2
*D42
 10
76.98426819218088
 20
-208.9340967667971
 30
0.0
 11
61.98426819218088
 21
-206.634096766797
 31
0.0
 70
    32
  1
{\Famgdt;o}<>
 71
     5
 42
30.0
  3
AM_ISO
100
AcDbAlignedDimension
 13
46.98426819218087
 23
-194.0056074218627
 33
0.0
 14
76.98426819218088
 24
-194.0056074218627
 34
0.0
100
AcDbRotatedDimension
  0
TEXT
  5
3318
330
1E
100
AcDbEntity
  8
AM_5
100
AcDbText
 10
61.73484933740548
 20
-159.0235719730128
 30
0.0
 40
3.0
  1
4-M5x0.8x9L
100
AcDbText
  0
INSERT
  5
3319
330
1E
100
AcDbEntity
  8
AM_5
100
AcDbBlockReference
  2
*S28
 10
11.90406509116394
 20
-198.5412431556602
 30
0.0
  0
LINE
  5
331C
330
1E
100
AcDbEntity
  8
AM_VIS
100
AcDbLine
 10
248.1178659269782
 20
-165.5056074218627
 30
0.0
 11
275.1178659269782
 21
-165.5056074218627
 31
0.0
  0
LINE
  5
331D
330
1E
100
AcDbEntity
  8
AM_VIS
100
AcDbLine
 10
246.6178659269782
 20
-167.0056074218627
 30
0.0
 11
248.1178659269782
 21
-165.5056074218627
 31
0.0
  0
LINE
  5
331E
330
1E
100
AcDbEntity
  8
AM_VIS
100
AcDbLine
 10
246.6178659269782
 20
-194.0056074218627
 30
0.0
 11
246.6178659269782
 21
-167.0056074218627
 31
0.0
  0
LINE
  5
331F
330
1E
100
AcDbEntity
  8
AM_VIS
100
AcDbLine
 10
275.1178659269782
 20
-165.5056074218627
 30
0.0
 11
276.6178659269782
 21
-167.0056074218627
 31
0.0
  0
LINE
  5
3320
330
1E
100
AcDbEntity
  8
AM_VIS
100
AcDbLine
 10
276.6178659269782
 20
-167.0056074218627
 30
0.0
 11
276.6178659269782
 21
-194.0056074218627
 31
0.0
  0
LINE
  5
3321
330
1E
100
AcDbEntity
  8
AM_VIS
100
AcDbLine
 10
275.1178659269782
 20
-195.5056074218627
 30
0.0
 11
248.1178659269782
 21
-195.5056074218627
 31
0.0
  0
LINE
  5
3322
330
1E
100
AcDbEntity
  8
AM_VIS
100
AcDbLine
 10
276.6178659269782
 20
-194.0056074218627
 30
0.0
 11
275.1178659269782
 21
-195.5056074218627
 31
0.0
  0
LINE
  5
3323
330
1E
100
AcDbEntity
  8
AM_VIS
100
AcDbLine
 10
248.1178659269782
 20
-195.5056074218627
 30
0.0
 11
246.6178659269782
 21
-194.0056074218627
 31
0.0
  0
DIMENSION
  5
3324
330
1E
100
AcDbEntity
  8
AM_5
100
AcDbDimension
  2
*D43
 10
273.6178659269782
 20
-203.7430477580368
 30
0.0
 11
261.6178659269782
 21
-201.4427524824462
 31
0.0
 70
    32
  1
{\Famgdt;o}<>
 71
     5
 42
23.99999999999995
  3
AM_ISO
100
AcDbAlignedDimension
 13
249.6178659269782
 23
-187.7167099727905
 33
0.0
 14
273.6178659269782
 24
-187.7167099727905
 34
0.0
100
AcDbRotatedDimension
  0
ARC
  5
3325
330
1E
100
AcDbEntity
  8
AM_VIS
100
AcDbCircle
 10
261.6178659269782
 20
-180.5056074218625
 30
0.0
 40
14.0
100
AcDbArc
 50
301.0027191338737
 51
328.9972808661262
  0
ARC
  5
3326
330
1E
100
AcDbEntity
  8
AM_VIS
100
AcDbCircle
 10
261.6178659269782
 20
-180.5056074218625
 30
0.0
 40
14.0
100
AcDbArc
 50
211.0027191338737
 51
238.9972808661263
  0
LINE
  5
3327
330
1E
100
AcDbEntity
  8
AM_7
100
AcDbLine
 10
261.6178659269782
 20
-197.2996074218625
 30
0.0
 11
261.6178659269782
 21
-180.5056074218625
 31
0.0
  0
LINE
  5
3328
330
1E
100
AcDbEntity
  8
AM_7
100
AcDbLine
 10
261.6178659269782
 20
-180.5056074218625
 30
0.0
 11
278.4118659269781
 21
-180.5056074218625
 31
0.0
  0
DIMENSION
  5
3329
330
1E
100
AcDbEntity
  8
AM_5
100
AcDbDimension
  2
*D44
 10
252.7921388906266
 20
-191.3732908125315
 30
0.0
 11
279.4901334117377
 21
-163.1775224965899
 31
0.0
 70
   163
 71
     5
 42
28.00000000000043
  3
AM_ISO$3
100
AcDbDiametricDimension
 15
270.4435929633295
 25
-169.6379240311937
 35
0.0
 40
0.0
1001
ACAD
1000
DSTYLE
1002
{
1070
   287
1070
     2
1070
   141
1040
0.0
1070
   172
1070
     1
1070
   289
1070
     2
1002
}
  0
LINE
  5
332A
330
1E
100
AcDbEntity
  8
AM_7
100
AcDbLine
 10
244.8238659269782
 20
-180.5056074218625
 30
0.0
 11
261.6178659269782
 21
-180.5056074218625
 31
0.0
  0
CIRCLE
  5
332B
330
1E
100
AcDbEntity
  8
AM_VIS
100
AcDbCircle
 10
261.6178659269782
 20
-180.5056074218625
 30
0.0
 40
11.5
  0
ARC
  5
332C
330
1E
100
AcDbEntity
  8
AM_VIS
100
AcDbCircle
 10
261.6178659269782
 20
-180.5056074218625
 30
0.0
 40
14.0
100
AcDbArc
 50
121.0027191338737
 51
148.9972808661263
  0
LINE
  5
332D
330
1E
100
AcDbEntity
  8
AM_7
100
AcDbLine
 10
261.6178659269782
 20
-180.5056074218625
 30
0.0
 11
261.6178659269782
 21
-163.7116074218625
 31
0.0
  0
ARC
  5
332E
330
1E
100
AcDbEntity
  8
AM_VIS
100
AcDbCircle
 10
261.6178659269782
 20
-180.5056074218625
 30
0.0
 40
14.0
100
AcDbArc
 50
31.00271913387381
 51
58.99728086612647
  0
LINE
  5
332F
330
1E
100
AcDbEntity
  8
AM_VIS
100
AcDbLine
 10
249.6178659269782
 20
-173.2945048709345
 30
0.0
 11
249.6178659269782
 21
-187.7167099727905
 31
0.0
  0
LINE
  5
3330
330
1E
100
AcDbEntity
  8
AM_VIS
100
AcDbLine
 10
273.6178659269782
 20
-173.2945048709345
 30
0.0
 11
273.6178659269782
 21
-187.7167099727905
 31
0.0
  0
LINE
  5
3331
330
1E
100
AcDbEntity
  8
AM_7
100
AcDbLine
 10
261.6178659269782
 20
-180.5056074218625
 30
0.0
 11
261.6178659269782
 21
-180.5056074218625
 31
0.0
  0
LINE
  5
3332
330
1E
100
AcDbEntity
  8
AM_7
100
AcDbLine
 10
261.6178659269782
 20
-180.5056074218625
 30
0.0
 11
261.6178659269782
 21
-180.5056074218625
 31
0.0
  0
LINE
  5
3333
330
1E
100
AcDbEntity
  8
AM_VIS
100
AcDbLine
 10
254.4067633760502
 20
-168.5056074218625
 30
0.0
 11
268.8289684779062
 21
-168.5056074218625
 31
0.0
  0
LINE
  5
3334
330
1E
100
AcDbEntity
  8
AM_VIS
100
AcDbLine
 10
254.4067633760502
 20
-192.5056074218625
 30
0.0
 11
268.8289684779062
 21
-192.5056074218625
 31
0.0
  0
LINE
  5
3335
330
1E
100
AcDbEntity
  8
AM_VIS
 62
     3
100
AcDbLine
 10
116.2014393037988
 20
-177.1056074218627
 30
0.0
 11
120.2014393037988
 21
-177.1056074218627
 31
0.0
  0
LINE
  5
3336
330
1E
100
AcDbEntity
  8
AM_VIS
 62
     3
100
AcDbLine
 10
116.2014393037988
 20
-183.9056074218627
 30
0.0
 11
120.2014393037988
 21
-183.9056074218627
 31
0.0
  0
LINE
  5
3337
330
1E
100
AcDbEntity
  8
AM_VIS
 62
     3
100
AcDbLine
 10
130.2014393037988
 20
-183.9056074218627
 30
0.0
 11
131.2014393037988
 21
-183.9056074218627
 31
0.0
  0
LINE
  5
3338
330
1E
100
AcDbEntity
  8
AM_VIS
 62
     3
100
AcDbLine
 10
130.2014393037988
 20
-177.1056074218627
 30
0.0
 11
131.2014393037988
 21
-177.1056074218627
 31
0.0
  0
LINE
  5
3339
330
1E
100
AcDbEntity
  8
AM_VIS
100
AcDbLine
 10
131.2014393037988
 20
-184.4056074218626
 30
0.0
 11
131.2014393037988
 21
-176.6056074218627
 31
0.0
  0
TEXT
  5
333A
330
1E
100
AcDbEntity
  8
AM_5
100
AcDbText
 10
179.8040847238414
 20
-145.9229653326485
 30
0.0
 40
3.0
  1
2-PT1/8
100
AcDbText
  0
INSERT
  5
333B
330
1E
100
AcDbEntity
  8
AM_5
100
AcDbBlockReference
  2
*S29
 10
5.043069310495752
 20
-196.7939590281156
 30
0.0
  0
DIMENSION
  5
333C
330
1E
100
AcDbEntity
  8
AM_5
100
AcDbDimension
  2
*D45
 10
218.7014393037989
 20
-143.754102122595
 30
0.0
 11
211.2014393037989
 21
-141.454102122595
 31
0.0
 70
    32
 71
     5
 42
15.0
  3
AM_ISO
100
AcDbAlignedDimension
 13
203.7014393037989
 23
-136.308323294318
 33
0.0
 14
218.7014393037989
 24
-136.308323294318
 34
0.0
100
AcDbRotatedDimension
  0
ARC
  5
3563
330
1E
100
AcDbEntity
  8
AM_4
100
AcDbCircle
 10
164.7014393037989
 20
-124.808323294318
 30
0.0
 40
4.863999999999999
100
AcDbArc
 50
259.9999999999982
 51
189.9999999999986
  0
CIRCLE
  5
3564
330
1E
100
AcDbEntity
  8
AM_VIS
100
AcDbCircle
 10
164.7014393037989
 20
-124.808323294318
 30
0.0
 40
4.283
  0
ARC
  5
3565
330
1E
100
AcDbEntity
  8
AM_4
100
AcDbCircle
 10
210.7014393037989
 20
-124.8083232943178
 30
0.0
 40
4.863999999999999
100
AcDbArc
 50
259.9999999999982
 51
189.9999999999986
  0
CIRCLE
  5
3566
330
1E
100
AcDbEntity
  8
AM_VIS
100
AcDbCircle
 10
210.7014393037989
 20
-124.8083232943178
 30
0.0
 40
4.283
  0
ARC
  5
3567
330
1E
100
AcDbEntity
  8
AM_4
100
AcDbCircle
 10
72.98426819218088
 20
-191.5056074218627
 30
0.0
 40
2.62
100
AcDbArc
 50
280.0
 51
190.0
  0
ARC
  5
3568
330
1E
100
AcDbEntity
  8
AM_4
100
AcDbCircle
 10
50.98426819218087
 20
-191.5056074218627
 30
0.0
 40
2.62
100
AcDbArc
 50
280.0
 51
190.0
  0
ARC
  5
3569
330
1E
100
AcDbEntity
  8
AM_4
100
AcDbCircle
 10
50.98426819218087
 20
-169.5056074218627
 30
0.0
 40
2.62
100
AcDbArc
 50
280.0
 51
190.0
  0
LINE
  5
356B
330
1E
100
AcDbEntity
  8
AM_7
100
AcDbLine
 10
164.7014393037989
 20
-173.1114563232853
 30
0.0
 11
164.7014393037989
 21
-163.8847490795062
 31
0.0
  0
DIMENSION
  5
35F5
330
1E
100
AcDbEntity
  8
AM_5
100
AcDbDimension
  2
*D46
 10
142.7014393037988
 20
-147.7413097998169
 30
0.0
 11
141.2014393037988
 21
-145.4413097998169
 31
0.0
 70
    32
 71
     5
 42
3.0
  3
AM_ISO$0
100
AcDbAlignedDimension
 13
139.7014393037988
 23
-134.3083232943181
 33
0.0
 14
142.7014393037988
 24
-139.8083232943181
 34
0.0
 50
0.0000000000001018
100
AcDbRotatedDimension
1001
ACAD
1000
DSTYLE
1002
{
1070
    40
1040
1.0
1070
   144
1040
1.0
1070
   272
1070
     8
1002
}
  0
LINE
  5
3613
330
1E
100
AcDbEntity
  8
AM_7
100
AcDbLine
 10
141.4029820887926
 20
-191.5056074218627
 30
0.0
 11
153.8774687559216
 21
-191.5056074218627
 31
0.0
  0
LINE
  5
3614
330
1E
100
AcDbEntity
  8
AM_7
100
AcDbLine
 10
141.4029820887926
 20
-169.5056074218627
 30
0.0
 11
153.8774687559216
 21
-169.5056074218627
 31
0.0
  0
LINE
  5
3615
330
1E
100
AcDbEntity
  8
AM_7
100
AcDbLine
 10
154.7014393037989
 20
17.91468779470347
 30
0.0
 11
154.7014393037989
 21
29.61112005907308
 31
0.0
  0
LWPOLYLINE
  5
36BB
330
1E
100
AcDbEntity
  8
LOGO
 62
     4
100
AcDbPolyline
 90
        4
 70
     1
 43
0.0
 10
15.58796217686222
 20
-242.1170249846425
 10
315.5879621768622
 20
-242.1170249846425
 10
315.5879621768622
 20
140.3873189067596
 10
15.58796217686222
 20
140.3873189067596
1001
GENIUS_GENREC_14
1002
{
1000
PYDIR
1011
15.58796217686222
1021
140.3873189067596
1031
0.0
1002
}
1002
{
1000
PXDIR
1011
315.5879621768622
1021
-242.1170249846425
1031
0.0
1002
}
1002
{
1000
PORI
1011
15.58796217686222
1021
-242.1170249846425
1031
0.0
1002
}
1002
{
1000
PINS
1011
15.58796217686222
1021
-242.1170249846425
1031
0.0
1002
}
1002
{
1000
PINS2
1011
315.5879621768622
1021
140.3873189067596
1031
0.0
1002
}
1002
{
1000
C
1070
     1
1002
}
1001
GENIUS_GENODEF_13
1002
{
1000
HIER
1070
     0
1002
}
1002
{
1000
MANEDIT
1070
     0
1002
}
1002
{
1000
NOSEL
1070
     0
1002
}
1002
{
1000
BEHIND
1070
     0
1002
}
1002
{
1000
OTHER
1070
     0
1002
}
1002
{
1000
REACTOR
1002
}
1001
GENIUS_GENOBJ-N-REC_13
1002
{
1000
OWNER
1000
GEN
1002
}
  0
LWPOLYLINE
  5
36BC
330
1E
100
AcDbEntity
  8
LOGO
 62
     4
100
AcDbPolyline
 90
        4
 70
     1
 43
0.0
 10
15.58796217686222
 20
-242.1170249846425
 10
315.5879621768622
 20
-242.1170249846425
 10
315.5879621768622
 20
-272.1126810932403
 10
15.58796217686222
 20
-272.1126810932403
1001
GENIUS_GENREC_14
1002
{
1000
PYDIR
1011
15.58796217686222
1021
-272.1126810932403
1031
0.0
1002
}
1002
{
1000
PXDIR
1011
315.5879621768622
1021
-242.1170249846425
1031
0.0
1002
}
1002
{
1000
PORI
1011
15.58796217686222
1021
-242.1170249846425
1031
0.0
1002
}
1002
{
1000
PINS
1011
15.58796217686222
1021
-242.1170249846425
1031
0.0
1002
}
1002
{
1000
PINS2
1011
315.5879621768622
1021
-272.1126810932403
1031
0.0
1002
}
1002
{
1000
C
1070
     1
1002
}
1001
GENIUS_GENOBJ-N-REC_13
1002
{
1000
OWNER
1000
GEN
1002
}
1001
GENIUS_GENODEF_13
1002
{
1000
HIER
1070
     0
1002
}
1002
{
1000
MANEDIT
1070
     0
1002
}
1002
{
1000
NOSEL
1070
     0
1002
}
1002
{
1000
BEHIND
1070
     0
1002
}
1002
{
1000
OTHER
1070
     0
1002
}
1002
{
1000
REACTOR
1002
}
  0
TEXT
  5
36BD
330
1E
100
AcDbEntity
  8
LOGO
 62
     7
100
AcDbText
 10
83.31616752492328
 20
-255.2576115061151
 30
0.0
 40
3.999420814479637
  1
Order example:
 41
0.8
  7
CHINESET
100
AcDbText
  0
TEXT
  5
36BE
330
1E
100
AcDbEntity
  8
LOGO
 62
     7
100
AcDbText
 10
84.0336966929056
 20
-249.6272550899737
 30
0.0
 40
5.999131221719455
  1
訂購代號：
  7
CHINESET
100
AcDbText
  0
LINE
  5
36BF
330
1E
100
AcDbEntity
  8
LOGO
 62
     4
100
AcDbLine
 10
81.57840561577639
 20
-272.11268109324
 30
0.0
 11
81.57840561577639
 21
-242.1170249846425
 31
0.0
  0
TEXT
  5
36C0
330
1E
100
AcDbEntity
  8
LOGO
  6
Continuous
100
AcDbText
 10
26.36253668415346
 20
-266.220079718098
 30
0.0
 40
4.499348416289593
  1
金器工業股份有限公司
  7
CHINESET
100
AcDbText
  0
TEXT
  5
36C1
330
1E
100
AcDbEntity
  8
LOGO
  6
Continuous
100
AcDbText
 10
18.09812379561602
 20
-270.7203096539146
 30
0.0
 40
2.999565610859727
  1
MINDMAN INDUSTRIAL CO., LTD.
 41
0.85
  7
CHINESET
100
AcDbText
  0
LINE
  5
36C2
330
1E
100
AcDbEntity
  8
LOGO
 62
     4
100
AcDbLine
 10
81.57840561577639
 20
-248.116156206362
 30
0.0
 11
37.58477665650008
 21
-248.116156206362
 31
0.0
  0
LINE
  5
36C3
330
1E
100
AcDbEntity
  8
LOGO
 62
     4
100
AcDbLine
 10
81.57840561577639
 20
-254.1152874280815
 30
0.0
 11
37.58477665650008
 21
-254.1152874280815
 31
0.0
  0
LINE
  5
36C4
330
1E
100
AcDbEntity
  8
LOGO
 62
     4
100
AcDbLine
 10
81.57840561577639
 20
-260.1144186498006
 30
0.0
 11
15.58796217686228
 21
-260.1144186498006
 31
0.0
  0
LINE
  5
36C5
330
1E
100
AcDbEntity
  8
LOGO
 62
     4
100
AcDbLine
 10
37.58477665650008
 20
-260.1144186498006
 30
0.0
 11
37.58477665650008
 21
-242.1170249846425
 31
0.0
  0
TEXT
  5
36C6
330
1E
100
AcDbEntity
  8
LOGO
100
AcDbText
 10
67.65234558250703
 20
-258.6146358443713
 30
0.0
 40
2.999565610859727
  1
mm
  7
CHINESET
 72
     1
 11
71.36609348166669
 21
-257.1148530389414
 31
0.0
100
AcDbText
 73
     2
  0
TEXT
  5
36C7
330
1E
100
AcDbEntity
  8
LOGO
100
AcDbText
 10
66.08114454824718
 20
-246.6163734009323
 30
0.0
 40
2.999565610859727
  1
1 : 1
  7
CHINESET
 72
     1
 11
71.36609348166669
 21
-245.1165905955025
 31
0.0
100
AcDbText
 73
     2
  0
LINE
  5
36C8
330
1E
100
AcDbEntity
  8
LOGO
 62
     4
100
AcDbLine
 10
61.58130154337808
 20
-260.1144186498006
 30
0.0
 11
61.58130154337808
 21
-242.1170249846425
 31
0.0
  0
CIRCLE
  5
36C9
330
1E
100
AcDbEntity
  8
LOGO
  6
Continuous
100
AcDbCircle
 10
67.13537245162054
 20
-251.1093057244298
 30
0.0
 40
1.741618395480947
  0
CIRCLE
  5
36CA
330
1E
100
AcDbEntity
  8
LOGO
  6
Continuous
100
AcDbCircle
 10
67.13537245162054
 20
-251.1093057244298
 30
0.0
 40
1.020434202998395
  0
LINE
  5
36CB
330
1E
100
AcDbEntity
  8
LOGO
100
AcDbLine
 10
78.07990453767527
 20
-252.8509241199111
 30
0.0
 11
78.07990453767527
 21
-249.3676873289485
 31
0.0
  0
LINE
  5
36CC
330
1E
100
AcDbEntity
  8
LOGO
100
AcDbLine
 10
72.62003084150894
 20
-252.129739927428
 30
0.0
 11
72.62003084150894
 21
-250.0888715214312
 31
0.0
  0
LINE
  5
36CD
330
1E
100
AcDbEntity
  8
LOGO
  6
Continuous
100
AcDbLine
 10
72.62003084150894
 20
-250.0888715214312
 30
0.0
 11
78.07990453767527
 21
-249.3676873289485
 31
0.0
  0
LINE
  5
36CE
330
1E
100
AcDbEntity
  8
LOGO
  6
Continuous
100
AcDbLine
 10
72.62003084150894
 20
-252.129739927428
 30
0.0
 11
78.07990453767527
 21
-252.8509241199111
 31
0.0
  0
TEXT
  5
36CF
330
1E
100
AcDbEntity
  8
LOGO
100
AcDbText
 10
40.05807919366887
 20
-246.6148972367538
 30
196.5865886400747
 40
2.999565610859727
  1
比例 Scale:
 41
0.9
  7
CHINESET
 72
     4
 11
49.58303909993907
 21
-245.1165905955025
 31
196.5865886400747
100
AcDbText
  0
TEXT
  5
36D0
330
1E
100
AcDbEntity
  8
LOGO
100
AcDbText
 10
39.88533635268633
 20
-252.573310929881
 30
196.5865886400747
 40
2.999565610859727
  1
投影  View:
 41
0.9
  7
CHINESET
 72
     4
 11
49.58303909993907
 21
-251.115721817222
 31
196.5865886400747
100
AcDbText
  0
TEXT
  5
36D1
330
1E
100
AcDbEntity
  8
LOGO
100
AcDbText
 10
40.17859745481948
 20
-258.6146358443713
 30
196.5865886400747
 40
2.999565610859727
  1
單位  Unit:
 41
0.9
  7
CHINESET
 72
     4
 11
49.58303909993907
 21
-257.1148530389414
 31
196.5865886400747
100
AcDbText
  0
SOLID
  5
36D2
330
1E
100
AcDbEntity
  8
LOGO
 62
     5
100
AcDbTrace
 10
18.70005963749557
 20
-255.1280677762906
 30
0.0
 11
19.99699309902967
 21
-255.1280677762909
 31
0.0
 12
25.40833616267177
 22
-242.8295608134667
 32
0.0
 13
26.70526962420654
 23
-242.8295608134674
 33
0.0
  0
SOLID
  5
36D3
330
1E
100
AcDbEntity
  8
LOGO
 62
     5
100
AcDbTrace
 10
20.5336552210452
 20
-255.1280677762906
 30
0.0
 11
21.83058868257925
 21
-255.1280677762906
 31
0.0
 12
26.70526962420654
 22
-243.8134413704932
 32
0.0
 13
25.40833616267177
 23
-248.568864062785
 33
0.0
  0
SOLID
  5
36D4
330
1E
100
AcDbEntity
  8
LOGO
 62
     2
100
AcDbTrace
 10
19.99699309902967
 20
-255.1280677762909
 30
0.0
 11
20.5336552210452
 21
-255.1280677762906
 31
0.0
 12
26.70526962420654
 22
-242.8295608134674
 32
0.0
 13
27.2419317462214
 23
-242.8295608134674
 33
0.0
  0
SOLID
  5
36D5
330
1E
100
AcDbEntity
  8
LOGO
 62
     5
100
AcDbTrace
 10
16.62075725161303
 20
-259.6002521264079
 30
0.0
 11
17.06797568662529
 21
-259.6002521264079
 31
0.0
 12
18.32737760831953
 22
-257.3641599513494
 32
0.0
 13
18.77459604333038
 23
-257.3641599513494
 33
0.0
  0
SOLID
  5
36D6
330
1E
100
AcDbEntity
  8
LOGO
 62
     5
100
AcDbTrace
 10
18.32737760831953
 20
-257.3641599513494
 30
0.0
 11
18.77459604333038
 21
-257.3641599513494
 31
0.0
 12
18.32737760831953
 22
-259.6002521264079
 32
0.0
 13
18.77459604333038
 23
-259.6002521264079
 33
0.0
  0
SOLID
  5
36D7
330
1E
100
AcDbEntity
  8
LOGO
 62
     5
100
AcDbTrace
 10
18.32737760831953
 20
-259.6002521264079
 30
0.0
 11
18.77459604333038
 21
-259.6002521264079
 31
0.0
 12
20.03399796502669
 22
-257.3641599513494
 32
0.0
 13
20.48121640003822
 23
-257.3641599513494
 33
0.0
  0
SOLID
  5
36D8
330
1E
100
AcDbEntity
  8
LOGO
 62
     5
100
AcDbTrace
 10
20.03399796502669
 20
-257.3641599513494
 30
0.0
 11
20.48121640003822
 21
-257.3641599513494
 31
0.0
 12
20.03399796502669
 22
-259.6002521264079
 32
0.0
 13
20.48121640003822
 23
-259.6002521264079
 33
0.0
  0
POLYLINE
  5
36D9
330
1E
100
AcDbEntity
  8
LOGO
 62
     5
100
AcDb2dPolyline
 66
     1
 10
0.0
 20
0.0
 30
0.0
 40
0.4479351312217193
 41
0.4479351312217193
  0
VERTEX
  5
36DA
330
36D9
100
AcDbEntity
  8
LOGO
 62
     5
100
AcDbVertex
100
AcDb2dVertex
 10
35.0246075597409
 20
-258.2585968213729
 30
0.0
 42
1.0
  0
VERTEX
  5
36DB
330
36D9
100
AcDbEntity
  8
LOGO
 62
     5
100
AcDbVertex
100
AcDb2dVertex
 10
33.68080216607548
 20
-258.2585968213729
 30
0.0
 42
1.0
  0
SEQEND
  5
36DC
330
36D9
100
AcDbEntity
  8
LOGO
 62
     5
  0
POLYLINE
  5
36DD
330
1E
100
AcDbEntity
  8
LOGO
 62
     5
100
AcDb2dPolyline
 66
     1
 10
0.0
 20
0.0
 30
0.0
 70
     1
  0
VERTEX
  5
36DE
330
36DD
100
AcDbEntity
  8
LOGO
 62
     5
100
AcDbVertex
100
AcDb2dVertex
 10
31.14766922655195
 20
-258.482206038879
 30
0.0
 42
1.000000057330635
  0
VERTEX
  5
36DF
330
36DD
100
AcDbEntity
  8
LOGO
 62
     5
100
AcDbVertex
100
AcDb2dVertex
 10
32.48932453158732
 20
-258.482206038879
 30
0.0
 42
1.000000057330635
  0
SEQEND
  5
36E0
330
36DD
100
AcDbEntity
  8
LOGO
 62
     5
  0
CIRCLE
  5
36E1
330
1E
100
AcDbEntity
  8
LOGO
 62
     5
100
AcDbCircle
 10
31.81849687907067
 20
-258.482206038879
 30
0.0
 40
0.6708276525176471
  0
POLYLINE
  5
36E2
330
1E
100
AcDbEntity
  8
LOGO
 62
     5
100
AcDb2dPolyline
 66
     1
 10
0.0
 20
0.0
 30
0.0
 70
     1
 40
0.4479351312217193
 41
0.4479351312217193
  0
VERTEX
  5
36E3
330
36E2
100
AcDbEntity
  8
LOGO
 62
     5
100
AcDbVertex
100
AcDb2dVertex
 10
30.92262661662657
 20
-258.482206038879
 30
0.0
 42
1.0
  0
VERTEX
  5
36E4
330
36E2
100
AcDbEntity
  8
LOGO
 62
     5
100
AcDbVertex
100
AcDb2dVertex
 10
32.71436714151337
 20
-258.482206038879
 30
0.0
 42
1.0
  0
SEQEND
  5
36E5
330
36E2
100
AcDbEntity
  8
LOGO
 62
     5
  0
LINE
  5
36E6
330
1E
100
AcDbEntity
  8
LOGO
100
AcDbLine
 10
35.24714173293097
 20
-259.6002521264079
 30
0.0
 11
35.24714173293097
 21
-258.2585968213729
 31
0.0
  0
SOLID
  5
36E7
330
1E
100
AcDbEntity
  8
LOGO
 62
     5
100
AcDbTrace
 10
32.4892798097458
 20
-257.3641599513494
 30
0.0
 11
32.93649824475671
 21
-257.3641599513494
 31
0.0
 12
32.4892798097458
 22
-259.6002521264079
 32
0.0
 13
32.93649824475671
 23
-259.6002521264079
 33
0.0
  0
SOLID
  5
36E8
330
1E
100
AcDbEntity
  8
LOGO
 62
     5
100
AcDbTrace
 10
33.45826799288401
 20
-259.6002521264079
 30
0.0
 11
33.90548642789627
 21
-259.6002521264079
 31
0.0
 12
33.45826799288401
 22
-257.3641599513494
 32
0.0
 13
33.90548642789627
 23
-257.3641599513494
 33
0.0
  0
SOLID
  5
36E9
330
1E
100
AcDbEntity
  8
LOGO
 62
     5
100
AcDbTrace
 10
34.79992329792006
 20
-258.2585968213729
 30
0.0
 11
35.24714173293097
 21
-258.2585968213729
 31
0.0
 12
34.79992329792006
 22
-259.6002521264079
 32
0.0
 13
35.24714173293097
 23
-259.6002521264079
 33
0.0
  0
SOLID
  5
36EA
330
1E
100
AcDbEntity
  8
LOGO
 62
     5
100
AcDbTrace
 10
33.41354614938274
 20
-243.8134413704932
 30
0.0
 11
32.11661268784931
 21
-248.568864062785
 31
0.0
 12
33.41354614938274
 22
-255.1280677762909
 32
0.0
 13
32.11661268784931
 23
-255.1280677762909
 33
0.0
  0
SOLID
  5
36EB
330
1E
100
AcDbEntity
  8
LOGO
 62
     5
100
AcDbTrace
 10
33.95020827139755
 20
-255.1280677762909
 30
0.0
 11
35.24714173293097
 21
-255.1280677762909
 31
0.0
 12
33.95020827139755
 22
-242.8295608134674
 32
0.0
 13
35.24714173293097
 23
-242.8295608134667
 33
0.0
  0
SOLID
  5
36EC
330
1E
100
AcDbEntity
  8
LOGO
 62
     2
100
AcDbTrace
 10
33.41354614938274
 20
-242.8295608134667
 30
0.0
 11
33.95020827139755
 21
-242.8295608134674
 31
0.0
 12
33.41354614938274
 22
-255.1280677762909
 32
0.0
 13
33.95020827139755
 23
-255.1280677762909
 33
0.0
  0
POLYLINE
  5
36ED
330
1E
100
AcDbEntity
  8
LOGO
 62
     5
100
AcDb2dPolyline
 66
     1
 10
0.0
 20
0.0
 30
0.0
 40
0.4479351312217193
 41
0.4479351312217193
  0
VERTEX
  5
36EE
330
36ED
100
AcDbEntity
  8
LOGO
 62
     5
100
AcDbVertex
100
AcDb2dVertex
 10
28.6144468433434
 20
-258.2585968213729
 30
0.0
 42
1.0
  0
VERTEX
  5
36EF
330
36ED
100
AcDbEntity
  8
LOGO
 62
     5
100
AcDbVertex
100
AcDb2dVertex
 10
27.27064144967793
 20
-258.2585968213729
 30
0.0
 42
1.0
  0
SEQEND
  5
36F0
330
36ED
100
AcDbEntity
  8
LOGO
 62
     5
  0
POLYLINE
  5
36F1
330
1E
100
AcDbEntity
  8
LOGO
 62
     5
100
AcDb2dPolyline
 66
     1
 10
0.0
 20
0.0
 30
0.0
 40
0.4479351312217193
 41
0.4479351312217193
  0
VERTEX
  5
36F2
330
36F1
100
AcDbEntity
  8
LOGO
 62
     5
100
AcDbVertex
100
AcDb2dVertex
 10
29.95610214837738
 20
-258.2585968213729
 30
0.0
 42
1.0
  0
VERTEX
  5
36F3
330
36F1
100
AcDbEntity
  8
LOGO
 62
     5
100
AcDbVertex
100
AcDb2dVertex
 10
28.61229675471263
 20
-258.2585968213729
 30
0.0
 42
1.0
  0
SEQEND
  5
36F4
330
36F1
100
AcDbEntity
  8
LOGO
 62
     5
  0
POLYLINE
  5
36F5
330
1E
100
AcDbEntity
  8
LOGO
 62
     5
100
AcDb2dPolyline
 66
     1
 10
0.0
 20
0.0
 30
0.0
 40
0.4479351312217193
 41
0.4479351312217193
  0
VERTEX
  5
36F6
330
36F5
100
AcDbEntity
  8
LOGO
 62
     5
100
AcDbVertex
100
AcDb2dVertex
 10
23.54594143197988
 20
-258.2585968213729
 30
0.0
 42
1.0
  0
VERTEX
  5
36F7
330
36F5
100
AcDbEntity
  8
LOGO
 62
     5
100
AcDbVertex
100
AcDb2dVertex
 10
22.20213603831513
 20
-258.2585968213729
 30
0.0
 42
1.0
  0
SEQEND
  5
36F8
330
36F5
100
AcDbEntity
  8
LOGO
 62
     5
  0
SOLID
  5
36F9
330
1E
100
AcDbEntity
  8
LOGO
 62
     5
100
AcDbTrace
 10
21.97960186512438
 20
-257.3641599513494
 30
0.0
 11
22.42682030013524
 21
-257.3641599513494
 31
0.0
 12
21.97960186512438
 22
-259.6002521264079
 32
0.0
 13
22.42682030013524
 23
-259.6002521264079
 33
0.0
  0
SOLID
  5
36FA
330
1E
100
AcDbEntity
  8
LOGO
 62
     5
100
AcDbTrace
 10
23.32125717015976
 20
-258.2585968213729
 30
0.0
 11
23.76847560517202
 21
-258.2585968213729
 31
0.0
 12
23.32125717015976
 22
-259.6002521264079
 32
0.0
 13
23.76847560517202
 23
-259.6002521264079
 33
0.0
  0
POLYLINE
  5
36FB
330
1E
100
AcDbEntity
  8
LOGO
 62
     5
100
AcDb2dPolyline
 66
     1
 10
0.0
 20
0.0
 30
0.0
 70
     1
 40
0.4479351312217193
 41
0.4479351312217193
  0
VERTEX
  5
36FC
330
36FB
100
AcDbEntity
  8
LOGO
 62
     5
100
AcDbVertex
100
AcDb2dVertex
 10
24.5124659002284
 20
-258.482206038879
 30
0.0
 42
1.0
  0
VERTEX
  5
36FD
330
36FB
100
AcDbEntity
  8
LOGO
 62
     5
100
AcDbVertex
100
AcDb2dVertex
 10
26.30420642511587
 20
-258.482206038879
 30
0.0
 42
1.0
  0
SEQEND
  5
36FE
330
36FB
100
AcDbEntity
  8
LOGO
 62
     5
  0
SOLID
  5
36FF
330
1E
100
AcDbEntity
  8
LOGO
 62
     5
100
AcDbTrace
 10
26.07911909334695
 20
-256.6933322988314
 30
0.0
 11
26.52633752835849
 21
-256.6933322988314
 31
0.0
 12
26.07911909334695
 22
-259.6002521264079
 32
0.0
 13
26.52633752835849
 23
-259.6002521264079
 33
0.0
  0
SOLID
  5
3700
330
1E
100
AcDbEntity
  8
LOGO
 62
     5
100
AcDbTrace
 10
27.04810727648786
 20
-257.3641599513494
 30
0.0
 11
27.49532571149877
 21
-257.3641599513494
 31
0.0
 12
27.04810727648786
 22
-259.6002521264079
 32
0.0
 13
27.49532571149877
 23
-259.6002521264079
 33
0.0
  0
SOLID
  5
3701
330
1E
100
AcDbEntity
  8
LOGO
 62
     5
100
AcDbTrace
 10
28.38976258152189
 20
-258.2585968213729
 30
0.0
 11
28.83698101653414
 21
-258.2585968213729
 31
0.0
 12
28.38976258152189
 22
-259.6002521264079
 32
0.0
 13
28.83698101653414
 23
-259.6002521264079
 33
0.0
  0
SOLID
  5
3702
330
1E
100
AcDbEntity
  8
LOGO
 62
     5
100
AcDbTrace
 10
29.73141788655726
 20
-258.2585968213729
 30
0.0
 11
30.17863632156885
 21
-258.2585968213729
 31
0.0
 12
29.73141788655726
 22
-259.6002521264086
 32
0.0
 13
30.17863632156885
 23
-259.6002521264086
 33
0.0
  0
SOLID
  5
3703
330
1E
100
AcDbEntity
  8
LOGO
 62
     5
100
AcDbTrace
 10
21.0106136819841
 20
-257.0511070468411
 30
0.0
 11
21.45783211699702
 21
-257.0511070468411
 31
0.0
 12
21.0106136819841
 22
-256.6933322988314
 32
0.0
 13
21.45783211699702
 23
-256.6933322988314
 33
0.0
  0
SOLID
  5
3704
330
1E
100
AcDbEntity
  8
LOGO
 62
     5
100
AcDbTrace
 10
21.0106136819841
 20
-257.3641599513494
 30
0.0
 11
21.45783211699702
 21
-257.3641599513494
 31
0.0
 12
21.0106136819841
 22
-259.6002521264086
 32
0.0
 13
21.45783211699702
 23
-259.6002521264079
 33
0.0
  0
SOLID
  5
3705
330
1E
100
AcDbEntity
  8
LOGO
 62
     5
100
AcDbTrace
 10
25.40833616267177
 20
-255.1280677762906
 30
0.0
 11
26.70526962420654
 21
-255.1280677762906
 31
0.0
 12
25.40833616267177
 22
-248.568864062785
 32
0.0
 13
26.70526962420654
 23
-243.8134413704932
 33
0.0
  0
SOLID
  5
3706
330
1E
100
AcDbEntity
  8
LOGO
 62
     5
100
AcDbTrace
 10
27.2419317462214
 20
-242.8295608134674
 30
0.0
 11
28.53886520775477
 21
-242.8295608134667
 31
0.0
 12
27.2419317462214
 22
-254.1441872192649
 32
0.0
 13
28.53886520775477
 23
-249.388764526973
 33
0.0
  0
SOLID
  5
3707
330
1E
100
AcDbEntity
  8
LOGO
 62
     2
100
AcDbTrace
 10
26.70526962420654
 20
-242.8295608134674
 30
0.0
 11
27.2419317462214
 21
-242.8295608134674
 31
0.0
 12
26.70526962420654
 22
-255.1280677762906
 32
0.0
 13
27.2419317462214
 23
-255.1280677762906
 33
0.0
  0
SOLID
  5
3708
330
1E
100
AcDbEntity
  8
LOGO
 62
     5
100
AcDbTrace
 10
27.2419317462214
 20
-254.1441872192649
 30
0.0
 11
28.53886520775477
 21
-249.388764526973
 31
0.0
 12
33.41354614938274
 22
-242.8295608134667
 32
0.0
 13
32.11661268784931
 23
-242.8295608134667
 33
0.0
  0
SOLID
  5
3709
330
1E
100
AcDbEntity
  8
LOGO
 62
     5
100
AcDbTrace
 10
27.2419317462214
 20
-255.1280677762906
 30
0.0
 11
28.53886520775477
 21
-255.1280677762906
 31
0.0
 12
33.41354614938274
 22
-243.8134413704932
 32
0.0
 13
32.11661268784931
 23
-248.568864062785
 33
0.0
  0
SOLID
  5
370A
330
1E
100
AcDbEntity
  8
LOGO
 62
     2
100
AcDbTrace
 10
26.70526962420654
 20
-255.1280677762906
 30
0.0
 11
27.2419317462214
 21
-255.1280677762906
 31
0.0
 12
33.41354614938274
 22
-242.8295608134667
 32
0.0
 13
33.95020827139755
 23
-242.8295608134674
 33
0.0
  0
LINE
  5
370B
330
1E
100
AcDbEntity
  8
LOGO
 62
     4
100
AcDbLine
 10
142.7385200270269
 20
-258.6146358443707
 30
0.0
 11
142.7385200270269
 21
-269.6130430841904
 31
0.0
  0
LINE
  5
370C
330
1E
100
AcDbEntity
  8
LOGO
 62
     4
100
AcDbLine
 10
122.7414159546286
 20
-258.6146358443707
 30
0.0
 11
122.7414159546286
 21
-269.6130430841904
 31
0.0
  0
LINE
  5
370D
330
1E
100
AcDbEntity
  8
LOGO
 62
     4
100
AcDbLine
 10
142.7385200270269
 20
-269.6130430841904
 30
0.0
 11
122.7414159546286
 21
-269.6130430841904
 31
0.0
  0
LINE
  5
370E
330
1E
100
AcDbEntity
  8
LOGO
 62
     4
100
AcDbLine
 10
169.4056661001478
 20
-245.1165905955025
 30
0.0
 11
122.8360993183515
 21
-245.1165905955025
 31
0.0
  0
LINE
  5
370F
330
1E
100
AcDbEntity
  8
LOGO
 62
     4
100
AcDbLine
 10
169.4056661001478
 20
-254.1152874280815
 30
0.0
 11
122.8360993183515
 21
-254.1152874280815
 31
0.0
  0
LINE
  5
3710
330
1E
100
AcDbEntity
  8
LOGO
 62
     4
100
AcDbLine
 10
122.8360993183515
 20
-245.1165905955025
 30
0.0
 11
122.8360993183515
 21
-254.1152874280815
 31
0.0
  0
LINE
  5
3711
330
1E
100
AcDbEntity
  8
LOGO
 62
     4
100
AcDbLine
 10
169.4056661001478
 20
-245.1165905955025
 30
0.0
 11
169.4056661001478
 21
-254.1152874280815
 31
0.0
  0
LINE
  5
3712
330
1E
100
AcDbEntity
  8
LOGO
 62
     4
100
AcDbLine
 10
132.7399679908278
 20
-254.1152874280815
 30
0.0
 11
132.7399679908278
 21
-258.6146358443707
 31
0.0
  0
TEXT
  5
3713
330
1E
100
AcDbEntity
  8
LOGO
  6
Continuous
100
AcDbText
 10
124.4350268132714
 20
-252.2368226203741
 30
0.0
 40
5.249999999999999
  1
MCMBRA/B
  7
CHINESET
100
AcDbText
  0
LINE
  5
3714
330
1E
100
AcDbEntity
  8
LOGO
 62
     4
100
AcDbLine
 10
142.7385200270269
 20
-258.6146358443707
 30
0.0
 11
122.7414159546286
 21
-258.6146358443707
 31
0.0
  0
TEXT
  5
3715
330
1E
100
AcDbEntity
  8
LOGO
  6
Continuous
100
AcDbText
 10
129.1584233415932
 20
-268.0606412249542
 30
196.5865886400747
 40
2.249999999999999
  1
Model
 41
0.8
  7
CHINESET
100
AcDbText
  0
TEXT
  5
3716
330
1E
100
AcDbEntity
  8
LOGO
100
AcDbText
 10
128.5595464845945
 20
-263.8896261345631
 30
196.5865886400747
 40
3.75
  1
型號
  7
CHINESET
100
AcDbText
  0
LINE
  5
3717
330
1E
100
AcDbEntity
  8
LOGO
  6
Continuous
100
AcDbLine
 10
171.1628148045266
 20
-249.647813818103
 30
0.0
 11
175.1363109779359
 21
-249.647813818103
 31
0.0
  0
LINE
  5
3718
330
1E
100
AcDbEntity
  8
LOGO
 62
     4
100
AcDbLine
 10
179.4398740182347
 20
-258.6146358443707
 30
0.0
 11
179.4398740182347
 21
-269.6130430841904
 31
0.0
  0
LINE
  5
3719
330
1E
100
AcDbEntity
  8
LOGO
 62
     4
100
AcDbLine
 10
153.6216607209264
 20
-258.6146358443707
 30
0.0
 11
153.6216607209264
 21
-269.6130430841904
 31
0.0
  0
LINE
  5
371A
330
1E
100
AcDbEntity
  8
LOGO
 62
     4
100
AcDbLine
 10
179.4398740182347
 20
-269.6130430841904
 30
0.0
 11
153.6216607209264
 21
-269.6130430841904
 31
0.0
  0
LINE
  5
371B
330
1E
100
AcDbEntity
  8
LOGO
 62
     4
100
AcDbLine
 10
186.8993957486718
 20
-245.1165905955025
 30
0.0
 11
176.8685527808192
 21
-245.1165905955025
 31
0.0
  0
LINE
  5
371C
330
1E
100
AcDbEntity
  8
LOGO
 62
     4
100
AcDbLine
 10
186.8993957486718
 20
-254.1152874280815
 30
0.0
 11
176.8685527808192
 21
-254.1152874280815
 31
0.0
  0
LINE
  5
371D
330
1E
100
AcDbEntity
  8
LOGO
 62
     4
100
AcDbLine
 10
176.8685527808192
 20
-245.1165905955025
 30
0.0
 11
176.8685527808192
 21
-254.1152874280815
 31
0.0
  0
LINE
  5
371E
330
1E
100
AcDbEntity
  8
LOGO
 62
     4
100
AcDbLine
 10
186.8993957486718
 20
-245.1165905955025
 30
0.0
 11
186.8993957486718
 21
-254.1152874280815
 31
0.0
  0
LINE
  5
371F
330
1E
100
AcDbEntity
  8
LOGO
 62
     4
100
AcDbLine
 10
181.8839742647455
 20
-254.1152874280815
 30
0.0
 11
181.8839742647455
 21
-256.3649616362261
 31
0.0
  0
TEXT
  5
3720
330
1E
100
AcDbEntity
  8
LOGO
  6
Continuous
100
AcDbText
 10
178.3313523297433
 20
-252.2368226203741
 30
0.0
 40
5.249999999999999
  1
11
  7
CHINESET
100
AcDbText
  0
LINE
  5
3721
330
1E
100
AcDbEntity
  8
LOGO
 62
     4
100
AcDbLine
 10
179.4398740182347
 20
-258.6146358443707
 30
0.0
 11
153.6216607209264
 21
-258.6146358443707
 31
0.0
  0
LINE
  5
3722
330
1E
100
AcDbEntity
  8
LOGO
  6
Continuous
100
AcDbLine
 10
192.7509363421688
 20
-249.647813818103
 30
0.0
 11
196.7244325155781
 21
-249.647813818103
 31
0.0
  0
LINE
  5
3723
330
1E
100
AcDbEntity
  8
LOGO
 62
     4
100
AcDbLine
 10
208.3160931309095
 20
-258.6146358443707
 30
0.0
 11
208.3160931309095
 21
-269.6130430841904
 31
0.0
  0
LINE
  5
3724
330
1E
100
AcDbEntity
  8
LOGO
 62
     4
100
AcDbLine
 10
188.3189890585112
 20
-258.6146358443707
 30
0.0
 11
188.3189890585112
 21
-269.6130430841904
 31
0.0
  0
LINE
  5
3725
330
1E
100
AcDbEntity
  8
LOGO
 62
     4
100
AcDbLine
 10
208.3160931309095
 20
-269.6130430841904
 30
0.0
 11
188.3189890585112
 21
-269.6130430841904
 31
0.0
  0
LINE
  5
3726
330
1E
100
AcDbEntity
  8
LOGO
 62
     4
100
AcDbLine
 10
213.3543529777254
 20
-245.1165905955025
 30
0.0
 11
197.9778611028056
 21
-245.1165905955025
 31
0.0
  0
LINE
  5
3727
330
1E
100
AcDbEntity
  8
LOGO
 62
     4
100
AcDbLine
 10
213.3543529777254
 20
-254.1152874280815
 30
0.0
 11
197.9778611028056
 21
-254.1152874280815
 31
0.0
  0
LINE
  5
3728
330
1E
100
AcDbEntity
  8
LOGO
 62
     4
100
AcDbLine
 10
197.9778611028056
 20
-245.1165905955025
 30
0.0
 11
197.9778611028056
 21
-254.1152874280815
 31
0.0
  0
LINE
  5
3729
330
1E
100
AcDbEntity
  8
LOGO
 62
     4
100
AcDbLine
 10
213.3543529777254
 20
-245.1165905955025
 30
0.0
 11
213.3543529777254
 21
-254.1152874280815
 31
0.0
  0
LINE
  5
372A
330
1E
100
AcDbEntity
  8
LOGO
 62
     4
100
AcDbLine
 10
204.8917264449521
 20
-254.1152874280815
 30
0.0
 11
204.8917264449521
 21
-258.6146358443707
 31
0.0
  0
TEXT
  5
372B
330
1E
100
AcDbEntity
  8
LOGO
  6
Continuous
100
AcDbText
 10
201.4422427681094
 20
-252.2368226203741
 30
0.0
 40
5.249999999999999
  1
20
  7
CHINESET
100
AcDbText
  0
LINE
  5
372C
330
1E
100
AcDbEntity
  8
LOGO
 62
     4
100
AcDbLine
 10
208.3160931309095
 20
-258.6146358443707
 30
0.0
 11
188.3189890585112
 21
-258.6146358443707
 31
0.0
  0
LINE
  5
372D
330
1E
100
AcDbEntity
  8
LOGO
  6
Continuous
100
AcDbLine
 10
214.6343639327319
 20
-249.647813818103
 30
0.0
 11
218.6078601061419
 21
-249.647813818103
 31
0.0
  0
LINE
  5
372E
330
1E
100
AcDbEntity
  8
LOGO
 62
     4
100
AcDbLine
 10
228.7901064921215
 20
-258.6146358443707
 30
0.0
 11
228.7901064921215
 21
-269.6130430841904
 31
0.0
  0
LINE
  5
372F
330
1E
100
AcDbEntity
  8
LOGO
 62
     4
100
AcDbLine
 10
212.4992772644898
 20
-258.6146358443707
 30
0.0
 11
212.4992772644898
 21
-269.6130430841904
 31
0.0
  0
LINE
  5
3730
330
1E
100
AcDbEntity
  8
LOGO
 62
     4
100
AcDbLine
 10
228.7901064921215
 20
-269.6130430841904
 30
0.0
 11
212.4992772644898
 21
-269.6130430841904
 31
0.0
  0
LINE
  5
3731
330
1E
100
AcDbEntity
  8
LOGO
 62
     4
100
AcDbLine
 10
229.4356522312046
 20
-245.1165905955025
 30
0.0
 11
219.8612886933688
 21
-245.1165905955025
 31
0.0
  0
LINE
  5
3732
330
1E
100
AcDbEntity
  8
LOGO
 62
     4
100
AcDbLine
 10
229.4356522312046
 20
-254.1152874280815
 30
0.0
 11
219.8612886933688
 21
-254.1152874280815
 31
0.0
  0
LINE
  5
3733
330
1E
100
AcDbEntity
  8
LOGO
 62
     4
100
AcDbLine
 10
219.8612886933688
 20
-245.1165905955025
 30
0.0
 11
219.8612886933688
 21
-254.1152874280815
 31
0.0
  0
LINE
  5
3734
330
1E
100
AcDbEntity
  8
LOGO
 62
     4
100
AcDbLine
 10
229.4356522312046
 20
-245.1165905955025
 30
0.0
 11
229.4356522312046
 21
-254.1152874280815
 31
0.0
  0
LINE
  5
3735
330
1E
100
AcDbEntity
  8
LOGO
 62
     4
100
AcDbLine
 10
224.6484704622867
 20
-254.1152874280815
 30
0.0
 11
224.6484704622867
 21
-258.6146358443707
 31
0.0
  0
TEXT
  5
3736
330
1E
100
AcDbEntity
  8
LOGO
  6
Continuous
100
AcDbText
 10
223.0883061730916
 20
-252.2368226203741
 30
0.0
 40
5.249999999999999
  1
*
  7
CHINESET
100
AcDbText
  0
LINE
  5
3737
330
1E
100
AcDbEntity
  8
LOGO
 62
     4
100
AcDbLine
 10
228.7901064921215
 20
-258.6146358443707
 30
0.0
 11
212.4992772644898
 21
-258.6146358443707
 31
0.0
  0
TEXT
  5
3738
330
1E
100
AcDbEntity
  8
LOGO
  6
Continuous
100
AcDbText
 10
158.8388754572892
 20
-268.0606412249542
 30
196.5865886400747
 40
2.249999999999999
  1
Acting type
 41
0.8
  7
CHINESET
100
AcDbText
  0
TEXT
  5
3739
330
1E
100
AcDbEntity
  8
LOGO
100
AcDbText
 10
158.8176796780055
 20
-263.8896261345631
 30
196.5865886400747
 40
3.75
  1
作動型式
  7
CHINESET
100
AcDbText
  0
TEXT
  5
373A
330
1E
100
AcDbEntity
  8
LOGO
  6
Continuous
100
AcDbText
 10
192.5075650582996
 20
-268.0606412249542
 30
196.5865886400747
 40
2.249999999999999
  1
Tube I.D.
 41
0.8
  7
CHINESET
100
AcDbText
  0
TEXT
  5
373B
330
1E
100
AcDbEntity
  8
LOGO
100
AcDbText
 10
193.4147892997629
 20
-263.8896261345631
 30
196.5865886400747
 40
3.75
  1
內徑
  7
CHINESET
100
AcDbText
  0
TEXT
  5
373C
330
1E
100
AcDbEntity
  8
LOGO
  6
Continuous
100
AcDbText
 10
216.7927380669141
 20
-268.0606412249542
 30
196.5865886400747
 40
2.249999999999999
  1
Stroke
 41
0.8
  7
CHINESET
100
AcDbText
  0
TEXT
  5
373D
330
1E
100
AcDbEntity
  8
LOGO
100
AcDbText
 10
216.6367304632846
 20
-263.8896261345631
 30
196.5865886400747
 40
3.75
  1
行程
  7
CHINESET
100
AcDbText
  0
TEXT
  5
374A
330
1E
100
AcDbEntity
  8
LOGO
100
AcDbText
 10
83.16820900263286
 20
-270.516924027358
 30
0.0
 40
2.999999999999999
  1
10701120
 41
0.7
  7
CHINESET
 72
     1
 11
90.26820900263286
 21
-270.516924027358
 31
0.0
100
AcDbText
  0
LINE
  5
374B
330
1E
100
AcDbEntity
  8
LOGO
 62
     4
100
AcDbLine
 10
99.578405615775
 20
-266.1135498715199
 30
0.0
 11
99.57840561577635
 21
-272.1126810932397
 31
0.0
  0
LINE
  5
374C
330
1E
100
AcDbEntity
  8
LOGO
 62
     4
100
AcDbLine
 10
99.578405615775
 20
-266.1135498715199
 30
0.0
 11
81.57840561577639
 21
-266.1135498715199
 31
0.0
  0
LINE
  5
374D
330
1E
100
AcDbEntity
  8
LOGO
  6
AM_ISO08W050X2
 48
0.3
100
AcDbLine
 10
64.73452541476811
 20
-251.1093057244298
 30
0.0
 11
69.53621948847291
 21
-251.1093057244298
 31
0.0
1001
GENIUS_GENOREF_13
1005
3752
  0
LINE
  5
374E
330
1E
100
AcDbEntity
  8
LOGO
  6
AM_ISO08W050X2
 48
0.3
100
AcDbLine
 10
67.13537245162054
 20
-253.5101527612821
 30
0.0
 11
67.13537245162054
 21
-248.7084586875774
 31
0.0
1001
GENIUS_GENOREF_13
1005
3751
  0
LINE
  5
374F
330
1E
100
AcDbEntity
  8
LOGO
  6
CENTER
 48
0.5
100
AcDbLine
 10
72.18339270229495
 20
-251.1093057244298
 30
0.0
 11
78.62969614435681
 21
-251.1093057244298
 31
0.0
1001
GENIUS_GENOREF_13
1005
3750
  0
POINT
  5
3750
330
1E
100
AcDbEntity
  8
0
 60
     1
100
AcDbPoint
 10
-1749.678269652932
 20
-1204.551850519228
 30
0.0
1001
GENIUS_GENOBJ-N-CRS_13
1002
{
1000
OWNER
1000
GEN
1002
}
1001
GENIUS_GENOLIS_13
1002
{
1000
ENT
1005
0
1005
0
1005
0
1005
374F
1002
}
1001
GENIUS_GENOENT_13
1002
{
1000
MYREF
1005
3750
1002
}
1002
{
1000
GRP
1005
0
1002
}
1001
GENIUS_GENODEF_13
1002
{
1000
HIER
1070
    10
1002
}
1002
{
1000
MANEDIT
1070
     1
1002
}
1002
{
1000
NOSEL
1070
     0
1002
}
1002
{
1000
BEHIND
1070
     0
1002
}
1002
{
1000
OTHER
1070
     0
1002
}
1002
{
1000
REACTOR
1002
}
  0
POINT
  5
3751
330
1E
100
AcDbEntity
  8
0
 60
     1
100
AcDbPoint
 10
-1761.002854875787
 20
-1195.676264040592
 30
0.0
1001
GENIUS_GENOBJ-N-CRS_13
1002
{
1000
OWNER
1000
GEN
1002
}
1001
GENIUS_GENOLIS_13
1002
{
1000
ENT
1005
0
1005
0
1005
0
1005
374E
1002
}
1001
GENIUS_GENOENT_13
1002
{
1000
MYREF
1005
3751
1002
}
1002
{
1000
GRP
1005
0
1002
}
1001
GENIUS_GENODEF_13
1002
{
1000
HIER
1070
    10
1002
}
1002
{
1000
MANEDIT
1070
     1
1002
}
1002
{
1000
NOSEL
1070
     0
1002
}
1002
{
1000
BEHIND
1070
     0
1002
}
1002
{
1000
OTHER
1070
     0
1002
}
1002
{
1000
REACTOR
1002
}
  0
POINT
  5
3752
330
1E
100
AcDbEntity
  8
0
 60
     1
100
AcDbPoint
 10
-1754.64418117795
 20
-1204.551850519228
 30
0.0
1001
GENIUS_GENOBJ-N-CRS_13
1002
{
1000
OWNER
1000
GEN
1002
}
1001
GENIUS_GENOLIS_13
1002
{
1000
ENT
1005
0
1005
0
1005
0
1005
374D
1002
}
1001
GENIUS_GENOENT_13
1002
{
1000
MYREF
1005
3752
1002
}
1002
{
1000
GRP
1005
0
1002
}
1001
GENIUS_GENODEF_13
1002
{
1000
HIER
1070
    10
1002
}
1002
{
1000
MANEDIT
1070
     1
1002
}
1002
{
1000
NOSEL
1070
     0
1002
}
1002
{
1000
BEHIND
1070
     0
1002
}
1002
{
1000
OTHER
1070
     0
1002
}
1002
{
1000
REACTOR
1002
}
  0
TEXT
  5
3808
330
1E
100
AcDbEntity
  8
0
100
AcDbText
 10
33.89343382212201
 20
122.1993359444504
 30
0.0
 40
6.0
  1
MCMBRA
  7
DAYUS
100
AcDbText
  0
TEXT
  5
380A
330
1E
100
AcDbEntity
  8
0
100
AcDbText
 10
33.89343382212201
 20
-71.02314666761685
 30
0.0
 40
6.0
  1
MCMBRB
  7
DAYUS
100
AcDbText
  0
LINE
  5
3B49
330
1E
100
AcDbEntity
  8
LOGO
 62
     4
100
AcDbLine
 10
15.58796217686222
 20
-50.86485303894146
 30
0.0
 11
315.5879621768622
 21
-50.86485303894146
 31
0.0
  0
INSERT
  5
3B5E
330
1E
100
AcDbEntity
  8
0
100
AcDbBlockReference
  2
A$C1F6E6265
 10
187.7014387467511
 20
30.97627207419364
 30
0.0
 41
1.199999999999999
 42
1.199999999999999
 43
1.199999999999999
  0
LINE
  5
3B5F
330
1E
100
AcDbEntity
  8
AM_VIS
  6
PHANTOM2
 62
     2
100
AcDbLine
 10
187.7014393037989
 20
53.82039688268855
 30
0.0
 11
187.7014393037989
 21
83.36090645205034
 31
0.0
1001
GENIUS_GENOBJ-N-CEN_13
1002
{
1000
OWNER
1000
GEN
1002
}
1001
GENIUS_GENODEF_13
1002
{
1000
HIER
1070
     0
1002
}
1002
{
1000
MANEDIT
1070
     0
1002
}
1002
{
1000
NOSEL
1070
     0
1002
}
1002
{
1000
BEHIND
1070
     0
1002
}
1002
{
1000
OTHER
1070
     0
1002
}
1002
{
1000
REACTOR
1002
}
1001
GENIUS_GENCEN_19
1002
{
1040
3.0
1002
}
  0
LINE
  5
3B60
330
1E
100
AcDbEntity
  8
AM_VIS
  6
PHANTOM2
 62
     2
100
AcDbLine
 10
187.7014393037989
 20
-3.970768829406551
 30
0.0
 11
187.7014393037989
 21
34.30945446035912
 31
0.0
1001
GENIUS_GENOBJ-N-CEN_13
1002
{
1000
OWNER
1000
GEN
1002
}
1001
GENIUS_GENODEF_13
1002
{
1000
HIER
1070
     0
1002
}
1002
{
1000
MANEDIT
1070
     0
1002
}
1002
{
1000
NOSEL
1070
     0
1002
}
1002
{
1000
BEHIND
1070
     0
1002
}
1002
{
1000
OTHER
1070
     0
1002
}
1002
{
1000
REACTOR
1002
}
1001
GENIUS_GENCEN_19
1002
{
1040
3.0
1002
}
  0
INSERT
  5
3B61
330
1E
100
AcDbEntity
  8
0
100
AcDbBlockReference
  2
A$C1F6E6265
 10
187.7014387467511
 20
-162.2462105378737
 30
0.0
 41
1.199999999999999
 42
1.199999999999999
 43
1.199999999999999
  0
LINE
  5
3B62
330
1E
100
AcDbEntity
  8
AM_VIS
  6
PHANTOM2
 62
     2
100
AcDbLine
 10
187.7014393037989
 20
-139.4020857293788
 30
0.0
 11
187.7014393037989
 21
-109.861576160017
 31
0.0
1001
GENIUS_GENOBJ-N-CEN_13
1002
{
1000
OWNER
1000
GEN
1002
}
1001
GENIUS_GENODEF_13
1002
{
1000
HIER
1070
     0
1002
}
1002
{
1000
MANEDIT
1070
     0
1002
}
1002
{
1000
NOSEL
1070
     0
1002
}
1002
{
1000
BEHIND
1070
     0
1002
}
1002
{
1000
OTHER
1070
     0
1002
}
1002
{
1000
REACTOR
1002
}
1001
GENIUS_GENCEN_19
1002
{
1040
3.0
1002
}
  0
LINE
  5
3B63
330
1E
100
AcDbEntity
  8
AM_VIS
  6
PHANTOM2
 62
     2
100
AcDbLine
 10
187.7014393037989
 20
-197.1932514414739
 30
0.0
 11
187.7014393037989
 21
-158.9130281517082
 31
0.0
1001
GENIUS_GENOBJ-N-CEN_13
1002
{
1000
OWNER
1000
GEN
1002
}
1001
GENIUS_GENODEF_13
1002
{
1000
HIER
1070
     0
1002
}
1002
{
1000
MANEDIT
1070
     0
1002
}
1002
{
1000
NOSEL
1070
     0
1002
}
1002
{
1000
BEHIND
1070
     0
1002
}
1002
{
1000
OTHER
1070
     0
1002
}
1002
{
1000
REACTOR
1002
}
1001
GENIUS_GENCEN_19
1002
{
1040
3.0
1002
}
  0
LINE
  5
3B6C
330
1E
100
AcDbEntity
  8
LOGO
 62
     4
100
AcDbLine
 10
181.8839742647455
 20
-256.3649616362261
 30
0.0
 11
166.5307673695806
 21
-256.3649616362261
 31
0.0
  0
LINE
  5
3B6D
330
1E
100
AcDbEntity
  8
LOGO
 62
     4
100
AcDbLine
 10
166.5307673695806
 20
-258.6146358443707
 30
0.0
 11
166.5307673695806
 21
-256.3649616362261
 31
0.0
  0
ENDSEC
  0
SECTION
  2
OBJECTS
  0
DICTIONARY
  5
C
330
0
100
AcDbDictionary
281
     1
  3
ACAD_COLOR
350
2E5F
  3
ACAD_GROUP
350
D
  3
ACAD_IMAGE_DICT
350
3CB
  3
ACAD_LAYOUT
350
19
  3
ACAD_MATERIAL
350
2E5E
  3
ACAD_MLINESTYLE
350
16
  3
ACAD_PLOTSETTINGS
350
18
  3
ACAD_PLOTSTYLENAME
350
B31
  3
ACAD_TABLESTYLE
350
2E60
  3
ACDBHEADERROUNDTRIPXREC
350
3BDB
  3
AcDbVariableDictionary
350
BD2
  3
ACMDICTIONARY
350
7C2
  3
AMG
350
7A8
  3
AMGSNAPSETTINGS
350
895
  3
DWGPROPS
350
3BDA
1001
ACAD
1000
TREAT_AS_HARD
1070
     0
  0
DICTIONARY
  5
361C
330
2
100
AcDbDictionary
280
     1
281
     1
  3
ACAD_LAYERSTATES
360
361D
  0
DICTIONARY
  5
708
330
1E
100
AcDbDictionary
280
     1
281
     1
  3
ACAD_INDEX
360
2E00
  3
ACAD_LAYOUTSELFREF
360
2E38
1001
ACAD
1000
TREAT_AS_HARD
1070
     1
  0
DICTIONARY
  5
70A
330
1A
100
AcDbDictionary
280
     1
281
     1
  3
ACAD_LAYOUTSELFREF
360
2E37
1001
ACAD
1000
TREAT_AS_HARD
1070
     1
  0
DICTIONARY
  5
3B4C
330
3B4B
100
AcDbDictionary
280
     1
281
     1
  3
ACAD_SORTENTS
360
3B4D
  0
DICTIONARY
  5
2E5F
102
{ACAD_REACTORS
330
C
102
}
330
C
100
AcDbDictionary
281
     1
  0
DICTIONARY
  5
D
102
{ACAD_REACTORS
330
C
102
}
330
C
100
AcDbDictionary
281
     1
1001
ACAD
1000
TREAT_AS_HARD
1070
     0
  0
DICTIONARY
  5
3CB
102
{ACAD_REACTORS
330
C
102
}
330
C
100
AcDbDictionary
281
     1
  3
PLOT
350
3CC
1001
ACAD
1000
TREAT_AS_HARD
1070
     0
  0
DICTIONARY
  5
19
102
{ACAD_REACTORS
330
C
102
}
330
C
100
AcDbDictionary
281
     1
  3
Layout1
350
B34
  3
Model
350
B33
1001
ACAD
1000
TREAT_AS_HARD
1070
     0
  0
DICTIONARY
  5
2E5E
102
{ACAD_REACTORS
330
C
102
}
330
C
100
AcDbDictionary
281
     1
  0
DICTIONARY
  5
16
102
{ACAD_REACTORS
330
C
102
}
330
C
100
AcDbDictionary
281
     1
  3
STANDARD
350
17
1001
ACAD
1000
TREAT_AS_HARD
1070
     0
  0
DICTIONARY
  5
18
102
{ACAD_REACTORS
330
C
102
}
330
C
100
AcDbDictionary
281
     1
1001
ACAD
1000
TREAT_AS_HARD
1070
     0
  0
ACDBDICTIONARYWDFLT
  5
B31
102
{ACAD_REACTORS
330
C
102
}
330
C
100
AcDbDictionary
281
     1
  3
Normal
350
B32
100
AcDbDictionaryWithDefault
340
B32
  0
DICTIONARY
  5
2E60
102
{ACAD_REACTORS
330
C
102
}
330
C
100
AcDbDictionary
281
     1
  3
Standard
350
2E61
  0
DICTIONARY
  5
3BDB
102
{ACAD_REACTORS
330
C
102
}
330
C
100
AcDbDictionary
281
     1
  0
DICTIONARY
  5
BD2
102
{ACAD_REACTORS
330
C
102
}
330
C
100
AcDbDictionary
281
     1
  3
CTABLESTYLE
350
2EDF
  3
DIMASSOC
350
BD4
  3
INDEXCTL
350
BD3
  3
PROJECTNAME
350
3BD8
  0
DICTIONARY
  5
7C2
102
{ACAD_REACTORS
330
C
102
}
330
C
100
AcDbDictionary
281
     1
  3
ACMSTDDICTIONARY
350
7C8
  3
AMDTSECTSYM_ARROWCOLOR
350
2ED3
1001
ACAD
1000
TREAT_AS_HARD
1070
     0
  0
DICTIONARY
  5
7A8
102
{ACAD_REACTORS
330
C
102
}
330
C
100
AcDbDictionary
281
     1
1001
ACAD
1000
TREAT_AS_HARD
1070
     0
  0
DICTIONARY
  5
895
102
{ACAD_REACTORS
330
C
102
}
330
C
100
AcDbDictionary
281
     1
1001
ACAD
1000
TREAT_AS_HARD
1070
     0
  0
XRECORD
  5
3BDA
102
{ACAD_REACTORS
330
C
102
}
330
C
100
AcDbXrecord
280
     1
  1
DWGPROPS COOKIE
  2

  3

  4

  6

  7

  8

  9

300
AmdtFileType=84
301
=
302
=
303
=
304
=
305
=
306
=
307
=
308
=
309
=
 40
0.3658394907407407
 41
2450294.602131481
 42
2454117.699053993
  1

 90
        1
  0
DICTIONARY
  5
361D
102
{ACAD_REACTORS
330
361C
102
}
330
361C
100
AcDbDictionary
281
     1
  0
DICTIONARY
  5
2E00
102
{ACAD_REACTORS
330
708
102
}
330
708
100
AcDbDictionary
281
     1
  3
*A1
350
2E01
  0
XRECORD
  5
2E38
102
{ACAD_REACTORS
330
708
102
}
330
708
100
AcDbXrecord
280
     1
340
1E
  0
XRECORD
  5
2E37
102
{ACAD_REACTORS
330
70A
102
}
330
70A
100
AcDbXrecord
280
     1
340
1A
  0
SORTENTSTABLE
  5
3B4D
102
{ACAD_REACTORS
330
3B4C
102
}
330
3B4C
100
AcDbSortentsTable
330
3B4B
  0
IMAGEDEF
  5
3CC
102
{ACAD_REACTORS
330
3CB
102
}
330
3CB
100
AcDbRasterImageDef
 90
        0
  1
D:\CHI\plot.bmp
 10
694.0
 20
470.0
 11
0.264550269889837
 21
0.264550269889837
280
     1
281
     2
  0
LAYOUT
  5
B34
102
{ACAD_XDICTIONARY
360
3BDE
102
}
102
{ACAD_REACTORS
330
19
102
}
330
19
100
AcDbPlotSettings
  1

  2
自動 PC-WM51 上的 Epson LQ-1070C+
  4

  6

 40
0.0
 41
0.0
 42
0.0
 43
0.0
 44
0.0
 45
0.0
 46
0.0
 47
0.0
 48
0.0
 49
0.0
140
0.0
141
0.0
142
1.0
143
1.0
 70
   688
 72
     0
 73
     0
 74
     5
  7
彩色出圖.ctb
 75
    16
147
1.0
148
0.0
149
0.0
100
AcDbLayout
  1
Layout1
 70
     0
 71
     1
 10
0.0
 20
0.0
 11
12.0
 21
9.0
 12
101.9887994410416
 22
50.0
 32
155.412184630939
 14
1.000000000000000E+20
 24
1.000000000000000E+20
 34
1.000000000000000E+20
 15
-1.000000000000000E+20
 25
-1.000000000000000E+20
 35
-1.000000000000000E+20
146
0.0
 13
0.0
 23
0.0
 33
0.0
 16
1.0
 26
0.0
 36
0.0
 17
0.0
 27
1.0
 37
0.0
 76
     0
330
1A
  0
LAYOUT
  5
B33
102
{ACAD_XDICTIONARY
360
3BDC
102
}
102
{ACAD_REACTORS
330
19
102
}
330
19
100
AcDbPlotSettings
  1

  2
none_device
  4
ISO_A4_(210.00_x_297.00_MM)
  6

 40
7.5
 41
20.0
 42
7.5
 43
20.0
 44
210.0
 45
297.0
 46
0.0
 47
0.0
 48
0.0
 49
0.0
140
0.0
141
0.0
142
1.0
143
2.60355238553161
 70
 11952
 72
     1
 73
     1
 74
     0
  7
彩色出圖.ctb
 75
     0
147
0.3840906008103284
148
168.9592821701961
149
273.7742854992572
100
AcDbLayout
  1
Model
 70
     1
 71
     0
 10
0.0
 20
0.0
 11
12.0
 21
9.0
 12
0.0
 22
0.0
 32
0.0
 14
0.0
 24
0.0
 34
0.0
 15
0.0
 25
0.0
 35
0.0
146
0.0
 13
0.0
 23
0.0
 33
0.0
 16
1.0
 26
0.0
 36
0.0
 17
0.0
 27
1.0
 37
0.0
 76
     0
330
1E
1001
ACAD_PSEXT
1000
無
1000
無
1000
不適用
1000
除非另選一新建的繪圖機規劃名稱，否則配置將不會出圖。
1070
     0
  0
MLINESTYLE
  5
17
102
{ACAD_REACTORS
330
16
102
}
330
16
100
AcDbMlineStyle
  2
STANDARD
 70
     0
  3

 62
   256
 51
90.0
 52
90.0
 71
     2
 49
0.5
 62
   256
  6
BYLAYER
 49
-0.5
 62
   256
  6
BYLAYER
  0
ACDBPLACEHOLDER
  5
B32
102
{ACAD_REACTORS
330
B31
102
}
330
B31
  0
TABLESTYLE
  5
2E61
102
{ACAD_REACTORS
330
2E60
102
}
330
2E60
100
AcDbTableStyle
  3
Standard
 70
     0
 71
     0
 40
1.5
 41
1.5
280
     0
281
     0
  7
STANDARD
140
4.5
170
     2
 62
     0
 63
     7
283
     0
274
    -2
284
     1
 64
     0
275
    -2
285
     1
 65
     0
276
    -2
286
     1
 66
     0
277
    -2
287
     1
 67
     0
278
    -2
288
     1
 68
     0
279
    -2
289
     1
 69
     0
  7
STANDARD
140
6.0
170
     5
 62
     0
 63
     7
283
     0
274
    -2
284
     1
 64
     0
275
    -2
285
     1
 65
     0
276
    -2
286
     1
 66
     0
277
    -2
287
     1
 67
     0
278
    -2
288
     1
 68
     0
279
    -2
289
     1
 69
     0
  7
STANDARD
140
4.5
170
     5
 62
     0
 63
     7
283
     0
274
    -2
284
     1
 64
     0
275
    -2
285
     1
 65
     0
276
    -2
286
     1
 66
     0
277
    -2
287
     1
 67
     0
278
    -2
288
     1
 68
     0
279
    -2
289
     1
 69
     0
  0
DICTIONARYVAR
  5
2EDF
102
{ACAD_REACTORS
330
BD2
102
}
330
BD2
100
DictionaryVariables
280
     0
  1
STANDARD
  0
DICTIONARYVAR
  5
BD4
102
{ACAD_REACTORS
330
BD2
102
}
330
BD2
100
DictionaryVariables
280
     0
  1
1
  0
DICTIONARYVAR
  5
BD3
102
{ACAD_REACTORS
330
BD2
102
}
330
BD2
100
DictionaryVariables
280
     0
  1
1
  0
DICTIONARYVAR
  5
3BD8
102
{ACAD_REACTORS
330
BD2
102
}
330
BD2
100
DictionaryVariables
280
     0
  1

  0
DICTIONARY
  5
7C8
102
{ACAD_REACTORS
330
7C2
102
}
330
7C2
100
AcDbDictionary
281
     1
1001
ACAD
1000
TREAT_AS_HARD
1070
     0
  0
XRECORD
  5
2ED3
102
{ACAD_REACTORS
330
7C2
102
}
330
7C2
100
AcDbXrecord
280
     1
 90
-1023410169
  0
LAYER_INDEX
  5
2E01
102
{ACAD_REACTORS
330
2E00
102
}
330
2E00
100
AcDbIndex
 40
2454117.699053993
100
AcDbLayerIndex
  8
0
360
3BD0
 90
        8
  8
DEFPOINTS
360
3BD1
 90
        0
  8
ASHADE
360
3BD2
 90
        9
  8
AM_7
360
3BD3
 90
       93
  8
AM_VIS
360
3BD4
 90
      526
  8
AM_4
360
3BD5
 90
        8
  8
AM_5
360
3BD6
 90
       49
  8
LOGO
360
3BD7
 90
      119
  0
DICTIONARY
  5
3BDE
330
B34
100
AcDbDictionary
280
     1
281
     1
  3
ACAD_XREC_ROUNDTRIP
360
3BDF
  0
DICTIONARY
  5
3BDC
330
B33
100
AcDbDictionary
280
     1
281
     1
  3
ACAD_XREC_ROUNDTRIP
360
3BDD
  0
IDBUFFER
  5
3BD0
330
0
100
AcDbIdBuffer
330
2EF1
330
3750
330
3751
330
3752
330
3808
330
380A
330
3B5E
330
3B61
  0
IDBUFFER
  5
3BD1
330
0
100
AcDbIdBuffer
  0
IDBUFFER
  5
3BD2
330
0
100
AcDbIdBuffer
330
51A
330
51B
330
51C
330
51D
330
51E
330
51F
330
520
330
521
330
528
  0
IDBUFFER
  5
3BD3
330
0
100
AcDbIdBuffer
330
31B2
330
31B4
330
31B5
330
31BA
330
31BD
330
31BE
330
31BF
330
31C0
330
31C2
330
31C3
330
31C9
330
31CA
330
31CE
330
31D0
330
31D1
330
31D2
330
31D3
330
31D6
330
31D8
330
31D9
330
31DA
330
31DB
330
328E
330
32A9
330
32AA
330
32AB
330
32AC
330
32AD
330
32CD
330
32DF
330
32E0
330
32E6
330
32E7
330
32E8
330
32E9
330
3327
330
3328
330
332A
330
332D
330
3331
330
3332
330
356B
330
3613
330
3614
330
3615
330
EEC
330
EED
330
F25
330
FA2
330
FB1
330
FB2
330
FB3
330
FB6
330
FB7
330
FB8
330
FB9
330
FBA
330
FBB
330
FBC
330
FBD
330
FD6
330
FD9
330
FDA
330
FDB
330
FDC
330
FDD
330
FE9
330
FFC
330
1016
330
1019
330
1020
330
1021
330
1022
330
267C
330
267D
330
267E
330
267F
330
2680
330
2681
330
2EED
330
2EEE
330
2EEF
330
2EF0
330
3196
330
3197
330
319E
330
319F
330
31A0
330
31A5
330
31AC
330
31AF
330
31B0
330
31B1
  0
IDBUFFER
  5
3BD4
330
0
100
AcDbIdBuffer
330
3307
330
3308
330
331C
330
331D
330
331E
330
331F
330
3320
330
3321
330
3322
330
3323
330
3325
330
3326
330
332B
330
332C
330
332E
330
332F
330
3330
330
3333
330
3334
330
3335
330
3336
330
3337
330
3338
330
3339
330
3564
330
3566
330
3B5F
330
3B60
330
3B62
330
3B63
330
EEE
330
EEF
330
EF0
330
EF1
330
EFB
330
EFC
330
EFD
330
EFE
330
EFF
330
F00
330
F01
330
F02
330
F03
330
F04
330
F05
330
F08
330
F0B
330
F0E
330
F10
330
F11
330
F12
330
F13
330
F14
330
F15
330
F16
330
F17
330
F18
330
F19
330
F1B
330
F1C
330
F1D
330
F1E
330
F1F
330
F20
330
F27
330
F28
330
F2A
330
F2D
330
F2E
330
F2F
330
F30
330
F31
330
F32
330
F33
330
F34
330
F35
330
F36
330
F39
330
F3A
330
F3B
330
F3C
330
F3D
330
F3E
330
F3F
330
F40
330
F41
330
F42
330
F43
330
F44
330
F45
330
F46
330
F47
330
F48
330
F49
330
F4A
330
F4B
330
F4C
330
F4E
330
F50
330
F51
330
F52
330
F53
330
F54
330
F55
330
F56
330
F57
330
F58
330
F59
330
F5A
330
F5B
330
F5C
330
F5D
330
F5E
330
F5F
330
F60
330
F61
330
F62
330
F63
330
F64
330
F65
330
F66
330
F67
330
F68
330
F69
330
F6A
330
F6B
330
F6C
330
F6D
330
F6F
330
F70
330
F71
330
F72
330
F73
330
F74
330
F75
330
F76
330
F77
330
F78
330
F79
330
F7A
330
F7B
330
F7C
330
F7D
330
F7E
330
F7F
330
F80
330
F81
330
F82
330
F83
330
F84
330
F85
330
F86
330
F87
330
F88
330
F89
330
F8A
330
F8B
330
F8C
330
F8D
330
F8E
330
F8F
330
F90
330
F91
330
F92
330
F93
330
F94
330
F95
330
F96
330
F97
330
F98
330
F99
330
F9A
330
F9B
330
F9C
330
F9D
330
FA9
330
FAB
330
FAC
330
FAD
330
FAE
330
FAF
330
FB0
330
FB4
330
FB5
330
FBE
330
FBF
330
FC0
330
FC1
330
FC2
330
FC3
330
FC4
330
FC5
330
FC6
330
FC7
330
FC8
330
FC9
330
FCA
330
FCB
330
FCC
330
FCD
330
FCE
330
FCF
330
FD0
330
FD1
330
FD2
330
FD3
330
FD4
330
FD5
330
FD7
330
FD8
330
FDE
330
FDF
330
FE0
330
FEB
330
FEC
330
FED
330
FF0
330
FF1
330
FF2
330
FF4
330
FF5
330
FF6
330
FF7
330
FFD
330
FFE
330
FFF
330
1001
330
1002
330
1003
330
1004
330
1005
330
1006
330
1007
330
1008
330
1009
330
100A
330
100E
330
100F
330
1010
330
1011
330
1012
330
1013
330
1014
330
1015
330
1017
330
1018
330
101A
330
101B
330
101C
330
101D
330
101E
330
101F
330
1023
330
1024
330
1025
330
1026
330
1027
330
1028
330
1029
330
102A
330
102B
330
102C
330
102D
330
102E
330
102F
330
1030
330
13D2
330
13D3
330
1B26
330
1B27
330
1B28
330
1B29
330
1B2A
330
1B2B
330
1B2C
330
1B2D
330
266B
330
266C
330
266D
330
266E
330
266F
330
2670
330
2671
330
2672
330
2673
330
2674
330
2675
330
2676
330
2677
330
2678
330
2679
330
267A
330
267B
330
2D34
330
2D35
330
3198
330
3199
330
319A
330
319B
330
319C
330
319D
330
31A1
330
31A2
330
31A4
330
31A6
330
31A7
330
31A8
330
31A9
330
31AA
330
31AB
330
31AE
330
31B3
330
31B6
330
31B7
330
31B8
330
31B9
330
31BC
330
31C1
330
31C4
330
31C5
330
31C6
330
31C7
330
31C8
330
31CB
330
31CC
330
31CD
330
31D4
330
31D5
330
31DC
330
31DD
330
31DE
330
31DF
330
31E0
330
31E1
330
31E2
330
31E3
330
31E4
330
31E5
330
31E6
330
31E7
330
31E8
330
31E9
330
31EA
330
31EB
330
31EC
330
31ED
330
31EE
330
31EF
330
31F0
330
31F1
330
31F2
330
31F5
330
31F6
330
31F7
330
31F8
330
31F9
330
31FA
330
31FB
330
31FC
330
31FD
330
31FE
330
31FF
330
3200
330
3201
330
3202
330
3203
330
3204
330
3205
330
3206
330
3207
330
3208
330
3209
330
320A
330
320B
330
320C
330
320D
330
320E
330
320F
330
3210
330
3211
330
3212
330
3213
330
3214
330
3215
330
3216
330
3217
330
3218
330
3219
330
321A
330
321B
330
321C
330
321D
330
321E
330
321F
330
3220
330
3221
330
3222
330
3223
330
3224
330
3225
330
3226
330
3227
330
3228
330
3229
330
322A
330
322B
330
322C
330
322D
330
322E
330
322F
330
3230
330
3231
330
3232
330
3233
330
3234
330
3235
330
3236
330
3237
330
3238
330
3239
330
323A
330
323B
330
323C
330
323D
330
323E
330
323F
330
3240
330
3241
330
3242
330
3243
330
3244
330
3245
330
3246
330
3248
330
324B
330
324C
330
324D
330
3250
330
3251
330
3252
330
3253
330
3254
330
3255
330
325F
330
3260
330
3261
330
326D
330
326F
330
3270
330
3271
330
3275
330
3276
330
3277
330
3280
330
3281
330
3283
330
3284
330
3285
330
3286
330
328B
330
328C
330
328D
330
3290
330
3291
330
3294
330
329D
330
329E
330
329F
330
32A0
330
32A7
330
32A8
330
32AF
330
32B1
330
32B2
330
32B3
330
32B4
330
32B5
330
32B6
330
32B7
330
32B9
330
32BA
330
32BB
330
32BC
330
32BD
330
32C0
330
32C1
330
32C3
330
32C4
330
32C5
330
32C6
330
32C7
330
32C8
330
32C9
330
32CA
330
32CF
330
32D0
330
32D1
330
32D3
330
32D4
330
32D5
330
32D8
330
32D9
330
32DA
330
32DB
330
32DC
330
32DD
330
32DE
330
32E1
330
32E2
330
32E3
330
32E4
330
32E5
330
32EB
330
32EC
330
32ED
330
32F6
330
32F7
330
32F8
330
32FF
330
3300
330
3301
330
3302
330
3303
330
3304
330
3305
330
3306
  0
IDBUFFER
  5
3BD5
330
0
100
AcDbIdBuffer
330
F26
330
FEA
330
31D7
330
3563
330
3565
330
3567
330
3568
330
3569
  0
IDBUFFER
  5
3BD6
330
0
100
AcDbIdBuffer
330
35F5
330
121C
330
1251
330
12C5
330
12E9
330
136D
330
1391
330
13B9
330
1479
330
149D
330
14C1
330
14E5
330
1509
330
1668
330
1699
330
1AE3
330
1DA4
330
2419
330
241A
330
24AF
330
24B0
330
24B3
330
26B8
330
26ED
330
2BB2
330
2BCC
330
2BCD
330
3309
330
330A
330
330B
330
330C
330
330D
330
330E
330
330F
330
3310
330
3311
330
3312
330
3313
330
3314
330
3315
330
3316
330
3317
330
3318
330
3319
330
3324
330
3329
330
333A
330
333B
330
333C
  0
IDBUFFER
  5
3BD7
330
0
100
AcDbIdBuffer
330
374C
330
374D
330
374E
330
374F
330
3B49
330
3B6C
330
3B6D
330
36BB
330
36BC
330
36BD
330
36BE
330
36BF
330
36C0
330
36C1
330
36C2
330
36C3
330
36C4
330
36C5
330
36C6
330
36C7
330
36C8
330
36C9
330
36CA
330
36CB
330
36CC
330
36CD
330
36CE
330
36CF
330
36D0
330
36D1
330
36D2
330
36D3
330
36D4
330
36D5
330
36D6
330
36D7
330
36D8
330
36D9
330
36DD
330
36E1
330
36E2
330
36E6
330
36E7
330
36E8
330
36E9
330
36EA
330
36EB
330
36EC
330
36ED
330
36F1
330
36F5
330
36F9
330
36FA
330
36FB
330
36FF
330
3700
330
3701
330
3702
330
3703
330
3704
330
3705
330
3706
330
3707
330
3708
330
3709
330
370A
330
370B
330
370C
330
370D
330
370E
330
370F
330
3710
330
3711
330
3712
330
3713
330
3714
330
3715
330
3716
330
3717
330
3718
330
3719
330
371A
330
371B
330
371C
330
371D
330
371E
330
371F
330
3720
330
3721
330
3722
330
3723
330
3724
330
3725
330
3726
330
3727
330
3728
330
3729
330
372A
330
372B
330
372C
330
372D
330
372E
330
372F
330
3730
330
3731
330
3732
330
3733
330
3734
330
3735
330
3736
330
3737
330
3738
330
3739
330
373A
330
373B
330
373C
330
373D
330
374A
330
374B
  0
XRECORD
  5
3BDF
102
{ACAD_REACTORS
330
3BDE
102
}
330
3BDE
100
AcDbXrecord
280
     1
102
SHADEPLOT
 70
     0
102
SHADEPLOTRESLEVEL
 70
     2
102
SHADEPLOTCUSTOMDPI
 70
   300
  0
XRECORD
  5
3BDD
102
{ACAD_REACTORS
330
3BDC
102
}
330
3BDC
100
AcDbXrecord
280
     1
102
SHADEPLOT
 70
     0
102
SHADEPLOTRESLEVEL
 70
     2
102
SHADEPLOTCUSTOMDPI
 70
   300
  0
ENDSEC
  0
EOF
